  0
SECTION
  2
HEADER
  9
$ACADVER
  1
AC1015
  9
$ACADMAINTVER
 70
     6
  9
$DWGCODEPAGE
  3
DOS932
  9
$INSBASE
 10
0.0
 20
0.0
 30
0.0
  9
$EXTMIN
 10
0.0
 20
0.0
 30
0.0
  9
$EXTMAX
 10
210.0
 20
297.0
 30
0.0
  9
$LIMMIN
 10
0.0
 20
0.0
  9
$LIMMAX
 10
0.0
 20
0.0
  9
$ORTHOMODE
 70
     0
  9
$REGENMODE
 70
     1
  9
$FILLMODE
 70
     1
  9
$QTEXTMODE
 70
     0
  9
$MIRRTEXT
 70
     1
  9
$LTSCALE
 40
1.0
  9
$ATTMODE
 70
     1
  9
$TEXTSIZE
 40
3.5
  9
$TRACEWID
 40
1.0
  9
$TEXTSTYLE
  7
Standard
  9
$CLAYER
  8
0
  9
$CELTYPE
  6
ByLayer
  9
$CECOLOR
 62
   256
  9
$CELTSCALE
 40
1.0
  9
$DISPSILH
 70
     0
  9
$DIMSCALE
 40
1.0
  9
$DIMASZ
 40
3.0
  9
$DIMEXO
 40
1.0
  9
$DIMDLI
 40
3.75
  9
$DIMRND
 40
0.0
  9
$DIMDLE
 40
0.0
  9
$DIMEXE
 40
1.0
  9
$DIMTP
 40
0.0
  9
$DIMTM
 40
0.0
  9
$DIMTXT
 40
3.5
  9
$DIMCEN
 40
2.5
  9
$DIMTSZ
 40
0.0
  9
$DIMTOL
 70
     0
  9
$DIMLIM
 70
     0
  9
$DIMTIH
 70
     1
  9
$DIMTOH
 70
     1
  9
$DIMSE1
 70
     0
  9
$DIMSE2
 70
     0
  9
$DIMTAD
 70
     1
  9
$DIMZIN
 70
     1
  9
$DIMBLK
  1

  9
$DIMASO
 70
     1
  9
$DIMSHO
 70
     1
  9
$DIMPOST
  1

  9
$DIMAPOST
  1

  9
$DIMALT
 70
     0
  9
$DIMALTD
 70
     3
  9
$DIMALTF
 40
0.0393700787
  9
$DIMLFAC
 40
1.0
  9
$DIMTOFL
 70
     1
  9
$DIMTVP
 40
0.0
  9
$DIMTIX
 70
     0
  9
$DIMSOXD
 70
     0
  9
$DIMSAH
 70
     0
  9
$DIMBLK1
  1

  9
$DIMBLK2
  1

  9
$DIMSTYLE
  2
ISO-25
  9
$DIMCLRD
 70
     0
  9
$DIMCLRE
 70
     0
  9
$DIMCLRT
 70
     0
  9
$DIMTFAC
 40
1.0
  9
$DIMGAP
 40
1.524
  9
$DIMJUST
 70
     0
  9
$DIMSD1
 70
     0
  9
$DIMSD2
 70
     0
  9
$DIMTOLJ
 70
     0
  9
$DIMTZIN
 70
     1
  9
$DIMALTZ
 70
     0
  9
$DIMALTTZ
 70
     0
  9
$DIMUPT
 70
     0
  9
$DIMDEC
 70
     2
  9
$DIMTDEC
 70
     2
  9
$DIMALTU
 70
     2
  9
$DIMALTTD
 70
     3
  9
$DIMTXSTY
  7
Standard
  9
$DIMAUNIT
 70
     0
  9
$DIMADEC
 70
     0
  9
$DIMALTRND
 40
0.0
  9
$DIMAZIN
 70
     0
  9
$DIMDSEP
 70
    44
  9
$DIMATFIT
 70
     3
  9
$DIMFRAC
 70
     0
  9
$DIMLDRBLK
  1

  9
$DIMLUNIT
 70
     2
  9
$DIMLWD
 70
    -2
  9
$DIMLWE
 70
    -2
  9
$DIMTMOVE
 70
     0
  9
$LUNITS
 70
     2
  9
$LUPREC
 70
     1
  9
$SKETCHINC
 40
1.0
  9
$FILLETRAD
 40
10.0
  9
$AUNITS
 70
     0
  9
$AUPREC
 70
     0
  9
$MENU
  1
.
  9
$ELEVATION
 40
0.0
  9
$PELEVATION
 40
0.0
  9
$THICKNESS
 40
0.0
  9
$LIMCHECK
 70
     0
  9
$CHAMFERA
 40
10.0
  9
$CHAMFERB
 40
10.0
  9
$CHAMFERC
 40
20.0
  9
$CHAMFERD
 40
0.0
  9
$SKPOLY
 70
     0
  9
$TDCREATE
 40
2454323.596526505
  9
$TDUCREATE
 40
2454323.221526505
  9
$TDUPDATE
 40
2454323.596526516
  9
$TDUUPDATE
 40
2454323.221526516
  9
$TDINDWG
 40
0.0000000116
  9
$TDUSRTIMER
 40
0.0000000116
  9
$USRTIMER
 70
     1
  9
$ANGBASE
 50
0.0
  9
$ANGDIR
 70
     0
  9
$PDMODE
 70
     0
  9
$PDSIZE
 40
-1.0
  9
$PLINEWID
 40
0.0
  9
$SPLFRAME
 70
     0
  9
$SPLINETYPE
 70
     6
  9
$SPLINESEGS
 70
     8
  9
$HANDSEED
  5
4ED
  9
$SURFTAB1
 70
     6
  9
$SURFTAB2
 70
     6
  9
$SURFTYPE
 70
     6
  9
$SURFU
 70
     6
  9
$SURFV
 70
     6
  9
$UCSBASE
  2

  9
$UCSNAME
  2

  9
$UCSORG
 10
0.0
 20
0.0
 30
0.0
  9
$UCSXDIR
 10
1.0
 20
0.0
 30
0.0
  9
$UCSYDIR
 10
0.0
 20
1.0
 30
0.0
  9
$UCSORTHOREF
  2

  9
$UCSORTHOVIEW
 70
     0
  9
$UCSORGTOP
 10
0.0
 20
0.0
 30
0.0
  9
$UCSORGBOTTOM
 10
0.0
 20
0.0
 30
0.0
  9
$UCSORGLEFT
 10
0.0
 20
0.0
 30
0.0
  9
$UCSORGRIGHT
 10
0.0
 20
0.0
 30
0.0
  9
$UCSORGFRONT
 10
0.0
 20
0.0
 30
0.0
  9
$UCSORGBACK
 10
0.0
 20
0.0
 30
0.0
  9
$PUCSBASE
  2

  9
$PUCSNAME
  2

  9
$PUCSORG
 10
0.0
 20
0.0
 30
0.0
  9
$PUCSXDIR
 10
1.0
 20
0.0
 30
0.0
  9
$PUCSYDIR
 10
0.0
 20
1.0
 30
0.0
  9
$PUCSORTHOREF
  2

  9
$PUCSORTHOVIEW
 70
     0
  9
$PUCSORGTOP
 10
0.0
 20
0.0
 30
0.0
  9
$PUCSORGBOTTOM
 10
0.0
 20
0.0
 30
0.0
  9
$PUCSORGLEFT
 10
0.0
 20
0.0
 30
0.0
  9
$PUCSORGRIGHT
 10
0.0
 20
0.0
 30
0.0
  9
$PUCSORGFRONT
 10
0.0
 20
0.0
 30
0.0
  9
$PUCSORGBACK
 10
0.0
 20
0.0
 30
0.0
  9
$USERI1
 70
     0
  9
$USERI2
 70
     0
  9
$USERI3
 70
     0
  9
$USERI4
 70
     0
  9
$USERI5
 70
     0
  9
$USERR1
 40
0.0
  9
$USERR2
 40
0.0
  9
$USERR3
 40
0.0
  9
$USERR4
 40
0.0
  9
$USERR5
 40
0.0
  9
$WORLDVIEW
 70
     1
  9
$SHADEDGE
 70
     3
  9
$SHADEDIF
 70
    70
  9
$TILEMODE
 70
     1
  9
$MAXACTVP
 70
    64
  9
$PINSBASE
 10
0.0
 20
0.0
 30
0.0
  9
$PLIMCHECK
 70
     0
  9
$PEXTMIN
 10
1.0000000000E+20
 20
1.0000000000E+20
 30
1.0000000000E+20
  9
$PEXTMAX
 10
-1.0000000000E+20
 20
-1.0000000000E+20
 30
-1.0000000000E+20
  9
$PLIMMIN
 10
0.0
 20
0.0
  9
$PLIMMAX
 10
420.0
 20
297.0
  9
$UNITMODE
 70
     0
  9
$VISRETAIN
 70
     1
  9
$PLINEGEN
 70
     0
  9
$PSLTSCALE
 70
     1
  9
$TREEDEPTH
 70
  3020
  9
$CMLSTYLE
  2
Standard
  9
$CMLJUST
 70
     0
  9
$CMLSCALE
 40
20.0
  9
$PROXYGRAPHICS
 70
     1
  9
$MEASUREMENT
 70
     1
  9
$CELWEIGHT
370
    -1
  9
$ENDCAPS
280
     0
  9
$JOINSTYLE
280
     0
  9
$LWDISPLAY
290
     1
  9
$INSUNITS
 70
     4
  9
$HYPERLINKBASE
  1

  9
$STYLESHEET
  1

  9
$XEDIT
290
     1
  9
$CEPSNTYPE
380
     0
  9
$PSTYLEMODE
290
     1
  9
$FINGERPRINTGUID
  2
{F636D232-F975-405E-BAD5-12DAEC14965B}
  9
$VERSIONGUID
  2
{FAEB1C32-E019-11D5-929B-00C0DF256EC4}
  9
$EXTNAMES
290
     1
  9
$PSVPSCALE
 40
0.0
  9
$OLESTARTUP
290
     0
  0
ENDSEC
  0
SECTION
  2
CLASSES
  0
CLASS
  1
ACDBDICTIONARYWDFLT
  2
AcDbDictionaryWithDefault
  3
ObjectDBX Classes
 90
        0
280
     0
281
     0
  0
CLASS
  1
ACDBPLACEHOLDER
  2
AcDbPlaceHolder
  3
ObjectDBX Classes
 90
        0
280
     0
281
     0
  0
CLASS
  1
LAYOUT
  2
AcDbLayout
  3
ObjectDBX Classes
 90
        0
280
     0
281
     0
  0
ENDSEC
  0
SECTION
  2
TABLES
  0
TABLE
  2
VPORT
  5
8
330
0
100
AcDbSymbolTable
 70
     1
  0
VPORT
  5
29
330
8
100
AcDbSymbolTableRecord
100
AcDbViewportTableRecord
  2
*Active
 70
     0
 10
0.0
 20
0.0
 11
1.0
 21
1.0
 12
105.0
 22
148.5
 13
0.0
 23
0.0
 14
10.0
 24
10.0
 15
10.0
 25
10.0
 16
0.0
 26
0.0
 36
1.0
 17
0.0
 27
0.0
 37
0.0
 40
297.0
 41
1.9729729729
 42
50.0
 43
0.0
 44
0.0
 50
0.0
 51
0.0
 71
     0
 72
  2000
 73
     1
 74
     3
 75
     0
 76
     0
 77
     0
 78
     0
281
     0
 65
     1
110
0.0
120
0.0
130
0.0
111
1.0
121
0.0
131
0.0
112
0.0
122
1.0
132
0.0
 79
     0
146
0.0
  0
ENDTAB
  0
TABLE
  2
LTYPE
  5
5
330
0
100
AcDbSymbolTable
 70
     6
  0
LTYPE
  5
14
330
5
100
AcDbSymbolTableRecord
100
AcDbLinetypeTableRecord
  2
ByBlock
 70
     0
  3

 72
    65
 73
     0
 40
0.0
  0
LTYPE
  5
15
330
5
100
AcDbSymbolTableRecord
100
AcDbLinetypeTableRecord
  2
ByLayer
 70
     0
  3

 72
    65
 73
     0
 40
0.0
  0
LTYPE
  5
16
330
5
100
AcDbSymbolTableRecord
100
AcDbLinetypeTableRecord
  2
Continuous
 70
     0
  3
Solid line
 72
    65
 73
     0
 40
0.0
  0
LTYPE
  5
2A
330
5
100
AcDbSymbolTableRecord
100
AcDbLinetypeTableRecord
  2
HIDDEN
 70
     0
  3
Hidden __ __ __ __ __ __ __ __ __ __ __ __ __ __
 72
    65
 73
     2
 40
1.905
 49
1.27
 74
     0
 49
-0.635
 74
     0
  0
LTYPE
  5
2B
330
5
100
AcDbSymbolTableRecord
100
AcDbLinetypeTableRecord
  2
PHANTOM
 70
     0
  3
Phantom ______  __  __  ______  __  __  ______
 72
    65
 73
     6
 40
12.7
 49
6.35
 74
     0
 49
-1.27
 74
     0
 49
1.27
 74
     0
 49
-1.27
 74
     0
 49
1.27
 74
     0
 49
-1.27
 74
     0
  0
LTYPE
  5
2C
330
5
100
AcDbSymbolTableRecord
100
AcDbLinetypeTableRecord
  2
CENTER
 70
     0
  3
Center ____ _ ____ _ ____ _ ____ _ ____ _ ____
 72
    65
 73
     4
 40
10.16
 49
6.35
 74
     0
 49
-1.27
 74
     0
 49
1.27
 74
     0
 49
-1.27
 74
     0
  0
LTYPE
  5
2D
330
5
100
AcDbSymbolTableRecord
100
AcDbLinetypeTableRecord
  2
CENTERX2
 70
     0
  3
Center (2x) ________  __  ________  __  _____
 72
    65
 73
     4
 40
20.32
 49
12.7
 74
     0
 49
-2.54
 74
     0
 49
2.54
 74
     0
 49
-2.54
 74
     0
  0
LTYPE
  5
2E
330
5
100
AcDbSymbolTableRecord
100
AcDbLinetypeTableRecord
  2
DOT2
 70
     0
  3
Dot (.5x) ........................................
 72
    65
 73
     2
 40
0.635
 49
0.0
 74
     0
 49
-0.635
 74
     0
  0
ENDTAB
  0
TABLE
  2
LAYER
  5
2
330
0
100
AcDbSymbolTable
 70
     4
  0
LAYER
  5
10
330
2
100
AcDbSymbolTableRecord
100
AcDbLayerTableRecord
  2
0
 70
     0
 62
     7
  6
Continuous
370
    -3
390
F
  0
LAYER
  5
2F
330
2
100
AcDbSymbolTableRecord
100
AcDbLayerTableRecord
  2
SLD-0
 70
     0
 62
   179
  6
Continuous
370
     0
390
F
  0
LAYER
  5
30
330
2
100
AcDbSymbolTableRecord
100
AcDbLayerTableRecord
  2
SLD-DEFPOINTS
 70
     0
 62
   179
  6
Continuous
370
     0
390
F
  0
LAYER
  5
2A8
330
2
100
AcDbSymbolTableRecord
100
AcDbLayerTableRecord
  2
Defpoints
 70
     0
 62
     7
  6
Continuous
290
     0
370
    -3
390
F
  0
ENDTAB
  0
TABLE
  2
STYLE
  5
3
330
0
100
AcDbSymbolTable
 70
     4
  0
STYLE
  5
11
330
3
100
AcDbSymbolTableRecord
100
AcDbTextStyleTableRecord
  2
Standard
 70
     0
 40
0.0
 41
1.0
 50
0.0
 71
     0
 42
2.5
  3
txt
  4
bigfont
  0
STYLE
  5
34
330
3
100
AcDbSymbolTableRecord
100
AcDbTextStyleTableRecord
  2
SLDTEXTSTYLE0
 70
     0
 40
0.0
 41
0.7
 50
0.0
 71
     0
 42
0.2
  3
TXT
  4
bigfont
  0
STYLE
  5
71
330
3
100
AcDbSymbolTableRecord
100
AcDbTextStyleTableRecord
  2
SLDTEXTSTYLE1
 70
     0
 40
0.0
 41
0.5526315789
 50
0.0
 71
     0
 42
0.2
  3
TXT
  4
bigfont
  0
STYLE
  5
4D8
330
3
100
AcDbSymbolTableRecord
100
AcDbTextStyleTableRecord
  2
SLDTEXTSTYLE2
 70
     0
 40
0.0
 41
0.4792838307
 50
0.0
 71
     0
 42
0.2
  3
TXT
  4
bigfont
  0
ENDTAB
  0
TABLE
  2
VIEW
  5
6
330
0
100
AcDbSymbolTable
 70
     0
  0
ENDTAB
  0
TABLE
  2
UCS
  5
7
330
0
100
AcDbSymbolTable
 70
     0
  0
ENDTAB
  0
TABLE
  2
APPID
  5
9
330
0
100
AcDbSymbolTable
 70
     1
  0
APPID
  5
12
330
9
100
AcDbSymbolTableRecord
100
AcDbRegAppTableRecord
  2
ACAD
 70
     0
  0
ENDTAB
  0
TABLE
  2
DIMSTYLE
  5
A
330
0
100
AcDbSymbolTable
 70
     8
100
AcDbDimStyleTable
  0
DIMSTYLE
105
27
330
A
100
AcDbSymbolTableRecord
100
AcDbDimStyleTableRecord
  2
ISO-25
 70
     0
 41
2.5
 42
0.625
 43
3.75
 44
1.25
 73
     0
 74
     0
 77
     1
 78
     8
140
2.5
141
2.5
143
0.0393700787
147
0.625
171
     3
172
     1
271
     2
272
     2
274
     3
278
    44
283
     0
284
     8
340
11
  0
DIMSTYLE
105
2B5
102
{ACAD_REACTORS
330
2A7
330
2C3
330
2DA
330
338
330
350
330
3A7
330
3BF
330
3D9
330
3F0
330
408
330
48A
102
}
330
A
100
AcDbSymbolTableRecord
100
AcDbDimStyleTableRecord
  2
SLDDIMSTYLE0
 70
     0
 41
3.0
 44
0.0
 73
     0
 74
     0
 77
     3
 78
    12
140
3.5
147
0.875
173
     1
271
     0
272
     3
284
    12
340
71
341
2B6
343
2B6
344
2B6
  0
DIMSTYLE
105
2FC
102
{ACAD_REACTORS
330
2F2
102
}
330
A
100
AcDbSymbolTableRecord
100
AcDbDimStyleTableRecord
  2
SLDDIMSTYLE1
 70
     0
 41
3.0
 44
0.0
 78
    12
140
3.5
147
0.875
172
     1
173
     1
271
     1
272
     3
284
    12
340
71
341
2B6
343
2B6
344
2B6
  0
DIMSTYLE
105
314
102
{ACAD_REACTORS
330
304
330
321
330
41F
330
43B
330
470
330
4A4
330
4C0
102
}
330
A
100
AcDbSymbolTableRecord
100
AcDbDimStyleTableRecord
  2
SLDDIMSTYLE2
 70
     0
 41
3.0
 44
0.0
 73
     0
 74
     0
 77
     3
 78
    12
140
3.5
147
0.875
173
     1
271
     1
272
     3
284
    12
340
71
341
2B6
343
2B6
344
2B6
  0
DIMSTYLE
105
378
102
{ACAD_REACTORS
330
36A
102
}
330
A
100
AcDbSymbolTableRecord
100
AcDbDimStyleTableRecord
  2
SLDDIMSTYLE3
 70
     0
 41
3.0
 44
0.0
 73
     0
 74
     0
 77
     3
 78
    12
140
3.5
147
0.875
173
     1
271
     2
272
     3
284
    12
340
71
341
2B6
343
2B6
344
2B6
  0
DIMSTYLE
105
38D
102
{ACAD_REACTORS
330
383
102
}
330
A
100
AcDbSymbolTableRecord
100
AcDbDimStyleTableRecord
  2
SLDDIMSTYLE4
 70
     0
 41
3.0
 44
0.0
 78
    12
140
3.5
147
0.875
173
     1
271
     0
272
     3
284
    12
340
71
341
2B6
343
2B6
344
2B6
  0
DIMSTYLE
105
39E
102
{ACAD_REACTORS
330
394
102
}
330
A
100
AcDbSymbolTableRecord
100
AcDbDimStyleTableRecord
  2
SLDDIMSTYLE5
 70
     0
 41
3.0
 44
0.0
 78
    12
140
3.5
147
0.875
172
     1
173
     1
271
     0
272
     3
284
    12
340
71
341
2B6
343
2B6
344
2B6
  0
DIMSTYLE
105
463
102
{ACAD_REACTORS
330
455
102
}
330
A
100
AcDbSymbolTableRecord
100
AcDbDimStyleTableRecord
  2
SLDDIMSTYLE6
 70
     0
 41
3.0
 44
0.0
 73
     0
 74
     0
 77
     3
 78
    12
140
3.5
147
0.875
173
     1
271
     0
272
     2
284
    12
340
71
341
2B6
343
2B6
344
2B6
  0
ENDTAB
  0
TABLE
  2
BLOCK_RECORD
  5
1
330
0
100
AcDbSymbolTable
 70
    41
  0
BLOCK_RECORD
  5
1F
330
1
100
AcDbSymbolTableRecord
100
AcDbBlockTableRecord
  2
*Model_Space
340
22
  0
BLOCK_RECORD
  5
1B
330
1
100
AcDbSymbolTableRecord
100
AcDbBlockTableRecord
  2
*Paper_Space
340
1E
  0
BLOCK_RECORD
  5
23
330
1
100
AcDbSymbolTableRecord
100
AcDbBlockTableRecord
  2
*Paper_Space0
340
26
  0
BLOCK_RECORD
  5
31
330
1
100
AcDbSymbolTableRecord
100
AcDbBlockTableRecord
  2
注記
340
0
  0
BLOCK_RECORD
  5
37
330
1
100
AcDbSymbolTableRecord
100
AcDbBlockTableRecord
  2
SW_CENTERMARK0
340
0
102
{BLKREFS
331
4DE
102
}
  0
BLOCK_RECORD
  5
42
330
1
100
AcDbSymbolTableRecord
100
AcDbBlockTableRecord
  2
SW_CENTERMARK1
340
0
102
{BLKREFS
331
4DF
102
}
  0
BLOCK_RECORD
  5
4D
330
1
100
AcDbSymbolTableRecord
100
AcDbBlockTableRecord
  2
SW_CENTERMARK2
340
0
102
{BLKREFS
331
4E0
102
}
  0
BLOCK_RECORD
  5
58
330
1
100
AcDbSymbolTableRecord
100
AcDbBlockTableRecord
  2
SW_CENTERMARK3
340
0
102
{BLKREFS
331
4E1
102
}
  0
BLOCK_RECORD
  5
63
330
1
100
AcDbSymbolTableRecord
100
AcDbBlockTableRecord
  2
SW_CENTERMARK4
340
0
102
{BLKREFS
331
4E2
102
}
  0
BLOCK_RECORD
  5
6E
330
1
100
AcDbSymbolTableRecord
100
AcDbBlockTableRecord
  2
NOTE45
340
0
102
{BLKREFS
331
4E3
102
}
  0
BLOCK_RECORD
  5
73
330
1
100
AcDbSymbolTableRecord
100
AcDbBlockTableRecord
  2
SW_CENTERMARK5
340
0
102
{BLKREFS
331
4E4
102
}
  0
BLOCK_RECORD
  5
7E
330
1
100
AcDbSymbolTableRecord
100
AcDbBlockTableRecord
  2
SW_CENTERMARK6
340
0
102
{BLKREFS
331
4E5
102
}
  0
BLOCK_RECORD
  5
89
330
1
100
AcDbSymbolTableRecord
100
AcDbBlockTableRecord
  2
SW_CENTERMARK7
340
0
102
{BLKREFS
331
4E6
102
}
  0
BLOCK_RECORD
  5
94
330
1
100
AcDbSymbolTableRecord
100
AcDbBlockTableRecord
  2
NOTE46
340
0
102
{BLKREFS
331
4E7
102
}
  0
BLOCK_RECORD
  5
98
330
1
100
AcDbSymbolTableRecord
100
AcDbBlockTableRecord
  2
SW_CENTERMARK8
340
0
102
{BLKREFS
331
4E8
102
}
  0
BLOCK_RECORD
  5
A3
330
1
100
AcDbSymbolTableRecord
100
AcDbBlockTableRecord
  2
SW_CENTERMARK9
340
0
102
{BLKREFS
331
4E9
102
}
  0
BLOCK_RECORD
  5
AE
330
1
100
AcDbSymbolTableRecord
100
AcDbBlockTableRecord
  2
SW_CENTERMARK10
340
0
102
{BLKREFS
331
4EA
102
}
  0
BLOCK_RECORD
  5
B9
330
1
100
AcDbSymbolTableRecord
100
AcDbBlockTableRecord
  2
SW_CENTERMARK11
340
0
102
{BLKREFS
331
4EB
102
}
  0
BLOCK_RECORD
  5
C4
330
1
100
AcDbSymbolTableRecord
100
AcDbBlockTableRecord
  2
SW_CENTERMARK12
340
0
102
{BLKREFS
331
4EC
102
}
  0
BLOCK_RECORD
  5
2A9
330
1
100
AcDbSymbolTableRecord
100
AcDbBlockTableRecord
  2
*D17
340
0
  0
BLOCK_RECORD
  5
2B6
330
1
100
AcDbSymbolTableRecord
100
AcDbBlockTableRecord
  2
_None
340
0
102
{BLKREFS
331
2AE
331
2AD
331
2C9
331
2C8
331
2E0
331
2DF
331
2F7
331
30B
331
30A
331
327
331
326
331
33E
331
33D
331
356
331
355
331
370
331
36F
331
388
331
399
331
3AD
331
3AC
331
3C5
331
3C4
331
3DF
331
3DE
331
3F6
331
3F5
331
40E
331
40D
331
426
331
425
331
441
331
440
331
45B
331
45A
331
477
331
476
331
490
331
48F
331
4AB
331
4AA
331
4C6
331
4C5
102
}
  0
BLOCK_RECORD
  5
2C4
330
1
100
AcDbSymbolTableRecord
100
AcDbBlockTableRecord
  2
*D19
340
0
  0
BLOCK_RECORD
  5
2DB
330
1
100
AcDbSymbolTableRecord
100
AcDbBlockTableRecord
  2
*D20
340
0
  0
BLOCK_RECORD
  5
2F3
330
1
100
AcDbSymbolTableRecord
100
AcDbBlockTableRecord
  2
*D21
340
0
  0
BLOCK_RECORD
  5
305
330
1
100
AcDbSymbolTableRecord
100
AcDbBlockTableRecord
  2
*D22
340
0
  0
BLOCK_RECORD
  5
322
330
1
100
AcDbSymbolTableRecord
100
AcDbBlockTableRecord
  2
*D23
340
0
  0
BLOCK_RECORD
  5
339
330
1
100
AcDbSymbolTableRecord
100
AcDbBlockTableRecord
  2
*D24
340
0
  0
BLOCK_RECORD
  5
351
330
1
100
AcDbSymbolTableRecord
100
AcDbBlockTableRecord
  2
*D25
340
0
  0
BLOCK_RECORD
  5
36B
330
1
100
AcDbSymbolTableRecord
100
AcDbBlockTableRecord
  2
*D26
340
0
  0
BLOCK_RECORD
  5
384
330
1
100
AcDbSymbolTableRecord
100
AcDbBlockTableRecord
  2
*D27
340
0
  0
BLOCK_RECORD
  5
395
330
1
100
AcDbSymbolTableRecord
100
AcDbBlockTableRecord
  2
*D28
340
0
  0
BLOCK_RECORD
  5
3A8
330
1
100
AcDbSymbolTableRecord
100
AcDbBlockTableRecord
  2
*D29
340
0
  0
BLOCK_RECORD
  5
3C0
330
1
100
AcDbSymbolTableRecord
100
AcDbBlockTableRecord
  2
*D30
340
0
  0
BLOCK_RECORD
  5
3DA
330
1
100
AcDbSymbolTableRecord
100
AcDbBlockTableRecord
  2
*D31
340
0
  0
BLOCK_RECORD
  5
3F1
330
1
100
AcDbSymbolTableRecord
100
AcDbBlockTableRecord
  2
*D32
340
0
  0
BLOCK_RECORD
  5
409
330
1
100
AcDbSymbolTableRecord
100
AcDbBlockTableRecord
  2
*D33
340
0
  0
BLOCK_RECORD
  5
420
330
1
100
AcDbSymbolTableRecord
100
AcDbBlockTableRecord
  2
*D34
340
0
  0
BLOCK_RECORD
  5
43C
330
1
100
AcDbSymbolTableRecord
100
AcDbBlockTableRecord
  2
*D35
340
0
  0
BLOCK_RECORD
  5
456
330
1
100
AcDbSymbolTableRecord
100
AcDbBlockTableRecord
  2
*D36
340
0
  0
BLOCK_RECORD
  5
471
330
1
100
AcDbSymbolTableRecord
100
AcDbBlockTableRecord
  2
*D37
340
0
  0
BLOCK_RECORD
  5
48B
330
1
100
AcDbSymbolTableRecord
100
AcDbBlockTableRecord
  2
*D38
340
0
  0
BLOCK_RECORD
  5
4A5
330
1
100
AcDbSymbolTableRecord
100
AcDbBlockTableRecord
  2
*D39
340
0
  0
BLOCK_RECORD
  5
4C1
330
1
100
AcDbSymbolTableRecord
100
AcDbBlockTableRecord
  2
*D40
340
0
  0
ENDTAB
  0
ENDSEC
  0
SECTION
  2
BLOCKS
  0
BLOCK
  5
20
330
1F
100
AcDbEntity
  8
0
100
AcDbBlockBegin
  2
*Model_Space
 70
     0
 71
     0
 10
0.0
 20
0.0
 30
0.0
  3
*Model_Space
  1

  0
ENDBLK
  5
21
330
1F
100
AcDbEntity
  8
0
100
AcDbBlockEnd
  0
BLOCK
  5
1C
330
1B
100
AcDbEntity
 67
     1
  8
0
100
AcDbBlockBegin
  2
*Paper_Space
 70
     0
 71
     0
 10
0.0
 20
0.0
 30
0.0
  3
*Paper_Space
  1

  0
ENDBLK
  5
1D
330
1B
100
AcDbEntity
 67
     1
  8
0
100
AcDbBlockEnd
  0
BLOCK
  5
24
330
23
100
AcDbEntity
  8
0
100
AcDbBlockBegin
  2
*Paper_Space0
 70
     0
 71
     0
 10
0.0
 20
0.0
 30
0.0
  3
*Paper_Space0
  1

  0
ENDBLK
  5
25
330
23
100
AcDbEntity
  8
0
100
AcDbBlockEnd
  0
BLOCK
  5
32
330
31
100
AcDbEntity
  8
0
100
AcDbBlockBegin
  2
注記
 70
     0
 71
     0
 10
0.0
 20
0.0
 30
0.0
  3
注記
  1

  0
MTEXT
  5
35
330
31
100
AcDbEntity
  8
0
  6
Continuous
 62
     7
370
     0
100
AcDbMText
 10
0.2636785918
 20
9.0739778448
 30
0.0
 40
3.5
 41
0.0
 71
     1
 72
     1
  1
１．特記ナキ角部ハ、バリ　カエリノ無キコト。
  7
SLDTEXTSTYLE0
 73
     1
 44
1.0
  0
MTEXT
  5
36
330
31
100
AcDbEntity
  8
0
  6
Continuous
 62
     7
370
     0
100
AcDbMText
 10
0.2636785918
 20
3.5759549983
 30
0.0
 40
3.5
 41
0.0
 71
     1
 72
     1
  1
２．特記ナキ隅部ハ、Ｒ０．４ＭＡＸトスル。
  7
SLDTEXTSTYLE0
 73
     1
 44
1.0
  0
ENDBLK
  5
33
330
31
100
AcDbEntity
  8
0
100
AcDbBlockEnd
  0
BLOCK
  5
38
330
37
100
AcDbEntity
  8
0
100
AcDbBlockBegin
  2
SW_CENTERMARK0
 70
     0
 71
     0
 10
0.0
 20
0.0
 30
0.0
  3
SW_CENTERMARK0
  1

  0
LINE
  5
3A
330
37
100
AcDbEntity
  8
SLD-0
  6
Continuous
 62
   179
100
AcDbLine
 10
100.0451154284
 20
213.6145158198
 30
0.0
 11
100.0451154284
 21
216.1145158198
 31
0.0
  0
LINE
  5
3B
330
37
100
AcDbEntity
  8
SLD-0
  6
Continuous
 62
   179
100
AcDbLine
 10
100.0451154284
 20
213.6145158198
 30
0.0
 11
97.5451154284
 21
213.6145158198
 31
0.0
  0
LINE
  5
3C
330
37
100
AcDbEntity
  8
SLD-0
  6
Continuous
 62
   179
100
AcDbLine
 10
100.0451154284
 20
213.6145158198
 30
0.0
 11
100.0451154284
 21
211.1145158198
 31
0.0
  0
LINE
  5
3D
330
37
100
AcDbEntity
  8
SLD-0
  6
Continuous
 62
   179
100
AcDbLine
 10
100.0451154284
 20
213.6145158198
 30
0.0
 11
102.5451154284
 21
213.6145158198
 31
0.0
  0
LINE
  5
3E
330
37
100
AcDbEntity
  8
SLD-0
  6
Continuous
 62
   179
100
AcDbLine
 10
100.0451154284
 20
216.1145158198
 30
0.0
 11
100.0451154284
 21
217.3645158198
 31
0.0
  0
LINE
  5
3F
330
37
100
AcDbEntity
  8
SLD-0
  6
Continuous
 62
   179
100
AcDbLine
 10
97.5451154284
 20
213.6145158198
 30
0.0
 11
96.2951154284
 21
213.6145158198
 31
0.0
  0
LINE
  5
40
330
37
100
AcDbEntity
  8
SLD-0
  6
Continuous
 62
   179
100
AcDbLine
 10
100.0451154284
 20
211.1145158198
 30
0.0
 11
100.0451154284
 21
209.8645158198
 31
0.0
  0
LINE
  5
41
330
37
100
AcDbEntity
  8
SLD-0
  6
Continuous
 62
   179
100
AcDbLine
 10
102.5451154284
 20
213.6145158198
 30
0.0
 11
103.7951154284
 21
213.6145158198
 31
0.0
  0
ENDBLK
  5
39
330
37
100
AcDbEntity
  8
0
100
AcDbBlockEnd
  0
BLOCK
  5
43
330
42
100
AcDbEntity
  8
0
100
AcDbBlockBegin
  2
SW_CENTERMARK1
 70
     0
 71
     0
 10
0.0
 20
0.0
 30
0.0
  3
SW_CENTERMARK1
  1

  0
LINE
  5
45
330
42
100
AcDbEntity
  8
SLD-0
  6
Continuous
 62
   179
100
AcDbLine
 10
62.8451154284
 20
205.3645158198
 30
0.0
 11
62.8451154284
 21
207.8645158198
 31
0.0
  0
LINE
  5
46
330
42
100
AcDbEntity
  8
SLD-0
  6
Continuous
 62
   179
100
AcDbLine
 10
62.8451154284
 20
205.3645158198
 30
0.0
 11
60.3451154284
 21
205.3645158198
 31
0.0
  0
LINE
  5
47
330
42
100
AcDbEntity
  8
SLD-0
  6
Continuous
 62
   179
100
AcDbLine
 10
62.8451154284
 20
205.3645158198
 30
0.0
 11
62.8451154284
 21
202.8645158198
 31
0.0
  0
LINE
  5
48
330
42
100
AcDbEntity
  8
SLD-0
  6
Continuous
 62
   179
100
AcDbLine
 10
62.8451154284
 20
205.3645158198
 30
0.0
 11
65.3451154284
 21
205.3645158198
 31
0.0
  0
LINE
  5
49
330
42
100
AcDbEntity
  8
SLD-0
  6
Continuous
 62
   179
100
AcDbLine
 10
62.8451154284
 20
210.3645158198
 30
0.0
 11
62.8451154284
 21
210.6145158198
 31
0.0
  0
LINE
  5
4A
330
42
100
AcDbEntity
  8
SLD-0
  6
Continuous
 62
   179
100
AcDbLine
 10
57.8451154284
 20
205.3645158198
 30
0.0
 11
57.5951154284
 21
205.3645158198
 31
0.0
  0
LINE
  5
4B
330
42
100
AcDbEntity
  8
SLD-0
  6
Continuous
 62
   179
100
AcDbLine
 10
62.8451154284
 20
200.3645158198
 30
0.0
 11
62.8451154284
 21
200.1145158198
 31
0.0
  0
LINE
  5
4C
330
42
100
AcDbEntity
  8
SLD-0
  6
Continuous
 62
   179
100
AcDbLine
 10
67.8451154284
 20
205.3645158198
 30
0.0
 11
68.0951154284
 21
205.3645158198
 31
0.0
  0
ENDBLK
  5
44
330
42
100
AcDbEntity
  8
0
100
AcDbBlockEnd
  0
BLOCK
  5
4E
330
4D
100
AcDbEntity
  8
0
100
AcDbBlockBegin
  2
SW_CENTERMARK2
 70
     0
 71
     0
 10
0.0
 20
0.0
 30
0.0
  3
SW_CENTERMARK2
  1

  0
LINE
  5
50
330
4D
100
AcDbEntity
  8
SLD-0
  6
Continuous
 62
   179
100
AcDbLine
 10
74.6451154284
 20
213.6145158198
 30
0.0
 11
74.6451154284
 21
216.1145158198
 31
0.0
  0
LINE
  5
51
330
4D
100
AcDbEntity
  8
SLD-0
  6
Continuous
 62
   179
100
AcDbLine
 10
74.6451154284
 20
213.6145158198
 30
0.0
 11
72.1451154284
 21
213.6145158198
 31
0.0
  0
LINE
  5
52
330
4D
100
AcDbEntity
  8
SLD-0
  6
Continuous
 62
   179
100
AcDbLine
 10
74.6451154284
 20
213.6145158198
 30
0.0
 11
74.6451154284
 21
211.1145158198
 31
0.0
  0
LINE
  5
53
330
4D
100
AcDbEntity
  8
SLD-0
  6
Continuous
 62
   179
100
AcDbLine
 10
74.6451154284
 20
213.6145158198
 30
0.0
 11
77.1451154284
 21
213.6145158198
 31
0.0
  0
LINE
  5
54
330
4D
100
AcDbEntity
  8
SLD-0
  6
Continuous
 62
   179
100
AcDbLine
 10
74.6451154284
 20
216.1145158198
 30
0.0
 11
74.6451154284
 21
217.3645158198
 31
0.0
  0
LINE
  5
55
330
4D
100
AcDbEntity
  8
SLD-0
  6
Continuous
 62
   179
100
AcDbLine
 10
72.1451154284
 20
213.6145158198
 30
0.0
 11
70.8951154284
 21
213.6145158198
 31
0.0
  0
LINE
  5
56
330
4D
100
AcDbEntity
  8
SLD-0
  6
Continuous
 62
   179
100
AcDbLine
 10
74.6451154284
 20
211.1145158198
 30
0.0
 11
74.6451154284
 21
209.8645158198
 31
0.0
  0
LINE
  5
57
330
4D
100
AcDbEntity
  8
SLD-0
  6
Continuous
 62
   179
100
AcDbLine
 10
77.1451154284
 20
213.6145158198
 30
0.0
 11
78.3951154284
 21
213.6145158198
 31
0.0
  0
ENDBLK
  5
4F
330
4D
100
AcDbEntity
  8
0
100
AcDbBlockEnd
  0
BLOCK
  5
59
330
58
100
AcDbEntity
  8
0
100
AcDbBlockBegin
  2
SW_CENTERMARK3
 70
     0
 71
     0
 10
0.0
 20
0.0
 30
0.0
  3
SW_CENTERMARK3
  1

  0
LINE
  5
5B
330
58
100
AcDbEntity
  8
SLD-0
  6
Continuous
 62
   179
100
AcDbLine
 10
79.8451154284
 20
210.3145158198
 30
0.0
 11
79.8451154284
 21
212.8145158198
 31
0.0
  0
LINE
  5
5C
330
58
100
AcDbEntity
  8
SLD-0
  6
Continuous
 62
   179
100
AcDbLine
 10
79.8451154284
 20
210.3145158198
 30
0.0
 11
77.3451154284
 21
210.3145158198
 31
0.0
  0
LINE
  5
5D
330
58
100
AcDbEntity
  8
SLD-0
  6
Continuous
 62
   179
100
AcDbLine
 10
79.8451154284
 20
210.3145158198
 30
0.0
 11
79.8451154284
 21
207.8145158198
 31
0.0
  0
LINE
  5
5E
330
58
100
AcDbEntity
  8
SLD-0
  6
Continuous
 62
   179
100
AcDbLine
 10
79.8451154284
 20
210.3145158198
 30
0.0
 11
82.3451154284
 21
210.3145158198
 31
0.0
  0
LINE
  5
5F
330
58
100
AcDbEntity
  8
SLD-0
  6
Continuous
 62
   179
100
AcDbLine
 10
79.8451154284
 20
212.8145158198
 30
0.0
 11
79.8451154284
 21
213.6145158198
 31
0.0
  0
LINE
  5
60
330
58
100
AcDbEntity
  8
SLD-0
  6
Continuous
 62
   179
100
AcDbLine
 10
77.3451154284
 20
210.3145158198
 30
0.0
 11
76.5451154284
 21
210.3145158198
 31
0.0
  0
LINE
  5
61
330
58
100
AcDbEntity
  8
SLD-0
  6
Continuous
 62
   179
100
AcDbLine
 10
79.8451154284
 20
207.8145158198
 30
0.0
 11
79.8451154284
 21
207.0145158198
 31
0.0
  0
LINE
  5
62
330
58
100
AcDbEntity
  8
SLD-0
  6
Continuous
 62
   179
100
AcDbLine
 10
82.3451154284
 20
210.3145158198
 30
0.0
 11
83.1451154284
 21
210.3145158198
 31
0.0
  0
ENDBLK
  5
5A
330
58
100
AcDbEntity
  8
0
100
AcDbBlockEnd
  0
BLOCK
  5
64
330
63
100
AcDbEntity
  8
0
100
AcDbBlockBegin
  2
SW_CENTERMARK4
 70
     0
 71
     0
 10
0.0
 20
0.0
 30
0.0
  3
SW_CENTERMARK4
  1

  0
LINE
  5
66
330
63
100
AcDbEntity
  8
SLD-0
  6
Continuous
 62
   179
100
AcDbLine
 10
94.8451154284
 20
210.3145158198
 30
0.0
 11
94.8451154284
 21
212.8145158198
 31
0.0
  0
LINE
  5
67
330
63
100
AcDbEntity
  8
SLD-0
  6
Continuous
 62
   179
100
AcDbLine
 10
94.8451154284
 20
210.3145158198
 30
0.0
 11
92.3451154284
 21
210.3145158198
 31
0.0
  0
LINE
  5
68
330
63
100
AcDbEntity
  8
SLD-0
  6
Continuous
 62
   179
100
AcDbLine
 10
94.8451154284
 20
210.3145158198
 30
0.0
 11
94.8451154284
 21
207.8145158198
 31
0.0
  0
LINE
  5
69
330
63
100
AcDbEntity
  8
SLD-0
  6
Continuous
 62
   179
100
AcDbLine
 10
94.8451154284
 20
210.3145158198
 30
0.0
 11
97.3451154284
 21
210.3145158198
 31
0.0
  0
LINE
  5
6A
330
63
100
AcDbEntity
  8
SLD-0
  6
Continuous
 62
   179
100
AcDbLine
 10
94.8451154284
 20
212.8145158198
 30
0.0
 11
94.8451154284
 21
213.6145158198
 31
0.0
  0
LINE
  5
6B
330
63
100
AcDbEntity
  8
SLD-0
  6
Continuous
 62
   179
100
AcDbLine
 10
92.3451154284
 20
210.3145158198
 30
0.0
 11
91.5451154284
 21
210.3145158198
 31
0.0
  0
LINE
  5
6C
330
63
100
AcDbEntity
  8
SLD-0
  6
Continuous
 62
   179
100
AcDbLine
 10
94.8451154284
 20
207.8145158198
 30
0.0
 11
94.8451154284
 21
207.0145158198
 31
0.0
  0
LINE
  5
6D
330
63
100
AcDbEntity
  8
SLD-0
  6
Continuous
 62
   179
100
AcDbLine
 10
97.3451154284
 20
210.3145158198
 30
0.0
 11
98.1451154284
 21
210.3145158198
 31
0.0
  0
ENDBLK
  5
65
330
63
100
AcDbEntity
  8
0
100
AcDbBlockEnd
  0
BLOCK
  5
6F
330
6E
100
AcDbEntity
  8
0
100
AcDbBlockBegin
  2
NOTE45
 70
     0
 71
     0
 10
0.0
 20
0.0
 30
0.0
  3
NOTE45
  1

  0
MTEXT
  5
72
330
6E
100
AcDbEntity
  8
SLD-0
100
AcDbMText
 10
0.0033647893
 20
3.9309771145
 30
0.0
 40
3.5
 41
0.0
 71
     1
 72
     1
  1
E3Z-B61
  7
SLDTEXTSTYLE1
 73
     1
 44
1.0
  0
ENDBLK
  5
70
330
6E
100
AcDbEntity
  8
0
100
AcDbBlockEnd
  0
BLOCK
  5
74
330
73
100
AcDbEntity
  8
0
100
AcDbBlockBegin
  2
SW_CENTERMARK5
 70
     0
 71
     0
 10
0.0
 20
0.0
 30
0.0
  3
SW_CENTERMARK5
  1

  0
LINE
  5
76
330
73
100
AcDbEntity
  8
SLD-0
  6
Continuous
 62
   179
100
AcDbLine
 10
134.4451182385
 20
105.9920817393
 30
0.0
 11
134.4451182385
 21
108.4920817393
 31
0.0
  0
LINE
  5
77
330
73
100
AcDbEntity
  8
SLD-0
  6
Continuous
 62
   179
100
AcDbLine
 10
134.4451182385
 20
105.9920817393
 30
0.0
 11
131.9451182385
 21
105.9920817393
 31
0.0
  0
LINE
  5
78
330
73
100
AcDbEntity
  8
SLD-0
  6
Continuous
 62
   179
100
AcDbLine
 10
134.4451182385
 20
105.9920817393
 30
0.0
 11
134.4451182385
 21
103.4920817393
 31
0.0
  0
LINE
  5
79
330
73
100
AcDbEntity
  8
SLD-0
  6
Continuous
 62
   179
100
AcDbLine
 10
134.4451182385
 20
105.9920817393
 30
0.0
 11
136.9451182385
 21
105.9920817393
 31
0.0
  0
LINE
  5
7A
330
73
100
AcDbEntity
  8
SLD-0
  6
Continuous
 62
   179
100
AcDbLine
 10
134.4451182385
 20
108.4920817393
 30
0.0
 11
134.4451182385
 21
109.9920817393
 31
0.0
  0
LINE
  5
7B
330
73
100
AcDbEntity
  8
SLD-0
  6
Continuous
 62
   179
100
AcDbLine
 10
131.9451182385
 20
105.9920817393
 30
0.0
 11
130.4451182385
 21
105.9920817393
 31
0.0
  0
LINE
  5
7C
330
73
100
AcDbEntity
  8
SLD-0
  6
Continuous
 62
   179
100
AcDbLine
 10
134.4451182385
 20
103.4920817393
 30
0.0
 11
134.4451182385
 21
101.9920817393
 31
0.0
  0
LINE
  5
7D
330
73
100
AcDbEntity
  8
SLD-0
  6
Continuous
 62
   179
100
AcDbLine
 10
136.9451182385
 20
105.9920817393
 30
0.0
 11
138.4451182385
 21
105.9920817393
 31
0.0
  0
ENDBLK
  5
75
330
73
100
AcDbEntity
  8
0
100
AcDbBlockEnd
  0
BLOCK
  5
7F
330
7E
100
AcDbEntity
  8
0
100
AcDbBlockBegin
  2
SW_CENTERMARK6
 70
     0
 71
     0
 10
0.0
 20
0.0
 30
0.0
  3
SW_CENTERMARK6
  1

  0
LINE
  5
81
330
7E
100
AcDbEntity
  8
SLD-0
  6
Continuous
 62
   179
100
AcDbLine
 10
159.8451182385
 20
105.9920817393
 30
0.0
 11
159.8451182385
 21
108.4920817393
 31
0.0
  0
LINE
  5
82
330
7E
100
AcDbEntity
  8
SLD-0
  6
Continuous
 62
   179
100
AcDbLine
 10
159.8451182385
 20
105.9920817393
 30
0.0
 11
157.3451182385
 21
105.9920817393
 31
0.0
  0
LINE
  5
83
330
7E
100
AcDbEntity
  8
SLD-0
  6
Continuous
 62
   179
100
AcDbLine
 10
159.8451182385
 20
105.9920817393
 30
0.0
 11
159.8451182385
 21
103.4920817393
 31
0.0
  0
LINE
  5
84
330
7E
100
AcDbEntity
  8
SLD-0
  6
Continuous
 62
   179
100
AcDbLine
 10
159.8451182385
 20
105.9920817393
 30
0.0
 11
162.3451182385
 21
105.9920817393
 31
0.0
  0
LINE
  5
85
330
7E
100
AcDbEntity
  8
SLD-0
  6
Continuous
 62
   179
100
AcDbLine
 10
159.8451182385
 20
108.4920817393
 30
0.0
 11
159.8451182385
 21
109.9920817393
 31
0.0
  0
LINE
  5
86
330
7E
100
AcDbEntity
  8
SLD-0
  6
Continuous
 62
   179
100
AcDbLine
 10
157.3451182385
 20
105.9920817393
 30
0.0
 11
155.8451182385
 21
105.9920817393
 31
0.0
  0
LINE
  5
87
330
7E
100
AcDbEntity
  8
SLD-0
  6
Continuous
 62
   179
100
AcDbLine
 10
159.8451182385
 20
103.4920817393
 30
0.0
 11
159.8451182385
 21
101.9920817393
 31
0.0
  0
LINE
  5
88
330
7E
100
AcDbEntity
  8
SLD-0
  6
Continuous
 62
   179
100
AcDbLine
 10
162.3451182385
 20
105.9920817393
 30
0.0
 11
163.8451182385
 21
105.9920817393
 31
0.0
  0
ENDBLK
  5
80
330
7E
100
AcDbEntity
  8
0
100
AcDbBlockEnd
  0
BLOCK
  5
8A
330
89
100
AcDbEntity
  8
0
100
AcDbBlockBegin
  2
SW_CENTERMARK7
 70
     0
 71
     0
 10
0.0
 20
0.0
 30
0.0
  3
SW_CENTERMARK7
  1

  0
LINE
  5
8C
330
89
100
AcDbEntity
  8
SLD-0
  6
Continuous
 62
   179
100
AcDbLine
 10
122.6451182385
 20
97.7420817393
 30
0.0
 11
122.6451182385
 21
100.2420817393
 31
0.0
  0
LINE
  5
8D
330
89
100
AcDbEntity
  8
SLD-0
  6
Continuous
 62
   179
100
AcDbLine
 10
122.6451182385
 20
97.7420817393
 30
0.0
 11
120.1451182385
 21
97.7420817393
 31
0.0
  0
LINE
  5
8E
330
89
100
AcDbEntity
  8
SLD-0
  6
Continuous
 62
   179
100
AcDbLine
 10
122.6451182385
 20
97.7420817393
 30
0.0
 11
122.6451182385
 21
95.2420817393
 31
0.0
  0
LINE
  5
8F
330
89
100
AcDbEntity
  8
SLD-0
  6
Continuous
 62
   179
100
AcDbLine
 10
122.6451182385
 20
97.7420817393
 30
0.0
 11
125.1451182385
 21
97.7420817393
 31
0.0
  0
LINE
  5
90
330
89
100
AcDbEntity
  8
SLD-0
  6
Continuous
 62
   179
100
AcDbLine
 10
122.6451182385
 20
102.7420817393
 30
0.0
 11
122.6451182385
 21
106.2420817393
 31
0.0
  0
LINE
  5
91
330
89
100
AcDbEntity
  8
SLD-0
  6
Continuous
 62
   179
100
AcDbLine
 10
117.6451182385
 20
97.7420817393
 30
0.0
 11
114.1451182385
 21
97.7420817393
 31
0.0
  0
LINE
  5
92
330
89
100
AcDbEntity
  8
SLD-0
  6
Continuous
 62
   179
100
AcDbLine
 10
122.6451182385
 20
92.7420817393
 30
0.0
 11
122.6451182385
 21
89.2420817393
 31
0.0
  0
LINE
  5
93
330
89
100
AcDbEntity
  8
SLD-0
  6
Continuous
 62
   179
100
AcDbLine
 10
127.6451182385
 20
97.7420817393
 30
0.0
 11
131.1451182385
 21
97.7420817393
 31
0.0
  0
ENDBLK
  5
8B
330
89
100
AcDbEntity
  8
0
100
AcDbBlockEnd
  0
BLOCK
  5
95
330
94
100
AcDbEntity
  8
0
100
AcDbBlockBegin
  2
NOTE46
 70
     0
 71
     0
 10
0.0
 20
0.0
 30
0.0
  3
NOTE46
  1

  0
MTEXT
  5
97
330
94
100
AcDbEntity
  8
SLD-0
100
AcDbMText
 10
0.0027225166
 20
3.9308161845
 30
0.0
 40
3.5
 41
0.0
 71
     1
 72
     1
  1
E3T-SL21R
  7
SLDTEXTSTYLE1
 73
     1
 44
1.0
  0
ENDBLK
  5
96
330
94
100
AcDbEntity
  8
0
100
AcDbBlockEnd
  0
BLOCK
  5
99
330
98
100
AcDbEntity
  8
0
100
AcDbBlockBegin
  2
SW_CENTERMARK8
 70
     0
 71
     0
 10
0.0
 20
0.0
 30
0.0
  3
SW_CENTERMARK8
  1

  0
LINE
  5
9B
330
98
100
AcDbEntity
  8
SLD-0
  6
Continuous
 62
   179
100
AcDbLine
 10
42.7709464309
 20
97.7420817393
 30
0.0
 11
42.7709464309
 21
100.2420817393
 31
0.0
  0
LINE
  5
9C
330
98
100
AcDbEntity
  8
SLD-0
  6
Continuous
 62
   179
100
AcDbLine
 10
42.7709464309
 20
97.7420817393
 30
0.0
 11
40.2709464309
 21
97.7420817393
 31
0.0
  0
LINE
  5
9D
330
98
100
AcDbEntity
  8
SLD-0
  6
Continuous
 62
   179
100
AcDbLine
 10
42.7709464309
 20
97.7420817393
 30
0.0
 11
42.7709464309
 21
95.2420817393
 31
0.0
  0
LINE
  5
9E
330
98
100
AcDbEntity
  8
SLD-0
  6
Continuous
 62
   179
100
AcDbLine
 10
42.7709464309
 20
97.7420817393
 30
0.0
 11
45.2709464309
 21
97.7420817393
 31
0.0
  0
LINE
  5
9F
330
98
100
AcDbEntity
  8
SLD-0
  6
Continuous
 62
   179
100
AcDbLine
 10
42.7709464309
 20
102.7420817393
 30
0.0
 11
42.7709464309
 21
106.2420817393
 31
0.0
  0
LINE
  5
A0
330
98
100
AcDbEntity
  8
SLD-0
  6
Continuous
 62
   179
100
AcDbLine
 10
37.7709464309
 20
97.7420817393
 30
0.0
 11
34.2709464309
 21
97.7420817393
 31
0.0
  0
LINE
  5
A1
330
98
100
AcDbEntity
  8
SLD-0
  6
Continuous
 62
   179
100
AcDbLine
 10
42.7709464309
 20
92.7420817393
 30
0.0
 11
42.7709464309
 21
89.2420817393
 31
0.0
  0
LINE
  5
A2
330
98
100
AcDbEntity
  8
SLD-0
  6
Continuous
 62
   179
100
AcDbLine
 10
47.7709464309
 20
97.7420817393
 30
0.0
 11
51.2709464309
 21
97.7420817393
 31
0.0
  0
ENDBLK
  5
9A
330
98
100
AcDbEntity
  8
0
100
AcDbBlockEnd
  0
BLOCK
  5
A4
330
A3
100
AcDbEntity
  8
0
100
AcDbBlockBegin
  2
SW_CENTERMARK9
 70
     0
 71
     0
 10
0.0
 20
0.0
 30
0.0
  3
SW_CENTERMARK9
  1

  0
LINE
  5
A6
330
A3
100
AcDbEntity
  8
SLD-0
  6
Continuous
 62
   179
100
AcDbLine
 10
79.9709464309
 20
105.9920817393
 30
0.0
 11
79.9709464309
 21
108.4920817393
 31
0.0
  0
LINE
  5
A7
330
A3
100
AcDbEntity
  8
SLD-0
  6
Continuous
 62
   179
100
AcDbLine
 10
79.9709464309
 20
105.9920817393
 30
0.0
 11
77.4709464309
 21
105.9920817393
 31
0.0
  0
LINE
  5
A8
330
A3
100
AcDbEntity
  8
SLD-0
  6
Continuous
 62
   179
100
AcDbLine
 10
79.9709464309
 20
105.9920817393
 30
0.0
 11
79.9709464309
 21
103.4920817393
 31
0.0
  0
LINE
  5
A9
330
A3
100
AcDbEntity
  8
SLD-0
  6
Continuous
 62
   179
100
AcDbLine
 10
79.9709464309
 20
105.9920817393
 30
0.0
 11
82.4709464309
 21
105.9920817393
 31
0.0
  0
LINE
  5
AA
330
A3
100
AcDbEntity
  8
SLD-0
  6
Continuous
 62
   179
100
AcDbLine
 10
79.9709464309
 20
108.4920817393
 30
0.0
 11
79.9709464309
 21
109.7420817393
 31
0.0
  0
LINE
  5
AB
330
A3
100
AcDbEntity
  8
SLD-0
  6
Continuous
 62
   179
100
AcDbLine
 10
77.4709464309
 20
105.9920817393
 30
0.0
 11
76.2209464309
 21
105.9920817393
 31
0.0
  0
LINE
  5
AC
330
A3
100
AcDbEntity
  8
SLD-0
  6
Continuous
 62
   179
100
AcDbLine
 10
79.9709464309
 20
103.4920817393
 30
0.0
 11
79.9709464309
 21
102.2420817393
 31
0.0
  0
LINE
  5
AD
330
A3
100
AcDbEntity
  8
SLD-0
  6
Continuous
 62
   179
100
AcDbLine
 10
82.4709464309
 20
105.9920817393
 30
0.0
 11
83.7209464309
 21
105.9920817393
 31
0.0
  0
ENDBLK
  5
A5
330
A3
100
AcDbEntity
  8
0
100
AcDbBlockEnd
  0
BLOCK
  5
AF
330
AE
100
AcDbEntity
  8
0
100
AcDbBlockBegin
  2
SW_CENTERMARK10
 70
     0
 71
     0
 10
0.0
 20
0.0
 30
0.0
  3
SW_CENTERMARK10
  1

  0
LINE
  5
B1
330
AE
100
AcDbEntity
  8
SLD-0
  6
Continuous
 62
   179
100
AcDbLine
 10
59.7709464309
 20
102.6920817393
 30
0.0
 11
59.7709464309
 21
105.1920817393
 31
0.0
  0
LINE
  5
B2
330
AE
100
AcDbEntity
  8
SLD-0
  6
Continuous
 62
   179
100
AcDbLine
 10
59.7709464309
 20
102.6920817393
 30
0.0
 11
57.2709464309
 21
102.6920817393
 31
0.0
  0
LINE
  5
B3
330
AE
100
AcDbEntity
  8
SLD-0
  6
Continuous
 62
   179
100
AcDbLine
 10
59.7709464309
 20
102.6920817393
 30
0.0
 11
59.7709464309
 21
100.1920817393
 31
0.0
  0
LINE
  5
B4
330
AE
100
AcDbEntity
  8
SLD-0
  6
Continuous
 62
   179
100
AcDbLine
 10
59.7709464309
 20
102.6920817393
 30
0.0
 11
62.2709464309
 21
102.6920817393
 31
0.0
  0
LINE
  5
B5
330
AE
100
AcDbEntity
  8
SLD-0
  6
Continuous
 62
   179
100
AcDbLine
 10
59.7709464309
 20
105.1920817393
 30
0.0
 11
59.7709464309
 21
106.8920817393
 31
0.0
  0
LINE
  5
B6
330
AE
100
AcDbEntity
  8
SLD-0
  6
Continuous
 62
   179
100
AcDbLine
 10
57.2709464309
 20
102.6920817393
 30
0.0
 11
55.5709464309
 21
102.6920817393
 31
0.0
  0
LINE
  5
B7
330
AE
100
AcDbEntity
  8
SLD-0
  6
Continuous
 62
   179
100
AcDbLine
 10
59.7709464309
 20
100.1920817393
 30
0.0
 11
59.7709464309
 21
98.4920817393
 31
0.0
  0
LINE
  5
B8
330
AE
100
AcDbEntity
  8
SLD-0
  6
Continuous
 62
   179
100
AcDbLine
 10
62.2709464309
 20
102.6920817393
 30
0.0
 11
63.9709464309
 21
102.6920817393
 31
0.0
  0
ENDBLK
  5
B0
330
AE
100
AcDbEntity
  8
0
100
AcDbBlockEnd
  0
BLOCK
  5
BA
330
B9
100
AcDbEntity
  8
0
100
AcDbBlockBegin
  2
SW_CENTERMARK11
 70
     0
 71
     0
 10
0.0
 20
0.0
 30
0.0
  3
SW_CENTERMARK11
  1

  0
LINE
  5
BC
330
B9
100
AcDbEntity
  8
SLD-0
  6
Continuous
 62
   179
100
AcDbLine
 10
74.7709464309
 20
102.6920817393
 30
0.0
 11
74.7709464309
 21
105.1920817393
 31
0.0
  0
LINE
  5
BD
330
B9
100
AcDbEntity
  8
SLD-0
  6
Continuous
 62
   179
100
AcDbLine
 10
74.7709464309
 20
102.6920817393
 30
0.0
 11
72.2709464309
 21
102.6920817393
 31
0.0
  0
LINE
  5
BE
330
B9
100
AcDbEntity
  8
SLD-0
  6
Continuous
 62
   179
100
AcDbLine
 10
74.7709464309
 20
102.6920817393
 30
0.0
 11
74.7709464309
 21
100.1920817393
 31
0.0
  0
LINE
  5
BF
330
B9
100
AcDbEntity
  8
SLD-0
  6
Continuous
 62
   179
100
AcDbLine
 10
74.7709464309
 20
102.6920817393
 30
0.0
 11
77.2709464309
 21
102.6920817393
 31
0.0
  0
LINE
  5
C0
330
B9
100
AcDbEntity
  8
SLD-0
  6
Continuous
 62
   179
100
AcDbLine
 10
74.7709464309
 20
105.1920817393
 30
0.0
 11
74.7709464309
 21
107.0920817393
 31
0.0
  0
LINE
  5
C1
330
B9
100
AcDbEntity
  8
SLD-0
  6
Continuous
 62
   179
100
AcDbLine
 10
72.2709464309
 20
102.6920817393
 30
0.0
 11
70.3709464309
 21
102.6920817393
 31
0.0
  0
LINE
  5
C2
330
B9
100
AcDbEntity
  8
SLD-0
  6
Continuous
 62
   179
100
AcDbLine
 10
74.7709464309
 20
100.1920817393
 30
0.0
 11
74.7709464309
 21
98.2920817393
 31
0.0
  0
LINE
  5
C3
330
B9
100
AcDbEntity
  8
SLD-0
  6
Continuous
 62
   179
100
AcDbLine
 10
77.2709464309
 20
102.6920817393
 30
0.0
 11
79.1709464309
 21
102.6920817393
 31
0.0
  0
ENDBLK
  5
BB
330
B9
100
AcDbEntity
  8
0
100
AcDbBlockEnd
  0
BLOCK
  5
C5
330
C4
100
AcDbEntity
  8
0
100
AcDbBlockBegin
  2
SW_CENTERMARK12
 70
     0
 71
     0
 10
0.0
 20
0.0
 30
0.0
  3
SW_CENTERMARK12
  1

  0
LINE
  5
C7
330
C4
100
AcDbEntity
  8
SLD-0
  6
Continuous
 62
   179
100
AcDbLine
 10
54.5709464309
 20
105.9920817393
 30
0.0
 11
54.5709464309
 21
108.4920817393
 31
0.0
  0
LINE
  5
C8
330
C4
100
AcDbEntity
  8
SLD-0
  6
Continuous
 62
   179
100
AcDbLine
 10
54.5709464309
 20
105.9920817393
 30
0.0
 11
52.0709464309
 21
105.9920817393
 31
0.0
  0
LINE
  5
C9
330
C4
100
AcDbEntity
  8
SLD-0
  6
Continuous
 62
   179
100
AcDbLine
 10
54.5709464309
 20
105.9920817393
 30
0.0
 11
54.5709464309
 21
103.4920817393
 31
0.0
  0
LINE
  5
CA
330
C4
100
AcDbEntity
  8
SLD-0
  6
Continuous
 62
   179
100
AcDbLine
 10
54.5709464309
 20
105.9920817393
 30
0.0
 11
57.0709464309
 21
105.9920817393
 31
0.0
  0
LINE
  5
CB
330
C4
100
AcDbEntity
  8
SLD-0
  6
Continuous
 62
   179
100
AcDbLine
 10
54.5709464309
 20
108.4920817393
 30
0.0
 11
54.5709464309
 21
109.7420817393
 31
0.0
  0
LINE
  5
CC
330
C4
100
AcDbEntity
  8
SLD-0
  6
Continuous
 62
   179
100
AcDbLine
 10
52.0709464309
 20
105.9920817393
 30
0.0
 11
50.8209464309
 21
105.9920817393
 31
0.0
  0
LINE
  5
CD
330
C4
100
AcDbEntity
  8
SLD-0
  6
Continuous
 62
   179
100
AcDbLine
 10
54.5709464309
 20
103.4920817393
 30
0.0
 11
54.5709464309
 21
102.2420817393
 31
0.0
  0
LINE
  5
CE
330
C4
100
AcDbEntity
  8
SLD-0
  6
Continuous
 62
   179
100
AcDbLine
 10
57.0709464309
 20
105.9920817393
 30
0.0
 11
58.3209464309
 21
105.9920817393
 31
0.0
  0
ENDBLK
  5
C6
330
C4
100
AcDbEntity
  8
0
100
AcDbBlockEnd
  0
BLOCK
  5
2B3
330
2A9
100
AcDbEntity
  8
0
100
AcDbBlockBegin
  2
*D17
 70
     1
 71
     0
 10
0.0
 20
0.0
 30
0.0
  3
*D17
  1

  0
LINE
  5
2B9
330
2A9
100
AcDbEntity
  8
SLD-0
 62
     7
100
AcDbLine
 10
62.8451154284
 20
199.1145158198
 30
0.0
 11
62.8451154284
 21
176.432408562
 31
0.0
  0
LINE
  5
2BA
330
2A9
100
AcDbEntity
  8
SLD-0
 62
     7
100
AcDbLine
 10
102.8451154284
 20
198.3645158198
 30
0.0
 11
102.8451154284
 21
176.432408562
 31
0.0
  0
LINE
  5
2BB
330
2A9
100
AcDbEntity
  8
SLD-0
 62
     7
100
AcDbLine
 10
62.8451154284
 20
177.432408562
 30
0.0
 11
102.8451154284
 21
177.432408562
 31
0.0
  0
LINE
  5
2BC
330
2A9
100
AcDbEntity
  8
SLD-0
 62
     7
100
AcDbLine
 10
65.8451154284
 20
176.628561562
 30
0.0
 11
62.8451154284
 21
177.432408562
 31
0.0
  0
LINE
  5
2BD
330
2A9
100
AcDbEntity
  8
SLD-0
 62
     7
100
AcDbLine
 10
62.8451154284
 20
177.432408562
 30
0.0
 11
65.8451154284
 21
178.236255562
 31
0.0
  0
LINE
  5
2BE
330
2A9
100
AcDbEntity
  8
SLD-0
 62
     7
100
AcDbLine
 10
62.8451154284
 20
177.432408562
 30
0.0
 11
65.8451154284
 21
177.432408562
 31
0.0
  0
LINE
  5
2BF
330
2A9
100
AcDbEntity
  8
SLD-0
 62
     7
100
AcDbLine
 10
99.8451154284
 20
178.236255562
 30
0.0
 11
102.8451154284
 21
177.432408562
 31
0.0
  0
LINE
  5
2C0
330
2A9
100
AcDbEntity
  8
SLD-0
 62
     7
100
AcDbLine
 10
102.8451154284
 20
177.432408562
 30
0.0
 11
99.8451154284
 21
176.628561562
 31
0.0
  0
LINE
  5
2C1
330
2A9
100
AcDbEntity
  8
SLD-0
 62
     7
100
AcDbLine
 10
102.8451154284
 20
177.432408562
 30
0.0
 11
99.8451154284
 21
177.432408562
 31
0.0
  0
MTEXT
  5
2C2
330
2A9
100
AcDbEntity
  8
SLD-0
 62
     7
100
AcDbMText
 10
80.8084775727
 20
181.9591022579
 30
0.1
 40
3.5
 41
0.0
 71
     1
 72
     1
  1
40
  7
SLDTEXTSTYLE0
 73
     1
 44
1.0
  0
ENDBLK
  5
2B4
330
2A9
100
AcDbEntity
  8
0
100
AcDbBlockEnd
  0
BLOCK
  5
2B7
330
2B6
100
AcDbEntity
  8
0
100
AcDbBlockBegin
  2
_None
 70
     0
 71
     0
 10
0.0
 20
0.0
 30
0.0
  3
_None
  1

  0
ENDBLK
  5
2B8
330
2B6
100
AcDbEntity
  8
0
100
AcDbBlockEnd
  0
BLOCK
  5
2CE
330
2C4
100
AcDbEntity
  8
0
100
AcDbBlockBegin
  2
*D19
 70
     1
 71
     0
 10
0.0
 20
0.0
 30
0.0
  3
*D19
  1

  0
LINE
  5
2D0
330
2C4
100
AcDbEntity
  8
SLD-0
 62
     7
100
AcDbLine
 10
71.8451154284
 20
217.3645158198
 30
0.0
 11
71.8451154284
 21
247.6571376837
 31
0.0
  0
LINE
  5
2D1
330
2C4
100
AcDbEntity
  8
SLD-0
 62
     7
100
AcDbLine
 10
102.8451154284
 20
217.3645158198
 30
0.0
 11
102.8451154284
 21
247.6571376837
 31
0.0
  0
LINE
  5
2D2
330
2C4
100
AcDbEntity
  8
SLD-0
 62
     7
100
AcDbLine
 10
71.8451154284
 20
246.6571376837
 30
0.0
 11
102.8451154284
 21
246.6571376837
 31
0.0
  0
LINE
  5
2D3
330
2C4
100
AcDbEntity
  8
SLD-0
 62
     7
100
AcDbLine
 10
74.8451154284
 20
245.8532906837
 30
0.0
 11
71.8451154284
 21
246.6571376837
 31
0.0
  0
LINE
  5
2D4
330
2C4
100
AcDbEntity
  8
SLD-0
 62
     7
100
AcDbLine
 10
71.8451154284
 20
246.6571376837
 30
0.0
 11
74.8451154284
 21
247.4609846837
 31
0.0
  0
LINE
  5
2D5
330
2C4
100
AcDbEntity
  8
SLD-0
 62
     7
100
AcDbLine
 10
71.8451154284
 20
246.6571376837
 30
0.0
 11
74.8451154284
 21
246.6571376837
 31
0.0
  0
LINE
  5
2D6
330
2C4
100
AcDbEntity
  8
SLD-0
 62
     7
100
AcDbLine
 10
99.8451154284
 20
247.4609846837
 30
0.0
 11
102.8451154284
 21
246.6571376837
 31
0.0
  0
LINE
  5
2D7
330
2C4
100
AcDbEntity
  8
SLD-0
 62
     7
100
AcDbLine
 10
102.8451154284
 20
246.6571376837
 30
0.0
 11
99.8451154284
 21
245.8532906837
 31
0.0
  0
LINE
  5
2D8
330
2C4
100
AcDbEntity
  8
SLD-0
 62
     7
100
AcDbLine
 10
102.8451154284
 20
246.6571376837
 30
0.0
 11
99.8451154284
 21
246.6571376837
 31
0.0
  0
MTEXT
  5
2D9
330
2C4
100
AcDbEntity
  8
SLD-0
 62
     7
100
AcDbMText
 10
85.3084775727
 20
251.1838313797
 30
0.1
 40
3.5
 41
0.0
 71
     1
 72
     1
  1
31
  7
SLDTEXTSTYLE0
 73
     1
 44
1.0
  0
ENDBLK
  5
2CF
330
2C4
100
AcDbEntity
  8
0
100
AcDbBlockEnd
  0
BLOCK
  5
2E6
330
2DB
100
AcDbEntity
  8
0
100
AcDbBlockBegin
  2
*D20
 70
     1
 71
     0
 10
0.0
 20
0.0
 30
0.0
  3
*D20
  1

  0
LINE
  5
2E8
330
2DB
100
AcDbEntity
  8
SLD-0
 62
     7
100
AcDbLine
 10
103.8451154284
 20
216.3645158198
 30
0.0
 11
129.7382804609
 21
216.3645158198
 31
0.0
  0
LINE
  5
2E9
330
2DB
100
AcDbEntity
  8
SLD-0
 62
     7
100
AcDbLine
 10
103.8451154284
 20
199.3645158198
 30
0.0
 11
129.7382804609
 21
199.3645158198
 31
0.0
  0
LINE
  5
2EA
330
2DB
100
AcDbEntity
  8
SLD-0
 62
     7
100
AcDbLine
 10
128.7382804609
 20
216.3645158198
 30
0.0
 11
128.7382804609
 21
199.3645158198
 31
0.0
  0
LINE
  5
2EB
330
2DB
100
AcDbEntity
  8
SLD-0
 62
     7
100
AcDbLine
 10
127.9344334609
 20
213.3645158198
 30
0.0
 11
128.7382804609
 21
216.3645158198
 31
0.0
  0
LINE
  5
2EC
330
2DB
100
AcDbEntity
  8
SLD-0
 62
     7
100
AcDbLine
 10
128.7382804609
 20
216.3645158198
 30
0.0
 11
129.5421274609
 21
213.3645158198
 31
0.0
  0
LINE
  5
2ED
330
2DB
100
AcDbEntity
  8
SLD-0
 62
     7
100
AcDbLine
 10
128.7382804609
 20
216.3645158198
 30
0.0
 11
128.7382804609
 21
213.3645158198
 31
0.0
  0
LINE
  5
2EE
330
2DB
100
AcDbEntity
  8
SLD-0
 62
     7
100
AcDbLine
 10
129.5421274609
 20
202.3645158198
 30
0.0
 11
128.7382804609
 21
199.3645158198
 31
0.0
  0
LINE
  5
2EF
330
2DB
100
AcDbEntity
  8
SLD-0
 62
     7
100
AcDbLine
 10
128.7382804609
 20
199.3645158198
 30
0.0
 11
127.9344334609
 21
202.3645158198
 31
0.0
  0
LINE
  5
2F0
330
2DB
100
AcDbEntity
  8
SLD-0
 62
     7
100
AcDbLine
 10
128.7382804609
 20
199.3645158198
 30
0.0
 11
128.7382804609
 21
202.3645158198
 31
0.0
  0
MTEXT
  5
2F1
330
2DB
100
AcDbEntity
  8
SLD-0
 62
     7
100
AcDbMText
 10
124.211586765
 20
205.8278779641
 30
0.1
 40
3.5
 41
0.0
 71
     1
 72
     1
  1
17
  7
SLDTEXTSTYLE0
 11
6.123031769111886E-17
 21
1.0
 31
0.0
 73
     1
 44
1.0
  0
ENDBLK
  5
2E7
330
2DB
100
AcDbEntity
  8
0
100
AcDbBlockEnd
  0
BLOCK
  5
2FA
330
2F3
100
AcDbEntity
  8
0
100
AcDbBlockBegin
  2
*D21
 70
     1
 71
     0
 10
0.0
 20
0.0
 30
0.0
  3
*D21
  1

  0
LINE
  5
2FD
330
2F3
100
AcDbEntity
  8
SLD-0
 62
     7
100
AcDbLine
 10
61.8818400101
 20
207.9402876398
 30
0.0
 11
55.9845963199
 21
223.7093541222
 31
0.0
  0
LINE
  5
2FE
330
2F3
100
AcDbEntity
  8
SLD-0
 62
     7
100
AcDbLine
 10
55.9845963199
 20
223.7093541222
 30
0.0
 11
41.2454126473
 21
223.7093541222
 31
0.0
  0
LINE
  5
2FF
330
2F3
100
AcDbEntity
  8
SLD-0
 62
     7
100
AcDbLine
 10
61.5839128083
 20
211.0317936453
 30
0.0
 11
61.8818400101
 21
207.9402876398
 31
0.0
  0
LINE
  5
300
330
2F3
100
AcDbEntity
  8
SLD-0
 62
     7
100
AcDbLine
 10
61.8818400101
 20
207.9402876398
 30
0.0
 11
60.0780753901
 21
210.4686474233
 31
0.0
  0
LINE
  5
301
330
2F3
100
AcDbEntity
  8
SLD-0
 62
     7
100
AcDbLine
 10
61.8818400101
 20
207.9402876398
 30
0.0
 11
60.8309940992
 21
210.7502205343
 31
0.0
  0
MTEXT
  5
302
330
2F3
100
AcDbEntity
  8
SLD-0
 62
     7
100
AcDbMText
 10
41.0829126473
 20
228.2360475854
 30
0.1
 40
3.5
 41
0.0
 71
     1
 72
     1
  1
%%c
  7
SLDTEXTSTYLE0
 73
     1
 44
1.0
  0
MTEXT
  5
303
330
2F3
100
AcDbEntity
  8
SLD-0
 62
     7
100
AcDbMText
 10
46.7015772997
 20
228.2360478182
 30
0.1
 40
3.5
 41
0.0
 71
     1
 72
     1
  1
5.5
  7
SLDTEXTSTYLE0
 73
     1
 44
1.0
  0
ENDBLK
  5
2FB
330
2F3
100
AcDbEntity
  8
0
100
AcDbBlockEnd
  0
BLOCK
  5
312
330
305
100
AcDbEntity
  8
0
100
AcDbBlockBegin
  2
*D22
 70
     1
 71
     0
 10
0.0
 20
0.0
 30
0.0
  3
*D22
  1

  0
LINE
  5
315
330
305
100
AcDbEntity
  8
SLD-0
 62
     7
100
AcDbLine
 10
100.0451154284
 20
218.3645158198
 30
0.0
 11
100.0451154284
 21
238.3200999165
 31
0.0
  0
LINE
  5
316
330
305
100
AcDbEntity
  8
SLD-0
 62
     7
100
AcDbLine
 10
102.8451154284
 20
217.3645158198
 30
0.0
 11
102.8451154284
 21
238.3200999165
 31
0.0
  0
LINE
  5
317
330
305
100
AcDbEntity
  8
SLD-0
 62
     7
100
AcDbLine
 10
100.0451154284
 20
237.3200999165
 30
0.0
 11
95.0451154284
 21
237.3200999165
 31
0.0
  0
LINE
  5
318
330
305
100
AcDbEntity
  8
SLD-0
 62
     7
100
AcDbLine
 10
100.0451154284
 20
237.3200999165
 30
0.0
 11
102.8451154284
 21
237.3200999165
 31
0.0
  0
LINE
  5
319
330
305
100
AcDbEntity
  8
SLD-0
 62
     7
100
AcDbLine
 10
102.8451154284
 20
237.3200999165
 30
0.0
 11
116.0637749301
 21
237.3200999165
 31
0.0
  0
LINE
  5
31A
330
305
100
AcDbEntity
  8
SLD-0
 62
     7
100
AcDbLine
 10
97.0451154284
 20
238.1239469165
 30
0.0
 11
100.0451154284
 21
237.3200999165
 31
0.0
  0
LINE
  5
31B
330
305
100
AcDbEntity
  8
SLD-0
 62
     7
100
AcDbLine
 10
100.0451154284
 20
237.3200999165
 30
0.0
 11
97.0451154284
 21
236.5162529165
 31
0.0
  0
LINE
  5
31C
330
305
100
AcDbEntity
  8
SLD-0
 62
     7
100
AcDbLine
 10
100.0451154284
 20
237.3200999165
 30
0.0
 11
97.0451154284
 21
237.3200999165
 31
0.0
  0
LINE
  5
31D
330
305
100
AcDbEntity
  8
SLD-0
 62
     7
100
AcDbLine
 10
105.8451154284
 20
236.5162529165
 30
0.0
 11
102.8451154284
 21
237.3200999165
 31
0.0
  0
LINE
  5
31E
330
305
100
AcDbEntity
  8
SLD-0
 62
     7
100
AcDbLine
 10
102.8451154284
 20
237.3200999165
 30
0.0
 11
105.8451154284
 21
238.1239469165
 31
0.0
  0
LINE
  5
31F
330
305
100
AcDbEntity
  8
SLD-0
 62
     7
100
AcDbLine
 10
102.8451154284
 20
237.3200999165
 30
0.0
 11
105.8451154284
 21
237.3200999165
 31
0.0
  0
MTEXT
  5
320
330
305
100
AcDbEntity
  8
SLD-0
 62
     7
100
AcDbMText
 10
108.3682559098
 20
241.8467936124
 30
0.1
 40
3.5
 41
0.0
 71
     1
 72
     1
  1
2.8
  7
SLDTEXTSTYLE0
 73
     1
 44
1.0
  0
ENDBLK
  5
313
330
305
100
AcDbEntity
  8
0
100
AcDbBlockEnd
  0
BLOCK
  5
32C
330
322
100
AcDbEntity
  8
0
100
AcDbBlockBegin
  2
*D23
 70
     1
 71
     0
 10
0.0
 20
0.0
 30
0.0
  3
*D23
  1

  0
LINE
  5
32E
330
322
100
AcDbEntity
  8
SLD-0
 62
     7
100
AcDbLine
 10
74.6451154284
 20
218.3645158198
 30
0.0
 11
74.6451154284
 21
238.3200999165
 31
0.0
  0
LINE
  5
32F
330
322
100
AcDbEntity
  8
SLD-0
 62
     7
100
AcDbLine
 10
100.0451154284
 20
218.3645158198
 30
0.0
 11
100.0451154284
 21
238.3200999165
 31
0.0
  0
LINE
  5
330
330
322
100
AcDbEntity
  8
SLD-0
 62
     7
100
AcDbLine
 10
74.6451154284
 20
237.3200999165
 30
0.0
 11
100.0451154284
 21
237.3200999165
 31
0.0
  0
LINE
  5
331
330
322
100
AcDbEntity
  8
SLD-0
 62
     7
100
AcDbLine
 10
77.6451154284
 20
236.5162529165
 30
0.0
 11
74.6451154284
 21
237.3200999165
 31
0.0
  0
LINE
  5
332
330
322
100
AcDbEntity
  8
SLD-0
 62
     7
100
AcDbLine
 10
74.6451154284
 20
237.3200999165
 30
0.0
 11
77.6451154284
 21
238.1239469165
 31
0.0
  0
LINE
  5
333
330
322
100
AcDbEntity
  8
SLD-0
 62
     7
100
AcDbLine
 10
74.6451154284
 20
237.3200999165
 30
0.0
 11
77.6451154284
 21
237.3200999165
 31
0.0
  0
LINE
  5
334
330
322
100
AcDbEntity
  8
SLD-0
 62
     7
100
AcDbLine
 10
97.0451154284
 20
238.1239469165
 30
0.0
 11
100.0451154284
 21
237.3200999165
 31
0.0
  0
LINE
  5
335
330
322
100
AcDbEntity
  8
SLD-0
 62
     7
100
AcDbLine
 10
100.0451154284
 20
237.3200999165
 30
0.0
 11
97.0451154284
 21
236.5162529165
 31
0.0
  0
LINE
  5
336
330
322
100
AcDbEntity
  8
SLD-0
 62
     7
100
AcDbLine
 10
100.0451154284
 20
237.3200999165
 30
0.0
 11
97.0451154284
 21
237.3200999165
 31
0.0
  0
MTEXT
  5
337
330
322
100
AcDbEntity
  8
SLD-0
 62
     7
100
AcDbMText
 10
83.271839717
 20
241.8467936124
 30
0.1
 40
3.5
 41
0.0
 71
     1
 72
     1
  1
25.4
  7
SLDTEXTSTYLE0
 73
     1
 44
1.0
  0
ENDBLK
  5
32D
330
322
100
AcDbEntity
  8
0
100
AcDbBlockEnd
  0
BLOCK
  5
344
330
339
100
AcDbEntity
  8
0
100
AcDbBlockBegin
  2
*D24
 70
     1
 71
     0
 10
0.0
 20
0.0
 30
0.0
  3
*D24
  1

  0
LINE
  5
346
330
339
100
AcDbEntity
  8
SLD-0
100
AcDbLine
 10
61.8451154284
 20
199.3645158198
 30
0.0
 11
38.353234361
 21
199.3645158198
 31
0.0
  0
LINE
  5
347
330
339
100
AcDbEntity
  8
SLD-0
100
AcDbLine
 10
61.8451154284
 20
211.3645158198
 30
0.0
 11
38.353234361
 21
211.3645158198
 31
0.0
  0
LINE
  5
348
330
339
100
AcDbEntity
  8
SLD-0
100
AcDbLine
 10
39.353234361
 20
199.3645158198
 30
0.0
 11
39.353234361
 21
211.3645158198
 31
0.0
  0
LINE
  5
349
330
339
100
AcDbEntity
  8
SLD-0
100
AcDbLine
 10
40.157081361
 20
202.3645158198
 30
0.0
 11
39.353234361
 21
199.3645158198
 31
0.0
  0
LINE
  5
34A
330
339
100
AcDbEntity
  8
SLD-0
100
AcDbLine
 10
39.353234361
 20
199.3645158198
 30
0.0
 11
38.549387361
 21
202.3645158198
 31
0.0
  0
LINE
  5
34B
330
339
100
AcDbEntity
  8
SLD-0
100
AcDbLine
 10
39.353234361
 20
199.3645158198
 30
0.0
 11
39.353234361
 21
202.3645158198
 31
0.0
  0
LINE
  5
34C
330
339
100
AcDbEntity
  8
SLD-0
100
AcDbLine
 10
38.549387361
 20
208.3645158198
 30
0.0
 11
39.353234361
 21
211.3645158198
 31
0.0
  0
LINE
  5
34D
330
339
100
AcDbEntity
  8
SLD-0
100
AcDbLine
 10
39.353234361
 20
211.3645158198
 30
0.0
 11
40.157081361
 21
208.3645158198
 31
0.0
  0
LINE
  5
34E
330
339
100
AcDbEntity
  8
SLD-0
100
AcDbLine
 10
39.353234361
 20
211.3645158198
 30
0.0
 11
39.353234361
 21
208.3645158198
 31
0.0
  0
MTEXT
  5
34F
330
339
100
AcDbEntity
  8
SLD-0
100
AcDbMText
 10
34.826540665
 20
203.3278779641
 30
0.1
 40
3.5
 41
0.0
 71
     1
 72
     1
  1
12
  7
SLDTEXTSTYLE0
 11
6.123031769111886E-17
 21
1.0
 31
0.0
 73
     1
 44
1.0
  0
ENDBLK
  5
345
330
339
100
AcDbEntity
  8
0
100
AcDbBlockEnd
  0
BLOCK
  5
35C
330
351
100
AcDbEntity
  8
0
100
AcDbBlockBegin
  2
*D25
 70
     1
 71
     0
 10
0.0
 20
0.0
 30
0.0
  3
*D25
  1

  0
LINE
  5
35E
330
351
100
AcDbEntity
  8
SLD-0
100
AcDbLine
 10
61.8451154284
 20
199.3645158198
 30
0.0
 11
46.8212544836
 21
199.3645158198
 31
0.0
  0
LINE
  5
35F
330
351
100
AcDbEntity
  8
SLD-0
100
AcDbLine
 10
56.5951154284
 20
205.3645158198
 30
0.0
 11
46.8212544836
 21
205.3645158198
 31
0.0
  0
LINE
  5
360
330
351
100
AcDbEntity
  8
SLD-0
100
AcDbLine
 10
47.8212544836
 20
199.3645158198
 30
0.0
 11
47.8212544836
 21
194.3645158198
 31
0.0
  0
LINE
  5
361
330
351
100
AcDbEntity
  8
SLD-0
100
AcDbLine
 10
47.8212544836
 20
199.3645158198
 30
0.0
 11
47.8212544836
 21
205.3645158198
 31
0.0
  0
LINE
  5
362
330
351
100
AcDbEntity
  8
SLD-0
100
AcDbLine
 10
47.8212544836
 20
205.3645158198
 30
0.0
 11
47.8212544836
 21
210.3645158198
 31
0.0
  0
LINE
  5
363
330
351
100
AcDbEntity
  8
SLD-0
100
AcDbLine
 10
47.0174074836
 20
196.3645158198
 30
0.0
 11
47.8212544836
 21
199.3645158198
 31
0.0
  0
LINE
  5
364
330
351
100
AcDbEntity
  8
SLD-0
100
AcDbLine
 10
47.8212544836
 20
199.3645158198
 30
0.0
 11
48.6251014836
 21
196.3645158198
 31
0.0
  0
LINE
  5
365
330
351
100
AcDbEntity
  8
SLD-0
100
AcDbLine
 10
47.8212544836
 20
199.3645158198
 30
0.0
 11
47.8212544836
 21
196.3645158198
 31
0.0
  0
LINE
  5
366
330
351
100
AcDbEntity
  8
SLD-0
100
AcDbLine
 10
48.6251014836
 20
208.3645158198
 30
0.0
 11
47.8212544836
 21
205.3645158198
 31
0.0
  0
LINE
  5
367
330
351
100
AcDbEntity
  8
SLD-0
100
AcDbLine
 10
47.8212544836
 20
205.3645158198
 30
0.0
 11
47.0174074836
 21
208.3645158198
 31
0.0
  0
LINE
  5
368
330
351
100
AcDbEntity
  8
SLD-0
100
AcDbLine
 10
47.8212544836
 20
205.3645158198
 30
0.0
 11
47.8212544836
 21
208.3645158198
 31
0.0
  0
MTEXT
  5
369
330
351
100
AcDbEntity
  8
SLD-0
100
AcDbMText
 10
43.2945607876
 20
201.3471441654
 30
0.1
 40
3.5
 41
0.0
 71
     1
 72
     1
  1
6
  7
SLDTEXTSTYLE0
 11
6.123031769111886E-17
 21
1.0
 31
0.0
 73
     1
 44
1.0
  0
ENDBLK
  5
35D
330
351
100
AcDbEntity
  8
0
100
AcDbBlockEnd
  0
BLOCK
  5
376
330
36B
100
AcDbEntity
  8
0
100
AcDbBlockBegin
  2
*D26
 70
     1
 71
     0
 10
0.0
 20
0.0
 30
0.0
  3
*D26
  1

  0
LINE
  5
379
330
36B
100
AcDbEntity
  8
SLD-0
100
AcDbLine
 10
103.8451154284
 20
199.3645158198
 30
0.0
 11
121.7688973302
 21
199.3645158198
 31
0.0
  0
LINE
  5
37A
330
36B
100
AcDbEntity
  8
SLD-0
100
AcDbLine
 10
104.7951154284
 20
213.6145158198
 30
0.0
 11
121.7688973302
 21
213.6145158198
 31
0.0
  0
LINE
  5
37B
330
36B
100
AcDbEntity
  8
SLD-0
100
AcDbLine
 10
120.7688973302
 20
199.3645158198
 30
0.0
 11
120.7688973302
 21
213.6145158198
 31
0.0
  0
LINE
  5
37C
330
36B
100
AcDbEntity
  8
SLD-0
100
AcDbLine
 10
121.5727443302
 20
202.3645158198
 30
0.0
 11
120.7688973302
 21
199.3645158198
 31
0.0
  0
LINE
  5
37D
330
36B
100
AcDbEntity
  8
SLD-0
100
AcDbLine
 10
120.7688973302
 20
199.3645158198
 30
0.0
 11
119.9650503302
 21
202.3645158198
 31
0.0
  0
LINE
  5
37E
330
36B
100
AcDbEntity
  8
SLD-0
100
AcDbLine
 10
120.7688973302
 20
199.3645158198
 30
0.0
 11
120.7688973302
 21
202.3645158198
 31
0.0
  0
LINE
  5
37F
330
36B
100
AcDbEntity
  8
SLD-0
100
AcDbLine
 10
119.9650503302
 20
210.6145158198
 30
0.0
 11
120.7688973302
 21
213.6145158198
 31
0.0
  0
LINE
  5
380
330
36B
100
AcDbEntity
  8
SLD-0
100
AcDbLine
 10
120.7688973302
 20
213.6145158198
 30
0.0
 11
121.5727443302
 21
210.6145158198
 31
0.0
  0
LINE
  5
381
330
36B
100
AcDbEntity
  8
SLD-0
100
AcDbLine
 10
120.7688973302
 20
213.6145158198
 30
0.0
 11
120.7688973302
 21
210.6145158198
 31
0.0
  0
MTEXT
  5
382
330
36B
100
AcDbEntity
  8
SLD-0
100
AcDbMText
 10
116.2422036342
 20
201.398868454
 30
0.1
 40
3.5
 41
0.0
 71
     1
 72
     1
  1
14.25
  7
SLDTEXTSTYLE0
 11
6.123031769111886E-17
 21
1.0
 31
0.0
 73
     1
 44
1.0
  0
ENDBLK
  5
377
330
36B
100
AcDbEntity
  8
0
100
AcDbBlockEnd
  0
BLOCK
  5
38B
330
384
100
AcDbEntity
  8
0
100
AcDbBlockBegin
  2
*D27
 70
     1
 71
     0
 10
0.0
 20
0.0
 30
0.0
  3
*D27
  1

  0
LINE
  5
38E
330
384
100
AcDbEntity
  8
SLD-0
 62
     7
100
AcDbLine
 10
58.0115735046
 20
208.9193537164
 30
0.0
 11
46.9046927467
 21
217.0879309739
 31
0.0
  0
LINE
  5
38F
330
384
100
AcDbEntity
  8
SLD-0
 62
     7
100
AcDbLine
 10
56.0710601725
 20
211.3443440272
 30
0.0
 11
58.0115735046
 21
208.9193537164
 31
0.0
  0
LINE
  5
390
330
384
100
AcDbEntity
  8
SLD-0
 62
     7
100
AcDbLine
 10
58.0115735046
 20
208.9193537164
 30
0.0
 11
55.1185449129
 21
210.0492013022
 31
0.0
  0
LINE
  5
391
330
384
100
AcDbEntity
  8
SLD-0
 62
     7
100
AcDbLine
 10
58.0115735046
 20
208.9193537164
 30
0.0
 11
55.5948025427
 21
210.6967726647
 31
0.0
  0
MTEXT
  5
392
330
384
100
AcDbEntity
  8
SLD-0
 62
     7
100
AcDbMText
 10
50.8561906245
 20
219.7813676179
 30
0.1
 40
3.5
 41
0.0
 71
     1
 72
     1
  1
R
  7
SLDTEXTSTYLE0
 11
0.8055903206030854
 21
-0.5924729828022692
 31
0.0
 73
     1
 44
1.0
  0
MTEXT
  5
393
330
384
100
AcDbEntity
  8
SLD-0
 62
     7
100
AcDbMText
 10
52.4953601391
 20
218.5758371805
 30
0.1
 40
3.5
 41
0.0
 71
     1
 72
     1
  1
6
  7
SLDTEXTSTYLE0
 11
0.8055903206030854
 21
-0.5924729828022692
 31
0.0
 73
     1
 44
1.0
  0
ENDBLK
  5
38C
330
384
100
AcDbEntity
  8
0
100
AcDbBlockEnd
  0
BLOCK
  5
39C
330
395
100
AcDbEntity
  8
0
100
AcDbBlockBegin
  2
*D28
 70
     1
 71
     0
 10
0.0
 20
0.0
 30
0.0
  3
*D28
  1

  0
LINE
  5
39F
330
395
100
AcDbEntity
  8
SLD-0
 62
     7
100
AcDbLine
 10
100.6511860322
 20
214.9866231127
 30
0.0
 11
106.8774712092
 21
229.0825572242
 31
0.0
  0
LINE
  5
3A0
330
395
100
AcDbEntity
  8
SLD-0
 62
     7
100
AcDbLine
 10
106.8774712092
 20
229.0825572242
 30
0.0
 11
142.1838554041
 21
229.0825572242
 31
0.0
  0
LINE
  5
3A1
330
395
100
AcDbEntity
  8
SLD-0
 62
     7
100
AcDbLine
 10
102.5986367939
 20
217.406045674
 30
0.0
 11
100.6511860322
 21
214.9866231127
 31
0.0
  0
LINE
  5
3A2
330
395
100
AcDbEntity
  8
SLD-0
 62
     7
100
AcDbLine
 10
100.6511860322
 20
214.9866231127
 30
0.0
 11
101.1280176859
 21
218.0556297229
 31
0.0
  0
LINE
  5
3A3
330
395
100
AcDbEntity
  8
SLD-0
 62
     7
100
AcDbLine
 10
100.6511860322
 20
214.9866231127
 30
0.0
 11
101.8633272399
 21
217.7308376984
 31
0.0
  0
MTEXT
  5
3A4
330
395
100
AcDbEntity
  8
SLD-0
 62
     7
100
AcDbMText
 10
110.0524712092
 20
233.6092509202
 30
0.1
 40
3.5
 41
0.0
 71
     1
 72
     1
  1
2-M
  7
SLDTEXTSTYLE0
 73
     1
 44
1.0
  0
MTEXT
  5
3A5
330
395
100
AcDbEntity
  8
SLD-0
 62
     7
100
AcDbMText
 10
116.1604902295
 20
233.6092509202
 30
0.1
 40
3.5
 41
0.0
 71
     1
 72
     1
  1
3
  7
SLDTEXTSTYLE0
 73
     1
 44
1.0
  0
MTEXT
  5
3A6
330
395
100
AcDbEntity
  8
SLD-0
 62
     7
100
AcDbMText
 10
118.1952335383
 20
233.6092509202
 30
0.1
 40
3.5
 41
0.0
 71
     1
 72
     1
  1
(E3Z-B61用)
  7
SLDTEXTSTYLE0
 73
     1
 44
1.0
  0
ENDBLK
  5
39D
330
395
100
AcDbEntity
  8
0
100
AcDbBlockEnd
  0
BLOCK
  5
3B3
330
3A8
100
AcDbEntity
  8
0
100
AcDbBlockBegin
  2
*D29
 70
     1
 71
     0
 10
0.0
 20
0.0
 30
0.0
  3
*D29
  1

  0
LINE
  5
3B5
330
3A8
100
AcDbEntity
  8
SLD-0
 62
     7
100
AcDbLine
 10
103.8451154284
 20
199.3645158198
 30
0.0
 11
111.4399436239
 21
199.3645158198
 31
0.0
  0
LINE
  5
3B6
330
3A8
100
AcDbEntity
  8
SLD-0
 62
     7
100
AcDbLine
 10
99.1451154284
 20
210.3145158198
 30
0.0
 11
111.4399436239
 21
210.3145158198
 31
0.0
  0
LINE
  5
3B7
330
3A8
100
AcDbEntity
  8
SLD-0
 62
     7
100
AcDbLine
 10
110.4399436239
 20
199.3645158198
 30
0.0
 11
110.4399436239
 21
210.3145158198
 31
0.0
  0
LINE
  5
3B8
330
3A8
100
AcDbEntity
  8
SLD-0
 62
     7
100
AcDbLine
 10
111.2437906239
 20
202.3645158198
 30
0.0
 11
110.4399436239
 21
199.3645158198
 31
0.0
  0
LINE
  5
3B9
330
3A8
100
AcDbEntity
  8
SLD-0
 62
     7
100
AcDbLine
 10
110.4399436239
 20
199.3645158198
 30
0.0
 11
109.6360966239
 21
202.3645158198
 31
0.0
  0
LINE
  5
3BA
330
3A8
100
AcDbEntity
  8
SLD-0
 62
     7
100
AcDbLine
 10
110.4399436239
 20
199.3645158198
 30
0.0
 11
110.4399436239
 21
202.3645158198
 31
0.0
  0
LINE
  5
3BB
330
3A8
100
AcDbEntity
  8
SLD-0
 62
     7
100
AcDbLine
 10
109.6360966239
 20
207.3145158198
 30
0.0
 11
110.4399436239
 21
210.3145158198
 31
0.0
  0
LINE
  5
3BC
330
3A8
100
AcDbEntity
  8
SLD-0
 62
     7
100
AcDbLine
 10
110.4399436239
 20
210.3145158198
 30
0.0
 11
111.2437906239
 21
207.3145158198
 31
0.0
  0
LINE
  5
3BD
330
3A8
100
AcDbEntity
  8
SLD-0
 62
     7
100
AcDbLine
 10
110.4399436239
 20
210.3145158198
 30
0.0
 11
110.4399436239
 21
207.3145158198
 31
0.0
  0
MTEXT
  5
3BE
330
3A8
100
AcDbEntity
  8
SLD-0
 62
     7
100
AcDbMText
 10
105.913249928
 20
202.8028779641
 30
0.1
 40
3.5
 41
0.0
 71
     1
 72
     1
  1
11
  7
SLDTEXTSTYLE0
 11
6.123031769111886E-17
 21
1.0
 31
0.0
 73
     1
 44
1.0
  0
ENDBLK
  5
3B4
330
3A8
100
AcDbEntity
  8
0
100
AcDbBlockEnd
  0
BLOCK
  5
3CB
330
3C0
100
AcDbEntity
  8
0
100
AcDbBlockBegin
  2
*D30
 70
     1
 71
     0
 10
0.0
 20
0.0
 30
0.0
  3
*D30
  1

  0
LINE
  5
3CD
330
3C0
100
AcDbEntity
  8
SLD-0
 62
     7
100
AcDbLine
 10
102.8451154284
 20
198.3645158198
 30
0.0
 11
102.8451154284
 21
184.7866709476
 31
0.0
  0
LINE
  5
3CE
330
3C0
100
AcDbEntity
  8
SLD-0
 62
     7
100
AcDbLine
 10
94.8451154284
 20
206.0145158198
 30
0.0
 11
94.8451154284
 21
184.7866709476
 31
0.0
  0
LINE
  5
3CF
330
3C0
100
AcDbEntity
  8
SLD-0
 62
     7
100
AcDbLine
 10
102.8451154284
 20
185.7866709476
 30
0.0
 11
107.8451154284
 21
185.7866709476
 31
0.0
  0
LINE
  5
3D0
330
3C0
100
AcDbEntity
  8
SLD-0
 62
     7
100
AcDbLine
 10
102.8451154284
 20
185.7866709476
 30
0.0
 11
94.8451154284
 21
185.7866709476
 31
0.0
  0
LINE
  5
3D1
330
3C0
100
AcDbEntity
  8
SLD-0
 62
     7
100
AcDbLine
 10
94.8451154284
 20
185.7866709476
 30
0.0
 11
89.8451154284
 21
185.7866709476
 31
0.0
  0
LINE
  5
3D2
330
3C0
100
AcDbEntity
  8
SLD-0
 62
     7
100
AcDbLine
 10
105.8451154284
 20
184.9828239476
 30
0.0
 11
102.8451154284
 21
185.7866709476
 31
0.0
  0
LINE
  5
3D3
330
3C0
100
AcDbEntity
  8
SLD-0
 62
     7
100
AcDbLine
 10
102.8451154284
 20
185.7866709476
 30
0.0
 11
105.8451154284
 21
186.5905179476
 31
0.0
  0
LINE
  5
3D4
330
3C0
100
AcDbEntity
  8
SLD-0
 62
     7
100
AcDbLine
 10
102.8451154284
 20
185.7866709476
 30
0.0
 11
105.8451154284
 21
185.7866709476
 31
0.0
  0
LINE
  5
3D5
330
3C0
100
AcDbEntity
  8
SLD-0
 62
     7
100
AcDbLine
 10
91.8451154284
 20
186.5905179476
 30
0.0
 11
94.8451154284
 21
185.7866709476
 31
0.0
  0
LINE
  5
3D6
330
3C0
100
AcDbEntity
  8
SLD-0
 62
     7
100
AcDbLine
 10
94.8451154284
 20
185.7866709476
 30
0.0
 11
91.8451154284
 21
184.9828239476
 31
0.0
  0
LINE
  5
3D7
330
3C0
100
AcDbEntity
  8
SLD-0
 62
     7
100
AcDbLine
 10
94.8451154284
 20
185.7866709476
 30
0.0
 11
91.8451154284
 21
185.7866709476
 31
0.0
  0
MTEXT
  5
3D8
330
3C0
100
AcDbEntity
  8
SLD-0
 62
     7
100
AcDbMText
 10
97.827743774
 20
190.3133646435
 30
0.1
 40
3.5
 41
0.0
 71
     1
 72
     1
  1
8
  7
SLDTEXTSTYLE0
 73
     1
 44
1.0
  0
ENDBLK
  5
3CC
330
3C0
100
AcDbEntity
  8
0
100
AcDbBlockEnd
  0
BLOCK
  5
3E4
330
3DA
100
AcDbEntity
  8
0
100
AcDbBlockBegin
  2
*D31
 70
     1
 71
     0
 10
0.0
 20
0.0
 30
0.0
  3
*D31
  1

  0
LINE
  5
3E6
330
3DA
100
AcDbEntity
  8
SLD-0
 62
     7
100
AcDbLine
 10
79.8451154284
 20
206.0145158198
 30
0.0
 11
79.8451154284
 21
184.7866709476
 31
0.0
  0
LINE
  5
3E7
330
3DA
100
AcDbEntity
  8
SLD-0
 62
     7
100
AcDbLine
 10
94.8451154284
 20
206.0145158198
 30
0.0
 11
94.8451154284
 21
184.7866709476
 31
0.0
  0
LINE
  5
3E8
330
3DA
100
AcDbEntity
  8
SLD-0
 62
     7
100
AcDbLine
 10
79.8451154284
 20
185.7866709476
 30
0.0
 11
94.8451154284
 21
185.7866709476
 31
0.0
  0
LINE
  5
3E9
330
3DA
100
AcDbEntity
  8
SLD-0
 62
     7
100
AcDbLine
 10
82.8451154284
 20
184.9828239476
 30
0.0
 11
79.8451154284
 21
185.7866709476
 31
0.0
  0
LINE
  5
3EA
330
3DA
100
AcDbEntity
  8
SLD-0
 62
     7
100
AcDbLine
 10
79.8451154284
 20
185.7866709476
 30
0.0
 11
82.8451154284
 21
186.5905179476
 31
0.0
  0
LINE
  5
3EB
330
3DA
100
AcDbEntity
  8
SLD-0
 62
     7
100
AcDbLine
 10
79.8451154284
 20
185.7866709476
 30
0.0
 11
82.8451154284
 21
185.7866709476
 31
0.0
  0
LINE
  5
3EC
330
3DA
100
AcDbEntity
  8
SLD-0
 62
     7
100
AcDbLine
 10
91.8451154284
 20
186.5905179476
 30
0.0
 11
94.8451154284
 21
185.7866709476
 31
0.0
  0
LINE
  5
3ED
330
3DA
100
AcDbEntity
  8
SLD-0
 62
     7
100
AcDbLine
 10
94.8451154284
 20
185.7866709476
 30
0.0
 11
91.8451154284
 21
184.9828239476
 31
0.0
  0
LINE
  5
3EE
330
3DA
100
AcDbEntity
  8
SLD-0
 62
     7
100
AcDbLine
 10
94.8451154284
 20
185.7866709476
 30
0.0
 11
91.8451154284
 21
185.7866709476
 31
0.0
  0
MTEXT
  5
3EF
330
3DA
100
AcDbEntity
  8
SLD-0
 62
     7
100
AcDbMText
 10
85.3084775727
 20
190.3133646435
 30
0.1
 40
3.5
 41
0.0
 71
     1
 72
     1
  1
15
  7
SLDTEXTSTYLE0
 73
     1
 44
1.0
  0
ENDBLK
  5
3E5
330
3DA
100
AcDbEntity
  8
0
100
AcDbBlockEnd
  0
BLOCK
  5
3FC
330
3F1
100
AcDbEntity
  8
0
100
AcDbBlockBegin
  2
*D32
 70
     1
 71
     0
 10
0.0
 20
0.0
 30
0.0
  3
*D32
  1

  0
LINE
  5
3FE
330
3F1
100
AcDbEntity
  8
SLD-0
100
AcDbLine
 10
164.8451182385
 20
105.9920817393
 30
0.0
 11
185.1785945658
 21
105.9920817393
 31
0.0
  0
LINE
  5
3FF
330
3F1
100
AcDbEntity
  8
SLD-0
100
AcDbLine
 10
163.6451182385
 20
88.9920817393
 30
0.0
 11
185.1785945658
 21
88.9920817393
 31
0.0
  0
LINE
  5
400
330
3F1
100
AcDbEntity
  8
SLD-0
100
AcDbLine
 10
184.1785945658
 20
105.9920817393
 30
0.0
 11
184.1785945658
 21
88.9920817393
 31
0.0
  0
LINE
  5
401
330
3F1
100
AcDbEntity
  8
SLD-0
100
AcDbLine
 10
183.3747475658
 20
102.9920817393
 30
0.0
 11
184.1785945658
 21
105.9920817393
 31
0.0
  0
LINE
  5
402
330
3F1
100
AcDbEntity
  8
SLD-0
100
AcDbLine
 10
184.1785945658
 20
105.9920817393
 30
0.0
 11
184.9824415658
 21
102.9920817393
 31
0.0
  0
LINE
  5
403
330
3F1
100
AcDbEntity
  8
SLD-0
100
AcDbLine
 10
184.1785945658
 20
105.9920817393
 30
0.0
 11
184.1785945658
 21
102.9920817393
 31
0.0
  0
LINE
  5
404
330
3F1
100
AcDbEntity
  8
SLD-0
100
AcDbLine
 10
184.9824415658
 20
91.9920817393
 30
0.0
 11
184.1785945658
 21
88.9920817393
 31
0.0
  0
LINE
  5
405
330
3F1
100
AcDbEntity
  8
SLD-0
100
AcDbLine
 10
184.1785945658
 20
88.9920817393
 30
0.0
 11
183.3747475658
 21
91.9920817393
 31
0.0
  0
LINE
  5
406
330
3F1
100
AcDbEntity
  8
SLD-0
100
AcDbLine
 10
184.1785945658
 20
88.9920817393
 30
0.0
 11
184.1785945658
 21
91.9920817393
 31
0.0
  0
MTEXT
  5
407
330
3F1
100
AcDbEntity
  8
SLD-0
100
AcDbMText
 10
179.6519008699
 20
95.4554438836
 30
0.1
 40
3.5
 41
0.0
 71
     1
 72
     1
  1
17
  7
SLDTEXTSTYLE0
 11
6.123031769111886E-17
 21
1.0
 31
0.0
 73
     1
 44
1.0
  0
ENDBLK
  5
3FD
330
3F1
100
AcDbEntity
  8
0
100
AcDbBlockEnd
  0
BLOCK
  5
413
330
409
100
AcDbEntity
  8
0
100
AcDbBlockBegin
  2
*D33
 70
     1
 71
     0
 10
0.0
 20
0.0
 30
0.0
  3
*D33
  1

  0
LINE
  5
415
330
409
100
AcDbEntity
  8
SLD-0
100
AcDbLine
 10
162.6451182385
 20
144.8787389026
 30
0.0
 11
162.6451182385
 21
123.4161495613
 31
0.0
  0
LINE
  5
416
330
409
100
AcDbEntity
  8
SLD-0
100
AcDbLine
 10
131.6451182385
 20
135.6287389026
 30
0.0
 11
131.6451182385
 21
123.4161495613
 31
0.0
  0
LINE
  5
417
330
409
100
AcDbEntity
  8
SLD-0
100
AcDbLine
 10
162.6451182385
 20
124.4161495613
 30
0.0
 11
131.6451182385
 21
124.4161495613
 31
0.0
  0
LINE
  5
418
330
409
100
AcDbEntity
  8
SLD-0
100
AcDbLine
 10
159.6451182385
 20
125.2199965613
 30
0.0
 11
162.6451182385
 21
124.4161495613
 31
0.0
  0
LINE
  5
419
330
409
100
AcDbEntity
  8
SLD-0
100
AcDbLine
 10
162.6451182385
 20
124.4161495613
 30
0.0
 11
159.6451182385
 21
123.6123025613
 31
0.0
  0
LINE
  5
41A
330
409
100
AcDbEntity
  8
SLD-0
100
AcDbLine
 10
162.6451182385
 20
124.4161495613
 30
0.0
 11
159.6451182385
 21
124.4161495613
 31
0.0
  0
LINE
  5
41B
330
409
100
AcDbEntity
  8
SLD-0
100
AcDbLine
 10
134.6451182385
 20
123.6123025613
 30
0.0
 11
131.6451182385
 21
124.4161495613
 31
0.0
  0
LINE
  5
41C
330
409
100
AcDbEntity
  8
SLD-0
100
AcDbLine
 10
131.6451182385
 20
124.4161495613
 30
0.0
 11
134.6451182385
 21
125.2199965613
 31
0.0
  0
LINE
  5
41D
330
409
100
AcDbEntity
  8
SLD-0
100
AcDbLine
 10
131.6451182385
 20
124.4161495613
 30
0.0
 11
134.6451182385
 21
124.4161495613
 31
0.0
  0
MTEXT
  5
41E
330
409
100
AcDbEntity
  8
SLD-0
100
AcDbMText
 10
145.1084803828
 20
128.9428432573
 30
0.1
 40
3.5
 41
0.0
 71
     1
 72
     1
  1
31
  7
SLDTEXTSTYLE0
 73
     1
 44
1.0
  0
ENDBLK
  5
414
330
409
100
AcDbEntity
  8
0
100
AcDbBlockEnd
  0
BLOCK
  5
42D
330
420
100
AcDbEntity
  8
0
100
AcDbBlockBegin
  2
*D34
 70
     1
 71
     0
 10
0.0
 20
0.0
 30
0.0
  3
*D34
  1

  0
LINE
  5
42F
330
420
100
AcDbEntity
  8
SLD-0
100
AcDbLine
 10
164.7451182385
 20
137.1787389026
 30
0.0
 11
164.7451182385
 21
123.4161495613
 31
0.0
  0
LINE
  5
430
330
420
100
AcDbEntity
  8
SLD-0
100
AcDbLine
 10
162.6451182385
 20
135.6287389026
 30
0.0
 11
162.6451182385
 21
123.4161495613
 31
0.0
  0
LINE
  5
431
330
420
100
AcDbEntity
  8
SLD-0
100
AcDbLine
 10
164.7451182385
 20
124.4161495613
 30
0.0
 11
179.3329685555
 21
124.4161495613
 31
0.0
  0
LINE
  5
432
330
420
100
AcDbEntity
  8
SLD-0
100
AcDbLine
 10
164.7451182385
 20
124.4161495613
 30
0.0
 11
162.6451182385
 21
124.4161495613
 31
0.0
  0
LINE
  5
433
330
420
100
AcDbEntity
  8
SLD-0
100
AcDbLine
 10
162.6451182385
 20
124.4161495613
 30
0.0
 11
157.6451182385
 21
124.4161495613
 31
0.0
  0
LINE
  5
434
330
420
100
AcDbEntity
  8
SLD-0
100
AcDbLine
 10
167.7451182385
 20
123.6123025613
 30
0.0
 11
164.7451182385
 21
124.4161495613
 31
0.0
  0
LINE
  5
435
330
420
100
AcDbEntity
  8
SLD-0
100
AcDbLine
 10
164.7451182385
 20
124.4161495613
 30
0.0
 11
167.7451182385
 21
125.2199965613
 31
0.0
  0
LINE
  5
436
330
420
100
AcDbEntity
  8
SLD-0
100
AcDbLine
 10
164.7451182385
 20
124.4161495613
 30
0.0
 11
167.7451182385
 21
124.4161495613
 31
0.0
  0
LINE
  5
437
330
420
100
AcDbEntity
  8
SLD-0
100
AcDbLine
 10
159.6451182385
 20
125.2199965613
 30
0.0
 11
162.6451182385
 21
124.4161495613
 31
0.0
  0
LINE
  5
438
330
420
100
AcDbEntity
  8
SLD-0
100
AcDbLine
 10
162.6451182385
 20
124.4161495613
 30
0.0
 11
159.6451182385
 21
123.6123025613
 31
0.0
  0
LINE
  5
439
330
420
100
AcDbEntity
  8
SLD-0
100
AcDbLine
 10
162.6451182385
 20
124.4161495613
 30
0.0
 11
159.6451182385
 21
124.4161495613
 31
0.0
  0
MTEXT
  5
43A
330
420
100
AcDbEntity
  8
SLD-0
100
AcDbMText
 10
171.6374495352
 20
128.9428432573
 30
0.1
 40
3.5
 41
0.0
 71
     1
 72
     1
  1
2.1
  7
SLDTEXTSTYLE0
 73
     1
 44
1.0
  0
ENDBLK
  5
42E
330
420
100
AcDbEntity
  8
0
100
AcDbBlockEnd
  0
BLOCK
  5
447
330
43C
100
AcDbEntity
  8
0
100
AcDbBlockBegin
  2
*D35
 70
     1
 71
     0
 10
0.0
 20
0.0
 30
0.0
  3
*D35
  1

  0
LINE
  5
449
330
43C
100
AcDbEntity
  8
SLD-0
100
AcDbLine
 10
163.6451182385
 20
136.6287389026
 30
0.0
 11
185.693212795
 21
136.6287389026
 31
0.0
  0
LINE
  5
44A
330
43C
100
AcDbEntity
  8
SLD-0
100
AcDbLine
 10
163.6451182385
 20
147.4287389026
 30
0.0
 11
185.693212795
 21
147.4287389026
 31
0.0
  0
LINE
  5
44B
330
43C
100
AcDbEntity
  8
SLD-0
100
AcDbLine
 10
184.693212795
 20
136.6287389026
 30
0.0
 11
184.693212795
 21
131.6287389026
 31
0.0
  0
LINE
  5
44C
330
43C
100
AcDbEntity
  8
SLD-0
100
AcDbLine
 10
184.693212795
 20
136.6287389026
 30
0.0
 11
184.693212795
 21
147.4287389026
 31
0.0
  0
LINE
  5
44D
330
43C
100
AcDbEntity
  8
SLD-0
100
AcDbLine
 10
184.693212795
 20
147.4287389026
 30
0.0
 11
184.693212795
 21
152.4287389026
 31
0.0
  0
LINE
  5
44E
330
43C
100
AcDbEntity
  8
SLD-0
100
AcDbLine
 10
183.889365795
 20
133.6287389026
 30
0.0
 11
184.693212795
 21
136.6287389026
 31
0.0
  0
LINE
  5
44F
330
43C
100
AcDbEntity
  8
SLD-0
100
AcDbLine
 10
184.693212795
 20
136.6287389026
 30
0.0
 11
185.497059795
 21
133.6287389026
 31
0.0
  0
LINE
  5
450
330
43C
100
AcDbEntity
  8
SLD-0
100
AcDbLine
 10
184.693212795
 20
136.6287389026
 30
0.0
 11
184.693212795
 21
133.6287389026
 31
0.0
  0
LINE
  5
451
330
43C
100
AcDbEntity
  8
SLD-0
100
AcDbLine
 10
185.497059795
 20
150.4287389026
 30
0.0
 11
184.693212795
 21
147.4287389026
 31
0.0
  0
LINE
  5
452
330
43C
100
AcDbEntity
  8
SLD-0
100
AcDbLine
 10
184.693212795
 20
147.4287389026
 30
0.0
 11
183.889365795
 21
150.4287389026
 31
0.0
  0
LINE
  5
453
330
43C
100
AcDbEntity
  8
SLD-0
100
AcDbLine
 10
184.693212795
 20
147.4287389026
 30
0.0
 11
184.693212795
 21
150.4287389026
 31
0.0
  0
MTEXT
  5
454
330
43C
100
AcDbEntity
  8
SLD-0
100
AcDbMText
 10
180.1665190991
 20
137.9554631912
 30
0.1
 40
3.5
 41
0.0
 71
     1
 72
     1
  1
10.8
  7
SLDTEXTSTYLE0
 11
6.123031769111886E-17
 21
1.0
 31
0.0
 73
     1
 44
1.0
  0
ENDBLK
  5
448
330
43C
100
AcDbEntity
  8
0
100
AcDbBlockEnd
  0
BLOCK
  5
461
330
456
100
AcDbEntity
  8
0
100
AcDbBlockBegin
  2
*D36
 70
     1
 71
     0
 10
0.0
 20
0.0
 30
0.0
  3
*D36
  1

  0
LINE
  5
464
330
456
100
AcDbEntity
  8
SLD-0
 62
     7
100
AcDbLine
 10
158.9775384358
 20
200.3645158198
 30
0.0
 11
158.9775384358
 21
231.4808116213
 31
0.0
  0
LINE
  5
465
330
456
100
AcDbEntity
  8
SLD-0
 62
     7
100
AcDbLine
 10
153.9775384358
 20
200.3645158198
 30
0.0
 11
153.9775384358
 21
231.4808116213
 31
0.0
  0
LINE
  5
466
330
456
100
AcDbEntity
  8
SLD-0
 62
     7
100
AcDbLine
 10
158.9775384358
 20
230.4808116213
 30
0.0
 11
163.9775384358
 21
230.4808116213
 31
0.0
  0
LINE
  5
467
330
456
100
AcDbEntity
  8
SLD-0
 62
     7
100
AcDbLine
 10
158.9775384358
 20
230.4808116213
 30
0.0
 11
153.9775384358
 21
230.4808116213
 31
0.0
  0
LINE
  5
468
330
456
100
AcDbEntity
  8
SLD-0
 62
     7
100
AcDbLine
 10
153.9775384358
 20
230.4808116213
 30
0.0
 11
148.9775384358
 21
230.4808116213
 31
0.0
  0
LINE
  5
469
330
456
100
AcDbEntity
  8
SLD-0
 62
     7
100
AcDbLine
 10
161.9775384358
 20
229.6769646213
 30
0.0
 11
158.9775384358
 21
230.4808116213
 31
0.0
  0
LINE
  5
46A
330
456
100
AcDbEntity
  8
SLD-0
 62
     7
100
AcDbLine
 10
158.9775384358
 20
230.4808116213
 30
0.0
 11
161.9775384358
 21
231.2846586213
 31
0.0
  0
LINE
  5
46B
330
456
100
AcDbEntity
  8
SLD-0
 62
     7
100
AcDbLine
 10
158.9775384358
 20
230.4808116213
 30
0.0
 11
161.9775384358
 21
230.4808116213
 31
0.0
  0
LINE
  5
46C
330
456
100
AcDbEntity
  8
SLD-0
 62
     7
100
AcDbLine
 10
150.9775384358
 20
231.2846586213
 30
0.0
 11
153.9775384358
 21
230.4808116213
 31
0.0
  0
LINE
  5
46D
330
456
100
AcDbEntity
  8
SLD-0
 62
     7
100
AcDbLine
 10
153.9775384358
 20
230.4808116213
 30
0.0
 11
150.9775384358
 21
229.6769646213
 31
0.0
  0
LINE
  5
46E
330
456
100
AcDbEntity
  8
SLD-0
 62
     7
100
AcDbLine
 10
153.9775384358
 20
230.4808116213
 30
0.0
 11
150.9775384358
 21
230.4808116213
 31
0.0
  0
MTEXT
  5
46F
330
456
100
AcDbEntity
  8
SLD-0
 62
     7
100
AcDbMText
 10
155.4601667814
 20
235.0075053172
 30
0.1
 40
3.5
 41
0.0
 71
     1
 72
     1
  1
5
  7
SLDTEXTSTYLE0
 73
     1
 44
1.0
  0
ENDBLK
  5
462
330
456
100
AcDbEntity
  8
0
100
AcDbBlockEnd
  0
BLOCK
  5
47C
330
471
100
AcDbEntity
  8
0
100
AcDbBlockBegin
  2
*D37
 70
     1
 71
     0
 10
0.0
 20
0.0
 30
0.0
  3
*D37
  1

  0
LINE
  5
47E
330
471
100
AcDbEntity
  8
SLD-0
 62
     7
100
AcDbLine
 10
80.1709464309
 20
102.6920817393
 30
0.0
 11
94.4060383544
 21
102.6920817393
 31
0.0
  0
LINE
  5
47F
330
471
100
AcDbEntity
  8
SLD-0
 62
     7
100
AcDbLine
 10
77.0709464309
 20
111.8920817393
 30
0.0
 11
94.4060383544
 21
111.8920817393
 31
0.0
  0
LINE
  5
480
330
471
100
AcDbEntity
  8
SLD-0
 62
     7
100
AcDbLine
 10
93.4060383544
 20
102.6920817393
 30
0.0
 11
93.4060383544
 21
88.9613972912
 31
0.0
  0
LINE
  5
481
330
471
100
AcDbEntity
  8
SLD-0
 62
     7
100
AcDbLine
 10
93.4060383544
 20
102.6920817393
 30
0.0
 11
93.4060383544
 21
111.8920817393
 31
0.0
  0
LINE
  5
482
330
471
100
AcDbEntity
  8
SLD-0
 62
     7
100
AcDbLine
 10
93.4060383544
 20
111.8920817393
 30
0.0
 11
93.4060383544
 21
116.8920817393
 31
0.0
  0
LINE
  5
483
330
471
100
AcDbEntity
  8
SLD-0
 62
     7
100
AcDbLine
 10
92.6021913544
 20
99.6920817393
 30
0.0
 11
93.4060383544
 21
102.6920817393
 31
0.0
  0
LINE
  5
484
330
471
100
AcDbEntity
  8
SLD-0
 62
     7
100
AcDbLine
 10
93.4060383544
 20
102.6920817393
 30
0.0
 11
94.2098853544
 21
99.6920817393
 31
0.0
  0
LINE
  5
485
330
471
100
AcDbEntity
  8
SLD-0
 62
     7
100
AcDbLine
 10
93.4060383544
 20
102.6920817393
 30
0.0
 11
93.4060383544
 21
99.6920817393
 31
0.0
  0
LINE
  5
486
330
471
100
AcDbEntity
  8
SLD-0
 62
     7
100
AcDbLine
 10
94.2098853544
 20
114.8920817393
 30
0.0
 11
93.4060383544
 21
111.8920817393
 31
0.0
  0
LINE
  5
487
330
471
100
AcDbEntity
  8
SLD-0
 62
     7
100
AcDbLine
 10
93.4060383544
 20
111.8920817393
 30
0.0
 11
92.6021913544
 21
114.8920817393
 31
0.0
  0
LINE
  5
488
330
471
100
AcDbEntity
  8
SLD-0
 62
     7
100
AcDbLine
 10
93.4060383544
 20
111.8920817393
 30
0.0
 11
93.4060383544
 21
114.8920817393
 31
0.0
  0
MTEXT
  5
489
330
471
100
AcDbEntity
  8
SLD-0
 62
     7
100
AcDbMText
 10
88.8793446584
 20
90.5488972912
 30
0.1
 40
3.5
 41
0.0
 71
     1
 72
     1
  1
9.2
  7
SLDTEXTSTYLE0
 11
6.123031769111886E-17
 21
1.0
 31
0.0
 73
     1
 44
1.0
  0
ENDBLK
  5
47D
330
471
100
AcDbEntity
  8
0
100
AcDbBlockEnd
  0
BLOCK
  5
496
330
48B
100
AcDbEntity
  8
0
100
AcDbBlockBegin
  2
*D38
 70
     1
 71
     0
 10
0.0
 20
0.0
 30
0.0
  3
*D38
  1

  0
LINE
  5
498
330
48B
100
AcDbEntity
  8
SLD-0
 62
     7
100
AcDbLine
 10
83.7709464309
 20
147.4287389026
 30
0.0
 11
96.2652522694
 21
147.4287389026
 31
0.0
  0
LINE
  5
499
330
48B
100
AcDbEntity
  8
SLD-0
 62
     7
100
AcDbLine
 10
79.5709464309
 20
140.4287389026
 30
0.0
 11
96.2652522694
 21
140.4287389026
 31
0.0
  0
LINE
  5
49A
330
48B
100
AcDbEntity
  8
SLD-0
 62
     7
100
AcDbLine
 10
95.2652522694
 20
147.4287389026
 30
0.0
 11
95.2652522694
 21
152.4287389026
 31
0.0
  0
LINE
  5
49B
330
48B
100
AcDbEntity
  8
SLD-0
 62
     7
100
AcDbLine
 10
95.2652522694
 20
147.4287389026
 30
0.0
 11
95.2652522694
 21
140.4287389026
 31
0.0
  0
LINE
  5
49C
330
48B
100
AcDbEntity
  8
SLD-0
 62
     7
100
AcDbLine
 10
95.2652522694
 20
140.4287389026
 30
0.0
 11
95.2652522694
 21
135.4287389026
 31
0.0
  0
LINE
  5
49D
330
48B
100
AcDbEntity
  8
SLD-0
 62
     7
100
AcDbLine
 10
96.0690992694
 20
150.4287389026
 30
0.0
 11
95.2652522694
 21
147.4287389026
 31
0.0
  0
LINE
  5
49E
330
48B
100
AcDbEntity
  8
SLD-0
 62
     7
100
AcDbLine
 10
95.2652522694
 20
147.4287389026
 30
0.0
 11
94.4614052694
 21
150.4287389026
 31
0.0
  0
LINE
  5
49F
330
48B
100
AcDbEntity
  8
SLD-0
 62
     7
100
AcDbLine
 10
95.2652522694
 20
147.4287389026
 30
0.0
 11
95.2652522694
 21
150.4287389026
 31
0.0
  0
LINE
  5
4A0
330
48B
100
AcDbEntity
  8
SLD-0
 62
     7
100
AcDbLine
 10
94.4614052694
 20
137.4287389026
 30
0.0
 11
95.2652522694
 21
140.4287389026
 31
0.0
  0
LINE
  5
4A1
330
48B
100
AcDbEntity
  8
SLD-0
 62
     7
100
AcDbLine
 10
95.2652522694
 20
140.4287389026
 30
0.0
 11
96.0690992694
 21
137.4287389026
 31
0.0
  0
LINE
  5
4A2
330
48B
100
AcDbEntity
  8
SLD-0
 62
     7
100
AcDbLine
 10
95.2652522694
 20
140.4287389026
 30
0.0
 11
95.2652522694
 21
137.4287389026
 31
0.0
  0
MTEXT
  5
4A3
330
48B
100
AcDbEntity
  8
SLD-0
 62
     7
100
AcDbMText
 10
90.7385585735
 20
142.9113672482
 30
0.1
 40
3.5
 41
0.0
 71
     1
 72
     1
  1
7
  7
SLDTEXTSTYLE0
 11
6.123031769111886E-17
 21
1.0
 31
0.0
 73
     1
 44
1.0
  0
ENDBLK
  5
497
330
48B
100
AcDbEntity
  8
0
100
AcDbBlockEnd
  0
BLOCK
  5
4B2
330
4A5
100
AcDbEntity
  8
0
100
AcDbBlockBegin
  2
*D39
 70
     1
 71
     0
 10
0.0
 20
0.0
 30
0.0
  3
*D39
  1

  0
LINE
  5
4B4
330
4A5
100
AcDbEntity
  8
SLD-0
 62
     7
100
AcDbLine
 10
82.7709464309
 20
146.4287389026
 30
0.0
 11
82.7709464309
 21
122.881917706
 31
0.0
  0
LINE
  5
4B5
330
4A5
100
AcDbEntity
  8
SLD-0
 62
     7
100
AcDbLine
 10
78.5709464309
 20
139.4287389026
 30
0.0
 11
78.5709464309
 21
122.881917706
 31
0.0
  0
LINE
  5
4B6
330
4A5
100
AcDbEntity
  8
SLD-0
 62
     7
100
AcDbLine
 10
82.7709464309
 20
123.881917706
 30
0.0
 11
96.7609675674
 21
123.881917706
 31
0.0
  0
LINE
  5
4B7
330
4A5
100
AcDbEntity
  8
SLD-0
 62
     7
100
AcDbLine
 10
82.7709464309
 20
123.881917706
 30
0.0
 11
78.5709464309
 21
123.881917706
 31
0.0
  0
LINE
  5
4B8
330
4A5
100
AcDbEntity
  8
SLD-0
 62
     7
100
AcDbLine
 10
78.5709464309
 20
123.881917706
 30
0.0
 11
73.5709464309
 21
123.881917706
 31
0.0
  0
LINE
  5
4B9
330
4A5
100
AcDbEntity
  8
SLD-0
 62
     7
100
AcDbLine
 10
85.7709464309
 20
123.078070706
 30
0.0
 11
82.7709464309
 21
123.881917706
 31
0.0
  0
LINE
  5
4BA
330
4A5
100
AcDbEntity
  8
SLD-0
 62
     7
100
AcDbLine
 10
82.7709464309
 20
123.881917706
 30
0.0
 11
85.7709464309
 21
124.685764706
 31
0.0
  0
LINE
  5
4BB
330
4A5
100
AcDbEntity
  8
SLD-0
 62
     7
100
AcDbLine
 10
82.7709464309
 20
123.881917706
 30
0.0
 11
85.7709464309
 21
123.881917706
 31
0.0
  0
LINE
  5
4BC
330
4A5
100
AcDbEntity
  8
SLD-0
 62
     7
100
AcDbLine
 10
75.5709464309
 20
124.685764706
 30
0.0
 11
78.5709464309
 21
123.881917706
 31
0.0
  0
LINE
  5
4BD
330
4A5
100
AcDbEntity
  8
SLD-0
 62
     7
100
AcDbLine
 10
78.5709464309
 20
123.881917706
 30
0.0
 11
75.5709464309
 21
123.078070706
 31
0.0
  0
LINE
  5
4BE
330
4A5
100
AcDbEntity
  8
SLD-0
 62
     7
100
AcDbLine
 10
78.5709464309
 20
123.881917706
 30
0.0
 11
75.5709464309
 21
123.881917706
 31
0.0
  0
MTEXT
  5
4BF
330
4A5
100
AcDbEntity
  8
SLD-0
 62
     7
100
AcDbMText
 10
89.0654485471
 20
128.408611402
 30
0.1
 40
3.5
 41
0.0
 71
     1
 72
     1
  1
4.2
  7
SLDTEXTSTYLE0
 73
     1
 44
1.0
  0
ENDBLK
  5
4B3
330
4A5
100
AcDbEntity
  8
0
100
AcDbBlockEnd
  0
BLOCK
  5
4CB
330
4C1
100
AcDbEntity
  8
0
100
AcDbBlockBegin
  2
*D40
 70
     1
 71
     0
 10
0.0
 20
0.0
 30
0.0
  3
*D40
  1

  0
LINE
  5
4CD
330
4C1
100
AcDbEntity
  8
SLD-0
 62
     7
100
AcDbLine
 10
54.0709464309
 20
140.6287389026
 30
0.0
 11
54.0709464309
 21
122.881917706
 31
0.0
  0
LINE
  5
4CE
330
4C1
100
AcDbEntity
  8
SLD-0
 62
     7
100
AcDbLine
 10
78.5709464309
 20
139.4287389026
 30
0.0
 11
78.5709464309
 21
122.881917706
 31
0.0
  0
LINE
  5
4CF
330
4C1
100
AcDbEntity
  8
SLD-0
 62
     7
100
AcDbLine
 10
54.0709464309
 20
123.881917706
 30
0.0
 11
78.5709464309
 21
123.881917706
 31
0.0
  0
LINE
  5
4D0
330
4C1
100
AcDbEntity
  8
SLD-0
 62
     7
100
AcDbLine
 10
57.0709464309
 20
123.078070706
 30
0.0
 11
54.0709464309
 21
123.881917706
 31
0.0
  0
LINE
  5
4D1
330
4C1
100
AcDbEntity
  8
SLD-0
 62
     7
100
AcDbLine
 10
54.0709464309
 20
123.881917706
 30
0.0
 11
57.0709464309
 21
124.685764706
 31
0.0
  0
LINE
  5
4D2
330
4C1
100
AcDbEntity
  8
SLD-0
 62
     7
100
AcDbLine
 10
54.0709464309
 20
123.881917706
 30
0.0
 11
57.0709464309
 21
123.881917706
 31
0.0
  0
LINE
  5
4D3
330
4C1
100
AcDbEntity
  8
SLD-0
 62
     7
100
AcDbLine
 10
75.5709464309
 20
124.685764706
 30
0.0
 11
78.5709464309
 21
123.881917706
 31
0.0
  0
LINE
  5
4D4
330
4C1
100
AcDbEntity
  8
SLD-0
 62
     7
100
AcDbLine
 10
78.5709464309
 20
123.881917706
 30
0.0
 11
75.5709464309
 21
123.078070706
 31
0.0
  0
LINE
  5
4D5
330
4C1
100
AcDbEntity
  8
SLD-0
 62
     7
100
AcDbLine
 10
78.5709464309
 20
123.881917706
 30
0.0
 11
75.5709464309
 21
123.881917706
 31
0.0
  0
MTEXT
  5
4D6
330
4C1
100
AcDbEntity
  8
SLD-0
 62
     7
100
AcDbMText
 10
62.2476707195
 20
128.408611402
 30
0.1
 40
3.5
 41
0.0
 71
     1
 72
     1
  1
24.5
  7
SLDTEXTSTYLE0
 73
     1
 44
1.0
  0
ENDBLK
  5
4CC
330
4C1
100
AcDbEntity
  8
0
100
AcDbBlockEnd
  0
ENDSEC
  0
SECTION
  2
ENTITIES
  0
LINE
  5
CF
330
1F
100
AcDbEntity
  8
SLD-0
  6
Continuous
 62
   179
100
AcDbLine
 10
20.2604743903
 20
285.0
 30
0.0
 11
196.7604743903
 21
285.0
 31
0.0
  0
LINE
  5
D0
330
1F
100
AcDbEntity
  8
SLD-0
  6
Continuous
 62
   179
100
AcDbLine
 10
20.2604743903
 20
285.0
 30
0.0
 11
20.2604743903
 21
10.0
 31
0.0
  0
LINE
  5
D1
330
1F
100
AcDbEntity
  8
SLD-0
  6
Continuous
 62
   179
100
AcDbLine
 10
20.2604743903
 20
10.0
 30
0.0
 11
196.7604743903
 21
10.0
 31
0.0
  0
LINE
  5
D2
330
1F
100
AcDbEntity
  8
SLD-0
  6
Continuous
 62
   179
100
AcDbLine
 10
196.7604743903
 20
285.0
 30
0.0
 11
196.7604743903
 21
10.0
 31
0.0
  0
LINE
  5
D3
330
1F
100
AcDbEntity
  8
SLD-0
  6
Continuous
 62
   179
100
AcDbLine
 10
127.0104743903
 20
50.75
 30
0.0
 11
196.7604743903
 21
50.75
 31
0.0
  0
LINE
  5
D4
330
1F
100
AcDbEntity
  8
SLD-0
  6
Continuous
 62
   179
100
AcDbLine
 10
127.0104743903
 20
50.75
 30
0.0
 11
127.0104743903
 21
10.0
 31
0.0
  0
LINE
  5
D5
330
1F
100
AcDbEntity
  8
SLD-0
  6
Continuous
 62
   179
100
AcDbLine
 10
127.0104743903
 20
22.75
 30
0.0
 11
196.7604743903
 21
22.75
 31
0.0
  0
LINE
  5
D6
330
1F
100
AcDbEntity
  8
SLD-0
  6
Continuous
 62
   179
100
AcDbLine
 10
127.0104743903
 20
36.75
 30
0.0
 11
196.7604743903
 21
36.75
 31
0.0
  0
LINE
  5
D7
330
1F
100
AcDbEntity
  8
SLD-0
  6
Continuous
 62
   179
100
AcDbLine
 10
20.2604743903
 20
81.1222462081
 30
0.0
 11
196.7604743903
 21
81.1222462081
 31
0.0
  0
LINE
  5
D8
330
1F
100
AcDbEntity
  8
SLD-0
  6
Continuous
 62
   179
100
AcDbLine
 10
20.2604743903
 20
166.8512367253
 30
0.0
 11
196.7604743903
 21
166.8512367253
 31
0.0
  0
LINE
  5
D9
330
1F
100
AcDbEntity
  8
SLD-0
  6
Continuous
 62
   179
100
AcDbLine
 10
108.5104743903
 20
166.8512367253
 30
0.0
 11
108.5104743903
 21
81.1222462081
 31
0.0
  0
LINE
  5
DA
330
1F
100
AcDbEntity
  8
SLD-0
100
AcDbLine
 10
96.4822105853
 20
206.6407961252
 30
0.0
 11
95.4018534519
 21
209.4838276875
 31
0.0
  0
LINE
  5
DB
330
1F
100
AcDbEntity
  8
SLD-0
100
AcDbLine
 10
95.4018534519
 20
209.4838276875
 30
0.0
 11
97.3458771929
 21
207.1448596043
 31
0.0
  0
LINE
  5
DC
330
1F
100
AcDbEntity
  8
SLD-0
100
AcDbLine
 10
97.3458771929
 20
207.1448596043
 30
0.0
 11
96.4822105853
 21
206.6407961252
 31
0.0
  0
LINE
  5
DD
330
1F
100
AcDbEntity
  8
SLD-0
100
AcDbLine
 10
143.3194193797
 20
106.0939980744
 30
0.0
 11
143.6584438206
 21
103.0715714949
 31
0.0
  0
LINE
  5
DE
330
1F
100
AcDbEntity
  8
SLD-0
100
AcDbLine
 10
143.6584438206
 20
103.0715714949
 30
0.0
 11
142.357498567
 21
105.820669792
 31
0.0
  0
LINE
  5
DF
330
1F
100
AcDbEntity
  8
SLD-0
  6
Continuous
 62
   179
100
AcDbLine
 10
102.8451154284
 20
216.3645158198
 30
0.0
 11
71.8451154284
 21
216.3645158198
 31
0.0
  0
LINE
  5
E0
330
1F
100
AcDbEntity
  8
SLD-0
  6
Continuous
 62
   179
100
AcDbLine
 10
102.8451154284
 20
199.3645158198
 30
0.0
 11
102.8451154284
 21
216.3645158198
 31
0.0
  0
LINE
  5
E1
330
1F
100
AcDbEntity
  8
SLD-0
  6
Continuous
 62
   179
100
AcDbLine
 10
62.8451154284
 20
199.3645158198
 30
0.0
 11
102.8451154284
 21
199.3645158198
 31
0.0
  0
LINE
  5
E2
330
1F
100
AcDbEntity
  8
SLD-0
  6
Continuous
 62
   179
100
AcDbLine
 10
71.8451154284
 20
211.3645158198
 30
0.0
 11
62.8451154284
 21
211.3645158198
 31
0.0
  0
LINE
  5
E3
330
1F
100
AcDbEntity
  8
SLD-0
  6
Continuous
 62
   179
100
AcDbLine
 10
71.8451154284
 20
216.3645158198
 30
0.0
 11
71.8451154284
 21
211.3645158198
 31
0.0
  0
LINE
  5
E4
330
1F
100
AcDbEntity
  8
SLD-0
100
AcDbLine
 10
96.9140438891
 20
206.8928278647
 30
0.0
 11
107.5615876975
 21
188.6492366864
 31
0.0
  0
LINE
  5
E5
330
1F
100
AcDbEntity
  8
SLD-0
100
AcDbLine
 10
107.5615876975
 20
188.6492366864
 30
0.0
 11
140.6477933886
 21
188.6492366864
 31
0.0
  0
LINE
  5
E6
330
1F
100
AcDbEntity
  8
SLD-0
100
AcDbLine
 10
142.357498567
 20
105.820669792
 30
0.0
 11
143.3194193797
 21
106.0939980744
 31
0.0
  0
LINE
  5
E7
330
1F
100
AcDbEntity
  8
SLD-0
100
AcDbLine
 10
63.3990641341
 20
107.6784475008
 30
0.0
 11
64.5937587009
 21
104.8815376181
 31
0.0
  0
LINE
  5
E8
330
1F
100
AcDbEntity
  8
SLD-0
100
AcDbLine
 10
64.5937587009
 20
104.8815376181
 30
0.0
 11
62.5565363109
 21
107.1397946747
 31
0.0
  0
LINE
  5
E9
330
1F
100
AcDbEntity
  8
SLD-0
100
AcDbLine
 10
62.5565363109
 20
107.1397946747
 30
0.0
 11
63.3990641341
 21
107.6784475008
 31
0.0
  0
LINE
  5
EA
330
1F
100
AcDbEntity
  8
SLD-0
  6
Continuous
 62
   179
100
AcDbLine
 10
133.7309050953
 20
93.9062953724
 30
0.0
 11
126.6598368643
 21
86.8352274898
 31
0.0
  0
LINE
  5
EB
330
1F
100
AcDbEntity
  8
SLD-0
  6
Continuous
 62
   179
100
AcDbLine
 10
129.4882639891
 20
84.006800365
 30
0.0
 11
136.5593317544
 21
91.0778680148
 31
0.0
  0
LINE
  5
EC
330
1F
100
AcDbEntity
  8
SLD-0
  6
Continuous
 62
   179
100
AcDbLine
 10
162.6451173445
 20
96.4920817672
 30
0.0
 11
163.4451182385
 21
96.4920817393
 31
0.0
  0
LINE
  5
ED
330
1F
100
AcDbEntity
  8
SLD-0
  6
Continuous
 62
   179
100
AcDbLine
 10
163.4451182385
 20
99.0920817393
 30
0.0
 11
162.6451173445
 21
99.0920817743
 31
0.0
  0
LINE
  5
EE
330
1F
100
AcDbEntity
  8
SLD-0
  6
Continuous
 62
   179
100
AcDbLine
 10
162.6451173445
 20
91.9920817281
 30
0.0
 11
163.4451182385
 21
91.9920817393
 31
0.0
  0
LINE
  5
EF
330
1F
100
AcDbEntity
  8
SLD-0
  6
Continuous
 62
   179
100
AcDbLine
 10
163.4451182385
 20
94.5920817393
 30
0.0
 11
162.6451173445
 21
94.5920817352
 31
0.0
  0
LINE
  5
F0
330
1F
100
AcDbEntity
  8
SLD-0
  6
Continuous
 62
   179
100
AcDbLine
 10
160.5668076893
 20
107.2420814338
 30
0.0
 11
159.123429062
 21
107.2420814338
 31
0.0
  0
LINE
  5
F1
330
1F
100
AcDbEntity
  8
SLD-0
  6
Continuous
 62
   179
100
AcDbLine
 10
159.123429062
 20
107.2420814338
 30
0.0
 11
158.4017434736
 21
105.9920816946
 31
0.0
  0
LINE
  5
F2
330
1F
100
AcDbEntity
  8
SLD-0
  6
Continuous
 62
   179
100
AcDbLine
 10
158.4017434736
 20
105.9920816946
 30
0.0
 11
159.123429062
 21
104.7420819553
 31
0.0
  0
LINE
  5
F3
330
1F
100
AcDbEntity
  8
SLD-0
  6
Continuous
 62
   179
100
AcDbLine
 10
160.5668076893
 20
104.7420819553
 30
0.0
 11
161.2884932776
 21
105.9920816946
 31
0.0
  0
LINE
  5
F4
330
1F
100
AcDbEntity
  8
SLD-0
  6
Continuous
 62
   179
100
AcDbLine
 10
159.123429062
 20
104.7420819553
 30
0.0
 11
160.5668076893
 21
104.7420819553
 31
0.0
  0
LINE
  5
F5
330
1F
100
AcDbEntity
  8
SLD-0
  6
Continuous
 62
   179
100
AcDbLine
 10
161.2884932776
 20
105.9920816946
 30
0.0
 11
160.5668076893
 21
107.2420814338
 31
0.0
  0
LINE
  5
F6
330
1F
100
AcDbEntity
  8
SLD-0
  6
Continuous
 62
   179
100
AcDbLine
 10
158.4017434736
 20
105.9920816946
 30
0.0
 11
159.8451182385
 21
105.9920817393
 31
0.0
  0
LINE
  5
F7
330
1F
100
AcDbEntity
  8
SLD-0
  6
Continuous
 62
   179
100
AcDbLine
 10
159.123429062
 20
104.7420819553
 30
0.0
 11
159.1595345756
 21
104.8046151439
 31
0.0
  0
LINE
  5
F8
330
1F
100
AcDbEntity
  8
SLD-0
  6
Continuous
 62
   179
100
AcDbLine
 10
159.1595345756
 20
104.8046151439
 30
0.0
 11
159.2409023663
 21
104.9455484639
 31
0.0
  0
LINE
  5
F9
330
1F
100
AcDbEntity
  8
SLD-0
  6
Continuous
 62
   179
100
AcDbLine
 10
159.2409023663
 20
104.9455484639
 30
0.0
 11
159.3675324341
 21
105.1648819151
 31
0.0
  0
LINE
  5
FA
330
1F
100
AcDbEntity
  8
SLD-0
  6
Continuous
 62
   179
100
AcDbLine
 10
159.3675324341
 20
105.1648819151
 30
0.0
 11
159.5748895427
 21
105.5240315648
 31
0.0
  0
LINE
  5
FB
330
1F
100
AcDbEntity
  8
SLD-0
  6
Continuous
 62
   179
100
AcDbLine
 10
159.5748895427
 20
105.5240315648
 30
0.0
 11
159.8451182385
 21
105.9920817393
 31
0.0
  0
LINE
  5
FC
330
1F
100
AcDbEntity
  8
SLD-0
  6
Continuous
 62
   179
100
AcDbLine
 10
161.2884932776
 20
105.9920816946
 30
0.0
 11
159.8451182385
 21
105.9920817393
 31
0.0
  0
LINE
  5
FD
330
1F
100
AcDbEntity
  8
SLD-0
  6
Continuous
 62
   179
100
AcDbLine
 10
160.5668076893
 20
107.2420814338
 30
0.0
 11
160.5307021757
 21
107.1795487108
 31
0.0
  0
LINE
  5
FE
330
1F
100
AcDbEntity
  8
SLD-0
  6
Continuous
 62
   179
100
AcDbLine
 10
160.5307021757
 20
107.1795487108
 30
0.0
 11
160.449334385
 21
107.0386153909
 31
0.0
  0
LINE
  5
FF
330
1F
100
AcDbEntity
  8
SLD-0
  6
Continuous
 62
   179
100
AcDbLine
 10
160.449334385
 20
107.0386153909
 30
0.0
 11
160.3227005919
 21
106.819281474
 31
0.0
  0
LINE
  5
100
330
1F
100
AcDbEntity
  8
SLD-0
  6
Continuous
 62
   179
100
AcDbLine
 10
160.3227005919
 20
106.819281474
 30
0.0
 11
160.1153472086
 21
106.4601318243
 31
0.0
  0
LINE
  5
101
330
1F
100
AcDbEntity
  8
SLD-0
  6
Continuous
 62
   179
100
AcDbLine
 10
160.1153472086
 20
106.4601318243
 30
0.0
 11
159.8451182385
 21
105.9920817393
 31
0.0
  0
LINE
  5
102
330
1F
100
AcDbEntity
  8
SLD-0
  6
Continuous
 62
   179
100
AcDbLine
 10
159.123429062
 20
107.2420814338
 30
0.0
 11
159.1595345756
 21
107.1795487108
 31
0.0
  0
LINE
  5
103
330
1F
100
AcDbEntity
  8
SLD-0
  6
Continuous
 62
   179
100
AcDbLine
 10
159.1595345756
 20
107.1795487108
 30
0.0
 11
159.2409023663
 21
107.0386153909
 31
0.0
  0
LINE
  5
104
330
1F
100
AcDbEntity
  8
SLD-0
  6
Continuous
 62
   179
100
AcDbLine
 10
159.2409023663
 20
107.0386153909
 30
0.0
 11
159.3675324341
 21
106.819281474
 31
0.0
  0
LINE
  5
105
330
1F
100
AcDbEntity
  8
SLD-0
  6
Continuous
 62
   179
100
AcDbLine
 10
159.3675324341
 20
106.819281474
 30
0.0
 11
159.5748895427
 21
106.4601318243
 31
0.0
  0
LINE
  5
106
330
1F
100
AcDbEntity
  8
SLD-0
  6
Continuous
 62
   179
100
AcDbLine
 10
159.5748895427
 20
106.4601318243
 30
0.0
 11
159.8451182385
 21
105.9920817393
 31
0.0
  0
LINE
  5
107
330
1F
100
AcDbEntity
  8
SLD-0
  6
Continuous
 62
   179
100
AcDbLine
 10
159.8451182385
 20
105.9920817393
 30
0.0
 11
160.0784444829
 21
105.5879482331
 31
0.0
  0
LINE
  5
108
330
1F
100
AcDbEntity
  8
SLD-0
  6
Continuous
 62
   179
100
AcDbLine
 10
160.0784444829
 20
105.5879482331
 30
0.0
 11
160.266508313
 21
105.262214903
 31
0.0
  0
LINE
  5
109
330
1F
100
AcDbEntity
  8
SLD-0
  6
Continuous
 62
   179
100
AcDbLine
 10
160.266508313
 20
105.262214903
 30
0.0
 11
160.4093061408
 21
105.0148817043
 31
0.0
  0
LINE
  5
10A
330
1F
100
AcDbEntity
  8
SLD-0
  6
Continuous
 62
   179
100
AcDbLine
 10
160.4093061408
 20
105.0148817043
 30
0.0
 11
160.5194927772
 21
104.8240318226
 31
0.0
  0
LINE
  5
10B
330
1F
100
AcDbEntity
  8
SLD-0
  6
Continuous
 62
   179
100
AcDbLine
 10
160.5194927772
 20
104.8240318226
 30
0.0
 11
160.5668076893
 21
104.7420819553
 31
0.0
  0
LINE
  5
10C
330
1F
100
AcDbEntity
  8
SLD-0
  6
Continuous
 62
   179
100
AcDbLine
 10
135.1668061336
 20
107.2420814338
 30
0.0
 11
133.7234303003
 21
107.2420814338
 31
0.0
  0
LINE
  5
10D
330
1F
100
AcDbEntity
  8
SLD-0
  6
Continuous
 62
   179
100
AcDbLine
 10
133.7234303003
 20
107.2420814338
 30
0.0
 11
133.0017428493
 21
105.9920816946
 31
0.0
  0
LINE
  5
10E
330
1F
100
AcDbEntity
  8
SLD-0
  6
Continuous
 62
   179
100
AcDbLine
 10
133.0017428493
 20
105.9920816946
 30
0.0
 11
133.7234303003
 21
104.7420819553
 31
0.0
  0
LINE
  5
10F
330
1F
100
AcDbEntity
  8
SLD-0
  6
Continuous
 62
   179
100
AcDbLine
 10
135.1668061336
 20
104.7420819553
 30
0.0
 11
135.8884935846
 21
105.9920816946
 31
0.0
  0
LINE
  5
110
330
1F
100
AcDbEntity
  8
SLD-0
  6
Continuous
 62
   179
100
AcDbLine
 10
133.7234303003
 20
104.7420819553
 30
0.0
 11
135.1668061336
 21
104.7420819553
 31
0.0
  0
LINE
  5
111
330
1F
100
AcDbEntity
  8
SLD-0
  6
Continuous
 62
   179
100
AcDbLine
 10
135.8884935846
 20
105.9920816946
 30
0.0
 11
135.1668061336
 21
107.2420814338
 31
0.0
  0
LINE
  5
112
330
1F
100
AcDbEntity
  8
SLD-0
  6
Continuous
 62
   179
100
AcDbLine
 10
133.7234303003
 20
107.2420814338
 30
0.0
 11
133.7595339512
 21
107.1795487108
 31
0.0
  0
LINE
  5
113
330
1F
100
AcDbEntity
  8
SLD-0
  6
Continuous
 62
   179
100
AcDbLine
 10
133.7595339512
 20
107.1795487108
 30
0.0
 11
133.8409017419
 21
107.0386153909
 31
0.0
  0
LINE
  5
114
330
1F
100
AcDbEntity
  8
SLD-0
  6
Continuous
 62
   179
100
AcDbLine
 10
133.8409017419
 20
107.0386153909
 30
0.0
 11
133.9675336724
 21
106.819281474
 31
0.0
  0
LINE
  5
115
330
1F
100
AcDbEntity
  8
SLD-0
  6
Continuous
 62
   179
100
AcDbLine
 10
133.9675336724
 20
106.819281474
 30
0.0
 11
134.1748898496
 21
106.4601318243
 31
0.0
  0
LINE
  5
116
330
1F
100
AcDbEntity
  8
SLD-0
  6
Continuous
 62
   179
100
AcDbLine
 10
134.1748898496
 20
106.4601318243
 30
0.0
 11
134.4451182385
 21
105.9920817393
 31
0.0
  0
LINE
  5
117
330
1F
100
AcDbEntity
  8
SLD-0
  6
Continuous
 62
   179
100
AcDbLine
 10
134.4451182385
 20
105.9920817393
 30
0.0
 11
134.6784447899
 21
105.5879482331
 31
0.0
  0
LINE
  5
118
330
1F
100
AcDbEntity
  8
SLD-0
  6
Continuous
 62
   179
100
AcDbLine
 10
134.6784447899
 20
105.5879482331
 30
0.0
 11
134.8665067574
 21
105.262214903
 31
0.0
  0
LINE
  5
119
330
1F
100
AcDbEntity
  8
SLD-0
  6
Continuous
 62
   179
100
AcDbLine
 10
134.8665067574
 20
105.262214903
 30
0.0
 11
135.0093045851
 21
105.0148817043
 31
0.0
  0
LINE
  5
11A
330
1F
100
AcDbEntity
  8
SLD-0
  6
Continuous
 62
   179
100
AcDbLine
 10
135.0093045851
 20
105.0148817043
 30
0.0
 11
135.1194921528
 21
104.8240318226
 31
0.0
  0
LINE
  5
11B
330
1F
100
AcDbEntity
  8
SLD-0
  6
Continuous
 62
   179
100
AcDbLine
 10
135.1194921528
 20
104.8240318226
 30
0.0
 11
135.1668061336
 21
104.7420819553
 31
0.0
  0
LINE
  5
11C
330
1F
100
AcDbEntity
  8
SLD-0
  6
Continuous
 62
   179
100
AcDbLine
 10
135.8884935846
 20
105.9920816946
 30
0.0
 11
134.4451182385
 21
105.9920817393
 31
0.0
  0
LINE
  5
11D
330
1F
100
AcDbEntity
  8
SLD-0
  6
Continuous
 62
   179
100
AcDbLine
 10
135.1668061336
 20
107.2420814338
 30
0.0
 11
135.1307024827
 21
107.1795487108
 31
0.0
  0
LINE
  5
11E
330
1F
100
AcDbEntity
  8
SLD-0
  6
Continuous
 62
   179
100
AcDbLine
 10
135.1307024827
 20
107.1795487108
 30
0.0
 11
135.049334692
 21
107.0386153909
 31
0.0
  0
LINE
  5
11F
330
1F
100
AcDbEntity
  8
SLD-0
  6
Continuous
 62
   179
100
AcDbLine
 10
135.049334692
 20
107.0386153909
 30
0.0
 11
134.9227027615
 21
106.819281474
 31
0.0
  0
LINE
  5
120
330
1F
100
AcDbEntity
  8
SLD-0
  6
Continuous
 62
   179
100
AcDbLine
 10
134.9227027615
 20
106.819281474
 30
0.0
 11
134.7153465842
 21
106.4601318243
 31
0.0
  0
LINE
  5
121
330
1F
100
AcDbEntity
  8
SLD-0
  6
Continuous
 62
   179
100
AcDbLine
 10
134.7153465842
 20
106.4601318243
 30
0.0
 11
134.4451182385
 21
105.9920817393
 31
0.0
  0
LINE
  5
122
330
1F
100
AcDbEntity
  8
SLD-0
  6
Continuous
 62
   179
100
AcDbLine
 10
133.0017428493
 20
105.9920816946
 30
0.0
 11
134.4451182385
 21
105.9920817393
 31
0.0
  0
LINE
  5
123
330
1F
100
AcDbEntity
  8
SLD-0
  6
Continuous
 62
   179
100
AcDbLine
 10
133.7234303003
 20
104.7420819553
 30
0.0
 11
133.7595339512
 21
104.8046151439
 31
0.0
  0
LINE
  5
124
330
1F
100
AcDbEntity
  8
SLD-0
  6
Continuous
 62
   179
100
AcDbLine
 10
133.7595339512
 20
104.8046151439
 30
0.0
 11
133.8409017419
 21
104.9455484639
 31
0.0
  0
LINE
  5
125
330
1F
100
AcDbEntity
  8
SLD-0
  6
Continuous
 62
   179
100
AcDbLine
 10
133.8409017419
 20
104.9455484639
 30
0.0
 11
133.9675336724
 21
105.1648819151
 31
0.0
  0
LINE
  5
126
330
1F
100
AcDbEntity
  8
SLD-0
  6
Continuous
 62
   179
100
AcDbLine
 10
133.9675336724
 20
105.1648819151
 30
0.0
 11
134.1748898496
 21
105.5240315648
 31
0.0
  0
LINE
  5
127
330
1F
100
AcDbEntity
  8
SLD-0
  6
Continuous
 62
   179
100
AcDbLine
 10
134.1748898496
 20
105.5240315648
 30
0.0
 11
134.4451182385
 21
105.9920817393
 31
0.0
  0
LINE
  5
128
330
1F
100
AcDbEntity
  8
SLD-0
  6
Continuous
 62
   179
100
AcDbLine
 10
162.6451173445
 20
88.992081702
 30
0.0
 11
162.6451173445
 21
108.9920821863
 31
0.0
  0
LINE
  5
129
330
1F
100
AcDbEntity
  8
SLD-0
  6
Continuous
 62
   179
100
AcDbLine
 10
138.6451189985
 20
88.992081702
 30
0.0
 11
162.6451173445
 21
88.992081702
 31
0.0
  0
LINE
  5
12A
330
1F
100
AcDbEntity
  8
SLD-0
  6
Continuous
 62
   179
100
AcDbLine
 10
131.6451178511
 20
95.9920816852
 30
0.0
 11
138.6451189985
 21
88.992081702
 31
0.0
  0
LINE
  5
12B
330
1F
100
AcDbEntity
  8
SLD-0
  6
Continuous
 62
   179
100
AcDbLine
 10
131.6451178511
 20
108.9920821863
 30
0.0
 11
131.6451178511
 21
95.9920816852
 31
0.0
  0
LINE
  5
12C
330
1F
100
AcDbEntity
  8
SLD-0
  6
Continuous
 62
   179
100
AcDbLine
 10
162.6451173445
 20
108.9920821863
 30
0.0
 11
131.6451178511
 21
108.9920821863
 31
0.0
  0
LINE
  5
12D
330
1F
100
AcDbEntity
  8
SLD-0
  6
Continuous
 62
   179
100
AcDbLine
 10
164.7451182385
 20
103.6920817393
 30
0.0
 11
162.6451173445
 21
103.6920818764
 31
0.0
  0
LINE
  5
12E
330
1F
100
AcDbEntity
  8
SLD-0
  6
Continuous
 62
   179
100
AcDbLine
 10
164.7451182385
 20
99.1920817393
 30
0.0
 11
162.6451173445
 21
99.1920817208
 31
0.0
  0
LINE
  5
12F
330
1F
100
AcDbEntity
  8
SLD-0
  6
Continuous
 62
   179
100
AcDbLine
 10
164.7451182385
 20
103.6920817393
 30
0.0
 11
164.7451182385
 21
99.1920817393
 31
0.0
  0
LINE
  5
130
330
1F
100
AcDbEntity
  8
SLD-0
  6
Continuous
 62
   179
100
AcDbLine
 10
129.4882639891
 20
84.006800365
 30
0.0
 11
129.4679217619
 21
84.0271423834
 31
0.0
  0
LINE
  5
131
330
1F
100
AcDbEntity
  8
SLD-0
  6
Continuous
 62
   179
100
AcDbLine
 10
129.4679217619
 20
84.0271423834
 30
0.0
 11
129.4074803238
 21
84.0875842872
 31
0.0
  0
LINE
  5
132
330
1F
100
AcDbEntity
  8
SLD-0
  6
Continuous
 62
   179
100
AcDbLine
 10
129.4074803238
 20
84.0875842872
 30
0.0
 11
129.3086786402
 21
84.1863855052
 31
0.0
  0
LINE
  5
133
330
1F
100
AcDbEntity
  8
SLD-0
  6
Continuous
 62
   179
100
AcDbLine
 10
129.3086786402
 20
84.1863855052
 30
0.0
 11
129.1743591075
 21
84.3207055035
 31
0.0
  0
LINE
  5
134
330
1F
100
AcDbEntity
  8
SLD-0
  6
Continuous
 62
   179
100
AcDbLine
 10
129.1743591075
 20
84.3207055035
 30
0.0
 11
129.0083857832
 21
84.4866783621
 31
0.0
  0
LINE
  5
135
330
1F
100
AcDbEntity
  8
SLD-0
  6
Continuous
 62
   179
100
AcDbLine
 10
129.0083857832
 20
84.4866783621
 30
0.0
 11
128.8155330924
 21
84.679531053
 31
0.0
  0
LINE
  5
136
330
1F
100
AcDbEntity
  8
SLD-0
  6
Continuous
 62
   179
100
AcDbLine
 10
128.8155330924
 20
84.679531053
 30
0.0
 11
128.6013489237
 21
84.8937156874
 31
0.0
  0
LINE
  5
137
330
1F
100
AcDbEntity
  8
SLD-0
  6
Continuous
 62
   179
100
AcDbLine
 10
128.6013489237
 20
84.8937156874
 30
0.0
 11
128.3719958385
 21
85.1230687725
 31
0.0
  0
LINE
  5
138
330
1F
100
AcDbEntity
  8
SLD-0
  6
Continuous
 62
   179
100
AcDbLine
 10
128.3719958385
 20
85.1230687725
 30
0.0
 11
128.134071326
 21
85.3609928193
 31
0.0
  0
LINE
  5
139
330
1F
100
AcDbEntity
  8
SLD-0
  6
Continuous
 62
   179
100
AcDbLine
 10
128.134071326
 20
85.3609928193
 30
0.0
 11
127.8944201415
 21
85.6006444695
 31
0.0
  0
LINE
  5
13A
330
1F
100
AcDbEntity
  8
SLD-0
  6
Continuous
 62
   179
100
AcDbLine
 10
127.8944201415
 20
85.6006444695
 30
0.0
 11
127.6599364003
 21
85.8351282107
 31
0.0
  0
LINE
  5
13B
330
1F
100
AcDbEntity
  8
SLD-0
  6
Continuous
 62
   179
100
AcDbLine
 10
127.6599364003
 20
85.8351282107
 30
0.0
 11
127.4373661374
 21
86.0576984736
 31
0.0
  0
LINE
  5
13C
330
1F
100
AcDbEntity
  8
SLD-0
  6
Continuous
 62
   179
100
AcDbLine
 10
127.4373661374
 20
86.0576984736
 30
0.0
 11
127.2331121956
 21
86.2619524154
 31
0.0
  0
LINE
  5
13D
330
1F
100
AcDbEntity
  8
SLD-0
  6
Continuous
 62
   179
100
AcDbLine
 10
127.2331121956
 20
86.2619524154
 30
0.0
 11
127.0530502891
 21
86.4420143219
 31
0.0
  0
LINE
  5
13E
330
1F
100
AcDbEntity
  8
SLD-0
  6
Continuous
 62
   179
100
AcDbLine
 10
127.0530502891
 20
86.4420143219
 30
0.0
 11
126.9023608995
 21
86.5927032458
 31
0.0
  0
LINE
  5
13F
330
1F
100
AcDbEntity
  8
SLD-0
  6
Continuous
 62
   179
100
AcDbLine
 10
126.9023608995
 20
86.5927032458
 30
0.0
 11
126.7853788679
 21
86.7096857431
 31
0.0
  0
LINE
  5
140
330
1F
100
AcDbEntity
  8
SLD-0
  6
Continuous
 62
   179
100
AcDbLine
 10
126.7853788679
 20
86.7096857431
 30
0.0
 11
126.7054695284
 21
86.7895950827
 31
0.0
  0
LINE
  5
141
330
1F
100
AcDbEntity
  8
SLD-0
  6
Continuous
 62
   179
100
AcDbLine
 10
126.7054695284
 20
86.7895950827
 30
0.0
 11
126.664931385
 21
86.8301327604
 31
0.0
  0
LINE
  5
142
330
1F
100
AcDbEntity
  8
SLD-0
  6
Continuous
 62
   179
100
AcDbLine
 10
126.664931385
 20
86.8301327604
 30
0.0
 11
126.6598368643
 21
86.8352274898
 31
0.0
  0
LINE
  5
143
330
1F
100
AcDbEntity
  8
SLD-0
  6
Continuous
 62
   179
100
AcDbLine
 10
163.4451182385
 20
97.7920817393
 30
0.0
 11
163.4451182385
 21
96.4920817393
 31
0.0
  0
LINE
  5
144
330
1F
100
AcDbEntity
  8
SLD-0
  6
Continuous
 62
   179
100
AcDbLine
 10
163.4451182385
 20
99.0920817393
 30
0.0
 11
163.4451182385
 21
97.7920817393
 31
0.0
  0
LINE
  5
145
330
1F
100
AcDbEntity
  8
SLD-0
  6
Continuous
 62
   179
100
AcDbLine
 10
163.4451182385
 20
93.2920817393
 30
0.0
 11
163.4451182385
 21
91.9920817393
 31
0.0
  0
LINE
  5
146
330
1F
100
AcDbEntity
  8
SLD-0
  6
Continuous
 62
   179
100
AcDbLine
 10
163.4451182385
 20
94.5920817393
 30
0.0
 11
163.4451182385
 21
93.2920817393
 31
0.0
  0
LINE
  5
147
330
1F
100
AcDbEntity
  8
SLD-0
  6
Continuous
 62
   179
100
AcDbLine
 10
122.6451182385
 20
91.7420817393
 30
0.0
 11
131.5666911771
 21
91.7420816871
 31
0.0
  0
LINE
  5
148
330
1F
100
AcDbEntity
  8
SLD-0
  6
Continuous
 62
   179
100
AcDbLine
 10
131.6451178511
 20
103.7420817914
 30
0.0
 11
122.6451182385
 21
103.7420817393
 31
0.0
  0
LINE
  5
149
330
1F
100
AcDbEntity
  8
SLD-0
  6
HIDDEN
 62
     8
100
AcDbLine
 10
162.6451173445
 20
108.7420816797
 30
0.0
 11
131.6451178511
 21
108.7420816797
 31
0.0
  0
LINE
  5
14A
330
1F
100
AcDbEntity
  8
SLD-0
  6
HIDDEN
 62
     8
100
AcDbLine
 10
162.6451173445
 20
91.7420816871
 30
0.0
 11
162.6451173445
 21
108.7420816797
 31
0.0
  0
LINE
  5
14B
330
1F
100
AcDbEntity
  8
SLD-0
  6
HIDDEN
 62
     8
100
AcDbLine
 10
131.5666911771
 20
91.7420816871
 30
0.0
 11
162.6451173445
 21
91.7420816871
 31
0.0
  0
LINE
  5
14C
330
1F
100
AcDbEntity
  8
SLD-0
  6
HIDDEN
 62
     8
100
AcDbLine
 10
131.6451178511
 20
108.7420816797
 30
0.0
 11
131.6451178511
 21
103.7420817914
 31
0.0
  0
LINE
  5
14D
330
1F
100
AcDbEntity
  8
SLD-0
  6
HIDDEN
 62
     8
100
AcDbLine
 10
162.6451173445
 20
108.7420816797
 30
0.0
 11
131.6451178511
 21
108.7420816797
 31
0.0
  0
LINE
  5
14E
330
1F
100
AcDbEntity
  8
SLD-0
  6
HIDDEN
 62
     8
100
AcDbLine
 10
162.6451173445
 20
91.7420816871
 30
0.0
 11
162.6451173445
 21
108.7420816797
 31
0.0
  0
LINE
  5
14F
330
1F
100
AcDbEntity
  8
SLD-0
  6
HIDDEN
 62
     8
100
AcDbLine
 10
122.6451182385
 20
91.7420817393
 30
0.0
 11
162.6451173445
 21
91.7420816871
 31
0.0
  0
LINE
  5
150
330
1F
100
AcDbEntity
  8
SLD-0
  6
HIDDEN
 62
     8
100
AcDbLine
 10
131.6451178511
 20
103.7420817914
 30
0.0
 11
122.6451182385
 21
103.7420817393
 31
0.0
  0
LINE
  5
151
330
1F
100
AcDbEntity
  8
SLD-0
  6
HIDDEN
 62
     8
100
AcDbLine
 10
131.6451178511
 20
108.7420816797
 30
0.0
 11
131.6451178511
 21
103.7420817914
 31
0.0
  0
LINE
  5
152
330
1F
100
AcDbEntity
  8
SLD-0
100
AcDbLine
 10
142.8384589734
 20
105.9573339332
 30
0.0
 11
139.9921198147
 21
115.9744198079
 31
0.0
  0
LINE
  5
153
330
1F
100
AcDbEntity
  8
SLD-0
100
AcDbLine
 10
139.9921198147
 20
115.9744198079
 30
0.0
 11
125.233760278
 21
115.9744198079
 31
0.0
  0
LINE
  5
154
330
1F
100
AcDbEntity
  8
SLD-0
  6
CENTERX2
 62
   179
100
AcDbLine
 10
126.6598368643
 20
84.006800365
 30
0.0
 11
136.5593318009
 21
93.9062953016
 31
0.0
  0
LINE
  5
155
330
1F
100
AcDbEntity
  8
SLD-0
  6
CENTERX2
 62
   179
100
AcDbLine
 10
166.7451182385
 20
101.4420817393
 30
0.0
 11
160.6451182385
 21
101.4420817393
 31
0.0
  0
LINE
  5
156
330
1F
100
AcDbEntity
  8
SLD-0
  6
CENTERX2
 62
   179
100
AcDbLine
 10
165.4451182385
 20
93.2920817393
 30
0.0
 11
160.6451182385
 21
93.2920817393
 31
0.0
  0
LINE
  5
157
330
1F
100
AcDbEntity
  8
SLD-0
  6
CENTERX2
 62
   179
100
AcDbLine
 10
165.4451182385
 20
97.7920817393
 30
0.0
 11
160.6451182385
 21
97.7920817393
 31
0.0
  0
LINE
  5
158
330
1F
100
AcDbEntity
  8
SLD-0
  6
Continuous
 62
   179
100
AcDbLine
 10
157.0951165279
 20
136.6287396655
 30
0.0
 11
157.0951182385
 21
133.9287389026
 31
0.0
  0
LINE
  5
159
330
1F
100
AcDbEntity
  8
SLD-0
  6
Continuous
 62
   179
100
AcDbLine
 10
162.5951182385
 20
133.9287389026
 30
0.0
 11
162.5951164981
 21
136.6287396655
 31
0.0
  0
LINE
  5
15A
330
1F
100
AcDbEntity
  8
SLD-0
  6
Continuous
 62
   179
100
AcDbLine
 10
157.0951182385
 20
133.9287389026
 30
0.0
 11
157.3951182385
 21
133.6287389026
 31
0.0
  0
LINE
  5
15B
330
1F
100
AcDbEntity
  8
SLD-0
  6
Continuous
 62
   179
100
AcDbLine
 10
162.2951182385
 20
133.6287389026
 30
0.0
 11
162.5951182385
 21
133.9287389026
 31
0.0
  0
LINE
  5
15C
330
1F
100
AcDbEntity
  8
SLD-0
  6
Continuous
 62
   179
100
AcDbLine
 10
131.6951186975
 20
136.6287396655
 30
0.0
 11
131.6951182385
 21
133.9287389026
 31
0.0
  0
LINE
  5
15D
330
1F
100
AcDbEntity
  8
SLD-0
  6
Continuous
 62
   179
100
AcDbLine
 10
137.1951182385
 20
133.9287389026
 30
0.0
 11
137.1951186677
 21
136.6287396655
 31
0.0
  0
LINE
  5
15E
330
1F
100
AcDbEntity
  8
SLD-0
  6
Continuous
 62
   179
100
AcDbLine
 10
131.6951182385
 20
133.9287389026
 30
0.0
 11
131.9951182385
 21
133.6287389026
 31
0.0
  0
LINE
  5
15F
330
1F
100
AcDbEntity
  8
SLD-0
  6
Continuous
 62
   179
100
AcDbLine
 10
136.8951182385
 20
133.6287389026
 30
0.0
 11
137.1951182385
 21
133.9287389026
 31
0.0
  0
LINE
  5
160
330
1F
100
AcDbEntity
  8
SLD-0
  6
Continuous
 62
   179
100
AcDbLine
 10
164.7451182385
 20
145.8787389026
 30
0.0
 11
162.6451173445
 21
145.8787388534
 31
0.0
  0
LINE
  5
161
330
1F
100
AcDbEntity
  8
SLD-0
  6
Continuous
 62
   179
100
AcDbLine
 10
162.6451173445
 20
138.1787388951
 30
0.0
 11
164.7451182385
 21
138.1787389026
 31
0.0
  0
LINE
  5
162
330
1F
100
AcDbEntity
  8
SLD-0
  6
Continuous
 62
   179
100
AcDbLine
 10
131.6451178511
 20
144.0287392021
 30
0.0
 11
128.0740504267
 21
144.0287389026
 31
0.0
  0
LINE
  5
163
330
1F
100
AcDbEntity
  8
SLD-0
  6
Continuous
 62
   179
100
AcDbLine
 10
128.0740504267
 20
140.0287389026
 30
0.0
 11
131.6451178511
 21
140.0287385464
 31
0.0
  0
LINE
  5
164
330
1F
100
AcDbEntity
  8
SLD-0
  6
Continuous
 62
   179
100
AcDbLine
 10
116.6451182385
 20
152.4287389026
 30
0.0
 11
116.6451182385
 21
147.4287389026
 31
0.0
  0
LINE
  5
165
330
1F
100
AcDbEntity
  8
SLD-0
  6
Continuous
 62
   179
100
AcDbLine
 10
157.0951182385
 20
133.9287389026
 30
0.0
 11
162.5951182385
 21
133.9287389026
 31
0.0
  0
LINE
  5
166
330
1F
100
AcDbEntity
  8
SLD-0
  6
Continuous
 62
   179
100
AcDbLine
 10
162.2951182385
 20
133.6287389026
 30
0.0
 11
157.3951182385
 21
133.6287389026
 31
0.0
  0
LINE
  5
167
330
1F
100
AcDbEntity
  8
SLD-0
  6
Continuous
 62
   179
100
AcDbLine
 10
131.6951182385
 20
133.9287389026
 30
0.0
 11
137.1951182385
 21
133.9287389026
 31
0.0
  0
LINE
  5
168
330
1F
100
AcDbEntity
  8
SLD-0
  6
Continuous
 62
   179
100
AcDbLine
 10
136.8951182385
 20
133.6287389026
 30
0.0
 11
131.9951182385
 21
133.6287389026
 31
0.0
  0
LINE
  5
169
330
1F
100
AcDbEntity
  8
SLD-0
  6
Continuous
 62
   179
100
AcDbLine
 10
131.6451178511
 20
147.4287390143
 30
0.0
 11
131.6451178511
 21
136.6287396655
 31
0.0
  0
LINE
  5
16A
330
1F
100
AcDbEntity
  8
SLD-0
  6
Continuous
 62
   179
100
AcDbLine
 10
162.6451173445
 20
147.4287390143
 30
0.0
 11
131.6451178511
 21
147.4287390143
 31
0.0
  0
LINE
  5
16B
330
1F
100
AcDbEntity
  8
SLD-0
  6
Continuous
 62
   179
100
AcDbLine
 10
162.6451173445
 20
147.4287390143
 30
0.0
 11
162.6451173445
 21
136.6287396655
 31
0.0
  0
LINE
  5
16C
330
1F
100
AcDbEntity
  8
SLD-0
  6
Continuous
 62
   179
100
AcDbLine
 10
162.6451173445
 20
136.6287396655
 30
0.0
 11
131.6451178511
 21
136.6287396655
 31
0.0
  0
LINE
  5
16D
330
1F
100
AcDbEntity
  8
SLD-0
  6
Continuous
 62
   179
100
AcDbLine
 10
138.0451181551
 20
146.1287388944
 30
0.0
 11
138.0451181551
 21
137.9287393198
 31
0.0
  0
LINE
  5
16E
330
1F
100
AcDbEntity
  8
SLD-0
  6
Continuous
 62
   179
100
AcDbLine
 10
138.0451181551
 20
137.9287393198
 30
0.0
 11
156.2451170405
 21
137.9287393198
 31
0.0
  0
LINE
  5
16F
330
1F
100
AcDbEntity
  8
SLD-0
  6
Continuous
 62
   179
100
AcDbLine
 10
156.2451170405
 20
137.9287393198
 30
0.0
 11
156.2451170405
 21
146.1287388944
 31
0.0
  0
LINE
  5
170
330
1F
100
AcDbEntity
  8
SLD-0
  6
Continuous
 62
   179
100
AcDbLine
 10
156.2451170405
 20
146.1287388944
 30
0.0
 11
138.0451181551
 21
146.1287388944
 31
0.0
  0
LINE
  5
171
330
1F
100
AcDbEntity
  8
SLD-0
  6
Continuous
 62
   179
100
AcDbLine
 10
138.1451179852
 20
138.0287391499
 30
0.0
 11
156.145119073
 21
138.0287391499
 31
0.0
  0
LINE
  5
172
330
1F
100
AcDbEntity
  8
SLD-0
  6
Continuous
 62
   179
100
AcDbLine
 10
138.1451179852
 20
146.0287390643
 30
0.0
 11
138.1451179852
 21
138.0287391499
 31
0.0
  0
LINE
  5
173
330
1F
100
AcDbEntity
  8
SLD-0
  6
Continuous
 62
   179
100
AcDbLine
 10
156.145119073
 20
146.0287390643
 30
0.0
 11
138.1451179852
 21
146.0287390643
 31
0.0
  0
LINE
  5
174
330
1F
100
AcDbEntity
  8
SLD-0
  6
Continuous
 62
   179
100
AcDbLine
 10
156.145119073
 20
138.0287391499
 30
0.0
 11
156.145119073
 21
146.0287390643
 31
0.0
  0
LINE
  5
175
330
1F
100
AcDbEntity
  8
SLD-0
  6
Continuous
 62
   179
100
AcDbLine
 10
164.7451182385
 20
145.8787389026
 30
0.0
 11
164.7451182385
 21
143.6287389026
 31
0.0
  0
LINE
  5
176
330
1F
100
AcDbEntity
  8
SLD-0
  6
Continuous
 62
   179
100
AcDbLine
 10
164.7451182385
 20
143.6287389026
 30
0.0
 11
164.7451182385
 21
140.4287389026
 31
0.0
  0
LINE
  5
177
330
1F
100
AcDbEntity
  8
SLD-0
  6
Continuous
 62
   179
100
AcDbLine
 10
164.7451182385
 20
140.4287389026
 30
0.0
 11
164.7451182385
 21
138.1787389026
 31
0.0
  0
LINE
  5
178
330
1F
100
AcDbEntity
  8
SLD-0
  6
Continuous
 62
   179
100
AcDbLine
 10
128.0740504267
 20
140.0287389026
 30
0.0
 11
127.8944201415
 21
140.0449379713
 31
0.0
  0
LINE
  5
179
330
1F
100
AcDbEntity
  8
SLD-0
  6
Continuous
 62
   179
100
AcDbLine
 10
127.8944201415
 20
140.0449379713
 30
0.0
 11
127.6599364003
 21
140.116405803
 31
0.0
  0
LINE
  5
17A
330
1F
100
AcDbEntity
  8
SLD-0
  6
Continuous
 62
   179
100
AcDbLine
 10
127.6599364003
 20
140.116405803
 30
0.0
 11
127.4373661374
 21
140.2428868593
 31
0.0
  0
LINE
  5
17B
330
1F
100
AcDbEntity
  8
SLD-0
  6
Continuous
 62
   179
100
AcDbLine
 10
127.4373661374
 20
140.2428868593
 30
0.0
 11
127.2331121956
 21
140.4207443253
 31
0.0
  0
LINE
  5
17C
330
1F
100
AcDbEntity
  8
SLD-0
  6
Continuous
 62
   179
100
AcDbLine
 10
127.2331121956
 20
140.4207443253
 30
0.0
 11
127.0530502891
 21
140.6448615149
 31
0.0
  0
LINE
  5
17D
330
1F
100
AcDbEntity
  8
SLD-0
  6
Continuous
 62
   179
100
AcDbLine
 10
127.0530502891
 20
140.6448615149
 30
0.0
 11
126.9023608995
 21
140.9087890194
 31
0.0
  0
LINE
  5
17E
330
1F
100
AcDbEntity
  8
SLD-0
  6
Continuous
 62
   179
100
AcDbLine
 10
126.9023608995
 20
140.9087890194
 30
0.0
 11
126.7853788679
 21
141.2049365596
 31
0.0
  0
LINE
  5
17F
330
1F
100
AcDbEntity
  8
SLD-0
  6
Continuous
 62
   179
100
AcDbLine
 10
126.7853788679
 20
141.2049365596
 30
0.0
 11
126.7054695284
 21
141.524782534
 31
0.0
  0
LINE
  5
180
330
1F
100
AcDbEntity
  8
SLD-0
  6
Continuous
 62
   179
100
AcDbLine
 10
126.7054695284
 20
141.524782534
 30
0.0
 11
126.664931385
 21
141.8591273383
 31
0.0
  0
LINE
  5
181
330
1F
100
AcDbEntity
  8
SLD-0
  6
Continuous
 62
   179
100
AcDbLine
 10
126.664931385
 20
141.8591273383
 30
0.0
 11
126.664931385
 21
142.1983504102
 31
0.0
  0
LINE
  5
182
330
1F
100
AcDbEntity
  8
SLD-0
  6
Continuous
 62
   179
100
AcDbLine
 10
126.664931385
 20
142.1983504102
 30
0.0
 11
126.7054695284
 21
142.5326952145
 31
0.0
  0
LINE
  5
183
330
1F
100
AcDbEntity
  8
SLD-0
  6
Continuous
 62
   179
100
AcDbLine
 10
126.7054695284
 20
142.5326952145
 30
0.0
 11
126.7853788679
 21
142.852541189
 31
0.0
  0
LINE
  5
184
330
1F
100
AcDbEntity
  8
SLD-0
  6
Continuous
 62
   179
100
AcDbLine
 10
126.7853788679
 20
142.852541189
 30
0.0
 11
126.9023608995
 21
143.1486887292
 31
0.0
  0
LINE
  5
185
330
1F
100
AcDbEntity
  8
SLD-0
  6
Continuous
 62
   179
100
AcDbLine
 10
126.9023608995
 20
143.1486887292
 30
0.0
 11
127.0530502891
 21
143.4126162336
 31
0.0
  0
LINE
  5
186
330
1F
100
AcDbEntity
  8
SLD-0
  6
Continuous
 62
   179
100
AcDbLine
 10
127.0530502891
 20
143.4126162336
 30
0.0
 11
127.2331121956
 21
143.6367334233
 31
0.0
  0
LINE
  5
187
330
1F
100
AcDbEntity
  8
SLD-0
  6
Continuous
 62
   179
100
AcDbLine
 10
127.2331121956
 20
143.6367334233
 30
0.0
 11
127.4373661374
 21
143.8145908893
 31
0.0
  0
LINE
  5
188
330
1F
100
AcDbEntity
  8
SLD-0
  6
Continuous
 62
   179
100
AcDbLine
 10
127.4373661374
 20
143.8145908893
 30
0.0
 11
127.6599364003
 21
143.9410719455
 31
0.0
  0
LINE
  5
189
330
1F
100
AcDbEntity
  8
SLD-0
  6
Continuous
 62
   179
100
AcDbLine
 10
127.6599364003
 20
143.9410719455
 30
0.0
 11
127.8944201415
 21
144.0125397772
 31
0.0
  0
LINE
  5
18A
330
1F
100
AcDbEntity
  8
SLD-0
  6
Continuous
 62
   179
100
AcDbLine
 10
127.8944201415
 20
144.0125397772
 30
0.0
 11
128.0740504267
 21
144.0287389026
 31
0.0
  0
LINE
  5
18B
330
1F
100
AcDbEntity
  8
SLD-0
  6
Continuous
 62
   179
100
AcDbLine
 10
162.6451173445
 20
147.4287390143
 30
0.0
 11
162.6451173445
 21
152.4287389026
 31
0.0
  0
LINE
  5
18C
330
1F
100
AcDbEntity
  8
SLD-0
  6
Continuous
 62
   179
100
AcDbLine
 10
131.6451178511
 20
147.4287390143
 30
0.0
 11
131.6451178511
 21
152.4287389026
 31
0.0
  0
LINE
  5
18D
330
1F
100
AcDbEntity
  8
SLD-0
  6
Continuous
 62
   179
100
AcDbLine
 10
162.6451173445
 20
152.4287389026
 30
0.0
 11
131.6451178511
 21
152.4287389026
 31
0.0
  0
LINE
  5
18E
330
1F
100
AcDbEntity
  8
SLD-0
  6
Continuous
 62
   179
100
AcDbLine
 10
131.6451178511
 20
147.4287390143
 30
0.0
 11
122.6451182385
 21
147.4287389026
 31
0.0
  0
LINE
  5
18F
330
1F
100
AcDbEntity
  8
SLD-0
  6
Continuous
 62
   179
100
AcDbLine
 10
131.6451178511
 20
152.4287389026
 30
0.0
 11
122.6451182385
 21
152.4287389026
 31
0.0
  0
LINE
  5
190
330
1F
100
AcDbEntity
  8
SLD-0
  6
Continuous
 62
   179
100
AcDbLine
 10
122.6451182385
 20
147.4287389026
 30
0.0
 11
116.6451182385
 21
147.4287389026
 31
0.0
  0
LINE
  5
191
330
1F
100
AcDbEntity
  8
SLD-0
  6
Continuous
 62
   179
100
AcDbLine
 10
122.6451182385
 20
152.4287389026
 30
0.0
 11
116.6451182385
 21
152.4287389026
 31
0.0
  0
LINE
  5
192
330
1F
100
AcDbEntity
  8
SLD-0
  6
CENTERX2
 62
   179
100
AcDbLine
 10
122.6451182385
 20
145.4287389026
 30
0.0
 11
122.6451182385
 21
154.4287389026
 31
0.0
  0
LINE
  5
193
330
1F
100
AcDbEntity
  8
SLD-0
  6
CENTERX2
 62
   179
100
AcDbLine
 10
134.4451182385
 20
154.4287389026
 30
0.0
 11
134.4451182385
 21
147.4287389026
 31
0.0
  0
LINE
  5
194
330
1F
100
AcDbEntity
  8
SLD-0
  6
CENTERX2
 62
   179
100
AcDbLine
 10
126.0740504267
 20
142.0287389026
 30
0.0
 11
137.1451182385
 21
142.0287389026
 31
0.0
  0
LINE
  5
195
330
1F
100
AcDbEntity
  8
SLD-0
  6
CENTERX2
 62
   179
100
AcDbLine
 10
159.8451182385
 20
154.4287389026
 30
0.0
 11
159.8451182385
 21
147.4287389026
 31
0.0
  0
LINE
  5
196
330
1F
100
AcDbEntity
  8
SLD-0
  6
CENTERX2
 62
   179
100
AcDbLine
 10
165.4451182385
 20
142.0287389026
 30
0.0
 11
160.6451182385
 21
142.0287389026
 31
0.0
  0
LINE
  5
197
330
1F
100
AcDbEntity
  8
SLD-0
  6
CENTERX2
 62
   179
100
AcDbLine
 10
134.4451182385
 20
147.4287389026
 30
0.0
 11
134.4451182385
 21
134.6287389026
 31
0.0
  0
LINE
  5
198
330
1F
100
AcDbEntity
  8
SLD-0
  6
CENTERX2
 62
   179
100
AcDbLine
 10
159.8451182385
 20
147.4287389026
 30
0.0
 11
159.8451182385
 21
134.6287389026
 31
0.0
  0
LINE
  5
199
330
1F
100
AcDbEntity
  8
SLD-0
  6
Continuous
 62
   179
100
AcDbLine
 10
153.9775384358
 20
199.3645158198
 30
0.0
 11
158.9775384358
 21
199.3645158198
 31
0.0
  0
LINE
  5
19A
330
1F
100
AcDbEntity
  8
SLD-0
  6
Continuous
 62
   179
100
AcDbLine
 10
153.9775384358
 20
199.3645158198
 30
0.0
 11
153.9775384358
 21
216.3645158198
 31
0.0
  0
LINE
  5
19B
330
1F
100
AcDbEntity
  8
SLD-0
  6
Continuous
 62
   179
100
AcDbLine
 10
153.9775384358
 20
216.3645158198
 30
0.0
 11
158.9775384358
 21
216.3645158198
 31
0.0
  0
LINE
  5
19C
330
1F
100
AcDbEntity
  8
SLD-0
  6
Continuous
 62
   179
100
AcDbLine
 10
158.9775384358
 20
199.3645158198
 30
0.0
 11
158.9775384358
 21
216.3645158198
 31
0.0
  0
LINE
  5
19D
330
1F
100
AcDbEntity
  8
SLD-0
  6
Continuous
 62
   179
100
AcDbLine
 10
54.070946793
 20
106.7920821982
 30
0.0
 11
44.0709464309
 21
106.7920817393
 31
0.0
  0
LINE
  5
19E
330
1F
100
AcDbEntity
  8
SLD-0
  6
Continuous
 62
   179
100
AcDbLine
 10
44.0709464309
 20
104.3920817393
 30
0.0
 11
54.070946793
 21
104.3920816186
 31
0.0
  0
LINE
  5
19F
330
1F
100
AcDbEntity
  8
SLD-0
  6
Continuous
 62
   179
100
AcDbLine
 10
75.2890874025
 20
103.3860045749
 30
0.0
 11
74.4290631589
 21
103.4877673986
 31
0.0
  0
LINE
  5
1A0
330
1F
100
AcDbEntity
  8
SLD-0
  6
Continuous
 62
   179
100
AcDbLine
 10
74.4290631589
 20
103.4877673986
 30
0.0
 11
73.9109199819
 21
102.7938445362
 31
0.0
  0
LINE
  5
1A1
330
1F
100
AcDbEntity
  8
SLD-0
  6
Continuous
 62
   179
100
AcDbLine
 10
75.1128290173
 20
101.8963960263
 30
0.0
 11
75.6309721944
 21
102.5903188887
 31
0.0
  0
LINE
  5
1A2
330
1F
100
AcDbEntity
  8
SLD-0
  6
Continuous
 62
   179
100
AcDbLine
 10
75.6309721944
 20
102.5903188887
 30
0.0
 11
75.2890874025
 21
103.3860045749
 31
0.0
  0
LINE
  5
1A3
330
1F
100
AcDbEntity
  8
SLD-0
  6
Continuous
 62
   179
100
AcDbLine
 10
73.9109199819
 20
102.7938445362
 30
0.0
 11
74.2528047737
 21
101.99815885
 31
0.0
  0
LINE
  5
1A4
330
1F
100
AcDbEntity
  8
SLD-0
  6
Continuous
 62
   179
100
AcDbLine
 10
74.2528047737
 20
101.99815885
 30
0.0
 11
75.1128290173
 21
101.8963960263
 31
0.0
  0
LINE
  5
1A5
330
1F
100
AcDbEntity
  8
SLD-0
  6
Continuous
 62
   179
100
AcDbLine
 10
75.2890874025
 20
103.3860045749
 30
0.0
 11
75.2631668326
 21
103.3512899915
 31
0.0
  0
LINE
  5
1A6
330
1F
100
AcDbEntity
  8
SLD-0
  6
Continuous
 62
   179
100
AcDbLine
 10
75.2631668326
 20
103.3512899915
 30
0.0
 11
75.2047505555
 21
103.273052376
 31
0.0
  0
LINE
  5
1A7
330
1F
100
AcDbEntity
  8
SLD-0
  6
Continuous
 62
   179
100
AcDbLine
 10
75.2047505555
 20
103.273052376
 30
0.0
 11
75.1138311204
 21
103.1512921939
 31
0.0
  0
LINE
  5
1A8
330
1F
100
AcDbEntity
  8
SLD-0
  6
Continuous
 62
   179
100
AcDbLine
 10
75.1138311204
 20
103.1512921939
 30
0.0
 11
74.9649610695
 21
102.9519141915
 31
0.0
  0
LINE
  5
1A9
330
1F
100
AcDbEntity
  8
SLD-0
  6
Continuous
 62
   179
100
AcDbLine
 10
74.9649610695
 20
102.9519141915
 30
0.0
 11
74.7709464309
 21
102.6920817393
 31
0.0
  0
LINE
  5
1AA
330
1F
100
AcDbEntity
  8
SLD-0
  6
Continuous
 62
   179
100
AcDbLine
 10
74.4290631589
 20
103.4877673986
 30
0.0
 11
74.4461659667
 21
103.4479617405
 31
0.0
  0
LINE
  5
1AB
330
1F
100
AcDbEntity
  8
SLD-0
  6
Continuous
 62
   179
100
AcDbLine
 10
74.4461659667
 20
103.4479617405
 30
0.0
 11
74.4847115454
 21
103.3582506965
 31
0.0
  0
LINE
  5
1AC
330
1F
100
AcDbEntity
  8
SLD-0
  6
Continuous
 62
   179
100
AcDbLine
 10
74.4847115454
 20
103.3582506965
 30
0.0
 11
74.5446998951
 21
103.2186347323
 31
0.0
  0
LINE
  5
1AD
330
1F
100
AcDbEntity
  8
SLD-0
  6
Continuous
 62
   179
100
AcDbLine
 10
74.5446998951
 20
103.2186347323
 30
0.0
 11
74.642932075
 21
102.9900183233
 31
0.0
  0
LINE
  5
1AE
330
1F
100
AcDbEntity
  8
SLD-0
  6
Continuous
 62
   179
100
AcDbLine
 10
74.642932075
 20
102.9900183233
 30
0.0
 11
74.7709464309
 21
102.6920817393
 31
0.0
  0
LINE
  5
1AF
330
1F
100
AcDbEntity
  8
SLD-0
  6
Continuous
 62
   179
100
AcDbLine
 10
75.1128290173
 20
101.8963960263
 30
0.0
 11
75.0957262096
 21
101.9362016844
 31
0.0
  0
LINE
  5
1B0
330
1F
100
AcDbEntity
  8
SLD-0
  6
Continuous
 62
   179
100
AcDbLine
 10
75.0957262096
 20
101.9362016844
 30
0.0
 11
75.0571806309
 21
102.0259127284
 31
0.0
  0
LINE
  5
1B1
330
1F
100
AcDbEntity
  8
SLD-0
  6
Continuous
 62
   179
100
AcDbLine
 10
75.0571806309
 20
102.0259127284
 30
0.0
 11
74.9971922812
 21
102.1655286926
 31
0.0
  0
LINE
  5
1B2
330
1F
100
AcDbEntity
  8
SLD-0
  6
Continuous
 62
   179
100
AcDbLine
 10
74.9971922812
 20
102.1655286926
 30
0.0
 11
74.8989601013
 21
102.3941451016
 31
0.0
  0
LINE
  5
1B3
330
1F
100
AcDbEntity
  8
SLD-0
  6
Continuous
 62
   179
100
AcDbLine
 10
74.8989601013
 20
102.3941451016
 30
0.0
 11
74.7709464309
 21
102.6920817393
 31
0.0
  0
LINE
  5
1B4
330
1F
100
AcDbEntity
  8
SLD-0
  6
Continuous
 62
   179
100
AcDbLine
 10
74.7709464309
 20
102.6920817393
 30
0.0
 11
75.0489998934
 21
102.6591813455
 31
0.0
  0
LINE
  5
1B5
330
1F
100
AcDbEntity
  8
SLD-0
  6
Continuous
 62
   179
100
AcDbLine
 10
75.0489998934
 20
102.6591813455
 30
0.0
 11
75.2731096324
 21
102.6326633322
 31
0.0
  0
LINE
  5
1B6
330
1F
100
AcDbEntity
  8
SLD-0
  6
Continuous
 62
   179
100
AcDbLine
 10
75.2731096324
 20
102.6326633322
 30
0.0
 11
75.4432808933
 21
102.6125276725
 31
0.0
  0
LINE
  5
1B7
330
1F
100
AcDbEntity
  8
SLD-0
  6
Continuous
 62
   179
100
AcDbLine
 10
75.4432808933
 20
102.6125276725
 30
0.0
 11
75.5745899257
 21
102.5969904179
 31
0.0
  0
LINE
  5
1B8
330
1F
100
AcDbEntity
  8
SLD-0
  6
Continuous
 62
   179
100
AcDbLine
 10
75.5745899257
 20
102.5969904179
 30
0.0
 11
75.6309721944
 21
102.5903188887
 31
0.0
  0
LINE
  5
1B9
330
1F
100
AcDbEntity
  8
SLD-0
  6
Continuous
 62
   179
100
AcDbLine
 10
74.2528047737
 20
101.99815885
 30
0.0
 11
74.2787253436
 21
102.0328734333
 31
0.0
  0
LINE
  5
1BA
330
1F
100
AcDbEntity
  8
SLD-0
  6
Continuous
 62
   179
100
AcDbLine
 10
74.2787253436
 20
102.0328734333
 30
0.0
 11
74.3371453461
 21
102.1111110489
 31
0.0
  0
LINE
  5
1BB
330
1F
100
AcDbEntity
  8
SLD-0
  6
Continuous
 62
   179
100
AcDbLine
 10
74.3371453461
 20
102.1111110489
 30
0.0
 11
74.4280610558
 21
102.2328712309
 31
0.0
  0
LINE
  5
1BC
330
1F
100
AcDbEntity
  8
SLD-0
  6
Continuous
 62
   179
100
AcDbLine
 10
74.4280610558
 20
102.2328712309
 30
0.0
 11
74.576934832
 21
102.4322492334
 31
0.0
  0
LINE
  5
1BD
330
1F
100
AcDbEntity
  8
SLD-0
  6
Continuous
 62
   179
100
AcDbLine
 10
74.576934832
 20
102.4322492334
 30
0.0
 11
74.7709464309
 21
102.6920817393
 31
0.0
  0
LINE
  5
1BE
330
1F
100
AcDbEntity
  8
SLD-0
  6
Continuous
 62
   179
100
AcDbLine
 10
73.9109199819
 20
102.7938445362
 30
0.0
 11
73.9539452222
 21
102.788753927
 31
0.0
  0
LINE
  5
1BF
330
1F
100
AcDbEntity
  8
SLD-0
  6
Continuous
 62
   179
100
AcDbLine
 10
73.9539452222
 20
102.788753927
 30
0.0
 11
74.0509089407
 21
102.7772804986
 31
0.0
  0
LINE
  5
1C0
330
1F
100
AcDbEntity
  8
SLD-0
  6
Continuous
 62
   179
100
AcDbLine
 10
74.0509089407
 20
102.7772804986
 30
0.0
 11
74.2018167254
 21
102.7594242508
 31
0.0
  0
LINE
  5
1C1
330
1F
100
AcDbEntity
  8
SLD-0
  6
Continuous
 62
   179
100
AcDbLine
 10
74.2018167254
 20
102.7594242508
 30
0.0
 11
74.4489189562
 21
102.7301858443
 31
0.0
  0
LINE
  5
1C2
330
1F
100
AcDbEntity
  8
SLD-0
  6
Continuous
 62
   179
100
AcDbLine
 10
74.4489189562
 20
102.7301858443
 30
0.0
 11
74.7709464309
 21
102.6920817393
 31
0.0
  0
LINE
  5
1C3
330
1F
100
AcDbEntity
  8
SLD-0
  6
Continuous
 62
   179
100
AcDbLine
 10
60.2890886691
 20
103.3860045749
 30
0.0
 11
59.4290625629
 21
103.4877673986
 31
0.0
  0
LINE
  5
1C4
330
1F
100
AcDbEntity
  8
SLD-0
  6
Continuous
 62
   179
100
AcDbLine
 10
59.4290625629
 20
103.4877673986
 30
0.0
 11
58.9109212485
 21
102.7938445362
 31
0.0
  0
LINE
  5
1C5
330
1F
100
AcDbEntity
  8
SLD-0
  6
Continuous
 62
   179
100
AcDbLine
 10
60.1128302839
 20
101.8963960263
 30
0.0
 11
60.6309715983
 21
102.5903188887
 31
0.0
  0
LINE
  5
1C6
330
1F
100
AcDbEntity
  8
SLD-0
  6
Continuous
 62
   179
100
AcDbLine
 10
60.6309715983
 20
102.5903188887
 30
0.0
 11
60.2890886691
 21
103.3860045749
 31
0.0
  0
LINE
  5
1C7
330
1F
100
AcDbEntity
  8
SLD-0
  6
Continuous
 62
   179
100
AcDbLine
 10
58.9109212485
 20
102.7938445362
 30
0.0
 11
59.2528041777
 21
101.99815885
 31
0.0
  0
LINE
  5
1C8
330
1F
100
AcDbEntity
  8
SLD-0
  6
Continuous
 62
   179
100
AcDbLine
 10
59.2528041777
 20
101.99815885
 30
0.0
 11
60.1128302839
 21
101.8963960263
 31
0.0
  0
LINE
  5
1C9
330
1F
100
AcDbEntity
  8
SLD-0
  6
Continuous
 62
   179
100
AcDbLine
 10
60.2890886691
 20
103.3860045749
 30
0.0
 11
60.2631680992
 21
103.3512899915
 31
0.0
  0
LINE
  5
1CA
330
1F
100
AcDbEntity
  8
SLD-0
  6
Continuous
 62
   179
100
AcDbLine
 10
60.2631680992
 20
103.3512899915
 30
0.0
 11
60.2047480968
 21
103.273052376
 31
0.0
  0
LINE
  5
1CB
330
1F
100
AcDbEntity
  8
SLD-0
  6
Continuous
 62
   179
100
AcDbLine
 10
60.2047480968
 20
103.273052376
 30
0.0
 11
60.113832387
 21
103.1512921939
 31
0.0
  0
LINE
  5
1CC
330
1F
100
AcDbEntity
  8
SLD-0
  6
Continuous
 62
   179
100
AcDbLine
 10
60.113832387
 20
103.1512921939
 30
0.0
 11
59.9649604735
 21
102.9519141915
 31
0.0
  0
LINE
  5
1CD
330
1F
100
AcDbEntity
  8
SLD-0
  6
Continuous
 62
   179
100
AcDbLine
 10
59.9649604735
 20
102.9519141915
 30
0.0
 11
59.7709464309
 21
102.6920817393
 31
0.0
  0
LINE
  5
1CE
330
1F
100
AcDbEntity
  8
SLD-0
  6
Continuous
 62
   179
100
AcDbLine
 10
59.4290625629
 20
103.4877673986
 30
0.0
 11
59.4461653706
 21
103.4479617405
 31
0.0
  0
LINE
  5
1CF
330
1F
100
AcDbEntity
  8
SLD-0
  6
Continuous
 62
   179
100
AcDbLine
 10
59.4461653706
 20
103.4479617405
 30
0.0
 11
59.484712812
 21
103.3582506965
 31
0.0
  0
LINE
  5
1D0
330
1F
100
AcDbEntity
  8
SLD-0
  6
Continuous
 62
   179
100
AcDbLine
 10
59.484712812
 20
103.3582506965
 30
0.0
 11
59.5447011617
 21
103.2186347323
 31
0.0
  0
LINE
  5
1D1
330
1F
100
AcDbEntity
  8
SLD-0
  6
Continuous
 62
   179
100
AcDbLine
 10
59.5447011617
 20
103.2186347323
 30
0.0
 11
59.6429314789
 21
102.9900183233
 31
0.0
  0
LINE
  5
1D2
330
1F
100
AcDbEntity
  8
SLD-0
  6
Continuous
 62
   179
100
AcDbLine
 10
59.6429314789
 20
102.9900183233
 30
0.0
 11
59.7709464309
 21
102.6920817393
 31
0.0
  0
LINE
  5
1D3
330
1F
100
AcDbEntity
  8
SLD-0
  6
Continuous
 62
   179
100
AcDbLine
 10
59.2528041777
 20
101.99815885
 30
0.0
 11
59.2787247476
 21
102.0328734333
 31
0.0
  0
LINE
  5
1D4
330
1F
100
AcDbEntity
  8
SLD-0
  6
Continuous
 62
   179
100
AcDbLine
 10
59.2787247476
 20
102.0328734333
 30
0.0
 11
59.3371447501
 21
102.1111110489
 31
0.0
  0
LINE
  5
1D5
330
1F
100
AcDbEntity
  8
SLD-0
  6
Continuous
 62
   179
100
AcDbLine
 10
59.3371447501
 20
102.1111110489
 30
0.0
 11
59.4280604598
 21
102.2328712309
 31
0.0
  0
LINE
  5
1D6
330
1F
100
AcDbEntity
  8
SLD-0
  6
Continuous
 62
   179
100
AcDbLine
 10
59.4280604598
 20
102.2328712309
 30
0.0
 11
59.576934236
 21
102.4322492334
 31
0.0
  0
LINE
  5
1D7
330
1F
100
AcDbEntity
  8
SLD-0
  6
Continuous
 62
   179
100
AcDbLine
 10
59.576934236
 20
102.4322492334
 30
0.0
 11
59.7709464309
 21
102.6920817393
 31
0.0
  0
LINE
  5
1D8
330
1F
100
AcDbEntity
  8
SLD-0
  6
Continuous
 62
   179
100
AcDbLine
 10
60.1128302839
 20
101.8963960263
 30
0.0
 11
60.0957274762
 21
101.9362016844
 31
0.0
  0
LINE
  5
1D9
330
1F
100
AcDbEntity
  8
SLD-0
  6
Continuous
 62
   179
100
AcDbLine
 10
60.0957274762
 20
101.9362016844
 30
0.0
 11
60.0571800348
 21
102.0259127284
 31
0.0
  0
LINE
  5
1DA
330
1F
100
AcDbEntity
  8
SLD-0
  6
Continuous
 62
   179
100
AcDbLine
 10
60.0571800348
 20
102.0259127284
 30
0.0
 11
59.9971916851
 21
102.1655286926
 31
0.0
  0
LINE
  5
1DB
330
1F
100
AcDbEntity
  8
SLD-0
  6
Continuous
 62
   179
100
AcDbLine
 10
59.9971916851
 20
102.1655286926
 30
0.0
 11
59.8989613679
 21
102.3941451016
 31
0.0
  0
LINE
  5
1DC
330
1F
100
AcDbEntity
  8
SLD-0
  6
Continuous
 62
   179
100
AcDbLine
 10
59.8989613679
 20
102.3941451016
 30
0.0
 11
59.7709464309
 21
102.6920817393
 31
0.0
  0
LINE
  5
1DD
330
1F
100
AcDbEntity
  8
SLD-0
  6
Continuous
 62
   179
100
AcDbLine
 10
59.7709464309
 20
102.6920817393
 30
0.0
 11
60.0489992973
 21
102.6591813455
 31
0.0
  0
LINE
  5
1DE
330
1F
100
AcDbEntity
  8
SLD-0
  6
Continuous
 62
   179
100
AcDbLine
 10
60.0489992973
 20
102.6591813455
 30
0.0
 11
60.2731090364
 21
102.6326633322
 31
0.0
  0
LINE
  5
1DF
330
1F
100
AcDbEntity
  8
SLD-0
  6
Continuous
 62
   179
100
AcDbLine
 10
60.2731090364
 20
102.6326633322
 30
0.0
 11
60.4432802972
 21
102.6125276725
 31
0.0
  0
LINE
  5
1E0
330
1F
100
AcDbEntity
  8
SLD-0
  6
Continuous
 62
   179
100
AcDbLine
 10
60.4432802972
 20
102.6125276725
 30
0.0
 11
60.5745893297
 21
102.5969904179
 31
0.0
  0
LINE
  5
1E1
330
1F
100
AcDbEntity
  8
SLD-0
  6
Continuous
 62
   179
100
AcDbLine
 10
60.5745893297
 20
102.5969904179
 30
0.0
 11
60.6309715983
 21
102.5903188887
 31
0.0
  0
LINE
  5
1E2
330
1F
100
AcDbEntity
  8
SLD-0
  6
Continuous
 62
   179
100
AcDbLine
 10
58.9109212485
 20
102.7938445362
 30
0.0
 11
58.9539446262
 21
102.788753927
 31
0.0
  0
LINE
  5
1E3
330
1F
100
AcDbEntity
  8
SLD-0
  6
Continuous
 62
   179
100
AcDbLine
 10
58.9539446262
 20
102.788753927
 30
0.0
 11
59.0509102073
 21
102.7772804986
 31
0.0
  0
LINE
  5
1E4
330
1F
100
AcDbEntity
  8
SLD-0
  6
Continuous
 62
   179
100
AcDbLine
 10
59.0509102073
 20
102.7772804986
 30
0.0
 11
59.2018161294
 21
102.7594242508
 31
0.0
  0
LINE
  5
1E5
330
1F
100
AcDbEntity
  8
SLD-0
  6
Continuous
 62
   179
100
AcDbLine
 10
59.2018161294
 20
102.7594242508
 30
0.0
 11
59.4489183602
 21
102.7301858443
 31
0.0
  0
LINE
  5
1E6
330
1F
100
AcDbEntity
  8
SLD-0
  6
Continuous
 62
   179
100
AcDbLine
 10
59.4489183602
 20
102.7301858443
 30
0.0
 11
59.7709464309
 21
102.6920817393
 31
0.0
  0
LINE
  5
1E7
330
1F
100
AcDbEntity
  8
SLD-0
  6
Continuous
 62
   179
100
AcDbLine
 10
73.9709455845
 20
111.8920819166
 30
0.0
 11
75.1709472713
 21
111.8920819166
 31
0.0
  0
LINE
  5
1E8
330
1F
100
AcDbEntity
  8
SLD-0
  6
Continuous
 62
   179
100
AcDbLine
 10
75.1709472713
 20
111.8920819166
 30
0.0
 11
75.1709472713
 21
108.8092393505
 31
0.0
  0
LINE
  5
1E9
330
1F
100
AcDbEntity
  8
SLD-0
  6
Continuous
 62
   179
100
AcDbLine
 10
75.1709472713
 20
108.8092393505
 30
0.0
 11
75.7881049392
 21
108.1920816826
 31
0.0
  0
LINE
  5
1EA
330
1F
100
AcDbEntity
  8
SLD-0
  6
Continuous
 62
   179
100
AcDbLine
 10
75.7881049392
 20
108.1920816826
 30
0.0
 11
78.5709452209
 21
108.1920816826
 31
0.0
  0
LINE
  5
1EB
330
1F
100
AcDbEntity
  8
SLD-0
  6
Continuous
 62
   179
100
AcDbLine
 10
78.5709452209
 20
108.1920816826
 30
0.0
 11
78.5709452209
 21
104.1991898122
 31
0.0
  0
LINE
  5
1EC
330
1F
100
AcDbEntity
  8
SLD-0
  6
Continuous
 62
   179
100
AcDbLine
 10
77.1967543481
 20
103.1636618299
 30
0.0
 11
78.5709452209
 21
104.1991898122
 31
0.0
  0
LINE
  5
1ED
330
1F
100
AcDbEntity
  8
SLD-0
  6
Continuous
 62
   179
100
AcDbLine
 10
72.9709472832
 20
103.3003578226
 30
0.0
 11
72.9709472832
 21
106.4920817765
 31
0.0
  0
LINE
  5
1EE
330
1F
100
AcDbEntity
  8
SLD-0
  6
Continuous
 62
   179
100
AcDbLine
 10
72.9709472832
 20
106.4920817765
 30
0.0
 11
61.5709461597
 21
106.4920817765
 31
0.0
  0
LINE
  5
1EF
330
1F
100
AcDbEntity
  8
SLD-0
  6
Continuous
 62
   179
100
AcDbLine
 10
61.5709461597
 20
106.4920817765
 30
0.0
 11
61.5709461597
 21
103.3003578226
 31
0.0
  0
LINE
  5
1F0
330
1F
100
AcDbEntity
  8
SLD-0
  6
Continuous
 62
   179
100
AcDbLine
 10
57.9709466872
 20
103.3003578226
 30
0.0
 11
57.9709466872
 21
110.3920816707
 31
0.0
  0
LINE
  5
1F1
330
1F
100
AcDbEntity
  8
SLD-0
  6
Continuous
 62
   179
100
AcDbLine
 10
57.9709466872
 20
110.3920816707
 30
0.0
 11
60.770945656
 21
110.3920816707
 31
0.0
  0
LINE
  5
1F2
330
1F
100
AcDbEntity
  8
SLD-0
  6
Continuous
 62
   179
100
AcDbLine
 10
60.770945656
 20
110.3920816707
 30
0.0
 11
60.770945656
 21
111.8920819166
 31
0.0
  0
LINE
  5
1F3
330
1F
100
AcDbEntity
  8
SLD-0
  6
Continuous
 62
   179
100
AcDbLine
 10
60.770945656
 20
111.8920819166
 30
0.0
 11
62.5709463236
 21
111.8920819166
 31
0.0
  0
LINE
  5
1F4
330
1F
100
AcDbEntity
  8
SLD-0
  6
Continuous
 62
   179
100
AcDbLine
 10
62.5709463236
 20
111.8920819166
 30
0.0
 11
62.5709463236
 21
110.1920820105
 31
0.0
  0
LINE
  5
1F5
330
1F
100
AcDbEntity
  8
SLD-0
  6
Continuous
 62
   179
100
AcDbLine
 10
62.5709463236
 20
110.1920820105
 30
0.0
 11
73.9709455845
 21
110.1920820105
 31
0.0
  0
LINE
  5
1F6
330
1F
100
AcDbEntity
  8
SLD-0
  6
Continuous
 62
   179
100
AcDbLine
 10
73.9709455845
 20
110.1920820105
 30
0.0
 11
73.9709455845
 21
111.8920819166
 31
0.0
  0
LINE
  5
1F7
330
1F
100
AcDbEntity
  8
SLD-0
  6
Continuous
 62
   179
100
AcDbLine
 10
75.3709469315
 20
111.8920819166
 30
0.0
 11
76.0709464309
 21
111.8920817393
 31
0.0
  0
LINE
  5
1F8
330
1F
100
AcDbEntity
  8
SLD-0
  6
Continuous
 62
   179
100
AcDbLine
 10
78.5709464309
 20
109.3920817393
 30
0.0
 11
78.5709452209
 21
108.3920813429
 31
0.0
  0
LINE
  5
1F9
330
1F
100
AcDbEntity
  8
SLD-0
  6
Continuous
 62
   179
100
AcDbLine
 10
78.5709452209
 20
108.3920813429
 30
0.0
 11
75.8709479448
 21
108.3920813429
 31
0.0
  0
LINE
  5
1FA
330
1F
100
AcDbEntity
  8
SLD-0
  6
Continuous
 62
   179
100
AcDbLine
 10
75.3709469315
 20
108.8920814248
 30
0.0
 11
75.8709479448
 21
108.3920813429
 31
0.0
  0
LINE
  5
1FB
330
1F
100
AcDbEntity
  8
SLD-0
  6
Continuous
 62
   179
100
AcDbLine
 10
75.3709469315
 20
108.8920814248
 30
0.0
 11
75.3709469315
 21
111.8920819166
 31
0.0
  0
LINE
  5
1FC
330
1F
100
AcDbEntity
  8
SLD-0
  6
Continuous
 62
   179
100
AcDbLine
 10
62.7709459838
 20
110.3920816707
 30
0.0
 11
62.7709459838
 21
111.8920819166
 31
0.0
  0
LINE
  5
1FD
330
1F
100
AcDbEntity
  8
SLD-0
  6
Continuous
 62
   179
100
AcDbLine
 10
73.7709459242
 20
110.3920816707
 30
0.0
 11
73.7709459242
 21
111.8920819166
 31
0.0
  0
LINE
  5
1FE
330
1F
100
AcDbEntity
  8
SLD-0
  6
Continuous
 62
   179
100
AcDbLine
 10
73.7709459242
 20
110.3920816707
 30
0.0
 11
62.7709459838
 21
110.3920816707
 31
0.0
  0
LINE
  5
1FF
330
1F
100
AcDbEntity
  8
SLD-0
  6
Continuous
 62
   179
100
AcDbLine
 10
62.7709459838
 20
111.8920819166
 30
0.0
 11
73.7709459242
 21
111.8920819166
 31
0.0
  0
LINE
  5
200
330
1F
100
AcDbEntity
  8
SLD-0
  6
Continuous
 62
   179
100
AcDbLine
 10
62.6327640351
 20
102.1920817393
 30
0.0
 11
71.9091288266
 21
102.1920817393
 31
0.0
  0
LINE
  5
201
330
1F
100
AcDbEntity
  8
SLD-0
  6
Continuous
 62
   179
100
AcDbLine
 10
78.3709455606
 20
108.1920816826
 30
0.0
 11
78.3709455606
 21
108.3920813429
 31
0.0
  0
LINE
  5
202
330
1F
100
AcDbEntity
  8
SLD-0
  6
Continuous
 62
   179
100
AcDbLine
 10
75.3709469315
 20
111.692081325
 30
0.0
 11
75.1709472713
 21
111.692081325
 31
0.0
  0
LINE
  5
203
330
1F
100
AcDbEntity
  8
SLD-0
  6
Continuous
 62
   179
100
AcDbLine
 10
62.5709463236
 20
111.692081325
 30
0.0
 11
62.7709459838
 21
111.692081325
 31
0.0
  0
LINE
  5
204
330
1F
100
AcDbEntity
  8
SLD-0
  6
Continuous
 62
   179
100
AcDbLine
 10
73.7709459242
 20
111.692081325
 30
0.0
 11
73.9709455845
 21
111.692081325
 31
0.0
  0
LINE
  5
205
330
1F
100
AcDbEntity
  8
SLD-0
  6
Continuous
 62
   179
100
AcDbLine
 10
57.894780333
 20
102.9920816685
 30
0.0
 11
56.9709465232
 21
102.9920816685
 31
0.0
  0
LINE
  5
206
330
1F
100
AcDbEntity
  8
SLD-0
  6
Continuous
 62
   179
100
AcDbLine
 10
56.9709465232
 20
102.9920816685
 30
0.0
 11
56.9709465232
 21
108.1920816826
 31
0.0
  0
LINE
  5
207
330
1F
100
AcDbEntity
  8
SLD-0
  6
Continuous
 62
   179
100
AcDbLine
 10
56.9709465232
 20
108.1920816826
 30
0.0
 11
57.9709466872
 21
108.1920816826
 31
0.0
  0
LINE
  5
208
330
1F
100
AcDbEntity
  8
SLD-0
  6
Continuous
 62
   179
100
AcDbLine
 10
55.0709460255
 20
103.1920817944
 30
0.0
 11
55.0709460255
 21
107.9920820224
 31
0.0
  0
LINE
  5
209
330
1F
100
AcDbEntity
  8
SLD-0
  6
Continuous
 62
   179
100
AcDbLine
 10
56.9709465232
 20
107.9920820224
 30
0.0
 11
55.0709460255
 21
107.9920820224
 31
0.0
  0
LINE
  5
20A
330
1F
100
AcDbEntity
  8
SLD-0
  6
Continuous
 62
   179
100
AcDbLine
 10
56.9709465232
 20
103.1920817944
 30
0.0
 11
55.0709460255
 21
103.1920817944
 31
0.0
  0
LINE
  5
20B
330
1F
100
AcDbEntity
  8
SLD-0
  6
Continuous
 62
   179
100
AcDbLine
 10
54.070946793
 20
107.9920820224
 30
0.0
 11
54.070946793
 21
103.1920817944
 31
0.0
  0
LINE
  5
20C
330
1F
100
AcDbEntity
  8
SLD-0
  6
Continuous
 62
   179
100
AcDbLine
 10
54.070946793
 20
107.9920820224
 30
0.0
 11
55.0709460255
 21
107.9920820224
 31
0.0
  0
LINE
  5
20D
330
1F
100
AcDbEntity
  8
SLD-0
  6
Continuous
 62
   179
100
AcDbLine
 10
54.070946793
 20
103.1920817944
 30
0.0
 11
55.0709460255
 21
103.1920817944
 31
0.0
  0
LINE
  5
20E
330
1F
100
AcDbEntity
  8
SLD-0
  6
Continuous
 62
   179
100
AcDbLine
 10
44.0709464309
 20
106.7920817393
 30
0.0
 11
44.0709464309
 21
104.3920817393
 31
0.0
  0
LINE
  5
20F
330
1F
100
AcDbEntity
  8
SLD-0
  6
Continuous
 62
   179
100
AcDbLine
 10
82.7709455368
 20
108.7420816797
 30
0.0
 11
78.5709452209
 21
108.7420816797
 31
0.0
  0
LINE
  5
210
330
1F
100
AcDbEntity
  8
SLD-0
  6
Continuous
 62
   179
100
AcDbLine
 10
57.9709466872
 20
108.7420816797
 30
0.0
 11
51.7709460434
 21
108.7420816797
 31
0.0
  0
LINE
  5
211
330
1F
100
AcDbEntity
  8
SLD-0
  6
Continuous
 62
   179
100
AcDbLine
 10
82.7709455368
 20
91.7420816871
 30
0.0
 11
82.7709455368
 21
108.7420816797
 31
0.0
  0
LINE
  5
212
330
1F
100
AcDbEntity
  8
SLD-0
  6
Continuous
 62
   179
100
AcDbLine
 10
42.7709464309
 20
91.7420817393
 30
0.0
 11
82.7709455368
 21
91.7420816871
 31
0.0
  0
LINE
  5
213
330
1F
100
AcDbEntity
  8
SLD-0
  6
Continuous
 62
   179
100
AcDbLine
 10
51.7709460434
 20
103.7420817914
 30
0.0
 11
42.7709464309
 21
103.7420817393
 31
0.0
  0
LINE
  5
214
330
1F
100
AcDbEntity
  8
SLD-0
  6
Continuous
 62
   179
100
AcDbLine
 10
51.7709460434
 20
108.7420816797
 30
0.0
 11
51.7709460434
 21
106.7920821982
 31
0.0
  0
LINE
  5
215
330
1F
100
AcDbEntity
  8
SLD-0
  6
Continuous
 62
   179
100
AcDbLine
 10
51.7709460434
 20
104.3920816186
 30
0.0
 11
51.7709460434
 21
103.7420817914
 31
0.0
  0
LINE
  5
216
330
1F
100
AcDbEntity
  8
SLD-0
  6
HIDDEN
 62
     8
100
AcDbLine
 10
78.5709452209
 20
108.7420816797
 30
0.0
 11
57.9709466872
 21
108.7420816797
 31
0.0
  0
LINE
  5
217
330
1F
100
AcDbEntity
  8
SLD-0
  6
HIDDEN
 62
     8
100
AcDbLine
 10
51.7709460434
 20
106.7920821982
 30
0.0
 11
51.7709460434
 21
104.3920816186
 31
0.0
  0
LINE
  5
218
330
1F
100
AcDbEntity
  8
SLD-0
  6
HIDDEN
 62
     8
100
AcDbLine
 10
51.7709460434
 20
103.7420817914
 30
0.0
 11
42.7709464309
 21
103.7420817393
 31
0.0
  0
LINE
  5
219
330
1F
100
AcDbEntity
  8
SLD-0
  6
HIDDEN
 62
     8
100
AcDbLine
 10
82.7709455368
 20
108.7420816797
 30
0.0
 11
51.7709460434
 21
108.7420816797
 31
0.0
  0
LINE
  5
21A
330
1F
100
AcDbEntity
  8
SLD-0
  6
HIDDEN
 62
     8
100
AcDbLine
 10
42.7709464309
 20
91.7420817393
 30
0.0
 11
82.7709455368
 21
91.7420816871
 31
0.0
  0
LINE
  5
21B
330
1F
100
AcDbEntity
  8
SLD-0
  6
HIDDEN
 62
     8
100
AcDbLine
 10
82.7709455368
 20
91.7420816871
 30
0.0
 11
82.7709455368
 21
108.7420816797
 31
0.0
  0
LINE
  5
21C
330
1F
100
AcDbEntity
  8
SLD-0
  6
HIDDEN
 62
     8
100
AcDbLine
 10
51.7709460434
 20
108.7420816797
 30
0.0
 11
51.7709460434
 21
103.7420817914
 31
0.0
  0
LINE
  5
21D
330
1F
100
AcDbEntity
  8
SLD-0
100
AcDbLine
 10
62.9778002225
 20
107.4091210877
 30
0.0
 11
57.6664813204
 21
115.7167614373
 31
0.0
  0
LINE
  5
21E
330
1F
100
AcDbEntity
  8
SLD-0
100
AcDbLine
 10
57.6664813204
 20
115.7167614373
 30
0.0
 11
38.8348460723
 21
115.7167614373
 31
0.0
  0
LINE
  5
21F
330
1F
100
AcDbEntity
  8
SLD-0
  6
CENTERX2
 62
   179
100
AcDbLine
 10
42.0709464309
 20
105.5920817393
 30
0.0
 11
56.0709464309
 21
105.5920817393
 31
0.0
  0
LINE
  5
220
330
1F
100
AcDbEntity
  8
SLD-0
  6
Continuous
 62
   179
100
AcDbLine
 10
72.8709455904
 20
140.4287387983
 30
0.0
 11
72.8709464309
 21
138.6287389026
 31
0.0
  0
LINE
  5
221
330
1F
100
AcDbEntity
  8
SLD-0
  6
Continuous
 62
   179
100
AcDbLine
 10
76.6709464309
 20
138.6287389026
 30
0.0
 11
76.6709465858
 21
140.4287387983
 31
0.0
  0
LINE
  5
222
330
1F
100
AcDbEntity
  8
SLD-0
  6
Continuous
 62
   179
100
AcDbLine
 10
72.8709464309
 20
138.6287389026
 30
0.0
 11
73.0709464309
 21
138.4287389026
 31
0.0
  0
LINE
  5
223
330
1F
100
AcDbEntity
  8
SLD-0
  6
Continuous
 62
   179
100
AcDbLine
 10
76.4709464309
 20
138.4287389026
 30
0.0
 11
76.6709464309
 21
138.6287389026
 31
0.0
  0
LINE
  5
224
330
1F
100
AcDbEntity
  8
SLD-0
  6
Continuous
 62
   179
100
AcDbLine
 10
57.8709464309
 20
140.4287389026
 30
0.0
 11
57.8709464309
 21
138.6287389026
 31
0.0
  0
LINE
  5
225
330
1F
100
AcDbEntity
  8
SLD-0
  6
Continuous
 62
   179
100
AcDbLine
 10
61.6709464309
 20
138.6287389026
 30
0.0
 11
61.6709459898
 21
140.4287387983
 31
0.0
  0
LINE
  5
226
330
1F
100
AcDbEntity
  8
SLD-0
  6
Continuous
 62
   179
100
AcDbLine
 10
57.8709464309
 20
138.6287389026
 30
0.0
 11
58.0709464309
 21
138.4287389026
 31
0.0
  0
LINE
  5
227
330
1F
100
AcDbEntity
  8
SLD-0
  6
Continuous
 62
   179
100
AcDbLine
 10
61.4709464309
 20
138.4287389026
 30
0.0
 11
61.6709464309
 21
138.6287389026
 31
0.0
  0
LINE
  5
228
330
1F
100
AcDbEntity
  8
SLD-0
  6
Continuous
 62
   179
100
AcDbLine
 10
54.070946793
 20
145.1287387305
 30
0.0
 11
44.0709464309
 21
145.1287389026
 31
0.0
  0
LINE
  5
229
330
1F
100
AcDbEntity
  8
SLD-0
  6
Continuous
 62
   179
100
AcDbLine
 10
44.0709464309
 20
142.7287389026
 30
0.0
 11
54.070946793
 21
142.7287386165
 31
0.0
  0
LINE
  5
22A
330
1F
100
AcDbEntity
  8
SLD-0
  6
Continuous
 62
   179
100
AcDbLine
 10
36.7709464309
 20
152.4287389026
 30
0.0
 11
36.7709464309
 21
147.4287389026
 31
0.0
  0
LINE
  5
22B
330
1F
100
AcDbEntity
  8
SLD-0
  6
Continuous
 62
   179
100
AcDbLine
 10
75.9077144207
 20
138.6287389026
 30
0.0
 11
76.6709464309
 21
138.6287389026
 31
0.0
  0
LINE
  5
22C
330
1F
100
AcDbEntity
  8
SLD-0
  6
Continuous
 62
   179
100
AcDbLine
 10
72.8709464309
 20
138.6287389026
 30
0.0
 11
75.9077144207
 21
138.6287389026
 31
0.0
  0
LINE
  5
22D
330
1F
100
AcDbEntity
  8
SLD-0
  6
Continuous
 62
   179
100
AcDbLine
 10
75.7880546323
 20
138.4287389026
 30
0.0
 11
73.0709464309
 21
138.4287389026
 31
0.0
  0
LINE
  5
22E
330
1F
100
AcDbEntity
  8
SLD-0
  6
Continuous
 62
   179
100
AcDbLine
 10
76.4709464309
 20
138.4287389026
 30
0.0
 11
75.7880546323
 21
138.4287389026
 31
0.0
  0
LINE
  5
22F
330
1F
100
AcDbEntity
  8
SLD-0
  6
Continuous
 62
   179
100
AcDbLine
 10
57.9709464309
 20
140.4287389026
 30
0.0
 11
57.8709464309
 21
140.4287389026
 31
0.0
  0
LINE
  5
230
330
1F
100
AcDbEntity
  8
SLD-0
  6
Continuous
 62
   179
100
AcDbLine
 10
60.9077144207
 20
138.6287389026
 30
0.0
 11
61.6709464309
 21
138.6287389026
 31
0.0
  0
LINE
  5
231
330
1F
100
AcDbEntity
  8
SLD-0
  6
Continuous
 62
   179
100
AcDbLine
 10
57.8709464309
 20
138.6287389026
 30
0.0
 11
60.9077144207
 21
138.6287389026
 31
0.0
  0
LINE
  5
232
330
1F
100
AcDbEntity
  8
SLD-0
  6
Continuous
 62
   179
100
AcDbLine
 10
60.7880546323
 20
138.4287389026
 30
0.0
 11
58.0709464309
 21
138.4287389026
 31
0.0
  0
LINE
  5
233
330
1F
100
AcDbEntity
  8
SLD-0
  6
Continuous
 62
   179
100
AcDbLine
 10
61.4709464309
 20
138.4287389026
 30
0.0
 11
60.7880546323
 21
138.4287389026
 31
0.0
  0
LINE
  5
234
330
1F
100
AcDbEntity
  8
SLD-0
  6
Continuous
 62
   179
100
AcDbLine
 10
75.3709469315
 20
140.4287387983
 30
0.0
 11
76.0709464309
 21
140.4287389026
 31
0.0
  0
LINE
  5
235
330
1F
100
AcDbEntity
  8
SLD-0
  6
Continuous
 62
   179
100
AcDbLine
 10
76.0709464309
 20
140.4287389026
 30
0.0
 11
76.0709464309
 21
147.4287389026
 31
0.0
  0
LINE
  5
236
330
1F
100
AcDbEntity
  8
SLD-0
  6
Continuous
 62
   179
100
AcDbLine
 10
76.0709464309
 20
147.4287389026
 30
0.0
 11
75.3709469315
 21
147.4287390143
 31
0.0
  0
LINE
  5
237
330
1F
100
AcDbEntity
  8
SLD-0
  6
Continuous
 62
   179
100
AcDbLine
 10
75.3709469315
 20
140.4287387983
 30
0.0
 11
75.3709469315
 21
147.4287390143
 31
0.0
  0
LINE
  5
238
330
1F
100
AcDbEntity
  8
SLD-0
  6
Continuous
 62
   179
100
AcDbLine
 10
62.5709463236
 20
140.4287387983
 30
0.0
 11
62.5709463236
 21
147.4287390143
 31
0.0
  0
LINE
  5
239
330
1F
100
AcDbEntity
  8
SLD-0
  6
Continuous
 62
   179
100
AcDbLine
 10
60.770945656
 20
140.4287387983
 30
0.0
 11
62.5709463236
 21
140.4287387983
 31
0.0
  0
LINE
  5
23A
330
1F
100
AcDbEntity
  8
SLD-0
  6
Continuous
 62
   179
100
AcDbLine
 10
60.770945656
 20
147.4287390143
 30
0.0
 11
60.770945656
 21
140.4287387983
 31
0.0
  0
LINE
  5
23B
330
1F
100
AcDbEntity
  8
SLD-0
  6
Continuous
 62
   179
100
AcDbLine
 10
62.5709463236
 20
147.4287390143
 30
0.0
 11
60.770945656
 21
147.4287390143
 31
0.0
  0
LINE
  5
23C
330
1F
100
AcDbEntity
  8
SLD-0
  6
Continuous
 62
   179
100
AcDbLine
 10
70.7709464309
 20
141.8287389026
 30
0.0
 11
65.7709464309
 21
141.8287389026
 31
0.0
  0
LINE
  5
23D
330
1F
100
AcDbEntity
  8
SLD-0
  6
Continuous
 62
   179
100
AcDbLine
 10
65.7709464309
 20
146.0287389026
 30
0.0
 11
70.7709464309
 21
146.0287389026
 31
0.0
  0
LINE
  5
23E
330
1F
100
AcDbEntity
  8
SLD-0
  6
Continuous
 62
   179
100
AcDbLine
 10
62.7709459838
 20
140.4287387983
 30
0.0
 11
73.7709459242
 21
140.4287387983
 31
0.0
  0
LINE
  5
23F
330
1F
100
AcDbEntity
  8
SLD-0
  6
Continuous
 62
   179
100
AcDbLine
 10
62.7709459838
 20
147.4287390143
 30
0.0
 11
62.7709459838
 21
140.4287387983
 31
0.0
  0
LINE
  5
240
330
1F
100
AcDbEntity
  8
SLD-0
  6
Continuous
 62
   179
100
AcDbLine
 10
73.7709459242
 20
147.4287390143
 30
0.0
 11
62.7709459838
 21
147.4287390143
 31
0.0
  0
LINE
  5
241
330
1F
100
AcDbEntity
  8
SLD-0
  6
Continuous
 62
   179
100
AcDbLine
 10
73.7709459242
 20
140.4287387983
 30
0.0
 11
73.7709459242
 21
147.4287390143
 31
0.0
  0
LINE
  5
242
330
1F
100
AcDbEntity
  8
SLD-0
  6
Continuous
 62
   179
100
AcDbLine
 10
78.5709464309
 20
147.4287389026
 30
0.0
 11
78.5709464309
 21
140.4287389026
 31
0.0
  0
LINE
  5
243
330
1F
100
AcDbEntity
  8
SLD-0
  6
Continuous
 62
   179
100
AcDbLine
 10
76.0709464309
 20
140.4287389026
 30
0.0
 11
78.5709464309
 21
140.4287389026
 31
0.0
  0
LINE
  5
244
330
1F
100
AcDbEntity
  8
SLD-0
  6
Continuous
 62
   179
100
AcDbLine
 10
76.0709464309
 20
147.4287389026
 30
0.0
 11
78.5709464309
 21
147.4287389026
 31
0.0
  0
LINE
  5
245
330
1F
100
AcDbEntity
  8
SLD-0
  6
Continuous
 62
   179
100
AcDbLine
 10
73.9709455845
 20
147.4287390143
 30
0.0
 11
73.9709455845
 21
140.4287387983
 31
0.0
  0
LINE
  5
246
330
1F
100
AcDbEntity
  8
SLD-0
  6
Continuous
 62
   179
100
AcDbLine
 10
75.1709472713
 20
140.4287387983
 30
0.0
 11
75.1709472713
 21
147.4287390143
 31
0.0
  0
LINE
  5
247
330
1F
100
AcDbEntity
  8
SLD-0
  6
Continuous
 62
   179
100
AcDbLine
 10
73.9709455845
 20
140.4287387983
 30
0.0
 11
75.1709472713
 21
140.4287387983
 31
0.0
  0
LINE
  5
248
330
1F
100
AcDbEntity
  8
SLD-0
  6
Continuous
 62
   179
100
AcDbLine
 10
73.9709455845
 20
147.4287390143
 30
0.0
 11
75.1709472713
 21
147.4287390143
 31
0.0
  0
LINE
  5
249
330
1F
100
AcDbEntity
  8
SLD-0
  6
Continuous
 62
   179
100
AcDbLine
 10
75.3709469315
 20
147.2287388884
 30
0.0
 11
75.1709472713
 21
147.2287388884
 31
0.0
  0
LINE
  5
24A
330
1F
100
AcDbEntity
  8
SLD-0
  6
Continuous
 62
   179
100
AcDbLine
 10
75.3709469315
 20
140.6287384585
 30
0.0
 11
75.1709472713
 21
140.6287384585
 31
0.0
  0
LINE
  5
24B
330
1F
100
AcDbEntity
  8
SLD-0
  6
Continuous
 62
   179
100
AcDbLine
 10
73.9709455845
 20
147.2287388884
 30
0.0
 11
73.7709459242
 21
147.2287388884
 31
0.0
  0
LINE
  5
24C
330
1F
100
AcDbEntity
  8
SLD-0
  6
Continuous
 62
   179
100
AcDbLine
 10
73.7709459242
 20
140.6287384585
 30
0.0
 11
73.9709455845
 21
140.6287384585
 31
0.0
  0
LINE
  5
24D
330
1F
100
AcDbEntity
  8
SLD-0
  6
Continuous
 62
   179
100
AcDbLine
 10
62.5709463236
 20
140.6287384585
 30
0.0
 11
62.7709459838
 21
140.6287384585
 31
0.0
  0
LINE
  5
24E
330
1F
100
AcDbEntity
  8
SLD-0
  6
Continuous
 62
   179
100
AcDbLine
 10
62.7709459838
 20
147.2287388884
 30
0.0
 11
62.5709463236
 21
147.2287388884
 31
0.0
  0
LINE
  5
24F
330
1F
100
AcDbEntity
  8
SLD-0
  6
Continuous
 62
   179
100
AcDbLine
 10
57.9709466872
 20
147.4287390143
 30
0.0
 11
57.9709464309
 21
140.4287389026
 31
0.0
  0
LINE
  5
250
330
1F
100
AcDbEntity
  8
SLD-0
  6
Continuous
 62
   179
100
AcDbLine
 10
57.9709464309
 20
140.4287389026
 30
0.0
 11
60.770945656
 21
140.4287387983
 31
0.0
  0
LINE
  5
251
330
1F
100
AcDbEntity
  8
SLD-0
  6
Continuous
 62
   179
100
AcDbLine
 10
60.770945656
 20
147.4287390143
 30
0.0
 11
57.9709466872
 21
147.4287390143
 31
0.0
  0
LINE
  5
252
330
1F
100
AcDbEntity
  8
SLD-0
  6
Continuous
 62
   179
100
AcDbLine
 10
62.5709463236
 20
147.4287390143
 30
0.0
 11
62.7709459838
 21
147.4287390143
 31
0.0
  0
LINE
  5
253
330
1F
100
AcDbEntity
  8
SLD-0
  6
Continuous
 62
   179
100
AcDbLine
 10
73.7709459242
 20
147.4287390143
 30
0.0
 11
73.9709455845
 21
147.4287390143
 31
0.0
  0
LINE
  5
254
330
1F
100
AcDbEntity
  8
SLD-0
  6
Continuous
 62
   179
100
AcDbLine
 10
62.5709463236
 20
140.4287387983
 30
0.0
 11
62.7709459838
 21
140.4287387983
 31
0.0
  0
LINE
  5
255
330
1F
100
AcDbEntity
  8
SLD-0
  6
Continuous
 62
   179
100
AcDbLine
 10
73.7709459242
 20
140.4287387983
 30
0.0
 11
73.9709455845
 21
140.4287387983
 31
0.0
  0
LINE
  5
256
330
1F
100
AcDbEntity
  8
SLD-0
  6
Continuous
 62
   179
100
AcDbLine
 10
75.1709472713
 20
147.4287390143
 30
0.0
 11
75.2381030795
 21
147.4287390143
 31
0.0
  0
LINE
  5
257
330
1F
100
AcDbEntity
  8
SLD-0
  6
Continuous
 62
   179
100
AcDbLine
 10
75.1709472713
 20
140.4287387983
 30
0.0
 11
75.3709469315
 21
140.4287387983
 31
0.0
  0
LINE
  5
258
330
1F
100
AcDbEntity
  8
SLD-0
  6
Continuous
 62
   179
100
AcDbLine
 10
56.9709465232
 20
140.6287384585
 30
0.0
 11
57.9709466872
 21
140.6287384585
 31
0.0
  0
LINE
  5
259
330
1F
100
AcDbEntity
  8
SLD-0
  6
Continuous
 62
   179
100
AcDbLine
 10
56.9709465232
 20
140.6287384585
 30
0.0
 11
56.9709465232
 21
147.2287388884
 31
0.0
  0
LINE
  5
25A
330
1F
100
AcDbEntity
  8
SLD-0
  6
Continuous
 62
   179
100
AcDbLine
 10
56.9709465232
 20
147.2287388884
 30
0.0
 11
57.9709466872
 21
147.2287388884
 31
0.0
  0
LINE
  5
25B
330
1F
100
AcDbEntity
  8
SLD-0
  6
Continuous
 62
   179
100
AcDbLine
 10
56.9709465232
 20
140.8287390501
 30
0.0
 11
55.0709460255
 21
141.6287386224
 31
0.0
  0
LINE
  5
25C
330
1F
100
AcDbEntity
  8
SLD-0
  6
Continuous
 62
   179
100
AcDbLine
 10
54.070946793
 20
141.6287386224
 30
0.0
 11
55.0709460255
 21
141.6287386224
 31
0.0
  0
LINE
  5
25D
330
1F
100
AcDbEntity
  8
SLD-0
  6
Continuous
 62
   179
100
AcDbLine
 10
54.070946793
 20
141.6287386224
 30
0.0
 11
54.070946793
 21
146.2287387245
 31
0.0
  0
LINE
  5
25E
330
1F
100
AcDbEntity
  8
SLD-0
  6
Continuous
 62
   179
100
AcDbLine
 10
54.070946793
 20
146.2287387245
 30
0.0
 11
55.0709460255
 21
146.2287387245
 31
0.0
  0
LINE
  5
25F
330
1F
100
AcDbEntity
  8
SLD-0
  6
Continuous
 62
   179
100
AcDbLine
 10
56.9709465232
 20
147.0287387625
 30
0.0
 11
55.0709460255
 21
146.2287387245
 31
0.0
  0
LINE
  5
260
330
1F
100
AcDbEntity
  8
SLD-0
  6
Continuous
 62
   179
100
AcDbLine
 10
44.0709464309
 20
143.9287389026
 30
0.0
 11
44.0709464309
 21
142.7287389026
 31
0.0
  0
LINE
  5
261
330
1F
100
AcDbEntity
  8
SLD-0
  6
Continuous
 62
   179
100
AcDbLine
 10
44.0709464309
 20
145.1287389026
 30
0.0
 11
44.0709464309
 21
143.9287389026
 31
0.0
  0
LINE
  5
262
330
1F
100
AcDbEntity
  8
SLD-0
  6
Continuous
 62
   179
100
AcDbLine
 10
82.7709455368
 20
147.4287390143
 30
0.0
 11
82.7709455368
 21
152.4287389026
 31
0.0
  0
LINE
  5
263
330
1F
100
AcDbEntity
  8
SLD-0
  6
Continuous
 62
   179
100
AcDbLine
 10
82.7709455368
 20
147.4287390143
 30
0.0
 11
78.5709464309
 21
147.4287389026
 31
0.0
  0
LINE
  5
264
330
1F
100
AcDbEntity
  8
SLD-0
  6
Continuous
 62
   179
100
AcDbLine
 10
75.3709469315
 20
147.4287390143
 30
0.0
 11
75.2381030795
 21
147.4287390143
 31
0.0
  0
LINE
  5
265
330
1F
100
AcDbEntity
  8
SLD-0
  6
Continuous
 62
   179
100
AcDbLine
 10
57.9709466872
 20
147.4287390143
 30
0.0
 11
51.7709460434
 21
147.4287390143
 31
0.0
  0
LINE
  5
266
330
1F
100
AcDbEntity
  8
SLD-0
  6
Continuous
 62
   179
100
AcDbLine
 10
51.7709460434
 20
147.4287390143
 30
0.0
 11
51.7709460434
 21
152.4287389026
 31
0.0
  0
LINE
  5
267
330
1F
100
AcDbEntity
  8
SLD-0
  6
Continuous
 62
   179
100
AcDbLine
 10
82.7709455368
 20
152.4287389026
 30
0.0
 11
51.7709460434
 21
152.4287389026
 31
0.0
  0
LINE
  5
268
330
1F
100
AcDbEntity
  8
SLD-0
  6
Continuous
 62
   179
100
AcDbLine
 10
42.7709464309
 20
147.4287389026
 30
0.0
 11
42.7709464309
 21
152.4287389026
 31
0.0
  0
LINE
  5
269
330
1F
100
AcDbEntity
  8
SLD-0
  6
Continuous
 62
   179
100
AcDbLine
 10
51.7709460434
 20
147.4287390143
 30
0.0
 11
42.7709464309
 21
147.4287389026
 31
0.0
  0
LINE
  5
26A
330
1F
100
AcDbEntity
  8
SLD-0
  6
Continuous
 62
   179
100
AcDbLine
 10
51.7709460434
 20
152.4287389026
 30
0.0
 11
42.7709464309
 21
152.4287389026
 31
0.0
  0
LINE
  5
26B
330
1F
100
AcDbEntity
  8
SLD-0
  6
Continuous
 62
   179
100
AcDbLine
 10
42.7709464309
 20
147.4287389026
 30
0.0
 11
36.7709464309
 21
147.4287389026
 31
0.0
  0
LINE
  5
26C
330
1F
100
AcDbEntity
  8
SLD-0
  6
Continuous
 62
   179
100
AcDbLine
 10
42.7709464309
 20
152.4287389026
 30
0.0
 11
36.7709464309
 21
152.4287389026
 31
0.0
  0
LINE
  5
26D
330
1F
100
AcDbEntity
  8
SLD-0
  6
CENTERX2
 62
   179
100
AcDbLine
 10
74.7709464309
 20
136.6287389026
 30
0.0
 11
74.7709464309
 21
140.4287389026
 31
0.0
  0
LINE
  5
26E
330
1F
100
AcDbEntity
  8
SLD-0
  6
CENTERX2
 62
   179
100
AcDbLine
 10
74.7709464309
 20
154.4287389026
 30
0.0
 11
74.7709464309
 21
140.4287389026
 31
0.0
  0
LINE
  5
26F
330
1F
100
AcDbEntity
  8
SLD-0
  6
CENTERX2
 62
   179
100
AcDbLine
 10
59.7709464309
 20
136.6287389026
 30
0.0
 11
59.7709464309
 21
140.4287389026
 31
0.0
  0
LINE
  5
270
330
1F
100
AcDbEntity
  8
SLD-0
  6
CENTERX2
 62
   179
100
AcDbLine
 10
59.7709464309
 20
154.4287389026
 30
0.0
 11
59.7709464309
 21
140.4287389026
 31
0.0
  0
LINE
  5
271
330
1F
100
AcDbEntity
  8
SLD-0
  6
CENTERX2
 62
   179
100
AcDbLine
 10
42.0709464309
 20
143.9287389026
 30
0.0
 11
56.0709464309
 21
143.9287389026
 31
0.0
  0
LINE
  5
272
330
1F
100
AcDbEntity
  8
SLD-0
  6
CENTERX2
 62
   179
100
AcDbLine
 10
42.7709464309
 20
145.4287389026
 30
0.0
 11
42.7709464309
 21
154.4287389026
 31
0.0
  0
LINE
  5
273
330
1F
100
AcDbEntity
  8
SLD-0
  6
CENTERX2
 62
   179
100
AcDbLine
 10
54.5709464309
 20
154.4287389026
 30
0.0
 11
54.5709464309
 21
145.4287389026
 31
0.0
  0
LINE
  5
274
330
1F
100
AcDbEntity
  8
SLD-0
  6
CENTERX2
 62
   179
100
AcDbLine
 10
79.9709464309
 20
154.4287389026
 30
0.0
 11
79.9709464309
 21
145.4287389026
 31
0.0
  0
CIRCLE
  5
275
330
1F
100
AcDbEntity
  8
SLD-0
  6
Continuous
 62
   179
100
AcDbCircle
 10
62.8451154284
 20
205.3645158198
 30
0.0
 40
2.750000000000007
  0
ARC
  5
276
330
1F
100
AcDbEntity
  8
SLD-0
  6
Continuous
 62
   179
100
AcDbCircle
 10
62.8451154284
 20
205.3645158198
 30
0.0
 40
6.0
100
AcDbArc
 50
90.0
 51
270.0
  0
CIRCLE
  5
277
330
1F
100
AcDbEntity
  8
SLD-0
  6
Continuous
 62
   179
100
AcDbCircle
 10
74.6451154284
 20
213.6145158198
 30
0.0
 40
1.25
  0
CIRCLE
  5
278
330
1F
100
AcDbEntity
  8
SLD-0
  6
Continuous
 62
   179
100
AcDbCircle
 10
100.0451154284
 20
213.6145158198
 30
0.0
 40
1.25
  0
CIRCLE
  5
279
330
1F
100
AcDbEntity
  8
SLD-0
  6
Continuous
 62
   179
100
AcDbCircle
 10
94.8451154284
 20
210.3145158198
 30
0.0
 40
0.7999999999999972
  0
CIRCLE
  5
27A
330
1F
100
AcDbEntity
  8
SLD-0
  6
Continuous
 62
   179
100
AcDbCircle
 10
79.8451154284
 20
210.3145158198
 30
0.0
 40
0.7999999999999972
  0
CIRCLE
  5
27B
330
1F
100
AcDbEntity
  8
SLD-0
 62
   179
100
AcDbCircle
 10
74.6451154284
 20
213.6145158198
 30
0.0
 40
1.5
  0
CIRCLE
  5
27C
330
1F
100
AcDbEntity
  8
SLD-0
 62
   179
100
AcDbCircle
 10
100.0451154284
 20
213.6145158198
 30
0.0
 40
1.5
  0
CIRCLE
  5
27D
330
1F
100
AcDbEntity
  8
SLD-0
 62
   179
100
AcDbCircle
 10
94.8451154284
 20
210.3145158198
 30
0.0
 40
1.0
  0
CIRCLE
  5
27E
330
1F
100
AcDbEntity
  8
SLD-0
 62
   179
100
AcDbCircle
 10
79.8451154284
 20
210.3145158198
 30
0.0
 40
1.0
  0
CIRCLE
  5
27F
330
1F
100
AcDbEntity
  8
SLD-0
  6
Continuous
 62
   179
100
AcDbCircle
 10
159.8451182385
 20
105.9920817393
 30
0.0
 40
2.450000000000017
  0
CIRCLE
  5
280
330
1F
100
AcDbEntity
  8
SLD-0
  6
Continuous
 62
   179
100
AcDbCircle
 10
159.8451182385
 20
105.9920817393
 30
0.0
 40
2.750000000000028
  0
CIRCLE
  5
281
330
1F
100
AcDbEntity
  8
SLD-0
  6
Continuous
 62
   179
100
AcDbCircle
 10
134.4451182385
 20
105.9920817393
 30
0.0
 40
2.450000000000017
  0
CIRCLE
  5
282
330
1F
100
AcDbEntity
  8
SLD-0
  6
Continuous
 62
   179
100
AcDbCircle
 10
134.4451182385
 20
105.9920817393
 30
0.0
 40
2.750000000000028
  0
CIRCLE
  5
283
330
1F
100
AcDbEntity
  8
SLD-0
  6
Continuous
 62
   179
100
AcDbCircle
 10
122.6451182385
 20
97.7420817393
 30
0.0
 40
2.75
  0
ARC
  5
284
330
1F
100
AcDbEntity
  8
SLD-0
  6
Continuous
 62
   179
100
AcDbCircle
 10
122.6451182385
 20
97.7420817393
 30
0.0
 40
6.0
100
AcDbArc
 50
90.0
 51
270.0
  0
CIRCLE
  5
285
330
1F
100
AcDbEntity
  8
SLD-0
  6
HIDDEN
 62
     8
100
AcDbCircle
 10
154.6451182385
 20
102.6920817393
 30
0.0
 40
0.799999999999983
  0
CIRCLE
  5
286
330
1F
100
AcDbEntity
  8
SLD-0
  6
HIDDEN
 62
     8
100
AcDbCircle
 10
134.4451182385
 20
105.9920817393
 30
0.0
 40
1.250000000000028
  0
CIRCLE
  5
287
330
1F
100
AcDbEntity
  8
SLD-0
  6
HIDDEN
 62
     8
100
AcDbCircle
 10
159.8451182385
 20
105.9920817393
 30
0.0
 40
1.250000000000028
  0
CIRCLE
  5
288
330
1F
100
AcDbEntity
  8
SLD-0
  6
HIDDEN
 62
     8
100
AcDbCircle
 10
139.6451182385
 20
102.6920817393
 30
0.0
 40
0.8000000000000114
  0
CIRCLE
  5
289
330
1F
100
AcDbEntity
  8
SLD-0
  6
HIDDEN
 62
     8
100
AcDbCircle
 10
122.6451182385
 20
97.7420817393
 30
0.0
 40
2.75
  0
ARC
  5
28A
330
1F
100
AcDbEntity
  8
SLD-0
  6
HIDDEN
 62
     8
100
AcDbCircle
 10
122.6451182385
 20
97.7420817393
 30
0.0
 40
6.0
100
AcDbArc
 50
90.0
 51
270.0
  0
CIRCLE
  5
28B
330
1F
100
AcDbEntity
  8
SLD-0
  6
HIDDEN
 62
     8
100
AcDbCircle
 10
154.6451182385
 20
102.6920817393
 30
0.0
 40
0.799999999999983
  0
CIRCLE
  5
28C
330
1F
100
AcDbEntity
  8
SLD-0
  6
HIDDEN
 62
     8
100
AcDbCircle
 10
134.4451182385
 20
105.9920817393
 30
0.0
 40
1.250000000000028
  0
CIRCLE
  5
28D
330
1F
100
AcDbEntity
  8
SLD-0
  6
HIDDEN
 62
     8
100
AcDbCircle
 10
159.8451182385
 20
105.9920817393
 30
0.0
 40
1.250000000000028
  0
CIRCLE
  5
28E
330
1F
100
AcDbEntity
  8
SLD-0
  6
HIDDEN
 62
     8
100
AcDbCircle
 10
139.6451182385
 20
102.6920817393
 30
0.0
 40
0.8000000000000114
  0
CIRCLE
  5
28F
330
1F
100
AcDbEntity
  8
SLD-0
  6
Continuous
 62
   179
100
AcDbCircle
 10
74.7709464309
 20
102.6920817393
 30
0.0
 40
1.700000000000003
  0
CIRCLE
  5
290
330
1F
100
AcDbEntity
  8
SLD-0
  6
Continuous
 62
   179
100
AcDbCircle
 10
74.7709464309
 20
102.6920817393
 30
0.0
 40
1.900000000000006
  0
CIRCLE
  5
291
330
1F
100
AcDbEntity
  8
SLD-0
  6
Continuous
 62
   179
100
AcDbCircle
 10
59.7709464309
 20
102.6920817393
 30
0.0
 40
1.899999999999999
  0
CIRCLE
  5
292
330
1F
100
AcDbEntity
  8
SLD-0
  6
Continuous
 62
   179
100
AcDbCircle
 10
59.7709464309
 20
102.6920817393
 30
0.0
 40
1.699999999999996
  0
ARC
  5
293
330
1F
100
AcDbEntity
  8
SLD-0
  6
Continuous
 62
   179
100
AcDbCircle
 10
78.4003843944
 20
101.5663908098
 30
0.0
 40
2.000000000001859
100
AcDbArc
 50
126.9999999998
 51
150.100612031
  0
ARC
  5
294
330
1F
100
AcDbEntity
  8
SLD-0
  6
Continuous
 62
   179
100
AcDbCircle
 10
76.0709464309
 20
109.3920817393
 30
0.0
 40
2.5
100
AcDbArc
 50
0.0
 51
90.0
  0
ARC
  5
295
330
1F
100
AcDbEntity
  8
SLD-0
  6
Continuous
 62
   179
100
AcDbCircle
 10
71.9091288266
 20
100.1920817393
 30
0.0
 40
2.000000000000002
100
AcDbArc
 50
53.8073229135
 51
90.0
  0
ARC
  5
296
330
1F
100
AcDbEntity
  8
SLD-0
  6
Continuous
 62
   179
100
AcDbCircle
 10
62.6327640351
 20
100.1920817393
 30
0.0
 40
2.0
100
AcDbArc
 50
90.0
 51
126.1926770865
  0
CIRCLE
  5
297
330
1F
100
AcDbEntity
  8
SLD-0
  6
Continuous
 62
   179
100
AcDbCircle
 10
42.7709464309
 20
97.7420817393
 30
0.0
 40
2.750000000000007
  0
ARC
  5
298
330
1F
100
AcDbEntity
  8
SLD-0
  6
Continuous
 62
   179
100
AcDbCircle
 10
42.7709464309
 20
97.7420817393
 30
0.0
 40
6.0
100
AcDbArc
 50
90.0
 51
270.0
  0
ARC
  5
299
330
1F
100
AcDbEntity
  8
SLD-0
  6
Continuous
 62
   179
100
AcDbCircle
 10
54.5709464309
 20
105.9920817393
 30
0.0
 40
1.250000000000011
100
AcDbArc
 50
113.5781784782
 51
140.2081805004
  0
CIRCLE
  5
29A
330
1F
100
AcDbEntity
  8
SLD-0
  6
Continuous
 62
   179
100
AcDbCircle
 10
79.9709464309
 20
105.9920817393
 30
0.0
 40
1.25
  0
ARC
  5
29B
330
1F
100
AcDbEntity
  8
SLD-0
  6
HIDDEN
 62
     8
100
AcDbCircle
 10
54.5709464309
 20
105.9920817393
 30
0.0
 40
1.250000000000001
100
AcDbArc
 50
0.0
 51
113.5781784782
  0
ARC
  5
29C
330
1F
100
AcDbEntity
  8
SLD-0
  6
HIDDEN
 62
     8
100
AcDbCircle
 10
54.5709464309
 20
105.9920817393
 30
0.0
 40
1.250000000000011
100
AcDbArc
 50
140.2081805004
 51
0.0
  0
CIRCLE
  5
29D
330
1F
100
AcDbEntity
  8
SLD-0
  6
HIDDEN
 62
     8
100
AcDbCircle
 10
74.7709464309
 20
102.6920817393
 30
0.0
 40
0.7999999999999972
  0
CIRCLE
  5
29E
330
1F
100
AcDbEntity
  8
SLD-0
  6
HIDDEN
 62
     8
100
AcDbCircle
 10
59.7709464309
 20
102.6920817393
 30
0.0
 40
0.7999999999999972
  0
ARC
  5
29F
330
1F
100
AcDbEntity
  8
SLD-0
  6
HIDDEN
 62
     8
100
AcDbCircle
 10
42.7709464309
 20
97.7420817393
 30
0.0
 40
6.0
100
AcDbArc
 50
90.0
 51
270.0
  0
CIRCLE
  5
2A0
330
1F
100
AcDbEntity
  8
SLD-0
  6
HIDDEN
 62
     8
100
AcDbCircle
 10
42.7709464309
 20
97.7420817393
 30
0.0
 40
2.750000000000007
  0
CIRCLE
  5
2A1
330
1F
100
AcDbEntity
  8
SLD-0
  6
HIDDEN
 62
     8
100
AcDbCircle
 10
59.7709464309
 20
102.6920817393
 30
0.0
 40
0.7999999999999972
  0
CIRCLE
  5
2A2
330
1F
100
AcDbEntity
  8
SLD-0
  6
HIDDEN
 62
     8
100
AcDbCircle
 10
74.7709464309
 20
102.6920817393
 30
0.0
 40
0.7999999999999972
  0
CIRCLE
  5
2A3
330
1F
100
AcDbEntity
  8
SLD-0
  6
HIDDEN
 62
     8
100
AcDbCircle
 10
79.9709464309
 20
105.9920817393
 30
0.0
 40
1.25
  0
CIRCLE
  5
2A4
330
1F
100
AcDbEntity
  8
SLD-0
  6
HIDDEN
 62
     8
100
AcDbCircle
 10
54.5709464309
 20
105.9920817393
 30
0.0
 40
1.25
  0
ARC
  5
2A5
330
1F
100
AcDbEntity
  8
SLD-0
  6
Continuous
 62
   179
100
AcDbCircle
 10
70.7709464309
 20
143.9287389026
 30
0.0
 40
2.100000000000023
100
AcDbArc
 50
270.0
 51
90.0
  0
ARC
  5
2A6
330
1F
100
AcDbEntity
  8
SLD-0
  6
Continuous
 62
   179
100
AcDbCircle
 10
65.7709464309
 20
143.9287389026
 30
0.0
 40
2.100000000000023
100
AcDbArc
 50
90.0
 51
270.0
  0
DIMENSION
  5
2A7
330
1F
100
AcDbEntity
  8
SLD-0
 62
     7
100
AcDbDimension
  2
*D17
 10
62.8451154284
 20
177.432408562
 30
0.0
 11
82.8451154284
 21
177.432408562
 31
0.0
 70
   160
 71
     1
 42
40.0
  3
SLDDIMSTYLE0
100
AcDbAlignedDimension
 13
102.8451154284
 23
199.3645158198
 33
0.0
 14
62.8451154284
 24
205.3645158198
 34
0.0
100
AcDbRotatedDimension
1001
ACAD
1000
DSTYLE
1002
{
1070
    77
1070
     3
1070
   143
1040
0.0393700787
1070
    41
1040
3.0
1070
    44
1040
1.0
1070
    42
1040
1.0
1070
   147
1040
1.524
1070
    73
1070
     0
1070
    74
1070
     0
1070
   140
1040
3.5
1070
   284
1070
    12
1070
    78
1070
    12
1002
}
  0
DIMENSION
  5
2C3
330
1F
100
AcDbEntity
  8
SLD-0
 62
     7
100
AcDbDimension
  2
*D19
 10
71.8451154284
 20
246.6571376837
 30
0.0
 11
87.3451154284
 21
246.6571376837
 31
0.0
 70
   160
 71
     1
 42
31.0
  3
SLDDIMSTYLE0
100
AcDbAlignedDimension
 13
102.8451154284
 23
216.3645158198
 33
0.0
 14
71.8451154284
 24
216.3645158198
 34
0.0
100
AcDbRotatedDimension
1001
ACAD
1000
DSTYLE
1002
{
1070
    77
1070
     3
1070
   143
1040
0.0393700787
1070
    41
1040
3.0
1070
    44
1040
1.0
1070
    42
1040
1.0
1070
   147
1040
1.524
1070
    73
1070
     0
1070
    74
1070
     0
1070
   140
1040
3.5
1070
   284
1070
    12
1070
    78
1070
    12
1002
}
  0
DIMENSION
  5
2DA
330
1F
100
AcDbEntity
  8
SLD-0
 62
     7
100
AcDbDimension
  2
*D20
 10
128.7382804609
 20
216.3645158198
 30
0.0
 11
128.7382804609
 21
207.8645158198
 31
0.0
 70
   160
 71
     1
 42
17.0
  3
SLDDIMSTYLE0
100
AcDbAlignedDimension
 13
102.8451154284
 23
199.3645158198
 33
0.0
 14
102.8451154284
 24
216.3645158198
 34
0.0
 50
90.0
100
AcDbRotatedDimension
1001
ACAD
1000
DSTYLE
1002
{
1070
    77
1070
     3
1070
   143
1040
0.0393700787
1070
    41
1040
3.0
1070
    44
1040
1.0
1070
    42
1040
1.0
1070
   147
1040
1.524
1070
    73
1070
     0
1070
    74
1070
     0
1070
   140
1040
3.5
1070
   284
1070
    12
1070
    78
1070
    12
1002
}
  0
DIMENSION
  5
2F2
330
1F
100
AcDbEntity
  8
SLD-0
 62
     7
100
AcDbDimension
  2
*D21
 10
1.6094231784
 20
5.2592537944
 30
0.0
 11
47.8212544836
 21
-5.7373683977
 31
0.0
 70
   163
  1
<>
 71
     1
 42
5.4999994038
  3
SLDDIMSTYLE1
100
AcDbDiametricDimension
 15
0.0
 25
0.0
 35
0.0
 40
0.0
1001
ACAD
1000
DSTYLE
1002
{
1070
    77
1070
     0
1070
   143
1040
0.0393700787
1070
    41
1040
3.0
1070
    44
1040
1.0
1070
    42
1040
1.0
1070
   147
1040
1.524
1070
    73
1070
     1
1070
    74
1070
     1
1070
   140
1040
3.5
1070
   284
1070
    12
1070
    78
1070
    12
1002
}
  0
DIMENSION
  5
304
330
1F
100
AcDbEntity
  8
SLD-0
 62
     7
100
AcDbDimension
  2
*D22
 10
100.0451154284
 20
237.3200999165
 30
0.0
 11
111.42226542
 21
237.3200999165
 31
0.0
 70
   160
 71
     1
 42
2.8
  3
SLDDIMSTYLE2
100
AcDbAlignedDimension
 13
102.8451154284
 23
216.3645158198
 33
0.0
 14
100.0451154284
 24
213.6145158198
 34
0.0
100
AcDbRotatedDimension
1001
ACAD
1000
DSTYLE
1002
{
1070
    77
1070
     3
1070
   143
1040
0.0393700787
1070
    41
1040
3.0
1070
    44
1040
1.0
1070
    42
1040
1.0
1070
   147
1040
1.524
1070
    73
1070
     0
1070
    74
1070
     0
1070
   140
1040
3.5
1070
   284
1070
    12
1070
    78
1070
    12
1002
}
  0
DIMENSION
  5
321
330
1F
100
AcDbEntity
  8
SLD-0
 62
     7
100
AcDbDimension
  2
*D23
 10
74.6451154284
 20
237.3200999165
 30
0.0
 11
87.3451154284
 21
237.3200999165
 31
0.0
 70
   160
 71
     1
 42
25.4
  3
SLDDIMSTYLE2
100
AcDbAlignedDimension
 13
100.0451154284
 23
213.6145158198
 33
0.0
 14
74.6451154284
 24
213.6145158198
 34
0.0
100
AcDbRotatedDimension
1001
ACAD
1000
DSTYLE
1002
{
1070
    77
1070
     3
1070
   143
1040
0.0393700787
1070
    41
1040
3.0
1070
    44
1040
1.0
1070
    42
1040
1.0
1070
   147
1040
1.524
1070
    73
1070
     0
1070
    74
1070
     0
1070
   140
1040
3.5
1070
   284
1070
    12
1070
    78
1070
    12
1002
}
  0
DIMENSION
  5
338
330
1F
100
AcDbEntity
  8
SLD-0
100
AcDbDimension
  2
*D24
 10
39.353234361
 20
199.3645158198
 30
0.0
 11
39.353234361
 21
205.3645158198
 31
0.0
 70
   160
 71
     1
 42
12.0
  3
SLDDIMSTYLE0
100
AcDbAlignedDimension
 13
62.8451154284
 23
211.3645158198
 33
0.0
 14
62.8451154284
 24
199.3645158198
 34
0.0
 50
90.0
100
AcDbRotatedDimension
1001
ACAD
1000
DSTYLE
1002
{
1070
    77
1070
     3
1070
   143
1040
0.0393700787
1070
    41
1040
3.0
1070
    44
1040
1.0
1070
    42
1040
1.0
1070
   147
1040
1.524
1070
    73
1070
     0
1070
    74
1070
     0
1070
   140
1040
3.5
1070
   284
1070
    12
1070
    78
1070
    12
1002
}
  0
DIMENSION
  5
350
330
1F
100
AcDbEntity
  8
SLD-0
100
AcDbDimension
  2
*D25
 10
47.8212544836
 20
199.3645158198
 30
0.0
 11
47.8212544836
 21
202.3645158198
 31
0.0
 70
   160
 71
     1
 42
6.0
  3
SLDDIMSTYLE0
100
AcDbAlignedDimension
 13
57.5951154284
 23
205.3645158198
 33
0.0
 14
62.8451154284
 24
199.3645158198
 34
0.0
 50
90.0
100
AcDbRotatedDimension
1001
ACAD
1000
DSTYLE
1002
{
1070
    77
1070
     3
1070
   143
1040
0.0393700787
1070
    41
1040
3.0
1070
    44
1040
1.0
1070
    42
1040
1.0
1070
   147
1040
1.524
1070
    73
1070
     0
1070
    74
1070
     0
1070
   140
1040
3.5
1070
   284
1070
    12
1070
    78
1070
    12
1002
}
  0
DIMENSION
  5
36A
330
1F
100
AcDbEntity
  8
SLD-0
100
AcDbDimension
  2
*D26
 10
120.7688973302
 20
199.3645158198
 30
0.0
 11
120.7688973302
 21
206.4895158198
 31
0.0
 70
   160
 71
     1
 42
14.25
  3
SLDDIMSTYLE3
100
AcDbAlignedDimension
 13
103.7951154284
 23
213.6145158198
 33
0.0
 14
102.8451154284
 24
199.3645158198
 34
0.0
 50
90.0
100
AcDbRotatedDimension
1001
ACAD
1000
DSTYLE
1002
{
1070
    77
1070
     3
1070
   143
1040
0.0393700787
1070
    41
1040
3.0
1070
    44
1040
1.0
1070
    42
1040
1.0
1070
   147
1040
1.524
1070
    73
1070
     0
1070
    74
1070
     0
1070
   140
1040
3.5
1070
   284
1070
    12
1070
    78
1070
    12
1002
}
  0
DIMENSION
  5
383
330
1F
100
AcDbEntity
  8
SLD-0
 62
     7
100
AcDbDimension
  2
*D27
 10
62.8451154284
 20
205.3645158198
 30
0.0
 11
49.7213659521
 21
215.0164031355
 31
0.0
 70
   164
  1
<>
 71
     1
 42
214.7652040977
  3
SLDDIMSTYLE4
100
AcDbRadialDimension
 15
0.0
 25
0.0
 35
0.0
 40
0.0
1001
ACAD
1000
DSTYLE
1002
{
1070
    77
1070
     0
1070
   143
1040
0.0393700787
1070
    41
1040
3.0
1070
    44
1040
1.0
1070
    42
1040
1.0
1070
   147
1040
1.524
1070
    73
1070
     1
1070
    74
1070
     1
1070
   140
1040
3.5
1070
   284
1070
    12
1070
    78
1070
    12
1002
}
  0
DIMENSION
  5
394
330
1F
100
AcDbEntity
  8
SLD-0
 62
     7
100
AcDbDimension
  2
*D28
 10
1.2723975284
 20
2.7168001237
 30
0.0
 11
125.3244133067
 21
-5.4336007357
 31
0.0
 70
   163
  1
2-M<>(E3Z-B61用)<>
 71
     1
 42
2.9999997304
  3
SLDDIMSTYLE5
100
AcDbDiametricDimension
 15
0.0
 25
0.0
 35
0.0
 40
0.0
1001
ACAD
1000
DSTYLE
1002
{
1070
    77
1070
     0
1070
   143
1040
0.0393700787
1070
    41
1040
3.0
1070
    44
1040
1.0
1070
    42
1040
1.0
1070
   147
1040
1.524
1070
    73
1070
     1
1070
    74
1070
     1
1070
   140
1040
3.5
1070
   284
1070
    12
1070
    78
1070
    12
1002
}
  0
DIMENSION
  5
3A7
330
1F
100
AcDbEntity
  8
SLD-0
 62
     7
100
AcDbDimension
  2
*D29
 10
110.4399436239
 20
199.3645158198
 30
0.0
 11
110.4399436239
 21
204.8395158198
 31
0.0
 70
   160
 71
     1
 42
10.95
  3
SLDDIMSTYLE0
100
AcDbAlignedDimension
 13
98.1451154284
 23
210.3145158198
 33
0.0
 14
102.8451154284
 24
199.3645158198
 34
0.0
 50
90.0
100
AcDbRotatedDimension
1001
ACAD
1000
DSTYLE
1002
{
1070
    77
1070
     3
1070
   143
1040
0.0393700787
1070
    41
1040
3.0
1070
    44
1040
1.0
1070
    42
1040
1.0
1070
   147
1040
1.524
1070
    73
1070
     0
1070
    74
1070
     0
1070
   140
1040
3.5
1070
   284
1070
    12
1070
    78
1070
    12
1002
}
  0
DIMENSION
  5
3BF
330
1F
100
AcDbEntity
  8
SLD-0
 62
     7
100
AcDbDimension
  2
*D30
 10
102.8451154284
 20
185.7866709476
 30
0.0
 11
98.8451154284
 21
185.7866709476
 31
0.0
 70
   160
 71
     1
 42
8.0
  3
SLDDIMSTYLE0
100
AcDbAlignedDimension
 13
94.8451154284
 23
207.0145158198
 33
0.0
 14
102.8451154284
 24
199.3645158198
 34
0.0
100
AcDbRotatedDimension
1001
ACAD
1000
DSTYLE
1002
{
1070
    77
1070
     3
1070
   143
1040
0.0393700787
1070
    41
1040
3.0
1070
    44
1040
1.0
1070
    42
1040
1.0
1070
   147
1040
1.524
1070
    73
1070
     0
1070
    74
1070
     0
1070
   140
1040
3.5
1070
   284
1070
    12
1070
    78
1070
    12
1002
}
  0
DIMENSION
  5
3D9
330
1F
100
AcDbEntity
  8
SLD-0
 62
     7
100
AcDbDimension
  2
*D31
 10
79.8451154284
 20
185.7866709476
 30
0.0
 11
87.3451154284
 21
185.7866709476
 31
0.0
 70
   160
 71
     1
 42
15.0
  3
SLDDIMSTYLE0
100
AcDbAlignedDimension
 13
94.8451154284
 23
207.0145158198
 33
0.0
 14
79.8451154284
 24
207.0145158198
 34
0.0
100
AcDbRotatedDimension
1001
ACAD
1000
DSTYLE
1002
{
1070
    77
1070
     3
1070
   143
1040
0.0393700787
1070
    41
1040
3.0
1070
    44
1040
1.0
1070
    42
1040
1.0
1070
   147
1040
1.524
1070
    73
1070
     0
1070
    74
1070
     0
1070
   140
1040
3.5
1070
   284
1070
    12
1070
    78
1070
    12
1002
}
  0
DIMENSION
  5
3F0
330
1F
100
AcDbEntity
  8
SLD-0
100
AcDbDimension
  2
*D32
 10
184.1785945658
 20
105.9920817393
 30
0.0
 11
184.1785945658
 21
97.4920817393
 31
0.0
 70
   160
 71
     1
 42
17.0
  3
SLDDIMSTYLE0
100
AcDbAlignedDimension
 13
162.6451182385
 23
88.9920817393
 33
0.0
 14
163.8451182385
 24
105.9920817393
 34
0.0
 50
90.0
100
AcDbRotatedDimension
1001
ACAD
1000
DSTYLE
1002
{
1070
    77
1070
     3
1070
   143
1040
0.0393700787
1070
    41
1040
3.0
1070
    44
1040
1.0
1070
    42
1040
1.0
1070
   147
1040
1.524
1070
    73
1070
     0
1070
    74
1070
     0
1070
   140
1040
3.5
1070
   284
1070
    12
1070
    78
1070
    12
1002
}
  0
DIMENSION
  5
408
330
1F
100
AcDbEntity
  8
SLD-0
100
AcDbDimension
  2
*D33
 10
162.6451182385
 20
124.4161495613
 30
0.0
 11
147.1451182385
 21
124.4161495613
 31
0.0
 70
   160
 71
     1
 42
31.0
  3
SLDDIMSTYLE0
100
AcDbAlignedDimension
 13
131.6451182385
 23
136.6287389026
 33
0.0
 14
162.6451182385
 24
145.8787389026
 34
0.0
100
AcDbRotatedDimension
1001
ACAD
1000
DSTYLE
1002
{
1070
    77
1070
     3
1070
   143
1040
0.0393700787
1070
    41
1040
3.0
1070
    44
1040
1.0
1070
    42
1040
1.0
1070
   147
1040
1.524
1070
    73
1070
     0
1070
    74
1070
     0
1070
   140
1040
3.5
1070
   284
1070
    12
1070
    78
1070
    12
1002
}
  0
DIMENSION
  5
41F
330
1F
100
AcDbEntity
  8
SLD-0
100
AcDbDimension
  2
*D34
 10
164.7451182385
 20
124.4161495613
 30
0.0
 11
174.6914590453
 21
124.4161495613
 31
0.0
 70
   160
 71
     1
 42
2.1
  3
SLDDIMSTYLE2
100
AcDbAlignedDimension
 13
162.6451182385
 23
136.6287389026
 33
0.0
 14
164.7451182385
 24
138.1787389026
 34
0.0
100
AcDbRotatedDimension
1001
ACAD
1000
DSTYLE
1002
{
1070
    77
1070
     3
1070
   143
1040
0.0393700787
1070
    41
1040
3.0
1070
    44
1040
1.0
1070
    42
1040
1.0
1070
   147
1040
1.524
1070
    73
1070
     0
1070
    74
1070
     0
1070
   140
1040
3.5
1070
   284
1070
    12
1070
    78
1070
    12
1002
}
  0
DIMENSION
  5
43B
330
1F
100
AcDbEntity
  8
SLD-0
100
AcDbDimension
  2
*D35
 10
184.693212795
 20
136.6287389026
 30
0.0
 11
184.693212795
 21
142.0287389026
 31
0.0
 70
   160
 71
     1
 42
10.8
  3
SLDDIMSTYLE2
100
AcDbAlignedDimension
 13
162.6451182385
 23
147.4287389026
 33
0.0
 14
162.6451182385
 24
136.6287389026
 34
0.0
 50
90.0
100
AcDbRotatedDimension
1001
ACAD
1000
DSTYLE
1002
{
1070
    77
1070
     3
1070
   143
1040
0.0393700787
1070
    41
1040
3.0
1070
    44
1040
1.0
1070
    42
1040
1.0
1070
   147
1040
1.524
1070
    73
1070
     0
1070
    74
1070
     0
1070
   140
1040
3.5
1070
   284
1070
    12
1070
    78
1070
    12
1002
}
  0
DIMENSION
  5
455
330
1F
100
AcDbEntity
  8
SLD-0
 62
     7
100
AcDbDimension
  2
*D36
 10
158.9775384358
 20
230.4808116213
 30
0.0
 11
156.4775384358
 21
230.4808116213
 31
0.0
 70
   160
 71
     1
 42
5.0
  3
SLDDIMSTYLE6
100
AcDbAlignedDimension
 13
153.9775384358
 23
199.3645158198
 33
0.0
 14
158.9775384358
 24
199.3645158198
 34
0.0
100
AcDbRotatedDimension
1001
ACAD
1000
DSTYLE
1002
{
1070
    77
1070
     3
1070
   143
1040
0.0393700787
1070
    41
1040
3.0
1070
    44
1040
1.0
1070
    42
1040
1.0
1070
   147
1040
1.524
1070
    73
1070
     0
1070
    74
1070
     0
1070
   140
1040
3.5
1070
   284
1070
    12
1070
    78
1070
    12
1002
}
  0
DIMENSION
  5
470
330
1F
100
AcDbEntity
  8
SLD-0
 62
     7
100
AcDbDimension
  2
*D37
 10
93.4060383544
 20
102.6920817393
 30
0.0
 11
93.4060383544
 21
93.6029068013
 31
0.0
 70
   160
 71
     1
 42
9.2
  3
SLDDIMSTYLE2
100
AcDbAlignedDimension
 13
76.0709464309
 23
111.8920817393
 33
0.0
 14
79.1709464309
 24
102.6920817393
 34
0.0
 50
90.0
100
AcDbRotatedDimension
1001
ACAD
1000
DSTYLE
1002
{
1070
    77
1070
     3
1070
   143
1040
0.0393700787
1070
    41
1040
3.0
1070
    44
1040
1.0
1070
    42
1040
1.0
1070
   147
1040
1.524
1070
    73
1070
     0
1070
    74
1070
     0
1070
   140
1040
3.5
1070
   284
1070
    12
1070
    78
1070
    12
1002
}
  0
DIMENSION
  5
48A
330
1F
100
AcDbEntity
  8
SLD-0
 62
     7
100
AcDbDimension
  2
*D38
 10
95.2652522694
 20
147.4287389026
 30
0.0
 11
95.2652522694
 21
143.9287389026
 31
0.0
 70
   160
 71
     1
 42
7.0
  3
SLDDIMSTYLE0
100
AcDbAlignedDimension
 13
78.5709464309
 23
140.4287389026
 33
0.0
 14
82.7709464309
 24
147.4287389026
 34
0.0
 50
90.0
100
AcDbRotatedDimension
1001
ACAD
1000
DSTYLE
1002
{
1070
    77
1070
     3
1070
   143
1040
0.0393700787
1070
    41
1040
3.0
1070
    44
1040
1.0
1070
    42
1040
1.0
1070
   147
1040
1.524
1070
    73
1070
     0
1070
    74
1070
     0
1070
   140
1040
3.5
1070
   284
1070
    12
1070
    78
1070
    12
1002
}
  0
DIMENSION
  5
4A4
330
1F
100
AcDbEntity
  8
SLD-0
 62
     7
100
AcDbDimension
  2
*D39
 10
82.7709464309
 20
123.881917706
 30
0.0
 11
92.1194580572
 21
123.881917706
 31
0.0
 70
   160
 71
     1
 42
4.2
  3
SLDDIMSTYLE2
100
AcDbAlignedDimension
 13
78.5709464309
 23
140.4287389026
 33
0.0
 14
82.7709464309
 24
147.4287389026
 34
0.0
100
AcDbRotatedDimension
1001
ACAD
1000
DSTYLE
1002
{
1070
    77
1070
     3
1070
   143
1040
0.0393700787
1070
    41
1040
3.0
1070
    44
1040
1.0
1070
    42
1040
1.0
1070
   147
1040
1.524
1070
    73
1070
     0
1070
    74
1070
     0
1070
   140
1040
3.5
1070
   284
1070
    12
1070
    78
1070
    12
1002
}
  0
DIMENSION
  5
4C0
330
1F
100
AcDbEntity
  8
SLD-0
 62
     7
100
AcDbDimension
  2
*D40
 10
54.0709464309
 20
123.881917706
 30
0.0
 11
66.3209464309
 21
123.881917706
 31
0.0
 70
   160
 71
     1
 42
24.5
  3
SLDDIMSTYLE2
100
AcDbAlignedDimension
 13
78.5709464309
 23
140.4287389026
 33
0.0
 14
54.0709464309
 24
141.6287389026
 34
0.0
100
AcDbRotatedDimension
1001
ACAD
1000
DSTYLE
1002
{
1070
    77
1070
     3
1070
   143
1040
0.0393700787
1070
    41
1040
3.0
1070
    44
1040
1.0
1070
    42
1040
1.0
1070
   147
1040
1.524
1070
    73
1070
     0
1070
    74
1070
     0
1070
   140
1040
3.5
1070
   284
1070
    12
1070
    78
1070
    12
1002
}
  0
MTEXT
  5
4D7
330
1F
100
AcDbEntity
  8
SLD-0
 62
     7
100
AcDbMText
 10
147.4068839569
 20
29.7138882404
 30
0.0
 40
4.2333333333
 41
0.0
 71
     1
 72
     1
  1
N01867-101-1
  7
SLDTEXTSTYLE1
 73
     1
 44
1.0
  0
MTEXT
  5
4D9
330
1F
100
AcDbEntity
  8
SLD-0
 62
     7
100
AcDbMText
 10
146.11493299
 20
43.2377018572
 30
0.0
 40
4.2333333333
 41
0.0
 71
     1
 72
     1
  1
12 Sensor BKT
  7
SLDTEXTSTYLE2
 73
     1
 44
1.0
  0
MTEXT
  5
4DA
330
1F
100
AcDbEntity
  8
SLD-0
 62
     7
100
AcDbMText
 10
108.0624571158
 20
192.583044165
 30
0.0
 40
3.5
 41
0.0
 71
     1
 72
     1
  1
2-M2(E3T-SL21用)
  7
SLDTEXTSTYLE1
 73
     1
 44
1.0
  0
HATCH
  5
4DB
330
1F
100
AcDbEntity
  8
0
  6
Continuous
 62
   179
100
AcDbHatch
 10
0.0
 20
0.0
 30
0.0
210
0.0
220
0.0
230
1.0
  2
ANSI31
 70
     0
 71
     0
 91
        1
 92
        0
 93
        3
 72
     1
 10
97.34587719291437
 20
207.1448596042692
 11
96.48221058532522
 21
206.6407961251959
 72
     1
 10
96.48221058532522
 20
206.6407961251959
 11
95.4018534519
 21
209.4838276875
 72
     1
 10
95.4018534519
 20
209.4838276875
 11
97.34587719291437
 21
207.1448596042692
 97
        0
 75
     0
 76
     1
 52
0.0
 41
1.0
 77
     0
 78
     1
 53
45.00000209717174
 43
0.0
 44
0.0
 45
-2.245064112442359
 46
2.245063948092215
 79
     0
 98
        1
 10
0.0
 20
0.0
  0
HATCH
  5
4DC
330
1F
100
AcDbEntity
  8
0
  6
Continuous
 62
   179
100
AcDbHatch
 10
0.0
 20
0.0
 30
0.0
210
0.0
220
0.0
230
1.0
  2
ANSI31
 70
     0
 71
     0
 91
        1
 92
        0
 93
        3
 72
     1
 10
142.3574985669794
 20
105.8206697919934
 11
143.3194193797459
 21
106.0939980744059
 72
     1
 10
143.3194193797459
 20
106.0939980744059
 11
143.6584438206
 21
103.0715714949
 72
     1
 10
143.6584438206
 20
103.0715714949
 11
142.3574985669794
 21
105.8206697919934
 97
        0
 75
     0
 76
     1
 52
0.0
 41
1.0
 77
     0
 78
     1
 53
45.00000209717174
 43
0.0
 44
0.0
 45
-2.245064112442359
 46
2.245063948092215
 79
     0
 98
        1
 10
0.0
 20
0.0
  0
HATCH
  5
4DD
330
1F
100
AcDbEntity
  8
0
  6
Continuous
 62
   179
100
AcDbHatch
 10
0.0
 20
0.0
 30
0.0
210
0.0
220
0.0
230
1.0
  2
ANSI31
 70
     0
 71
     0
 91
        1
 92
        0
 93
        3
 72
     1
 10
62.55653631085011
 20
107.1397946746548
 11
63.39906413405974
 21
107.6784475008031
 72
     1
 10
63.39906413405974
 20
107.6784475008031
 11
64.5937587009
 21
104.8815376181
 72
     1
 10
64.5937587009
 20
104.8815376181
 11
62.55653631085011
 21
107.1397946746548
 97
        0
 75
     0
 76
     1
 52
0.0
 41
1.0
 77
     0
 78
     1
 53
45.00000209717174
 43
0.0
 44
0.0
 45
-2.245064112442359
 46
2.245063948092215
 79
     0
 98
        1
 10
0.0
 20
0.0
  0
INSERT
  5
4DE
330
1F
100
AcDbEntity
  8
0
  6
Continuous
 62
     7
370
     0
100
AcDbBlockReference
  2
SW_CENTERMARK0
 10
0.0
 20
0.0
 30
0.0
  0
INSERT
  5
4DF
330
1F
100
AcDbEntity
  8
0
  6
Continuous
 62
     7
370
     0
100
AcDbBlockReference
  2
SW_CENTERMARK1
 10
0.0
 20
0.0
 30
0.0
  0
INSERT
  5
4E0
330
1F
100
AcDbEntity
  8
0
  6
Continuous
 62
     7
370
     0
100
AcDbBlockReference
  2
SW_CENTERMARK2
 10
0.0
 20
0.0
 30
0.0
  0
INSERT
  5
4E1
330
1F
100
AcDbEntity
  8
0
  6
Continuous
 62
     7
370
     0
100
AcDbBlockReference
  2
SW_CENTERMARK3
 10
0.0
 20
0.0
 30
0.0
  0
INSERT
  5
4E2
330
1F
100
AcDbEntity
  8
0
  6
Continuous
 62
     7
370
     0
100
AcDbBlockReference
  2
SW_CENTERMARK4
 10
0.0
 20
0.0
 30
0.0
  0
INSERT
  5
4E3
330
1F
100
AcDbEntity
  8
0
  6
Continuous
 62
     7
370
     0
100
AcDbBlockReference
  2
NOTE45
 10
125.233760278
 20
115.9744198079
 30
0.0
  0
INSERT
  5
4E4
330
1F
100
AcDbEntity
  8
0
  6
Continuous
 62
     7
370
     0
100
AcDbBlockReference
  2
SW_CENTERMARK5
 10
0.0
 20
0.0
 30
0.0
  0
INSERT
  5
4E5
330
1F
100
AcDbEntity
  8
0
  6
Continuous
 62
     7
370
     0
100
AcDbBlockReference
  2
SW_CENTERMARK6
 10
0.0
 20
0.0
 30
0.0
  0
INSERT
  5
4E6
330
1F
100
AcDbEntity
  8
0
  6
Continuous
 62
     7
370
     0
100
AcDbBlockReference
  2
SW_CENTERMARK7
 10
0.0
 20
0.0
 30
0.0
  0
INSERT
  5
4E7
330
1F
100
AcDbEntity
  8
0
  6
Continuous
 62
     7
370
     0
100
AcDbBlockReference
  2
NOTE46
 10
38.8348460723
 20
115.7167614373
 30
0.0
  0
INSERT
  5
4E8
330
1F
100
AcDbEntity
  8
0
  6
Continuous
 62
     7
370
     0
100
AcDbBlockReference
  2
SW_CENTERMARK8
 10
0.0
 20
0.0
 30
0.0
  0
INSERT
  5
4E9
330
1F
100
AcDbEntity
  8
0
  6
Continuous
 62
     7
370
     0
100
AcDbBlockReference
  2
SW_CENTERMARK9
 10
0.0
 20
0.0
 30
0.0
  0
INSERT
  5
4EA
330
1F
100
AcDbEntity
  8
0
  6
Continuous
 62
     7
370
     0
100
AcDbBlockReference
  2
SW_CENTERMARK10
 10
0.0
 20
0.0
 30
0.0
  0
INSERT
  5
4EB
330
1F
100
AcDbEntity
  8
0
  6
Continuous
 62
     7
370
     0
100
AcDbBlockReference
  2
SW_CENTERMARK11
 10
0.0
 20
0.0
 30
0.0
  0
INSERT
  5
4EC
330
1F
100
AcDbEntity
  8
0
  6
Continuous
 62
     7
370
     0
100
AcDbBlockReference
  2
SW_CENTERMARK12
 10
0.0
 20
0.0
 30
0.0
  0
ENDSEC
  0
SECTION
  2
OBJECTS
  0
DICTIONARY
  5
C
330
0
100
AcDbDictionary
281
     1
  3
ACAD_GROUP
350
D
  3
ACAD_LAYOUT
350
1A
  3
ACAD_MLINESTYLE
350
17
  3
ACAD_PLOTSETTINGS
350
19
  3
ACAD_PLOTSTYLENAME
350
E
  0
DICTIONARY
  5
D
102
{ACAD_REACTORS
330
C
102
}
330
C
100
AcDbDictionary
281
     1
  0
DICTIONARY
  5
1A
102
{ACAD_REACTORS
330
C
102
}
330
C
100
AcDbDictionary
281
     1
  3
Layout1
350
1E
  3
Layout2
350
26
  3
Model
350
22
  0
DICTIONARY
  5
17
102
{ACAD_REACTORS
330
C
102
}
330
C
100
AcDbDictionary
281
     1
  3
Standard
350
18
  0
DICTIONARY
  5
19
102
{ACAD_REACTORS
330
C
102
}
330
C
100
AcDbDictionary
281
     1
  0
ACDBDICTIONARYWDFLT
  5
E
102
{ACAD_REACTORS
330
C
102
}
330
C
100
AcDbDictionary
281
     1
  3
Normal
350
F
100
AcDbDictionaryWithDefault
340
F
  0
LAYOUT
  5
1E
102
{ACAD_REACTORS
330
1A
102
}
330
1A
100
AcDbPlotSettings
  1

  2

  4

  6

 40
0.0
 41
0.0
 42
0.0
 43
0.0
 44
0.0
 45
0.0
 46
0.0
 47
0.0
 48
0.0
 49
0.0
140
0.0
141
0.0
142
1.0
143
1.0
 70
   688
 72
     0
 73
     0
 74
     5
  7

 75
    16
147
1.0
148
0.0
149
0.0
100
AcDbLayout
  1
Layout1
 70
     1
 71
     1
 10
0.0
 20
0.0
 11
0.0
 21
0.0
 12
0.0
 22
0.0
 32
0.0
 14
0.0
 24
0.0
 34
0.0
 15
0.0
 25
0.0
 35
0.0
146
0.0
 13
0.0
 23
0.0
 33
0.0
 16
1.0
 26
0.0
 36
0.0
 17
0.0
 27
1.0
 37
0.0
 76
     0
330
1B
  0
LAYOUT
  5
26
102
{ACAD_REACTORS
330
1A
102
}
330
1A
100
AcDbPlotSettings
  1

  2

  4

  6

 40
0.0
 41
0.0
 42
0.0
 43
0.0
 44
0.0
 45
0.0
 46
0.0
 47
0.0
 48
0.0
 49
0.0
140
0.0
141
0.0
142
1.0
143
1.0
 70
   688
 72
     0
 73
     0
 74
     5
  7

 75
    16
147
1.0
148
0.0
149
0.0
100
AcDbLayout
  1
Layout2
 70
     1
 71
     2
 10
0.0
 20
0.0
 11
0.0
 21
0.0
 12
0.0
 22
0.0
 32
0.0
 14
0.0
 24
0.0
 34
0.0
 15
0.0
 25
0.0
 35
0.0
146
0.0
 13
0.0
 23
0.0
 33
0.0
 16
1.0
 26
0.0
 36
0.0
 17
0.0
 27
1.0
 37
0.0
 76
     0
330
23
  0
LAYOUT
  5
22
102
{ACAD_REACTORS
330
1A
102
}
330
1A
100
AcDbPlotSettings
  1

  2

  4

  6

 40
0.0
 41
0.0
 42
0.0
 43
0.0
 44
0.0
 45
0.0
 46
0.0
 47
0.0
 48
0.0
 49
0.0
140
0.0
141
0.0
142
1.0
143
1.0
 70
  1712
 72
     0
 73
     0
 74
     0
  7

 75
     0
147
1.0
148
0.0
149
0.0
100
AcDbLayout
  1
Model
 70
     1
 71
     0
 10
0.0
 20
0.0
 11
0.0
 21
0.0
 12
0.0
 22
0.0
 32
0.0
 14
0.0
 24
0.0
 34
0.0
 15
210.0
 25
297.0
 35
0.0
146
0.0
 13
0.0
 23
0.0
 33
0.0
 16
1.0
 26
0.0
 36
0.0
 17
0.0
 27
1.0
 37
0.0
 76
     0
330
1F
  0
MLINESTYLE
  5
18
102
{ACAD_REACTORS
330
17
102
}
330
17
100
AcDbMlineStyle
  2
Standard
 70
     0
  3

 62
   256
 51
90.0
 52
90.0
 71
     2
 49
0.5
 62
   256
  6
BYLAYER
 49
-0.5
 62
   256
  6
BYLAYER
  0
ACDBPLACEHOLDER
  5
F
102
{ACAD_REACTORS
330
E
102
}
330
E
  0
ENDSEC
  0
EOF
