  0
SECTION
  2
HEADER
  9
$ACADVER
  1
AC1015
  9
$ACADMAINTVER
 70
     6
  9
$DWGCODEPAGE
  3
DOS932
  9
$INSBASE
 10
0.0
 20
0.0
 30
0.0
  9
$EXTMIN
 10
0.0
 20
0.0
 30
0.0
  9
$EXTMAX
 10
210.0
 20
297.0
 30
0.0
  9
$LIMMIN
 10
0.0
 20
0.0
  9
$LIMMAX
 10
0.0
 20
0.0
  9
$ORTHOMODE
 70
     0
  9
$REGENMODE
 70
     1
  9
$FILLMODE
 70
     1
  9
$QTEXTMODE
 70
     0
  9
$MIRRTEXT
 70
     1
  9
$LTSCALE
 40
1.0
  9
$ATTMODE
 70
     1
  9
$TEXTSIZE
 40
3.5
  9
$TRACEWID
 40
1.0
  9
$TEXTSTYLE
  7
Standard
  9
$CLAYER
  8
0
  9
$CELTYPE
  6
ByLayer
  9
$CECOLOR
 62
   256
  9
$CELTSCALE
 40
1.0
  9
$DISPSILH
 70
     0
  9
$DIMSCALE
 40
1.0
  9
$DIMASZ
 40
3.0
  9
$DIMEXO
 40
1.0
  9
$DIMDLI
 40
3.75
  9
$DIMRND
 40
0.0
  9
$DIMDLE
 40
0.0
  9
$DIMEXE
 40
1.0
  9
$DIMTP
 40
0.0
  9
$DIMTM
 40
0.0
  9
$DIMTXT
 40
3.5
  9
$DIMCEN
 40
2.5
  9
$DIMTSZ
 40
0.0
  9
$DIMTOL
 70
     0
  9
$DIMLIM
 70
     0
  9
$DIMTIH
 70
     1
  9
$DIMTOH
 70
     1
  9
$DIMSE1
 70
     0
  9
$DIMSE2
 70
     0
  9
$DIMTAD
 70
     1
  9
$DIMZIN
 70
     1
  9
$DIMBLK
  1

  9
$DIMASO
 70
     1
  9
$DIMSHO
 70
     1
  9
$DIMPOST
  1

  9
$DIMAPOST
  1

  9
$DIMALT
 70
     0
  9
$DIMALTD
 70
     3
  9
$DIMALTF
 40
0.0393700787
  9
$DIMLFAC
 40
1.0
  9
$DIMTOFL
 70
     1
  9
$DIMTVP
 40
0.0
  9
$DIMTIX
 70
     0
  9
$DIMSOXD
 70
     0
  9
$DIMSAH
 70
     0
  9
$DIMBLK1
  1

  9
$DIMBLK2
  1

  9
$DIMSTYLE
  2
ISO-25
  9
$DIMCLRD
 70
     0
  9
$DIMCLRE
 70
     0
  9
$DIMCLRT
 70
     0
  9
$DIMTFAC
 40
1.0
  9
$DIMGAP
 40
1.524
  9
$DIMJUST
 70
     0
  9
$DIMSD1
 70
     0
  9
$DIMSD2
 70
     0
  9
$DIMTOLJ
 70
     0
  9
$DIMTZIN
 70
     1
  9
$DIMALTZ
 70
     0
  9
$DIMALTTZ
 70
     0
  9
$DIMUPT
 70
     0
  9
$DIMDEC
 70
     2
  9
$DIMTDEC
 70
     2
  9
$DIMALTU
 70
     2
  9
$DIMALTTD
 70
     3
  9
$DIMTXSTY
  7
Standard
  9
$DIMAUNIT
 70
     0
  9
$DIMADEC
 70
     0
  9
$DIMALTRND
 40
0.0
  9
$DIMAZIN
 70
     0
  9
$DIMDSEP
 70
    44
  9
$DIMATFIT
 70
     3
  9
$DIMFRAC
 70
     0
  9
$DIMLDRBLK
  1

  9
$DIMLUNIT
 70
     2
  9
$DIMLWD
 70
    -2
  9
$DIMLWE
 70
    -2
  9
$DIMTMOVE
 70
     0
  9
$LUNITS
 70
     2
  9
$LUPREC
 70
     1
  9
$SKETCHINC
 40
1.0
  9
$FILLETRAD
 40
10.0
  9
$AUNITS
 70
     0
  9
$AUPREC
 70
     0
  9
$MENU
  1
.
  9
$ELEVATION
 40
0.0
  9
$PELEVATION
 40
0.0
  9
$THICKNESS
 40
0.0
  9
$LIMCHECK
 70
     0
  9
$CHAMFERA
 40
10.0
  9
$CHAMFERB
 40
10.0
  9
$CHAMFERC
 40
20.0
  9
$CHAMFERD
 40
0.0
  9
$SKPOLY
 70
     0
  9
$TDCREATE
 40
2454323.598215776
  9
$TDUCREATE
 40
2454323.223215776
  9
$TDUPDATE
 40
2454323.598215787
  9
$TDUUPDATE
 40
2454323.223215787
  9
$TDINDWG
 40
0.0000000116
  9
$TDUSRTIMER
 40
0.0000000116
  9
$USRTIMER
 70
     1
  9
$ANGBASE
 50
0.0
  9
$ANGDIR
 70
     0
  9
$PDMODE
 70
     0
  9
$PDSIZE
 40
-1.0
  9
$PLINEWID
 40
0.0
  9
$SPLFRAME
 70
     0
  9
$SPLINETYPE
 70
     6
  9
$SPLINESEGS
 70
     8
  9
$HANDSEED
  5
30C
  9
$SURFTAB1
 70
     6
  9
$SURFTAB2
 70
     6
  9
$SURFTYPE
 70
     6
  9
$SURFU
 70
     6
  9
$SURFV
 70
     6
  9
$UCSBASE
  2

  9
$UCSNAME
  2

  9
$UCSORG
 10
0.0
 20
0.0
 30
0.0
  9
$UCSXDIR
 10
1.0
 20
0.0
 30
0.0
  9
$UCSYDIR
 10
0.0
 20
1.0
 30
0.0
  9
$UCSORTHOREF
  2

  9
$UCSORTHOVIEW
 70
     0
  9
$UCSORGTOP
 10
0.0
 20
0.0
 30
0.0
  9
$UCSORGBOTTOM
 10
0.0
 20
0.0
 30
0.0
  9
$UCSORGLEFT
 10
0.0
 20
0.0
 30
0.0
  9
$UCSORGRIGHT
 10
0.0
 20
0.0
 30
0.0
  9
$UCSORGFRONT
 10
0.0
 20
0.0
 30
0.0
  9
$UCSORGBACK
 10
0.0
 20
0.0
 30
0.0
  9
$PUCSBASE
  2

  9
$PUCSNAME
  2

  9
$PUCSORG
 10
0.0
 20
0.0
 30
0.0
  9
$PUCSXDIR
 10
1.0
 20
0.0
 30
0.0
  9
$PUCSYDIR
 10
0.0
 20
1.0
 30
0.0
  9
$PUCSORTHOREF
  2

  9
$PUCSORTHOVIEW
 70
     0
  9
$PUCSORGTOP
 10
0.0
 20
0.0
 30
0.0
  9
$PUCSORGBOTTOM
 10
0.0
 20
0.0
 30
0.0
  9
$PUCSORGLEFT
 10
0.0
 20
0.0
 30
0.0
  9
$PUCSORGRIGHT
 10
0.0
 20
0.0
 30
0.0
  9
$PUCSORGFRONT
 10
0.0
 20
0.0
 30
0.0
  9
$PUCSORGBACK
 10
0.0
 20
0.0
 30
0.0
  9
$USERI1
 70
     0
  9
$USERI2
 70
     0
  9
$USERI3
 70
     0
  9
$USERI4
 70
     0
  9
$USERI5
 70
     0
  9
$USERR1
 40
0.0
  9
$USERR2
 40
0.0
  9
$USERR3
 40
0.0
  9
$USERR4
 40
0.0
  9
$USERR5
 40
0.0
  9
$WORLDVIEW
 70
     1
  9
$SHADEDGE
 70
     3
  9
$SHADEDIF
 70
    70
  9
$TILEMODE
 70
     1
  9
$MAXACTVP
 70
    64
  9
$PINSBASE
 10
0.0
 20
0.0
 30
0.0
  9
$PLIMCHECK
 70
     0
  9
$PEXTMIN
 10
1.0000000000E+20
 20
1.0000000000E+20
 30
1.0000000000E+20
  9
$PEXTMAX
 10
-1.0000000000E+20
 20
-1.0000000000E+20
 30
-1.0000000000E+20
  9
$PLIMMIN
 10
0.0
 20
0.0
  9
$PLIMMAX
 10
420.0
 20
297.0
  9
$UNITMODE
 70
     0
  9
$VISRETAIN
 70
     1
  9
$PLINEGEN
 70
     0
  9
$PSLTSCALE
 70
     1
  9
$TREEDEPTH
 70
  3020
  9
$CMLSTYLE
  2
Standard
  9
$CMLJUST
 70
     0
  9
$CMLSCALE
 40
20.0
  9
$PROXYGRAPHICS
 70
     1
  9
$MEASUREMENT
 70
     1
  9
$CELWEIGHT
370
    -1
  9
$ENDCAPS
280
     0
  9
$JOINSTYLE
280
     0
  9
$LWDISPLAY
290
     1
  9
$INSUNITS
 70
     4
  9
$HYPERLINKBASE
  1

  9
$STYLESHEET
  1

  9
$XEDIT
290
     1
  9
$CEPSNTYPE
380
     0
  9
$PSTYLEMODE
290
     1
  9
$FINGERPRINTGUID
  2
{0677F313-77D2-43E9-BC32-C27EA2584A79}
  9
$VERSIONGUID
  2
{FAEB1C32-E019-11D5-929B-00C0DF256EC4}
  9
$EXTNAMES
290
     1
  9
$PSVPSCALE
 40
0.0
  9
$OLESTARTUP
290
     0
  0
ENDSEC
  0
SECTION
  2
CLASSES
  0
CLASS
  1
ACDBDICTIONARYWDFLT
  2
AcDbDictionaryWithDefault
  3
ObjectDBX Classes
 90
        0
280
     0
281
     0
  0
CLASS
  1
ACDBPLACEHOLDER
  2
AcDbPlaceHolder
  3
ObjectDBX Classes
 90
        0
280
     0
281
     0
  0
CLASS
  1
LAYOUT
  2
AcDbLayout
  3
ObjectDBX Classes
 90
        0
280
     0
281
     0
  0
ENDSEC
  0
SECTION
  2
TABLES
  0
TABLE
  2
VPORT
  5
8
330
0
100
AcDbSymbolTable
 70
     1
  0
VPORT
  5
29
330
8
100
AcDbSymbolTableRecord
100
AcDbViewportTableRecord
  2
*Active
 70
     0
 10
0.0
 20
0.0
 11
1.0
 21
1.0
 12
105.0
 22
148.5
 13
0.0
 23
0.0
 14
10.0
 24
10.0
 15
10.0
 25
10.0
 16
0.0
 26
0.0
 36
1.0
 17
0.0
 27
0.0
 37
0.0
 40
297.0
 41
1.9729729729
 42
50.0
 43
0.0
 44
0.0
 50
0.0
 51
0.0
 71
     0
 72
  2000
 73
     1
 74
     3
 75
     0
 76
     0
 77
     0
 78
     0
281
     0
 65
     1
110
0.0
120
0.0
130
0.0
111
1.0
121
0.0
131
0.0
112
0.0
122
1.0
132
0.0
 79
     0
146
0.0
  0
ENDTAB
  0
TABLE
  2
LTYPE
  5
5
330
0
100
AcDbSymbolTable
 70
     6
  0
LTYPE
  5
14
330
5
100
AcDbSymbolTableRecord
100
AcDbLinetypeTableRecord
  2
ByBlock
 70
     0
  3

 72
    65
 73
     0
 40
0.0
  0
LTYPE
  5
15
330
5
100
AcDbSymbolTableRecord
100
AcDbLinetypeTableRecord
  2
ByLayer
 70
     0
  3

 72
    65
 73
     0
 40
0.0
  0
LTYPE
  5
16
330
5
100
AcDbSymbolTableRecord
100
AcDbLinetypeTableRecord
  2
Continuous
 70
     0
  3
Solid line
 72
    65
 73
     0
 40
0.0
  0
LTYPE
  5
2A
330
5
100
AcDbSymbolTableRecord
100
AcDbLinetypeTableRecord
  2
HIDDEN
 70
     0
  3
Hidden __ __ __ __ __ __ __ __ __ __ __ __ __ __
 72
    65
 73
     2
 40
1.905
 49
1.27
 74
     0
 49
-0.635
 74
     0
  0
LTYPE
  5
2B
330
5
100
AcDbSymbolTableRecord
100
AcDbLinetypeTableRecord
  2
PHANTOM
 70
     0
  3
Phantom ______  __  __  ______  __  __  ______
 72
    65
 73
     6
 40
12.7
 49
6.35
 74
     0
 49
-1.27
 74
     0
 49
1.27
 74
     0
 49
-1.27
 74
     0
 49
1.27
 74
     0
 49
-1.27
 74
     0
  0
LTYPE
  5
2C
330
5
100
AcDbSymbolTableRecord
100
AcDbLinetypeTableRecord
  2
CENTER
 70
     0
  3
Center ____ _ ____ _ ____ _ ____ _ ____ _ ____
 72
    65
 73
     4
 40
10.16
 49
6.35
 74
     0
 49
-1.27
 74
     0
 49
1.27
 74
     0
 49
-1.27
 74
     0
  0
LTYPE
  5
2D
330
5
100
AcDbSymbolTableRecord
100
AcDbLinetypeTableRecord
  2
CENTERX2
 70
     0
  3
Center (2x) ________  __  ________  __  _____
 72
    65
 73
     4
 40
20.32
 49
12.7
 74
     0
 49
-2.54
 74
     0
 49
2.54
 74
     0
 49
-2.54
 74
     0
  0
LTYPE
  5
2E
330
5
100
AcDbSymbolTableRecord
100
AcDbLinetypeTableRecord
  2
DOT2
 70
     0
  3
Dot (.5x) ........................................
 72
    65
 73
     2
 40
0.635
 49
0.0
 74
     0
 49
-0.635
 74
     0
  0
ENDTAB
  0
TABLE
  2
LAYER
  5
2
330
0
100
AcDbSymbolTable
 70
     4
  0
LAYER
  5
10
330
2
100
AcDbSymbolTableRecord
100
AcDbLayerTableRecord
  2
0
 70
     0
 62
     7
  6
Continuous
370
    -3
390
F
  0
LAYER
  5
2F
330
2
100
AcDbSymbolTableRecord
100
AcDbLayerTableRecord
  2
SLD-0
 70
     0
 62
   179
  6
Continuous
370
     0
390
F
  0
LAYER
  5
30
330
2
100
AcDbSymbolTableRecord
100
AcDbLayerTableRecord
  2
SLD-DEFPOINTS
 70
     0
 62
   179
  6
Continuous
370
     0
390
F
  0
LAYER
  5
10F
330
2
100
AcDbSymbolTableRecord
100
AcDbLayerTableRecord
  2
Defpoints
 70
     0
 62
     7
  6
Continuous
290
     0
370
    -3
390
F
  0
ENDTAB
  0
TABLE
  2
STYLE
  5
3
330
0
100
AcDbSymbolTable
 70
     4
  0
STYLE
  5
11
330
3
100
AcDbSymbolTableRecord
100
AcDbTextStyleTableRecord
  2
Standard
 70
     0
 40
0.0
 41
1.0
 50
0.0
 71
     0
 42
2.5
  3
txt
  4
bigfont
  0
STYLE
  5
34
330
3
100
AcDbSymbolTableRecord
100
AcDbTextStyleTableRecord
  2
SLDTEXTSTYLE0
 70
     0
 40
0.0
 41
0.7
 50
0.0
 71
     0
 42
0.2
  3
TXT
  4
bigfont
  0
STYLE
  5
40
330
3
100
AcDbSymbolTableRecord
100
AcDbTextStyleTableRecord
  2
SLDTEXTSTYLE1
 70
     0
 40
0.0
 41
0.5526315789
 50
0.0
 71
     0
 42
0.2
  3
TXT
  4
bigfont
  0
STYLE
  5
2FB
330
3
100
AcDbSymbolTableRecord
100
AcDbTextStyleTableRecord
  2
SLDTEXTSTYLE2
 70
     0
 40
0.0
 41
0.4741664516
 50
0.0
 71
     0
 42
0.2
  3
TXT
  4
bigfont
  0
ENDTAB
  0
TABLE
  2
VIEW
  5
6
330
0
100
AcDbSymbolTable
 70
     0
  0
ENDTAB
  0
TABLE
  2
UCS
  5
7
330
0
100
AcDbSymbolTable
 70
     0
  0
ENDTAB
  0
TABLE
  2
APPID
  5
9
330
0
100
AcDbSymbolTable
 70
     1
  0
APPID
  5
12
330
9
100
AcDbSymbolTableRecord
100
AcDbRegAppTableRecord
  2
ACAD
 70
     0
  0
ENDTAB
  0
TABLE
  2
DIMSTYLE
  5
A
330
0
100
AcDbSymbolTable
 70
     7
100
AcDbDimStyleTable
  0
DIMSTYLE
105
27
330
A
100
AcDbSymbolTableRecord
100
AcDbDimStyleTableRecord
  2
ISO-25
 70
     0
 41
2.5
 42
0.625
 43
3.75
 44
1.25
 73
     0
 74
     0
 77
     1
 78
     8
140
2.5
141
2.5
143
0.0393700787
147
0.625
171
     3
172
     1
271
     2
272
     2
274
     3
278
    44
283
     0
284
     8
340
11
  0
DIMSTYLE
105
119
102
{ACAD_REACTORS
330
10E
102
}
330
A
100
AcDbSymbolTableRecord
100
AcDbDimStyleTableRecord
  2
SLDDIMSTYLE0
 70
     0
 41
3.0
 44
0.0
 47
0.000015
 71
     1
 78
    12
140
3.5
147
0.875
172
     1
173
     1
271
     0
272
     3
340
40
341
11A
343
11A
344
11A
  0
DIMSTYLE
105
137
102
{ACAD_REACTORS
330
129
330
142
330
178
330
18F
330
1A6
330
1D5
330
20A
330
222
330
239
330
27F
330
299
330
2C6
330
2E0
102
}
330
A
100
AcDbSymbolTableRecord
100
AcDbDimStyleTableRecord
  2
SLDDIMSTYLE1
 70
     0
 41
3.0
 44
0.0
 73
     0
 74
     0
 77
     3
 78
    12
140
3.5
147
0.875
173
     1
271
     0
272
     3
284
    12
340
40
341
11A
343
11A
344
11A
  0
DIMSTYLE
105
16B
102
{ACAD_REACTORS
330
15C
102
}
330
A
100
AcDbSymbolTableRecord
100
AcDbDimStyleTableRecord
  2
SLDDIMSTYLE2
 70
     0
 41
3.0
 44
0.0
 73
     0
 74
     0
 77
     3
 78
     8
140
3.5
147
0.875
173
     1
271
     1
272
     3
284
    12
340
40
341
11A
343
11A
344
11A
  0
DIMSTYLE
105
1C9
102
{ACAD_REACTORS
330
1BF
330
26A
102
}
330
A
100
AcDbSymbolTableRecord
100
AcDbDimStyleTableRecord
  2
SLDDIMSTYLE3
 70
     0
 41
3.0
 44
0.0
 47
0.0002
 48
-0.0001
 71
     1
 78
    12
140
3.5
147
0.875
172
     1
173
     1
271
     0
272
     1
284
     8
340
40
341
11A
343
11A
344
11A
  0
DIMSTYLE
105
1FD
102
{ACAD_REACTORS
330
1EF
330
250
102
}
330
A
100
AcDbSymbolTableRecord
100
AcDbDimStyleTableRecord
  2
SLDDIMSTYLE4
 70
     0
 41
3.0
 44
0.0
 73
     0
 74
     0
 77
     3
 78
    12
140
3.5
147
0.875
173
     1
271
     0
272
     2
284
    12
340
40
341
11A
343
11A
344
11A
  0
DIMSTYLE
105
2BD
102
{ACAD_REACTORS
330
2B3
102
}
330
A
100
AcDbSymbolTableRecord
100
AcDbDimStyleTableRecord
  2
SLDDIMSTYLE5
 70
     0
 41
3.0
 44
0.0
 78
    12
140
3.5
147
0.875
172
     1
173
     1
271
     0
272
     3
284
    12
340
40
341
11A
343
11A
344
11A
  0
ENDTAB
  0
TABLE
  2
BLOCK_RECORD
  5
1
330
0
100
AcDbSymbolTable
 70
    30
  0
BLOCK_RECORD
  5
1F
330
1
100
AcDbSymbolTableRecord
100
AcDbBlockTableRecord
  2
*Model_Space
340
22
  0
BLOCK_RECORD
  5
1B
330
1
100
AcDbSymbolTableRecord
100
AcDbBlockTableRecord
  2
*Paper_Space
340
1E
  0
BLOCK_RECORD
  5
23
330
1
100
AcDbSymbolTableRecord
100
AcDbBlockTableRecord
  2
*Paper_Space0
340
26
  0
BLOCK_RECORD
  5
31
330
1
100
AcDbSymbolTableRecord
100
AcDbBlockTableRecord
  2
注記
340
0
  0
BLOCK_RECORD
  5
37
330
1
100
AcDbSymbolTableRecord
100
AcDbBlockTableRecord
  2
_OPEN30
340
0
102
{BLKREFS
331
304
331
308
102
}
  0
BLOCK_RECORD
  5
3D
330
1
100
AcDbSymbolTableRecord
100
AcDbBlockTableRecord
  2
NOTE44
340
0
102
{BLKREFS
331
305
102
}
  0
BLOCK_RECORD
  5
42
330
1
100
AcDbSymbolTableRecord
100
AcDbBlockTableRecord
  2
SW_CENTERMARK0
340
0
102
{BLKREFS
331
306
102
}
  0
BLOCK_RECORD
  5
4D
330
1
100
AcDbSymbolTableRecord
100
AcDbBlockTableRecord
  2
SW_CENTERMARK1
340
0
102
{BLKREFS
331
307
102
}
  0
BLOCK_RECORD
  5
58
330
1
100
AcDbSymbolTableRecord
100
AcDbBlockTableRecord
  2
SW_CENTERMARK2
340
0
102
{BLKREFS
331
309
102
}
  0
BLOCK_RECORD
  5
63
330
1
100
AcDbSymbolTableRecord
100
AcDbBlockTableRecord
  2
SW_CENTERMARK3
340
0
102
{BLKREFS
331
30A
102
}
  0
BLOCK_RECORD
  5
6E
330
1
100
AcDbSymbolTableRecord
100
AcDbBlockTableRecord
  2
SW_CENTERMARK4
340
0
102
{BLKREFS
331
30B
102
}
  0
BLOCK_RECORD
  5
110
330
1
100
AcDbSymbolTableRecord
100
AcDbBlockTableRecord
  2
*D9
340
0
  0
BLOCK_RECORD
  5
11A
330
1
100
AcDbSymbolTableRecord
100
AcDbBlockTableRecord
  2
_None
340
0
102
{BLKREFS
331
114
331
12F
331
12E
331
148
331
147
331
163
331
162
331
17E
331
17D
331
195
331
194
331
1AC
331
1AB
331
1C4
331
1DB
331
1DA
331
1F5
331
1F4
331
210
331
20F
331
228
331
227
331
23F
331
23E
331
256
331
255
331
26F
331
285
331
284
331
29F
331
29E
331
2B8
331
2CC
331
2CB
331
2E6
331
2E5
102
}
  0
BLOCK_RECORD
  5
12A
330
1
100
AcDbSymbolTableRecord
100
AcDbBlockTableRecord
  2
*D11
340
0
  0
BLOCK_RECORD
  5
143
330
1
100
AcDbSymbolTableRecord
100
AcDbBlockTableRecord
  2
*D12
340
0
  0
BLOCK_RECORD
  5
15D
330
1
100
AcDbSymbolTableRecord
100
AcDbBlockTableRecord
  2
*D13
340
0
  0
BLOCK_RECORD
  5
179
330
1
100
AcDbSymbolTableRecord
100
AcDbBlockTableRecord
  2
*D14
340
0
  0
BLOCK_RECORD
  5
190
330
1
100
AcDbSymbolTableRecord
100
AcDbBlockTableRecord
  2
*D15
340
0
  0
BLOCK_RECORD
  5
1A7
330
1
100
AcDbSymbolTableRecord
100
AcDbBlockTableRecord
  2
*D16
340
0
  0
BLOCK_RECORD
  5
1C0
330
1
100
AcDbSymbolTableRecord
100
AcDbBlockTableRecord
  2
*D17
340
0
  0
BLOCK_RECORD
  5
1D6
330
1
100
AcDbSymbolTableRecord
100
AcDbBlockTableRecord
  2
*D18
340
0
  0
BLOCK_RECORD
  5
1F0
330
1
100
AcDbSymbolTableRecord
100
AcDbBlockTableRecord
  2
*D19
340
0
  0
BLOCK_RECORD
  5
20B
330
1
100
AcDbSymbolTableRecord
100
AcDbBlockTableRecord
  2
*D20
340
0
  0
BLOCK_RECORD
  5
223
330
1
100
AcDbSymbolTableRecord
100
AcDbBlockTableRecord
  2
*D21
340
0
  0
BLOCK_RECORD
  5
23A
330
1
100
AcDbSymbolTableRecord
100
AcDbBlockTableRecord
  2
*D22
340
0
  0
BLOCK_RECORD
  5
251
330
1
100
AcDbSymbolTableRecord
100
AcDbBlockTableRecord
  2
*D23
340
0
  0
BLOCK_RECORD
  5
26B
330
1
100
AcDbSymbolTableRecord
100
AcDbBlockTableRecord
  2
*D24
340
0
  0
BLOCK_RECORD
  5
280
330
1
100
AcDbSymbolTableRecord
100
AcDbBlockTableRecord
  2
*D25
340
0
  0
BLOCK_RECORD
  5
29A
330
1
100
AcDbSymbolTableRecord
100
AcDbBlockTableRecord
  2
*D26
340
0
  0
BLOCK_RECORD
  5
2B4
330
1
100
AcDbSymbolTableRecord
100
AcDbBlockTableRecord
  2
*D27
340
0
  0
BLOCK_RECORD
  5
2C7
330
1
100
AcDbSymbolTableRecord
100
AcDbBlockTableRecord
  2
*D28
340
0
  0
BLOCK_RECORD
  5
2E1
330
1
100
AcDbSymbolTableRecord
100
AcDbBlockTableRecord
  2
*D29
340
0
  0
ENDTAB
  0
ENDSEC
  0
SECTION
  2
BLOCKS
  0
BLOCK
  5
20
330
1F
100
AcDbEntity
  8
0
100
AcDbBlockBegin
  2
*Model_Space
 70
     0
 71
     0
 10
0.0
 20
0.0
 30
0.0
  3
*Model_Space
  1

  0
ENDBLK
  5
21
330
1F
100
AcDbEntity
  8
0
100
AcDbBlockEnd
  0
BLOCK
  5
1C
330
1B
100
AcDbEntity
 67
     1
  8
0
100
AcDbBlockBegin
  2
*Paper_Space
 70
     0
 71
     0
 10
0.0
 20
0.0
 30
0.0
  3
*Paper_Space
  1

  0
ENDBLK
  5
1D
330
1B
100
AcDbEntity
 67
     1
  8
0
100
AcDbBlockEnd
  0
BLOCK
  5
24
330
23
100
AcDbEntity
  8
0
100
AcDbBlockBegin
  2
*Paper_Space0
 70
     0
 71
     0
 10
0.0
 20
0.0
 30
0.0
  3
*Paper_Space0
  1

  0
ENDBLK
  5
25
330
23
100
AcDbEntity
  8
0
100
AcDbBlockEnd
  0
BLOCK
  5
32
330
31
100
AcDbEntity
  8
0
100
AcDbBlockBegin
  2
注記
 70
     0
 71
     0
 10
0.0
 20
0.0
 30
0.0
  3
注記
  1

  0
MTEXT
  5
35
330
31
100
AcDbEntity
  8
0
  6
Continuous
 62
     7
370
     0
100
AcDbMText
 10
0.2636785918
 20
9.0739778448
 30
0.0
 40
3.5
 41
0.0
 71
     1
 72
     1
  1
１．特記ナキ角部ハ、バリ　カエリノ無キコト。
  7
SLDTEXTSTYLE0
 73
     1
 44
1.0
  0
MTEXT
  5
36
330
31
100
AcDbEntity
  8
0
  6
Continuous
 62
     7
370
     0
100
AcDbMText
 10
0.2636785918
 20
3.5759549983
 30
0.0
 40
3.5
 41
0.0
 71
     1
 72
     1
  1
２．特記ナキ隅部ハ、Ｒ０．４ＭＡＸトスル。
  7
SLDTEXTSTYLE0
 73
     1
 44
1.0
  0
ENDBLK
  5
33
330
31
100
AcDbEntity
  8
0
100
AcDbBlockEnd
  0
BLOCK
  5
38
330
37
100
AcDbEntity
  8
0
100
AcDbBlockBegin
  2
_OPEN30
 70
     0
 71
     0
 10
0.0
 20
0.0
 30
0.0
  3
_OPEN30
  1

  0
LINE
  5
3A
330
37
100
AcDbEntity
  8
SLD-0
  6
Continuous
100
AcDbLine
 10
-1.0
 20
0.267949
 30
0.0
 11
0.0
 21
0.0
 31
0.0
  0
LINE
  5
3B
330
37
100
AcDbEntity
  8
SLD-0
  6
Continuous
100
AcDbLine
 10
0.0
 20
0.0
 30
0.0
 11
-1.0
 21
-0.267949
 31
0.0
  0
LINE
  5
3C
330
37
100
AcDbEntity
  8
SLD-0
  6
Continuous
100
AcDbLine
 10
0.0
 20
0.0
 30
0.0
 11
-1.0
 21
0.0
 31
0.0
  0
ENDBLK
  5
39
330
37
100
AcDbEntity
  8
0
100
AcDbBlockEnd
  0
BLOCK
  5
3E
330
3D
100
AcDbEntity
  8
0
100
AcDbBlockBegin
  2
NOTE44
 70
     0
 71
     0
 10
0.0
 20
0.0
 30
0.0
  3
NOTE44
  1

  0
MTEXT
  5
41
330
3D
100
AcDbEntity
  8
SLD-0
100
AcDbMText
 10
0.0036868829
 20
3.9307027308
 30
0.0
 40
3.5
 41
0.0
 71
     1
 72
     1
  1
M4
  7
SLDTEXTSTYLE1
 73
     1
 44
1.0
  0
ENDBLK
  5
3F
330
3D
100
AcDbEntity
  8
0
100
AcDbBlockEnd
  0
BLOCK
  5
43
330
42
100
AcDbEntity
  8
0
100
AcDbBlockBegin
  2
SW_CENTERMARK0
 70
     0
 71
     0
 10
0.0
 20
0.0
 30
0.0
  3
SW_CENTERMARK0
  1

  0
LINE
  5
45
330
42
100
AcDbEntity
  8
SLD-0
  6
Continuous
 62
   179
100
AcDbLine
 10
89.2901664591
 20
131.5615823955
 30
0.0
 11
89.2901664591
 21
134.0615823955
 31
0.0
  0
LINE
  5
46
330
42
100
AcDbEntity
  8
SLD-0
  6
Continuous
 62
   179
100
AcDbLine
 10
89.2901664591
 20
131.5615823955
 30
0.0
 11
86.7901664591
 21
131.5615823955
 31
0.0
  0
LINE
  5
47
330
42
100
AcDbEntity
  8
SLD-0
  6
Continuous
 62
   179
100
AcDbLine
 10
89.2901664591
 20
131.5615823955
 30
0.0
 11
89.2901664591
 21
129.0615823955
 31
0.0
  0
LINE
  5
48
330
42
100
AcDbEntity
  8
SLD-0
  6
Continuous
 62
   179
100
AcDbLine
 10
89.2901664591
 20
131.5615823955
 30
0.0
 11
91.7901664591
 21
131.5615823955
 31
0.0
  0
LINE
  5
49
330
42
100
AcDbEntity
  8
SLD-0
  6
Continuous
 62
   179
100
AcDbLine
 10
89.2901664591
 20
136.5615823955
 30
0.0
 11
89.2901664591
 21
138.0615823955
 31
0.0
  0
LINE
  5
4A
330
42
100
AcDbEntity
  8
SLD-0
  6
Continuous
 62
   179
100
AcDbLine
 10
84.2901664591
 20
131.5615823955
 30
0.0
 11
82.7901664591
 21
131.5615823955
 31
0.0
  0
LINE
  5
4B
330
42
100
AcDbEntity
  8
SLD-0
  6
Continuous
 62
   179
100
AcDbLine
 10
89.2901664591
 20
126.5615823955
 30
0.0
 11
89.2901664591
 21
125.0615823955
 31
0.0
  0
LINE
  5
4C
330
42
100
AcDbEntity
  8
SLD-0
  6
Continuous
 62
   179
100
AcDbLine
 10
94.2901664591
 20
131.5615823955
 30
0.0
 11
95.7901664591
 21
131.5615823955
 31
0.0
  0
ENDBLK
  5
44
330
42
100
AcDbEntity
  8
0
100
AcDbBlockEnd
  0
BLOCK
  5
4E
330
4D
100
AcDbEntity
  8
0
100
AcDbBlockBegin
  2
SW_CENTERMARK1
 70
     0
 71
     0
 10
0.0
 20
0.0
 30
0.0
  3
SW_CENTERMARK1
  1

  0
LINE
  5
50
330
4D
100
AcDbEntity
  8
SLD-0
  6
Continuous
 62
   179
100
AcDbLine
 10
101.2901664591
 20
131.5615823955
 30
0.0
 11
101.2901664591
 21
134.0615823955
 31
0.0
  0
LINE
  5
51
330
4D
100
AcDbEntity
  8
SLD-0
  6
Continuous
 62
   179
100
AcDbLine
 10
101.2901664591
 20
131.5615823955
 30
0.0
 11
98.7901664591
 21
131.5615823955
 31
0.0
  0
LINE
  5
52
330
4D
100
AcDbEntity
  8
SLD-0
  6
Continuous
 62
   179
100
AcDbLine
 10
101.2901664591
 20
131.5615823955
 30
0.0
 11
101.2901664591
 21
129.0615823955
 31
0.0
  0
LINE
  5
53
330
4D
100
AcDbEntity
  8
SLD-0
  6
Continuous
 62
   179
100
AcDbLine
 10
101.2901664591
 20
131.5615823955
 30
0.0
 11
103.7901664591
 21
131.5615823955
 31
0.0
  0
LINE
  5
54
330
4D
100
AcDbEntity
  8
SLD-0
  6
Continuous
 62
   179
100
AcDbLine
 10
101.2901664591
 20
134.0615823955
 30
0.0
 11
101.2901664591
 21
135.5615823955
 31
0.0
  0
LINE
  5
55
330
4D
100
AcDbEntity
  8
SLD-0
  6
Continuous
 62
   179
100
AcDbLine
 10
98.7901664591
 20
131.5615823955
 30
0.0
 11
97.2901664591
 21
131.5615823955
 31
0.0
  0
LINE
  5
56
330
4D
100
AcDbEntity
  8
SLD-0
  6
Continuous
 62
   179
100
AcDbLine
 10
101.2901664591
 20
129.0615823955
 30
0.0
 11
101.2901664591
 21
127.5615823955
 31
0.0
  0
LINE
  5
57
330
4D
100
AcDbEntity
  8
SLD-0
  6
Continuous
 62
   179
100
AcDbLine
 10
103.7901664591
 20
131.5615823955
 30
0.0
 11
105.2901664591
 21
131.5615823955
 31
0.0
  0
ENDBLK
  5
4F
330
4D
100
AcDbEntity
  8
0
100
AcDbBlockEnd
  0
BLOCK
  5
59
330
58
100
AcDbEntity
  8
0
100
AcDbBlockBegin
  2
SW_CENTERMARK2
 70
     0
 71
     0
 10
0.0
 20
0.0
 30
0.0
  3
SW_CENTERMARK2
  1

  0
LINE
  5
5B
330
58
100
AcDbEntity
  8
SLD-0
  6
Continuous
 62
   179
100
AcDbLine
 10
81.2901664591
 20
195.7200235704
 30
0.0
 11
81.2901664591
 21
198.2200235704
 31
0.0
  0
LINE
  5
5C
330
58
100
AcDbEntity
  8
SLD-0
  6
Continuous
 62
   179
100
AcDbLine
 10
81.2901664591
 20
195.7200235704
 30
0.0
 11
78.7901664591
 21
195.7200235704
 31
0.0
  0
LINE
  5
5D
330
58
100
AcDbEntity
  8
SLD-0
  6
Continuous
 62
   179
100
AcDbLine
 10
81.2901664591
 20
195.7200235704
 30
0.0
 11
81.2901664591
 21
193.2200235704
 31
0.0
  0
LINE
  5
5E
330
58
100
AcDbEntity
  8
SLD-0
  6
Continuous
 62
   179
100
AcDbLine
 10
81.2901664591
 20
195.7200235704
 30
0.0
 11
83.7901664591
 21
195.7200235704
 31
0.0
  0
LINE
  5
5F
330
58
100
AcDbEntity
  8
SLD-0
  6
Continuous
 62
   179
100
AcDbLine
 10
81.2901664591
 20
200.7200235704
 30
0.0
 11
81.2901664591
 21
202.2200235704
 31
0.0
  0
LINE
  5
60
330
58
100
AcDbEntity
  8
SLD-0
  6
Continuous
 62
   179
100
AcDbLine
 10
76.2901664591
 20
195.7200235704
 30
0.0
 11
74.7901664591
 21
195.7200235704
 31
0.0
  0
LINE
  5
61
330
58
100
AcDbEntity
  8
SLD-0
  6
Continuous
 62
   179
100
AcDbLine
 10
81.2901664591
 20
190.7200235704
 30
0.0
 11
81.2901664591
 21
189.2200235704
 31
0.0
  0
LINE
  5
62
330
58
100
AcDbEntity
  8
SLD-0
  6
Continuous
 62
   179
100
AcDbLine
 10
86.2901664591
 20
195.7200235704
 30
0.0
 11
87.7901664591
 21
195.7200235704
 31
0.0
  0
ENDBLK
  5
5A
330
58
100
AcDbEntity
  8
0
100
AcDbBlockEnd
  0
BLOCK
  5
64
330
63
100
AcDbEntity
  8
0
100
AcDbBlockBegin
  2
SW_CENTERMARK3
 70
     0
 71
     0
 10
0.0
 20
0.0
 30
0.0
  3
SW_CENTERMARK3
  1

  0
LINE
  5
66
330
63
100
AcDbEntity
  8
SLD-0
  6
Continuous
 62
   179
100
AcDbLine
 10
101.2901664591
 20
195.7200235704
 30
0.0
 11
101.2901664591
 21
198.2200235704
 31
0.0
  0
LINE
  5
67
330
63
100
AcDbEntity
  8
SLD-0
  6
Continuous
 62
   179
100
AcDbLine
 10
101.2901664591
 20
195.7200235704
 30
0.0
 11
98.7901664591
 21
195.7200235704
 31
0.0
  0
LINE
  5
68
330
63
100
AcDbEntity
  8
SLD-0
  6
Continuous
 62
   179
100
AcDbLine
 10
101.2901664591
 20
195.7200235704
 30
0.0
 11
101.2901664591
 21
193.2200235704
 31
0.0
  0
LINE
  5
69
330
63
100
AcDbEntity
  8
SLD-0
  6
Continuous
 62
   179
100
AcDbLine
 10
101.2901664591
 20
195.7200235704
 30
0.0
 11
103.7901664591
 21
195.7200235704
 31
0.0
  0
LINE
  5
6A
330
63
100
AcDbEntity
  8
SLD-0
  6
Continuous
 62
   179
100
AcDbLine
 10
101.2901664591
 20
198.2200235704
 30
0.0
 11
101.2901664591
 21
199.7200235704
 31
0.0
  0
LINE
  5
6B
330
63
100
AcDbEntity
  8
SLD-0
  6
Continuous
 62
   179
100
AcDbLine
 10
98.7901664591
 20
195.7200235704
 30
0.0
 11
97.2901664591
 21
195.7200235704
 31
0.0
  0
LINE
  5
6C
330
63
100
AcDbEntity
  8
SLD-0
  6
Continuous
 62
   179
100
AcDbLine
 10
101.2901664591
 20
193.2200235704
 30
0.0
 11
101.2901664591
 21
191.7200235704
 31
0.0
  0
LINE
  5
6D
330
63
100
AcDbEntity
  8
SLD-0
  6
Continuous
 62
   179
100
AcDbLine
 10
103.7901664591
 20
195.7200235704
 30
0.0
 11
105.2901664591
 21
195.7200235704
 31
0.0
  0
ENDBLK
  5
65
330
63
100
AcDbEntity
  8
0
100
AcDbBlockEnd
  0
BLOCK
  5
6F
330
6E
100
AcDbEntity
  8
0
100
AcDbBlockBegin
  2
SW_CENTERMARK4
 70
     0
 71
     0
 10
0.0
 20
0.0
 30
0.0
  3
SW_CENTERMARK4
  1

  0
LINE
  5
71
330
6E
100
AcDbEntity
  8
SLD-0
  6
Continuous
 62
   179
100
AcDbLine
 10
152.0568297136
 20
131.5615823955
 30
0.0
 11
152.0568297136
 21
134.0615823955
 31
0.0
  0
LINE
  5
72
330
6E
100
AcDbEntity
  8
SLD-0
  6
Continuous
 62
   179
100
AcDbLine
 10
152.0568297136
 20
131.5615823955
 30
0.0
 11
149.5568297136
 21
131.5615823955
 31
0.0
  0
LINE
  5
73
330
6E
100
AcDbEntity
  8
SLD-0
  6
Continuous
 62
   179
100
AcDbLine
 10
152.0568297136
 20
131.5615823955
 30
0.0
 11
152.0568297136
 21
129.0615823955
 31
0.0
  0
LINE
  5
74
330
6E
100
AcDbEntity
  8
SLD-0
  6
Continuous
 62
   179
100
AcDbLine
 10
152.0568297136
 20
131.5615823955
 30
0.0
 11
154.5568297136
 21
131.5615823955
 31
0.0
  0
LINE
  5
75
330
6E
100
AcDbEntity
  8
SLD-0
  6
Continuous
 62
   179
100
AcDbLine
 10
152.0568297136
 20
134.0615823955
 30
0.0
 11
152.0568297136
 21
135.3115823955
 31
0.0
  0
LINE
  5
76
330
6E
100
AcDbEntity
  8
SLD-0
  6
Continuous
 62
   179
100
AcDbLine
 10
149.5568297136
 20
131.5615823955
 30
0.0
 11
148.3068297136
 21
131.5615823955
 31
0.0
  0
LINE
  5
77
330
6E
100
AcDbEntity
  8
SLD-0
  6
Continuous
 62
   179
100
AcDbLine
 10
152.0568297136
 20
129.0615823955
 30
0.0
 11
152.0568297136
 21
127.8115823955
 31
0.0
  0
LINE
  5
78
330
6E
100
AcDbEntity
  8
SLD-0
  6
Continuous
 62
   179
100
AcDbLine
 10
154.5568297136
 20
131.5615823955
 30
0.0
 11
155.8068297136
 21
131.5615823955
 31
0.0
  0
ENDBLK
  5
70
330
6E
100
AcDbEntity
  8
0
100
AcDbBlockEnd
  0
BLOCK
  5
117
330
110
100
AcDbEntity
  8
0
100
AcDbBlockBegin
  2
*D9
 70
     1
 71
     0
 10
0.0
 20
0.0
 30
0.0
  3
*D9
  1

  0
LINE
  5
11D
330
110
100
AcDbEntity
  8
SLD-0
 62
     7
100
AcDbLine
 10
86.9741907649
 20
134.8229098221
 30
0.0
 11
76.7975303488
 21
149.1535531918
 31
0.0
  0
LINE
  5
11E
330
110
100
AcDbEntity
  8
SLD-0
 62
     7
100
AcDbLine
 10
76.7975303488
 20
149.1535531918
 30
0.0
 11
47.8147558401
 21
149.1535531918
 31
0.0
  0
LINE
  5
11F
330
110
100
AcDbEntity
  8
SLD-0
 62
     7
100
AcDbLine
 10
85.8926110612
 20
137.7343279206
 30
0.0
 11
86.9741907649
 21
134.8229098221
 31
0.0
  0
LINE
  5
120
330
110
100
AcDbEntity
  8
SLD-0
 62
     7
100
AcDbLine
 10
86.9741907649
 20
134.8229098221
 30
0.0
 11
84.5818069273
 21
136.8034828636
 31
0.0
  0
LINE
  5
121
330
110
100
AcDbEntity
  8
SLD-0
 62
     7
100
AcDbLine
 10
86.9741907649
 20
134.8229098221
 30
0.0
 11
85.2372089942
 21
137.2689053921
 31
0.0
  0
MTEXT
  5
122
330
110
100
AcDbEntity
  8
SLD-0
 62
     7
100
AcDbMText
 10
47.6522558401
 20
153.680246655
 30
0.1
 40
3.5
 41
0.0
 71
     1
 72
     1
  1
%%c
  7
SLDTEXTSTYLE0
 73
     1
 44
1.0
  0
MTEXT
  5
123
330
110
100
AcDbEntity
  8
SLD-0
 62
     7
100
AcDbMText
 10
53.2700571142
 20
153.6802468878
 30
0.1
 40
3.5
 41
0.0
 71
     1
 72
     1
  1
8
  7
SLDTEXTSTYLE0
 73
     1
 44
1.0
  0
MTEXT
  5
124
330
110
100
AcDbEntity
  8
SLD-0
 62
     7
100
AcDbMText
 10
57.3397599901
 20
153.6802468878
 30
0.1
 40
3.5
 41
0.0
 71
     1
 72
     1
  1
H7
  7
SLDTEXTSTYLE0
 73
     1
 44
1.0
  0
MTEXT
  5
125
330
110
100
AcDbEntity
  8
SLD-0
 62
     7
100
AcDbMText
 10
63.8481175077
 20
152.4831668655
 30
0.1
 40
2.1
 41
0.0
 71
     1
 72
     1
  1
0
  7
SLDTEXTSTYLE0
 73
     1
 44
1.0
  0
MTEXT
  5
126
330
110
100
AcDbEntity
  8
SLD-0
 62
     7
100
AcDbMText
 10
62.6287901869
 20
154.9257803621
 30
0.1
 40
2.1
 41
0.0
 71
     1
 72
     1
  1
+
  7
SLDTEXTSTYLE0
 73
     1
 44
1.0
  0
MTEXT
  5
127
330
110
100
AcDbEntity
  8
SLD-0
 62
     7
100
AcDbMText
 10
63.8481175077
 20
154.9257803621
 30
0.1
 40
2.1
 41
0.0
 71
     1
 72
     1
  1
0.015
  7
SLDTEXTSTYLE0
 73
     1
 44
1.0
  0
MTEXT
  5
128
330
110
100
AcDbEntity
  8
SLD-0
 62
     7
100
AcDbMText
 10
69.9566306765
 20
153.6802468878
 30
0.1
 40
3.5
 41
0.0
 71
     1
 72
     1
  1
　 
  7
SLDTEXTSTYLE0
 73
     1
 44
1.0
  0
ENDBLK
  5
118
330
110
100
AcDbEntity
  8
0
100
AcDbBlockEnd
  0
BLOCK
  5
11B
330
11A
100
AcDbEntity
  8
0
100
AcDbBlockBegin
  2
_None
 70
     0
 71
     0
 10
0.0
 20
0.0
 30
0.0
  3
_None
  1

  0
ENDBLK
  5
11C
330
11A
100
AcDbEntity
  8
0
100
AcDbBlockEnd
  0
BLOCK
  5
135
330
12A
100
AcDbEntity
  8
0
100
AcDbBlockBegin
  2
*D11
 70
     1
 71
     0
 10
0.0
 20
0.0
 30
0.0
  3
*D11
  1

  0
LINE
  5
138
330
12A
100
AcDbEntity
  8
SLD-0
 62
     7
100
AcDbLine
 10
107.2901664591
 20
125.5615823955
 30
0.0
 11
129.2835502499
 21
125.5615823955
 31
0.0
  0
LINE
  5
139
330
12A
100
AcDbEntity
  8
SLD-0
 62
     7
100
AcDbLine
 10
107.2901664591
 20
137.5615823955
 30
0.0
 11
129.2835502499
 21
137.5615823955
 31
0.0
  0
LINE
  5
13A
330
12A
100
AcDbEntity
  8
SLD-0
 62
     7
100
AcDbLine
 10
128.2835502499
 20
125.5615823955
 30
0.0
 11
128.2835502499
 21
137.5615823955
 31
0.0
  0
LINE
  5
13B
330
12A
100
AcDbEntity
  8
SLD-0
 62
     7
100
AcDbLine
 10
129.0873972499
 20
128.5615823955
 30
0.0
 11
128.2835502499
 21
125.5615823955
 31
0.0
  0
LINE
  5
13C
330
12A
100
AcDbEntity
  8
SLD-0
 62
     7
100
AcDbLine
 10
128.2835502499
 20
125.5615823955
 30
0.0
 11
127.4797032499
 21
128.5615823955
 31
0.0
  0
LINE
  5
13D
330
12A
100
AcDbEntity
  8
SLD-0
 62
     7
100
AcDbLine
 10
128.2835502499
 20
125.5615823955
 30
0.0
 11
128.2835502499
 21
128.5615823955
 31
0.0
  0
LINE
  5
13E
330
12A
100
AcDbEntity
  8
SLD-0
 62
     7
100
AcDbLine
 10
127.4797032499
 20
134.5615823955
 30
0.0
 11
128.2835502499
 21
137.5615823955
 31
0.0
  0
LINE
  5
13F
330
12A
100
AcDbEntity
  8
SLD-0
 62
     7
100
AcDbLine
 10
128.2835502499
 20
137.5615823955
 30
0.0
 11
129.0873972499
 21
134.5615823955
 31
0.0
  0
LINE
  5
140
330
12A
100
AcDbEntity
  8
SLD-0
 62
     7
100
AcDbLine
 10
128.2835502499
 20
137.5615823955
 30
0.0
 11
128.2835502499
 21
134.5615823955
 31
0.0
  0
MTEXT
  5
141
330
12A
100
AcDbEntity
  8
SLD-0
 62
     7
100
AcDbMText
 10
123.756856554
 20
129.5267309575
 30
0.1
 40
3.5
 41
0.0
 71
     1
 72
     1
  1
12
  7
SLDTEXTSTYLE0
 11
6.123031769111886E-17
 21
1.0
 31
0.0
 73
     1
 44
1.0
  0
ENDBLK
  5
136
330
12A
100
AcDbEntity
  8
0
100
AcDbBlockEnd
  0
BLOCK
  5
14E
330
143
100
AcDbEntity
  8
0
100
AcDbBlockBegin
  2
*D12
 70
     1
 71
     0
 10
0.0
 20
0.0
 30
0.0
  3
*D12
  1

  0
LINE
  5
150
330
143
100
AcDbEntity
  8
SLD-0
 62
     7
100
AcDbLine
 10
88.2901664591
 20
131.5615823955
 30
0.0
 11
58.7818436634
 21
131.5615823955
 31
0.0
  0
LINE
  5
151
330
143
100
AcDbEntity
  8
SLD-0
 62
     7
100
AcDbLine
 10
74.2901664591
 20
125.5615823955
 30
0.0
 11
58.7818436634
 21
125.5615823955
 31
0.0
  0
LINE
  5
152
330
143
100
AcDbEntity
  8
SLD-0
 62
     7
100
AcDbLine
 10
59.7818436634
 20
131.5615823955
 30
0.0
 11
59.7818436634
 21
136.5615823955
 31
0.0
  0
LINE
  5
153
330
143
100
AcDbEntity
  8
SLD-0
 62
     7
100
AcDbLine
 10
59.7818436634
 20
131.5615823955
 30
0.0
 11
59.7818436634
 21
125.5615823955
 31
0.0
  0
LINE
  5
154
330
143
100
AcDbEntity
  8
SLD-0
 62
     7
100
AcDbLine
 10
59.7818436634
 20
125.5615823955
 30
0.0
 11
59.7818436634
 21
120.5615823955
 31
0.0
  0
LINE
  5
155
330
143
100
AcDbEntity
  8
SLD-0
 62
     7
100
AcDbLine
 10
60.5856906634
 20
134.5615823955
 30
0.0
 11
59.7818436634
 21
131.5615823955
 31
0.0
  0
LINE
  5
156
330
143
100
AcDbEntity
  8
SLD-0
 62
     7
100
AcDbLine
 10
59.7818436634
 20
131.5615823955
 30
0.0
 11
58.9779966634
 21
134.5615823955
 31
0.0
  0
LINE
  5
157
330
143
100
AcDbEntity
  8
SLD-0
 62
     7
100
AcDbLine
 10
59.7818436634
 20
131.5615823955
 30
0.0
 11
59.7818436634
 21
134.5615823955
 31
0.0
  0
LINE
  5
158
330
143
100
AcDbEntity
  8
SLD-0
 62
     7
100
AcDbLine
 10
58.9779966634
 20
122.5615823955
 30
0.0
 11
59.7818436634
 21
125.5615823955
 31
0.0
  0
LINE
  5
159
330
143
100
AcDbEntity
  8
SLD-0
 62
     7
100
AcDbLine
 10
59.7818436634
 20
125.5615823955
 30
0.0
 11
60.5856906634
 21
122.5615823955
 31
0.0
  0
LINE
  5
15A
330
143
100
AcDbEntity
  8
SLD-0
 62
     7
100
AcDbLine
 10
59.7818436634
 20
125.5615823955
 30
0.0
 11
59.7818436634
 21
122.5615823955
 31
0.0
  0
MTEXT
  5
15B
330
143
100
AcDbEntity
  8
SLD-0
 62
     7
100
AcDbMText
 10
55.2551499674
 20
127.5441566765
 30
0.1
 40
3.5
 41
0.0
 71
     1
 72
     1
  1
6
  7
SLDTEXTSTYLE0
 11
6.123031769111886E-17
 21
1.0
 31
0.0
 73
     1
 44
1.0
  0
ENDBLK
  5
14F
330
143
100
AcDbEntity
  8
0
100
AcDbBlockEnd
  0
BLOCK
  5
169
330
15D
100
AcDbEntity
  8
0
100
AcDbBlockBegin
  2
*D13
 70
     1
 71
     0
 10
0.0
 20
0.0
 30
0.0
  3
*D13
  1

  0
LINE
  5
16C
330
15D
100
AcDbEntity
  8
SLD-0
 62
     7
100
AcDbLine
 10
74.2901664591
 20
131.2615823955
 30
0.0
 11
66.8357245911
 21
131.2615823955
 31
0.0
  0
LINE
  5
16D
330
15D
100
AcDbEntity
  8
SLD-0
 62
     7
100
AcDbLine
 10
74.2901664591
 20
131.8615823955
 30
0.0
 11
66.8357245911
 21
131.8615823955
 31
0.0
  0
LINE
  5
16E
330
15D
100
AcDbEntity
  8
SLD-0
 62
     7
100
AcDbLine
 10
67.8357245911
 20
131.2615823955
 30
0.0
 11
67.8357245911
 21
126.2615823955
 31
0.0
  0
LINE
  5
16F
330
15D
100
AcDbEntity
  8
SLD-0
 62
     7
100
AcDbLine
 10
67.8357245911
 20
131.2615823955
 30
0.0
 11
67.8357245911
 21
131.8615823955
 31
0.0
  0
LINE
  5
170
330
15D
100
AcDbEntity
  8
SLD-0
 62
     7
100
AcDbLine
 10
67.8357245911
 20
131.8615823955
 30
0.0
 11
67.8357245911
 21
141.9450680517
 31
0.0
  0
LINE
  5
171
330
15D
100
AcDbEntity
  8
SLD-0
 62
     7
100
AcDbLine
 10
67.0318775911
 20
128.2615823955
 30
0.0
 11
67.8357245911
 21
131.2615823955
 31
0.0
  0
LINE
  5
172
330
15D
100
AcDbEntity
  8
SLD-0
 62
     7
100
AcDbLine
 10
67.8357245911
 20
131.2615823955
 30
0.0
 11
68.6395715911
 21
128.2615823955
 31
0.0
  0
LINE
  5
173
330
15D
100
AcDbEntity
  8
SLD-0
 62
     7
100
AcDbLine
 10
67.8357245911
 20
131.2615823955
 30
0.0
 11
67.8357245911
 21
128.2615823955
 31
0.0
  0
LINE
  5
174
330
15D
100
AcDbEntity
  8
SLD-0
 62
     7
100
AcDbLine
 10
68.6395715911
 20
134.8615823955
 30
0.0
 11
67.8357245911
 21
131.8615823955
 31
0.0
  0
LINE
  5
175
330
15D
100
AcDbEntity
  8
SLD-0
 62
     7
100
AcDbLine
 10
67.8357245911
 20
131.8615823955
 30
0.0
 11
67.0318775911
 21
134.8615823955
 31
0.0
  0
LINE
  5
176
330
15D
100
AcDbEntity
  8
SLD-0
 62
     7
100
AcDbLine
 10
67.8357245911
 20
131.8615823955
 30
0.0
 11
67.8357245911
 21
134.8615823955
 31
0.0
  0
MTEXT
  5
177
330
15D
100
AcDbEntity
  8
SLD-0
 62
     7
100
AcDbMText
 10
63.3090308951
 20
134.2490548829
 30
0.1
 40
3.5
 41
0.0
 71
     1
 72
     1
  1
0.6
  7
SLDTEXTSTYLE0
 11
6.123031769111886E-17
 21
1.0
 31
0.0
 73
     1
 44
1.0
  0
ENDBLK
  5
16A
330
15D
100
AcDbEntity
  8
0
100
AcDbBlockEnd
  0
BLOCK
  5
183
330
179
100
AcDbEntity
  8
0
100
AcDbBlockBegin
  2
*D14
 70
     1
 71
     0
 10
0.0
 20
0.0
 30
0.0
  3
*D14
  1

  0
LINE
  5
185
330
179
100
AcDbEntity
  8
SLD-0
100
AcDbLine
 10
89.2901664591
 20
139.0615823955
 30
0.0
 11
89.2901664591
 21
158.0810953571
 31
0.0
  0
LINE
  5
186
330
179
100
AcDbEntity
  8
SLD-0
100
AcDbLine
 10
106.2901664591
 20
138.0615823955
 30
0.0
 11
106.2901664591
 21
158.0810953571
 31
0.0
  0
LINE
  5
187
330
179
100
AcDbEntity
  8
SLD-0
100
AcDbLine
 10
89.2901664591
 20
157.0810953571
 30
0.0
 11
106.2901664591
 21
157.0810953571
 31
0.0
  0
LINE
  5
188
330
179
100
AcDbEntity
  8
SLD-0
100
AcDbLine
 10
92.2901664591
 20
156.2772483571
 30
0.0
 11
89.2901664591
 21
157.0810953571
 31
0.0
  0
LINE
  5
189
330
179
100
AcDbEntity
  8
SLD-0
100
AcDbLine
 10
89.2901664591
 20
157.0810953571
 30
0.0
 11
92.2901664591
 21
157.8849423571
 31
0.0
  0
LINE
  5
18A
330
179
100
AcDbEntity
  8
SLD-0
100
AcDbLine
 10
89.2901664591
 20
157.0810953571
 30
0.0
 11
92.2901664591
 21
157.0810953571
 31
0.0
  0
LINE
  5
18B
330
179
100
AcDbEntity
  8
SLD-0
100
AcDbLine
 10
103.2901664591
 20
157.8849423571
 30
0.0
 11
106.2901664591
 21
157.0810953571
 31
0.0
  0
LINE
  5
18C
330
179
100
AcDbEntity
  8
SLD-0
100
AcDbLine
 10
106.2901664591
 20
157.0810953571
 30
0.0
 11
103.2901664591
 21
156.2772483571
 31
0.0
  0
LINE
  5
18D
330
179
100
AcDbEntity
  8
SLD-0
100
AcDbLine
 10
106.2901664591
 20
157.0810953571
 30
0.0
 11
103.2901664591
 21
157.0810953571
 31
0.0
  0
MTEXT
  5
18E
330
179
100
AcDbEntity
  8
SLD-0
100
AcDbMText
 10
95.7553150211
 20
161.6077890531
 30
0.1
 40
3.5
 41
0.0
 71
     1
 72
     1
  1
17
  7
SLDTEXTSTYLE0
 73
     1
 44
1.0
  0
ENDBLK
  5
184
330
179
100
AcDbEntity
  8
0
100
AcDbBlockEnd
  0
BLOCK
  5
19A
330
190
100
AcDbEntity
  8
0
100
AcDbBlockBegin
  2
*D15
 70
     1
 71
     0
 10
0.0
 20
0.0
 30
0.0
  3
*D15
  1

  0
LINE
  5
19C
330
190
100
AcDbEntity
  8
SLD-0
 62
     7
100
AcDbLine
 10
106.2901664591
 20
125.0615823955
 30
0.0
 11
106.2901664591
 21
108.211019303
 31
0.0
  0
LINE
  5
19D
330
190
100
AcDbEntity
  8
SLD-0
 62
     7
100
AcDbLine
 10
95.2901664591
 20
130.2615823955
 30
0.0
 11
95.2901664591
 21
108.211019303
 31
0.0
  0
LINE
  5
19E
330
190
100
AcDbEntity
  8
SLD-0
 62
     7
100
AcDbLine
 10
106.2901664591
 20
109.211019303
 30
0.0
 11
95.2901664591
 21
109.211019303
 31
0.0
  0
LINE
  5
19F
330
190
100
AcDbEntity
  8
SLD-0
 62
     7
100
AcDbLine
 10
103.2901664591
 20
110.014866303
 30
0.0
 11
106.2901664591
 21
109.211019303
 31
0.0
  0
LINE
  5
1A0
330
190
100
AcDbEntity
  8
SLD-0
 62
     7
100
AcDbLine
 10
106.2901664591
 20
109.211019303
 30
0.0
 11
103.2901664591
 21
108.407172303
 31
0.0
  0
LINE
  5
1A1
330
190
100
AcDbEntity
  8
SLD-0
 62
     7
100
AcDbLine
 10
106.2901664591
 20
109.211019303
 30
0.0
 11
103.2901664591
 21
109.211019303
 31
0.0
  0
LINE
  5
1A2
330
190
100
AcDbEntity
  8
SLD-0
 62
     7
100
AcDbLine
 10
98.2901664591
 20
108.407172303
 30
0.0
 11
95.2901664591
 21
109.211019303
 31
0.0
  0
LINE
  5
1A3
330
190
100
AcDbEntity
  8
SLD-0
 62
     7
100
AcDbLine
 10
95.2901664591
 20
109.211019303
 30
0.0
 11
98.2901664591
 21
110.014866303
 31
0.0
  0
LINE
  5
1A4
330
190
100
AcDbEntity
  8
SLD-0
 62
     7
100
AcDbLine
 10
95.2901664591
 20
109.211019303
 30
0.0
 11
98.2901664591
 21
109.211019303
 31
0.0
  0
MTEXT
  5
1A5
330
190
100
AcDbEntity
  8
SLD-0
 62
     7
100
AcDbMText
 10
98.7553150211
 20
113.7377129989
 30
0.1
 40
3.5
 41
0.0
 71
     1
 72
     1
  1
11
  7
SLDTEXTSTYLE0
 73
     1
 44
1.0
  0
ENDBLK
  5
19B
330
190
100
AcDbEntity
  8
0
100
AcDbBlockEnd
  0
BLOCK
  5
1B1
330
1A7
100
AcDbEntity
  8
0
100
AcDbBlockBegin
  2
*D16
 70
     1
 71
     0
 10
0.0
 20
0.0
 30
0.0
  3
*D16
  1

  0
ARC
  5
1B3
330
1A7
100
AcDbEntity
  8
SLD-0
 62
     7
100
AcDbCircle
 10
85.7375178971
 20
111.2458707409
 30
0.0
 40
4.550066139399999
100
AcDbArc
 50
153.4349488229
 51
206.5650511771
  0
ARC
  5
1B4
330
1A7
100
AcDbEntity
  8
SLD-0
 62
     7
100
AcDbCircle
 10
84.8428150211
 20
111.2458707409
 30
0.0
 40
4.550066139399999
100
AcDbArc
 50
333.4349488229
 51
26.5650511771
  0
LINE
  5
1B5
330
1A7
100
AcDbEntity
  8
SLD-0
 62
     7
100
AcDbLine
 10
95.2901664591
 20
130.2615823955
 30
0.0
 11
95.2901664591
 21
108.211019303
 31
0.0
  0
LINE
  5
1B6
330
1A7
100
AcDbEntity
  8
SLD-0
 62
     7
100
AcDbLine
 10
75.2901664591
 20
125.0615823955
 30
0.0
 11
75.2901664591
 21
108.211019303
 31
0.0
  0
LINE
  5
1B7
330
1A7
100
AcDbEntity
  8
SLD-0
 62
     7
100
AcDbLine
 10
95.2901664591
 20
109.211019303
 30
0.0
 11
75.2901664591
 21
109.211019303
 31
0.0
  0
LINE
  5
1B8
330
1A7
100
AcDbEntity
  8
SLD-0
 62
     7
100
AcDbLine
 10
92.2901664591
 20
110.014866303
 30
0.0
 11
95.2901664591
 21
109.211019303
 31
0.0
  0
LINE
  5
1B9
330
1A7
100
AcDbEntity
  8
SLD-0
 62
     7
100
AcDbLine
 10
95.2901664591
 20
109.211019303
 30
0.0
 11
92.2901664591
 21
108.407172303
 31
0.0
  0
LINE
  5
1BA
330
1A7
100
AcDbEntity
  8
SLD-0
 62
     7
100
AcDbLine
 10
95.2901664591
 20
109.211019303
 30
0.0
 11
92.2901664591
 21
109.211019303
 31
0.0
  0
LINE
  5
1BB
330
1A7
100
AcDbEntity
  8
SLD-0
 62
     7
100
AcDbLine
 10
78.2901664591
 20
108.407172303
 30
0.0
 11
75.2901664591
 21
109.211019303
 31
0.0
  0
LINE
  5
1BC
330
1A7
100
AcDbEntity
  8
SLD-0
 62
     7
100
AcDbLine
 10
75.2901664591
 20
109.211019303
 30
0.0
 11
78.2901664591
 21
110.014866303
 31
0.0
  0
LINE
  5
1BD
330
1A7
100
AcDbEntity
  8
SLD-0
 62
     7
100
AcDbLine
 10
75.2901664591
 20
109.211019303
 30
0.0
 11
78.2901664591
 21
109.211019303
 31
0.0
  0
MTEXT
  5
1BE
330
1A7
100
AcDbEntity
  8
SLD-0
 62
     7
100
AcDbMText
 10
83.2553150211
 20
113.7377129989
 30
0.1
 40
3.5
 41
0.0
 71
     1
 72
     1
  1
20
  7
SLDTEXTSTYLE0
 73
     1
 44
1.0
  0
ENDBLK
  5
1B2
330
1A7
100
AcDbEntity
  8
0
100
AcDbBlockEnd
  0
BLOCK
  5
1C7
330
1C0
100
AcDbEntity
  8
0
100
AcDbBlockBegin
  2
*D17
 70
     1
 71
     0
 10
0.0
 20
0.0
 30
0.0
  3
*D17
  1

  0
LINE
  5
1CA
330
1C0
100
AcDbEntity
  8
SLD-0
 62
     7
100
AcDbLine
 10
101.8508917033
 20
130.1703285723
 30
0.0
 11
109.1603489573
 21
112.0343333484
 31
0.0
  0
LINE
  5
1CB
330
1C0
100
AcDbEntity
  8
SLD-0
 62
     7
100
AcDbLine
 10
109.1603489573
 20
112.0343333484
 30
0.0
 11
125.9300559833
 21
112.0343333484
 31
0.0
  0
LINE
  5
1CC
330
1C0
100
AcDbEntity
  8
SLD-0
 62
     7
100
AcDbLine
 10
102.2267720503
 20
127.087329389
 30
0.0
 11
101.8508917033
 21
130.1703285723
 31
0.0
  0
LINE
  5
1CD
330
1C0
100
AcDbEntity
  8
SLD-0
 62
     7
100
AcDbLine
 10
101.8508917033
 20
130.1703285723
 30
0.0
 11
103.717912333
 21
127.6883124628
 31
0.0
  0
LINE
  5
1CE
330
1C0
100
AcDbEntity
  8
SLD-0
 62
     7
100
AcDbLine
 10
101.8508917033
 20
130.1703285723
 30
0.0
 11
102.9723421916
 21
127.3878209259
 31
0.0
  0
MTEXT
  5
1CF
330
1C0
100
AcDbEntity
  8
SLD-0
 62
     7
100
AcDbMText
 10
110.5853489573
 20
116.5610268116
 30
0.1
 40
3.5
 41
0.0
 71
     1
 72
     1
  1
%%c
  7
SLDTEXTSTYLE0
 73
     1
 44
1.0
  0
MTEXT
  5
1D0
330
1C0
100
AcDbEntity
  8
SLD-0
 62
     7
100
AcDbMText
 10
116.2031502314
 20
116.5610270444
 30
0.1
 40
3.5
 41
0.0
 71
     1
 72
     1
  1
3
  7
SLDTEXTSTYLE0
 73
     1
 44
1.0
  0
MTEXT
  5
1D1
330
1C0
100
AcDbEntity
  8
SLD-0
 62
     7
100
AcDbMText
 10
119.4573289902
 20
115.3639470221
 30
0.1
 40
2.1
 41
0.0
 71
     1
 72
     1
  1
+
  7
SLDTEXTSTYLE0
 73
     1
 44
1.0
  0
MTEXT
  5
1D2
330
1C0
100
AcDbEntity
  8
SLD-0
 62
     7
100
AcDbMText
 10
120.676656311
 20
115.3639470221
 30
0.1
 40
2.1
 41
0.0
 71
     1
 72
     1
  1
0.1
  7
SLDTEXTSTYLE0
 73
     1
 44
1.0
  0
MTEXT
  5
1D3
330
1C0
100
AcDbEntity
  8
SLD-0
 62
     7
100
AcDbMText
 10
119.4573289902
 20
117.8065605187
 30
0.1
 40
2.1
 41
0.0
 71
     1
 72
     1
  1
+
  7
SLDTEXTSTYLE0
 73
     1
 44
1.0
  0
MTEXT
  5
1D4
330
1C0
100
AcDbEntity
  8
SLD-0
 62
     7
100
AcDbMText
 10
120.676656311
 20
117.8065605187
 30
0.1
 40
2.1
 41
0.0
 71
     1
 72
     1
  1
0.2
  7
SLDTEXTSTYLE0
 73
     1
 44
1.0
  0
ENDBLK
  5
1C8
330
1C0
100
AcDbEntity
  8
0
100
AcDbBlockEnd
  0
BLOCK
  5
1E1
330
1D6
100
AcDbEntity
  8
0
100
AcDbBlockBegin
  2
*D18
 70
     1
 71
     0
 10
0.0
 20
0.0
 30
0.0
  3
*D18
  1

  0
LINE
  5
1E3
330
1D6
100
AcDbEntity
  8
SLD-0
 62
     7
100
AcDbLine
 10
101.2901664591
 20
126.5615823955
 30
0.0
 11
101.2901664591
 21
147.9477206673
 31
0.0
  0
LINE
  5
1E4
330
1D6
100
AcDbEntity
  8
SLD-0
 62
     7
100
AcDbLine
 10
106.2901664591
 20
138.0615823955
 30
0.0
 11
106.2901664591
 21
147.9477206673
 31
0.0
  0
LINE
  5
1E5
330
1D6
100
AcDbEntity
  8
SLD-0
 62
     7
100
AcDbLine
 10
101.2901664591
 20
146.9477206673
 30
0.0
 11
96.2901664591
 21
146.9477206673
 31
0.0
  0
LINE
  5
1E6
330
1D6
100
AcDbEntity
  8
SLD-0
 62
     7
100
AcDbLine
 10
101.2901664591
 20
146.9477206673
 30
0.0
 11
106.2901664591
 21
146.9477206673
 31
0.0
  0
LINE
  5
1E7
330
1D6
100
AcDbEntity
  8
SLD-0
 62
     7
100
AcDbLine
 10
106.2901664591
 20
146.9477206673
 30
0.0
 11
111.2901664591
 21
146.9477206673
 31
0.0
  0
LINE
  5
1E8
330
1D6
100
AcDbEntity
  8
SLD-0
 62
     7
100
AcDbLine
 10
98.2901664591
 20
147.7515676673
 30
0.0
 11
101.2901664591
 21
146.9477206673
 31
0.0
  0
LINE
  5
1E9
330
1D6
100
AcDbEntity
  8
SLD-0
 62
     7
100
AcDbLine
 10
101.2901664591
 20
146.9477206673
 30
0.0
 11
98.2901664591
 21
146.1438736673
 31
0.0
  0
LINE
  5
1EA
330
1D6
100
AcDbEntity
  8
SLD-0
 62
     7
100
AcDbLine
 10
101.2901664591
 20
146.9477206673
 30
0.0
 11
98.2901664591
 21
146.9477206673
 31
0.0
  0
LINE
  5
1EB
330
1D6
100
AcDbEntity
  8
SLD-0
 62
     7
100
AcDbLine
 10
109.2901664591
 20
146.1438736673
 30
0.0
 11
106.2901664591
 21
146.9477206673
 31
0.0
  0
LINE
  5
1EC
330
1D6
100
AcDbEntity
  8
SLD-0
 62
     7
100
AcDbLine
 10
106.2901664591
 20
146.9477206673
 30
0.0
 11
109.2901664591
 21
147.7515676673
 31
0.0
  0
LINE
  5
1ED
330
1D6
100
AcDbEntity
  8
SLD-0
 62
     7
100
AcDbLine
 10
106.2901664591
 20
146.9477206673
 30
0.0
 11
109.2901664591
 21
146.9477206673
 31
0.0
  0
MTEXT
  5
1EE
330
1D6
100
AcDbEntity
  8
SLD-0
 62
     7
100
AcDbMText
 10
102.7727407401
 20
151.4744143633
 30
0.1
 40
3.5
 41
0.0
 71
     1
 72
     1
  1
5
  7
SLDTEXTSTYLE0
 73
     1
 44
1.0
  0
ENDBLK
  5
1E2
330
1D6
100
AcDbEntity
  8
0
100
AcDbBlockEnd
  0
BLOCK
  5
1FB
330
1F0
100
AcDbEntity
  8
0
100
AcDbBlockBegin
  2
*D19
 70
     1
 71
     0
 10
0.0
 20
0.0
 30
0.0
  3
*D19
  1

  0
LINE
  5
1FE
330
1F0
100
AcDbEntity
  8
SLD-0
 62
     7
100
AcDbLine
 10
106.2901664591
 20
131.5615823955
 30
0.0
 11
121.3656274082
 21
131.5615823955
 31
0.0
  0
LINE
  5
1FF
330
1F0
100
AcDbEntity
  8
SLD-0
 62
     7
100
AcDbLine
 10
106.7901664591
 20
125.5615823955
 30
0.0
 11
121.3656274082
 21
125.5615823955
 31
0.0
  0
LINE
  5
200
330
1F0
100
AcDbEntity
  8
SLD-0
 62
     7
100
AcDbLine
 10
120.3656274082
 20
131.5615823955
 30
0.0
 11
120.3656274082
 21
136.5615823955
 31
0.0
  0
LINE
  5
201
330
1F0
100
AcDbEntity
  8
SLD-0
 62
     7
100
AcDbLine
 10
120.3656274082
 20
131.5615823955
 30
0.0
 11
120.3656274082
 21
125.5615823955
 31
0.0
  0
LINE
  5
202
330
1F0
100
AcDbEntity
  8
SLD-0
 62
     7
100
AcDbLine
 10
120.3656274082
 20
125.5615823955
 30
0.0
 11
120.3656274082
 21
120.5615823955
 31
0.0
  0
LINE
  5
203
330
1F0
100
AcDbEntity
  8
SLD-0
 62
     7
100
AcDbLine
 10
121.1694744082
 20
134.5615823955
 30
0.0
 11
120.3656274082
 21
131.5615823955
 31
0.0
  0
LINE
  5
204
330
1F0
100
AcDbEntity
  8
SLD-0
 62
     7
100
AcDbLine
 10
120.3656274082
 20
131.5615823955
 30
0.0
 11
119.5617804082
 21
134.5615823955
 31
0.0
  0
LINE
  5
205
330
1F0
100
AcDbEntity
  8
SLD-0
 62
     7
100
AcDbLine
 10
120.3656274082
 20
131.5615823955
 30
0.0
 11
120.3656274082
 21
134.5615823955
 31
0.0
  0
LINE
  5
206
330
1F0
100
AcDbEntity
  8
SLD-0
 62
     7
100
AcDbLine
 10
119.5617804082
 20
122.5615823955
 30
0.0
 11
120.3656274082
 21
125.5615823955
 31
0.0
  0
LINE
  5
207
330
1F0
100
AcDbEntity
  8
SLD-0
 62
     7
100
AcDbLine
 10
120.3656274082
 20
125.5615823955
 30
0.0
 11
121.1694744082
 21
122.5615823955
 31
0.0
  0
LINE
  5
208
330
1F0
100
AcDbEntity
  8
SLD-0
 62
     7
100
AcDbLine
 10
120.3656274082
 20
125.5615823955
 30
0.0
 11
120.3656274082
 21
122.5615823955
 31
0.0
  0
MTEXT
  5
209
330
1F0
100
AcDbEntity
  8
SLD-0
 62
     7
100
AcDbMText
 10
115.8389337123
 20
127.5441566765
 30
0.1
 40
3.5
 41
0.0
 71
     1
 72
     1
  1
6
  7
SLDTEXTSTYLE0
 11
6.123031769111886E-17
 21
1.0
 31
0.0
 73
     1
 44
1.0
  0
ENDBLK
  5
1FC
330
1F0
100
AcDbEntity
  8
0
100
AcDbBlockEnd
  0
BLOCK
  5
216
330
20B
100
AcDbEntity
  8
0
100
AcDbBlockBegin
  2
*D20
 70
     1
 71
     0
 10
0.0
 20
0.0
 30
0.0
  3
*D20
  1

  0
LINE
  5
218
330
20B
100
AcDbEntity
  8
SLD-0
 62
     7
100
AcDbLine
 10
107.2901664591
 20
200.7200235704
 30
0.0
 11
125.2460767458
 21
200.7200235704
 31
0.0
  0
LINE
  5
219
330
20B
100
AcDbEntity
  8
SLD-0
 62
     7
100
AcDbLine
 10
107.2901664591
 20
190.7200235704
 30
0.0
 11
125.2460767458
 21
190.7200235704
 31
0.0
  0
LINE
  5
21A
330
20B
100
AcDbEntity
  8
SLD-0
 62
     7
100
AcDbLine
 10
124.2460767458
 20
200.7200235704
 30
0.0
 11
124.2460767458
 21
190.7200235704
 31
0.0
  0
LINE
  5
21B
330
20B
100
AcDbEntity
  8
SLD-0
 62
     7
100
AcDbLine
 10
123.4422297458
 20
197.7200235704
 30
0.0
 11
124.2460767458
 21
200.7200235704
 31
0.0
  0
LINE
  5
21C
330
20B
100
AcDbEntity
  8
SLD-0
 62
     7
100
AcDbLine
 10
124.2460767458
 20
200.7200235704
 30
0.0
 11
125.0499237458
 21
197.7200235704
 31
0.0
  0
LINE
  5
21D
330
20B
100
AcDbEntity
  8
SLD-0
 62
     7
100
AcDbLine
 10
124.2460767458
 20
200.7200235704
 30
0.0
 11
124.2460767458
 21
197.7200235704
 31
0.0
  0
LINE
  5
21E
330
20B
100
AcDbEntity
  8
SLD-0
 62
     7
100
AcDbLine
 10
125.0499237458
 20
193.7200235704
 30
0.0
 11
124.2460767458
 21
190.7200235704
 31
0.0
  0
LINE
  5
21F
330
20B
100
AcDbEntity
  8
SLD-0
 62
     7
100
AcDbLine
 10
124.2460767458
 20
190.7200235704
 30
0.0
 11
123.4422297458
 21
193.7200235704
 31
0.0
  0
LINE
  5
220
330
20B
100
AcDbEntity
  8
SLD-0
 62
     7
100
AcDbLine
 10
124.2460767458
 20
190.7200235704
 30
0.0
 11
124.2460767458
 21
193.7200235704
 31
0.0
  0
MTEXT
  5
221
330
20B
100
AcDbEntity
  8
SLD-0
 62
     7
100
AcDbMText
 10
119.7193830498
 20
193.6851721324
 30
0.1
 40
3.5
 41
0.0
 71
     1
 72
     1
  1
10
  7
SLDTEXTSTYLE0
 11
6.123031769111886E-17
 21
1.0
 31
0.0
 73
     1
 44
1.0
  0
ENDBLK
  5
217
330
20B
100
AcDbEntity
  8
0
100
AcDbBlockEnd
  0
BLOCK
  5
22D
330
223
100
AcDbEntity
  8
0
100
AcDbBlockBegin
  2
*D21
 70
     1
 71
     0
 10
0.0
 20
0.0
 30
0.0
  3
*D21
  1

  0
LINE
  5
22F
330
223
100
AcDbEntity
  8
SLD-0
 62
     7
100
AcDbLine
 10
106.2901664591
 20
196.7200235704
 30
0.0
 11
106.2901664591
 21
224.3433214965
 31
0.0
  0
LINE
  5
230
330
223
100
AcDbEntity
  8
SLD-0
 62
     7
100
AcDbLine
 10
75.2901664591
 20
196.7200235704
 30
0.0
 11
75.2901664591
 21
224.3433214965
 31
0.0
  0
LINE
  5
231
330
223
100
AcDbEntity
  8
SLD-0
 62
     7
100
AcDbLine
 10
106.2901664591
 20
223.3433214965
 30
0.0
 11
75.2901664591
 21
223.3433214965
 31
0.0
  0
LINE
  5
232
330
223
100
AcDbEntity
  8
SLD-0
 62
     7
100
AcDbLine
 10
103.2901664591
 20
224.1471684965
 30
0.0
 11
106.2901664591
 21
223.3433214965
 31
0.0
  0
LINE
  5
233
330
223
100
AcDbEntity
  8
SLD-0
 62
     7
100
AcDbLine
 10
106.2901664591
 20
223.3433214965
 30
0.0
 11
103.2901664591
 21
222.5394744965
 31
0.0
  0
LINE
  5
234
330
223
100
AcDbEntity
  8
SLD-0
 62
     7
100
AcDbLine
 10
106.2901664591
 20
223.3433214965
 30
0.0
 11
103.2901664591
 21
223.3433214965
 31
0.0
  0
LINE
  5
235
330
223
100
AcDbEntity
  8
SLD-0
 62
     7
100
AcDbLine
 10
78.2901664591
 20
222.5394744965
 30
0.0
 11
75.2901664591
 21
223.3433214965
 31
0.0
  0
LINE
  5
236
330
223
100
AcDbEntity
  8
SLD-0
 62
     7
100
AcDbLine
 10
75.2901664591
 20
223.3433214965
 30
0.0
 11
78.2901664591
 21
224.1471684965
 31
0.0
  0
LINE
  5
237
330
223
100
AcDbEntity
  8
SLD-0
 62
     7
100
AcDbLine
 10
75.2901664591
 20
223.3433214965
 30
0.0
 11
78.2901664591
 21
223.3433214965
 31
0.0
  0
MTEXT
  5
238
330
223
100
AcDbEntity
  8
SLD-0
 62
     7
100
AcDbMText
 10
88.7553150211
 20
227.8700151924
 30
0.1
 40
3.5
 41
0.0
 71
     1
 72
     1
  1
31
  7
SLDTEXTSTYLE0
 73
     1
 44
1.0
  0
ENDBLK
  5
22E
330
223
100
AcDbEntity
  8
0
100
AcDbBlockEnd
  0
BLOCK
  5
244
330
23A
100
AcDbEntity
  8
0
100
AcDbBlockBegin
  2
*D22
 70
     1
 71
     0
 10
0.0
 20
0.0
 30
0.0
  3
*D22
  1

  0
LINE
  5
246
330
23A
100
AcDbEntity
  8
SLD-0
100
AcDbLine
 10
81.2901664591
 20
203.2200235704
 30
0.0
 11
81.2901664591
 21
216.9317263716
 31
0.0
  0
LINE
  5
247
330
23A
100
AcDbEntity
  8
SLD-0
100
AcDbLine
 10
106.2901664591
 20
201.2200235704
 30
0.0
 11
106.2901664591
 21
216.9317263716
 31
0.0
  0
LINE
  5
248
330
23A
100
AcDbEntity
  8
SLD-0
100
AcDbLine
 10
81.2901664591
 20
215.9317263716
 30
0.0
 11
106.2901664591
 21
215.9317263716
 31
0.0
  0
LINE
  5
249
330
23A
100
AcDbEntity
  8
SLD-0
100
AcDbLine
 10
84.2901664591
 20
215.1278793716
 30
0.0
 11
81.2901664591
 21
215.9317263716
 31
0.0
  0
LINE
  5
24A
330
23A
100
AcDbEntity
  8
SLD-0
100
AcDbLine
 10
81.2901664591
 20
215.9317263716
 30
0.0
 11
84.2901664591
 21
216.7355733716
 31
0.0
  0
LINE
  5
24B
330
23A
100
AcDbEntity
  8
SLD-0
100
AcDbLine
 10
81.2901664591
 20
215.9317263716
 30
0.0
 11
84.2901664591
 21
215.9317263716
 31
0.0
  0
LINE
  5
24C
330
23A
100
AcDbEntity
  8
SLD-0
100
AcDbLine
 10
103.2901664591
 20
216.7355733716
 30
0.0
 11
106.2901664591
 21
215.9317263716
 31
0.0
  0
LINE
  5
24D
330
23A
100
AcDbEntity
  8
SLD-0
100
AcDbLine
 10
106.2901664591
 20
215.9317263716
 30
0.0
 11
103.2901664591
 21
215.1278793716
 31
0.0
  0
LINE
  5
24E
330
23A
100
AcDbEntity
  8
SLD-0
100
AcDbLine
 10
106.2901664591
 20
215.9317263716
 30
0.0
 11
103.2901664591
 21
215.9317263716
 31
0.0
  0
MTEXT
  5
24F
330
23A
100
AcDbEntity
  8
SLD-0
100
AcDbMText
 10
91.7553150211
 20
220.4584200675
 30
0.1
 40
3.5
 41
0.0
 71
     1
 72
     1
  1
25
  7
SLDTEXTSTYLE0
 73
     1
 44
1.0
  0
ENDBLK
  5
245
330
23A
100
AcDbEntity
  8
0
100
AcDbBlockEnd
  0
BLOCK
  5
25C
330
251
100
AcDbEntity
  8
0
100
AcDbBlockBegin
  2
*D23
 70
     1
 71
     0
 10
0.0
 20
0.0
 30
0.0
  3
*D23
  1

  0
LINE
  5
25E
330
251
100
AcDbEntity
  8
SLD-0
100
AcDbLine
 10
74.7901664591
 20
190.7200235704
 30
0.0
 11
65.0285461953
 21
190.7200235704
 31
0.0
  0
LINE
  5
25F
330
251
100
AcDbEntity
  8
SLD-0
100
AcDbLine
 10
73.7901664591
 20
195.7200235704
 30
0.0
 11
65.0285461953
 21
195.7200235704
 31
0.0
  0
LINE
  5
260
330
251
100
AcDbEntity
  8
SLD-0
100
AcDbLine
 10
66.0285461953
 20
190.7200235704
 30
0.0
 11
66.0285461953
 21
185.7200235704
 31
0.0
  0
LINE
  5
261
330
251
100
AcDbEntity
  8
SLD-0
100
AcDbLine
 10
66.0285461953
 20
190.7200235704
 30
0.0
 11
66.0285461953
 21
195.7200235704
 31
0.0
  0
LINE
  5
262
330
251
100
AcDbEntity
  8
SLD-0
100
AcDbLine
 10
66.0285461953
 20
195.7200235704
 30
0.0
 11
66.0285461953
 21
200.7200235704
 31
0.0
  0
LINE
  5
263
330
251
100
AcDbEntity
  8
SLD-0
100
AcDbLine
 10
65.2246991953
 20
187.7200235704
 30
0.0
 11
66.0285461953
 21
190.7200235704
 31
0.0
  0
LINE
  5
264
330
251
100
AcDbEntity
  8
SLD-0
100
AcDbLine
 10
66.0285461953
 20
190.7200235704
 30
0.0
 11
66.8323931953
 21
187.7200235704
 31
0.0
  0
LINE
  5
265
330
251
100
AcDbEntity
  8
SLD-0
100
AcDbLine
 10
66.0285461953
 20
190.7200235704
 30
0.0
 11
66.0285461953
 21
187.7200235704
 31
0.0
  0
LINE
  5
266
330
251
100
AcDbEntity
  8
SLD-0
100
AcDbLine
 10
66.8323931953
 20
198.7200235704
 30
0.0
 11
66.0285461953
 21
195.7200235704
 31
0.0
  0
LINE
  5
267
330
251
100
AcDbEntity
  8
SLD-0
100
AcDbLine
 10
66.0285461953
 20
195.7200235704
 30
0.0
 11
65.2246991953
 21
198.7200235704
 31
0.0
  0
LINE
  5
268
330
251
100
AcDbEntity
  8
SLD-0
100
AcDbLine
 10
66.0285461953
 20
195.7200235704
 30
0.0
 11
66.0285461953
 21
198.7200235704
 31
0.0
  0
MTEXT
  5
269
330
251
100
AcDbEntity
  8
SLD-0
100
AcDbMText
 10
61.5018524993
 20
192.2025978514
 30
0.1
 40
3.5
 41
0.0
 71
     1
 72
     1
  1
5
  7
SLDTEXTSTYLE0
 11
6.123031769111886E-17
 21
1.0
 31
0.0
 73
     1
 44
1.0
  0
ENDBLK
  5
25D
330
251
100
AcDbEntity
  8
0
100
AcDbBlockEnd
  0
BLOCK
  5
272
330
26B
100
AcDbEntity
  8
0
100
AcDbBlockBegin
  2
*D24
 70
     1
 71
     0
 10
0.0
 20
0.0
 30
0.0
  3
*D24
  1

  0
LINE
  5
274
330
26B
100
AcDbEntity
  8
SLD-0
 62
     7
100
AcDbLine
 10
101.641429328
 20
194.2617319682
 30
0.0
 11
105.8100755073
 21
176.9553148848
 31
0.0
  0
LINE
  5
275
330
26B
100
AcDbEntity
  8
SLD-0
 62
     7
100
AcDbLine
 10
105.8100755073
 20
176.9553148848
 30
0.0
 11
122.5797825333
 21
176.9553148848
 31
0.0
  0
LINE
  5
276
330
26B
100
AcDbEntity
  8
SLD-0
 62
     7
100
AcDbLine
 10
101.5624595129
 20
191.156907695
 30
0.0
 11
101.641429328
 21
194.2617319682
 31
0.0
  0
LINE
  5
277
330
26B
100
AcDbEntity
  8
SLD-0
 62
     7
100
AcDbLine
 10
101.641429328
 20
194.2617319682
 30
0.0
 11
103.1254506189
 21
191.5333898328
 31
0.0
  0
LINE
  5
278
330
26B
100
AcDbEntity
  8
SLD-0
 62
     7
100
AcDbLine
 10
101.641429328
 20
194.2617319682
 30
0.0
 11
102.3439550659
 21
191.3451487639
 31
0.0
  0
MTEXT
  5
279
330
26B
100
AcDbEntity
  8
SLD-0
 62
     7
100
AcDbMText
 10
107.2350755073
 20
181.482008348
 30
0.1
 40
3.5
 41
0.0
 71
     1
 72
     1
  1
%%c
  7
SLDTEXTSTYLE0
 73
     1
 44
1.0
  0
MTEXT
  5
27A
330
26B
100
AcDbEntity
  8
SLD-0
 62
     7
100
AcDbMText
 10
112.8528767815
 20
181.4820085808
 30
0.1
 40
3.5
 41
0.0
 71
     1
 72
     1
  1
3
  7
SLDTEXTSTYLE0
 73
     1
 44
1.0
  0
MTEXT
  5
27B
330
26B
100
AcDbEntity
  8
SLD-0
 62
     7
100
AcDbMText
 10
116.1070555402
 20
180.2849285585
 30
0.1
 40
2.1
 41
0.0
 71
     1
 72
     1
  1
+
  7
SLDTEXTSTYLE0
 73
     1
 44
1.0
  0
MTEXT
  5
27C
330
26B
100
AcDbEntity
  8
SLD-0
 62
     7
100
AcDbMText
 10
117.326382861
 20
180.2849285585
 30
0.1
 40
2.1
 41
0.0
 71
     1
 72
     1
  1
0.1
  7
SLDTEXTSTYLE0
 73
     1
 44
1.0
  0
MTEXT
  5
27D
330
26B
100
AcDbEntity
  8
SLD-0
 62
     7
100
AcDbMText
 10
116.1070555402
 20
182.7275420551
 30
0.1
 40
2.1
 41
0.0
 71
     1
 72
     1
  1
+
  7
SLDTEXTSTYLE0
 73
     1
 44
1.0
  0
MTEXT
  5
27E
330
26B
100
AcDbEntity
  8
SLD-0
 62
     7
100
AcDbMText
 10
117.326382861
 20
182.7275420551
 30
0.1
 40
2.1
 41
0.0
 71
     1
 72
     1
  1
0.2
  7
SLDTEXTSTYLE0
 73
     1
 44
1.0
  0
ENDBLK
  5
273
330
26B
100
AcDbEntity
  8
0
100
AcDbBlockEnd
  0
BLOCK
  5
28B
330
280
100
AcDbEntity
  8
0
100
AcDbBlockBegin
  2
*D25
 70
     1
 71
     0
 10
0.0
 20
0.0
 30
0.0
  3
*D25
  1

  0
LINE
  5
28D
330
280
100
AcDbEntity
  8
SLD-0
 62
     7
100
AcDbLine
 10
101.2901664591
 20
200.7200235704
 30
0.0
 11
101.2901664591
 21
209.6664742441
 31
0.0
  0
LINE
  5
28E
330
280
100
AcDbEntity
  8
SLD-0
 62
     7
100
AcDbLine
 10
106.2901664591
 20
201.2200235704
 30
0.0
 11
106.2901664591
 21
209.6664742441
 31
0.0
  0
LINE
  5
28F
330
280
100
AcDbEntity
  8
SLD-0
 62
     7
100
AcDbLine
 10
101.2901664591
 20
208.6664742441
 30
0.0
 11
96.2901664591
 21
208.6664742441
 31
0.0
  0
LINE
  5
290
330
280
100
AcDbEntity
  8
SLD-0
 62
     7
100
AcDbLine
 10
101.2901664591
 20
208.6664742441
 30
0.0
 11
106.2901664591
 21
208.6664742441
 31
0.0
  0
LINE
  5
291
330
280
100
AcDbEntity
  8
SLD-0
 62
     7
100
AcDbLine
 10
106.2901664591
 20
208.6664742441
 30
0.0
 11
111.2901664591
 21
208.6664742441
 31
0.0
  0
LINE
  5
292
330
280
100
AcDbEntity
  8
SLD-0
 62
     7
100
AcDbLine
 10
98.2901664591
 20
209.4703212441
 30
0.0
 11
101.2901664591
 21
208.6664742441
 31
0.0
  0
LINE
  5
293
330
280
100
AcDbEntity
  8
SLD-0
 62
     7
100
AcDbLine
 10
101.2901664591
 20
208.6664742441
 30
0.0
 11
98.2901664591
 21
207.8626272441
 31
0.0
  0
LINE
  5
294
330
280
100
AcDbEntity
  8
SLD-0
 62
     7
100
AcDbLine
 10
101.2901664591
 20
208.6664742441
 30
0.0
 11
98.2901664591
 21
208.6664742441
 31
0.0
  0
LINE
  5
295
330
280
100
AcDbEntity
  8
SLD-0
 62
     7
100
AcDbLine
 10
109.2901664591
 20
207.8626272441
 30
0.0
 11
106.2901664591
 21
208.6664742441
 31
0.0
  0
LINE
  5
296
330
280
100
AcDbEntity
  8
SLD-0
 62
     7
100
AcDbLine
 10
106.2901664591
 20
208.6664742441
 30
0.0
 11
109.2901664591
 21
209.4703212441
 31
0.0
  0
LINE
  5
297
330
280
100
AcDbEntity
  8
SLD-0
 62
     7
100
AcDbLine
 10
106.2901664591
 20
208.6664742441
 30
0.0
 11
109.2901664591
 21
208.6664742441
 31
0.0
  0
MTEXT
  5
298
330
280
100
AcDbEntity
  8
SLD-0
 62
     7
100
AcDbMText
 10
102.7727407401
 20
213.19316794
 30
0.1
 40
3.5
 41
0.0
 71
     1
 72
     1
  1
5
  7
SLDTEXTSTYLE0
 73
     1
 44
1.0
  0
ENDBLK
  5
28C
330
280
100
AcDbEntity
  8
0
100
AcDbBlockEnd
  0
BLOCK
  5
2A5
330
29A
100
AcDbEntity
  8
0
100
AcDbBlockBegin
  2
*D26
 70
     1
 71
     0
 10
0.0
 20
0.0
 30
0.0
  3
*D26
  1

  0
LINE
  5
2A7
330
29A
100
AcDbEntity
  8
SLD-0
 62
     7
100
AcDbLine
 10
106.2901664591
 20
195.7200235704
 30
0.0
 11
116.0227268212
 21
195.7200235704
 31
0.0
  0
LINE
  5
2A8
330
29A
100
AcDbEntity
  8
SLD-0
 62
     7
100
AcDbLine
 10
106.7901664591
 20
190.7200235704
 30
0.0
 11
116.0227268212
 21
190.7200235704
 31
0.0
  0
LINE
  5
2A9
330
29A
100
AcDbEntity
  8
SLD-0
 62
     7
100
AcDbLine
 10
115.0227268212
 20
195.7200235704
 30
0.0
 11
115.0227268212
 21
200.7200235704
 31
0.0
  0
LINE
  5
2AA
330
29A
100
AcDbEntity
  8
SLD-0
 62
     7
100
AcDbLine
 10
115.0227268212
 20
195.7200235704
 30
0.0
 11
115.0227268212
 21
190.7200235704
 31
0.0
  0
LINE
  5
2AB
330
29A
100
AcDbEntity
  8
SLD-0
 62
     7
100
AcDbLine
 10
115.0227268212
 20
190.7200235704
 30
0.0
 11
115.0227268212
 21
185.7200235704
 31
0.0
  0
LINE
  5
2AC
330
29A
100
AcDbEntity
  8
SLD-0
 62
     7
100
AcDbLine
 10
115.8265738212
 20
198.7200235704
 30
0.0
 11
115.0227268212
 21
195.7200235704
 31
0.0
  0
LINE
  5
2AD
330
29A
100
AcDbEntity
  8
SLD-0
 62
     7
100
AcDbLine
 10
115.0227268212
 20
195.7200235704
 30
0.0
 11
114.2188798212
 21
198.7200235704
 31
0.0
  0
LINE
  5
2AE
330
29A
100
AcDbEntity
  8
SLD-0
 62
     7
100
AcDbLine
 10
115.0227268212
 20
195.7200235704
 30
0.0
 11
115.0227268212
 21
198.7200235704
 31
0.0
  0
LINE
  5
2AF
330
29A
100
AcDbEntity
  8
SLD-0
 62
     7
100
AcDbLine
 10
114.2188798212
 20
187.7200235704
 30
0.0
 11
115.0227268212
 21
190.7200235704
 31
0.0
  0
LINE
  5
2B0
330
29A
100
AcDbEntity
  8
SLD-0
 62
     7
100
AcDbLine
 10
115.0227268212
 20
190.7200235704
 30
0.0
 11
115.8265738212
 21
187.7200235704
 31
0.0
  0
LINE
  5
2B1
330
29A
100
AcDbEntity
  8
SLD-0
 62
     7
100
AcDbLine
 10
115.0227268212
 20
190.7200235704
 30
0.0
 11
115.0227268212
 21
187.7200235704
 31
0.0
  0
MTEXT
  5
2B2
330
29A
100
AcDbEntity
  8
SLD-0
 62
     7
100
AcDbMText
 10
110.4960331252
 20
192.2025978514
 30
0.1
 40
3.5
 41
0.0
 71
     1
 72
     1
  1
5
  7
SLDTEXTSTYLE0
 11
6.123031769111886E-17
 21
1.0
 31
0.0
 73
     1
 44
1.0
  0
ENDBLK
  5
2A6
330
29A
100
AcDbEntity
  8
0
100
AcDbBlockEnd
  0
BLOCK
  5
2BB
330
2B4
100
AcDbEntity
  8
0
100
AcDbBlockBegin
  2
*D27
 70
     1
 71
     0
 10
0.0
 20
0.0
 30
0.0
  3
*D27
  1

  0
LINE
  5
2BE
330
2B4
100
AcDbEntity
  8
SLD-0
 62
     7
100
AcDbLine
 10
152.6087176701
 20
132.9563654193
 30
0.0
 11
157.5431133079
 21
145.4270330386
 31
0.0
  0
LINE
  5
2BF
330
2B4
100
AcDbEntity
  8
SLD-0
 62
     7
100
AcDbLine
 10
157.5431133079
 20
145.4270330386
 30
0.0
 11
172.4838293527
 21
145.4270330386
 31
0.0
  0
LINE
  5
2C0
330
2B4
100
AcDbEntity
  8
SLD-0
 62
     7
100
AcDbLine
 10
154.459955016
 20
135.4501758148
 30
0.0
 11
152.6087176701
 21
132.9563654193
 31
0.0
  0
LINE
  5
2C1
330
2B4
100
AcDbEntity
  8
SLD-0
 62
     7
100
AcDbLine
 10
152.6087176701
 20
132.9563654193
 30
0.0
 11
152.9650321502
 21
136.041687119
 31
0.0
  0
LINE
  5
2C2
330
2B4
100
AcDbEntity
  8
SLD-0
 62
     7
100
AcDbLine
 10
152.6087176701
 20
132.9563654193
 30
0.0
 11
153.7124935831
 21
135.7459314669
 31
0.0
  0
MTEXT
  5
2C3
330
2B4
100
AcDbEntity
  8
SLD-0
 62
     7
100
AcDbMText
 10
160.7181133079
 20
149.9537267345
 30
0.1
 40
3.5
 41
0.0
 71
     1
 72
     1
  1
M
  7
SLDTEXTSTYLE0
 73
     1
 44
1.0
  0
MTEXT
  5
2C4
330
2B4
100
AcDbEntity
  8
SLD-0
 62
     7
100
AcDbMText
 10
162.7529647459
 20
149.9537267345
 30
0.1
 40
3.5
 41
0.0
 71
     1
 72
     1
  1
3
  7
SLDTEXTSTYLE0
 73
     1
 44
1.0
  0
MTEXT
  5
2C5
330
2B4
100
AcDbEntity
  8
SLD-0
 62
     7
100
AcDbMText
 10
164.7878161838
 20
149.9537267345
 30
0.1
 40
3.5
 41
0.0
 71
     1
 72
     1
  1
深5
  7
SLDTEXTSTYLE0
 73
     1
 44
1.0
  0
ENDBLK
  5
2BC
330
2B4
100
AcDbEntity
  8
0
100
AcDbBlockEnd
  0
BLOCK
  5
2D2
330
2C7
100
AcDbEntity
  8
0
100
AcDbBlockBegin
  2
*D28
 70
     1
 71
     0
 10
0.0
 20
0.0
 30
0.0
  3
*D28
  1

  0
LINE
  5
2D4
330
2C7
100
AcDbEntity
  8
SLD-0
 62
     7
100
AcDbLine
 10
158.0568297136
 20
125.5615823955
 30
0.0
 11
168.8338962683
 21
125.5615823955
 31
0.0
  0
LINE
  5
2D5
330
2C7
100
AcDbEntity
  8
SLD-0
 62
     7
100
AcDbLine
 10
160.0568297136
 20
131.5615823955
 30
0.0
 11
168.8338962683
 21
131.5615823955
 31
0.0
  0
LINE
  5
2D6
330
2C7
100
AcDbEntity
  8
SLD-0
 62
     7
100
AcDbLine
 10
167.8338962683
 20
125.5615823955
 30
0.0
 11
167.8338962683
 21
120.5615823955
 31
0.0
  0
LINE
  5
2D7
330
2C7
100
AcDbEntity
  8
SLD-0
 62
     7
100
AcDbLine
 10
167.8338962683
 20
125.5615823955
 30
0.0
 11
167.8338962683
 21
131.5615823955
 31
0.0
  0
LINE
  5
2D8
330
2C7
100
AcDbEntity
  8
SLD-0
 62
     7
100
AcDbLine
 10
167.8338962683
 20
131.5615823955
 30
0.0
 11
167.8338962683
 21
136.5615823955
 31
0.0
  0
LINE
  5
2D9
330
2C7
100
AcDbEntity
  8
SLD-0
 62
     7
100
AcDbLine
 10
167.0300492683
 20
122.5615823955
 30
0.0
 11
167.8338962683
 21
125.5615823955
 31
0.0
  0
LINE
  5
2DA
330
2C7
100
AcDbEntity
  8
SLD-0
 62
     7
100
AcDbLine
 10
167.8338962683
 20
125.5615823955
 30
0.0
 11
168.6377432683
 21
122.5615823955
 31
0.0
  0
LINE
  5
2DB
330
2C7
100
AcDbEntity
  8
SLD-0
 62
     7
100
AcDbLine
 10
167.8338962683
 20
125.5615823955
 30
0.0
 11
167.8338962683
 21
122.5615823955
 31
0.0
  0
LINE
  5
2DC
330
2C7
100
AcDbEntity
  8
SLD-0
 62
     7
100
AcDbLine
 10
168.6377432683
 20
134.5615823955
 30
0.0
 11
167.8338962683
 21
131.5615823955
 31
0.0
  0
LINE
  5
2DD
330
2C7
100
AcDbEntity
  8
SLD-0
 62
     7
100
AcDbLine
 10
167.8338962683
 20
131.5615823955
 30
0.0
 11
167.0300492683
 21
134.5615823955
 31
0.0
  0
LINE
  5
2DE
330
2C7
100
AcDbEntity
  8
SLD-0
 62
     7
100
AcDbLine
 10
167.8338962683
 20
131.5615823955
 30
0.0
 11
167.8338962683
 21
134.5615823955
 31
0.0
  0
MTEXT
  5
2DF
330
2C7
100
AcDbEntity
  8
SLD-0
 62
     7
100
AcDbMText
 10
163.3072025723
 20
127.5441566765
 30
0.1
 40
3.5
 41
0.0
 71
     1
 72
     1
  1
6
  7
SLDTEXTSTYLE0
 11
6.123031769111886E-17
 21
1.0
 31
0.0
 73
     1
 44
1.0
  0
ENDBLK
  5
2D3
330
2C7
100
AcDbEntity
  8
0
100
AcDbBlockEnd
  0
BLOCK
  5
2EC
330
2E1
100
AcDbEntity
  8
0
100
AcDbBlockBegin
  2
*D29
 70
     1
 71
     0
 10
0.0
 20
0.0
 30
0.0
  3
*D29
  1

  0
LINE
  5
2EE
330
2E1
100
AcDbEntity
  8
SLD-0
 62
     7
100
AcDbLine
 10
157.0568297136
 20
124.5615823955
 30
0.0
 11
157.0568297136
 21
112.4836239817
 31
0.0
  0
LINE
  5
2EF
330
2E1
100
AcDbEntity
  8
SLD-0
 62
     7
100
AcDbLine
 10
152.0568297136
 20
126.8115823955
 30
0.0
 11
152.0568297136
 21
112.4836239817
 31
0.0
  0
LINE
  5
2F0
330
2E1
100
AcDbEntity
  8
SLD-0
 62
     7
100
AcDbLine
 10
157.0568297136
 20
113.4836239817
 30
0.0
 11
162.0568297136
 21
113.4836239817
 31
0.0
  0
LINE
  5
2F1
330
2E1
100
AcDbEntity
  8
SLD-0
 62
     7
100
AcDbLine
 10
157.0568297136
 20
113.4836239817
 30
0.0
 11
152.0568297136
 21
113.4836239817
 31
0.0
  0
LINE
  5
2F2
330
2E1
100
AcDbEntity
  8
SLD-0
 62
     7
100
AcDbLine
 10
152.0568297136
 20
113.4836239817
 30
0.0
 11
147.0568297136
 21
113.4836239817
 31
0.0
  0
LINE
  5
2F3
330
2E1
100
AcDbEntity
  8
SLD-0
 62
     7
100
AcDbLine
 10
160.0568297136
 20
112.6797769817
 30
0.0
 11
157.0568297136
 21
113.4836239817
 31
0.0
  0
LINE
  5
2F4
330
2E1
100
AcDbEntity
  8
SLD-0
 62
     7
100
AcDbLine
 10
157.0568297136
 20
113.4836239817
 30
0.0
 11
160.0568297136
 21
114.2874709817
 31
0.0
  0
LINE
  5
2F5
330
2E1
100
AcDbEntity
  8
SLD-0
 62
     7
100
AcDbLine
 10
157.0568297136
 20
113.4836239817
 30
0.0
 11
160.0568297136
 21
113.4836239817
 31
0.0
  0
LINE
  5
2F6
330
2E1
100
AcDbEntity
  8
SLD-0
 62
     7
100
AcDbLine
 10
149.0568297136
 20
114.2874709817
 30
0.0
 11
152.0568297136
 21
113.4836239817
 31
0.0
  0
LINE
  5
2F7
330
2E1
100
AcDbEntity
  8
SLD-0
 62
     7
100
AcDbLine
 10
152.0568297136
 20
113.4836239817
 30
0.0
 11
149.0568297136
 21
112.6797769817
 31
0.0
  0
LINE
  5
2F8
330
2E1
100
AcDbEntity
  8
SLD-0
 62
     7
100
AcDbLine
 10
152.0568297136
 20
113.4836239817
 30
0.0
 11
149.0568297136
 21
113.4836239817
 31
0.0
  0
MTEXT
  5
2F9
330
2E1
100
AcDbEntity
  8
SLD-0
 62
     7
100
AcDbMText
 10
153.5394039946
 20
118.0103176776
 30
0.1
 40
3.5
 41
0.0
 71
     1
 72
     1
  1
5
  7
SLDTEXTSTYLE0
 73
     1
 44
1.0
  0
ENDBLK
  5
2ED
330
2E1
100
AcDbEntity
  8
0
100
AcDbBlockEnd
  0
ENDSEC
  0
SECTION
  2
ENTITIES
  0
LINE
  5
79
330
1F
100
AcDbEntity
  8
SLD-0
100
AcDbLine
 10
20.2604743903
 20
285.0
 30
0.0
 11
196.7604743903
 21
285.0
 31
0.0
  0
LINE
  5
7A
330
1F
100
AcDbEntity
  8
SLD-0
  6
Continuous
 62
   179
100
AcDbLine
 10
20.2604743903
 20
285.0
 30
0.0
 11
20.2604743903
 21
10.0
 31
0.0
  0
LINE
  5
7B
330
1F
100
AcDbEntity
  8
SLD-0
  6
Continuous
 62
   179
100
AcDbLine
 10
20.2604743903
 20
10.0
 30
0.0
 11
196.7604743903
 21
10.0
 31
0.0
  0
LINE
  5
7C
330
1F
100
AcDbEntity
  8
SLD-0
  6
Continuous
 62
   179
100
AcDbLine
 10
196.7604743903
 20
285.0
 30
0.0
 11
196.7604743903
 21
10.0
 31
0.0
  0
LINE
  5
7D
330
1F
100
AcDbEntity
  8
SLD-0
  6
Continuous
 62
   179
100
AcDbLine
 10
127.0104743903
 20
50.75
 30
0.0
 11
196.7604743903
 21
50.75
 31
0.0
  0
LINE
  5
7E
330
1F
100
AcDbEntity
  8
SLD-0
  6
Continuous
 62
   179
100
AcDbLine
 10
127.0104743903
 20
50.75
 30
0.0
 11
127.0104743903
 21
10.0
 31
0.0
  0
LINE
  5
7F
330
1F
100
AcDbEntity
  8
SLD-0
  6
Continuous
 62
   179
100
AcDbLine
 10
127.0104743903
 20
22.75
 30
0.0
 11
196.7604743903
 21
22.75
 31
0.0
  0
LINE
  5
80
330
1F
100
AcDbEntity
  8
SLD-0
  6
Continuous
 62
   179
100
AcDbLine
 10
127.0104743903
 20
36.75
 30
0.0
 11
196.7604743903
 21
36.75
 31
0.0
  0
LINE
  5
81
330
1F
100
AcDbEntity
  8
SLD-0
100
AcDbLine
 10
78.7746319072
 20
123.3091547737
 30
0.0
 11
80.8182976843
 21
125.5615823955
 31
0.0
  0
LINE
  5
82
330
1F
100
AcDbEntity
  8
SLD-0
100
AcDbLine
 10
80.8182976843
 20
125.5615823955
 30
0.0
 11
79.6156173941
 21
122.7680970958
 31
0.0
  0
LINE
  5
83
330
1F
100
AcDbEntity
  8
SLD-0
100
AcDbLine
 10
79.6156173941
 20
122.7680970958
 30
0.0
 11
78.7746319072
 21
123.3091547737
 31
0.0
  0
LINE
  5
84
330
1F
100
AcDbEntity
  8
SLD-0
  6
Continuous
 62
   179
100
AcDbLine
 10
75.7901661089
 20
131.2615823812
 30
0.0
 11
75.7901661089
 21
125.5615823433
 31
0.0
  0
LINE
  5
85
330
1F
100
AcDbEntity
  8
SLD-0
  6
Continuous
 62
   179
100
AcDbLine
 10
75.290166027
 20
126.0615824253
 30
0.0
 11
75.7901661089
 21
125.5615823433
 31
0.0
  0
LINE
  5
86
330
1F
100
AcDbEntity
  8
SLD-0
  6
Continuous
 62
   179
100
AcDbLine
 10
75.290166027
 20
126.0615824253
 30
0.0
 11
75.290166027
 21
131.2615823812
 31
0.0
  0
LINE
  5
87
330
1F
100
AcDbEntity
  8
SLD-0
  6
Continuous
 62
   179
100
AcDbLine
 10
75.290166027
 20
131.2615823812
 30
0.0
 11
75.7901661089
 21
131.2615823812
 31
0.0
  0
LINE
  5
88
330
1F
100
AcDbEntity
  8
SLD-0
  6
Continuous
 62
   179
100
AcDbLine
 10
75.290166027
 20
131.8615824097
 30
0.0
 11
75.290166027
 21
137.0615823657
 31
0.0
  0
LINE
  5
89
330
1F
100
AcDbEntity
  8
SLD-0
  6
Continuous
 62
   179
100
AcDbLine
 10
75.290166027
 20
137.0615823657
 30
0.0
 11
75.7901661089
 21
137.5615824477
 31
0.0
  0
LINE
  5
8A
330
1F
100
AcDbEntity
  8
SLD-0
  6
Continuous
 62
   179
100
AcDbLine
 10
75.7901661089
 20
137.5615824477
 30
0.0
 11
75.7901661089
 21
131.8615824097
 31
0.0
  0
LINE
  5
8B
330
1F
100
AcDbEntity
  8
SLD-0
  6
Continuous
 62
   179
100
AcDbLine
 10
75.7901661089
 20
131.8615824097
 30
0.0
 11
75.290166027
 21
131.8615824097
 31
0.0
  0
LINE
  5
8C
330
1F
100
AcDbEntity
  8
SLD-0
  6
Continuous
 62
   179
100
AcDbLine
 10
105.7901663697
 20
137.5615824477
 30
0.0
 11
75.7901661089
 21
137.5615824477
 31
0.0
  0
LINE
  5
8D
330
1F
100
AcDbEntity
  8
SLD-0
  6
Continuous
 62
   179
100
AcDbLine
 10
105.7901663697
 20
125.5615823433
 30
0.0
 11
105.7901663697
 21
137.5615824477
 31
0.0
  0
LINE
  5
8E
330
1F
100
AcDbEntity
  8
SLD-0
  6
Continuous
 62
   179
100
AcDbLine
 10
75.7901661089
 20
125.5615823433
 30
0.0
 11
105.7901663697
 21
125.5615823433
 31
0.0
  0
LINE
  5
8F
330
1F
100
AcDbEntity
  8
SLD-0
  6
Continuous
 62
   179
100
AcDbLine
 10
93.2789005941
 20
131.2615823955
 30
0.0
 11
95.2901665113
 21
131.2615823812
 31
0.0
  0
LINE
  5
90
330
1F
100
AcDbEntity
  8
SLD-0
  6
Continuous
 62
   179
100
AcDbLine
 10
95.2901665113
 20
131.2615823812
 30
0.0
 11
95.2901665113
 21
131.8615824097
 31
0.0
  0
LINE
  5
91
330
1F
100
AcDbEntity
  8
SLD-0
  6
Continuous
 62
   179
100
AcDbLine
 10
95.2901665113
 20
131.8615824097
 30
0.0
 11
93.2789005941
 21
131.8615823955
 31
0.0
  0
LINE
  5
92
330
1F
100
AcDbEntity
  8
SLD-0
  6
Continuous
 62
   179
100
AcDbLine
 10
85.3014323241
 20
131.8615823955
 30
0.0
 11
75.7901661089
 21
131.8615824097
 31
0.0
  0
LINE
  5
93
330
1F
100
AcDbEntity
  8
SLD-0
  6
Continuous
 62
   179
100
AcDbLine
 10
75.7901661089
 20
131.2615823812
 30
0.0
 11
85.3014323241
 21
131.2615823955
 31
0.0
  0
LINE
  5
94
330
1F
100
AcDbEntity
  8
SLD-0
  6
Continuous
 62
   179
100
AcDbLine
 10
106.290167383
 20
137.0615823657
 30
0.0
 11
106.290167383
 21
126.0615824253
 31
0.0
  0
LINE
  5
95
330
1F
100
AcDbEntity
  8
SLD-0
  6
Continuous
 62
   179
100
AcDbLine
 10
106.290167383
 20
137.0615823657
 30
0.0
 11
105.7901663697
 21
137.5615824477
 31
0.0
  0
LINE
  5
96
330
1F
100
AcDbEntity
  8
SLD-0
  6
Continuous
 62
   179
100
AcDbLine
 10
106.290167383
 20
126.0615824253
 30
0.0
 11
105.7901663697
 21
125.5615823433
 31
0.0
  0
LINE
  5
97
330
1F
100
AcDbEntity
  8
SLD-0
  6
HIDDEN
 62
     8
100
AcDbLine
 10
81.2901664591
 20
134.5615823955
 30
0.0
 11
85.2901664591
 21
134.5615823955
 31
0.0
  0
LINE
  5
98
330
1F
100
AcDbEntity
  8
SLD-0
  6
HIDDEN
 62
     8
100
AcDbLine
 10
77.2901664591
 20
134.5615823955
 30
0.0
 11
81.2901664591
 21
134.5615823955
 31
0.0
  0
LINE
  5
99
330
1F
100
AcDbEntity
  8
SLD-0
  6
HIDDEN
 62
     8
100
AcDbLine
 10
102.5020863852
 20
130.6776989482
 30
0.0
 11
102.5173777706
 21
130.6990557464
 31
0.0
  0
LINE
  5
9A
330
1F
100
AcDbEntity
  8
SLD-0
  6
HIDDEN
 62
     8
100
AcDbLine
 10
102.5173777706
 20
130.6990557464
 30
0.0
 11
102.6057602829
 21
130.8425938591
 31
0.0
  0
LINE
  5
9B
330
1F
100
AcDbEntity
  8
SLD-0
  6
HIDDEN
 62
     8
100
AcDbLine
 10
102.7775250366
 20
131.4305116361
 30
0.0
 11
102.7826733878
 21
131.7113256923
 31
0.0
  0
LINE
  5
9C
330
1F
100
AcDbEntity
  8
SLD-0
  6
HIDDEN
 62
     8
100
AcDbLine
 10
102.7826733878
 20
131.7113256923
 30
0.0
 11
102.7238016939
 21
131.9940392973
 31
0.0
  0
LINE
  5
9D
330
1F
100
AcDbEntity
  8
SLD-0
  6
HIDDEN
 62
     8
100
AcDbLine
 10
102.5150541207
 20
132.4253944444
 30
0.0
 11
102.5020863852
 21
132.4454658429
 31
0.0
  0
LINE
  5
9E
330
1F
100
AcDbEntity
  8
SLD-0
  6
HIDDEN
 62
     8
100
AcDbLine
 10
77.2901663548
 20
137.5615824477
 30
0.0
 11
77.2901664591
 21
134.5615823955
 31
0.0
  0
LINE
  5
9F
330
1F
100
AcDbEntity
  8
SLD-0
  6
HIDDEN
 62
     8
100
AcDbLine
 10
85.2901664591
 20
134.5615823955
 30
0.0
 11
85.2901662691
 21
137.5615824477
 31
0.0
  0
LINE
  5
A0
330
1F
100
AcDbEntity
  8
SLD-0
  6
HIDDEN
 62
     8
100
AcDbLine
 10
79.040166176
 20
134.5615824216
 30
0.0
 11
79.040166176
 21
131.8615824097
 31
0.0
  0
LINE
  5
A1
330
1F
100
AcDbEntity
  8
SLD-0
  6
HIDDEN
 62
     8
100
AcDbLine
 10
83.5401664479
 20
131.8615824097
 30
0.0
 11
83.5401664479
 21
134.5615824216
 31
0.0
  0
LINE
  5
A2
330
1F
100
AcDbEntity
  8
SLD-0
  6
HIDDEN
 62
     8
100
AcDbLine
 10
79.6401660881
 20
131.2615823812
 30
0.0
 11
79.6401660881
 21
125.5615823433
 31
0.0
  0
LINE
  5
A3
330
1F
100
AcDbEntity
  8
SLD-0
  6
HIDDEN
 62
     8
100
AcDbLine
 10
82.9401665358
 20
125.5615823433
 30
0.0
 11
82.9401665358
 21
131.2615823812
 31
0.0
  0
LINE
  5
A4
330
1F
100
AcDbEntity
  8
SLD-0
  6
HIDDEN
 62
     8
100
AcDbLine
 10
99.7901663175
 20
131.5615823955
 30
0.0
 11
99.7901663175
 21
125.5615823433
 31
0.0
  0
LINE
  5
A5
330
1F
100
AcDbEntity
  8
SLD-0
  6
HIDDEN
 62
     8
100
AcDbLine
 10
102.7901668093
 20
125.5615823433
 30
0.0
 11
102.7901668093
 21
130.3237621437
 31
0.0
  0
LINE
  5
A6
330
1F
100
AcDbEntity
  8
SLD-0
  6
HIDDEN
 62
     8
100
AcDbLine
 10
99.7901663175
 20
137.5615824477
 30
0.0
 11
99.7901663175
 21
131.5615823955
 31
0.0
  0
LINE
  5
A7
330
1F
100
AcDbEntity
  8
SLD-0
  6
HIDDEN
 62
     8
100
AcDbLine
 10
102.7901668093
 20
132.7993509589
 30
0.0
 11
102.7901668093
 21
137.5615824477
 31
0.0
  0
LINE
  5
A8
330
1F
100
AcDbEntity
  8
SLD-0
  6
HIDDEN
 62
     8
100
AcDbLine
 10
106.290167383
 20
132.8115823676
 30
0.0
 11
102.7799893162
 21
132.8115823676
 31
0.0
  0
LINE
  5
A9
330
1F
100
AcDbEntity
  8
SLD-0
  6
HIDDEN
 62
     8
100
AcDbLine
 10
102.7800368136
 20
130.3115824234
 30
0.0
 11
106.290167383
 21
130.3115824234
 31
0.0
  0
LINE
  5
AA
330
1F
100
AcDbEntity
  8
SLD-0
 62
   179
100
AcDbLine
 10
106.0401664591
 20
137.3115823955
 30
0.0
 11
111.1071659339
 21
141.0434228919
 31
0.0
  0
LINE
  5
AB
330
1F
100
AcDbEntity
  8
SLD-0
 62
   179
100
AcDbLine
 10
111.1071659339
 20
141.0434228919
 30
0.0
 11
123.4672568998
 21
150.2097074265
 31
0.0
  0
LINE
  5
AC
330
1F
100
AcDbEntity
  8
SLD-0
100
AcDbLine
 10
79.1951246506
 20
123.0386259348
 30
0.0
 11
73.7571695313
 21
114.5862159226
 31
0.0
  0
LINE
  5
AD
330
1F
100
AcDbEntity
  8
SLD-0
100
AcDbLine
 10
73.7571695313
 20
114.5862159226
 30
0.0
 11
69.1835078004
 21
114.5862159226
 31
0.0
  0
LINE
  5
AE
330
1F
100
AcDbEntity
  8
SLD-0
  6
HIDDEN
 62
   179
100
AcDbLine
 10
83.2901664069
 20
125.5615823433
 30
0.0
 11
83.2901664069
 21
131.2615823812
 31
0.0
  0
LINE
  5
AF
330
1F
100
AcDbEntity
  8
SLD-0
  6
HIDDEN
 62
   179
100
AcDbLine
 10
79.2901666826
 20
131.2615823812
 30
0.0
 11
79.2901666826
 21
125.5615823433
 31
0.0
  0
LINE
  5
B0
330
1F
100
AcDbEntity
  8
SLD-0
  6
HIDDEN
 62
   179
100
AcDbLine
 10
102.7901668093
 20
130.0615823825
 30
0.0
 11
106.290167383
 21
130.0615823825
 31
0.0
  0
LINE
  5
B1
330
1F
100
AcDbEntity
  8
SLD-0
  6
HIDDEN
 62
   179
100
AcDbLine
 10
106.290167383
 20
133.0615824085
 30
0.0
 11
102.7901668093
 21
133.0615824085
 31
0.0
  0
LINE
  5
B2
330
1F
100
AcDbEntity
  8
SLD-0
  6
HIDDEN
 62
   179
100
AcDbLine
 10
102.7901668093
 20
130.0615823825
 30
0.0
 11
102.7864918104
 21
130.0652574978
 31
0.0
  0
LINE
  5
B3
330
1F
100
AcDbEntity
  8
SLD-0
  6
HIDDEN
 62
   179
100
AcDbLine
 10
102.7864918104
 20
130.0652574978
 30
0.0
 11
102.5020863852
 21
130.3496624573
 31
0.0
  0
LINE
  5
B4
330
1F
100
AcDbEntity
  8
SLD-0
  6
HIDDEN
 62
   179
100
AcDbLine
 10
102.5020863852
 20
130.3496624573
 30
0.0
 11
102.5020863852
 21
130.6776989482
 31
0.0
  0
LINE
  5
B5
330
1F
100
AcDbEntity
  8
SLD-0
  6
HIDDEN
 62
   179
100
AcDbLine
 10
102.5020863852
 20
132.4454658429
 30
0.0
 11
102.5020863852
 21
132.7735023337
 31
0.0
  0
LINE
  5
B6
330
1F
100
AcDbEntity
  8
SLD-0
  6
HIDDEN
 62
   179
100
AcDbLine
 10
102.5020863852
 20
132.7735023337
 30
0.0
 11
102.6135908431
 21
132.8850063259
 31
0.0
  0
LINE
  5
B7
330
1F
100
AcDbEntity
  8
SLD-0
  6
HIDDEN
 62
   179
100
AcDbLine
 10
102.6135908431
 20
132.8850063259
 30
0.0
 11
102.7901668093
 21
133.0615824085
 31
0.0
  0
LINE
  5
B8
330
1F
100
AcDbEntity
  8
SLD-0
  6
CENTERX2
 62
   179
100
AcDbLine
 10
81.2901664591
 20
123.5615823955
 30
0.0
 11
81.2901664591
 21
139.5615823955
 31
0.0
  0
LINE
  5
B9
330
1F
100
AcDbEntity
  8
SLD-0
  6
Continuous
 62
   179
100
AcDbLine
 10
75.290166027
 20
191.2200237641
 30
0.0
 11
75.290166027
 21
200.2200233767
 31
0.0
  0
LINE
  5
BA
330
1F
100
AcDbEntity
  8
SLD-0
  6
Continuous
 62
   179
100
AcDbLine
 10
75.7901661089
 20
200.7200234586
 30
0.0
 11
75.290166027
 21
200.2200233767
 31
0.0
  0
LINE
  5
BB
330
1F
100
AcDbEntity
  8
SLD-0
  6
Continuous
 62
   179
100
AcDbLine
 10
75.7901661089
 20
200.7200234586
 30
0.0
 11
75.7901661089
 21
190.7200236821
 31
0.0
  0
LINE
  5
BC
330
1F
100
AcDbEntity
  8
SLD-0
  6
Continuous
 62
   179
100
AcDbLine
 10
75.290166027
 20
191.2200237641
 30
0.0
 11
75.7901661089
 21
190.7200236821
 31
0.0
  0
LINE
  5
BD
330
1F
100
AcDbEntity
  8
SLD-0
  6
Continuous
 62
   179
100
AcDbLine
 10
105.7901663697
 20
200.7200234586
 30
0.0
 11
75.7901661089
 21
200.7200234586
 31
0.0
  0
LINE
  5
BE
330
1F
100
AcDbEntity
  8
SLD-0
  6
Continuous
 62
   179
100
AcDbLine
 10
105.7901663697
 20
190.7200236821
 30
0.0
 11
105.7901663697
 21
200.7200234586
 31
0.0
  0
LINE
  5
BF
330
1F
100
AcDbEntity
  8
SLD-0
  6
Continuous
 62
   179
100
AcDbLine
 10
105.7901663697
 20
190.7200236821
 30
0.0
 11
75.7901661089
 21
190.7200236821
 31
0.0
  0
LINE
  5
C0
330
1F
100
AcDbEntity
  8
SLD-0
  6
Continuous
 62
   179
100
AcDbLine
 10
106.290167383
 20
200.2200233767
 30
0.0
 11
106.290167383
 21
191.2200237641
 31
0.0
  0
LINE
  5
C1
330
1F
100
AcDbEntity
  8
SLD-0
  6
Continuous
 62
   179
100
AcDbLine
 10
106.290167383
 20
191.2200237641
 30
0.0
 11
105.7901663697
 21
190.7200236821
 31
0.0
  0
LINE
  5
C2
330
1F
100
AcDbEntity
  8
SLD-0
  6
Continuous
 62
   179
100
AcDbLine
 10
105.7901663697
 20
200.7200234586
 30
0.0
 11
106.290167383
 21
200.2200233767
 31
0.0
  0
LINE
  5
C3
330
1F
100
AcDbEntity
  8
SLD-0
  6
HIDDEN
 62
     8
100
AcDbLine
 10
102.7799315742
 20
196.9577213533
 30
0.0
 11
102.7826733878
 21
196.9610219605
 31
0.0
  0
LINE
  5
C4
330
1F
100
AcDbEntity
  8
SLD-0
  6
HIDDEN
 62
     8
100
AcDbLine
 10
102.7826733878
 20
196.9610219605
 30
0.0
 11
102.7183860532
 21
196.8829124018
 31
0.0
  0
LINE
  5
C5
330
1F
100
AcDbEntity
  8
SLD-0
  6
HIDDEN
 62
     8
100
AcDbLine
 10
102.7183860532
 20
196.8829124018
 30
0.0
 11
102.5940684593
 21
196.7263342596
 31
0.0
  0
LINE
  5
C6
330
1F
100
AcDbEntity
  8
SLD-0
  6
HIDDEN
 62
     8
100
AcDbLine
 10
102.5940684593
 20
196.7263342596
 30
0.0
 11
102.5020863852
 21
196.6039070178
 31
0.0
  0
LINE
  5
C7
330
1F
100
AcDbEntity
  8
SLD-0
  6
HIDDEN
 62
     8
100
AcDbLine
 10
93.2789004399
 20
190.7200236821
 30
0.0
 11
93.2789004399
 21
200.7200234586
 31
0.0
  0
LINE
  5
C8
330
1F
100
AcDbEntity
  8
SLD-0
  6
HIDDEN
 62
     8
100
AcDbLine
 10
95.2901665113
 20
200.7200234586
 30
0.0
 11
95.2901665113
 21
190.7200236821
 31
0.0
  0
LINE
  5
C9
330
1F
100
AcDbEntity
  8
SLD-0
  6
HIDDEN
 62
     8
100
AcDbLine
 10
85.3014324783
 20
200.7200234586
 30
0.0
 11
85.3014324783
 21
190.7200236821
 31
0.0
  0
LINE
  5
CA
330
1F
100
AcDbEntity
  8
SLD-0
  6
HIDDEN
 62
     8
100
AcDbLine
 10
102.7901668093
 20
196.9577213533
 30
0.0
 11
102.7901668093
 21
200.7200234586
 31
0.0
  0
LINE
  5
CB
330
1F
100
AcDbEntity
  8
SLD-0
  6
HIDDEN
 62
     8
100
AcDbLine
 10
99.7901663175
 20
200.7200234586
 30
0.0
 11
99.7901663175
 21
195.7200235704
 31
0.0
  0
LINE
  5
CC
330
1F
100
AcDbEntity
  8
SLD-0
  6
HIDDEN
 62
     8
100
AcDbLine
 10
102.7901668093
 20
190.7200236821
 30
0.0
 11
102.7901668093
 21
194.4823257874
 31
0.0
  0
LINE
  5
CD
330
1F
100
AcDbEntity
  8
SLD-0
  6
HIDDEN
 62
     8
100
AcDbLine
 10
99.7901663175
 20
195.7200235704
 30
0.0
 11
99.7901663175
 21
190.7200236821
 31
0.0
  0
LINE
  5
CE
330
1F
100
AcDbEntity
  8
SLD-0
  6
HIDDEN
 62
     8
100
AcDbLine
 10
106.290167383
 20
196.9700235424
 30
0.0
 11
102.7799334368
 21
196.9700235424
 31
0.0
  0
LINE
  5
CF
330
1F
100
AcDbEntity
  8
SLD-0
  6
HIDDEN
 62
     8
100
AcDbLine
 10
102.7799334368
 20
194.4700235983
 30
0.0
 11
106.290167383
 21
194.4700235983
 31
0.0
  0
LINE
  5
D0
330
1F
100
AcDbEntity
  8
SLD-0
 62
   179
100
AcDbLine
 10
75.5401664591
 20
200.4700235704
 30
0.0
 11
57.996295938
 21
213.4920517055
 31
0.0
  0
LINE
  5
D1
330
1F
100
AcDbEntity
  8
SLD-0
 62
   179
100
AcDbLine
 10
57.996295938
 20
213.4920517055
 30
0.0
 11
70.3440048416
 21
204.3090943559
 31
0.0
  0
LINE
  5
D2
330
1F
100
AcDbEntity
  8
SLD-0
  6
HIDDEN
 62
   179
100
AcDbLine
 10
102.7901668093
 20
194.2200235573
 30
0.0
 11
106.290167383
 21
194.2200235573
 31
0.0
  0
LINE
  5
D3
330
1F
100
AcDbEntity
  8
SLD-0
  6
HIDDEN
 62
   179
100
AcDbLine
 10
106.290167383
 20
197.2200235834
 30
0.0
 11
102.7901668093
 21
197.2200235834
 31
0.0
  0
LINE
  5
D4
330
1F
100
AcDbEntity
  8
SLD-0
  6
HIDDEN
 62
   179
100
AcDbLine
 10
102.5020863852
 20
194.5081036322
 30
0.0
 11
102.5020863852
 21
194.836140123
 31
0.0
  0
LINE
  5
D5
330
1F
100
AcDbEntity
  8
SLD-0
  6
HIDDEN
 62
   179
100
AcDbLine
 10
102.5020863852
 20
196.6039070178
 30
0.0
 11
102.5020863852
 21
196.9319435086
 31
0.0
  0
LINE
  5
D6
330
1F
100
AcDbEntity
  8
SLD-0
  6
HIDDEN
 62
   179
100
AcDbLine
 10
102.5020863852
 20
196.9319435086
 30
0.0
 11
102.6135908431
 21
197.0434475008
 31
0.0
  0
LINE
  5
D7
330
1F
100
AcDbEntity
  8
SLD-0
  6
HIDDEN
 62
   179
100
AcDbLine
 10
102.6135908431
 20
197.0434475008
 30
0.0
 11
102.7901668093
 21
197.2200235834
 31
0.0
  0
LINE
  5
D8
330
1F
100
AcDbEntity
  8
SLD-0
  6
HIDDEN
 62
   179
100
AcDbLine
 10
102.7901668093
 20
194.2200235573
 30
0.0
 11
102.7864918104
 21
194.2236986726
 31
0.0
  0
LINE
  5
D9
330
1F
100
AcDbEntity
  8
SLD-0
  6
HIDDEN
 62
   179
100
AcDbLine
 10
102.7864918104
 20
194.2236986726
 30
0.0
 11
102.5020863852
 21
194.5081036322
 31
0.0
  0
LINE
  5
DA
330
1F
100
AcDbEntity
  8
SLD-0
  6
CENTERX2
 62
   179
100
AcDbLine
 10
89.2901664591
 20
188.7200235704
 30
0.0
 11
89.2901664591
 21
202.7200235704
 31
0.0
  0
LINE
  5
DB
330
1F
100
AcDbEntity
  8
SLD-0
  6
Continuous
 62
   179
100
AcDbLine
 10
147.5568299073
 20
126.0615824253
 30
0.0
 11
156.5568295199
 21
126.0615824253
 31
0.0
  0
LINE
  5
DC
330
1F
100
AcDbEntity
  8
SLD-0
  6
Continuous
 62
   179
100
AcDbLine
 10
157.0568296018
 20
125.5615823433
 30
0.0
 11
156.5568295199
 21
126.0615824253
 31
0.0
  0
LINE
  5
DD
330
1F
100
AcDbEntity
  8
SLD-0
  6
Continuous
 62
   179
100
AcDbLine
 10
157.0568296018
 20
125.5615823433
 30
0.0
 11
147.0568298254
 21
125.5615823433
 31
0.0
  0
LINE
  5
DE
330
1F
100
AcDbEntity
  8
SLD-0
  6
Continuous
 62
   179
100
AcDbLine
 10
147.5568299073
 20
126.0615824253
 30
0.0
 11
147.0568298254
 21
125.5615823433
 31
0.0
  0
LINE
  5
DF
330
1F
100
AcDbEntity
  8
SLD-0
  6
Continuous
 62
   179
100
AcDbLine
 10
156.5568295199
 20
137.0615823657
 30
0.0
 11
147.5568299073
 21
137.0615823657
 31
0.0
  0
LINE
  5
E0
330
1F
100
AcDbEntity
  8
SLD-0
  6
Continuous
 62
   179
100
AcDbLine
 10
147.5568299073
 20
137.0615823657
 30
0.0
 11
147.0568298254
 21
137.5615824477
 31
0.0
  0
LINE
  5
E1
330
1F
100
AcDbEntity
  8
SLD-0
  6
Continuous
 62
   179
100
AcDbLine
 10
147.0568298254
 20
137.5615824477
 30
0.0
 11
157.0568296018
 21
137.5615824477
 31
0.0
  0
LINE
  5
E2
330
1F
100
AcDbEntity
  8
SLD-0
  6
Continuous
 62
   179
100
AcDbLine
 10
157.0568296018
 20
137.5615824477
 30
0.0
 11
156.5568295199
 21
137.0615823657
 31
0.0
  0
LINE
  5
E3
330
1F
100
AcDbEntity
  8
SLD-0
  6
Continuous
 62
   179
100
AcDbLine
 10
156.5568295199
 20
126.0615824253
 30
0.0
 11
156.5568295199
 21
137.0615823657
 31
0.0
  0
LINE
  5
E4
330
1F
100
AcDbEntity
  8
SLD-0
  6
Continuous
 62
   179
100
AcDbLine
 10
147.5568299073
 20
137.0615823657
 30
0.0
 11
147.5568299073
 21
126.0615824253
 31
0.0
  0
LINE
  5
E5
330
1F
100
AcDbEntity
  8
SLD-0
  6
Continuous
 62
   179
100
AcDbLine
 10
157.0568296018
 20
137.5615824477
 30
0.0
 11
157.0568296018
 21
125.5615823433
 31
0.0
  0
LINE
  5
E6
330
1F
100
AcDbEntity
  8
SLD-0
  6
Continuous
 62
   179
100
AcDbLine
 10
147.0568298254
 20
125.5615823433
 30
0.0
 11
147.0568298254
 21
137.5615824477
 31
0.0
  0
LINE
  5
E7
330
1F
100
AcDbEntity
  8
SLD-0
  6
Continuous
 62
   179
100
AcDbLine
 10
152.940713161
 20
132.4454658429
 30
0.0
 11
152.0568297136
 21
131.5615823955
 31
0.0
  0
LINE
  5
E8
330
1F
100
AcDbEntity
  8
SLD-0
  6
Continuous
 62
   179
100
AcDbLine
 10
152.0568297136
 20
131.5615823955
 30
0.0
 11
152.940713161
 21
130.6776989481
 31
0.0
  0
LINE
  5
E9
330
1F
100
AcDbEntity
  8
SLD-0
  6
Continuous
 62
   179
100
AcDbLine
 10
151.1729462662
 20
130.6776989481
 30
0.0
 11
152.0568297136
 21
131.5615823955
 31
0.0
  0
LINE
  5
EA
330
1F
100
AcDbEntity
  8
SLD-0
  6
Continuous
 62
   179
100
AcDbLine
 10
152.0568297136
 20
131.5615823955
 30
0.0
 11
151.1729462662
 21
132.4454658429
 31
0.0
  0
LINE
  5
EB
330
1F
100
AcDbEntity
  8
SLD-0
  6
HIDDEN
 62
     8
100
AcDbLine
 10
152.940713161
 20
132.4454658429
 30
0.0
 11
153.5568297266
 21
133.0615824085
 31
0.0
  0
LINE
  5
EC
330
1F
100
AcDbEntity
  8
SLD-0
  6
HIDDEN
 62
     8
100
AcDbLine
 10
152.940713161
 20
130.6776989481
 30
0.0
 11
153.5568297266
 21
130.0615823825
 31
0.0
  0
LINE
  5
ED
330
1F
100
AcDbEntity
  8
SLD-0
  6
HIDDEN
 62
     8
100
AcDbLine
 10
157.0568296018
 20
130.0626830893
 30
0.0
 11
157.0568296018
 21
133.0604817017
 31
0.0
  0
LINE
  5
EE
330
1F
100
AcDbEntity
  8
SLD-0
  6
HIDDEN
 62
     8
100
AcDbLine
 10
151.1729462662
 20
130.6776989481
 30
0.0
 11
150.5568297006
 21
130.0615823825
 31
0.0
  0
LINE
  5
EF
330
1F
100
AcDbEntity
  8
SLD-0
  6
HIDDEN
 62
     8
100
AcDbLine
 10
150.5568297136
 20
125.5615823955
 30
0.0
 11
153.5524284126
 21
125.5615823433
 31
0.0
  0
LINE
  5
F0
330
1F
100
AcDbEntity
  8
SLD-0
  6
HIDDEN
 62
     8
100
AcDbLine
 10
151.1729462662
 20
132.4454658429
 30
0.0
 11
150.5568297006
 21
133.0615824085
 31
0.0
  0
LINE
  5
F1
330
1F
100
AcDbEntity
  8
SLD-0
  6
HIDDEN
 62
     8
100
AcDbLine
 10
150.5568297136
 20
137.5615823955
 30
0.0
 11
153.5524284126
 21
137.5615824477
 31
0.0
  0
LINE
  5
F2
330
1F
100
AcDbEntity
  8
SLD-0
  6
HIDDEN
 62
     8
100
AcDbLine
 10
147.0568298254
 20
130.0626830893
 30
0.0
 11
147.0568298254
 21
133.0604817017
 31
0.0
  0
LINE
  5
F3
330
1F
100
AcDbEntity
  8
SLD-0
  6
HIDDEN
 62
     8
100
AcDbLine
 10
153.5568297266
 20
130.0615823825
 30
0.0
 11
157.0568296018
 21
130.0615823825
 31
0.0
  0
LINE
  5
F4
330
1F
100
AcDbEntity
  8
SLD-0
  6
HIDDEN
 62
     8
100
AcDbLine
 10
157.0568296018
 20
133.0615824085
 30
0.0
 11
153.5568297266
 21
133.0615824085
 31
0.0
  0
LINE
  5
F5
330
1F
100
AcDbEntity
  8
SLD-0
  6
HIDDEN
 62
     8
100
AcDbLine
 10
150.5568297006
 20
130.0615823825
 30
0.0
 11
150.5568297136
 21
125.5615823955
 31
0.0
  0
LINE
  5
F6
330
1F
100
AcDbEntity
  8
SLD-0
  6
HIDDEN
 62
     8
100
AcDbLine
 10
153.5568297266
 20
125.5615823433
 30
0.0
 11
153.5568297266
 21
130.0615823825
 31
0.0
  0
LINE
  5
F7
330
1F
100
AcDbEntity
  8
SLD-0
  6
HIDDEN
 62
     8
100
AcDbLine
 10
150.5568297136
 20
137.5615823955
 30
0.0
 11
150.5568297006
 21
133.0615824085
 31
0.0
  0
LINE
  5
F8
330
1F
100
AcDbEntity
  8
SLD-0
  6
HIDDEN
 62
     8
100
AcDbLine
 10
153.5568297266
 20
133.0615824085
 30
0.0
 11
153.5568297266
 21
137.5615824477
 31
0.0
  0
LINE
  5
F9
330
1F
100
AcDbEntity
  8
SLD-0
  6
HIDDEN
 62
     8
100
AcDbLine
 10
147.0568298254
 20
130.0615823825
 30
0.0
 11
150.5568297006
 21
130.0615823825
 31
0.0
  0
LINE
  5
FA
330
1F
100
AcDbEntity
  8
SLD-0
  6
HIDDEN
 62
     8
100
AcDbLine
 10
150.5568297006
 20
133.0615824085
 30
0.0
 11
147.0568298254
 21
133.0615824085
 31
0.0
  0
LINE
  5
FB
330
1F
100
AcDbEntity
  8
SLD-0
  6
CENTERX2
 62
   179
100
AcDbLine
 10
152.0568297136
 20
123.5615823955
 30
0.0
 11
152.0568297136
 21
139.5615823955
 31
0.0
  0
LINE
  5
FC
330
1F
100
AcDbEntity
  8
SLD-0
  6
CENTERX2
 62
   179
100
AcDbLine
 10
159.0568297136
 20
131.5615823955
 30
0.0
 11
145.0568297136
 21
131.5615823955
 31
0.0
  0
ARC
  5
FD
330
1F
100
AcDbEntity
  8
SLD-0
  6
Continuous
 62
   179
100
AcDbCircle
 10
89.2901664591
 20
131.5615823955
 30
0.0
 40
3.999999999999999
100
AcDbArc
 50
184.3012223047
 51
355.6987776953
  0
ARC
  5
FE
330
1F
100
AcDbEntity
  8
SLD-0
  6
Continuous
 62
   179
100
AcDbCircle
 10
89.2901664591
 20
131.5615823955
 30
0.0
 40
3.999999999964275
100
AcDbArc
 50
4.3012223047
 51
175.6987776953
  0
CIRCLE
  5
FF
330
1F
100
AcDbEntity
  8
SLD-0
  6
Continuous
 62
   179
100
AcDbCircle
 10
101.2901664591
 20
131.5615823955
 30
0.0
 40
1.5
  0
ARC
  5
100
330
1F
100
AcDbEntity
  8
SLD-0
  6
HIDDEN
 62
     8
100
AcDbCircle
 10
108.596281465
 20
135.1773989753
 30
0.0
 40
7.575388703200011
100
AcDbArc
 50
216.4406169041
 51
219.844876741
  0
ARC
  5
101
330
1F
100
AcDbEntity
  8
SLD-0
  6
HIDDEN
 62
     8
100
AcDbCircle
 10
108.6553532858
 20
127.8994183361
 30
0.0
 40
7.650440607200005
100
AcDbArc
 50
140.1725892103
 51
143.5429273373
  0
CIRCLE
  5
102
330
1F
100
AcDbEntity
  8
SLD-0
  6
Continuous
 62
   179
100
AcDbCircle
 10
81.2901664591
 20
195.7200235704
 30
0.0
 40
4.0
  0
CIRCLE
  5
103
330
1F
100
AcDbEntity
  8
SLD-0
  6
Continuous
 62
   179
100
AcDbCircle
 10
101.2901664591
 20
195.7200235704
 30
0.0
 40
1.5
  0
CIRCLE
  5
104
330
1F
100
AcDbEntity
  8
SLD-0
  6
Continuous
 62
   179
100
AcDbCircle
 10
81.2901664591
 20
195.7200235704
 30
0.0
 40
2.25
  0
CIRCLE
  5
105
330
1F
100
AcDbEntity
  8
SLD-0
  6
Continuous
 62
   179
100
AcDbCircle
 10
81.2901664591
 20
195.7200235704
 30
0.0
 40
1.649999999999992
  0
ARC
  5
106
330
1F
100
AcDbEntity
  8
SLD-0
  6
HIDDEN
 62
     8
100
AcDbCircle
 10
108.6152280413
 20
199.350699234
 30
0.0
 40
7.599456880200017
100
AcDbArc
 50
216.4458920101
 51
219.8381589879
  0
CIRCLE
  5
107
330
1F
100
AcDbEntity
  8
SLD-0
 62
   179
100
AcDbCircle
 10
81.2901664591
 20
195.7200235704
 30
0.0
 40
1.999999947799992
  0
CIRCLE
  5
108
330
1F
100
AcDbEntity
  8
SLD-0
  6
Continuous
 62
   179
100
AcDbCircle
 10
152.0568297136
 20
131.5615823955
 30
0.0
 40
1.25
  0
ARC
  5
109
330
1F
100
AcDbEntity
  8
SLD-0
  6
HIDDEN
 62
     8
100
AcDbCircle
 10
152.0568297136
 20
131.5615823955
 30
0.0
 40
1.24999995887018
100
AcDbArc
 50
315.0
 51
45.0
  0
ARC
  5
10A
330
1F
100
AcDbEntity
  8
SLD-0
  6
HIDDEN
 62
     8
100
AcDbCircle
 10
152.0568297136
 20
131.5615823955
 30
0.0
 40
1.24999995887018
100
AcDbArc
 50
225.0
 51
315.0
  0
ARC
  5
10B
330
1F
100
AcDbEntity
  8
SLD-0
  6
HIDDEN
 62
     8
100
AcDbCircle
 10
152.0568297136
 20
131.5615823955
 30
0.0
 40
1.249999958870159
100
AcDbArc
 50
45.0
 51
135.0
  0
ARC
  5
10C
330
1F
100
AcDbEntity
  8
SLD-0
  6
HIDDEN
 62
     8
100
AcDbCircle
 10
152.0568297136
 20
131.5615823955
 30
0.0
 40
1.24999995887018
100
AcDbArc
 50
135.0
 51
225.0
  0
CIRCLE
  5
10D
330
1F
100
AcDbEntity
  8
SLD-0
 62
   179
100
AcDbCircle
 10
152.0568297136
 20
131.5615823955
 30
0.0
 40
1.500000012999976
  0
DIMENSION
  5
10E
330
1F
100
AcDbEntity
  8
SLD-0
 62
     7
100
AcDbDimension
  2
*D9
 10
4.492569773
 20
6.6194253164
 30
0.0
 11
61.5123930944
 21
-4.9645699692
 31
0.0
 70
   163
  1
<>　 
 71
     1
 42
7.9999984178
  3
SLDDIMSTYLE0
100
AcDbDiametricDimension
 15
0.0
 25
0.0
 35
0.0
 40
0.0
1001
ACAD
1000
DSTYLE
1002
{
1070
    77
1070
     0
1070
   143
1040
0.0393700787
1070
    41
1040
3.0
1070
    44
1040
1.0
1070
    42
1040
1.0
1070
   147
1040
1.524
1070
    73
1070
     1
1070
    74
1070
     1
1070
   140
1040
3.5
1070
   284
1070
     0
1070
    78
1070
    12
1002
}
  0
DIMENSION
  5
129
330
1F
100
AcDbEntity
  8
SLD-0
 62
     7
100
AcDbDimension
  2
*D11
 10
128.2835502499
 20
125.5615823955
 30
0.0
 11
128.2835502499
 21
131.5615823955
 31
0.0
 70
   160
 71
     1
 42
12.0
  3
SLDDIMSTYLE1
100
AcDbAlignedDimension
 13
106.2901664591
 23
137.5615823955
 33
0.0
 14
106.2901664591
 24
125.5615823955
 34
0.0
 50
90.0
100
AcDbRotatedDimension
1001
ACAD
1000
DSTYLE
1002
{
1070
    77
1070
     3
1070
   143
1040
0.0393700787
1070
    41
1040
3.0
1070
    44
1040
1.0
1070
    42
1040
1.0
1070
   147
1040
1.524
1070
    73
1070
     0
1070
    74
1070
     0
1070
   140
1040
3.5
1070
   284
1070
    12
1070
    78
1070
    12
1002
}
  0
DIMENSION
  5
142
330
1F
100
AcDbEntity
  8
SLD-0
 62
     7
100
AcDbDimension
  2
*D12
 10
59.7818436634
 20
131.5615823955
 30
0.0
 11
59.7818436634
 21
128.5615823955
 31
0.0
 70
   160
 71
     1
 42
6.0
  3
SLDDIMSTYLE1
100
AcDbAlignedDimension
 13
75.2901664591
 23
125.5615823955
 33
0.0
 14
89.2901664591
 24
131.5615823955
 34
0.0
 50
90.0
100
AcDbRotatedDimension
1001
ACAD
1000
DSTYLE
1002
{
1070
    77
1070
     3
1070
   143
1040
0.0393700787
1070
    41
1040
3.0
1070
    44
1040
1.0
1070
    42
1040
1.0
1070
   147
1040
1.524
1070
    73
1070
     0
1070
    74
1070
     0
1070
   140
1040
3.5
1070
   284
1070
    12
1070
    78
1070
    12
1002
}
  0
DIMENSION
  5
15C
330
1F
100
AcDbEntity
  8
SLD-0
 62
     7
100
AcDbDimension
  2
*D13
 10
67.8357245911
 20
131.2615823955
 30
0.0
 11
67.8357245911
 21
137.3033114673
 31
0.0
 70
   160
 71
     1
 42
0.6
  3
SLDDIMSTYLE2
100
AcDbAlignedDimension
 13
75.2901664591
 23
131.8615823955
 33
0.0
 14
75.2901664591
 24
131.2615823955
 34
0.0
 50
90.0
100
AcDbRotatedDimension
1001
ACAD
1000
DSTYLE
1002
{
1070
    77
1070
     3
1070
   143
1040
0.0393700787
1070
    41
1040
3.0
1070
    44
1040
1.0
1070
    42
1040
1.0
1070
   147
1040
1.524
1070
    73
1070
     0
1070
    74
1070
     0
1070
   140
1040
3.5
1070
   284
1070
    12
1070
    78
1070
     8
1002
}
  0
DIMENSION
  5
178
330
1F
100
AcDbEntity
  8
SLD-0
100
AcDbDimension
  2
*D14
 10
89.2901664591
 20
157.0810953571
 30
0.0
 11
97.7901664591
 21
157.0810953571
 31
0.0
 70
   160
 71
     1
 42
17.0
  3
SLDDIMSTYLE1
100
AcDbAlignedDimension
 13
106.2901664591
 23
137.0615823955
 33
0.0
 14
89.2901664591
 24
138.0615823955
 34
0.0
100
AcDbRotatedDimension
1001
ACAD
1000
DSTYLE
1002
{
1070
    77
1070
     3
1070
   143
1040
0.0393700787
1070
    41
1040
3.0
1070
    44
1040
1.0
1070
    42
1040
1.0
1070
   147
1040
1.524
1070
    73
1070
     0
1070
    74
1070
     0
1070
   140
1040
3.5
1070
   284
1070
    12
1070
    78
1070
    12
1002
}
  0
DIMENSION
  5
18F
330
1F
100
AcDbEntity
  8
SLD-0
 62
     7
100
AcDbDimension
  2
*D15
 10
106.2901664591
 20
109.211019303
 30
0.0
 11
100.7901664591
 21
109.211019303
 31
0.0
 70
   160
 71
     1
 42
11.0
  3
SLDDIMSTYLE1
100
AcDbAlignedDimension
 13
95.2901664591
 23
131.2615823955
 33
0.0
 14
106.2901664591
 24
126.0615823955
 34
0.0
100
AcDbRotatedDimension
1001
ACAD
1000
DSTYLE
1002
{
1070
    77
1070
     3
1070
   143
1040
0.0393700787
1070
    41
1040
3.0
1070
    44
1040
1.0
1070
    42
1040
1.0
1070
   147
1040
1.524
1070
    73
1070
     0
1070
    74
1070
     0
1070
   140
1040
3.5
1070
   284
1070
    12
1070
    78
1070
    12
1002
}
  0
DIMENSION
  5
1A6
330
1F
100
AcDbEntity
  8
SLD-0
 62
     7
100
AcDbDimension
  2
*D16
 10
95.2901664591
 20
109.211019303
 30
0.0
 11
85.2901664591
 21
109.211019303
 31
0.0
 70
   160
  1
(<>)
 71
     1
 42
20.0
  3
SLDDIMSTYLE1
100
AcDbAlignedDimension
 13
75.2901664591
 23
126.0615823955
 33
0.0
 14
95.2901664591
 24
131.2615823955
 34
0.0
100
AcDbRotatedDimension
1001
ACAD
1000
DSTYLE
1002
{
1070
    77
1070
     3
1070
   143
1040
0.0393700787
1070
    41
1040
3.0
1070
    44
1040
1.0
1070
    42
1040
1.0
1070
   147
1040
1.524
1070
    73
1070
     0
1070
    74
1070
     0
1070
   140
1040
3.5
1070
   284
1070
    12
1070
    78
1070
    12
1002
}
  0
DIMENSION
  5
1BF
330
1F
100
AcDbEntity
  8
SLD-0
 62
     7
100
AcDbDimension
  2
*D17
 10
1.8301414898
 20
2.3770946264
 30
0.0
 11
118.3389524703
 21
-4.7541901151
 31
0.0
 70
   163
  1
<>
 71
     1
 42
2.9999994559
  3
SLDDIMSTYLE3
100
AcDbDiametricDimension
 15
0.0
 25
0.0
 35
0.0
 40
0.0
1001
ACAD
1000
DSTYLE
1002
{
1070
    77
1070
     0
1070
   143
1040
0.0393700787
1070
    41
1040
3.0
1070
    44
1040
1.0
1070
    42
1040
1.0
1070
   147
1040
1.524
1070
    73
1070
     1
1070
    74
1070
     1
1070
   140
1040
3.5
1070
   284
1070
     8
1070
    78
1070
    12
1002
}
  0
DIMENSION
  5
1D5
330
1F
100
AcDbEntity
  8
SLD-0
 62
     7
100
AcDbDimension
  2
*D18
 10
101.2901664591
 20
146.9477206673
 30
0.0
 11
103.7901664591
 21
146.9477206673
 31
0.0
 70
   160
 71
     1
 42
5.0
  3
SLDDIMSTYLE1
100
AcDbAlignedDimension
 13
106.2901664591
 23
137.0615823955
 33
0.0
 14
101.2901664591
 24
131.5615823955
 34
0.0
100
AcDbRotatedDimension
1001
ACAD
1000
DSTYLE
1002
{
1070
    77
1070
     3
1070
   143
1040
0.0393700787
1070
    41
1040
3.0
1070
    44
1040
1.0
1070
    42
1040
1.0
1070
   147
1040
1.524
1070
    73
1070
     0
1070
    74
1070
     0
1070
   140
1040
3.5
1070
   284
1070
    12
1070
    78
1070
    12
1002
}
  0
DIMENSION
  5
1EF
330
1F
100
AcDbEntity
  8
SLD-0
 62
     7
100
AcDbDimension
  2
*D19
 10
120.3656274082
 20
131.5615823955
 30
0.0
 11
120.3656274082
 21
128.5615823955
 31
0.0
 70
   160
 71
     1
 42
6.0
  3
SLDDIMSTYLE4
100
AcDbAlignedDimension
 13
105.7901664591
 23
125.5615823955
 33
0.0
 14
101.2901664591
 24
131.5615823955
 34
0.0
 50
90.0
100
AcDbRotatedDimension
1001
ACAD
1000
DSTYLE
1002
{
1070
    77
1070
     3
1070
   143
1040
0.0393700787
1070
    41
1040
3.0
1070
    44
1040
1.0
1070
    42
1040
1.0
1070
   147
1040
1.524
1070
    73
1070
     0
1070
    74
1070
     0
1070
   140
1040
3.5
1070
   284
1070
    12
1070
    78
1070
    12
1002
}
  0
DIMENSION
  5
20A
330
1F
100
AcDbEntity
  8
SLD-0
 62
     7
100
AcDbDimension
  2
*D20
 10
124.2460767458
 20
200.7200235704
 30
0.0
 11
124.2460767458
 21
195.7200235704
 31
0.0
 70
   160
 71
     1
 42
10.0
  3
SLDDIMSTYLE1
100
AcDbAlignedDimension
 13
106.2901664591
 23
190.7200235704
 33
0.0
 14
106.2901664591
 24
200.7200235704
 34
0.0
 50
90.0
100
AcDbRotatedDimension
1001
ACAD
1000
DSTYLE
1002
{
1070
    77
1070
     3
1070
   143
1040
0.0393700787
1070
    41
1040
3.0
1070
    44
1040
1.0
1070
    42
1040
1.0
1070
   147
1040
1.524
1070
    73
1070
     0
1070
    74
1070
     0
1070
   140
1040
3.5
1070
   284
1070
    12
1070
    78
1070
    12
1002
}
  0
DIMENSION
  5
222
330
1F
100
AcDbEntity
  8
SLD-0
 62
     7
100
AcDbDimension
  2
*D21
 10
106.2901664591
 20
223.3433214965
 30
0.0
 11
90.7901664591
 21
223.3433214965
 31
0.0
 70
   160
 71
     1
 42
31.0
  3
SLDDIMSTYLE1
100
AcDbAlignedDimension
 13
75.2901664591
 23
195.7200235704
 33
0.0
 14
106.2901664591
 24
195.7200235704
 34
0.0
100
AcDbRotatedDimension
1001
ACAD
1000
DSTYLE
1002
{
1070
    77
1070
     3
1070
   143
1040
0.0393700787
1070
    41
1040
3.0
1070
    44
1040
1.0
1070
    42
1040
1.0
1070
   147
1040
1.524
1070
    73
1070
     0
1070
    74
1070
     0
1070
   140
1040
3.5
1070
   284
1070
    12
1070
    78
1070
    12
1002
}
  0
DIMENSION
  5
239
330
1F
100
AcDbEntity
  8
SLD-0
100
AcDbDimension
  2
*D22
 10
81.2901664591
 20
215.9317263716
 30
0.0
 11
93.7901664591
 21
215.9317263716
 31
0.0
 70
   160
 71
     1
 42
25.0
  3
SLDDIMSTYLE1
100
AcDbAlignedDimension
 13
106.2901664591
 23
200.2200235704
 33
0.0
 14
81.2901664591
 24
202.2200235704
 34
0.0
100
AcDbRotatedDimension
1001
ACAD
1000
DSTYLE
1002
{
1070
    77
1070
     3
1070
   143
1040
0.0393700787
1070
    41
1040
3.0
1070
    44
1040
1.0
1070
    42
1040
1.0
1070
   147
1040
1.524
1070
    73
1070
     0
1070
    74
1070
     0
1070
   140
1040
3.5
1070
   284
1070
    12
1070
    78
1070
    12
1002
}
  0
DIMENSION
  5
250
330
1F
100
AcDbEntity
  8
SLD-0
100
AcDbDimension
  2
*D23
 10
66.0285461953
 20
190.7200235704
 30
0.0
 11
66.0285461953
 21
193.2200235704
 31
0.0
 70
   160
 71
     1
 42
5.0
  3
SLDDIMSTYLE4
100
AcDbAlignedDimension
 13
74.7901664591
 23
195.7200235704
 33
0.0
 14
75.7901664591
 24
190.7200235704
 34
0.0
 50
90.0
100
AcDbRotatedDimension
1001
ACAD
1000
DSTYLE
1002
{
1070
    77
1070
     3
1070
   143
1040
0.0393700787
1070
    41
1040
3.0
1070
    44
1040
1.0
1070
    42
1040
1.0
1070
   147
1040
1.524
1070
    73
1070
     0
1070
    74
1070
     0
1070
   140
1040
3.5
1070
   284
1070
    12
1070
    78
1070
    12
1002
}
  0
DIMENSION
  5
26A
330
1F
100
AcDbEntity
  8
SLD-0
 62
     7
100
AcDbDimension
  2
*D24
 10
1.3788664775
 20
2.6643433307
 30
0.0
 11
114.9886790203
 21
-5.3286872101
 31
0.0
 70
   163
  1
<>
 71
     1
 42
2.9999996911
  3
SLDDIMSTYLE3
100
AcDbDiametricDimension
 15
0.0
 25
0.0
 35
0.0
 40
0.0
1001
ACAD
1000
DSTYLE
1002
{
1070
    77
1070
     0
1070
   143
1040
0.0393700787
1070
    41
1040
3.0
1070
    44
1040
1.0
1070
    42
1040
1.0
1070
   147
1040
1.524
1070
    73
1070
     1
1070
    74
1070
     1
1070
   140
1040
3.5
1070
   284
1070
     8
1070
    78
1070
    12
1002
}
  0
DIMENSION
  5
27F
330
1F
100
AcDbEntity
  8
SLD-0
 62
     7
100
AcDbDimension
  2
*D25
 10
101.2901664591
 20
208.6664742441
 30
0.0
 11
103.7901664591
 21
208.6664742441
 31
0.0
 70
   160
 71
     1
 42
5.0
  3
SLDDIMSTYLE1
100
AcDbAlignedDimension
 13
106.2901664591
 23
200.2200235704
 33
0.0
 14
101.2901664591
 24
195.7200235704
 34
0.0
100
AcDbRotatedDimension
1001
ACAD
1000
DSTYLE
1002
{
1070
    77
1070
     3
1070
   143
1040
0.0393700787
1070
    41
1040
3.0
1070
    44
1040
1.0
1070
    42
1040
1.0
1070
   147
1040
1.524
1070
    73
1070
     0
1070
    74
1070
     0
1070
   140
1040
3.5
1070
   284
1070
    12
1070
    78
1070
    12
1002
}
  0
DIMENSION
  5
299
330
1F
100
AcDbEntity
  8
SLD-0
 62
     7
100
AcDbDimension
  2
*D26
 10
115.0227268212
 20
195.7200235704
 30
0.0
 11
115.0227268212
 21
193.2200235704
 31
0.0
 70
   160
 71
     1
 42
5.0
  3
SLDDIMSTYLE1
100
AcDbAlignedDimension
 13
105.7901664591
 23
190.7200235704
 33
0.0
 14
101.2901664591
 24
195.7200235704
 34
0.0
 50
90.0
100
AcDbRotatedDimension
1001
ACAD
1000
DSTYLE
1002
{
1070
    77
1070
     3
1070
   143
1040
0.0393700787
1070
    41
1040
3.0
1070
    44
1040
1.0
1070
    42
1040
1.0
1070
   147
1040
1.524
1070
    73
1070
     0
1070
    74
1070
     0
1070
   140
1040
3.5
1070
   284
1070
    12
1070
    78
1070
    12
1002
}
  0
DIMENSION
  5
2B3
330
1F
100
AcDbEntity
  8
SLD-0
 62
     7
100
AcDbDimension
  2
*D27
 10
2.2686981405
 20
1.9629076701
 30
0.0
 11
165.8072213303
 21
-3.9258158257
 31
0.0
 70
   163
  1
M<>深5<>
 71
     1
 42
2.999999629
  3
SLDDIMSTYLE5
100
AcDbDiametricDimension
 15
0.0
 25
0.0
 35
0.0
 40
0.0
1001
ACAD
1000
DSTYLE
1002
{
1070
    77
1070
     0
1070
   143
1040
0.0393700787
1070
    41
1040
3.0
1070
    44
1040
1.0
1070
    42
1040
1.0
1070
   147
1040
1.524
1070
    73
1070
     1
1070
    74
1070
     1
1070
   140
1040
3.5
1070
   284
1070
    12
1070
    78
1070
    12
1002
}
  0
DIMENSION
  5
2C6
330
1F
100
AcDbEntity
  8
SLD-0
 62
     7
100
AcDbDimension
  2
*D28
 10
167.8338962683
 20
125.5615823955
 30
0.0
 11
167.8338962683
 21
128.5615823955
 31
0.0
 70
   160
 71
     1
 42
6.0
  3
SLDDIMSTYLE1
100
AcDbAlignedDimension
 13
159.0568297136
 23
131.5615823955
 33
0.0
 14
157.0568297136
 24
125.5615823955
 34
0.0
 50
90.0
100
AcDbRotatedDimension
1001
ACAD
1000
DSTYLE
1002
{
1070
    77
1070
     3
1070
   143
1040
0.0393700787
1070
    41
1040
3.0
1070
    44
1040
1.0
1070
    42
1040
1.0
1070
   147
1040
1.524
1070
    73
1070
     0
1070
    74
1070
     0
1070
   140
1040
3.5
1070
   284
1070
    12
1070
    78
1070
    12
1002
}
  0
DIMENSION
  5
2E0
330
1F
100
AcDbEntity
  8
SLD-0
 62
     7
100
AcDbDimension
  2
*D29
 10
157.0568297136
 20
113.4836239817
 30
0.0
 11
154.5568297136
 21
113.4836239817
 31
0.0
 70
   160
 71
     1
 42
5.0
  3
SLDDIMSTYLE1
100
AcDbAlignedDimension
 13
152.0568297136
 23
127.8115823955
 33
0.0
 14
157.0568297136
 24
125.5615823955
 34
0.0
100
AcDbRotatedDimension
1001
ACAD
1000
DSTYLE
1002
{
1070
    77
1070
     3
1070
   143
1040
0.0393700787
1070
    41
1040
3.0
1070
    44
1040
1.0
1070
    42
1040
1.0
1070
   147
1040
1.524
1070
    73
1070
     0
1070
    74
1070
     0
1070
   140
1040
3.5
1070
   284
1070
    12
1070
    78
1070
    12
1002
}
  0
MTEXT
  5
2FA
330
1F
100
AcDbEntity
  8
SLD-0
 62
     7
100
AcDbMText
 10
147.2603831906
 20
29.7138882404
 30
0.0
 40
4.2333333333
 41
0.0
 71
     1
 72
     1
  1
N01867-201-0
  7
SLDTEXTSTYLE1
 73
     1
 44
1.0
  0
MTEXT
  5
2FC
330
1F
100
AcDbEntity
  8
SLD-0
 62
     7
100
AcDbMText
 10
147.419721505
 20
43.2377018572
 30
0.0
 40
4.2333333333
 41
0.0
 71
     1
 72
     1
  1
8 Sensor BKT
  7
SLDTEXTSTYLE2
 73
     1
 44
1.0
  0
MTEXT
  5
2FD
330
1F
100
AcDbEntity
  8
SLD-0
 62
     7
100
AcDbMText
 10
110.0411100572
 20
145.1459689777
 30
0.0
 40
3.5
 41
0.0
 71
     1
 72
     1
  1
4-
  7
SLDTEXTSTYLE1
 11
0.803225679901231
 21
0.5956748334009129
 31
0.0
 73
     1
 44
1.0
  0
MTEXT
  5
2FE
330
1F
100
AcDbEntity
  8
SLD-0
 62
     7
100
AcDbMText
 10
113.3099999167
 20
147.5701885604
 30
0.0
 40
3.5
 41
0.0
 71
     1
 72
     1
  1
C
  7
SLDTEXTSTYLE1
 11
0.803225679901231
 21
0.5956748334009129
 31
0.0
 73
     1
 44
1.0
  0
MTEXT
  5
2FF
330
1F
100
AcDbEntity
  8
SLD-0
 62
     7
100
AcDbMText
 10
114.9444448464
 20
148.7822983518
 30
0.0
 40
3.5
 41
0.0
 71
     1
 72
     1
  1
0.5
  7
SLDTEXTSTYLE1
 11
0.803225679901231
 21
0.5956748334009129
 31
0.0
 73
     1
 44
1.0
  0
MTEXT
  5
300
330
1F
100
AcDbEntity
  8
SLD-0
 62
     7
100
AcDbMText
 10
61.6155743935
 20
215.698447631
 30
0.0
 40
3.5
 41
0.0
 71
     1
 72
     1
  1
4-
  7
SLDTEXTSTYLE1
 11
0.8024210263853012
 21
-0.5967583232890512
 31
0.0
 73
     1
 44
1.0
  0
MTEXT
  5
301
330
1F
100
AcDbEntity
  8
SLD-0
 62
     7
100
AcDbMText
 10
64.8811895523
 20
213.2698185665
 30
0.0
 40
3.5
 41
0.0
 71
     1
 72
     1
  1
C
  7
SLDTEXTSTYLE1
 11
0.8024210263853012
 21
-0.5967583232890512
 31
0.0
 73
     1
 44
1.0
  0
MTEXT
  5
302
330
1F
100
AcDbEntity
  8
SLD-0
 62
     7
100
AcDbMText
 10
66.5139971317
 20
212.0555040342
 30
0.0
 40
3.5
 41
0.0
 71
     1
 72
     1
  1
0.5
  7
SLDTEXTSTYLE1
 11
0.8024210263853012
 21
-0.5967583232890512
 31
0.0
 73
     1
 44
1.0
  0
HATCH
  5
303
330
1F
100
AcDbEntity
  8
0
  6
Continuous
 62
   179
100
AcDbHatch
 10
0.0
 20
0.0
 30
0.0
210
0.0
220
0.0
230
1.0
  2
ANSI31
 70
     0
 71
     0
 91
        1
 92
        0
 93
        3
 72
     1
 10
79.61561739406915
 20
122.7680970958268
 11
78.77463190716058
 21
123.3091547737219
 72
     1
 10
78.77463190716058
 20
123.3091547737219
 11
80.81829768430001
 21
125.5615823955
 72
     1
 10
80.81829768430001
 20
125.5615823955
 11
79.61561739406915
 21
122.7680970958268
 97
        0
 75
     0
 76
     1
 52
0.0
 41
1.0
 77
     0
 78
     1
 53
45.00000209717174
 43
0.0
 44
0.0
 45
-2.245064112442359
 46
2.245063948092215
 79
     0
 98
        1
 10
0.0
 20
0.0
  0
INSERT
  5
304
330
1F
100
AcDbEntity
  8
0
  6
Continuous
 62
     7
370
     0
100
AcDbBlockReference
  2
_OPEN30
 10
106.0401664591
 20
137.3115823955
 30
0.0
 41
3.0
 42
3.0
 43
3.0
 50
-143.6283879273
  0
INSERT
  5
305
330
1F
100
AcDbEntity
  8
0
  6
Continuous
 62
     7
370
     0
100
AcDbBlockReference
  2
NOTE44
 10
69.1835078004
 20
114.5862159226
 30
0.0
  0
INSERT
  5
306
330
1F
100
AcDbEntity
  8
0
  6
Continuous
 62
     7
370
     0
100
AcDbBlockReference
  2
SW_CENTERMARK0
 10
0.0
 20
0.0
 30
0.0
  0
INSERT
  5
307
330
1F
100
AcDbEntity
  8
0
  6
Continuous
 62
     7
370
     0
100
AcDbBlockReference
  2
SW_CENTERMARK1
 10
0.0
 20
0.0
 30
0.0
  0
INSERT
  5
308
330
1F
100
AcDbEntity
  8
0
  6
Continuous
 62
     7
370
     0
100
AcDbBlockReference
  2
_OPEN30
 10
75.5401664591
 20
200.4700235704
 30
0.0
 41
3.0
 42
3.0
 43
3.0
 50
-36.5848418357
  0
INSERT
  5
309
330
1F
100
AcDbEntity
  8
0
  6
Continuous
 62
     7
370
     0
100
AcDbBlockReference
  2
SW_CENTERMARK2
 10
0.0
 20
0.0
 30
0.0
  0
INSERT
  5
30A
330
1F
100
AcDbEntity
  8
0
  6
Continuous
 62
     7
370
     0
100
AcDbBlockReference
  2
SW_CENTERMARK3
 10
0.0
 20
0.0
 30
0.0
  0
INSERT
  5
30B
330
1F
100
AcDbEntity
  8
0
  6
Continuous
 62
     7
370
     0
100
AcDbBlockReference
  2
SW_CENTERMARK4
 10
0.0
 20
0.0
 30
0.0
  0
ENDSEC
  0
SECTION
  2
OBJECTS
  0
DICTIONARY
  5
C
330
0
100
AcDbDictionary
281
     1
  3
ACAD_GROUP
350
D
  3
ACAD_LAYOUT
350
1A
  3
ACAD_MLINESTYLE
350
17
  3
ACAD_PLOTSETTINGS
350
19
  3
ACAD_PLOTSTYLENAME
350
E
  0
DICTIONARY
  5
D
102
{ACAD_REACTORS
330
C
102
}
330
C
100
AcDbDictionary
281
     1
  0
DICTIONARY
  5
1A
102
{ACAD_REACTORS
330
C
102
}
330
C
100
AcDbDictionary
281
     1
  3
Layout1
350
1E
  3
Layout2
350
26
  3
Model
350
22
  0
DICTIONARY
  5
17
102
{ACAD_REACTORS
330
C
102
}
330
C
100
AcDbDictionary
281
     1
  3
Standard
350
18
  0
DICTIONARY
  5
19
102
{ACAD_REACTORS
330
C
102
}
330
C
100
AcDbDictionary
281
     1
  0
ACDBDICTIONARYWDFLT
  5
E
102
{ACAD_REACTORS
330
C
102
}
330
C
100
AcDbDictionary
281
     1
  3
Normal
350
F
100
AcDbDictionaryWithDefault
340
F
  0
LAYOUT
  5
1E
102
{ACAD_REACTORS
330
1A
102
}
330
1A
100
AcDbPlotSettings
  1

  2

  4

  6

 40
0.0
 41
0.0
 42
0.0
 43
0.0
 44
0.0
 45
0.0
 46
0.0
 47
0.0
 48
0.0
 49
0.0
140
0.0
141
0.0
142
1.0
143
1.0
 70
   688
 72
     0
 73
     0
 74
     5
  7

 75
    16
147
1.0
148
0.0
149
0.0
100
AcDbLayout
  1
Layout1
 70
     1
 71
     1
 10
0.0
 20
0.0
 11
0.0
 21
0.0
 12
0.0
 22
0.0
 32
0.0
 14
0.0
 24
0.0
 34
0.0
 15
0.0
 25
0.0
 35
0.0
146
0.0
 13
0.0
 23
0.0
 33
0.0
 16
1.0
 26
0.0
 36
0.0
 17
0.0
 27
1.0
 37
0.0
 76
     0
330
1B
  0
LAYOUT
  5
26
102
{ACAD_REACTORS
330
1A
102
}
330
1A
100
AcDbPlotSettings
  1

  2

  4

  6

 40
0.0
 41
0.0
 42
0.0
 43
0.0
 44
0.0
 45
0.0
 46
0.0
 47
0.0
 48
0.0
 49
0.0
140
0.0
141
0.0
142
1.0
143
1.0
 70
   688
 72
     0
 73
     0
 74
     5
  7

 75
    16
147
1.0
148
0.0
149
0.0
100
AcDbLayout
  1
Layout2
 70
     1
 71
     2
 10
0.0
 20
0.0
 11
0.0
 21
0.0
 12
0.0
 22
0.0
 32
0.0
 14
0.0
 24
0.0
 34
0.0
 15
0.0
 25
0.0
 35
0.0
146
0.0
 13
0.0
 23
0.0
 33
0.0
 16
1.0
 26
0.0
 36
0.0
 17
0.0
 27
1.0
 37
0.0
 76
     0
330
23
  0
LAYOUT
  5
22
102
{ACAD_REACTORS
330
1A
102
}
330
1A
100
AcDbPlotSettings
  1

  2

  4

  6

 40
0.0
 41
0.0
 42
0.0
 43
0.0
 44
0.0
 45
0.0
 46
0.0
 47
0.0
 48
0.0
 49
0.0
140
0.0
141
0.0
142
1.0
143
1.0
 70
  1712
 72
     0
 73
     0
 74
     0
  7

 75
     0
147
1.0
148
0.0
149
0.0
100
AcDbLayout
  1
Model
 70
     1
 71
     0
 10
0.0
 20
0.0
 11
0.0
 21
0.0
 12
0.0
 22
0.0
 32
0.0
 14
0.0
 24
0.0
 34
0.0
 15
210.0
 25
297.0
 35
0.0
146
0.0
 13
0.0
 23
0.0
 33
0.0
 16
1.0
 26
0.0
 36
0.0
 17
0.0
 27
1.0
 37
0.0
 76
     0
330
1F
  0
MLINESTYLE
  5
18
102
{ACAD_REACTORS
330
17
102
}
330
17
100
AcDbMlineStyle
  2
Standard
 70
     0
  3

 62
   256
 51
90.0
 52
90.0
 71
     2
 49
0.5
 62
   256
  6
BYLAYER
 49
-0.5
 62
   256
  6
BYLAYER
  0
ACDBPLACEHOLDER
  5
F
102
{ACAD_REACTORS
330
E
102
}
330
E
  0
ENDSEC
  0
EOF
