  0
SECTION
  2
HEADER
  9
$ACADVER
  1
AC1015
  9
$ACADMAINTVER
 70
     6
  9
$DWGCODEPAGE
  3
DOS932
  9
$INSBASE
 10
0.0
 20
0.0
 30
0.0
  9
$EXTMIN
 10
0.0
 20
0.0
 30
0.0
  9
$EXTMAX
 10
210.0
 20
297.0
 30
0.0
  9
$LIMMIN
 10
0.0
 20
0.0
  9
$LIMMAX
 10
0.0
 20
0.0
  9
$ORTHOMODE
 70
     0
  9
$REGENMODE
 70
     1
  9
$FILLMODE
 70
     1
  9
$QTEXTMODE
 70
     0
  9
$MIRRTEXT
 70
     1
  9
$LTSCALE
 40
1.0
  9
$ATTMODE
 70
     1
  9
$TEXTSIZE
 40
3.5
  9
$TRACEWID
 40
1.0
  9
$TEXTSTYLE
  7
Standard
  9
$CLAYER
  8
0
  9
$CELTYPE
  6
ByLayer
  9
$CECOLOR
 62
   256
  9
$CELTSCALE
 40
1.0
  9
$DISPSILH
 70
     0
  9
$DIMSCALE
 40
1.0
  9
$DIMASZ
 40
3.0
  9
$DIMEXO
 40
1.0
  9
$DIMDLI
 40
3.75
  9
$DIMRND
 40
0.0
  9
$DIMDLE
 40
0.0
  9
$DIMEXE
 40
1.0
  9
$DIMTP
 40
0.0
  9
$DIMTM
 40
0.0
  9
$DIMTXT
 40
3.5
  9
$DIMCEN
 40
2.5
  9
$DIMTSZ
 40
0.0
  9
$DIMTOL
 70
     0
  9
$DIMLIM
 70
     0
  9
$DIMTIH
 70
     1
  9
$DIMTOH
 70
     1
  9
$DIMSE1
 70
     0
  9
$DIMSE2
 70
     0
  9
$DIMTAD
 70
     1
  9
$DIMZIN
 70
     1
  9
$DIMBLK
  1

  9
$DIMASO
 70
     1
  9
$DIMSHO
 70
     1
  9
$DIMPOST
  1

  9
$DIMAPOST
  1

  9
$DIMALT
 70
     0
  9
$DIMALTD
 70
     3
  9
$DIMALTF
 40
0.0393700787
  9
$DIMLFAC
 40
1.0
  9
$DIMTOFL
 70
     1
  9
$DIMTVP
 40
0.0
  9
$DIMTIX
 70
     0
  9
$DIMSOXD
 70
     0
  9
$DIMSAH
 70
     0
  9
$DIMBLK1
  1

  9
$DIMBLK2
  1

  9
$DIMSTYLE
  2
ISO-25
  9
$DIMCLRD
 70
     0
  9
$DIMCLRE
 70
     0
  9
$DIMCLRT
 70
     0
  9
$DIMTFAC
 40
1.0
  9
$DIMGAP
 40
1.524
  9
$DIMJUST
 70
     0
  9
$DIMSD1
 70
     0
  9
$DIMSD2
 70
     0
  9
$DIMTOLJ
 70
     0
  9
$DIMTZIN
 70
     1
  9
$DIMALTZ
 70
     0
  9
$DIMALTTZ
 70
     0
  9
$DIMUPT
 70
     0
  9
$DIMDEC
 70
     2
  9
$DIMTDEC
 70
     2
  9
$DIMALTU
 70
     2
  9
$DIMALTTD
 70
     3
  9
$DIMTXSTY
  7
Standard
  9
$DIMAUNIT
 70
     0
  9
$DIMADEC
 70
     0
  9
$DIMALTRND
 40
0.0
  9
$DIMAZIN
 70
     0
  9
$DIMDSEP
 70
    44
  9
$DIMATFIT
 70
     3
  9
$DIMFRAC
 70
     0
  9
$DIMLDRBLK
  1

  9
$DIMLUNIT
 70
     2
  9
$DIMLWD
 70
    -2
  9
$DIMLWE
 70
    -2
  9
$DIMTMOVE
 70
     0
  9
$LUNITS
 70
     2
  9
$LUPREC
 70
     1
  9
$SKETCHINC
 40
1.0
  9
$FILLETRAD
 40
10.0
  9
$AUNITS
 70
     0
  9
$AUPREC
 70
     0
  9
$MENU
  1
.
  9
$ELEVATION
 40
0.0
  9
$PELEVATION
 40
0.0
  9
$THICKNESS
 40
0.0
  9
$LIMCHECK
 70
     0
  9
$CHAMFERA
 40
10.0
  9
$CHAMFERB
 40
10.0
  9
$CHAMFERC
 40
20.0
  9
$CHAMFERD
 40
0.0
  9
$SKPOLY
 70
     0
  9
$TDCREATE
 40
2454323.599364329
  9
$TDUCREATE
 40
2454323.224364329
  9
$TDUPDATE
 40
2454323.59936434
  9
$TDUUPDATE
 40
2454323.22436434
  9
$TDINDWG
 40
0.0000000116
  9
$TDUSRTIMER
 40
0.0000000116
  9
$USRTIMER
 70
     1
  9
$ANGBASE
 50
0.0
  9
$ANGDIR
 70
     0
  9
$PDMODE
 70
     0
  9
$PDSIZE
 40
-1.0
  9
$PLINEWID
 40
0.0
  9
$SPLFRAME
 70
     0
  9
$SPLINETYPE
 70
     6
  9
$SPLINESEGS
 70
     8
  9
$HANDSEED
  5
29E
  9
$SURFTAB1
 70
     6
  9
$SURFTAB2
 70
     6
  9
$SURFTYPE
 70
     6
  9
$SURFU
 70
     6
  9
$SURFV
 70
     6
  9
$UCSBASE
  2

  9
$UCSNAME
  2

  9
$UCSORG
 10
0.0
 20
0.0
 30
0.0
  9
$UCSXDIR
 10
1.0
 20
0.0
 30
0.0
  9
$UCSYDIR
 10
0.0
 20
1.0
 30
0.0
  9
$UCSORTHOREF
  2

  9
$UCSORTHOVIEW
 70
     0
  9
$UCSORGTOP
 10
0.0
 20
0.0
 30
0.0
  9
$UCSORGBOTTOM
 10
0.0
 20
0.0
 30
0.0
  9
$UCSORGLEFT
 10
0.0
 20
0.0
 30
0.0
  9
$UCSORGRIGHT
 10
0.0
 20
0.0
 30
0.0
  9
$UCSORGFRONT
 10
0.0
 20
0.0
 30
0.0
  9
$UCSORGBACK
 10
0.0
 20
0.0
 30
0.0
  9
$PUCSBASE
  2

  9
$PUCSNAME
  2

  9
$PUCSORG
 10
0.0
 20
0.0
 30
0.0
  9
$PUCSXDIR
 10
1.0
 20
0.0
 30
0.0
  9
$PUCSYDIR
 10
0.0
 20
1.0
 30
0.0
  9
$PUCSORTHOREF
  2

  9
$PUCSORTHOVIEW
 70
     0
  9
$PUCSORGTOP
 10
0.0
 20
0.0
 30
0.0
  9
$PUCSORGBOTTOM
 10
0.0
 20
0.0
 30
0.0
  9
$PUCSORGLEFT
 10
0.0
 20
0.0
 30
0.0
  9
$PUCSORGRIGHT
 10
0.0
 20
0.0
 30
0.0
  9
$PUCSORGFRONT
 10
0.0
 20
0.0
 30
0.0
  9
$PUCSORGBACK
 10
0.0
 20
0.0
 30
0.0
  9
$USERI1
 70
     0
  9
$USERI2
 70
     0
  9
$USERI3
 70
     0
  9
$USERI4
 70
     0
  9
$USERI5
 70
     0
  9
$USERR1
 40
0.0
  9
$USERR2
 40
0.0
  9
$USERR3
 40
0.0
  9
$USERR4
 40
0.0
  9
$USERR5
 40
0.0
  9
$WORLDVIEW
 70
     1
  9
$SHADEDGE
 70
     3
  9
$SHADEDIF
 70
    70
  9
$TILEMODE
 70
     1
  9
$MAXACTVP
 70
    64
  9
$PINSBASE
 10
0.0
 20
0.0
 30
0.0
  9
$PLIMCHECK
 70
     0
  9
$PEXTMIN
 10
1.0000000000E+20
 20
1.0000000000E+20
 30
1.0000000000E+20
  9
$PEXTMAX
 10
-1.0000000000E+20
 20
-1.0000000000E+20
 30
-1.0000000000E+20
  9
$PLIMMIN
 10
0.0
 20
0.0
  9
$PLIMMAX
 10
420.0
 20
297.0
  9
$UNITMODE
 70
     0
  9
$VISRETAIN
 70
     1
  9
$PLINEGEN
 70
     0
  9
$PSLTSCALE
 70
     1
  9
$TREEDEPTH
 70
  3020
  9
$CMLSTYLE
  2
Standard
  9
$CMLJUST
 70
     0
  9
$CMLSCALE
 40
20.0
  9
$PROXYGRAPHICS
 70
     1
  9
$MEASUREMENT
 70
     1
  9
$CELWEIGHT
370
    -1
  9
$ENDCAPS
280
     0
  9
$JOINSTYLE
280
     0
  9
$LWDISPLAY
290
     1
  9
$INSUNITS
 70
     4
  9
$HYPERLINKBASE
  1

  9
$STYLESHEET
  1

  9
$XEDIT
290
     1
  9
$CEPSNTYPE
380
     0
  9
$PSTYLEMODE
290
     1
  9
$FINGERPRINTGUID
  2
{23602645-ECE2-4C3F-B76E-7BC38A91F566}
  9
$VERSIONGUID
  2
{FAEB1C32-E019-11D5-929B-00C0DF256EC4}
  9
$EXTNAMES
290
     1
  9
$PSVPSCALE
 40
0.0
  9
$OLESTARTUP
290
     0
  0
ENDSEC
  0
SECTION
  2
CLASSES
  0
CLASS
  1
ACDBDICTIONARYWDFLT
  2
AcDbDictionaryWithDefault
  3
ObjectDBX Classes
 90
        0
280
     0
281
     0
  0
CLASS
  1
ACDBPLACEHOLDER
  2
AcDbPlaceHolder
  3
ObjectDBX Classes
 90
        0
280
     0
281
     0
  0
CLASS
  1
LAYOUT
  2
AcDbLayout
  3
ObjectDBX Classes
 90
        0
280
     0
281
     0
  0
ENDSEC
  0
SECTION
  2
TABLES
  0
TABLE
  2
VPORT
  5
8
330
0
100
AcDbSymbolTable
 70
     1
  0
VPORT
  5
29
330
8
100
AcDbSymbolTableRecord
100
AcDbViewportTableRecord
  2
*Active
 70
     0
 10
0.0
 20
0.0
 11
1.0
 21
1.0
 12
105.0
 22
148.5
 13
0.0
 23
0.0
 14
10.0
 24
10.0
 15
10.0
 25
10.0
 16
0.0
 26
0.0
 36
1.0
 17
0.0
 27
0.0
 37
0.0
 40
297.0
 41
1.9729729729
 42
50.0
 43
0.0
 44
0.0
 50
0.0
 51
0.0
 71
     0
 72
  2000
 73
     1
 74
     3
 75
     0
 76
     0
 77
     0
 78
     0
281
     0
 65
     1
110
0.0
120
0.0
130
0.0
111
1.0
121
0.0
131
0.0
112
0.0
122
1.0
132
0.0
 79
     0
146
0.0
  0
ENDTAB
  0
TABLE
  2
LTYPE
  5
5
330
0
100
AcDbSymbolTable
 70
     6
  0
LTYPE
  5
14
330
5
100
AcDbSymbolTableRecord
100
AcDbLinetypeTableRecord
  2
ByBlock
 70
     0
  3

 72
    65
 73
     0
 40
0.0
  0
LTYPE
  5
15
330
5
100
AcDbSymbolTableRecord
100
AcDbLinetypeTableRecord
  2
ByLayer
 70
     0
  3

 72
    65
 73
     0
 40
0.0
  0
LTYPE
  5
16
330
5
100
AcDbSymbolTableRecord
100
AcDbLinetypeTableRecord
  2
Continuous
 70
     0
  3
Solid line
 72
    65
 73
     0
 40
0.0
  0
LTYPE
  5
2A
330
5
100
AcDbSymbolTableRecord
100
AcDbLinetypeTableRecord
  2
HIDDEN
 70
     0
  3
Hidden __ __ __ __ __ __ __ __ __ __ __ __ __ __
 72
    65
 73
     2
 40
1.905
 49
1.27
 74
     0
 49
-0.635
 74
     0
  0
LTYPE
  5
2B
330
5
100
AcDbSymbolTableRecord
100
AcDbLinetypeTableRecord
  2
PHANTOM
 70
     0
  3
Phantom ______  __  __  ______  __  __  ______
 72
    65
 73
     6
 40
12.7
 49
6.35
 74
     0
 49
-1.27
 74
     0
 49
1.27
 74
     0
 49
-1.27
 74
     0
 49
1.27
 74
     0
 49
-1.27
 74
     0
  0
LTYPE
  5
2C
330
5
100
AcDbSymbolTableRecord
100
AcDbLinetypeTableRecord
  2
CENTER
 70
     0
  3
Center ____ _ ____ _ ____ _ ____ _ ____ _ ____
 72
    65
 73
     4
 40
10.16
 49
6.35
 74
     0
 49
-1.27
 74
     0
 49
1.27
 74
     0
 49
-1.27
 74
     0
  0
LTYPE
  5
2D
330
5
100
AcDbSymbolTableRecord
100
AcDbLinetypeTableRecord
  2
CENTERX2
 70
     0
  3
Center (2x) ________  __  ________  __  _____
 72
    65
 73
     4
 40
20.32
 49
12.7
 74
     0
 49
-2.54
 74
     0
 49
2.54
 74
     0
 49
-2.54
 74
     0
  0
LTYPE
  5
2E
330
5
100
AcDbSymbolTableRecord
100
AcDbLinetypeTableRecord
  2
DOT2
 70
     0
  3
Dot (.5x) ........................................
 72
    65
 73
     2
 40
0.635
 49
0.0
 74
     0
 49
-0.635
 74
     0
  0
ENDTAB
  0
TABLE
  2
LAYER
  5
2
330
0
100
AcDbSymbolTable
 70
     4
  0
LAYER
  5
10
330
2
100
AcDbSymbolTableRecord
100
AcDbLayerTableRecord
  2
0
 70
     0
 62
     7
  6
Continuous
370
    -3
390
F
  0
LAYER
  5
2F
330
2
100
AcDbSymbolTableRecord
100
AcDbLayerTableRecord
  2
SLD-0
 70
     0
 62
   179
  6
Continuous
370
     0
390
F
  0
LAYER
  5
30
330
2
100
AcDbSymbolTableRecord
100
AcDbLayerTableRecord
  2
SLD-DEFPOINTS
 70
     0
 62
   179
  6
Continuous
370
     0
390
F
  0
LAYER
  5
120
330
2
100
AcDbSymbolTableRecord
100
AcDbLayerTableRecord
  2
Defpoints
 70
     0
 62
     7
  6
Continuous
290
     0
370
    -3
390
F
  0
ENDTAB
  0
TABLE
  2
STYLE
  5
3
330
0
100
AcDbSymbolTable
 70
     4
  0
STYLE
  5
11
330
3
100
AcDbSymbolTableRecord
100
AcDbTextStyleTableRecord
  2
Standard
 70
     0
 40
0.0
 41
1.0
 50
0.0
 71
     0
 42
2.5
  3
txt
  4
bigfont
  0
STYLE
  5
34
330
3
100
AcDbSymbolTableRecord
100
AcDbTextStyleTableRecord
  2
SLDTEXTSTYLE0
 70
     0
 40
0.0
 41
0.7
 50
0.0
 71
     0
 42
0.2
  3
TXT
  4
bigfont
  0
STYLE
  5
40
330
3
100
AcDbSymbolTableRecord
100
AcDbTextStyleTableRecord
  2
SLDTEXTSTYLE1
 70
     0
 40
0.0
 41
0.5526315789
 50
0.0
 71
     0
 42
0.2
  3
TXT
  4
bigfont
  0
STYLE
  5
291
330
3
100
AcDbSymbolTableRecord
100
AcDbTextStyleTableRecord
  2
SLDTEXTSTYLE2
 70
     0
 40
0.0
 41
0.4883551783
 50
0.0
 71
     0
 42
0.2
  3
TXT
  4
bigfont
  0
ENDTAB
  0
TABLE
  2
VIEW
  5
6
330
0
100
AcDbSymbolTable
 70
     0
  0
ENDTAB
  0
TABLE
  2
UCS
  5
7
330
0
100
AcDbSymbolTable
 70
     0
  0
ENDTAB
  0
TABLE
  2
APPID
  5
9
330
0
100
AcDbSymbolTable
 70
     1
  0
APPID
  5
12
330
9
100
AcDbSymbolTableRecord
100
AcDbRegAppTableRecord
  2
ACAD
 70
     0
  0
ENDTAB
  0
TABLE
  2
DIMSTYLE
  5
A
330
0
100
AcDbSymbolTable
 70
     6
100
AcDbDimStyleTable
  0
DIMSTYLE
105
27
330
A
100
AcDbSymbolTableRecord
100
AcDbDimStyleTableRecord
  2
ISO-25
 70
     0
 41
2.5
 42
0.625
 43
3.75
 44
1.25
 73
     0
 74
     0
 77
     1
 78
     8
140
2.5
141
2.5
143
0.0393700787
147
0.625
171
     3
172
     1
271
     2
272
     2
274
     3
278
    44
283
     0
284
     8
340
11
  0
DIMSTYLE
105
12A
102
{ACAD_REACTORS
330
11F
102
}
330
A
100
AcDbSymbolTableRecord
100
AcDbDimStyleTableRecord
  2
SLDDIMSTYLE0
 70
     0
 41
3.0
 44
0.0
 47
0.000018
 71
     1
 78
    12
140
3.5
147
0.875
172
     1
173
     1
271
     0
272
     3
340
40
341
12B
343
12B
344
12B
  0
DIMSTYLE
105
14B
102
{ACAD_REACTORS
330
13E
330
156
330
16E
330
189
330
1A1
330
1B9
330
1D0
330
1F9
330
210
330
261
330
278
102
}
330
A
100
AcDbSymbolTableRecord
100
AcDbDimStyleTableRecord
  2
SLDDIMSTYLE1
 70
     0
 41
3.0
 44
0.0
 73
     0
 74
     0
 77
     3
 78
    12
140
3.5
147
0.875
173
     1
271
     0
272
     2
284
    12
340
40
341
12B
343
12B
344
12B
  0
DIMSTYLE
105
1F1
102
{ACAD_REACTORS
330
1E7
102
}
330
A
100
AcDbSymbolTableRecord
100
AcDbDimStyleTableRecord
  2
SLDDIMSTYLE2
 70
     0
 41
3.0
 44
0.0
 78
     4
140
3.5
147
0.875
173
     1
271
     1
272
     2
284
    12
340
40
341
12B
343
12B
344
12B
  0
DIMSTYLE
105
237
102
{ACAD_REACTORS
330
228
102
}
330
A
100
AcDbSymbolTableRecord
100
AcDbDimStyleTableRecord
  2
SLDDIMSTYLE3
 70
     0
 41
3.0
 44
0.0
 73
     0
 74
     0
 77
     3
 78
    12
140
3.5
147
0.875
173
     1
271
     1
272
     2
284
    12
340
40
341
12B
343
12B
344
12B
  0
DIMSTYLE
105
252
102
{ACAD_REACTORS
330
244
102
}
330
A
100
AcDbSymbolTableRecord
100
AcDbDimStyleTableRecord
  2
SLDDIMSTYLE4
 70
     0
 41
3.0
 44
0.0
 48
0.1
 71
     1
 73
     0
 74
     0
 77
     3
 78
    12
140
3.5
147
0.875
173
     1
271
     0
272
     1
340
40
341
12B
343
12B
344
12B
  0
ENDTAB
  0
TABLE
  2
BLOCK_RECORD
  5
1
330
0
100
AcDbSymbolTable
 70
    23
  0
BLOCK_RECORD
  5
1F
330
1
100
AcDbSymbolTableRecord
100
AcDbBlockTableRecord
  2
*Model_Space
340
22
  0
BLOCK_RECORD
  5
1B
330
1
100
AcDbSymbolTableRecord
100
AcDbBlockTableRecord
  2
*Paper_Space
340
1E
  0
BLOCK_RECORD
  5
23
330
1
100
AcDbSymbolTableRecord
100
AcDbBlockTableRecord
  2
*Paper_Space0
340
26
  0
BLOCK_RECORD
  5
31
330
1
100
AcDbSymbolTableRecord
100
AcDbBlockTableRecord
  2
注記
340
0
  0
BLOCK_RECORD
  5
37
330
1
100
AcDbSymbolTableRecord
100
AcDbBlockTableRecord
  2
_OPEN30
340
0
102
{BLKREFS
331
299
102
}
  0
BLOCK_RECORD
  5
3D
330
1
100
AcDbSymbolTableRecord
100
AcDbBlockTableRecord
  2
NOTE45
340
0
102
{BLKREFS
331
29A
102
}
  0
BLOCK_RECORD
  5
43
330
1
100
AcDbSymbolTableRecord
100
AcDbBlockTableRecord
  2
SW_CENTERMARK0
340
0
102
{BLKREFS
331
29B
102
}
  0
BLOCK_RECORD
  5
4E
330
1
100
AcDbSymbolTableRecord
100
AcDbBlockTableRecord
  2
SW_CENTERMARK1
340
0
102
{BLKREFS
331
29C
102
}
  0
BLOCK_RECORD
  5
59
330
1
100
AcDbSymbolTableRecord
100
AcDbBlockTableRecord
  2
SW_CENTERMARK2
340
0
102
{BLKREFS
331
29D
102
}
  0
BLOCK_RECORD
  5
121
330
1
100
AcDbSymbolTableRecord
100
AcDbBlockTableRecord
  2
*D7
340
0
  0
BLOCK_RECORD
  5
12B
330
1
100
AcDbSymbolTableRecord
100
AcDbBlockTableRecord
  2
_None
340
0
102
{BLKREFS
331
125
331
144
331
143
331
15C
331
15B
331
175
331
174
331
18F
331
18E
331
1A7
331
1A6
331
1BF
331
1BE
331
1D6
331
1D5
331
1EC
331
1FF
331
1FE
331
216
331
215
331
22F
331
22E
331
24B
331
24A
331
267
331
266
331
27E
331
27D
102
}
  0
BLOCK_RECORD
  5
13F
330
1
100
AcDbSymbolTableRecord
100
AcDbBlockTableRecord
  2
*D9
340
0
  0
BLOCK_RECORD
  5
157
330
1
100
AcDbSymbolTableRecord
100
AcDbBlockTableRecord
  2
*D10
340
0
  0
BLOCK_RECORD
  5
16F
330
1
100
AcDbSymbolTableRecord
100
AcDbBlockTableRecord
  2
*D11
340
0
  0
BLOCK_RECORD
  5
18A
330
1
100
AcDbSymbolTableRecord
100
AcDbBlockTableRecord
  2
*D12
340
0
  0
BLOCK_RECORD
  5
1A2
330
1
100
AcDbSymbolTableRecord
100
AcDbBlockTableRecord
  2
*D13
340
0
  0
BLOCK_RECORD
  5
1BA
330
1
100
AcDbSymbolTableRecord
100
AcDbBlockTableRecord
  2
*D14
340
0
  0
BLOCK_RECORD
  5
1D1
330
1
100
AcDbSymbolTableRecord
100
AcDbBlockTableRecord
  2
*D15
340
0
  0
BLOCK_RECORD
  5
1E8
330
1
100
AcDbSymbolTableRecord
100
AcDbBlockTableRecord
  2
*D16
340
0
  0
BLOCK_RECORD
  5
1FA
330
1
100
AcDbSymbolTableRecord
100
AcDbBlockTableRecord
  2
*D17
340
0
  0
BLOCK_RECORD
  5
211
330
1
100
AcDbSymbolTableRecord
100
AcDbBlockTableRecord
  2
*D18
340
0
  0
BLOCK_RECORD
  5
229
330
1
100
AcDbSymbolTableRecord
100
AcDbBlockTableRecord
  2
*D19
340
0
  0
BLOCK_RECORD
  5
245
330
1
100
AcDbSymbolTableRecord
100
AcDbBlockTableRecord
  2
*D20
340
0
  0
BLOCK_RECORD
  5
262
330
1
100
AcDbSymbolTableRecord
100
AcDbBlockTableRecord
  2
*D21
340
0
  0
BLOCK_RECORD
  5
279
330
1
100
AcDbSymbolTableRecord
100
AcDbBlockTableRecord
  2
*D22
340
0
  0
ENDTAB
  0
ENDSEC
  0
SECTION
  2
BLOCKS
  0
BLOCK
  5
20
330
1F
100
AcDbEntity
  8
0
100
AcDbBlockBegin
  2
*Model_Space
 70
     0
 71
     0
 10
0.0
 20
0.0
 30
0.0
  3
*Model_Space
  1

  0
ENDBLK
  5
21
330
1F
100
AcDbEntity
  8
0
100
AcDbBlockEnd
  0
BLOCK
  5
1C
330
1B
100
AcDbEntity
 67
     1
  8
0
100
AcDbBlockBegin
  2
*Paper_Space
 70
     0
 71
     0
 10
0.0
 20
0.0
 30
0.0
  3
*Paper_Space
  1

  0
ENDBLK
  5
1D
330
1B
100
AcDbEntity
 67
     1
  8
0
100
AcDbBlockEnd
  0
BLOCK
  5
24
330
23
100
AcDbEntity
  8
0
100
AcDbBlockBegin
  2
*Paper_Space0
 70
     0
 71
     0
 10
0.0
 20
0.0
 30
0.0
  3
*Paper_Space0
  1

  0
ENDBLK
  5
25
330
23
100
AcDbEntity
  8
0
100
AcDbBlockEnd
  0
BLOCK
  5
32
330
31
100
AcDbEntity
  8
0
100
AcDbBlockBegin
  2
注記
 70
     0
 71
     0
 10
0.0
 20
0.0
 30
0.0
  3
注記
  1

  0
MTEXT
  5
35
330
31
100
AcDbEntity
  8
0
  6
Continuous
 62
     7
370
     0
100
AcDbMText
 10
0.2636785918
 20
9.0739778448
 30
0.0
 40
3.5
 41
0.0
 71
     1
 72
     1
  1
１．特記ナキ角部ハ、バリ　カエリノ無キコト。
  7
SLDTEXTSTYLE0
 73
     1
 44
1.0
  0
MTEXT
  5
36
330
31
100
AcDbEntity
  8
0
  6
Continuous
 62
     7
370
     0
100
AcDbMText
 10
0.2636785918
 20
3.5759549983
 30
0.0
 40
3.5
 41
0.0
 71
     1
 72
     1
  1
２．特記ナキ隅部ハ、Ｒ０．４ＭＡＸトスル。
  7
SLDTEXTSTYLE0
 73
     1
 44
1.0
  0
ENDBLK
  5
33
330
31
100
AcDbEntity
  8
0
100
AcDbBlockEnd
  0
BLOCK
  5
38
330
37
100
AcDbEntity
  8
0
100
AcDbBlockBegin
  2
_OPEN30
 70
     0
 71
     0
 10
0.0
 20
0.0
 30
0.0
  3
_OPEN30
  1

  0
LINE
  5
3A
330
37
100
AcDbEntity
  8
SLD-0
  6
Continuous
100
AcDbLine
 10
-1.0
 20
0.267949
 30
0.0
 11
0.0
 21
0.0
 31
0.0
  0
LINE
  5
3B
330
37
100
AcDbEntity
  8
SLD-0
  6
Continuous
100
AcDbLine
 10
0.0
 20
0.0
 30
0.0
 11
-1.0
 21
-0.267949
 31
0.0
  0
LINE
  5
3C
330
37
100
AcDbEntity
  8
SLD-0
  6
Continuous
100
AcDbLine
 10
0.0
 20
0.0
 30
0.0
 11
-1.0
 21
0.0
 31
0.0
  0
ENDBLK
  5
39
330
37
100
AcDbEntity
  8
0
100
AcDbBlockEnd
  0
BLOCK
  5
3E
330
3D
100
AcDbEntity
  8
0
100
AcDbBlockBegin
  2
NOTE45
 70
     0
 71
     0
 10
0.0
 20
0.0
 30
0.0
  3
NOTE45
  1

  0
MTEXT
  5
41
330
3D
100
AcDbEntity
  8
SLD-0
100
AcDbMText
 10
-9.9771222964
 20
3.9306599957
 30
0.0
 40
3.5
 41
0.0
 71
     1
 72
     1
  1
O
  7
SLDTEXTSTYLE1
 73
     1
 44
1.0
  0
MTEXT
  5
42
330
3D
100
AcDbEntity
  8
SLD-0
100
AcDbMText
 10
-6.1071917813
 20
3.9306599957
 30
0.0
 40
3.5
 41
0.0
 71
     1
 72
     1
  1
4.5
  7
SLDTEXTSTYLE1
 73
     1
 44
1.0
  0
ENDBLK
  5
3F
330
3D
100
AcDbEntity
  8
0
100
AcDbBlockEnd
  0
BLOCK
  5
44
330
43
100
AcDbEntity
  8
0
100
AcDbBlockBegin
  2
SW_CENTERMARK0
 70
     0
 71
     0
 10
0.0
 20
0.0
 30
0.0
  3
SW_CENTERMARK0
  1

  0
LINE
  5
46
330
43
100
AcDbEntity
  8
SLD-0
  6
Continuous
 62
   179
100
AcDbLine
 10
117.2497546769
 20
126.5242090382
 30
0.0
 11
117.2497546769
 21
129.0242090382
 31
0.0
  0
LINE
  5
47
330
43
100
AcDbEntity
  8
SLD-0
  6
Continuous
 62
   179
100
AcDbLine
 10
117.2497546769
 20
126.5242090382
 30
0.0
 11
114.7497546769
 21
126.5242090382
 31
0.0
  0
LINE
  5
48
330
43
100
AcDbEntity
  8
SLD-0
  6
Continuous
 62
   179
100
AcDbLine
 10
117.2497546769
 20
126.5242090382
 30
0.0
 11
117.2497546769
 21
124.0242090382
 31
0.0
  0
LINE
  5
49
330
43
100
AcDbEntity
  8
SLD-0
  6
Continuous
 62
   179
100
AcDbLine
 10
117.2497546769
 20
126.5242090382
 30
0.0
 11
119.7497546769
 21
126.5242090382
 31
0.0
  0
LINE
  5
4A
330
43
100
AcDbEntity
  8
SLD-0
  6
Continuous
 62
   179
100
AcDbLine
 10
117.2497546769
 20
131.5242090382
 30
0.0
 11
117.2497546769
 21
135.0242090382
 31
0.0
  0
LINE
  5
4B
330
43
100
AcDbEntity
  8
SLD-0
  6
Continuous
 62
   179
100
AcDbLine
 10
112.2497546769
 20
126.5242090382
 30
0.0
 11
108.7497546769
 21
126.5242090382
 31
0.0
  0
LINE
  5
4C
330
43
100
AcDbEntity
  8
SLD-0
  6
Continuous
 62
   179
100
AcDbLine
 10
117.2497546769
 20
121.5242090382
 30
0.0
 11
117.2497546769
 21
118.0242090382
 31
0.0
  0
LINE
  5
4D
330
43
100
AcDbEntity
  8
SLD-0
  6
Continuous
 62
   179
100
AcDbLine
 10
122.2497546769
 20
126.5242090382
 30
0.0
 11
125.7497546769
 21
126.5242090382
 31
0.0
  0
ENDBLK
  5
45
330
43
100
AcDbEntity
  8
0
100
AcDbBlockEnd
  0
BLOCK
  5
4F
330
4E
100
AcDbEntity
  8
0
100
AcDbBlockBegin
  2
SW_CENTERMARK1
 70
     0
 71
     0
 10
0.0
 20
0.0
 30
0.0
  3
SW_CENTERMARK1
  1

  0
LINE
  5
51
330
4E
100
AcDbEntity
  8
SLD-0
  6
Continuous
 62
   179
100
AcDbLine
 10
48.1558632551
 20
126.5242090382
 30
0.0
 11
48.1558632551
 21
129.0242090382
 31
0.0
  0
LINE
  5
52
330
4E
100
AcDbEntity
  8
SLD-0
  6
Continuous
 62
   179
100
AcDbLine
 10
48.1558632551
 20
126.5242090382
 30
0.0
 11
45.6558632551
 21
126.5242090382
 31
0.0
  0
LINE
  5
53
330
4E
100
AcDbEntity
  8
SLD-0
  6
Continuous
 62
   179
100
AcDbLine
 10
48.1558632551
 20
126.5242090382
 30
0.0
 11
48.1558632551
 21
124.0242090382
 31
0.0
  0
LINE
  5
54
330
4E
100
AcDbEntity
  8
SLD-0
  6
Continuous
 62
   179
100
AcDbLine
 10
48.1558632551
 20
126.5242090382
 30
0.0
 11
50.6558632551
 21
126.5242090382
 31
0.0
  0
LINE
  5
55
330
4E
100
AcDbEntity
  8
SLD-0
  6
Continuous
 62
   179
100
AcDbLine
 10
48.1558632551
 20
131.5242090382
 30
0.0
 11
48.1558632551
 21
135.0242090382
 31
0.0
  0
LINE
  5
56
330
4E
100
AcDbEntity
  8
SLD-0
  6
Continuous
 62
   179
100
AcDbLine
 10
43.1558632551
 20
126.5242090382
 30
0.0
 11
39.6558632551
 21
126.5242090382
 31
0.0
  0
LINE
  5
57
330
4E
100
AcDbEntity
  8
SLD-0
  6
Continuous
 62
   179
100
AcDbLine
 10
48.1558632551
 20
121.5242090382
 30
0.0
 11
48.1558632551
 21
118.0242090382
 31
0.0
  0
LINE
  5
58
330
4E
100
AcDbEntity
  8
SLD-0
  6
Continuous
 62
   179
100
AcDbLine
 10
53.1558632551
 20
126.5242090382
 30
0.0
 11
56.6558632551
 21
126.5242090382
 31
0.0
  0
ENDBLK
  5
50
330
4E
100
AcDbEntity
  8
0
100
AcDbBlockEnd
  0
BLOCK
  5
5A
330
59
100
AcDbEntity
  8
0
100
AcDbBlockBegin
  2
SW_CENTERMARK2
 70
     0
 71
     0
 10
0.0
 20
0.0
 30
0.0
  3
SW_CENTERMARK2
  1

  0
LINE
  5
5C
330
59
100
AcDbEntity
  8
SLD-0
  6
Continuous
 62
   179
100
AcDbLine
 10
108.2497546769
 20
195.9300204559
 30
0.0
 11
108.2497546769
 21
198.4300204559
 31
0.0
  0
LINE
  5
5D
330
59
100
AcDbEntity
  8
SLD-0
  6
Continuous
 62
   179
100
AcDbLine
 10
108.2497546769
 20
195.9300204559
 30
0.0
 11
105.7497546769
 21
195.9300204559
 31
0.0
  0
LINE
  5
5E
330
59
100
AcDbEntity
  8
SLD-0
  6
Continuous
 62
   179
100
AcDbLine
 10
108.2497546769
 20
195.9300204559
 30
0.0
 11
108.2497546769
 21
193.4300204559
 31
0.0
  0
LINE
  5
5F
330
59
100
AcDbEntity
  8
SLD-0
  6
Continuous
 62
   179
100
AcDbLine
 10
108.2497546769
 20
195.9300204559
 30
0.0
 11
110.7497546769
 21
195.9300204559
 31
0.0
  0
LINE
  5
60
330
59
100
AcDbEntity
  8
SLD-0
  6
Continuous
 62
   179
100
AcDbLine
 10
108.2497546769
 20
198.4300204559
 30
0.0
 11
108.2497546769
 21
200.6800204559
 31
0.0
  0
LINE
  5
61
330
59
100
AcDbEntity
  8
SLD-0
  6
Continuous
 62
   179
100
AcDbLine
 10
105.7497546769
 20
195.9300204559
 30
0.0
 11
103.4997546769
 21
195.9300204559
 31
0.0
  0
LINE
  5
62
330
59
100
AcDbEntity
  8
SLD-0
  6
Continuous
 62
   179
100
AcDbLine
 10
108.2497546769
 20
193.4300204559
 30
0.0
 11
108.2497546769
 21
191.1800204559
 31
0.0
  0
LINE
  5
63
330
59
100
AcDbEntity
  8
SLD-0
  6
Continuous
 62
   179
100
AcDbLine
 10
110.7497546769
 20
195.9300204559
 30
0.0
 11
112.9997546769
 21
195.9300204559
 31
0.0
  0
ENDBLK
  5
5B
330
59
100
AcDbEntity
  8
0
100
AcDbBlockEnd
  0
BLOCK
  5
128
330
121
100
AcDbEntity
  8
0
100
AcDbBlockBegin
  2
*D7
 70
     1
 71
     0
 10
0.0
 20
0.0
 30
0.0
  3
*D7
  1

  0
LINE
  5
12E
330
121
100
AcDbEntity
  8
SLD-0
 62
     7
100
AcDbLine
 10
120.0888207902
 20
121.2384069605
 30
0.0
 11
128.3446296566
 21
105.8676582996
 31
0.0
  0
LINE
  5
12F
330
121
100
AcDbEntity
  8
SLD-0
 62
     7
100
AcDbLine
 10
114.4106885636
 20
131.8100111158
 30
0.0
 11
120.0888207902
 21
121.2384069605
 31
0.0
  0
LINE
  5
130
330
121
100
AcDbEntity
  8
SLD-0
 62
     7
100
AcDbLine
 10
128.3446296566
 20
105.8676582996
 30
0.0
 11
161.4058915384
 21
105.8676582996
 31
0.0
  0
LINE
  5
131
330
121
100
AcDbEntity
  8
SLD-0
 62
     7
100
AcDbLine
 10
115.1220589298
 20
128.786747614
 30
0.0
 11
114.4106885636
 21
131.8100111158
 31
0.0
  0
LINE
  5
132
330
121
100
AcDbEntity
  8
SLD-0
 62
     7
100
AcDbLine
 10
114.4106885636
 20
131.8100111158
 30
0.0
 11
116.5383843107
 21
129.54747254
 31
0.0
  0
LINE
  5
133
330
121
100
AcDbEntity
  8
SLD-0
 62
     7
100
AcDbLine
 10
114.4106885636
 20
131.8100111158
 30
0.0
 11
115.8302216202
 21
129.167110077
 31
0.0
  0
LINE
  5
134
330
121
100
AcDbEntity
  8
SLD-0
 62
     7
100
AcDbLine
 10
119.377450424
 20
124.2616704623
 30
0.0
 11
120.0888207902
 21
121.2384069605
 31
0.0
  0
LINE
  5
135
330
121
100
AcDbEntity
  8
SLD-0
 62
     7
100
AcDbLine
 10
120.0888207902
 20
121.2384069605
 30
0.0
 11
117.9611250431
 21
123.5009455363
 31
0.0
  0
LINE
  5
136
330
121
100
AcDbEntity
  8
SLD-0
 62
     7
100
AcDbLine
 10
120.0888207902
 20
121.2384069605
 30
0.0
 11
118.6692877336
 21
123.8813079993
 31
0.0
  0
MTEXT
  5
137
330
121
100
AcDbEntity
  8
SLD-0
 62
     7
100
AcDbMText
 10
129.7696296566
 20
110.3943517628
 30
0.1
 40
3.5
 41
0.0
 71
     1
 72
     1
  1
%%c
  7
SLDTEXTSTYLE0
 73
     1
 44
1.0
  0
MTEXT
  5
138
330
121
100
AcDbEntity
  8
SLD-0
 62
     7
100
AcDbMText
 10
135.3895145782
 20
110.3943519956
 30
0.1
 40
3.5
 41
0.0
 71
     1
 72
     1
  1
12
  7
SLDTEXTSTYLE0
 73
     1
 44
1.0
  0
MTEXT
  5
139
330
121
100
AcDbEntity
  8
SLD-0
 62
     7
100
AcDbMText
 10
141.4958202476
 20
110.3943519956
 30
0.1
 40
3.5
 41
0.0
 71
     1
 72
     1
  1
H7
  7
SLDTEXTSTYLE0
 73
     1
 44
1.0
  0
MTEXT
  5
13A
330
121
100
AcDbEntity
  8
SLD-0
 62
     7
100
AcDbMText
 10
148.0077512489
 20
109.1978781698
 30
0.1
 40
2.1
 41
0.0
 71
     1
 72
     1
  1
0
  7
SLDTEXTSTYLE0
 73
     1
 44
1.0
  0
MTEXT
  5
13B
330
121
100
AcDbEntity
  8
SLD-0
 62
     7
100
AcDbMText
 10
146.7872209714
 20
111.6389387247
 30
0.1
 40
2.1
 41
0.0
 71
     1
 72
     1
  1
+
  7
SLDTEXTSTYLE0
 73
     1
 44
1.0
  0
MTEXT
  5
13C
330
121
100
AcDbEntity
  8
SLD-0
 62
     7
100
AcDbMText
 10
148.0077512489
 20
111.6389387247
 30
0.1
 40
2.1
 41
0.0
 71
     1
 72
     1
  1
0.018
  7
SLDTEXTSTYLE0
 73
     1
 44
1.0
  0
MTEXT
  5
13D
330
121
100
AcDbEntity
  8
SLD-0
 62
     7
100
AcDbMText
 10
154.1177112006
 20
110.3943519956
 30
0.1
 40
3.5
 41
0.0
 71
     1
 72
     1
  1
　　
  7
SLDTEXTSTYLE0
 73
     1
 44
1.0
  0
ENDBLK
  5
129
330
121
100
AcDbEntity
  8
0
100
AcDbBlockEnd
  0
BLOCK
  5
12C
330
12B
100
AcDbEntity
  8
0
100
AcDbBlockBegin
  2
_None
 70
     0
 71
     0
 10
0.0
 20
0.0
 30
0.0
  3
_None
  1

  0
ENDBLK
  5
12D
330
12B
100
AcDbEntity
  8
0
100
AcDbBlockEnd
  0
BLOCK
  5
149
330
13F
100
AcDbEntity
  8
0
100
AcDbBlockBegin
  2
*D9
 70
     1
 71
     0
 10
0.0
 20
0.0
 30
0.0
  3
*D9
  1

  0
LINE
  5
14C
330
13F
100
AcDbEntity
  8
SLD-0
 62
     7
100
AcDbLine
 10
117.2497546769
 20
136.0242090382
 30
0.0
 11
117.2497546769
 21
141.9109047607
 31
0.0
  0
LINE
  5
14D
330
13F
100
AcDbEntity
  8
SLD-0
 62
     7
100
AcDbLine
 10
88.2497546769
 20
136.5242090382
 30
0.0
 11
88.2497546769
 21
141.9109047607
 31
0.0
  0
LINE
  5
14E
330
13F
100
AcDbEntity
  8
SLD-0
 62
     7
100
AcDbLine
 10
117.2497546769
 20
140.9109047607
 30
0.0
 11
88.2497546769
 21
140.9109047607
 31
0.0
  0
LINE
  5
14F
330
13F
100
AcDbEntity
  8
SLD-0
 62
     7
100
AcDbLine
 10
114.2497546769
 20
141.7147517607
 30
0.0
 11
117.2497546769
 21
140.9109047607
 31
0.0
  0
LINE
  5
150
330
13F
100
AcDbEntity
  8
SLD-0
 62
     7
100
AcDbLine
 10
117.2497546769
 20
140.9109047607
 30
0.0
 11
114.2497546769
 21
140.1070577607
 31
0.0
  0
LINE
  5
151
330
13F
100
AcDbEntity
  8
SLD-0
 62
     7
100
AcDbLine
 10
117.2497546769
 20
140.9109047607
 30
0.0
 11
114.2497546769
 21
140.9109047607
 31
0.0
  0
LINE
  5
152
330
13F
100
AcDbEntity
  8
SLD-0
 62
     7
100
AcDbLine
 10
91.2497546769
 20
140.1070577607
 30
0.0
 11
88.2497546769
 21
140.9109047607
 31
0.0
  0
LINE
  5
153
330
13F
100
AcDbEntity
  8
SLD-0
 62
     7
100
AcDbLine
 10
88.2497546769
 20
140.9109047607
 30
0.0
 11
91.2497546769
 21
141.7147517607
 31
0.0
  0
LINE
  5
154
330
13F
100
AcDbEntity
  8
SLD-0
 62
     7
100
AcDbLine
 10
88.2497546769
 20
140.9109047607
 30
0.0
 11
91.2497546769
 21
140.9109047607
 31
0.0
  0
MTEXT
  5
155
330
13F
100
AcDbEntity
  8
SLD-0
 62
     7
100
AcDbMText
 10
100.7143194537
 20
145.4375984567
 30
0.1
 40
3.5
 41
0.0
 71
     1
 72
     1
  1
29
  7
SLDTEXTSTYLE0
 73
     1
 44
1.0
  0
ENDBLK
  5
14A
330
13F
100
AcDbEntity
  8
0
100
AcDbBlockEnd
  0
BLOCK
  5
162
330
157
100
AcDbEntity
  8
0
100
AcDbBlockBegin
  2
*D10
 70
     1
 71
     0
 10
0.0
 20
0.0
 30
0.0
  3
*D10
  1

  0
LINE
  5
164
330
157
100
AcDbEntity
  8
SLD-0
 62
     7
100
AcDbLine
 10
118.2497546769
 20
135.5242090382
 30
0.0
 11
145.4179901304
 21
135.5242090382
 31
0.0
  0
LINE
  5
165
330
157
100
AcDbEntity
  8
SLD-0
 62
     7
100
AcDbLine
 10
118.2497546769
 20
117.5242090382
 30
0.0
 11
145.4179901304
 21
117.5242090382
 31
0.0
  0
LINE
  5
166
330
157
100
AcDbEntity
  8
SLD-0
 62
     7
100
AcDbLine
 10
144.4179901304
 20
135.5242090382
 30
0.0
 11
144.4179901304
 21
117.5242090382
 31
0.0
  0
LINE
  5
167
330
157
100
AcDbEntity
  8
SLD-0
 62
     7
100
AcDbLine
 10
143.6141431304
 20
132.5242090382
 30
0.0
 11
144.4179901304
 21
135.5242090382
 31
0.0
  0
LINE
  5
168
330
157
100
AcDbEntity
  8
SLD-0
 62
     7
100
AcDbLine
 10
144.4179901304
 20
135.5242090382
 30
0.0
 11
145.2218371304
 21
132.5242090382
 31
0.0
  0
LINE
  5
169
330
157
100
AcDbEntity
  8
SLD-0
 62
     7
100
AcDbLine
 10
144.4179901304
 20
135.5242090382
 30
0.0
 11
144.4179901304
 21
132.5242090382
 31
0.0
  0
LINE
  5
16A
330
157
100
AcDbEntity
  8
SLD-0
 62
     7
100
AcDbLine
 10
145.2218371304
 20
120.5242090382
 30
0.0
 11
144.4179901304
 21
117.5242090382
 31
0.0
  0
LINE
  5
16B
330
157
100
AcDbEntity
  8
SLD-0
 62
     7
100
AcDbLine
 10
144.4179901304
 20
117.5242090382
 30
0.0
 11
143.6141431304
 21
120.5242090382
 31
0.0
  0
LINE
  5
16C
330
157
100
AcDbEntity
  8
SLD-0
 62
     7
100
AcDbLine
 10
144.4179901304
 20
117.5242090382
 30
0.0
 11
144.4179901304
 21
120.5242090382
 31
0.0
  0
MTEXT
  5
16D
330
157
100
AcDbEntity
  8
SLD-0
 62
     7
100
AcDbMText
 10
139.8912964345
 20
124.488773815
 30
0.1
 40
3.5
 41
0.0
 71
     1
 72
     1
  1
18
  7
SLDTEXTSTYLE0
 11
6.123031769111886E-17
 21
1.0
 31
0.0
 73
     1
 44
1.0
  0
ENDBLK
  5
163
330
157
100
AcDbEntity
  8
0
100
AcDbBlockEnd
  0
BLOCK
  5
17B
330
16F
100
AcDbEntity
  8
0
100
AcDbBlockBegin
  2
*D11
 70
     1
 71
     0
 10
0.0
 20
0.0
 30
0.0
  3
*D11
  1

  0
LINE
  5
17D
330
16F
100
AcDbEntity
  8
SLD-0
 62
     7
100
AcDbLine
 10
87.2497546769
 20
127.0242090382
 30
0.0
 11
78.0991701881
 21
127.0242090382
 31
0.0
  0
LINE
  5
17E
330
16F
100
AcDbEntity
  8
SLD-0
 62
     7
100
AcDbLine
 10
87.2497546769
 20
126.0242090382
 30
0.0
 11
78.0991701881
 21
126.0242090382
 31
0.0
  0
LINE
  5
17F
330
16F
100
AcDbEntity
  8
SLD-0
 62
     7
100
AcDbLine
 10
79.0991701881
 20
127.0242090382
 30
0.0
 11
79.0991701881
 21
132.0242090382
 31
0.0
  0
LINE
  5
180
330
16F
100
AcDbEntity
  8
SLD-0
 62
     7
100
AcDbLine
 10
79.0991701881
 20
127.0242090382
 30
0.0
 11
79.0991701881
 21
126.0242090382
 31
0.0
  0
LINE
  5
181
330
16F
100
AcDbEntity
  8
SLD-0
 62
     7
100
AcDbLine
 10
79.0991701881
 20
126.0242090382
 30
0.0
 11
79.0991701881
 21
117.7462263118
 31
0.0
  0
LINE
  5
182
330
16F
100
AcDbEntity
  8
SLD-0
 62
     7
100
AcDbLine
 10
79.9030171881
 20
130.0242090382
 30
0.0
 11
79.0991701881
 21
127.0242090382
 31
0.0
  0
LINE
  5
183
330
16F
100
AcDbEntity
  8
SLD-0
 62
     7
100
AcDbLine
 10
79.0991701881
 20
127.0242090382
 30
0.0
 11
78.2953231881
 21
130.0242090382
 31
0.0
  0
LINE
  5
184
330
16F
100
AcDbEntity
  8
SLD-0
 62
     7
100
AcDbLine
 10
79.0991701881
 20
127.0242090382
 30
0.0
 11
79.0991701881
 21
130.0242090382
 31
0.0
  0
LINE
  5
185
330
16F
100
AcDbEntity
  8
SLD-0
 62
     7
100
AcDbLine
 10
78.2953231881
 20
123.0242090382
 30
0.0
 11
79.0991701881
 21
126.0242090382
 31
0.0
  0
LINE
  5
186
330
16F
100
AcDbEntity
  8
SLD-0
 62
     7
100
AcDbLine
 10
79.0991701881
 20
126.0242090382
 30
0.0
 11
79.9030171881
 21
123.0242090382
 31
0.0
  0
LINE
  5
187
330
16F
100
AcDbEntity
  8
SLD-0
 62
     7
100
AcDbLine
 10
79.0991701881
 20
126.0242090382
 30
0.0
 11
79.0991701881
 21
123.0242090382
 31
0.0
  0
MTEXT
  5
188
330
16F
100
AcDbEntity
  8
SLD-0
 62
     7
100
AcDbMText
 10
74.5724764921
 20
119.3337263118
 30
0.1
 40
3.5
 41
0.0
 71
     1
 72
     1
  1
1
  7
SLDTEXTSTYLE0
 11
6.123031769111886E-17
 21
1.0
 31
0.0
 73
     1
 44
1.0
  0
ENDBLK
  5
17C
330
16F
100
AcDbEntity
  8
0
100
AcDbBlockEnd
  0
BLOCK
  5
195
330
18A
100
AcDbEntity
  8
0
100
AcDbBlockBegin
  2
*D12
 70
     1
 71
     0
 10
0.0
 20
0.0
 30
0.0
  3
*D12
  1

  0
LINE
  5
197
330
18A
100
AcDbEntity
  8
SLD-0
100
AcDbLine
 10
88.7497546769
 20
135.5242090382
 30
0.0
 11
69.6545113332
 21
135.5242090382
 31
0.0
  0
LINE
  5
198
330
18A
100
AcDbEntity
  8
SLD-0
100
AcDbLine
 10
85.2497546769
 20
126.5242090382
 30
0.0
 11
69.6545113332
 21
126.5242090382
 31
0.0
  0
LINE
  5
199
330
18A
100
AcDbEntity
  8
SLD-0
100
AcDbLine
 10
70.6545113332
 20
135.5242090382
 30
0.0
 11
70.6545113332
 21
126.5242090382
 31
0.0
  0
LINE
  5
19A
330
18A
100
AcDbEntity
  8
SLD-0
100
AcDbLine
 10
69.8506643332
 20
132.5242090382
 30
0.0
 11
70.6545113332
 21
135.5242090382
 31
0.0
  0
LINE
  5
19B
330
18A
100
AcDbEntity
  8
SLD-0
100
AcDbLine
 10
70.6545113332
 20
135.5242090382
 30
0.0
 11
71.4583583332
 21
132.5242090382
 31
0.0
  0
LINE
  5
19C
330
18A
100
AcDbEntity
  8
SLD-0
100
AcDbLine
 10
70.6545113332
 20
135.5242090382
 30
0.0
 11
70.6545113332
 21
132.5242090382
 31
0.0
  0
LINE
  5
19D
330
18A
100
AcDbEntity
  8
SLD-0
100
AcDbLine
 10
71.4583583332
 20
129.5242090382
 30
0.0
 11
70.6545113332
 21
126.5242090382
 31
0.0
  0
LINE
  5
19E
330
18A
100
AcDbEntity
  8
SLD-0
100
AcDbLine
 10
70.6545113332
 20
126.5242090382
 30
0.0
 11
69.8506643332
 21
129.5242090382
 31
0.0
  0
LINE
  5
19F
330
18A
100
AcDbEntity
  8
SLD-0
100
AcDbLine
 10
70.6545113332
 20
126.5242090382
 30
0.0
 11
70.6545113332
 21
129.5242090382
 31
0.0
  0
MTEXT
  5
1A0
330
18A
100
AcDbEntity
  8
SLD-0
100
AcDbMText
 10
66.1278176373
 20
130.0064914266
 30
0.1
 40
3.5
 41
0.0
 71
     1
 72
     1
  1
9
  7
SLDTEXTSTYLE0
 11
6.123031769111886E-17
 21
1.0
 31
0.0
 73
     1
 44
1.0
  0
ENDBLK
  5
196
330
18A
100
AcDbEntity
  8
0
100
AcDbBlockEnd
  0
BLOCK
  5
1AD
330
1A2
100
AcDbEntity
  8
0
100
AcDbBlockBegin
  2
*D13
 70
     1
 71
     0
 10
0.0
 20
0.0
 30
0.0
  3
*D13
  1

  0
LINE
  5
1AF
330
1A2
100
AcDbEntity
  8
SLD-0
100
AcDbLine
 10
126.7497546769
 20
126.5242090382
 30
0.0
 11
135.6858754628
 21
126.5242090382
 31
0.0
  0
LINE
  5
1B0
330
1A2
100
AcDbEntity
  8
SLD-0
100
AcDbLine
 10
118.2497546769
 20
135.5242090382
 30
0.0
 11
135.6858754628
 21
135.5242090382
 31
0.0
  0
LINE
  5
1B1
330
1A2
100
AcDbEntity
  8
SLD-0
100
AcDbLine
 10
134.6858754628
 20
126.5242090382
 30
0.0
 11
134.6858754628
 21
135.5242090382
 31
0.0
  0
LINE
  5
1B2
330
1A2
100
AcDbEntity
  8
SLD-0
100
AcDbLine
 10
135.4897224628
 20
129.5242090382
 30
0.0
 11
134.6858754628
 21
126.5242090382
 31
0.0
  0
LINE
  5
1B3
330
1A2
100
AcDbEntity
  8
SLD-0
100
AcDbLine
 10
134.6858754628
 20
126.5242090382
 30
0.0
 11
133.8820284628
 21
129.5242090382
 31
0.0
  0
LINE
  5
1B4
330
1A2
100
AcDbEntity
  8
SLD-0
100
AcDbLine
 10
134.6858754628
 20
126.5242090382
 30
0.0
 11
134.6858754628
 21
129.5242090382
 31
0.0
  0
LINE
  5
1B5
330
1A2
100
AcDbEntity
  8
SLD-0
100
AcDbLine
 10
133.8820284628
 20
132.5242090382
 30
0.0
 11
134.6858754628
 21
135.5242090382
 31
0.0
  0
LINE
  5
1B6
330
1A2
100
AcDbEntity
  8
SLD-0
100
AcDbLine
 10
134.6858754628
 20
135.5242090382
 30
0.0
 11
135.4897224628
 21
132.5242090382
 31
0.0
  0
LINE
  5
1B7
330
1A2
100
AcDbEntity
  8
SLD-0
100
AcDbLine
 10
134.6858754628
 20
135.5242090382
 30
0.0
 11
134.6858754628
 21
132.5242090382
 31
0.0
  0
MTEXT
  5
1B8
330
1A2
100
AcDbEntity
  8
SLD-0
100
AcDbMText
 10
130.1591817668
 20
130.0064914266
 30
0.1
 40
3.5
 41
0.0
 71
     1
 72
     1
  1
9
  7
SLDTEXTSTYLE0
 11
6.123031769111886E-17
 21
1.0
 31
0.0
 73
     1
 44
1.0
  0
ENDBLK
  5
1AE
330
1A2
100
AcDbEntity
  8
0
100
AcDbBlockEnd
  0
BLOCK
  5
1C4
330
1BA
100
AcDbEntity
  8
0
100
AcDbBlockBegin
  2
*D14
 70
     1
 71
     0
 10
0.0
 20
0.0
 30
0.0
  3
*D14
  1

  0
LINE
  5
1C6
330
1BA
100
AcDbEntity
  8
SLD-0
100
AcDbLine
 10
104.2497546769
 20
126.0242090382
 30
0.0
 11
104.2497546769
 21
105.2820439165
 31
0.0
  0
LINE
  5
1C7
330
1BA
100
AcDbEntity
  8
SLD-0
100
AcDbLine
 10
88.2497546769
 20
126.0242090382
 30
0.0
 11
88.2497546769
 21
105.2820439165
 31
0.0
  0
LINE
  5
1C8
330
1BA
100
AcDbEntity
  8
SLD-0
100
AcDbLine
 10
104.2497546769
 20
106.2820439165
 30
0.0
 11
88.2497546769
 21
106.2820439165
 31
0.0
  0
LINE
  5
1C9
330
1BA
100
AcDbEntity
  8
SLD-0
100
AcDbLine
 10
101.2497546769
 20
107.0858909165
 30
0.0
 11
104.2497546769
 21
106.2820439165
 31
0.0
  0
LINE
  5
1CA
330
1BA
100
AcDbEntity
  8
SLD-0
100
AcDbLine
 10
104.2497546769
 20
106.2820439165
 30
0.0
 11
101.2497546769
 21
105.4781969165
 31
0.0
  0
LINE
  5
1CB
330
1BA
100
AcDbEntity
  8
SLD-0
100
AcDbLine
 10
104.2497546769
 20
106.2820439165
 30
0.0
 11
101.2497546769
 21
106.2820439165
 31
0.0
  0
LINE
  5
1CC
330
1BA
100
AcDbEntity
  8
SLD-0
100
AcDbLine
 10
91.2497546769
 20
105.4781969165
 30
0.0
 11
88.2497546769
 21
106.2820439165
 31
0.0
  0
LINE
  5
1CD
330
1BA
100
AcDbEntity
  8
SLD-0
100
AcDbLine
 10
88.2497546769
 20
106.2820439165
 30
0.0
 11
91.2497546769
 21
107.0858909165
 31
0.0
  0
LINE
  5
1CE
330
1BA
100
AcDbEntity
  8
SLD-0
100
AcDbLine
 10
88.2497546769
 20
106.2820439165
 30
0.0
 11
91.2497546769
 21
106.2820439165
 31
0.0
  0
MTEXT
  5
1CF
330
1BA
100
AcDbEntity
  8
SLD-0
100
AcDbMText
 10
94.2143194537
 20
110.8087376125
 30
0.1
 40
3.5
 41
0.0
 71
     1
 72
     1
  1
16
  7
SLDTEXTSTYLE0
 73
     1
 44
1.0
  0
ENDBLK
  5
1C5
330
1BA
100
AcDbEntity
  8
0
100
AcDbBlockEnd
  0
BLOCK
  5
1DB
330
1D1
100
AcDbEntity
  8
0
100
AcDbBlockBegin
  2
*D15
 70
     1
 71
     0
 10
0.0
 20
0.0
 30
0.0
  3
*D15
  1

  0
LINE
  5
1DD
330
1D1
100
AcDbEntity
  8
SLD-0
 62
     7
100
AcDbLine
 10
126.2497546769
 20
127.5242090382
 30
0.0
 11
126.2497546769
 21
148.1398766809
 31
0.0
  0
LINE
  5
1DE
330
1D1
100
AcDbEntity
  8
SLD-0
 62
     7
100
AcDbLine
 10
88.2497546769
 20
135.0242090382
 30
0.0
 11
88.2497546769
 21
148.1398766809
 31
0.0
  0
LINE
  5
1DF
330
1D1
100
AcDbEntity
  8
SLD-0
 62
     7
100
AcDbLine
 10
126.2497546769
 20
147.1398766809
 30
0.0
 11
88.2497546769
 21
147.1398766809
 31
0.0
  0
LINE
  5
1E0
330
1D1
100
AcDbEntity
  8
SLD-0
 62
     7
100
AcDbLine
 10
123.2497546769
 20
147.9437236809
 30
0.0
 11
126.2497546769
 21
147.1398766809
 31
0.0
  0
LINE
  5
1E1
330
1D1
100
AcDbEntity
  8
SLD-0
 62
     7
100
AcDbLine
 10
126.2497546769
 20
147.1398766809
 30
0.0
 11
123.2497546769
 21
146.3360296809
 31
0.0
  0
LINE
  5
1E2
330
1D1
100
AcDbEntity
  8
SLD-0
 62
     7
100
AcDbLine
 10
126.2497546769
 20
147.1398766809
 30
0.0
 11
123.2497546769
 21
147.1398766809
 31
0.0
  0
LINE
  5
1E3
330
1D1
100
AcDbEntity
  8
SLD-0
 62
     7
100
AcDbLine
 10
91.2497546769
 20
146.3360296809
 30
0.0
 11
88.2497546769
 21
147.1398766809
 31
0.0
  0
LINE
  5
1E4
330
1D1
100
AcDbEntity
  8
SLD-0
 62
     7
100
AcDbLine
 10
88.2497546769
 20
147.1398766809
 30
0.0
 11
91.2497546769
 21
147.9437236809
 31
0.0
  0
LINE
  5
1E5
330
1D1
100
AcDbEntity
  8
SLD-0
 62
     7
100
AcDbLine
 10
88.2497546769
 20
147.1398766809
 30
0.0
 11
91.2497546769
 21
147.1398766809
 31
0.0
  0
MTEXT
  5
1E6
330
1D1
100
AcDbEntity
  8
SLD-0
 62
     7
100
AcDbMText
 10
105.2143194537
 20
151.6665703768
 30
0.1
 40
3.5
 41
0.0
 71
     1
 72
     1
  1
38
  7
SLDTEXTSTYLE0
 73
     1
 44
1.0
  0
ENDBLK
  5
1DC
330
1D1
100
AcDbEntity
  8
0
100
AcDbBlockEnd
  0
BLOCK
  5
1EF
330
1E8
100
AcDbEntity
  8
0
100
AcDbBlockBegin
  2
*D16
 70
     1
 71
     0
 10
0.0
 20
0.0
 30
0.0
  3
*D16
  1

  0
LINE
  5
1F2
330
1E8
100
AcDbEntity
  8
SLD-0
 62
     7
100
AcDbLine
 10
124.8007134575
 20
131.4214553557
 30
0.0
 11
125.6104401668
 21
131.946611334
 31
0.0
  0
LINE
  5
1F3
330
1E8
100
AcDbEntity
  8
SLD-0
 62
     7
100
AcDbLine
 10
126.889069187
 20
132.7758783771
 30
0.0
 11
130.4873466198
 21
135.1095755166
 31
0.0
  0
LINE
  5
1F4
330
1E8
100
AcDbEntity
  8
SLD-0
 62
     7
100
AcDbLine
 10
131.76597564
 20
135.9388425597
 30
0.0
 11
136.151987878
 21
138.7834326184
 31
0.0
  0
LINE
  5
1F5
330
1E8
100
AcDbEntity
  8
SLD-0
 62
     7
100
AcDbLine
 10
127.7551038022
 20
132.3794468434
 30
0.0
 11
124.8007134575
 21
131.4214553557
 31
0.0
  0
LINE
  5
1F6
330
1E8
100
AcDbEntity
  8
SLD-0
 62
     7
100
AcDbLine
 10
124.8007134575
 20
131.4214553557
 30
0.0
 11
126.8802956332
 21
133.7282947463
 31
0.0
  0
LINE
  5
1F7
330
1E8
100
AcDbEntity
  8
SLD-0
 62
     7
100
AcDbLine
 10
124.8007134575
 20
131.4214553557
 30
0.0
 11
127.3176997177
 21
133.0538707949
 31
0.0
  0
MTEXT
  5
1F8
330
1E8
100
AcDbEntity
  8
SLD-0
 62
     7
100
AcDbMText
 10
130.6548899493
 20
140.6011771806
 30
0.1
 40
3.5
 41
0.0
 71
     1
 72
     1
  1
R
  7
SLDTEXTSTYLE0
 11
0.8389954200836384
 21
0.5441384796893886
 31
0.0
 73
     1
 44
1.0
  0
ENDBLK
  5
1F0
330
1E8
100
AcDbEntity
  8
0
100
AcDbBlockEnd
  0
BLOCK
  5
204
330
1FA
100
AcDbEntity
  8
0
100
AcDbBlockBegin
  2
*D17
 70
     1
 71
     0
 10
0.0
 20
0.0
 30
0.0
  3
*D17
  1

  0
LINE
  5
206
330
1FA
100
AcDbEntity
  8
SLD-0
 62
     7
100
AcDbLine
 10
108.2497546769
 20
201.6800204559
 30
0.0
 11
108.2497546769
 21
177.978046836
 31
0.0
  0
LINE
  5
207
330
1FA
100
AcDbEntity
  8
SLD-0
 62
     7
100
AcDbLine
 10
88.2497546769
 20
185.9300204559
 30
0.0
 11
88.2497546769
 21
177.978046836
 31
0.0
  0
LINE
  5
208
330
1FA
100
AcDbEntity
  8
SLD-0
 62
     7
100
AcDbLine
 10
108.2497546769
 20
178.978046836
 30
0.0
 11
88.2497546769
 21
178.978046836
 31
0.0
  0
LINE
  5
209
330
1FA
100
AcDbEntity
  8
SLD-0
 62
     7
100
AcDbLine
 10
105.2497546769
 20
179.781893836
 30
0.0
 11
108.2497546769
 21
178.978046836
 31
0.0
  0
LINE
  5
20A
330
1FA
100
AcDbEntity
  8
SLD-0
 62
     7
100
AcDbLine
 10
108.2497546769
 20
178.978046836
 30
0.0
 11
105.2497546769
 21
178.174199836
 31
0.0
  0
LINE
  5
20B
330
1FA
100
AcDbEntity
  8
SLD-0
 62
     7
100
AcDbLine
 10
108.2497546769
 20
178.978046836
 30
0.0
 11
105.2497546769
 21
178.978046836
 31
0.0
  0
LINE
  5
20C
330
1FA
100
AcDbEntity
  8
SLD-0
 62
     7
100
AcDbLine
 10
91.2497546769
 20
178.174199836
 30
0.0
 11
88.2497546769
 21
178.978046836
 31
0.0
  0
LINE
  5
20D
330
1FA
100
AcDbEntity
  8
SLD-0
 62
     7
100
AcDbLine
 10
88.2497546769
 20
178.978046836
 30
0.0
 11
91.2497546769
 21
179.781893836
 31
0.0
  0
LINE
  5
20E
330
1FA
100
AcDbEntity
  8
SLD-0
 62
     7
100
AcDbLine
 10
88.2497546769
 20
178.978046836
 30
0.0
 11
91.2497546769
 21
178.978046836
 31
0.0
  0
MTEXT
  5
20F
330
1FA
100
AcDbEntity
  8
SLD-0
 62
     7
100
AcDbMText
 10
96.2143194537
 20
183.5047405319
 30
0.1
 40
3.5
 41
0.0
 71
     1
 72
     1
  1
20
  7
SLDTEXTSTYLE0
 73
     1
 44
1.0
  0
ENDBLK
  5
205
330
1FA
100
AcDbEntity
  8
0
100
AcDbBlockEnd
  0
BLOCK
  5
21C
330
211
100
AcDbEntity
  8
0
100
AcDbBlockBegin
  2
*D18
 70
     1
 71
     0
 10
0.0
 20
0.0
 30
0.0
  3
*D18
  1

  0
LINE
  5
21E
330
211
100
AcDbEntity
  8
SLD-0
 62
     7
100
AcDbLine
 10
124.2497546769
 20
204.9300204559
 30
0.0
 11
147.1444499278
 21
204.9300204559
 31
0.0
  0
LINE
  5
21F
330
211
100
AcDbEntity
  8
SLD-0
 62
     7
100
AcDbLine
 10
124.2497546769
 20
186.9300204559
 30
0.0
 11
147.1444499278
 21
186.9300204559
 31
0.0
  0
LINE
  5
220
330
211
100
AcDbEntity
  8
SLD-0
 62
     7
100
AcDbLine
 10
146.1444499278
 20
204.9300204559
 30
0.0
 11
146.1444499278
 21
186.9300204559
 31
0.0
  0
LINE
  5
221
330
211
100
AcDbEntity
  8
SLD-0
 62
     7
100
AcDbLine
 10
145.3406029278
 20
201.9300204559
 30
0.0
 11
146.1444499278
 21
204.9300204559
 31
0.0
  0
LINE
  5
222
330
211
100
AcDbEntity
  8
SLD-0
 62
     7
100
AcDbLine
 10
146.1444499278
 20
204.9300204559
 30
0.0
 11
146.9482969278
 21
201.9300204559
 31
0.0
  0
LINE
  5
223
330
211
100
AcDbEntity
  8
SLD-0
 62
     7
100
AcDbLine
 10
146.1444499278
 20
204.9300204559
 30
0.0
 11
146.1444499278
 21
201.9300204559
 31
0.0
  0
LINE
  5
224
330
211
100
AcDbEntity
  8
SLD-0
 62
     7
100
AcDbLine
 10
146.9482969278
 20
189.9300204559
 30
0.0
 11
146.1444499278
 21
186.9300204559
 31
0.0
  0
LINE
  5
225
330
211
100
AcDbEntity
  8
SLD-0
 62
     7
100
AcDbLine
 10
146.1444499278
 20
186.9300204559
 30
0.0
 11
145.3406029278
 21
189.9300204559
 31
0.0
  0
LINE
  5
226
330
211
100
AcDbEntity
  8
SLD-0
 62
     7
100
AcDbLine
 10
146.1444499278
 20
186.9300204559
 30
0.0
 11
146.1444499278
 21
189.9300204559
 31
0.0
  0
MTEXT
  5
227
330
211
100
AcDbEntity
  8
SLD-0
 62
     7
100
AcDbMText
 10
141.6177562318
 20
193.8945852328
 30
0.1
 40
3.5
 41
0.0
 71
     1
 72
     1
  1
18
  7
SLDTEXTSTYLE0
 11
6.123031769111886E-17
 21
1.0
 31
0.0
 73
     1
 44
1.0
  0
ENDBLK
  5
21D
330
211
100
AcDbEntity
  8
0
100
AcDbBlockEnd
  0
BLOCK
  5
235
330
229
100
AcDbEntity
  8
0
100
AcDbBlockBegin
  2
*D19
 70
     1
 71
     0
 10
0.0
 20
0.0
 30
0.0
  3
*D19
  1

  0
LINE
  5
238
330
229
100
AcDbEntity
  8
SLD-0
 62
     7
100
AcDbLine
 10
118.2497546769
 20
204.9300204559
 30
0.0
 11
141.4364859093
 21
204.9300204559
 31
0.0
  0
LINE
  5
239
330
229
100
AcDbEntity
  8
SLD-0
 62
     7
100
AcDbLine
 10
127.2497546769
 20
201.4300204559
 30
0.0
 11
141.4364859093
 21
201.4300204559
 31
0.0
  0
LINE
  5
23A
330
229
100
AcDbEntity
  8
SLD-0
 62
     7
100
AcDbLine
 10
140.4364859093
 20
204.9300204559
 30
0.0
 11
140.4364859093
 21
216.0631076503
 31
0.0
  0
LINE
  5
23B
330
229
100
AcDbEntity
  8
SLD-0
 62
     7
100
AcDbLine
 10
140.4364859093
 20
204.9300204559
 30
0.0
 11
140.4364859093
 21
201.4300204559
 31
0.0
  0
LINE
  5
23C
330
229
100
AcDbEntity
  8
SLD-0
 62
     7
100
AcDbLine
 10
140.4364859093
 20
201.4300204559
 30
0.0
 11
140.4364859093
 21
196.4300204559
 31
0.0
  0
LINE
  5
23D
330
229
100
AcDbEntity
  8
SLD-0
 62
     7
100
AcDbLine
 10
141.2403329093
 20
207.9300204559
 30
0.0
 11
140.4364859093
 21
204.9300204559
 31
0.0
  0
LINE
  5
23E
330
229
100
AcDbEntity
  8
SLD-0
 62
     7
100
AcDbLine
 10
140.4364859093
 20
204.9300204559
 30
0.0
 11
139.6326389093
 21
207.9300204559
 31
0.0
  0
LINE
  5
23F
330
229
100
AcDbEntity
  8
SLD-0
 62
     7
100
AcDbLine
 10
140.4364859093
 20
204.9300204559
 30
0.0
 11
140.4364859093
 21
207.9300204559
 31
0.0
  0
LINE
  5
240
330
229
100
AcDbEntity
  8
SLD-0
 62
     7
100
AcDbLine
 10
139.6326389093
 20
198.4300204559
 30
0.0
 11
140.4364859093
 21
201.4300204559
 31
0.0
  0
LINE
  5
241
330
229
100
AcDbEntity
  8
SLD-0
 62
     7
100
AcDbLine
 10
140.4364859093
 20
201.4300204559
 30
0.0
 11
141.2403329093
 21
198.4300204559
 31
0.0
  0
LINE
  5
242
330
229
100
AcDbEntity
  8
SLD-0
 62
     7
100
AcDbLine
 10
140.4364859093
 20
201.4300204559
 30
0.0
 11
140.4364859093
 21
198.4300204559
 31
0.0
  0
MTEXT
  5
243
330
229
100
AcDbEntity
  8
SLD-0
 62
     7
100
AcDbMText
 10
135.9097922134
 20
208.3656476986
 30
0.1
 40
3.5
 41
0.0
 71
     1
 72
     1
  1
3.5
  7
SLDTEXTSTYLE0
 11
6.123031769111886E-17
 21
1.0
 31
0.0
 73
     1
 44
1.0
  0
ENDBLK
  5
236
330
229
100
AcDbEntity
  8
0
100
AcDbBlockEnd
  0
BLOCK
  5
250
330
245
100
AcDbEntity
  8
0
100
AcDbBlockBegin
  2
*D20
 70
     1
 71
     0
 10
0.0
 20
0.0
 30
0.0
  3
*D20
  1

  0
LINE
  5
253
330
245
100
AcDbEntity
  8
SLD-0
 62
     7
100
AcDbLine
 10
127.2497546769
 20
190.4300204559
 30
0.0
 11
141.4364859093
 21
190.4300204559
 31
0.0
  0
LINE
  5
254
330
245
100
AcDbEntity
  8
SLD-0
 62
     7
100
AcDbLine
 10
127.2497546769
 20
201.4300204559
 30
0.0
 11
141.4364859093
 21
201.4300204559
 31
0.0
  0
LINE
  5
255
330
245
100
AcDbEntity
  8
SLD-0
 62
     7
100
AcDbLine
 10
140.4364859093
 20
190.4300204559
 30
0.0
 11
140.4364859093
 21
173.1325656916
 31
0.0
  0
LINE
  5
256
330
245
100
AcDbEntity
  8
SLD-0
 62
     7
100
AcDbLine
 10
140.4364859093
 20
190.4300204559
 30
0.0
 11
140.4364859093
 21
201.4300204559
 31
0.0
  0
LINE
  5
257
330
245
100
AcDbEntity
  8
SLD-0
 62
     7
100
AcDbLine
 10
141.2403329093
 20
193.4300204559
 30
0.0
 11
140.4364859093
 21
190.4300204559
 31
0.0
  0
LINE
  5
258
330
245
100
AcDbEntity
  8
SLD-0
 62
     7
100
AcDbLine
 10
140.4364859093
 20
190.4300204559
 30
0.0
 11
139.6326389093
 21
193.4300204559
 31
0.0
  0
LINE
  5
259
330
245
100
AcDbEntity
  8
SLD-0
 62
     7
100
AcDbLine
 10
140.4364859093
 20
190.4300204559
 30
0.0
 11
140.4364859093
 21
193.4300204559
 31
0.0
  0
LINE
  5
25A
330
245
100
AcDbEntity
  8
SLD-0
 62
     7
100
AcDbLine
 10
139.6326389093
 20
198.4300204559
 30
0.0
 11
140.4364859093
 21
201.4300204559
 31
0.0
  0
LINE
  5
25B
330
245
100
AcDbEntity
  8
SLD-0
 62
     7
100
AcDbLine
 10
140.4364859093
 20
201.4300204559
 30
0.0
 11
141.2403329093
 21
198.4300204559
 31
0.0
  0
LINE
  5
25C
330
245
100
AcDbEntity
  8
SLD-0
 62
     7
100
AcDbLine
 10
140.4364859093
 20
201.4300204559
 30
0.0
 11
140.4364859093
 21
198.4300204559
 31
0.0
  0
MTEXT
  5
25D
330
245
100
AcDbEntity
  8
SLD-0
 62
     7
100
AcDbMText
 10
135.9097922134
 20
174.7200656916
 30
0.1
 40
3.5
 41
0.0
 71
     1
 72
     1
  1
11
  7
SLDTEXTSTYLE0
 11
6.123031769111886E-17
 21
1.0
 31
0.0
 73
     1
 44
1.0
  0
MTEXT
  5
25E
330
245
100
AcDbEntity
  8
SLD-0
 62
     7
100
AcDbMText
 10
137.1062660391
 20
180.0114664154
 30
0.1
 40
2.1
 41
0.0
 71
     1
 72
     1
  1
-
  7
SLDTEXTSTYLE0
 11
6.123031769111886E-17
 21
1.0
 31
0.0
 73
     1
 44
1.0
  0
MTEXT
  5
25F
330
245
100
AcDbEntity
  8
SLD-0
 62
     7
100
AcDbMText
 10
137.1062660391
 20
181.2319966928
 30
0.1
 40
2.1
 41
0.0
 71
     1
 72
     1
  1
0.1
  7
SLDTEXTSTYLE0
 11
6.123031769111886E-17
 21
1.0
 31
0.0
 73
     1
 44
1.0
  0
MTEXT
  5
260
330
245
100
AcDbEntity
  8
SLD-0
 62
     7
100
AcDbMText
 10
134.6652054842
 20
181.2319966928
 30
0.1
 40
2.1
 41
0.0
 71
     1
 72
     1
  1
0
  7
SLDTEXTSTYLE0
 11
6.123031769111886E-17
 21
1.0
 31
0.0
 73
     1
 44
1.0
  0
ENDBLK
  5
251
330
245
100
AcDbEntity
  8
0
100
AcDbBlockEnd
  0
BLOCK
  5
26C
330
262
100
AcDbEntity
  8
0
100
AcDbBlockBegin
  2
*D21
 70
     1
 71
     0
 10
0.0
 20
0.0
 30
0.0
  3
*D21
  1

  0
LINE
  5
26E
330
262
100
AcDbEntity
  8
SLD-0
100
AcDbLine
 10
111.2497546769
 20
206.6484463321
 30
0.0
 11
111.2497546769
 21
215.0364872766
 31
0.0
  0
LINE
  5
26F
330
262
100
AcDbEntity
  8
SLD-0
100
AcDbLine
 10
88.2497546769
 20
205.9300204559
 30
0.0
 11
88.2497546769
 21
215.0364872766
 31
0.0
  0
LINE
  5
270
330
262
100
AcDbEntity
  8
SLD-0
100
AcDbLine
 10
111.2497546769
 20
214.0364872766
 30
0.0
 11
88.2497546769
 21
214.0364872766
 31
0.0
  0
LINE
  5
271
330
262
100
AcDbEntity
  8
SLD-0
100
AcDbLine
 10
108.2497546769
 20
214.8403342766
 30
0.0
 11
111.2497546769
 21
214.0364872766
 31
0.0
  0
LINE
  5
272
330
262
100
AcDbEntity
  8
SLD-0
100
AcDbLine
 10
111.2497546769
 20
214.0364872766
 30
0.0
 11
108.2497546769
 21
213.2326402766
 31
0.0
  0
LINE
  5
273
330
262
100
AcDbEntity
  8
SLD-0
100
AcDbLine
 10
111.2497546769
 20
214.0364872766
 30
0.0
 11
108.2497546769
 21
214.0364872766
 31
0.0
  0
LINE
  5
274
330
262
100
AcDbEntity
  8
SLD-0
100
AcDbLine
 10
91.2497546769
 20
213.2326402766
 30
0.0
 11
88.2497546769
 21
214.0364872766
 31
0.0
  0
LINE
  5
275
330
262
100
AcDbEntity
  8
SLD-0
100
AcDbLine
 10
88.2497546769
 20
214.0364872766
 30
0.0
 11
91.2497546769
 21
214.8403342766
 31
0.0
  0
LINE
  5
276
330
262
100
AcDbEntity
  8
SLD-0
100
AcDbLine
 10
88.2497546769
 20
214.0364872766
 30
0.0
 11
91.2497546769
 21
214.0364872766
 31
0.0
  0
MTEXT
  5
277
330
262
100
AcDbEntity
  8
SLD-0
100
AcDbMText
 10
97.7143194537
 20
218.5631809725
 30
0.1
 40
3.5
 41
0.0
 71
     1
 72
     1
  1
23
  7
SLDTEXTSTYLE0
 73
     1
 44
1.0
  0
ENDBLK
  5
26D
330
262
100
AcDbEntity
  8
0
100
AcDbBlockEnd
  0
BLOCK
  5
284
330
279
100
AcDbEntity
  8
0
100
AcDbBlockBegin
  2
*D22
 70
     1
 71
     0
 10
0.0
 20
0.0
 30
0.0
  3
*D22
  1

  0
LINE
  5
286
330
279
100
AcDbEntity
  8
SLD-0
100
AcDbLine
 10
87.2497546769
 20
204.9300204559
 30
0.0
 11
79.7547835172
 21
204.9300204559
 31
0.0
  0
LINE
  5
287
330
279
100
AcDbEntity
  8
SLD-0
100
AcDbLine
 10
85.2497546769
 20
195.9300204559
 30
0.0
 11
79.7547835172
 21
195.9300204559
 31
0.0
  0
LINE
  5
288
330
279
100
AcDbEntity
  8
SLD-0
100
AcDbLine
 10
80.7547835172
 20
204.9300204559
 30
0.0
 11
80.7547835172
 21
195.9300204559
 31
0.0
  0
LINE
  5
289
330
279
100
AcDbEntity
  8
SLD-0
100
AcDbLine
 10
79.9509365172
 20
201.9300204559
 30
0.0
 11
80.7547835172
 21
204.9300204559
 31
0.0
  0
LINE
  5
28A
330
279
100
AcDbEntity
  8
SLD-0
100
AcDbLine
 10
80.7547835172
 20
204.9300204559
 30
0.0
 11
81.5586305172
 21
201.9300204559
 31
0.0
  0
LINE
  5
28B
330
279
100
AcDbEntity
  8
SLD-0
100
AcDbLine
 10
80.7547835172
 20
204.9300204559
 30
0.0
 11
80.7547835172
 21
201.9300204559
 31
0.0
  0
LINE
  5
28C
330
279
100
AcDbEntity
  8
SLD-0
100
AcDbLine
 10
81.5586305172
 20
198.9300204559
 30
0.0
 11
80.7547835172
 21
195.9300204559
 31
0.0
  0
LINE
  5
28D
330
279
100
AcDbEntity
  8
SLD-0
100
AcDbLine
 10
80.7547835172
 20
195.9300204559
 30
0.0
 11
79.9509365172
 21
198.9300204559
 31
0.0
  0
LINE
  5
28E
330
279
100
AcDbEntity
  8
SLD-0
100
AcDbLine
 10
80.7547835172
 20
195.9300204559
 30
0.0
 11
80.7547835172
 21
198.9300204559
 31
0.0
  0
MTEXT
  5
28F
330
279
100
AcDbEntity
  8
SLD-0
100
AcDbMText
 10
76.2280898212
 20
199.4123028444
 30
0.1
 40
3.5
 41
0.0
 71
     1
 72
     1
  1
9
  7
SLDTEXTSTYLE0
 11
6.123031769111886E-17
 21
1.0
 31
0.0
 73
     1
 44
1.0
  0
ENDBLK
  5
285
330
279
100
AcDbEntity
  8
0
100
AcDbBlockEnd
  0
ENDSEC
  0
SECTION
  2
ENTITIES
  0
LINE
  5
64
330
1F
100
AcDbEntity
  8
SLD-0
  6
Continuous
 62
   179
100
AcDbLine
 10
20.2604743903
 20
285.0
 30
0.0
 11
196.7604743903
 21
285.0
 31
0.0
  0
LINE
  5
65
330
1F
100
AcDbEntity
  8
SLD-0
  6
Continuous
 62
   179
100
AcDbLine
 10
20.2604743903
 20
285.0
 30
0.0
 11
20.2604743903
 21
10.0
 31
0.0
  0
LINE
  5
66
330
1F
100
AcDbEntity
  8
SLD-0
  6
Continuous
 62
   179
100
AcDbLine
 10
20.2604743903
 20
10.0
 30
0.0
 11
196.7604743903
 21
10.0
 31
0.0
  0
LINE
  5
67
330
1F
100
AcDbEntity
  8
SLD-0
  6
Continuous
 62
   179
100
AcDbLine
 10
196.7604743903
 20
285.0
 30
0.0
 11
196.7604743903
 21
10.0
 31
0.0
  0
LINE
  5
68
330
1F
100
AcDbEntity
  8
SLD-0
  6
Continuous
 62
   179
100
AcDbLine
 10
127.0104743903
 20
50.75
 30
0.0
 11
196.7604743903
 21
50.75
 31
0.0
  0
LINE
  5
69
330
1F
100
AcDbEntity
  8
SLD-0
  6
Continuous
 62
   179
100
AcDbLine
 10
127.0104743903
 20
50.75
 30
0.0
 11
127.0104743903
 21
10.0
 31
0.0
  0
LINE
  5
6A
330
1F
100
AcDbEntity
  8
SLD-0
  6
Continuous
 62
   179
100
AcDbLine
 10
127.0104743903
 20
22.75
 30
0.0
 11
196.7604743903
 21
22.75
 31
0.0
  0
LINE
  5
6B
330
1F
100
AcDbEntity
  8
SLD-0
  6
Continuous
 62
   179
100
AcDbLine
 10
127.0104743903
 20
36.75
 30
0.0
 11
196.7604743903
 21
36.75
 31
0.0
  0
LINE
  5
6C
330
1F
100
AcDbEntity
  8
SLD-0
100
AcDbLine
 10
109.0397346601
 20
114.5580594784
 30
0.0
 11
108.3674573445
 21
117.5242090382
 31
0.0
  0
LINE
  5
6D
330
1F
100
AcDbEntity
  8
SLD-0
100
AcDbLine
 10
108.3674573445
 20
117.5242090382
 30
0.0
 11
109.9653897975
 21
114.9364277732
 31
0.0
  0
LINE
  5
6E
330
1F
100
AcDbEntity
  8
SLD-0
100
AcDbLine
 10
109.9653897975
 20
114.9364277732
 30
0.0
 11
109.0397346601
 21
114.5580594784
 31
0.0
  0
LINE
  5
6F
330
1F
100
AcDbEntity
  8
SLD-0
100
AcDbLine
 10
109.8111352604
 20
138.0655516196
 30
0.0
 11
108.1403336912
 21
135.5242090382
 31
0.0
  0
LINE
  5
70
330
1F
100
AcDbEntity
  8
SLD-0
100
AcDbLine
 10
108.1403336912
 20
135.5242090382
 30
0.0
 11
108.8966024465
 21
138.4700633404
 31
0.0
  0
LINE
  5
71
330
1F
100
AcDbEntity
  8
SLD-0
  6
Continuous
 62
   179
100
AcDbLine
 10
90.3287301926
 20
135.5242090382
 30
0.0
 11
88.2497546769
 21
133.4452335224
 31
0.0
  0
LINE
  5
72
330
1F
100
AcDbEntity
  8
SLD-0
  6
Continuous
 62
   179
100
AcDbLine
 10
92.5737942229
 20
135.5242090382
 30
0.0
 11
89.5737942229
 21
132.5242090382
 31
0.0
  0
LINE
  5
73
330
1F
100
AcDbEntity
  8
SLD-0
  6
Continuous
 62
   179
100
AcDbLine
 10
94.8188582532
 20
135.5242090382
 30
0.0
 11
91.8188582532
 21
132.5242090382
 31
0.0
  0
LINE
  5
74
330
1F
100
AcDbEntity
  8
SLD-0
  6
Continuous
 62
   179
100
AcDbLine
 10
97.0639222834
 20
135.5242090382
 30
0.0
 11
94.0639222834
 21
132.5242090382
 31
0.0
  0
LINE
  5
75
330
1F
100
AcDbEntity
  8
SLD-0
  6
Continuous
 62
   179
100
AcDbLine
 10
99.3089863137
 20
135.5242090382
 30
0.0
 11
96.3089863137
 21
132.5242090382
 31
0.0
  0
LINE
  5
76
330
1F
100
AcDbEntity
  8
SLD-0
  6
Continuous
 62
   179
100
AcDbLine
 10
101.554050344
 20
135.5242090382
 30
0.0
 11
98.554050344
 21
132.5242090382
 31
0.0
  0
LINE
  5
77
330
1F
100
AcDbEntity
  8
SLD-0
  6
Continuous
 62
   179
100
AcDbLine
 10
103.7991143742
 20
135.5242090382
 30
0.0
 11
100.7991143742
 21
132.5242090382
 31
0.0
  0
LINE
  5
78
330
1F
100
AcDbEntity
  8
SLD-0
  6
Continuous
 62
   179
100
AcDbLine
 10
105.9997546769
 20
135.4797853106
 30
0.0
 11
103.0441784045
 21
132.5242090382
 31
0.0
  0
LINE
  5
79
330
1F
100
AcDbEntity
  8
SLD-0
  6
Continuous
 62
   179
100
AcDbLine
 10
105.9997546769
 20
133.2347212803
 30
0.0
 11
104.2497546769
 21
131.4847212803
 31
0.0
  0
LINE
  5
7A
330
1F
100
AcDbEntity
  8
SLD-0
  6
Continuous
 62
   179
100
AcDbLine
 10
105.9997546769
 20
130.98965725
 30
0.0
 11
104.2497546769
 21
129.23965725
 31
0.0
  0
LINE
  5
7B
330
1F
100
AcDbEntity
  8
SLD-0
  6
Continuous
 62
   179
100
AcDbLine
 10
105.9997546769
 20
128.7445932198
 30
0.0
 11
104.2793704953
 21
127.0242090382
 31
0.0
  0
LINE
  5
7C
330
1F
100
AcDbEntity
  8
SLD-0
  6
Continuous
 62
   179
100
AcDbLine
 10
88.7991143742
 20
120.5242090382
 30
0.0
 11
88.2497546769
 21
119.9748493408
 31
0.0
  0
LINE
  5
7D
330
1F
100
AcDbEntity
  8
SLD-0
  6
Continuous
 62
   179
100
AcDbLine
 10
91.0441784045
 20
120.5242090382
 30
0.0
 11
89.2593032298
 21
118.7393338635
 31
0.0
  0
LINE
  5
7E
330
1F
100
AcDbEntity
  8
SLD-0
  6
Continuous
 62
   179
100
AcDbLine
 10
93.2892424348
 20
120.5242090382
 30
0.0
 11
90.2969404976
 21
117.531907101
 31
0.0
  0
LINE
  5
7F
330
1F
100
AcDbEntity
  8
SLD-0
  6
Continuous
 62
   179
100
AcDbLine
 10
95.534306465
 20
120.5242090382
 30
0.0
 11
92.534306465
 21
117.5242090382
 31
0.0
  0
LINE
  5
80
330
1F
100
AcDbEntity
  8
SLD-0
  6
Continuous
 62
   179
100
AcDbLine
 10
97.7793704953
 20
120.5242090382
 30
0.0
 11
94.7793704953
 21
117.5242090382
 31
0.0
  0
LINE
  5
81
330
1F
100
AcDbEntity
  8
SLD-0
  6
Continuous
 62
   179
100
AcDbLine
 10
100.0244345256
 20
120.5242090382
 30
0.0
 11
97.0244345256
 21
117.5242090382
 31
0.0
  0
LINE
  5
82
330
1F
100
AcDbEntity
  8
SLD-0
  6
Continuous
 62
   179
100
AcDbLine
 10
105.5244345256
 20
126.0242090382
 30
0.0
 11
104.2497546769
 21
124.7495291895
 31
0.0
  0
LINE
  5
83
330
1F
100
AcDbEntity
  8
SLD-0
  6
Continuous
 62
   179
100
AcDbLine
 10
102.2694985558
 20
120.5242090382
 30
0.0
 11
99.2694985558
 21
117.5242090382
 31
0.0
  0
LINE
  5
84
330
1F
100
AcDbEntity
  8
SLD-0
  6
Continuous
 62
   179
100
AcDbLine
 10
106.5997546769
 20
124.8544651592
 30
0.0
 11
104.2497546769
 21
122.5044651592
 31
0.0
  0
LINE
  5
85
330
1F
100
AcDbEntity
  8
SLD-0
  6
Continuous
 62
   179
100
AcDbLine
 10
106.5997546769
 20
122.609401129
 30
0.0
 11
101.5145625861
 21
117.5242090382
 31
0.0
  0
LINE
  5
86
330
1F
100
AcDbEntity
  8
SLD-0
  6
Continuous
 62
   179
100
AcDbLine
 10
106.5997546769
 20
120.3643370987
 30
0.0
 11
103.7596266164
 21
117.5242090382
 31
0.0
  0
LINE
  5
87
330
1F
100
AcDbEntity
  8
SLD-0
  6
Continuous
 62
   179
100
AcDbLine
 10
106.5997546769
 20
118.1192730684
 30
0.0
 11
106.0046906466
 21
117.5242090382
 31
0.0
  0
LINE
  5
88
330
1F
100
AcDbEntity
  8
SLD-0
  6
Continuous
 62
   179
100
AcDbLine
 10
110.534306465
 20
135.5242090382
 30
0.0
 11
110.4997546769
 21
135.48965725
 31
0.0
  0
LINE
  5
89
330
1F
100
AcDbEntity
  8
SLD-0
  6
Continuous
 62
   179
100
AcDbLine
 10
111.2497546769
 20
133.9945932198
 30
0.0
 11
110.4997546769
 21
133.2445932198
 31
0.0
  0
LINE
  5
8A
330
1F
100
AcDbEntity
  8
SLD-0
  6
Continuous
 62
   179
100
AcDbLine
 10
111.2497546769
 20
131.7495291895
 30
0.0
 11
110.4997546769
 21
130.9995291895
 31
0.0
  0
LINE
  5
8B
330
1F
100
AcDbEntity
  8
SLD-0
  6
Continuous
 62
   179
100
AcDbLine
 10
111.2497546769
 20
129.5044651592
 30
0.0
 11
110.4997546769
 21
128.7544651592
 31
0.0
  0
LINE
  5
8C
330
1F
100
AcDbEntity
  8
SLD-0
  6
Continuous
 62
   179
100
AcDbLine
 10
111.2497546769
 20
127.259401129
 30
0.0
 11
111.0145625861
 21
127.0242090382
 31
0.0
  0
LINE
  5
8D
330
1F
100
AcDbEntity
  8
SLD-0
  6
Continuous
 62
   179
100
AcDbLine
 10
110.0145625861
 20
126.0242090382
 30
0.0
 11
109.8997546769
 21
125.909401129
 31
0.0
  0
LINE
  5
8E
330
1F
100
AcDbEntity
  8
SLD-0
  6
Continuous
 62
   179
100
AcDbLine
 10
111.2497546769
 20
125.0143370987
 30
0.0
 11
109.8997546769
 21
123.6643370987
 31
0.0
  0
LINE
  5
8F
330
1F
100
AcDbEntity
  8
SLD-0
  6
Continuous
 62
   179
100
AcDbLine
 10
111.2497546769
 20
122.7692730684
 30
0.0
 11
109.8997546769
 21
121.4192730684
 31
0.0
  0
LINE
  5
90
330
1F
100
AcDbEntity
  8
SLD-0
  6
Continuous
 62
   179
100
AcDbLine
 10
111.2497546769
 20
120.5242090382
 30
0.0
 11
109.8997546769
 21
119.1742090382
 31
0.0
  0
LINE
  5
91
330
1F
100
AcDbEntity
  8
SLD-0
  6
Continuous
 62
   179
100
AcDbLine
 10
117.2497546769
 20
135.5242090382
 30
0.0
 11
112.9784282887
 21
135.5242090382
 31
0.0
  0
LINE
  5
92
330
1F
100
AcDbEntity
  8
SLD-0
  6
Continuous
 62
   179
100
AcDbLine
 10
110.1899991307
 20
117.5242090381
 30
0.0
 11
117.2497546769
 21
117.5242090382
 31
0.0
  0
LINE
  5
93
330
1F
100
AcDbEntity
  8
SLD-0
  6
Continuous
 62
   179
100
AcDbLine
 10
106.5997546769
 20
117.5242090382
 30
0.0
 11
106.5997546769
 21
126.0242090382
 31
0.0
  0
LINE
  5
94
330
1F
100
AcDbEntity
  8
SLD-0
  6
Continuous
 62
   179
100
AcDbLine
 10
109.8997546769
 20
126.0242090382
 30
0.0
 11
109.8997546769
 21
117.5242090382
 31
0.0
  0
LINE
  5
95
330
1F
100
AcDbEntity
  8
SLD-0
  6
Continuous
 62
   179
100
AcDbLine
 10
109.8997546769
 20
126.0242090382
 30
0.0
 11
106.5997546769
 21
126.0242090382
 31
0.0
  0
LINE
  5
96
330
1F
100
AcDbEntity
  8
SLD-0
  6
Continuous
 62
   179
100
AcDbLine
 10
109.8997546769
 20
117.5242090382
 30
0.0
 11
106.5997546769
 21
117.5242090382
 31
0.0
  0
LINE
  5
97
330
1F
100
AcDbEntity
  8
SLD-0
  6
Continuous
 62
   179
100
AcDbLine
 10
110.4997546769
 20
127.0242090382
 30
0.0
 11
105.9997546769
 21
127.0242090382
 31
0.0
  0
LINE
  5
98
330
1F
100
AcDbEntity
  8
SLD-0
  6
Continuous
 62
   179
100
AcDbLine
 10
105.9997546769
 20
127.0242090382
 30
0.0
 11
105.9997546769
 21
135.5242090382
 31
0.0
  0
LINE
  5
99
330
1F
100
AcDbEntity
  8
SLD-0
  6
Continuous
 62
   179
100
AcDbLine
 10
110.4997546769
 20
135.5242090382
 30
0.0
 11
110.4997546769
 21
127.0242090382
 31
0.0
  0
LINE
  5
9A
330
1F
100
AcDbEntity
  8
SLD-0
  6
Continuous
 62
   179
100
AcDbLine
 10
110.4997546769
 20
135.5242090382
 30
0.0
 11
105.9997546769
 21
135.5242090382
 31
0.0
  0
LINE
  5
9B
330
1F
100
AcDbEntity
  8
SLD-0
  6
Continuous
 62
   179
100
AcDbLine
 10
88.2497546769
 20
132.5242090382
 30
0.0
 11
104.2497546769
 21
132.5242090382
 31
0.0
  0
LINE
  5
9C
330
1F
100
AcDbEntity
  8
SLD-0
  6
Continuous
 62
   179
100
AcDbLine
 10
88.2497546769
 20
134.0242090382
 30
0.0
 11
88.2497546769
 21
132.5242090382
 31
0.0
  0
LINE
  5
9D
330
1F
100
AcDbEntity
  8
SLD-0
  6
Continuous
 62
   179
100
AcDbLine
 10
88.2497546769
 20
134.0242090382
 30
0.0
 11
89.7497546769
 21
135.5242090382
 31
0.0
  0
LINE
  5
9E
330
1F
100
AcDbEntity
  8
SLD-0
  6
Continuous
 62
   179
100
AcDbLine
 10
104.2497546769
 20
127.0242090382
 30
0.0
 11
105.9997546769
 21
127.0242090382
 31
0.0
  0
LINE
  5
9F
330
1F
100
AcDbEntity
  8
SLD-0
  6
Continuous
 62
   179
100
AcDbLine
 10
105.9997546769
 20
135.5242090382
 30
0.0
 11
89.7497546769
 21
135.5242090382
 31
0.0
  0
LINE
  5
A0
330
1F
100
AcDbEntity
  8
SLD-0
  6
Continuous
 62
   179
100
AcDbLine
 10
104.2497546769
 20
127.0242090382
 30
0.0
 11
104.2497546769
 21
132.5242090382
 31
0.0
  0
LINE
  5
A1
330
1F
100
AcDbEntity
  8
SLD-0
  6
Continuous
 62
   179
100
AcDbLine
 10
104.2497546769
 20
120.5242090382
 30
0.0
 11
88.2497546769
 21
120.5242090382
 31
0.0
  0
LINE
  5
A2
330
1F
100
AcDbEntity
  8
SLD-0
  6
Continuous
 62
   179
100
AcDbLine
 10
88.2497546769
 20
120.5242090382
 30
0.0
 11
88.2497546769
 21
119.0242090382
 31
0.0
  0
LINE
  5
A3
330
1F
100
AcDbEntity
  8
SLD-0
  6
Continuous
 62
   179
100
AcDbLine
 10
89.7497546769
 20
117.5242090382
 30
0.0
 11
88.2497546769
 21
119.0242090382
 31
0.0
  0
LINE
  5
A4
330
1F
100
AcDbEntity
  8
SLD-0
  6
Continuous
 62
   179
100
AcDbLine
 10
104.2497546769
 20
120.5242090382
 30
0.0
 11
104.2497546769
 21
126.0242090382
 31
0.0
  0
LINE
  5
A5
330
1F
100
AcDbEntity
  8
SLD-0
  6
Continuous
 62
   179
100
AcDbLine
 10
106.5997546769
 20
126.0242090382
 30
0.0
 11
104.2497546769
 21
126.0242090382
 31
0.0
  0
LINE
  5
A6
330
1F
100
AcDbEntity
  8
SLD-0
  6
Continuous
 62
   179
100
AcDbLine
 10
89.7497546769
 20
117.5242090382
 30
0.0
 11
106.5997546769
 21
117.5242090382
 31
0.0
  0
LINE
  5
A7
330
1F
100
AcDbEntity
  8
SLD-0
  6
Continuous
 62
   179
100
AcDbLine
 10
111.2497546769
 20
126.0242090382
 30
0.0
 11
109.8997546769
 21
126.0242090382
 31
0.0
  0
LINE
  5
A8
330
1F
100
AcDbEntity
  8
SLD-0
  6
Continuous
 62
   179
100
AcDbLine
 10
111.2497546769
 20
119.2616054565
 30
0.0
 11
111.2497546769
 21
126.0242090382
 31
0.0
  0
LINE
  5
A9
330
1F
100
AcDbEntity
  8
SLD-0
  6
Continuous
 62
   179
100
AcDbLine
 10
109.8997546769
 20
117.5242090382
 30
0.0
 11
110.1899991307
 21
117.5242090381
 31
0.0
  0
LINE
  5
AA
330
1F
100
AcDbEntity
  8
SLD-0
  6
Continuous
 62
   179
100
AcDbLine
 10
88.2497546769
 20
132.5242090382
 30
0.0
 11
88.2497546769
 21
127.0242090382
 31
0.0
  0
LINE
  5
AB
330
1F
100
AcDbEntity
  8
SLD-0
  6
Continuous
 62
   179
100
AcDbLine
 10
104.2497546769
 20
127.0242090382
 30
0.0
 11
88.2497546769
 21
127.0242090382
 31
0.0
  0
LINE
  5
AC
330
1F
100
AcDbEntity
  8
SLD-0
  6
Continuous
 62
   179
100
AcDbLine
 10
88.2497546769
 20
126.0242090382
 30
0.0
 11
88.2497546769
 21
120.5242090382
 31
0.0
  0
LINE
  5
AD
330
1F
100
AcDbEntity
  8
SLD-0
  6
Continuous
 62
   179
100
AcDbLine
 10
88.2497546769
 20
126.0242090382
 30
0.0
 11
104.2497546769
 21
126.0242090382
 31
0.0
  0
LINE
  5
AE
330
1F
100
AcDbEntity
  8
SLD-0
  6
Continuous
 62
   179
100
AcDbLine
 10
110.4997546769
 20
127.0242090382
 30
0.0
 11
111.2497546769
 21
127.0242090382
 31
0.0
  0
LINE
  5
AF
330
1F
100
AcDbEntity
  8
SLD-0
  6
Continuous
 62
   179
100
AcDbLine
 10
111.2497546769
 20
127.0242090382
 30
0.0
 11
111.2497546769
 21
135.5242090382
 31
0.0
  0
LINE
  5
B0
330
1F
100
AcDbEntity
  8
SLD-0
  6
Continuous
 62
   179
100
AcDbLine
 10
111.2497546769
 20
135.5242090382
 30
0.0
 11
110.4997546769
 21
135.5242090382
 31
0.0
  0
LINE
  5
B1
330
1F
100
AcDbEntity
  8
SLD-0
  6
Continuous
 62
   179
100
AcDbLine
 10
111.2706243053
 20
127.0242090382
 30
0.0
 11
111.2497546769
 21
127.0242090382
 31
0.0
  0
LINE
  5
B2
330
1F
100
AcDbEntity
  8
SLD-0
  6
Continuous
 62
   179
100
AcDbLine
 10
112.9784282887
 20
135.5242090382
 30
0.0
 11
111.2497546769
 21
135.5242090382
 31
0.0
  0
LINE
  5
B3
330
1F
100
AcDbEntity
  8
SLD-0
  6
Continuous
 62
   179
100
AcDbLine
 10
111.2497546769
 20
126.0242090382
 30
0.0
 11
111.2706243053
 21
126.0242090382
 31
0.0
  0
LINE
  5
B4
330
1F
100
AcDbEntity
  8
SLD-0
  6
HIDDEN
 62
     8
100
AcDbLine
 10
111.2497546769
 20
117.5242090382
 30
0.0
 11
111.2497546769
 21
119.2616054565
 31
0.0
  0
LINE
  5
B5
330
1F
100
AcDbEntity
  8
SLD-0
 62
   179
100
AcDbLine
 10
88.9997546769
 20
118.2742090382
 30
0.0
 11
72.5463531744
 21
104.1340959494
 31
0.0
  0
LINE
  5
B6
330
1F
100
AcDbEntity
  8
SLD-0
 62
   179
100
AcDbLine
 10
72.5463531744
 20
104.1340959494
 30
0.0
 11
84.2288163957
 21
114.1546303916
 31
0.0
  0
LINE
  5
B7
330
1F
100
AcDbEntity
  8
SLD-0
100
AcDbLine
 10
108.8966024465
 20
138.4700633404
 30
0.0
 11
109.8111352604
 21
138.0655516196
 31
0.0
  0
LINE
  5
B8
330
1F
100
AcDbEntity
  8
SLD-0
100
AcDbLine
 10
109.5025622288
 20
114.7472436258
 30
0.0
 11
113.7051370326
 21
104.4658986731
 31
0.0
  0
LINE
  5
B9
330
1F
100
AcDbEntity
  8
SLD-0
100
AcDbLine
 10
113.7051370326
 20
104.4658986731
 30
0.0
 11
118.2796617612
 21
104.4658986731
 31
0.0
  0
LINE
  5
BA
330
1F
100
AcDbEntity
  8
SLD-0
100
AcDbLine
 10
109.3538688535
 20
138.26780748
 30
0.0
 11
116.6614513872
 21
154.7890197829
 31
0.0
  0
LINE
  5
BB
330
1F
100
AcDbEntity
  8
SLD-0
100
AcDbLine
 10
116.6614513872
 20
154.7890197829
 30
0.0
 11
127.1412962606
 21
154.7890197829
 31
0.0
  0
LINE
  5
BC
330
1F
100
AcDbEntity
  8
SLD-0
 62
   179
100
AcDbLine
 10
110.2497546769
 20
126.0242090382
 30
0.0
 11
110.2497546769
 21
117.6128795008
 31
0.0
  0
LINE
  5
BD
330
1F
100
AcDbEntity
  8
SLD-0
 62
   179
100
AcDbLine
 10
106.2497546769
 20
117.5242090382
 30
0.0
 11
106.2497546769
 21
126.0242090382
 31
0.0
  0
LINE
  5
BE
330
1F
100
AcDbEntity
  8
SLD-0
  6
HIDDEN
 62
   179
100
AcDbLine
 10
110.2497546769
 20
117.5242090382
 30
0.0
 11
110.2497546769
 21
117.6128795008
 31
0.0
  0
LINE
  5
BF
330
1F
100
AcDbEntity
  8
SLD-0
  6
CENTERX2
 62
   179
100
AcDbLine
 10
106.2497546769
 20
126.5242090382
 30
0.0
 11
86.2497546769
 21
126.5242090382
 31
0.0
  0
LINE
  5
C0
330
1F
100
AcDbEntity
  8
SLD-0
  6
CENTERX2
 62
   179
100
AcDbLine
 10
108.2497546769
 20
115.5242090382
 30
0.0
 11
108.2497546769
 21
137.5242090382
 31
0.0
  0
LINE
  5
C1
330
1F
100
AcDbEntity
  8
SLD-0
  6
Continuous
 62
   179
100
AcDbLine
 10
54.1349936267
 20
127.0242090382
 30
0.0
 11
57.1558632551
 21
127.0242090382
 31
0.0
  0
LINE
  5
C2
330
1F
100
AcDbEntity
  8
SLD-0
  6
Continuous
 62
   179
100
AcDbLine
 10
39.1558632551
 20
127.0242090382
 30
0.0
 11
42.1767328835
 21
127.0242090382
 31
0.0
  0
LINE
  5
C3
330
1F
100
AcDbEntity
  8
SLD-0
  6
Continuous
 62
   179
100
AcDbLine
 10
57.1558628677
 20
134.0242088705
 30
0.0
 11
39.1558636426
 21
134.0242088705
 31
0.0
  0
LINE
  5
C4
330
1F
100
AcDbEntity
  8
SLD-0
  6
Continuous
 62
   179
100
AcDbLine
 10
57.1558628677
 20
134.0242088705
 30
0.0
 11
57.1558632551
 21
127.0242090382
 31
0.0
  0
LINE
  5
C5
330
1F
100
AcDbEntity
  8
SLD-0
  6
Continuous
 62
   179
100
AcDbLine
 10
39.1558636426
 20
134.0242088705
 30
0.0
 11
39.1558632551
 21
127.0242090382
 31
0.0
  0
LINE
  5
C6
330
1F
100
AcDbEntity
  8
SLD-0
  6
Continuous
 62
   179
100
AcDbLine
 10
57.1558628677
 20
117.5242094256
 30
0.0
 11
39.1558636426
 21
117.5242094256
 31
0.0
  0
LINE
  5
C7
330
1F
100
AcDbEntity
  8
SLD-0
  6
Continuous
 62
   179
100
AcDbLine
 10
39.1558636426
 20
119.0242092058
 30
0.0
 11
57.1558628677
 21
119.0242092058
 31
0.0
  0
LINE
  5
C8
330
1F
100
AcDbEntity
  8
SLD-0
  6
Continuous
 62
   179
100
AcDbLine
 10
57.1558628677
 20
119.0242092058
 30
0.0
 11
57.1558628677
 21
117.5242094256
 31
0.0
  0
LINE
  5
C9
330
1F
100
AcDbEntity
  8
SLD-0
  6
Continuous
 62
   179
100
AcDbLine
 10
39.1558636426
 20
117.5242094256
 30
0.0
 11
39.1558636426
 21
119.0242092058
 31
0.0
  0
LINE
  5
CA
330
1F
100
AcDbEntity
  8
SLD-0
  6
Continuous
 62
   179
100
AcDbLine
 10
39.1558636426
 20
135.5242086507
 30
0.0
 11
57.1558628677
 21
135.5242086507
 31
0.0
  0
LINE
  5
CB
330
1F
100
AcDbEntity
  8
SLD-0
  6
Continuous
 62
   179
100
AcDbLine
 10
57.1558628677
 20
135.5242086507
 30
0.0
 11
57.1558628677
 21
134.0242088705
 31
0.0
  0
LINE
  5
CC
330
1F
100
AcDbEntity
  8
SLD-0
  6
Continuous
 62
   179
100
AcDbLine
 10
39.1558636426
 20
134.0242088705
 30
0.0
 11
39.1558636426
 21
135.5242086507
 31
0.0
  0
LINE
  5
CD
330
1F
100
AcDbEntity
  8
SLD-0
  6
Continuous
 62
   179
100
AcDbLine
 10
57.1558632551
 20
126.0242090382
 30
0.0
 11
57.1558628677
 21
119.0242092058
 31
0.0
  0
LINE
  5
CE
330
1F
100
AcDbEntity
  8
SLD-0
  6
Continuous
 62
   179
100
AcDbLine
 10
54.1349936267
 20
126.0242090382
 30
0.0
 11
57.1558632551
 21
126.0242090382
 31
0.0
  0
LINE
  5
CF
330
1F
100
AcDbEntity
  8
SLD-0
  6
Continuous
 62
   179
100
AcDbLine
 10
39.1558632551
 20
126.0242090382
 30
0.0
 11
42.1767328835
 21
126.0242090382
 31
0.0
  0
LINE
  5
D0
330
1F
100
AcDbEntity
  8
SLD-0
  6
Continuous
 62
   179
100
AcDbLine
 10
39.1558632551
 20
126.0242090382
 30
0.0
 11
39.1558636426
 21
119.0242092058
 31
0.0
  0
LINE
  5
D1
330
1F
100
AcDbEntity
  8
SLD-0
  6
Continuous
 62
   179
100
AcDbLine
 10
42.1767328835
 20
127.0242090382
 30
0.0
 11
54.1349936267
 21
127.0242090382
 31
0.0
  0
LINE
  5
D2
330
1F
100
AcDbEntity
  8
SLD-0
  6
Continuous
 62
   179
100
AcDbLine
 10
54.1349936267
 20
126.0242090382
 30
0.0
 11
42.1767328835
 21
126.0242090382
 31
0.0
  0
LINE
  5
D3
330
1F
100
AcDbEntity
  8
SLD-0
  6
Continuous
 62
   179
100
AcDbLine
 10
39.1558632551
 20
126.0242090382
 30
0.0
 11
39.1558632551
 21
127.0242090382
 31
0.0
  0
LINE
  5
D4
330
1F
100
AcDbEntity
  8
SLD-0
  6
Continuous
 62
   179
100
AcDbLine
 10
57.1558632551
 20
126.0242090382
 30
0.0
 11
57.1558632551
 21
127.0242090382
 31
0.0
  0
LINE
  5
D5
330
1F
100
AcDbEntity
  8
SLD-0
  6
HIDDEN
 62
     8
100
AcDbLine
 10
42.6558632551
 20
135.5242090382
 30
0.0
 11
53.6558632551
 21
135.5242090382
 31
0.0
  0
LINE
  5
D6
330
1F
100
AcDbEntity
  8
SLD-0
  6
HIDDEN
 62
     8
100
AcDbLine
 10
42.6558632849
 20
127.0242090619
 30
0.0
 11
53.6558632253
 21
127.0242090619
 31
0.0
  0
LINE
  5
D7
330
1F
100
AcDbEntity
  8
SLD-0
  6
HIDDEN
 62
     8
100
AcDbLine
 10
42.6558632551
 20
117.5242090382
 30
0.0
 11
53.6558632551
 21
117.5242090382
 31
0.0
  0
LINE
  5
D8
330
1F
100
AcDbEntity
  8
SLD-0
  6
HIDDEN
 62
     8
100
AcDbLine
 10
53.6558632253
 20
126.0242090144
 30
0.0
 11
42.6558632849
 21
126.0242090144
 31
0.0
  0
LINE
  5
D9
330
1F
100
AcDbEntity
  8
SLD-0
  6
HIDDEN
 62
     8
100
AcDbLine
 10
42.6558632551
 20
135.5242090382
 30
0.0
 11
42.6558632551
 21
117.5242090382
 31
0.0
  0
LINE
  5
DA
330
1F
100
AcDbEntity
  8
SLD-0
  6
HIDDEN
 62
     8
100
AcDbLine
 10
53.6558632551
 20
117.5242090382
 30
0.0
 11
53.6558632551
 21
135.5242090382
 31
0.0
  0
LINE
  5
DB
330
1F
100
AcDbEntity
  8
SLD-0
  6
CENTERX2
 62
   179
100
AcDbLine
 10
59.1558632551
 20
126.5242090382
 30
0.0
 11
51.6558632551
 21
126.5242090382
 31
0.0
  0
LINE
  5
DC
330
1F
100
AcDbEntity
  8
SLD-0
  6
CENTERX2
 62
   179
100
AcDbLine
 10
44.6558632551
 20
126.5242090382
 30
0.0
 11
37.1558632551
 21
126.5242090382
 31
0.0
  0
LINE
  5
DD
330
1F
100
AcDbEntity
  8
SLD-0
  6
CENTERX2
 62
   179
100
AcDbLine
 10
48.1558632551
 20
115.5242090382
 30
0.0
 11
48.1558632551
 21
137.5242090382
 31
0.0
  0
LINE
  5
DE
330
1F
100
AcDbEntity
  8
SLD-0
  6
Continuous
 62
   179
100
AcDbLine
 10
184.3459223943
 20
117.5242090382
 30
0.0
 11
184.3459223943
 21
135.5242090382
 31
0.0
  0
LINE
  5
DF
330
1F
100
AcDbEntity
  8
SLD-0
  6
Continuous
 62
   179
100
AcDbLine
 10
180.8459223943
 20
117.5242090382
 30
0.0
 11
184.3459223943
 21
117.5242090382
 31
0.0
  0
LINE
  5
E0
330
1F
100
AcDbEntity
  8
SLD-0
  6
Continuous
 62
   179
100
AcDbLine
 10
180.8459223943
 20
135.5242090382
 30
0.0
 11
180.8459223943
 21
117.5242090382
 31
0.0
  0
LINE
  5
E1
330
1F
100
AcDbEntity
  8
SLD-0
  6
Continuous
 62
   179
100
AcDbLine
 10
180.8459223943
 20
135.5242090382
 30
0.0
 11
184.3459223943
 21
135.5242090382
 31
0.0
  0
LINE
  5
E2
330
1F
100
AcDbEntity
  8
SLD-0
  6
Continuous
 62
   179
100
AcDbLine
 10
166.3459223943
 20
117.5242090382
 30
0.0
 11
169.8459223943
 21
117.5242090382
 31
0.0
  0
LINE
  5
E3
330
1F
100
AcDbEntity
  8
SLD-0
  6
Continuous
 62
   179
100
AcDbLine
 10
166.3459223943
 20
117.5242090382
 30
0.0
 11
166.3459223943
 21
135.5242090382
 31
0.0
  0
LINE
  5
E4
330
1F
100
AcDbEntity
  8
SLD-0
  6
Continuous
 62
   179
100
AcDbLine
 10
166.3459223943
 20
135.5242090382
 30
0.0
 11
169.8459223943
 21
135.5242090382
 31
0.0
  0
LINE
  5
E5
330
1F
100
AcDbEntity
  8
SLD-0
  6
Continuous
 62
   179
100
AcDbLine
 10
169.8459223943
 20
117.5242090382
 30
0.0
 11
169.8459223943
 21
135.5242090382
 31
0.0
  0
LINE
  5
E6
330
1F
100
AcDbEntity
  8
SLD-0
  6
Continuous
 62
   179
100
AcDbLine
 10
169.8459224241
 20
126.0242090144
 30
0.0
 11
180.8459223645
 21
126.0242090144
 31
0.0
  0
LINE
  5
E7
330
1F
100
AcDbEntity
  8
SLD-0
  6
Continuous
 62
   179
100
AcDbLine
 10
180.8459223943
 20
117.5242090382
 30
0.0
 11
169.8459223943
 21
117.5242090382
 31
0.0
  0
LINE
  5
E8
330
1F
100
AcDbEntity
  8
SLD-0
  6
Continuous
 62
   179
100
AcDbLine
 10
180.8459223645
 20
127.0242090619
 30
0.0
 11
169.8459224241
 21
127.0242090619
 31
0.0
  0
LINE
  5
E9
330
1F
100
AcDbEntity
  8
SLD-0
  6
Continuous
 62
   179
100
AcDbLine
 10
180.8459223943
 20
135.5242090382
 30
0.0
 11
169.8459223943
 21
135.5242090382
 31
0.0
  0
LINE
  5
EA
330
1F
100
AcDbEntity
  8
SLD-0
  6
HIDDEN
 62
     8
100
AcDbLine
 10
184.3459220069
 20
126.0242090144
 30
0.0
 11
180.8459223645
 21
126.0242090144
 31
0.0
  0
LINE
  5
EB
330
1F
100
AcDbEntity
  8
SLD-0
  6
HIDDEN
 62
     8
100
AcDbLine
 10
184.3459220069
 20
127.0242090619
 30
0.0
 11
180.8459223645
 21
127.0242090619
 31
0.0
  0
LINE
  5
EC
330
1F
100
AcDbEntity
  8
SLD-0
  6
HIDDEN
 62
     8
100
AcDbLine
 10
169.8459224241
 20
127.0242090619
 30
0.0
 11
166.3459227817
 21
127.0242090619
 31
0.0
  0
LINE
  5
ED
330
1F
100
AcDbEntity
  8
SLD-0
  6
HIDDEN
 62
     8
100
AcDbLine
 10
169.8459224241
 20
126.0242090144
 30
0.0
 11
166.3459227817
 21
126.0242090144
 31
0.0
  0
LINE
  5
EE
330
1F
100
AcDbEntity
  8
SLD-0
  6
HIDDEN
 62
     8
100
AcDbLine
 10
177.5959222974
 20
127.0242090619
 30
0.0
 11
173.0959224911
 21
127.0242090619
 31
0.0
  0
LINE
  5
EF
330
1F
100
AcDbEntity
  8
SLD-0
  6
HIDDEN
 62
     8
100
AcDbLine
 10
173.6959223943
 20
126.0242090382
 30
0.0
 11
176.989978219
 21
126.0242090144
 31
0.0
  0
LINE
  5
F0
330
1F
100
AcDbEntity
  8
SLD-0
  6
HIDDEN
 62
     8
100
AcDbLine
 10
181.3250529045
 20
127.0242090619
 30
0.0
 11
169.366791884
 21
127.0242090619
 31
0.0
  0
LINE
  5
F1
330
1F
100
AcDbEntity
  8
SLD-0
  6
HIDDEN
 62
     8
100
AcDbLine
 10
169.366791884
 20
126.0242090144
 30
0.0
 11
181.3250529045
 21
126.0242090144
 31
0.0
  0
LINE
  5
F2
330
1F
100
AcDbEntity
  8
SLD-0
  6
HIDDEN
 62
     8
100
AcDbLine
 10
169.366791884
 20
126.0242090144
 30
0.0
 11
166.3459227817
 21
126.0242090144
 31
0.0
  0
LINE
  5
F3
330
1F
100
AcDbEntity
  8
SLD-0
  6
HIDDEN
 62
     8
100
AcDbLine
 10
184.3459220069
 20
126.0242090144
 30
0.0
 11
181.3250529045
 21
126.0242090144
 31
0.0
  0
LINE
  5
F4
330
1F
100
AcDbEntity
  8
SLD-0
  6
HIDDEN
 62
     8
100
AcDbLine
 10
184.3459220069
 20
127.0242090619
 30
0.0
 11
181.3250529045
 21
127.0242090619
 31
0.0
  0
LINE
  5
F5
330
1F
100
AcDbEntity
  8
SLD-0
  6
HIDDEN
 62
     8
100
AcDbLine
 10
169.366791884
 20
127.0242090619
 30
0.0
 11
166.3459227817
 21
127.0242090619
 31
0.0
  0
LINE
  5
F6
330
1F
100
AcDbEntity
  8
SLD-0
  6
CENTERX2
 62
   179
100
AcDbLine
 10
164.3459223943
 20
126.5242090382
 30
0.0
 11
171.8459223943
 21
126.5242090382
 31
0.0
  0
LINE
  5
F7
330
1F
100
AcDbEntity
  8
SLD-0
  6
CENTERX2
 62
   179
100
AcDbLine
 10
178.8459223943
 20
126.5242090382
 30
0.0
 11
186.3459223943
 21
126.5242090382
 31
0.0
  0
LINE
  5
F8
330
1F
100
AcDbEntity
  8
SLD-0
  6
CENTERX2
 62
   179
100
AcDbLine
 10
175.3459223943
 20
115.5242090382
 30
0.0
 11
175.3459223943
 21
137.5242090382
 31
0.0
  0
LINE
  5
F9
330
1F
100
AcDbEntity
  8
SLD-0
  6
Continuous
 62
   179
100
AcDbLine
 10
126.2497546769
 20
201.4300204559
 30
0.0
 11
126.2497546769
 21
204.9300204559
 31
0.0
  0
LINE
  5
FA
330
1F
100
AcDbEntity
  8
SLD-0
  6
Continuous
 62
   179
100
AcDbLine
 10
126.2497546769
 20
186.9300204559
 30
0.0
 11
126.2497546769
 21
190.4300204559
 31
0.0
  0
LINE
  5
FB
330
1F
100
AcDbEntity
  8
SLD-0
  6
Continuous
 62
   179
100
AcDbLine
 10
126.2497546769
 20
204.9300204559
 30
0.0
 11
117.2497546769
 21
204.9300204559
 31
0.0
  0
LINE
  5
FC
330
1F
100
AcDbEntity
  8
SLD-0
  6
Continuous
 62
   179
100
AcDbLine
 10
117.2497546769
 20
201.4300204559
 30
0.0
 11
126.2497546769
 21
201.4300204559
 31
0.0
  0
LINE
  5
FD
330
1F
100
AcDbEntity
  8
SLD-0
  6
Continuous
 62
   179
100
AcDbLine
 10
117.2497546769
 20
201.4300204559
 30
0.0
 11
111.2497546248
 21
201.4300204261
 31
0.0
  0
LINE
  5
FE
330
1F
100
AcDbEntity
  8
SLD-0
  6
Continuous
 62
   179
100
AcDbLine
 10
111.2497546248
 20
201.4300204261
 30
0.0
 11
111.2497546248
 21
190.4300204857
 31
0.0
  0
LINE
  5
FF
330
1F
100
AcDbEntity
  8
SLD-0
  6
Continuous
 62
   179
100
AcDbLine
 10
111.2497546248
 20
190.4300204857
 30
0.0
 11
117.2497546769
 21
190.4300204559
 31
0.0
  0
LINE
  5
100
330
1F
100
AcDbEntity
  8
SLD-0
  6
Continuous
 62
   179
100
AcDbLine
 10
117.2497546769
 20
186.9300204559
 30
0.0
 11
89.7497548259
 21
186.9300208434
 31
0.0
  0
LINE
  5
101
330
1F
100
AcDbEntity
  8
SLD-0
  6
Continuous
 62
   179
100
AcDbLine
 10
89.7497548259
 20
204.9300200685
 30
0.0
 11
89.7497548259
 21
186.9300208434
 31
0.0
  0
LINE
  5
102
330
1F
100
AcDbEntity
  8
SLD-0
  6
Continuous
 62
   179
100
AcDbLine
 10
117.2497546769
 20
204.9300204559
 30
0.0
 11
89.7497548259
 21
204.9300200685
 31
0.0
  0
LINE
  5
103
330
1F
100
AcDbEntity
  8
SLD-0
  6
Continuous
 62
   179
100
AcDbLine
 10
88.2497555114
 20
186.9300208434
 30
0.0
 11
88.2497555114
 21
204.9300200685
 31
0.0
  0
LINE
  5
104
330
1F
100
AcDbEntity
  8
SLD-0
  6
Continuous
 62
   179
100
AcDbLine
 10
89.7497548259
 20
186.9300208434
 30
0.0
 11
88.2497555114
 21
186.9300208434
 31
0.0
  0
LINE
  5
105
330
1F
100
AcDbEntity
  8
SLD-0
  6
Continuous
 62
   179
100
AcDbLine
 10
88.2497555114
 20
204.9300200685
 30
0.0
 11
89.7497548259
 21
204.9300200685
 31
0.0
  0
LINE
  5
106
330
1F
100
AcDbEntity
  8
SLD-0
  6
Continuous
 62
   179
100
AcDbLine
 10
126.2497546769
 20
186.9300204559
 30
0.0
 11
117.2497546769
 21
186.9300204559
 31
0.0
  0
LINE
  5
107
330
1F
100
AcDbEntity
  8
SLD-0
  6
Continuous
 62
   179
100
AcDbLine
 10
126.2497546769
 20
190.4300204559
 30
0.0
 11
117.2497546769
 21
190.4300204559
 31
0.0
  0
LINE
  5
108
330
1F
100
AcDbEntity
  8
SLD-0
  6
HIDDEN
 62
     8
100
AcDbLine
 10
111.2706241667
 20
204.9300200685
 30
0.0
 11
111.2706241667
 21
201.4300204261
 31
0.0
  0
LINE
  5
109
330
1F
100
AcDbEntity
  8
SLD-0
  6
HIDDEN
 62
     8
100
AcDbLine
 10
111.2706241667
 20
204.9300200685
 30
0.0
 11
111.2706241667
 21
201.4300204261
 31
0.0
  0
LINE
  5
10A
330
1F
100
AcDbEntity
  8
SLD-0
  6
HIDDEN
 62
     8
100
AcDbLine
 10
104.2497546769
 20
189.9508900844
 30
0.0
 11
104.2497546769
 21
201.9091508275
 31
0.0
  0
LINE
  5
10B
330
1F
100
AcDbEntity
  8
SLD-0
  6
HIDDEN
 62
     8
100
AcDbLine
 10
111.2706241667
 20
190.4300204857
 30
0.0
 11
111.2706241667
 21
186.9300208434
 31
0.0
  0
LINE
  5
10C
330
1F
100
AcDbEntity
  8
SLD-0
  6
HIDDEN
 62
     8
100
AcDbLine
 10
111.2706241667
 20
190.4300204857
 30
0.0
 11
111.2706241667
 21
186.9300208434
 31
0.0
  0
LINE
  5
10D
330
1F
100
AcDbEntity
  8
SLD-0
  6
HIDDEN
 62
     8
100
AcDbLine
 10
104.2497546769
 20
201.9091508275
 30
0.0
 11
88.2497555114
 21
201.9091509662
 31
0.0
  0
LINE
  5
10E
330
1F
100
AcDbEntity
  8
SLD-0
  6
HIDDEN
 62
     8
100
AcDbLine
 10
88.2497555114
 20
189.9508899457
 30
0.0
 11
104.2497546769
 21
189.9508900844
 31
0.0
  0
LINE
  5
10F
330
1F
100
AcDbEntity
  8
SLD-0
  6
HIDDEN
 62
     8
100
AcDbLine
 10
123.2497547291
 20
201.4300204261
 30
0.0
 11
123.2497547291
 21
204.9300200685
 31
0.0
  0
LINE
  5
110
330
1F
100
AcDbEntity
  8
SLD-0
  6
HIDDEN
 62
     8
100
AcDbLine
 10
123.2497547291
 20
186.9300208434
 30
0.0
 11
123.2497547291
 21
190.4300204857
 31
0.0
  0
LINE
  5
111
330
1F
100
AcDbEntity
  8
SLD-0
  6
CENTERX2
 62
   179
100
AcDbLine
 10
117.2497546769
 20
184.9300204559
 30
0.0
 11
117.2497546769
 21
192.4300204559
 31
0.0
  0
LINE
  5
112
330
1F
100
AcDbEntity
  8
SLD-0
  6
CENTERX2
 62
   179
100
AcDbLine
 10
117.2497546769
 20
199.4300204559
 30
0.0
 11
117.2497546769
 21
206.9300204559
 31
0.0
  0
LINE
  5
113
330
1F
100
AcDbEntity
  8
SLD-0
  6
CENTERX2
 62
   179
100
AcDbLine
 10
106.2497546769
 20
195.9300204559
 30
0.0
 11
86.2497546769
 21
195.9300204559
 31
0.0
  0
ARC
  5
114
330
1F
100
AcDbEntity
  8
SLD-0
  6
Continuous
 62
   179
100
AcDbCircle
 10
92.5567961589
 20
129.4717982548
 30
0.0
 40
21.29964166680001
100
AcDbArc
 50
325.8799231678
 51
341.1629127639
  0
ARC
  5
115
330
1F
100
AcDbEntity
  8
SLD-0
  6
Continuous
 62
   179
100
AcDbCircle
 10
92.5567961589
 20
129.4717982548
 30
0.0
 40
21.29964166684258
100
AcDbArc
 50
5.222755857
 51
16.5083766599
  0
ARC
  5
116
330
1F
100
AcDbEntity
  8
SLD-0
  6
Continuous
 62
   179
100
AcDbCircle
 10
117.2497546769
 20
126.5242090382
 30
0.0
 40
6.000000000041829
100
AcDbArc
 50
220.9146552624
 51
125.4710133573
  0
ARC
  5
117
330
1F
100
AcDbEntity
  8
SLD-0
  6
Continuous
 62
   179
100
AcDbCircle
 10
117.2497546769
 20
126.5242090382
 30
0.0
 40
9.000000000000014
100
AcDbArc
 50
270.0
 51
90.0
  0
ARC
  5
118
330
1F
100
AcDbEntity
  8
SLD-0
  6
Continuous
 62
   179
100
AcDbCircle
 10
117.2497546769
 20
126.5242090382
 30
0.0
 40
6.000000000000018
100
AcDbArc
 50
125.4710133576
 51
175.2198081528
  0
ARC
  5
119
330
1F
100
AcDbEntity
  8
SLD-0
  6
Continuous
 62
   179
100
AcDbCircle
 10
117.2497546769
 20
126.5242090382
 30
0.0
 40
6.000000000041829
100
AcDbArc
 50
184.780191852
 51
220.9146552624
  0
ARC
  5
11A
330
1F
100
AcDbEntity
  8
SLD-0
  6
Continuous
 62
   179
100
AcDbCircle
 10
48.1558632551
 20
126.5242090382
 30
0.0
 40
6.00000000004913
100
AcDbArc
 50
4.7801918472
 51
175.2198081472
  0
ARC
  5
11B
330
1F
100
AcDbEntity
  8
SLD-0
  6
Continuous
 62
   179
100
AcDbCircle
 10
48.1558632551
 20
126.5242090382
 30
0.0
 40
6.000000000000004
100
AcDbArc
 50
184.7801918472
 51
355.2198081528
  0
CIRCLE
  5
11C
330
1F
100
AcDbEntity
  8
SLD-0
  6
Continuous
 62
   179
100
AcDbCircle
 10
108.2497546769
 20
195.9300204559
 30
0.0
 40
2.25
  0
CIRCLE
  5
11D
330
1F
100
AcDbEntity
  8
SLD-0
  6
Continuous
 62
   179
100
AcDbCircle
 10
108.2497546769
 20
195.9300204559
 30
0.0
 40
1.650000000000006
  0
CIRCLE
  5
11E
330
1F
100
AcDbEntity
  8
SLD-0
 62
   179
100
AcDbCircle
 10
108.2497546769
 20
195.9300204559
 30
0.0
 40
1.999999783900009
  0
DIMENSION
  5
11F
330
1F
100
AcDbEntity
  8
SLD-0
 62
     7
100
AcDbDimension
  2
*D7
 10
8.1565539526
 20
8.8017372844
 30
0.0
 11
145.6690105975
 21
-4.4008693817
 31
0.0
 70
   163
  1
<>　　
 71
     1
 42
11.9999979836
  3
SLDDIMSTYLE0
100
AcDbDiametricDimension
 15
0.0
 25
0.0
 35
0.0
 40
0.0
1001
ACAD
1000
DSTYLE
1002
{
1070
    77
1070
     0
1070
   143
1040
0.0393700787
1070
    41
1040
3.0
1070
    44
1040
1.0
1070
    42
1040
1.0
1070
   147
1040
1.524
1070
    73
1070
     1
1070
    74
1070
     1
1070
   140
1040
3.5
1070
   284
1070
     0
1070
    78
1070
    12
1002
}
  0
DIMENSION
  5
13E
330
1F
100
AcDbEntity
  8
SLD-0
 62
     7
100
AcDbDimension
  2
*D9
 10
117.2497546769
 20
140.9109047607
 30
0.0
 11
102.7497546769
 21
140.9109047607
 31
0.0
 70
   160
 71
     1
 42
29.0
  3
SLDDIMSTYLE1
100
AcDbAlignedDimension
 13
88.2497546769
 23
135.5242090382
 33
0.0
 14
117.2497546769
 24
126.5242090382
 34
0.0
100
AcDbRotatedDimension
1001
ACAD
1000
DSTYLE
1002
{
1070
    77
1070
     3
1070
   143
1040
0.0393700787
1070
    41
1040
3.0
1070
    44
1040
1.0
1070
    42
1040
1.0
1070
   147
1040
1.524
1070
    73
1070
     0
1070
    74
1070
     0
1070
   140
1040
3.5
1070
   284
1070
    12
1070
    78
1070
    12
1002
}
  0
DIMENSION
  5
156
330
1F
100
AcDbEntity
  8
SLD-0
 62
     7
100
AcDbDimension
  2
*D10
 10
144.4179901304
 20
135.5242090382
 30
0.0
 11
144.4179901304
 21
126.5242090382
 31
0.0
 70
   160
 71
     1
 42
18.0
  3
SLDDIMSTYLE1
100
AcDbAlignedDimension
 13
117.2497546769
 23
117.5242090382
 33
0.0
 14
117.2497546769
 24
135.5242090382
 34
0.0
 50
90.0
100
AcDbRotatedDimension
1001
ACAD
1000
DSTYLE
1002
{
1070
    77
1070
     3
1070
   143
1040
0.0393700787
1070
    41
1040
3.0
1070
    44
1040
1.0
1070
    42
1040
1.0
1070
   147
1040
1.524
1070
    73
1070
     0
1070
    74
1070
     0
1070
   140
1040
3.5
1070
   284
1070
    12
1070
    78
1070
    12
1002
}
  0
DIMENSION
  5
16E
330
1F
100
AcDbEntity
  8
SLD-0
 62
     7
100
AcDbDimension
  2
*D11
 10
79.0991701881
 20
127.0242090382
 30
0.0
 11
79.0991701881
 21
120.3514439234
 31
0.0
 70
   160
 71
     1
 42
1.0
  3
SLDDIMSTYLE1
100
AcDbAlignedDimension
 13
88.2497546769
 23
126.0242090382
 33
0.0
 14
88.2497546769
 24
127.0242090382
 34
0.0
 50
90.0
100
AcDbRotatedDimension
1001
ACAD
1000
DSTYLE
1002
{
1070
    77
1070
     3
1070
   143
1040
0.0393700787
1070
    41
1040
3.0
1070
    44
1040
1.0
1070
    42
1040
1.0
1070
   147
1040
1.524
1070
    73
1070
     0
1070
    74
1070
     0
1070
   140
1040
3.5
1070
   284
1070
    12
1070
    78
1070
    12
1002
}
  0
DIMENSION
  5
189
330
1F
100
AcDbEntity
  8
SLD-0
100
AcDbDimension
  2
*D12
 10
70.6545113332
 20
135.5242090382
 30
0.0
 11
70.6545113332
 21
131.0242090382
 31
0.0
 70
   160
 71
     1
 42
9.0
  3
SLDDIMSTYLE1
100
AcDbAlignedDimension
 13
86.2497546769
 23
126.5242090382
 33
0.0
 14
89.7497546769
 24
135.5242090382
 34
0.0
 50
90.0
100
AcDbRotatedDimension
1001
ACAD
1000
DSTYLE
1002
{
1070
    77
1070
     3
1070
   143
1040
0.0393700787
1070
    41
1040
3.0
1070
    44
1040
1.0
1070
    42
1040
1.0
1070
   147
1040
1.524
1070
    73
1070
     0
1070
    74
1070
     0
1070
   140
1040
3.5
1070
   284
1070
    12
1070
    78
1070
    12
1002
}
  0
DIMENSION
  5
1A1
330
1F
100
AcDbEntity
  8
SLD-0
100
AcDbDimension
  2
*D13
 10
134.6858754628
 20
126.5242090382
 30
0.0
 11
134.6858754628
 21
131.0242090382
 31
0.0
 70
   160
 71
     1
 42
9.0
  3
SLDDIMSTYLE1
100
AcDbAlignedDimension
 13
117.2497546769
 23
135.5242090382
 33
0.0
 14
125.7497546769
 24
126.5242090382
 34
0.0
 50
90.0
100
AcDbRotatedDimension
1001
ACAD
1000
DSTYLE
1002
{
1070
    77
1070
     3
1070
   143
1040
0.0393700787
1070
    41
1040
3.0
1070
    44
1040
1.0
1070
    42
1040
1.0
1070
   147
1040
1.524
1070
    73
1070
     0
1070
    74
1070
     0
1070
   140
1040
3.5
1070
   284
1070
    12
1070
    78
1070
    12
1002
}
  0
DIMENSION
  5
1B9
330
1F
100
AcDbEntity
  8
SLD-0
100
AcDbDimension
  2
*D14
 10
104.2497546769
 20
106.2820439165
 30
0.0
 11
96.2497546769
 21
106.2820439165
 31
0.0
 70
   160
 71
     1
 42
16.0
  3
SLDDIMSTYLE1
100
AcDbAlignedDimension
 13
88.2497546769
 23
127.0242090382
 33
0.0
 14
104.2497546769
 24
127.0242090382
 34
0.0
100
AcDbRotatedDimension
1001
ACAD
1000
DSTYLE
1002
{
1070
    77
1070
     3
1070
   143
1040
0.0393700787
1070
    41
1040
3.0
1070
    44
1040
1.0
1070
    42
1040
1.0
1070
   147
1040
1.524
1070
    73
1070
     0
1070
    74
1070
     0
1070
   140
1040
3.5
1070
   284
1070
    12
1070
    78
1070
    12
1002
}
  0
DIMENSION
  5
1D0
330
1F
100
AcDbEntity
  8
SLD-0
 62
     7
100
AcDbDimension
  2
*D15
 10
126.2497546769
 20
147.1398766809
 30
0.0
 11
107.2497546769
 21
147.1398766809
 31
0.0
 70
   160
 71
     1
 42
38.0
  3
SLDDIMSTYLE1
100
AcDbAlignedDimension
 13
88.2497546769
 23
134.0242090382
 33
0.0
 14
126.2497546769
 24
126.5242090382
 34
0.0
100
AcDbRotatedDimension
1001
ACAD
1000
DSTYLE
1002
{
1070
    77
1070
     3
1070
   143
1040
0.0393700787
1070
    41
1040
3.0
1070
    44
1040
1.0
1070
    42
1040
1.0
1070
   147
1040
1.524
1070
    73
1070
     0
1070
    74
1070
     0
1070
   140
1040
3.5
1070
   284
1070
    12
1070
    78
1070
    12
1002
}
  0
DIMENSION
  5
1E7
330
1F
100
AcDbEntity
  8
SLD-0
 62
     7
100
AcDbDimension
  2
*D16
 10
117.2497546769
 20
126.5242090382
 30
0.0
 11
134.0523372701
 21
137.421684196
 31
0.0
 70
   164
  1
<>
 71
     1
 42
172.4989288214
  3
SLDDIMSTYLE2
100
AcDbRadialDimension
 15
0.0
 25
0.0
 35
0.0
 40
0.0
1001
ACAD
1000
DSTYLE
1002
{
1070
    77
1070
     0
1070
   143
1040
0.0393700787
1070
    41
1040
3.0
1070
    44
1040
1.0
1070
    42
1040
1.0
1070
   147
1040
1.524
1070
    73
1070
     1
1070
    74
1070
     1
1070
   140
1040
3.5
1070
   284
1070
    12
1070
    78
1070
     4
1002
}
  0
DIMENSION
  5
1F9
330
1F
100
AcDbEntity
  8
SLD-0
 62
     7
100
AcDbDimension
  2
*D17
 10
108.2497546769
 20
178.978046836
 30
0.0
 11
98.2497546769
 21
178.978046836
 31
0.0
 70
   160
 71
     1
 42
20.0
  3
SLDDIMSTYLE1
100
AcDbAlignedDimension
 13
88.2497546769
 23
186.9300204559
 33
0.0
 14
108.2497546769
 24
195.9300204559
 34
0.0
100
AcDbRotatedDimension
1001
ACAD
1000
DSTYLE
1002
{
1070
    77
1070
     3
1070
   143
1040
0.0393700787
1070
    41
1040
3.0
1070
    44
1040
1.0
1070
    42
1040
1.0
1070
   147
1040
1.524
1070
    73
1070
     0
1070
    74
1070
     0
1070
   140
1040
3.5
1070
   284
1070
    12
1070
    78
1070
    12
1002
}
  0
DIMENSION
  5
210
330
1F
100
AcDbEntity
  8
SLD-0
 62
     7
100
AcDbDimension
  2
*D18
 10
146.1444499278
 20
204.9300204559
 30
0.0
 11
146.1444499278
 21
195.9300204559
 31
0.0
 70
   160
 71
     1
 42
18.0
  3
SLDDIMSTYLE1
100
AcDbAlignedDimension
 13
123.2497546769
 23
186.9300204559
 33
0.0
 14
123.2497546769
 24
204.9300204559
 34
0.0
 50
90.0
100
AcDbRotatedDimension
1001
ACAD
1000
DSTYLE
1002
{
1070
    77
1070
     3
1070
   143
1040
0.0393700787
1070
    41
1040
3.0
1070
    44
1040
1.0
1070
    42
1040
1.0
1070
   147
1040
1.524
1070
    73
1070
     0
1070
    74
1070
     0
1070
   140
1040
3.5
1070
   284
1070
    12
1070
    78
1070
    12
1002
}
  0
DIMENSION
  5
228
330
1F
100
AcDbEntity
  8
SLD-0
 62
     7
100
AcDbDimension
  2
*D19
 10
140.4364859093
 20
204.9300204559
 30
0.0
 11
140.4364859093
 21
211.4206276744
 31
0.0
 70
   160
 71
     1
 42
3.5
  3
SLDDIMSTYLE3
100
AcDbAlignedDimension
 13
126.2497546769
 23
201.4300204559
 33
0.0
 14
117.2497546769
 24
204.9300204559
 34
0.0
 50
90.0
100
AcDbRotatedDimension
1001
ACAD
1000
DSTYLE
1002
{
1070
    77
1070
     3
1070
   143
1040
0.0393700787
1070
    41
1040
3.0
1070
    44
1040
1.0
1070
    42
1040
1.0
1070
   147
1040
1.524
1070
    73
1070
     0
1070
    74
1070
     0
1070
   140
1040
3.5
1070
   284
1070
    12
1070
    78
1070
    12
1002
}
  0
DIMENSION
  5
244
330
1F
100
AcDbEntity
  8
SLD-0
 62
     7
100
AcDbDimension
  2
*D20
 10
140.4364859093
 20
190.4300204559
 30
0.0
 11
140.4364859093
 21
179.8086537495
 31
0.0
 70
   160
 71
     1
 42
11.0
  3
SLDDIMSTYLE4
100
AcDbAlignedDimension
 13
126.2497546769
 23
201.4300204559
 33
0.0
 14
126.2497546769
 24
190.4300204559
 34
0.0
 50
90.0
100
AcDbRotatedDimension
1001
ACAD
1000
DSTYLE
1002
{
1070
    77
1070
     3
1070
   143
1040
0.0393700787
1070
    41
1040
3.0
1070
    44
1040
1.0
1070
    42
1040
1.0
1070
   147
1040
1.524
1070
    73
1070
     0
1070
    74
1070
     0
1070
   140
1040
3.5
1070
   284
1070
     0
1070
    78
1070
    12
1002
}
  0
DIMENSION
  5
261
330
1F
100
AcDbEntity
  8
SLD-0
100
AcDbDimension
  2
*D21
 10
111.2497546769
 20
214.0364872766
 30
0.0
 11
99.7497546769
 21
214.0364872766
 31
0.0
 70
   160
 71
     1
 42
23.0
  3
SLDDIMSTYLE1
100
AcDbAlignedDimension
 13
88.2497546769
 23
204.9300204559
 33
0.0
 14
111.2497546769
 24
201.4300204559
 34
0.0
100
AcDbRotatedDimension
1001
ACAD
1000
DSTYLE
1002
{
1070
    77
1070
     3
1070
   143
1040
0.0393700787
1070
    41
1040
3.0
1070
    44
1040
1.0
1070
    42
1040
1.0
1070
   147
1040
1.524
1070
    73
1070
     0
1070
    74
1070
     0
1070
   140
1040
3.5
1070
   284
1070
    12
1070
    78
1070
    12
1002
}
  0
DIMENSION
  5
278
330
1F
100
AcDbEntity
  8
SLD-0
100
AcDbDimension
  2
*D22
 10
80.7547835172
 20
204.9300204559
 30
0.0
 11
80.7547835172
 21
200.4300204559
 31
0.0
 70
   160
 71
     1
 42
9.0
  3
SLDDIMSTYLE1
100
AcDbAlignedDimension
 13
86.2497546769
 23
195.9300204559
 33
0.0
 14
88.2497546769
 24
204.9300204559
 34
0.0
 50
90.0
100
AcDbRotatedDimension
1001
ACAD
1000
DSTYLE
1002
{
1070
    77
1070
     3
1070
   143
1040
0.0393700787
1070
    41
1040
3.0
1070
    44
1040
1.0
1070
    42
1040
1.0
1070
   147
1040
1.524
1070
    73
1070
     0
1070
    74
1070
     0
1070
   140
1040
3.5
1070
   284
1070
    12
1070
    78
1070
    12
1002
}
  0
MTEXT
  5
290
330
1F
100
AcDbEntity
  8
SLD-0
 62
     7
100
AcDbMText
 10
147.3946352024
 20
29.7138882404
 30
0.0
 40
4.2333333333
 41
0.0
 71
     1
 72
     1
  1
N01868-101-1
  7
SLDTEXTSTYLE1
 73
     1
 44
1.0
  0
MTEXT
  5
292
330
1F
100
AcDbEntity
  8
SLD-0
 62
     7
100
AcDbMText
 10
138.6468249022
 20
43.2377018572
 30
0.0
 40
4.2333333333
 41
0.0
 71
     1
 72
     1
  1
12 Suction Rotate #A
  7
SLDTEXTSTYLE2
 73
     1
 44
1.0
  0
MTEXT
  5
293
330
1F
100
AcDbEntity
  8
SLD-0
 62
     7
100
AcDbMText
 10
71.1924861968
 20
108.1508612805
 30
0.0
 40
3.5
 41
0.0
 71
     1
 72
     1
  1
2-
  7
SLDTEXTSTYLE1
 11
0.7590320061311042
 21
0.6510533109266793
 31
0.0
 73
     1
 44
1.0
  0
MTEXT
  5
294
330
1F
100
AcDbEntity
  8
SLD-0
 62
     7
100
AcDbMText
 10
74.2824071584
 20
110.801214963
 30
0.0
 40
3.5
 41
0.0
 71
     1
 72
     1
  1
C
  7
SLDTEXTSTYLE1
 11
0.7590320061311042
 21
0.6510533109266793
 31
0.0
 73
     1
 44
1.0
  0
MTEXT
  5
295
330
1F
100
AcDbEntity
  8
SLD-0
 62
     7
100
AcDbMText
 10
75.8273676392
 20
112.1263918042
 30
0.0
 40
3.5
 41
0.0
 71
     1
 72
     1
  1
1.5
  7
SLDTEXTSTYLE1
 11
0.7590320061311042
 21
0.6510533109266793
 31
0.0
 73
     1
 44
1.0
  0
MTEXT
  5
296
330
1F
100
AcDbEntity
  8
SLD-0
 62
     7
100
AcDbMText
 10
114.2086908076
 20
108.399319472
 30
0.0
 40
3.5
 41
0.0
 71
     1
 72
     1
  1
M4
  7
SLDTEXTSTYLE1
 73
     1
 44
1.0
  0
HATCH
  5
297
330
1F
100
AcDbEntity
  8
0
  6
Continuous
 62
   179
100
AcDbHatch
 10
0.0
 20
0.0
 30
0.0
210
0.0
220
0.0
230
1.0
  2
ANSI31
 70
     0
 71
     0
 91
        1
 92
        0
 93
        3
 72
     1
 10
109.9653897975427
 20
114.9364277731946
 11
109.0397346600792
 21
114.5580594784243
 72
     1
 10
109.0397346600792
 20
114.5580594784243
 11
108.3674573445
 21
117.5242090382
 72
     1
 10
108.3674573445
 20
117.5242090382
 11
109.9653897975427
 21
114.9364277731946
 97
        0
 75
     0
 76
     1
 52
0.0
 41
1.0
 77
     0
 78
     1
 53
45.00000209717174
 43
0.0
 44
0.0
 45
-2.245064112442359
 46
2.245063948092215
 79
     0
 98
        1
 10
0.0
 20
0.0
  0
HATCH
  5
298
330
1F
100
AcDbEntity
  8
0
  6
Continuous
 62
   179
100
AcDbHatch
 10
0.0
 20
0.0
 30
0.0
210
0.0
220
0.0
230
1.0
  2
ANSI31
 70
     0
 71
     0
 91
        1
 92
        0
 93
        3
 72
     1
 10
108.8966024465056
 20
138.470063340393
 11
109.8111352604435
 21
138.0655516196348
 72
     1
 10
109.8111352604435
 20
138.0655516196348
 11
108.1403336912
 21
135.5242090382
 72
     1
 10
108.1403336912
 20
135.5242090382
 11
108.8966024465056
 21
138.470063340393
 97
        0
 75
     0
 76
     1
 52
0.0
 41
1.0
 77
     0
 78
     1
 53
45.00000209717174
 43
0.0
 44
0.0
 45
-2.245064112442359
 46
2.245063948092215
 79
     0
 98
        1
 10
0.0
 20
0.0
  0
INSERT
  5
299
330
1F
100
AcDbEntity
  8
0
  6
Continuous
 62
     7
370
     0
100
AcDbBlockReference
  2
_OPEN30
 10
88.9997546769
 20
118.2742090382
 30
0.0
 41
3.0
 42
3.0
 43
3.0
 50
40.6758833212
  0
INSERT
  5
29A
330
1F
100
AcDbEntity
  8
0
  6
Continuous
 62
     7
370
     0
100
AcDbBlockReference
  2
NOTE45
 10
127.1412962606
 20
154.7890197829
 30
0.0
  0
INSERT
  5
29B
330
1F
100
AcDbEntity
  8
0
  6
Continuous
 62
     7
370
     0
100
AcDbBlockReference
  2
SW_CENTERMARK0
 10
0.0
 20
0.0
 30
0.0
  0
INSERT
  5
29C
330
1F
100
AcDbEntity
  8
0
  6
Continuous
 62
     7
370
     0
100
AcDbBlockReference
  2
SW_CENTERMARK1
 10
0.0
 20
0.0
 30
0.0
  0
INSERT
  5
29D
330
1F
100
AcDbEntity
  8
0
  6
Continuous
 62
     7
370
     0
100
AcDbBlockReference
  2
SW_CENTERMARK2
 10
0.0
 20
0.0
 30
0.0
  0
ENDSEC
  0
SECTION
  2
OBJECTS
  0
DICTIONARY
  5
C
330
0
100
AcDbDictionary
281
     1
  3
ACAD_GROUP
350
D
  3
ACAD_LAYOUT
350
1A
  3
ACAD_MLINESTYLE
350
17
  3
ACAD_PLOTSETTINGS
350
19
  3
ACAD_PLOTSTYLENAME
350
E
  0
DICTIONARY
  5
D
102
{ACAD_REACTORS
330
C
102
}
330
C
100
AcDbDictionary
281
     1
  0
DICTIONARY
  5
1A
102
{ACAD_REACTORS
330
C
102
}
330
C
100
AcDbDictionary
281
     1
  3
Layout1
350
1E
  3
Layout2
350
26
  3
Model
350
22
  0
DICTIONARY
  5
17
102
{ACAD_REACTORS
330
C
102
}
330
C
100
AcDbDictionary
281
     1
  3
Standard
350
18
  0
DICTIONARY
  5
19
102
{ACAD_REACTORS
330
C
102
}
330
C
100
AcDbDictionary
281
     1
  0
ACDBDICTIONARYWDFLT
  5
E
102
{ACAD_REACTORS
330
C
102
}
330
C
100
AcDbDictionary
281
     1
  3
Normal
350
F
100
AcDbDictionaryWithDefault
340
F
  0
LAYOUT
  5
1E
102
{ACAD_REACTORS
330
1A
102
}
330
1A
100
AcDbPlotSettings
  1

  2

  4

  6

 40
0.0
 41
0.0
 42
0.0
 43
0.0
 44
0.0
 45
0.0
 46
0.0
 47
0.0
 48
0.0
 49
0.0
140
0.0
141
0.0
142
1.0
143
1.0
 70
   688
 72
     0
 73
     0
 74
     5
  7

 75
    16
147
1.0
148
0.0
149
0.0
100
AcDbLayout
  1
Layout1
 70
     1
 71
     1
 10
0.0
 20
0.0
 11
0.0
 21
0.0
 12
0.0
 22
0.0
 32
0.0
 14
0.0
 24
0.0
 34
0.0
 15
0.0
 25
0.0
 35
0.0
146
0.0
 13
0.0
 23
0.0
 33
0.0
 16
1.0
 26
0.0
 36
0.0
 17
0.0
 27
1.0
 37
0.0
 76
     0
330
1B
  0
LAYOUT
  5
26
102
{ACAD_REACTORS
330
1A
102
}
330
1A
100
AcDbPlotSettings
  1

  2

  4

  6

 40
0.0
 41
0.0
 42
0.0
 43
0.0
 44
0.0
 45
0.0
 46
0.0
 47
0.0
 48
0.0
 49
0.0
140
0.0
141
0.0
142
1.0
143
1.0
 70
   688
 72
     0
 73
     0
 74
     5
  7

 75
    16
147
1.0
148
0.0
149
0.0
100
AcDbLayout
  1
Layout2
 70
     1
 71
     2
 10
0.0
 20
0.0
 11
0.0
 21
0.0
 12
0.0
 22
0.0
 32
0.0
 14
0.0
 24
0.0
 34
0.0
 15
0.0
 25
0.0
 35
0.0
146
0.0
 13
0.0
 23
0.0
 33
0.0
 16
1.0
 26
0.0
 36
0.0
 17
0.0
 27
1.0
 37
0.0
 76
     0
330
23
  0
LAYOUT
  5
22
102
{ACAD_REACTORS
330
1A
102
}
330
1A
100
AcDbPlotSettings
  1

  2

  4

  6

 40
0.0
 41
0.0
 42
0.0
 43
0.0
 44
0.0
 45
0.0
 46
0.0
 47
0.0
 48
0.0
 49
0.0
140
0.0
141
0.0
142
1.0
143
1.0
 70
  1712
 72
     0
 73
     0
 74
     0
  7

 75
     0
147
1.0
148
0.0
149
0.0
100
AcDbLayout
  1
Model
 70
     1
 71
     0
 10
0.0
 20
0.0
 11
0.0
 21
0.0
 12
0.0
 22
0.0
 32
0.0
 14
0.0
 24
0.0
 34
0.0
 15
210.0
 25
297.0
 35
0.0
146
0.0
 13
0.0
 23
0.0
 33
0.0
 16
1.0
 26
0.0
 36
0.0
 17
0.0
 27
1.0
 37
0.0
 76
     0
330
1F
  0
MLINESTYLE
  5
18
102
{ACAD_REACTORS
330
17
102
}
330
17
100
AcDbMlineStyle
  2
Standard
 70
     0
  3

 62
   256
 51
90.0
 52
90.0
 71
     2
 49
0.5
 62
   256
  6
BYLAYER
 49
-0.5
 62
   256
  6
BYLAYER
  0
ACDBPLACEHOLDER
  5
F
102
{ACAD_REACTORS
330
E
102
}
330
E
  0
ENDSEC
  0
EOF
