  0
SECTION
  2
HEADER
  9
$ACADVER
  1
AC1015
  9
$ACADMAINTVER
 70
     6
  9
$DWGCODEPAGE
  3
DOS932
  9
$INSBASE
 10
0.0
 20
0.0
 30
0.0
  9
$EXTMIN
 10
0.0
 20
0.0
 30
0.0
  9
$EXTMAX
 10
210.0
 20
297.0
 30
0.0
  9
$LIMMIN
 10
0.0
 20
0.0
  9
$LIMMAX
 10
0.0
 20
0.0
  9
$ORTHOMODE
 70
     0
  9
$REGENMODE
 70
     1
  9
$FILLMODE
 70
     1
  9
$QTEXTMODE
 70
     0
  9
$MIRRTEXT
 70
     1
  9
$LTSCALE
 40
1.0
  9
$ATTMODE
 70
     1
  9
$TEXTSIZE
 40
3.5
  9
$TRACEWID
 40
1.0
  9
$TEXTSTYLE
  7
Standard
  9
$CLAYER
  8
0
  9
$CELTYPE
  6
ByLayer
  9
$CECOLOR
 62
   256
  9
$CELTSCALE
 40
1.0
  9
$DISPSILH
 70
     0
  9
$DIMSCALE
 40
1.0
  9
$DIMASZ
 40
3.0
  9
$DIMEXO
 40
1.0
  9
$DIMDLI
 40
3.75
  9
$DIMRND
 40
0.0
  9
$DIMDLE
 40
0.0
  9
$DIMEXE
 40
1.0
  9
$DIMTP
 40
0.0
  9
$DIMTM
 40
0.0
  9
$DIMTXT
 40
3.5
  9
$DIMCEN
 40
2.5
  9
$DIMTSZ
 40
0.0
  9
$DIMTOL
 70
     0
  9
$DIMLIM
 70
     0
  9
$DIMTIH
 70
     1
  9
$DIMTOH
 70
     1
  9
$DIMSE1
 70
     0
  9
$DIMSE2
 70
     0
  9
$DIMTAD
 70
     1
  9
$DIMZIN
 70
     0
  9
$DIMBLK
  1

  9
$DIMASO
 70
     1
  9
$DIMSHO
 70
     1
  9
$DIMPOST
  1

  9
$DIMAPOST
  1

  9
$DIMALT
 70
     0
  9
$DIMALTD
 70
     3
  9
$DIMALTF
 40
0.0393700787
  9
$DIMLFAC
 40
1.0
  9
$DIMTOFL
 70
     1
  9
$DIMTVP
 40
0.0
  9
$DIMTIX
 70
     0
  9
$DIMSOXD
 70
     0
  9
$DIMSAH
 70
     0
  9
$DIMBLK1
  1

  9
$DIMBLK2
  1

  9
$DIMSTYLE
  2
ISO-25
  9
$DIMCLRD
 70
     0
  9
$DIMCLRE
 70
     0
  9
$DIMCLRT
 70
     0
  9
$DIMTFAC
 40
1.0
  9
$DIMGAP
 40
1.524
  9
$DIMJUST
 70
     0
  9
$DIMSD1
 70
     0
  9
$DIMSD2
 70
     0
  9
$DIMTOLJ
 70
     0
  9
$DIMTZIN
 70
     0
  9
$DIMALTZ
 70
     0
  9
$DIMALTTZ
 70
     0
  9
$DIMUPT
 70
     0
  9
$DIMDEC
 70
     2
  9
$DIMTDEC
 70
     2
  9
$DIMALTU
 70
     2
  9
$DIMALTTD
 70
     3
  9
$DIMTXSTY
  7
Standard
  9
$DIMAUNIT
 70
     0
  9
$DIMADEC
 70
     0
  9
$DIMALTRND
 40
0.0
  9
$DIMAZIN
 70
     0
  9
$DIMDSEP
 70
    44
  9
$DIMATFIT
 70
     3
  9
$DIMFRAC
 70
     0
  9
$DIMLDRBLK
  1

  9
$DIMLUNIT
 70
     2
  9
$DIMLWD
 70
    -2
  9
$DIMLWE
 70
    -2
  9
$DIMTMOVE
 70
     0
  9
$LUNITS
 70
     2
  9
$LUPREC
 70
     1
  9
$SKETCHINC
 40
1.0
  9
$FILLETRAD
 40
10.0
  9
$AUNITS
 70
     0
  9
$AUPREC
 70
     0
  9
$MENU
  1
.
  9
$ELEVATION
 40
0.0
  9
$PELEVATION
 40
0.0
  9
$THICKNESS
 40
0.0
  9
$LIMCHECK
 70
     0
  9
$CHAMFERA
 40
10.0
  9
$CHAMFERB
 40
10.0
  9
$CHAMFERC
 40
20.0
  9
$CHAMFERD
 40
0.0
  9
$SKPOLY
 70
     0
  9
$TDCREATE
 40
2454349.491143657
  9
$TDUCREATE
 40
2454349.116143657
  9
$TDUPDATE
 40
2454349.491143669
  9
$TDUUPDATE
 40
2454349.116143669
  9
$TDINDWG
 40
0.0000000116
  9
$TDUSRTIMER
 40
0.0000000116
  9
$USRTIMER
 70
     1
  9
$ANGBASE
 50
0.0
  9
$ANGDIR
 70
     0
  9
$PDMODE
 70
     0
  9
$PDSIZE
 40
-1.0
  9
$PLINEWID
 40
0.0
  9
$SPLFRAME
 70
     0
  9
$SPLINETYPE
 70
     6
  9
$SPLINESEGS
 70
     8
  9
$HANDSEED
  5
250
  9
$SURFTAB1
 70
     6
  9
$SURFTAB2
 70
     6
  9
$SURFTYPE
 70
     6
  9
$SURFU
 70
     6
  9
$SURFV
 70
     6
  9
$UCSBASE
  2

  9
$UCSNAME
  2

  9
$UCSORG
 10
0.0
 20
0.0
 30
0.0
  9
$UCSXDIR
 10
1.0
 20
0.0
 30
0.0
  9
$UCSYDIR
 10
0.0
 20
1.0
 30
0.0
  9
$UCSORTHOREF
  2

  9
$UCSORTHOVIEW
 70
     0
  9
$UCSORGTOP
 10
0.0
 20
0.0
 30
0.0
  9
$UCSORGBOTTOM
 10
0.0
 20
0.0
 30
0.0
  9
$UCSORGLEFT
 10
0.0
 20
0.0
 30
0.0
  9
$UCSORGRIGHT
 10
0.0
 20
0.0
 30
0.0
  9
$UCSORGFRONT
 10
0.0
 20
0.0
 30
0.0
  9
$UCSORGBACK
 10
0.0
 20
0.0
 30
0.0
  9
$PUCSBASE
  2

  9
$PUCSNAME
  2

  9
$PUCSORG
 10
0.0
 20
0.0
 30
0.0
  9
$PUCSXDIR
 10
1.0
 20
0.0
 30
0.0
  9
$PUCSYDIR
 10
0.0
 20
1.0
 30
0.0
  9
$PUCSORTHOREF
  2

  9
$PUCSORTHOVIEW
 70
     0
  9
$PUCSORGTOP
 10
0.0
 20
0.0
 30
0.0
  9
$PUCSORGBOTTOM
 10
0.0
 20
0.0
 30
0.0
  9
$PUCSORGLEFT
 10
0.0
 20
0.0
 30
0.0
  9
$PUCSORGRIGHT
 10
0.0
 20
0.0
 30
0.0
  9
$PUCSORGFRONT
 10
0.0
 20
0.0
 30
0.0
  9
$PUCSORGBACK
 10
0.0
 20
0.0
 30
0.0
  9
$USERI1
 70
     0
  9
$USERI2
 70
     0
  9
$USERI3
 70
     0
  9
$USERI4
 70
     0
  9
$USERI5
 70
     0
  9
$USERR1
 40
0.0
  9
$USERR2
 40
0.0
  9
$USERR3
 40
0.0
  9
$USERR4
 40
0.0
  9
$USERR5
 40
0.0
  9
$WORLDVIEW
 70
     1
  9
$SHADEDGE
 70
     3
  9
$SHADEDIF
 70
    70
  9
$TILEMODE
 70
     1
  9
$MAXACTVP
 70
    64
  9
$PINSBASE
 10
0.0
 20
0.0
 30
0.0
  9
$PLIMCHECK
 70
     0
  9
$PEXTMIN
 10
1.0000000000E+20
 20
1.0000000000E+20
 30
1.0000000000E+20
  9
$PEXTMAX
 10
-1.0000000000E+20
 20
-1.0000000000E+20
 30
-1.0000000000E+20
  9
$PLIMMIN
 10
0.0
 20
0.0
  9
$PLIMMAX
 10
420.0
 20
297.0
  9
$UNITMODE
 70
     0
  9
$VISRETAIN
 70
     1
  9
$PLINEGEN
 70
     0
  9
$PSLTSCALE
 70
     1
  9
$TREEDEPTH
 70
  3020
  9
$CMLSTYLE
  2
Standard
  9
$CMLJUST
 70
     0
  9
$CMLSCALE
 40
20.0
  9
$PROXYGRAPHICS
 70
     1
  9
$MEASUREMENT
 70
     1
  9
$CELWEIGHT
370
    -1
  9
$ENDCAPS
280
     0
  9
$JOINSTYLE
280
     0
  9
$LWDISPLAY
290
     1
  9
$INSUNITS
 70
     4
  9
$HYPERLINKBASE
  1

  9
$STYLESHEET
  1

  9
$XEDIT
290
     1
  9
$CEPSNTYPE
380
     0
  9
$PSTYLEMODE
290
     1
  9
$FINGERPRINTGUID
  2
{5519B777-AA9A-41B7-A0E6-34F6C0674687}
  9
$VERSIONGUID
  2
{FAEB1C32-E019-11D5-929B-00C0DF256EC4}
  9
$EXTNAMES
290
     1
  9
$PSVPSCALE
 40
0.0
  9
$OLESTARTUP
290
     0
  0
ENDSEC
  0
SECTION
  2
CLASSES
  0
CLASS
  1
ACDBDICTIONARYWDFLT
  2
AcDbDictionaryWithDefault
  3
ObjectDBX Classes
 90
        0
280
     0
281
     0
  0
CLASS
  1
ACDBPLACEHOLDER
  2
AcDbPlaceHolder
  3
ObjectDBX Classes
 90
        0
280
     0
281
     0
  0
CLASS
  1
LAYOUT
  2
AcDbLayout
  3
ObjectDBX Classes
 90
        0
280
     0
281
     0
  0
ENDSEC
  0
SECTION
  2
TABLES
  0
TABLE
  2
VPORT
  5
8
330
0
100
AcDbSymbolTable
 70
     1
  0
VPORT
  5
29
330
8
100
AcDbSymbolTableRecord
100
AcDbViewportTableRecord
  2
*Active
 70
     0
 10
0.0
 20
0.0
 11
1.0
 21
1.0
 12
105.0
 22
148.5
 13
0.0
 23
0.0
 14
10.0
 24
10.0
 15
10.0
 25
10.0
 16
0.0
 26
0.0
 36
1.0
 17
0.0
 27
0.0
 37
0.0
 40
297.0
 41
1.9729729729
 42
50.0
 43
0.0
 44
0.0
 50
0.0
 51
0.0
 71
     0
 72
  2000
 73
     1
 74
     3
 75
     0
 76
     0
 77
     0
 78
     0
281
     0
 65
     1
110
0.0
120
0.0
130
0.0
111
1.0
121
0.0
131
0.0
112
0.0
122
1.0
132
0.0
 79
     0
146
0.0
  0
ENDTAB
  0
TABLE
  2
LTYPE
  5
5
330
0
100
AcDbSymbolTable
 70
     6
  0
LTYPE
  5
14
330
5
100
AcDbSymbolTableRecord
100
AcDbLinetypeTableRecord
  2
ByBlock
 70
     0
  3

 72
    65
 73
     0
 40
0.0
  0
LTYPE
  5
15
330
5
100
AcDbSymbolTableRecord
100
AcDbLinetypeTableRecord
  2
ByLayer
 70
     0
  3

 72
    65
 73
     0
 40
0.0
  0
LTYPE
  5
16
330
5
100
AcDbSymbolTableRecord
100
AcDbLinetypeTableRecord
  2
Continuous
 70
     0
  3
Solid line
 72
    65
 73
     0
 40
0.0
  0
LTYPE
  5
2A
330
5
100
AcDbSymbolTableRecord
100
AcDbLinetypeTableRecord
  2
HIDDEN
 70
     0
  3
Hidden __ __ __ __ __ __ __ __ __ __ __ __ __ __
 72
    65
 73
     2
 40
1.905
 49
1.27
 74
     0
 49
-0.635
 74
     0
  0
LTYPE
  5
2B
330
5
100
AcDbSymbolTableRecord
100
AcDbLinetypeTableRecord
  2
PHANTOM
 70
     0
  3
Phantom ______  __  __  ______  __  __  ______
 72
    65
 73
     6
 40
12.7
 49
6.35
 74
     0
 49
-1.27
 74
     0
 49
1.27
 74
     0
 49
-1.27
 74
     0
 49
1.27
 74
     0
 49
-1.27
 74
     0
  0
LTYPE
  5
2C
330
5
100
AcDbSymbolTableRecord
100
AcDbLinetypeTableRecord
  2
CENTER
 70
     0
  3
Center ____ _ ____ _ ____ _ ____ _ ____ _ ____
 72
    65
 73
     4
 40
10.16
 49
6.35
 74
     0
 49
-1.27
 74
     0
 49
1.27
 74
     0
 49
-1.27
 74
     0
  0
LTYPE
  5
2D
330
5
100
AcDbSymbolTableRecord
100
AcDbLinetypeTableRecord
  2
CENTERX2
 70
     0
  3
Center (2x) ________  __  ________  __  _____
 72
    65
 73
     4
 40
20.32
 49
12.7
 74
     0
 49
-2.54
 74
     0
 49
2.54
 74
     0
 49
-2.54
 74
     0
  0
LTYPE
  5
2E
330
5
100
AcDbSymbolTableRecord
100
AcDbLinetypeTableRecord
  2
DOT2
 70
     0
  3
Dot (.5x) ........................................
 72
    65
 73
     2
 40
0.635
 49
0.0
 74
     0
 49
-0.635
 74
     0
  0
ENDTAB
  0
TABLE
  2
LAYER
  5
2
330
0
100
AcDbSymbolTable
 70
     2
  0
LAYER
  5
10
330
2
100
AcDbSymbolTableRecord
100
AcDbLayerTableRecord
  2
0
 70
     0
 62
     7
  6
Continuous
370
    -3
390
F
  0
LAYER
  5
FA
330
2
100
AcDbSymbolTableRecord
100
AcDbLayerTableRecord
  2
Defpoints
 70
     0
 62
     7
  6
Continuous
290
     0
370
    -3
390
F
  0
ENDTAB
  0
TABLE
  2
STYLE
  5
3
330
0
100
AcDbSymbolTable
 70
     3
  0
STYLE
  5
11
330
3
100
AcDbSymbolTableRecord
100
AcDbTextStyleTableRecord
  2
Standard
 70
     0
 40
0.0
 41
1.0
 50
0.0
 71
     0
 42
2.5
  3
txt
  4
bigfont
  0
STYLE
  5
37
330
3
100
AcDbSymbolTableRecord
100
AcDbTextStyleTableRecord
  2
SLDTEXTSTYLE0
 70
     0
 40
0.0
 41
0.7
 50
0.0
 71
     0
 42
0.2
  3
TXT
  4
bigfont
  0
STYLE
  5
53
330
3
100
AcDbSymbolTableRecord
100
AcDbTextStyleTableRecord
  2
SLDTEXTSTYLE1
 70
     0
 40
0.0
 41
0.6416666667
 50
0.0
 71
     0
 42
0.2
  3
TXT
  4
bigfont
  0
ENDTAB
  0
TABLE
  2
VIEW
  5
6
330
0
100
AcDbSymbolTable
 70
     0
  0
ENDTAB
  0
TABLE
  2
UCS
  5
7
330
0
100
AcDbSymbolTable
 70
     0
  0
ENDTAB
  0
TABLE
  2
APPID
  5
9
330
0
100
AcDbSymbolTable
 70
     1
  0
APPID
  5
12
330
9
100
AcDbSymbolTableRecord
100
AcDbRegAppTableRecord
  2
ACAD
 70
     0
  0
ENDTAB
  0
TABLE
  2
DIMSTYLE
  5
A
330
0
100
AcDbSymbolTable
 70
     2
100
AcDbDimStyleTable
  0
DIMSTYLE
105
27
330
A
100
AcDbSymbolTableRecord
100
AcDbDimStyleTableRecord
  2
ISO-25
 70
     0
 41
2.5
 42
0.625
 43
3.75
 44
1.25
 73
     0
 74
     0
 77
     1
 78
     8
140
2.5
141
2.5
143
0.0393700787
147
0.625
171
     3
172
     1
271
     2
272
     2
274
     3
278
    44
283
     0
284
     8
340
11
  0
DIMSTYLE
105
107
102
{ACAD_REACTORS
330
F9
330
114
330
128
330
1BC
330
1CF
102
}
330
A
100
AcDbSymbolTableRecord
100
AcDbDimStyleTableRecord
  2
SLDDIMSTYLE0
 70
     0
 41
3.0
 44
0.0
 73
     0
 74
     0
 77
     3
 78
    12
140
3.5
147
0.875
173
     1
271
     1
272
     3
284
    12
340
37
341
108
343
108
344
108
  0
ENDTAB
  0
TABLE
  2
BLOCK_RECORD
  5
1
330
0
100
AcDbSymbolTable
 70
     8
  0
BLOCK_RECORD
  5
1F
330
1
100
AcDbSymbolTableRecord
100
AcDbBlockTableRecord
  2
*Model_Space
340
22
  0
BLOCK_RECORD
  5
1B
330
1
100
AcDbSymbolTableRecord
100
AcDbBlockTableRecord
  2
*Paper_Space
340
1E
  0
BLOCK_RECORD
  5
23
330
1
100
AcDbSymbolTableRecord
100
AcDbBlockTableRecord
  2
*Paper_Space0
340
26
  0
BLOCK_RECORD
  5
3B
330
1
100
AcDbSymbolTableRecord
100
AcDbBlockTableRecord
  2
SW_TABLEANNOTATION_0
340
0
102
{BLKREFS
331
66
102
}
  0
BLOCK_RECORD
  5
FB
330
1
100
AcDbSymbolTableRecord
100
AcDbBlockTableRecord
  2
*D2
340
0
  0
BLOCK_RECORD
  5
108
330
1
100
AcDbSymbolTableRecord
100
AcDbBlockTableRecord
  2
_Open30
340
0
102
{BLKREFS
331
100
331
FF
331
10E
331
10F
331
11A
331
119
331
122
331
123
331
12E
331
12D
331
136
331
137
331
1C2
331
1C1
331
1C9
331
1CA
331
1D5
331
1D4
331
1DC
331
1DD
102
}
  0
BLOCK_RECORD
  5
115
330
1
100
AcDbSymbolTableRecord
100
AcDbBlockTableRecord
  2
*D4
340
0
  0
BLOCK_RECORD
  5
129
330
1
100
AcDbSymbolTableRecord
100
AcDbBlockTableRecord
  2
*D5
340
0
  0
BLOCK_RECORD
  5
1BD
330
1
100
AcDbSymbolTableRecord
100
AcDbBlockTableRecord
  2
*D6
340
0
  0
BLOCK_RECORD
  5
1D0
330
1
100
AcDbSymbolTableRecord
100
AcDbBlockTableRecord
  2
*D7
340
0
  0
ENDTAB
  0
ENDSEC
  0
SECTION
  2
BLOCKS
  0
BLOCK
  5
20
330
1F
100
AcDbEntity
  8
0
100
AcDbBlockBegin
  2
*Model_Space
 70
     0
 71
     0
 10
0.0
 20
0.0
 30
0.0
  3
*Model_Space
  1

  0
ENDBLK
  5
21
330
1F
100
AcDbEntity
  8
0
100
AcDbBlockEnd
  0
BLOCK
  5
1C
330
1B
100
AcDbEntity
 67
     1
  8
0
100
AcDbBlockBegin
  2
*Paper_Space
 70
     0
 71
     0
 10
0.0
 20
0.0
 30
0.0
  3
*Paper_Space
  1

  0
ENDBLK
  5
1D
330
1B
100
AcDbEntity
 67
     1
  8
0
100
AcDbBlockEnd
  0
BLOCK
  5
24
330
23
100
AcDbEntity
  8
0
100
AcDbBlockBegin
  2
*Paper_Space0
 70
     0
 71
     0
 10
0.0
 20
0.0
 30
0.0
  3
*Paper_Space0
  1

  0
ENDBLK
  5
25
330
23
100
AcDbEntity
  8
0
100
AcDbBlockEnd
  0
BLOCK
  5
3C
330
3B
100
AcDbEntity
  8
0
100
AcDbBlockBegin
  2
SW_TABLEANNOTATION_0
 70
     0
 71
     0
 10
0.0
 20
0.0
 30
0.0
  3
SW_TABLEANNOTATION_0
  1

  0
LINE
  5
3E
330
3B
100
AcDbEntity
  8
0
  6
Continuous
 62
     7
370
     0
100
AcDbLine
 10
0.0
 20
0.0
 30
0.0
 11
0.0
 21
-30.48
 31
0.0
  0
LINE
  5
3F
330
3B
100
AcDbEntity
  8
0
  6
Continuous
 62
     7
370
     0
100
AcDbLine
 10
0.0
 20
-30.48
 30
0.0
 11
144.4884478989
 21
-30.48
 31
0.0
  0
LINE
  5
40
330
3B
100
AcDbEntity
  8
0
  6
Continuous
 62
     7
370
     0
100
AcDbLine
 10
144.4884478989
 20
-30.48
 30
0.0
 11
144.4884478989
 21
0.0
 31
0.0
  0
LINE
  5
41
330
3B
100
AcDbEntity
  8
0
  6
Continuous
 62
     7
370
     0
100
AcDbLine
 10
144.4884478989
 20
0.0
 30
0.0
 11
0.0
 21
0.0
 31
0.0
  0
LINE
  5
42
330
3B
100
AcDbEntity
  8
0
  6
Continuous
 62
     7
370
     0
100
AcDbLine
 10
25.6617970927
 20
0.0
 30
0.0
 11
25.6617970927
 21
-5.08
 31
0.0
  0
LINE
  5
43
330
3B
100
AcDbEntity
  8
0
  6
Continuous
 62
     7
370
     0
100
AcDbLine
 10
76.0279121589
 20
0.0
 30
0.0
 11
76.0279121589
 21
-5.08
 31
0.0
  0
LINE
  5
44
330
3B
100
AcDbEntity
  8
0
  6
Continuous
 62
     7
370
     0
100
AcDbLine
 10
124.2080034544
 20
0.0
 30
0.0
 11
124.2080034544
 21
-5.08
 31
0.0
  0
LINE
  5
45
330
3B
100
AcDbEntity
  8
0
  6
Continuous
 62
     7
370
     0
100
AcDbLine
 10
25.6617970927
 20
-5.08
 30
0.0
 11
25.6617970927
 21
-30.48
 31
0.0
  0
LINE
  5
46
330
3B
100
AcDbEntity
  8
0
  6
Continuous
 62
     7
370
     0
100
AcDbLine
 10
76.0279121589
 20
-5.08
 30
0.0
 11
76.0279121589
 21
-30.48
 31
0.0
  0
LINE
  5
47
330
3B
100
AcDbEntity
  8
0
  6
Continuous
 62
     7
370
     0
100
AcDbLine
 10
124.2080034544
 20
-5.08
 30
0.0
 11
124.2080034544
 21
-30.48
 31
0.0
  0
LINE
  5
48
330
3B
100
AcDbEntity
  8
0
  6
Continuous
 62
     7
370
     0
100
AcDbLine
 10
0.0
 20
-10.16
 30
0.0
 11
144.4884478989
 21
-10.16
 31
0.0
  0
LINE
  5
49
330
3B
100
AcDbEntity
  8
0
  6
Continuous
 62
     7
370
     0
100
AcDbLine
 10
0.0
 20
-15.24
 30
0.0
 11
144.4884478989
 21
-15.24
 31
0.0
  0
LINE
  5
4A
330
3B
100
AcDbEntity
  8
0
  6
Continuous
 62
     7
370
     0
100
AcDbLine
 10
0.0
 20
-20.32
 30
0.0
 11
144.4884478989
 21
-20.32
 31
0.0
  0
LINE
  5
4B
330
3B
100
AcDbEntity
  8
0
  6
Continuous
 62
     7
370
     0
100
AcDbLine
 10
0.0
 20
-25.4
 30
0.0
 11
144.4884478989
 21
-25.4
 31
0.0
  0
LINE
  5
4C
330
3B
100
AcDbEntity
  8
0
  6
Continuous
 62
     7
370
     0
100
AcDbLine
 10
0.0
 20
-5.08
 30
0.0
 11
144.4884478989
 21
-5.08
 31
0.0
  0
MTEXT
  5
4D
330
3B
100
AcDbEntity
  8
0
  6
Continuous
 62
     7
370
     0
100
AcDbMText
 10
4.6836765564
 20
-0.9665682
 30
0.0
 40
3.5
 41
0.0
 71
     1
 72
     1
  1
部品番号
  7
SLDTEXTSTYLE0
 73
     1
 44
1.0
  0
MTEXT
  5
4E
330
3B
100
AcDbEntity
  8
0
  6
Continuous
 62
     7
370
     0
100
AcDbMText
 10
40.6608273712
 20
-0.9665682
 30
0.0
 40
3.5
 41
0.0
 71
     1
 72
     1
  1
ファイル名
  7
SLDTEXTSTYLE0
 73
     1
 44
1.0
  0
MTEXT
  5
4F
330
3B
100
AcDbEntity
  8
0
  6
Continuous
 62
     7
370
     0
100
AcDbMText
 10
96.0443468117
 20
-0.9665682
 30
0.0
 40
3.5
 41
0.0
 71
     1
 72
     1
  1
品名
  7
SLDTEXTSTYLE0
 73
     1
 44
1.0
  0
MTEXT
  5
50
330
3B
100
AcDbEntity
  8
0
  6
Continuous
 62
     7
370
     0
100
AcDbMText
 10
130.2746146817
 20
-0.9665682
 30
0.0
 40
3.5
 41
0.0
 71
     1
 72
     1
  1
個数
  7
SLDTEXTSTYLE0
 73
     1
 44
1.0
  0
MTEXT
  5
51
330
3B
100
AcDbEntity
  8
0
  6
Continuous
 62
     7
370
     0
100
AcDbMText
 10
11.8124957976
 20
-6.0465682
 30
0.0
 40
3.5
 41
0.0
 71
     1
 72
     1
  1
1
  7
SLDTEXTSTYLE0
 73
     1
 44
1.0
  0
MTEXT
  5
52
330
3B
100
AcDbEntity
  8
0
  6
Continuous
 62
     7
370
     0
100
AcDbMText
 10
38.6240202439
 20
-6.0465682
 30
0.0
 40
3.5
 41
0.0
 71
     1
 72
     1
  1
N01911-201-0
  7
SLDTEXTSTYLE0
 73
     1
 44
1.0
  0
MTEXT
  5
54
330
3B
100
AcDbEntity
  8
0
  6
Continuous
 62
     7
370
     0
100
AcDbMText
 10
85.8603172288
 20
-6.0465682
 30
0.0
 40
3.5
 41
0.0
 71
     1
 72
     1
  1
20 Connecter A
  7
SLDTEXTSTYLE1
 73
     1
 44
1.0
  0
MTEXT
  5
55
330
3B
100
AcDbEntity
  8
0
  6
Continuous
 62
     7
370
     0
100
AcDbMText
 10
133.3298229279
 20
-6.0465682
 30
0.0
 40
3.5
 41
0.0
 71
     1
 72
     1
  1
2
  7
SLDTEXTSTYLE0
 73
     1
 44
1.0
  0
MTEXT
  5
56
330
3B
100
AcDbEntity
  8
0
  6
Continuous
 62
     7
370
     0
100
AcDbMText
 10
11.8124957976
 20
-11.1265682
 30
0.0
 40
3.5
 41
0.0
 71
     1
 72
     1
  1
2
  7
SLDTEXTSTYLE0
 73
     1
 44
1.0
  0
MTEXT
  5
57
330
3B
100
AcDbEntity
  8
0
  6
Continuous
 62
     7
370
     0
100
AcDbMText
 10
38.6240202439
 20
-11.1265682
 30
0.0
 40
3.5
 41
0.0
 71
     1
 72
     1
  1
N01911-203-1
  7
SLDTEXTSTYLE0
 73
     1
 44
1.0
  0
MTEXT
  5
58
330
3B
100
AcDbEntity
  8
0
  6
Continuous
 62
     7
370
     0
100
AcDbMText
 10
85.8603172288
 20
-11.1265682
 30
0.0
 40
3.5
 41
0.0
 71
     1
 72
     1
  1
20 Connecter C
  7
SLDTEXTSTYLE1
 73
     1
 44
1.0
  0
MTEXT
  5
59
330
3B
100
AcDbEntity
  8
0
  6
Continuous
 62
     7
370
     0
100
AcDbMText
 10
133.3298229279
 20
-11.1265682
 30
0.0
 40
3.5
 41
0.0
 71
     1
 72
     1
  1
1
  7
SLDTEXTSTYLE0
 73
     1
 44
1.0
  0
MTEXT
  5
5A
330
3B
100
AcDbEntity
  8
0
  6
Continuous
 62
     7
370
     0
100
AcDbMText
 10
11.8124957976
 20
-16.2065682
 30
0.0
 40
3.5
 41
0.0
 71
     1
 72
     1
  1
3
  7
SLDTEXTSTYLE0
 73
     1
 44
1.0
  0
MTEXT
  5
5B
330
3B
100
AcDbEntity
  8
0
  6
Continuous
 62
     7
370
     0
100
AcDbMText
 10
34.5504106459
 20
-16.2065682
 30
0.0
 40
3.5
 41
0.0
 71
     1
 72
     1
  1
キャップ　ボルト
  7
SLDTEXTSTYLE0
 73
     1
 44
1.0
  0
MTEXT
  5
5C
330
3B
100
AcDbEntity
  8
0
  6
Continuous
 62
     7
370
     0
100
AcDbMText
 10
95.0259441794
 20
-16.2065682
 30
0.0
 40
3.5
 41
0.0
 71
     1
 72
     1
  1
M4x15
  7
SLDTEXTSTYLE0
 73
     1
 44
1.0
  0
MTEXT
  5
5D
330
3B
100
AcDbEntity
  8
0
  6
Continuous
 62
     7
370
     0
100
AcDbMText
 10
133.3298229279
 20
-16.2065682
 30
0.0
 40
3.5
 41
0.0
 71
     1
 72
     1
  1
8
  7
SLDTEXTSTYLE0
 73
     1
 44
1.0
  0
MTEXT
  5
5E
330
3B
100
AcDbEntity
  8
0
  6
Continuous
 62
     7
370
     0
100
AcDbMText
 10
11.8124957976
 20
-21.2865682
 30
0.0
 40
3.5
 41
0.0
 71
     1
 72
     1
  1
4
  7
SLDTEXTSTYLE0
 73
     1
 44
1.0
  0
MTEXT
  5
5F
330
3B
100
AcDbEntity
  8
0
  6
Continuous
 62
     7
370
     0
100
AcDbMText
 10
38.6240202439
 20
-21.2865682
 30
0.0
 40
3.5
 41
0.0
 71
     1
 72
     1
  1
N01914-103-0
  7
SLDTEXTSTYLE0
 73
     1
 44
1.0
  0
MTEXT
  5
60
330
3B
100
AcDbEntity
  8
0
  6
Continuous
 62
     7
370
     0
100
AcDbMText
 10
94.0075415471
 20
-21.2865682
 30
0.0
 40
3.5
 41
0.0
 71
     1
 72
     1
  1
Nut M6
  7
SLDTEXTSTYLE0
 73
     1
 44
1.0
  0
MTEXT
  5
61
330
3B
100
AcDbEntity
  8
0
  6
Continuous
 62
     7
370
     0
100
AcDbMText
 10
133.3298229279
 20
-21.2865682
 30
0.0
 40
3.5
 41
0.0
 71
     1
 72
     1
  1
2
  7
SLDTEXTSTYLE0
 73
     1
 44
1.0
  0
MTEXT
  5
62
330
3B
100
AcDbEntity
  8
0
  6
Continuous
 62
     7
370
     0
100
AcDbMText
 10
11.8124957976
 20
-26.3665682
 30
0.0
 40
3.5
 41
0.0
 71
     1
 72
     1
  1
5
  7
SLDTEXTSTYLE0
 73
     1
 44
1.0
  0
MTEXT
  5
63
330
3B
100
AcDbEntity
  8
0
  6
Continuous
 62
     7
370
     0
100
AcDbMText
 10
34.5504106459
 20
-26.3665682
 30
0.0
 40
3.5
 41
0.0
 71
     1
 72
     1
  1
キャップ　ボルト
  7
SLDTEXTSTYLE0
 73
     1
 44
1.0
  0
MTEXT
  5
64
330
3B
100
AcDbEntity
  8
0
  6
Continuous
 62
     7
370
     0
100
AcDbMText
 10
95.0259441794
 20
-26.3665682
 30
0.0
 40
3.5
 41
0.0
 71
     1
 72
     1
  1
M6x15
  7
SLDTEXTSTYLE0
 73
     1
 44
1.0
  0
MTEXT
  5
65
330
3B
100
AcDbEntity
  8
0
  6
Continuous
 62
     7
370
     0
100
AcDbMText
 10
133.3298229279
 20
-26.3665682
 30
0.0
 40
3.5
 41
0.0
 71
     1
 72
     1
  1
2
  7
SLDTEXTSTYLE0
 73
     1
 44
1.0
  0
ENDBLK
  5
3D
330
3B
100
AcDbEntity
  8
0
100
AcDbBlockEnd
  0
BLOCK
  5
105
330
FB
100
AcDbEntity
  8
0
100
AcDbBlockBegin
  2
*D2
 70
     1
 71
     0
 10
0.0
 20
0.0
 30
0.0
  3
*D2
  1

  0
INSERT
  5
10E
330
FB
100
AcDbEntity
  8
0
  6
Continuous
 62
     7
370
     0
100
AcDbBlockReference
  2
_Open30
 10
115.0288220197
 20
260.1808623312
 30
-2.8244254919
 41
3.0
 42
3.0
 50
180.0
  0
INSERT
  5
10F
330
FB
100
AcDbEntity
  8
0
  6
Continuous
 62
     7
370
     0
100
AcDbBlockReference
  2
_Open30
 10
151.0288220197
 20
260.1808623312
 30
-2.8244254919
 41
3.0
 42
3.0
 50
360.0
  0
LINE
  5
110
330
FB
100
AcDbEntity
  8
0
  6
Continuous
 62
     7
370
     0
100
AcDbLine
 10
115.0288220197
 20
242.9808498312
 30
0.0
 11
115.0288220197
 21
261.1808623312
 31
0.0
  0
LINE
  5
111
330
FB
100
AcDbEntity
  8
0
  6
Continuous
 62
     7
370
     0
100
AcDbLine
 10
151.0288220197
 20
242.9808498312
 30
0.0
 11
151.0288220197
 21
261.1808623312
 31
0.0
  0
LINE
  5
112
330
FB
100
AcDbEntity
  8
0
  6
Continuous
 62
     7
370
     0
100
AcDbLine
 10
115.0288220197
 20
260.1808623312
 30
0.0
 11
151.0288220197
 21
260.1808623312
 31
0.0
  0
MTEXT
  5
113
330
FB
100
AcDbEntity
  8
0
  6
Continuous
 62
     7
370
     0
100
AcDbMText
 10
130.9930024342
 20
264.2535893711
 30
0.0
 40
3.5
 41
0.0
 71
     1
 72
     1
  1
36
  7
SLDTEXTSTYLE0
 73
     1
 44
1.0
  0
ENDBLK
  5
106
330
FB
100
AcDbEntity
  8
0
100
AcDbBlockEnd
  0
BLOCK
  5
109
330
108
100
AcDbEntity
  8
0
100
AcDbBlockBegin
  2
_Open30
 70
     0
 71
     0
 10
0.0
 20
0.0
 30
0.0
  3
_Open30
  1

  0
LINE
  5
10B
330
108
100
AcDbEntity
  8
0
  6
ByBlock
 62
     0
370
    -2
100
AcDbLine
 10
-1.0
 20
0.267949
 30
0.0
 11
0.0
 21
0.0
 31
0.0
  0
LINE
  5
10C
330
108
100
AcDbEntity
  8
0
  6
ByBlock
 62
     0
370
    -2
100
AcDbLine
 10
0.0
 20
0.0
 30
0.0
 11
-1.0
 21
-0.267949
 31
0.0
  0
LINE
  5
10D
330
108
100
AcDbEntity
  8
0
  6
ByBlock
 62
     0
370
    -2
100
AcDbLine
 10
0.0
 20
0.0
 30
0.0
 11
-1.0
 21
0.0
 31
0.0
  0
ENDBLK
  5
10A
330
108
100
AcDbEntity
  8
0
100
AcDbBlockEnd
  0
BLOCK
  5
120
330
115
100
AcDbEntity
  8
0
100
AcDbBlockBegin
  2
*D4
 70
     1
 71
     0
 10
0.0
 20
0.0
 30
0.0
  3
*D4
  1

  0
INSERT
  5
122
330
115
100
AcDbEntity
  8
0
  6
Continuous
 62
     7
370
     0
100
AcDbBlockReference
  2
_Open30
 10
164.337917632
 20
187.4808498312
 30
-2.8244254919
 41
3.0
 42
3.0
 50
270.0
  0
INSERT
  5
123
330
115
100
AcDbEntity
  8
0
  6
Continuous
 62
     7
370
     0
100
AcDbBlockReference
  2
_Open30
 10
164.337917632
 20
241.9808498312
 30
-2.8244254919
 41
3.0
 42
3.0
 50
90.0
  0
LINE
  5
124
330
115
100
AcDbEntity
  8
0
  6
Continuous
 62
     7
370
     0
100
AcDbLine
 10
152.0288220197
 20
187.4808498312
 30
0.0
 11
165.337917632
 21
187.4808498312
 31
0.0
  0
LINE
  5
125
330
115
100
AcDbEntity
  8
0
  6
Continuous
 62
     7
370
     0
100
AcDbLine
 10
152.0288220197
 20
241.9808498312
 30
0.0
 11
165.337917632
 21
241.9808498312
 31
0.0
  0
LINE
  5
126
330
115
100
AcDbEntity
  8
0
  6
Continuous
 62
     7
370
     0
100
AcDbLine
 10
164.337917632
 20
187.4808498312
 30
0.0
 11
164.337917632
 21
241.9808498312
 31
0.0
  0
MTEXT
  5
127
330
115
100
AcDbEntity
  8
0
  6
Continuous
 62
     7
370
     0
100
AcDbMText
 10
160.2651905922
 20
210.6576410229
 30
0.0
 40
3.5
 41
0.0
 71
     1
 72
     1
  1
54.5
  7
SLDTEXTSTYLE0
 11
-1.608142872339125E-16
 21
1.0
 31
0.0
 73
     1
 44
1.0
  0
ENDBLK
  5
121
330
115
100
AcDbEntity
  8
0
100
AcDbBlockEnd
  0
BLOCK
  5
134
330
129
100
AcDbEntity
  8
0
100
AcDbBlockBegin
  2
*D5
 70
     1
 71
     0
 10
0.0
 20
0.0
 30
0.0
  3
*D5
  1

  0
INSERT
  5
136
330
129
100
AcDbEntity
  8
0
  6
Continuous
 62
     7
370
     0
100
AcDbBlockReference
  2
_Open30
 10
171.1447618884
 20
178.3808498312
 30
-2.8244254919
 41
3.0
 42
3.0
 50
270.0
  0
INSERT
  5
137
330
129
100
AcDbEntity
  8
0
  6
Continuous
 62
     7
370
     0
100
AcDbBlockReference
  2
_Open30
 10
171.1447618884
 20
241.9808498312
 30
-2.8244254919
 41
3.0
 42
3.0
 50
90.0
  0
LINE
  5
138
330
129
100
AcDbEntity
  8
0
  6
Continuous
 62
     7
370
     0
100
AcDbLine
 10
134.0288220197
 20
178.3808498312
 30
0.0
 11
172.1447618884
 21
178.3808498312
 31
0.0
  0
LINE
  5
139
330
129
100
AcDbEntity
  8
0
  6
Continuous
 62
     7
370
     0
100
AcDbLine
 10
152.0288220197
 20
241.9808498312
 30
0.0
 11
172.1447618884
 21
241.9808498312
 31
0.0
  0
LINE
  5
13A
330
129
100
AcDbEntity
  8
0
  6
Continuous
 62
     7
370
     0
100
AcDbLine
 10
171.1447618884
 20
178.3808498312
 30
0.0
 11
171.1447618884
 21
241.9808498312
 31
0.0
  0
MTEXT
  5
13B
330
129
100
AcDbEntity
  8
0
  6
Continuous
 62
     7
370
     0
100
AcDbMText
 10
167.0720348485
 20
206.1076410229
 30
0.0
 40
3.5
 41
0.0
 71
     1
 72
     1
  1
63.6
  7
SLDTEXTSTYLE0
 11
-1.608142872339125E-16
 21
1.0
 31
0.0
 73
     1
 44
1.0
  0
ENDBLK
  5
135
330
129
100
AcDbEntity
  8
0
100
AcDbBlockEnd
  0
BLOCK
  5
1C7
330
1BD
100
AcDbEntity
  8
0
100
AcDbBlockBegin
  2
*D6
 70
     1
 71
     0
 10
0.0
 20
0.0
 30
0.0
  3
*D6
  1

  0
INSERT
  5
1C9
330
1BD
100
AcDbEntity
  8
0
  6
Continuous
 62
     7
370
     0
100
AcDbBlockReference
  2
_Open30
 10
37.7563296245
 20
258.6080889032
 30
0.1
 41
3.0
 42
3.0
 50
180.0
  0
INSERT
  5
1CA
330
1BD
100
AcDbEntity
  8
0
  6
Continuous
 62
     7
370
     0
100
AcDbBlockReference
  2
_Open30
 10
76.5052056083
 20
258.6080889032
 30
0.1
 41
3.0
 42
3.0
 50
360.0
  0
LINE
  5
1CB
330
1BD
100
AcDbEntity
  8
0
  6
Continuous
 62
     7
370
     0
100
AcDbLine
 10
37.7563296245
 20
206.9808498312
 30
0.0
 11
37.7563296245
 21
259.6080889032
 31
0.0
  0
LINE
  5
1CC
330
1BD
100
AcDbEntity
  8
0
  6
Continuous
 62
     7
370
     0
100
AcDbLine
 10
76.5052056083
 20
242.9808498312
 30
0.0
 11
76.5052056083
 21
259.6080889032
 31
0.0
  0
LINE
  5
1CD
330
1BD
100
AcDbEntity
  8
0
  6
Continuous
 62
     7
370
     0
100
AcDbLine
 10
37.7563296245
 20
258.6080889032
 30
0.0
 11
76.5052056083
 21
258.6080889032
 31
0.0
  0
MTEXT
  5
1CE
330
1BD
100
AcDbEntity
  8
0
  6
Continuous
 62
     7
370
     0
100
AcDbMText
 10
53.0575588081
 20
262.6808159431
 30
0.0
 40
3.5
 41
0.0
 71
     1
 72
     1
  1
38.7
  7
SLDTEXTSTYLE0
 73
     1
 44
1.0
  0
ENDBLK
  5
1C8
330
1BD
100
AcDbEntity
  8
0
100
AcDbBlockEnd
  0
BLOCK
  5
1DA
330
1D0
100
AcDbEntity
  8
0
100
AcDbBlockBegin
  2
*D7
 70
     1
 71
     0
 10
0.0
 20
0.0
 30
0.0
  3
*D7
  1

  0
INSERT
  5
1DC
330
1D0
100
AcDbEntity
  8
0
  6
Continuous
 62
     7
370
     0
100
AcDbBlockReference
  2
_Open30
 10
37.7563296245
 20
265.2553573674
 30
0.1
 41
3.0
 42
3.0
 50
180.0
  0
INSERT
  5
1DD
330
1D0
100
AcDbEntity
  8
0
  6
Continuous
 62
     7
370
     0
100
AcDbBlockReference
  2
_Open30
 10
85.6052056083
 20
265.2553573674
 30
0.1
 41
3.0
 42
3.0
 50
360.0
  0
LINE
  5
1DE
330
1D0
100
AcDbEntity
  8
0
  6
Continuous
 62
     7
370
     0
100
AcDbLine
 10
37.7563296245
 20
198.7308498312
 30
0.0
 11
37.7563296245
 21
266.2553573674
 31
0.0
  0
LINE
  5
1DF
330
1D0
100
AcDbEntity
  8
0
  6
Continuous
 62
     7
370
     0
100
AcDbLine
 10
85.6052056083
 20
229.3808498312
 30
0.0
 11
85.6052056083
 21
266.2553573674
 31
0.0
  0
LINE
  5
1E0
330
1D0
100
AcDbEntity
  8
0
  6
Continuous
 62
     7
370
     0
100
AcDbLine
 10
37.7563296245
 20
265.2553573674
 30
0.0
 11
85.6052056083
 21
265.2553573674
 31
0.0
  0
MTEXT
  5
1E1
330
1D0
100
AcDbEntity
  8
0
  6
Continuous
 62
     7
370
     0
100
AcDbMText
 10
57.6075588081
 20
269.3280844072
 30
0.0
 40
3.5
 41
0.0
 71
     1
 72
     1
  1
47.8
  7
SLDTEXTSTYLE0
 73
     1
 44
1.0
  0
ENDBLK
  5
1DB
330
1D0
100
AcDbEntity
  8
0
100
AcDbBlockEnd
  0
ENDSEC
  0
SECTION
  2
ENTITIES
  0
LINE
  5
2F
330
1F
100
AcDbEntity
  8
0
  6
Continuous
 62
     7
370
     0
100
AcDbLine
 10
20.2604743903
 20
285.0
 30
0.0
 11
196.7604743903
 21
285.0
 31
0.0
  0
LINE
  5
30
330
1F
100
AcDbEntity
  8
0
  6
Continuous
 62
     7
370
     0
100
AcDbLine
 10
20.2604743903
 20
285.0
 30
0.0
 11
20.2604743903
 21
10.0
 31
0.0
  0
LINE
  5
31
330
1F
100
AcDbEntity
  8
0
  6
Continuous
 62
     7
370
     0
100
AcDbLine
 10
20.2604743903
 20
10.0
 30
0.0
 11
196.7604743903
 21
10.0
 31
0.0
  0
LINE
  5
32
330
1F
100
AcDbEntity
  8
0
  6
Continuous
 62
     7
370
     0
100
AcDbLine
 10
196.7604743903
 20
285.0
 30
0.0
 11
196.7604743903
 21
10.0
 31
0.0
  0
LINE
  5
33
330
1F
100
AcDbEntity
  8
0
  6
Continuous
 62
     7
370
     0
100
AcDbLine
 10
127.0104743903
 20
50.75
 30
0.0
 11
196.7604743903
 21
50.75
 31
0.0
  0
LINE
  5
34
330
1F
100
AcDbEntity
  8
0
  6
Continuous
 62
     7
370
     0
100
AcDbLine
 10
127.0104743903
 20
50.75
 30
0.0
 11
127.0104743903
 21
10.0
 31
0.0
  0
LINE
  5
35
330
1F
100
AcDbEntity
  8
0
  6
Continuous
 62
     7
370
     0
100
AcDbLine
 10
127.0104743903
 20
22.75
 30
0.0
 11
196.7604743903
 21
22.75
 31
0.0
  0
LINE
  5
36
330
1F
100
AcDbEntity
  8
0
  6
Continuous
 62
     7
370
     0
100
AcDbLine
 10
127.0104743903
 20
36.75
 30
0.0
 11
196.7604743903
 21
36.75
 31
0.0
  0
MTEXT
  5
38
330
1F
100
AcDbEntity
  8
0
  6
Continuous
 62
     7
370
     0
100
AcDbMText
 10
144.5729010273
 20
29.8861654089
 30
0.0
 40
4.2333333333
 41
0.0
 71
     1
 72
     1
  1
N01911-203_set
  7
SLDTEXTSTYLE0
 73
     1
 44
1.0
  0
MTEXT
  5
39
330
1F
100
AcDbEntity
  8
0
  6
Continuous
 62
     7
370
     0
100
AcDbMText
 10
141.7101124882
 20
43.4099790257
 30
0.0
 40
4.2333333333
 41
0.0
 71
     1
 72
     1
  1
20　コネクタセットB
  7
SLDTEXTSTYLE0
 73
     1
 44
1.0
  0
MTEXT
  5
3A
330
1F
100
AcDbEntity
  8
0
  6
Continuous
 62
     7
370
     0
100
AcDbMText
 10
155.5852055766
 20
16.2918260795
 30
0.0
 40
4.2333333333
 41
0.0
 71
     1
 72
     1
  1
131221
  7
SLDTEXTSTYLE0
 73
     1
 44
1.0
  0
INSERT
  5
66
330
1F
100
AcDbEntity
  8
0
  6
Continuous
 62
     7
370
     0
100
AcDbBlockReference
  2
SW_TABLEANNOTATION_0
 10
40.8769821529
 20
81.23
 30
0.0
  0
LINE
  5
67
330
1F
100
AcDbEntity
  8
0
  6
Continuous
 62
     7
370
    30
100
AcDbLine
 10
140.5288220197
 20
185.8808498312
 30
0.0
 11
140.5288220197
 21
187.4808498312
 31
0.0
  0
LINE
  5
68
330
1F
100
AcDbEntity
  8
0
  6
Continuous
 62
     7
370
    30
100
AcDbLine
 10
125.5288220197
 20
187.4808498312
 30
0.0
 11
125.5288220197
 21
185.8808498312
 31
0.0
  0
LINE
  5
69
330
1F
100
AcDbEntity
  8
0
  6
Continuous
 62
     7
370
    30
100
AcDbLine
 10
139.1288220197
 20
184.3808498312
 30
0.0
 11
139.1288220197
 21
185.8808498312
 31
0.0
  0
LINE
  5
6A
330
1F
100
AcDbEntity
  8
0
  6
Continuous
 62
     7
370
    30
100
AcDbLine
 10
126.9288220197
 20
185.8808498312
 30
0.0
 11
126.9288220197
 21
184.3808498312
 31
0.0
  0
LINE
  5
6B
330
1F
100
AcDbEntity
  8
0
  6
Continuous
 62
     7
370
    30
100
AcDbLine
 10
128.0288220197
 20
184.3808498312
 30
0.0
 11
128.0288220197
 21
178.9808498312
 31
0.0
  0
LINE
  5
6C
330
1F
100
AcDbEntity
  8
0
  6
Continuous
 62
     7
370
    30
100
AcDbLine
 10
138.0288220197
 20
178.9808498312
 30
0.0
 11
138.0288220197
 21
184.3808498312
 31
0.0
  0
LINE
  5
6D
330
1F
100
AcDbEntity
  8
0
  6
Continuous
 62
     7
370
    30
100
AcDbLine
 10
128.0288220197
 20
178.9808498312
 30
0.0
 11
128.6288220197
 21
178.3808498312
 31
0.0
  0
LINE
  5
6E
330
1F
100
AcDbEntity
  8
0
  6
Continuous
 62
     7
370
    30
100
AcDbLine
 10
137.4288220197
 20
178.3808498312
 30
0.0
 11
138.0288220197
 21
178.9808498312
 31
0.0
  0
LINE
  5
6F
330
1F
100
AcDbEntity
  8
0
  6
Continuous
 62
     7
370
    30
100
AcDbLine
 10
135.5288220197
 20
192.4808498312
 30
0.0
 11
135.5288220197
 21
194.5549239052
 31
0.0
  0
LINE
  5
70
330
1F
100
AcDbEntity
  8
0
  6
Continuous
 62
     7
370
    30
100
AcDbLine
 10
135.5288220197
 20
199.242313936
 30
0.0
 11
135.5288220197
 21
199.3808498312
 31
0.0
  0
LINE
  5
71
330
1F
100
AcDbEntity
  8
0
  6
Continuous
 62
     7
370
    30
100
AcDbLine
 10
130.5288220197
 20
199.3808498312
 30
0.0
 11
130.5288220197
 21
199.242313936
 31
0.0
  0
LINE
  5
72
330
1F
100
AcDbEntity
  8
0
  6
Continuous
 62
     7
370
    30
100
AcDbLine
 10
130.5288220197
 20
194.5549239052
 30
0.0
 11
130.5288220197
 21
192.4808498312
 31
0.0
  0
LINE
  5
73
330
1F
100
AcDbEntity
  8
0
  6
Continuous
 62
     7
370
    30
100
AcDbLine
 10
143.5288220197
 20
187.4808498312
 30
0.0
 11
143.5288220197
 21
185.8808498312
 31
0.0
  0
LINE
  5
74
330
1F
100
AcDbEntity
  8
0
  6
Continuous
 62
     7
370
    30
100
AcDbLine
 10
150.5288220197
 20
185.8808498312
 30
0.0
 11
150.5288220197
 21
187.4808498312
 31
0.0
  0
LINE
  5
75
330
1F
100
AcDbEntity
  8
0
  6
Continuous
 62
     7
370
    30
100
AcDbLine
 10
143.5288220197
 20
185.8808498312
 30
0.0
 11
143.9288220197
 21
185.4808498312
 31
0.0
  0
LINE
  5
76
330
1F
100
AcDbEntity
  8
0
  6
Continuous
 62
     7
370
    30
100
AcDbLine
 10
150.1288220197
 20
185.4808498312
 30
0.0
 11
150.5288220197
 21
185.8808498312
 31
0.0
  0
LINE
  5
77
330
1F
100
AcDbEntity
  8
0
  6
Continuous
 62
     7
370
    30
100
AcDbLine
 10
148.6788220197
 20
197.7308498312
 30
0.0
 11
148.6788220197
 21
198.7308498312
 31
0.0
  0
LINE
  5
78
330
1F
100
AcDbEntity
  8
0
  6
Continuous
 62
     7
370
    30
100
AcDbLine
 10
145.3788220197
 20
198.7308498312
 30
0.0
 11
145.3788220197
 21
197.7308498312
 31
0.0
  0
LINE
  5
79
330
1F
100
AcDbEntity
  8
0
  6
Continuous
 62
     7
370
    30
100
AcDbLine
 10
115.5288220197
 20
187.4808498312
 30
0.0
 11
115.5288220197
 21
185.8808498312
 31
0.0
  0
LINE
  5
7A
330
1F
100
AcDbEntity
  8
0
  6
Continuous
 62
     7
370
    30
100
AcDbLine
 10
122.5288220197
 20
185.8808498312
 30
0.0
 11
122.5288220197
 21
187.4808498312
 31
0.0
  0
LINE
  5
7B
330
1F
100
AcDbEntity
  8
0
  6
Continuous
 62
     7
370
    30
100
AcDbLine
 10
115.5288220197
 20
185.8808498312
 30
0.0
 11
115.9288220197
 21
185.4808498312
 31
0.0
  0
LINE
  5
7C
330
1F
100
AcDbEntity
  8
0
  6
Continuous
 62
     7
370
    30
100
AcDbLine
 10
122.1288220197
 20
185.4808498312
 30
0.0
 11
122.5288220197
 21
185.8808498312
 31
0.0
  0
LINE
  5
7D
330
1F
100
AcDbEntity
  8
0
  6
Continuous
 62
     7
370
    30
100
AcDbLine
 10
120.6788220197
 20
197.7308498312
 30
0.0
 11
120.6788220197
 21
198.7308498312
 31
0.0
  0
LINE
  5
7E
330
1F
100
AcDbEntity
  8
0
  6
Continuous
 62
     7
370
    30
100
AcDbLine
 10
117.3788220197
 20
198.7308498312
 30
0.0
 11
117.3788220197
 21
197.7308498312
 31
0.0
  0
CIRCLE
  5
7F
330
1F
100
AcDbEntity
  8
0
  6
Continuous
 62
     7
370
    30
100
AcDbCircle
 10
133.0288220197
 20
223.9808498312
 30
0.0
 40
4.399999999999968
  0
CIRCLE
  5
80
330
1F
100
AcDbEntity
  8
0
  6
Continuous
 62
     7
370
    30
100
AcDbCircle
 10
133.0288220197
 20
223.9808498312
 30
0.0
 40
4.999999999999979
  0
LINE
  5
81
330
1F
100
AcDbEntity
  8
0
  6
Continuous
 62
     7
370
    30
100
AcDbLine
 10
132.8636663926
 20
226.862872897
 30
0.0
 11
130.4503390168
 21
225.2788323954
 31
0.0
  0
LINE
  5
82
330
1F
100
AcDbEntity
  8
0
  6
Continuous
 62
     7
370
    30
100
AcDbLine
 10
130.6154946439
 20
222.3968093296
 30
0.0
 11
133.1939776468
 21
221.0988267653
 31
0.0
  0
LINE
  5
83
330
1F
100
AcDbEntity
  8
0
  6
Continuous
 62
     7
370
    30
100
AcDbLine
 10
133.1939776468
 20
221.0988267653
 30
0.0
 11
135.6073050225
 21
222.6828672669
 31
0.0
  0
LINE
  5
84
330
1F
100
AcDbEntity
  8
0
  6
Continuous
 62
     7
370
    30
100
AcDbLine
 10
135.6073050225
 20
222.6828672669
 30
0.0
 11
135.4421493954
 21
225.5648903327
 31
0.0
  0
LINE
  5
85
330
1F
100
AcDbEntity
  8
0
  6
Continuous
 62
     7
370
    30
100
AcDbLine
 10
130.4503390168
 20
225.2788323954
 30
0.0
 11
130.6154946439
 21
222.3968093296
 31
0.0
  0
LINE
  5
86
330
1F
100
AcDbEntity
  8
0
  6
Continuous
 62
     7
370
    30
100
AcDbLine
 10
135.4421493954
 20
225.5648903327
 30
0.0
 11
132.8636663926
 21
226.862872897
 31
0.0
  0
SPLINE
  5
87
330
1F
100
AcDbEntity
  8
0
  6
Continuous
 62
     7
370
    30
100
AcDbSpline
210
0.0
220
0.0
230
1.0
 70
    31
 71
     3
 72
    13
 73
     9
 74
     0
 42
0.00000001
 43
0.00000001
 40
0.0
 40
0.0
 40
0.0
 40
0.0
 40
0.3710474509679128
 40
0.648076477922978
 40
0.7552927139200817
 40
0.8455475998608608
 40
0.9244076386310322
 40
1.0
 40
1.0
 40
1.0
 40
1.0
 10
133.028822019664
 20
210.1808623311557
 30
0.0
 41
1.0
 10
133.028822019664
 20
210.1808623311557
 30
0.0
 41
1.0
 10
133.028822019664
 20
210.1808623311557
 30
0.0
 41
1.0
 10
133.028822019664
 20
210.1808623311557
 30
0.0
 41
1.0
 10
133.028822019664
 20
210.1808623311557
 30
0.0
 41
1.0
 10
133.028822019664
 20
210.1808623311557
 30
0.0
 41
1.0
 10
133.028822019664
 20
210.1808623311557
 30
0.0
 41
1.0
 10
133.028822019664
 20
210.1808623311557
 30
0.0
 41
1.0
 10
133.028822019664
 20
210.1808623311557
 30
0.0
 41
1.0
  0
SPLINE
  5
88
330
1F
100
AcDbEntity
  8
0
  6
Continuous
 62
     7
370
    30
100
AcDbSpline
210
0.0
220
0.0
230
1.0
 70
    31
 71
     3
 72
    13
 73
     9
 74
     0
 42
0.00000001
 43
0.00000001
 40
0.0
 40
0.0
 40
0.0
 40
0.0
 40
0.0755923613689679
 40
0.1544524001391394
 40
0.2447072860799186
 40
0.3519235220770221
 40
0.6289525490320873
 40
1.0
 40
1.0
 40
1.0
 40
1.0
 10
133.028822019664
 20
210.1808623311557
 30
0.0
 41
1.0
 10
133.028822019664
 20
210.1808623311557
 30
0.0
 41
1.0
 10
133.028822019664
 20
210.1808623311557
 30
0.0
 41
1.0
 10
133.028822019664
 20
210.1808623311557
 30
0.0
 41
1.0
 10
133.028822019664
 20
210.1808623311557
 30
0.0
 41
1.0
 10
133.028822019664
 20
210.1808623311557
 30
0.0
 41
1.0
 10
133.028822019664
 20
210.1808623311557
 30
0.0
 41
1.0
 10
133.028822019664
 20
210.1808623311557
 30
0.0
 41
1.0
 10
133.028822019664
 20
210.1808623311557
 30
0.0
 41
1.0
  0
SPLINE
  5
89
330
1F
100
AcDbEntity
  8
0
  6
Continuous
 62
     7
370
    30
100
AcDbSpline
210
0.0
220
0.0
230
1.0
 70
    31
 71
     3
 72
    13
 73
     9
 74
     0
 42
0.00000001
 43
0.00000001
 40
0.0
 40
0.0
 40
0.0
 40
0.0
 40
0.0755923613689679
 40
0.1544524001391393
 40
0.2447072860799184
 40
0.3519235220770221
 40
0.6289525490320872
 40
1.0
 40
1.0
 40
1.0
 40
1.0
 10
133.028822019664
 20
210.1808623311557
 30
0.0
 41
1.0
 10
133.028822019664
 20
210.1808623311557
 30
0.0
 41
1.0
 10
133.028822019664
 20
210.1808623311557
 30
0.0
 41
1.0
 10
133.028822019664
 20
210.1808623311557
 30
0.0
 41
1.0
 10
133.028822019664
 20
210.1808623311557
 30
0.0
 41
1.0
 10
133.028822019664
 20
210.1808623311557
 30
0.0
 41
1.0
 10
133.028822019664
 20
210.1808623311557
 30
0.0
 41
1.0
 10
133.028822019664
 20
210.1808623311557
 30
0.0
 41
1.0
 10
133.028822019664
 20
210.1808623311557
 30
0.0
 41
1.0
  0
SPLINE
  5
8A
330
1F
100
AcDbEntity
  8
0
  6
Continuous
 62
     7
370
    30
100
AcDbSpline
210
0.0
220
0.0
230
1.0
 70
    31
 71
     3
 72
    13
 73
     9
 74
     0
 42
0.00000001
 43
0.00000001
 40
0.0
 40
0.0
 40
0.0
 40
0.0
 40
0.075592361368967
 40
0.1544524001391391
 40
0.244707286079918
 40
0.3519235220770218
 40
0.6289525490320873
 40
1.0
 40
1.0
 40
1.0
 40
1.0
 10
133.028822019664
 20
210.1808623311557
 30
0.0
 41
1.0
 10
133.028822019664
 20
210.1808623311557
 30
0.0
 41
1.0
 10
133.028822019664
 20
210.1808623311557
 30
0.0
 41
1.0
 10
133.028822019664
 20
210.1808623311557
 30
0.0
 41
1.0
 10
133.028822019664
 20
210.1808623311557
 30
0.0
 41
1.0
 10
133.028822019664
 20
210.1808623311557
 30
0.0
 41
1.0
 10
133.028822019664
 20
210.1808623311557
 30
0.0
 41
1.0
 10
133.028822019664
 20
210.1808623311557
 30
0.0
 41
1.0
 10
133.028822019664
 20
210.1808623311557
 30
0.0
 41
1.0
  0
SPLINE
  5
8B
330
1F
100
AcDbEntity
  8
0
  6
Continuous
 62
     7
370
    30
100
AcDbSpline
210
0.0
220
0.0
230
1.0
 70
    31
 71
     3
 72
    13
 73
     9
 74
     0
 42
0.00000001
 43
0.00000001
 40
0.0
 40
0.0
 40
0.0
 40
0.0
 40
0.0755923613689669
 40
0.1544524001391392
 40
0.2447072860799178
 40
0.3519235220770219
 40
0.6289525490320873
 40
1.0
 40
1.0
 40
1.0
 40
1.0
 10
133.028822019664
 20
210.1808623311557
 30
0.0
 41
1.0
 10
133.028822019664
 20
210.1808623311557
 30
0.0
 41
1.0
 10
133.028822019664
 20
210.1808623311557
 30
0.0
 41
1.0
 10
133.028822019664
 20
210.1808623311557
 30
0.0
 41
1.0
 10
133.028822019664
 20
210.1808623311557
 30
0.0
 41
1.0
 10
133.028822019664
 20
210.1808623311557
 30
0.0
 41
1.0
 10
133.028822019664
 20
210.1808623311557
 30
0.0
 41
1.0
 10
133.028822019664
 20
210.1808623311557
 30
0.0
 41
1.0
 10
133.028822019664
 20
210.1808623311557
 30
0.0
 41
1.0
  0
SPLINE
  5
8C
330
1F
100
AcDbEntity
  8
0
  6
Continuous
 62
     7
370
    30
100
AcDbSpline
210
0.0
220
0.0
230
1.0
 70
    31
 71
     3
 72
    13
 73
     9
 74
     0
 42
0.00000001
 43
0.00000001
 40
0.0
 40
0.0
 40
0.0
 40
0.0
 40
0.0755923613689679
 40
0.1544524001391393
 40
0.2447072860799187
 40
0.351923522077022
 40
0.6289525490320875
 40
1.0
 40
1.0
 40
1.0
 40
1.0
 10
133.028822019664
 20
210.1808623311557
 30
0.0
 41
1.0
 10
133.028822019664
 20
210.1808623311557
 30
0.0
 41
1.0
 10
133.028822019664
 20
210.1808623311557
 30
0.0
 41
1.0
 10
133.028822019664
 20
210.1808623311557
 30
0.0
 41
1.0
 10
133.028822019664
 20
210.1808623311557
 30
0.0
 41
1.0
 10
133.028822019664
 20
210.1808623311557
 30
0.0
 41
1.0
 10
133.028822019664
 20
210.1808623311557
 30
0.0
 41
1.0
 10
133.028822019664
 20
210.1808623311557
 30
0.0
 41
1.0
 10
133.028822019664
 20
210.1808623311557
 30
0.0
 41
1.0
  0
CIRCLE
  5
8D
330
1F
100
AcDbEntity
  8
0
  6
Continuous
 62
     7
370
    30
100
AcDbCircle
 10
133.0288220197
 20
223.9808498312
 30
0.0
 40
6.100000000000019
  0
CIRCLE
  5
8E
330
1F
100
AcDbEntity
  8
0
  6
Continuous
 62
     7
370
    30
100
AcDbCircle
 10
133.0288220197
 20
223.9808498312
 30
0.0
 40
7.500000000000024
  0
LINE
  5
8F
330
1F
100
AcDbEntity
  8
0
  6
Continuous
 62
     7
370
    30
100
AcDbLine
 10
125.5288220197
 20
185.8808498312
 30
0.0
 11
140.5288220197
 21
185.8808498312
 31
0.0
  0
LINE
  5
90
330
1F
100
AcDbEntity
  8
0
  6
Continuous
 62
     7
370
    30
100
AcDbLine
 10
126.9288220197
 20
184.3808498312
 30
0.0
 11
139.1288220197
 21
184.3808498312
 31
0.0
  0
LINE
  5
91
330
1F
100
AcDbEntity
  8
0
  6
Continuous
 62
     7
370
    30
100
AcDbLine
 10
133.0288220197
 20
178.9808498312
 30
0.0
 11
138.0288220197
 21
178.9808498312
 31
0.0
  0
LINE
  5
92
330
1F
100
AcDbEntity
  8
0
  6
Continuous
 62
     7
370
    30
100
AcDbLine
 10
128.0288220197
 20
178.9808498312
 30
0.0
 11
133.0288220197
 21
178.9808498312
 31
0.0
  0
LINE
  5
93
330
1F
100
AcDbEntity
  8
0
  6
Continuous
 62
     7
370
    30
100
AcDbLine
 10
133.0288220197
 20
178.3808498312
 30
0.0
 11
128.6288220197
 21
178.3808498312
 31
0.0
  0
LINE
  5
94
330
1F
100
AcDbEntity
  8
0
  6
Continuous
 62
     7
370
    30
100
AcDbLine
 10
137.4288220197
 20
178.3808498312
 30
0.0
 11
133.0288220197
 21
178.3808498312
 31
0.0
  0
LINE
  5
95
330
1F
100
AcDbEntity
  8
0
  6
Continuous
 62
     7
370
    30
100
AcDbLine
 10
130.5288220197
 20
199.3808498312
 30
0.0
 11
130.6534042043
 21
199.3808498312
 31
0.0
  0
LINE
  5
96
330
1F
100
AcDbEntity
  8
0
  6
Continuous
 62
     7
370
    30
100
AcDbLine
 10
135.3979921685
 20
199.3808498312
 30
0.0
 11
135.5288220197
 21
199.3808498312
 31
0.0
  0
LINE
  5
97
330
1F
100
AcDbEntity
  8
0
  6
Continuous
 62
     7
370
    30
100
AcDbLine
 10
135.7288220197
 20
194.4808498312
 30
0.0
 11
133.0288220197
 21
195.4808498312
 31
0.0
  0
LINE
  5
98
330
1F
100
AcDbEntity
  8
0
  6
Continuous
 62
     7
370
    30
100
AcDbLine
 10
133.0288220197
 20
195.4808498312
 30
0.0
 11
130.3288220197
 21
194.4808498312
 31
0.0
  0
LINE
  5
99
330
1F
100
AcDbEntity
  8
0
  6
Continuous
 62
     7
370
    30
100
AcDbLine
 10
130.3288220197
 20
194.4808498312
 30
0.0
 11
128.2788220197
 21
194.4808498312
 31
0.0
  0
LINE
  5
9A
330
1F
100
AcDbEntity
  8
0
  6
Continuous
 62
     7
370
    30
100
AcDbLine
 10
127.7788220197
 20
194.9808498312
 30
0.0
 11
128.2788220197
 21
194.4808498312
 31
0.0
  0
LINE
  5
9B
330
1F
100
AcDbEntity
  8
0
  6
Continuous
 62
     7
370
    30
100
AcDbLine
 10
127.7788220197
 20
194.9808498312
 30
0.0
 11
127.7788220197
 21
195.2008498312
 31
0.0
  0
ARC
  5
9C
330
1F
100
AcDbEntity
  8
0
  6
Continuous
 62
     7
370
    30
100
AcDbCircle
 10
133.0288220197
 20
198.8808498312
 30
0.0
 40
2.000000000000002
100
AcDbArc
 50
48.9294926098
 51
131.0705073902
  0
ARC
  5
9D
330
1F
100
AcDbEntity
  8
0
  6
Continuous
 62
     7
370
    30
100
AcDbCircle
 10
123.8310002798
 20
188.3262264252
 30
0.0
 40
16.0
100
AcDbArc
 50
25.4462362754
 51
48.9294926098
  0
LINE
  5
9E
330
1F
100
AcDbEntity
  8
0
  6
Continuous
 62
     7
370
    30
100
AcDbLine
 10
138.2788220197
 20
195.2008498312
 30
0.0
 11
138.2788220197
 21
194.9808498312
 31
0.0
  0
LINE
  5
9F
330
1F
100
AcDbEntity
  8
0
  6
Continuous
 62
     7
370
    30
100
AcDbLine
 10
137.7788220197
 20
194.4808498312
 30
0.0
 11
138.2788220197
 21
194.9808498312
 31
0.0
  0
LINE
  5
A0
330
1F
100
AcDbEntity
  8
0
  6
Continuous
 62
     7
370
    30
100
AcDbLine
 10
137.7788220197
 20
194.4808498312
 30
0.0
 11
135.7288220197
 21
194.4808498312
 31
0.0
  0
ARC
  5
A1
330
1F
100
AcDbEntity
  8
0
  6
Continuous
 62
     7
370
    30
100
AcDbCircle
 10
142.2266437595
 20
188.3262264252
 30
0.0
 40
16.00000000000002
100
AcDbArc
 50
131.0705073902
 51
154.5537637246
  0
LINE
  5
A2
330
1F
100
AcDbEntity
  8
0
  6
Continuous
 62
     7
370
    30
100
AcDbLine
 10
147.0288220197
 20
239.7129006387
 30
0.0
 11
145.5288220197
 21
238.8468752349
 31
0.0
  0
LINE
  5
A3
330
1F
100
AcDbEntity
  8
0
  6
Continuous
 62
     7
370
    30
100
AcDbLine
 10
145.5288220197
 20
238.8468752349
 30
0.0
 11
145.5288220197
 21
237.1148244274
 31
0.0
  0
LINE
  5
A4
330
1F
100
AcDbEntity
  8
0
  6
Continuous
 62
     7
370
    30
100
AcDbLine
 10
145.5288220197
 20
237.1148244274
 30
0.0
 11
147.0288220197
 21
236.2487990236
 31
0.0
  0
LINE
  5
A5
330
1F
100
AcDbEntity
  8
0
  6
Continuous
 62
     7
370
    30
100
AcDbLine
 10
148.5288220197
 20
238.8468752349
 30
0.0
 11
147.0288220197
 21
239.7129006387
 31
0.0
  0
CIRCLE
  5
A6
330
1F
100
AcDbEntity
  8
0
  6
Continuous
 62
     7
370
    30
100
AcDbCircle
 10
147.0288220197
 20
237.9808498312
 30
0.0
 40
3.100000000000023
  0
LINE
  5
A7
330
1F
100
AcDbEntity
  8
0
  6
Continuous
 62
     7
370
    30
100
AcDbLine
 10
148.5288220197
 20
237.1148244274
 30
0.0
 11
148.5288220197
 21
238.8468752349
 31
0.0
  0
LINE
  5
A8
330
1F
100
AcDbEntity
  8
0
  6
Continuous
 62
     7
370
    30
100
AcDbLine
 10
147.0288220197
 20
236.2487990236
 30
0.0
 11
148.5288220197
 21
237.1148244274
 31
0.0
  0
CIRCLE
  5
A9
330
1F
100
AcDbEntity
  8
0
  6
Continuous
 62
     7
370
    30
100
AcDbCircle
 10
147.0288220197
 20
237.9808498312
 30
0.0
 40
3.5
  0
SPLINE
  5
AA
330
1F
100
AcDbEntity
  8
0
  6
Continuous
 62
     7
370
    30
100
AcDbSpline
210
0.0
220
0.0
230
1.0
 70
    31
 71
     3
 72
    12
 73
     8
 74
     0
 42
0.00000001
 43
0.00000001
 40
0.0
 40
0.0
 40
0.0
 40
0.0
 40
0.1578339819861596
 40
0.307918552245899
 40
0.4720448878553867
 40
0.706219966364933
 40
1.0
 40
1.0
 40
1.0
 40
1.0
 10
133.028822019664
 20
210.1808623311557
 30
0.0
 41
1.0
 10
133.028822019664
 20
210.1808623311557
 30
0.0
 41
1.0
 10
133.028822019664
 20
210.1808623311557
 30
0.0
 41
1.0
 10
133.028822019664
 20
210.1808623311557
 30
0.0
 41
1.0
 10
133.028822019664
 20
210.1808623311557
 30
0.0
 41
1.0
 10
133.028822019664
 20
210.1808623311557
 30
0.0
 41
1.0
 10
133.028822019664
 20
210.1808623311557
 30
0.0
 41
1.0
 10
133.028822019664
 20
210.1808623311557
 30
0.0
 41
1.0
  0
SPLINE
  5
AB
330
1F
100
AcDbEntity
  8
0
  6
Continuous
 62
     7
370
    30
100
AcDbSpline
210
0.0
220
0.0
230
1.0
 70
    31
 71
     3
 72
    12
 73
     8
 74
     0
 42
0.00000001
 43
0.00000001
 40
0.0
 40
0.0
 40
0.0
 40
0.0
 40
0.1578339819861586
 40
0.3079185522458979
 40
0.4720448878553859
 40
0.706219966364933
 40
1.0
 40
1.0
 40
1.0
 40
1.0
 10
133.028822019664
 20
210.1808623311557
 30
0.0
 41
1.0
 10
133.028822019664
 20
210.1808623311557
 30
0.0
 41
1.0
 10
133.028822019664
 20
210.1808623311557
 30
0.0
 41
1.0
 10
133.028822019664
 20
210.1808623311557
 30
0.0
 41
1.0
 10
133.028822019664
 20
210.1808623311557
 30
0.0
 41
1.0
 10
133.028822019664
 20
210.1808623311557
 30
0.0
 41
1.0
 10
133.028822019664
 20
210.1808623311557
 30
0.0
 41
1.0
 10
133.028822019664
 20
210.1808623311557
 30
0.0
 41
1.0
  0
SPLINE
  5
AC
330
1F
100
AcDbEntity
  8
0
  6
Continuous
 62
     7
370
    30
100
AcDbSpline
210
0.0
220
0.0
230
1.0
 70
    31
 71
     3
 72
    12
 73
     8
 74
     0
 42
0.00000001
 43
0.00000001
 40
0.0
 40
0.0
 40
0.0
 40
0.0
 40
0.1578339819861601
 40
0.3079185522458989
 40
0.4720448878553865
 40
0.7062199663649327
 40
1.0
 40
1.0
 40
1.0
 40
1.0
 10
133.028822019664
 20
210.1808623311557
 30
0.0
 41
1.0
 10
133.028822019664
 20
210.1808623311557
 30
0.0
 41
1.0
 10
133.028822019664
 20
210.1808623311557
 30
0.0
 41
1.0
 10
133.028822019664
 20
210.1808623311557
 30
0.0
 41
1.0
 10
133.028822019664
 20
210.1808623311557
 30
0.0
 41
1.0
 10
133.028822019664
 20
210.1808623311557
 30
0.0
 41
1.0
 10
133.028822019664
 20
210.1808623311557
 30
0.0
 41
1.0
 10
133.028822019664
 20
210.1808623311557
 30
0.0
 41
1.0
  0
SPLINE
  5
AD
330
1F
100
AcDbEntity
  8
0
  6
Continuous
 62
     7
370
    30
100
AcDbSpline
210
0.0
220
0.0
230
1.0
 70
    31
 71
     3
 72
    12
 73
     8
 74
     0
 42
0.00000001
 43
0.00000001
 40
0.0
 40
0.0
 40
0.0
 40
0.0
 40
0.2535800112142792
 40
0.4629716884325441
 40
0.6367310248286058
 40
0.815721460434079
 40
1.0
 40
1.0
 40
1.0
 40
1.0
 10
133.028822019664
 20
210.1808623311557
 30
0.0
 41
1.0
 10
133.028822019664
 20
210.1808623311557
 30
0.0
 41
1.0
 10
133.028822019664
 20
210.1808623311557
 30
0.0
 41
1.0
 10
133.028822019664
 20
210.1808623311557
 30
0.0
 41
1.0
 10
133.028822019664
 20
210.1808623311557
 30
0.0
 41
1.0
 10
133.028822019664
 20
210.1808623311557
 30
0.0
 41
1.0
 10
133.028822019664
 20
210.1808623311557
 30
0.0
 41
1.0
 10
133.028822019664
 20
210.1808623311557
 30
0.0
 41
1.0
  0
SPLINE
  5
AE
330
1F
100
AcDbEntity
  8
0
  6
Continuous
 62
     7
370
    30
100
AcDbSpline
210
0.0
220
0.0
230
1.0
 70
    31
 71
     3
 72
    12
 73
     8
 74
     0
 42
0.00000001
 43
0.00000001
 40
0.0
 40
0.0
 40
0.0
 40
0.0
 40
0.1578339819861586
 40
0.3079185522458979
 40
0.4720448878553865
 40
0.706219966364933
 40
1.0
 40
1.0
 40
1.0
 40
1.0
 10
133.028822019664
 20
210.1808623311557
 30
0.0
 41
1.0
 10
133.028822019664
 20
210.1808623311557
 30
0.0
 41
1.0
 10
133.028822019664
 20
210.1808623311557
 30
0.0
 41
1.0
 10
133.028822019664
 20
210.1808623311557
 30
0.0
 41
1.0
 10
133.028822019664
 20
210.1808623311557
 30
0.0
 41
1.0
 10
133.028822019664
 20
210.1808623311557
 30
0.0
 41
1.0
 10
133.028822019664
 20
210.1808623311557
 30
0.0
 41
1.0
 10
133.028822019664
 20
210.1808623311557
 30
0.0
 41
1.0
  0
SPLINE
  5
AF
330
1F
100
AcDbEntity
  8
0
  6
Continuous
 62
     7
370
    30
100
AcDbSpline
210
0.0
220
0.0
230
1.0
 70
    31
 71
     3
 72
    12
 73
     8
 74
     0
 42
0.00000001
 43
0.00000001
 40
0.0
 40
0.0
 40
0.0
 40
0.0
 40
0.1578339819861585
 40
0.307918552245898
 40
0.4720448878553859
 40
0.7062199663649331
 40
1.0
 40
1.0
 40
1.0
 40
1.0
 10
133.028822019664
 20
210.1808623311557
 30
0.0
 41
1.0
 10
133.028822019664
 20
210.1808623311557
 30
0.0
 41
1.0
 10
133.028822019664
 20
210.1808623311557
 30
0.0
 41
1.0
 10
133.028822019664
 20
210.1808623311557
 30
0.0
 41
1.0
 10
133.028822019664
 20
210.1808623311557
 30
0.0
 41
1.0
 10
133.028822019664
 20
210.1808623311557
 30
0.0
 41
1.0
 10
133.028822019664
 20
210.1808623311557
 30
0.0
 41
1.0
 10
133.028822019664
 20
210.1808623311557
 30
0.0
 41
1.0
  0
LINE
  5
B0
330
1F
100
AcDbEntity
  8
0
  6
Continuous
 62
     7
370
    30
100
AcDbLine
 10
147.0288220197
 20
185.8808498312
 30
0.0
 11
150.5288220197
 21
185.8808498312
 31
0.0
  0
LINE
  5
B1
330
1F
100
AcDbEntity
  8
0
  6
Continuous
 62
     7
370
    30
100
AcDbLine
 10
143.5288220197
 20
185.8808498312
 30
0.0
 11
147.0288220197
 21
185.8808498312
 31
0.0
  0
LINE
  5
B2
330
1F
100
AcDbEntity
  8
0
  6
Continuous
 62
     7
370
    30
100
AcDbLine
 10
147.0288220197
 20
185.4808498312
 30
0.0
 11
143.9288220197
 21
185.4808498312
 31
0.0
  0
LINE
  5
B3
330
1F
100
AcDbEntity
  8
0
  6
Continuous
 62
     7
370
    30
100
AcDbLine
 10
150.1288220197
 20
185.4808498312
 30
0.0
 11
147.0288220197
 21
185.4808498312
 31
0.0
  0
CIRCLE
  5
B4
330
1F
100
AcDbEntity
  8
0
  6
Continuous
 62
     7
370
    30
100
AcDbCircle
 10
119.0288220197
 20
237.9808498312
 30
0.0
 40
3.100000000000023
  0
CIRCLE
  5
B5
330
1F
100
AcDbEntity
  8
0
  6
Continuous
 62
     7
370
    30
100
AcDbCircle
 10
119.0288220197
 20
237.9808498312
 30
0.0
 40
3.5
  0
LINE
  5
B6
330
1F
100
AcDbEntity
  8
0
  6
Continuous
 62
     7
370
    30
100
AcDbLine
 10
119.0288220197
 20
239.7129006387
 30
0.0
 11
117.5288220197
 21
238.8468752349
 31
0.0
  0
LINE
  5
B7
330
1F
100
AcDbEntity
  8
0
  6
Continuous
 62
     7
370
    30
100
AcDbLine
 10
117.5288220197
 20
238.8468752349
 30
0.0
 11
117.5288220197
 21
237.1148244274
 31
0.0
  0
LINE
  5
B8
330
1F
100
AcDbEntity
  8
0
  6
Continuous
 62
     7
370
    30
100
AcDbLine
 10
117.5288220197
 20
237.1148244274
 30
0.0
 11
119.0288220197
 21
236.2487990236
 31
0.0
  0
LINE
  5
B9
330
1F
100
AcDbEntity
  8
0
  6
Continuous
 62
     7
370
    30
100
AcDbLine
 10
119.0288220197
 20
236.2487990236
 30
0.0
 11
120.5288220197
 21
237.1148244274
 31
0.0
  0
LINE
  5
BA
330
1F
100
AcDbEntity
  8
0
  6
Continuous
 62
     7
370
    30
100
AcDbLine
 10
120.5288220197
 20
237.1148244274
 30
0.0
 11
120.5288220197
 21
238.8468752349
 31
0.0
  0
LINE
  5
BB
330
1F
100
AcDbEntity
  8
0
  6
Continuous
 62
     7
370
    30
100
AcDbLine
 10
120.5288220197
 20
238.8468752349
 30
0.0
 11
119.0288220197
 21
239.7129006387
 31
0.0
  0
SPLINE
  5
BC
330
1F
100
AcDbEntity
  8
0
  6
Continuous
 62
     7
370
    30
100
AcDbSpline
210
0.0
220
0.0
230
1.0
 70
    31
 71
     3
 72
    12
 73
     8
 74
     0
 42
0.00000001
 43
0.00000001
 40
0.0
 40
0.0
 40
0.0
 40
0.0
 40
0.1578339819861596
 40
0.307918552245899
 40
0.4720448878553867
 40
0.706219966364933
 40
1.0
 40
1.0
 40
1.0
 40
1.0
 10
133.028822019664
 20
210.1808623311557
 30
0.0
 41
1.0
 10
133.028822019664
 20
210.1808623311557
 30
0.0
 41
1.0
 10
133.028822019664
 20
210.1808623311557
 30
0.0
 41
1.0
 10
133.028822019664
 20
210.1808623311557
 30
0.0
 41
1.0
 10
133.028822019664
 20
210.1808623311557
 30
0.0
 41
1.0
 10
133.028822019664
 20
210.1808623311557
 30
0.0
 41
1.0
 10
133.028822019664
 20
210.1808623311557
 30
0.0
 41
1.0
 10
133.028822019664
 20
210.1808623311557
 30
0.0
 41
1.0
  0
SPLINE
  5
BD
330
1F
100
AcDbEntity
  8
0
  6
Continuous
 62
     7
370
    30
100
AcDbSpline
210
0.0
220
0.0
230
1.0
 70
    31
 71
     3
 72
    12
 73
     8
 74
     0
 42
0.00000001
 43
0.00000001
 40
0.0
 40
0.0
 40
0.0
 40
0.0
 40
0.1578339819861586
 40
0.3079185522458979
 40
0.4720448878553859
 40
0.706219966364933
 40
1.0
 40
1.0
 40
1.0
 40
1.0
 10
133.028822019664
 20
210.1808623311557
 30
0.0
 41
1.0
 10
133.028822019664
 20
210.1808623311557
 30
0.0
 41
1.0
 10
133.028822019664
 20
210.1808623311557
 30
0.0
 41
1.0
 10
133.028822019664
 20
210.1808623311557
 30
0.0
 41
1.0
 10
133.028822019664
 20
210.1808623311557
 30
0.0
 41
1.0
 10
133.028822019664
 20
210.1808623311557
 30
0.0
 41
1.0
 10
133.028822019664
 20
210.1808623311557
 30
0.0
 41
1.0
 10
133.028822019664
 20
210.1808623311557
 30
0.0
 41
1.0
  0
SPLINE
  5
BE
330
1F
100
AcDbEntity
  8
0
  6
Continuous
 62
     7
370
    30
100
AcDbSpline
210
0.0
220
0.0
230
1.0
 70
    31
 71
     3
 72
    12
 73
     8
 74
     0
 42
0.00000001
 43
0.00000001
 40
0.0
 40
0.0
 40
0.0
 40
0.0
 40
0.1578339819861597
 40
0.307918552245899
 40
0.4720448878553866
 40
0.7062199663649336
 40
1.0
 40
1.0
 40
1.0
 40
1.0
 10
133.028822019664
 20
210.1808623311557
 30
0.0
 41
1.0
 10
133.028822019664
 20
210.1808623311557
 30
0.0
 41
1.0
 10
133.028822019664
 20
210.1808623311557
 30
0.0
 41
1.0
 10
133.028822019664
 20
210.1808623311557
 30
0.0
 41
1.0
 10
133.028822019664
 20
210.1808623311557
 30
0.0
 41
1.0
 10
133.028822019664
 20
210.1808623311557
 30
0.0
 41
1.0
 10
133.028822019664
 20
210.1808623311557
 30
0.0
 41
1.0
 10
133.028822019664
 20
210.1808623311557
 30
0.0
 41
1.0
  0
SPLINE
  5
BF
330
1F
100
AcDbEntity
  8
0
  6
Continuous
 62
     7
370
    30
100
AcDbSpline
210
0.0
220
0.0
230
1.0
 70
    31
 71
     3
 72
    12
 73
     8
 74
     0
 42
0.00000001
 43
0.00000001
 40
0.0
 40
0.0
 40
0.0
 40
0.0
 40
0.1578339819861585
 40
0.3079185522458979
 40
0.4720448878553857
 40
0.7062199663649333
 40
1.0
 40
1.0
 40
1.0
 40
1.0
 10
133.028822019664
 20
210.1808623311557
 30
0.0
 41
1.0
 10
133.028822019664
 20
210.1808623311557
 30
0.0
 41
1.0
 10
133.028822019664
 20
210.1808623311557
 30
0.0
 41
1.0
 10
133.028822019664
 20
210.1808623311557
 30
0.0
 41
1.0
 10
133.028822019664
 20
210.1808623311557
 30
0.0
 41
1.0
 10
133.028822019664
 20
210.1808623311557
 30
0.0
 41
1.0
 10
133.028822019664
 20
210.1808623311557
 30
0.0
 41
1.0
 10
133.028822019664
 20
210.1808623311557
 30
0.0
 41
1.0
  0
SPLINE
  5
C0
330
1F
100
AcDbEntity
  8
0
  6
Continuous
 62
     7
370
    30
100
AcDbSpline
210
0.0
220
0.0
230
1.0
 70
    31
 71
     3
 72
    12
 73
     8
 74
     0
 42
0.00000001
 43
0.00000001
 40
0.0
 40
0.0
 40
0.0
 40
0.0
 40
0.2535800112142792
 40
0.4629716884325441
 40
0.6367310248286058
 40
0.815721460434079
 40
1.0
 40
1.0
 40
1.0
 40
1.0
 10
133.028822019664
 20
210.1808623311557
 30
0.0
 41
1.0
 10
133.028822019664
 20
210.1808623311557
 30
0.0
 41
1.0
 10
133.028822019664
 20
210.1808623311557
 30
0.0
 41
1.0
 10
133.028822019664
 20
210.1808623311557
 30
0.0
 41
1.0
 10
133.028822019664
 20
210.1808623311557
 30
0.0
 41
1.0
 10
133.028822019664
 20
210.1808623311557
 30
0.0
 41
1.0
 10
133.028822019664
 20
210.1808623311557
 30
0.0
 41
1.0
 10
133.028822019664
 20
210.1808623311557
 30
0.0
 41
1.0
  0
SPLINE
  5
C1
330
1F
100
AcDbEntity
  8
0
  6
Continuous
 62
     7
370
    30
100
AcDbSpline
210
0.0
220
0.0
230
1.0
 70
    31
 71
     3
 72
    12
 73
     8
 74
     0
 42
0.00000001
 43
0.00000001
 40
0.0
 40
0.0
 40
0.0
 40
0.0
 40
0.1578339819861586
 40
0.3079185522458979
 40
0.4720448878553865
 40
0.706219966364933
 40
1.0
 40
1.0
 40
1.0
 40
1.0
 10
133.028822019664
 20
210.1808623311557
 30
0.0
 41
1.0
 10
133.028822019664
 20
210.1808623311557
 30
0.0
 41
1.0
 10
133.028822019664
 20
210.1808623311557
 30
0.0
 41
1.0
 10
133.028822019664
 20
210.1808623311557
 30
0.0
 41
1.0
 10
133.028822019664
 20
210.1808623311557
 30
0.0
 41
1.0
 10
133.028822019664
 20
210.1808623311557
 30
0.0
 41
1.0
 10
133.028822019664
 20
210.1808623311557
 30
0.0
 41
1.0
 10
133.028822019664
 20
210.1808623311557
 30
0.0
 41
1.0
  0
LINE
  5
C2
330
1F
100
AcDbEntity
  8
0
  6
Continuous
 62
     7
370
    30
100
AcDbLine
 10
119.0288220197
 20
185.8808498312
 30
0.0
 11
122.5288220197
 21
185.8808498312
 31
0.0
  0
LINE
  5
C3
330
1F
100
AcDbEntity
  8
0
  6
Continuous
 62
     7
370
    30
100
AcDbLine
 10
115.5288220197
 20
185.8808498312
 30
0.0
 11
119.0288220197
 21
185.8808498312
 31
0.0
  0
LINE
  5
C4
330
1F
100
AcDbEntity
  8
0
  6
Continuous
 62
     7
370
    30
100
AcDbLine
 10
119.0288220197
 20
185.4808498312
 30
0.0
 11
115.9288220197
 21
185.4808498312
 31
0.0
  0
LINE
  5
C5
330
1F
100
AcDbEntity
  8
0
  6
Continuous
 62
     7
370
    30
100
AcDbLine
 10
122.1288220197
 20
185.4808498312
 30
0.0
 11
119.0288220197
 21
185.4808498312
 31
0.0
  0
CIRCLE
  5
C6
330
1F
100
AcDbEntity
  8
0
  6
Continuous
 62
     7
370
    30
100
AcDbCircle
 10
119.0288220197
 20
209.9808498312
 30
0.0
 40
3.100000000000023
  0
CIRCLE
  5
C7
330
1F
100
AcDbEntity
  8
0
  6
Continuous
 62
     7
370
    30
100
AcDbCircle
 10
119.0288220197
 20
209.9808498312
 30
0.0
 40
3.5
  0
LINE
  5
C8
330
1F
100
AcDbEntity
  8
0
  6
Continuous
 62
     7
370
    30
100
AcDbLine
 10
119.0288220197
 20
211.7129006387
 30
0.0
 11
117.5288220197
 21
210.8468752349
 31
0.0
  0
LINE
  5
C9
330
1F
100
AcDbEntity
  8
0
  6
Continuous
 62
     7
370
    30
100
AcDbLine
 10
117.5288220197
 20
210.8468752349
 30
0.0
 11
117.5288220197
 21
209.1148244274
 31
0.0
  0
LINE
  5
CA
330
1F
100
AcDbEntity
  8
0
  6
Continuous
 62
     7
370
    30
100
AcDbLine
 10
117.5288220197
 20
209.1148244274
 30
0.0
 11
119.0288220197
 21
208.2487990236
 31
0.0
  0
LINE
  5
CB
330
1F
100
AcDbEntity
  8
0
  6
Continuous
 62
     7
370
    30
100
AcDbLine
 10
119.0288220197
 20
208.2487990236
 30
0.0
 11
120.5288220197
 21
209.1148244274
 31
0.0
  0
LINE
  5
CC
330
1F
100
AcDbEntity
  8
0
  6
Continuous
 62
     7
370
    30
100
AcDbLine
 10
120.5288220197
 20
209.1148244274
 30
0.0
 11
120.5288220197
 21
210.8468752349
 31
0.0
  0
LINE
  5
CD
330
1F
100
AcDbEntity
  8
0
  6
Continuous
 62
     7
370
    30
100
AcDbLine
 10
120.5288220197
 20
210.8468752349
 30
0.0
 11
119.0288220197
 21
211.7129006387
 31
0.0
  0
SPLINE
  5
CE
330
1F
100
AcDbEntity
  8
0
  6
Continuous
 62
     7
370
    30
100
AcDbSpline
210
0.0
220
0.0
230
1.0
 70
    31
 71
     3
 72
    12
 73
     8
 74
     0
 42
0.00000001
 43
0.00000001
 40
0.0
 40
0.0
 40
0.0
 40
0.0
 40
0.2535800112142792
 40
0.4629716884325441
 40
0.6367310248286058
 40
0.815721460434079
 40
1.0
 40
1.0
 40
1.0
 40
1.0
 10
133.028822019664
 20
210.1808623311557
 30
0.0
 41
1.0
 10
133.028822019664
 20
210.1808623311557
 30
0.0
 41
1.0
 10
133.028822019664
 20
210.1808623311557
 30
0.0
 41
1.0
 10
133.028822019664
 20
210.1808623311557
 30
0.0
 41
1.0
 10
133.028822019664
 20
210.1808623311557
 30
0.0
 41
1.0
 10
133.028822019664
 20
210.1808623311557
 30
0.0
 41
1.0
 10
133.028822019664
 20
210.1808623311557
 30
0.0
 41
1.0
 10
133.028822019664
 20
210.1808623311557
 30
0.0
 41
1.0
  0
SPLINE
  5
CF
330
1F
100
AcDbEntity
  8
0
  6
Continuous
 62
     7
370
    30
100
AcDbSpline
210
0.0
220
0.0
230
1.0
 70
    31
 71
     3
 72
    12
 73
     8
 74
     0
 42
0.00000001
 43
0.00000001
 40
0.0
 40
0.0
 40
0.0
 40
0.0
 40
0.1578339819861597
 40
0.307918552245899
 40
0.4720448878553866
 40
0.7062199663649336
 40
1.0
 40
1.0
 40
1.0
 40
1.0
 10
133.028822019664
 20
210.1808623311557
 30
0.0
 41
1.0
 10
133.028822019664
 20
210.1808623311557
 30
0.0
 41
1.0
 10
133.028822019664
 20
210.1808623311557
 30
0.0
 41
1.0
 10
133.028822019664
 20
210.1808623311557
 30
0.0
 41
1.0
 10
133.028822019664
 20
210.1808623311557
 30
0.0
 41
1.0
 10
133.028822019664
 20
210.1808623311557
 30
0.0
 41
1.0
 10
133.028822019664
 20
210.1808623311557
 30
0.0
 41
1.0
 10
133.028822019664
 20
210.1808623311557
 30
0.0
 41
1.0
  0
SPLINE
  5
D0
330
1F
100
AcDbEntity
  8
0
  6
Continuous
 62
     7
370
    30
100
AcDbSpline
210
0.0
220
0.0
230
1.0
 70
    31
 71
     3
 72
    12
 73
     8
 74
     0
 42
0.00000001
 43
0.00000001
 40
0.0
 40
0.0
 40
0.0
 40
0.0
 40
0.1578339819861596
 40
0.307918552245899
 40
0.4720448878553867
 40
0.706219966364933
 40
1.0
 40
1.0
 40
1.0
 40
1.0
 10
133.028822019664
 20
210.1808623311557
 30
0.0
 41
1.0
 10
133.028822019664
 20
210.1808623311557
 30
0.0
 41
1.0
 10
133.028822019664
 20
210.1808623311557
 30
0.0
 41
1.0
 10
133.028822019664
 20
210.1808623311557
 30
0.0
 41
1.0
 10
133.028822019664
 20
210.1808623311557
 30
0.0
 41
1.0
 10
133.028822019664
 20
210.1808623311557
 30
0.0
 41
1.0
 10
133.028822019664
 20
210.1808623311557
 30
0.0
 41
1.0
 10
133.028822019664
 20
210.1808623311557
 30
0.0
 41
1.0
  0
SPLINE
  5
D1
330
1F
100
AcDbEntity
  8
0
  6
Continuous
 62
     7
370
    30
100
AcDbSpline
210
0.0
220
0.0
230
1.0
 70
    31
 71
     3
 72
    12
 73
     8
 74
     0
 42
0.00000001
 43
0.00000001
 40
0.0
 40
0.0
 40
0.0
 40
0.0
 40
0.1578339819861586
 40
0.3079185522458979
 40
0.4720448878553859
 40
0.706219966364933
 40
1.0
 40
1.0
 40
1.0
 40
1.0
 10
133.028822019664
 20
210.1808623311557
 30
0.0
 41
1.0
 10
133.028822019664
 20
210.1808623311557
 30
0.0
 41
1.0
 10
133.028822019664
 20
210.1808623311557
 30
0.0
 41
1.0
 10
133.028822019664
 20
210.1808623311557
 30
0.0
 41
1.0
 10
133.028822019664
 20
210.1808623311557
 30
0.0
 41
1.0
 10
133.028822019664
 20
210.1808623311557
 30
0.0
 41
1.0
 10
133.028822019664
 20
210.1808623311557
 30
0.0
 41
1.0
 10
133.028822019664
 20
210.1808623311557
 30
0.0
 41
1.0
  0
SPLINE
  5
D2
330
1F
100
AcDbEntity
  8
0
  6
Continuous
 62
     7
370
    30
100
AcDbSpline
210
0.0
220
0.0
230
1.0
 70
    31
 71
     3
 72
    12
 73
     8
 74
     0
 42
0.00000001
 43
0.00000001
 40
0.0
 40
0.0
 40
0.0
 40
0.0
 40
0.1578339819861583
 40
0.3079185522458978
 40
0.4720448878553856
 40
0.7062199663649332
 40
1.0
 40
1.0
 40
1.0
 40
1.0
 10
133.028822019664
 20
210.1808623311557
 30
0.0
 41
1.0
 10
133.028822019664
 20
210.1808623311557
 30
0.0
 41
1.0
 10
133.028822019664
 20
210.1808623311557
 30
0.0
 41
1.0
 10
133.028822019664
 20
210.1808623311557
 30
0.0
 41
1.0
 10
133.028822019664
 20
210.1808623311557
 30
0.0
 41
1.0
 10
133.028822019664
 20
210.1808623311557
 30
0.0
 41
1.0
 10
133.028822019664
 20
210.1808623311557
 30
0.0
 41
1.0
 10
133.028822019664
 20
210.1808623311557
 30
0.0
 41
1.0
  0
SPLINE
  5
D3
330
1F
100
AcDbEntity
  8
0
  6
Continuous
 62
     7
370
    30
100
AcDbSpline
210
0.0
220
0.0
230
1.0
 70
    31
 71
     3
 72
    12
 73
     8
 74
     0
 42
0.00000001
 43
0.00000001
 40
0.0
 40
0.0
 40
0.0
 40
0.0
 40
0.1578339819861586
 40
0.3079185522458979
 40
0.4720448878553865
 40
0.706219966364933
 40
1.0
 40
1.0
 40
1.0
 40
1.0
 10
133.028822019664
 20
210.1808623311557
 30
0.0
 41
1.0
 10
133.028822019664
 20
210.1808623311557
 30
0.0
 41
1.0
 10
133.028822019664
 20
210.1808623311557
 30
0.0
 41
1.0
 10
133.028822019664
 20
210.1808623311557
 30
0.0
 41
1.0
 10
133.028822019664
 20
210.1808623311557
 30
0.0
 41
1.0
 10
133.028822019664
 20
210.1808623311557
 30
0.0
 41
1.0
 10
133.028822019664
 20
210.1808623311557
 30
0.0
 41
1.0
 10
133.028822019664
 20
210.1808623311557
 30
0.0
 41
1.0
  0
LINE
  5
D4
330
1F
100
AcDbEntity
  8
0
  6
Continuous
 62
     7
370
    30
100
AcDbLine
 10
145.5288220197
 20
210.8468752349
 30
0.0
 11
145.5288220197
 21
209.1148244274
 31
0.0
  0
LINE
  5
D5
330
1F
100
AcDbEntity
  8
0
  6
Continuous
 62
     7
370
    30
100
AcDbLine
 10
145.5288220197
 20
209.1148244274
 30
0.0
 11
147.0288220197
 21
208.2487990236
 31
0.0
  0
LINE
  5
D6
330
1F
100
AcDbEntity
  8
0
  6
Continuous
 62
     7
370
    30
100
AcDbLine
 10
148.5288220197
 20
209.1148244274
 30
0.0
 11
148.5288220197
 21
210.8468752349
 31
0.0
  0
CIRCLE
  5
D7
330
1F
100
AcDbEntity
  8
0
  6
Continuous
 62
     7
370
    30
100
AcDbCircle
 10
147.0288220197
 20
209.9808498312
 30
0.0
 40
3.100000000000023
  0
LINE
  5
D8
330
1F
100
AcDbEntity
  8
0
  6
Continuous
 62
     7
370
    30
100
AcDbLine
 10
147.0288220197
 20
211.7129006387
 30
0.0
 11
145.5288220197
 21
210.8468752349
 31
0.0
  0
LINE
  5
D9
330
1F
100
AcDbEntity
  8
0
  6
Continuous
 62
     7
370
    30
100
AcDbLine
 10
147.0288220197
 20
208.2487990236
 30
0.0
 11
148.5288220197
 21
209.1148244274
 31
0.0
  0
LINE
  5
DA
330
1F
100
AcDbEntity
  8
0
  6
Continuous
 62
     7
370
    30
100
AcDbLine
 10
148.5288220197
 20
210.8468752349
 30
0.0
 11
147.0288220197
 21
211.7129006387
 31
0.0
  0
CIRCLE
  5
DB
330
1F
100
AcDbEntity
  8
0
  6
Continuous
 62
     7
370
    30
100
AcDbCircle
 10
147.0288220197
 20
209.9808498312
 30
0.0
 40
3.5
  0
SPLINE
  5
DC
330
1F
100
AcDbEntity
  8
0
  6
Continuous
 62
     7
370
    30
100
AcDbSpline
210
0.0
220
0.0
230
1.0
 70
    31
 71
     3
 72
    12
 73
     8
 74
     0
 42
0.00000001
 43
0.00000001
 40
0.0
 40
0.0
 40
0.0
 40
0.0
 40
0.1578339819861596
 40
0.307918552245899
 40
0.4720448878553867
 40
0.706219966364933
 40
1.0
 40
1.0
 40
1.0
 40
1.0
 10
133.028822019664
 20
210.1808623311557
 30
0.0
 41
1.0
 10
133.028822019664
 20
210.1808623311557
 30
0.0
 41
1.0
 10
133.028822019664
 20
210.1808623311557
 30
0.0
 41
1.0
 10
133.028822019664
 20
210.1808623311557
 30
0.0
 41
1.0
 10
133.028822019664
 20
210.1808623311557
 30
0.0
 41
1.0
 10
133.028822019664
 20
210.1808623311557
 30
0.0
 41
1.0
 10
133.028822019664
 20
210.1808623311557
 30
0.0
 41
1.0
 10
133.028822019664
 20
210.1808623311557
 30
0.0
 41
1.0
  0
SPLINE
  5
DD
330
1F
100
AcDbEntity
  8
0
  6
Continuous
 62
     7
370
    30
100
AcDbSpline
210
0.0
220
0.0
230
1.0
 70
    31
 71
     3
 72
    12
 73
     8
 74
     0
 42
0.00000001
 43
0.00000001
 40
0.0
 40
0.0
 40
0.0
 40
0.0
 40
0.1578339819861586
 40
0.3079185522458979
 40
0.4720448878553859
 40
0.706219966364933
 40
1.0
 40
1.0
 40
1.0
 40
1.0
 10
133.028822019664
 20
210.1808623311557
 30
0.0
 41
1.0
 10
133.028822019664
 20
210.1808623311557
 30
0.0
 41
1.0
 10
133.028822019664
 20
210.1808623311557
 30
0.0
 41
1.0
 10
133.028822019664
 20
210.1808623311557
 30
0.0
 41
1.0
 10
133.028822019664
 20
210.1808623311557
 30
0.0
 41
1.0
 10
133.028822019664
 20
210.1808623311557
 30
0.0
 41
1.0
 10
133.028822019664
 20
210.1808623311557
 30
0.0
 41
1.0
 10
133.028822019664
 20
210.1808623311557
 30
0.0
 41
1.0
  0
SPLINE
  5
DE
330
1F
100
AcDbEntity
  8
0
  6
Continuous
 62
     7
370
    30
100
AcDbSpline
210
0.0
220
0.0
230
1.0
 70
    31
 71
     3
 72
    12
 73
     8
 74
     0
 42
0.00000001
 43
0.00000001
 40
0.0
 40
0.0
 40
0.0
 40
0.0
 40
0.2535800112142792
 40
0.4629716884325441
 40
0.6367310248286058
 40
0.815721460434079
 40
1.0
 40
1.0
 40
1.0
 40
1.0
 10
133.028822019664
 20
210.1808623311557
 30
0.0
 41
1.0
 10
133.028822019664
 20
210.1808623311557
 30
0.0
 41
1.0
 10
133.028822019664
 20
210.1808623311557
 30
0.0
 41
1.0
 10
133.028822019664
 20
210.1808623311557
 30
0.0
 41
1.0
 10
133.028822019664
 20
210.1808623311557
 30
0.0
 41
1.0
 10
133.028822019664
 20
210.1808623311557
 30
0.0
 41
1.0
 10
133.028822019664
 20
210.1808623311557
 30
0.0
 41
1.0
 10
133.028822019664
 20
210.1808623311557
 30
0.0
 41
1.0
  0
SPLINE
  5
DF
330
1F
100
AcDbEntity
  8
0
  6
Continuous
 62
     7
370
    30
100
AcDbSpline
210
0.0
220
0.0
230
1.0
 70
    31
 71
     3
 72
    12
 73
     8
 74
     0
 42
0.00000001
 43
0.00000001
 40
0.0
 40
0.0
 40
0.0
 40
0.0
 40
0.1578339819861597
 40
0.307918552245899
 40
0.4720448878553866
 40
0.7062199663649336
 40
1.0
 40
1.0
 40
1.0
 40
1.0
 10
133.028822019664
 20
210.1808623311557
 30
0.0
 41
1.0
 10
133.028822019664
 20
210.1808623311557
 30
0.0
 41
1.0
 10
133.028822019664
 20
210.1808623311557
 30
0.0
 41
1.0
 10
133.028822019664
 20
210.1808623311557
 30
0.0
 41
1.0
 10
133.028822019664
 20
210.1808623311557
 30
0.0
 41
1.0
 10
133.028822019664
 20
210.1808623311557
 30
0.0
 41
1.0
 10
133.028822019664
 20
210.1808623311557
 30
0.0
 41
1.0
 10
133.028822019664
 20
210.1808623311557
 30
0.0
 41
1.0
  0
SPLINE
  5
E0
330
1F
100
AcDbEntity
  8
0
  6
Continuous
 62
     7
370
    30
100
AcDbSpline
210
0.0
220
0.0
230
1.0
 70
    31
 71
     3
 72
    12
 73
     8
 74
     0
 42
0.00000001
 43
0.00000001
 40
0.0
 40
0.0
 40
0.0
 40
0.0
 40
0.1578339819861586
 40
0.3079185522458979
 40
0.4720448878553865
 40
0.706219966364933
 40
1.0
 40
1.0
 40
1.0
 40
1.0
 10
133.028822019664
 20
210.1808623311557
 30
0.0
 41
1.0
 10
133.028822019664
 20
210.1808623311557
 30
0.0
 41
1.0
 10
133.028822019664
 20
210.1808623311557
 30
0.0
 41
1.0
 10
133.028822019664
 20
210.1808623311557
 30
0.0
 41
1.0
 10
133.028822019664
 20
210.1808623311557
 30
0.0
 41
1.0
 10
133.028822019664
 20
210.1808623311557
 30
0.0
 41
1.0
 10
133.028822019664
 20
210.1808623311557
 30
0.0
 41
1.0
 10
133.028822019664
 20
210.1808623311557
 30
0.0
 41
1.0
  0
SPLINE
  5
E1
330
1F
100
AcDbEntity
  8
0
  6
Continuous
 62
     7
370
    30
100
AcDbSpline
210
0.0
220
0.0
230
1.0
 70
    31
 71
     3
 72
    12
 73
     8
 74
     0
 42
0.00000001
 43
0.00000001
 40
0.0
 40
0.0
 40
0.0
 40
0.0
 40
0.1578339819861584
 40
0.3079185522458979
 40
0.4720448878553858
 40
0.706219966364933
 40
1.0
 40
1.0
 40
1.0
 40
1.0
 10
133.028822019664
 20
210.1808623311557
 30
0.0
 41
1.0
 10
133.028822019664
 20
210.1808623311557
 30
0.0
 41
1.0
 10
133.028822019664
 20
210.1808623311557
 30
0.0
 41
1.0
 10
133.028822019664
 20
210.1808623311557
 30
0.0
 41
1.0
 10
133.028822019664
 20
210.1808623311557
 30
0.0
 41
1.0
 10
133.028822019664
 20
210.1808623311557
 30
0.0
 41
1.0
 10
133.028822019664
 20
210.1808623311557
 30
0.0
 41
1.0
 10
133.028822019664
 20
210.1808623311557
 30
0.0
 41
1.0
  0
LINE
  5
E2
330
1F
100
AcDbEntity
  8
0
  6
Continuous
 62
     7
370
    30
100
AcDbLine
 10
143.0288220197
 20
198.7308498312
 30
0.0
 11
151.0288220197
 21
198.7308498312
 31
0.0
  0
LINE
  5
E3
330
1F
100
AcDbEntity
  8
0
  6
Continuous
 62
     7
370
    30
100
AcDbLine
 10
143.0288220197
 20
198.7308498312
 30
0.0
 11
143.0288220197
 21
202.9808498312
 31
0.0
  0
LINE
  5
E4
330
1F
100
AcDbEntity
  8
0
  6
Continuous
 62
     7
370
    30
100
AcDbLine
 10
143.0288220197
 20
202.9808498312
 30
0.0
 11
123.0288220197
 21
202.9808498312
 31
0.0
  0
LINE
  5
E5
330
1F
100
AcDbEntity
  8
0
  6
Continuous
 62
     7
370
    30
100
AcDbLine
 10
123.0288220197
 20
198.7308498312
 30
0.0
 11
123.0288220197
 21
202.9808498312
 31
0.0
  0
LINE
  5
E6
330
1F
100
AcDbEntity
  8
0
  6
Continuous
 62
     7
370
    30
100
AcDbLine
 10
115.0288220197
 20
198.7308498312
 30
0.0
 11
123.0288220197
 21
198.7308498312
 31
0.0
  0
LINE
  5
E7
330
1F
100
AcDbEntity
  8
0
  6
Continuous
 62
     7
370
    30
100
AcDbLine
 10
151.0288220197
 20
198.7308498312
 30
0.0
 11
151.0288220197
 21
205.9808498312
 31
0.0
  0
LINE
  5
E8
330
1F
100
AcDbEntity
  8
0
  6
Continuous
 62
     7
370
    30
100
AcDbLine
 10
115.0288220197
 20
198.7308498312
 30
0.0
 11
115.0288220197
 21
205.9808498312
 31
0.0
  0
LINE
  5
E9
330
1F
100
AcDbEntity
  8
0
  6
Continuous
 62
     7
370
    30
100
AcDbLine
 10
115.0288220197
 20
197.7308498312
 30
0.0
 11
123.0288220197
 21
197.7308498312
 31
0.0
  0
LINE
  5
EA
330
1F
100
AcDbEntity
  8
0
  6
Continuous
 62
     7
370
    30
100
AcDbLine
 10
123.0288220197
 20
197.7308498312
 30
0.0
 11
123.0288220197
 21
192.4808498312
 31
0.0
  0
LINE
  5
EB
330
1F
100
AcDbEntity
  8
0
  6
Continuous
 62
     7
370
    30
100
AcDbLine
 10
143.0288220197
 20
192.4808498312
 30
0.0
 11
123.0288220197
 21
192.4808498312
 31
0.0
  0
LINE
  5
EC
330
1F
100
AcDbEntity
  8
0
  6
Continuous
 62
     7
370
    30
100
AcDbLine
 10
143.0288220197
 20
197.7308498312
 30
0.0
 11
143.0288220197
 21
192.4808498312
 31
0.0
  0
LINE
  5
ED
330
1F
100
AcDbEntity
  8
0
  6
Continuous
 62
     7
370
    30
100
AcDbLine
 10
143.0288220197
 20
197.7308498312
 30
0.0
 11
151.0288220197
 21
197.7308498312
 31
0.0
  0
LINE
  5
EE
330
1F
100
AcDbEntity
  8
0
  6
Continuous
 62
     7
370
    30
100
AcDbLine
 10
151.0288220197
 20
187.4808498312
 30
0.0
 11
151.0288220197
 21
197.7308498312
 31
0.0
  0
LINE
  5
EF
330
1F
100
AcDbEntity
  8
0
  6
Continuous
 62
     7
370
    30
100
AcDbLine
 10
151.0288220197
 20
187.4808498312
 30
0.0
 11
115.0288220197
 21
187.4808498312
 31
0.0
  0
LINE
  5
F0
330
1F
100
AcDbEntity
  8
0
  6
Continuous
 62
     7
370
    30
100
AcDbLine
 10
115.0288220197
 20
187.4808498312
 30
0.0
 11
115.0288220197
 21
197.7308498312
 31
0.0
  0
LINE
  5
F1
330
1F
100
AcDbEntity
  8
0
  6
Continuous
 62
     7
370
    30
100
AcDbLine
 10
115.0288220197
 20
241.9808498312
 30
0.0
 11
115.0288220197
 21
205.9808498312
 31
0.0
  0
LINE
  5
F2
330
1F
100
AcDbEntity
  8
0
  6
Continuous
 62
     7
370
    30
100
AcDbLine
 10
151.0288220197
 20
205.9808498312
 30
0.0
 11
151.0288220197
 21
241.9808498312
 31
0.0
  0
LINE
  5
F3
330
1F
100
AcDbEntity
  8
0
  6
Continuous
 62
     7
370
    30
100
AcDbLine
 10
115.0288220197
 20
205.9808498312
 30
0.0
 11
151.0288220197
 21
205.9808498312
 31
0.0
  0
CIRCLE
  5
F4
330
1F
100
AcDbEntity
  8
0
  6
Continuous
 62
     7
370
    30
100
AcDbCircle
 10
147.0288220197
 20
209.9808498312
 30
0.0
 40
3.75
  0
CIRCLE
  5
F5
330
1F
100
AcDbEntity
  8
0
  6
Continuous
 62
     7
370
    30
100
AcDbCircle
 10
119.0288220197
 20
209.9808498312
 30
0.0
 40
3.75
  0
CIRCLE
  5
F6
330
1F
100
AcDbEntity
  8
0
  6
Continuous
 62
     7
370
    30
100
AcDbCircle
 10
147.0288220197
 20
237.9808498312
 30
0.0
 40
3.75
  0
LINE
  5
F7
330
1F
100
AcDbEntity
  8
0
  6
Continuous
 62
     7
370
    30
100
AcDbLine
 10
151.0288220197
 20
241.9808498312
 30
0.0
 11
115.0288220197
 21
241.9808498312
 31
0.0
  0
CIRCLE
  5
F8
330
1F
100
AcDbEntity
  8
0
  6
Continuous
 62
     7
370
    30
100
AcDbCircle
 10
119.0288220197
 20
237.9808498312
 30
0.0
 40
3.749999999999986
  0
DIMENSION
  5
F9
330
1F
100
AcDbEntity
  8
0
  6
Continuous
 62
     7
370
     0
100
AcDbDimension
  2
*D2
 10
151.0288220197
 20
260.1808623312
 30
0.0
 11
133.0288220197
 21
260.1808623312
 31
0.0
 70
   160
 71
     1
 42
36.0
  3
SLDDIMSTYLE0
100
AcDbAlignedDimension
 13
115.0288220197
 23
241.9808498312
 33
0.0
 14
151.0288220197
 24
241.9808498312
 34
0.0
100
AcDbRotatedDimension
1001
ACAD
1000
DSTYLE
1002
{
1070
    77
1070
     3
1070
   143
1040
0.0393700787
1070
    41
1040
3.0
1070
    44
1040
1.0
1070
    42
1040
1.0
1070
   147
1040
1.524
1070
    73
1070
     0
1070
    74
1070
     0
1070
   140
1040
3.5
1070
   284
1070
    12
1070
    78
1070
    12
1002
}
  0
DIMENSION
  5
114
330
1F
100
AcDbEntity
  8
0
  6
Continuous
 62
     7
370
     0
100
AcDbDimension
  2
*D4
 10
164.337917632
 20
241.9808498312
 30
0.0
 11
164.337917632
 21
214.7308498312
 31
0.0
 70
   160
 71
     1
 42
54.5
  3
SLDDIMSTYLE0
100
AcDbAlignedDimension
 13
151.0288220197
 23
187.4808498312
 33
0.0
 14
151.0288220197
 24
241.9808498312
 34
0.0
 50
90.0
100
AcDbRotatedDimension
1001
ACAD
1000
DSTYLE
1002
{
1070
    77
1070
     3
1070
   143
1040
0.0393700787
1070
    41
1040
3.0
1070
    44
1040
1.0
1070
    42
1040
1.0
1070
   147
1040
1.524
1070
    73
1070
     0
1070
    74
1070
     0
1070
   140
1040
3.5
1070
   284
1070
    12
1070
    78
1070
    12
1002
}
  0
DIMENSION
  5
128
330
1F
100
AcDbEntity
  8
0
  6
Continuous
 62
     7
370
     0
100
AcDbDimension
  2
*D5
 10
171.1447618884
 20
241.9808498312
 30
0.0
 11
171.1447618884
 21
210.1808498312
 31
0.0
 70
   160
 71
     1
 42
63.6
  3
SLDDIMSTYLE0
100
AcDbAlignedDimension
 13
133.0288220197
 23
178.3808498312
 33
0.0
 14
151.0288220197
 24
241.9808498312
 34
0.0
 50
90.0
100
AcDbRotatedDimension
1001
ACAD
1000
DSTYLE
1002
{
1070
    77
1070
     3
1070
   143
1040
0.0393700787
1070
    41
1040
3.0
1070
    44
1040
1.0
1070
    42
1040
1.0
1070
   147
1040
1.524
1070
    73
1070
     0
1070
    74
1070
     0
1070
   140
1040
3.5
1070
   284
1070
    12
1070
    78
1070
    12
1002
}
  0
LINE
  5
13C
330
1F
100
AcDbEntity
  8
0
  6
Continuous
 62
     7
370
    30
100
AcDbLine
 10
78.1052056083
 20
231.4808498312
 30
0.0
 11
76.505205168
 21
231.4808496635
 31
0.0
  0
LINE
  5
13D
330
1F
100
AcDbEntity
  8
0
  6
Continuous
 62
     7
370
    30
100
AcDbLine
 10
76.505205168
 20
216.4808499988
 30
0.0
 11
78.1052056083
 21
216.4808498312
 31
0.0
  0
LINE
  5
13E
330
1F
100
AcDbEntity
  8
0
  6
Continuous
 62
     7
370
    30
100
AcDbLine
 10
79.6052056083
 20
230.0808498312
 30
0.0
 11
78.1052061753
 21
230.0808497134
 31
0.0
  0
LINE
  5
13F
330
1F
100
AcDbEntity
  8
0
  6
Continuous
 62
     7
370
    30
100
AcDbLine
 10
78.1052061753
 20
217.8808499489
 30
0.0
 11
79.6052056083
 21
217.8808498312
 31
0.0
  0
LINE
  5
140
330
1F
100
AcDbEntity
  8
0
  6
Continuous
 62
     7
370
    30
100
AcDbLine
 10
79.6052054899
 20
218.9808499429
 30
0.0
 11
85.0052056083
 21
218.9808498312
 31
0.0
  0
LINE
  5
141
330
1F
100
AcDbEntity
  8
0
  6
Continuous
 62
     7
370
    30
100
AcDbLine
 10
85.0052056083
 20
228.9808498312
 30
0.0
 11
79.6052054899
 21
228.9808497194
 31
0.0
  0
LINE
  5
142
330
1F
100
AcDbEntity
  8
0
  6
Continuous
 62
     7
370
    30
100
AcDbLine
 10
85.0052056083
 20
218.9808498312
 30
0.0
 11
85.6052056083
 21
219.5808498312
 31
0.0
  0
LINE
  5
143
330
1F
100
AcDbEntity
  8
0
  6
Continuous
 62
     7
370
    30
100
AcDbLine
 10
85.6052056083
 20
228.3808498312
 30
0.0
 11
85.0052056083
 21
228.9808498312
 31
0.0
  0
LINE
  5
144
330
1F
100
AcDbEntity
  8
0
  6
Continuous
 62
     7
370
    30
100
AcDbLine
 10
71.5052052798
 20
226.4808497753
 30
0.0
 11
69.4311312797
 21
226.4808497753
 31
0.0
  0
LINE
  5
145
330
1F
100
AcDbEntity
  8
0
  6
Continuous
 62
     7
370
    30
100
AcDbLine
 10
64.7437414551
 20
226.4808497753
 30
0.0
 11
64.6052056083
 21
226.4808498312
 31
0.0
  0
LINE
  5
146
330
1F
100
AcDbEntity
  8
0
  6
Continuous
 62
     7
370
    30
100
AcDbLine
 10
64.6052056083
 20
221.4808498312
 30
0.0
 11
64.7437414551
 21
221.480849887
 31
0.0
  0
LINE
  5
147
330
1F
100
AcDbEntity
  8
0
  6
Continuous
 62
     7
370
    30
100
AcDbLine
 10
69.4311312797
 20
221.480849887
 30
0.0
 11
71.5052052798
 21
221.480849887
 31
0.0
  0
LINE
  5
148
330
1F
100
AcDbEntity
  8
0
  6
Continuous
 62
     7
370
    30
100
AcDbLine
 10
63.2563296245
 20
185.8808498312
 30
0.0
 11
63.2563294308
 21
187.4808503676
 31
0.0
  0
LINE
  5
149
330
1F
100
AcDbEntity
  8
0
  6
Continuous
 62
     7
370
    30
100
AcDbLine
 10
48.2563297661
 20
187.4808503676
 30
0.0
 11
48.2563296245
 21
185.8808498312
 31
0.0
  0
LINE
  5
14A
330
1F
100
AcDbEntity
  8
0
  6
Continuous
 62
     7
370
    30
100
AcDbLine
 10
61.8563296245
 20
184.3808498312
 30
0.0
 11
61.8563297136
 21
185.8808493603
 31
0.0
  0
LINE
  5
14B
330
1F
100
AcDbEntity
  8
0
  6
Continuous
 62
     7
370
    30
100
AcDbLine
 10
49.6563292505
 20
185.8808493603
 30
0.0
 11
49.6563296245
 21
184.3808498312
 31
0.0
  0
LINE
  5
14C
330
1F
100
AcDbEntity
  8
0
  6
Continuous
 62
     7
370
    30
100
AcDbLine
 10
50.7563296245
 20
178.9808498312
 30
0.0
 11
51.3563296245
 21
178.3808498312
 31
0.0
  0
LINE
  5
14D
330
1F
100
AcDbEntity
  8
0
  6
Continuous
 62
     7
370
    30
100
AcDbLine
 10
60.1563296245
 20
178.3808498312
 30
0.0
 11
60.7563296245
 21
178.9808498312
 31
0.0
  0
LINE
  5
14E
330
1F
100
AcDbEntity
  8
0
  6
Continuous
 62
     7
370
    30
100
AcDbLine
 10
50.7563292446
 20
184.3808500457
 30
0.0
 11
50.7563296245
 21
178.9808498312
 31
0.0
  0
LINE
  5
14F
330
1F
100
AcDbEntity
  8
0
  6
Continuous
 62
     7
370
    30
100
AcDbLine
 10
60.7563296245
 20
178.9808498312
 30
0.0
 11
60.7563297195
 21
184.3808500457
 31
0.0
  0
LINE
  5
150
330
1F
100
AcDbEntity
  8
0
  6
Continuous
 62
     7
370
    30
100
AcDbLine
 10
58.2563296008
 20
192.4808493245
 30
0.0
 11
58.2563296008
 21
194.4808496523
 31
0.0
  0
LINE
  5
151
330
1F
100
AcDbEntity
  8
0
  6
Continuous
 62
     7
370
    30
100
AcDbLine
 10
53.2563296543
 20
194.4808496523
 30
0.0
 11
53.2563296543
 21
192.4808493245
 31
0.0
  0
LINE
  5
152
330
1F
100
AcDbEntity
  8
0
  6
Continuous
 62
     7
370
    30
100
AcDbLine
 10
53.2563296543
 20
200.8808499563
 30
0.0
 11
48.2563296245
 21
200.8808498312
 31
0.0
  0
LINE
  5
153
330
1F
100
AcDbEntity
  8
0
  6
Continuous
 62
     7
370
    30
100
AcDbLine
 10
63.2563296245
 20
200.8808498312
 30
0.0
 11
58.2563296008
 21
200.8808499563
 31
0.0
  0
LINE
  5
154
330
1F
100
AcDbEntity
  8
0
  6
Continuous
 62
     7
370
    30
100
AcDbLine
 10
38.2563290583
 20
187.4808503676
 30
0.0
 11
38.2563296245
 21
185.8808498312
 31
0.0
  0
LINE
  5
155
330
1F
100
AcDbEntity
  8
0
  6
Continuous
 62
     7
370
    30
100
AcDbLine
 10
45.2563296245
 20
185.8808498312
 30
0.0
 11
45.2563292744
 21
187.4808503676
 31
0.0
  0
LINE
  5
156
330
1F
100
AcDbEntity
  8
0
  6
Continuous
 62
     7
370
    30
100
AcDbLine
 10
38.2563296245
 20
185.8808498312
 30
0.0
 11
38.6563296245
 21
185.4808498312
 31
0.0
  0
LINE
  5
157
330
1F
100
AcDbEntity
  8
0
  6
Continuous
 62
     7
370
    30
100
AcDbLine
 10
44.8563296245
 20
185.4808498312
 30
0.0
 11
45.2563296245
 21
185.8808498312
 31
0.0
  0
LINE
  5
158
330
1F
100
AcDbEntity
  8
0
  6
Continuous
 62
     7
370
    30
100
AcDbLine
 10
43.406329623
 20
197.7308506507
 30
0.0
 11
43.406329623
 21
198.730848952
 31
0.0
  0
LINE
  5
159
330
1F
100
AcDbEntity
  8
0
  6
Continuous
 62
     7
370
    30
100
AcDbLine
 10
40.1063287096
 20
198.730848952
 30
0.0
 11
40.1063287096
 21
197.7308506507
 31
0.0
  0
LINE
  5
15A
330
1F
100
AcDbEntity
  8
0
  6
Continuous
 62
     7
370
    30
100
AcDbLine
 10
76.505205168
 20
234.4808496896
 30
0.0
 11
78.1052056083
 21
234.4808498312
 31
0.0
  0
LINE
  5
15B
330
1F
100
AcDbEntity
  8
0
  6
Continuous
 62
     7
370
    30
100
AcDbLine
 10
78.1052056083
 20
241.4808498312
 30
0.0
 11
76.505205168
 21
241.4808499057
 31
0.0
  0
LINE
  5
15C
330
1F
100
AcDbEntity
  8
0
  6
Continuous
 62
     7
370
    30
100
AcDbLine
 10
78.1052056083
 20
234.4808498312
 30
0.0
 11
78.5052056083
 21
234.8808498312
 31
0.0
  0
LINE
  5
15D
330
1F
100
AcDbEntity
  8
0
  6
Continuous
 62
     7
370
    30
100
AcDbLine
 10
78.5052056083
 20
241.0808498312
 30
0.0
 11
78.1052056083
 21
241.4808498312
 31
0.0
  0
LINE
  5
15E
330
1F
100
AcDbEntity
  8
0
  6
Continuous
 62
     7
370
    30
100
AcDbLine
 10
66.2552058162
 20
239.6308502543
 30
0.0
 11
66.0063294159
 21
239.6308502543
 31
0.0
  0
LINE
  5
15F
330
1F
100
AcDbEntity
  8
0
  6
Continuous
 62
     7
370
    30
100
AcDbLine
 10
66.0063294159
 20
236.3308502722
 30
0.0
 11
66.2552058162
 21
236.3308502722
 31
0.0
  0
LINE
  5
160
330
1F
100
AcDbEntity
  8
0
  6
Continuous
 62
     7
370
    30
100
AcDbLine
 10
66.2563296245
 20
185.8808498312
 30
0.0
 11
66.6563296245
 21
185.4808498312
 31
0.0
  0
LINE
  5
161
330
1F
100
AcDbEntity
  8
0
  6
Continuous
 62
     7
370
    30
100
AcDbLine
 10
72.8563296245
 20
185.4808498312
 30
0.0
 11
73.2563296245
 21
185.8808498312
 31
0.0
  0
LINE
  5
162
330
1F
100
AcDbEntity
  8
0
  6
Continuous
 62
     7
370
    30
100
AcDbLine
 10
66.2563294569
 20
187.4808503676
 30
0.0
 11
66.2563296245
 21
185.8808498312
 31
0.0
  0
LINE
  5
163
330
1F
100
AcDbEntity
  8
0
  6
Continuous
 62
     7
370
    30
100
AcDbLine
 10
73.2563296245
 20
185.8808498312
 30
0.0
 11
73.2563292073
 21
187.4808503676
 31
0.0
  0
LINE
  5
164
330
1F
100
AcDbEntity
  8
0
  6
Continuous
 62
     7
370
    30
100
AcDbLine
 10
71.406329556
 20
197.7308506507
 30
0.0
 11
71.406329556
 21
198.730848952
 31
0.0
  0
LINE
  5
165
330
1F
100
AcDbEntity
  8
0
  6
Continuous
 62
     7
370
    30
100
AcDbLine
 10
68.1063295739
 20
198.730848952
 30
0.0
 11
68.1063295739
 21
197.7308506507
 31
0.0
  0
LINE
  5
166
330
1F
100
AcDbEntity
  8
0
  6
Continuous
 62
     7
370
    30
100
AcDbLine
 10
76.505205168
 20
206.4808497566
 30
0.0
 11
78.1052056083
 21
206.4808498312
 31
0.0
  0
LINE
  5
167
330
1F
100
AcDbEntity
  8
0
  6
Continuous
 62
     7
370
    30
100
AcDbLine
 10
78.1052056083
 20
213.4808498312
 30
0.0
 11
76.505205168
 21
213.4808499727
 31
0.0
  0
LINE
  5
168
330
1F
100
AcDbEntity
  8
0
  6
Continuous
 62
     7
370
    30
100
AcDbLine
 10
78.1052056083
 20
206.4808498312
 30
0.0
 11
78.5052056083
 21
206.8808498312
 31
0.0
  0
LINE
  5
169
330
1F
100
AcDbEntity
  8
0
  6
Continuous
 62
     7
370
    30
100
AcDbLine
 10
78.5052056083
 20
213.0808498312
 30
0.0
 11
78.1052056083
 21
213.4808498312
 31
0.0
  0
LINE
  5
16A
330
1F
100
AcDbEntity
  8
0
  6
Continuous
 62
     7
370
    30
100
AcDbLine
 10
66.2552058162
 20
211.6308493901
 30
0.0
 11
66.0063294159
 21
211.6308493901
 31
0.0
  0
LINE
  5
16B
330
1F
100
AcDbEntity
  8
0
  6
Continuous
 62
     7
370
    30
100
AcDbLine
 10
66.0063294159
 20
208.330849408
 30
0.0
 11
66.2552058162
 21
208.330849408
 31
0.0
  0
LINE
  5
16C
330
1F
100
AcDbEntity
  8
0
  6
Continuous
 62
     7
370
    30
100
AcDbLine
 10
78.1052056083
 20
216.4808498312
 30
0.0
 11
78.1052056083
 21
231.4808498312
 31
0.0
  0
LINE
  5
16D
330
1F
100
AcDbEntity
  8
0
  6
Continuous
 62
     7
370
    30
100
AcDbLine
 10
79.6052056083
 20
217.8808498312
 30
0.0
 11
79.6052056083
 21
230.0808498312
 31
0.0
  0
LINE
  5
16E
330
1F
100
AcDbEntity
  8
0
  6
Continuous
 62
     7
370
    30
100
AcDbLine
 10
85.0052056083
 20
228.9726602098
 30
0.0
 11
85.0052056083
 21
228.9808498312
 31
0.0
  0
LINE
  5
16F
330
1F
100
AcDbEntity
  8
0
  6
Continuous
 62
     7
370
    30
100
AcDbLine
 10
85.0052056083
 20
218.9808498312
 30
0.0
 11
85.0052056083
 21
228.9726602098
 31
0.0
  0
LINE
  5
170
330
1F
100
AcDbEntity
  8
0
  6
Continuous
 62
     7
370
    30
100
AcDbLine
 10
85.6052056083
 20
228.3808498312
 30
0.0
 11
85.6052056083
 21
219.5808498312
 31
0.0
  0
LINE
  5
171
330
1F
100
AcDbEntity
  8
0
  6
Continuous
 62
     7
370
    30
100
AcDbLine
 10
64.6052056083
 20
221.4808498312
 30
0.0
 11
64.6052056083
 21
221.6098820928
 31
0.0
  0
LINE
  5
172
330
1F
100
AcDbEntity
  8
0
  6
Continuous
 62
     7
370
    30
100
AcDbLine
 10
64.6052056083
 20
226.35001998
 30
0.0
 11
64.6052056083
 21
226.4808498312
 31
0.0
  0
LINE
  5
173
330
1F
100
AcDbEntity
  8
0
  6
Continuous
 62
     7
370
    30
100
AcDbLine
 10
48.2563296245
 20
185.8808498312
 30
0.0
 11
63.2563296245
 21
185.8808498312
 31
0.0
  0
LINE
  5
174
330
1F
100
AcDbEntity
  8
0
  6
Continuous
 62
     7
370
    30
100
AcDbLine
 10
49.6563296245
 20
184.3808498312
 30
0.0
 11
61.8563296245
 21
184.3808498312
 31
0.0
  0
LINE
  5
175
330
1F
100
AcDbEntity
  8
0
  6
Continuous
 62
     7
370
    30
100
AcDbLine
 10
60.1563296245
 20
178.3808498312
 30
0.0
 11
51.3563296245
 21
178.3808498312
 31
0.0
  0
LINE
  5
176
330
1F
100
AcDbEntity
  8
0
  6
Continuous
 62
     7
370
    30
100
AcDbLine
 10
50.7563296245
 20
178.9808498312
 30
0.0
 11
60.7563296245
 21
178.9808498312
 31
0.0
  0
LINE
  5
177
330
1F
100
AcDbEntity
  8
0
  6
Continuous
 62
     7
370
    30
100
AcDbLine
 10
54.9499176714
 20
199.3808498312
 30
0.0
 11
56.5566765599
 21
199.3808498312
 31
0.0
  0
LINE
  5
178
330
1F
100
AcDbEntity
  8
0
  6
Continuous
 62
     7
370
    30
100
AcDbLine
 10
69.5052058833
 20
226.6808499012
 30
0.0
 11
68.5052057194
 21
223.9808498312
 31
0.0
  0
LINE
  5
179
330
1F
100
AcDbEntity
  8
0
  6
Continuous
 62
     7
370
    30
100
AcDbLine
 10
68.5052057194
 20
223.9808498312
 30
0.0
 11
69.5052058833
 21
221.2808497611
 31
0.0
  0
LINE
  5
17A
330
1F
100
AcDbEntity
  8
0
  6
Continuous
 62
     7
370
    30
100
AcDbLine
 10
69.5052058833
 20
221.2808497611
 30
0.0
 11
69.5052058833
 21
219.2308499839
 31
0.0
  0
LINE
  5
17B
330
1F
100
AcDbEntity
  8
0
  6
Continuous
 62
     7
370
    30
100
AcDbLine
 10
69.0052058013
 20
218.7308499019
 30
0.0
 11
69.5052058833
 21
219.2308499839
 31
0.0
  0
LINE
  5
17C
330
1F
100
AcDbEntity
  8
0
  6
Continuous
 62
     7
370
    30
100
AcDbLine
 10
69.0052058013
 20
218.7308499019
 30
0.0
 11
68.7852056083
 21
218.7308498312
 31
0.0
  0
ARC
  5
17D
330
1F
100
AcDbEntity
  8
0
  6
Continuous
 62
     7
370
    30
100
AcDbCircle
 10
75.6598290143
 20
233.178671571
 30
0.0
 40
16.0
100
AcDbArc
 50
221.0705073902
 51
244.5537637246
  0
ARC
  5
17E
330
1F
100
AcDbEntity
  8
0
  6
Continuous
 62
     7
370
    30
100
AcDbCircle
 10
65.1052056083
 20
223.9808498312
 30
0.0
 40
2.000000000000002
100
AcDbArc
 50
138.9294926098
 51
221.0705073902
  0
LINE
  5
17F
330
1F
100
AcDbEntity
  8
0
  6
Continuous
 62
     7
370
    30
100
AcDbLine
 10
68.7852056083
 20
229.2308498312
 30
0.0
 11
69.0052058013
 21
229.2308497604
 31
0.0
  0
LINE
  5
180
330
1F
100
AcDbEntity
  8
0
  6
Continuous
 62
     7
370
    30
100
AcDbLine
 10
69.5052058833
 20
228.7308496784
 30
0.0
 11
69.0052058013
 21
229.2308497604
 31
0.0
  0
LINE
  5
181
330
1F
100
AcDbEntity
  8
0
  6
Continuous
 62
     7
370
    30
100
AcDbLine
 10
69.5052058833
 20
228.7308496784
 30
0.0
 11
69.5052058833
 21
226.6808499012
 31
0.0
  0
ARC
  5
182
330
1F
100
AcDbEntity
  8
0
  6
Continuous
 62
     7
370
    30
100
AcDbCircle
 10
75.6598290143
 20
214.7830280913
 30
0.0
 40
16.00000000000004
100
AcDbArc
 50
115.4462362754
 51
138.9294926098
  0
LINE
  5
183
330
1F
100
AcDbEntity
  8
0
  6
Continuous
 62
     7
370
    30
100
AcDbLine
 10
63.2563296245
 20
195.2008498312
 30
0.0
 11
63.2563296245
 21
200.3886531749
 31
0.0
  0
LINE
  5
184
330
1F
100
AcDbEntity
  8
0
  6
Continuous
 62
     7
370
    30
100
AcDbLine
 10
48.2563296245
 20
195.2008498312
 30
0.0
 11
63.2563296245
 21
195.2008498312
 31
0.0
  0
LINE
  5
185
330
1F
100
AcDbEntity
  8
0
  6
Continuous
 62
     7
370
    30
100
AcDbLine
 10
48.2563296245
 20
200.3886531749
 30
0.0
 11
53.629484533
 21
200.3886534262
 31
0.0
  0
ARC
  5
186
330
1F
100
AcDbEntity
  8
0
  6
Continuous
 62
     7
370
    30
100
AcDbCircle
 10
55.7563297149
 20
201.8229482202
 30
0.0
 40
2.565282047632526
100
AcDbArc
 50
213.994808028
 51
326.005191972
  0
LINE
  5
187
330
1F
100
AcDbEntity
  8
0
  6
Continuous
 62
     7
370
    30
100
AcDbLine
 10
57.8831748968
 20
200.3886534262
 30
0.0
 11
63.2563296245
 21
200.3886531749
 31
0.0
  0
LINE
  5
188
330
1F
100
AcDbEntity
  8
0
  6
Continuous
 62
     7
370
    30
100
AcDbLine
 10
48.2563296245
 20
195.2008498312
 30
0.0
 11
48.2563296245
 21
200.3886531749
 31
0.0
  0
LINE
  5
189
330
1F
100
AcDbEntity
  8
0
  6
Continuous
 62
     7
370
    30
100
AcDbLine
 10
63.2563294308
 20
194.9808506656
 30
0.0
 11
63.2563296245
 21
195.2008498312
 31
0.0
  0
LINE
  5
18A
330
1F
100
AcDbEntity
  8
0
  6
Continuous
 62
     7
370
    30
100
AcDbLine
 10
48.2563297661
 20
194.9808506656
 30
0.0
 11
63.2563294308
 21
194.9808506656
 31
0.0
  0
LINE
  5
18B
330
1F
100
AcDbEntity
  8
0
  6
Continuous
 62
     7
370
    30
100
AcDbLine
 10
48.2563297661
 20
194.9808506656
 30
0.0
 11
48.2563296245
 21
195.2008498312
 31
0.0
  0
LINE
  5
18C
330
1F
100
AcDbEntity
  8
0
  6
Continuous
 62
     7
370
    30
100
AcDbLine
 10
63.2563294308
 20
194.9808506656
 30
0.0
 11
63.2563294308
 21
194.4808496523
 31
0.0
  0
LINE
  5
18D
330
1F
100
AcDbEntity
  8
0
  6
Continuous
 62
     7
370
    30
100
AcDbLine
 10
63.2563294308
 20
194.4808496523
 30
0.0
 11
48.2563297661
 21
194.4808496523
 31
0.0
  0
LINE
  5
18E
330
1F
100
AcDbEntity
  8
0
  6
Continuous
 62
     7
370
    30
100
AcDbLine
 10
48.2563297661
 20
194.4808496523
 30
0.0
 11
48.2563297661
 21
194.9808506656
 31
0.0
  0
ARC
  5
18F
330
1F
100
AcDbEntity
  8
0
  6
Continuous
 62
     7
370
    30
100
AcDbCircle
 10
44.3108450985
 20
193.7113516328
 30
0.0
 40
11.4640045424449
100
AcDbArc
 50
35.6236155313
 51
38.710975212
  0
ARC
  5
190
330
1F
100
AcDbEntity
  8
0
  6
Continuous
 62
     7
370
    30
100
AcDbCircle
 10
67.0753670561
 20
193.807219756
 30
0.0
 40
11.30538216286111
100
AcDbArc
 50
141.2673737081
 51
144.398061365
  0
LINE
  5
191
330
1F
100
AcDbEntity
  8
0
  6
Continuous
 62
     7
370
    30
100
AcDbLine
 10
48.2563296245
 20
200.3886531749
 30
0.0
 11
48.2563296245
 21
200.8808498312
 31
0.0
  0
LINE
  5
192
330
1F
100
AcDbEntity
  8
0
  6
Continuous
 62
     7
370
    30
100
AcDbLine
 10
63.2563296245
 20
200.3886531749
 30
0.0
 11
63.2563296245
 21
200.8808498312
 31
0.0
  0
LINE
  5
193
330
1F
100
AcDbEntity
  8
0
  6
Continuous
 62
     7
370
    30
100
AcDbLine
 10
38.2563296245
 20
185.8808498312
 30
0.0
 11
45.2563296245
 21
185.8808498312
 31
0.0
  0
LINE
  5
194
330
1F
100
AcDbEntity
  8
0
  6
Continuous
 62
     7
370
    30
100
AcDbLine
 10
44.8563296245
 20
185.4808498312
 30
0.0
 11
38.6563296245
 21
185.4808498312
 31
0.0
  0
LINE
  5
195
330
1F
100
AcDbEntity
  8
0
  6
Continuous
 62
     7
370
    30
100
AcDbLine
 10
78.1052056083
 20
234.4808498312
 30
0.0
 11
78.1052056083
 21
241.4808498312
 31
0.0
  0
LINE
  5
196
330
1F
100
AcDbEntity
  8
0
  6
Continuous
 62
     7
370
    30
100
AcDbLine
 10
78.5052056083
 20
241.0808498312
 30
0.0
 11
78.5052056083
 21
234.8808498312
 31
0.0
  0
LINE
  5
197
330
1F
100
AcDbEntity
  8
0
  6
Continuous
 62
     7
370
    30
100
AcDbLine
 10
72.8563296245
 20
185.4808498312
 30
0.0
 11
66.6563296245
 21
185.4808498312
 31
0.0
  0
LINE
  5
198
330
1F
100
AcDbEntity
  8
0
  6
Continuous
 62
     7
370
    30
100
AcDbLine
 10
66.2563296245
 20
185.8808498312
 30
0.0
 11
73.2563296245
 21
185.8808498312
 31
0.0
  0
LINE
  5
199
330
1F
100
AcDbEntity
  8
0
  6
Continuous
 62
     7
370
    30
100
AcDbLine
 10
78.1052056083
 20
206.4808498312
 30
0.0
 11
78.1052056083
 21
213.4808498312
 31
0.0
  0
LINE
  5
19A
330
1F
100
AcDbEntity
  8
0
  6
Continuous
 62
     7
370
    30
100
AcDbLine
 10
78.5052056083
 20
213.0808498312
 30
0.0
 11
78.5052056083
 21
206.8808498312
 31
0.0
  0
LINE
  5
19B
330
1F
100
AcDbEntity
  8
0
  6
Continuous
 62
     7
370
    30
100
AcDbLine
 10
58.7563296245
 20
241.9808490563
 30
0.0
 11
58.7563296245
 21
205.980850606
 31
0.0
  0
LINE
  5
19C
330
1F
100
AcDbEntity
  8
0
  6
Continuous
 62
     7
370
    30
100
AcDbLine
 10
66.0063294159
 20
241.9808490563
 30
0.0
 11
58.7563296245
 21
241.9808490563
 31
0.0
  0
LINE
  5
19D
330
1F
100
AcDbEntity
  8
0
  6
Continuous
 62
     7
370
    30
100
AcDbLine
 10
66.0063294159
 20
233.9808496076
 30
0.0
 11
66.0063294159
 21
241.9808490563
 31
0.0
  0
LINE
  5
19E
330
1F
100
AcDbEntity
  8
0
  6
Continuous
 62
     7
370
    30
100
AcDbLine
 10
66.0063294159
 20
233.9808496076
 30
0.0
 11
61.7563296506
 21
233.9808496076
 31
0.0
  0
LINE
  5
19F
330
1F
100
AcDbEntity
  8
0
  6
Continuous
 62
     7
370
    30
100
AcDbLine
 10
61.7563296506
 20
233.9808496076
 30
0.0
 11
61.7563296506
 21
213.9808500547
 31
0.0
  0
LINE
  5
1A0
330
1F
100
AcDbEntity
  8
0
  6
Continuous
 62
     7
370
    30
100
AcDbLine
 10
66.0063294159
 20
213.9808500547
 30
0.0
 11
61.7563296506
 21
213.9808500547
 31
0.0
  0
LINE
  5
1A1
330
1F
100
AcDbEntity
  8
0
  6
Continuous
 62
     7
370
    30
100
AcDbLine
 10
66.0063294159
 20
205.980850606
 30
0.0
 11
66.0063294159
 21
213.9808500547
 31
0.0
  0
LINE
  5
1A2
330
1F
100
AcDbEntity
  8
0
  6
Continuous
 62
     7
370
    30
100
AcDbLine
 10
73.7563292893
 20
205.980850606
 30
0.0
 11
66.0063294159
 21
205.980850606
 31
0.0
  0
LINE
  5
1A3
330
1F
100
AcDbEntity
  8
0
  6
Continuous
 62
     7
370
    30
100
AcDbLine
 10
73.7563292893
 20
198.730848952
 30
0.0
 11
73.7563292893
 21
205.980850606
 31
0.0
  0
LINE
  5
1A4
330
1F
100
AcDbEntity
  8
0
  6
Continuous
 62
     7
370
    30
100
AcDbLine
 10
65.7563298406
 20
198.730848952
 30
0.0
 11
73.7563292893
 21
198.730848952
 31
0.0
  0
LINE
  5
1A5
330
1F
100
AcDbEntity
  8
0
  6
Continuous
 62
     7
370
    30
100
AcDbLine
 10
65.7563298406
 20
198.730848952
 30
0.0
 11
65.7563298406
 21
202.9808501143
 31
0.0
  0
LINE
  5
1A6
330
1F
100
AcDbEntity
  8
0
  6
Continuous
 62
     7
370
    30
100
AcDbLine
 10
65.7563298406
 20
202.9808501143
 30
0.0
 11
45.7563293563
 21
202.9808501143
 31
0.0
  0
LINE
  5
1A7
330
1F
100
AcDbEntity
  8
0
  6
Continuous
 62
     7
370
    30
100
AcDbLine
 10
45.7563293563
 20
198.730848952
 30
0.0
 11
45.7563293563
 21
202.9808501143
 31
0.0
  0
LINE
  5
1A8
330
1F
100
AcDbEntity
  8
0
  6
Continuous
 62
     7
370
    30
100
AcDbLine
 10
37.7563299077
 20
198.730848952
 30
0.0
 11
45.7563293563
 21
198.730848952
 31
0.0
  0
LINE
  5
1A9
330
1F
100
AcDbEntity
  8
0
  6
Continuous
 62
     7
370
    30
100
AcDbLine
 10
37.7563299077
 20
198.730848952
 30
0.0
 11
37.7563299077
 21
205.980850606
 31
0.0
  0
LINE
  5
1AA
330
1F
100
AcDbEntity
  8
0
  6
Continuous
 62
     7
370
    30
100
AcDbLine
 10
58.7563296245
 20
205.980850606
 30
0.0
 11
37.7563299077
 21
205.980850606
 31
0.0
  0
LINE
  5
1AB
330
1F
100
AcDbEntity
  8
0
  6
Continuous
 62
     7
370
    30
100
AcDbLine
 10
58.7563296245
 20
241.9808490563
 30
0.0
 11
37.7563299077
 21
205.980850606
 31
0.0
  0
LINE
  5
1AC
330
1F
100
AcDbEntity
  8
0
  6
Continuous
 62
     7
370
    30
100
AcDbLine
 10
45.7563293563
 20
197.7308506507
 30
0.0
 11
45.7563293563
 21
192.4808493245
 31
0.0
  0
LINE
  5
1AD
330
1F
100
AcDbEntity
  8
0
  6
Continuous
 62
     7
370
    30
100
AcDbLine
 10
65.7563298406
 20
192.4808493245
 30
0.0
 11
45.7563293563
 21
192.4808493245
 31
0.0
  0
LINE
  5
1AE
330
1F
100
AcDbEntity
  8
0
  6
Continuous
 62
     7
370
    30
100
AcDbLine
 10
65.7563298406
 20
197.7308506507
 30
0.0
 11
65.7563298406
 21
192.4808493245
 31
0.0
  0
LINE
  5
1AF
330
1F
100
AcDbEntity
  8
0
  6
Continuous
 62
     7
370
    30
100
AcDbLine
 10
65.7563298406
 20
197.7308506507
 30
0.0
 11
73.7563292893
 21
197.7308506507
 31
0.0
  0
LINE
  5
1B0
330
1F
100
AcDbEntity
  8
0
  6
Continuous
 62
     7
370
    30
100
AcDbLine
 10
73.7563292893
 20
187.4808503676
 30
0.0
 11
73.7563292893
 21
197.7308506507
 31
0.0
  0
LINE
  5
1B1
330
1F
100
AcDbEntity
  8
0
  6
Continuous
 62
     7
370
    30
100
AcDbLine
 10
73.7563292893
 20
187.4808503676
 30
0.0
 11
37.7563299077
 21
187.4808503676
 31
0.0
  0
LINE
  5
1B2
330
1F
100
AcDbEntity
  8
0
  6
Continuous
 62
     7
370
    30
100
AcDbLine
 10
37.7563299077
 20
187.4808503676
 30
0.0
 11
37.7563299077
 21
197.7308506507
 31
0.0
  0
LINE
  5
1B3
330
1F
100
AcDbEntity
  8
0
  6
Continuous
 62
     7
370
    30
100
AcDbLine
 10
37.7563299077
 20
197.7308506507
 30
0.0
 11
45.7563293563
 21
197.7308506507
 31
0.0
  0
LINE
  5
1B4
330
1F
100
AcDbEntity
  8
0
  6
Continuous
 62
     7
370
    30
100
AcDbLine
 10
66.2552058162
 20
205.980850606
 30
0.0
 11
66.2552058162
 21
213.9808500547
 31
0.0
  0
LINE
  5
1B5
330
1F
100
AcDbEntity
  8
0
  6
Continuous
 62
     7
370
    30
100
AcDbLine
 10
66.2552058162
 20
213.9808500547
 30
0.0
 11
71.5052052798
 21
213.9808500547
 31
0.0
  0
LINE
  5
1B6
330
1F
100
AcDbEntity
  8
0
  6
Continuous
 62
     7
370
    30
100
AcDbLine
 10
71.5052052798
 20
233.9808496076
 30
0.0
 11
71.5052052798
 21
213.9808500547
 31
0.0
  0
LINE
  5
1B7
330
1F
100
AcDbEntity
  8
0
  6
Continuous
 62
     7
370
    30
100
AcDbLine
 10
66.2552058162
 20
233.9808496076
 30
0.0
 11
71.5052052798
 21
233.9808496076
 31
0.0
  0
LINE
  5
1B8
330
1F
100
AcDbEntity
  8
0
  6
Continuous
 62
     7
370
    30
100
AcDbLine
 10
66.2552058162
 20
233.9808496076
 30
0.0
 11
66.2552058162
 21
241.9808490563
 31
0.0
  0
LINE
  5
1B9
330
1F
100
AcDbEntity
  8
0
  6
Continuous
 62
     7
370
    30
100
AcDbLine
 10
76.505205168
 20
241.9808490563
 30
0.0
 11
66.2552058162
 21
241.9808490563
 31
0.0
  0
LINE
  5
1BA
330
1F
100
AcDbEntity
  8
0
  6
Continuous
 62
     7
370
    30
100
AcDbLine
 10
76.505205168
 20
241.9808490563
 30
0.0
 11
76.505205168
 21
205.980850606
 31
0.0
  0
LINE
  5
1BB
330
1F
100
AcDbEntity
  8
0
  6
Continuous
 62
     7
370
    30
100
AcDbLine
 10
76.505205168
 20
205.980850606
 30
0.0
 11
66.2552058162
 21
205.980850606
 31
0.0
  0
DIMENSION
  5
1BC
330
1F
100
AcDbEntity
  8
0
  6
Continuous
 62
     7
370
     0
100
AcDbDimension
  2
*D6
 10
76.5052056083
 20
258.6080889032
 30
0.0
 11
57.1307676164
 21
258.6080889032
 31
0.0
 70
   160
 71
     1
 42
38.7488759838
  3
SLDDIMSTYLE0
100
AcDbAlignedDimension
 13
37.7563296245
 23
205.9808498312
 33
0.0
 14
76.5052056083
 24
241.9808498312
 34
0.0
 50
0.0
100
AcDbRotatedDimension
1001
ACAD
1000
DSTYLE
1002
{
1070
    77
1070
     3
1070
   143
1040
0.0393700787
1070
    41
1040
3.0
1070
    44
1040
1.0
1070
    42
1040
1.0
1070
   147
1040
1.524
1070
    73
1070
     0
1070
    74
1070
     0
1070
   140
1040
3.5
1070
   284
1070
    12
1070
    78
1070
    12
1002
}
  0
DIMENSION
  5
1CF
330
1F
100
AcDbEntity
  8
0
  6
Continuous
 62
     7
370
     0
100
AcDbDimension
  2
*D7
 10
85.6052056083
 20
265.2553573674
 30
0.0
 11
61.6807676164
 21
265.2553573674
 31
0.0
 70
   160
 71
     1
 42
47.8488759838
  3
SLDDIMSTYLE0
100
AcDbAlignedDimension
 13
37.7563296245
 23
197.7308498312
 33
0.0
 14
85.6052056083
 24
228.3808498312
 34
0.0
 50
0.0
100
AcDbRotatedDimension
1001
ACAD
1000
DSTYLE
1002
{
1070
    77
1070
     3
1070
   143
1040
0.0393700787
1070
    41
1040
3.0
1070
    44
1040
1.0
1070
    42
1040
1.0
1070
   147
1040
1.524
1070
    73
1070
     0
1070
    74
1070
     0
1070
   140
1040
3.5
1070
   284
1070
    12
1070
    78
1070
    12
1002
}
  0
LINE
  5
1E2
330
1F
100
AcDbEntity
  8
0
  6
Continuous
 62
     7
370
    30
100
AcDbLine
 10
125.5288220197
 20
142.4291209571
 30
0.0
 11
125.5288221873
 21
140.8291205167
 31
0.0
  0
LINE
  5
1E3
330
1F
100
AcDbEntity
  8
0
  6
Continuous
 62
     7
370
    30
100
AcDbLine
 10
140.528821852
 20
140.8291205167
 30
0.0
 11
140.5288220197
 21
142.4291209571
 31
0.0
  0
LINE
  5
1E4
330
1F
100
AcDbEntity
  8
0
  6
Continuous
 62
     7
370
    30
100
AcDbLine
 10
126.9288220197
 20
143.9291209571
 30
0.0
 11
126.9288221374
 21
142.4291215241
 31
0.0
  0
LINE
  5
1E5
330
1F
100
AcDbEntity
  8
0
  6
Continuous
 62
     7
370
    30
100
AcDbLine
 10
139.1288219019
 20
142.4291215241
 30
0.0
 11
139.1288220197
 21
143.9291209571
 31
0.0
  0
LINE
  5
1E6
330
1F
100
AcDbEntity
  8
0
  6
Continuous
 62
     7
370
    30
100
AcDbLine
 10
138.0288219079
 20
143.9291208386
 30
0.0
 11
138.0288220197
 21
149.3291209571
 31
0.0
  0
LINE
  5
1E7
330
1F
100
AcDbEntity
  8
0
  6
Continuous
 62
     7
370
    30
100
AcDbLine
 10
128.0288220197
 20
149.3291209571
 30
0.0
 11
128.0288221314
 21
143.9291208386
 31
0.0
  0
LINE
  5
1E8
330
1F
100
AcDbEntity
  8
0
  6
Continuous
 62
     7
370
    30
100
AcDbLine
 10
138.0288220197
 20
149.3291209571
 30
0.0
 11
137.4288220197
 21
149.9291209571
 31
0.0
  0
LINE
  5
1E9
330
1F
100
AcDbEntity
  8
0
  6
Continuous
 62
     7
370
    30
100
AcDbLine
 10
128.6288220197
 20
149.9291209571
 30
0.0
 11
128.0288220197
 21
149.3291209571
 31
0.0
  0
LINE
  5
1EA
330
1F
100
AcDbEntity
  8
0
  6
Continuous
 62
     7
370
    30
100
AcDbLine
 10
122.5288221612
 20
140.8291205167
 30
0.0
 11
122.5288220197
 21
142.4291209571
 31
0.0
  0
LINE
  5
1EB
330
1F
100
AcDbEntity
  8
0
  6
Continuous
 62
     7
370
    30
100
AcDbLine
 10
115.5288220197
 20
142.4291209571
 30
0.0
 11
115.5288219452
 21
140.8291205167
 31
0.0
  0
LINE
  5
1EC
330
1F
100
AcDbEntity
  8
0
  6
Continuous
 62
     7
370
    30
100
AcDbLine
 10
122.5288220197
 20
142.4291209571
 30
0.0
 11
122.1288220197
 21
142.8291209571
 31
0.0
  0
LINE
  5
1ED
330
1F
100
AcDbEntity
  8
0
  6
Continuous
 62
     7
370
    30
100
AcDbLine
 10
115.9288220197
 20
142.8291209571
 30
0.0
 11
115.5288220197
 21
142.4291209571
 31
0.0
  0
LINE
  5
1EE
330
1F
100
AcDbEntity
  8
0
  6
Continuous
 62
     7
370
    30
100
AcDbLine
 10
150.5288220942
 20
140.8291205167
 30
0.0
 11
150.5288220197
 21
142.4291209571
 31
0.0
  0
LINE
  5
1EF
330
1F
100
AcDbEntity
  8
0
  6
Continuous
 62
     7
370
    30
100
AcDbLine
 10
143.5288220197
 20
142.4291209571
 30
0.0
 11
143.5288218781
 21
140.8291205167
 31
0.0
  0
LINE
  5
1F0
330
1F
100
AcDbEntity
  8
0
  6
Continuous
 62
     7
370
    30
100
AcDbLine
 10
150.5288220197
 20
142.4291209571
 30
0.0
 11
150.1288220197
 21
142.8291209571
 31
0.0
  0
LINE
  5
1F1
330
1F
100
AcDbEntity
  8
0
  6
Continuous
 62
     7
370
    30
100
AcDbLine
 10
143.9288220197
 20
142.8291209571
 30
0.0
 11
143.5288220197
 21
142.4291209571
 31
0.0
  0
LINE
  5
1F2
330
1F
100
AcDbEntity
  8
0
  6
Continuous
 62
     7
370
    30
100
AcDbLine
 10
133.4579089256
 20
142.4291209571
 30
0.0
 11
125.5288220197
 21
142.4291209571
 31
0.0
  0
LINE
  5
1F3
330
1F
100
AcDbEntity
  8
0
  6
Continuous
 62
     7
370
    30
100
AcDbLine
 10
140.5288220197
 20
142.4291209571
 30
0.0
 11
133.4579089256
 21
142.4291209571
 31
0.0
  0
LINE
  5
1F4
330
1F
100
AcDbEntity
  8
0
  6
Continuous
 62
     7
370
    30
100
AcDbLine
 10
133.3778127031
 20
143.9291209571
 30
0.0
 11
126.9288220197
 21
143.9291209571
 31
0.0
  0
LINE
  5
1F5
330
1F
100
AcDbEntity
  8
0
  6
Continuous
 62
     7
370
    30
100
AcDbLine
 10
139.1288220197
 20
143.9291209571
 30
0.0
 11
133.3778127031
 21
143.9291209571
 31
0.0
  0
LINE
  5
1F6
330
1F
100
AcDbEntity
  8
0
  6
Continuous
 62
     7
370
    30
100
AcDbLine
 10
138.0288220197
 20
149.3291209571
 30
0.0
 11
128.0288220197
 21
149.3291209571
 31
0.0
  0
LINE
  5
1F7
330
1F
100
AcDbEntity
  8
0
  6
Continuous
 62
     7
370
    30
100
AcDbLine
 10
128.6288220197
 20
149.9291209571
 30
0.0
 11
137.4288220197
 21
149.9291209571
 31
0.0
  0
CIRCLE
  5
1F8
330
1F
100
AcDbEntity
  8
0
  6
Continuous
 62
     7
370
    30
100
AcDbCircle
 10
133.0288220197
 20
120.0802449733
 30
0.0
 40
4.400000000000006
  0
CIRCLE
  5
1F9
330
1F
100
AcDbEntity
  8
0
  6
Continuous
 62
     7
370
    30
100
AcDbCircle
 10
133.0288220197
 20
120.0802449733
 30
0.0
 40
5.000000000000014
  0
LINE
  5
1FA
330
1F
100
AcDbEntity
  8
0
  6
Continuous
 62
     7
370
    30
100
AcDbLine
 10
133.0288220197
 20
122.9669963228
 30
0.0
 11
130.5288220755
 21
121.5236206641
 31
0.0
  0
LINE
  5
1FB
330
1F
100
AcDbEntity
  8
0
  6
Continuous
 62
     7
370
    30
100
AcDbLine
 10
130.5288220755
 20
121.5236206641
 30
0.0
 11
130.5288220755
 21
118.6368691139
 31
0.0
  0
LINE
  5
1FC
330
1F
100
AcDbEntity
  8
0
  6
Continuous
 62
     7
370
    30
100
AcDbLine
 10
130.5288220755
 20
118.6368691139
 30
0.0
 11
133.0288220197
 21
117.1934937462
 31
0.0
  0
LINE
  5
1FD
330
1F
100
AcDbEntity
  8
0
  6
Continuous
 62
     7
370
    30
100
AcDbLine
 10
133.0288220197
 20
117.1934937462
 30
0.0
 11
135.5288219638
 21
118.6368691139
 31
0.0
  0
LINE
  5
1FE
330
1F
100
AcDbEntity
  8
0
  6
Continuous
 62
     7
370
    30
100
AcDbLine
 10
135.5288219638
 20
118.6368691139
 30
0.0
 11
135.5288219638
 21
121.5236206641
 31
0.0
  0
LINE
  5
1FF
330
1F
100
AcDbEntity
  8
0
  6
Continuous
 62
     7
370
    30
100
AcDbLine
 10
135.5288219638
 20
121.5236206641
 30
0.0
 11
133.0288220197
 21
122.9669963228
 31
0.0
  0
SPLINE
  5
200
330
1F
100
AcDbEntity
  8
0
  6
Continuous
 62
     7
370
    30
100
AcDbSpline
210
0.0
220
0.0
230
1.0
 70
    12
 71
     3
 72
    13
 73
     9
 74
     0
 42
0.00000001
 43
0.00000001
 40
0.0
 40
0.0
 40
0.0
 40
0.0
 40
0.0755917720833218
 40
0.1544519407033159
 40
0.2447065940478314
 40
0.3519230889717337
 40
0.6289524067656894
 40
1.0
 40
1.0
 40
1.0
 40
1.0
 10
147.8248682100256
 20
130.2904455901912
 30
0.0
 41
1.0
 10
147.204800450143
 20
130.3885762559108
 30
0.0
 41
1.0
 10
146.5770785283694
 20
130.397463401579
 30
0.0
 41
1.0
 10
145.9544811508549
 20
130.3169263506166
 30
0.0
 41
1.0
 10
145.3496825409984
 20
130.1486037650934
 30
0.0
 41
1.0
 10
144.7749948123401
 20
129.8959229120842
 30
0.0
 41
1.0
 10
144.2421167151933
 20
129.5640272533379
 30
0.0
 41
1.0
 10
143.7618962949073
 20
129.1596733013026
 30
0.0
 41
1.0
 10
143.3441091788863
 20
128.691092550554
 30
0.0
 41
1.0
  0
SPLINE
  5
201
330
1F
100
AcDbEntity
  8
0
  6
Continuous
 62
     7
370
    30
100
AcDbSpline
210
0.0
220
0.0
230
1.0
 70
    12
 71
     3
 72
    13
 73
     9
 74
     0
 42
0.00000001
 43
0.00000001
 40
0.0
 40
0.0
 40
0.0
 40
0.0
 40
0.0755917893728179
 40
0.1544519441659203
 40
0.2447066458477618
 40
0.3519230564991525
 40
0.628952354191291
 40
1.0
 40
1.0
 40
1.0
 40
1.0
 10
133.028822019664
 20
128.9291209570586
 30
0.0
 41
1.0
 10
133.8269653689542
 20
128.9291209570586
 30
0.0
 41
1.0
 10
133.028822019664
 20
-873.9953295348354
 30
0.0
 41
1.0
 10
133.0288220196675
 20
126.0046704651646
 30
0.0
 41
1.0
 10
-866.9711779803359
 20
2126.004670465165
 30
0.0
 41
1.0
 10
133.028822019664
 20
3126.004670465165
 30
0.0
 41
1.0
 10
149.1979795968091
 20
126.8028137951948
 30
0.0
 41
1.0
 10
149.2998173920368
 20
126.3843026631836
 30
0.0
 41
1.0
 10
149.3288094637846
 20
126.0046704651646
 30
0.0
 41
1.0
  0
SPLINE
  5
202
330
1F
100
AcDbEntity
  8
0
  6
Continuous
 62
     7
370
    30
100
AcDbSpline
210
0.0
220
0.0
230
1.0
 70
    28
 71
     3
 72
    13
 73
     9
 74
     0
 42
0.00000001
 43
0.00000001
 40
0.0
 40
0.0
 40
0.0
 40
0.0
 40
0.0755917893728175
 40
0.1544519441659197
 40
0.2447066458477608
 40
0.351923056499151
 40
0.6289523541912884
 40
1.0
 40
1.0
 40
1.0
 40
1.0
 10
108.7288090487873
 20
132.2123377563291
 30
0.0
 41
1.0
 10
108.7288090487873
 20
132.6310110257797
 30
0.0
 41
1.0
 10
108.7288090487873
 20
132.9719956943624
 30
0.0
 41
1.0
 10
108.7288090487873
 20
133.2312954569094
 30
0.0
 41
1.0
 10
108.7288090487873
 20
133.4058695452146
 30
0.0
 41
1.0
 10
108.7288090487873
 20
133.4936709122591
 30
0.0
 41
1.0
 10
108.7288090487873
 20
133.4936709122591
 30
0.0
 41
1.0
 10
108.7288090487873
 20
133.4058695452146
 30
0.0
 41
1.0
 10
108.7288090487873
 20
133.2312954569094
 30
0.0
 41
1.0
  0
SPLINE
  5
203
330
1F
100
AcDbEntity
  8
0
  6
Continuous
 62
     7
370
    30
100
AcDbSpline
210
0.0
220
0.0
230
1.0
 70
    12
 71
     3
 72
    13
 73
     9
 74
     0
 42
0.00000001
 43
0.00000001
 40
0.0
 40
0.0
 40
0.0
 40
0.0
 40
0.075591783810706
 40
0.1544519276399061
 40
0.2447066148178944
 40
0.3519230907984524
 40
0.6289523186210996
 40
1.0
 40
1.0
 40
1.0
 40
1.0
 10
133.028822019664
 20
126.0046704651646
 30
0.0
 41
1.0
 10
-866.9711779803359
 20
2126.004670465165
 30
0.0
 41
1.0
 10
133.028822019664
 20
27126.00467046517
 30
0.0
 41
1.0
 10
107.2288097342407
 20
126.0046704651646
 30
0.0
 41
1.0
 10
107.2288097342407
 20
126.7399442245111
 30
0.0
 41
1.0
 10
107.2288097342407
 20
127.464496016302
 30
0.0
 41
1.0
 10
107.2288097342407
 20
128.1677602769666
 30
0.0
 41
1.0
 10
107.2288097342407
 20
128.8394818061821
 30
0.0
 41
1.0
 10
107.2288097342407
 20
129.4698654187702
 30
0.0
 41
1.0
  0
SPLINE
  5
204
330
1F
100
AcDbEntity
  8
0
  6
Continuous
 62
     7
370
    30
100
AcDbSpline
210
0.0
220
0.0
230
1.0
 70
    12
 71
     3
 72
    13
 73
     9
 74
     0
 42
0.00000001
 43
0.00000001
 40
0.0
 40
0.0
 40
0.0
 40
0.0
 40
0.0755917989822522
 40
0.154451928400555
 40
0.24470663144497
 40
0.3519230598253853
 40
0.6289523396233769
 40
1.0
 40
1.0
 40
1.0
 40
1.0
 10
107.2288097342407
 20
128.8394818061821
 30
0.0
 41
1.0
 10
107.2288097342407
 20
128.1677602769665
 30
0.0
 41
1.0
 10
107.2288097342407
 20
127.4644960163019
 30
0.0
 41
1.0
 10
107.2288097342407
 20
126.7399442245111
 30
0.0
 41
1.0
 10
107.2288097342407
 20
126.0046704651646
 30
0.0
 41
1.0
 10
12133.02882201966
 20
120.0802449732707
 30
0.0
 41
1.0
 10
133.028822019664
 20
124.4802449732707
 30
0.0
 41
1.0
 10
133.028822019664
 20
115.6802449732707
 30
0.0
 41
1.0
 10
133.028822019664
 20
126.0046704651644
 30
0.0
 41
1.0
  0
SPLINE
  5
205
330
1F
100
AcDbEntity
  8
0
  6
Continuous
 62
     7
370
    30
100
AcDbSpline
210
0.0
220
0.0
230
1.0
 70
    28
 71
     3
 72
    13
 73
     9
 74
     0
 42
0.00000001
 43
0.00000001
 40
0.0
 40
0.0
 40
0.0
 40
0.0
 40
0.3710476813788978
 40
0.648076909201546
 40
0.7552933851821045
 40
0.8455480723600932
 40
0.9244082161892936
 40
1.0
 40
1.0
 40
1.0
 40
1.0
 10
101.228808750764
 20
130.2264395149283
 30
0.0
 41
1.0
 10
101.228808750764
 20
130.0070511156552
 30
0.0
 41
1.0
 10
101.228808750764
 20
129.7061859609418
 30
0.0
 41
1.0
 10
101.228808750764
 20
129.3299686608695
 30
0.0
 41
1.0
 10
101.228808750764
 20
128.8860577137999
 30
0.0
 41
1.0
 10
101.228808750764
 20
128.3834899755053
 30
0.0
 41
1.0
 10
101.228808750764
 20
127.8324964901291
 30
0.0
 41
1.0
 10
101.228808750764
 20
127.2442937575139
 30
0.0
 41
1.0
 10
101.228808750764
 20
126.630855733794
 30
0.0
 41
1.0
  0
CIRCLE
  5
206
330
1F
100
AcDbEntity
  8
0
  6
Continuous
 62
     7
370
    30
100
AcDbCircle
 10
133.0288220197
 20
120.0802449733
 30
0.0
 40
6.100000000000009
  0
CIRCLE
  5
207
330
1F
100
AcDbEntity
  8
0
  6
Continuous
 62
     7
370
    30
100
AcDbCircle
 10
133.0288220197
 20
120.0802449733
 30
0.0
 40
7.499999999999986
  0
ARC
  5
208
330
1F
100
AcDbEntity
  8
0
  6
Continuous
 62
     7
370
    30
100
AcDbCircle
 10
133.0288220197
 20
120.0802449733
 30
0.0
 40
2.500000000000008
100
AcDbArc
 50
0.0
 51
60.0
  0
LINE
  5
209
330
1F
100
AcDbEntity
  8
0
  6
Continuous
 62
     7
370
    30
100
AcDbLine
 10
147.0288224518
 20
107.8122954219
 30
0.0
 11
145.5288222059
 21
106.9462697357
 31
0.0
  0
LINE
  5
20A
330
1F
100
AcDbEntity
  8
0
  6
Continuous
 62
     7
370
    30
100
AcDbLine
 10
145.5288222059
 20
106.9462697357
 30
0.0
 11
145.5288222059
 21
105.2142202258
 31
0.0
  0
LINE
  5
20B
330
1F
100
AcDbEntity
  8
0
  6
Continuous
 62
     7
370
    30
100
AcDbLine
 10
145.5288222059
 20
105.2142202258
 30
0.0
 11
147.0288224518
 21
104.3481945395
 31
0.0
  0
LINE
  5
20C
330
1F
100
AcDbEntity
  8
0
  6
Continuous
 62
     7
370
    30
100
AcDbLine
 10
147.0288224518
 20
104.3481945395
 30
0.0
 11
148.5288217663
 21
105.2142202258
 31
0.0
  0
LINE
  5
20D
330
1F
100
AcDbEntity
  8
0
  6
Continuous
 62
     7
370
    30
100
AcDbLine
 10
148.5288217663
 20
105.2142202258
 30
0.0
 11
148.5288217663
 21
106.9462697357
 31
0.0
  0
LINE
  5
20E
330
1F
100
AcDbEntity
  8
0
  6
Continuous
 62
     7
370
    30
100
AcDbLine
 10
148.5288217663
 20
106.9462697357
 30
0.0
 11
147.0288224518
 21
107.8122954219
 31
0.0
  0
CIRCLE
  5
20F
330
1F
100
AcDbEntity
  8
0
  6
Continuous
 62
     7
370
    30
100
AcDbCircle
 10
147.0288220197
 20
106.0802449733
 30
0.0
 40
3.099999999999994
  0
CIRCLE
  5
210
330
1F
100
AcDbEntity
  8
0
  6
Continuous
 62
     7
370
    30
100
AcDbCircle
 10
147.0288220197
 20
106.0802449733
 30
0.0
 40
3.5
  0
SPLINE
  5
211
330
1F
100
AcDbEntity
  8
0
  6
Continuous
 62
     7
370
    30
100
AcDbSpline
210
0.0
220
0.0
230
1.0
 70
    28
 71
     3
 72
    12
 73
     8
 74
     0
 42
0.00000001
 43
0.00000001
 40
0.0
 40
0.0
 40
0.0
 40
0.0
 40
0.157833171676851
 40
0.307918678328215
 40
0.4720442465515682
 40
0.7062197844603405
 40
1.0
 40
1.0
 40
1.0
 40
1.0
 10
114.6048205328614
 20
101.7046574942879
 30
0.0
 41
1.0
 10
115.092623083058
 20
101.7046574942879
 30
0.0
 41
1.0
 10
115.5289318767816
 20
101.7046574942879
 30
0.0
 41
1.0
 10
115.9024462459117
 20
101.7046574942879
 30
0.0
 41
1.0
 10
116.2034925428659
 20
101.7046574942879
 30
0.0
 41
1.0
 10
116.4242737350494
 20
101.7046574942879
 30
0.0
 41
1.0
 10
116.5590724331766
 20
101.7046574942879
 30
0.0
 41
1.0
 10
116.6043961775929
 20
101.7046574942879
 30
0.0
 41
1.0
  0
SPLINE
  5
212
330
1F
100
AcDbEntity
  8
0
  6
Continuous
 62
     7
370
    30
100
AcDbSpline
210
0.0
220
0.0
230
1.0
 70
    12
 71
     3
 72
    12
 73
     8
 74
     0
 42
0.00000001
 43
0.00000001
 40
0.0
 40
0.0
 40
0.0
 40
0.0
 40
0.1578332378932815
 40
0.3079188075106648
 40
0.4720444445903248
 40
0.7062200807437694
 40
1.0
 40
1.0
 40
1.0
 40
1.0
 10
149.9052774160778
 20
106.7333507686543
 30
0.0
 41
1.0
 10
150.0592436641133
 20
106.2118119895147
 30
0.0
 41
1.0
 10
150.1260288059389
 20
105.6864901780771
 30
0.0
 41
1.0
 10
150.103712454406
 20
105.172495111792
 30
0.0
 41
1.0
 10
149.9929390847361
 20
104.6846124678539
 30
0.0
 41
1.0
 10
149.7968919574893
 20
104.2368828653978
 30
0.0
 41
1.0
 10
149.5212130248225
 20
103.8421809076952
 30
0.0
 41
1.0
 10
149.1738334297812
 20
103.511865004866
 30
0.0
 41
1.0
  0
SPLINE
  5
213
330
1F
100
AcDbEntity
  8
0
  6
Continuous
 62
     7
370
    30
100
AcDbSpline
210
0.0
220
0.0
230
1.0
 70
    12
 71
     3
 72
    12
 73
     8
 74
     0
 42
0.00000001
 43
0.00000001
 40
0.0
 40
0.0
 40
0.0
 40
0.0
 40
0.1578333936882772
 40
0.3079189680181264
 40
0.4720447903475895
 40
0.7062198783318238
 40
1.0
 40
1.0
 40
1.0
 40
1.0
 10
157.6088813593542
 20
141.3765537531904
 30
0.0
 41
1.0
 10
157.8706444701111
 20
141.875301206284
 30
0.0
 41
1.0
 10
158.2090219011461
 20
142.3255993964008
 30
0.0
 41
1.0
 10
158.6152508383547
 20
142.7157881649069
 30
0.0
 41
1.0
 10
159.078809199289
 20
143.0357589365772
 30
0.0
 41
1.0
 10
159.5876922359621
 20
143.2772266657881
 30
0.0
 41
1.0
 10
160.128719871298
 20
143.4339384527735
 30
0.0
 41
1.0
 10
160.6878784945165
 20
143.5018318684629
 30
0.0
 41
1.0
  0
SPLINE
  5
214
330
1F
100
AcDbEntity
  8
0
  6
Continuous
 62
     7
370
    30
100
AcDbSpline
210
0.0
220
0.0
230
1.0
 70
    12
 71
     3
 72
    12
 73
     8
 74
     0
 42
0.00000001
 43
0.00000001
 40
0.0
 40
0.0
 40
0.0
 40
0.0
 40
0.1578332952385068
 40
0.3079189193861709
 40
0.4720446160972606
 40
0.7062203373332568
 40
1.0
 40
1.0
 40
1.0
 40
1.0
 10
133.028822019664
 20
-873.9953295348354
 30
0.0
 41
1.0
 10
-866.9711779803359
 20
126.0046704651646
 30
0.0
 41
1.0
 10
149.8532723990709
 20
156.9046587191633
 30
0.0
 41
1.0
 10
149.8532723990709
 20
156.8600669942908
 30
0.0
 41
1.0
 10
149.8532723990709
 20
156.7275789074711
 30
0.0
 41
1.0
 10
149.8532723990709
 20
156.5110017053894
 30
0.0
 41
1.0
 10
149.8532723990709
 20
156.2165696613602
 30
0.0
 41
1.0
 10
149.8532723990709
 20
155.8527503602318
 30
0.0
 41
1.0
  0
SPLINE
  5
215
330
1F
100
AcDbEntity
  8
0
  6
Continuous
 62
     7
370
    30
100
AcDbSpline
210
0.0
220
0.0
230
1.0
 70
    12
 71
     3
 72
    12
 73
     8
 74
     0
 42
0.00000001
 43
0.00000001
 40
0.0
 40
0.0
 40
0.0
 40
0.0
 40
0.1578332447405211
 40
0.3079184301633325
 40
0.4720444495115058
 40
0.7062193165041422
 40
1.0
 40
1.0
 40
1.0
 40
1.0
 10
141.1043965277701
 20
101.3046579651646
 30
0.0
 41
1.0
 10
144.2043965277701
 20
101.3046579651646
 30
0.0
 41
1.0
 10
138.0043965277701
 20
101.3046579651646
 30
0.0
 41
1.0
 10
133.0288220196638
 20
-873.9953295348354
 30
0.0
 41
1.0
 10
133.028822019664
 20
126.0046704651646
 30
0.0
 41
1.0
 10
2133.028822019664
 20
-873.9953295348354
 30
0.0
 41
1.0
 10
20133.02882201966
 20
137.1802452355312
 30
0.0
 41
1.0
 10
147.0288224517976
 20
137.1356544419812
 30
0.0
 41
1.0
  0
SPLINE
  5
216
330
1F
100
AcDbEntity
  8
0
  6
Continuous
 62
     7
370
    30
100
AcDbSpline
210
0.0
220
0.0
230
1.0
 70
    12
 71
     3
 72
    12
 73
     8
 74
     0
 42
0.00000001
 43
0.00000001
 40
0.0
 40
0.0
 40
0.0
 40
0.0
 40
0.2535799672431998
 40
0.4629721302468785
 40
0.6367310532712307
 40
0.8157220913946812
 40
1.0
 40
1.0
 40
1.0
 40
1.0
 10
108.3288097282802
 20
141.2815644385151
 30
0.0
 41
1.0
 10
108.3288097282802
 20
140.7858028055958
 30
0.0
 41
1.0
 10
108.3288097282802
 20
140.2675692902736
 30
0.0
 41
1.0
 10
108.3288097282802
 20
140.0046708972983
 30
0.0
 41
1.0
 10
12133.02882201966
 20
134.0802449732708
 30
0.0
 41
1.0
 10
147.0288220196639
 20
130.5802449732708
 30
0.0
 41
1.0
 10
147.0288220196639
 20
137.5802449732708
 30
0.0
 41
1.0
 10
147.0288220196639
 20
126.0046704651648
 30
0.0
 41
1.0
  0
LINE
  5
217
330
1F
100
AcDbEntity
  8
0
  6
Continuous
 62
     7
370
    30
100
AcDbLine
 10
147.0288224518
 20
135.8122953549
 30
0.0
 11
145.5288222059
 21
134.9462705999
 31
0.0
  0
LINE
  5
218
330
1F
100
AcDbEntity
  8
0
  6
Continuous
 62
     7
370
    30
100
AcDbLine
 10
145.5288222059
 20
134.9462705999
 30
0.0
 11
145.5288222059
 21
133.2142192274
 31
0.0
  0
LINE
  5
219
330
1F
100
AcDbEntity
  8
0
  6
Continuous
 62
     7
370
    30
100
AcDbLine
 10
145.5288222059
 20
133.2142192274
 30
0.0
 11
147.0288224518
 21
132.3481944725
 31
0.0
  0
LINE
  5
21A
330
1F
100
AcDbEntity
  8
0
  6
Continuous
 62
     7
370
    30
100
AcDbLine
 10
147.0288224518
 20
132.3481944725
 30
0.0
 11
148.5288217663
 21
133.2142192274
 31
0.0
  0
LINE
  5
21B
330
1F
100
AcDbEntity
  8
0
  6
Continuous
 62
     7
370
    30
100
AcDbLine
 10
148.5288217663
 20
133.2142192274
 30
0.0
 11
148.5288217663
 21
134.9462705999
 31
0.0
  0
LINE
  5
21C
330
1F
100
AcDbEntity
  8
0
  6
Continuous
 62
     7
370
    30
100
AcDbLine
 10
148.5288217663
 20
134.9462705999
 30
0.0
 11
147.0288224518
 21
135.8122953549
 31
0.0
  0
CIRCLE
  5
21D
330
1F
100
AcDbEntity
  8
0
  6
Continuous
 62
     7
370
    30
100
AcDbCircle
 10
147.0288220197
 20
134.0802449733
 30
0.0
 40
3.099999999999994
  0
CIRCLE
  5
21E
330
1F
100
AcDbEntity
  8
0
  6
Continuous
 62
     7
370
    30
100
AcDbCircle
 10
147.0288220197
 20
134.0802449733
 30
0.0
 40
3.5
  0
SPLINE
  5
21F
330
1F
100
AcDbEntity
  8
0
  6
Continuous
 62
     7
370
    30
100
AcDbSpline
210
0.0
220
0.0
230
1.0
 70
    12
 71
     3
 72
    12
 73
     8
 74
     0
 42
0.00000001
 43
0.00000001
 40
0.0
 40
0.0
 40
0.0
 40
0.0
 40
0.1578333162622154
 40
0.3079187375578507
 40
0.4720445235943337
 40
0.7062199192989404
 40
1.0
 40
1.0
 40
1.0
 40
1.0
 10
-866.9711779803359
 20
126.0046704651646
 30
0.0
 41
1.0
 10
137.104396743837
 20
118.8046582482866
 30
0.0
 41
1.0
 10
117.1043962595493
 20
118.8046582482866
 30
0.0
 41
1.0
 10
133.028822019664
 20
126.0046704651646
 30
0.0
 41
1.0
 10
133.028822019664
 20
-873.9953295348354
 30
0.0
 41
1.0
 10
-866.9711779803359
 20
126.0046704651646
 30
0.0
 41
1.0
 10
117.1043962595493
 20
114.5546570859961
 30
0.0
 41
1.0
 10
117.1043962595493
 20
118.8046582482866
 30
0.0
 41
1.0
  0
SPLINE
  5
220
330
1F
100
AcDbEntity
  8
0
  6
Continuous
 62
     7
370
    30
100
AcDbSpline
210
0.0
220
0.0
230
1.0
 70
    12
 71
     3
 72
    12
 73
     8
 74
     0
 42
0.00000001
 43
0.00000001
 40
0.0
 40
0.0
 40
0.0
 40
0.0
 40
0.1578333299454004
 40
0.307918843661421
 40
0.4720445997067358
 40
0.7062199969783894
 40
1.0
 40
1.0
 40
1.0
 40
1.0
 10
151.0288212448037
 20
126.0046704651646
 30
0.0
 41
1.0
 10
133.028822019664
 20
126.0046704651646
 30
0.0
 41
1.0
 10
2133.028822019664
 20
-873.9953295348354
 30
0.0
 41
1.0
 10
2133.028822019664
 20
123.0802449732708
 30
0.0
 41
1.0
 10
134.5288220327025
 20
102.0802452563928
 30
0.0
 41
1.0
 10
134.5288220327026
 20
126.0046704651646
 30
0.0
 41
1.0
 10
133.028822019664
 20
126.0046704651646
 30
0.0
 41
1.0
 10
2133.028822019664
 20
-873.9953295348354
 30
0.0
 41
1.0
  0
SPLINE
  5
221
330
1F
100
AcDbEntity
  8
0
  6
Continuous
 62
     7
370
    30
100
AcDbSpline
210
0.0
220
0.0
230
1.0
 70
    12
 71
     3
 72
    12
 73
     8
 74
     0
 42
0.00000001
 43
0.00000001
 40
0.0
 40
0.0
 40
0.0
 40
0.0
 40
0.1578332487162394
 40
0.307918779021515
 40
0.4720443731115344
 40
0.7062199479270512
 40
1.0
 40
1.0
 40
1.0
 40
1.0
 10
133.028822019664
 20
2126.004670465165
 30
0.0
 41
1.0
 10
120.5788103392278
 20
144.0046696903042
 30
0.0
 41
1.0
 10
120.5788103392278
 20
144.0046696903042
 30
0.0
 41
1.0
 10
133.028822019664
 20
126.0046704651646
 30
0.0
 41
1.0
 10
-866.9711779803359
 20
2126.004670465165
 30
0.0
 41
1.0
 10
133.028822019664
 20
2126.004670465165
 30
0.0
 41
1.0
 10
110.3288100561058
 20
144.0046696903042
 30
0.0
 41
1.0
 10
120.5788103392278
 20
144.0046696903042
 30
0.0
 41
1.0
  0
SPLINE
  5
222
330
1F
100
AcDbEntity
  8
0
  6
Continuous
 62
     7
370
    30
100
AcDbSpline
210
0.0
220
0.0
230
1.0
 70
    12
 71
     3
 72
    12
 73
     8
 74
     0
 42
0.00000001
 43
0.00000001
 40
0.0
 40
0.0
 40
0.0
 40
0.0
 40
0.1578333736074187
 40
0.3079188494332331
 40
0.4720446951011476
 40
0.7062201758881436
 40
1.0
 40
1.0
 40
1.0
 40
1.0
 10
133.028822019664
 20
126.0046704651646
 30
0.0
 41
1.0
 10
133.028822019664
 20
-873.9953295348354
 30
0.0
 41
1.0
 10
-866.9711779803359
 20
126.0046704651646
 30
0.0
 41
1.0
 10
137.6032727194458
 20
121.804658740025
 30
0.0
 41
1.0
 10
137.6032727194458
 20
129.804658188682
 30
0.0
 41
1.0
 10
133.028822019664
 20
126.0046704651646
 30
0.0
 41
1.0
 10
133.028822019664
 20
-873.9953295348354
 30
0.0
 41
1.0
 10
-866.9711779803359
 20
126.0046704651646
 30
0.0
 41
1.0
  0
SPLINE
  5
223
330
1F
100
AcDbEntity
  8
0
  6
Continuous
 62
     7
370
    30
100
AcDbSpline
210
0.0
220
0.0
230
1.0
 70
    12
 71
     3
 72
    12
 73
     8
 74
     0
 42
0.00000001
 43
0.00000001
 40
0.0
 40
0.0
 40
0.0
 40
0.0
 40
0.2535798163645232
 40
0.4629720282327313
 40
0.6367309918061082
 40
0.8157219311646954
 40
1.0
 40
1.0
 40
1.0
 40
1.0
 10
2133.028822019664
 20
130.5791211649465
 30
0.0
 41
1.0
 10
151.0288212448036
 20
130.5791211649465
 30
0.0
 41
1.0
 10
151.0288212448036
 20
126.0046704651646
 30
0.0
 41
1.0
 10
133.028822019664
 20
126.0046704651646
 30
0.0
 41
1.0
 10
2133.028822019664
 20
-873.9953295348354
 30
0.0
 41
1.0
 10
2133.028822019664
 20
140.829120516746
 30
0.0
 41
1.0
 10
151.0288212448035
 20
130.5791211649465
 30
0.0
 41
1.0
 10
151.0288212448036
 20
126.0046704651646
 30
0.0
 41
1.0
  0
SPLINE
  5
224
330
1F
100
AcDbEntity
  8
0
  6
Continuous
 62
     7
370
    30
100
AcDbSpline
210
0.0
220
0.0
230
1.0
 70
    31
 71
     3
 72
    12
 73
     8
 74
     0
 42
0.00000001
 43
0.00000001
 40
0.0
 40
0.0
 40
0.0
 40
0.0
 40
0.1578333134307034
 40
0.3079185641716848
 40
0.4720446549487019
 40
0.7062200277176999
 40
1.0
 40
1.0
 40
1.0
 40
1.0
 10
133.028822019664
 20
126.0046704651646
 30
0.0
 41
1.0
 10
133.028822019664
 20
126.0046704651646
 30
0.0
 41
1.0
 10
133.028822019664
 20
126.0046704651646
 30
0.0
 41
1.0
 10
133.028822019664
 20
126.0046704651646
 30
0.0
 41
1.0
 10
133.028822019664
 20
126.0046704651646
 30
0.0
 41
1.0
 10
133.028822019664
 20
126.0046704651646
 30
0.0
 41
1.0
 10
133.028822019664
 20
126.0046704651646
 30
0.0
 41
1.0
 10
133.028822019664
 20
126.0046704651646
 30
0.0
 41
1.0
  0
LINE
  5
225
330
1F
100
AcDbEntity
  8
0
  6
Continuous
 62
     7
370
    30
100
AcDbLine
 10
119.0288215875
 20
107.8122954219
 30
0.0
 11
117.528822273
 21
106.9462697357
 31
0.0
  0
LINE
  5
226
330
1F
100
AcDbEntity
  8
0
  6
Continuous
 62
     7
370
    30
100
AcDbLine
 10
117.528822273
 20
106.9462697357
 30
0.0
 11
117.528822273
 21
105.2142202258
 31
0.0
  0
LINE
  5
227
330
1F
100
AcDbEntity
  8
0
  6
Continuous
 62
     7
370
    30
100
AcDbLine
 10
117.528822273
 20
105.2142202258
 30
0.0
 11
119.0288215875
 21
104.3481945395
 31
0.0
  0
LINE
  5
228
330
1F
100
AcDbEntity
  8
0
  6
Continuous
 62
     7
370
    30
100
AcDbLine
 10
119.0288215875
 20
104.3481945395
 30
0.0
 11
120.5288218334
 21
105.2142202258
 31
0.0
  0
LINE
  5
229
330
1F
100
AcDbEntity
  8
0
  6
Continuous
 62
     7
370
    30
100
AcDbLine
 10
120.5288218334
 20
105.2142202258
 30
0.0
 11
120.5288218334
 21
106.9462697357
 31
0.0
  0
LINE
  5
22A
330
1F
100
AcDbEntity
  8
0
  6
Continuous
 62
     7
370
    30
100
AcDbLine
 10
120.5288218334
 20
106.9462697357
 30
0.0
 11
119.0288215875
 21
107.8122954219
 31
0.0
  0
CIRCLE
  5
22B
330
1F
100
AcDbEntity
  8
0
  6
Continuous
 62
     7
370
    30
100
AcDbCircle
 10
119.0288220197
 20
106.0802449733
 30
0.0
 40
3.099999999999994
  0
CIRCLE
  5
22C
330
1F
100
AcDbEntity
  8
0
  6
Continuous
 62
     7
370
    30
100
AcDbCircle
 10
119.0288220197
 20
106.0802449733
 30
0.0
 40
3.5
  0
SPLINE
  5
22D
330
1F
100
AcDbEntity
  8
0
  6
Continuous
 62
     7
370
    30
100
AcDbSpline
210
0.0
220
0.0
230
1.0
 70
    31
 71
     3
 72
    12
 73
     8
 74
     0
 42
0.00000001
 43
0.00000001
 40
0.0
 40
0.0
 40
0.0
 40
0.0
 40
0.1578332290219462
 40
0.3079187902034674
 40
0.4720444180581151
 40
0.7062200410492461
 40
1.0
 40
1.0
 40
1.0
 40
1.0
 10
133.028822019664
 20
126.0046704651646
 30
0.0
 41
1.0
 10
133.028822019664
 20
126.0046704651646
 30
0.0
 41
1.0
 10
133.028822019664
 20
126.0046704651646
 30
0.0
 41
1.0
 10
133.028822019664
 20
126.0046704651646
 30
0.0
 41
1.0
 10
133.028822019664
 20
126.0046704651646
 30
0.0
 41
1.0
 10
133.028822019664
 20
126.0046704651646
 30
0.0
 41
1.0
 10
133.028822019664
 20
126.0046704651646
 30
0.0
 41
1.0
 10
133.028822019664
 20
126.0046704651646
 30
0.0
 41
1.0
  0
SPLINE
  5
22E
330
1F
100
AcDbEntity
  8
0
  6
Continuous
 62
     7
370
    30
100
AcDbSpline
210
0.0
220
0.0
230
1.0
 70
    31
 71
     3
 72
    12
 73
     8
 74
     0
 42
0.00000001
 43
0.00000001
 40
0.0
 40
0.0
 40
0.0
 40
0.0
 40
0.1578332952385068
 40
0.3079189193861709
 40
0.4720446160972606
 40
0.7062203373332568
 40
1.0
 40
1.0
 40
1.0
 40
1.0
 10
133.028822019664
 20
126.0046704651646
 30
0.0
 41
1.0
 10
133.028822019664
 20
126.0046704651646
 30
0.0
 41
1.0
 10
133.028822019664
 20
126.0046704651646
 30
0.0
 41
1.0
 10
133.028822019664
 20
126.0046704651646
 30
0.0
 41
1.0
 10
133.028822019664
 20
126.0046704651646
 30
0.0
 41
1.0
 10
133.028822019664
 20
126.0046704651646
 30
0.0
 41
1.0
 10
133.028822019664
 20
126.0046704651646
 30
0.0
 41
1.0
 10
133.028822019664
 20
126.0046704651646
 30
0.0
 41
1.0
  0
SPLINE
  5
22F
330
1F
100
AcDbEntity
  8
0
  6
Continuous
 62
     7
370
    30
100
AcDbSpline
210
0.0
220
0.0
230
1.0
 70
    31
 71
     3
 72
    12
 73
     8
 74
     0
 42
0.00000001
 43
0.00000001
 40
0.0
 40
0.0
 40
0.0
 40
0.0
 40
0.1578333936882772
 40
0.3079189680181264
 40
0.4720447903475895
 40
0.7062198783318238
 40
1.0
 40
1.0
 40
1.0
 40
1.0
 10
133.028822019664
 20
126.0046704651646
 30
0.0
 41
1.0
 10
133.028822019664
 20
126.0046704651646
 30
0.0
 41
1.0
 10
133.028822019664
 20
126.0046704651646
 30
0.0
 41
1.0
 10
133.028822019664
 20
126.0046704651646
 30
0.0
 41
1.0
 10
133.028822019664
 20
126.0046704651646
 30
0.0
 41
1.0
 10
133.028822019664
 20
126.0046704651646
 30
0.0
 41
1.0
 10
133.028822019664
 20
126.0046704651646
 30
0.0
 41
1.0
 10
133.028822019664
 20
126.0046704651646
 30
0.0
 41
1.0
  0
SPLINE
  5
230
330
1F
100
AcDbEntity
  8
0
  6
Continuous
 62
     7
370
    30
100
AcDbSpline
210
0.0
220
0.0
230
1.0
 70
    31
 71
     3
 72
    12
 73
     8
 74
     0
 42
0.00000001
 43
0.00000001
 40
0.0
 40
0.0
 40
0.0
 40
0.0
 40
0.1578332378932815
 40
0.3079188075106648
 40
0.4720444445903248
 40
0.7062200807437694
 40
1.0
 40
1.0
 40
1.0
 40
1.0
 10
133.028822019664
 20
126.0046704651646
 30
0.0
 41
1.0
 10
133.028822019664
 20
126.0046704651646
 30
0.0
 41
1.0
 10
133.028822019664
 20
126.0046704651646
 30
0.0
 41
1.0
 10
133.028822019664
 20
126.0046704651646
 30
0.0
 41
1.0
 10
133.028822019664
 20
126.0046704651646
 30
0.0
 41
1.0
 10
133.028822019664
 20
126.0046704651646
 30
0.0
 41
1.0
 10
133.028822019664
 20
126.0046704651646
 30
0.0
 41
1.0
 10
133.028822019664
 20
126.0046704651646
 30
0.0
 41
1.0
  0
SPLINE
  5
231
330
1F
100
AcDbEntity
  8
0
  6
Continuous
 62
     7
370
    30
100
AcDbSpline
210
0.0
220
0.0
230
1.0
 70
    31
 71
     3
 72
    12
 73
     8
 74
     0
 42
0.00000001
 43
0.00000001
 40
0.0
 40
0.0
 40
0.0
 40
0.0
 40
0.2535802747900033
 40
0.4629723913227505
 40
0.6367312757843462
 40
0.8157220307706394
 40
1.0
 40
1.0
 40
1.0
 40
1.0
 10
133.028822019664
 20
126.0046704651646
 30
0.0
 41
1.0
 10
133.028822019664
 20
126.0046704651646
 30
0.0
 41
1.0
 10
133.028822019664
 20
126.0046704651646
 30
0.0
 41
1.0
 10
133.028822019664
 20
126.0046704651646
 30
0.0
 41
1.0
 10
133.028822019664
 20
126.0046704651646
 30
0.0
 41
1.0
 10
133.028822019664
 20
126.0046704651646
 30
0.0
 41
1.0
 10
133.028822019664
 20
126.0046704651646
 30
0.0
 41
1.0
 10
133.028822019664
 20
126.0046704651646
 30
0.0
 41
1.0
  0
SPLINE
  5
232
330
1F
100
AcDbEntity
  8
0
  6
Continuous
 62
     7
370
    30
100
AcDbSpline
210
0.0
220
0.0
230
1.0
 70
    31
 71
     3
 72
    12
 73
     8
 74
     0
 42
0.00000001
 43
0.00000001
 40
0.0
 40
0.0
 40
0.0
 40
0.0
 40
0.1578332447405211
 40
0.3079184301633325
 40
0.4720444495115058
 40
0.7062193165041422
 40
1.0
 40
1.0
 40
1.0
 40
1.0
 10
133.028822019664
 20
126.0046704651646
 30
0.0
 41
1.0
 10
133.028822019664
 20
126.0046704651646
 30
0.0
 41
1.0
 10
133.028822019664
 20
126.0046704651646
 30
0.0
 41
1.0
 10
133.028822019664
 20
126.0046704651646
 30
0.0
 41
1.0
 10
133.028822019664
 20
126.0046704651646
 30
0.0
 41
1.0
 10
133.028822019664
 20
126.0046704651646
 30
0.0
 41
1.0
 10
133.028822019664
 20
126.0046704651646
 30
0.0
 41
1.0
 10
133.028822019664
 20
126.0046704651646
 30
0.0
 41
1.0
  0
LINE
  5
233
330
1F
100
AcDbEntity
  8
0
  6
Continuous
 62
     7
370
    30
100
AcDbLine
 10
119.0288215875
 20
135.8122953549
 30
0.0
 11
117.528822273
 21
134.9462705999
 31
0.0
  0
LINE
  5
234
330
1F
100
AcDbEntity
  8
0
  6
Continuous
 62
     7
370
    30
100
AcDbLine
 10
117.528822273
 20
134.9462705999
 30
0.0
 11
117.528822273
 21
133.2142192274
 31
0.0
  0
LINE
  5
235
330
1F
100
AcDbEntity
  8
0
  6
Continuous
 62
     7
370
    30
100
AcDbLine
 10
117.528822273
 20
133.2142192274
 30
0.0
 11
119.0288215875
 21
132.3481944725
 31
0.0
  0
LINE
  5
236
330
1F
100
AcDbEntity
  8
0
  6
Continuous
 62
     7
370
    30
100
AcDbLine
 10
119.0288215875
 20
132.3481944725
 30
0.0
 11
120.5288218334
 21
133.2142192274
 31
0.0
  0
LINE
  5
237
330
1F
100
AcDbEntity
  8
0
  6
Continuous
 62
     7
370
    30
100
AcDbLine
 10
120.5288218334
 20
133.2142192274
 30
0.0
 11
120.5288218334
 21
134.9462705999
 31
0.0
  0
LINE
  5
238
330
1F
100
AcDbEntity
  8
0
  6
Continuous
 62
     7
370
    30
100
AcDbLine
 10
120.5288218334
 20
134.9462705999
 30
0.0
 11
119.0288215875
 21
135.8122953549
 31
0.0
  0
CIRCLE
  5
239
330
1F
100
AcDbEntity
  8
0
  6
Continuous
 62
     7
370
    30
100
AcDbCircle
 10
119.0288220197
 20
134.0802449733
 30
0.0
 40
3.099999999999994
  0
CIRCLE
  5
23A
330
1F
100
AcDbEntity
  8
0
  6
Continuous
 62
     7
370
    30
100
AcDbCircle
 10
119.0288220197
 20
134.0802449733
 30
0.0
 40
3.5
  0
SPLINE
  5
23B
330
1F
100
AcDbEntity
  8
0
  6
Continuous
 62
     7
370
    30
100
AcDbSpline
210
0.0
220
0.0
230
1.0
 70
    31
 71
     3
 72
    12
 73
     8
 74
     0
 42
0.00000001
 43
0.00000001
 40
0.0
 40
0.0
 40
0.0
 40
0.0
 40
0.1578333060614126
 40
0.3079188908969016
 40
0.4720445446182767
 40
0.7062202045162399
 40
1.0
 40
1.0
 40
1.0
 40
1.0
 10
133.028822019664
 20
126.0046704651646
 30
0.0
 41
1.0
 10
133.028822019664
 20
126.0046704651646
 30
0.0
 41
1.0
 10
133.028822019664
 20
126.0046704651646
 30
0.0
 41
1.0
 10
133.028822019664
 20
126.0046704651646
 30
0.0
 41
1.0
 10
133.028822019664
 20
126.0046704651646
 30
0.0
 41
1.0
 10
133.028822019664
 20
126.0046704651646
 30
0.0
 41
1.0
 10
133.028822019664
 20
126.0046704651646
 30
0.0
 41
1.0
 10
133.028822019664
 20
126.0046704651646
 30
0.0
 41
1.0
  0
SPLINE
  5
23C
330
1F
100
AcDbEntity
  8
0
  6
Continuous
 62
     7
370
    30
100
AcDbSpline
210
0.0
220
0.0
230
1.0
 70
    31
 71
     3
 72
    12
 73
     8
 74
     0
 42
0.00000001
 43
0.00000001
 40
0.0
 40
0.0
 40
0.0
 40
0.0
 40
0.1578333736074187
 40
0.3079188494332331
 40
0.4720446951011476
 40
0.7062201758881436
 40
1.0
 40
1.0
 40
1.0
 40
1.0
 10
133.028822019664
 20
126.0046704651646
 30
0.0
 41
1.0
 10
133.028822019664
 20
126.0046704651646
 30
0.0
 41
1.0
 10
133.028822019664
 20
126.0046704651646
 30
0.0
 41
1.0
 10
133.028822019664
 20
126.0046704651646
 30
0.0
 41
1.0
 10
133.028822019664
 20
126.0046704651646
 30
0.0
 41
1.0
 10
133.028822019664
 20
126.0046704651646
 30
0.0
 41
1.0
 10
133.028822019664
 20
126.0046704651646
 30
0.0
 41
1.0
 10
133.028822019664
 20
126.0046704651646
 30
0.0
 41
1.0
  0
SPLINE
  5
23D
330
1F
100
AcDbEntity
  8
0
  6
Continuous
 62
     7
370
    30
100
AcDbSpline
210
0.0
220
0.0
230
1.0
 70
    31
 71
     3
 72
    12
 73
     8
 74
     0
 42
0.00000001
 43
0.00000001
 40
0.0
 40
0.0
 40
0.0
 40
0.0
 40
0.1578333299454004
 40
0.307918843661421
 40
0.4720445997067358
 40
0.7062199969783894
 40
1.0
 40
1.0
 40
1.0
 40
1.0
 10
133.028822019664
 20
126.0046704651646
 30
0.0
 41
1.0
 10
133.028822019664
 20
126.0046704651646
 30
0.0
 41
1.0
 10
133.028822019664
 20
126.0046704651646
 30
0.0
 41
1.0
 10
133.028822019664
 20
126.0046704651646
 30
0.0
 41
1.0
 10
133.028822019664
 20
126.0046704651646
 30
0.0
 41
1.0
 10
133.028822019664
 20
126.0046704651646
 30
0.0
 41
1.0
 10
133.028822019664
 20
126.0046704651646
 30
0.0
 41
1.0
 10
133.028822019664
 20
126.0046704651646
 30
0.0
 41
1.0
  0
SPLINE
  5
23E
330
1F
100
AcDbEntity
  8
0
  6
Continuous
 62
     7
370
    30
100
AcDbSpline
210
0.0
220
0.0
230
1.0
 70
    31
 71
     3
 72
    12
 73
     8
 74
     0
 42
0.00000001
 43
0.00000001
 40
0.0
 40
0.0
 40
0.0
 40
0.0
 40
0.1578333162622154
 40
0.3079187375578507
 40
0.4720445235943337
 40
0.7062199192989404
 40
1.0
 40
1.0
 40
1.0
 40
1.0
 10
133.028822019664
 20
126.0046704651646
 30
0.0
 41
1.0
 10
133.028822019664
 20
126.0046704651646
 30
0.0
 41
1.0
 10
133.028822019664
 20
126.0046704651646
 30
0.0
 41
1.0
 10
133.028822019664
 20
126.0046704651646
 30
0.0
 41
1.0
 10
133.028822019664
 20
126.0046704651646
 30
0.0
 41
1.0
 10
133.028822019664
 20
126.0046704651646
 30
0.0
 41
1.0
 10
133.028822019664
 20
126.0046704651646
 30
0.0
 41
1.0
 10
133.028822019664
 20
126.0046704651646
 30
0.0
 41
1.0
  0
SPLINE
  5
23F
330
1F
100
AcDbEntity
  8
0
  6
Continuous
 62
     7
370
    30
100
AcDbSpline
210
0.0
220
0.0
230
1.0
 70
    31
 71
     3
 72
    12
 73
     8
 74
     0
 42
0.00000001
 43
0.00000001
 40
0.0
 40
0.0
 40
0.0
 40
0.0
 40
0.2535801239117217
 40
0.4629722893089671
 40
0.6367312143195616
 40
0.815721870540748
 40
1.0
 40
1.0
 40
1.0
 40
1.0
 10
133.028822019664
 20
126.0046704651646
 30
0.0
 41
1.0
 10
133.028822019664
 20
126.0046704651646
 30
0.0
 41
1.0
 10
133.028822019664
 20
126.0046704651646
 30
0.0
 41
1.0
 10
133.028822019664
 20
126.0046704651646
 30
0.0
 41
1.0
 10
133.028822019664
 20
126.0046704651646
 30
0.0
 41
1.0
 10
133.028822019664
 20
126.0046704651646
 30
0.0
 41
1.0
 10
133.028822019664
 20
126.0046704651646
 30
0.0
 41
1.0
 10
133.028822019664
 20
126.0046704651646
 30
0.0
 41
1.0
  0
SPLINE
  5
240
330
1F
100
AcDbEntity
  8
0
  6
Continuous
 62
     7
370
    30
100
AcDbSpline
210
0.0
220
0.0
230
1.0
 70
    31
 71
     3
 72
    12
 73
     8
 74
     0
 42
0.00000001
 43
0.00000001
 40
0.0
 40
0.0
 40
0.0
 40
0.0
 40
0.1578333134307034
 40
0.3079185641716848
 40
0.4720446549487019
 40
0.7062200277176999
 40
1.0
 40
1.0
 40
1.0
 40
1.0
 10
133.028822019664
 20
126.0046704651646
 30
0.0
 41
1.0
 10
133.028822019664
 20
126.0046704651646
 30
0.0
 41
1.0
 10
133.028822019664
 20
126.0046704651646
 30
0.0
 41
1.0
 10
133.028822019664
 20
126.0046704651646
 30
0.0
 41
1.0
 10
133.028822019664
 20
126.0046704651646
 30
0.0
 41
1.0
 10
133.028822019664
 20
126.0046704651646
 30
0.0
 41
1.0
 10
133.028822019664
 20
126.0046704651646
 30
0.0
 41
1.0
 10
133.028822019664
 20
126.0046704651646
 30
0.0
 41
1.0
  0
LINE
  5
241
330
1F
100
AcDbEntity
  8
0
  6
Continuous
 62
     7
370
    30
100
AcDbLine
 10
122.5288220197
 20
142.4291209571
 30
0.0
 11
115.5288220197
 21
142.4291209571
 31
0.0
  0
LINE
  5
242
330
1F
100
AcDbEntity
  8
0
  6
Continuous
 62
     7
370
    30
100
AcDbLine
 10
115.9288220197
 20
142.8291209571
 30
0.0
 11
122.1288220197
 21
142.8291209571
 31
0.0
  0
LINE
  5
243
330
1F
100
AcDbEntity
  8
0
  6
Continuous
 62
     7
370
    30
100
AcDbLine
 10
150.5288220197
 20
142.4291209571
 30
0.0
 11
143.5288220197
 21
142.4291209571
 31
0.0
  0
LINE
  5
244
330
1F
100
AcDbEntity
  8
0
  6
Continuous
 62
     7
370
    30
100
AcDbLine
 10
143.9288220197
 20
142.8291209571
 30
0.0
 11
150.1288220197
 21
142.8291209571
 31
0.0
  0
LINE
  5
245
330
1F
100
AcDbEntity
  8
0
  6
Continuous
 62
     7
370
    30
100
AcDbLine
 10
151.0288212448
 20
138.080244638
 30
0.0
 11
115.0288227945
 21
138.080244638
 31
0.0
  0
LINE
  5
246
330
1F
100
AcDbEntity
  8
0
  6
Continuous
 62
     7
370
    30
100
AcDbLine
 10
151.0288212448
 20
102.0802452564
 30
0.0
 11
151.0288212448
 21
138.080244638
 31
0.0
  0
LINE
  5
247
330
1F
100
AcDbEntity
  8
0
  6
Continuous
 62
     7
370
    30
100
AcDbLine
 10
115.0288227945
 20
138.080244638
 30
0.0
 11
115.0288227945
 21
102.0802452564
 31
0.0
  0
CIRCLE
  5
248
330
1F
100
AcDbEntity
  8
0
  6
Continuous
 62
     7
370
    30
100
AcDbCircle
 10
119.0288220197
 20
106.0802449733
 30
0.0
 40
3.750000000000014
  0
CIRCLE
  5
249
330
1F
100
AcDbEntity
  8
0
  6
Continuous
 62
     7
370
    30
100
AcDbCircle
 10
147.0288220197
 20
106.0802449733
 30
0.0
 40
3.75
  0
CIRCLE
  5
24A
330
1F
100
AcDbEntity
  8
0
  6
Continuous
 62
     7
370
    30
100
AcDbCircle
 10
147.0288220197
 20
134.0802449733
 30
0.0
 40
3.75
  0
CIRCLE
  5
24B
330
1F
100
AcDbEntity
  8
0
  6
Continuous
 62
     7
370
    30
100
AcDbCircle
 10
119.0288220197
 20
134.0802449733
 30
0.0
 40
3.75
  0
LINE
  5
24C
330
1F
100
AcDbEntity
  8
0
  6
Continuous
 62
     7
370
    30
100
AcDbLine
 10
115.0288227945
 20
102.0802452564
 30
0.0
 11
151.0288212448
 21
102.0802452564
 31
0.0
  0
LINE
  5
24D
330
1F
100
AcDbEntity
  8
0
  6
Continuous
 62
     7
370
    30
100
AcDbLine
 10
115.0288227945
 20
140.8291205167
 30
0.0
 11
115.0288227945
 21
138.080244638
 31
0.0
  0
LINE
  5
24E
330
1F
100
AcDbEntity
  8
0
  6
Continuous
 62
     7
370
    30
100
AcDbLine
 10
115.0288227945
 20
140.8291205167
 30
0.0
 11
151.0288212448
 21
140.8291205167
 31
0.0
  0
LINE
  5
24F
330
1F
100
AcDbEntity
  8
0
  6
Continuous
 62
     7
370
    30
100
AcDbLine
 10
151.0288212448
 20
140.8291205167
 30
0.0
 11
151.0288212448
 21
138.080244638
 31
0.0
  0
ENDSEC
  0
SECTION
  2
OBJECTS
  0
DICTIONARY
  5
C
330
0
100
AcDbDictionary
281
     1
  3
ACAD_GROUP
350
D
  3
ACAD_LAYOUT
350
1A
  3
ACAD_MLINESTYLE
350
17
  3
ACAD_PLOTSETTINGS
350
19
  3
ACAD_PLOTSTYLENAME
350
E
  0
DICTIONARY
  5
D
102
{ACAD_REACTORS
330
C
102
}
330
C
100
AcDbDictionary
281
     1
  0
DICTIONARY
  5
1A
102
{ACAD_REACTORS
330
C
102
}
330
C
100
AcDbDictionary
281
     1
  3
Layout1
350
1E
  3
Layout2
350
26
  3
Model
350
22
  0
DICTIONARY
  5
17
102
{ACAD_REACTORS
330
C
102
}
330
C
100
AcDbDictionary
281
     1
  3
Standard
350
18
  0
DICTIONARY
  5
19
102
{ACAD_REACTORS
330
C
102
}
330
C
100
AcDbDictionary
281
     1
  0
ACDBDICTIONARYWDFLT
  5
E
102
{ACAD_REACTORS
330
C
102
}
330
C
100
AcDbDictionary
281
     1
  3
Normal
350
F
100
AcDbDictionaryWithDefault
340
F
  0
LAYOUT
  5
1E
102
{ACAD_REACTORS
330
1A
102
}
330
1A
100
AcDbPlotSettings
  1

  2

  4

  6

 40
0.0
 41
0.0
 42
0.0
 43
0.0
 44
0.0
 45
0.0
 46
0.0
 47
0.0
 48
0.0
 49
0.0
140
0.0
141
0.0
142
1.0
143
1.0
 70
   688
 72
     0
 73
     0
 74
     5
  7

 75
    16
147
1.0
148
0.0
149
0.0
100
AcDbLayout
  1
Layout1
 70
     1
 71
     1
 10
0.0
 20
0.0
 11
0.0
 21
0.0
 12
0.0
 22
0.0
 32
0.0
 14
0.0
 24
0.0
 34
0.0
 15
0.0
 25
0.0
 35
0.0
146
0.0
 13
0.0
 23
0.0
 33
0.0
 16
1.0
 26
0.0
 36
0.0
 17
0.0
 27
1.0
 37
0.0
 76
     0
330
1B
  0
LAYOUT
  5
26
102
{ACAD_REACTORS
330
1A
102
}
330
1A
100
AcDbPlotSettings
  1

  2

  4

  6

 40
0.0
 41
0.0
 42
0.0
 43
0.0
 44
0.0
 45
0.0
 46
0.0
 47
0.0
 48
0.0
 49
0.0
140
0.0
141
0.0
142
1.0
143
1.0
 70
   688
 72
     0
 73
     0
 74
     5
  7

 75
    16
147
1.0
148
0.0
149
0.0
100
AcDbLayout
  1
Layout2
 70
     1
 71
     2
 10
0.0
 20
0.0
 11
0.0
 21
0.0
 12
0.0
 22
0.0
 32
0.0
 14
0.0
 24
0.0
 34
0.0
 15
0.0
 25
0.0
 35
0.0
146
0.0
 13
0.0
 23
0.0
 33
0.0
 16
1.0
 26
0.0
 36
0.0
 17
0.0
 27
1.0
 37
0.0
 76
     0
330
23
  0
LAYOUT
  5
22
102
{ACAD_REACTORS
330
1A
102
}
330
1A
100
AcDbPlotSettings
  1

  2

  4

  6

 40
0.0
 41
0.0
 42
0.0
 43
0.0
 44
0.0
 45
0.0
 46
0.0
 47
0.0
 48
0.0
 49
0.0
140
0.0
141
0.0
142
1.0
143
1.0
 70
  1712
 72
     0
 73
     0
 74
     0
  7

 75
     0
147
1.0
148
0.0
149
0.0
100
AcDbLayout
  1
Model
 70
     1
 71
     0
 10
0.0
 20
0.0
 11
0.0
 21
0.0
 12
0.0
 22
0.0
 32
0.0
 14
0.0
 24
0.0
 34
0.0
 15
210.0
 25
297.0
 35
0.0
146
0.0
 13
0.0
 23
0.0
 33
0.0
 16
1.0
 26
0.0
 36
0.0
 17
0.0
 27
1.0
 37
0.0
 76
     0
330
1F
  0
MLINESTYLE
  5
18
102
{ACAD_REACTORS
330
17
102
}
330
17
100
AcDbMlineStyle
  2
Standard
 70
     0
  3

 62
   256
 51
90.0
 52
90.0
 71
     2
 49
0.5
 62
   256
  6
BYLAYER
 49
-0.5
 62
   256
  6
BYLAYER
  0
ACDBPLACEHOLDER
  5
F
102
{ACAD_REACTORS
330
E
102
}
330
E
  0
ENDSEC
  0
EOF
