  0
SECTION
  2
HEADER
  9
$ACADVER
  1
AC1015
  9
$ACADMAINTVER
 70
     6
  9
$DWGCODEPAGE
  3
DOS932
  9
$INSBASE
 10
0.0
 20
0.0
 30
0.0
  9
$EXTMIN
 10
0.0
 20
0.0
 30
0.0
  9
$EXTMAX
 10
210.0
 20
297.0
 30
0.0
  9
$LIMMIN
 10
0.0
 20
0.0
  9
$LIMMAX
 10
0.0
 20
0.0
  9
$ORTHOMODE
 70
     0
  9
$REGENMODE
 70
     1
  9
$FILLMODE
 70
     1
  9
$QTEXTMODE
 70
     0
  9
$MIRRTEXT
 70
     1
  9
$LTSCALE
 40
1.0
  9
$ATTMODE
 70
     1
  9
$TEXTSIZE
 40
3.5
  9
$TRACEWID
 40
1.0
  9
$TEXTSTYLE
  7
Standard
  9
$CLAYER
  8
0
  9
$CELTYPE
  6
ByLayer
  9
$CECOLOR
 62
   256
  9
$CELTSCALE
 40
1.0
  9
$DISPSILH
 70
     0
  9
$DIMSCALE
 40
1.0
  9
$DIMASZ
 40
3.0
  9
$DIMEXO
 40
1.0
  9
$DIMDLI
 40
3.75
  9
$DIMRND
 40
0.0
  9
$DIMDLE
 40
0.0
  9
$DIMEXE
 40
1.0
  9
$DIMTP
 40
0.0
  9
$DIMTM
 40
0.0
  9
$DIMTXT
 40
3.5
  9
$DIMCEN
 40
2.5
  9
$DIMTSZ
 40
0.0
  9
$DIMTOL
 70
     0
  9
$DIMLIM
 70
     0
  9
$DIMTIH
 70
     1
  9
$DIMTOH
 70
     1
  9
$DIMSE1
 70
     0
  9
$DIMSE2
 70
     0
  9
$DIMTAD
 70
     1
  9
$DIMZIN
 70
     0
  9
$DIMBLK
  1

  9
$DIMASO
 70
     1
  9
$DIMSHO
 70
     1
  9
$DIMPOST
  1

  9
$DIMAPOST
  1

  9
$DIMALT
 70
     0
  9
$DIMALTD
 70
     3
  9
$DIMALTF
 40
0.0393700787
  9
$DIMLFAC
 40
1.0
  9
$DIMTOFL
 70
     1
  9
$DIMTVP
 40
0.0
  9
$DIMTIX
 70
     0
  9
$DIMSOXD
 70
     0
  9
$DIMSAH
 70
     0
  9
$DIMBLK1
  1

  9
$DIMBLK2
  1

  9
$DIMSTYLE
  2
ISO-25
  9
$DIMCLRD
 70
     0
  9
$DIMCLRE
 70
     0
  9
$DIMCLRT
 70
     0
  9
$DIMTFAC
 40
1.0
  9
$DIMGAP
 40
1.524
  9
$DIMJUST
 70
     0
  9
$DIMSD1
 70
     0
  9
$DIMSD2
 70
     0
  9
$DIMTOLJ
 70
     0
  9
$DIMTZIN
 70
     0
  9
$DIMALTZ
 70
     0
  9
$DIMALTTZ
 70
     0
  9
$DIMUPT
 70
     0
  9
$DIMDEC
 70
     2
  9
$DIMTDEC
 70
     2
  9
$DIMALTU
 70
     2
  9
$DIMALTTD
 70
     3
  9
$DIMTXSTY
  7
Standard
  9
$DIMAUNIT
 70
     0
  9
$DIMADEC
 70
     0
  9
$DIMALTRND
 40
0.0
  9
$DIMAZIN
 70
     0
  9
$DIMDSEP
 70
    44
  9
$DIMATFIT
 70
     3
  9
$DIMFRAC
 70
     0
  9
$DIMLDRBLK
  1

  9
$DIMLUNIT
 70
     2
  9
$DIMLWD
 70
    -2
  9
$DIMLWE
 70
    -2
  9
$DIMTMOVE
 70
     0
  9
$LUNITS
 70
     2
  9
$LUPREC
 70
     1
  9
$SKETCHINC
 40
1.0
  9
$FILLETRAD
 40
10.0
  9
$AUNITS
 70
     0
  9
$AUPREC
 70
     0
  9
$MENU
  1
.
  9
$ELEVATION
 40
0.0
  9
$PELEVATION
 40
0.0
  9
$THICKNESS
 40
0.0
  9
$LIMCHECK
 70
     0
  9
$CHAMFERA
 40
10.0
  9
$CHAMFERB
 40
10.0
  9
$CHAMFERC
 40
20.0
  9
$CHAMFERD
 40
0.0
  9
$SKPOLY
 70
     0
  9
$TDCREATE
 40
2454349.476975359
  9
$TDUCREATE
 40
2454349.101975359
  9
$TDUPDATE
 40
2454349.47697537
  9
$TDUUPDATE
 40
2454349.10197537
  9
$TDINDWG
 40
0.0000000116
  9
$TDUSRTIMER
 40
0.0000000116
  9
$USRTIMER
 70
     1
  9
$ANGBASE
 50
0.0
  9
$ANGDIR
 70
     0
  9
$PDMODE
 70
     0
  9
$PDSIZE
 40
-1.0
  9
$PLINEWID
 40
0.0
  9
$SPLFRAME
 70
     0
  9
$SPLINETYPE
 70
     6
  9
$SPLINESEGS
 70
     8
  9
$HANDSEED
  5
238
  9
$SURFTAB1
 70
     6
  9
$SURFTAB2
 70
     6
  9
$SURFTYPE
 70
     6
  9
$SURFU
 70
     6
  9
$SURFV
 70
     6
  9
$UCSBASE
  2

  9
$UCSNAME
  2

  9
$UCSORG
 10
0.0
 20
0.0
 30
0.0
  9
$UCSXDIR
 10
1.0
 20
0.0
 30
0.0
  9
$UCSYDIR
 10
0.0
 20
1.0
 30
0.0
  9
$UCSORTHOREF
  2

  9
$UCSORTHOVIEW
 70
     0
  9
$UCSORGTOP
 10
0.0
 20
0.0
 30
0.0
  9
$UCSORGBOTTOM
 10
0.0
 20
0.0
 30
0.0
  9
$UCSORGLEFT
 10
0.0
 20
0.0
 30
0.0
  9
$UCSORGRIGHT
 10
0.0
 20
0.0
 30
0.0
  9
$UCSORGFRONT
 10
0.0
 20
0.0
 30
0.0
  9
$UCSORGBACK
 10
0.0
 20
0.0
 30
0.0
  9
$PUCSBASE
  2

  9
$PUCSNAME
  2

  9
$PUCSORG
 10
0.0
 20
0.0
 30
0.0
  9
$PUCSXDIR
 10
1.0
 20
0.0
 30
0.0
  9
$PUCSYDIR
 10
0.0
 20
1.0
 30
0.0
  9
$PUCSORTHOREF
  2

  9
$PUCSORTHOVIEW
 70
     0
  9
$PUCSORGTOP
 10
0.0
 20
0.0
 30
0.0
  9
$PUCSORGBOTTOM
 10
0.0
 20
0.0
 30
0.0
  9
$PUCSORGLEFT
 10
0.0
 20
0.0
 30
0.0
  9
$PUCSORGRIGHT
 10
0.0
 20
0.0
 30
0.0
  9
$PUCSORGFRONT
 10
0.0
 20
0.0
 30
0.0
  9
$PUCSORGBACK
 10
0.0
 20
0.0
 30
0.0
  9
$USERI1
 70
     0
  9
$USERI2
 70
     0
  9
$USERI3
 70
     0
  9
$USERI4
 70
     0
  9
$USERI5
 70
     0
  9
$USERR1
 40
0.0
  9
$USERR2
 40
0.0
  9
$USERR3
 40
0.0
  9
$USERR4
 40
0.0
  9
$USERR5
 40
0.0
  9
$WORLDVIEW
 70
     1
  9
$SHADEDGE
 70
     3
  9
$SHADEDIF
 70
    70
  9
$TILEMODE
 70
     1
  9
$MAXACTVP
 70
    64
  9
$PINSBASE
 10
0.0
 20
0.0
 30
0.0
  9
$PLIMCHECK
 70
     0
  9
$PEXTMIN
 10
1.0000000000E+20
 20
1.0000000000E+20
 30
1.0000000000E+20
  9
$PEXTMAX
 10
-1.0000000000E+20
 20
-1.0000000000E+20
 30
-1.0000000000E+20
  9
$PLIMMIN
 10
0.0
 20
0.0
  9
$PLIMMAX
 10
420.0
 20
297.0
  9
$UNITMODE
 70
     0
  9
$VISRETAIN
 70
     1
  9
$PLINEGEN
 70
     0
  9
$PSLTSCALE
 70
     1
  9
$TREEDEPTH
 70
  3020
  9
$CMLSTYLE
  2
Standard
  9
$CMLJUST
 70
     0
  9
$CMLSCALE
 40
20.0
  9
$PROXYGRAPHICS
 70
     1
  9
$MEASUREMENT
 70
     1
  9
$CELWEIGHT
370
    -1
  9
$ENDCAPS
280
     0
  9
$JOINSTYLE
280
     0
  9
$LWDISPLAY
290
     1
  9
$INSUNITS
 70
     4
  9
$HYPERLINKBASE
  1

  9
$STYLESHEET
  1

  9
$XEDIT
290
     1
  9
$CEPSNTYPE
380
     0
  9
$PSTYLEMODE
290
     1
  9
$FINGERPRINTGUID
  2
{5F2B74A3-F7D2-4236-9CD4-240EDBAC8E99}
  9
$VERSIONGUID
  2
{FAEB1C32-E019-11D5-929B-00C0DF256EC4}
  9
$EXTNAMES
290
     1
  9
$PSVPSCALE
 40
0.0
  9
$OLESTARTUP
290
     0
  0
ENDSEC
  0
SECTION
  2
CLASSES
  0
CLASS
  1
ACDBDICTIONARYWDFLT
  2
AcDbDictionaryWithDefault
  3
ObjectDBX Classes
 90
        0
280
     0
281
     0
  0
CLASS
  1
ACDBPLACEHOLDER
  2
AcDbPlaceHolder
  3
ObjectDBX Classes
 90
        0
280
     0
281
     0
  0
CLASS
  1
LAYOUT
  2
AcDbLayout
  3
ObjectDBX Classes
 90
        0
280
     0
281
     0
  0
ENDSEC
  0
SECTION
  2
TABLES
  0
TABLE
  2
VPORT
  5
8
330
0
100
AcDbSymbolTable
 70
     1
  0
VPORT
  5
29
330
8
100
AcDbSymbolTableRecord
100
AcDbViewportTableRecord
  2
*Active
 70
     0
 10
0.0
 20
0.0
 11
1.0
 21
1.0
 12
105.0
 22
148.5
 13
0.0
 23
0.0
 14
10.0
 24
10.0
 15
10.0
 25
10.0
 16
0.0
 26
0.0
 36
1.0
 17
0.0
 27
0.0
 37
0.0
 40
297.0
 41
1.9729729729
 42
50.0
 43
0.0
 44
0.0
 50
0.0
 51
0.0
 71
     0
 72
  2000
 73
     1
 74
     3
 75
     0
 76
     0
 77
     0
 78
     0
281
     0
 65
     1
110
0.0
120
0.0
130
0.0
111
1.0
121
0.0
131
0.0
112
0.0
122
1.0
132
0.0
 79
     0
146
0.0
  0
ENDTAB
  0
TABLE
  2
LTYPE
  5
5
330
0
100
AcDbSymbolTable
 70
     6
  0
LTYPE
  5
14
330
5
100
AcDbSymbolTableRecord
100
AcDbLinetypeTableRecord
  2
ByBlock
 70
     0
  3

 72
    65
 73
     0
 40
0.0
  0
LTYPE
  5
15
330
5
100
AcDbSymbolTableRecord
100
AcDbLinetypeTableRecord
  2
ByLayer
 70
     0
  3

 72
    65
 73
     0
 40
0.0
  0
LTYPE
  5
16
330
5
100
AcDbSymbolTableRecord
100
AcDbLinetypeTableRecord
  2
Continuous
 70
     0
  3
Solid line
 72
    65
 73
     0
 40
0.0
  0
LTYPE
  5
2A
330
5
100
AcDbSymbolTableRecord
100
AcDbLinetypeTableRecord
  2
HIDDEN
 70
     0
  3
Hidden __ __ __ __ __ __ __ __ __ __ __ __ __ __
 72
    65
 73
     2
 40
1.905
 49
1.27
 74
     0
 49
-0.635
 74
     0
  0
LTYPE
  5
2B
330
5
100
AcDbSymbolTableRecord
100
AcDbLinetypeTableRecord
  2
PHANTOM
 70
     0
  3
Phantom ______  __  __  ______  __  __  ______
 72
    65
 73
     6
 40
12.7
 49
6.35
 74
     0
 49
-1.27
 74
     0
 49
1.27
 74
     0
 49
-1.27
 74
     0
 49
1.27
 74
     0
 49
-1.27
 74
     0
  0
LTYPE
  5
2C
330
5
100
AcDbSymbolTableRecord
100
AcDbLinetypeTableRecord
  2
CENTER
 70
     0
  3
Center ____ _ ____ _ ____ _ ____ _ ____ _ ____
 72
    65
 73
     4
 40
10.16
 49
6.35
 74
     0
 49
-1.27
 74
     0
 49
1.27
 74
     0
 49
-1.27
 74
     0
  0
LTYPE
  5
2D
330
5
100
AcDbSymbolTableRecord
100
AcDbLinetypeTableRecord
  2
CENTERX2
 70
     0
  3
Center (2x) ________  __  ________  __  _____
 72
    65
 73
     4
 40
20.32
 49
12.7
 74
     0
 49
-2.54
 74
     0
 49
2.54
 74
     0
 49
-2.54
 74
     0
  0
LTYPE
  5
2E
330
5
100
AcDbSymbolTableRecord
100
AcDbLinetypeTableRecord
  2
DOT2
 70
     0
  3
Dot (.5x) ........................................
 72
    65
 73
     2
 40
0.635
 49
0.0
 74
     0
 49
-0.635
 74
     0
  0
ENDTAB
  0
TABLE
  2
LAYER
  5
2
330
0
100
AcDbSymbolTable
 70
     2
  0
LAYER
  5
10
330
2
100
AcDbSymbolTableRecord
100
AcDbLayerTableRecord
  2
0
 70
     0
 62
     7
  6
Continuous
370
    -3
390
F
  0
LAYER
  5
F5
330
2
100
AcDbSymbolTableRecord
100
AcDbLayerTableRecord
  2
Defpoints
 70
     0
 62
     7
  6
Continuous
290
     0
370
    -3
390
F
  0
ENDTAB
  0
TABLE
  2
STYLE
  5
3
330
0
100
AcDbSymbolTable
 70
     5
  0
STYLE
  5
11
330
3
100
AcDbSymbolTableRecord
100
AcDbTextStyleTableRecord
  2
Standard
 70
     0
 40
0.0
 41
1.0
 50
0.0
 71
     0
 42
2.5
  3
txt
  4
bigfont
  0
STYLE
  5
37
330
3
100
AcDbSymbolTableRecord
100
AcDbTextStyleTableRecord
  2
SLDTEXTSTYLE0
 70
     0
 40
0.0
 41
0.7
 50
0.0
 71
     0
 42
0.2
  3
TXT
  4
bigfont
  0
STYLE
  5
55
330
3
100
AcDbSymbolTableRecord
100
AcDbTextStyleTableRecord
  2
SLDTEXTSTYLE1
 70
     0
 40
0.0
 41
0.6533333333
 50
0.0
 71
     0
 42
0.2
  3
TXT
  4
bigfont
  0
STYLE
  5
5A
330
3
100
AcDbSymbolTableRecord
100
AcDbTextStyleTableRecord
  2
SLDTEXTSTYLE2
 70
     0
 40
0.0
 41
0.65
 50
0.0
 71
     0
 42
0.2
  3
TXT
  4
bigfont
  0
STYLE
  5
63
330
3
100
AcDbSymbolTableRecord
100
AcDbTextStyleTableRecord
  2
SLDTEXTSTYLE3
 70
     0
 40
0.0
 41
0.6416666667
 50
0.0
 71
     0
 42
0.2
  3
TXT
  4
bigfont
  0
ENDTAB
  0
TABLE
  2
VIEW
  5
6
330
0
100
AcDbSymbolTable
 70
     0
  0
ENDTAB
  0
TABLE
  2
UCS
  5
7
330
0
100
AcDbSymbolTable
 70
     0
  0
ENDTAB
  0
TABLE
  2
APPID
  5
9
330
0
100
AcDbSymbolTable
 70
     1
  0
APPID
  5
12
330
9
100
AcDbSymbolTableRecord
100
AcDbRegAppTableRecord
  2
ACAD
 70
     0
  0
ENDTAB
  0
TABLE
  2
DIMSTYLE
  5
A
330
0
100
AcDbSymbolTable
 70
     2
100
AcDbDimStyleTable
  0
DIMSTYLE
105
27
330
A
100
AcDbSymbolTableRecord
100
AcDbDimStyleTableRecord
  2
ISO-25
 70
     0
 41
2.5
 42
0.625
 43
3.75
 44
1.25
 73
     0
 74
     0
 77
     1
 78
     8
140
2.5
141
2.5
143
0.0393700787
147
0.625
171
     3
172
     1
271
     2
272
     2
274
     3
278
    44
283
     0
284
     8
340
11
  0
DIMSTYLE
105
103
102
{ACAD_REACTORS
330
F4
330
110
330
1B5
102
}
330
A
100
AcDbSymbolTableRecord
100
AcDbDimStyleTableRecord
  2
SLDDIMSTYLE0
 70
     0
 41
3.0
 44
0.0
 73
     0
 74
     0
 77
     3
 78
    12
140
3.5
147
0.875
173
     1
271
     1
272
     3
284
    12
340
37
341
104
343
104
344
104
  0
ENDTAB
  0
TABLE
  2
BLOCK_RECORD
  5
1
330
0
100
AcDbSymbolTable
 70
     6
  0
BLOCK_RECORD
  5
1F
330
1
100
AcDbSymbolTableRecord
100
AcDbBlockTableRecord
  2
*Model_Space
340
22
  0
BLOCK_RECORD
  5
1B
330
1
100
AcDbSymbolTableRecord
100
AcDbBlockTableRecord
  2
*Paper_Space
340
1E
  0
BLOCK_RECORD
  5
23
330
1
100
AcDbSymbolTableRecord
100
AcDbBlockTableRecord
  2
*Paper_Space0
340
26
  0
BLOCK_RECORD
  5
3B
330
1
100
AcDbSymbolTableRecord
100
AcDbBlockTableRecord
  2
SW_TABLEANNOTATION_0
340
0
102
{BLKREFS
331
72
102
}
  0
BLOCK_RECORD
  5
F6
330
1
100
AcDbSymbolTableRecord
100
AcDbBlockTableRecord
  2
*D2
340
0
  0
BLOCK_RECORD
  5
104
330
1
100
AcDbSymbolTableRecord
100
AcDbBlockTableRecord
  2
_Open30
340
0
102
{BLKREFS
331
FB
331
FA
331
10A
331
10B
331
116
331
115
331
11D
331
11E
331
1BB
331
1BA
331
1C2
331
1C3
102
}
  0
BLOCK_RECORD
  5
111
330
1
100
AcDbSymbolTableRecord
100
AcDbBlockTableRecord
  2
*D4
340
0
  0
BLOCK_RECORD
  5
1B6
330
1
100
AcDbSymbolTableRecord
100
AcDbBlockTableRecord
  2
*D5
340
0
  0
ENDTAB
  0
ENDSEC
  0
SECTION
  2
BLOCKS
  0
BLOCK
  5
20
330
1F
100
AcDbEntity
  8
0
100
AcDbBlockBegin
  2
*Model_Space
 70
     0
 71
     0
 10
0.0
 20
0.0
 30
0.0
  3
*Model_Space
  1

  0
ENDBLK
  5
21
330
1F
100
AcDbEntity
  8
0
100
AcDbBlockEnd
  0
BLOCK
  5
1C
330
1B
100
AcDbEntity
 67
     1
  8
0
100
AcDbBlockBegin
  2
*Paper_Space
 70
     0
 71
     0
 10
0.0
 20
0.0
 30
0.0
  3
*Paper_Space
  1

  0
ENDBLK
  5
1D
330
1B
100
AcDbEntity
 67
     1
  8
0
100
AcDbBlockEnd
  0
BLOCK
  5
24
330
23
100
AcDbEntity
  8
0
100
AcDbBlockBegin
  2
*Paper_Space0
 70
     0
 71
     0
 10
0.0
 20
0.0
 30
0.0
  3
*Paper_Space0
  1

  0
ENDBLK
  5
25
330
23
100
AcDbEntity
  8
0
100
AcDbBlockEnd
  0
BLOCK
  5
3C
330
3B
100
AcDbEntity
  8
0
100
AcDbBlockBegin
  2
SW_TABLEANNOTATION_0
 70
     0
 71
     0
 10
0.0
 20
0.0
 30
0.0
  3
SW_TABLEANNOTATION_0
  1

  0
LINE
  5
3E
330
3B
100
AcDbEntity
  8
0
  6
Continuous
 62
     7
370
     0
100
AcDbLine
 10
0.0
 20
0.0
 30
0.0
 11
0.0
 21
-40.64
 31
0.0
  0
LINE
  5
3F
330
3B
100
AcDbEntity
  8
0
  6
Continuous
 62
     7
370
     0
100
AcDbLine
 10
0.0
 20
-40.64
 30
0.0
 11
139.0684760274
 21
-40.64
 31
0.0
  0
LINE
  5
40
330
3B
100
AcDbEntity
  8
0
  6
Continuous
 62
     7
370
     0
100
AcDbLine
 10
139.0684760274
 20
-40.64
 30
0.0
 11
139.0684760274
 21
0.0
 31
0.0
  0
LINE
  5
41
330
3B
100
AcDbEntity
  8
0
  6
Continuous
 62
     7
370
     0
100
AcDbLine
 10
139.0684760274
 20
0.0
 30
0.0
 11
0.0
 21
0.0
 31
0.0
  0
LINE
  5
42
330
3B
100
AcDbEntity
  8
0
  6
Continuous
 62
     7
370
     0
100
AcDbLine
 10
25.6617970927
 20
0.0
 30
0.0
 11
25.6617970927
 21
-5.08
 31
0.0
  0
LINE
  5
43
330
3B
100
AcDbEntity
  8
0
  6
Continuous
 62
     7
370
     0
100
AcDbLine
 10
65.4722937028
 20
0.0
 30
0.0
 11
65.4722937028
 21
-5.08
 31
0.0
  0
LINE
  5
44
330
3B
100
AcDbEntity
  8
0
  6
Continuous
 62
     7
370
     0
100
AcDbLine
 10
118.788031583
 20
0.0
 30
0.0
 11
118.788031583
 21
-5.08
 31
0.0
  0
LINE
  5
45
330
3B
100
AcDbEntity
  8
0
  6
Continuous
 62
     7
370
     0
100
AcDbLine
 10
25.6617970927
 20
-5.08
 30
0.0
 11
25.6617970927
 21
-40.64
 31
0.0
  0
LINE
  5
46
330
3B
100
AcDbEntity
  8
0
  6
Continuous
 62
     7
370
     0
100
AcDbLine
 10
65.4722937028
 20
-5.08
 30
0.0
 11
65.4722937028
 21
-40.64
 31
0.0
  0
LINE
  5
47
330
3B
100
AcDbEntity
  8
0
  6
Continuous
 62
     7
370
     0
100
AcDbLine
 10
118.788031583
 20
-5.08
 30
0.0
 11
118.788031583
 21
-40.64
 31
0.0
  0
LINE
  5
48
330
3B
100
AcDbEntity
  8
0
  6
Continuous
 62
     7
370
     0
100
AcDbLine
 10
0.0
 20
-10.16
 30
0.0
 11
139.0684760274
 21
-10.16
 31
0.0
  0
LINE
  5
49
330
3B
100
AcDbEntity
  8
0
  6
Continuous
 62
     7
370
     0
100
AcDbLine
 10
0.0
 20
-15.24
 30
0.0
 11
139.0684760274
 21
-15.24
 31
0.0
  0
LINE
  5
4A
330
3B
100
AcDbEntity
  8
0
  6
Continuous
 62
     7
370
     0
100
AcDbLine
 10
0.0
 20
-20.32
 30
0.0
 11
139.0684760274
 21
-20.32
 31
0.0
  0
LINE
  5
4B
330
3B
100
AcDbEntity
  8
0
  6
Continuous
 62
     7
370
     0
100
AcDbLine
 10
0.0
 20
-25.4
 30
0.0
 11
139.0684760274
 21
-25.4
 31
0.0
  0
LINE
  5
4C
330
3B
100
AcDbEntity
  8
0
  6
Continuous
 62
     7
370
     0
100
AcDbLine
 10
0.0
 20
-30.48
 30
0.0
 11
139.0684760274
 21
-30.48
 31
0.0
  0
LINE
  5
4D
330
3B
100
AcDbEntity
  8
0
  6
Continuous
 62
     7
370
     0
100
AcDbLine
 10
0.0
 20
-35.56
 30
0.0
 11
139.0684760274
 21
-35.56
 31
0.0
  0
LINE
  5
4E
330
3B
100
AcDbEntity
  8
0
  6
Continuous
 62
     7
370
     0
100
AcDbLine
 10
0.0
 20
-5.08
 30
0.0
 11
139.0684760274
 21
-5.08
 31
0.0
  0
MTEXT
  5
4F
330
3B
100
AcDbEntity
  8
0
  6
Continuous
 62
     7
370
     0
100
AcDbMText
 10
4.6836765564
 20
-0.9665682
 30
0.0
 40
3.5
 41
0.0
 71
     1
 72
     1
  1
部品番号
  7
SLDTEXTSTYLE0
 73
     1
 44
1.0
  0
MTEXT
  5
50
330
3B
100
AcDbEntity
  8
0
  6
Continuous
 62
     7
370
     0
100
AcDbMText
 10
35.3830181431
 20
-0.9665682
 30
0.0
 40
3.5
 41
0.0
 71
     1
 72
     1
  1
ファイル名
  7
SLDTEXTSTYLE0
 73
     1
 44
1.0
  0
MTEXT
  5
51
330
3B
100
AcDbEntity
  8
0
  6
Continuous
 62
     7
370
     0
100
AcDbMText
 10
88.0565516479
 20
-0.9665682
 30
0.0
 40
3.5
 41
0.0
 71
     1
 72
     1
  1
品名
  7
SLDTEXTSTYLE0
 73
     1
 44
1.0
  0
MTEXT
  5
52
330
3B
100
AcDbEntity
  8
0
  6
Continuous
 62
     7
370
     0
100
AcDbMText
 10
124.8546428102
 20
-0.9665682
 30
0.0
 40
3.5
 41
0.0
 71
     1
 72
     1
  1
個数
  7
SLDTEXTSTYLE0
 73
     1
 44
1.0
  0
MTEXT
  5
53
330
3B
100
AcDbEntity
  8
0
  6
Continuous
 62
     7
370
     0
100
AcDbMText
 10
11.8124957976
 20
-6.0465682
 30
0.0
 40
3.5
 41
0.0
 71
     1
 72
     1
  1
1
  7
SLDTEXTSTYLE0
 73
     1
 44
1.0
  0
MTEXT
  5
54
330
3B
100
AcDbEntity
  8
0
  6
Continuous
 62
     7
370
     0
100
AcDbMText
 10
26.1617970927
 20
-6.0465682
 30
0.0
 40
3.5
 41
0.0
 71
     1
 72
     1
  1
N01911-208-1
  7
SLDTEXTSTYLE0
 73
     1
 44
1.0
  0
MTEXT
  5
56
330
3B
100
AcDbEntity
  8
0
  6
Continuous
 62
     7
370
     0
100
AcDbMText
 10
74.8173137024
 20
-6.0465682
 30
0.0
 40
3.5
 41
0.0
 71
     1
 72
     1
  1
20x25 Connecter C
  7
SLDTEXTSTYLE1
 73
     1
 44
1.0
  0
MTEXT
  5
57
330
3B
100
AcDbEntity
  8
0
  6
Continuous
 62
     7
370
     0
100
AcDbMText
 10
127.9098510564
 20
-6.0465682
 30
0.0
 40
3.5
 41
0.0
 71
     1
 72
     1
  1
1
  7
SLDTEXTSTYLE0
 73
     1
 44
1.0
  0
MTEXT
  5
58
330
3B
100
AcDbEntity
  8
0
  6
Continuous
 62
     7
370
     0
100
AcDbMText
 10
11.8124957976
 20
-11.1265682
 30
0.0
 40
3.5
 41
0.0
 71
     1
 72
     1
  1
2
  7
SLDTEXTSTYLE0
 73
     1
 44
1.0
  0
MTEXT
  5
59
330
3B
100
AcDbEntity
  8
0
  6
Continuous
 62
     7
370
     0
100
AcDbMText
 10
26.1617970927
 20
-11.1265682
 30
0.0
 40
3.5
 41
0.0
 71
     1
 72
     1
  1
N01911-106-0
  7
SLDTEXTSTYLE0
 73
     1
 44
1.0
  0
MTEXT
  5
5B
330
3B
100
AcDbEntity
  8
0
  6
Continuous
 62
     7
370
     0
100
AcDbMText
 10
68.7068951144
 20
-11.1265682
 30
0.0
 40
3.5
 41
0.0
 71
     1
 72
     1
  1
20x25 Cross Connecter A
  7
SLDTEXTSTYLE2
 73
     1
 44
1.0
  0
MTEXT
  5
5C
330
3B
100
AcDbEntity
  8
0
  6
Continuous
 62
     7
370
     0
100
AcDbMText
 10
127.9098510564
 20
-11.1265682
 30
0.0
 40
3.5
 41
0.0
 71
     1
 72
     1
  1
1
  7
SLDTEXTSTYLE0
 73
     1
 44
1.0
  0
MTEXT
  5
5D
330
3B
100
AcDbEntity
  8
0
  6
Continuous
 62
     7
370
     0
100
AcDbMText
 10
11.8124957976
 20
-16.2065682
 30
0.0
 40
3.5
 41
0.0
 71
     1
 72
     1
  1
3
  7
SLDTEXTSTYLE0
 73
     1
 44
1.0
  0
MTEXT
  5
5E
330
3B
100
AcDbEntity
  8
0
  6
Continuous
 62
     7
370
     0
100
AcDbMText
 10
26.1617970927
 20
-16.2065682
 30
0.0
 40
3.5
 41
0.0
 71
     1
 72
     1
  1
キャップ　ボルト
  7
SLDTEXTSTYLE0
 73
     1
 44
1.0
  0
MTEXT
  5
5F
330
3B
100
AcDbEntity
  8
0
  6
Continuous
 62
     7
370
     0
100
AcDbMText
 10
87.0381490156
 20
-16.2065682
 30
0.0
 40
3.5
 41
0.0
 71
     1
 72
     1
  1
M4x15
  7
SLDTEXTSTYLE0
 73
     1
 44
1.0
  0
MTEXT
  5
60
330
3B
100
AcDbEntity
  8
0
  6
Continuous
 62
     7
370
     0
100
AcDbMText
 10
127.9098510564
 20
-16.2065682
 30
0.0
 40
3.5
 41
0.0
 71
     1
 72
     1
  1
4
  7
SLDTEXTSTYLE0
 73
     1
 44
1.0
  0
MTEXT
  5
61
330
3B
100
AcDbEntity
  8
0
  6
Continuous
 62
     7
370
     0
100
AcDbMText
 10
11.8124957976
 20
-21.2865682
 30
0.0
 40
3.5
 41
0.0
 71
     1
 72
     1
  1
4
  7
SLDTEXTSTYLE0
 73
     1
 44
1.0
  0
MTEXT
  5
62
330
3B
100
AcDbEntity
  8
0
  6
Continuous
 62
     7
370
     0
100
AcDbMText
 10
26.1617970927
 20
-21.2865682
 30
0.0
 40
3.5
 41
0.0
 71
     1
 72
     1
  1
N01911-201-0
  7
SLDTEXTSTYLE0
 73
     1
 44
1.0
  0
MTEXT
  5
64
330
3B
100
AcDbEntity
  8
0
  6
Continuous
 62
     7
370
     0
100
AcDbMText
 10
77.872522065
 20
-21.2865682
 30
0.0
 40
3.5
 41
0.0
 71
     1
 72
     1
  1
20 Connecter A
  7
SLDTEXTSTYLE3
 73
     1
 44
1.0
  0
MTEXT
  5
65
330
3B
100
AcDbEntity
  8
0
  6
Continuous
 62
     7
370
     0
100
AcDbMText
 10
127.9098510564
 20
-21.2865682
 30
0.0
 40
3.5
 41
0.0
 71
     1
 72
     1
  1
1
  7
SLDTEXTSTYLE0
 73
     1
 44
1.0
  0
MTEXT
  5
66
330
3B
100
AcDbEntity
  8
0
  6
Continuous
 62
     7
370
     0
100
AcDbMText
 10
11.8124957976
 20
-26.3665682
 30
0.0
 40
3.5
 41
0.0
 71
     1
 72
     1
  1
5
  7
SLDTEXTSTYLE0
 73
     1
 44
1.0
  0
MTEXT
  5
67
330
3B
100
AcDbEntity
  8
0
  6
Continuous
 62
     7
370
     0
100
AcDbMText
 10
26.1617970927
 20
-26.3665682
 30
0.0
 40
3.5
 41
0.0
 71
     1
 72
     1
  1
キャップ　ボルト
  7
SLDTEXTSTYLE0
 73
     1
 44
1.0
  0
MTEXT
  5
68
330
3B
100
AcDbEntity
  8
0
  6
Continuous
 62
     7
370
     0
100
AcDbMText
 10
87.0381490156
 20
-26.3665682
 30
0.0
 40
3.5
 41
0.0
 71
     1
 72
     1
  1
M4x25
  7
SLDTEXTSTYLE0
 73
     1
 44
1.0
  0
MTEXT
  5
69
330
3B
100
AcDbEntity
  8
0
  6
Continuous
 62
     7
370
     0
100
AcDbMText
 10
127.9098510564
 20
-26.3665682
 30
0.0
 40
3.5
 41
0.0
 71
     1
 72
     1
  1
4
  7
SLDTEXTSTYLE0
 73
     1
 44
1.0
  0
MTEXT
  5
6A
330
3B
100
AcDbEntity
  8
0
  6
Continuous
 62
     7
370
     0
100
AcDbMText
 10
11.8124957976
 20
-31.4465682
 30
0.0
 40
3.5
 41
0.0
 71
     1
 72
     1
  1
6
  7
SLDTEXTSTYLE0
 73
     1
 44
1.0
  0
MTEXT
  5
6B
330
3B
100
AcDbEntity
  8
0
  6
Continuous
 62
     7
370
     0
100
AcDbMText
 10
26.1617970927
 20
-31.4465682
 30
0.0
 40
3.5
 41
0.0
 71
     1
 72
     1
  1
キャップ　ボルト
  7
SLDTEXTSTYLE0
 73
     1
 44
1.0
  0
MTEXT
  5
6C
330
3B
100
AcDbEntity
  8
0
  6
Continuous
 62
     7
370
     0
100
AcDbMText
 10
87.0381490156
 20
-31.4465682
 30
0.0
 40
3.5
 41
0.0
 71
     1
 72
     1
  1
M6x15
  7
SLDTEXTSTYLE0
 73
     1
 44
1.0
  0
MTEXT
  5
6D
330
3B
100
AcDbEntity
  8
0
  6
Continuous
 62
     7
370
     0
100
AcDbMText
 10
127.9098510564
 20
-31.4465682
 30
0.0
 40
3.5
 41
0.0
 71
     1
 72
     1
  1
2
  7
SLDTEXTSTYLE0
 73
     1
 44
1.0
  0
MTEXT
  5
6E
330
3B
100
AcDbEntity
  8
0
  6
Continuous
 62
     7
370
     0
100
AcDbMText
 10
11.8124957976
 20
-36.5265682
 30
0.0
 40
3.5
 41
0.0
 71
     1
 72
     1
  1
7
  7
SLDTEXTSTYLE0
 73
     1
 44
1.0
  0
MTEXT
  5
6F
330
3B
100
AcDbEntity
  8
0
  6
Continuous
 62
     7
370
     0
100
AcDbMText
 10
26.1617970927
 20
-36.5265682
 30
0.0
 40
3.5
 41
0.0
 71
     1
 72
     1
  1
N01914-103-0
  7
SLDTEXTSTYLE0
 73
     1
 44
1.0
  0
MTEXT
  5
70
330
3B
100
AcDbEntity
  8
0
  6
Continuous
 62
     7
370
     0
100
AcDbMText
 10
86.0197463832
 20
-36.5265682
 30
0.0
 40
3.5
 41
0.0
 71
     1
 72
     1
  1
Nut M6
  7
SLDTEXTSTYLE0
 73
     1
 44
1.0
  0
MTEXT
  5
71
330
3B
100
AcDbEntity
  8
0
  6
Continuous
 62
     7
370
     0
100
AcDbMText
 10
127.9098510564
 20
-36.5265682
 30
0.0
 40
3.5
 41
0.0
 71
     1
 72
     1
  1
2
  7
SLDTEXTSTYLE0
 73
     1
 44
1.0
  0
ENDBLK
  5
3D
330
3B
100
AcDbEntity
  8
0
100
AcDbBlockEnd
  0
BLOCK
  5
101
330
F6
100
AcDbEntity
  8
0
100
AcDbBlockBegin
  2
*D2
 70
     1
 71
     0
 10
0.0
 20
0.0
 30
0.0
  3
*D2
  1

  0
INSERT
  5
10A
330
F6
100
AcDbEntity
  8
0
  6
Continuous
 62
     7
370
     0
100
AcDbBlockReference
  2
_Open30
 10
178.9329317789
 20
131.3956646374
 30
0.1
 41
3.0
 42
3.0
 50
270.0
  0
INSERT
  5
10B
330
F6
100
AcDbEntity
  8
0
  6
Continuous
 62
     7
370
     0
100
AcDbBlockReference
  2
_Open30
 10
178.9329317789
 20
190.8956646374
 30
0.1
 41
3.0
 42
3.0
 50
90.0
  0
LINE
  5
10C
330
F6
100
AcDbEntity
  8
0
  6
Continuous
 62
     7
370
     0
100
AcDbLine
 10
140.4829192789
 20
131.3956646374
 30
0.0
 11
179.9329317789
 21
131.3956646374
 31
0.0
  0
LINE
  5
10D
330
F6
100
AcDbEntity
  8
0
  6
Continuous
 62
     7
370
     0
100
AcDbLine
 10
161.4829192789
 20
190.8956646374
 30
0.0
 11
179.9329317789
 21
190.8956646374
 31
0.0
  0
LINE
  5
10E
330
F6
100
AcDbEntity
  8
0
  6
Continuous
 62
     7
370
     0
100
AcDbLine
 10
178.9329317789
 20
131.3956646374
 30
0.0
 11
178.9329317789
 21
190.8956646374
 31
0.0
  0
MTEXT
  5
10F
330
F6
100
AcDbEntity
  8
0
  6
Continuous
 62
     7
370
     0
100
AcDbMText
 10
174.860204739
 20
157.0724558291
 30
0.0
 40
3.5
 41
0.0
 71
     1
 72
     1
  1
59.5
  7
SLDTEXTSTYLE0
 11
6.123031769111886E-17
 21
1.0
 31
0.0
 73
     1
 44
1.0
  0
ENDBLK
  5
102
330
F6
100
AcDbEntity
  8
0
100
AcDbBlockEnd
  0
BLOCK
  5
105
330
104
100
AcDbEntity
  8
0
100
AcDbBlockBegin
  2
_Open30
 70
     0
 71
     0
 10
0.0
 20
0.0
 30
0.0
  3
_Open30
  1

  0
LINE
  5
107
330
104
100
AcDbEntity
  8
0
  6
ByBlock
 62
     0
370
    -2
100
AcDbLine
 10
-1.0
 20
0.267949
 30
0.0
 11
0.0
 21
0.0
 31
0.0
  0
LINE
  5
108
330
104
100
AcDbEntity
  8
0
  6
ByBlock
 62
     0
370
    -2
100
AcDbLine
 10
0.0
 20
0.0
 30
0.0
 11
-1.0
 21
-0.267949
 31
0.0
  0
LINE
  5
109
330
104
100
AcDbEntity
  8
0
  6
ByBlock
 62
     0
370
    -2
100
AcDbLine
 10
0.0
 20
0.0
 30
0.0
 11
-1.0
 21
0.0
 31
0.0
  0
ENDBLK
  5
106
330
104
100
AcDbEntity
  8
0
100
AcDbBlockEnd
  0
BLOCK
  5
11B
330
111
100
AcDbEntity
  8
0
100
AcDbBlockBegin
  2
*D4
 70
     1
 71
     0
 10
0.0
 20
0.0
 30
0.0
  3
*D4
  1

  0
INSERT
  5
11D
330
111
100
AcDbEntity
  8
0
  6
Continuous
 62
     7
370
     0
100
AcDbBlockReference
  2
_Open30
 10
160.4829192789
 20
215.2143806689
 30
0.1
 41
3.0
 42
3.0
 50
0.0
  0
INSERT
  5
11E
330
111
100
AcDbEntity
  8
0
  6
Continuous
 62
     7
370
     0
100
AcDbBlockReference
  2
_Open30
 10
106.4829192789
 20
215.2143806689
 30
0.1
 41
3.0
 42
3.0
 50
180.0
  0
LINE
  5
11F
330
111
100
AcDbEntity
  8
0
  6
Continuous
 62
     7
370
     0
100
AcDbLine
 10
160.4829192789
 20
191.8956646374
 30
0.0
 11
160.4829192789
 21
216.2143806689
 31
0.0
  0
LINE
  5
120
330
111
100
AcDbEntity
  8
0
  6
Continuous
 62
     7
370
     0
100
AcDbLine
 10
106.4829192789
 20
173.3956646374
 30
0.0
 11
106.4829192789
 21
216.2143806689
 31
0.0
  0
LINE
  5
121
330
111
100
AcDbEntity
  8
0
  6
Continuous
 62
     7
370
     0
100
AcDbLine
 10
160.4829192789
 20
215.2143806689
 30
0.0
 11
106.4829192789
 21
215.2143806689
 31
0.0
  0
MTEXT
  5
122
330
111
100
AcDbEntity
  8
0
  6
Continuous
 62
     7
370
     0
100
AcDbMText
 10
131.4470996934
 20
219.2871077088
 30
0.0
 40
3.5
 41
0.0
 71
     1
 72
     1
  1
54
  7
SLDTEXTSTYLE0
 73
     1
 44
1.0
  0
ENDBLK
  5
11C
330
111
100
AcDbEntity
  8
0
100
AcDbBlockEnd
  0
BLOCK
  5
1C0
330
1B6
100
AcDbEntity
  8
0
100
AcDbBlockBegin
  2
*D5
 70
     1
 71
     0
 10
0.0
 20
0.0
 30
0.0
  3
*D5
  1

  0
INSERT
  5
1C2
330
1B6
100
AcDbEntity
  8
0
  6
Continuous
 62
     7
370
     0
100
AcDbBlockReference
  2
_Open30
 10
35.8298238342
 20
215.4088048359
 30
-10.4499875
 41
3.0
 42
3.0
 50
180.0
  0
INSERT
  5
1C3
330
1B6
100
AcDbEntity
  8
0
  6
Continuous
 62
     7
370
     0
100
AcDbBlockReference
  2
_Open30
 10
71.8298238342
 20
215.4088048359
 30
-10.4499875
 41
3.0
 42
3.0
 50
0.0
  0
LINE
  5
1C4
330
1B6
100
AcDbEntity
  8
0
  6
Continuous
 62
     7
370
     0
100
AcDbLine
 10
35.8298238342
 20
191.8956646374
 30
0.0
 11
35.8298238342
 21
216.4088048359
 31
0.0
  0
LINE
  5
1C5
330
1B6
100
AcDbEntity
  8
0
  6
Continuous
 62
     7
370
     0
100
AcDbLine
 10
71.8298238342
 20
191.8956646374
 30
0.0
 11
71.8298238342
 21
216.4088048359
 31
0.0
  0
LINE
  5
1C6
330
1B6
100
AcDbEntity
  8
0
  6
Continuous
 62
     7
370
     0
100
AcDbLine
 10
35.8298238342
 20
215.4088048359
 30
0.0
 11
71.8298238342
 21
215.4088048359
 31
0.0
  0
MTEXT
  5
1C7
330
1B6
100
AcDbEntity
  8
0
  6
Continuous
 62
     7
370
     0
100
AcDbMText
 10
51.7940042487
 20
219.4815318758
 30
0.0
 40
3.5
 41
0.0
 71
     1
 72
     1
  1
36
  7
SLDTEXTSTYLE0
 73
     1
 44
1.0
  0
ENDBLK
  5
1C1
330
1B6
100
AcDbEntity
  8
0
100
AcDbBlockEnd
  0
ENDSEC
  0
SECTION
  2
ENTITIES
  0
LINE
  5
2F
330
1F
100
AcDbEntity
  8
0
  6
Continuous
 62
     7
370
     0
100
AcDbLine
 10
20.2604743903
 20
285.0
 30
0.0
 11
196.7604743903
 21
285.0
 31
0.0
  0
LINE
  5
30
330
1F
100
AcDbEntity
  8
0
  6
Continuous
 62
     7
370
     0
100
AcDbLine
 10
20.2604743903
 20
285.0
 30
0.0
 11
20.2604743903
 21
10.0
 31
0.0
  0
LINE
  5
31
330
1F
100
AcDbEntity
  8
0
  6
Continuous
 62
     7
370
     0
100
AcDbLine
 10
20.2604743903
 20
10.0
 30
0.0
 11
196.7604743903
 21
10.0
 31
0.0
  0
LINE
  5
32
330
1F
100
AcDbEntity
  8
0
  6
Continuous
 62
     7
370
     0
100
AcDbLine
 10
196.7604743903
 20
285.0
 30
0.0
 11
196.7604743903
 21
10.0
 31
0.0
  0
LINE
  5
33
330
1F
100
AcDbEntity
  8
0
  6
Continuous
 62
     7
370
     0
100
AcDbLine
 10
127.0104743903
 20
50.75
 30
0.0
 11
196.7604743903
 21
50.75
 31
0.0
  0
LINE
  5
34
330
1F
100
AcDbEntity
  8
0
  6
Continuous
 62
     7
370
     0
100
AcDbLine
 10
127.0104743903
 20
50.75
 30
0.0
 11
127.0104743903
 21
10.0
 31
0.0
  0
LINE
  5
35
330
1F
100
AcDbEntity
  8
0
  6
Continuous
 62
     7
370
     0
100
AcDbLine
 10
127.0104743903
 20
22.75
 30
0.0
 11
196.7604743903
 21
22.75
 31
0.0
  0
LINE
  5
36
330
1F
100
AcDbEntity
  8
0
  6
Continuous
 62
     7
370
     0
100
AcDbLine
 10
127.0104743903
 20
36.75
 30
0.0
 11
196.7604743903
 21
36.75
 31
0.0
  0
MTEXT
  5
38
330
1F
100
AcDbEntity
  8
0
  6
Continuous
 62
     7
370
     0
100
AcDbMText
 10
144.5704516489
 20
29.8861654089
 30
0.0
 40
4.2333333333
 41
0.0
 71
     1
 72
     1
  1
N01911-208_set
  7
SLDTEXTSTYLE0
 73
     1
 44
1.0
  0
MTEXT
  5
39
330
1F
100
AcDbEntity
  8
0
  6
Continuous
 62
     7
370
     0
100
AcDbMText
 10
130.434450379
 20
43.4099790257
 30
0.0
 40
4.2333333333
 41
0.0
 71
     1
 72
     1
  1
20-25　クロスコネクタセットA
  7
SLDTEXTSTYLE0
 73
     1
 44
1.0
  0
MTEXT
  5
3A
330
1F
100
AcDbEntity
  8
0
  6
Continuous
 62
     7
370
     0
100
AcDbMText
 10
155.5175896951
 20
16.2918260795
 30
0.0
 40
4.2333333333
 41
0.0
 71
     1
 72
     1
  1
131223
  7
SLDTEXTSTYLE0
 73
     1
 44
1.0
  0
INSERT
  5
72
330
1F
100
AcDbEntity
  8
0
  6
Continuous
 62
     7
370
     0
100
AcDbBlockReference
  2
SW_TABLEANNOTATION_0
 10
44.7273167187
 20
91.39
 30
0.0
  0
LINE
  5
73
330
1F
100
AcDbEntity
  8
0
  6
Continuous
 62
     7
370
    30
100
AcDbLine
 10
134.9829192789
 20
177.4956646374
 30
0.0
 11
139.9829192789
 21
177.4956646374
 31
0.0
  0
LINE
  5
74
330
1F
100
AcDbEntity
  8
0
  6
Continuous
 62
     7
370
    30
100
AcDbLine
 10
144.9829192789
 20
177.4956646374
 30
0.0
 11
149.9829192789
 21
177.4956646374
 31
0.0
  0
LINE
  5
75
330
1F
100
AcDbEntity
  8
0
  6
Continuous
 62
     7
370
    30
100
AcDbLine
 10
134.9829192789
 20
192.4956646374
 30
0.0
 11
134.9829192789
 21
190.8956646374
 31
0.0
  0
LINE
  5
76
330
1F
100
AcDbEntity
  8
0
  6
Continuous
 62
     7
370
    30
100
AcDbLine
 10
149.9829192789
 20
190.8956646374
 30
0.0
 11
149.9829192789
 21
192.4956646374
 31
0.0
  0
LINE
  5
77
330
1F
100
AcDbEntity
  8
0
  6
Continuous
 62
     7
370
    30
100
AcDbLine
 10
136.3829192789
 20
193.9956646374
 30
0.0
 11
136.3829192789
 21
192.4956646374
 31
0.0
  0
LINE
  5
78
330
1F
100
AcDbEntity
  8
0
  6
Continuous
 62
     7
370
    30
100
AcDbLine
 10
148.5829192789
 20
192.4956646374
 30
0.0
 11
148.5829192789
 21
193.9956646374
 31
0.0
  0
LINE
  5
79
330
1F
100
AcDbEntity
  8
0
  6
Continuous
 62
     7
370
    30
100
AcDbLine
 10
147.4829192789
 20
199.3956646374
 30
0.0
 11
146.8829192789
 21
199.9956646374
 31
0.0
  0
LINE
  5
7A
330
1F
100
AcDbEntity
  8
0
  6
Continuous
 62
     7
370
    30
100
AcDbLine
 10
138.0829192789
 20
199.9956646374
 30
0.0
 11
137.4829192789
 21
199.3956646374
 31
0.0
  0
LINE
  5
7B
330
1F
100
AcDbEntity
  8
0
  6
Continuous
 62
     7
370
    30
100
AcDbLine
 10
147.4829192789
 20
193.9956646374
 30
0.0
 11
147.4829192789
 21
199.3956646374
 31
0.0
  0
LINE
  5
7C
330
1F
100
AcDbEntity
  8
0
  6
Continuous
 62
     7
370
    30
100
AcDbLine
 10
137.4829192789
 20
199.3956646374
 30
0.0
 11
137.4829192789
 21
193.9956646374
 31
0.0
  0
LINE
  5
7D
330
1F
100
AcDbEntity
  8
0
  6
Continuous
 62
     7
370
    30
100
AcDbLine
 10
139.9829192789
 20
185.8956646374
 30
0.0
 11
139.9829192789
 21
183.8956646374
 31
0.0
  0
LINE
  5
7E
330
1F
100
AcDbEntity
  8
0
  6
Continuous
 62
     7
370
    30
100
AcDbLine
 10
144.9829192789
 20
183.8956646374
 30
0.0
 11
144.9829192789
 21
185.8956646374
 31
0.0
  0
LINE
  5
7F
330
1F
100
AcDbEntity
  8
0
  6
Continuous
 62
     7
370
    30
100
AcDbLine
 10
104.8829192789
 20
144.3956646374
 30
0.0
 11
106.4829192789
 21
144.3956646374
 31
0.0
  0
LINE
  5
80
330
1F
100
AcDbEntity
  8
0
  6
Continuous
 62
     7
370
    30
100
AcDbLine
 10
106.4829192789
 20
159.3956646374
 30
0.0
 11
104.8829192789
 21
159.3956646374
 31
0.0
  0
LINE
  5
81
330
1F
100
AcDbEntity
  8
0
  6
Continuous
 62
     7
370
    30
100
AcDbLine
 10
103.3829192789
 20
145.7956646374
 30
0.0
 11
104.8829192789
 21
145.7956646374
 31
0.0
  0
LINE
  5
82
330
1F
100
AcDbEntity
  8
0
  6
Continuous
 62
     7
370
    30
100
AcDbLine
 10
104.8829192789
 20
157.9956646374
 30
0.0
 11
103.3829192789
 21
157.9956646374
 31
0.0
  0
LINE
  5
83
330
1F
100
AcDbEntity
  8
0
  6
Continuous
 62
     7
370
    30
100
AcDbLine
 10
103.3829192789
 20
156.8956646374
 30
0.0
 11
97.9829192789
 21
156.8956646374
 31
0.0
  0
LINE
  5
84
330
1F
100
AcDbEntity
  8
0
  6
Continuous
 62
     7
370
    30
100
AcDbLine
 10
97.9829192789
 20
146.8956646374
 30
0.0
 11
103.3829192789
 21
146.8956646374
 31
0.0
  0
LINE
  5
85
330
1F
100
AcDbEntity
  8
0
  6
Continuous
 62
     7
370
    30
100
AcDbLine
 10
97.9829192789
 20
156.8956646374
 30
0.0
 11
97.3829192789
 21
156.2956646374
 31
0.0
  0
LINE
  5
86
330
1F
100
AcDbEntity
  8
0
  6
Continuous
 62
     7
370
    30
100
AcDbLine
 10
97.3829192789
 20
147.4956646374
 30
0.0
 11
97.9829192789
 21
146.8956646374
 31
0.0
  0
LINE
  5
87
330
1F
100
AcDbEntity
  8
0
  6
Continuous
 62
     7
370
    30
100
AcDbLine
 10
111.4829192789
 20
149.3956646374
 30
0.0
 11
113.556993353
 21
149.3956646374
 31
0.0
  0
LINE
  5
88
330
1F
100
AcDbEntity
  8
0
  6
Continuous
 62
     7
370
    30
100
AcDbLine
 10
118.2443833837
 20
149.3956646374
 30
0.0
 11
118.3829192789
 21
149.3956646374
 31
0.0
  0
LINE
  5
89
330
1F
100
AcDbEntity
  8
0
  6
Continuous
 62
     7
370
    30
100
AcDbLine
 10
118.3829192789
 20
154.3956646374
 30
0.0
 11
118.2443833837
 21
154.3956646374
 31
0.0
  0
LINE
  5
8A
330
1F
100
AcDbEntity
  8
0
  6
Continuous
 62
     7
370
    30
100
AcDbLine
 10
113.556993353
 20
154.3956646374
 30
0.0
 11
111.4829192789
 21
154.3956646374
 31
0.0
  0
LINE
  5
8B
330
1F
100
AcDbEntity
  8
0
  6
Continuous
 62
     7
370
    30
100
AcDbLine
 10
159.9829192789
 20
192.4956646374
 30
0.0
 11
159.5829192789
 21
192.8956646374
 31
0.0
  0
LINE
  5
8C
330
1F
100
AcDbEntity
  8
0
  6
Continuous
 62
     7
370
    30
100
AcDbLine
 10
153.3829192789
 20
192.8956646374
 30
0.0
 11
152.9829192789
 21
192.4956646374
 31
0.0
  0
LINE
  5
8D
330
1F
100
AcDbEntity
  8
0
  6
Continuous
 62
     7
370
    30
100
AcDbLine
 10
159.9829192789
 20
190.8956646374
 30
0.0
 11
159.9829192789
 21
192.4956646374
 31
0.0
  0
LINE
  5
8E
330
1F
100
AcDbEntity
  8
0
  6
Continuous
 62
     7
370
    30
100
AcDbLine
 10
152.9829192789
 20
192.4956646374
 30
0.0
 11
152.9829192789
 21
190.8956646374
 31
0.0
  0
LINE
  5
8F
330
1F
100
AcDbEntity
  8
0
  6
Continuous
 62
     7
370
    30
100
AcDbLine
 10
154.8329192789
 20
180.6456646374
 30
0.0
 11
154.8329192789
 21
179.6456646374
 31
0.0
  0
LINE
  5
90
330
1F
100
AcDbEntity
  8
0
  6
Continuous
 62
     7
370
    30
100
AcDbLine
 10
158.1329192789
 20
179.6456646374
 30
0.0
 11
158.1329192789
 21
180.6456646374
 31
0.0
  0
LINE
  5
91
330
1F
100
AcDbEntity
  8
0
  6
Continuous
 62
     7
370
    30
100
AcDbLine
 10
131.9829192789
 20
192.4956646374
 30
0.0
 11
131.5829192789
 21
192.8956646374
 31
0.0
  0
LINE
  5
92
330
1F
100
AcDbEntity
  8
0
  6
Continuous
 62
     7
370
    30
100
AcDbLine
 10
125.3829192789
 20
192.8956646374
 30
0.0
 11
124.9829192789
 21
192.4956646374
 31
0.0
  0
LINE
  5
93
330
1F
100
AcDbEntity
  8
0
  6
Continuous
 62
     7
370
    30
100
AcDbLine
 10
131.9829192789
 20
190.8956646374
 30
0.0
 11
131.9829192789
 21
192.4956646374
 31
0.0
  0
LINE
  5
94
330
1F
100
AcDbEntity
  8
0
  6
Continuous
 62
     7
370
    30
100
AcDbLine
 10
124.9829192789
 20
192.4956646374
 30
0.0
 11
124.9829192789
 21
190.8956646374
 31
0.0
  0
LINE
  5
95
330
1F
100
AcDbEntity
  8
0
  6
Continuous
 62
     7
370
    30
100
AcDbLine
 10
126.8329192789
 20
180.6456646374
 30
0.0
 11
126.8329192789
 21
179.6456646374
 31
0.0
  0
LINE
  5
96
330
1F
100
AcDbEntity
  8
0
  6
Continuous
 62
     7
370
    30
100
AcDbLine
 10
130.1329192789
 20
179.6456646374
 30
0.0
 11
130.1329192789
 21
180.6456646374
 31
0.0
  0
LINE
  5
97
330
1F
100
AcDbEntity
  8
0
  6
Continuous
 62
     7
370
    30
100
AcDbLine
 10
106.4829192789
 20
138.8956646374
 30
0.0
 11
104.8829192789
 21
138.8956646374
 31
0.0
  0
LINE
  5
98
330
1F
100
AcDbEntity
  8
0
  6
Continuous
 62
     7
370
    30
100
AcDbLine
 10
104.8829192789
 20
131.8956646374
 30
0.0
 11
106.4829192789
 21
131.8956646374
 31
0.0
  0
LINE
  5
99
330
1F
100
AcDbEntity
  8
0
  6
Continuous
 62
     7
370
    30
100
AcDbLine
 10
104.8829192789
 20
138.8956646374
 30
0.0
 11
104.4829192789
 21
138.4956646374
 31
0.0
  0
LINE
  5
9A
330
1F
100
AcDbEntity
  8
0
  6
Continuous
 62
     7
370
    30
100
AcDbLine
 10
104.4829192789
 20
132.2956646374
 30
0.0
 11
104.8829192789
 21
131.8956646374
 31
0.0
  0
LINE
  5
9B
330
1F
100
AcDbEntity
  8
0
  6
Continuous
 62
     7
370
    30
100
AcDbLine
 10
123.4829192789
 20
133.7456646374
 30
0.0
 11
124.4829192789
 21
133.7456646374
 31
0.0
  0
LINE
  5
9C
330
1F
100
AcDbEntity
  8
0
  6
Continuous
 62
     7
370
    30
100
AcDbLine
 10
124.4829192789
 20
137.0456646374
 30
0.0
 11
123.4829192789
 21
137.0456646374
 31
0.0
  0
LINE
  5
9D
330
1F
100
AcDbEntity
  8
0
  6
Continuous
 62
     7
370
    30
100
AcDbLine
 10
104.8829192789
 20
171.8956646374
 30
0.0
 11
104.4829192789
 21
171.4956646374
 31
0.0
  0
LINE
  5
9E
330
1F
100
AcDbEntity
  8
0
  6
Continuous
 62
     7
370
    30
100
AcDbLine
 10
104.4829192789
 20
165.2956646374
 30
0.0
 11
104.8829192789
 21
164.8956646374
 31
0.0
  0
LINE
  5
9F
330
1F
100
AcDbEntity
  8
0
  6
Continuous
 62
     7
370
    30
100
AcDbLine
 10
106.4829192789
 20
171.8956646374
 30
0.0
 11
104.8829192789
 21
171.8956646374
 31
0.0
  0
LINE
  5
A0
330
1F
100
AcDbEntity
  8
0
  6
Continuous
 62
     7
370
    30
100
AcDbLine
 10
104.8829192789
 20
164.8956646374
 30
0.0
 11
106.4829192789
 21
164.8956646374
 31
0.0
  0
LINE
  5
A1
330
1F
100
AcDbEntity
  8
0
  6
Continuous
 62
     7
370
    30
100
AcDbLine
 10
123.4829192789
 20
166.7456646374
 30
0.0
 11
124.4829192789
 21
166.7456646374
 31
0.0
  0
LINE
  5
A2
330
1F
100
AcDbEntity
  8
0
  6
Continuous
 62
     7
370
    30
100
AcDbLine
 10
124.4829192789
 20
170.0456646374
 30
0.0
 11
123.4829192789
 21
170.0456646374
 31
0.0
  0
LINE
  5
A3
330
1F
100
AcDbEntity
  8
0
  6
Continuous
 62
     7
370
    30
100
AcDbLine
 10
113.4829192789
 20
149.1956646374
 30
0.0
 11
114.4829192789
 21
151.8956646374
 31
0.0
  0
LINE
  5
A4
330
1F
100
AcDbEntity
  8
0
  6
Continuous
 62
     7
370
    30
100
AcDbLine
 10
114.4829192789
 20
151.8956646374
 30
0.0
 11
113.4829192789
 21
154.5956646374
 31
0.0
  0
LINE
  5
A5
330
1F
100
AcDbEntity
  8
0
  6
Continuous
 62
     7
370
    30
100
AcDbLine
 10
113.4829192789
 20
154.5956646374
 30
0.0
 11
113.4829192789
 21
156.6456646374
 31
0.0
  0
LINE
  5
A6
330
1F
100
AcDbEntity
  8
0
  6
Continuous
 62
     7
370
    30
100
AcDbLine
 10
113.9829192789
 20
157.1456646374
 30
0.0
 11
113.4829192789
 21
156.6456646374
 31
0.0
  0
LINE
  5
A7
330
1F
100
AcDbEntity
  8
0
  6
Continuous
 62
     7
370
    30
100
AcDbLine
 10
113.9829192789
 20
157.1456646374
 30
0.0
 11
114.2029192789
 21
157.1456646374
 31
0.0
  0
ARC
  5
A8
330
1F
100
AcDbEntity
  8
0
  6
Continuous
 62
     7
370
    30
100
AcDbCircle
 10
107.3282958729
 20
142.6978428976
 30
0.0
 40
16.00000000000002
100
AcDbArc
 50
41.0705073902
 51
64.5537637246
  0
ARC
  5
A9
330
1F
100
AcDbEntity
  8
0
  6
Continuous
 62
     7
370
    30
100
AcDbCircle
 10
117.8829192789
 20
151.8956646374
 30
0.0
 40
2.000000000000002
100
AcDbArc
 50
318.9294926098
 51
41.0705073902
  0
ARC
  5
AA
330
1F
100
AcDbEntity
  8
0
  6
Continuous
 62
     7
370
    30
100
AcDbCircle
 10
107.3282958729
 20
161.0934863772
 30
0.0
 40
16.0
100
AcDbArc
 50
295.4462362754
 51
318.9294926098
  0
LINE
  5
AB
330
1F
100
AcDbEntity
  8
0
  6
Continuous
 62
     7
370
    30
100
AcDbLine
 10
114.2029192789
 20
146.6456646374
 30
0.0
 11
113.9829192789
 21
146.6456646374
 31
0.0
  0
LINE
  5
AC
330
1F
100
AcDbEntity
  8
0
  6
Continuous
 62
     7
370
    30
100
AcDbLine
 10
113.4829192789
 20
147.1456646374
 30
0.0
 11
113.9829192789
 21
146.6456646374
 31
0.0
  0
LINE
  5
AD
330
1F
100
AcDbEntity
  8
0
  6
Continuous
 62
     7
370
    30
100
AcDbLine
 10
113.4829192789
 20
147.1456646374
 30
0.0
 11
113.4829192789
 21
149.1956646374
 31
0.0
  0
LINE
  5
AE
330
1F
100
AcDbEntity
  8
0
  6
Continuous
 62
     7
370
    30
100
AcDbLine
 10
149.9829192789
 20
183.3956646374
 30
0.0
 11
134.9829192789
 21
183.3956646374
 31
0.0
  0
LINE
  5
AF
330
1F
100
AcDbEntity
  8
0
  6
Continuous
 62
     7
370
    30
100
AcDbLine
 10
134.9829192789
 20
183.3956646374
 30
0.0
 11
134.9829192789
 21
183.8956646374
 31
0.0
  0
LINE
  5
B0
330
1F
100
AcDbEntity
  8
0
  6
Continuous
 62
     7
370
    30
100
AcDbLine
 10
134.9829192789
 20
183.8956646374
 30
0.0
 11
149.9829192789
 21
183.8956646374
 31
0.0
  0
LINE
  5
B1
330
1F
100
AcDbEntity
  8
0
  6
Continuous
 62
     7
370
    30
100
AcDbLine
 10
149.9829192789
 20
183.8956646374
 30
0.0
 11
149.9829192789
 21
183.3956646374
 31
0.0
  0
LINE
  5
B2
330
1F
100
AcDbEntity
  8
0
  6
Continuous
 62
     7
370
    30
100
AcDbLine
 10
134.9829192789
 20
183.1756646374
 30
0.0
 11
134.9829192789
 21
177.9878612937
 31
0.0
  0
LINE
  5
B3
330
1F
100
AcDbEntity
  8
0
  6
Continuous
 62
     7
370
    30
100
AcDbLine
 10
149.9829192789
 20
183.1756646374
 30
0.0
 11
134.9829192789
 21
183.1756646374
 31
0.0
  0
LINE
  5
B4
330
1F
100
AcDbEntity
  8
0
  6
Continuous
 62
     7
370
    30
100
AcDbLine
 10
149.9829192789
 20
183.1756646374
 30
0.0
 11
149.9829192789
 21
177.9878612937
 31
0.0
  0
LINE
  5
B5
330
1F
100
AcDbEntity
  8
0
  6
Continuous
 62
     7
370
    30
100
AcDbLine
 10
149.9829192789
 20
177.9878612937
 30
0.0
 11
144.6097645773
 21
177.9878612937
 31
0.0
  0
ARC
  5
B6
330
1F
100
AcDbEntity
  8
0
  6
Continuous
 62
     7
370
    30
100
AcDbCircle
 10
142.4829192789
 20
176.5515303098
 30
0.0
 40
2.566421169379266
100
AcDbArc
 50
34.0324955011
 51
145.9675044989
  0
LINE
  5
B7
330
1F
100
AcDbEntity
  8
0
  6
Continuous
 62
     7
370
    30
100
AcDbLine
 10
140.3560739805
 20
177.9878612937
 30
0.0
 11
134.9829192789
 21
177.9878612937
 31
0.0
  0
LINE
  5
B8
330
1F
100
AcDbEntity
  8
0
  6
Continuous
 62
     7
370
    30
100
AcDbLine
 10
149.9829192789
 20
183.3956646374
 30
0.0
 11
149.9829192789
 21
183.1756646374
 31
0.0
  0
LINE
  5
B9
330
1F
100
AcDbEntity
  8
0
  6
Continuous
 62
     7
370
    30
100
AcDbLine
 10
134.9829192789
 20
183.3956646374
 30
0.0
 11
134.9829192789
 21
183.1756646374
 31
0.0
  0
ARC
  5
BA
330
1F
100
AcDbEntity
  8
0
  6
Continuous
 62
     7
370
    30
100
AcDbCircle
 10
153.9239989482
 20
184.6618183705
 30
0.0
 40
11.45847568306123
100
AcDbArc
 50
215.6228503654
 51
218.711700065
  0
ARC
  5
BB
330
1F
100
AcDbEntity
  8
0
  6
Continuous
 62
     7
370
    30
100
AcDbCircle
 10
131.1644825247
 20
184.5688376894
 30
0.0
 40
11.30462753975705
100
AcDbArc
 50
321.267276187
 51
324.3981733826
  0
LINE
  5
BC
330
1F
100
AcDbEntity
  8
0
  6
Continuous
 62
     7
370
    30
100
AcDbLine
 10
134.9829192789
 20
177.9878612937
 30
0.0
 11
134.9829192789
 21
177.4956646374
 31
0.0
  0
LINE
  5
BD
330
1F
100
AcDbEntity
  8
0
  6
Continuous
 62
     7
370
    30
100
AcDbLine
 10
149.9829192789
 20
177.9878612937
 30
0.0
 11
149.9829192789
 21
177.4956646374
 31
0.0
  0
LINE
  5
BE
330
1F
100
AcDbEntity
  8
0
  6
Continuous
 62
     7
370
    30
100
AcDbLine
 10
148.4873588466
 20
192.4956646374
 30
0.0
 11
134.9829192789
 21
192.4956646374
 31
0.0
  0
LINE
  5
BF
330
1F
100
AcDbEntity
  8
0
  6
Continuous
 62
     7
370
    30
100
AcDbLine
 10
149.9829192789
 20
192.4956646374
 30
0.0
 11
148.4873588466
 21
192.4956646374
 31
0.0
  0
LINE
  5
C0
330
1F
100
AcDbEntity
  8
0
  6
Continuous
 62
     7
370
    30
100
AcDbLine
 10
147.3665301273
 20
193.9956646374
 30
0.0
 11
136.3829192789
 21
193.9956646374
 31
0.0
  0
LINE
  5
C1
330
1F
100
AcDbEntity
  8
0
  6
Continuous
 62
     7
370
    30
100
AcDbLine
 10
148.5829192789
 20
193.9956646374
 30
0.0
 11
147.3665301273
 21
193.9956646374
 31
0.0
  0
LINE
  5
C2
330
1F
100
AcDbEntity
  8
0
  6
Continuous
 62
     7
370
    30
100
AcDbLine
 10
138.0829192789
 20
199.9956646374
 30
0.0
 11
146.8829192789
 21
199.9956646374
 31
0.0
  0
LINE
  5
C3
330
1F
100
AcDbEntity
  8
0
  6
Continuous
 62
     7
370
    30
100
AcDbLine
 10
147.4829192789
 20
199.3956646374
 30
0.0
 11
137.4829192789
 21
199.3956646374
 31
0.0
  0
LINE
  5
C4
330
1F
100
AcDbEntity
  8
0
  6
Continuous
 62
     7
370
    30
100
AcDbLine
 10
143.2964453901
 20
178.9956646374
 30
0.0
 11
141.679748137
 21
178.9956646374
 31
0.0
  0
LINE
  5
C5
330
1F
100
AcDbEntity
  8
0
  6
Continuous
 62
     7
370
    30
100
AcDbLine
 10
104.8829192789
 20
151.8956646374
 30
0.0
 11
104.8829192789
 21
144.3956646374
 31
0.0
  0
LINE
  5
C6
330
1F
100
AcDbEntity
  8
0
  6
Continuous
 62
     7
370
    30
100
AcDbLine
 10
104.8829192789
 20
159.3956646374
 30
0.0
 11
104.8829192789
 21
151.8956646374
 31
0.0
  0
LINE
  5
C7
330
1F
100
AcDbEntity
  8
0
  6
Continuous
 62
     7
370
    30
100
AcDbLine
 10
103.3829192789
 20
151.8956646374
 30
0.0
 11
103.3829192789
 21
145.7956646374
 31
0.0
  0
LINE
  5
C8
330
1F
100
AcDbEntity
  8
0
  6
Continuous
 62
     7
370
    30
100
AcDbLine
 10
103.3829192789
 20
157.9956646374
 30
0.0
 11
103.3829192789
 21
151.8956646374
 31
0.0
  0
LINE
  5
C9
330
1F
100
AcDbEntity
  8
0
  6
Continuous
 62
     7
370
    30
100
AcDbLine
 10
97.9829192789
 20
156.8956646374
 30
0.0
 11
97.9829192789
 21
146.8956646374
 31
0.0
  0
LINE
  5
CA
330
1F
100
AcDbEntity
  8
0
  6
Continuous
 62
     7
370
    30
100
AcDbLine
 10
97.3829192789
 20
147.4956646374
 30
0.0
 11
97.3829192789
 21
156.2956646374
 31
0.0
  0
LINE
  5
CB
330
1F
100
AcDbEntity
  8
0
  6
Continuous
 62
     7
370
    30
100
AcDbLine
 10
118.3829192789
 20
149.5264944886
 30
0.0
 11
118.3829192789
 21
149.3956646374
 31
0.0
  0
LINE
  5
CC
330
1F
100
AcDbEntity
  8
0
  6
Continuous
 62
     7
370
    30
100
AcDbLine
 10
118.3829192789
 20
154.3956646374
 30
0.0
 11
118.3829192789
 21
154.2648347862
 31
0.0
  0
LINE
  5
CD
330
1F
100
AcDbEntity
  8
0
  6
Continuous
 62
     7
370
    30
100
AcDbLine
 10
153.3829192789
 20
192.8956646374
 30
0.0
 11
159.5829192789
 21
192.8956646374
 31
0.0
  0
LINE
  5
CE
330
1F
100
AcDbEntity
  8
0
  6
Continuous
 62
     7
370
    30
100
AcDbLine
 10
159.9829192789
 20
192.4956646374
 30
0.0
 11
152.9829192789
 21
192.4956646374
 31
0.0
  0
LINE
  5
CF
330
1F
100
AcDbEntity
  8
0
  6
Continuous
 62
     7
370
    30
100
AcDbLine
 10
125.3829192789
 20
192.8956646374
 30
0.0
 11
131.5829192789
 21
192.8956646374
 31
0.0
  0
LINE
  5
D0
330
1F
100
AcDbEntity
  8
0
  6
Continuous
 62
     7
370
    30
100
AcDbLine
 10
131.9829192789
 20
192.4956646374
 30
0.0
 11
124.9829192789
 21
192.4956646374
 31
0.0
  0
LINE
  5
D1
330
1F
100
AcDbEntity
  8
0
  6
Continuous
 62
     7
370
    30
100
AcDbLine
 10
160.4829192789
 20
180.6456646374
 30
0.0
 11
152.4829192789
 21
180.6456646374
 31
0.0
  0
LINE
  5
D2
330
1F
100
AcDbEntity
  8
0
  6
Continuous
 62
     7
370
    30
100
AcDbLine
 10
152.4829192789
 20
180.6456646374
 30
0.0
 11
152.4829192789
 21
185.8956646374
 31
0.0
  0
LINE
  5
D3
330
1F
100
AcDbEntity
  8
0
  6
Continuous
 62
     7
370
    30
100
AcDbLine
 10
132.4829192789
 20
185.8956646374
 30
0.0
 11
152.4829192789
 21
185.8956646374
 31
0.0
  0
LINE
  5
D4
330
1F
100
AcDbEntity
  8
0
  6
Continuous
 62
     7
370
    30
100
AcDbLine
 10
132.4829192789
 20
180.6456646374
 30
0.0
 11
132.4829192789
 21
185.8956646374
 31
0.0
  0
LINE
  5
D5
330
1F
100
AcDbEntity
  8
0
  6
Continuous
 62
     7
370
    30
100
AcDbLine
 10
132.4829192789
 20
180.6456646374
 30
0.0
 11
124.4829192789
 21
180.6456646374
 31
0.0
  0
LINE
  5
D6
330
1F
100
AcDbEntity
  8
0
  6
Continuous
 62
     7
370
    30
100
AcDbLine
 10
124.4829192789
 20
190.8956646374
 30
0.0
 11
124.4829192789
 21
180.6456646374
 31
0.0
  0
LINE
  5
D7
330
1F
100
AcDbEntity
  8
0
  6
Continuous
 62
     7
370
    30
100
AcDbLine
 10
124.4829192789
 20
190.8956646374
 30
0.0
 11
160.4829192789
 21
190.8956646374
 31
0.0
  0
LINE
  5
D8
330
1F
100
AcDbEntity
  8
0
  6
Continuous
 62
     7
370
    30
100
AcDbLine
 10
160.4829192789
 20
190.8956646374
 30
0.0
 11
160.4829192789
 21
180.6456646374
 31
0.0
  0
LINE
  5
D9
330
1F
100
AcDbEntity
  8
0
  6
Continuous
 62
     7
370
    30
100
AcDbLine
 10
104.8829192789
 20
138.8956646374
 30
0.0
 11
104.8829192789
 21
131.8956646374
 31
0.0
  0
LINE
  5
DA
330
1F
100
AcDbEntity
  8
0
  6
Continuous
 62
     7
370
    30
100
AcDbLine
 10
104.4829192789
 20
132.2956646374
 30
0.0
 11
104.4829192789
 21
138.4956646374
 31
0.0
  0
LINE
  5
DB
330
1F
100
AcDbEntity
  8
0
  6
Continuous
 62
     7
370
    30
100
AcDbLine
 10
104.4829192789
 20
165.2956646374
 30
0.0
 11
104.4829192789
 21
171.4956646374
 31
0.0
  0
LINE
  5
DC
330
1F
100
AcDbEntity
  8
0
  6
Continuous
 62
     7
370
    30
100
AcDbLine
 10
104.8829192789
 20
171.8956646374
 30
0.0
 11
104.8829192789
 21
164.8956646374
 31
0.0
  0
LINE
  5
DD
330
1F
100
AcDbEntity
  8
0
  6
Continuous
 62
     7
370
    30
100
AcDbLine
 10
123.4829192789
 20
172.3956646374
 30
0.0
 11
123.4829192789
 21
164.3956646374
 31
0.0
  0
LINE
  5
DE
330
1F
100
AcDbEntity
  8
0
  6
Continuous
 62
     7
370
    30
100
AcDbLine
 10
123.4829192789
 20
164.3956646374
 30
0.0
 11
111.4829192789
 21
164.3956646374
 31
0.0
  0
LINE
  5
DF
330
1F
100
AcDbEntity
  8
0
  6
Continuous
 62
     7
370
    30
100
AcDbLine
 10
106.4829192789
 20
172.3956646374
 30
0.0
 11
123.4829192789
 21
172.3956646374
 31
0.0
  0
LINE
  5
E0
330
1F
100
AcDbEntity
  8
0
  6
Continuous
 62
     7
370
    30
100
AcDbLine
 10
123.4829192789
 20
139.3956646374
 30
0.0
 11
111.4829192789
 21
139.3956646374
 31
0.0
  0
LINE
  5
E1
330
1F
100
AcDbEntity
  8
0
  6
Continuous
 62
     7
370
    30
100
AcDbLine
 10
106.4829192789
 20
131.3956646374
 30
0.0
 11
106.4829192789
 21
172.3956646374
 31
0.0
  0
LINE
  5
E2
330
1F
100
AcDbEntity
  8
0
  6
Continuous
 62
     7
370
    30
100
AcDbLine
 10
111.4829192789
 20
139.3956646374
 30
0.0
 11
111.4829192789
 21
164.3956646374
 31
0.0
  0
LINE
  5
E3
330
1F
100
AcDbEntity
  8
0
  6
Continuous
 62
     7
370
    30
100
AcDbLine
 10
106.4829192789
 20
131.3956646374
 30
0.0
 11
123.4829192789
 21
131.3956646374
 31
0.0
  0
LINE
  5
E4
330
1F
100
AcDbEntity
  8
0
  6
Continuous
 62
     7
370
    30
100
AcDbLine
 10
123.4829192789
 20
139.3956646374
 30
0.0
 11
123.4829192789
 21
131.3956646374
 31
0.0
  0
LINE
  5
E5
330
1F
100
AcDbEntity
  8
0
  6
Continuous
 62
     7
370
    30
100
AcDbLine
 10
124.4829192789
 20
131.3956646374
 30
0.0
 11
139.4829192789
 21
131.3956646374
 31
0.0
  0
LINE
  5
E6
330
1F
100
AcDbEntity
  8
0
  6
Continuous
 62
     7
370
    30
100
AcDbLine
 10
124.4829192789
 20
139.3956646374
 30
0.0
 11
124.4829192789
 21
131.3956646374
 31
0.0
  0
LINE
  5
E7
330
1F
100
AcDbEntity
  8
0
  6
Continuous
 62
     7
370
    30
100
AcDbLine
 10
124.4829192789
 20
139.3956646374
 30
0.0
 11
136.4829192789
 21
139.3956646374
 31
0.0
  0
LINE
  5
E8
330
1F
100
AcDbEntity
  8
0
  6
Continuous
 62
     7
370
    30
100
AcDbLine
 10
136.4829192789
 20
139.3956646374
 30
0.0
 11
136.4829192789
 21
164.3956646374
 31
0.0
  0
LINE
  5
E9
330
1F
100
AcDbEntity
  8
0
  6
Continuous
 62
     7
370
    30
100
AcDbLine
 10
124.4829192789
 20
164.3956646374
 30
0.0
 11
136.4829192789
 21
164.3956646374
 31
0.0
  0
LINE
  5
EA
330
1F
100
AcDbEntity
  8
0
  6
Continuous
 62
     7
370
    30
100
AcDbLine
 10
124.4829192789
 20
179.6456646374
 30
0.0
 11
124.4829192789
 21
164.3956646374
 31
0.0
  0
LINE
  5
EB
330
1F
100
AcDbEntity
  8
0
  6
Continuous
 62
     7
370
    30
100
AcDbLine
 10
132.4829192789
 20
179.6456646374
 30
0.0
 11
124.4829192789
 21
179.6456646374
 31
0.0
  0
LINE
  5
EC
330
1F
100
AcDbEntity
  8
0
  6
Continuous
 62
     7
370
    30
100
AcDbLine
 10
132.4829192789
 20
179.6456646374
 30
0.0
 11
132.4829192789
 21
175.3956646374
 31
0.0
  0
LINE
  5
ED
330
1F
100
AcDbEntity
  8
0
  6
Continuous
 62
     7
370
    30
100
AcDbLine
 10
132.4829192789
 20
175.3956646374
 30
0.0
 11
152.4829192789
 21
175.3956646374
 31
0.0
  0
LINE
  5
EE
330
1F
100
AcDbEntity
  8
0
  6
Continuous
 62
     7
370
    30
100
AcDbLine
 10
152.4829192789
 20
179.6456646374
 30
0.0
 11
152.4829192789
 21
175.3956646374
 31
0.0
  0
LINE
  5
EF
330
1F
100
AcDbEntity
  8
0
  6
Continuous
 62
     7
370
    30
100
AcDbLine
 10
160.4829192789
 20
179.6456646374
 30
0.0
 11
152.4829192789
 21
179.6456646374
 31
0.0
  0
LINE
  5
F0
330
1F
100
AcDbEntity
  8
0
  6
Continuous
 62
     7
370
    30
100
AcDbLine
 10
160.4829192789
 20
179.6456646374
 30
0.0
 11
160.4829192789
 21
172.3956646374
 31
0.0
  0
LINE
  5
F1
330
1F
100
AcDbEntity
  8
0
  6
Continuous
 62
     7
370
    30
100
AcDbLine
 10
139.4829192789
 20
172.3956646374
 30
0.0
 11
160.4829192789
 21
172.3956646374
 31
0.0
  0
LINE
  5
F2
330
1F
100
AcDbEntity
  8
0
  6
Continuous
 62
     7
370
    30
100
AcDbLine
 10
139.4829192789
 20
131.3956646374
 30
0.0
 11
139.4829192789
 21
172.3956646374
 31
0.0
  0
LINE
  5
F3
330
1F
100
AcDbEntity
  8
0
  6
Continuous
 62
     7
370
    30
100
AcDbLine
 10
139.4829192789
 20
131.3956646374
 30
0.0
 11
160.4829192789
 21
172.3956646374
 31
0.0
  0
DIMENSION
  5
F4
330
1F
100
AcDbEntity
  8
0
  6
Continuous
 62
     7
370
     0
100
AcDbDimension
  2
*D2
 10
178.9329317789
 20
190.8956646374
 30
0.0
 11
178.9329317789
 21
161.1456646374
 31
0.0
 70
   160
 71
     1
 42
59.5
  3
SLDDIMSTYLE0
100
AcDbAlignedDimension
 13
139.4829192789
 23
131.3956646374
 33
0.0
 14
160.4829192789
 24
190.8956646374
 34
0.0
 50
90.0
100
AcDbRotatedDimension
1001
ACAD
1000
DSTYLE
1002
{
1070
    77
1070
     3
1070
   143
1040
0.0393700787
1070
    41
1040
3.0
1070
    44
1040
1.0
1070
    42
1040
1.0
1070
   147
1040
1.524
1070
    73
1070
     0
1070
    74
1070
     0
1070
   140
1040
3.5
1070
   284
1070
    12
1070
    78
1070
    12
1002
}
  0
DIMENSION
  5
110
330
1F
100
AcDbEntity
  8
0
  6
Continuous
 62
     7
370
     0
100
AcDbDimension
  2
*D4
 10
106.4829192789
 20
215.2143806689
 30
0.0
 11
133.4829192789
 21
215.2143806689
 31
0.0
 70
   160
 71
     1
 42
54.0
  3
SLDDIMSTYLE0
100
AcDbAlignedDimension
 13
160.4829192789
 23
190.8956646374
 33
0.0
 14
106.4829192789
 24
172.3956646374
 34
0.0
 50
0.0
100
AcDbRotatedDimension
1001
ACAD
1000
DSTYLE
1002
{
1070
    77
1070
     3
1070
   143
1040
0.0393700787
1070
    41
1040
3.0
1070
    44
1040
1.0
1070
    42
1040
1.0
1070
   147
1040
1.524
1070
    73
1070
     0
1070
    74
1070
     0
1070
   140
1040
3.5
1070
   284
1070
    12
1070
    78
1070
    12
1002
}
  0
LINE
  5
123
330
1F
100
AcDbEntity
  8
0
  6
Continuous
 62
     7
370
    30
100
AcDbLine
 10
46.3298238342
 20
192.4956646374
 30
0.0
 11
46.3298240018
 21
190.8956654421
 31
0.0
  0
LINE
  5
124
330
1F
100
AcDbEntity
  8
0
  6
Continuous
 62
     7
370
    30
100
AcDbLine
 10
61.3298236666
 20
190.8956654421
 30
0.0
 11
61.3298238342
 21
192.4956646374
 31
0.0
  0
LINE
  5
125
330
1F
100
AcDbEntity
  8
0
  6
Continuous
 62
     7
370
    30
100
AcDbLine
 10
47.7298238342
 20
193.9956646374
 30
0.0
 11
47.7298239519
 21
192.4956664494
 31
0.0
  0
LINE
  5
126
330
1F
100
AcDbEntity
  8
0
  6
Continuous
 62
     7
370
    30
100
AcDbLine
 10
59.9298237165
 20
192.4956664494
 30
0.0
 11
59.9298238342
 21
193.9956646374
 31
0.0
  0
LINE
  5
127
330
1F
100
AcDbEntity
  8
0
  6
Continuous
 62
     7
370
    30
100
AcDbLine
 10
58.8298237224
 20
193.9956657639
 30
0.0
 11
58.8298238342
 21
199.3956646374
 31
0.0
  0
LINE
  5
128
330
1F
100
AcDbEntity
  8
0
  6
Continuous
 62
     7
370
    30
100
AcDbLine
 10
48.8298238342
 20
199.3956646374
 30
0.0
 11
48.829823946
 21
193.9956657639
 31
0.0
  0
LINE
  5
129
330
1F
100
AcDbEntity
  8
0
  6
Continuous
 62
     7
370
    30
100
AcDbLine
 10
58.8298238342
 20
199.3956646374
 30
0.0
 11
58.2298238342
 21
199.9956646374
 31
0.0
  0
LINE
  5
12A
330
1F
100
AcDbEntity
  8
0
  6
Continuous
 62
     7
370
    30
100
AcDbLine
 10
49.4298238342
 20
199.9956646374
 30
0.0
 11
48.8298238342
 21
199.3956646374
 31
0.0
  0
LINE
  5
12B
330
1F
100
AcDbEntity
  8
0
  6
Continuous
 62
     7
370
    30
100
AcDbLine
 10
51.3298238901
 20
185.8956664851
 30
0.0
 11
51.3298238901
 21
183.8215887597
 31
0.0
  0
LINE
  5
12C
330
1F
100
AcDbEntity
  8
0
  6
Continuous
 62
     7
370
    30
100
AcDbLine
 10
51.3298238901
 20
179.1342012635
 30
0.0
 11
51.3298238342
 21
178.9956646374
 31
0.0
  0
LINE
  5
12D
330
1F
100
AcDbEntity
  8
0
  6
Continuous
 62
     7
370
    30
100
AcDbLine
 10
56.3298238342
 20
178.9956646374
 30
0.0
 11
56.3298237783
 21
179.1342012635
 31
0.0
  0
LINE
  5
12E
330
1F
100
AcDbEntity
  8
0
  6
Continuous
 62
     7
370
    30
100
AcDbLine
 10
56.3298237783
 20
183.8215887597
 30
0.0
 11
56.3298237783
 21
185.8956664851
 31
0.0
  0
LINE
  5
12F
330
1F
100
AcDbEntity
  8
0
  6
Continuous
 62
     7
370
    30
100
AcDbLine
 10
43.3298239758
 20
190.8956654421
 30
0.0
 11
43.3298238342
 21
192.4956646374
 31
0.0
  0
LINE
  5
130
330
1F
100
AcDbEntity
  8
0
  6
Continuous
 62
     7
370
    30
100
AcDbLine
 10
36.3298238342
 20
192.4956646374
 30
0.0
 11
36.3298237597
 21
190.8956654421
 31
0.0
  0
LINE
  5
131
330
1F
100
AcDbEntity
  8
0
  6
Continuous
 62
     7
370
    30
100
AcDbLine
 10
43.3298238342
 20
192.4956646374
 30
0.0
 11
42.9298238342
 21
192.8956646374
 31
0.0
  0
LINE
  5
132
330
1F
100
AcDbEntity
  8
0
  6
Continuous
 62
     7
370
    30
100
AcDbLine
 10
36.7298238342
 20
192.8956646374
 30
0.0
 11
36.3298238342
 21
192.4956646374
 31
0.0
  0
LINE
  5
133
330
1F
100
AcDbEntity
  8
0
  6
Continuous
 62
     7
370
    30
100
AcDbLine
 10
38.179823411
 20
180.6456651589
 30
0.0
 11
38.179823411
 21
179.645664995
 31
0.0
  0
LINE
  5
134
330
1F
100
AcDbEntity
  8
0
  6
Continuous
 62
     7
370
    30
100
AcDbLine
 10
41.4798233931
 20
179.645664995
 30
0.0
 11
41.4798233931
 21
180.6456651589
 31
0.0
  0
LINE
  5
135
330
1F
100
AcDbEntity
  8
0
  6
Continuous
 62
     7
370
    30
100
AcDbLine
 10
71.3298239087
 20
190.8956654421
 30
0.0
 11
71.3298238342
 21
192.4956646374
 31
0.0
  0
LINE
  5
136
330
1F
100
AcDbEntity
  8
0
  6
Continuous
 62
     7
370
    30
100
AcDbLine
 10
64.3298238342
 20
192.4956646374
 30
0.0
 11
64.3298236926
 21
190.8956654421
 31
0.0
  0
LINE
  5
137
330
1F
100
AcDbEntity
  8
0
  6
Continuous
 62
     7
370
    30
100
AcDbLine
 10
71.3298238342
 20
192.4956646374
 30
0.0
 11
70.9298238342
 21
192.8956646374
 31
0.0
  0
LINE
  5
138
330
1F
100
AcDbEntity
  8
0
  6
Continuous
 62
     7
370
    30
100
AcDbLine
 10
64.7298238342
 20
192.8956646374
 30
0.0
 11
64.3298238342
 21
192.4956646374
 31
0.0
  0
LINE
  5
139
330
1F
100
AcDbEntity
  8
0
  6
Continuous
 62
     7
370
    30
100
AcDbLine
 10
66.1798242753
 20
180.6456651589
 30
0.0
 11
66.1798242753
 21
179.645664995
 31
0.0
  0
LINE
  5
13A
330
1F
100
AcDbEntity
  8
0
  6
Continuous
 62
     7
370
    30
100
AcDbLine
 10
69.4798242574
 20
179.645664995
 30
0.0
 11
69.4798242574
 21
180.6456651589
 31
0.0
  0
LINE
  5
13B
330
1F
100
AcDbEntity
  8
0
  6
Continuous
 62
     7
370
    30
100
AcDbLine
 10
51.1298237642
 20
183.8956661573
 30
0.0
 11
53.8298238342
 21
182.8956641308
 31
0.0
  0
LINE
  5
13C
330
1F
100
AcDbEntity
  8
0
  6
Continuous
 62
     7
370
    30
100
AcDbLine
 10
53.8298238342
 20
182.8956641308
 30
0.0
 11
56.5298239042
 21
183.8956661573
 31
0.0
  0
LINE
  5
13D
330
1F
100
AcDbEntity
  8
0
  6
Continuous
 62
     7
370
    30
100
AcDbLine
 10
56.5298239042
 20
183.8956661573
 30
0.0
 11
58.5798236815
 21
183.8956661573
 31
0.0
  0
LINE
  5
13E
330
1F
100
AcDbEntity
  8
0
  6
Continuous
 62
     7
370
    30
100
AcDbLine
 10
59.0798237634
 20
183.395665144
 30
0.0
 11
58.5798236815
 21
183.8956661573
 31
0.0
  0
LINE
  5
13F
330
1F
100
AcDbEntity
  8
0
  6
Continuous
 62
     7
370
    30
100
AcDbLine
 10
59.0798237634
 20
183.395665144
 30
0.0
 11
59.0798238342
 21
183.1756646374
 31
0.0
  0
ARC
  5
140
330
1F
100
AcDbEntity
  8
0
  6
Continuous
 62
     7
370
    30
100
AcDbCircle
 10
44.6320020944
 20
190.0502880434
 30
0.0
 40
15.99999999999998
100
AcDbArc
 50
311.0705073902
 51
334.5537637246
  0
ARC
  5
141
330
1F
100
AcDbEntity
  8
0
  6
Continuous
 62
     7
370
    30
100
AcDbCircle
 10
53.8298238342
 20
179.4956646374
 30
0.0
 40
1.999999999999976
100
AcDbArc
 50
228.9294926098
 51
311.0705073902
  0
ARC
  5
142
330
1F
100
AcDbEntity
  8
0
  6
Continuous
 62
     7
370
    30
100
AcDbCircle
 10
63.027645574
 20
190.0502880434
 30
0.0
 40
16.0
100
AcDbArc
 50
205.4462362754
 51
228.9294926098
  0
LINE
  5
143
330
1F
100
AcDbEntity
  8
0
  6
Continuous
 62
     7
370
    30
100
AcDbLine
 10
49.0798239869
 20
183.8956661573
 30
0.0
 11
51.1298237642
 21
183.8956661573
 31
0.0
  0
LINE
  5
144
330
1F
100
AcDbEntity
  8
0
  6
Continuous
 62
     7
370
    30
100
AcDbLine
 10
49.0798239869
 20
183.8956661573
 30
0.0
 11
48.579823905
 21
183.395665144
 31
0.0
  0
LINE
  5
145
330
1F
100
AcDbEntity
  8
0
  6
Continuous
 62
     7
370
    30
100
AcDbLine
 10
48.5798238342
 20
183.1756646374
 30
0.0
 11
48.579823905
 21
183.395665144
 31
0.0
  0
LINE
  5
146
330
1F
100
AcDbEntity
  8
0
  6
Continuous
 62
     7
370
    30
100
AcDbLine
 10
61.3298238342
 20
192.4956646374
 30
0.0
 11
46.3298238342
 21
192.4956646374
 31
0.0
  0
LINE
  5
147
330
1F
100
AcDbEntity
  8
0
  6
Continuous
 62
     7
370
    30
100
AcDbLine
 10
59.9298238342
 20
193.9956646374
 30
0.0
 11
47.7298238342
 21
193.9956646374
 31
0.0
  0
LINE
  5
148
330
1F
100
AcDbEntity
  8
0
  6
Continuous
 62
     7
370
    30
100
AcDbLine
 10
50.8337741775
 20
199.3956646374
 30
0.0
 11
48.8298238342
 21
199.3956646374
 31
0.0
  0
LINE
  5
149
330
1F
100
AcDbEntity
  8
0
  6
Continuous
 62
     7
370
    30
100
AcDbLine
 10
58.8298238342
 20
199.3956646374
 30
0.0
 11
50.8337741775
 21
199.3956646374
 31
0.0
  0
LINE
  5
14A
330
1F
100
AcDbEntity
  8
0
  6
Continuous
 62
     7
370
    30
100
AcDbLine
 10
51.1933001363
 20
199.9956646374
 30
0.0
 11
58.2298238342
 21
199.9956646374
 31
0.0
  0
LINE
  5
14B
330
1F
100
AcDbEntity
  8
0
  6
Continuous
 62
     7
370
    30
100
AcDbLine
 10
49.4298238342
 20
199.9956646374
 30
0.0
 11
51.1933001363
 21
199.9956646374
 31
0.0
  0
LINE
  5
14C
330
1F
100
AcDbEntity
  8
0
  6
Continuous
 62
     7
370
    30
100
AcDbLine
 10
56.3298238342
 20
178.9956646374
 30
0.0
 11
56.198993983
 21
178.9956646374
 31
0.0
  0
LINE
  5
14D
330
1F
100
AcDbEntity
  8
0
  6
Continuous
 62
     7
370
    30
100
AcDbLine
 10
51.4606536854
 20
178.9956646374
 30
0.0
 11
51.3298238342
 21
178.9956646374
 31
0.0
  0
CIRCLE
  5
14E
330
1F
100
AcDbEntity
  8
0
  6
Continuous
 62
     7
370
    30
100
AcDbCircle
 10
53.8298238342
 20
151.8956646374
 30
0.0
 40
4.399999999999999
  0
CIRCLE
  5
14F
330
1F
100
AcDbEntity
  8
0
  6
Continuous
 62
     7
370
    30
100
AcDbCircle
 10
53.8298238342
 20
151.8956646374
 30
0.0
 40
4.999999999999993
  0
LINE
  5
150
330
1F
100
AcDbEntity
  8
0
  6
Continuous
 62
     7
370
    30
100
AcDbLine
 10
50.9430724004
 20
151.8956646374
 30
0.0
 11
52.3864481173
 21
149.3956646933
 31
0.0
  0
LINE
  5
151
330
1F
100
AcDbEntity
  8
0
  6
Continuous
 62
     7
370
    30
100
AcDbLine
 10
52.3864481173
 20
149.3956646933
 30
0.0
 11
55.2731995511
 21
149.3956646933
 31
0.0
  0
LINE
  5
152
330
1F
100
AcDbEntity
  8
0
  6
Continuous
 62
     7
370
    30
100
AcDbLine
 10
55.2731995511
 20
149.3956646933
 30
0.0
 11
56.716575268
 21
151.8956646374
 31
0.0
  0
LINE
  5
153
330
1F
100
AcDbEntity
  8
0
  6
Continuous
 62
     7
370
    30
100
AcDbLine
 10
56.716575268
 20
151.8956646374
 30
0.0
 11
55.2731995511
 21
154.3956645815
 31
0.0
  0
LINE
  5
154
330
1F
100
AcDbEntity
  8
0
  6
Continuous
 62
     7
370
    30
100
AcDbLine
 10
55.2731995511
 20
154.3956645815
 30
0.0
 11
52.3864481173
 21
154.3956645815
 31
0.0
  0
LINE
  5
155
330
1F
100
AcDbEntity
  8
0
  6
Continuous
 62
     7
370
    30
100
AcDbLine
 10
52.3864481173
 20
154.3956645815
 30
0.0
 11
50.9430724004
 21
151.8956646374
 31
0.0
  0
SPLINE
  5
156
330
1F
100
AcDbEntity
  8
0
  6
Continuous
 62
     7
370
    30
100
AcDbSpline
210
0.0
220
0.0
230
1.0
 70
    12
 71
     3
 72
    13
 73
     9
 74
     0
 42
0.00000001
 43
0.00000001
 40
0.0
 40
0.0
 40
0.0
 40
0.0
 40
0.3710475907099128
 40
0.6480767815965128
 40
0.7552927610644417
 40
0.8455480971362643
 40
0.9244082254824081
 40
1.0
 40
1.0
 40
1.0
 40
1.0
 10
53.82982383419698
 20
151.8956646373916
 30
0.0
 41
1.0
 10
53.62807242257317
 20
152.2451083730492
 30
0.0
 41
1.0
 10
53.27569065591742
 20
152.8554515668177
 30
0.0
 41
1.0
 10
52.86800072479806
 20
153.5615909675675
 30
0.0
 41
1.0
 10
52.62859427429437
 20
153.9762555338048
 30
0.0
 41
1.0
 10
52.5044349698023
 20
154.191305427122
 30
0.0
 41
1.0
 10
52.41687606034384
 20
154.3429622865851
 30
0.0
 41
1.0
 10
52.39644666293561
 20
154.3783467397875
 30
0.0
 41
1.0
 10
52.38644811727977
 20
154.3956645815123
 30
0.0
 41
1.0
  0
SPLINE
  5
157
330
1F
100
AcDbEntity
  8
0
  6
Continuous
 62
     7
370
    30
100
AcDbSpline
210
0.0
220
0.0
230
1.0
 70
    28
 71
     3
 72
    13
 73
     9
 74
     0
 42
0.00000001
 43
0.00000001
 40
0.0
 40
0.0
 40
0.0
 40
0.0
 40
0.0755918011894827
 40
0.1544519100713293
 40
0.2447072697352501
 40
0.3519232185129309
 40
0.6289524104909167
 40
1.0
 40
1.0
 40
1.0
 40
1.0
 10
50.94307240036255
 20
151.8956646373916
 30
0.0
 41
1.0
 10
50.96306947973899
 20
151.8956646373916
 30
0.0
 41
1.0
 10
51.00392823765901
 20
151.8956646373916
 30
0.0
 41
1.0
 10
51.17904618122799
 20
151.8956646373916
 30
0.0
 41
1.0
 10
51.42736460610439
 20
151.8956646373916
 30
0.0
 41
1.0
 10
51.90617776797769
 20
151.8956646373916
 30
0.0
 41
1.0
 10
52.72155741754059
 20
151.8956646373916
 30
0.0
 41
1.0
 10
53.42632098985594
 20
151.8956646373916
 30
0.0
 41
1.0
 10
53.82982383419698
 20
151.8956646373916
 30
0.0
 41
1.0
  0
SPLINE
  5
158
330
1F
100
AcDbEntity
  8
0
  6
Continuous
 62
     7
370
    30
100
AcDbSpline
210
0.0
220
0.0
230
1.0
 70
    12
 71
     3
 72
    13
 73
     9
 74
     0
 42
0.00000001
 43
0.00000001
 40
0.0
 40
0.0
 40
0.0
 40
0.0
 40
0.075591774517594
 40
0.1544519028637401
 40
0.2447072389355654
 40
0.3519232184034973
 40
0.6289524092901054
 40
1.0
 40
1.0
 40
1.0
 40
1.0
 10
52.38644811727977
 20
149.395664693271
 30
0.0
 41
1.0
 10
52.39644666293561
 20
149.4129825349959
 30
0.0
 41
1.0
 10
52.41687606034384
 20
149.4483669881983
 30
0.0
 41
1.0
 10
52.5044349698023
 20
149.6000238476614
 30
0.0
 41
1.0
 10
52.62859427429437
 20
149.8150737409786
 30
0.0
 41
1.0
 10
52.86800072479806
 20
150.2297383072159
 30
0.0
 41
1.0
 10
53.27569065591739
 20
150.9358777079657
 30
0.0
 41
1.0
 10
53.62807242257316
 20
151.5462209017341
 30
0.0
 41
1.0
 10
53.82982383419698
 20
151.8956646373916
 30
0.0
 41
1.0
  0
SPLINE
  5
159
330
1F
100
AcDbEntity
  8
0
  6
Continuous
 62
     7
370
    30
100
AcDbSpline
210
0.0
220
0.0
230
1.0
 70
    12
 71
     3
 72
    13
 73
     9
 74
     0
 42
0.00000001
 43
0.00000001
 40
0.0
 40
0.0
 40
0.0
 40
0.0
 40
0.075591774517594
 40
0.15445190286374
 40
0.2447072389355653
 40
0.3519232184034971
 40
0.628952409290105
 40
1.0
 40
1.0
 40
1.0
 40
1.0
 10
55.2731995511142
 20
149.395664693271
 30
0.0
 41
1.0
 10
55.26320100545838
 20
149.4129825349959
 30
0.0
 41
1.0
 10
55.24277160805013
 20
149.4483669881983
 30
0.0
 41
1.0
 10
55.15521269859168
 20
149.6000238476614
 30
0.0
 41
1.0
 10
55.03105339409961
 20
149.8150737409786
 30
0.0
 41
1.0
 10
54.79164694359591
 20
150.2297383072159
 30
0.0
 41
1.0
 10
54.38395701247658
 20
150.9358777079657
 30
0.0
 41
1.0
 10
54.0315752458208
 20
151.5462209017341
 30
0.0
 41
1.0
 10
53.82982383419698
 20
151.8956646373916
 30
0.0
 41
1.0
  0
SPLINE
  5
15A
330
1F
100
AcDbEntity
  8
0
  6
Continuous
 62
     7
370
    30
100
AcDbSpline
210
0.0
220
0.0
230
1.0
 70
    12
 71
     3
 72
    13
 73
     9
 74
     0
 42
0.00000001
 43
0.00000001
 40
0.0
 40
0.0
 40
0.0
 40
0.0
 40
0.0755917745175918
 40
0.1544519028637355
 40
0.2447072389355581
 40
0.3519232184034868
 40
0.6289524092900867
 40
1.0
 40
1.0
 40
1.0
 40
1.0
 10
55.2731995511142
 20
154.3956645815123
 30
0.0
 41
1.0
 10
55.26320100545838
 20
154.3783467397875
 30
0.0
 41
1.0
 10
55.24277160805013
 20
154.3429622865851
 30
0.0
 41
1.0
 10
55.15521269859168
 20
154.191305427122
 30
0.0
 41
1.0
 10
55.03105339409961
 20
153.9762555338048
 30
0.0
 41
1.0
 10
54.79164694359591
 20
153.5615909675675
 30
0.0
 41
1.0
 10
54.38395701247655
 20
152.8554515668177
 30
0.0
 41
1.0
 10
54.0315752458208
 20
152.2451083730492
 30
0.0
 41
1.0
 10
53.82982383419698
 20
151.8956646373916
 30
0.0
 41
1.0
  0
SPLINE
  5
15B
330
1F
100
AcDbEntity
  8
0
  6
Continuous
 62
     7
370
    30
100
AcDbSpline
210
0.0
220
0.0
230
1.0
 70
    28
 71
     3
 72
    13
 73
     9
 74
     0
 42
0.00000001
 43
0.00000001
 40
0.0
 40
0.0
 40
0.0
 40
0.0
 40
0.0755918011894826
 40
0.1544519100713291
 40
0.2447072697352497
 40
0.3519232185129303
 40
0.6289524104909157
 40
1.0
 40
1.0
 40
1.0
 40
1.0
 10
56.71657526803142
 20
151.8956646373916
 30
0.0
 41
1.0
 10
56.69657818865498
 20
151.8956646373916
 30
0.0
 41
1.0
 10
56.65571943073498
 20
151.8956646373916
 30
0.0
 41
1.0
 10
56.48060148716598
 20
151.8956646373916
 30
0.0
 41
1.0
 10
56.23228306228958
 20
151.8956646373916
 30
0.0
 41
1.0
 10
55.7534699004163
 20
151.8956646373916
 30
0.0
 41
1.0
 10
54.93809025085339
 20
151.8956646373916
 30
0.0
 41
1.0
 10
54.23332667853803
 20
151.8956646373916
 30
0.0
 41
1.0
 10
53.82982383419698
 20
151.8956646373916
 30
0.0
 41
1.0
  0
CIRCLE
  5
15C
330
1F
100
AcDbEntity
  8
0
  6
Continuous
 62
     7
370
    30
100
AcDbCircle
 10
53.8298238342
 20
151.8956646374
 30
0.0
 40
6.100000000000001
  0
CIRCLE
  5
15D
330
1F
100
AcDbEntity
  8
0
  6
Continuous
 62
     7
370
    30
100
AcDbCircle
 10
53.8298238342
 20
151.8956646374
 30
0.0
 40
7.499999999999993
  0
LINE
  5
15E
330
1F
100
AcDbEntity
  8
0
  6
Continuous
 62
     7
370
    30
100
AcDbLine
 10
39.8298238342
 20
192.4956646374
 30
0.0
 11
36.3298238342
 21
192.4956646374
 31
0.0
  0
LINE
  5
15F
330
1F
100
AcDbEntity
  8
0
  6
Continuous
 62
     7
370
    30
100
AcDbLine
 10
43.3298238342
 20
192.4956646374
 30
0.0
 11
39.8298238342
 21
192.4956646374
 31
0.0
  0
LINE
  5
160
330
1F
100
AcDbEntity
  8
0
  6
Continuous
 62
     7
370
    30
100
AcDbLine
 10
39.8298238342
 20
192.8956646374
 30
0.0
 11
42.9298238342
 21
192.8956646374
 31
0.0
  0
LINE
  5
161
330
1F
100
AcDbEntity
  8
0
  6
Continuous
 62
     7
370
    30
100
AcDbLine
 10
36.7298238342
 20
192.8956646374
 30
0.0
 11
39.8298238342
 21
192.8956646374
 31
0.0
  0
LINE
  5
162
330
1F
100
AcDbEntity
  8
0
  6
Continuous
 62
     7
370
    30
100
AcDbLine
 10
67.8298238342
 20
192.4956646374
 30
0.0
 11
64.3298238342
 21
192.4956646374
 31
0.0
  0
LINE
  5
163
330
1F
100
AcDbEntity
  8
0
  6
Continuous
 62
     7
370
    30
100
AcDbLine
 10
71.3298238342
 20
192.4956646374
 30
0.0
 11
67.8298238342
 21
192.4956646374
 31
0.0
  0
LINE
  5
164
330
1F
100
AcDbEntity
  8
0
  6
Continuous
 62
     7
370
    30
100
AcDbLine
 10
67.8298238342
 20
192.8956646374
 30
0.0
 11
70.9298238342
 21
192.8956646374
 31
0.0
  0
LINE
  5
165
330
1F
100
AcDbEntity
  8
0
  6
Continuous
 62
     7
370
    30
100
AcDbLine
 10
64.7298238342
 20
192.8956646374
 30
0.0
 11
67.8298238342
 21
192.8956646374
 31
0.0
  0
LINE
  5
166
330
1F
100
AcDbEntity
  8
0
  6
Continuous
 62
     7
370
    30
100
AcDbLine
 10
71.8298230593
 20
180.6456651589
 30
0.0
 11
63.8298236107
 21
180.6456651589
 31
0.0
  0
LINE
  5
167
330
1F
100
AcDbEntity
  8
0
  6
Continuous
 62
     7
370
    30
100
AcDbLine
 10
63.8298236107
 20
180.6456651589
 30
0.0
 11
63.8298236107
 21
185.8956664851
 31
0.0
  0
LINE
  5
168
330
1F
100
AcDbEntity
  8
0
  6
Continuous
 62
     7
370
    30
100
AcDbLine
 10
43.8298240577
 20
185.8956664851
 30
0.0
 11
63.8298236107
 21
185.8956664851
 31
0.0
  0
LINE
  5
169
330
1F
100
AcDbEntity
  8
0
  6
Continuous
 62
     7
370
    30
100
AcDbLine
 10
43.8298240577
 20
180.6456651589
 30
0.0
 11
43.8298240577
 21
185.8956664851
 31
0.0
  0
LINE
  5
16A
330
1F
100
AcDbEntity
  8
0
  6
Continuous
 62
     7
370
    30
100
AcDbLine
 10
43.8298240577
 20
180.6456651589
 30
0.0
 11
35.8298246091
 21
180.6456651589
 31
0.0
  0
LINE
  5
16B
330
1F
100
AcDbEntity
  8
0
  6
Continuous
 62
     7
370
    30
100
AcDbLine
 10
35.8298246091
 20
190.8956654421
 30
0.0
 11
71.8298230593
 21
190.8956654421
 31
0.0
  0
LINE
  5
16C
330
1F
100
AcDbEntity
  8
0
  6
Continuous
 62
     7
370
    30
100
AcDbLine
 10
71.8298230593
 20
190.8956654421
 30
0.0
 11
71.8298230593
 21
180.6456651589
 31
0.0
  0
LINE
  5
16D
330
1F
100
AcDbEntity
  8
0
  6
Continuous
 62
     7
370
    30
100
AcDbLine
 10
35.8298246091
 20
190.8956654421
 30
0.0
 11
35.8298246091
 21
180.6456651589
 31
0.0
  0
LINE
  5
16E
330
1F
100
AcDbEntity
  8
0
  6
Continuous
 62
     7
370
    30
100
AcDbLine
 10
67.1663631027
 20
133.7957214615
 30
0.0
 11
68.8836856087
 21
134.0211182883
 31
0.0
  0
LINE
  5
16F
330
1F
100
AcDbEntity
  8
0
  6
Continuous
 62
     7
370
    30
100
AcDbLine
 10
68.8836856087
 20
134.0211182883
 30
0.0
 11
69.547145841
 21
135.6210634163
 31
0.0
  0
LINE
  5
170
330
1F
100
AcDbEntity
  8
0
  6
Continuous
 62
     7
370
    30
100
AcDbLine
 10
69.547145841
 20
135.6210634163
 30
0.0
 11
68.4932844986
 21
136.9956089234
 31
0.0
  0
LINE
  5
171
330
1F
100
AcDbEntity
  8
0
  6
Continuous
 62
     7
370
    30
100
AcDbLine
 10
68.4932844986
 20
136.9956089234
 30
0.0
 11
66.7759619926
 21
136.7702102339
 31
0.0
  0
LINE
  5
172
330
1F
100
AcDbEntity
  8
0
  6
Continuous
 62
     7
370
    30
100
AcDbLine
 10
66.7759619926
 20
136.7702102339
 30
0.0
 11
66.1125017603
 21
135.1702660373
 31
0.0
  0
LINE
  5
173
330
1F
100
AcDbEntity
  8
0
  6
Continuous
 62
     7
370
    30
100
AcDbLine
 10
66.1125017603
 20
135.1702660373
 30
0.0
 11
67.1663631027
 21
133.7957214615
 31
0.0
  0
CIRCLE
  5
174
330
1F
100
AcDbEntity
  8
0
  6
Continuous
 62
     7
370
    30
100
AcDbCircle
 10
67.8298238342
 20
135.3956646374
 30
0.0
 40
3.100000000000002
  0
CIRCLE
  5
175
330
1F
100
AcDbEntity
  8
0
  6
Continuous
 62
     7
370
    30
100
AcDbCircle
 10
67.8298238342
 20
135.3956646374
 30
0.0
 40
3.499999999999994
  0
SPLINE
  5
176
330
1F
100
AcDbEntity
  8
0
  6
Continuous
 62
     7
370
    30
100
AcDbSpline
210
0.0
220
0.0
230
1.0
 70
    12
 71
     3
 72
    12
 73
     8
 74
     0
 42
0.00000001
 43
0.00000001
 40
0.0
 40
0.0
 40
0.0
 40
0.0
 40
0.2535800854593321
 40
0.4629722482104487
 40
0.636731194287273
 40
0.815721927065015
 40
1.0
 40
1.0
 40
1.0
 40
1.0
 10
67.82982426633063
 20
135.3956647267987
 30
0.0
 41
1.0
 10
67.64423074422615
 20
135.3713059129408
 30
0.0
 41
1.0
 10
67.30538453701566
 20
135.3268329615451
 30
0.0
 41
1.0
 10
66.84651076887452
 20
135.2666048049074
 30
0.0
 41
1.0
 10
66.47214179585286
 20
135.217467751583
 30
0.0
 41
1.0
 10
66.18768319130248
 20
135.1801355359113
 30
0.0
 41
1.0
 10
66.13780423169233
 20
135.173587638157
 30
0.0
 41
1.0
 10
66.11250176032011
 20
135.1702660372902
 30
0.0
 41
1.0
  0
SPLINE
  5
177
330
1F
100
AcDbEntity
  8
0
  6
Continuous
 62
     7
370
    30
100
AcDbSpline
210
0.0
220
0.0
230
1.0
 70
    12
 71
     3
 72
    12
 73
     8
 74
     0
 42
0.00000001
 43
0.00000001
 40
0.0
 40
0.0
 40
0.0
 40
0.0
 40
0.1578333734578329
 40
0.3079186284177568
 40
0.4720443219761849
 40
0.7062199838214348
 40
1.0
 40
1.0
 40
1.0
 40
1.0
 10
67.16636310269062
 20
133.7957214614798
 30
0.0
 41
1.0
 10
67.17397606402382
 20
133.8140794563199
 30
0.0
 41
1.0
 10
67.18882826264672
 20
133.8498942429384
 30
0.0
 41
1.0
 10
67.27200113532491
 20
134.0504673536208
 30
0.0
 41
1.0
 10
67.40557350064876
 20
134.3725761156181
 30
0.0
 41
1.0
 10
67.59728902721913
 20
134.8349059684939
 30
0.0
 41
1.0
 10
67.74669022847608
 20
135.1951869840776
 30
0.0
 41
1.0
 10
67.82982426633063
 20
135.3956647267987
 30
0.0
 41
1.0
  0
SPLINE
  5
178
330
1F
100
AcDbEntity
  8
0
  6
Continuous
 62
     7
370
    30
100
AcDbSpline
210
0.0
220
0.0
230
1.0
 70
    12
 71
     3
 72
    12
 73
     8
 74
     0
 42
0.00000001
 43
0.00000001
 40
0.0
 40
0.0
 40
0.0
 40
0.0
 40
0.1578332387166206
 40
0.3079187243363737
 40
0.4720448767744826
 40
0.7062201509020331
 40
1.0
 40
1.0
 40
1.0
 40
1.0
 10
69.54714584101861
 20
135.6210634163071
 30
0.0
 41
1.0
 10
69.52744150077243
 20
135.6184767841311
 30
0.0
 41
1.0
 10
69.48900007131294
 20
135.6134304929543
 30
0.0
 41
1.0
 10
69.27371036664083
 20
135.5851761973812
 30
0.0
 41
1.0
 10
68.92796997739653
 20
135.5397942262178
 30
0.0
 41
1.0
 10
68.43172245707214
 20
135.4746649075763
 30
0.0
 41
1.0
 10
68.04500989868653
 20
135.4239082140169
 30
0.0
 41
1.0
 10
67.82982426633063
 20
135.3956647267987
 30
0.0
 41
1.0
  0
SPLINE
  5
179
330
1F
100
AcDbEntity
  8
0
  6
Continuous
 62
     7
370
    30
100
AcDbSpline
210
0.0
220
0.0
230
1.0
 70
    12
 71
     3
 72
    12
 73
     8
 74
     0
 42
0.00000001
 43
0.00000001
 40
0.0
 40
0.0
 40
0.0
 40
0.0
 40
0.1578334844182411
 40
0.3079187532492481
 40
0.4720446522441449
 40
0.7062201173722963
 40
1.0
 40
1.0
 40
1.0
 40
1.0
 10
68.49328449864809
 20
136.9956089234401
 30
0.0
 41
1.0
 10
68.48567157654891
 20
136.9772505272647
 30
0.0
 41
1.0
 10
68.47081945888827
 20
136.9414349683369
 30
0.0
 41
1.0
 10
68.38764603504779
 20
136.7408622924127
 30
0.0
 41
1.0
 10
68.25407599887555
 20
136.4187521756938
 30
0.0
 41
1.0
 10
68.06235767073349
 20
135.9564238790156
 30
0.0
 41
1.0
 10
67.91295765738727
 20
135.596142632369
 30
0.0
 41
1.0
 10
67.82982426633063
 20
135.3956647267987
 30
0.0
 41
1.0
  0
SPLINE
  5
17A
330
1F
100
AcDbEntity
  8
0
  6
Continuous
 62
     7
370
    30
100
AcDbSpline
210
0.0
220
0.0
230
1.0
 70
    12
 71
     3
 72
    12
 73
     8
 74
     0
 42
0.00000001
 43
0.00000001
 40
0.0
 40
0.0
 40
0.0
 40
0.0
 40
0.1578334808561146
 40
0.3079188927318299
 40
0.4720447724289755
 40
0.7062201024921866
 40
1.0
 40
1.0
 40
1.0
 40
1.0
 10
68.88368560870116
 20
134.0211182883431
 30
0.0
 41
1.0
 10
68.87159335439074
 20
134.0368905057003
 30
0.0
 41
1.0
 10
68.84800245632714
 20
134.0676606799257
 30
0.0
 41
1.0
 10
68.71588802707485
 20
134.2399781092351
 30
0.0
 41
1.0
 10
68.50371800481663
 20
134.516708298639
 30
0.0
 41
1.0
 10
68.19918915833405
 20
134.9139053636082
 30
0.0
 41
1.0
 10
67.96187652599927
 20
135.2234301319492
 30
0.0
 41
1.0
 10
67.82982426633063
 20
135.3956647267987
 30
0.0
 41
1.0
  0
SPLINE
  5
17B
330
1F
100
AcDbEntity
  8
0
  6
Continuous
 62
     7
370
    30
100
AcDbSpline
210
0.0
220
0.0
230
1.0
 70
    12
 71
     3
 72
    12
 73
     8
 74
     0
 42
0.00000001
 43
0.00000001
 40
0.0
 40
0.0
 40
0.0
 40
0.0
 40
0.1578333577320882
 40
0.307918535027445
 40
0.4720446520591524
 40
0.7062199222894176
 40
1.0
 40
1.0
 40
1.0
 40
1.0
 10
66.77596199263756
 20
136.7702102339317
 30
0.0
 41
1.0
 10
66.78805422241743
 20
136.7544383075488
 30
0.0
 41
1.0
 10
66.81164506362195
 20
136.7236687127297
 30
0.0
 41
1.0
 10
66.94375988165515
 20
136.5513524516787
 30
0.0
 41
1.0
 10
67.15592931166663
 20
136.2746209490567
 30
0.0
 41
1.0
 10
67.46045849918801
 20
135.8774239898051
 30
0.0
 41
1.0
 10
67.69777166109122
 20
135.5678993284791
 30
0.0
 41
1.0
 10
67.82982426633063
 20
135.3956647267987
 30
0.0
 41
1.0
  0
LINE
  5
17C
330
1F
100
AcDbEntity
  8
0
  6
Continuous
 62
     7
370
    30
100
AcDbLine
 10
39.1663631697
 20
133.7957214615
 30
0.0
 11
40.8836856758
 21
134.0211182883
 31
0.0
  0
LINE
  5
17D
330
1F
100
AcDbEntity
  8
0
  6
Continuous
 62
     7
370
    30
100
AcDbLine
 10
40.8836856758
 20
134.0211182883
 30
0.0
 11
41.5471459081
 21
135.6210634163
 31
0.0
  0
LINE
  5
17E
330
1F
100
AcDbEntity
  8
0
  6
Continuous
 62
     7
370
    30
100
AcDbLine
 10
41.5471459081
 20
135.6210634163
 30
0.0
 11
40.4932845657
 21
136.9956089234
 31
0.0
  0
LINE
  5
17F
330
1F
100
AcDbEntity
  8
0
  6
Continuous
 62
     7
370
    30
100
AcDbLine
 10
40.4932845657
 20
136.9956089234
 30
0.0
 11
38.7759620597
 21
136.7702102339
 31
0.0
  0
LINE
  5
180
330
1F
100
AcDbEntity
  8
0
  6
Continuous
 62
     7
370
    30
100
AcDbLine
 10
38.7759620597
 20
136.7702102339
 30
0.0
 11
38.1125018274
 21
135.1702660373
 31
0.0
  0
LINE
  5
181
330
1F
100
AcDbEntity
  8
0
  6
Continuous
 62
     7
370
    30
100
AcDbLine
 10
38.1125018274
 20
135.1702660373
 30
0.0
 11
39.1663631697
 21
133.7957214615
 31
0.0
  0
CIRCLE
  5
182
330
1F
100
AcDbEntity
  8
0
  6
Continuous
 62
     7
370
    30
100
AcDbCircle
 10
39.8298238342
 20
135.3956646374
 30
0.0
 40
3.100000000000002
  0
CIRCLE
  5
183
330
1F
100
AcDbEntity
  8
0
  6
Continuous
 62
     7
370
    30
100
AcDbCircle
 10
39.8298238342
 20
135.3956646374
 30
0.0
 40
3.50000000000002
  0
SPLINE
  5
184
330
1F
100
AcDbEntity
  8
0
  6
Continuous
 62
     7
370
    30
100
AcDbSpline
210
0.0
220
0.0
230
1.0
 70
    12
 71
     3
 72
    12
 73
     8
 74
     0
 42
0.00000001
 43
0.00000001
 40
0.0
 40
0.0
 40
0.0
 40
0.0
 40
0.253579774548111
 40
0.4629720245187292
 40
0.636731042972516
 40
0.8157218503064511
 40
1.0
 40
1.0
 40
1.0
 40
1.0
 10
39.82982340206329
 20
135.3956647267987
 30
0.0
 41
1.0
 10
39.64423019349217
 20
135.3713059014031
 30
0.0
 41
1.0
 10
39.30538430697689
 20
135.3268328959027
 30
0.0
 41
1.0
 10
38.84651083531367
 20
135.2666048101365
 30
0.0
 41
1.0
 10
38.47214186306428
 20
135.2174677502574
 30
0.0
 41
1.0
 10
38.18768325831682
 20
135.1801355362583
 30
0.0
 41
1.0
 10
38.13780429873378
 20
135.1735876382738
 30
0.0
 41
1.0
 10
38.11250182737533
 20
135.1702660372902
 30
0.0
 41
1.0
  0
SPLINE
  5
185
330
1F
100
AcDbEntity
  8
0
  6
Continuous
 62
     7
370
    30
100
AcDbSpline
210
0.0
220
0.0
230
1.0
 70
    12
 71
     3
 72
    12
 73
     8
 74
     0
 42
0.00000001
 43
0.00000001
 40
0.0
 40
0.0
 40
0.0
 40
0.0
 40
0.1578333956808638
 40
0.307918671772879
 40
0.4720442536435818
 40
0.7062201031594548
 40
1.0
 40
1.0
 40
1.0
 40
1.0
 10
39.16636316974584
 20
133.7957214614798
 30
0.0
 41
1.0
 10
39.17397610482305
 20
133.8140794645896
 30
0.0
 41
1.0
 10
39.18882825222285
 20
133.8498942673417
 30
0.0
 41
1.0
 10
39.27200148221476
 20
134.0504672007261
 30
0.0
 41
1.0
 10
39.40557204365879
 20
134.3725765008861
 30
0.0
 41
1.0
 10
39.59728971047599
 20
134.8349055043343
 30
0.0
 41
1.0
 10
39.74668994607653
 20
135.1951868871286
 30
0.0
 41
1.0
 10
39.82982340206329
 20
135.3956647267987
 30
0.0
 41
1.0
  0
SPLINE
  5
186
330
1F
100
AcDbEntity
  8
0
  6
Continuous
 62
     7
370
    30
100
AcDbSpline
210
0.0
220
0.0
230
1.0
 70
    12
 71
     3
 72
    12
 73
     8
 74
     0
 42
0.00000001
 43
0.00000001
 40
0.0
 40
0.0
 40
0.0
 40
0.0
 40
0.1578334405667552
 40
0.3079188141309217
 40
0.4720446519324789
 40
0.7062199222189303
 40
1.0
 40
1.0
 40
1.0
 40
1.0
 10
40.88368567575638
 20
134.0211182883431
 30
0.0
 41
1.0
 10
40.87159342109101
 20
134.0368905054272
 30
0.0
 41
1.0
 10
40.84800252233497
 20
134.0676606791198
 30
0.0
 41
1.0
 10
40.71588809823408
 20
134.239978112393
 30
0.0
 41
1.0
 10
40.50371805173904
 20
134.5167082831475
 30
0.0
 41
1.0
 10
40.19918923669037
 20
134.9139056052322
 30
0.0
 41
1.0
 10
39.96187603142919
 20
135.2234301756846
 30
0.0
 41
1.0
 10
39.82982340206329
 20
135.3956647267987
 30
0.0
 41
1.0
  0
SPLINE
  5
187
330
1F
100
AcDbEntity
  8
0
  6
Continuous
 62
     7
370
    30
100
AcDbSpline
210
0.0
220
0.0
230
1.0
 70
    12
 71
     3
 72
    12
 73
     8
 74
     0
 42
0.00000001
 43
0.00000001
 40
0.0
 40
0.0
 40
0.0
 40
0.0
 40
0.1578332988746808
 40
0.307918498166484
 40
0.472044605594491
 40
0.706219815501606
 40
1.0
 40
1.0
 40
1.0
 40
1.0
 10
41.54714590807382
 20
135.6210634163071
 30
0.0
 41
1.0
 10
41.52744111998312
 20
135.6184767919713
 30
0.0
 41
1.0
 10
41.488998859707
 20
135.6134305217199
 30
0.0
 41
1.0
 10
41.27371060095477
 20
135.5851761622504
 30
0.0
 41
1.0
 10
40.92796991263923
 20
135.5397942360718
 30
0.0
 41
1.0
 10
40.43172227742731
 20
135.4746648408946
 30
0.0
 41
1.0
 10
40.04500936600766
 20
135.4239082015737
 30
0.0
 41
1.0
 10
39.82982340206328
 20
135.3956647267987
 30
0.0
 41
1.0
  0
SPLINE
  5
188
330
1F
100
AcDbEntity
  8
0
  6
Continuous
 62
     7
370
    30
100
AcDbSpline
210
0.0
220
0.0
230
1.0
 70
    12
 71
     3
 72
    12
 73
     8
 74
     0
 42
0.00000001
 43
0.00000001
 40
0.0
 40
0.0
 40
0.0
 40
0.0
 40
0.1578334621952798
 40
0.3079187098942746
 40
0.4720447205766639
 40
0.7062199980341292
 40
1.0
 40
1.0
 40
1.0
 40
1.0
 10
40.49328456570331
 20
136.9956089234401
 30
0.0
 41
1.0
 10
40.48567161734813
 20
136.9772505355345
 30
0.0
 41
1.0
 10
40.47081944846447
 20
136.9414349927402
 30
0.0
 41
1.0
 10
40.38764638193746
 20
136.7408621395182
 30
0.0
 41
1.0
 10
40.25407454188633
 20
136.4187525609617
 30
0.0
 41
1.0
 10
40.06235835398976
 20
135.9564234148559
 30
0.0
 41
1.0
 10
39.91295737498776
 20
135.5961425354201
 30
0.0
 41
1.0
 10
39.82982340206329
 20
135.3956647267987
 30
0.0
 41
1.0
  0
SPLINE
  5
189
330
1F
100
AcDbEntity
  8
0
  6
Continuous
 62
     7
370
    30
100
AcDbSpline
210
0.0
220
0.0
230
1.0
 70
    12
 71
     3
 72
    12
 73
     8
 74
     0
 42
0.00000001
 43
0.00000001
 40
0.0
 40
0.0
 40
0.0
 40
0.0
 40
0.1578333980214265
 40
0.307918613628282
 40
0.4720447725556491
 40
0.7062201025626739
 40
1.0
 40
1.0
 40
1.0
 40
1.0
 10
38.77596205969278
 20
136.7702102339317
 30
0.0
 41
1.0
 10
38.78805428911772
 20
136.7544383072757
 30
0.0
 41
1.0
 10
38.81164512962979
 20
136.7236687119237
 30
0.0
 41
1.0
 10
38.94375995281437
 20
136.5513524548366
 30
0.0
 41
1.0
 10
39.15592935858899
 20
136.2746209335652
 30
0.0
 41
1.0
 10
39.46045857754424
 20
135.8774242314289
 30
0.0
 41
1.0
 10
39.69777116652111
 20
135.5678993722145
 30
0.0
 41
1.0
 10
39.82982340206329
 20
135.3956647267987
 30
0.0
 41
1.0
  0
CIRCLE
  5
18A
330
1F
100
AcDbEntity
  8
0
  6
Continuous
 62
     7
370
    30
100
AcDbCircle
 10
67.8298238342
 20
168.3956646374
 30
0.0
 40
3.099999999999976
  0
CIRCLE
  5
18B
330
1F
100
AcDbEntity
  8
0
  6
Continuous
 62
     7
370
    30
100
AcDbCircle
 10
67.8298238342
 20
168.3956646374
 30
0.0
 40
3.499999999999989
  0
LINE
  5
18C
330
1F
100
AcDbEntity
  8
0
  6
Continuous
 62
     7
370
    30
100
AcDbLine
 10
67.1663631027
 20
166.7957203513
 30
0.0
 11
68.8836856087
 21
167.0211190409
 31
0.0
  0
LINE
  5
18D
330
1F
100
AcDbEntity
  8
0
  6
Continuous
 62
     7
370
    30
100
AcDbLine
 10
68.8836856087
 20
167.0211190409
 30
0.0
 11
69.547145841
 21
168.6210632375
 31
0.0
  0
LINE
  5
18E
330
1F
100
AcDbEntity
  8
0
  6
Continuous
 62
     7
370
    30
100
AcDbLine
 10
69.547145841
 20
168.6210632375
 30
0.0
 11
68.4932844986
 21
169.9956078133
 31
0.0
  0
LINE
  5
18F
330
1F
100
AcDbEntity
  8
0
  6
Continuous
 62
     7
370
    30
100
AcDbLine
 10
68.4932844986
 20
169.9956078133
 30
0.0
 11
66.7759619926
 21
169.7702109864
 31
0.0
  0
LINE
  5
190
330
1F
100
AcDbEntity
  8
0
  6
Continuous
 62
     7
370
    30
100
AcDbLine
 10
66.7759619926
 20
169.7702109864
 30
0.0
 11
66.1125017603
 21
168.1702658585
 31
0.0
  0
LINE
  5
191
330
1F
100
AcDbEntity
  8
0
  6
Continuous
 62
     7
370
    30
100
AcDbLine
 10
66.1125017603
 20
168.1702658585
 30
0.0
 11
67.1663631027
 21
166.7957203513
 31
0.0
  0
SPLINE
  5
192
330
1F
100
AcDbEntity
  8
0
  6
Continuous
 62
     7
370
    30
100
AcDbSpline
210
0.0
220
0.0
230
1.0
 70
    12
 71
     3
 72
    12
 73
     8
 74
     0
 42
0.00000001
 43
0.00000001
 40
0.0
 40
0.0
 40
0.0
 40
0.0
 40
0.2535800854593321
 40
0.4629722482104487
 40
0.636731194287273
 40
0.815721927065015
 40
1.0
 40
1.0
 40
1.0
 40
1.0
 10
67.82982426633063
 20
168.3956645479847
 30
0.0
 41
1.0
 10
67.64423074422615
 20
168.3713057341268
 30
0.0
 41
1.0
 10
67.30538453701566
 20
168.3268327827312
 30
0.0
 41
1.0
 10
66.84651076887452
 20
168.2666046260935
 30
0.0
 41
1.0
 10
66.47214179585286
 20
168.2174675727691
 30
0.0
 41
1.0
 10
66.18768319130248
 20
168.1801353570973
 30
0.0
 41
1.0
 10
66.13780423169233
 20
168.1735874593431
 30
0.0
 41
1.0
 10
66.11250176032011
 20
168.1702658584763
 30
0.0
 41
1.0
  0
SPLINE
  5
193
330
1F
100
AcDbEntity
  8
0
  6
Continuous
 62
     7
370
    30
100
AcDbSpline
210
0.0
220
0.0
230
1.0
 70
    12
 71
     3
 72
    12
 73
     8
 74
     0
 42
0.00000001
 43
0.00000001
 40
0.0
 40
0.0
 40
0.0
 40
0.0
 40
0.1578334621952798
 40
0.3079187098942746
 40
0.4720447205766639
 40
0.7062199980341292
 40
1.0
 40
1.0
 40
1.0
 40
1.0
 10
67.16636310269062
 20
166.7957203513433
 30
0.0
 41
1.0
 10
67.1739760510458
 20
166.8140787392489
 30
0.0
 41
1.0
 10
67.18882821992948
 20
166.8498942820432
 30
0.0
 41
1.0
 10
67.27200128645649
 20
167.0504671352651
 30
0.0
 41
1.0
 10
67.40557312650761
 20
167.3725767138217
 30
0.0
 41
1.0
 10
67.59728931440418
 20
167.8349058599275
 30
0.0
 41
1.0
 10
67.74669029340618
 20
168.1951867393633
 30
0.0
 41
1.0
 10
67.82982426633063
 20
168.3956645479847
 30
0.0
 41
1.0
  0
SPLINE
  5
194
330
1F
100
AcDbEntity
  8
0
  6
Continuous
 62
     7
370
    30
100
AcDbSpline
210
0.0
220
0.0
230
1.0
 70
    12
 71
     3
 72
    12
 73
     8
 74
     0
 42
0.00000001
 43
0.00000001
 40
0.0
 40
0.0
 40
0.0
 40
0.0
 40
0.1578333980214265
 40
0.307918613628282
 40
0.4720447725556491
 40
0.7062201025626739
 40
1.0
 40
1.0
 40
1.0
 40
1.0
 10
68.88368560870116
 20
167.0211190408517
 30
0.0
 41
1.0
 10
68.87159337927622
 20
167.0368909675077
 30
0.0
 41
1.0
 10
68.84800253876415
 20
167.0676605628596
 30
0.0
 41
1.0
 10
68.71588771557957
 20
167.2399768199468
 30
0.0
 41
1.0
 10
68.50371830980495
 20
167.5167083412182
 30
0.0
 41
1.0
 10
68.19918909084969
 20
167.9139050433545
 30
0.0
 41
1.0
 10
67.96187650187282
 20
168.2234299025689
 30
0.0
 41
1.0
 10
67.82982426633063
 20
168.3956645479847
 30
0.0
 41
1.0
  0
SPLINE
  5
195
330
1F
100
AcDbEntity
  8
0
  6
Continuous
 62
     7
370
    30
100
AcDbSpline
210
0.0
220
0.0
230
1.0
 70
    12
 71
     3
 72
    12
 73
     8
 74
     0
 42
0.00000001
 43
0.00000001
 40
0.0
 40
0.0
 40
0.0
 40
0.0
 40
0.1578332365825113
 40
0.3079187201729148
 40
0.472044778801148
 40
0.706220154874316
 40
1.0
 40
1.0
 40
1.0
 40
1.0
 10
69.54714584101859
 20
168.6210632374932
 30
0.0
 41
1.0
 10
69.52744149488713
 20
168.6184766627864
 30
0.0
 41
1.0
 10
69.4890000539459
 20
168.6134304837269
 30
0.0
 41
1.0
 10
69.27371047646271
 20
168.5851753595582
 30
0.0
 41
1.0
 10
68.9279697046933
 20
168.539797315202
 30
0.0
 41
1.0
 10
68.4317226664586
 20
168.4746635319976
 30
0.0
 41
1.0
 10
68.04500994601922
 20
168.4239076037328
 30
0.0
 41
1.0
 10
67.82982426633063
 20
168.3956645479847
 30
0.0
 41
1.0
  0
SPLINE
  5
196
330
1F
100
AcDbEntity
  8
0
  6
Continuous
 62
     7
370
    30
100
AcDbSpline
210
0.0
220
0.0
230
1.0
 70
    12
 71
     3
 72
    12
 73
     8
 74
     0
 42
0.00000001
 43
0.00000001
 40
0.0
 40
0.0
 40
0.0
 40
0.0
 40
0.1578333956808638
 40
0.307918671772879
 40
0.4720442536435818
 40
0.7062201031594548
 40
1.0
 40
1.0
 40
1.0
 40
1.0
 10
68.49328449864809
 20
169.9956078133036
 30
0.0
 41
1.0
 10
68.48567156357089
 20
169.9772498101937
 30
0.0
 41
1.0
 10
68.47081941617108
 20
169.9414350074417
 30
0.0
 41
1.0
 10
68.38764618617918
 20
169.7408620740573
 30
0.0
 41
1.0
 10
68.25407562473515
 20
169.4187527738973
 30
0.0
 41
1.0
 10
68.06235795791794
 20
168.9564237704491
 30
0.0
 41
1.0
 10
67.9129577223174
 20
168.5961423876547
 30
0.0
 41
1.0
 10
67.82982426633063
 20
168.3956645479847
 30
0.0
 41
1.0
  0
SPLINE
  5
197
330
1F
100
AcDbEntity
  8
0
  6
Continuous
 62
     7
370
    30
100
AcDbSpline
210
0.0
220
0.0
230
1.0
 70
    12
 71
     3
 72
    12
 73
     8
 74
     0
 42
0.00000001
 43
0.00000001
 40
0.0
 40
0.0
 40
0.0
 40
0.0
 40
0.1578334405667552
 40
0.3079188141309217
 40
0.4720446519324789
 40
0.7062199222189303
 40
1.0
 40
1.0
 40
1.0
 40
1.0
 10
66.77596199263756
 20
169.7702109864403
 30
0.0
 41
1.0
 10
66.78805424730292
 20
169.7544387693562
 30
0.0
 41
1.0
 10
66.81164514605898
 20
169.7236685956636
 30
0.0
 41
1.0
 10
66.94375957015986
 20
169.5513511623904
 30
0.0
 41
1.0
 10
67.1559296166549
 20
169.2746209916359
 30
0.0
 41
1.0
 10
67.46045843170356
 20
168.8774236695512
 30
0.0
 41
1.0
 10
67.69777163696475
 20
168.5678990990988
 30
0.0
 41
1.0
 10
67.82982426633063
 20
168.3956645479847
 30
0.0
 41
1.0
  0
CIRCLE
  5
198
330
1F
100
AcDbEntity
  8
0
  6
Continuous
 62
     7
370
    30
100
AcDbCircle
 10
39.8298238342
 20
168.3956646374
 30
0.0
 40
3.100000000000002
  0
CIRCLE
  5
199
330
1F
100
AcDbEntity
  8
0
  6
Continuous
 62
     7
370
    30
100
AcDbCircle
 10
39.8298238342
 20
168.3956646374
 30
0.0
 40
3.500000000000023
  0
LINE
  5
19A
330
1F
100
AcDbEntity
  8
0
  6
Continuous
 62
     7
370
    30
100
AcDbLine
 10
39.1663631697
 20
166.7957203513
 30
0.0
 11
40.8836856758
 21
167.0211190409
 31
0.0
  0
LINE
  5
19B
330
1F
100
AcDbEntity
  8
0
  6
Continuous
 62
     7
370
    30
100
AcDbLine
 10
40.8836856758
 20
167.0211190409
 30
0.0
 11
41.5471459081
 21
168.6210632375
 31
0.0
  0
LINE
  5
19C
330
1F
100
AcDbEntity
  8
0
  6
Continuous
 62
     7
370
    30
100
AcDbLine
 10
41.5471459081
 20
168.6210632375
 30
0.0
 11
40.4932845657
 21
169.9956078133
 31
0.0
  0
LINE
  5
19D
330
1F
100
AcDbEntity
  8
0
  6
Continuous
 62
     7
370
    30
100
AcDbLine
 10
40.4932845657
 20
169.9956078133
 30
0.0
 11
38.7759620597
 21
169.7702109864
 31
0.0
  0
LINE
  5
19E
330
1F
100
AcDbEntity
  8
0
  6
Continuous
 62
     7
370
    30
100
AcDbLine
 10
38.7759620597
 20
169.7702109864
 30
0.0
 11
38.1125018274
 21
168.1702658585
 31
0.0
  0
LINE
  5
19F
330
1F
100
AcDbEntity
  8
0
  6
Continuous
 62
     7
370
    30
100
AcDbLine
 10
38.1125018274
 20
168.1702658585
 30
0.0
 11
39.1663631697
 21
166.7957203513
 31
0.0
  0
SPLINE
  5
1A0
330
1F
100
AcDbEntity
  8
0
  6
Continuous
 62
     7
370
    30
100
AcDbSpline
210
0.0
220
0.0
230
1.0
 70
    12
 71
     3
 72
    12
 73
     8
 74
     0
 42
0.00000001
 43
0.00000001
 40
0.0
 40
0.0
 40
0.0
 40
0.0
 40
0.253579774548111
 40
0.4629720245187292
 40
0.636731042972516
 40
0.8157218503064511
 40
1.0
 40
1.0
 40
1.0
 40
1.0
 10
39.82982340206329
 20
168.3956645479847
 30
0.0
 41
1.0
 10
39.64423019349217
 20
168.3713057225892
 30
0.0
 41
1.0
 10
39.30538430697689
 20
168.3268327170888
 30
0.0
 41
1.0
 10
38.84651083531367
 20
168.2666046313226
 30
0.0
 41
1.0
 10
38.47214186306428
 20
168.2174675714435
 30
0.0
 41
1.0
 10
38.18768325831682
 20
168.1801353574444
 30
0.0
 41
1.0
 10
38.13780429873378
 20
168.1735874594599
 30
0.0
 41
1.0
 10
38.11250182737533
 20
168.1702658584763
 30
0.0
 41
1.0
  0
SPLINE
  5
1A1
330
1F
100
AcDbEntity
  8
0
  6
Continuous
 62
     7
370
    30
100
AcDbSpline
210
0.0
220
0.0
230
1.0
 70
    12
 71
     3
 72
    12
 73
     8
 74
     0
 42
0.00000001
 43
0.00000001
 40
0.0
 40
0.0
 40
0.0
 40
0.0
 40
0.1578334844182411
 40
0.3079187532492481
 40
0.4720446522441449
 40
0.7062201173722963
 40
1.0
 40
1.0
 40
1.0
 40
1.0
 10
39.16636316974584
 20
166.7957203513433
 30
0.0
 41
1.0
 10
39.17397609184503
 20
166.8140787475186
 30
0.0
 41
1.0
 10
39.18882820950566
 20
166.8498943064465
 30
0.0
 41
1.0
 10
39.27200163334614
 20
167.0504669823707
 30
0.0
 41
1.0
 10
39.40557166951839
 20
167.3725770990895
 30
0.0
 41
1.0
 10
39.59728999766045
 20
167.8349053957677
 30
0.0
 41
1.0
 10
39.74669001100666
 20
168.1951866424143
 30
0.0
 41
1.0
 10
39.82982340206329
 20
168.3956645479847
 30
0.0
 41
1.0
  0
SPLINE
  5
1A2
330
1F
100
AcDbEntity
  8
0
  6
Continuous
 62
     7
370
    30
100
AcDbSpline
210
0.0
220
0.0
230
1.0
 70
    12
 71
     3
 72
    12
 73
     8
 74
     0
 42
0.00000001
 43
0.00000001
 40
0.0
 40
0.0
 40
0.0
 40
0.0
 40
0.1578333577320882
 40
0.307918535027445
 40
0.4720446520591524
 40
0.7062199222894176
 40
1.0
 40
1.0
 40
1.0
 40
1.0
 10
40.88368567575638
 20
167.0211190408517
 30
0.0
 41
1.0
 10
40.8715934459765
 20
167.0368909672345
 30
0.0
 41
1.0
 10
40.84800260477199
 20
167.0676605620537
 30
0.0
 41
1.0
 10
40.71588778673878
 20
167.2399768231046
 30
0.0
 41
1.0
 10
40.50371835672731
 20
167.5167083257267
 30
0.0
 41
1.0
 10
40.19918916920592
 20
167.9139052849783
 30
0.0
 41
1.0
 10
39.96187600730271
 20
168.2234299463042
 30
0.0
 41
1.0
 10
39.82982340206329
 20
168.3956645479847
 30
0.0
 41
1.0
  0
SPLINE
  5
1A3
330
1F
100
AcDbEntity
  8
0
  6
Continuous
 62
     7
370
    30
100
AcDbSpline
210
0.0
220
0.0
230
1.0
 70
    12
 71
     3
 72
    12
 73
     8
 74
     0
 42
0.00000001
 43
0.00000001
 40
0.0
 40
0.0
 40
0.0
 40
0.0
 40
0.1578332967405713
 40
0.3079184940030292
 40
0.4720445076211868
 40
0.7062198194738923
 40
0.9999999999999999
 40
0.9999999999999999
 40
0.9999999999999999
 40
0.9999999999999999
 10
41.54714590807382
 20
168.6210632374932
 30
0.0
 41
1.0
 10
41.5274411140978
 20
168.6184766706266
 30
0.0
 41
1.0
 10
41.48899884233993
 20
168.6134305124926
 30
0.0
 41
1.0
 10
41.27371071077632
 20
168.5851753244288
 30
0.0
 41
1.0
 10
40.92796963993596
 20
168.5397973250561
 30
0.0
 41
1.0
 10
40.43172248681399
 20
168.4746634653139
 30
0.0
 41
1.0
 10
40.04500941334045
 20
168.4239075912888
 30
0.0
 41
1.0
 10
39.82982340206329
 20
168.3956645479847
 30
0.0
 41
1.0
  0
SPLINE
  5
1A4
330
1F
100
AcDbEntity
  8
0
  6
Continuous
 62
     7
370
    30
100
AcDbSpline
210
0.0
220
0.0
230
1.0
 70
    12
 71
     3
 72
    12
 73
     8
 74
     0
 42
0.00000001
 43
0.00000001
 40
0.0
 40
0.0
 40
0.0
 40
0.0
 40
0.1578333734578329
 40
0.3079186284177568
 40
0.4720443219761849
 40
0.7062199838214348
 40
1.0
 40
1.0
 40
1.0
 40
1.0
 10
40.49328456570331
 20
169.9956078133036
 30
0.0
 41
1.0
 10
40.48567160437011
 20
169.9772498184635
 30
0.0
 41
1.0
 10
40.47081940574721
 20
169.941435031845
 30
0.0
 41
1.0
 10
40.38764653306902
 20
169.7408619211626
 30
0.0
 41
1.0
 10
40.25407416774517
 20
169.4187531591653
 30
0.0
 41
1.0
 10
40.0623586411748
 20
168.9564233062895
 30
0.0
 41
1.0
 10
39.91295743991785
 20
168.5961422907058
 30
0.0
 41
1.0
 10
39.82982340206329
 20
168.3956645479847
 30
0.0
 41
1.0
  0
SPLINE
  5
1A5
330
1F
100
AcDbEntity
  8
0
  6
Continuous
 62
     7
370
    30
100
AcDbSpline
210
0.0
220
0.0
230
1.0
 70
    12
 71
     3
 72
    12
 73
     8
 74
     0
 42
0.00000001
 43
0.00000001
 40
0.0
 40
0.0
 40
0.0
 40
0.0
 40
0.1578334808561146
 40
0.3079188927318299
 40
0.4720447724289755
 40
0.7062201024921866
 40
1.0
 40
1.0
 40
1.0
 40
1.0
 10
38.77596205969278
 20
169.7702109864403
 30
0.0
 41
1.0
 10
38.78805431400321
 20
169.7544387690831
 30
0.0
 41
1.0
 10
38.8116452120668
 20
169.7236685948576
 30
0.0
 41
1.0
 10
38.94375964131908
 20
169.5513511655483
 30
0.0
 41
1.0
 10
39.1559296635773
 20
169.2746209761444
 30
0.0
 41
1.0
 10
39.46045851005988
 20
168.8774239111751
 30
0.0
 41
1.0
 10
39.69777114239466
 20
168.5678991428342
 30
0.0
 41
1.0
 10
39.82982340206329
 20
168.3956645479847
 30
0.0
 41
1.0
  0
LINE
  5
1A6
330
1F
100
AcDbEntity
  8
0
  6
Continuous
 62
     7
370
    30
100
AcDbLine
 10
71.8298230593
 20
131.3956640711
 30
0.0
 11
71.8298230593
 21
172.3956652036
 31
0.0
  0
LINE
  5
1A7
330
1F
100
AcDbEntity
  8
0
  6
Continuous
 62
     7
370
    30
100
AcDbLine
 10
35.8298246091
 20
131.3956640711
 30
0.0
 11
71.8298230593
 21
131.3956640711
 31
0.0
  0
CIRCLE
  5
1A8
330
1F
100
AcDbEntity
  8
0
  6
Continuous
 62
     7
370
    30
100
AcDbCircle
 10
39.8298238342
 20
135.3956646374
 30
0.0
 40
3.75
  0
CIRCLE
  5
1A9
330
1F
100
AcDbEntity
  8
0
  6
Continuous
 62
     7
370
    30
100
AcDbCircle
 10
67.8298238342
 20
135.3956646374
 30
0.0
 40
3.75
  0
CIRCLE
  5
1AA
330
1F
100
AcDbEntity
  8
0
  6
Continuous
 62
     7
370
    30
100
AcDbCircle
 10
67.8298238342
 20
168.3956646374
 30
0.0
 40
3.75
  0
LINE
  5
1AB
330
1F
100
AcDbEntity
  8
0
  6
Continuous
 62
     7
370
    30
100
AcDbLine
 10
35.8298246091
 20
172.3956652036
 30
0.0
 11
35.8298246091
 21
131.3956640711
 31
0.0
  0
LINE
  5
1AC
330
1F
100
AcDbEntity
  8
0
  6
Continuous
 62
     7
370
    30
100
AcDbLine
 10
71.8298230593
 20
172.3956652036
 30
0.0
 11
35.8298246091
 21
172.3956652036
 31
0.0
  0
CIRCLE
  5
1AD
330
1F
100
AcDbEntity
  8
0
  6
Continuous
 62
     7
370
    30
100
AcDbCircle
 10
39.8298238342
 20
168.3956646374
 30
0.0
 40
3.75
  0
LINE
  5
1AE
330
1F
100
AcDbEntity
  8
0
  6
Continuous
 62
     7
370
    30
100
AcDbLine
 10
71.8298230593
 20
179.645664995
 30
0.0
 11
63.8298236107
 21
179.645664995
 31
0.0
  0
LINE
  5
1AF
330
1F
100
AcDbEntity
  8
0
  6
Continuous
 62
     7
370
    30
100
AcDbLine
 10
71.8298230593
 20
179.645664995
 30
0.0
 11
71.8298230593
 21
172.3956652036
 31
0.0
  0
LINE
  5
1B0
330
1F
100
AcDbEntity
  8
0
  6
Continuous
 62
     7
370
    30
100
AcDbLine
 10
43.8298240577
 20
179.645664995
 30
0.0
 11
35.8298246091
 21
179.645664995
 31
0.0
  0
LINE
  5
1B1
330
1F
100
AcDbEntity
  8
0
  6
Continuous
 62
     7
370
    30
100
AcDbLine
 10
43.8298240577
 20
179.645664995
 30
0.0
 11
43.8298240577
 21
175.3956638327
 31
0.0
  0
LINE
  5
1B2
330
1F
100
AcDbEntity
  8
0
  6
Continuous
 62
     7
370
    30
100
AcDbLine
 10
43.8298240577
 20
175.3956638327
 30
0.0
 11
63.8298236107
 21
175.3956638327
 31
0.0
  0
LINE
  5
1B3
330
1F
100
AcDbEntity
  8
0
  6
Continuous
 62
     7
370
    30
100
AcDbLine
 10
63.8298236107
 20
179.645664995
 30
0.0
 11
63.8298236107
 21
175.3956638327
 31
0.0
  0
LINE
  5
1B4
330
1F
100
AcDbEntity
  8
0
  6
Continuous
 62
     7
370
    30
100
AcDbLine
 10
35.8298246091
 20
172.3956652036
 30
0.0
 11
35.8298246091
 21
179.645664995
 31
0.0
  0
DIMENSION
  5
1B5
330
1F
100
AcDbEntity
  8
0
  6
Continuous
 62
     7
370
     0
100
AcDbDimension
  2
*D5
 10
71.8298238342
 20
215.4088048359
 30
0.0
 11
53.8298238342
 21
215.4088048359
 31
0.0
 70
   160
 71
     1
 42
36.0
  3
SLDDIMSTYLE0
100
AcDbAlignedDimension
 13
35.8298238342
 23
190.8956646374
 33
0.0
 14
71.8298238342
 24
190.8956646374
 34
0.0
 50
0.0
100
AcDbRotatedDimension
1001
ACAD
1000
DSTYLE
1002
{
1070
    77
1070
     3
1070
   143
1040
0.0393700787
1070
    41
1040
3.0
1070
    44
1040
1.0
1070
    42
1040
1.0
1070
   147
1040
1.524
1070
    73
1070
     0
1070
    74
1070
     0
1070
   140
1040
3.5
1070
   284
1070
    12
1070
    78
1070
    12
1002
}
  0
LINE
  5
1C8
330
1F
100
AcDbEntity
  8
0
  6
Continuous
 62
     7
370
    30
100
AcDbLine
 10
104.8829192789
 20
250.0897927461
 30
0.0
 11
106.4829194577
 21
250.0897929138
 31
0.0
  0
LINE
  5
1C9
330
1F
100
AcDbEntity
  8
0
  6
Continuous
 62
     7
370
    30
100
AcDbLine
 10
106.4829194577
 20
265.0897925785
 30
0.0
 11
104.8829192789
 21
265.0897927461
 31
0.0
  0
LINE
  5
1CA
330
1F
100
AcDbEntity
  8
0
  6
Continuous
 62
     7
370
    30
100
AcDbLine
 10
103.3829192789
 20
251.4897927461
 30
0.0
 11
104.8829184504
 21
251.4897928638
 31
0.0
  0
LINE
  5
1CB
330
1F
100
AcDbEntity
  8
0
  6
Continuous
 62
     7
370
    30
100
AcDbLine
 10
104.8829184504
 20
263.6897926284
 30
0.0
 11
103.3829192789
 21
263.6897927461
 31
0.0
  0
LINE
  5
1CC
330
1F
100
AcDbEntity
  8
0
  6
Continuous
 62
     7
370
    30
100
AcDbLine
 10
103.3829191359
 20
262.5897926344
 30
0.0
 11
97.9829192789
 21
262.5897927461
 31
0.0
  0
LINE
  5
1CD
330
1F
100
AcDbEntity
  8
0
  6
Continuous
 62
     7
370
    30
100
AcDbLine
 10
97.9829192789
 20
252.5897927461
 30
0.0
 11
103.3829191359
 21
252.5897928579
 31
0.0
  0
LINE
  5
1CE
330
1F
100
AcDbEntity
  8
0
  6
Continuous
 62
     7
370
    30
100
AcDbLine
 10
97.9829192789
 20
262.5897927461
 30
0.0
 11
97.3829192789
 21
261.9897927461
 31
0.0
  0
LINE
  5
1CF
330
1F
100
AcDbEntity
  8
0
  6
Continuous
 62
     7
370
    30
100
AcDbLine
 10
97.3829192789
 20
253.1897927461
 30
0.0
 11
97.9829192789
 21
252.5897927461
 31
0.0
  0
LINE
  5
1D0
330
1F
100
AcDbEntity
  8
0
  6
Continuous
 62
     7
370
    30
100
AcDbLine
 10
106.4829194577
 20
247.0897928877
 30
0.0
 11
104.8829192789
 21
247.0897927461
 31
0.0
  0
LINE
  5
1D1
330
1F
100
AcDbEntity
  8
0
  6
Continuous
 62
     7
370
    30
100
AcDbLine
 10
104.8829192789
 20
240.0897927461
 30
0.0
 11
106.4829194577
 21
240.0897926716
 31
0.0
  0
LINE
  5
1D2
330
1F
100
AcDbEntity
  8
0
  6
Continuous
 62
     7
370
    30
100
AcDbLine
 10
104.8829192789
 20
247.0897927461
 30
0.0
 11
104.4829192789
 21
246.6897927461
 31
0.0
  0
LINE
  5
1D3
330
1F
100
AcDbEntity
  8
0
  6
Continuous
 62
     7
370
    30
100
AcDbLine
 10
104.4829192789
 20
240.4897927461
 30
0.0
 11
104.8829192789
 21
240.0897927461
 31
0.0
  0
LINE
  5
1D4
330
1F
100
AcDbEntity
  8
0
  6
Continuous
 62
     7
370
    30
100
AcDbLine
 10
123.482918519
 20
241.9397923229
 30
0.0
 11
124.4829196142
 21
241.9397923229
 31
0.0
  0
LINE
  5
1D5
330
1F
100
AcDbEntity
  8
0
  6
Continuous
 62
     7
370
    30
100
AcDbLine
 10
124.4829196142
 20
245.239792305
 30
0.0
 11
123.482918519
 21
245.239792305
 31
0.0
  0
LINE
  5
1D6
330
1F
100
AcDbEntity
  8
0
  6
Continuous
 62
     7
370
    30
100
AcDbLine
 10
106.4829194577
 20
275.0897928206
 30
0.0
 11
104.8829192789
 21
275.0897927461
 31
0.0
  0
LINE
  5
1D7
330
1F
100
AcDbEntity
  8
0
  6
Continuous
 62
     7
370
    30
100
AcDbLine
 10
104.8829192789
 20
268.0897927461
 30
0.0
 11
106.4829194577
 21
268.0897926046
 31
0.0
  0
LINE
  5
1D8
330
1F
100
AcDbEntity
  8
0
  6
Continuous
 62
     7
370
    30
100
AcDbLine
 10
104.8829192789
 20
275.0897927461
 30
0.0
 11
104.4829192789
 21
274.6897927461
 31
0.0
  0
LINE
  5
1D9
330
1F
100
AcDbEntity
  8
0
  6
Continuous
 62
     7
370
    30
100
AcDbLine
 10
104.4829192789
 20
268.4897927461
 30
0.0
 11
104.8829192789
 21
268.0897927461
 31
0.0
  0
LINE
  5
1DA
330
1F
100
AcDbEntity
  8
0
  6
Continuous
 62
     7
370
    30
100
AcDbLine
 10
123.482918519
 20
269.9397931872
 30
0.0
 11
124.4829196142
 21
269.9397931872
 31
0.0
  0
LINE
  5
1DB
330
1F
100
AcDbEntity
  8
0
  6
Continuous
 62
     7
370
    30
100
AcDbLine
 10
124.4829196142
 20
273.2397931693
 30
0.0
 11
123.482918519
 21
273.2397931693
 31
0.0
  0
CIRCLE
  5
1DC
330
1F
100
AcDbEntity
  8
0
  6
Continuous
 62
     7
370
    30
100
AcDbCircle
 10
142.4829192789
 20
257.5897927461
 30
0.0
 40
4.400000000000019
  0
CIRCLE
  5
1DD
330
1F
100
AcDbEntity
  8
0
  6
Continuous
 62
     7
370
    30
100
AcDbCircle
 10
142.4829192789
 20
257.5897927461
 30
0.0
 40
5.000000000000027
  0
LINE
  5
1DE
330
1F
100
AcDbEntity
  8
0
  6
Continuous
 62
     7
370
    30
100
AcDbLine
 10
140.1718093906
 20
259.319562844
 30
0.0
 11
139.8293395244
 21
256.4531979449
 31
0.0
  0
LINE
  5
1DF
330
1F
100
AcDbEntity
  8
0
  6
Continuous
 62
     7
370
    30
100
AcDbLine
 10
139.8293395244
 20
256.4531979449
 30
0.0
 11
142.1404494097
 21
254.7234279634
 31
0.0
  0
LINE
  5
1E0
330
1F
100
AcDbEntity
  8
0
  6
Continuous
 62
     7
370
    30
100
AcDbLine
 10
142.1404494097
 20
254.7234279634
 30
0.0
 11
144.7940293359
 21
255.8600226482
 31
0.0
  0
LINE
  5
1E1
330
1F
100
AcDbEntity
  8
0
  6
Continuous
 62
     7
370
    30
100
AcDbLine
 10
144.7940293359
 20
255.8600226482
 30
0.0
 11
145.1364989983
 21
258.7263875473
 31
0.0
  0
LINE
  5
1E2
330
1F
100
AcDbEntity
  8
0
  6
Continuous
 62
     7
370
    30
100
AcDbLine
 10
145.1364989983
 20
258.7263875473
 30
0.0
 11
142.8253892003
 21
260.4561575288
 31
0.0
  0
LINE
  5
1E3
330
1F
100
AcDbEntity
  8
0
  6
Continuous
 62
     7
370
    30
100
AcDbLine
 10
142.8253892003
 20
260.4561575288
 30
0.0
 11
140.1718093906
 21
259.319562844
 31
0.0
  0
SPLINE
  5
1E4
330
1F
100
AcDbEntity
  8
0
  6
Continuous
 62
     7
370
    30
100
AcDbSpline
210
0.0
220
0.0
230
1.0
 70
    12
 71
     3
 72
    13
 73
     9
 74
     0
 42
0.00000001
 43
0.00000001
 40
0.0
 40
0.0
 40
0.0
 40
0.0
 40
0.3710475023392347
 40
0.6480764311248868
 40
0.7552927926794627
 40
0.8455481351199972
 40
0.9244082408107206
 40
1.0
 40
1.0
 40
1.0
 40
1.0
 10
142.4829193050062
 20
257.5897927461137
 30
0.0
 41
1.0
 10
142.5307888457595
 20
257.9904456352278
 30
0.0
 41
1.0
 10
142.6143984130936
 20
258.6902312229489
 30
0.0
 41
1.0
 10
142.7111312957239
 20
259.4998561211039
 30
0.0
 41
1.0
 10
142.7679350712129
 20
259.975284859117
 30
0.0
 41
1.0
 10
142.7973946454878
 20
260.2218504437238
 30
0.0
 41
1.0
 10
142.8181694433012
 20
260.3957317930405
 30
0.0
 41
1.0
 10
142.8230168061938
 20
260.4363017832368
 30
0.0
 41
1.0
 10
142.8253892002647
 20
260.4561575287898
 30
0.0
 41
1.0
  0
SPLINE
  5
1E5
330
1F
100
AcDbEntity
  8
0
  6
Continuous
 62
     7
370
    30
100
AcDbSpline
210
0.0
220
0.0
230
1.0
 70
    12
 71
     3
 72
    13
 73
     9
 74
     0
 42
0.00000001
 43
0.00000001
 40
0.0
 40
0.0
 40
0.0
 40
0.0
 40
0.0755917685665471
 40
0.1544518551761159
 40
0.2447071928462397
 40
0.3519235726785741
 40
0.6289524881093378
 40
1.0
 40
1.0
 40
1.0
 40
1.0
 10
140.1718093905618
 20
259.3195628439953
 30
0.0
 41
1.0
 10
140.1878188487641
 20
259.3075804267091
 30
0.0
 41
1.0
 10
140.2205299569523
 20
259.283097515217
 30
0.0
 41
1.0
 10
140.3607279322696
 20
259.178165186602
 30
0.0
 41
1.0
 10
140.5595303147169
 20
259.0293697324022
 30
0.0
 41
1.0
 10
140.9428619741443
 20
258.7424620509279
 30
0.0
 41
1.0
 10
141.5956510412327
 20
258.253876118379
 30
0.0
 41
1.0
 10
142.1598784372711
 20
257.8315753924497
 30
0.0
 41
1.0
 10
142.4829193050062
 20
257.5897927461137
 30
0.0
 41
1.0
  0
SPLINE
  5
1E6
330
1F
100
AcDbEntity
  8
0
  6
Continuous
 62
     7
370
    30
100
AcDbSpline
210
0.0
220
0.0
230
1.0
 70
    12
 71
     3
 72
    13
 73
     9
 74
     0
 42
0.00000001
 43
0.00000001
 40
0.0
 40
0.0
 40
0.0
 40
0.0
 40
0.0755917821109768
 40
0.1544518777148097
 40
0.2447071924495227
 40
0.3519235987510547
 40
0.628952487035456
 40
1.0
 40
1.0
 40
1.0
 40
1.0
 10
144.7940293358659
 20
255.8600226482322
 30
0.0
 41
1.0
 10
144.7780198123641
 20
255.8720050663329
 30
0.0
 41
1.0
 10
144.7453085718414
 20
255.8964879786752
 30
0.0
 41
1.0
 10
144.6051105541458
 20
256.0014202725929
 30
0.0
 41
1.0
 10
144.4063083036683
 20
256.1502158183942
 30
0.0
 41
1.0
 10
144.0229764777153
 20
256.4371233400382
 30
0.0
 41
1.0
 10
143.3701876062899
 20
256.9257094482989
 30
0.0
 41
1.0
 10
142.8059601952571
 20
257.3480101202535
 30
0.0
 41
1.0
 10
142.4829193050062
 20
257.5897927461137
 30
0.0
 41
1.0
  0
SPLINE
  5
1E7
330
1F
100
AcDbEntity
  8
0
  6
Continuous
 62
     7
370
    30
100
AcDbSpline
210
0.0
220
0.0
230
1.0
 70
    12
 71
     3
 72
    13
 73
     9
 74
     0
 42
0.00000001
 43
0.00000001
 40
0.0
 40
0.0
 40
0.0
 40
0.0
 40
0.0755917723065992
 40
0.1544518881572803
 40
0.2447071613230999
 40
0.3519236061687783
 40
0.6289524724978374
 40
1.0
 40
1.0
 40
1.0
 40
1.0
 10
145.1364989982938
 20
258.7263875473236
 30
0.0
 41
1.0
 10
145.1181171994324
 20
258.7185141596524
 30
0.0
 41
1.0
 10
145.0805588322286
 20
258.7024269645132
 30
0.0
 41
1.0
 10
144.9195855754581
 20
258.6334782177639
 30
0.0
 41
1.0
 10
144.6913240460216
 20
258.5357078451759
 30
0.0
 41
1.0
 10
144.2511885987568
 20
258.3471870892807
 30
0.0
 41
1.0
 10
143.5016665967303
 20
258.0261476502997
 30
0.0
 41
1.0
 10
142.853829707393
 20
257.7486629334604
 30
0.0
 41
1.0
 10
142.4829193050062
 20
257.5897927461137
 30
0.0
 41
1.0
  0
SPLINE
  5
1E8
330
1F
100
AcDbEntity
  8
0
  6
Continuous
 62
     7
370
    30
100
AcDbSpline
210
0.0
220
0.0
230
1.0
 70
    12
 71
     3
 72
    13
 73
     9
 74
     0
 42
0.00000001
 43
0.00000001
 40
0.0
 40
0.0
 40
0.0
 40
0.0
 40
0.0755917645246191
 40
0.1544518624799331
 40
0.2447071990286295
 40
0.3519235649823705
 40
0.6289524856620745
 40
1.0
 40
1.0
 40
1.0
 40
1.0
 10
139.8293395244071
 20
256.4531979449039
 30
0.0
 41
1.0
 10
139.847721308425
 20
256.4610713294467
 30
0.0
 41
1.0
 10
139.8852796429225
 20
256.4771585171756
 30
0.0
 41
1.0
 10
140.0462527961276
 20
256.5461073308455
 30
0.0
 41
1.0
 10
140.2745145855174
 20
256.6438775376868
 30
0.0
 41
1.0
 10
140.7146497642173
 20
256.8323985843697
 30
0.0
 41
1.0
 10
141.4641720398041
 20
257.1534377192052
 30
0.0
 41
1.0
 10
142.1120089356337
 20
257.4309225240905
 30
0.0
 41
1.0
 10
142.4829193050062
 20
257.5897927461137
 30
0.0
 41
1.0
  0
SPLINE
  5
1E9
330
1F
100
AcDbEntity
  8
0
  6
Continuous
 62
     7
370
    30
100
AcDbSpline
210
0.0
220
0.0
230
1.0
 70
    12
 71
     3
 72
    13
 73
     9
 74
     0
 42
0.00000001
 43
0.00000001
 40
0.0
 40
0.0
 40
0.0
 40
0.0
 40
0.0755917591892801
 40
0.1544518648800043
 40
0.2447072073205397
 40
0.3519235688751167
 40
0.6289524976607713
 40
1.0
 40
1.0
 40
1.0
 40
1.0
 10
142.1404494097476
 20
254.7234279634377
 30
0.0
 41
1.0
 10
142.1428218038186
 20
254.7432837089906
 30
0.0
 41
1.0
 10
142.1476691667112
 20
254.7838536991871
 30
0.0
 41
1.0
 10
142.1684439645246
 20
254.9577350485037
 30
0.0
 41
1.0
 10
142.1979035387995
 20
255.2043006331106
 30
0.0
 41
1.0
 10
142.2547073142884
 20
255.6797293711236
 30
0.0
 41
1.0
 10
142.3514401969188
 20
256.4893542692785
 30
0.0
 41
1.0
 10
142.4350497642529
 20
257.1891398569997
 30
0.0
 41
1.0
 10
142.4829193050062
 20
257.5897927461137
 30
0.0
 41
1.0
  0
CIRCLE
  5
1EA
330
1F
100
AcDbEntity
  8
0
  6
Continuous
 62
     7
370
    30
100
AcDbCircle
 10
142.4829192789
 20
257.5897927461
 30
0.0
 40
6.099999999999985
  0
CIRCLE
  5
1EB
330
1F
100
AcDbEntity
  8
0
  6
Continuous
 62
     7
370
    30
100
AcDbCircle
 10
142.4829192789
 20
257.5897927461
 30
0.0
 40
7.500000000000012
  0
LINE
  5
1EC
330
1F
100
AcDbEntity
  8
0
  6
Continuous
 62
     7
370
    30
100
AcDbLine
 10
104.8829192789
 20
265.0897927461
 30
0.0
 11
104.8829192789
 21
250.0897927461
 31
0.0
  0
LINE
  5
1ED
330
1F
100
AcDbEntity
  8
0
  6
Continuous
 62
     7
370
    30
100
AcDbLine
 10
103.3829192789
 20
263.6897927461
 30
0.0
 11
103.3829192789
 21
251.4897927461
 31
0.0
  0
LINE
  5
1EE
330
1F
100
AcDbEntity
  8
0
  6
Continuous
 62
     7
370
    30
100
AcDbLine
 10
97.9829192789
 20
262.5897927461
 30
0.0
 11
97.9829192789
 21
252.5897927461
 31
0.0
  0
LINE
  5
1EF
330
1F
100
AcDbEntity
  8
0
  6
Continuous
 62
     7
370
    30
100
AcDbLine
 10
97.3829192789
 20
253.1897927461
 30
0.0
 11
97.3829192789
 21
261.9897927461
 31
0.0
  0
LINE
  5
1F0
330
1F
100
AcDbEntity
  8
0
  6
Continuous
 62
     7
370
    30
100
AcDbLine
 10
126.7508688973
 20
271.5897931782
 30
0.0
 11
127.6168936523
 21
270.0897929324
 31
0.0
  0
LINE
  5
1F1
330
1F
100
AcDbEntity
  8
0
  6
Continuous
 62
     7
370
    30
100
AcDbLine
 10
127.6168936523
 20
270.0897929324
 30
0.0
 11
129.3489450248
 21
270.0897929324
 31
0.0
  0
LINE
  5
1F2
330
1F
100
AcDbEntity
  8
0
  6
Continuous
 62
     7
370
    30
100
AcDbLine
 10
129.3489450248
 20
270.0897929324
 30
0.0
 11
130.2149697797
 21
271.5897931782
 31
0.0
  0
LINE
  5
1F3
330
1F
100
AcDbEntity
  8
0
  6
Continuous
 62
     7
370
    30
100
AcDbLine
 10
130.2149697797
 20
271.5897931782
 30
0.0
 11
129.3489450248
 21
273.0897924928
 31
0.0
  0
LINE
  5
1F4
330
1F
100
AcDbEntity
  8
0
  6
Continuous
 62
     7
370
    30
100
AcDbLine
 10
129.3489450248
 20
273.0897924928
 30
0.0
 11
127.6168936523
 21
273.0897924928
 31
0.0
  0
LINE
  5
1F5
330
1F
100
AcDbEntity
  8
0
  6
Continuous
 62
     7
370
    30
100
AcDbLine
 10
127.6168936523
 20
273.0897924928
 30
0.0
 11
126.7508688973
 21
271.5897931782
 31
0.0
  0
CIRCLE
  5
1F6
330
1F
100
AcDbEntity
  8
0
  6
Continuous
 62
     7
370
    30
100
AcDbCircle
 10
128.4829192789
 20
271.5897927461
 30
0.0
 40
3.099999999999994
  0
CIRCLE
  5
1F7
330
1F
100
AcDbEntity
  8
0
  6
Continuous
 62
     7
370
    30
100
AcDbCircle
 10
128.4829192789
 20
271.5897927461
 30
0.0
 40
3.5
  0
SPLINE
  5
1F8
330
1F
100
AcDbEntity
  8
0
  6
Continuous
 62
     7
370
    30
100
AcDbSpline
210
0.0
220
0.0
230
1.0
 70
    12
 71
     3
 72
    12
 73
     8
 74
     0
 42
0.00000001
 43
0.00000001
 40
0.0
 40
0.0
 40
0.0
 40
0.0
 40
0.2535797050238284
 40
0.4629713587210367
 40
0.6367309373392199
 40
0.8157204709921493
 40
1.0
 40
1.0
 40
1.0
 40
1.0
 10
128.4829193385338
 20
271.5897931782474
 30
0.0
 41
1.0
 10
128.3893266894167
 20
271.7518997313715
 30
0.0
 41
1.0
 10
128.2184505701153
 20
272.0478646278934
 30
0.0
 41
1.0
 10
127.9870458718923
 20
272.4486724920408
 30
0.0
 41
1.0
 10
127.7982569944399
 20
272.775661699732
 30
0.0
 41
1.0
 10
127.6548066453173
 20
273.024127778164
 30
0.0
 41
1.0
 10
127.629653412058
 20
273.0676927871814
 30
0.0
 41
1.0
 10
127.6168936522698
 20
273.089792492794
 30
0.0
 41
1.0
  0
SPLINE
  5
1F9
330
1F
100
AcDbEntity
  8
0
  6
Continuous
 62
     7
370
    30
100
AcDbSpline
210
0.0
220
0.0
230
1.0
 70
    28
 71
     3
 72
    12
 73
     8
 74
     0
 42
0.00000001
 43
0.00000001
 40
0.0
 40
0.0
 40
0.0
 40
0.0
 40
0.1578348103155129
 40
0.3079185728048545
 40
0.4720454471098921
 40
0.706220150691703
 40
1.0
 40
1.0
 40
1.0
 40
1.0
 10
126.7508688973283
 20
271.5897931782474
 30
0.0
 41
1.0
 10
126.7707421119971
 20
271.5897931782474
 30
0.0
 41
1.0
 10
126.8095125954261
 20
271.5897931782474
 30
0.0
 41
1.0
 10
127.0266515547981
 20
271.5897931782474
 30
0.0
 41
1.0
 10
127.3753529663751
 20
271.5897931782474
 30
0.0
 41
1.0
 10
127.8758599012741
 20
271.5897931782474
 30
0.0
 41
1.0
 10
128.26588834954
 20
271.5897931782474
 30
0.0
 41
1.0
 10
128.4829193385338
 20
271.5897931782474
 30
0.0
 41
1.0
  0
SPLINE
  5
1FA
330
1F
100
AcDbEntity
  8
0
  6
Continuous
 62
     7
370
    30
100
AcDbSpline
210
0.0
220
0.0
230
1.0
 70
    12
 71
     3
 72
    12
 73
     8
 74
     0
 42
0.00000001
 43
0.00000001
 40
0.0
 40
0.0
 40
0.0
 40
0.0
 40
0.1578348704916874
 40
0.3079188580666378
 40
0.472045487263975
 40
0.7062202988629134
 40
1.0
 40
1.0
 40
1.0
 40
1.0
 10
129.3489450247978
 20
273.089792492794
 30
0.0
 41
1.0
 10
129.3390079274415
 20
273.0725820152991
 30
0.0
 41
1.0
 10
129.3196217191787
 20
273.0390062245976
 30
0.0
 41
1.0
 10
129.2110539065029
 20
272.8509564699207
 30
0.0
 41
1.0
 10
129.0367013045944
 20
272.5489740831254
 30
0.0
 41
1.0
 10
128.7864496314519
 20
272.1155213371062
 30
0.0
 41
1.0
 10
128.5914350084841
 20
271.7777472134833
 30
0.0
 41
1.0
 10
128.4829193385338
 20
271.5897931782474
 30
0.0
 41
1.0
  0
SPLINE
  5
1FB
330
1F
100
AcDbEntity
  8
0
  6
Continuous
 62
     7
370
    30
100
AcDbSpline
210
0.0
220
0.0
230
1.0
 70
    28
 71
     3
 72
    12
 73
     8
 74
     0
 42
0.00000001
 43
0.00000001
 40
0.0
 40
0.0
 40
0.0
 40
0.0
 40
0.1578348268296866
 40
0.3079188522952991
 40
0.4720453918702837
 40
0.7062201199536713
 40
1.0
 40
1.0
 40
1.0
 40
1.0
 10
130.2149697797393
 20
271.5897931782474
 30
0.0
 41
1.0
 10
130.1950966366596
 20
271.5897931782474
 30
0.0
 41
1.0
 10
130.1563262617588
 20
271.5897931782474
 30
0.0
 41
1.0
 10
129.9391861848877
 20
271.5897931782474
 30
0.0
 41
1.0
 10
129.5904857250876
 20
271.5897931782474
 30
0.0
 41
1.0
 10
129.0899786761488
 20
271.5897931782474
 30
0.0
 41
1.0
 10
128.6999502919034
 20
271.5897931782474
 30
0.0
 41
1.0
 10
128.4829193385338
 20
271.5897931782474
 30
0.0
 41
1.0
  0
SPLINE
  5
1FC
330
1F
100
AcDbEntity
  8
0
  6
Continuous
 62
     7
370
    30
100
AcDbSpline
210
0.0
220
0.0
230
1.0
 70
    12
 71
     3
 72
    12
 73
     8
 74
     0
 42
0.00000001
 43
0.00000001
 40
0.0
 40
0.0
 40
0.0
 40
0.0
 40
0.1578347456000049
 40
0.3079187876557424
 40
0.4720451652755485
 40
0.7062200709029639
 40
1.0
 40
1.0
 40
1.0
 40
1.0
 10
127.6168936522698
 20
270.0897929323783
 30
0.0
 41
1.0
 10
127.6268302339907
 20
270.1070034459579
 30
0.0
 41
1.0
 10
127.6462154472104
 20
270.1405793259469
 30
0.0
 41
1.0
 10
127.7547853656736
 20
270.3286286542899
 30
0.0
 41
1.0
 10
127.9291358071644
 20
270.6306118267626
 30
0.0
 41
1.0
 10
128.1793897322733
 20
271.0640639083584
 30
0.0
 41
1.0
 10
128.3744039024929
 20
271.4018387257499
 30
0.0
 41
1.0
 10
128.4829193385338
 20
271.5897931782474
 30
0.0
 41
1.0
  0
SPLINE
  5
1FD
330
1F
100
AcDbEntity
  8
0
  6
Continuous
 62
     7
370
    30
100
AcDbSpline
210
0.0
220
0.0
230
1.0
 70
    12
 71
     3
 72
    12
 73
     8
 74
     0
 42
0.00000001
 43
0.00000001
 40
0.0
 40
0.0
 40
0.0
 40
0.0
 40
0.1578348131460131
 40
0.3079187461913945
 40
0.4720453157570914
 40
0.7062200422739916
 40
1.0
 40
1.0
 40
1.0
 40
1.0
 10
129.3489450247978
 20
270.0897929323783
 30
0.0
 41
1.0
 10
129.3390079276864
 20
270.1070034100134
 30
0.0
 41
1.0
 10
129.3196217199015
 20
270.1405792009882
 30
0.0
 41
1.0
 10
129.2110539036711
 20
270.3286289536314
 30
0.0
 41
1.0
 10
129.0367013184867
 20
270.6306113499953
 30
0.0
 41
1.0
 10
128.7864494147725
 20
271.0640642668143
 30
0.0
 41
1.0
 10
128.5914349692638
 20
271.4018388077147
 30
0.0
 41
1.0
 10
128.4829193385338
 20
271.5897931782474
 30
0.0
 41
1.0
  0
CIRCLE
  5
1FE
330
1F
100
AcDbEntity
  8
0
  6
Continuous
 62
     7
370
    30
100
AcDbCircle
 10
156.4829192789
 20
243.5897927461
 30
0.0
 40
3.099999999999994
  0
CIRCLE
  5
1FF
330
1F
100
AcDbEntity
  8
0
  6
Continuous
 62
     7
370
    30
100
AcDbCircle
 10
156.4829192789
 20
243.5897927461
 30
0.0
 40
3.5
  0
LINE
  5
200
330
1F
100
AcDbEntity
  8
0
  6
Continuous
 62
     7
370
    30
100
AcDbLine
 10
154.7508688303
 20
243.589792314
 30
0.0
 11
155.6168945165
 21
242.0897929994
 31
0.0
  0
LINE
  5
201
330
1F
100
AcDbEntity
  8
0
  6
Continuous
 62
     7
370
    30
100
AcDbLine
 10
155.6168945165
 20
242.0897929994
 30
0.0
 11
157.3489440264
 21
242.0897929994
 31
0.0
  0
LINE
  5
202
330
1F
100
AcDbEntity
  8
0
  6
Continuous
 62
     7
370
    30
100
AcDbLine
 10
157.3489440264
 20
242.0897929994
 30
0.0
 11
158.2149697127
 21
243.589792314
 31
0.0
  0
LINE
  5
203
330
1F
100
AcDbEntity
  8
0
  6
Continuous
 62
     7
370
    30
100
AcDbLine
 10
158.2149697127
 20
243.589792314
 30
0.0
 11
157.3489440264
 21
245.0897925598
 31
0.0
  0
LINE
  5
204
330
1F
100
AcDbEntity
  8
0
  6
Continuous
 62
     7
370
    30
100
AcDbLine
 10
157.3489440264
 20
245.0897925598
 30
0.0
 11
155.6168945165
 21
245.0897925598
 31
0.0
  0
LINE
  5
205
330
1F
100
AcDbEntity
  8
0
  6
Continuous
 62
     7
370
    30
100
AcDbLine
 10
155.6168945165
 20
245.0897925598
 30
0.0
 11
154.7508688303
 21
243.589792314
 31
0.0
  0
SPLINE
  5
206
330
1F
100
AcDbEntity
  8
0
  6
Continuous
 62
     7
370
    30
100
AcDbSpline
210
0.0
220
0.0
230
1.0
 70
    12
 71
     3
 72
    12
 73
     8
 74
     0
 42
0.00000001
 43
0.00000001
 40
0.0
 40
0.0
 40
0.0
 40
0.0
 40
0.1578347347778878
 40
0.3079188161452158
 40
0.4720452367547284
 40
0.7062202037196973
 40
1.0
 40
1.0
 40
1.0
 40
1.0
 10
157.34894402642
 20
245.0897925598493
 30
0.0
 41
1.0
 10
157.3390078368959
 20
245.0725820400179
 30
0.0
 41
1.0
 10
157.3196233856876
 20
245.0390061424237
 30
0.0
 41
1.0
 10
157.2110531725524
 20
244.8509568414434
 30
0.0
 41
1.0
 10
157.0367028541468
 20
244.5489736512976
 30
0.0
 41
1.0
 10
156.7864487961656
 20
244.115521800651
 30
0.0
 41
1.0
 10
156.591435254639
 20
243.7777468057346
 30
0.0
 41
1.0
 10
156.4829202028011
 20
243.5897923139801
 30
0.0
 41
1.0
  0
SPLINE
  5
207
330
1F
100
AcDbEntity
  8
0
  6
Continuous
 62
     7
370
    30
100
AcDbSpline
210
0.0
220
0.0
230
1.0
 70
    12
 71
     3
 72
    12
 73
     8
 74
     0
 42
0.00000001
 43
0.00000001
 40
0.0
 40
0.0
 40
0.0
 40
0.0
 40
0.25358016344894
 40
0.4629717218111943
 40
0.636731221317526
 40
0.8157205705983848
 40
1.0
 40
1.0
 40
1.0
 40
1.0
 10
156.4829202028011
 20
243.5897923139801
 30
0.0
 41
1.0
 10
156.3893272311715
 20
243.7518991758596
 30
0.0
 41
1.0
 10
156.2184506979463
 20
244.0478643331534
 30
0.0
 41
1.0
 10
155.9870456673713
 20
244.4486724563114
 30
0.0
 41
1.0
 10
155.7982574245033
 20
244.7756620469291
 30
0.0
 41
1.0
 10
155.6548048022561
 20
245.0241264048027
 30
0.0
 41
1.0
 10
155.6296533672056
 20
245.0676923659224
 30
0.0
 41
1.0
 10
155.6168945165371
 20
245.0897925598493
 30
0.0
 41
1.0
  0
SPLINE
  5
208
330
1F
100
AcDbEntity
  8
0
  6
Continuous
 62
     7
370
    30
100
AcDbSpline
210
0.0
220
0.0
230
1.0
 70
    28
 71
     3
 72
    12
 73
     8
 74
     0
 42
0.00000001
 43
0.00000001
 40
0.0
 40
0.0
 40
0.0
 40
0.0
 40
0.1578348905732424
 40
0.3079189766521532
 40
0.47204558251168
 40
0.7062200013070167
 40
1.0
 40
1.0
 40
1.0
 40
1.0
 10
158.2149697126841
 20
243.5897923139801
 30
0.0
 41
1.0
 10
158.1950965694301
 20
243.5897923139801
 30
0.0
 41
1.0
 10
158.1563261941893
 20
243.5897923139801
 30
0.0
 41
1.0
 10
157.9391861198475
 20
243.5897923139801
 30
0.0
 41
1.0
 10
157.5904859049503
 20
243.5897923139801
 30
0.0
 41
1.0
 10
157.089979279942
 20
243.5897923139801
 30
0.0
 41
1.0
 10
156.6999511697135
 20
243.5897923139801
 30
0.0
 41
1.0
 10
156.4829202028011
 20
243.5897923139801
 30
0.0
 41
1.0
  0
SPLINE
  5
209
330
1F
100
AcDbEntity
  8
0
  6
Continuous
 62
     7
370
    30
100
AcDbSpline
210
0.0
220
0.0
230
1.0
 70
    28
 71
     3
 72
    12
 73
     8
 74
     0
 42
0.00000001
 43
0.00000001
 40
0.0
 40
0.0
 40
0.0
 40
0.0
 40
0.1578347416249221
 40
0.3079184387969721
 40
0.4720452416730774
 40
0.7062194394787065
 40
1.0
 40
1.0
 40
1.0
 40
1.0
 10
154.7508688302731
 20
243.5897923139801
 30
0.0
 41
1.0
 10
154.7707420451136
 20
243.5897923139801
 30
0.0
 41
1.0
 10
154.8095125288776
 20
243.5897923139801
 30
0.0
 41
1.0
 10
155.0266514857574
 20
243.5897923139801
 30
0.0
 41
1.0
 10
155.3753526522566
 20
243.5897923139801
 30
0.0
 41
1.0
 10
155.8758597710663
 20
243.5897923139801
 30
0.0
 41
1.0
 10
156.2658885749586
 20
243.5897923139801
 30
0.0
 41
1.0
 10
156.4829202028011
 20
243.5897923139801
 30
0.0
 41
1.0
  0
SPLINE
  5
20A
330
1F
100
AcDbEntity
  8
0
  6
Continuous
 62
     7
370
    30
100
AcDbSpline
210
0.0
220
0.0
230
1.0
 70
    12
 71
     3
 72
    12
 73
     8
 74
     0
 42
0.00000001
 43
0.00000001
 40
0.0
 40
0.0
 40
0.0
 40
0.0
 40
0.1578347259064796
 40
0.30791879883804
 40
0.4720452102225079
 40
0.7062201640252174
 40
1.0
 40
1.0
 40
1.0
 40
1.0
 10
155.6168945165371
 20
242.0897929994335
 30
0.0
 41
1.0
 10
155.6268307071521
 20
242.1070035186349
 30
0.0
 41
1.0
 10
155.6462151604884
 20
242.1405794150001
 30
0.0
 41
1.0
 10
155.7547853577926
 20
242.3286287251233
 30
0.0
 41
1.0
 10
155.9291357506818
 20
242.6306118722524
 30
0.0
 41
1.0
 10
156.1793893872055
 20
243.0640640132445
 30
0.0
 41
1.0
 10
156.3744043505729
 20
243.4018382359637
 30
0.0
 41
1.0
 10
156.4829202028011
 20
243.5897923139801
 30
0.0
 41
1.0
  0
SPLINE
  5
20B
330
1F
100
AcDbEntity
  8
0
  6
Continuous
 62
     7
370
    30
100
AcDbSpline
210
0.0
220
0.0
230
1.0
 70
    12
 71
     3
 72
    12
 73
     8
 74
     0
 42
0.00000001
 43
0.00000001
 40
0.0
 40
0.0
 40
0.0
 40
0.0
 40
0.157834792123584
 40
0.3079189280205829
 40
0.472045408261734
 40
0.7062204603089031
 40
1.0
 40
1.0
 40
1.0
 40
1.0
 10
157.34894402642
 20
242.0897929994335
 30
0.0
 41
1.0
 10
157.339007836651
 20
242.1070035191248
 30
0.0
 41
1.0
 10
157.3196233849648
 20
242.1405794164456
 30
0.0
 41
1.0
 10
157.2110531753843
 20
242.3286287194596
 30
0.0
 41
1.0
 10
157.0367028402546
 20
242.6306119000369
 30
0.0
 41
1.0
 10
156.7864490128459
 20
243.0640635798837
 30
0.0
 41
1.0
 10
156.5914352938597
 20
243.4018381575225
 30
0.0
 41
1.0
 10
156.4829202028011
 20
243.5897923139801
 30
0.0
 41
1.0
  0
CIRCLE
  5
20C
330
1F
100
AcDbEntity
  8
0
  6
Continuous
 62
     7
370
    30
100
AcDbCircle
 10
128.4829192789
 20
243.5897927461
 30
0.0
 40
3.099999999999994
  0
CIRCLE
  5
20D
330
1F
100
AcDbEntity
  8
0
  6
Continuous
 62
     7
370
    30
100
AcDbCircle
 10
128.4829192789
 20
243.5897927461
 30
0.0
 40
3.499999999999986
  0
LINE
  5
20E
330
1F
100
AcDbEntity
  8
0
  6
Continuous
 62
     7
370
    30
100
AcDbLine
 10
126.7508688973
 20
243.589792314
 30
0.0
 11
127.6168936523
 21
242.0897929994
 31
0.0
  0
LINE
  5
20F
330
1F
100
AcDbEntity
  8
0
  6
Continuous
 62
     7
370
    30
100
AcDbLine
 10
127.6168936523
 20
242.0897929994
 30
0.0
 11
129.3489450248
 21
242.0897929994
 31
0.0
  0
LINE
  5
210
330
1F
100
AcDbEntity
  8
0
  6
Continuous
 62
     7
370
    30
100
AcDbLine
 10
129.3489450248
 20
242.0897929994
 30
0.0
 11
130.2149697797
 21
243.589792314
 31
0.0
  0
LINE
  5
211
330
1F
100
AcDbEntity
  8
0
  6
Continuous
 62
     7
370
    30
100
AcDbLine
 10
130.2149697797
 20
243.589792314
 30
0.0
 11
129.3489450248
 21
245.0897925598
 31
0.0
  0
LINE
  5
212
330
1F
100
AcDbEntity
  8
0
  6
Continuous
 62
     7
370
    30
100
AcDbLine
 10
129.3489450248
 20
245.0897925598
 30
0.0
 11
127.6168936523
 21
245.0897925598
 31
0.0
  0
LINE
  5
213
330
1F
100
AcDbEntity
  8
0
  6
Continuous
 62
     7
370
    30
100
AcDbLine
 10
127.6168936523
 20
245.0897925598
 30
0.0
 11
126.7508688973
 21
243.589792314
 31
0.0
  0
SPLINE
  5
214
330
1F
100
AcDbEntity
  8
0
  6
Continuous
 62
     7
370
    30
100
AcDbSpline
210
0.0
220
0.0
230
1.0
 70
    28
 71
     3
 72
    12
 73
     8
 74
     0
 42
0.00000001
 43
0.00000001
 40
0.0
 40
0.0
 40
0.0
 40
0.0
 40
0.1578348268296866
 40
0.3079188522952991
 40
0.4720453918702837
 40
0.7062201199536713
 40
1.0
 40
1.0
 40
1.0
 40
1.0
 10
130.2149697797393
 20
243.5897923139801
 30
0.0
 41
1.0
 10
130.1950966366596
 20
243.5897923139801
 30
0.0
 41
1.0
 10
130.1563262617588
 20
243.5897923139801
 30
0.0
 41
1.0
 10
129.9391861848877
 20
243.5897923139801
 30
0.0
 41
1.0
 10
129.5904857250876
 20
243.5897923139801
 30
0.0
 41
1.0
 10
129.0899786761488
 20
243.5897923139801
 30
0.0
 41
1.0
 10
128.6999502919034
 20
243.5897923139801
 30
0.0
 41
1.0
 10
128.4829193385338
 20
243.5897923139801
 30
0.0
 41
1.0
  0
SPLINE
  5
215
330
1F
100
AcDbEntity
  8
0
  6
Continuous
 62
     7
370
    30
100
AcDbSpline
210
0.0
220
0.0
230
1.0
 70
    12
 71
     3
 72
    12
 73
     8
 74
     0
 42
0.00000001
 43
0.00000001
 40
0.0
 40
0.0
 40
0.0
 40
0.0
 40
0.1578348131460131
 40
0.3079187461913945
 40
0.4720453157570914
 40
0.7062200422739916
 40
1.0
 40
1.0
 40
1.0
 40
1.0
 10
129.3489450247978
 20
245.0897925598493
 30
0.0
 41
1.0
 10
129.3390079276864
 20
245.0725820822142
 30
0.0
 41
1.0
 10
129.3196217199015
 20
245.0390062912393
 30
0.0
 41
1.0
 10
129.2110539036711
 20
244.8509565385961
 30
0.0
 41
1.0
 10
129.0367013184867
 20
244.5489741422323
 30
0.0
 41
1.0
 10
128.7864494147725
 20
244.1155212254133
 30
0.0
 41
1.0
 10
128.5914349692638
 20
243.7777466845128
 30
0.0
 41
1.0
 10
128.4829193385338
 20
243.5897923139801
 30
0.0
 41
1.0
  0
SPLINE
  5
216
330
1F
100
AcDbEntity
  8
0
  6
Continuous
 62
     7
370
    30
100
AcDbSpline
210
0.0
220
0.0
230
1.0
 70
    12
 71
     3
 72
    12
 73
     8
 74
     0
 42
0.00000001
 43
0.00000001
 40
0.0
 40
0.0
 40
0.0
 40
0.0
 40
0.2535800125713359
 40
0.4629716197983199
 40
0.636731159854094
 40
0.8157204103689627
 40
1.0
 40
1.0
 40
1.0
 40
1.0
 10
128.4829193385338
 20
243.5897923139801
 30
0.0
 41
1.0
 10
128.3893267302472
 20
243.7518992124406
 30
0.0
 41
1.0
 10
128.2184507963745
 20
244.0478645474041
 30
0.0
 41
1.0
 10
127.9870458365744
 20
244.448672456763
 30
0.0
 41
1.0
 10
127.7982571357265
 20
244.7756619138212
 30
0.0
 41
1.0
 10
127.6548065216348
 20
245.0241265561016
 30
0.0
 41
1.0
 10
127.6296533784024
 20
245.0676924065747
 30
0.0
 41
1.0
 10
127.6168936522698
 20
245.0897925598493
 30
0.0
 41
1.0
  0
SPLINE
  5
217
330
1F
100
AcDbEntity
  8
0
  6
Continuous
 62
     7
370
    30
100
AcDbSpline
210
0.0
220
0.0
230
1.0
 70
    28
 71
     3
 72
    12
 73
     8
 74
     0
 42
0.00000001
 43
0.00000001
 40
0.0
 40
0.0
 40
0.0
 40
0.0
 40
0.1578348103155129
 40
0.3079185728048545
 40
0.4720454471098921
 40
0.706220150691703
 40
1.0
 40
1.0
 40
1.0
 40
1.0
 10
126.7508688973283
 20
243.5897923139801
 30
0.0
 41
1.0
 10
126.7707421119971
 20
243.5897923139801
 30
0.0
 41
1.0
 10
126.8095125954261
 20
243.5897923139801
 30
0.0
 41
1.0
 10
127.0266515547981
 20
243.5897923139801
 30
0.0
 41
1.0
 10
127.3753529663751
 20
243.5897923139801
 30
0.0
 41
1.0
 10
127.8758599012741
 20
243.5897923139801
 30
0.0
 41
1.0
 10
128.26588834954
 20
243.5897923139801
 30
0.0
 41
1.0
 10
128.4829193385338
 20
243.5897923139801
 30
0.0
 41
1.0
  0
SPLINE
  5
218
330
1F
100
AcDbEntity
  8
0
  6
Continuous
 62
     7
370
    30
100
AcDbSpline
210
0.0
220
0.0
230
1.0
 70
    12
 71
     3
 72
    12
 73
     8
 74
     0
 42
0.00000001
 43
0.00000001
 40
0.0
 40
0.0
 40
0.0
 40
0.0
 40
0.1578348704916874
 40
0.3079188580666378
 40
0.472045487263975
 40
0.7062202988629134
 40
1.0
 40
1.0
 40
1.0
 40
1.0
 10
129.3489450247978
 20
242.0897929994335
 30
0.0
 41
1.0
 10
129.3390079274415
 20
242.1070034769285
 30
0.0
 41
1.0
 10
129.3196217191787
 20
242.14057926763
 30
0.0
 41
1.0
 10
129.2110539065029
 20
242.3286290223069
 30
0.0
 41
1.0
 10
129.0367013045944
 20
242.6306114091022
 30
0.0
 41
1.0
 10
128.7864496314519
 20
243.0640641551213
 30
0.0
 41
1.0
 10
128.5914350084841
 20
243.4018382787442
 30
0.0
 41
1.0
 10
128.4829193385338
 20
243.5897923139801
 30
0.0
 41
1.0
  0
SPLINE
  5
219
330
1F
100
AcDbEntity
  8
0
  6
Continuous
 62
     7
370
    30
100
AcDbSpline
210
0.0
220
0.0
230
1.0
 70
    12
 71
     3
 72
    12
 73
     8
 74
     0
 42
0.00000001
 43
0.00000001
 40
0.0
 40
0.0
 40
0.0
 40
0.0
 40
0.157834802945649
 40
0.3079188995309899
 40
0.4720453367823608
 40
0.7062203274918711
 40
1.0
 40
1.0
 40
1.0
 40
1.0
 10
127.6168936522698
 20
242.0897929994335
 30
0.0
 41
1.0
 10
127.6268302342356
 20
242.107003512873
 30
0.0
 41
1.0
 10
127.6462154479332
 20
242.1405793925887
 30
0.0
 41
1.0
 10
127.7547853628417
 20
242.3286287229653
 30
0.0
 41
1.0
 10
127.9291358210566
 20
242.6306118858695
 30
0.0
 41
1.0
 10
128.179389515593
 20
243.0640637966659
 30
0.0
 41
1.0
 10
128.3744038632723
 20
243.4018381967795
 30
0.0
 41
1.0
 10
128.4829193385338
 20
243.5897923139801
 30
0.0
 41
1.0
  0
CIRCLE
  5
21A
330
1F
100
AcDbEntity
  8
0
  6
Continuous
 62
     7
370
    30
100
AcDbCircle
 10
156.4829192789
 20
271.5897927461
 30
0.0
 40
3.099999999999994
  0
CIRCLE
  5
21B
330
1F
100
AcDbEntity
  8
0
  6
Continuous
 62
     7
370
    30
100
AcDbCircle
 10
156.4829192789
 20
271.5897927461
 30
0.0
 40
3.5
  0
LINE
  5
21C
330
1F
100
AcDbEntity
  8
0
  6
Continuous
 62
     7
370
    30
100
AcDbLine
 10
154.7508688303
 20
271.5897931782
 30
0.0
 11
155.6168945165
 21
270.0897929324
 31
0.0
  0
LINE
  5
21D
330
1F
100
AcDbEntity
  8
0
  6
Continuous
 62
     7
370
    30
100
AcDbLine
 10
155.6168945165
 20
270.0897929324
 30
0.0
 11
157.3489440264
 21
270.0897929324
 31
0.0
  0
LINE
  5
21E
330
1F
100
AcDbEntity
  8
0
  6
Continuous
 62
     7
370
    30
100
AcDbLine
 10
157.3489440264
 20
270.0897929324
 30
0.0
 11
158.2149697127
 21
271.5897931782
 31
0.0
  0
LINE
  5
21F
330
1F
100
AcDbEntity
  8
0
  6
Continuous
 62
     7
370
    30
100
AcDbLine
 10
158.2149697127
 20
271.5897931782
 30
0.0
 11
157.3489440264
 21
273.0897924928
 31
0.0
  0
LINE
  5
220
330
1F
100
AcDbEntity
  8
0
  6
Continuous
 62
     7
370
    30
100
AcDbLine
 10
157.3489440264
 20
273.0897924928
 30
0.0
 11
155.6168945165
 21
273.0897924928
 31
0.0
  0
LINE
  5
221
330
1F
100
AcDbEntity
  8
0
  6
Continuous
 62
     7
370
    30
100
AcDbLine
 10
155.6168945165
 20
273.0897924928
 30
0.0
 11
154.7508688303
 21
271.5897931782
 31
0.0
  0
SPLINE
  5
222
330
1F
100
AcDbEntity
  8
0
  6
Continuous
 62
     7
370
    30
100
AcDbSpline
210
0.0
220
0.0
230
1.0
 70
    12
 71
     3
 72
    12
 73
     8
 74
     0
 42
0.00000001
 43
0.00000001
 40
0.0
 40
0.0
 40
0.0
 40
0.0
 40
0.157834792123584
 40
0.3079189280205829
 40
0.472045408261734
 40
0.7062204603089031
 40
1.0
 40
1.0
 40
1.0
 40
1.0
 10
157.34894402642
 20
273.089792492794
 30
0.0
 41
1.0
 10
157.339007836651
 20
273.0725819731028
 30
0.0
 41
1.0
 10
157.3196233849648
 20
273.039006075782
 30
0.0
 41
1.0
 10
157.2110531753843
 20
272.8509567727679
 30
0.0
 41
1.0
 10
157.0367028402546
 20
272.5489735921906
 30
0.0
 41
1.0
 10
156.7864490128459
 20
272.1155219123439
 30
0.0
 41
1.0
 10
156.5914352938597
 20
271.7777473347051
 30
0.0
 41
1.0
 10
156.4829202028011
 20
271.5897931782474
 30
0.0
 41
1.0
  0
SPLINE
  5
223
330
1F
100
AcDbEntity
  8
0
  6
Continuous
 62
     7
370
    30
100
AcDbSpline
210
0.0
220
0.0
230
1.0
 70
    12
 71
     3
 72
    12
 73
     8
 74
     0
 42
0.00000001
 43
0.00000001
 40
0.0
 40
0.0
 40
0.0
 40
0.0
 40
0.2535798559018274
 40
0.462971460734275
 40
0.6367309988029899
 40
0.8157206312216659
 40
1.0
 40
1.0
 40
1.0
 40
1.0
 10
156.4829202028011
 20
271.5897931782474
 30
0.0
 41
1.0
 10
156.3893271903409
 20
271.7518996947904
 30
0.0
 41
1.0
 10
156.2184504716871
 20
272.0478644136423
 30
0.0
 41
1.0
 10
155.9870457026893
 20
272.4486724915892
 30
0.0
 41
1.0
 10
155.7982572832167
 20
272.7756618328397
 30
0.0
 41
1.0
 10
155.6548049259381
 20
273.0241276268653
 30
0.0
 41
1.0
 10
155.6296534008615
 20
273.067692746529
 30
0.0
 41
1.0
 10
155.6168945165371
 20
273.089792492794
 30
0.0
 41
1.0
  0
SPLINE
  5
224
330
1F
100
AcDbEntity
  8
0
  6
Continuous
 62
     7
370
    30
100
AcDbSpline
210
0.0
220
0.0
230
1.0
 70
    28
 71
     3
 72
    12
 73
     8
 74
     0
 42
0.00000001
 43
0.00000001
 40
0.0
 40
0.0
 40
0.0
 40
0.0
 40
0.1578348905732424
 40
0.3079189766521532
 40
0.47204558251168
 40
0.7062200013070167
 40
1.0
 40
1.0
 40
1.0
 40
1.0
 10
158.2149697126841
 20
271.5897931782474
 30
0.0
 41
1.0
 10
158.1950965694301
 20
271.5897931782474
 30
0.0
 41
1.0
 10
158.1563261941893
 20
271.5897931782474
 30
0.0
 41
1.0
 10
157.9391861198475
 20
271.5897931782474
 30
0.0
 41
1.0
 10
157.5904859049503
 20
271.5897931782474
 30
0.0
 41
1.0
 10
157.089979279942
 20
271.5897931782474
 30
0.0
 41
1.0
 10
156.6999511697135
 20
271.5897931782474
 30
0.0
 41
1.0
 10
156.4829202028011
 20
271.5897931782474
 30
0.0
 41
1.0
  0
SPLINE
  5
225
330
1F
100
AcDbEntity
  8
0
  6
Continuous
 62
     7
370
    30
100
AcDbSpline
210
0.0
220
0.0
230
1.0
 70
    28
 71
     3
 72
    12
 73
     8
 74
     0
 42
0.00000001
 43
0.00000001
 40
0.0
 40
0.0
 40
0.0
 40
0.0
 40
0.1578347416249221
 40
0.3079184387969721
 40
0.4720452416730774
 40
0.7062194394787065
 40
1.0
 40
1.0
 40
1.0
 40
1.0
 10
154.7508688302731
 20
271.5897931782474
 30
0.0
 41
1.0
 10
154.7707420451136
 20
271.5897931782474
 30
0.0
 41
1.0
 10
154.8095125288776
 20
271.5897931782474
 30
0.0
 41
1.0
 10
155.0266514857574
 20
271.5897931782474
 30
0.0
 41
1.0
 10
155.3753526522566
 20
271.5897931782474
 30
0.0
 41
1.0
 10
155.8758597710663
 20
271.5897931782474
 30
0.0
 41
1.0
 10
156.2658885749586
 20
271.5897931782474
 30
0.0
 41
1.0
 10
156.4829202028011
 20
271.5897931782474
 30
0.0
 41
1.0
  0
SPLINE
  5
226
330
1F
100
AcDbEntity
  8
0
  6
Continuous
 62
     7
370
    30
100
AcDbSpline
210
0.0
220
0.0
230
1.0
 70
    12
 71
     3
 72
    12
 73
     8
 74
     0
 42
0.00000001
 43
0.00000001
 40
0.0
 40
0.0
 40
0.0
 40
0.0
 40
0.1578347347778878
 40
0.3079188161452158
 40
0.4720452367547284
 40
0.7062202037196973
 40
1.0
 40
1.0
 40
1.0
 40
1.0
 10
157.34894402642
 20
270.0897929323783
 30
0.0
 41
1.0
 10
157.3390078368959
 20
270.1070034522097
 30
0.0
 41
1.0
 10
157.3196233856876
 20
270.1405793498039
 30
0.0
 41
1.0
 10
157.2110531725524
 20
270.3286286507841
 30
0.0
 41
1.0
 10
157.0367028541468
 20
270.6306118409299
 30
0.0
 41
1.0
 10
156.7864487961656
 20
271.0640636915766
 30
0.0
 41
1.0
 10
156.591435254639
 20
271.401838686493
 30
0.0
 41
1.0
 10
156.4829202028011
 20
271.5897931782474
 30
0.0
 41
1.0
  0
SPLINE
  5
227
330
1F
100
AcDbEntity
  8
0
  6
Continuous
 62
     7
370
    30
100
AcDbSpline
210
0.0
220
0.0
230
1.0
 70
    12
 71
     3
 72
    12
 73
     8
 74
     0
 42
0.00000001
 43
0.00000001
 40
0.0
 40
0.0
 40
0.0
 40
0.0
 40
0.1578346685609134
 40
0.3079186869629265
 40
0.4720450387158912
 40
0.7062199074365932
 40
1.0
 40
1.0
 40
1.0
 40
1.0
 10
155.6168945165371
 20
270.0897929323783
 30
0.0
 41
1.0
 10
155.6268307069072
 20
270.1070034517198
 30
0.0
 41
1.0
 10
155.6462151597657
 20
270.1405793483585
 30
0.0
 41
1.0
 10
155.7547853606245
 20
270.3286286564479
 30
0.0
 41
1.0
 10
155.9291357367895
 20
270.6306118131454
 30
0.0
 41
1.0
 10
156.1793896038857
 20
271.0640641249367
 30
0.0
 41
1.0
 10
156.3744043897934
 20
271.4018387649341
 30
0.0
 41
1.0
 10
156.4829202028011
 20
271.5897931782474
 30
0.0
 41
1.0
  0
LINE
  5
228
330
1F
100
AcDbEntity
  8
0
  6
Continuous
 62
     7
370
    30
100
AcDbLine
 10
124.4829196142
 20
275.5897919713
 30
0.0
 11
124.4829196142
 21
239.589793521
 31
0.0
  0
LINE
  5
229
330
1F
100
AcDbEntity
  8
0
  6
Continuous
 62
     7
370
    30
100
AcDbLine
 10
160.4829189958
 20
275.5897919713
 30
0.0
 11
124.4829196142
 21
275.5897919713
 31
0.0
  0
LINE
  5
22A
330
1F
100
AcDbEntity
  8
0
  6
Continuous
 62
     7
370
    30
100
AcDbLine
 10
160.4829189958
 20
239.589793521
 30
0.0
 11
160.4829189958
 21
275.5897919713
 31
0.0
  0
LINE
  5
22B
330
1F
100
AcDbEntity
  8
0
  6
Continuous
 62
     7
370
    30
100
AcDbLine
 10
124.4829196142
 20
239.589793521
 30
0.0
 11
160.4829189958
 21
239.589793521
 31
0.0
  0
CIRCLE
  5
22C
330
1F
100
AcDbEntity
  8
0
  6
Continuous
 62
     7
370
    30
100
AcDbCircle
 10
156.4829192789
 20
243.5897927461
 30
0.0
 40
3.75
  0
CIRCLE
  5
22D
330
1F
100
AcDbEntity
  8
0
  6
Continuous
 62
     7
370
    30
100
AcDbCircle
 10
156.4829192789
 20
271.5897927461
 30
0.0
 40
3.75
  0
CIRCLE
  5
22E
330
1F
100
AcDbEntity
  8
0
  6
Continuous
 62
     7
370
    30
100
AcDbCircle
 10
128.4829192789
 20
243.5897927461
 30
0.0
 40
3.75
  0
CIRCLE
  5
22F
330
1F
100
AcDbEntity
  8
0
  6
Continuous
 62
     7
370
    30
100
AcDbCircle
 10
128.4829192789
 20
271.5897927461
 30
0.0
 40
3.75
  0
LINE
  5
230
330
1F
100
AcDbEntity
  8
0
  6
Continuous
 62
     7
370
    30
100
AcDbLine
 10
104.8829192789
 20
247.0897927461
 30
0.0
 11
104.8829192789
 21
240.0897927461
 31
0.0
  0
LINE
  5
231
330
1F
100
AcDbEntity
  8
0
  6
Continuous
 62
     7
370
    30
100
AcDbLine
 10
104.4829192789
 20
240.4897927461
 30
0.0
 11
104.4829192789
 21
246.6897927461
 31
0.0
  0
LINE
  5
232
330
1F
100
AcDbEntity
  8
0
  6
Continuous
 62
     7
370
    30
100
AcDbLine
 10
104.8829192789
 20
275.0897927461
 30
0.0
 11
104.8829192789
 21
268.0897927461
 31
0.0
  0
LINE
  5
233
330
1F
100
AcDbEntity
  8
0
  6
Continuous
 62
     7
370
    30
100
AcDbLine
 10
104.4829192789
 20
268.4897927461
 30
0.0
 11
104.4829192789
 21
274.6897927461
 31
0.0
  0
LINE
  5
234
330
1F
100
AcDbEntity
  8
0
  6
Continuous
 62
     7
370
    30
100
AcDbLine
 10
106.4829194577
 20
239.589793521
 30
0.0
 11
106.4829194577
 21
275.5897919713
 31
0.0
  0
LINE
  5
235
330
1F
100
AcDbEntity
  8
0
  6
Continuous
 62
     7
370
    30
100
AcDbLine
 10
106.4829194577
 20
275.5897919713
 30
0.0
 11
123.482918519
 21
275.5897919713
 31
0.0
  0
LINE
  5
236
330
1F
100
AcDbEntity
  8
0
  6
Continuous
 62
     7
370
    30
100
AcDbLine
 10
123.482918519
 20
275.5897919713
 30
0.0
 11
123.482918519
 21
239.589793521
 31
0.0
  0
LINE
  5
237
330
1F
100
AcDbEntity
  8
0
  6
Continuous
 62
     7
370
    30
100
AcDbLine
 10
106.4829194577
 20
239.589793521
 30
0.0
 11
123.482918519
 21
239.589793521
 31
0.0
  0
ENDSEC
  0
SECTION
  2
OBJECTS
  0
DICTIONARY
  5
C
330
0
100
AcDbDictionary
281
     1
  3
ACAD_GROUP
350
D
  3
ACAD_LAYOUT
350
1A
  3
ACAD_MLINESTYLE
350
17
  3
ACAD_PLOTSETTINGS
350
19
  3
ACAD_PLOTSTYLENAME
350
E
  0
DICTIONARY
  5
D
102
{ACAD_REACTORS
330
C
102
}
330
C
100
AcDbDictionary
281
     1
  0
DICTIONARY
  5
1A
102
{ACAD_REACTORS
330
C
102
}
330
C
100
AcDbDictionary
281
     1
  3
Layout1
350
1E
  3
Layout2
350
26
  3
Model
350
22
  0
DICTIONARY
  5
17
102
{ACAD_REACTORS
330
C
102
}
330
C
100
AcDbDictionary
281
     1
  3
Standard
350
18
  0
DICTIONARY
  5
19
102
{ACAD_REACTORS
330
C
102
}
330
C
100
AcDbDictionary
281
     1
  0
ACDBDICTIONARYWDFLT
  5
E
102
{ACAD_REACTORS
330
C
102
}
330
C
100
AcDbDictionary
281
     1
  3
Normal
350
F
100
AcDbDictionaryWithDefault
340
F
  0
LAYOUT
  5
1E
102
{ACAD_REACTORS
330
1A
102
}
330
1A
100
AcDbPlotSettings
  1

  2

  4

  6

 40
0.0
 41
0.0
 42
0.0
 43
0.0
 44
0.0
 45
0.0
 46
0.0
 47
0.0
 48
0.0
 49
0.0
140
0.0
141
0.0
142
1.0
143
1.0
 70
   688
 72
     0
 73
     0
 74
     5
  7

 75
    16
147
1.0
148
0.0
149
0.0
100
AcDbLayout
  1
Layout1
 70
     1
 71
     1
 10
0.0
 20
0.0
 11
0.0
 21
0.0
 12
0.0
 22
0.0
 32
0.0
 14
0.0
 24
0.0
 34
0.0
 15
0.0
 25
0.0
 35
0.0
146
0.0
 13
0.0
 23
0.0
 33
0.0
 16
1.0
 26
0.0
 36
0.0
 17
0.0
 27
1.0
 37
0.0
 76
     0
330
1B
  0
LAYOUT
  5
26
102
{ACAD_REACTORS
330
1A
102
}
330
1A
100
AcDbPlotSettings
  1

  2

  4

  6

 40
0.0
 41
0.0
 42
0.0
 43
0.0
 44
0.0
 45
0.0
 46
0.0
 47
0.0
 48
0.0
 49
0.0
140
0.0
141
0.0
142
1.0
143
1.0
 70
   688
 72
     0
 73
     0
 74
     5
  7

 75
    16
147
1.0
148
0.0
149
0.0
100
AcDbLayout
  1
Layout2
 70
     1
 71
     2
 10
0.0
 20
0.0
 11
0.0
 21
0.0
 12
0.0
 22
0.0
 32
0.0
 14
0.0
 24
0.0
 34
0.0
 15
0.0
 25
0.0
 35
0.0
146
0.0
 13
0.0
 23
0.0
 33
0.0
 16
1.0
 26
0.0
 36
0.0
 17
0.0
 27
1.0
 37
0.0
 76
     0
330
23
  0
LAYOUT
  5
22
102
{ACAD_REACTORS
330
1A
102
}
330
1A
100
AcDbPlotSettings
  1

  2

  4

  6

 40
0.0
 41
0.0
 42
0.0
 43
0.0
 44
0.0
 45
0.0
 46
0.0
 47
0.0
 48
0.0
 49
0.0
140
0.0
141
0.0
142
1.0
143
1.0
 70
  1712
 72
     0
 73
     0
 74
     0
  7

 75
     0
147
1.0
148
0.0
149
0.0
100
AcDbLayout
  1
Model
 70
     1
 71
     0
 10
0.0
 20
0.0
 11
0.0
 21
0.0
 12
0.0
 22
0.0
 32
0.0
 14
0.0
 24
0.0
 34
0.0
 15
210.0
 25
297.0
 35
0.0
146
0.0
 13
0.0
 23
0.0
 33
0.0
 16
1.0
 26
0.0
 36
0.0
 17
0.0
 27
1.0
 37
0.0
 76
     0
330
1F
  0
MLINESTYLE
  5
18
102
{ACAD_REACTORS
330
17
102
}
330
17
100
AcDbMlineStyle
  2
Standard
 70
     0
  3

 62
   256
 51
90.0
 52
90.0
 71
     2
 49
0.5
 62
   256
  6
BYLAYER
 49
-0.5
 62
   256
  6
BYLAYER
  0
ACDBPLACEHOLDER
  5
F
102
{ACAD_REACTORS
330
E
102
}
330
E
  0
ENDSEC
  0
EOF
