  0
SECTION
  2
HEADER
  9
$ACADVER
  1
AC1015
  9
$ACADMAINTVER
 70
     6
  9
$DWGCODEPAGE
  3
DOS932
  9
$INSBASE
 10
0.0
 20
0.0
 30
0.0
  9
$EXTMIN
 10
0.0
 20
0.0
 30
0.0
  9
$EXTMAX
 10
210.0
 20
297.0
 30
0.0
  9
$LIMMIN
 10
0.0
 20
0.0
  9
$LIMMAX
 10
0.0
 20
0.0
  9
$ORTHOMODE
 70
     0
  9
$REGENMODE
 70
     1
  9
$FILLMODE
 70
     1
  9
$QTEXTMODE
 70
     0
  9
$MIRRTEXT
 70
     1
  9
$LTSCALE
 40
1.0
  9
$ATTMODE
 70
     1
  9
$TEXTSIZE
 40
3.5
  9
$TRACEWID
 40
1.0
  9
$TEXTSTYLE
  7
Standard
  9
$CLAYER
  8
0
  9
$CELTYPE
  6
ByLayer
  9
$CECOLOR
 62
   256
  9
$CELTSCALE
 40
1.0
  9
$DISPSILH
 70
     0
  9
$DIMSCALE
 40
1.0
  9
$DIMASZ
 40
3.0
  9
$DIMEXO
 40
1.0
  9
$DIMDLI
 40
3.75
  9
$DIMRND
 40
0.0
  9
$DIMDLE
 40
0.0
  9
$DIMEXE
 40
1.0
  9
$DIMTP
 40
0.0
  9
$DIMTM
 40
0.0
  9
$DIMTXT
 40
3.5
  9
$DIMCEN
 40
2.5
  9
$DIMTSZ
 40
0.0
  9
$DIMTOL
 70
     0
  9
$DIMLIM
 70
     0
  9
$DIMTIH
 70
     1
  9
$DIMTOH
 70
     1
  9
$DIMSE1
 70
     0
  9
$DIMSE2
 70
     0
  9
$DIMTAD
 70
     1
  9
$DIMZIN
 70
     1
  9
$DIMBLK
  1

  9
$DIMASO
 70
     1
  9
$DIMSHO
 70
     1
  9
$DIMPOST
  1

  9
$DIMAPOST
  1

  9
$DIMALT
 70
     0
  9
$DIMALTD
 70
     3
  9
$DIMALTF
 40
0.0393700787
  9
$DIMLFAC
 40
1.0
  9
$DIMTOFL
 70
     1
  9
$DIMTVP
 40
0.0
  9
$DIMTIX
 70
     0
  9
$DIMSOXD
 70
     0
  9
$DIMSAH
 70
     0
  9
$DIMBLK1
  1

  9
$DIMBLK2
  1

  9
$DIMSTYLE
  2
ISO-25
  9
$DIMCLRD
 70
     0
  9
$DIMCLRE
 70
     0
  9
$DIMCLRT
 70
     0
  9
$DIMTFAC
 40
1.0
  9
$DIMGAP
 40
1.524
  9
$DIMJUST
 70
     0
  9
$DIMSD1
 70
     0
  9
$DIMSD2
 70
     0
  9
$DIMTOLJ
 70
     0
  9
$DIMTZIN
 70
     1
  9
$DIMALTZ
 70
     0
  9
$DIMALTTZ
 70
     0
  9
$DIMUPT
 70
     0
  9
$DIMDEC
 70
     2
  9
$DIMTDEC
 70
     2
  9
$DIMALTU
 70
     2
  9
$DIMALTTD
 70
     3
  9
$DIMTXSTY
  7
Standard
  9
$DIMAUNIT
 70
     0
  9
$DIMADEC
 70
     0
  9
$DIMALTRND
 40
0.0
  9
$DIMAZIN
 70
     0
  9
$DIMDSEP
 70
    44
  9
$DIMATFIT
 70
     3
  9
$DIMFRAC
 70
     0
  9
$DIMLDRBLK
  1

  9
$DIMLUNIT
 70
     2
  9
$DIMLWD
 70
    -2
  9
$DIMLWE
 70
    -2
  9
$DIMTMOVE
 70
     0
  9
$LUNITS
 70
     2
  9
$LUPREC
 70
     1
  9
$SKETCHINC
 40
1.0
  9
$FILLETRAD
 40
10.0
  9
$AUNITS
 70
     0
  9
$AUPREC
 70
     0
  9
$MENU
  1
.
  9
$ELEVATION
 40
0.0
  9
$PELEVATION
 40
0.0
  9
$THICKNESS
 40
0.0
  9
$LIMCHECK
 70
     0
  9
$CHAMFERA
 40
10.0
  9
$CHAMFERB
 40
10.0
  9
$CHAMFERC
 40
20.0
  9
$CHAMFERD
 40
0.0
  9
$SKPOLY
 70
     0
  9
$TDCREATE
 40
2454420.657807245
  9
$TDUCREATE
 40
2454420.282807245
  9
$TDUPDATE
 40
2454420.657807257
  9
$TDUUPDATE
 40
2454420.282807257
  9
$TDINDWG
 40
0.0000000116
  9
$TDUSRTIMER
 40
0.0000000116
  9
$USRTIMER
 70
     1
  9
$ANGBASE
 50
0.0
  9
$ANGDIR
 70
     0
  9
$PDMODE
 70
     0
  9
$PDSIZE
 40
-1.0
  9
$PLINEWID
 40
0.0
  9
$SPLFRAME
 70
     0
  9
$SPLINETYPE
 70
     6
  9
$SPLINESEGS
 70
     8
  9
$HANDSEED
  5
1C6
  9
$SURFTAB1
 70
     6
  9
$SURFTAB2
 70
     6
  9
$SURFTYPE
 70
     6
  9
$SURFU
 70
     6
  9
$SURFV
 70
     6
  9
$UCSBASE
  2

  9
$UCSNAME
  2

  9
$UCSORG
 10
0.0
 20
0.0
 30
0.0
  9
$UCSXDIR
 10
1.0
 20
0.0
 30
0.0
  9
$UCSYDIR
 10
0.0
 20
1.0
 30
0.0
  9
$UCSORTHOREF
  2

  9
$UCSORTHOVIEW
 70
     0
  9
$UCSORGTOP
 10
0.0
 20
0.0
 30
0.0
  9
$UCSORGBOTTOM
 10
0.0
 20
0.0
 30
0.0
  9
$UCSORGLEFT
 10
0.0
 20
0.0
 30
0.0
  9
$UCSORGRIGHT
 10
0.0
 20
0.0
 30
0.0
  9
$UCSORGFRONT
 10
0.0
 20
0.0
 30
0.0
  9
$UCSORGBACK
 10
0.0
 20
0.0
 30
0.0
  9
$PUCSBASE
  2

  9
$PUCSNAME
  2

  9
$PUCSORG
 10
0.0
 20
0.0
 30
0.0
  9
$PUCSXDIR
 10
1.0
 20
0.0
 30
0.0
  9
$PUCSYDIR
 10
0.0
 20
1.0
 30
0.0
  9
$PUCSORTHOREF
  2

  9
$PUCSORTHOVIEW
 70
     0
  9
$PUCSORGTOP
 10
0.0
 20
0.0
 30
0.0
  9
$PUCSORGBOTTOM
 10
0.0
 20
0.0
 30
0.0
  9
$PUCSORGLEFT
 10
0.0
 20
0.0
 30
0.0
  9
$PUCSORGRIGHT
 10
0.0
 20
0.0
 30
0.0
  9
$PUCSORGFRONT
 10
0.0
 20
0.0
 30
0.0
  9
$PUCSORGBACK
 10
0.0
 20
0.0
 30
0.0
  9
$USERI1
 70
     0
  9
$USERI2
 70
     0
  9
$USERI3
 70
     0
  9
$USERI4
 70
     0
  9
$USERI5
 70
     0
  9
$USERR1
 40
0.0
  9
$USERR2
 40
0.0
  9
$USERR3
 40
0.0
  9
$USERR4
 40
0.0
  9
$USERR5
 40
0.0
  9
$WORLDVIEW
 70
     1
  9
$SHADEDGE
 70
     3
  9
$SHADEDIF
 70
    70
  9
$TILEMODE
 70
     1
  9
$MAXACTVP
 70
    64
  9
$PINSBASE
 10
0.0
 20
0.0
 30
0.0
  9
$PLIMCHECK
 70
     0
  9
$PEXTMIN
 10
1.0000000000E+20
 20
1.0000000000E+20
 30
1.0000000000E+20
  9
$PEXTMAX
 10
-1.0000000000E+20
 20
-1.0000000000E+20
 30
-1.0000000000E+20
  9
$PLIMMIN
 10
0.0
 20
0.0
  9
$PLIMMAX
 10
420.0
 20
297.0
  9
$UNITMODE
 70
     0
  9
$VISRETAIN
 70
     1
  9
$PLINEGEN
 70
     0
  9
$PSLTSCALE
 70
     1
  9
$TREEDEPTH
 70
  3020
  9
$CMLSTYLE
  2
Standard
  9
$CMLJUST
 70
     0
  9
$CMLSCALE
 40
20.0
  9
$PROXYGRAPHICS
 70
     1
  9
$MEASUREMENT
 70
     1
  9
$CELWEIGHT
370
    -1
  9
$ENDCAPS
280
     0
  9
$JOINSTYLE
280
     0
  9
$LWDISPLAY
290
     1
  9
$INSUNITS
 70
     4
  9
$HYPERLINKBASE
  1

  9
$STYLESHEET
  1

  9
$XEDIT
290
     1
  9
$CEPSNTYPE
380
     0
  9
$PSTYLEMODE
290
     1
  9
$FINGERPRINTGUID
  2
{7DF6F1B4-BBAC-48B4-9659-02356CCB4752}
  9
$VERSIONGUID
  2
{FAEB1C32-E019-11D5-929B-00C0DF256EC4}
  9
$EXTNAMES
290
     1
  9
$PSVPSCALE
 40
0.0
  9
$OLESTARTUP
290
     0
  0
ENDSEC
  0
SECTION
  2
CLASSES
  0
CLASS
  1
ACDBDICTIONARYWDFLT
  2
AcDbDictionaryWithDefault
  3
ObjectDBX Classes
 90
        0
280
     0
281
     0
  0
CLASS
  1
ACDBPLACEHOLDER
  2
AcDbPlaceHolder
  3
ObjectDBX Classes
 90
        0
280
     0
281
     0
  0
CLASS
  1
LAYOUT
  2
AcDbLayout
  3
ObjectDBX Classes
 90
        0
280
     0
281
     0
  0
ENDSEC
  0
SECTION
  2
TABLES
  0
TABLE
  2
VPORT
  5
8
330
0
100
AcDbSymbolTable
 70
     1
  0
VPORT
  5
29
330
8
100
AcDbSymbolTableRecord
100
AcDbViewportTableRecord
  2
*Active
 70
     0
 10
0.0
 20
0.0
 11
1.0
 21
1.0
 12
105.0
 22
148.5
 13
0.0
 23
0.0
 14
10.0
 24
10.0
 15
10.0
 25
10.0
 16
0.0
 26
0.0
 36
1.0
 17
0.0
 27
0.0
 37
0.0
 40
297.0
 41
1.9729729729
 42
50.0
 43
0.0
 44
0.0
 50
0.0
 51
0.0
 71
     0
 72
  2000
 73
     1
 74
     3
 75
     0
 76
     0
 77
     0
 78
     0
281
     0
 65
     1
110
0.0
120
0.0
130
0.0
111
1.0
121
0.0
131
0.0
112
0.0
122
1.0
132
0.0
 79
     0
146
0.0
  0
ENDTAB
  0
TABLE
  2
LTYPE
  5
5
330
0
100
AcDbSymbolTable
 70
     6
  0
LTYPE
  5
14
330
5
100
AcDbSymbolTableRecord
100
AcDbLinetypeTableRecord
  2
ByBlock
 70
     0
  3

 72
    65
 73
     0
 40
0.0
  0
LTYPE
  5
15
330
5
100
AcDbSymbolTableRecord
100
AcDbLinetypeTableRecord
  2
ByLayer
 70
     0
  3

 72
    65
 73
     0
 40
0.0
  0
LTYPE
  5
16
330
5
100
AcDbSymbolTableRecord
100
AcDbLinetypeTableRecord
  2
Continuous
 70
     0
  3
Solid line
 72
    65
 73
     0
 40
0.0
  0
LTYPE
  5
2A
330
5
100
AcDbSymbolTableRecord
100
AcDbLinetypeTableRecord
  2
HIDDEN
 70
     0
  3
Hidden __ __ __ __ __ __ __ __ __ __ __ __ __ __
 72
    65
 73
     2
 40
1.905
 49
1.27
 74
     0
 49
-0.635
 74
     0
  0
LTYPE
  5
2B
330
5
100
AcDbSymbolTableRecord
100
AcDbLinetypeTableRecord
  2
PHANTOM
 70
     0
  3
Phantom ______  __  __  ______  __  __  ______
 72
    65
 73
     6
 40
12.7
 49
6.35
 74
     0
 49
-1.27
 74
     0
 49
1.27
 74
     0
 49
-1.27
 74
     0
 49
1.27
 74
     0
 49
-1.27
 74
     0
  0
LTYPE
  5
2C
330
5
100
AcDbSymbolTableRecord
100
AcDbLinetypeTableRecord
  2
CENTER
 70
     0
  3
Center ____ _ ____ _ ____ _ ____ _ ____ _ ____
 72
    65
 73
     4
 40
10.16
 49
6.35
 74
     0
 49
-1.27
 74
     0
 49
1.27
 74
     0
 49
-1.27
 74
     0
  0
LTYPE
  5
2D
330
5
100
AcDbSymbolTableRecord
100
AcDbLinetypeTableRecord
  2
CENTERX2
 70
     0
  3
Center (2x) ________  __  ________  __  _____
 72
    65
 73
     4
 40
20.32
 49
12.7
 74
     0
 49
-2.54
 74
     0
 49
2.54
 74
     0
 49
-2.54
 74
     0
  0
LTYPE
  5
2E
330
5
100
AcDbSymbolTableRecord
100
AcDbLinetypeTableRecord
  2
DOT2
 70
     0
  3
Dot (.5x) ........................................
 72
    65
 73
     2
 40
0.635
 49
0.0
 74
     0
 49
-0.635
 74
     0
  0
ENDTAB
  0
TABLE
  2
LAYER
  5
2
330
0
100
AcDbSymbolTable
 70
     6
  0
LAYER
  5
10
330
2
100
AcDbSymbolTableRecord
100
AcDbLayerTableRecord
  2
0
 70
     0
 62
     7
  6
Continuous
370
    -3
390
F
  0
LAYER
  5
2F
330
2
100
AcDbSymbolTableRecord
100
AcDbLayerTableRecord
  2
SLD-0_0
 70
     0
 62
     7
  6
Continuous
370
     0
390
F
  0
LAYER
  5
30
330
2
100
AcDbSymbolTableRecord
100
AcDbLayerTableRecord
  2
SLD-0
 70
     0
 62
     7
  6
Continuous
370
     0
390
F
  0
LAYER
  5
31
330
2
100
AcDbSymbolTableRecord
100
AcDbLayerTableRecord
  2
SLD-DEFPOINTS
 70
     0
 62
     7
  6
Continuous
370
     0
390
F
  0
LAYER
  5
32
330
2
100
AcDbSymbolTableRecord
100
AcDbLayerTableRecord
  2
SLD-DEFPOINTS_0
 70
     0
 62
     7
  6
Continuous
370
     0
390
F
  0
LAYER
  5
B4
330
2
100
AcDbSymbolTableRecord
100
AcDbLayerTableRecord
  2
Defpoints
 70
     0
 62
     7
  6
Continuous
290
     0
370
    -3
390
F
  0
ENDTAB
  0
TABLE
  2
STYLE
  5
3
330
0
100
AcDbSymbolTable
 70
     4
  0
STYLE
  5
11
330
3
100
AcDbSymbolTableRecord
100
AcDbTextStyleTableRecord
  2
Standard
 70
     0
 40
0.0
 41
1.0
 50
0.0
 71
     0
 42
2.5
  3
txt
  4
bigfont
  0
STYLE
  5
36
330
3
100
AcDbSymbolTableRecord
100
AcDbTextStyleTableRecord
  2
SLDTEXTSTYLE0
 70
     0
 40
0.0
 41
0.7
 50
0.0
 71
     0
 42
0.2
  3
TXT
  4
bigfont
  0
STYLE
  5
CE
330
3
100
AcDbSymbolTableRecord
100
AcDbTextStyleTableRecord
  2
SLDTEXTSTYLE1
 70
     0
 40
0.0
 41
0.96
 50
0.0
 71
     0
 42
0.2
  3
TXT
  4
bigfont
  0
STYLE
  5
1BD
330
3
100
AcDbSymbolTableRecord
100
AcDbTextStyleTableRecord
  2
SLDTEXTSTYLE2
 70
     0
 40
0.0
 41
0.3802387136
 50
0.0
 71
     0
 42
0.2
  3
TXT
  4
bigfont
  0
ENDTAB
  0
TABLE
  2
VIEW
  5
6
330
0
100
AcDbSymbolTable
 70
     0
  0
ENDTAB
  0
TABLE
  2
UCS
  5
7
330
0
100
AcDbSymbolTable
 70
     0
  0
ENDTAB
  0
TABLE
  2
APPID
  5
9
330
0
100
AcDbSymbolTable
 70
     1
  0
APPID
  5
12
330
9
100
AcDbSymbolTableRecord
100
AcDbRegAppTableRecord
  2
ACAD
 70
     0
  0
ENDTAB
  0
TABLE
  2
DIMSTYLE
  5
A
330
0
100
AcDbSymbolTable
 70
     4
100
AcDbDimStyleTable
  0
DIMSTYLE
105
27
330
A
100
AcDbSymbolTableRecord
100
AcDbDimStyleTableRecord
  2
ISO-25
 70
     0
 41
2.5
 42
0.625
 43
3.75
 44
1.25
 73
     0
 74
     0
 77
     1
 78
     8
140
2.5
141
2.5
143
0.0393700787
147
0.625
171
     3
172
     1
271
     2
272
     2
274
     3
278
    44
283
     0
284
     8
340
11
  0
DIMSTYLE
105
C1
102
{ACAD_REACTORS
330
B3
330
D0
330
EA
330
102
330
142
330
15A
330
171
330
18D
330
1A5
102
}
330
A
100
AcDbSymbolTableRecord
100
AcDbDimStyleTableRecord
  2
SLDDIMSTYLE0
 70
     0
 41
3.0
 44
0.0
 73
     0
 74
     0
 77
     3
 78
    12
140
3.5
147
0.875
173
     1
271
     0
272
     2
284
    12
340
36
341
C2
343
C2
344
C2
  0
DIMSTYLE
105
124
102
{ACAD_REACTORS
330
11A
102
}
330
A
100
AcDbSymbolTableRecord
100
AcDbDimStyleTableRecord
  2
SLDDIMSTYLE1
 70
     0
 41
3.0
 44
0.0
 78
    12
140
3.5
147
0.875
172
     1
173
     1
271
     0
272
     2
284
    12
340
36
341
C2
343
C2
344
C2
  0
DIMSTYLE
105
139
102
{ACAD_REACTORS
330
12F
102
}
330
A
100
AcDbSymbolTableRecord
100
AcDbDimStyleTableRecord
  2
SLDDIMSTYLE2
 70
     0
 41
3.0
 44
0.0
 78
    12
140
3.5
147
0.875
172
     1
173
     1
271
     0
272
     3
284
    12
340
36
341
C2
343
C2
344
C2
  0
ENDTAB
  0
TABLE
  2
BLOCK_RECORD
  5
1
330
0
100
AcDbSymbolTable
 70
    19
  0
BLOCK_RECORD
  5
1F
330
1
100
AcDbSymbolTableRecord
100
AcDbBlockTableRecord
  2
*Model_Space
340
22
  0
BLOCK_RECORD
  5
1B
330
1
100
AcDbSymbolTableRecord
100
AcDbBlockTableRecord
  2
*Paper_Space
340
1E
  0
BLOCK_RECORD
  5
23
330
1
100
AcDbSymbolTableRecord
100
AcDbBlockTableRecord
  2
*Paper_Space0
340
26
  0
BLOCK_RECORD
  5
33
330
1
100
AcDbSymbolTableRecord
100
AcDbBlockTableRecord
  2
注記
340
0
  0
BLOCK_RECORD
  5
39
330
1
100
AcDbSymbolTableRecord
100
AcDbBlockTableRecord
  2
SW_CENTERMARKSYMBOL_0
340
0
102
{BLKREFS
331
1C1
102
}
  0
BLOCK_RECORD
  5
44
330
1
100
AcDbSymbolTableRecord
100
AcDbBlockTableRecord
  2
SW_CENTERMARKSYMBOL_1
340
0
102
{BLKREFS
331
1C2
102
}
  0
BLOCK_RECORD
  5
4F
330
1
100
AcDbSymbolTableRecord
100
AcDbBlockTableRecord
  2
SW_CHAMFER_DIMENSION_0_0
340
0
102
{BLKREFS
331
1C3
102
}
  0
BLOCK_RECORD
  5
5A
330
1
100
AcDbSymbolTableRecord
100
AcDbBlockTableRecord
  2
SW_CHAMFER_DIMENSION_1_1
340
0
102
{BLKREFS
331
1C4
102
}
  0
BLOCK_RECORD
  5
65
330
1
100
AcDbSymbolTableRecord
100
AcDbBlockTableRecord
  2
SW_CENTERMARKSYMBOL_2
340
0
102
{BLKREFS
331
1C5
102
}
  0
BLOCK_RECORD
  5
B5
330
1
100
AcDbSymbolTableRecord
100
AcDbBlockTableRecord
  2
*D7
340
0
  0
BLOCK_RECORD
  5
C2
330
1
100
AcDbSymbolTableRecord
100
AcDbBlockTableRecord
  2
_None
340
0
102
{BLKREFS
331
BA
331
B9
331
D6
331
D5
331
F0
331
EF
331
108
331
107
331
11F
331
134
331
148
331
147
331
160
331
15F
331
178
331
177
331
193
331
192
331
1AB
331
1AA
102
}
  0
BLOCK_RECORD
  5
D1
330
1
100
AcDbSymbolTableRecord
100
AcDbBlockTableRecord
  2
*D9
340
0
  0
BLOCK_RECORD
  5
EB
330
1
100
AcDbSymbolTableRecord
100
AcDbBlockTableRecord
  2
*D10
340
0
  0
BLOCK_RECORD
  5
103
330
1
100
AcDbSymbolTableRecord
100
AcDbBlockTableRecord
  2
*D11
340
0
  0
BLOCK_RECORD
  5
11B
330
1
100
AcDbSymbolTableRecord
100
AcDbBlockTableRecord
  2
*D12
340
0
  0
BLOCK_RECORD
  5
130
330
1
100
AcDbSymbolTableRecord
100
AcDbBlockTableRecord
  2
*D13
340
0
  0
BLOCK_RECORD
  5
143
330
1
100
AcDbSymbolTableRecord
100
AcDbBlockTableRecord
  2
*D14
340
0
  0
BLOCK_RECORD
  5
15B
330
1
100
AcDbSymbolTableRecord
100
AcDbBlockTableRecord
  2
*D15
340
0
  0
BLOCK_RECORD
  5
172
330
1
100
AcDbSymbolTableRecord
100
AcDbBlockTableRecord
  2
*D16
340
0
  0
BLOCK_RECORD
  5
18E
330
1
100
AcDbSymbolTableRecord
100
AcDbBlockTableRecord
  2
*D17
340
0
  0
BLOCK_RECORD
  5
1A6
330
1
100
AcDbSymbolTableRecord
100
AcDbBlockTableRecord
  2
*D18
340
0
  0
ENDTAB
  0
ENDSEC
  0
SECTION
  2
BLOCKS
  0
BLOCK
  5
20
330
1F
100
AcDbEntity
  8
0
100
AcDbBlockBegin
  2
*Model_Space
 70
     0
 71
     0
 10
0.0
 20
0.0
 30
0.0
  3
*Model_Space
  1

  0
ENDBLK
  5
21
330
1F
100
AcDbEntity
  8
0
100
AcDbBlockEnd
  0
BLOCK
  5
1C
330
1B
100
AcDbEntity
 67
     1
  8
0
100
AcDbBlockBegin
  2
*Paper_Space
 70
     0
 71
     0
 10
0.0
 20
0.0
 30
0.0
  3
*Paper_Space
  1

  0
ENDBLK
  5
1D
330
1B
100
AcDbEntity
 67
     1
  8
0
100
AcDbBlockEnd
  0
BLOCK
  5
24
330
23
100
AcDbEntity
  8
0
100
AcDbBlockBegin
  2
*Paper_Space0
 70
     0
 71
     0
 10
0.0
 20
0.0
 30
0.0
  3
*Paper_Space0
  1

  0
ENDBLK
  5
25
330
23
100
AcDbEntity
  8
0
100
AcDbBlockEnd
  0
BLOCK
  5
34
330
33
100
AcDbEntity
  8
0
100
AcDbBlockBegin
  2
注記
 70
     0
 71
     0
 10
0.0
 20
0.0
 30
0.0
  3
注記
  1

  0
MTEXT
  5
37
330
33
100
AcDbEntity
  8
0
  6
Continuous
 62
     7
370
     0
100
AcDbMText
 10
0.2636785918
 20
9.0739778448
 30
0.0
 40
3.5
 41
0.0
 71
     1
 72
     1
  1
１．特記ナキ角部ハ、バリ　カエリノ無キコト。
  7
SLDTEXTSTYLE0
 73
     1
 44
1.0
  0
MTEXT
  5
38
330
33
100
AcDbEntity
  8
0
  6
Continuous
 62
     7
370
     0
100
AcDbMText
 10
0.2636785918
 20
3.5759549983
 30
0.0
 40
3.5
 41
0.0
 71
     1
 72
     1
  1
２．特記ナキ隅部ハ、Ｒ０．４ＭＡＸトスル。
  7
SLDTEXTSTYLE0
 73
     1
 44
1.0
  0
ENDBLK
  5
35
330
33
100
AcDbEntity
  8
0
100
AcDbBlockEnd
  0
BLOCK
  5
3A
330
39
100
AcDbEntity
  8
0
100
AcDbBlockBegin
  2
SW_CENTERMARKSYMBOL_0
 70
     0
 71
     0
 10
0.0
 20
0.0
 30
0.0
  3
SW_CENTERMARKSYMBOL_0
  1

  0
LINE
  5
3C
330
39
100
AcDbEntity
  8
SLD-0
  6
Continuous
 62
     7
370
     0
100
AcDbLine
 10
0.0
 20
0.0
 30
0.0
 11
0.0
 21
2.5
 31
0.0
  0
LINE
  5
3D
330
39
100
AcDbEntity
  8
SLD-0
  6
Continuous
 62
     7
370
     0
100
AcDbLine
 10
0.0
 20
0.0
 30
0.0
 11
-2.5
 21
0.0
 31
0.0
  0
LINE
  5
3E
330
39
100
AcDbEntity
  8
SLD-0
  6
Continuous
 62
     7
370
     0
100
AcDbLine
 10
0.0
 20
0.0
 30
0.0
 11
0.0
 21
-2.5
 31
0.0
  0
LINE
  5
3F
330
39
100
AcDbEntity
  8
SLD-0
  6
Continuous
 62
     7
370
     0
100
AcDbLine
 10
0.0
 20
0.0
 30
0.0
 11
2.5
 21
0.0
 31
0.0
  0
LINE
  5
40
330
39
100
AcDbEntity
  8
SLD-0
  6
Continuous
 62
     7
370
     0
100
AcDbLine
 10
0.0
 20
5.0
 30
0.0
 11
0.0
 21
9.5
 31
0.0
  0
LINE
  5
41
330
39
100
AcDbEntity
  8
SLD-0
  6
Continuous
 62
     7
370
     0
100
AcDbLine
 10
-5.0
 20
0.0
 30
0.0
 11
-9.5
 21
0.0
 31
0.0
  0
LINE
  5
42
330
39
100
AcDbEntity
  8
SLD-0
  6
Continuous
 62
     7
370
     0
100
AcDbLine
 10
0.0
 20
-5.0
 30
0.0
 11
0.0
 21
-9.5
 31
0.0
  0
LINE
  5
43
330
39
100
AcDbEntity
  8
SLD-0
  6
Continuous
 62
     7
370
     0
100
AcDbLine
 10
5.0
 20
0.0
 30
0.0
 11
9.5
 21
0.0
 31
0.0
  0
ENDBLK
  5
3B
330
39
100
AcDbEntity
  8
0
100
AcDbBlockEnd
  0
BLOCK
  5
45
330
44
100
AcDbEntity
  8
0
100
AcDbBlockBegin
  2
SW_CENTERMARKSYMBOL_1
 70
     0
 71
     0
 10
0.0
 20
0.0
 30
0.0
  3
SW_CENTERMARKSYMBOL_1
  1

  0
LINE
  5
47
330
44
100
AcDbEntity
  8
SLD-0
  6
Continuous
 62
     7
370
     0
100
AcDbLine
 10
0.0
 20
0.0
 30
0.0
 11
0.0
 21
2.5
 31
0.0
  0
LINE
  5
48
330
44
100
AcDbEntity
  8
SLD-0
  6
Continuous
 62
     7
370
     0
100
AcDbLine
 10
0.0
 20
0.0
 30
0.0
 11
-2.5
 21
0.0
 31
0.0
  0
LINE
  5
49
330
44
100
AcDbEntity
  8
SLD-0
  6
Continuous
 62
     7
370
     0
100
AcDbLine
 10
0.0
 20
0.0
 30
0.0
 11
0.0
 21
-2.5
 31
0.0
  0
LINE
  5
4A
330
44
100
AcDbEntity
  8
SLD-0
  6
Continuous
 62
     7
370
     0
100
AcDbLine
 10
0.0
 20
0.0
 30
0.0
 11
2.5
 21
0.0
 31
0.0
  0
LINE
  5
4B
330
44
100
AcDbEntity
  8
SLD-0
  6
Continuous
 62
     7
370
     0
100
AcDbLine
 10
0.0
 20
5.0
 30
0.0
 11
0.0
 21
8.0
 31
0.0
  0
LINE
  5
4C
330
44
100
AcDbEntity
  8
SLD-0
  6
Continuous
 62
     7
370
     0
100
AcDbLine
 10
-5.0
 20
0.0
 30
0.0
 11
-8.0
 21
0.0
 31
0.0
  0
LINE
  5
4D
330
44
100
AcDbEntity
  8
SLD-0
  6
Continuous
 62
     7
370
     0
100
AcDbLine
 10
0.0
 20
-5.0
 30
0.0
 11
0.0
 21
-8.0
 31
0.0
  0
LINE
  5
4E
330
44
100
AcDbEntity
  8
SLD-0
  6
Continuous
 62
     7
370
     0
100
AcDbLine
 10
5.0
 20
0.0
 30
0.0
 11
8.0
 21
0.0
 31
0.0
  0
ENDBLK
  5
46
330
44
100
AcDbEntity
  8
0
100
AcDbBlockEnd
  0
BLOCK
  5
50
330
4F
100
AcDbEntity
  8
0
100
AcDbBlockBegin
  2
SW_CHAMFER_DIMENSION_0_0
 70
     0
 71
     0
 10
0.0
 20
0.0
 30
0.0
  3
SW_CHAMFER_DIMENSION_0_0
  1

  0
LINE
  5
52
330
4F
100
AcDbEntity
  8
SLD-0
  6
Continuous
 62
     7
370
     0
100
AcDbLine
 10
167.1510519479
 20
142.617702792
 30
0.0
 11
166.3569658251
 21
145.6203012049
 31
0.0
  0
LINE
  5
53
330
4F
100
AcDbEntity
  8
SLD-0
  6
Continuous
 62
     7
370
     0
100
AcDbLine
 10
166.3569658251
 20
145.6203012049
 30
0.0
 11
168.5459629956
 21
143.4170169774
 31
0.0
  0
LINE
  5
54
330
4F
100
AcDbEntity
  8
SLD-0
  6
Continuous
 62
     7
370
     0
100
AcDbLine
 10
166.3569658251
 20
145.6203012049
 30
0.0
 11
167.8485074717
 21
143.0173598847
 31
0.0
  0
LINE
  5
55
330
4F
100
AcDbEntity
  8
SLD-0
  6
Continuous
 62
     7
370
     0
100
AcDbLine
 10
166.3569658251
 20
145.6203012049
 30
0.0
 11
171.2654033839
 21
137.0544157212
 31
0.0
  0
LINE
  5
56
330
4F
100
AcDbEntity
  8
SLD-0
  6
Continuous
 62
     7
370
     0
100
AcDbLine
 10
171.2654033839
 20
137.0544157212
 30
0.0
 11
182.5805424513
 21
137.0544157212
 31
0.0
  0
MTEXT
  5
57
330
4F
100
AcDbEntity
  8
SLD-0
100
AcDbMText
 10
172.8529033839
 20
141.1281217943
 30
0.0
 40
3.5
 41
0.0
 71
     1
 72
     1
  1
2-
  7
SLDTEXTSTYLE0
 73
     1
 44
1.0
  0
MTEXT
  5
58
330
4F
100
AcDbEntity
  8
SLD-0
100
AcDbMText
 10
176.9245425549
 20
141.1281217943
 30
0.0
 40
3.5
 41
0.0
 71
     1
 72
     1
  1
C
  7
SLDTEXTSTYLE0
 73
     1
 44
1.0
  0
MTEXT
  5
59
330
4F
100
AcDbEntity
  8
SLD-0
100
AcDbMText
 10
178.9587925031
 20
141.1281217943
 30
0.0
 40
3.5
 41
0.0
 71
     1
 72
     1
  1
1
  7
SLDTEXTSTYLE0
 73
     1
 44
1.0
  0
ENDBLK
  5
51
330
4F
100
AcDbEntity
  8
0
100
AcDbBlockEnd
  0
BLOCK
  5
5B
330
5A
100
AcDbEntity
  8
0
100
AcDbBlockBegin
  2
SW_CHAMFER_DIMENSION_1_1
 70
     0
 71
     0
 10
0.0
 20
0.0
 30
0.0
  3
SW_CHAMFER_DIMENSION_1_1
  1

  0
LINE
  5
5D
330
5A
100
AcDbEntity
  8
SLD-0
  6
Continuous
 62
     7
370
     0
100
AcDbLine
 10
168.0847878883
 20
191.2843203485
 30
0.0
 11
165.8569658251
 21
189.1203012048
 31
0.0
  0
LINE
  5
5E
330
5A
100
AcDbEntity
  8
SLD-0
  6
Continuous
 62
     7
370
     0
100
AcDbLine
 10
165.8569658251
 20
189.1203012048
 30
0.0
 11
166.704307828
 21
192.1083074848
 31
0.0
  0
LINE
  5
5F
330
5A
100
AcDbEntity
  8
SLD-0
  6
Continuous
 62
     7
370
     0
100
AcDbLine
 10
165.8569658251
 20
189.1203012048
 30
0.0
 11
167.3945478581
 21
191.6963139167
 31
0.0
  0
LINE
  5
60
330
5A
100
AcDbEntity
  8
SLD-0
  6
Continuous
 62
     7
370
     0
100
AcDbLine
 10
165.8569658251
 20
189.1203012048
 30
0.0
 11
174.5392259684
 21
203.6662649429
 31
0.0
  0
LINE
  5
61
330
5A
100
AcDbEntity
  8
SLD-0
  6
Continuous
 62
     7
370
     0
100
AcDbLine
 10
174.5392259684
 20
203.6662649429
 30
0.0
 11
185.8543650358
 21
203.6662649429
 31
0.0
  0
MTEXT
  5
62
330
5A
100
AcDbEntity
  8
SLD-0
100
AcDbMText
 10
176.1267259684
 20
207.739971016
 30
0.0
 40
3.5
 41
0.0
 71
     1
 72
     1
  1
2-
  7
SLDTEXTSTYLE0
 73
     1
 44
1.0
  0
MTEXT
  5
63
330
5A
100
AcDbEntity
  8
SLD-0
100
AcDbMText
 10
180.1983651394
 20
207.739971016
 30
0.0
 40
3.5
 41
0.0
 71
     1
 72
     1
  1
C
  7
SLDTEXTSTYLE0
 73
     1
 44
1.0
  0
MTEXT
  5
64
330
5A
100
AcDbEntity
  8
SLD-0
100
AcDbMText
 10
182.2326150876
 20
207.739971016
 30
0.0
 40
3.5
 41
0.0
 71
     1
 72
     1
  1
2
  7
SLDTEXTSTYLE0
 73
     1
 44
1.0
  0
ENDBLK
  5
5C
330
5A
100
AcDbEntity
  8
0
100
AcDbBlockEnd
  0
BLOCK
  5
66
330
65
100
AcDbEntity
  8
0
100
AcDbBlockBegin
  2
SW_CENTERMARKSYMBOL_2
 70
     0
 71
     0
 10
0.0
 20
0.0
 30
0.0
  3
SW_CENTERMARKSYMBOL_2
  1

  0
LINE
  5
68
330
65
100
AcDbEntity
  8
SLD-0
  6
Continuous
 62
     7
370
     0
100
AcDbLine
 10
0.0
 20
0.0
 30
0.0
 11
0.0
 21
2.5
 31
0.0
  0
LINE
  5
69
330
65
100
AcDbEntity
  8
SLD-0
  6
Continuous
 62
     7
370
     0
100
AcDbLine
 10
0.0
 20
0.0
 30
0.0
 11
-2.5
 21
0.0
 31
0.0
  0
LINE
  5
6A
330
65
100
AcDbEntity
  8
SLD-0
  6
Continuous
 62
     7
370
     0
100
AcDbLine
 10
0.0
 20
0.0
 30
0.0
 11
0.0
 21
-2.5
 31
0.0
  0
LINE
  5
6B
330
65
100
AcDbEntity
  8
SLD-0
  6
Continuous
 62
     7
370
     0
100
AcDbLine
 10
0.0
 20
0.0
 30
0.0
 11
2.5
 21
0.0
 31
0.0
  0
LINE
  5
6C
330
65
100
AcDbEntity
  8
SLD-0
  6
Continuous
 62
     7
370
     0
100
AcDbLine
 10
0.0
 20
5.0
 30
0.0
 11
0.0
 21
8.5
 31
0.0
  0
LINE
  5
6D
330
65
100
AcDbEntity
  8
SLD-0
  6
Continuous
 62
     7
370
     0
100
AcDbLine
 10
-5.0
 20
0.0
 30
0.0
 11
-8.5
 21
0.0
 31
0.0
  0
LINE
  5
6E
330
65
100
AcDbEntity
  8
SLD-0
  6
Continuous
 62
     7
370
     0
100
AcDbLine
 10
0.0
 20
-5.0
 30
0.0
 11
0.0
 21
-8.5
 31
0.0
  0
LINE
  5
6F
330
65
100
AcDbEntity
  8
SLD-0
  6
Continuous
 62
     7
370
     0
100
AcDbLine
 10
5.0
 20
0.0
 30
0.0
 11
8.5
 21
0.0
 31
0.0
  0
ENDBLK
  5
67
330
65
100
AcDbEntity
  8
0
100
AcDbBlockEnd
  0
BLOCK
  5
BF
330
B5
100
AcDbEntity
  8
0
100
AcDbBlockBegin
  2
*D7
 70
     1
 71
     0
 10
0.0
 20
0.0
 30
0.0
  3
*D7
  1

  0
LINE
  5
C5
330
B5
100
AcDbEntity
  8
SLD-0
 62
     7
100
AcDbLine
 10
79.4464457831
 20
129.2039011186
 30
0.0
 11
76.4464457831
 21
130.0077481186
 31
0.0
  0
LINE
  5
C6
330
B5
100
AcDbEntity
  8
SLD-0
 62
     7
100
AcDbLine
 10
76.4464457831
 20
130.0077481186
 30
0.0
 11
79.4464457831
 21
130.8115951186
 31
0.0
  0
LINE
  5
C7
330
B5
100
AcDbEntity
  8
SLD-0
 62
     7
100
AcDbLine
 10
76.4464457831
 20
130.0077481186
 30
0.0
 11
79.4464457831
 21
130.0077481186
 31
0.0
  0
LINE
  5
C8
330
B5
100
AcDbEntity
  8
SLD-0
 62
     7
100
AcDbLine
 10
93.4464457831
 20
130.8115951186
 30
0.0
 11
96.4464457831
 21
130.0077481186
 31
0.0
  0
LINE
  5
C9
330
B5
100
AcDbEntity
  8
SLD-0
 62
     7
100
AcDbLine
 10
96.4464457831
 20
130.0077481186
 30
0.0
 11
93.4464457831
 21
129.2039011186
 31
0.0
  0
LINE
  5
CA
330
B5
100
AcDbEntity
  8
SLD-0
 62
     7
100
AcDbLine
 10
96.4464457831
 20
130.0077481186
 30
0.0
 11
93.4464457831
 21
130.0077481186
 31
0.0
  0
LINE
  5
CB
330
B5
100
AcDbEntity
  8
SLD-0
 62
     7
100
AcDbLine
 10
76.4464457831
 20
144.1203012048
 30
0.0
 11
76.4464457831
 21
129.0077481186
 31
0.0
  0
LINE
  5
CC
330
B5
100
AcDbEntity
  8
SLD-0
 62
     7
100
AcDbLine
 10
96.4464457831
 20
144.1203012048
 30
0.0
 11
96.4464457831
 21
129.0077481186
 31
0.0
  0
LINE
  5
CD
330
B5
100
AcDbEntity
  8
SLD-0
 62
     7
100
AcDbLine
 10
76.4464457831
 20
130.0077481186
 30
0.0
 11
96.4464457831
 21
130.0077481186
 31
0.0
  0
MTEXT
  5
CF
330
B5
100
AcDbEntity
  8
SLD-0
 62
     7
100
AcDbMText
 10
84.4106261976
 20
134.0804751585
 30
0.2
 40
3.5
 41
0.0
 71
     1
 72
     1
  1
20
  7
SLDTEXTSTYLE1
 73
     1
 44
1.0
  0
ENDBLK
  5
C0
330
B5
100
AcDbEntity
  8
0
100
AcDbBlockEnd
  0
BLOCK
  5
C3
330
C2
100
AcDbEntity
  8
0
100
AcDbBlockBegin
  2
_None
 70
     0
 71
     0
 10
0.0
 20
0.0
 30
0.0
  3
_None
  1

  0
ENDBLK
  5
C4
330
C2
100
AcDbEntity
  8
0
100
AcDbBlockEnd
  0
BLOCK
  5
DC
330
D1
100
AcDbEntity
  8
0
100
AcDbBlockBegin
  2
*D9
 70
     1
 71
     0
 10
0.0
 20
0.0
 30
0.0
  3
*D9
  1

  0
LINE
  5
DE
330
D1
100
AcDbEntity
  8
SLD-0
 62
     7
100
AcDbLine
 10
106.6500820298
 20
157.1203012048
 30
0.0
 11
105.8462350298
 21
154.1203012048
 31
0.0
  0
LINE
  5
DF
330
D1
100
AcDbEntity
  8
SLD-0
 62
     7
100
AcDbLine
 10
105.8462350298
 20
154.1203012048
 30
0.0
 11
105.0423880298
 21
157.1203012048
 31
0.0
  0
LINE
  5
E0
330
D1
100
AcDbEntity
  8
SLD-0
 62
     7
100
AcDbLine
 10
105.8462350298
 20
154.1203012048
 30
0.0
 11
105.8462350298
 21
157.1203012048
 31
0.0
  0
LINE
  5
E1
330
D1
100
AcDbEntity
  8
SLD-0
 62
     7
100
AcDbLine
 10
105.0423880298
 20
142.1203012048
 30
0.0
 11
105.8462350298
 21
145.1203012048
 31
0.0
  0
LINE
  5
E2
330
D1
100
AcDbEntity
  8
SLD-0
 62
     7
100
AcDbLine
 10
105.8462350298
 20
145.1203012048
 30
0.0
 11
106.6500820298
 21
142.1203012048
 31
0.0
  0
LINE
  5
E3
330
D1
100
AcDbEntity
  8
SLD-0
 62
     7
100
AcDbLine
 10
105.8462350298
 20
145.1203012048
 30
0.0
 11
105.8462350298
 21
142.1203012048
 31
0.0
  0
LINE
  5
E4
330
D1
100
AcDbEntity
  8
SLD-0
 62
     7
100
AcDbLine
 10
95.4464457831
 20
154.1203012048
 30
0.0
 11
106.8462350298
 21
154.1203012048
 31
0.0
  0
LINE
  5
E5
330
D1
100
AcDbEntity
  8
SLD-0
 62
     7
100
AcDbLine
 10
97.4464457831
 20
145.1203012048
 30
0.0
 11
106.8462350298
 21
145.1203012048
 31
0.0
  0
LINE
  5
E6
330
D1
100
AcDbEntity
  8
SLD-0
 62
     7
100
AcDbLine
 10
105.8462350298
 20
154.1203012048
 30
0.0
 11
105.8462350298
 21
159.1203012048
 31
0.0
  0
LINE
  5
E7
330
D1
100
AcDbEntity
  8
SLD-0
 62
     7
100
AcDbLine
 10
105.8462350298
 20
154.1203012048
 30
0.0
 11
105.8462350298
 21
145.1203012048
 31
0.0
  0
LINE
  5
E8
330
D1
100
AcDbEntity
  8
SLD-0
 62
     7
100
AcDbLine
 10
105.8462350298
 20
145.1203012048
 30
0.0
 11
105.8462350298
 21
140.1203012048
 31
0.0
  0
MTEXT
  5
E9
330
D1
100
AcDbEntity
  8
SLD-0
 62
     7
100
AcDbMText
 10
101.7735079899
 20
148.6031762307
 30
0.2
 40
3.5
 41
0.0
 71
     1
 72
     1
  1
9
  7
SLDTEXTSTYLE1
 11
-7.044197039909883E-15
 21
1.0
 31
0.0
 73
     1
 44
1.0
  0
ENDBLK
  5
DD
330
D1
100
AcDbEntity
  8
0
100
AcDbBlockEnd
  0
BLOCK
  5
F6
330
EB
100
AcDbEntity
  8
0
100
AcDbBlockBegin
  2
*D10
 70
     1
 71
     0
 10
0.0
 20
0.0
 30
0.0
  3
*D10
  1

  0
LINE
  5
F8
330
EB
100
AcDbEntity
  8
SLD-0
 62
     7
100
AcDbLine
 10
64.2490486001
 20
148.1203012048
 30
0.0
 11
63.4452016001
 21
145.1203012048
 31
0.0
  0
LINE
  5
F9
330
EB
100
AcDbEntity
  8
SLD-0
 62
     7
100
AcDbLine
 10
63.4452016001
 20
145.1203012048
 30
0.0
 11
62.6413546001
 21
148.1203012048
 31
0.0
  0
LINE
  5
FA
330
EB
100
AcDbEntity
  8
SLD-0
 62
     7
100
AcDbLine
 10
63.4452016001
 20
145.1203012048
 30
0.0
 11
63.4452016001
 21
148.1203012048
 31
0.0
  0
LINE
  5
FB
330
EB
100
AcDbEntity
  8
SLD-0
 62
     7
100
AcDbLine
 10
62.6413546001
 20
187.1203012048
 30
0.0
 11
63.4452016001
 21
190.1203012048
 31
0.0
  0
LINE
  5
FC
330
EB
100
AcDbEntity
  8
SLD-0
 62
     7
100
AcDbLine
 10
63.4452016001
 20
190.1203012048
 30
0.0
 11
64.2490486001
 21
187.1203012048
 31
0.0
  0
LINE
  5
FD
330
EB
100
AcDbEntity
  8
SLD-0
 62
     7
100
AcDbLine
 10
63.4452016001
 20
190.1203012048
 30
0.0
 11
63.4452016001
 21
187.1203012048
 31
0.0
  0
LINE
  5
FE
330
EB
100
AcDbEntity
  8
SLD-0
 62
     7
100
AcDbLine
 10
85.4464457831
 20
145.1203012048
 30
0.0
 11
62.4452016001
 21
145.1203012048
 31
0.0
  0
LINE
  5
FF
330
EB
100
AcDbEntity
  8
SLD-0
 62
     7
100
AcDbLine
 10
85.4464457831
 20
190.1203012048
 30
0.0
 11
62.4452016001
 21
190.1203012048
 31
0.0
  0
LINE
  5
100
330
EB
100
AcDbEntity
  8
SLD-0
 62
     7
100
AcDbLine
 10
63.4452016001
 20
145.1203012048
 30
0.0
 11
63.4452016001
 21
190.1203012048
 31
0.0
  0
MTEXT
  5
101
330
EB
100
AcDbEntity
  8
SLD-0
 62
     7
100
AcDbMText
 10
59.3724745602
 20
165.5844816193
 30
0.2
 40
3.5
 41
0.0
 71
     1
 72
     1
  1
45
  7
SLDTEXTSTYLE1
 11
6.123031769111886E-17
 21
1.0
 31
0.0
 73
     1
 44
1.0
  0
ENDBLK
  5
F7
330
EB
100
AcDbEntity
  8
0
100
AcDbBlockEnd
  0
BLOCK
  5
10E
330
103
100
AcDbEntity
  8
0
100
AcDbBlockBegin
  2
*D11
 70
     1
 71
     0
 10
0.0
 20
0.0
 30
0.0
  3
*D11
  1

  0
LINE
  5
110
330
103
100
AcDbEntity
  8
SLD-0
 62
     7
100
AcDbLine
 10
112.7642002831
 20
148.1203012048
 30
0.0
 11
111.9603532831
 21
145.1203012048
 31
0.0
  0
LINE
  5
111
330
103
100
AcDbEntity
  8
SLD-0
 62
     7
100
AcDbLine
 10
111.9603532831
 20
145.1203012048
 30
0.0
 11
111.1565062831
 21
148.1203012048
 31
0.0
  0
LINE
  5
112
330
103
100
AcDbEntity
  8
SLD-0
 62
     7
100
AcDbLine
 10
111.9603532831
 20
145.1203012048
 30
0.0
 11
111.9603532831
 21
148.1203012048
 31
0.0
  0
LINE
  5
113
330
103
100
AcDbEntity
  8
SLD-0
 62
     7
100
AcDbLine
 10
111.1565062831
 20
179.1203012048
 30
0.0
 11
111.9603532831
 21
182.1203012048
 31
0.0
  0
LINE
  5
114
330
103
100
AcDbEntity
  8
SLD-0
 62
     7
100
AcDbLine
 10
111.9603532831
 20
182.1203012048
 30
0.0
 11
112.7642002831
 21
179.1203012048
 31
0.0
  0
LINE
  5
115
330
103
100
AcDbEntity
  8
SLD-0
 62
     7
100
AcDbLine
 10
111.9603532831
 20
182.1203012048
 30
0.0
 11
111.9603532831
 21
179.1203012048
 31
0.0
  0
LINE
  5
116
330
103
100
AcDbEntity
  8
SLD-0
 62
     7
100
AcDbLine
 10
97.4464457831
 20
145.1203012048
 30
0.0
 11
112.9603532831
 21
145.1203012048
 31
0.0
  0
LINE
  5
117
330
103
100
AcDbEntity
  8
SLD-0
 62
     7
100
AcDbLine
 10
95.4464457831
 20
182.1203012048
 30
0.0
 11
112.9603532831
 21
182.1203012048
 31
0.0
  0
LINE
  5
118
330
103
100
AcDbEntity
  8
SLD-0
 62
     7
100
AcDbLine
 10
111.9603532831
 20
145.1203012048
 30
0.0
 11
111.9603532831
 21
182.1203012048
 31
0.0
  0
MTEXT
  5
119
330
103
100
AcDbEntity
  8
SLD-0
 62
     7
100
AcDbMText
 10
107.8876262432
 20
161.5844816193
 30
0.2
 40
3.5
 41
0.0
 71
     1
 72
     1
  1
37
  7
SLDTEXTSTYLE1
 11
6.123031769111886E-17
 21
1.0
 31
0.0
 73
     1
 44
1.0
  0
ENDBLK
  5
10F
330
103
100
AcDbEntity
  8
0
100
AcDbBlockEnd
  0
BLOCK
  5
122
330
11B
100
AcDbEntity
  8
0
100
AcDbBlockBegin
  2
*D12
 70
     1
 71
     0
 10
0.0
 20
0.0
 30
0.0
  3
*D12
  1

  0
LINE
  5
125
330
11B
100
AcDbEntity
  8
SLD-0
 62
     7
100
AcDbLine
 10
80.9946609388
 20
148.9074121776
 30
0.0
 11
83.5439464572
 21
150.6814790717
 31
0.0
  0
LINE
  5
126
330
11B
100
AcDbEntity
  8
SLD-0
 62
     7
100
AcDbLine
 10
83.5439464572
 20
150.6814790717
 30
0.0
 11
82.2232328744
 21
147.8704497884
 31
0.0
  0
LINE
  5
127
330
11B
100
AcDbEntity
  8
SLD-0
 62
     7
100
AcDbLine
 10
83.5439464572
 20
150.6814790717
 30
0.0
 11
81.6089469066
 21
148.388930983
 31
0.0
  0
LINE
  5
128
330
11B
100
AcDbEntity
  8
SLD-0
 62
     7
100
AcDbLine
 10
83.5439464572
 20
150.6814790717
 30
0.0
 11
69.3124076594
 21
133.8202415279
 31
0.0
  0
LINE
  5
129
330
11B
100
AcDbEntity
  8
SLD-0
 62
     7
100
AcDbLine
 10
69.3124076594
 20
133.8202415279
 30
0.0
 11
28.3007037216
 21
133.8202415279
 31
0.0
  0
MTEXT
  5
12A
330
11B
100
AcDbEntity
  8
SLD-0
 62
     7
100
AcDbMText
 10
26.3882037216
 20
137.8929685678
 30
0.2
 40
3.5
 41
0.0
 71
     1
 72
     1
  1
%%c
  7
SLDTEXTSTYLE1
 73
     1
 44
1.0
  0
MTEXT
  5
12B
330
11B
100
AcDbEntity
  8
SLD-0
 62
     7
100
AcDbMText
 10
33.7557900428
 20
137.8929685678
 30
0.2
 40
3.5
 41
0.0
 71
     1
 72
     1
  1
9
  7
SLDTEXTSTYLE1
 73
     1
 44
1.0
  0
MTEXT
  5
12C
330
11B
100
AcDbEntity
  8
SLD-0
 62
     7
100
AcDbMText
 10
35.790039991
 20
137.8929685678
 30
0.2
 40
3.5
 41
0.0
 71
     1
 72
     1
  1
,
  7
SLDTEXTSTYLE1
 73
     1
 44
1.0
  0
MTEXT
  5
12D
330
11B
100
AcDbEntity
  8
SLD-0
 62
     7
100
AcDbMText
 10
34.3268454885
 20
137.8929685678
 30
0.2
 40
3.5
 41
0.0
 71
     1
 72
     1
  1
%%c
  7
SLDTEXTSTYLE1
 73
     1
 44
1.0
  0
MTEXT
  5
12E
330
11B
100
AcDbEntity
  8
SLD-0
 62
     7
100
AcDbMText
 10
41.6967760036
 20
137.8929685678
 30
0.2
 40
3.5
 41
0.0
 71
     1
 72
     1
  1
14ｻﾞｸﾞﾘ深8.6
  7
SLDTEXTSTYLE1
 73
     1
 44
1.0
  0
ENDBLK
  5
123
330
11B
100
AcDbEntity
  8
0
100
AcDbBlockEnd
  0
BLOCK
  5
137
330
130
100
AcDbEntity
  8
0
100
AcDbBlockBegin
  2
*D13
 70
     1
 71
     0
 10
0.0
 20
0.0
 30
0.0
  3
*D13
  1

  0
LINE
  5
13A
330
130
100
AcDbEntity
  8
SLD-0
 62
     7
100
AcDbLine
 10
149.4520185439
 20
175.3613449753
 30
0.0
 11
150.8544351362
 21
172.5901723533
 31
0.0
  0
LINE
  5
13B
330
130
100
AcDbEntity
  8
SLD-0
 62
     7
100
AcDbLine
 10
150.8544351362
 20
172.5901723533
 30
0.0
 11
148.2543210396
 21
174.2888708798
 31
0.0
  0
LINE
  5
13C
330
130
100
AcDbEntity
  8
SLD-0
 62
     7
100
AcDbLine
 10
150.8544351362
 20
172.5901723533
 30
0.0
 11
148.8531697917
 21
174.8251079276
 31
0.0
  0
LINE
  5
13D
330
130
100
AcDbEntity
  8
SLD-0
 62
     7
100
AcDbLine
 10
150.8544351362
 20
172.5901723533
 30
0.0
 11
132.0085152397
 21
193.636565288
 31
0.0
  0
LINE
  5
13E
330
130
100
AcDbEntity
  8
SLD-0
 62
     7
100
AcDbLine
 10
158.859496514
 20
163.6504300563
 30
0.0
 11
150.8544351362
 21
172.5901723533
 31
0.0
  0
LINE
  5
13F
330
130
100
AcDbEntity
  8
SLD-0
 62
     7
100
AcDbLine
 10
132.0085152397
 20
193.636565288
 30
0.0
 11
118.3676456639
 21
193.636565288
 31
0.0
  0
MTEXT
  5
140
330
130
100
AcDbEntity
  8
SLD-0
 62
     7
100
AcDbMText
 10
118.2051456639
 20
198.4106660074
 30
0.1
 40
3.5
 41
0.0
 71
     1
 72
     1
  1
%%c
  7
SLDTEXTSTYLE1
 73
     1
 44
1.0
  0
MTEXT
  5
141
330
130
100
AcDbEntity
  8
SLD-0
 62
     7
100
AcDbMText
 10
124.5916736343
 20
198.4106660074
 30
0.1
 40
3.5
 41
0.0
 71
     1
 72
     1
  1
12
  7
SLDTEXTSTYLE1
 73
     1
 44
1.0
  0
ENDBLK
  5
138
330
130
100
AcDbEntity
  8
0
100
AcDbBlockEnd
  0
BLOCK
  5
14E
330
143
100
AcDbEntity
  8
0
100
AcDbBlockBegin
  2
*D14
 70
     1
 71
     0
 10
0.0
 20
0.0
 30
0.0
  3
*D14
  1

  0
LINE
  5
150
330
143
100
AcDbEntity
  8
SLD-0
 62
     7
100
AcDbLine
 10
175.0215399396
 20
165.1203012048
 30
0.0
 11
175.8253869396
 21
168.1203012048
 31
0.0
  0
LINE
  5
151
330
143
100
AcDbEntity
  8
SLD-0
 62
     7
100
AcDbLine
 10
175.8253869396
 20
168.1203012048
 30
0.0
 11
176.6292339396
 21
165.1203012048
 31
0.0
  0
LINE
  5
152
330
143
100
AcDbEntity
  8
SLD-0
 62
     7
100
AcDbLine
 10
175.8253869396
 20
168.1203012048
 30
0.0
 11
175.8253869396
 21
165.1203012048
 31
0.0
  0
LINE
  5
153
330
143
100
AcDbEntity
  8
SLD-0
 62
     7
100
AcDbLine
 10
176.6292339396
 20
148.1203012048
 30
0.0
 11
175.8253869396
 21
145.1203012048
 31
0.0
  0
LINE
  5
154
330
143
100
AcDbEntity
  8
SLD-0
 62
     7
100
AcDbLine
 10
175.8253869396
 20
145.1203012048
 30
0.0
 11
175.0215399396
 21
148.1203012048
 31
0.0
  0
LINE
  5
155
330
143
100
AcDbEntity
  8
SLD-0
 62
     7
100
AcDbLine
 10
175.8253869396
 20
145.1203012048
 30
0.0
 11
175.8253869396
 21
148.1203012048
 31
0.0
  0
LINE
  5
156
330
143
100
AcDbEntity
  8
SLD-0
 62
     7
100
AcDbLine
 10
155.8569658251
 20
168.1203012048
 30
0.0
 11
176.8253869396
 21
168.1203012048
 31
0.0
  0
LINE
  5
157
330
143
100
AcDbEntity
  8
SLD-0
 62
     7
100
AcDbLine
 10
167.8569658251
 20
145.1203012048
 30
0.0
 11
176.8253869396
 21
145.1203012048
 31
0.0
  0
LINE
  5
158
330
143
100
AcDbEntity
  8
SLD-0
 62
     7
100
AcDbLine
 10
175.8253869396
 20
168.1203012048
 30
0.0
 11
175.8253869396
 21
145.1203012048
 31
0.0
  0
MTEXT
  5
159
330
143
100
AcDbEntity
  8
SLD-0
 62
     7
100
AcDbMText
 10
171.7526598997
 20
154.5844816193
 30
0.2
 40
3.5
 41
0.0
 71
     1
 72
     1
  1
23
  7
SLDTEXTSTYLE1
 11
-7.044197039909883E-15
 21
1.0
 31
0.0
 73
     1
 44
1.0
  0
ENDBLK
  5
14F
330
143
100
AcDbEntity
  8
0
100
AcDbBlockEnd
  0
BLOCK
  5
165
330
15B
100
AcDbEntity
  8
0
100
AcDbBlockBegin
  2
*D15
 70
     1
 71
     0
 10
0.0
 20
0.0
 30
0.0
  3
*D15
  1

  0
LINE
  5
167
330
15B
100
AcDbEntity
  8
SLD-0
 62
     7
100
AcDbLine
 10
145.8569658251
 20
126.7073304132
 30
0.0
 11
142.8569658251
 21
127.5111774132
 31
0.0
  0
LINE
  5
168
330
15B
100
AcDbEntity
  8
SLD-0
 62
     7
100
AcDbLine
 10
142.8569658251
 20
127.5111774132
 30
0.0
 11
145.8569658251
 21
128.3150244132
 31
0.0
  0
LINE
  5
169
330
15B
100
AcDbEntity
  8
SLD-0
 62
     7
100
AcDbLine
 10
142.8569658251
 20
127.5111774132
 30
0.0
 11
145.8569658251
 21
127.5111774132
 31
0.0
  0
LINE
  5
16A
330
15B
100
AcDbEntity
  8
SLD-0
 62
     7
100
AcDbLine
 10
163.8569658251
 20
128.3150244132
 30
0.0
 11
166.8569658251
 21
127.5111774132
 31
0.0
  0
LINE
  5
16B
330
15B
100
AcDbEntity
  8
SLD-0
 62
     7
100
AcDbLine
 10
166.8569658251
 20
127.5111774132
 30
0.0
 11
163.8569658251
 21
126.7073304132
 31
0.0
  0
LINE
  5
16C
330
15B
100
AcDbEntity
  8
SLD-0
 62
     7
100
AcDbLine
 10
166.8569658251
 20
127.5111774132
 30
0.0
 11
163.8569658251
 21
127.5111774132
 31
0.0
  0
LINE
  5
16D
330
15B
100
AcDbEntity
  8
SLD-0
 62
     7
100
AcDbLine
 10
142.8569658251
 20
144.1203012048
 30
0.0
 11
142.8569658251
 21
126.5111774132
 31
0.0
  0
LINE
  5
16E
330
15B
100
AcDbEntity
  8
SLD-0
 62
     7
100
AcDbLine
 10
166.8569658251
 20
144.1203012048
 30
0.0
 11
166.8569658251
 21
126.5111774132
 31
0.0
  0
LINE
  5
16F
330
15B
100
AcDbEntity
  8
SLD-0
 62
     7
100
AcDbLine
 10
142.8569658251
 20
127.5111774132
 30
0.0
 11
166.8569658251
 21
127.5111774132
 31
0.0
  0
MTEXT
  5
170
330
15B
100
AcDbEntity
  8
SLD-0
 62
     7
100
AcDbMText
 10
152.8211462396
 20
131.5839044531
 30
0.2
 40
3.5
 41
0.0
 71
     1
 72
     1
  1
24
  7
SLDTEXTSTYLE1
 73
     1
 44
1.0
  0
ENDBLK
  5
166
330
15B
100
AcDbEntity
  8
0
100
AcDbBlockEnd
  0
BLOCK
  5
17F
330
172
100
AcDbEntity
  8
0
100
AcDbBlockBegin
  2
*D16
 70
     1
 71
     0
 10
0.0
 20
0.0
 30
0.0
  3
*D16
  1

  0
LINE
  5
181
330
172
100
AcDbEntity
  8
SLD-0
 62
     7
100
AcDbLine
 10
158.3569658251
 20
203.6232375285
 30
0.0
 11
155.3569658251
 21
204.4270845285
 31
0.0
  0
LINE
  5
182
330
172
100
AcDbEntity
  8
SLD-0
 62
     7
100
AcDbLine
 10
155.3569658251
 20
204.4270845285
 30
0.0
 11
158.3569658251
 21
205.2309315285
 31
0.0
  0
LINE
  5
183
330
172
100
AcDbEntity
  8
SLD-0
 62
     7
100
AcDbLine
 10
155.3569658251
 20
204.4270845285
 30
0.0
 11
158.3569658251
 21
204.4270845285
 31
0.0
  0
LINE
  5
184
330
172
100
AcDbEntity
  8
SLD-0
 62
     7
100
AcDbLine
 10
151.3569658251
 20
205.2309315285
 30
0.0
 11
154.3569658251
 21
204.4270845285
 31
0.0
  0
LINE
  5
185
330
172
100
AcDbEntity
  8
SLD-0
 62
     7
100
AcDbLine
 10
154.3569658251
 20
204.4270845285
 30
0.0
 11
151.3569658251
 21
203.6232375285
 31
0.0
  0
LINE
  5
186
330
172
100
AcDbEntity
  8
SLD-0
 62
     7
100
AcDbLine
 10
154.3569658251
 20
204.4270845285
 30
0.0
 11
151.3569658251
 21
204.4270845285
 31
0.0
  0
LINE
  5
187
330
172
100
AcDbEntity
  8
SLD-0
 62
     7
100
AcDbLine
 10
155.3569658251
 20
191.1203012048
 30
0.0
 11
155.3569658251
 21
205.4270845285
 31
0.0
  0
LINE
  5
188
330
172
100
AcDbEntity
  8
SLD-0
 62
     7
100
AcDbLine
 10
154.3569658251
 20
191.1203012048
 30
0.0
 11
154.3569658251
 21
205.4270845285
 31
0.0
  0
LINE
  5
189
330
172
100
AcDbEntity
  8
SLD-0
 62
     7
100
AcDbLine
 10
155.3569658251
 20
204.4270845285
 30
0.0
 11
160.3569658251
 21
204.4270845285
 31
0.0
  0
LINE
  5
18A
330
172
100
AcDbEntity
  8
SLD-0
 62
     7
100
AcDbLine
 10
155.3569658251
 20
204.4270845285
 30
0.0
 11
154.3569658251
 21
204.4270845285
 31
0.0
  0
LINE
  5
18B
330
172
100
AcDbEntity
  8
SLD-0
 62
     7
100
AcDbLine
 10
154.3569658251
 20
204.4270845285
 30
0.0
 11
145.6500344729
 21
204.4270845285
 31
0.0
  0
MTEXT
  5
18C
330
172
100
AcDbEntity
  8
SLD-0
 62
     7
100
AcDbMText
 10
147.2375344729
 20
208.4998115684
 30
0.2
 40
3.5
 41
0.0
 71
     1
 72
     1
  1
1
  7
SLDTEXTSTYLE1
 73
     1
 44
1.0
  0
ENDBLK
  5
180
330
172
100
AcDbEntity
  8
0
100
AcDbBlockEnd
  0
BLOCK
  5
199
330
18E
100
AcDbEntity
  8
0
100
AcDbBlockBegin
  2
*D17
 70
     1
 71
     0
 10
0.0
 20
0.0
 30
0.0
  3
*D17
  1

  0
LINE
  5
19B
330
18E
100
AcDbEntity
  8
SLD-0
 62
     7
100
AcDbLine
 10
134.4232383771
 20
187.1203012048
 30
0.0
 11
135.2270853771
 21
190.1203012048
 31
0.0
  0
LINE
  5
19C
330
18E
100
AcDbEntity
  8
SLD-0
 62
     7
100
AcDbLine
 10
135.2270853771
 20
190.1203012048
 30
0.0
 11
136.0309323771
 21
187.1203012048
 31
0.0
  0
LINE
  5
19D
330
18E
100
AcDbEntity
  8
SLD-0
 62
     7
100
AcDbLine
 10
135.2270853771
 20
190.1203012048
 30
0.0
 11
135.2270853771
 21
187.1203012048
 31
0.0
  0
LINE
  5
19E
330
18E
100
AcDbEntity
  8
SLD-0
 62
     7
100
AcDbLine
 10
136.0309323771
 20
163.1203012048
 30
0.0
 11
135.2270853771
 21
160.1203012048
 31
0.0
  0
LINE
  5
19F
330
18E
100
AcDbEntity
  8
SLD-0
 62
     7
100
AcDbLine
 10
135.2270853771
 20
160.1203012048
 30
0.0
 11
134.4232383771
 21
163.1203012048
 31
0.0
  0
LINE
  5
1A0
330
18E
100
AcDbEntity
  8
SLD-0
 62
     7
100
AcDbLine
 10
135.2270853771
 20
160.1203012048
 30
0.0
 11
135.2270853771
 21
163.1203012048
 31
0.0
  0
LINE
  5
1A1
330
18E
100
AcDbEntity
  8
SLD-0
 62
     7
100
AcDbLine
 10
154.3569658251
 20
190.1203012048
 30
0.0
 11
134.2270853771
 21
190.1203012048
 31
0.0
  0
LINE
  5
1A2
330
18E
100
AcDbEntity
  8
SLD-0
 62
     7
100
AcDbLine
 10
153.3569658251
 20
160.1203012048
 30
0.0
 11
134.2270853771
 21
160.1203012048
 31
0.0
  0
LINE
  5
1A3
330
18E
100
AcDbEntity
  8
SLD-0
 62
     7
100
AcDbLine
 10
135.2270853771
 20
190.1203012048
 30
0.0
 11
135.2270853771
 21
160.1203012048
 31
0.0
  0
MTEXT
  5
1A4
330
18E
100
AcDbEntity
  8
SLD-0
 62
     7
100
AcDbMText
 10
131.1543583372
 20
173.0844816193
 30
0.2
 40
3.5
 41
0.0
 71
     1
 72
     1
  1
30
  7
SLDTEXTSTYLE1
 11
-7.044197039909883E-15
 21
1.0
 31
0.0
 73
     1
 44
1.0
  0
ENDBLK
  5
19A
330
18E
100
AcDbEntity
  8
0
100
AcDbBlockEnd
  0
BLOCK
  5
1B0
330
1A6
100
AcDbEntity
  8
0
100
AcDbBlockBegin
  2
*D18
 70
     1
 71
     0
 10
0.0
 20
0.0
 30
0.0
  3
*D18
  1

  0
LINE
  5
1B2
330
1A6
100
AcDbEntity
  8
SLD-0
 62
     7
100
AcDbLine
 10
157.8569658251
 20
208.8189772485
 30
0.0
 11
154.8569658251
 21
209.6228242485
 31
0.0
  0
LINE
  5
1B3
330
1A6
100
AcDbEntity
  8
SLD-0
 62
     7
100
AcDbLine
 10
154.8569658251
 20
209.6228242485
 30
0.0
 11
157.8569658251
 21
210.4266712485
 31
0.0
  0
LINE
  5
1B4
330
1A6
100
AcDbEntity
  8
SLD-0
 62
     7
100
AcDbLine
 10
154.8569658251
 20
209.6228242485
 30
0.0
 11
157.8569658251
 21
209.6228242485
 31
0.0
  0
LINE
  5
1B5
330
1A6
100
AcDbEntity
  8
SLD-0
 62
     7
100
AcDbLine
 10
163.8569658251
 20
210.4266712485
 30
0.0
 11
166.8569658251
 21
209.6228242485
 31
0.0
  0
LINE
  5
1B6
330
1A6
100
AcDbEntity
  8
SLD-0
 62
     7
100
AcDbLine
 10
166.8569658251
 20
209.6228242485
 30
0.0
 11
163.8569658251
 21
208.8189772485
 31
0.0
  0
LINE
  5
1B7
330
1A6
100
AcDbEntity
  8
SLD-0
 62
     7
100
AcDbLine
 10
166.8569658251
 20
209.6228242485
 30
0.0
 11
163.8569658251
 21
209.6228242485
 31
0.0
  0
LINE
  5
1B8
330
1A6
100
AcDbEntity
  8
SLD-0
 62
     7
100
AcDbLine
 10
154.8569658251
 20
177.6203012048
 30
0.0
 11
154.8569658251
 21
210.6228242485
 31
0.0
  0
LINE
  5
1B9
330
1A6
100
AcDbEntity
  8
SLD-0
 62
     7
100
AcDbLine
 10
166.8569658251
 20
189.1203012048
 30
0.0
 11
166.8569658251
 21
210.6228242485
 31
0.0
  0
LINE
  5
1BA
330
1A6
100
AcDbEntity
  8
SLD-0
 62
     7
100
AcDbLine
 10
154.8569658251
 20
209.6228242485
 30
0.0
 11
166.8569658251
 21
209.6228242485
 31
0.0
  0
MTEXT
  5
1BB
330
1A6
100
AcDbEntity
  8
SLD-0
 62
     7
100
AcDbMText
 10
158.8211462396
 20
213.6955512884
 30
0.2
 40
3.5
 41
0.0
 71
     1
 72
     1
  1
12
  7
SLDTEXTSTYLE1
 73
     1
 44
1.0
  0
ENDBLK
  5
1B1
330
1A6
100
AcDbEntity
  8
0
100
AcDbBlockEnd
  0
ENDSEC
  0
SECTION
  2
ENTITIES
  0
LINE
  5
70
330
1F
100
AcDbEntity
  8
SLD-0
  6
Continuous
 62
     7
370
     0
100
AcDbLine
 10
20.2604743903
 20
285.0
 30
0.0
 11
196.7604743903
 21
285.0
 31
0.0
  0
LINE
  5
71
330
1F
100
AcDbEntity
  8
SLD-0
  6
Continuous
 62
     7
370
     0
100
AcDbLine
 10
20.2604743903
 20
285.0
 30
0.0
 11
20.2604743903
 21
10.0
 31
0.0
  0
LINE
  5
72
330
1F
100
AcDbEntity
  8
SLD-0
  6
Continuous
 62
     7
370
     0
100
AcDbLine
 10
20.2604743903
 20
10.0
 30
0.0
 11
196.7604743903
 21
10.0
 31
0.0
  0
LINE
  5
73
330
1F
100
AcDbEntity
  8
SLD-0
  6
Continuous
 62
     7
370
     0
100
AcDbLine
 10
196.7604743903
 20
285.0
 30
0.0
 11
196.7604743903
 21
10.0
 31
0.0
  0
LINE
  5
74
330
1F
100
AcDbEntity
  8
SLD-0
  6
Continuous
 62
     7
370
     0
100
AcDbLine
 10
127.0104743903
 20
50.75
 30
0.0
 11
196.7604743903
 21
50.75
 31
0.0
  0
LINE
  5
75
330
1F
100
AcDbEntity
  8
SLD-0
  6
Continuous
 62
     7
370
     0
100
AcDbLine
 10
127.0104743903
 20
50.75
 30
0.0
 11
127.0104743903
 21
10.0
 31
0.0
  0
LINE
  5
76
330
1F
100
AcDbEntity
  8
SLD-0
  6
Continuous
 62
     7
370
     0
100
AcDbLine
 10
127.0104743903
 20
22.75
 30
0.0
 11
196.7604743903
 21
22.75
 31
0.0
  0
LINE
  5
77
330
1F
100
AcDbEntity
  8
SLD-0
  6
Continuous
 62
     7
370
     0
100
AcDbLine
 10
127.0104743903
 20
36.75
 30
0.0
 11
196.7604743903
 21
36.75
 31
0.0
  0
LINE
  5
78
330
1F
100
AcDbEntity
  8
SLD-0
  6
Continuous
 62
     7
370
     0
100
AcDbLine
 10
96.4464457831
 20
188.1203012048
 30
0.0
 11
76.4464457831
 21
188.1203012048
 31
0.0
  0
LINE
  5
79
330
1F
100
AcDbEntity
  8
SLD-0
  6
Continuous
 62
     7
370
     0
100
AcDbLine
 10
96.4464457831
 20
188.1203012048
 30
0.0
 11
96.4464457831
 21
146.1203012048
 31
0.0
  0
LINE
  5
7A
330
1F
100
AcDbEntity
  8
SLD-0
  6
Continuous
 62
     7
370
     0
100
AcDbLine
 10
76.4464457831
 20
146.1203012048
 30
0.0
 11
96.4464457831
 21
146.1203012048
 31
0.0
  0
LINE
  5
7B
330
1F
100
AcDbEntity
  8
SLD-0
  6
Continuous
 62
     7
370
     0
100
AcDbLine
 10
76.4464457831
 20
188.1203012048
 30
0.0
 11
76.4464457831
 21
146.1203012048
 31
0.0
  0
LINE
  5
7C
330
1F
100
AcDbEntity
  8
SLD-0
  6
Continuous
 62
     7
370
     0
100
AcDbLine
 10
76.4464457831
 20
190.1203012048
 30
0.0
 11
96.4464457831
 21
190.1203012048
 31
0.0
  0
LINE
  5
7D
330
1F
100
AcDbEntity
  8
SLD-0
  6
Continuous
 62
     7
370
     0
100
AcDbLine
 10
96.4464457831
 20
190.1203012048
 30
0.0
 11
96.4464457831
 21
188.1203012048
 31
0.0
  0
LINE
  5
7E
330
1F
100
AcDbEntity
  8
SLD-0
  6
Continuous
 62
     7
370
     0
100
AcDbLine
 10
76.4464457831
 20
188.1203012048
 30
0.0
 11
76.4464457831
 21
190.1203012048
 31
0.0
  0
LINE
  5
7F
330
1F
100
AcDbEntity
  8
SLD-0
  6
Continuous
 62
     7
370
     0
100
AcDbLine
 10
96.4464457831
 20
145.1203012048
 30
0.0
 11
76.4464457831
 21
145.1203012048
 31
0.0
  0
LINE
  5
80
330
1F
100
AcDbEntity
  8
SLD-0
  6
Continuous
 62
     7
370
     0
100
AcDbLine
 10
96.4464457831
 20
146.1203012048
 30
0.0
 11
96.4464457831
 21
145.1203012048
 31
0.0
  0
LINE
  5
81
330
1F
100
AcDbEntity
  8
SLD-0
  6
Continuous
 62
     7
370
     0
100
AcDbLine
 10
76.4464457831
 20
145.1203012048
 30
0.0
 11
76.4464457831
 21
146.1203012048
 31
0.0
  0
LINE
  5
82
330
1F
100
AcDbEntity
  8
SLD-0
  6
HIDDEN
 62
     7
370
     0
100
AcDbLine
 10
76.4464457831
 20
162.1411708333
 30
0.0
 11
96.4464457831
 21
162.1411708333
 31
0.0
  0
LINE
  5
83
330
1F
100
AcDbEntity
  8
SLD-0
  6
HIDDEN
 62
     7
370
     0
100
AcDbLine
 10
76.4464457831
 20
160.1203012048
 30
0.0
 11
96.4464457831
 21
160.1203012048
 31
0.0
  0
LINE
  5
84
330
1F
100
AcDbEntity
  8
SLD-0
  6
HIDDEN
 62
     7
370
     0
100
AcDbLine
 10
96.4464457831
 20
174.0994315764
 30
0.0
 11
76.4464457831
 21
174.0994315764
 31
0.0
  0
LINE
  5
85
330
1F
100
AcDbEntity
  8
SLD-0
  6
Continuous
 62
     7
370
     0
100
AcDbLine
 10
142.8569658251
 20
146.1203012048
 30
0.0
 11
143.8569658251
 21
145.1203012048
 31
0.0
  0
LINE
  5
86
330
1F
100
AcDbEntity
  8
SLD-0
  6
Continuous
 62
     7
370
     0
100
AcDbLine
 10
142.8569658251
 20
188.1203012048
 30
0.0
 11
142.8569658251
 21
146.1203012048
 31
0.0
  0
LINE
  5
87
330
1F
100
AcDbEntity
  8
SLD-0
  6
Continuous
 62
     7
370
     0
100
AcDbLine
 10
144.8569658251
 20
190.1203012048
 30
0.0
 11
142.8569658251
 21
188.1203012048
 31
0.0
  0
LINE
  5
88
330
1F
100
AcDbEntity
  8
SLD-0
  6
Continuous
 62
     7
370
     0
100
AcDbLine
 10
154.3569658251
 20
190.1203012048
 30
0.0
 11
144.8569658251
 21
190.1203012048
 31
0.0
  0
LINE
  5
89
330
1F
100
AcDbEntity
  8
SLD-0
  6
Continuous
 62
     7
370
     0
100
AcDbLine
 10
154.3569658251
 20
190.1203012048
 30
0.0
 11
154.3569658251
 21
174.0994315764
 31
0.0
  0
LINE
  5
8A
330
1F
100
AcDbEntity
  8
SLD-0
  6
Continuous
 62
     7
370
     0
100
AcDbLine
 10
154.3569658251
 20
162.1411708332
 30
0.0
 11
154.3569658251
 21
160.1203012048
 31
0.0
  0
LINE
  5
8B
330
1F
100
AcDbEntity
  8
SLD-0
  6
Continuous
 62
     7
370
     0
100
AcDbLine
 10
154.3569658251
 20
160.1203012048
 30
0.0
 11
155.3569658251
 21
160.1203012048
 31
0.0
  0
LINE
  5
8C
330
1F
100
AcDbEntity
  8
SLD-0
  6
Continuous
 62
     7
370
     0
100
AcDbLine
 10
155.3569658251
 20
160.1203012048
 30
0.0
 11
155.3569658251
 21
162.1411708333
 31
0.0
  0
LINE
  5
8D
330
1F
100
AcDbEntity
  8
SLD-0
  6
Continuous
 62
     7
370
     0
100
AcDbLine
 10
155.3569658251
 20
174.0994315764
 30
0.0
 11
155.3569658251
 21
190.1203012048
 31
0.0
  0
LINE
  5
8E
330
1F
100
AcDbEntity
  8
SLD-0
  6
Continuous
 62
     7
370
     0
100
AcDbLine
 10
164.8569658251
 20
190.1203012048
 30
0.0
 11
155.3569658251
 21
190.1203012048
 31
0.0
  0
LINE
  5
8F
330
1F
100
AcDbEntity
  8
SLD-0
  6
Continuous
 62
     7
370
     0
100
AcDbLine
 10
166.8569658251
 20
188.1203012048
 30
0.0
 11
164.8569658251
 21
190.1203012048
 31
0.0
  0
LINE
  5
90
330
1F
100
AcDbEntity
  8
SLD-0
  6
Continuous
 62
     7
370
     0
100
AcDbLine
 10
165.8569658251
 20
145.1203012048
 30
0.0
 11
166.8569658251
 21
146.1203012048
 31
0.0
  0
LINE
  5
91
330
1F
100
AcDbEntity
  8
SLD-0
  6
Continuous
 62
     7
370
     0
100
AcDbLine
 10
143.8569658251
 20
145.1203012048
 30
0.0
 11
165.8569658251
 21
145.1203012048
 31
0.0
  0
LINE
  5
92
330
1F
100
AcDbEntity
  8
SLD-0
  6
Continuous
 62
     7
370
     0
100
AcDbLine
 10
166.8569658251
 20
146.1203012048
 30
0.0
 11
166.8569658251
 21
188.1203012048
 31
0.0
  0
LINE
  5
93
330
1F
100
AcDbEntity
  8
SLD-0
  6
HIDDEN
 62
     7
370
     0
100
AcDbLine
 10
151.4569658251
 20
154.1203012048
 30
0.0
 11
151.4569658251
 21
161.1203012048
 31
0.0
  0
LINE
  5
94
330
1F
100
AcDbEntity
  8
SLD-0
  6
HIDDEN
 62
     7
370
     0
100
AcDbLine
 10
151.4569658251
 20
147.1203012048
 30
0.0
 11
151.4569658251
 21
154.1203012048
 31
0.0
  0
LINE
  5
95
330
1F
100
AcDbEntity
  8
SLD-0
  6
HIDDEN
 62
     7
370
     0
100
AcDbLine
 10
149.3569658251
 20
182.1203012048
 30
0.0
 11
149.3569658251
 21
187.6203012048
 31
0.0
  0
LINE
  5
96
330
1F
100
AcDbEntity
  8
SLD-0
  6
HIDDEN
 62
     7
370
     0
100
AcDbLine
 10
149.3569658251
 20
176.6203012048
 30
0.0
 11
149.3569658251
 21
182.1203012048
 31
0.0
  0
LINE
  5
97
330
1F
100
AcDbEntity
  8
SLD-0
  6
HIDDEN
 62
     7
370
     0
100
AcDbLine
 10
142.8569658251
 20
147.1203012048
 30
0.0
 11
151.4569658251
 21
147.1203012048
 31
0.0
  0
LINE
  5
98
330
1F
100
AcDbEntity
  8
SLD-0
  6
HIDDEN
 62
     7
370
     0
100
AcDbLine
 10
151.4569658251
 20
161.1203012048
 30
0.0
 11
142.8569658251
 21
161.1203012048
 31
0.0
  0
LINE
  5
99
330
1F
100
AcDbEntity
  8
SLD-0
  6
HIDDEN
 62
     7
370
     0
100
AcDbLine
 10
142.8569658251
 20
176.6203012048
 30
0.0
 11
149.3569658251
 21
176.6203012048
 31
0.0
  0
LINE
  5
9A
330
1F
100
AcDbEntity
  8
SLD-0
  6
HIDDEN
 62
     7
370
     0
100
AcDbLine
 10
149.3569658251
 20
187.6203012048
 30
0.0
 11
142.8569658251
 21
187.6203012048
 31
0.0
  0
LINE
  5
9B
330
1F
100
AcDbEntity
  8
SLD-0
  6
HIDDEN
 62
     7
370
     0
100
AcDbLine
 10
151.4569658251
 20
149.6203012048
 30
0.0
 11
166.8569658251
 21
149.6203012048
 31
0.0
  0
LINE
  5
9C
330
1F
100
AcDbEntity
  8
SLD-0
  6
HIDDEN
 62
     7
370
     0
100
AcDbLine
 10
166.8569658251
 20
158.6203012048
 30
0.0
 11
151.4569658251
 21
158.6203012048
 31
0.0
  0
LINE
  5
9D
330
1F
100
AcDbEntity
  8
SLD-0
  6
HIDDEN
 62
     7
370
     0
100
AcDbLine
 10
149.3569658251
 20
178.8703012048
 30
0.0
 11
154.3569658251
 21
178.8703012048
 31
0.0
  0
LINE
  5
9E
330
1F
100
AcDbEntity
  8
SLD-0
  6
HIDDEN
 62
     7
370
     0
100
AcDbLine
 10
154.3569658251
 20
185.3703012048
 30
0.0
 11
149.3569658251
 21
185.3703012048
 31
0.0
  0
LINE
  5
9F
330
1F
100
AcDbEntity
  8
SLD-0
  6
HIDDEN
 62
     7
370
     0
100
AcDbLine
 10
155.3569658251
 20
179.6203012048
 30
0.0
 11
166.8569658251
 21
179.6203012048
 31
0.0
  0
LINE
  5
A0
330
1F
100
AcDbEntity
  8
SLD-0
  6
HIDDEN
 62
     7
370
     0
100
AcDbLine
 10
166.8569658251
 20
184.6203012048
 30
0.0
 11
155.3569658251
 21
184.6203012048
 31
0.0
  0
LINE
  5
A1
330
1F
100
AcDbEntity
  8
SLD-0
  6
Continuous
 62
     7
370
     0
100
AcDbLine
 10
169.4191376554
 20
183.9437380001
 30
0.0
 11
166.8569658251
 21
182.1883333426
 31
0.0
  0
LINE
  5
A2
330
1F
100
AcDbEntity
  8
SLD-0
  6
Continuous
 62
     7
370
     0
100
AcDbLine
 10
166.8569658251
 20
182.1883333426
 30
0.0
 11
168.1981703961
 21
184.9896438035
 31
0.0
  0
LINE
  5
A3
330
1F
100
AcDbEntity
  8
SLD-0
  6
Continuous
 62
     7
370
     0
100
AcDbLine
 10
166.8569658251
 20
182.1883333426
 30
0.0
 11
168.8086540257
 21
184.4666909018
 31
0.0
  0
LINE
  5
A4
330
1F
100
AcDbEntity
  8
SLD-0
  6
Continuous
 62
     7
370
     0
100
AcDbLine
 10
168.8086540257
 20
184.4666909018
 30
0.0
 11
176.7739497409
 21
193.7652006218
 31
0.0
  0
LINE
  5
A5
330
1F
100
AcDbEntity
  8
SLD-0
  6
Continuous
 62
     7
370
     0
100
AcDbLine
 10
176.7739497409
 20
193.7652006218
 30
0.0
 11
181.3487281865
 21
193.7652006218
 31
0.0
  0
LINE
  5
A6
330
1F
100
AcDbEntity
  8
SLD-0
  6
HIDDEN
 62
     7
370
     0
100
AcDbLine
 10
166.8569658251
 20
185.1203012048
 30
0.0
 11
155.3569658251
 21
185.1203012048
 31
0.0
  0
LINE
  5
A7
330
1F
100
AcDbEntity
  8
SLD-0
  6
HIDDEN
 62
     7
370
     0
100
AcDbLine
 10
155.3569658251
 20
179.1203012048
 30
0.0
 11
166.8569658251
 21
179.1203012048
 31
0.0
  0
LINE
  5
A8
330
1F
100
AcDbEntity
  8
SLD-0
  6
CENTERX2
 62
     7
370
     0
100
AcDbLine
 10
168.8569658251
 20
154.1203012048
 30
0.0
 11
151.4569658251
 21
154.1203012048
 31
0.0
  0
LINE
  5
A9
330
1F
100
AcDbEntity
  8
SLD-0
  6
CENTERX2
 62
     7
370
     0
100
AcDbLine
 10
151.4569658251
 20
154.1203012048
 30
0.0
 11
140.8569658251
 21
154.1203012048
 31
0.0
  0
LINE
  5
AA
330
1F
100
AcDbEntity
  8
SLD-0
  6
CENTERX2
 62
     7
370
     0
100
AcDbLine
 10
168.8569658251
 20
182.1203012048
 30
0.0
 11
140.8569658251
 21
182.1203012048
 31
0.0
  0
CIRCLE
  5
AB
330
1F
100
AcDbEntity
  8
SLD-0
  6
Continuous
 62
     7
370
     0
100
AcDbCircle
 10
86.4464457831
 20
154.1203012048
 30
0.0
 40
6.999999999999986
  0
CIRCLE
  5
AC
330
1F
100
AcDbEntity
  8
SLD-0
  6
Continuous
 62
     7
370
     0
100
AcDbCircle
 10
86.4464457831
 20
182.1203012048
 30
0.0
 40
5.5
  0
CIRCLE
  5
AD
330
1F
100
AcDbEntity
  8
SLD-0
  6
Continuous
 62
     7
370
     0
100
AcDbCircle
 10
86.4464457831
 20
182.1203012048
 30
0.0
 40
3.25
  0
CIRCLE
  5
AE
330
1F
100
AcDbEntity
  8
SLD-0
  6
Continuous
 62
     7
370
     0
100
AcDbCircle
 10
86.4464457831
 20
154.1203012048
 30
0.0
 40
4.5
  0
CIRCLE
  5
AF
330
1F
100
AcDbEntity
  8
SLD-0
  6
Continuous
 62
     7
370
     0
100
AcDbCircle
 10
86.4464457831
 20
182.1203012048
 30
0.0
 40
2.5
  0
CIRCLE
  5
B0
330
1F
100
AcDbEntity
  8
SLD-0
  6
Continuous
 62
     7
370
     0
100
AcDbCircle
 10
86.4464457831
 20
182.1203012048
 30
0.0
 40
3.0
  0
ARC
  5
B1
330
1F
100
AcDbEntity
  8
SLD-0
  6
Continuous
 62
     7
370
     0
100
AcDbCircle
 10
154.8569658251
 20
168.1203012048
 30
0.0
 40
6.000000000049137
100
AcDbArc
 50
94.7801918472
 51
265.2198081528
  0
ARC
  5
B2
330
1F
100
AcDbEntity
  8
SLD-0
  6
Continuous
 62
     7
370
     0
100
AcDbCircle
 10
154.8569658251
 20
168.1203012048
 30
0.0
 40
5.999999999999311
100
AcDbArc
 50
274.7801918472
 51
85.2198081528
  0
DIMENSION
  5
B3
330
1F
100
AcDbEntity
  8
SLD-0
 62
     7
100
AcDbDimension
  2
*D7
 10
96.4464457831
 20
130.0077481186
 30
0.0
 11
86.4464457831
 21
130.0077481186
 31
0.0
 70
   160
 71
     1
 42
20.0
  3
SLDDIMSTYLE0
100
AcDbAlignedDimension
 13
76.4464457831
 23
145.1203012048
 33
0.0
 14
96.4464457831
 24
145.1203012048
 34
0.0
100
AcDbRotatedDimension
1001
ACAD
1000
DSTYLE
1002
{
1070
    77
1070
     3
1070
   143
1040
0.0393700787
1070
    41
1040
3.0
1070
    44
1040
1.0
1070
    42
1040
1.0
1070
   147
1040
1.524
1070
    73
1070
     0
1070
    74
1070
     0
1070
   140
1040
3.5
1070
   284
1070
    12
1070
    78
1070
    12
1002
}
  0
DIMENSION
  5
D0
330
1F
100
AcDbEntity
  8
SLD-0
 62
     7
100
AcDbDimension
  2
*D9
 10
105.8462350298
 20
145.1203012048
 30
0.0
 11
105.8462350298
 21
149.6203012048
 31
0.0
 70
   160
 71
     1
 42
9.0
  3
SLDDIMSTYLE0
100
AcDbAlignedDimension
 13
86.4464457831
 23
154.1203012048
 33
0.0
 14
96.4464457831
 24
145.1203012048
 34
0.0
 50
90.0
100
AcDbRotatedDimension
1001
ACAD
1000
DSTYLE
1002
{
1070
    77
1070
     3
1070
   143
1040
0.0393700787
1070
    41
1040
3.0
1070
    44
1040
1.0
1070
    42
1040
1.0
1070
   147
1040
1.524
1070
    73
1070
     0
1070
    74
1070
     0
1070
   140
1040
3.5
1070
   284
1070
    12
1070
    78
1070
    12
1002
}
  0
DIMENSION
  5
EA
330
1F
100
AcDbEntity
  8
SLD-0
 62
     7
100
AcDbDimension
  2
*D10
 10
63.4452016001
 20
190.1203012048
 30
0.0
 11
63.4452016001
 21
167.6203012048
 31
0.0
 70
   160
 71
     1
 42
45.0
  3
SLDDIMSTYLE0
100
AcDbAlignedDimension
 13
86.4464457831
 23
145.1203012048
 33
0.0
 14
86.4464457831
 24
190.1203012048
 34
0.0
 50
90.0
100
AcDbRotatedDimension
1001
ACAD
1000
DSTYLE
1002
{
1070
    77
1070
     3
1070
   143
1040
0.0393700787
1070
    41
1040
3.0
1070
    44
1040
1.0
1070
    42
1040
1.0
1070
   147
1040
1.524
1070
    73
1070
     0
1070
    74
1070
     0
1070
   140
1040
3.5
1070
   284
1070
    12
1070
    78
1070
    12
1002
}
  0
DIMENSION
  5
102
330
1F
100
AcDbEntity
  8
SLD-0
 62
     7
100
AcDbDimension
  2
*D11
 10
111.9603532831
 20
182.1203012048
 30
0.0
 11
111.9603532831
 21
163.6203012048
 31
0.0
 70
   160
 71
     1
 42
37.0
  3
SLDDIMSTYLE0
100
AcDbAlignedDimension
 13
96.4464457831
 23
145.1203012048
 33
0.0
 14
94.4464457831
 24
182.1203012048
 34
0.0
 50
90.0
100
AcDbRotatedDimension
1001
ACAD
1000
DSTYLE
1002
{
1070
    77
1070
     3
1070
   143
1040
0.0393700787
1070
    41
1040
3.0
1070
    44
1040
1.0
1070
    42
1040
1.0
1070
   147
1040
1.524
1070
    73
1070
     0
1070
    74
1070
     0
1070
   140
1040
3.5
1070
   284
1070
    12
1070
    78
1070
    12
1002
}
  0
DIMENSION
  5
11A
330
1F
100
AcDbEntity
  8
SLD-0
 62
     7
100
AcDbDimension
  2
*D12
 10
4.4017341944
 20
7.8475938915
 30
0.0
 11
48.0128056905
 21
-5.2330217249
 31
0.0
 70
   163
  1
<>,%%c14ｻﾞｸﾞﾘ深8.6
 71
     1
 42
8.9977771591
  3
SLDDIMSTYLE1
100
AcDbDiametricDimension
 15
0.0
 25
0.0
 35
0.0
 40
0.0
1001
ACAD
1000
DSTYLE
1002
{
1070
    77
1070
     0
1070
   143
1040
0.0393700787
1070
    41
1040
3.0
1070
    44
1040
1.0
1070
    42
1040
1.0
1070
   147
1040
1.524
1070
    73
1070
     1
1070
    74
1070
     1
1070
   140
1040
3.5
1070
   284
1070
    12
1070
    78
1070
    12
1002
}
  0
DIMENSION
  5
12F
330
1F
100
AcDbEntity
  8
SLD-0
 62
     7
100
AcDbDimension
  2
*D13
 10
8.1299729984
 20
8.8262965893
 30
0.0
 11
124.3943304518
 21
-4.413148717
 31
0.0
 70
   163
  1
<>
 71
     1
 42
11.9999988515
  3
SLDDIMSTYLE2
100
AcDbDiametricDimension
 15
0.0
 25
0.0
 35
0.0
 40
0.0
1001
ACAD
1000
DSTYLE
1002
{
1070
    77
1070
     0
1070
   143
1040
0.0393700787
1070
    41
1040
3.0
1070
    44
1040
1.0
1070
    42
1040
1.0
1070
   147
1040
1.524
1070
    73
1070
     1
1070
    74
1070
     1
1070
   140
1040
3.5
1070
   284
1070
    12
1070
    78
1070
    12
1002
}
  0
DIMENSION
  5
142
330
1F
100
AcDbEntity
  8
SLD-0
 62
     7
100
AcDbDimension
  2
*D14
 10
175.8253869396
 20
145.1203012048
 30
0.0
 11
175.8253869396
 21
156.6203012048
 31
0.0
 70
   160
 71
     1
 42
23.0
  3
SLDDIMSTYLE0
100
AcDbAlignedDimension
 13
154.8569658251
 23
168.1203012048
 33
0.0
 14
166.8569658251
 24
145.1203012048
 34
0.0
 50
90.0
100
AcDbRotatedDimension
1001
ACAD
1000
DSTYLE
1002
{
1070
    77
1070
     3
1070
   143
1040
0.0393700787
1070
    41
1040
3.0
1070
    44
1040
1.0
1070
    42
1040
1.0
1070
   147
1040
1.524
1070
    73
1070
     0
1070
    74
1070
     0
1070
   140
1040
3.5
1070
   284
1070
    12
1070
    78
1070
    12
1002
}
  0
DIMENSION
  5
15A
330
1F
100
AcDbEntity
  8
SLD-0
 62
     7
100
AcDbDimension
  2
*D15
 10
166.8569658251
 20
127.5111774132
 30
0.0
 11
154.8569658251
 21
127.5111774132
 31
0.0
 70
   160
 71
     1
 42
24.0
  3
SLDDIMSTYLE0
100
AcDbAlignedDimension
 13
142.8569658251
 23
145.1203012048
 33
0.0
 14
166.8569658251
 24
145.1203012048
 34
0.0
100
AcDbRotatedDimension
1001
ACAD
1000
DSTYLE
1002
{
1070
    77
1070
     3
1070
   143
1040
0.0393700787
1070
    41
1040
3.0
1070
    44
1040
1.0
1070
    42
1040
1.0
1070
   147
1040
1.524
1070
    73
1070
     0
1070
    74
1070
     0
1070
   140
1040
3.5
1070
   284
1070
    12
1070
    78
1070
    12
1002
}
  0
DIMENSION
  5
171
330
1F
100
AcDbEntity
  8
SLD-0
 62
     7
100
AcDbDimension
  2
*D16
 10
154.3569658251
 20
204.4270845285
 30
0.0
 11
148.254659447
 21
204.4270845285
 31
0.0
 70
   160
 71
     1
 42
1.0
  3
SLDDIMSTYLE0
100
AcDbAlignedDimension
 13
155.3569658251
 23
190.1203012048
 33
0.0
 14
154.3569658251
 24
190.1203012048
 34
0.0
100
AcDbRotatedDimension
1001
ACAD
1000
DSTYLE
1002
{
1070
    77
1070
     3
1070
   143
1040
0.0393700787
1070
    41
1040
3.0
1070
    44
1040
1.0
1070
    42
1040
1.0
1070
   147
1040
1.524
1070
    73
1070
     0
1070
    74
1070
     0
1070
   140
1040
3.5
1070
   284
1070
    12
1070
    78
1070
    12
1002
}
  0
DIMENSION
  5
18D
330
1F
100
AcDbEntity
  8
SLD-0
 62
     7
100
AcDbDimension
  2
*D17
 10
135.2270853771
 20
160.1203012048
 30
0.0
 11
135.2270853771
 21
175.1203012048
 31
0.0
 70
   160
 71
     1
 42
30.0
  3
SLDDIMSTYLE0
100
AcDbAlignedDimension
 13
155.3569658251
 23
190.1203012048
 33
0.0
 14
154.3569658251
 24
160.1203012048
 34
0.0
 50
90.0
100
AcDbRotatedDimension
1001
ACAD
1000
DSTYLE
1002
{
1070
    77
1070
     3
1070
   143
1040
0.0393700787
1070
    41
1040
3.0
1070
    44
1040
1.0
1070
    42
1040
1.0
1070
   147
1040
1.524
1070
    73
1070
     0
1070
    74
1070
     0
1070
   140
1040
3.5
1070
   284
1070
    12
1070
    78
1070
    12
1002
}
  0
DIMENSION
  5
1A5
330
1F
100
AcDbEntity
  8
SLD-0
 62
     7
100
AcDbDimension
  2
*D18
 10
166.8569658251
 20
209.6228242485
 30
0.0
 11
160.8569658251
 21
209.6228242485
 31
0.0
 70
   160
 71
     1
 42
12.0
  3
SLDDIMSTYLE0
100
AcDbAlignedDimension
 13
154.8569658251
 23
176.6203012048
 33
0.0
 14
166.8569658251
 24
188.1203012048
 34
0.0
100
AcDbRotatedDimension
1001
ACAD
1000
DSTYLE
1002
{
1070
    77
1070
     3
1070
   143
1040
0.0393700787
1070
    41
1040
3.0
1070
    44
1040
1.0
1070
    42
1040
1.0
1070
   147
1040
1.524
1070
    73
1070
     0
1070
    74
1070
     0
1070
   140
1040
3.5
1070
   284
1070
    12
1070
    78
1070
    12
1002
}
  0
MTEXT
  5
1BC
330
1F
100
AcDbEntity
  8
SLD-0
 62
     7
100
AcDbMText
 10
147.261850955
 20
29.8873499187
 30
0.0
 40
4.2333333333
 41
0.0
 71
     1
 72
     1
  1
N01862-213
  7
SLDTEXTSTYLE0
 73
     1
 44
1.0
  0
MTEXT
  5
1BE
330
1F
100
AcDbEntity
  8
SLD-0
 62
     7
100
AcDbMText
 10
143.0873466275
 20
43.4111635355
 30
0.0
 40
4.2333333333
 41
0.0
 71
     1
 72
     1
  1
12 Atach BKT M8
  7
SLDTEXTSTYLE2
 73
     1
 44
1.0
  0
MTEXT
  5
1BF
330
1F
100
AcDbEntity
  8
SLD-0
 62
     7
100
AcDbMText
 10
177.2762473572
 20
197.8408312614
 30
0.0
 40
3.5
 41
0.0
 71
     1
 72
     1
  1
M6
  7
SLDTEXTSTYLE0
 73
     1
 44
1.0
  0
MTEXT
  5
1C0
330
1F
100
AcDbEntity
  8
SLD-0
100
AcDbMText
 10
150.978210686
 20
18.6169588187
 30
0.0
 40
4.23333
 41
0.0
 71
     1
 72
     1
  1
131225
  7
SLDTEXTSTYLE1
 73
     1
 44
1.0
  0
INSERT
  5
1C1
330
1F
100
AcDbEntity
  8
0
  6
Continuous
 62
     7
370
     0
100
AcDbBlockReference
  2
SW_CENTERMARKSYMBOL_0
 10
86.4464457831
 20
154.1203012048
 30
0.0
  0
INSERT
  5
1C2
330
1F
100
AcDbEntity
  8
0
  6
Continuous
 62
     7
370
     0
100
AcDbBlockReference
  2
SW_CENTERMARKSYMBOL_1
 10
86.4464457831
 20
182.1203012048
 30
0.0
  0
INSERT
  5
1C3
330
1F
100
AcDbEntity
  8
0
  6
Continuous
 62
     7
370
     0
100
AcDbBlockReference
  2
SW_CHAMFER_DIMENSION_0_0
 10
0.0
 20
0.0
 30
0.0
  0
INSERT
  5
1C4
330
1F
100
AcDbEntity
  8
0
  6
Continuous
 62
     7
370
     0
100
AcDbBlockReference
  2
SW_CHAMFER_DIMENSION_1_1
 10
0.0
 20
0.0
 30
0.0
  0
INSERT
  5
1C5
330
1F
100
AcDbEntity
  8
0
  6
Continuous
 62
     7
370
     0
100
AcDbBlockReference
  2
SW_CENTERMARKSYMBOL_2
 10
154.8569658251
 20
168.1203012048
 30
0.0
  0
ENDSEC
  0
SECTION
  2
OBJECTS
  0
DICTIONARY
  5
C
330
0
100
AcDbDictionary
281
     1
  3
ACAD_GROUP
350
D
  3
ACAD_LAYOUT
350
1A
  3
ACAD_MLINESTYLE
350
17
  3
ACAD_PLOTSETTINGS
350
19
  3
ACAD_PLOTSTYLENAME
350
E
  0
DICTIONARY
  5
D
102
{ACAD_REACTORS
330
C
102
}
330
C
100
AcDbDictionary
281
     1
  0
DICTIONARY
  5
1A
102
{ACAD_REACTORS
330
C
102
}
330
C
100
AcDbDictionary
281
     1
  3
Layout1
350
1E
  3
Layout2
350
26
  3
Model
350
22
  0
DICTIONARY
  5
17
102
{ACAD_REACTORS
330
C
102
}
330
C
100
AcDbDictionary
281
     1
  3
Standard
350
18
  0
DICTIONARY
  5
19
102
{ACAD_REACTORS
330
C
102
}
330
C
100
AcDbDictionary
281
     1
  0
ACDBDICTIONARYWDFLT
  5
E
102
{ACAD_REACTORS
330
C
102
}
330
C
100
AcDbDictionary
281
     1
  3
Normal
350
F
100
AcDbDictionaryWithDefault
340
F
  0
LAYOUT
  5
1E
102
{ACAD_REACTORS
330
1A
102
}
330
1A
100
AcDbPlotSettings
  1

  2

  4

  6

 40
0.0
 41
0.0
 42
0.0
 43
0.0
 44
0.0
 45
0.0
 46
0.0
 47
0.0
 48
0.0
 49
0.0
140
0.0
141
0.0
142
1.0
143
1.0
 70
   688
 72
     0
 73
     0
 74
     5
  7

 75
    16
147
1.0
148
0.0
149
0.0
100
AcDbLayout
  1
Layout1
 70
     1
 71
     1
 10
0.0
 20
0.0
 11
0.0
 21
0.0
 12
0.0
 22
0.0
 32
0.0
 14
0.0
 24
0.0
 34
0.0
 15
0.0
 25
0.0
 35
0.0
146
0.0
 13
0.0
 23
0.0
 33
0.0
 16
1.0
 26
0.0
 36
0.0
 17
0.0
 27
1.0
 37
0.0
 76
     0
330
1B
  0
LAYOUT
  5
26
102
{ACAD_REACTORS
330
1A
102
}
330
1A
100
AcDbPlotSettings
  1

  2

  4

  6

 40
0.0
 41
0.0
 42
0.0
 43
0.0
 44
0.0
 45
0.0
 46
0.0
 47
0.0
 48
0.0
 49
0.0
140
0.0
141
0.0
142
1.0
143
1.0
 70
   688
 72
     0
 73
     0
 74
     5
  7

 75
    16
147
1.0
148
0.0
149
0.0
100
AcDbLayout
  1
Layout2
 70
     1
 71
     2
 10
0.0
 20
0.0
 11
0.0
 21
0.0
 12
0.0
 22
0.0
 32
0.0
 14
0.0
 24
0.0
 34
0.0
 15
0.0
 25
0.0
 35
0.0
146
0.0
 13
0.0
 23
0.0
 33
0.0
 16
1.0
 26
0.0
 36
0.0
 17
0.0
 27
1.0
 37
0.0
 76
     0
330
23
  0
LAYOUT
  5
22
102
{ACAD_REACTORS
330
1A
102
}
330
1A
100
AcDbPlotSettings
  1

  2

  4

  6

 40
0.0
 41
0.0
 42
0.0
 43
0.0
 44
0.0
 45
0.0
 46
0.0
 47
0.0
 48
0.0
 49
0.0
140
0.0
141
0.0
142
1.0
143
1.0
 70
  1712
 72
     0
 73
     0
 74
     0
  7

 75
     0
147
1.0
148
0.0
149
0.0
100
AcDbLayout
  1
Model
 70
     1
 71
     0
 10
0.0
 20
0.0
 11
0.0
 21
0.0
 12
0.0
 22
0.0
 32
0.0
 14
0.0
 24
0.0
 34
0.0
 15
210.0
 25
297.0
 35
0.0
146
0.0
 13
0.0
 23
0.0
 33
0.0
 16
1.0
 26
0.0
 36
0.0
 17
0.0
 27
1.0
 37
0.0
 76
     0
330
1F
  0
MLINESTYLE
  5
18
102
{ACAD_REACTORS
330
17
102
}
330
17
100
AcDbMlineStyle
  2
Standard
 70
     0
  3

 62
   256
 51
90.0
 52
90.0
 71
     2
 49
0.5
 62
   256
  6
BYLAYER
 49
-0.5
 62
   256
  6
BYLAYER
  0
ACDBPLACEHOLDER
  5
F
102
{ACAD_REACTORS
330
E
102
}
330
E
  0
ENDSEC
  0
EOF
