  0
SECTION
  2
HEADER
  9
$ACADVER
  1
AC1015
  9
$ACADMAINTVER
 70
     6
  9
$DWGCODEPAGE
  3
DOS932
  9
$INSBASE
 10
0.0
 20
0.0
 30
0.0
  9
$EXTMIN
 10
0.0
 20
0.0
 30
0.0
  9
$EXTMAX
 10
210.0
 20
297.0
 30
0.0
  9
$LIMMIN
 10
0.0
 20
0.0
  9
$LIMMAX
 10
0.0
 20
0.0
  9
$ORTHOMODE
 70
     0
  9
$REGENMODE
 70
     1
  9
$FILLMODE
 70
     1
  9
$QTEXTMODE
 70
     0
  9
$MIRRTEXT
 70
     1
  9
$LTSCALE
 40
1.0
  9
$ATTMODE
 70
     1
  9
$TEXTSIZE
 40
3.5
  9
$TRACEWID
 40
1.0
  9
$TEXTSTYLE
  7
Standard
  9
$CLAYER
  8
0
  9
$CELTYPE
  6
ByLayer
  9
$CECOLOR
 62
   256
  9
$CELTSCALE
 40
1.0
  9
$DISPSILH
 70
     0
  9
$DIMSCALE
 40
1.0
  9
$DIMASZ
 40
3.0
  9
$DIMEXO
 40
1.0
  9
$DIMDLI
 40
3.75
  9
$DIMRND
 40
0.0
  9
$DIMDLE
 40
0.0
  9
$DIMEXE
 40
1.0
  9
$DIMTP
 40
0.0
  9
$DIMTM
 40
0.0
  9
$DIMTXT
 40
3.5
  9
$DIMCEN
 40
2.5
  9
$DIMTSZ
 40
0.0
  9
$DIMTOL
 70
     0
  9
$DIMLIM
 70
     0
  9
$DIMTIH
 70
     1
  9
$DIMTOH
 70
     1
  9
$DIMSE1
 70
     0
  9
$DIMSE2
 70
     0
  9
$DIMTAD
 70
     1
  9
$DIMZIN
 70
     1
  9
$DIMBLK
  1

  9
$DIMASO
 70
     1
  9
$DIMSHO
 70
     1
  9
$DIMPOST
  1

  9
$DIMAPOST
  1

  9
$DIMALT
 70
     0
  9
$DIMALTD
 70
     3
  9
$DIMALTF
 40
0.0393700787
  9
$DIMLFAC
 40
1.0
  9
$DIMTOFL
 70
     1
  9
$DIMTVP
 40
0.0
  9
$DIMTIX
 70
     0
  9
$DIMSOXD
 70
     0
  9
$DIMSAH
 70
     0
  9
$DIMBLK1
  1

  9
$DIMBLK2
  1

  9
$DIMSTYLE
  2
ISO-25
  9
$DIMCLRD
 70
     0
  9
$DIMCLRE
 70
     0
  9
$DIMCLRT
 70
     0
  9
$DIMTFAC
 40
1.0
  9
$DIMGAP
 40
1.524
  9
$DIMJUST
 70
     0
  9
$DIMSD1
 70
     0
  9
$DIMSD2
 70
     0
  9
$DIMTOLJ
 70
     0
  9
$DIMTZIN
 70
     1
  9
$DIMALTZ
 70
     0
  9
$DIMALTTZ
 70
     0
  9
$DIMUPT
 70
     0
  9
$DIMDEC
 70
     2
  9
$DIMTDEC
 70
     2
  9
$DIMALTU
 70
     2
  9
$DIMALTTD
 70
     3
  9
$DIMTXSTY
  7
Standard
  9
$DIMAUNIT
 70
     0
  9
$DIMADEC
 70
     0
  9
$DIMALTRND
 40
0.0
  9
$DIMAZIN
 70
     0
  9
$DIMDSEP
 70
    44
  9
$DIMATFIT
 70
     3
  9
$DIMFRAC
 70
     0
  9
$DIMLDRBLK
  1

  9
$DIMLUNIT
 70
     2
  9
$DIMLWD
 70
    -2
  9
$DIMLWE
 70
    -2
  9
$DIMTMOVE
 70
     0
  9
$LUNITS
 70
     2
  9
$LUPREC
 70
     1
  9
$SKETCHINC
 40
1.0
  9
$FILLETRAD
 40
10.0
  9
$AUNITS
 70
     0
  9
$AUPREC
 70
     0
  9
$MENU
  1
.
  9
$ELEVATION
 40
0.0
  9
$PELEVATION
 40
0.0
  9
$THICKNESS
 40
0.0
  9
$LIMCHECK
 70
     0
  9
$CHAMFERA
 40
10.0
  9
$CHAMFERB
 40
10.0
  9
$CHAMFERC
 40
20.0
  9
$CHAMFERD
 40
0.0
  9
$SKPOLY
 70
     0
  9
$TDCREATE
 40
2454723.634557465
  9
$TDUCREATE
 40
2454723.259557465
  9
$TDUPDATE
 40
2454723.634557477
  9
$TDUUPDATE
 40
2454723.259557477
  9
$TDINDWG
 40
0.0000000116
  9
$TDUSRTIMER
 40
0.0000000116
  9
$USRTIMER
 70
     1
  9
$ANGBASE
 50
0.0
  9
$ANGDIR
 70
     0
  9
$PDMODE
 70
     0
  9
$PDSIZE
 40
-1.0
  9
$PLINEWID
 40
0.0
  9
$SPLFRAME
 70
     0
  9
$SPLINETYPE
 70
     6
  9
$SPLINESEGS
 70
     8
  9
$HANDSEED
  5
2E1
  9
$SURFTAB1
 70
     6
  9
$SURFTAB2
 70
     6
  9
$SURFTYPE
 70
     6
  9
$SURFU
 70
     6
  9
$SURFV
 70
     6
  9
$UCSBASE
  2

  9
$UCSNAME
  2

  9
$UCSORG
 10
0.0
 20
0.0
 30
0.0
  9
$UCSXDIR
 10
1.0
 20
0.0
 30
0.0
  9
$UCSYDIR
 10
0.0
 20
1.0
 30
0.0
  9
$UCSORTHOREF
  2

  9
$UCSORTHOVIEW
 70
     0
  9
$UCSORGTOP
 10
0.0
 20
0.0
 30
0.0
  9
$UCSORGBOTTOM
 10
0.0
 20
0.0
 30
0.0
  9
$UCSORGLEFT
 10
0.0
 20
0.0
 30
0.0
  9
$UCSORGRIGHT
 10
0.0
 20
0.0
 30
0.0
  9
$UCSORGFRONT
 10
0.0
 20
0.0
 30
0.0
  9
$UCSORGBACK
 10
0.0
 20
0.0
 30
0.0
  9
$PUCSBASE
  2

  9
$PUCSNAME
  2

  9
$PUCSORG
 10
0.0
 20
0.0
 30
0.0
  9
$PUCSXDIR
 10
1.0
 20
0.0
 30
0.0
  9
$PUCSYDIR
 10
0.0
 20
1.0
 30
0.0
  9
$PUCSORTHOREF
  2

  9
$PUCSORTHOVIEW
 70
     0
  9
$PUCSORGTOP
 10
0.0
 20
0.0
 30
0.0
  9
$PUCSORGBOTTOM
 10
0.0
 20
0.0
 30
0.0
  9
$PUCSORGLEFT
 10
0.0
 20
0.0
 30
0.0
  9
$PUCSORGRIGHT
 10
0.0
 20
0.0
 30
0.0
  9
$PUCSORGFRONT
 10
0.0
 20
0.0
 30
0.0
  9
$PUCSORGBACK
 10
0.0
 20
0.0
 30
0.0
  9
$USERI1
 70
     0
  9
$USERI2
 70
     0
  9
$USERI3
 70
     0
  9
$USERI4
 70
     0
  9
$USERI5
 70
     0
  9
$USERR1
 40
0.0
  9
$USERR2
 40
0.0
  9
$USERR3
 40
0.0
  9
$USERR4
 40
0.0
  9
$USERR5
 40
0.0
  9
$WORLDVIEW
 70
     1
  9
$SHADEDGE
 70
     3
  9
$SHADEDIF
 70
    70
  9
$TILEMODE
 70
     1
  9
$MAXACTVP
 70
    64
  9
$PINSBASE
 10
0.0
 20
0.0
 30
0.0
  9
$PLIMCHECK
 70
     0
  9
$PEXTMIN
 10
1.0000000000E+20
 20
1.0000000000E+20
 30
1.0000000000E+20
  9
$PEXTMAX
 10
-1.0000000000E+20
 20
-1.0000000000E+20
 30
-1.0000000000E+20
  9
$PLIMMIN
 10
0.0
 20
0.0
  9
$PLIMMAX
 10
420.0
 20
297.0
  9
$UNITMODE
 70
     0
  9
$VISRETAIN
 70
     1
  9
$PLINEGEN
 70
     0
  9
$PSLTSCALE
 70
     1
  9
$TREEDEPTH
 70
  3020
  9
$CMLSTYLE
  2
Standard
  9
$CMLJUST
 70
     0
  9
$CMLSCALE
 40
20.0
  9
$PROXYGRAPHICS
 70
     1
  9
$MEASUREMENT
 70
     1
  9
$CELWEIGHT
370
    -1
  9
$ENDCAPS
280
     0
  9
$JOINSTYLE
280
     0
  9
$LWDISPLAY
290
     1
  9
$INSUNITS
 70
     4
  9
$HYPERLINKBASE
  1

  9
$STYLESHEET
  1

  9
$XEDIT
290
     1
  9
$CEPSNTYPE
380
     0
  9
$PSTYLEMODE
290
     1
  9
$FINGERPRINTGUID
  2
{7F71D852-C38A-4B02-BB11-ED855E7AB86E}
  9
$VERSIONGUID
  2
{FAEB1C32-E019-11D5-929B-00C0DF256EC4}
  9
$EXTNAMES
290
     1
  9
$PSVPSCALE
 40
0.0
  9
$OLESTARTUP
290
     0
  0
ENDSEC
  0
SECTION
  2
CLASSES
  0
CLASS
  1
ACDBDICTIONARYWDFLT
  2
AcDbDictionaryWithDefault
  3
ObjectDBX Classes
 90
        0
280
     0
281
     0
  0
CLASS
  1
ACDBPLACEHOLDER
  2
AcDbPlaceHolder
  3
ObjectDBX Classes
 90
        0
280
     0
281
     0
  0
CLASS
  1
LAYOUT
  2
AcDbLayout
  3
ObjectDBX Classes
 90
        0
280
     0
281
     0
  0
ENDSEC
  0
SECTION
  2
TABLES
  0
TABLE
  2
VPORT
  5
8
330
0
100
AcDbSymbolTable
 70
     1
  0
VPORT
  5
29
330
8
100
AcDbSymbolTableRecord
100
AcDbViewportTableRecord
  2
*Active
 70
     0
 10
0.0
 20
0.0
 11
1.0
 21
1.0
 12
105.0
 22
148.5
 13
0.0
 23
0.0
 14
10.0
 24
10.0
 15
10.0
 25
10.0
 16
0.0
 26
0.0
 36
1.0
 17
0.0
 27
0.0
 37
0.0
 40
297.0
 41
1.9729729729
 42
50.0
 43
0.0
 44
0.0
 50
0.0
 51
0.0
 71
     0
 72
  2000
 73
     1
 74
     3
 75
     0
 76
     0
 77
     0
 78
     0
281
     0
 65
     1
110
0.0
120
0.0
130
0.0
111
1.0
121
0.0
131
0.0
112
0.0
122
1.0
132
0.0
 79
     0
146
0.0
  0
ENDTAB
  0
TABLE
  2
LTYPE
  5
5
330
0
100
AcDbSymbolTable
 70
     6
  0
LTYPE
  5
14
330
5
100
AcDbSymbolTableRecord
100
AcDbLinetypeTableRecord
  2
ByBlock
 70
     0
  3

 72
    65
 73
     0
 40
0.0
  0
LTYPE
  5
15
330
5
100
AcDbSymbolTableRecord
100
AcDbLinetypeTableRecord
  2
ByLayer
 70
     0
  3

 72
    65
 73
     0
 40
0.0
  0
LTYPE
  5
16
330
5
100
AcDbSymbolTableRecord
100
AcDbLinetypeTableRecord
  2
Continuous
 70
     0
  3
Solid line
 72
    65
 73
     0
 40
0.0
  0
LTYPE
  5
2A
330
5
100
AcDbSymbolTableRecord
100
AcDbLinetypeTableRecord
  2
HIDDEN
 70
     0
  3
Hidden __ __ __ __ __ __ __ __ __ __ __ __ __ __
 72
    65
 73
     2
 40
1.905
 49
1.27
 74
     0
 49
-0.635
 74
     0
  0
LTYPE
  5
2B
330
5
100
AcDbSymbolTableRecord
100
AcDbLinetypeTableRecord
  2
PHANTOM
 70
     0
  3
Phantom ______  __  __  ______  __  __  ______
 72
    65
 73
     6
 40
12.7
 49
6.35
 74
     0
 49
-1.27
 74
     0
 49
1.27
 74
     0
 49
-1.27
 74
     0
 49
1.27
 74
     0
 49
-1.27
 74
     0
  0
LTYPE
  5
2C
330
5
100
AcDbSymbolTableRecord
100
AcDbLinetypeTableRecord
  2
CENTER
 70
     0
  3
Center ____ _ ____ _ ____ _ ____ _ ____ _ ____
 72
    65
 73
     4
 40
10.16
 49
6.35
 74
     0
 49
-1.27
 74
     0
 49
1.27
 74
     0
 49
-1.27
 74
     0
  0
LTYPE
  5
2D
330
5
100
AcDbSymbolTableRecord
100
AcDbLinetypeTableRecord
  2
CENTERX2
 70
     0
  3
Center (2x) ________  __  ________  __  _____
 72
    65
 73
     4
 40
20.32
 49
12.7
 74
     0
 49
-2.54
 74
     0
 49
2.54
 74
     0
 49
-2.54
 74
     0
  0
LTYPE
  5
2E
330
5
100
AcDbSymbolTableRecord
100
AcDbLinetypeTableRecord
  2
DOT2
 70
     0
  3
Dot (.5x) ........................................
 72
    65
 73
     2
 40
0.635
 49
0.0
 74
     0
 49
-0.635
 74
     0
  0
ENDTAB
  0
TABLE
  2
LAYER
  5
2
330
0
100
AcDbSymbolTable
 70
     4
  0
LAYER
  5
10
330
2
100
AcDbSymbolTableRecord
100
AcDbLayerTableRecord
  2
0
 70
     0
 62
     7
  6
Continuous
370
    -3
390
F
  0
LAYER
  5
2F
330
2
100
AcDbSymbolTableRecord
100
AcDbLayerTableRecord
  2
SLD-0
 70
     0
 62
   179
  6
Continuous
370
     0
390
F
  0
LAYER
  5
30
330
2
100
AcDbSymbolTableRecord
100
AcDbLayerTableRecord
  2
SLD-DEFPOINTS
 70
     0
 62
   179
  6
Continuous
370
     0
390
F
  0
LAYER
  5
16C
330
2
100
AcDbSymbolTableRecord
100
AcDbLayerTableRecord
  2
Defpoints
 70
     0
 62
     7
  6
Continuous
290
     0
370
    -3
390
F
  0
ENDTAB
  0
TABLE
  2
STYLE
  5
3
330
0
100
AcDbSymbolTable
 70
     3
  0
STYLE
  5
11
330
3
100
AcDbSymbolTableRecord
100
AcDbTextStyleTableRecord
  2
Standard
 70
     0
 40
0.0
 41
1.0
 50
0.0
 71
     0
 42
2.5
  3
txt
  4
bigfont
  0
STYLE
  5
34
330
3
100
AcDbSymbolTableRecord
100
AcDbTextStyleTableRecord
  2
SLDTEXTSTYLE0
 70
     0
 40
0.0
 41
0.7
 50
0.0
 71
     0
 42
0.2
  3
TXT
  4
bigfont
  0
STYLE
  5
18A
330
3
100
AcDbSymbolTableRecord
100
AcDbTextStyleTableRecord
  2
SLDTEXTSTYLE1
 70
     0
 40
0.0
 41
0.96
 50
0.0
 71
     0
 42
0.2
  3
TXT
  4
bigfont
  0
ENDTAB
  0
TABLE
  2
VIEW
  5
6
330
0
100
AcDbSymbolTable
 70
     0
  0
ENDTAB
  0
TABLE
  2
UCS
  5
7
330
0
100
AcDbSymbolTable
 70
     0
  0
ENDTAB
  0
TABLE
  2
APPID
  5
9
330
0
100
AcDbSymbolTable
 70
     1
  0
APPID
  5
12
330
9
100
AcDbSymbolTableRecord
100
AcDbRegAppTableRecord
  2
ACAD
 70
     0
  0
ENDTAB
  0
TABLE
  2
DIMSTYLE
  5
A
330
0
100
AcDbSymbolTable
 70
     5
100
AcDbDimStyleTable
  0
DIMSTYLE
105
27
330
A
100
AcDbSymbolTableRecord
100
AcDbDimStyleTableRecord
  2
ISO-25
 70
     0
 41
2.5
 42
0.625
 43
3.75
 44
1.25
 73
     0
 74
     0
 77
     1
 78
     8
140
2.5
141
2.5
143
0.0393700787
147
0.625
171
     3
172
     1
271
     2
272
     2
274
     3
278
    44
283
     0
284
     8
340
11
  0
DIMSTYLE
105
17B
102
{ACAD_REACTORS
330
16B
330
18C
330
1A6
330
1C2
330
1DC
330
1F3
330
211
330
23E
330
273
330
29D
330
2BA
102
}
330
A
100
AcDbSymbolTableRecord
100
AcDbDimStyleTableRecord
  2
SLDDIMSTYLE0
 70
     0
 41
3.0
 44
0.0
 73
     0
 74
     0
 77
     3
 78
    12
140
3.5
147
0.875
173
     1
271
     0
272
     2
284
    12
340
34
341
17C
343
17C
344
17C
  0
DIMSTYLE
105
235
102
{ACAD_REACTORS
330
22B
102
}
330
A
100
AcDbSymbolTableRecord
100
AcDbDimStyleTableRecord
  2
SLDDIMSTYLE1
 70
     0
 41
3.0
 44
0.0
 78
    12
140
3.5
147
0.875
172
     1
173
     1
271
     1
272
     2
284
    12
340
34
341
17C
343
17C
344
17C
  0
DIMSTYLE
105
266
102
{ACAD_REACTORS
330
256
102
}
330
A
100
AcDbSymbolTableRecord
100
AcDbDimStyleTableRecord
  2
SLDDIMSTYLE2
 70
     0
 41
3.0
 44
0.0
 73
     0
 74
     0
 77
     3
 78
    12
140
3.5
147
0.875
173
     1
272
     2
284
    12
340
34
341
17C
343
17C
344
17C
  0
DIMSTYLE
105
294
102
{ACAD_REACTORS
330
28A
102
}
330
A
100
AcDbSymbolTableRecord
100
AcDbDimStyleTableRecord
  2
SLDDIMSTYLE3
 70
     0
 41
3.0
 44
0.0
 78
    12
140
3.5
147
0.875
173
     1
271
     1
272
     2
284
    12
340
34
341
17C
343
17C
344
17C
  0
ENDTAB
  0
TABLE
  2
BLOCK_RECORD
  5
1
330
0
100
AcDbSymbolTable
 70
    25
  0
BLOCK_RECORD
  5
1F
330
1
100
AcDbSymbolTableRecord
100
AcDbBlockTableRecord
  2
*Model_Space
340
22
  0
BLOCK_RECORD
  5
1B
330
1
100
AcDbSymbolTableRecord
100
AcDbBlockTableRecord
  2
*Paper_Space
340
1E
  0
BLOCK_RECORD
  5
23
330
1
100
AcDbSymbolTableRecord
100
AcDbBlockTableRecord
  2
*Paper_Space0
340
26
  0
BLOCK_RECORD
  5
31
330
1
100
AcDbSymbolTableRecord
100
AcDbBlockTableRecord
  2
注記
340
0
  0
BLOCK_RECORD
  5
37
330
1
100
AcDbSymbolTableRecord
100
AcDbBlockTableRecord
  2
SW_CENTERMARKSYMBOL_0
340
0
102
{BLKREFS
331
2D9
102
}
  0
BLOCK_RECORD
  5
42
330
1
100
AcDbSymbolTableRecord
100
AcDbBlockTableRecord
  2
SW_CENTERMARKSYMBOL_1
340
0
102
{BLKREFS
331
2DA
102
}
  0
BLOCK_RECORD
  5
4D
330
1
100
AcDbSymbolTableRecord
100
AcDbBlockTableRecord
  2
SW_CENTERMARKSYMBOL_2
340
0
102
{BLKREFS
331
2DB
102
}
  0
BLOCK_RECORD
  5
58
330
1
100
AcDbSymbolTableRecord
100
AcDbBlockTableRecord
  2
SW_CENTERMARKSYMBOL_3
340
0
102
{BLKREFS
331
2DC
102
}
  0
BLOCK_RECORD
  5
63
330
1
100
AcDbSymbolTableRecord
100
AcDbBlockTableRecord
  2
SW_CENTERMARKSYMBOL_4
340
0
102
{BLKREFS
331
2DD
102
}
  0
BLOCK_RECORD
  5
6E
330
1
100
AcDbSymbolTableRecord
100
AcDbBlockTableRecord
  2
SW_CENTERMARKSYMBOL_5
340
0
102
{BLKREFS
331
2DE
102
}
  0
BLOCK_RECORD
  5
79
330
1
100
AcDbSymbolTableRecord
100
AcDbBlockTableRecord
  2
SW_CENTERMARKSYMBOL_6
340
0
102
{BLKREFS
331
2DF
102
}
  0
BLOCK_RECORD
  5
84
330
1
100
AcDbSymbolTableRecord
100
AcDbBlockTableRecord
  2
SW_CENTERMARKSYMBOL_7
340
0
102
{BLKREFS
331
2E0
102
}
  0
BLOCK_RECORD
  5
16D
330
1
100
AcDbSymbolTableRecord
100
AcDbBlockTableRecord
  2
*D10
340
0
  0
BLOCK_RECORD
  5
17C
330
1
100
AcDbSymbolTableRecord
100
AcDbBlockTableRecord
  2
_None
340
0
102
{BLKREFS
331
173
331
172
331
192
331
191
331
1AD
331
1AC
331
1C8
331
1C7
331
1E2
331
1E1
331
1FA
331
1F9
331
217
331
216
331
230
331
244
331
243
331
25D
331
25C
331
279
331
278
331
28F
331
2A4
331
2A3
331
2C0
331
2BF
102
}
  0
BLOCK_RECORD
  5
18D
330
1
100
AcDbSymbolTableRecord
100
AcDbBlockTableRecord
  2
*D12
340
0
  0
BLOCK_RECORD
  5
1A7
330
1
100
AcDbSymbolTableRecord
100
AcDbBlockTableRecord
  2
*D13
340
0
  0
BLOCK_RECORD
  5
1C3
330
1
100
AcDbSymbolTableRecord
100
AcDbBlockTableRecord
  2
*D14
340
0
  0
BLOCK_RECORD
  5
1DD
330
1
100
AcDbSymbolTableRecord
100
AcDbBlockTableRecord
  2
*D15
340
0
  0
BLOCK_RECORD
  5
1F4
330
1
100
AcDbSymbolTableRecord
100
AcDbBlockTableRecord
  2
*D16
340
0
  0
BLOCK_RECORD
  5
212
330
1
100
AcDbSymbolTableRecord
100
AcDbBlockTableRecord
  2
*D17
340
0
  0
BLOCK_RECORD
  5
22C
330
1
100
AcDbSymbolTableRecord
100
AcDbBlockTableRecord
  2
*D18
340
0
  0
BLOCK_RECORD
  5
23F
330
1
100
AcDbSymbolTableRecord
100
AcDbBlockTableRecord
  2
*D19
340
0
  0
BLOCK_RECORD
  5
257
330
1
100
AcDbSymbolTableRecord
100
AcDbBlockTableRecord
  2
*D20
340
0
  0
BLOCK_RECORD
  5
274
330
1
100
AcDbSymbolTableRecord
100
AcDbBlockTableRecord
  2
*D21
340
0
  0
BLOCK_RECORD
  5
28B
330
1
100
AcDbSymbolTableRecord
100
AcDbBlockTableRecord
  2
*D22
340
0
  0
BLOCK_RECORD
  5
29E
330
1
100
AcDbSymbolTableRecord
100
AcDbBlockTableRecord
  2
*D23
340
0
  0
BLOCK_RECORD
  5
2BB
330
1
100
AcDbSymbolTableRecord
100
AcDbBlockTableRecord
  2
*D24
340
0
  0
ENDTAB
  0
ENDSEC
  0
SECTION
  2
BLOCKS
  0
BLOCK
  5
20
330
1F
100
AcDbEntity
  8
0
100
AcDbBlockBegin
  2
*Model_Space
 70
     0
 71
     0
 10
0.0
 20
0.0
 30
0.0
  3
*Model_Space
  1

  0
ENDBLK
  5
21
330
1F
100
AcDbEntity
  8
0
100
AcDbBlockEnd
  0
BLOCK
  5
1C
330
1B
100
AcDbEntity
 67
     1
  8
0
100
AcDbBlockBegin
  2
*Paper_Space
 70
     0
 71
     0
 10
0.0
 20
0.0
 30
0.0
  3
*Paper_Space
  1

  0
ENDBLK
  5
1D
330
1B
100
AcDbEntity
 67
     1
  8
0
100
AcDbBlockEnd
  0
BLOCK
  5
24
330
23
100
AcDbEntity
  8
0
100
AcDbBlockBegin
  2
*Paper_Space0
 70
     0
 71
     0
 10
0.0
 20
0.0
 30
0.0
  3
*Paper_Space0
  1

  0
ENDBLK
  5
25
330
23
100
AcDbEntity
  8
0
100
AcDbBlockEnd
  0
BLOCK
  5
32
330
31
100
AcDbEntity
  8
0
100
AcDbBlockBegin
  2
注記
 70
     0
 71
     0
 10
0.0
 20
0.0
 30
0.0
  3
注記
  1

  0
MTEXT
  5
35
330
31
100
AcDbEntity
  8
0
  6
Continuous
 62
     7
370
     0
100
AcDbMText
 10
0.2636785918
 20
9.0739778448
 30
0.0
 40
3.5
 41
0.0
 71
     1
 72
     1
  1
１．特記ナキ角部ハ、バリ　カエリノ無キコト。
  7
SLDTEXTSTYLE0
 73
     1
 44
1.0
  0
MTEXT
  5
36
330
31
100
AcDbEntity
  8
0
  6
Continuous
 62
     7
370
     0
100
AcDbMText
 10
0.2636785918
 20
3.5759549983
 30
0.0
 40
3.5
 41
0.0
 71
     1
 72
     1
  1
２．特記ナキ隅部ハ、Ｒ０．４ＭＡＸトスル。
  7
SLDTEXTSTYLE0
 73
     1
 44
1.0
  0
ENDBLK
  5
33
330
31
100
AcDbEntity
  8
0
100
AcDbBlockEnd
  0
BLOCK
  5
38
330
37
100
AcDbEntity
  8
0
100
AcDbBlockBegin
  2
SW_CENTERMARKSYMBOL_0
 70
     0
 71
     0
 10
0.0
 20
0.0
 30
0.0
  3
SW_CENTERMARKSYMBOL_0
  1

  0
LINE
  5
3A
330
37
100
AcDbEntity
  8
SLD-0
  6
Continuous
 62
   179
370
     0
100
AcDbLine
 10
0.0
 20
0.0
 30
0.0
 11
0.0
 21
2.5
 31
0.0
  0
LINE
  5
3B
330
37
100
AcDbEntity
  8
SLD-0
  6
Continuous
 62
   179
370
     0
100
AcDbLine
 10
0.0
 20
0.0
 30
0.0
 11
-2.5
 21
0.0
 31
0.0
  0
LINE
  5
3C
330
37
100
AcDbEntity
  8
SLD-0
  6
Continuous
 62
   179
370
     0
100
AcDbLine
 10
0.0
 20
0.0
 30
0.0
 11
0.0
 21
-2.5
 31
0.0
  0
LINE
  5
3D
330
37
100
AcDbEntity
  8
SLD-0
  6
Continuous
 62
   179
370
     0
100
AcDbLine
 10
0.0
 20
0.0
 30
0.0
 11
2.5
 21
0.0
 31
0.0
  0
LINE
  5
3E
330
37
100
AcDbEntity
  8
SLD-0
  6
Continuous
 62
   179
370
     0
100
AcDbLine
 10
0.0
 20
2.5
 30
0.0
 11
0.0
 21
4.75
 31
0.0
  0
LINE
  5
3F
330
37
100
AcDbEntity
  8
SLD-0
  6
Continuous
 62
   179
370
     0
100
AcDbLine
 10
-2.5
 20
0.0
 30
0.0
 11
-4.75
 21
0.0
 31
0.0
  0
LINE
  5
40
330
37
100
AcDbEntity
  8
SLD-0
  6
Continuous
 62
   179
370
     0
100
AcDbLine
 10
0.0
 20
-2.5
 30
0.0
 11
0.0
 21
-4.75
 31
0.0
  0
LINE
  5
41
330
37
100
AcDbEntity
  8
SLD-0
  6
Continuous
 62
   179
370
     0
100
AcDbLine
 10
2.5
 20
0.0
 30
0.0
 11
4.75
 21
0.0
 31
0.0
  0
ENDBLK
  5
39
330
37
100
AcDbEntity
  8
0
100
AcDbBlockEnd
  0
BLOCK
  5
43
330
42
100
AcDbEntity
  8
0
100
AcDbBlockBegin
  2
SW_CENTERMARKSYMBOL_1
 70
     0
 71
     0
 10
0.0
 20
0.0
 30
0.0
  3
SW_CENTERMARKSYMBOL_1
  1

  0
LINE
  5
45
330
42
100
AcDbEntity
  8
SLD-0
  6
Continuous
 62
   179
370
     0
100
AcDbLine
 10
0.0
 20
0.0
 30
0.0
 11
0.0
 21
2.5
 31
0.0
  0
LINE
  5
46
330
42
100
AcDbEntity
  8
SLD-0
  6
Continuous
 62
   179
370
     0
100
AcDbLine
 10
0.0
 20
0.0
 30
0.0
 11
-2.5
 21
0.0
 31
0.0
  0
LINE
  5
47
330
42
100
AcDbEntity
  8
SLD-0
  6
Continuous
 62
   179
370
     0
100
AcDbLine
 10
0.0
 20
0.0
 30
0.0
 11
0.0
 21
-2.5
 31
0.0
  0
LINE
  5
48
330
42
100
AcDbEntity
  8
SLD-0
  6
Continuous
 62
   179
370
     0
100
AcDbLine
 10
0.0
 20
0.0
 30
0.0
 11
2.5
 21
0.0
 31
0.0
  0
LINE
  5
49
330
42
100
AcDbEntity
  8
SLD-0
  6
Continuous
 62
   179
370
     0
100
AcDbLine
 10
0.0
 20
2.5
 30
0.0
 11
0.0
 21
4.75
 31
0.0
  0
LINE
  5
4A
330
42
100
AcDbEntity
  8
SLD-0
  6
Continuous
 62
   179
370
     0
100
AcDbLine
 10
-2.5
 20
0.0
 30
0.0
 11
-4.75
 21
0.0
 31
0.0
  0
LINE
  5
4B
330
42
100
AcDbEntity
  8
SLD-0
  6
Continuous
 62
   179
370
     0
100
AcDbLine
 10
0.0
 20
-2.5
 30
0.0
 11
0.0
 21
-4.75
 31
0.0
  0
LINE
  5
4C
330
42
100
AcDbEntity
  8
SLD-0
  6
Continuous
 62
   179
370
     0
100
AcDbLine
 10
2.5
 20
0.0
 30
0.0
 11
4.75
 21
0.0
 31
0.0
  0
ENDBLK
  5
44
330
42
100
AcDbEntity
  8
0
100
AcDbBlockEnd
  0
BLOCK
  5
4E
330
4D
100
AcDbEntity
  8
0
100
AcDbBlockBegin
  2
SW_CENTERMARKSYMBOL_2
 70
     0
 71
     0
 10
0.0
 20
0.0
 30
0.0
  3
SW_CENTERMARKSYMBOL_2
  1

  0
LINE
  5
50
330
4D
100
AcDbEntity
  8
SLD-0
  6
Continuous
 62
   179
370
     0
100
AcDbLine
 10
0.0
 20
0.0
 30
0.0
 11
0.0
 21
2.5
 31
0.0
  0
LINE
  5
51
330
4D
100
AcDbEntity
  8
SLD-0
  6
Continuous
 62
   179
370
     0
100
AcDbLine
 10
0.0
 20
0.0
 30
0.0
 11
-2.5
 21
0.0
 31
0.0
  0
LINE
  5
52
330
4D
100
AcDbEntity
  8
SLD-0
  6
Continuous
 62
   179
370
     0
100
AcDbLine
 10
0.0
 20
0.0
 30
0.0
 11
0.0
 21
-2.5
 31
0.0
  0
LINE
  5
53
330
4D
100
AcDbEntity
  8
SLD-0
  6
Continuous
 62
   179
370
     0
100
AcDbLine
 10
0.0
 20
0.0
 30
0.0
 11
2.5
 21
0.0
 31
0.0
  0
LINE
  5
54
330
4D
100
AcDbEntity
  8
SLD-0
  6
Continuous
 62
   179
370
     0
100
AcDbLine
 10
0.0
 20
2.5
 30
0.0
 11
0.0
 21
4.75
 31
0.0
  0
LINE
  5
55
330
4D
100
AcDbEntity
  8
SLD-0
  6
Continuous
 62
   179
370
     0
100
AcDbLine
 10
-2.5
 20
0.0
 30
0.0
 11
-4.75
 21
0.0
 31
0.0
  0
LINE
  5
56
330
4D
100
AcDbEntity
  8
SLD-0
  6
Continuous
 62
   179
370
     0
100
AcDbLine
 10
0.0
 20
-2.5
 30
0.0
 11
0.0
 21
-4.75
 31
0.0
  0
LINE
  5
57
330
4D
100
AcDbEntity
  8
SLD-0
  6
Continuous
 62
   179
370
     0
100
AcDbLine
 10
2.5
 20
0.0
 30
0.0
 11
4.75
 21
0.0
 31
0.0
  0
ENDBLK
  5
4F
330
4D
100
AcDbEntity
  8
0
100
AcDbBlockEnd
  0
BLOCK
  5
59
330
58
100
AcDbEntity
  8
0
100
AcDbBlockBegin
  2
SW_CENTERMARKSYMBOL_3
 70
     0
 71
     0
 10
0.0
 20
0.0
 30
0.0
  3
SW_CENTERMARKSYMBOL_3
  1

  0
LINE
  5
5B
330
58
100
AcDbEntity
  8
SLD-0
  6
Continuous
 62
   179
370
     0
100
AcDbLine
 10
0.0
 20
0.0
 30
0.0
 11
0.0
 21
2.5
 31
0.0
  0
LINE
  5
5C
330
58
100
AcDbEntity
  8
SLD-0
  6
Continuous
 62
   179
370
     0
100
AcDbLine
 10
0.0
 20
0.0
 30
0.0
 11
-2.5
 21
0.0
 31
0.0
  0
LINE
  5
5D
330
58
100
AcDbEntity
  8
SLD-0
  6
Continuous
 62
   179
370
     0
100
AcDbLine
 10
0.0
 20
0.0
 30
0.0
 11
0.0
 21
-2.5
 31
0.0
  0
LINE
  5
5E
330
58
100
AcDbEntity
  8
SLD-0
  6
Continuous
 62
   179
370
     0
100
AcDbLine
 10
0.0
 20
0.0
 30
0.0
 11
2.5
 21
0.0
 31
0.0
  0
LINE
  5
5F
330
58
100
AcDbEntity
  8
SLD-0
  6
Continuous
 62
   179
370
     0
100
AcDbLine
 10
0.0
 20
2.5
 30
0.0
 11
0.0
 21
4.75
 31
0.0
  0
LINE
  5
60
330
58
100
AcDbEntity
  8
SLD-0
  6
Continuous
 62
   179
370
     0
100
AcDbLine
 10
-2.5
 20
0.0
 30
0.0
 11
-4.75
 21
0.0
 31
0.0
  0
LINE
  5
61
330
58
100
AcDbEntity
  8
SLD-0
  6
Continuous
 62
   179
370
     0
100
AcDbLine
 10
0.0
 20
-2.5
 30
0.0
 11
0.0
 21
-4.75
 31
0.0
  0
LINE
  5
62
330
58
100
AcDbEntity
  8
SLD-0
  6
Continuous
 62
   179
370
     0
100
AcDbLine
 10
2.5
 20
0.0
 30
0.0
 11
4.75
 21
0.0
 31
0.0
  0
ENDBLK
  5
5A
330
58
100
AcDbEntity
  8
0
100
AcDbBlockEnd
  0
BLOCK
  5
64
330
63
100
AcDbEntity
  8
0
100
AcDbBlockBegin
  2
SW_CENTERMARKSYMBOL_4
 70
     0
 71
     0
 10
0.0
 20
0.0
 30
0.0
  3
SW_CENTERMARKSYMBOL_4
  1

  0
LINE
  5
66
330
63
100
AcDbEntity
  8
SLD-0
  6
Continuous
 62
   179
370
     0
100
AcDbLine
 10
0.0
 20
0.0
 30
0.0
 11
0.0
 21
2.5
 31
0.0
  0
LINE
  5
67
330
63
100
AcDbEntity
  8
SLD-0
  6
Continuous
 62
   179
370
     0
100
AcDbLine
 10
0.0
 20
0.0
 30
0.0
 11
-2.5
 21
0.0
 31
0.0
  0
LINE
  5
68
330
63
100
AcDbEntity
  8
SLD-0
  6
Continuous
 62
   179
370
     0
100
AcDbLine
 10
0.0
 20
0.0
 30
0.0
 11
0.0
 21
-2.5
 31
0.0
  0
LINE
  5
69
330
63
100
AcDbEntity
  8
SLD-0
  6
Continuous
 62
   179
370
     0
100
AcDbLine
 10
0.0
 20
0.0
 30
0.0
 11
2.5
 21
0.0
 31
0.0
  0
LINE
  5
6A
330
63
100
AcDbEntity
  8
SLD-0
  6
Continuous
 62
   179
370
     0
100
AcDbLine
 10
0.0
 20
2.5
 30
0.0
 11
0.0
 21
4.75
 31
0.0
  0
LINE
  5
6B
330
63
100
AcDbEntity
  8
SLD-0
  6
Continuous
 62
   179
370
     0
100
AcDbLine
 10
-2.5
 20
0.0
 30
0.0
 11
-4.75
 21
0.0
 31
0.0
  0
LINE
  5
6C
330
63
100
AcDbEntity
  8
SLD-0
  6
Continuous
 62
   179
370
     0
100
AcDbLine
 10
0.0
 20
-2.5
 30
0.0
 11
0.0
 21
-4.75
 31
0.0
  0
LINE
  5
6D
330
63
100
AcDbEntity
  8
SLD-0
  6
Continuous
 62
   179
370
     0
100
AcDbLine
 10
2.5
 20
0.0
 30
0.0
 11
4.75
 21
0.0
 31
0.0
  0
ENDBLK
  5
65
330
63
100
AcDbEntity
  8
0
100
AcDbBlockEnd
  0
BLOCK
  5
6F
330
6E
100
AcDbEntity
  8
0
100
AcDbBlockBegin
  2
SW_CENTERMARKSYMBOL_5
 70
     0
 71
     0
 10
0.0
 20
0.0
 30
0.0
  3
SW_CENTERMARKSYMBOL_5
  1

  0
LINE
  5
71
330
6E
100
AcDbEntity
  8
SLD-0
  6
Continuous
 62
   179
370
     0
100
AcDbLine
 10
0.0
 20
0.0
 30
0.0
 11
0.0
 21
2.5
 31
0.0
  0
LINE
  5
72
330
6E
100
AcDbEntity
  8
SLD-0
  6
Continuous
 62
   179
370
     0
100
AcDbLine
 10
0.0
 20
0.0
 30
0.0
 11
-2.5
 21
0.0
 31
0.0
  0
LINE
  5
73
330
6E
100
AcDbEntity
  8
SLD-0
  6
Continuous
 62
   179
370
     0
100
AcDbLine
 10
0.0
 20
0.0
 30
0.0
 11
0.0
 21
-2.5
 31
0.0
  0
LINE
  5
74
330
6E
100
AcDbEntity
  8
SLD-0
  6
Continuous
 62
   179
370
     0
100
AcDbLine
 10
0.0
 20
0.0
 30
0.0
 11
2.5
 21
0.0
 31
0.0
  0
LINE
  5
75
330
6E
100
AcDbEntity
  8
SLD-0
  6
Continuous
 62
   179
370
     0
100
AcDbLine
 10
0.0
 20
2.5
 30
0.0
 11
0.0
 21
4.75
 31
0.0
  0
LINE
  5
76
330
6E
100
AcDbEntity
  8
SLD-0
  6
Continuous
 62
   179
370
     0
100
AcDbLine
 10
-2.5
 20
0.0
 30
0.0
 11
-4.75
 21
0.0
 31
0.0
  0
LINE
  5
77
330
6E
100
AcDbEntity
  8
SLD-0
  6
Continuous
 62
   179
370
     0
100
AcDbLine
 10
0.0
 20
-2.5
 30
0.0
 11
0.0
 21
-4.75
 31
0.0
  0
LINE
  5
78
330
6E
100
AcDbEntity
  8
SLD-0
  6
Continuous
 62
   179
370
     0
100
AcDbLine
 10
2.5
 20
0.0
 30
0.0
 11
4.75
 21
0.0
 31
0.0
  0
ENDBLK
  5
70
330
6E
100
AcDbEntity
  8
0
100
AcDbBlockEnd
  0
BLOCK
  5
7A
330
79
100
AcDbEntity
  8
0
100
AcDbBlockBegin
  2
SW_CENTERMARKSYMBOL_6
 70
     0
 71
     0
 10
0.0
 20
0.0
 30
0.0
  3
SW_CENTERMARKSYMBOL_6
  1

  0
LINE
  5
7C
330
79
100
AcDbEntity
  8
SLD-0
  6
Continuous
 62
   179
370
     0
100
AcDbLine
 10
0.0
 20
0.0
 30
0.0
 11
0.0
 21
2.5
 31
0.0
  0
LINE
  5
7D
330
79
100
AcDbEntity
  8
SLD-0
  6
Continuous
 62
   179
370
     0
100
AcDbLine
 10
0.0
 20
0.0
 30
0.0
 11
-2.5
 21
0.0
 31
0.0
  0
LINE
  5
7E
330
79
100
AcDbEntity
  8
SLD-0
  6
Continuous
 62
   179
370
     0
100
AcDbLine
 10
0.0
 20
0.0
 30
0.0
 11
0.0
 21
-2.5
 31
0.0
  0
LINE
  5
7F
330
79
100
AcDbEntity
  8
SLD-0
  6
Continuous
 62
   179
370
     0
100
AcDbLine
 10
0.0
 20
0.0
 30
0.0
 11
2.5
 21
0.0
 31
0.0
  0
LINE
  5
80
330
79
100
AcDbEntity
  8
SLD-0
  6
Continuous
 62
   179
370
     0
100
AcDbLine
 10
0.0
 20
2.5
 30
0.0
 11
0.0
 21
4.75
 31
0.0
  0
LINE
  5
81
330
79
100
AcDbEntity
  8
SLD-0
  6
Continuous
 62
   179
370
     0
100
AcDbLine
 10
-2.5
 20
0.0
 30
0.0
 11
-4.75
 21
0.0
 31
0.0
  0
LINE
  5
82
330
79
100
AcDbEntity
  8
SLD-0
  6
Continuous
 62
   179
370
     0
100
AcDbLine
 10
0.0
 20
-2.5
 30
0.0
 11
0.0
 21
-4.75
 31
0.0
  0
LINE
  5
83
330
79
100
AcDbEntity
  8
SLD-0
  6
Continuous
 62
   179
370
     0
100
AcDbLine
 10
2.5
 20
0.0
 30
0.0
 11
4.75
 21
0.0
 31
0.0
  0
ENDBLK
  5
7B
330
79
100
AcDbEntity
  8
0
100
AcDbBlockEnd
  0
BLOCK
  5
85
330
84
100
AcDbEntity
  8
0
100
AcDbBlockBegin
  2
SW_CENTERMARKSYMBOL_7
 70
     0
 71
     0
 10
0.0
 20
0.0
 30
0.0
  3
SW_CENTERMARKSYMBOL_7
  1

  0
LINE
  5
87
330
84
100
AcDbEntity
  8
SLD-0
  6
Continuous
 62
   179
370
     0
100
AcDbLine
 10
0.0
 20
0.0
 30
0.0
 11
0.0
 21
2.5
 31
0.0
  0
LINE
  5
88
330
84
100
AcDbEntity
  8
SLD-0
  6
Continuous
 62
   179
370
     0
100
AcDbLine
 10
0.0
 20
0.0
 30
0.0
 11
-2.5
 21
0.0
 31
0.0
  0
LINE
  5
89
330
84
100
AcDbEntity
  8
SLD-0
  6
Continuous
 62
   179
370
     0
100
AcDbLine
 10
0.0
 20
0.0
 30
0.0
 11
0.0
 21
-2.5
 31
0.0
  0
LINE
  5
8A
330
84
100
AcDbEntity
  8
SLD-0
  6
Continuous
 62
   179
370
     0
100
AcDbLine
 10
0.0
 20
0.0
 30
0.0
 11
2.5
 21
0.0
 31
0.0
  0
LINE
  5
8B
330
84
100
AcDbEntity
  8
SLD-0
  6
Continuous
 62
   179
370
     0
100
AcDbLine
 10
0.0
 20
2.5
 30
0.0
 11
0.0
 21
4.75
 31
0.0
  0
LINE
  5
8C
330
84
100
AcDbEntity
  8
SLD-0
  6
Continuous
 62
   179
370
     0
100
AcDbLine
 10
-2.5
 20
0.0
 30
0.0
 11
-4.75
 21
0.0
 31
0.0
  0
LINE
  5
8D
330
84
100
AcDbEntity
  8
SLD-0
  6
Continuous
 62
   179
370
     0
100
AcDbLine
 10
0.0
 20
-2.5
 30
0.0
 11
0.0
 21
-4.75
 31
0.0
  0
LINE
  5
8E
330
84
100
AcDbEntity
  8
SLD-0
  6
Continuous
 62
   179
370
     0
100
AcDbLine
 10
2.5
 20
0.0
 30
0.0
 11
4.75
 21
0.0
 31
0.0
  0
ENDBLK
  5
86
330
84
100
AcDbEntity
  8
0
100
AcDbBlockEnd
  0
BLOCK
  5
179
330
16D
100
AcDbEntity
  8
0
100
AcDbBlockBegin
  2
*D10
 70
     1
 71
     0
 10
0.0
 20
0.0
 30
0.0
  3
*D10
  1

  0
ARC
  5
17F
330
16D
100
AcDbEntity
  8
SLD-0
 62
     7
100
AcDbCircle
 10
60.276768092
 20
167.2932378006
 30
0.0
 40
0.75
100
AcDbArc
 50
90.0
 51
270.0
  0
ARC
  5
180
330
16D
100
AcDbEntity
  8
SLD-0
 62
     7
100
AcDbCircle
 10
60.276768092
 20
167.2932378006
 30
0.0
 40
0.75
100
AcDbArc
 50
270.0
 51
90.0
  0
LINE
  5
181
330
16D
100
AcDbEntity
  8
SLD-0
 62
     7
100
AcDbLine
 10
60.276768092
 20
168.7932378006
 30
0.0
 11
60.276768092
 21
170.2932378006
 31
0.0
  0
LINE
  5
182
330
16D
100
AcDbEntity
  8
SLD-0
 62
     7
100
AcDbLine
 10
59.472921092
 20
159.2932378006
 30
0.0
 11
60.276768092
 21
162.2932378006
 31
0.0
  0
LINE
  5
183
330
16D
100
AcDbEntity
  8
SLD-0
 62
     7
100
AcDbLine
 10
60.276768092
 20
162.2932378006
 30
0.0
 11
61.080615092
 21
159.2932378006
 31
0.0
  0
LINE
  5
184
330
16D
100
AcDbEntity
  8
SLD-0
 62
     7
100
AcDbLine
 10
60.276768092
 20
162.2932378006
 30
0.0
 11
60.276768092
 21
159.2932378006
 31
0.0
  0
LINE
  5
185
330
16D
100
AcDbEntity
  8
SLD-0
 62
     7
100
AcDbLine
 10
67.970464998
 20
167.2932378006
 30
0.0
 11
59.276768092
 21
167.2932378006
 31
0.0
  0
LINE
  5
186
330
16D
100
AcDbEntity
  8
SLD-0
 62
     7
100
AcDbLine
 10
70.720464998
 20
162.2932378006
 30
0.0
 11
59.276768092
 21
162.2932378006
 31
0.0
  0
LINE
  5
187
330
16D
100
AcDbEntity
  8
SLD-0
 62
     7
100
AcDbLine
 10
60.276768092
 20
167.2932378006
 30
0.0
 11
60.276768092
 21
173.2932378006
 31
0.0
  0
LINE
  5
188
330
16D
100
AcDbEntity
  8
SLD-0
 62
     7
100
AcDbLine
 10
60.276768092
 20
167.2932378006
 30
0.0
 11
60.276768092
 21
162.2932378006
 31
0.0
  0
LINE
  5
189
330
16D
100
AcDbEntity
  8
SLD-0
 62
     7
100
AcDbLine
 10
60.276768092
 20
162.2932378006
 30
0.0
 11
60.276768092
 21
153.319149543
 31
0.0
  0
MTEXT
  5
18B
330
16D
100
AcDbEntity
  8
SLD-0
 62
     7
100
AcDbMText
 10
56.2040410521
 20
154.906649543
 30
0.1
 40
3.5
 41
0.0
 71
     1
 72
     1
  1
5
  7
SLDTEXTSTYLE1
 11
-7.044197039909883E-15
 21
1.0
 31
0.0
 73
     1
 44
1.0
  0
ENDBLK
  5
17A
330
16D
100
AcDbEntity
  8
0
100
AcDbBlockEnd
  0
BLOCK
  5
17D
330
17C
100
AcDbEntity
  8
0
100
AcDbBlockBegin
  2
_None
 70
     0
 71
     0
 10
0.0
 20
0.0
 30
0.0
  3
_None
  1

  0
ENDBLK
  5
17E
330
17C
100
AcDbEntity
  8
0
100
AcDbBlockEnd
  0
BLOCK
  5
198
330
18D
100
AcDbEntity
  8
0
100
AcDbBlockBegin
  2
*D12
 70
     1
 71
     0
 10
0.0
 20
0.0
 30
0.0
  3
*D12
  1

  0
ARC
  5
19A
330
18D
100
AcDbEntity
  8
SLD-0
 62
     7
100
AcDbCircle
 10
60.276768092
 20
167.2932378006
 30
0.0
 40
0.75
100
AcDbArc
 50
270.0
 51
90.0
  0
ARC
  5
19B
330
18D
100
AcDbEntity
  8
SLD-0
 62
     7
100
AcDbCircle
 10
60.276768092
 20
167.2932378006
 30
0.0
 40
0.75
100
AcDbArc
 50
90.0
 51
270.0
  0
LINE
  5
19C
330
18D
100
AcDbEntity
  8
SLD-0
 62
     7
100
AcDbLine
 10
60.276768092
 20
165.7932378006
 30
0.0
 11
60.276768092
 21
164.2932378006
 31
0.0
  0
LINE
  5
19D
330
18D
100
AcDbEntity
  8
SLD-0
 62
     7
100
AcDbLine
 10
61.080615092
 20
186.2932378006
 30
0.0
 11
60.276768092
 21
183.2932378006
 31
0.0
  0
LINE
  5
19E
330
18D
100
AcDbEntity
  8
SLD-0
 62
     7
100
AcDbLine
 10
60.276768092
 20
183.2932378006
 30
0.0
 11
59.472921092
 21
186.2932378006
 31
0.0
  0
LINE
  5
19F
330
18D
100
AcDbEntity
  8
SLD-0
 62
     7
100
AcDbLine
 10
60.276768092
 20
183.2932378006
 30
0.0
 11
60.276768092
 21
186.2932378006
 31
0.0
  0
LINE
  5
1A0
330
18D
100
AcDbEntity
  8
SLD-0
 62
     7
100
AcDbLine
 10
67.970464998
 20
167.2932378006
 30
0.0
 11
59.276768092
 21
167.2932378006
 31
0.0
  0
LINE
  5
1A1
330
18D
100
AcDbEntity
  8
SLD-0
 62
     7
100
AcDbLine
 10
67.970464998
 20
183.2932378006
 30
0.0
 11
59.276768092
 21
183.2932378006
 31
0.0
  0
LINE
  5
1A2
330
18D
100
AcDbEntity
  8
SLD-0
 62
     7
100
AcDbLine
 10
60.276768092
 20
167.2932378006
 30
0.0
 11
60.276768092
 21
161.2932378006
 31
0.0
  0
LINE
  5
1A3
330
18D
100
AcDbEntity
  8
SLD-0
 62
     7
100
AcDbLine
 10
60.276768092
 20
167.2932378006
 30
0.0
 11
60.276768092
 21
183.2932378006
 31
0.0
  0
LINE
  5
1A4
330
18D
100
AcDbEntity
  8
SLD-0
 62
     7
100
AcDbLine
 10
60.276768092
 20
183.2932378006
 30
0.0
 11
60.276768092
 21
189.2932378006
 31
0.0
  0
MTEXT
  5
1A5
330
18D
100
AcDbEntity
  8
SLD-0
 62
     7
100
AcDbMText
 10
56.2040410521
 20
172.6436404756
 30
0.1
 40
3.5
 41
0.0
 71
     1
 72
     1
  1
16
  7
SLDTEXTSTYLE1
 11
6.123031769111886E-17
 21
1.0
 31
0.0
 73
     1
 44
1.0
  0
ENDBLK
  5
199
330
18D
100
AcDbEntity
  8
0
100
AcDbBlockEnd
  0
BLOCK
  5
1B4
330
1A7
100
AcDbEntity
  8
0
100
AcDbBlockBegin
  2
*D13
 70
     1
 71
     0
 10
0.0
 20
0.0
 30
0.0
  3
*D13
  1

  0
LINE
  5
1B6
330
1A7
100
AcDbEntity
  8
SLD-0
 62
     7
100
AcDbLine
 10
66.720464998
 20
141.4113981474
 30
0.0
 11
69.720464998
 21
140.6075511474
 31
0.0
  0
LINE
  5
1B7
330
1A7
100
AcDbEntity
  8
SLD-0
 62
     7
100
AcDbLine
 10
69.720464998
 20
140.6075511474
 30
0.0
 11
66.720464998
 21
139.8037041474
 31
0.0
  0
LINE
  5
1B8
330
1A7
100
AcDbEntity
  8
SLD-0
 62
     7
100
AcDbLine
 10
69.720464998
 20
140.6075511474
 30
0.0
 11
66.720464998
 21
140.6075511474
 31
0.0
  0
LINE
  5
1B9
330
1A7
100
AcDbEntity
  8
SLD-0
 62
     7
100
AcDbLine
 10
76.720464998
 20
139.8037041474
 30
0.0
 11
73.720464998
 21
140.6075511474
 31
0.0
  0
LINE
  5
1BA
330
1A7
100
AcDbEntity
  8
SLD-0
 62
     7
100
AcDbLine
 10
73.720464998
 20
140.6075511474
 30
0.0
 11
76.720464998
 21
141.4113981474
 31
0.0
  0
LINE
  5
1BB
330
1A7
100
AcDbEntity
  8
SLD-0
 62
     7
100
AcDbLine
 10
73.720464998
 20
140.6075511474
 30
0.0
 11
76.720464998
 21
140.6075511474
 31
0.0
  0
LINE
  5
1BC
330
1A7
100
AcDbEntity
  8
SLD-0
 62
     7
100
AcDbLine
 10
69.720464998
 20
163.2932378006
 30
0.0
 11
69.720464998
 21
139.6075511474
 31
0.0
  0
LINE
  5
1BD
330
1A7
100
AcDbEntity
  8
SLD-0
 62
     7
100
AcDbLine
 10
73.720464998
 20
161.5432378006
 30
0.0
 11
73.720464998
 21
139.6075511474
 31
0.0
  0
LINE
  5
1BE
330
1A7
100
AcDbEntity
  8
SLD-0
 62
     7
100
AcDbLine
 10
69.720464998
 20
140.6075511474
 30
0.0
 11
57.7876508351
 21
140.6075511474
 31
0.0
  0
LINE
  5
1BF
330
1A7
100
AcDbEntity
  8
SLD-0
 62
     7
100
AcDbLine
 10
69.720464998
 20
140.6075511474
 30
0.0
 11
73.720464998
 21
140.6075511474
 31
0.0
  0
LINE
  5
1C0
330
1A7
100
AcDbEntity
  8
SLD-0
 62
     7
100
AcDbLine
 10
73.720464998
 20
140.6075511474
 30
0.0
 11
79.720464998
 21
140.6075511474
 31
0.0
  0
MTEXT
  5
1C1
330
1A7
100
AcDbEntity
  8
SLD-0
 62
     7
100
AcDbMText
 10
59.3751508351
 20
144.6802781873
 30
0.1
 40
3.5
 41
0.0
 71
     1
 72
     1
  1
4
  7
SLDTEXTSTYLE1
 73
     1
 44
1.0
  0
ENDBLK
  5
1B5
330
1A7
100
AcDbEntity
  8
0
100
AcDbBlockEnd
  0
BLOCK
  5
1CE
330
1C3
100
AcDbEntity
  8
0
100
AcDbBlockBegin
  2
*D14
 70
     1
 71
     0
 10
0.0
 20
0.0
 30
0.0
  3
*D14
  1

  0
LINE
  5
1D0
330
1C3
100
AcDbEntity
  8
SLD-0
 62
     7
100
AcDbLine
 10
70.720464998
 20
152.3759222077
 30
0.0
 11
73.720464998
 21
151.5720752077
 31
0.0
  0
LINE
  5
1D1
330
1C3
100
AcDbEntity
  8
SLD-0
 62
     7
100
AcDbLine
 10
73.720464998
 20
151.5720752077
 30
0.0
 11
70.720464998
 21
150.7682282077
 31
0.0
  0
LINE
  5
1D2
330
1C3
100
AcDbEntity
  8
SLD-0
 62
     7
100
AcDbLine
 10
73.720464998
 20
151.5720752077
 30
0.0
 11
70.720464998
 21
151.5720752077
 31
0.0
  0
LINE
  5
1D3
330
1C3
100
AcDbEntity
  8
SLD-0
 62
     7
100
AcDbLine
 10
84.720464998
 20
150.7682282077
 30
0.0
 11
81.720464998
 21
151.5720752077
 31
0.0
  0
LINE
  5
1D4
330
1C3
100
AcDbEntity
  8
SLD-0
 62
     7
100
AcDbLine
 10
81.720464998
 20
151.5720752077
 30
0.0
 11
84.720464998
 21
152.3759222077
 31
0.0
  0
LINE
  5
1D5
330
1C3
100
AcDbEntity
  8
SLD-0
 62
     7
100
AcDbLine
 10
81.720464998
 20
151.5720752077
 30
0.0
 11
84.720464998
 21
151.5720752077
 31
0.0
  0
LINE
  5
1D6
330
1C3
100
AcDbEntity
  8
SLD-0
 62
     7
100
AcDbLine
 10
73.720464998
 20
161.5432378006
 30
0.0
 11
73.720464998
 21
150.5720752077
 31
0.0
  0
LINE
  5
1D7
330
1C3
100
AcDbEntity
  8
SLD-0
 62
     7
100
AcDbLine
 10
81.720464998
 20
161.5432378006
 30
0.0
 11
81.720464998
 21
150.5720752077
 31
0.0
  0
LINE
  5
1D8
330
1C3
100
AcDbEntity
  8
SLD-0
 62
     7
100
AcDbLine
 10
73.720464998
 20
151.5720752077
 30
0.0
 11
67.720464998
 21
151.5720752077
 31
0.0
  0
LINE
  5
1D9
330
1C3
100
AcDbEntity
  8
SLD-0
 62
     7
100
AcDbLine
 10
73.720464998
 20
151.5720752077
 30
0.0
 11
81.720464998
 21
151.5720752077
 31
0.0
  0
LINE
  5
1DA
330
1C3
100
AcDbEntity
  8
SLD-0
 62
     7
100
AcDbLine
 10
81.720464998
 20
151.5720752077
 30
0.0
 11
87.720464998
 21
151.5720752077
 31
0.0
  0
MTEXT
  5
1DB
330
1C3
100
AcDbEntity
  8
SLD-0
 62
     7
100
AcDbMText
 10
77.8525881293
 20
155.6448022476
 30
0.1
 40
3.5
 41
0.0
 71
     1
 72
     1
  1
8
  7
SLDTEXTSTYLE1
 73
     1
 44
1.0
  0
ENDBLK
  5
1CF
330
1C3
100
AcDbEntity
  8
0
100
AcDbBlockEnd
  0
BLOCK
  5
1E7
330
1DD
100
AcDbEntity
  8
0
100
AcDbBlockBegin
  2
*D15
 70
     1
 71
     0
 10
0.0
 20
0.0
 30
0.0
  3
*D15
  1

  0
LINE
  5
1E9
330
1DD
100
AcDbEntity
  8
SLD-0
 62
     7
100
AcDbLine
 10
76.720464998
 20
139.8037041474
 30
0.0
 11
73.720464998
 21
140.6075511474
 31
0.0
  0
LINE
  5
1EA
330
1DD
100
AcDbEntity
  8
SLD-0
 62
     7
100
AcDbLine
 10
73.720464998
 20
140.6075511474
 30
0.0
 11
76.720464998
 21
141.4113981474
 31
0.0
  0
LINE
  5
1EB
330
1DD
100
AcDbEntity
  8
SLD-0
 62
     7
100
AcDbLine
 10
73.720464998
 20
140.6075511474
 30
0.0
 11
76.720464998
 21
140.6075511474
 31
0.0
  0
LINE
  5
1EC
330
1DD
100
AcDbEntity
  8
SLD-0
 62
     7
100
AcDbLine
 10
102.720464998
 20
141.4113981474
 30
0.0
 11
105.720464998
 21
140.6075511474
 31
0.0
  0
LINE
  5
1ED
330
1DD
100
AcDbEntity
  8
SLD-0
 62
     7
100
AcDbLine
 10
105.720464998
 20
140.6075511474
 30
0.0
 11
102.720464998
 21
139.8037041474
 31
0.0
  0
LINE
  5
1EE
330
1DD
100
AcDbEntity
  8
SLD-0
 62
     7
100
AcDbLine
 10
105.720464998
 20
140.6075511474
 30
0.0
 11
102.720464998
 21
140.6075511474
 31
0.0
  0
LINE
  5
1EF
330
1DD
100
AcDbEntity
  8
SLD-0
 62
     7
100
AcDbLine
 10
73.720464998
 20
161.5432378006
 30
0.0
 11
73.720464998
 21
139.6075511474
 31
0.0
  0
LINE
  5
1F0
330
1DD
100
AcDbEntity
  8
SLD-0
 62
     7
100
AcDbLine
 10
105.720464998
 20
161.5432378006
 30
0.0
 11
105.720464998
 21
139.6075511474
 31
0.0
  0
LINE
  5
1F1
330
1DD
100
AcDbEntity
  8
SLD-0
 62
     7
100
AcDbLine
 10
73.720464998
 20
140.6075511474
 30
0.0
 11
105.720464998
 21
140.6075511474
 31
0.0
  0
MTEXT
  5
1F2
330
1DD
100
AcDbEntity
  8
SLD-0
 62
     7
100
AcDbMText
 10
86.4483757339
 20
144.6802781873
 30
0.1
 40
3.5
 41
0.0
 71
     1
 72
     1
  1
32
  7
SLDTEXTSTYLE1
 73
     1
 44
1.0
  0
ENDBLK
  5
1E8
330
1DD
100
AcDbEntity
  8
0
100
AcDbBlockEnd
  0
BLOCK
  5
201
330
1F4
100
AcDbEntity
  8
0
100
AcDbBlockBegin
  2
*D16
 70
     1
 71
     0
 10
0.0
 20
0.0
 30
0.0
  3
*D16
  1

  0
ARC
  5
203
330
1F4
100
AcDbEntity
  8
SLD-0
 62
     7
100
AcDbCircle
 10
118.1138779063
 20
142.6440974455
 30
0.0
 40
4.553855961931681
100
AcDbArc
 50
153.4349488229
 51
206.5650511771
  0
ARC
  5
204
330
1F4
100
AcDbEntity
  8
SLD-0
 62
     7
100
AcDbCircle
 10
115.1792390119
 20
142.6440974455
 30
0.0
 40
4.553855961931681
100
AcDbArc
 50
333.4349488229
 51
26.5650511771
  0
LINE
  5
205
330
1F4
100
AcDbEntity
  8
SLD-0
 62
     7
100
AcDbLine
 10
102.720464998
 20
141.4113981474
 30
0.0
 11
105.720464998
 21
140.6075511474
 31
0.0
  0
LINE
  5
206
330
1F4
100
AcDbEntity
  8
SLD-0
 62
     7
100
AcDbLine
 10
105.720464998
 20
140.6075511474
 30
0.0
 11
102.720464998
 21
139.8037041474
 31
0.0
  0
LINE
  5
207
330
1F4
100
AcDbEntity
  8
SLD-0
 62
     7
100
AcDbLine
 10
105.720464998
 20
140.6075511474
 30
0.0
 11
102.720464998
 21
140.6075511474
 31
0.0
  0
LINE
  5
208
330
1F4
100
AcDbEntity
  8
SLD-0
 62
     7
100
AcDbLine
 10
112.720464998
 20
139.8037041474
 30
0.0
 11
109.720464998
 21
140.6075511474
 31
0.0
  0
LINE
  5
209
330
1F4
100
AcDbEntity
  8
SLD-0
 62
     7
100
AcDbLine
 10
109.720464998
 20
140.6075511474
 30
0.0
 11
112.720464998
 21
141.4113981474
 31
0.0
  0
LINE
  5
20A
330
1F4
100
AcDbEntity
  8
SLD-0
 62
     7
100
AcDbLine
 10
109.720464998
 20
140.6075511474
 30
0.0
 11
112.720464998
 21
140.6075511474
 31
0.0
  0
LINE
  5
20B
330
1F4
100
AcDbEntity
  8
SLD-0
 62
     7
100
AcDbLine
 10
105.720464998
 20
161.5432378006
 30
0.0
 11
105.720464998
 21
139.6075511474
 31
0.0
  0
LINE
  5
20C
330
1F4
100
AcDbEntity
  8
SLD-0
 62
     7
100
AcDbLine
 10
109.720464998
 20
163.2932378006
 30
0.0
 11
109.720464998
 21
139.6075511474
 31
0.0
  0
LINE
  5
20D
330
1F4
100
AcDbEntity
  8
SLD-0
 62
     7
100
AcDbLine
 10
105.720464998
 20
140.6075511474
 30
0.0
 11
99.720464998
 21
140.6075511474
 31
0.0
  0
LINE
  5
20E
330
1F4
100
AcDbEntity
  8
SLD-0
 62
     7
100
AcDbLine
 10
105.720464998
 20
140.6075511474
 30
0.0
 11
109.720464998
 21
140.6075511474
 31
0.0
  0
LINE
  5
20F
330
1F4
100
AcDbEntity
  8
SLD-0
 62
     7
100
AcDbLine
 10
109.720464998
 20
140.6075511474
 30
0.0
 11
120.8398316082
 21
140.6075511474
 31
0.0
  0
MTEXT
  5
210
330
1F4
100
AcDbEntity
  8
SLD-0
 62
     7
100
AcDbMText
 10
115.6282853101
 20
144.6802781873
 30
0.1
 40
3.5
 41
0.0
 71
     1
 72
     1
  1
4
  7
SLDTEXTSTYLE1
 73
     1
 44
1.0
  0
ENDBLK
  5
202
330
1F4
100
AcDbEntity
  8
0
100
AcDbBlockEnd
  0
BLOCK
  5
21D
330
212
100
AcDbEntity
  8
0
100
AcDbBlockBegin
  2
*D17
 70
     1
 71
     0
 10
0.0
 20
0.0
 30
0.0
  3
*D17
  1

  0
LINE
  5
21F
330
212
100
AcDbEntity
  8
SLD-0
 62
     7
100
AcDbLine
 10
94.720464998
 20
152.3759222077
 30
0.0
 11
97.720464998
 21
151.5720752077
 31
0.0
  0
LINE
  5
220
330
212
100
AcDbEntity
  8
SLD-0
 62
     7
100
AcDbLine
 10
97.720464998
 20
151.5720752077
 30
0.0
 11
94.720464998
 21
150.7682282077
 31
0.0
  0
LINE
  5
221
330
212
100
AcDbEntity
  8
SLD-0
 62
     7
100
AcDbLine
 10
97.720464998
 20
151.5720752077
 30
0.0
 11
94.720464998
 21
151.5720752077
 31
0.0
  0
LINE
  5
222
330
212
100
AcDbEntity
  8
SLD-0
 62
     7
100
AcDbLine
 10
108.720464998
 20
150.7682282077
 30
0.0
 11
105.720464998
 21
151.5720752077
 31
0.0
  0
LINE
  5
223
330
212
100
AcDbEntity
  8
SLD-0
 62
     7
100
AcDbLine
 10
105.720464998
 20
151.5720752077
 30
0.0
 11
108.720464998
 21
152.3759222077
 31
0.0
  0
LINE
  5
224
330
212
100
AcDbEntity
  8
SLD-0
 62
     7
100
AcDbLine
 10
105.720464998
 20
151.5720752077
 30
0.0
 11
108.720464998
 21
151.5720752077
 31
0.0
  0
LINE
  5
225
330
212
100
AcDbEntity
  8
SLD-0
 62
     7
100
AcDbLine
 10
97.720464998
 20
161.5432378006
 30
0.0
 11
97.720464998
 21
150.5720752077
 31
0.0
  0
LINE
  5
226
330
212
100
AcDbEntity
  8
SLD-0
 62
     7
100
AcDbLine
 10
105.720464998
 20
161.5432378006
 30
0.0
 11
105.720464998
 21
150.5720752077
 31
0.0
  0
LINE
  5
227
330
212
100
AcDbEntity
  8
SLD-0
 62
     7
100
AcDbLine
 10
97.720464998
 20
151.5720752077
 30
0.0
 11
91.720464998
 21
151.5720752077
 31
0.0
  0
LINE
  5
228
330
212
100
AcDbEntity
  8
SLD-0
 62
     7
100
AcDbLine
 10
97.720464998
 20
151.5720752077
 30
0.0
 11
105.720464998
 21
151.5720752077
 31
0.0
  0
LINE
  5
229
330
212
100
AcDbEntity
  8
SLD-0
 62
     7
100
AcDbLine
 10
105.720464998
 20
151.5720752077
 30
0.0
 11
111.720464998
 21
151.5720752077
 31
0.0
  0
MTEXT
  5
22A
330
212
100
AcDbEntity
  8
SLD-0
 62
     7
100
AcDbMText
 10
100.2129086784
 20
155.6448022476
 30
0.1
 40
3.5
 41
0.0
 71
     1
 72
     1
  1
8
  7
SLDTEXTSTYLE1
 73
     1
 44
1.0
  0
ENDBLK
  5
21E
330
212
100
AcDbEntity
  8
0
100
AcDbBlockEnd
  0
BLOCK
  5
233
330
22C
100
AcDbEntity
  8
0
100
AcDbBlockBegin
  2
*D18
 70
     1
 71
     0
 10
0.0
 20
0.0
 30
0.0
  3
*D18
  1

  0
LINE
  5
236
330
22C
100
AcDbEntity
  8
SLD-0
 62
     7
100
AcDbLine
 10
108.422756601
 20
162.7208981268
 30
0.0
 11
107.1452258252
 21
165.5518140769
 31
0.0
  0
LINE
  5
237
330
22C
100
AcDbEntity
  8
SLD-0
 62
     7
100
AcDbLine
 10
107.1452258252
 20
165.5518140769
 30
0.0
 11
109.6670572552
 21
163.7389334305
 31
0.0
  0
LINE
  5
238
330
22C
100
AcDbEntity
  8
SLD-0
 62
     7
100
AcDbLine
 10
107.1452258252
 20
165.5518140769
 30
0.0
 11
109.0449069281
 21
163.2299157787
 31
0.0
  0
LINE
  5
239
330
22C
100
AcDbEntity
  8
SLD-0
 62
     7
100
AcDbLine
 10
107.1452258252
 20
165.5518140769
 30
0.0
 11
114.6852474873
 21
156.3359707234
 31
0.0
  0
LINE
  5
23A
330
22C
100
AcDbEntity
  8
SLD-0
 62
     7
100
AcDbLine
 10
114.6852474873
 20
156.3359707234
 30
0.0
 11
133.5002159967
 21
156.3359707234
 31
0.0
  0
MTEXT
  5
23B
330
22C
100
AcDbEntity
  8
SLD-0
 62
     7
100
AcDbMText
 10
117.8602474873
 20
160.4086977633
 30
0.1
 40
3.5
 41
0.0
 71
     1
 72
     1
  1
8-
  7
SLDTEXTSTYLE1
 73
     1
 44
1.0
  0
MTEXT
  5
23C
330
22C
100
AcDbEntity
  8
SLD-0
 62
     7
100
AcDbMText
 10
120.1838584822
 20
160.4086977633
 30
0.1
 40
3.5
 41
0.0
 71
     1
 72
     1
  1
%%c
  7
SLDTEXTSTYLE1
 73
     1
 44
1.0
  0
MTEXT
  5
23D
330
22C
100
AcDbEntity
  8
SLD-0
 62
     7
100
AcDbMText
 10
125.8030771023
 20
160.4086977633
 30
0.1
 40
3.5
 41
0.0
 71
     1
 72
     1
  1
4.5
  7
SLDTEXTSTYLE1
 73
     1
 44
1.0
  0
ENDBLK
  5
234
330
22C
100
AcDbEntity
  8
0
100
AcDbBlockEnd
  0
BLOCK
  5
24A
330
23F
100
AcDbEntity
  8
0
100
AcDbBlockBegin
  2
*D19
 70
     1
 71
     0
 10
0.0
 20
0.0
 30
0.0
  3
*D19
  1

  0
LINE
  5
24C
330
23F
100
AcDbEntity
  8
SLD-0
 62
     7
100
AcDbLine
 10
51.6032355926
 20
189.2932378006
 30
0.0
 11
52.4070825926
 21
192.2932378006
 31
0.0
  0
LINE
  5
24D
330
23F
100
AcDbEntity
  8
SLD-0
 62
     7
100
AcDbLine
 10
52.4070825926
 20
192.2932378006
 30
0.0
 11
53.2109295926
 21
189.2932378006
 31
0.0
  0
LINE
  5
24E
330
23F
100
AcDbEntity
  8
SLD-0
 62
     7
100
AcDbLine
 10
52.4070825926
 20
192.2932378006
 30
0.0
 11
52.4070825926
 21
189.2932378006
 31
0.0
  0
LINE
  5
24F
330
23F
100
AcDbEntity
  8
SLD-0
 62
     7
100
AcDbLine
 10
53.2109295926
 20
165.2932378006
 30
0.0
 11
52.4070825926
 21
162.2932378006
 31
0.0
  0
LINE
  5
250
330
23F
100
AcDbEntity
  8
SLD-0
 62
     7
100
AcDbLine
 10
52.4070825926
 20
162.2932378006
 30
0.0
 11
51.6032355926
 21
165.2932378006
 31
0.0
  0
LINE
  5
251
330
23F
100
AcDbEntity
  8
SLD-0
 62
     7
100
AcDbLine
 10
52.4070825926
 20
162.2932378006
 30
0.0
 11
52.4070825926
 21
165.2932378006
 31
0.0
  0
LINE
  5
252
330
23F
100
AcDbEntity
  8
SLD-0
 62
     7
100
AcDbLine
 10
70.5684626908
 20
192.2932378006
 30
0.0
 11
51.4070825926
 21
192.2932378006
 31
0.0
  0
LINE
  5
253
330
23F
100
AcDbEntity
  8
SLD-0
 62
     7
100
AcDbLine
 10
70.720464998
 20
162.2932378006
 30
0.0
 11
51.4070825926
 21
162.2932378006
 31
0.0
  0
LINE
  5
254
330
23F
100
AcDbEntity
  8
SLD-0
 62
     7
100
AcDbLine
 10
52.4070825926
 20
192.2932378006
 30
0.0
 11
52.4070825926
 21
162.2932378006
 31
0.0
  0
MTEXT
  5
255
330
23F
100
AcDbEntity
  8
SLD-0
 62
     7
100
AcDbMText
 10
48.3343555527
 20
172.6436404756
 30
0.1
 40
3.5
 41
0.0
 71
     1
 72
     1
  1
30
  7
SLDTEXTSTYLE1
 11
-7.044197039909883E-15
 21
1.0
 31
0.0
 73
     1
 44
1.0
  0
ENDBLK
  5
24B
330
23F
100
AcDbEntity
  8
0
100
AcDbBlockEnd
  0
BLOCK
  5
264
330
257
100
AcDbEntity
  8
0
100
AcDbBlockBegin
  2
*D20
 70
     1
 71
     0
 10
0.0
 20
0.0
 30
0.0
  3
*D20
  1

  0
ARC
  5
267
330
257
100
AcDbEntity
  8
SLD-0
 62
     7
100
AcDbCircle
 10
73.7184626908
 20
192.2932378006
 30
0.0
 40
13.13503090045558
100
AcDbArc
 50
0.0
 51
45.0
  0
ARC
  5
268
330
257
100
AcDbEntity
  8
SLD-0
 62
     7
100
AcDbCircle
 10
73.7184626908
 20
192.2932378006
 30
0.0
 40
13.13503090045558
100
AcDbArc
 50
328.7767772663
 51
0.0
  0
ARC
  5
269
330
257
100
AcDbEntity
  8
SLD-0
 62
     7
100
AcDbCircle
 10
73.7184626908
 20
192.2932378006
 30
0.0
 40
13.13503090045561
100
AcDbArc
 50
45.0
 51
76.2232227337
  0
LINE
  5
26A
330
257
100
AcDbEntity
  8
SLD-0
 62
     7
100
AcDbLine
 10
85.7185968246
 20
189.402186205
 30
0.0
 11
86.8534935913
 21
192.2932378006
 31
0.0
  0
LINE
  5
26B
330
257
100
AcDbEntity
  8
SLD-0
 62
     7
100
AcDbLine
 10
86.8534935913
 20
192.2932378006
 30
0.0
 11
87.3161688556
 21
189.2220651257
 31
0.0
  0
LINE
  5
26C
330
257
100
AcDbEntity
  8
SLD-0
 62
     7
100
AcDbLine
 10
86.8534935913
 20
192.2932378006
 30
0.0
 11
86.5173828401
 21
189.3121256653
 31
0.0
  0
LINE
  5
26D
330
257
100
AcDbEntity
  8
SLD-0
 62
     7
100
AcDbLine
 10
81.1618459039
 20
204.0799150629
 30
0.0
 11
83.0063321116
 21
201.5811072214
 31
0.0
  0
LINE
  5
26E
330
257
100
AcDbEntity
  8
SLD-0
 62
     7
100
AcDbLine
 10
83.0063321116
 20
201.5811072214
 30
0.0
 11
80.1595567239
 21
202.8228962097
 31
0.0
  0
LINE
  5
26F
330
257
100
AcDbEntity
  8
SLD-0
 62
     7
100
AcDbLine
 10
83.0063321116
 20
201.5811072214
 30
0.0
 11
80.6607013139
 21
203.4514056363
 31
0.0
  0
LINE
  5
270
330
257
100
AcDbEntity
  8
SLD-0
 62
     7
100
AcDbLine
 10
76.8684626908
 20
192.2932378006
 30
0.0
 11
87.8534935913
 21
192.2932378006
 31
0.0
  0
LINE
  5
271
330
257
100
AcDbEntity
  8
SLD-0
 62
     7
100
AcDbLine
 10
74.425569472
 20
193.0003445818
 30
0.0
 11
83.7134388928
 21
202.2882140026
 31
0.0
  0
MTEXT
  5
272
330
257
100
AcDbEntity
  8
SLD-0
 62
     7
100
AcDbMText
 10
88.6703495677
 20
201.7345351401
 30
0.1
 40
3.5
 41
0.0
 71
     1
 72
     1
  1
45°
  7
SLDTEXTSTYLE1
 11
0.324797276982935
 21
-0.9457836585945385
 31
0.0
 73
     1
 44
1.0
  0
ENDBLK
  5
265
330
257
100
AcDbEntity
  8
0
100
AcDbBlockEnd
  0
BLOCK
  5
27E
330
274
100
AcDbEntity
  8
0
100
AcDbBlockBegin
  2
*D21
 70
     1
 71
     0
 10
0.0
 20
0.0
 30
0.0
  3
*D21
  1

  0
LINE
  5
280
330
274
100
AcDbEntity
  8
SLD-0
 62
     7
100
AcDbLine
 10
72.720464998
 20
131.6142017118
 30
0.0
 11
69.720464998
 21
132.4180487118
 31
0.0
  0
LINE
  5
281
330
274
100
AcDbEntity
  8
SLD-0
 62
     7
100
AcDbLine
 10
69.720464998
 20
132.4180487118
 30
0.0
 11
72.720464998
 21
133.2218957118
 31
0.0
  0
LINE
  5
282
330
274
100
AcDbEntity
  8
SLD-0
 62
     7
100
AcDbLine
 10
69.720464998
 20
132.4180487118
 30
0.0
 11
72.720464998
 21
132.4180487118
 31
0.0
  0
LINE
  5
283
330
274
100
AcDbEntity
  8
SLD-0
 62
     7
100
AcDbLine
 10
106.720464998
 20
133.2218957118
 30
0.0
 11
109.720464998
 21
132.4180487118
 31
0.0
  0
LINE
  5
284
330
274
100
AcDbEntity
  8
SLD-0
 62
     7
100
AcDbLine
 10
109.720464998
 20
132.4180487118
 30
0.0
 11
106.720464998
 21
131.6142017118
 31
0.0
  0
LINE
  5
285
330
274
100
AcDbEntity
  8
SLD-0
 62
     7
100
AcDbLine
 10
109.720464998
 20
132.4180487118
 30
0.0
 11
106.720464998
 21
132.4180487118
 31
0.0
  0
LINE
  5
286
330
274
100
AcDbEntity
  8
SLD-0
 62
     7
100
AcDbLine
 10
69.720464998
 20
163.2932378006
 30
0.0
 11
69.720464998
 21
131.4180487118
 31
0.0
  0
LINE
  5
287
330
274
100
AcDbEntity
  8
SLD-0
 62
     7
100
AcDbLine
 10
109.720464998
 20
163.2932378006
 30
0.0
 11
109.720464998
 21
131.4180487118
 31
0.0
  0
LINE
  5
288
330
274
100
AcDbEntity
  8
SLD-0
 62
     7
100
AcDbLine
 10
69.720464998
 20
132.4180487118
 30
0.0
 11
109.720464998
 21
132.4180487118
 31
0.0
  0
MTEXT
  5
289
330
274
100
AcDbEntity
  8
SLD-0
 62
     7
100
AcDbMText
 10
87.8235414012
 20
136.4907757517
 30
0.1
 40
3.5
 41
0.0
 71
     1
 72
     1
  1
40
  7
SLDTEXTSTYLE1
 73
     1
 44
1.0
  0
ENDBLK
  5
27F
330
274
100
AcDbEntity
  8
0
100
AcDbBlockEnd
  0
BLOCK
  5
292
330
28B
100
AcDbEntity
  8
0
100
AcDbBlockBegin
  2
*D22
 70
     1
 71
     0
 10
0.0
 20
0.0
 30
0.0
  3
*D22
  1

  0
ARC
  5
295
330
28B
100
AcDbEntity
  8
SLD-0
 62
     7
100
AcDbCircle
 10
163.5061171985
 20
187.7932378006
 30
0.0
 40
1.500000000000036
100
AcDbArc
 50
197.97916991
 51
326.309932474
  0
LINE
  5
296
330
28B
100
AcDbEntity
  8
SLD-0
 62
     7
100
AcDbLine
 10
160.0846433216
 20
184.7617882284
 30
0.0
 11
162.5758167557
 21
186.616572561
 31
0.0
  0
LINE
  5
297
330
28B
100
AcDbEntity
  8
SLD-0
 62
     7
100
AcDbLine
 10
162.5758167557
 20
186.616572561
 30
0.0
 11
161.3457884188
 21
183.764695935
 31
0.0
  0
LINE
  5
298
330
28B
100
AcDbEntity
  8
SLD-0
 62
     7
100
AcDbLine
 10
162.5758167557
 20
186.616572561
 30
0.0
 11
160.7152158702
 21
184.2632420817
 31
0.0
  0
LINE
  5
299
330
28B
100
AcDbEntity
  8
SLD-0
 62
     7
100
AcDbLine
 10
162.5758167557
 20
186.616572561
 30
0.0
 11
154.4892715032
 21
176.3885255022
 31
0.0
  0
LINE
  5
29A
330
28B
100
AcDbEntity
  8
SLD-0
 62
     7
100
AcDbLine
 10
163.5061171985
 20
187.7932378006
 30
0.0
 11
162.5758167557
 21
186.616572561
 31
0.0
  0
LINE
  5
29B
330
28B
100
AcDbEntity
  8
SLD-0
 62
     7
100
AcDbLine
 10
154.4892715032
 20
176.3885255022
 30
0.0
 11
135.4709474164
 21
176.3885255022
 31
0.0
  0
MTEXT
  5
29C
330
28B
100
AcDbEntity
  8
SLD-0
 62
     7
100
AcDbMText
 10
137.0584474164
 20
180.461252542
 30
0.1
 40
3.5
 41
0.0
 71
     1
 72
     1
  1
最小曲R
  7
SLDTEXTSTYLE1
 73
     1
 44
1.0
  0
ENDBLK
  5
293
330
28B
100
AcDbEntity
  8
0
100
AcDbBlockEnd
  0
BLOCK
  5
2AB
330
29E
100
AcDbEntity
  8
0
100
AcDbBlockBegin
  2
*D23
 70
     1
 71
     0
 10
0.0
 20
0.0
 30
0.0
  3
*D23
  1

  0
LINE
  5
2AD
330
29E
100
AcDbEntity
  8
SLD-0
 62
     7
100
AcDbLine
 10
162.0061171985
 20
151.4324165815
 30
0.0
 11
165.0061171985
 21
150.6285695815
 31
0.0
  0
LINE
  5
2AE
330
29E
100
AcDbEntity
  8
SLD-0
 62
     7
100
AcDbLine
 10
165.0061171985
 20
150.6285695815
 30
0.0
 11
162.0061171985
 21
149.8247225815
 31
0.0
  0
LINE
  5
2AF
330
29E
100
AcDbEntity
  8
SLD-0
 62
     7
100
AcDbLine
 10
165.0061171985
 20
150.6285695815
 30
0.0
 11
162.0061171985
 21
150.6285695815
 31
0.0
  0
LINE
  5
2B0
330
29E
100
AcDbEntity
  8
SLD-0
 62
     7
100
AcDbLine
 10
171.0061171985
 20
149.8247225815
 30
0.0
 11
168.0061171985
 21
150.6285695815
 31
0.0
  0
LINE
  5
2B1
330
29E
100
AcDbEntity
  8
SLD-0
 62
     7
100
AcDbLine
 10
168.0061171985
 20
150.6285695815
 30
0.0
 11
171.0061171985
 21
151.4324165815
 31
0.0
  0
LINE
  5
2B2
330
29E
100
AcDbEntity
  8
SLD-0
 62
     7
100
AcDbLine
 10
168.0061171985
 20
150.6285695815
 30
0.0
 11
171.0061171985
 21
150.6285695815
 31
0.0
  0
LINE
  5
2B3
330
29E
100
AcDbEntity
  8
SLD-0
 62
     7
100
AcDbLine
 10
165.0061171985
 20
161.2932378006
 30
0.0
 11
165.0061171985
 21
149.6285695815
 31
0.0
  0
LINE
  5
2B4
330
29E
100
AcDbEntity
  8
SLD-0
 62
     7
100
AcDbLine
 10
168.0061171985
 20
161.2932378006
 30
0.0
 11
168.0061171985
 21
149.6285695815
 31
0.0
  0
LINE
  5
2B5
330
29E
100
AcDbEntity
  8
SLD-0
 62
     7
100
AcDbLine
 10
165.0061171985
 20
150.6285695815
 30
0.0
 11
159.0061171985
 21
150.6285695815
 31
0.0
  0
LINE
  5
2B6
330
29E
100
AcDbEntity
  8
SLD-0
 62
     7
100
AcDbLine
 10
165.0061171985
 20
150.6285695815
 30
0.0
 11
168.0061171985
 21
150.6285695815
 31
0.0
  0
LINE
  5
2B7
330
29E
100
AcDbEntity
  8
SLD-0
 62
     7
100
AcDbLine
 10
168.0061171985
 20
150.6285695815
 30
0.0
 11
179.3563179766
 21
150.6285695815
 31
0.0
  0
MTEXT
  5
2B8
330
29E
100
AcDbEntity
  8
SLD-0
 62
     7
100
AcDbMText
 10
173.6957253803
 20
154.7012966214
 30
0.1
 40
3.5
 41
0.0
 71
     1
 72
     1
  1
t
  7
SLDTEXTSTYLE1
 73
     1
 44
1.0
  0
MTEXT
  5
2B9
330
29E
100
AcDbEntity
  8
SLD-0
 62
     7
100
AcDbMText
 10
175.7322716784
 20
154.7012966214
 30
0.1
 40
3.5
 41
0.0
 71
     1
 72
     1
  1
3
  7
SLDTEXTSTYLE1
 73
     1
 44
1.0
  0
ENDBLK
  5
2AC
330
29E
100
AcDbEntity
  8
0
100
AcDbBlockEnd
  0
BLOCK
  5
2C5
330
2BB
100
AcDbEntity
  8
0
100
AcDbBlockBegin
  2
*D24
 70
     1
 71
     0
 10
0.0
 20
0.0
 30
0.0
  3
*D24
  1

  0
LINE
  5
2C7
330
2BB
100
AcDbEntity
  8
SLD-0
 62
     7
100
AcDbLine
 10
171.0061171985
 20
196.7494688541
 30
0.0
 11
168.0061171985
 21
197.5533158541
 31
0.0
  0
LINE
  5
2C8
330
2BB
100
AcDbEntity
  8
SLD-0
 62
     7
100
AcDbLine
 10
168.0061171985
 20
197.5533158541
 30
0.0
 11
171.0061171985
 21
198.3571628541
 31
0.0
  0
LINE
  5
2C9
330
2BB
100
AcDbEntity
  8
SLD-0
 62
     7
100
AcDbLine
 10
168.0061171985
 20
197.5533158541
 30
0.0
 11
171.0061171985
 21
197.5533158541
 31
0.0
  0
LINE
  5
2CA
330
2BB
100
AcDbEntity
  8
SLD-0
 62
     7
100
AcDbLine
 10
147.0061171985
 20
198.3571628541
 30
0.0
 11
150.0061171985
 21
197.5533158541
 31
0.0
  0
LINE
  5
2CB
330
2BB
100
AcDbEntity
  8
SLD-0
 62
     7
100
AcDbLine
 10
150.0061171985
 20
197.5533158541
 30
0.0
 11
147.0061171985
 21
196.7494688541
 31
0.0
  0
LINE
  5
2CC
330
2BB
100
AcDbEntity
  8
SLD-0
 62
     7
100
AcDbLine
 10
150.0061171985
 20
197.5533158541
 30
0.0
 11
147.0061171985
 21
197.5533158541
 31
0.0
  0
LINE
  5
2CD
330
2BB
100
AcDbEntity
  8
SLD-0
 62
     7
100
AcDbLine
 10
168.0061171985
 20
188.7932378006
 30
0.0
 11
168.0061171985
 21
198.5533158541
 31
0.0
  0
LINE
  5
2CE
330
2BB
100
AcDbEntity
  8
SLD-0
 62
     7
100
AcDbLine
 10
150.0061171985
 20
191.707451363
 30
0.0
 11
150.0061171985
 21
198.5533158541
 31
0.0
  0
LINE
  5
2CF
330
2BB
100
AcDbEntity
  8
SLD-0
 62
     7
100
AcDbLine
 10
168.0061171985
 20
197.5533158541
 30
0.0
 11
174.0061171985
 21
197.5533158541
 31
0.0
  0
LINE
  5
2D0
330
2BB
100
AcDbEntity
  8
SLD-0
 62
     7
100
AcDbLine
 10
168.0061171985
 20
197.5533158541
 30
0.0
 11
150.0061171985
 21
197.5533158541
 31
0.0
  0
LINE
  5
2D1
330
2BB
100
AcDbEntity
  8
SLD-0
 62
     7
100
AcDbLine
 10
150.0061171985
 20
197.5533158541
 30
0.0
 11
144.0061171985
 21
197.5533158541
 31
0.0
  0
MTEXT
  5
2D2
330
2BB
100
AcDbEntity
  8
SLD-0
 62
     7
100
AcDbMText
 10
156.9961184904
 20
201.626042894
 30
0.1
 40
3.5
 41
0.0
 71
     1
 72
     1
  1
18
  7
SLDTEXTSTYLE1
 73
     1
 44
1.0
  0
ENDBLK
  5
2C6
330
2BB
100
AcDbEntity
  8
0
100
AcDbBlockEnd
  0
ENDSEC
  0
SECTION
  2
ENTITIES
  0
LINE
  5
8F
330
1F
100
AcDbEntity
  8
SLD-0
  6
Continuous
 62
   179
370
     0
100
AcDbLine
 10
146.2939574258
 20
50.75
 30
0.0
 11
196.7604743903
 21
50.75
 31
0.0
  0
LINE
  5
90
330
1F
100
AcDbEntity
  8
SLD-0
  6
Continuous
 62
   179
370
     0
100
AcDbLine
 10
20.2604743903
 20
285.0
 30
0.0
 11
196.7604743903
 21
285.0
 31
0.0
  0
LINE
  5
91
330
1F
100
AcDbEntity
  8
SLD-0
  6
Continuous
 62
   179
370
     0
100
AcDbLine
 10
20.2604743903
 20
285.0
 30
0.0
 11
20.2604743903
 21
10.0
 31
0.0
  0
LINE
  5
92
330
1F
100
AcDbEntity
  8
SLD-0
  6
Continuous
 62
   179
370
     0
100
AcDbLine
 10
20.2604743903
 20
10.0
 30
0.0
 11
196.7604743903
 21
10.0
 31
0.0
  0
LINE
  5
93
330
1F
100
AcDbEntity
  8
SLD-0
  6
Continuous
 62
   179
370
     0
100
AcDbLine
 10
196.7604743903
 20
285.0
 30
0.0
 11
196.7604743903
 21
10.0
 31
0.0
  0
LINE
  5
94
330
1F
100
AcDbEntity
  8
SLD-0
  6
Continuous
 62
   179
370
     0
100
AcDbLine
 10
65.7604743903
 20
285.0
 30
0.0
 11
196.7604743903
 21
285.0
 31
0.0
  0
LINE
  5
95
330
1F
100
AcDbEntity
  8
SLD-0
  6
Continuous
 62
   179
370
     0
100
AcDbLine
 10
196.7604743903
 20
285.0
 30
0.0
 11
196.7604743903
 21
264.25
 31
0.0
  0
LINE
  5
96
330
1F
100
AcDbEntity
  8
SLD-0
  6
Continuous
 62
   179
370
     0
100
AcDbLine
 10
146.2939574258
 20
50.75
 30
0.0
 11
146.2939574258
 21
10.0
 31
0.0
  0
LINE
  5
97
330
1F
100
AcDbEntity
  8
SLD-0
  6
Continuous
 62
   179
370
     0
100
AcDbLine
 10
146.2939574258
 20
22.75
 30
0.0
 11
196.7604743903
 21
22.75
 31
0.0
  0
LINE
  5
98
330
1F
100
AcDbEntity
  8
SLD-0
  6
Continuous
 62
   179
370
     0
100
AcDbLine
 10
146.2939574258
 20
36.75
 30
0.0
 11
196.7604743903
 21
36.75
 31
0.0
  0
LINE
  5
99
330
1F
100
AcDbEntity
  8
SLD-0
  6
Continuous
 62
   179
370
    15
100
AcDbLine
 10
69.7204654451
 20
191.5059001547
 30
0.0
 11
70.5078018244
 21
192.2932374653
 31
0.0
  0
LINE
  5
9A
330
1F
100
AcDbEntity
  8
SLD-0
  6
Continuous
 62
   179
370
    15
100
AcDbLine
 10
69.7204654451
 20
191.5287715745
 30
0.0
 11
69.7204654451
 21
191.5059001547
 31
0.0
  0
LINE
  5
9B
330
1F
100
AcDbEntity
  8
SLD-0
  6
Continuous
 62
   179
370
    15
100
AcDbLine
 10
69.7204654451
 20
191.5287715745
 30
0.0
 11
70.4849304046
 21
192.2932374653
 31
0.0
  0
LINE
  5
9C
330
1F
100
AcDbEntity
  8
SLD-0
  6
Continuous
 62
   179
370
    15
100
AcDbLine
 10
70.5078018244
 20
192.2932374653
 30
0.0
 11
70.4849304046
 21
192.2932374653
 31
0.0
  0
LINE
  5
9D
330
1F
100
AcDbEntity
  8
SLD-0
  6
Continuous
 62
   179
370
    15
100
AcDbLine
 10
69.7204654451
 20
189.3559000817
 30
0.0
 11
72.6578028287
 21
192.2932374653
 31
0.0
  0
LINE
  5
9E
330
1F
100
AcDbEntity
  8
SLD-0
  6
Continuous
 62
   179
370
    15
100
AcDbLine
 10
69.7204654451
 20
189.3787715015
 30
0.0
 11
72.6349314089
 21
192.2932374653
 31
0.0
  0
LINE
  5
9F
330
1F
100
AcDbEntity
  8
SLD-0
  6
Continuous
 62
   179
370
    15
100
AcDbLine
 10
69.7204654451
 20
189.3787715015
 30
0.0
 11
69.7204654451
 21
189.3559000817
 31
0.0
  0
LINE
  5
A0
330
1F
100
AcDbEntity
  8
SLD-0
  6
Continuous
 62
   179
370
    15
100
AcDbLine
 10
72.6578028287
 20
192.2932374653
 30
0.0
 11
72.6349314089
 21
192.2932374653
 31
0.0
  0
LINE
  5
A1
330
1F
100
AcDbEntity
  8
SLD-0
  6
Continuous
 62
   179
370
    15
100
AcDbLine
 10
98.668462352
 20
189.2932379049
 30
0.0
 11
101.6684628437
 21
192.2932374653
 31
0.0
  0
LINE
  5
A2
330
1F
100
AcDbEntity
  8
SLD-0
  6
Continuous
 62
   179
370
    15
100
AcDbLine
 10
97.6078023548
 20
189.2932379049
 30
0.0
 11
98.668462352
 21
189.2932379049
 31
0.0
  0
LINE
  5
A3
330
1F
100
AcDbEntity
  8
SLD-0
  6
Continuous
 62
   179
370
    15
100
AcDbLine
 10
97.6078023548
 20
189.2932379049
 30
0.0
 11
100.6078028466
 21
192.2932374653
 31
0.0
  0
LINE
  5
A4
330
1F
100
AcDbEntity
  8
SLD-0
  6
Continuous
 62
   179
370
    15
100
AcDbLine
 10
101.6684628437
 20
192.2932374653
 30
0.0
 11
100.6078028466
 21
192.2932374653
 31
0.0
  0
LINE
  5
A5
330
1F
100
AcDbEntity
  8
SLD-0
  6
Continuous
 62
   179
370
    15
100
AcDbLine
 10
96.5184627446
 20
189.2932379049
 30
0.0
 11
99.5184627707
 21
192.2932374653
 31
0.0
  0
LINE
  5
A6
330
1F
100
AcDbEntity
  8
SLD-0
  6
Continuous
 62
   179
370
    15
100
AcDbLine
 10
95.4578027475
 20
189.2932379049
 30
0.0
 11
98.4578027736
 21
192.2932374653
 31
0.0
  0
LINE
  5
A7
330
1F
100
AcDbEntity
  8
SLD-0
  6
Continuous
 62
   179
370
    15
100
AcDbLine
 10
95.4578027475
 20
189.2932379049
 30
0.0
 11
96.5184627446
 21
189.2932379049
 31
0.0
  0
LINE
  5
A8
330
1F
100
AcDbEntity
  8
SLD-0
  6
Continuous
 62
   179
370
    15
100
AcDbLine
 10
99.5184627707
 20
192.2932374653
 30
0.0
 11
98.4578027736
 21
192.2932374653
 31
0.0
  0
LINE
  5
A9
330
1F
100
AcDbEntity
  8
SLD-0
  6
Continuous
 62
   179
370
    15
100
AcDbLine
 10
97.5849309351
 20
189.2932379049
 30
0.0
 11
100.5849314268
 21
192.2932374653
 31
0.0
  0
LINE
  5
AA
330
1F
100
AcDbEntity
  8
SLD-0
  6
Continuous
 62
   179
370
    15
100
AcDbLine
 10
96.5184627446
 20
189.2932379049
 30
0.0
 11
97.5849309351
 21
189.2932379049
 31
0.0
  0
LINE
  5
AB
330
1F
100
AcDbEntity
  8
SLD-0
  6
Continuous
 62
   179
370
    15
100
AcDbLine
 10
100.5849314268
 20
192.2932374653
 30
0.0
 11
99.5184627707
 21
192.2932374653
 31
0.0
  0
LINE
  5
AC
330
1F
100
AcDbEntity
  8
SLD-0
  6
Continuous
 62
   179
370
    15
100
AcDbLine
 10
94.3684626716
 20
189.2932379049
 30
0.0
 11
97.3684626977
 21
192.2932374653
 31
0.0
  0
LINE
  5
AD
330
1F
100
AcDbEntity
  8
SLD-0
  6
Continuous
 62
   179
370
    15
100
AcDbLine
 10
93.3078024416
 20
189.2932379049
 30
0.0
 11
96.3078027005
 21
192.2932374653
 31
0.0
  0
LINE
  5
AE
330
1F
100
AcDbEntity
  8
SLD-0
  6
Continuous
 62
   179
370
    15
100
AcDbLine
 10
93.3078024416
 20
189.2932379049
 30
0.0
 11
94.3684626716
 21
189.2932379049
 31
0.0
  0
LINE
  5
AF
330
1F
100
AcDbEntity
  8
SLD-0
  6
Continuous
 62
   179
370
    15
100
AcDbLine
 10
97.3684626977
 20
192.2932374653
 30
0.0
 11
96.3078027005
 21
192.2932374653
 31
0.0
  0
LINE
  5
B0
330
1F
100
AcDbEntity
  8
SLD-0
  6
Continuous
 62
   179
370
    15
100
AcDbLine
 10
95.434930862
 20
189.2932379049
 30
0.0
 11
98.4349313538
 21
192.2932374653
 31
0.0
  0
LINE
  5
B1
330
1F
100
AcDbEntity
  8
SLD-0
  6
Continuous
 62
   179
370
    15
100
AcDbLine
 10
94.3684626716
 20
189.2932379049
 30
0.0
 11
95.434930862
 21
189.2932379049
 31
0.0
  0
LINE
  5
B2
330
1F
100
AcDbEntity
  8
SLD-0
  6
Continuous
 62
   179
370
    15
100
AcDbLine
 10
98.4349313538
 20
192.2932374653
 30
0.0
 11
97.3684626977
 21
192.2932374653
 31
0.0
  0
LINE
  5
B3
330
1F
100
AcDbEntity
  8
SLD-0
  6
Continuous
 62
   179
370
    15
100
AcDbLine
 10
92.2184625986
 20
189.2932379049
 30
0.0
 11
95.2184626247
 21
192.2932374653
 31
0.0
  0
LINE
  5
B4
330
1F
100
AcDbEntity
  8
SLD-0
  6
Continuous
 62
   179
370
    15
100
AcDbLine
 10
91.157802485
 20
189.2932379049
 30
0.0
 11
94.1578026275
 21
192.2932374653
 31
0.0
  0
LINE
  5
B5
330
1F
100
AcDbEntity
  8
SLD-0
  6
Continuous
 62
   179
370
    15
100
AcDbLine
 10
91.157802485
 20
189.2932379049
 30
0.0
 11
92.2184625986
 21
189.2932379049
 31
0.0
  0
LINE
  5
B6
330
1F
100
AcDbEntity
  8
SLD-0
  6
Continuous
 62
   179
370
    15
100
AcDbLine
 10
95.2184626247
 20
192.2932374653
 30
0.0
 11
94.1578026275
 21
192.2932374653
 31
0.0
  0
LINE
  5
B7
330
1F
100
AcDbEntity
  8
SLD-0
  6
Continuous
 62
   179
370
    15
100
AcDbLine
 10
93.2849310218
 20
189.2932379049
 30
0.0
 11
96.2849312808
 21
192.2932374653
 31
0.0
  0
LINE
  5
B8
330
1F
100
AcDbEntity
  8
SLD-0
  6
Continuous
 62
   179
370
    15
100
AcDbLine
 10
92.2184625986
 20
189.2932379049
 30
0.0
 11
93.2849310218
 21
189.2932379049
 31
0.0
  0
LINE
  5
B9
330
1F
100
AcDbEntity
  8
SLD-0
  6
Continuous
 62
   179
370
    15
100
AcDbLine
 10
96.2849312808
 20
192.2932374653
 30
0.0
 11
95.2184626247
 21
192.2932374653
 31
0.0
  0
LINE
  5
BA
330
1F
100
AcDbEntity
  8
SLD-0
  6
Continuous
 62
   179
370
    15
100
AcDbLine
 10
86.8578024554
 20
189.2932379049
 30
0.0
 11
89.8578025252
 21
192.2932374653
 31
0.0
  0
LINE
  5
BB
330
1F
100
AcDbEntity
  8
SLD-0
  6
Continuous
 62
   179
370
    15
100
AcDbLine
 10
86.8349310356
 20
189.2932379049
 30
0.0
 11
89.8349310908
 21
192.2932374653
 31
0.0
  0
LINE
  5
BC
330
1F
100
AcDbEntity
  8
SLD-0
  6
Continuous
 62
   179
370
    15
100
AcDbLine
 10
86.8578024554
 20
189.2932379049
 30
0.0
 11
86.8349310356
 21
189.2932379049
 31
0.0
  0
LINE
  5
BD
330
1F
100
AcDbEntity
  8
SLD-0
  6
Continuous
 62
   179
370
    15
100
AcDbLine
 10
89.8578025252
 20
192.2932374653
 30
0.0
 11
89.8349310908
 21
192.2932374653
 31
0.0
  0
LINE
  5
BE
330
1F
100
AcDbEntity
  8
SLD-0
  6
Continuous
 62
   179
370
    15
100
AcDbLine
 10
89.0078025284
 20
189.2932379049
 30
0.0
 11
92.0078025545
 21
192.2932374653
 31
0.0
  0
LINE
  5
BF
330
1F
100
AcDbEntity
  8
SLD-0
  6
Continuous
 62
   179
370
    15
100
AcDbLine
 10
88.9849311086
 20
189.2932379049
 30
0.0
 11
91.9849311347
 21
192.2932374653
 31
0.0
  0
LINE
  5
C0
330
1F
100
AcDbEntity
  8
SLD-0
  6
Continuous
 62
   179
370
    15
100
AcDbLine
 10
89.0078025284
 20
189.2932379049
 30
0.0
 11
88.9849311086
 21
189.2932379049
 31
0.0
  0
LINE
  5
C1
330
1F
100
AcDbEntity
  8
SLD-0
  6
Continuous
 62
   179
370
    15
100
AcDbLine
 10
92.0078025545
 20
192.2932374653
 30
0.0
 11
91.9849311347
 21
192.2932374653
 31
0.0
  0
LINE
  5
C2
330
1F
100
AcDbEntity
  8
SLD-0
  6
Continuous
 62
   179
370
    15
100
AcDbLine
 10
91.1349310652
 20
189.2932379049
 30
0.0
 11
94.1349312077
 21
192.2932374653
 31
0.0
  0
LINE
  5
C3
330
1F
100
AcDbEntity
  8
SLD-0
  6
Continuous
 62
   179
370
    15
100
AcDbLine
 10
91.157802485
 20
189.2932379049
 30
0.0
 11
91.1349310652
 21
189.2932379049
 31
0.0
  0
LINE
  5
C4
330
1F
100
AcDbEntity
  8
SLD-0
  6
Continuous
 62
   179
370
    15
100
AcDbLine
 10
94.1578026275
 20
192.2932374653
 30
0.0
 11
94.1349312077
 21
192.2932374653
 31
0.0
  0
LINE
  5
C5
330
1F
100
AcDbEntity
  8
SLD-0
  6
Continuous
 62
   179
370
    15
100
AcDbLine
 10
93.3078024416
 20
189.2932379049
 30
0.0
 11
93.2849310218
 21
189.2932379049
 31
0.0
  0
LINE
  5
C6
330
1F
100
AcDbEntity
  8
SLD-0
  6
Continuous
 62
   179
370
    15
100
AcDbLine
 10
96.3078027005
 20
192.2932374653
 30
0.0
 11
96.2849312808
 21
192.2932374653
 31
0.0
  0
LINE
  5
C7
330
1F
100
AcDbEntity
  8
SLD-0
  6
Continuous
 62
   179
370
    15
100
AcDbLine
 10
95.4578027475
 20
189.2932379049
 30
0.0
 11
95.434930862
 21
189.2932379049
 31
0.0
  0
LINE
  5
C8
330
1F
100
AcDbEntity
  8
SLD-0
  6
Continuous
 62
   179
370
    15
100
AcDbLine
 10
98.4578027736
 20
192.2932374653
 30
0.0
 11
98.4349313538
 21
192.2932374653
 31
0.0
  0
LINE
  5
C9
330
1F
100
AcDbEntity
  8
SLD-0
  6
Continuous
 62
   179
370
    15
100
AcDbLine
 10
97.6078023548
 20
189.2932379049
 30
0.0
 11
97.5849309351
 21
189.2932379049
 31
0.0
  0
LINE
  5
CA
330
1F
100
AcDbEntity
  8
SLD-0
  6
Continuous
 62
   179
370
    15
100
AcDbLine
 10
100.6078028466
 20
192.2932374653
 30
0.0
 11
100.5849314268
 21
192.2932374653
 31
0.0
  0
LINE
  5
CB
330
1F
100
AcDbEntity
  8
SLD-0
  6
Continuous
 62
   179
370
    15
100
AcDbLine
 10
99.7578024279
 20
189.2932379049
 30
0.0
 11
102.7578029196
 21
192.2932374653
 31
0.0
  0
LINE
  5
CC
330
1F
100
AcDbEntity
  8
SLD-0
  6
Continuous
 62
   179
370
    15
100
AcDbLine
 10
99.7349310081
 20
189.2932379049
 30
0.0
 11
102.7349314998
 21
192.2932374653
 31
0.0
  0
LINE
  5
CD
330
1F
100
AcDbEntity
  8
SLD-0
  6
Continuous
 62
   179
370
    15
100
AcDbLine
 10
99.7578024279
 20
189.2932379049
 30
0.0
 11
99.7349310081
 21
189.2932379049
 31
0.0
  0
LINE
  5
CE
330
1F
100
AcDbEntity
  8
SLD-0
  6
Continuous
 62
   179
370
    15
100
AcDbLine
 10
102.7578029196
 20
192.2932374653
 30
0.0
 11
102.7349314998
 21
192.2932374653
 31
0.0
  0
LINE
  5
CF
330
1F
100
AcDbEntity
  8
SLD-0
  6
Continuous
 62
   179
370
    15
100
AcDbLine
 10
101.9078025009
 20
189.2932379049
 30
0.0
 11
104.9078020613
 21
192.2932374653
 31
0.0
  0
LINE
  5
D0
330
1F
100
AcDbEntity
  8
SLD-0
  6
Continuous
 62
   179
370
    15
100
AcDbLine
 10
101.8849310811
 20
189.2932379049
 30
0.0
 11
104.8849306415
 21
192.2932374653
 31
0.0
  0
LINE
  5
D1
330
1F
100
AcDbEntity
  8
SLD-0
  6
Continuous
 62
   179
370
    15
100
AcDbLine
 10
101.9078025009
 20
189.2932379049
 30
0.0
 11
101.8849310811
 21
189.2932379049
 31
0.0
  0
LINE
  5
D2
330
1F
100
AcDbEntity
  8
SLD-0
  6
Continuous
 62
   179
370
    15
100
AcDbLine
 10
104.9078020613
 20
192.2932374653
 30
0.0
 11
104.8849306415
 21
192.2932374653
 31
0.0
  0
LINE
  5
D3
330
1F
100
AcDbEntity
  8
SLD-0
  6
Continuous
 62
   179
370
    15
100
AcDbLine
 10
104.0578025739
 20
189.2932379049
 30
0.0
 11
107.0578021343
 21
192.2932374653
 31
0.0
  0
LINE
  5
D4
330
1F
100
AcDbEntity
  8
SLD-0
  6
Continuous
 62
   179
370
    15
100
AcDbLine
 10
104.0349311541
 20
189.2932379049
 30
0.0
 11
107.0349307145
 21
192.2932374653
 31
0.0
  0
LINE
  5
D5
330
1F
100
AcDbEntity
  8
SLD-0
  6
Continuous
 62
   179
370
    15
100
AcDbLine
 10
104.0578025739
 20
189.2932379049
 30
0.0
 11
104.0349311541
 21
189.2932379049
 31
0.0
  0
LINE
  5
D6
330
1F
100
AcDbEntity
  8
SLD-0
  6
Continuous
 62
   179
370
    15
100
AcDbLine
 10
107.0578021343
 20
192.2932374653
 30
0.0
 11
107.0349307145
 21
192.2932374653
 31
0.0
  0
LINE
  5
D7
330
1F
100
AcDbEntity
  8
SLD-0
  6
Continuous
 62
   179
370
    15
100
AcDbLine
 10
100.818462425
 20
189.2932379049
 30
0.0
 11
103.8184629168
 21
192.2932374653
 31
0.0
  0
LINE
  5
D8
330
1F
100
AcDbEntity
  8
SLD-0
  6
Continuous
 62
   179
370
    15
100
AcDbLine
 10
99.7578024279
 20
189.2932379049
 30
0.0
 11
100.818462425
 21
189.2932379049
 31
0.0
  0
LINE
  5
D9
330
1F
100
AcDbEntity
  8
SLD-0
  6
Continuous
 62
   179
370
    15
100
AcDbLine
 10
103.8184629168
 20
192.2932374653
 30
0.0
 11
102.7578029196
 21
192.2932374653
 31
0.0
  0
LINE
  5
DA
330
1F
100
AcDbEntity
  8
SLD-0
  6
Continuous
 62
   179
370
    15
100
AcDbLine
 10
100.818462425
 20
189.2932379049
 30
0.0
 11
101.8849310811
 21
189.2932379049
 31
0.0
  0
LINE
  5
DB
330
1F
100
AcDbEntity
  8
SLD-0
  6
Continuous
 62
   179
370
    15
100
AcDbLine
 10
104.8849306415
 20
192.2932374653
 30
0.0
 11
103.8184629168
 21
192.2932374653
 31
0.0
  0
LINE
  5
DC
330
1F
100
AcDbEntity
  8
SLD-0
  6
Continuous
 62
   179
370
    15
100
AcDbLine
 10
69.7204654451
 20
190.4452401575
 30
0.0
 11
71.5684627529
 21
192.2932374653
 31
0.0
  0
LINE
  5
DD
330
1F
100
AcDbEntity
  8
SLD-0
  6
Continuous
 62
   179
370
    15
100
AcDbLine
 10
69.7204654451
 20
191.5059001547
 30
0.0
 11
69.7204654451
 21
190.4452401575
 31
0.0
  0
LINE
  5
DE
330
1F
100
AcDbEntity
  8
SLD-0
  6
Continuous
 62
   179
370
    15
100
AcDbLine
 10
71.5684627529
 20
192.2932374653
 30
0.0
 11
70.5078018244
 21
192.2932374653
 31
0.0
  0
LINE
  5
DF
330
1F
100
AcDbEntity
  8
SLD-0
  6
Continuous
 62
   179
370
    15
100
AcDbLine
 10
98.668462352
 20
189.2932379049
 30
0.0
 11
99.7349310081
 21
189.2932379049
 31
0.0
  0
LINE
  5
E0
330
1F
100
AcDbEntity
  8
SLD-0
  6
Continuous
 62
   179
370
    15
100
AcDbLine
 10
102.7349314998
 20
192.2932374653
 30
0.0
 11
101.6684628437
 21
192.2932374653
 31
0.0
  0
LINE
  5
E1
330
1F
100
AcDbEntity
  8
SLD-0
  6
Continuous
 62
   179
370
    15
100
AcDbLine
 10
107.2455921556
 20
189.2932379049
 30
0.0
 11
109.720464551
 21
191.7681112316
 31
0.0
  0
LINE
  5
E2
330
1F
100
AcDbEntity
  8
SLD-0
  6
Continuous
 62
   179
370
    15
100
AcDbLine
 10
106.1849312271
 20
189.2932379049
 30
0.0
 11
109.1849317189
 21
192.2932374653
 31
0.0
  0
LINE
  5
E3
330
1F
100
AcDbEntity
  8
SLD-0
  6
Continuous
 62
   179
370
    15
100
AcDbLine
 10
109.720464551
 20
191.7681112316
 30
0.0
 11
109.720464551
 21
192.2932374653
 31
0.0
  0
LINE
  5
E4
330
1F
100
AcDbEntity
  8
SLD-0
  6
Continuous
 62
   179
370
    15
100
AcDbLine
 10
106.1849312271
 20
189.2932379049
 30
0.0
 11
107.2455921556
 21
189.2932379049
 31
0.0
  0
LINE
  5
E5
330
1F
100
AcDbEntity
  8
SLD-0
  6
Continuous
 62
   179
370
    15
100
AcDbLine
 10
109.720464551
 20
192.2932374653
 30
0.0
 11
109.1849317189
 21
192.2932374653
 31
0.0
  0
LINE
  5
E6
330
1F
100
AcDbEntity
  8
SLD-0
  6
Continuous
 62
   179
370
    15
100
AcDbLine
 10
87.9184626854
 20
189.2932379049
 30
0.0
 11
90.9184627115
 21
192.2932374653
 31
0.0
  0
LINE
  5
E7
330
1F
100
AcDbEntity
  8
SLD-0
  6
Continuous
 62
   179
370
    15
100
AcDbLine
 10
87.9184626854
 20
189.2932379049
 30
0.0
 11
88.9849311086
 21
189.2932379049
 31
0.0
  0
LINE
  5
E8
330
1F
100
AcDbEntity
  8
SLD-0
  6
Continuous
 62
   179
370
    15
100
AcDbLine
 10
91.9849311347
 20
192.2932374653
 30
0.0
 11
90.9184627115
 21
192.2932374653
 31
0.0
  0
LINE
  5
E9
330
1F
100
AcDbEntity
  8
SLD-0
  6
Continuous
 62
   179
370
    15
100
AcDbLine
 10
105.1184625711
 20
189.2932379049
 30
0.0
 11
108.1184630628
 21
192.2932374653
 31
0.0
  0
LINE
  5
EA
330
1F
100
AcDbEntity
  8
SLD-0
  6
Continuous
 62
   179
370
    15
100
AcDbLine
 10
104.0578025739
 20
189.2932379049
 30
0.0
 11
105.1184625711
 21
189.2932379049
 31
0.0
  0
LINE
  5
EB
330
1F
100
AcDbEntity
  8
SLD-0
  6
Continuous
 62
   179
370
    15
100
AcDbLine
 10
108.1184630628
 20
192.2932374653
 30
0.0
 11
107.0578021343
 21
192.2932374653
 31
0.0
  0
LINE
  5
EC
330
1F
100
AcDbEntity
  8
SLD-0
  6
Continuous
 62
   179
370
    15
100
AcDbLine
 10
105.1184625711
 20
189.2932379049
 30
0.0
 11
106.1849312271
 21
189.2932379049
 31
0.0
  0
LINE
  5
ED
330
1F
100
AcDbEntity
  8
SLD-0
  6
Continuous
 62
   179
370
    15
100
AcDbLine
 10
109.1849317189
 20
192.2932374653
 30
0.0
 11
108.1184630628
 21
192.2932374653
 31
0.0
  0
LINE
  5
EE
330
1F
100
AcDbEntity
  8
SLD-0
  6
Continuous
 62
   179
370
    15
100
AcDbLine
 10
102.968462498
 20
189.2932379049
 30
0.0
 11
105.9684620585
 21
192.2932374653
 31
0.0
  0
LINE
  5
EF
330
1F
100
AcDbEntity
  8
SLD-0
  6
Continuous
 62
   179
370
    15
100
AcDbLine
 10
101.9078025009
 20
189.2932379049
 30
0.0
 11
102.968462498
 21
189.2932379049
 31
0.0
  0
LINE
  5
F0
330
1F
100
AcDbEntity
  8
SLD-0
  6
Continuous
 62
   179
370
    15
100
AcDbLine
 10
105.9684620585
 20
192.2932374653
 30
0.0
 11
104.9078020613
 21
192.2932374653
 31
0.0
  0
LINE
  5
F1
330
1F
100
AcDbEntity
  8
SLD-0
  6
Continuous
 62
   179
370
    15
100
AcDbLine
 10
102.968462498
 20
189.2932379049
 30
0.0
 11
104.0349311541
 21
189.2932379049
 31
0.0
  0
LINE
  5
F2
330
1F
100
AcDbEntity
  8
SLD-0
  6
Continuous
 62
   179
370
    15
100
AcDbLine
 10
107.0349307145
 20
192.2932374653
 30
0.0
 11
105.9684620585
 21
192.2932374653
 31
0.0
  0
LINE
  5
F3
330
1F
100
AcDbEntity
  8
SLD-0
  6
Continuous
 62
   179
370
    15
100
AcDbLine
 10
90.0684627002
 20
189.2932379049
 30
0.0
 11
93.0684627845
 21
192.2932374653
 31
0.0
  0
LINE
  5
F4
330
1F
100
AcDbEntity
  8
SLD-0
  6
Continuous
 62
   179
370
    15
100
AcDbLine
 10
89.0078025284
 20
189.2932379049
 30
0.0
 11
90.0684627002
 21
189.2932379049
 31
0.0
  0
LINE
  5
F5
330
1F
100
AcDbEntity
  8
SLD-0
  6
Continuous
 62
   179
370
    15
100
AcDbLine
 10
93.0684627845
 20
192.2932374653
 30
0.0
 11
92.0078025545
 21
192.2932374653
 31
0.0
  0
LINE
  5
F6
330
1F
100
AcDbEntity
  8
SLD-0
  6
Continuous
 62
   179
370
    15
100
AcDbLine
 10
69.7204654451
 20
192.2932374653
 30
0.0
 11
69.7204654451
 21
191.5287715745
 31
0.0
  0
LINE
  5
F7
330
1F
100
AcDbEntity
  8
SLD-0
  6
Continuous
 62
   179
370
    15
100
AcDbLine
 10
70.4849304046
 20
192.2932374653
 30
0.0
 11
69.7204654451
 21
192.2932374653
 31
0.0
  0
LINE
  5
F8
330
1F
100
AcDbEntity
  8
SLD-0
  6
Continuous
 62
   179
370
    15
100
AcDbLine
 10
69.7204654451
 20
190.4452401575
 30
0.0
 11
69.7204654451
 21
189.3787715015
 31
0.0
  0
LINE
  5
F9
330
1F
100
AcDbEntity
  8
SLD-0
  6
Continuous
 62
   179
370
    15
100
AcDbLine
 10
72.6349314089
 20
192.2932374653
 30
0.0
 11
71.5684627529
 21
192.2932374653
 31
0.0
  0
LINE
  5
FA
330
1F
100
AcDbEntity
  8
SLD-0
  6
Continuous
 62
   179
370
    15
100
AcDbLine
 10
86.8578024554
 20
189.2932379049
 30
0.0
 11
87.9184626854
 21
189.2932379049
 31
0.0
  0
LINE
  5
FB
330
1F
100
AcDbEntity
  8
SLD-0
  6
Continuous
 62
   179
370
    15
100
AcDbLine
 10
90.9184627115
 20
192.2932374653
 30
0.0
 11
89.8578025252
 21
192.2932374653
 31
0.0
  0
LINE
  5
FC
330
1F
100
AcDbEntity
  8
SLD-0
  6
Continuous
 62
   179
370
    15
100
AcDbLine
 10
90.0684627002
 20
189.2932379049
 30
0.0
 11
91.1349310652
 21
189.2932379049
 31
0.0
  0
LINE
  5
FD
330
1F
100
AcDbEntity
  8
SLD-0
  6
Continuous
 62
   179
370
    15
100
AcDbLine
 10
94.1349312077
 20
192.2932374653
 30
0.0
 11
93.0684627845
 21
192.2932374653
 31
0.0
  0
LINE
  5
FE
330
1F
100
AcDbEntity
  8
SLD-0
  6
Continuous
 62
   179
370
    15
100
AcDbLine
 10
75.0184624802
 20
189.2932379049
 30
0.0
 11
78.0184629719
 21
192.2932374653
 31
0.0
  0
LINE
  5
FF
330
1F
100
AcDbEntity
  8
SLD-0
  6
Continuous
 62
   179
370
    15
100
AcDbLine
 10
73.957802483
 20
189.2932379049
 30
0.0
 11
76.9578029747
 21
192.2932374653
 31
0.0
  0
LINE
  5
100
330
1F
100
AcDbEntity
  8
SLD-0
  6
Continuous
 62
   179
370
    15
100
AcDbLine
 10
73.957802483
 20
189.2932379049
 30
0.0
 11
75.0184624802
 21
189.2932379049
 31
0.0
  0
LINE
  5
101
330
1F
100
AcDbEntity
  8
SLD-0
  6
Continuous
 62
   179
370
    15
100
AcDbLine
 10
78.0184629719
 20
192.2932374653
 30
0.0
 11
76.9578029747
 21
192.2932374653
 31
0.0
  0
LINE
  5
102
330
1F
100
AcDbEntity
  8
SLD-0
  6
Continuous
 62
   179
370
    15
100
AcDbLine
 10
72.8684624071
 20
189.2932379049
 30
0.0
 11
75.8684628989
 21
192.2932374653
 31
0.0
  0
LINE
  5
103
330
1F
100
AcDbEntity
  8
SLD-0
  6
Continuous
 62
   179
370
    15
100
AcDbLine
 10
71.8078033413
 20
189.2932379049
 30
0.0
 11
74.8078029017
 21
192.2932374653
 31
0.0
  0
LINE
  5
104
330
1F
100
AcDbEntity
  8
SLD-0
  6
Continuous
 62
   179
370
    15
100
AcDbLine
 10
71.8078033413
 20
189.2932379049
 30
0.0
 11
72.8684624071
 21
189.2932379049
 31
0.0
  0
LINE
  5
105
330
1F
100
AcDbEntity
  8
SLD-0
  6
Continuous
 62
   179
370
    15
100
AcDbLine
 10
75.8684628989
 20
192.2932374653
 30
0.0
 11
74.8078029017
 21
192.2932374653
 31
0.0
  0
LINE
  5
106
330
1F
100
AcDbEntity
  8
SLD-0
  6
Continuous
 62
   179
370
    15
100
AcDbLine
 10
80.3849312822
 20
189.2932379049
 30
0.0
 11
83.3849313083
 21
192.2932374653
 31
0.0
  0
LINE
  5
107
330
1F
100
AcDbEntity
  8
SLD-0
  6
Continuous
 62
   179
370
    15
100
AcDbLine
 10
79.3184626262
 20
189.2932379049
 30
0.0
 11
82.3184626523
 21
192.2932374653
 31
0.0
  0
LINE
  5
108
330
1F
100
AcDbEntity
  8
SLD-0
  6
Continuous
 62
   179
370
    15
100
AcDbLine
 10
79.3184626262
 20
189.2932379049
 30
0.0
 11
80.3849312822
 21
189.2932379049
 31
0.0
  0
LINE
  5
109
330
1F
100
AcDbEntity
  8
SLD-0
  6
Continuous
 62
   179
370
    15
100
AcDbLine
 10
83.3849313083
 20
192.2932374653
 30
0.0
 11
82.3184626523
 21
192.2932374653
 31
0.0
  0
LINE
  5
10A
330
1F
100
AcDbEntity
  8
SLD-0
  6
Continuous
 62
   179
370
    15
100
AcDbLine
 10
70.7184632654
 20
189.2932379049
 30
0.0
 11
73.7184618945
 21
192.2932374653
 31
0.0
  0
LINE
  5
10B
330
1F
100
AcDbEntity
  8
SLD-0
  6
Continuous
 62
   179
370
    15
100
AcDbLine
 10
69.720464998
 20
189.2932378006
 30
0.0
 11
70.7184632654
 21
189.2932379049
 31
0.0
  0
LINE
  5
10C
330
1F
100
AcDbEntity
  8
SLD-0
  6
Continuous
 62
   179
370
    15
100
AcDbLine
 10
69.7204654451
 20
189.3559000817
 30
0.0
 11
69.720464998
 21
189.2932378006
 31
0.0
  0
LINE
  5
10D
330
1F
100
AcDbEntity
  8
SLD-0
  6
Continuous
 62
   179
370
    15
100
AcDbLine
 10
73.7184618945
 20
192.2932374653
 30
0.0
 11
72.6578028287
 21
192.2932374653
 31
0.0
  0
LINE
  5
10E
330
1F
100
AcDbEntity
  8
SLD-0
  6
Continuous
 62
   179
370
    15
100
AcDbLine
 10
108.3062512214
 20
189.2932379049
 30
0.0
 11
109.720464551
 21
190.7074512345
 31
0.0
  0
LINE
  5
10F
330
1F
100
AcDbEntity
  8
SLD-0
  6
Continuous
 62
   179
370
    15
100
AcDbLine
 10
109.720464998
 20
189.2932378006
 30
0.0
 11
109.720464551
 21
190.7074512345
 31
0.0
  0
LINE
  5
110
330
1F
100
AcDbEntity
  8
SLD-0
  6
Continuous
 62
   179
370
    15
100
AcDbLine
 10
109.720464998
 20
189.2932378006
 30
0.0
 11
108.3062512214
 21
189.2932379049
 31
0.0
  0
LINE
  5
111
330
1F
100
AcDbEntity
  8
SLD-0
  6
Continuous
 62
   179
370
    15
100
AcDbLine
 10
73.9349310632
 20
189.2932379049
 30
0.0
 11
76.9349315549
 21
192.2932374653
 31
0.0
  0
LINE
  5
112
330
1F
100
AcDbEntity
  8
SLD-0
  6
Continuous
 62
   179
370
    15
100
AcDbLine
 10
72.8684624071
 20
189.2932379049
 30
0.0
 11
73.9349310632
 21
189.2932379049
 31
0.0
  0
LINE
  5
113
330
1F
100
AcDbEntity
  8
SLD-0
  6
Continuous
 62
   179
370
    15
100
AcDbLine
 10
76.9349315549
 20
192.2932374653
 30
0.0
 11
75.8684628989
 21
192.2932374653
 31
0.0
  0
LINE
  5
114
330
1F
100
AcDbEntity
  8
SLD-0
  6
Continuous
 62
   179
370
    15
100
AcDbLine
 10
78.2349312092
 20
189.2932379049
 30
0.0
 11
81.2349307696
 21
192.2932374653
 31
0.0
  0
LINE
  5
115
330
1F
100
AcDbEntity
  8
SLD-0
  6
Continuous
 62
   179
370
    15
100
AcDbLine
 10
77.1684625532
 20
189.2932379049
 30
0.0
 11
80.1684630449
 21
192.2932374653
 31
0.0
  0
LINE
  5
116
330
1F
100
AcDbEntity
  8
SLD-0
  6
Continuous
 62
   179
370
    15
100
AcDbLine
 10
77.1684625532
 20
189.2932379049
 30
0.0
 11
78.2349312092
 21
189.2932379049
 31
0.0
  0
LINE
  5
117
330
1F
100
AcDbEntity
  8
SLD-0
  6
Continuous
 62
   179
370
    15
100
AcDbLine
 10
81.2349307696
 20
192.2932374653
 30
0.0
 11
80.1684630449
 21
192.2932374653
 31
0.0
  0
LINE
  5
118
330
1F
100
AcDbEntity
  8
SLD-0
  6
Continuous
 62
   179
370
    15
100
AcDbLine
 10
109.720464551
 20
190.7074512345
 30
0.0
 11
109.720464551
 21
191.7681112316
 31
0.0
  0
LINE
  5
119
330
1F
100
AcDbEntity
  8
SLD-0
  6
Continuous
 62
   179
370
    15
100
AcDbLine
 10
107.2455921556
 20
189.2932379049
 30
0.0
 11
108.3062512214
 21
189.2932379049
 31
0.0
  0
LINE
  5
11A
330
1F
100
AcDbEntity
  8
SLD-0
  6
Continuous
 62
   179
370
    15
100
AcDbLine
 10
76.0849311362
 20
189.2932379049
 30
0.0
 11
79.0849306966
 21
192.2932374653
 31
0.0
  0
LINE
  5
11B
330
1F
100
AcDbEntity
  8
SLD-0
  6
Continuous
 62
   179
370
    15
100
AcDbLine
 10
75.0184624802
 20
189.2932379049
 30
0.0
 11
76.0849311362
 21
189.2932379049
 31
0.0
  0
LINE
  5
11C
330
1F
100
AcDbEntity
  8
SLD-0
  6
Continuous
 62
   179
370
    15
100
AcDbLine
 10
79.0849306966
 20
192.2932374653
 30
0.0
 11
78.0184629719
 21
192.2932374653
 31
0.0
  0
LINE
  5
11D
330
1F
100
AcDbEntity
  8
SLD-0
  6
Continuous
 62
   179
370
    15
100
AcDbLine
 10
78.257802629
 20
189.2932379049
 30
0.0
 11
81.2578021894
 21
192.2932374653
 31
0.0
  0
LINE
  5
11E
330
1F
100
AcDbEntity
  8
SLD-0
  6
Continuous
 62
   179
370
    15
100
AcDbLine
 10
78.257802629
 20
189.2932379049
 30
0.0
 11
78.2349312092
 21
189.2932379049
 31
0.0
  0
LINE
  5
11F
330
1F
100
AcDbEntity
  8
SLD-0
  6
Continuous
 62
   179
370
    15
100
AcDbLine
 10
81.2578021894
 20
192.2932374653
 30
0.0
 11
81.2349307696
 21
192.2932374653
 31
0.0
  0
LINE
  5
120
330
1F
100
AcDbEntity
  8
SLD-0
  6
Continuous
 62
   179
370
    15
100
AcDbLine
 10
80.407802702
 20
189.2932379049
 30
0.0
 11
83.4078027281
 21
192.2932374653
 31
0.0
  0
LINE
  5
121
330
1F
100
AcDbEntity
  8
SLD-0
  6
Continuous
 62
   179
370
    15
100
AcDbLine
 10
80.407802702
 20
189.2932379049
 30
0.0
 11
80.3849312822
 21
189.2932379049
 31
0.0
  0
LINE
  5
122
330
1F
100
AcDbEntity
  8
SLD-0
  6
Continuous
 62
   179
370
    15
100
AcDbLine
 10
83.4078027281
 20
192.2932374653
 30
0.0
 11
83.3849313083
 21
192.2932374653
 31
0.0
  0
LINE
  5
123
330
1F
100
AcDbEntity
  8
SLD-0
  6
Continuous
 62
   179
370
    15
100
AcDbLine
 10
82.5578023094
 20
189.2932379049
 30
0.0
 11
85.5578023355
 21
192.2932374653
 31
0.0
  0
LINE
  5
124
330
1F
100
AcDbEntity
  8
SLD-0
  6
Continuous
 62
   179
370
    15
100
AcDbLine
 10
82.5349308896
 20
189.2932379049
 30
0.0
 11
85.5349309157
 21
192.2932374653
 31
0.0
  0
LINE
  5
125
330
1F
100
AcDbEntity
  8
SLD-0
  6
Continuous
 62
   179
370
    15
100
AcDbLine
 10
82.5578023094
 20
189.2932379049
 30
0.0
 11
82.5349308896
 21
189.2932379049
 31
0.0
  0
LINE
  5
126
330
1F
100
AcDbEntity
  8
SLD-0
  6
Continuous
 62
   179
370
    15
100
AcDbLine
 10
85.5578023355
 20
192.2932374653
 30
0.0
 11
85.5349309157
 21
192.2932374653
 31
0.0
  0
LINE
  5
127
330
1F
100
AcDbEntity
  8
SLD-0
  6
Continuous
 62
   179
370
    15
100
AcDbLine
 10
84.7078023824
 20
189.2932379049
 30
0.0
 11
87.7078024085
 21
192.2932374653
 31
0.0
  0
LINE
  5
128
330
1F
100
AcDbEntity
  8
SLD-0
  6
Continuous
 62
   179
370
    15
100
AcDbLine
 10
84.6849309626
 20
189.2932379049
 30
0.0
 11
87.6849309887
 21
192.2932374653
 31
0.0
  0
LINE
  5
129
330
1F
100
AcDbEntity
  8
SLD-0
  6
Continuous
 62
   179
370
    15
100
AcDbLine
 10
84.7078023824
 20
189.2932379049
 30
0.0
 11
84.6849309626
 21
189.2932379049
 31
0.0
  0
LINE
  5
12A
330
1F
100
AcDbEntity
  8
SLD-0
  6
Continuous
 62
   179
370
    15
100
AcDbLine
 10
87.7078024085
 20
192.2932374653
 30
0.0
 11
87.6849309887
 21
192.2932374653
 31
0.0
  0
LINE
  5
12B
330
1F
100
AcDbEntity
  8
SLD-0
  6
Continuous
 62
   179
370
    15
100
AcDbLine
 10
71.7849319215
 20
189.2932379049
 30
0.0
 11
74.7849314819
 21
192.2932374653
 31
0.0
  0
LINE
  5
12C
330
1F
100
AcDbEntity
  8
SLD-0
  6
Continuous
 62
   179
370
    15
100
AcDbLine
 10
70.7184632654
 20
189.2932379049
 30
0.0
 11
71.7849319215
 21
189.2932379049
 31
0.0
  0
LINE
  5
12D
330
1F
100
AcDbEntity
  8
SLD-0
  6
Continuous
 62
   179
370
    15
100
AcDbLine
 10
74.7849314819
 20
192.2932374653
 30
0.0
 11
73.7184618945
 21
192.2932374653
 31
0.0
  0
LINE
  5
12E
330
1F
100
AcDbEntity
  8
SLD-0
  6
Continuous
 62
   179
370
    15
100
AcDbLine
 10
71.8078033413
 20
189.2932379049
 30
0.0
 11
71.7849319215
 21
189.2932379049
 31
0.0
  0
LINE
  5
12F
330
1F
100
AcDbEntity
  8
SLD-0
  6
Continuous
 62
   179
370
    15
100
AcDbLine
 10
74.8078029017
 20
192.2932374653
 30
0.0
 11
74.7849314819
 21
192.2932374653
 31
0.0
  0
LINE
  5
130
330
1F
100
AcDbEntity
  8
SLD-0
  6
Continuous
 62
   179
370
    15
100
AcDbLine
 10
76.107802556
 20
189.2932379049
 30
0.0
 11
79.1078021164
 21
192.2932374653
 31
0.0
  0
LINE
  5
131
330
1F
100
AcDbEntity
  8
SLD-0
  6
Continuous
 62
   179
370
    15
100
AcDbLine
 10
76.107802556
 20
189.2932379049
 30
0.0
 11
77.1684625532
 21
189.2932379049
 31
0.0
  0
LINE
  5
132
330
1F
100
AcDbEntity
  8
SLD-0
  6
Continuous
 62
   179
370
    15
100
AcDbLine
 10
80.1684630449
 20
192.2932374653
 30
0.0
 11
79.1078021164
 21
192.2932374653
 31
0.0
  0
LINE
  5
133
330
1F
100
AcDbEntity
  8
SLD-0
  6
Continuous
 62
   179
370
    15
100
AcDbLine
 10
73.957802483
 20
189.2932379049
 30
0.0
 11
73.9349310632
 21
189.2932379049
 31
0.0
  0
LINE
  5
134
330
1F
100
AcDbEntity
  8
SLD-0
  6
Continuous
 62
   179
370
    15
100
AcDbLine
 10
76.9578029747
 20
192.2932374653
 30
0.0
 11
76.9349315549
 21
192.2932374653
 31
0.0
  0
LINE
  5
135
330
1F
100
AcDbEntity
  8
SLD-0
  6
Continuous
 62
   179
370
    15
100
AcDbLine
 10
76.107802556
 20
189.2932379049
 30
0.0
 11
76.0849311362
 21
189.2932379049
 31
0.0
  0
LINE
  5
136
330
1F
100
AcDbEntity
  8
SLD-0
  6
Continuous
 62
   179
370
    15
100
AcDbLine
 10
79.1078021164
 20
192.2932374653
 30
0.0
 11
79.0849306966
 21
192.2932374653
 31
0.0
  0
LINE
  5
137
330
1F
100
AcDbEntity
  8
SLD-0
  6
Continuous
 62
   179
370
    15
100
AcDbLine
 10
85.7684628452
 20
189.2932379049
 30
0.0
 11
88.7684626967
 21
192.2932374653
 31
0.0
  0
LINE
  5
138
330
1F
100
AcDbEntity
  8
SLD-0
  6
Continuous
 62
   179
370
    15
100
AcDbLine
 10
85.7684628452
 20
189.2932379049
 30
0.0
 11
86.8349310356
 21
189.2932379049
 31
0.0
  0
LINE
  5
139
330
1F
100
AcDbEntity
  8
SLD-0
  6
Continuous
 62
   179
370
    15
100
AcDbLine
 10
89.8349310908
 20
192.2932374653
 30
0.0
 11
88.7684626967
 21
192.2932374653
 31
0.0
  0
LINE
  5
13A
330
1F
100
AcDbEntity
  8
SLD-0
  6
Continuous
 62
   179
370
    15
100
AcDbLine
 10
83.6184627722
 20
189.2932379049
 30
0.0
 11
86.6184627983
 21
192.2932374653
 31
0.0
  0
LINE
  5
13B
330
1F
100
AcDbEntity
  8
SLD-0
  6
Continuous
 62
   179
370
    15
100
AcDbLine
 10
82.5578023094
 20
189.2932379049
 30
0.0
 11
83.6184627722
 21
189.2932379049
 31
0.0
  0
LINE
  5
13C
330
1F
100
AcDbEntity
  8
SLD-0
  6
Continuous
 62
   179
370
    15
100
AcDbLine
 10
86.6184627983
 20
192.2932374653
 30
0.0
 11
85.5578023355
 21
192.2932374653
 31
0.0
  0
LINE
  5
13D
330
1F
100
AcDbEntity
  8
SLD-0
  6
Continuous
 62
   179
370
    15
100
AcDbLine
 10
83.6184627722
 20
189.2932379049
 30
0.0
 11
84.6849309626
 21
189.2932379049
 31
0.0
  0
LINE
  5
13E
330
1F
100
AcDbEntity
  8
SLD-0
  6
Continuous
 62
   179
370
    15
100
AcDbLine
 10
87.6849309887
 20
192.2932374653
 30
0.0
 11
86.6184627983
 21
192.2932374653
 31
0.0
  0
LINE
  5
13F
330
1F
100
AcDbEntity
  8
SLD-0
  6
Continuous
 62
   179
370
    15
100
AcDbLine
 10
81.4684626992
 20
189.2932379049
 30
0.0
 11
84.4684627253
 21
192.2932374653
 31
0.0
  0
LINE
  5
140
330
1F
100
AcDbEntity
  8
SLD-0
  6
Continuous
 62
   179
370
    15
100
AcDbLine
 10
80.407802702
 20
189.2932379049
 30
0.0
 11
81.4684626992
 21
189.2932379049
 31
0.0
  0
LINE
  5
141
330
1F
100
AcDbEntity
  8
SLD-0
  6
Continuous
 62
   179
370
    15
100
AcDbLine
 10
84.4684627253
 20
192.2932374653
 30
0.0
 11
83.4078027281
 21
192.2932374653
 31
0.0
  0
LINE
  5
142
330
1F
100
AcDbEntity
  8
SLD-0
  6
Continuous
 62
   179
370
    15
100
AcDbLine
 10
81.4684626992
 20
189.2932379049
 30
0.0
 11
82.5349308896
 21
189.2932379049
 31
0.0
  0
LINE
  5
143
330
1F
100
AcDbEntity
  8
SLD-0
  6
Continuous
 62
   179
370
    15
100
AcDbLine
 10
85.5349309157
 20
192.2932374653
 30
0.0
 11
84.4684627253
 21
192.2932374653
 31
0.0
  0
LINE
  5
144
330
1F
100
AcDbEntity
  8
SLD-0
  6
Continuous
 62
   179
370
    15
100
AcDbLine
 10
78.257802629
 20
189.2932379049
 30
0.0
 11
79.3184626262
 21
189.2932379049
 31
0.0
  0
LINE
  5
145
330
1F
100
AcDbEntity
  8
SLD-0
  6
Continuous
 62
   179
370
    15
100
AcDbLine
 10
82.3184626523
 20
192.2932374653
 30
0.0
 11
81.2578021894
 21
192.2932374653
 31
0.0
  0
LINE
  5
146
330
1F
100
AcDbEntity
  8
SLD-0
  6
Continuous
 62
   179
370
    15
100
AcDbLine
 10
84.7078023824
 20
189.2932379049
 30
0.0
 11
85.7684628452
 21
189.2932379049
 31
0.0
  0
LINE
  5
147
330
1F
100
AcDbEntity
  8
SLD-0
  6
Continuous
 62
   179
370
    15
100
AcDbLine
 10
88.7684626967
 20
192.2932374653
 30
0.0
 11
87.7078024085
 21
192.2932374653
 31
0.0
  0
LINE
  5
148
330
1F
100
AcDbEntity
  8
SLD-0
  6
Continuous
 62
   179
370
    15
100
AcDbLine
 10
109.720464998
 20
189.2932378006
 30
0.0
 11
109.720464998
 21
187.7932378006
 31
0.0
  0
LINE
  5
149
330
1F
100
AcDbEntity
  8
SLD-0
  6
Continuous
 62
   179
370
    15
100
AcDbLine
 10
69.720464998
 20
187.7932378006
 30
0.0
 11
69.720464998
 21
189.2932378006
 31
0.0
  0
LINE
  5
14A
330
1F
100
AcDbEntity
  8
SLD-0
  6
Continuous
 62
   179
370
    15
100
AcDbLine
 10
69.7204654451
 20
164.2932375324
 30
0.0
 11
71.7204657729
 21
162.2932381359
 31
0.0
  0
LINE
  5
14B
330
1F
100
AcDbEntity
  8
SLD-0
  6
Continuous
 62
   179
370
    15
100
AcDbLine
 10
107.7204642232
 20
162.2932381359
 30
0.0
 11
109.720464551
 21
164.2932375324
 31
0.0
  0
LINE
  5
14C
330
1F
100
AcDbEntity
  8
SLD-0
  6
Continuous
 62
   179
370
    15
100
AcDbLine
 10
71.7204657729
 20
162.2932381359
 30
0.0
 11
107.7204642232
 21
162.2932381359
 31
0.0
  0
LINE
  5
14D
330
1F
100
AcDbEntity
  8
SLD-0
  6
Continuous
 62
   179
370
    15
100
AcDbLine
 10
109.720464551
 20
164.2932375324
 30
0.0
 11
109.720464998
 21
187.7932378006
 31
0.0
  0
LINE
  5
14E
330
1F
100
AcDbEntity
  8
SLD-0
  6
Continuous
 62
   179
370
    15
100
AcDbLine
 10
69.720464998
 20
187.7932378006
 30
0.0
 11
69.7204654451
 21
164.2932375324
 31
0.0
  0
LINE
  5
14F
330
1F
100
AcDbEntity
  8
SLD-0
100
AcDbLine
 10
91.5818419376
 20
192.6473322872
 30
0.0
 11
89.2821854004
 21
190.6569605102
 31
0.0
  0
LINE
  5
150
330
1F
100
AcDbEntity
  8
SLD-0
100
AcDbLine
 10
89.2821854004
 20
190.6569605102
 30
0.0
 11
90.8120101971
 21
193.2855791762
 31
0.0
  0
LINE
  5
151
330
1F
100
AcDbEntity
  8
SLD-0
100
AcDbLine
 10
90.8120101971
 20
193.2855791762
 30
0.0
 11
91.5818419376
 21
192.6473322872
 31
0.0
  0
LINE
  5
152
330
1F
100
AcDbEntity
  8
SLD-0
  6
Continuous
 62
   179
370
     0
100
AcDbLine
 10
91.1969260674
 20
192.9664557317
 30
0.0
 11
101.2777112537
 21
205.1255567621
 31
0.0
  0
LINE
  5
153
330
1F
100
AcDbEntity
  8
SLD-0
  6
Continuous
 62
   179
370
     0
100
AcDbLine
 10
101.2777112537
 20
205.1255567621
 30
0.0
 11
124.1827110563
 21
205.1255567621
 31
0.0
  0
LINE
  5
154
330
1F
100
AcDbEntity
  8
SLD-0
  6
Continuous
 62
   179
370
    15
100
AcDbLine
 10
165.0061171985
 20
164.2932375324
 30
0.0
 11
168.0061171985
 21
164.2932375324
 31
0.0
  0
LINE
  5
155
330
1F
100
AcDbEntity
  8
SLD-0
  6
Continuous
 62
   179
370
    15
100
AcDbLine
 10
168.0061171985
 20
164.2932375324
 30
0.0
 11
168.0061171985
 21
162.2932381359
 31
0.0
  0
LINE
  5
156
330
1F
100
AcDbEntity
  8
SLD-0
  6
Continuous
 62
   179
370
    15
100
AcDbLine
 10
168.0061171985
 20
162.2932381359
 30
0.0
 11
165.0061171985
 21
162.2932381359
 31
0.0
  0
LINE
  5
157
330
1F
100
AcDbEntity
  8
SLD-0
  6
Continuous
 62
   179
370
    15
100
AcDbLine
 10
165.0061171985
 20
162.2932381359
 30
0.0
 11
165.0061171985
 21
164.2932375324
 31
0.0
  0
LINE
  5
158
330
1F
100
AcDbEntity
  8
SLD-0
  6
Continuous
 62
   179
370
    15
100
AcDbLine
 10
163.5061171985
 20
189.2932378006
 30
0.0
 11
150.0061179733
 21
189.2932378006
 31
0.0
  0
LINE
  5
159
330
1F
100
AcDbEntity
  8
SLD-0
  6
Continuous
 62
   179
370
    15
100
AcDbLine
 10
150.0061179733
 20
189.2932378006
 30
0.0
 11
150.0061179733
 21
190.7074512345
 31
0.0
  0
LINE
  5
15A
330
1F
100
AcDbEntity
  8
SLD-0
  6
Continuous
 62
   179
370
    15
100
AcDbLine
 10
150.0061179733
 20
190.7074512345
 30
0.0
 11
150.7581684029
 21
191.7681112316
 31
0.0
  0
LINE
  5
15B
330
1F
100
AcDbEntity
  8
SLD-0
  6
Continuous
 62
   179
370
    15
100
AcDbLine
 10
150.7581684029
 20
191.7681112316
 30
0.0
 11
150.3858330882
 21
192.2932374653
 31
0.0
  0
LINE
  5
15C
330
1F
100
AcDbEntity
  8
SLD-0
  6
Continuous
 62
   179
370
    15
100
AcDbLine
 10
150.3858330882
 20
192.2932374653
 30
0.0
 11
163.5061171985
 21
192.2932378006
 31
0.0
  0
LINE
  5
15D
330
1F
100
AcDbEntity
  8
SLD-0
  6
Continuous
 62
   179
370
    15
100
AcDbLine
 10
165.0061171985
 20
164.2932375324
 30
0.0
 11
165.0061171985
 21
187.7932378006
 31
0.0
  0
LINE
  5
15E
330
1F
100
AcDbEntity
  8
SLD-0
  6
Continuous
 62
   179
370
    15
100
AcDbLine
 10
168.0061171985
 20
164.2932375324
 30
0.0
 11
168.0061171985
 21
187.7932378006
 31
0.0
  0
LINE
  5
15F
330
1F
100
AcDbEntity
  8
SLD-0
  6
Continuous
 62
   179
370
    15
100
AcDbLine
 10
150.0061179733
 20
190.7074512345
 30
0.0
 11
150.0061179733
 21
192.2932374653
 31
0.0
  0
LINE
  5
160
330
1F
100
AcDbEntity
  8
SLD-0
  6
Continuous
 62
   179
370
    15
100
AcDbLine
 10
150.3858330882
 20
192.2932374653
 30
0.0
 11
150.0061179733
 21
192.2932374653
 31
0.0
  0
CIRCLE
  5
161
330
1F
100
AcDbEntity
  8
SLD-0
  6
Continuous
 62
   179
370
    15
100
AcDbCircle
 10
73.720464998
 20
167.2932378006
 30
0.0
 40
2.25
  0
CIRCLE
  5
162
330
1F
100
AcDbEntity
  8
SLD-0
  6
Continuous
 62
   179
370
    15
100
AcDbCircle
 10
105.720464998
 20
167.2932378006
 30
0.0
 40
2.250000000000014
  0
CIRCLE
  5
163
330
1F
100
AcDbEntity
  8
SLD-0
  6
Continuous
 62
   179
370
    15
100
AcDbCircle
 10
81.720464998
 20
167.2932378006
 30
0.0
 40
2.250000000000014
  0
CIRCLE
  5
164
330
1F
100
AcDbEntity
  8
SLD-0
  6
Continuous
 62
   179
370
    15
100
AcDbCircle
 10
81.720464998
 20
183.2932378006
 30
0.0
 40
2.250000000000014
  0
CIRCLE
  5
165
330
1F
100
AcDbEntity
  8
SLD-0
  6
Continuous
 62
   179
370
    15
100
AcDbCircle
 10
97.720464998
 20
183.2932378006
 30
0.0
 40
2.25
  0
CIRCLE
  5
166
330
1F
100
AcDbEntity
  8
SLD-0
  6
Continuous
 62
   179
370
    15
100
AcDbCircle
 10
105.720464998
 20
183.2932378006
 30
0.0
 40
2.250000000000014
  0
CIRCLE
  5
167
330
1F
100
AcDbEntity
  8
SLD-0
  6
Continuous
 62
   179
370
    15
100
AcDbCircle
 10
73.720464998
 20
183.2932378006
 30
0.0
 40
2.25
  0
CIRCLE
  5
168
330
1F
100
AcDbEntity
  8
SLD-0
  6
Continuous
 62
   179
370
    15
100
AcDbCircle
 10
97.720464998
 20
167.2932378006
 30
0.0
 40
2.25
  0
ARC
  5
169
330
1F
100
AcDbEntity
  8
SLD-0
  6
Continuous
 62
   179
370
    15
100
AcDbCircle
 10
163.5061171985
 20
187.7932378006
 30
0.0
 40
1.5
100
AcDbArc
 50
0.0
 51
90.0
  0
ARC
  5
16A
330
1F
100
AcDbEntity
  8
SLD-0
  6
Continuous
 62
   179
370
    15
100
AcDbCircle
 10
163.5061171985
 20
187.7932378006
 30
0.0
 40
4.5
100
AcDbArc
 50
0.0
 51
90.0
  0
DIMENSION
  5
16B
330
1F
100
AcDbEntity
  8
SLD-0
 62
     7
100
AcDbDimension
  2
*D10
 10
60.276768092
 20
167.2932378006
 30
0.0
 11
60.276768092
 21
155.924922692
 31
0.0
 70
   160
 71
     1
 42
5.0
  3
SLDDIMSTYLE0
100
AcDbAlignedDimension
 13
71.720464998
 23
162.2932378006
 33
0.0
 14
68.970464998
 24
167.2932378006
 34
0.0
 50
90.0
100
AcDbRotatedDimension
1001
ACAD
1000
DSTYLE
1002
{
1070
    77
1070
     3
1070
   143
1040
0.0393700787
1070
    41
1040
3.0
1070
    44
1040
1.0
1070
    42
1040
1.0
1070
   147
1040
1.524
1070
    73
1070
     0
1070
    74
1070
     0
1070
   140
1040
3.5
1070
   284
1070
    12
1070
    78
1070
    12
1002
}
  0
DIMENSION
  5
18C
330
1F
100
AcDbEntity
  8
SLD-0
 62
     7
100
AcDbDimension
  2
*D12
 10
60.276768092
 20
167.2932378006
 30
0.0
 11
60.276768092
 21
175.2932378006
 31
0.0
 70
   160
 71
     1
 42
16.0
  3
SLDDIMSTYLE0
100
AcDbAlignedDimension
 13
68.970464998
 23
183.2932378006
 33
0.0
 14
68.970464998
 24
167.2932378006
 34
0.0
 50
90.0
100
AcDbRotatedDimension
1001
ACAD
1000
DSTYLE
1002
{
1070
    77
1070
     3
1070
   143
1040
0.0393700787
1070
    41
1040
3.0
1070
    44
1040
1.0
1070
    42
1040
1.0
1070
   147
1040
1.524
1070
    73
1070
     0
1070
    74
1070
     0
1070
   140
1040
3.5
1070
   284
1070
    12
1070
    78
1070
    12
1002
}
  0
DIMENSION
  5
1A6
330
1F
100
AcDbEntity
  8
SLD-0
 62
     7
100
AcDbDimension
  2
*D13
 10
69.720464998
 20
140.6075511474
 30
0.0
 11
60.3934239841
 21
140.6075511474
 31
0.0
 70
   160
 71
     1
 42
4.0
  3
SLDDIMSTYLE0
100
AcDbAlignedDimension
 13
73.720464998
 23
162.5432378006
 33
0.0
 14
69.720464998
 24
164.2932378006
 34
0.0
100
AcDbRotatedDimension
1001
ACAD
1000
DSTYLE
1002
{
1070
    77
1070
     3
1070
   143
1040
0.0393700787
1070
    41
1040
3.0
1070
    44
1040
1.0
1070
    42
1040
1.0
1070
   147
1040
1.524
1070
    73
1070
     0
1070
    74
1070
     0
1070
   140
1040
3.5
1070
   284
1070
    12
1070
    78
1070
    12
1002
}
  0
DIMENSION
  5
1C2
330
1F
100
AcDbEntity
  8
SLD-0
 62
     7
100
AcDbDimension
  2
*D14
 10
73.720464998
 20
151.5720752077
 30
0.0
 11
77.720464998
 21
151.5720752077
 31
0.0
 70
   160
 71
     1
 42
8.0
  3
SLDDIMSTYLE0
100
AcDbAlignedDimension
 13
81.720464998
 23
162.5432378006
 33
0.0
 14
73.720464998
 24
162.5432378006
 34
0.0
100
AcDbRotatedDimension
1001
ACAD
1000
DSTYLE
1002
{
1070
    77
1070
     3
1070
   143
1040
0.0393700787
1070
    41
1040
3.0
1070
    44
1040
1.0
1070
    42
1040
1.0
1070
   147
1040
1.524
1070
    73
1070
     0
1070
    74
1070
     0
1070
   140
1040
3.5
1070
   284
1070
    12
1070
    78
1070
    12
1002
}
  0
DIMENSION
  5
1DC
330
1F
100
AcDbEntity
  8
SLD-0
 62
     7
100
AcDbDimension
  2
*D15
 10
73.720464998
 20
140.6075511474
 30
0.0
 11
89.720464998
 21
140.6075511474
 31
0.0
 70
   160
 71
     1
 42
32.0
  3
SLDDIMSTYLE0
100
AcDbAlignedDimension
 13
105.720464998
 23
162.5432378006
 33
0.0
 14
73.720464998
 24
162.5432378006
 34
0.0
100
AcDbRotatedDimension
1001
ACAD
1000
DSTYLE
1002
{
1070
    77
1070
     3
1070
   143
1040
0.0393700787
1070
    41
1040
3.0
1070
    44
1040
1.0
1070
    42
1040
1.0
1070
   147
1040
1.524
1070
    73
1070
     0
1070
    74
1070
     0
1070
   140
1040
3.5
1070
   284
1070
    12
1070
    78
1070
    12
1002
}
  0
DIMENSION
  5
1F3
330
1F
100
AcDbEntity
  8
SLD-0
 62
     7
100
AcDbDimension
  2
*D16
 10
105.720464998
 20
140.6075511474
 30
0.0
 11
116.6465584591
 21
140.6075511474
 31
0.0
 70
   160
  1
(<>)
 71
     1
 42
4.0
  3
SLDDIMSTYLE0
100
AcDbAlignedDimension
 13
109.720464998
 23
164.2932378006
 33
0.0
 14
105.720464998
 24
162.5432378006
 34
0.0
100
AcDbRotatedDimension
1001
ACAD
1000
DSTYLE
1002
{
1070
    77
1070
     3
1070
   143
1040
0.0393700787
1070
    41
1040
3.0
1070
    44
1040
1.0
1070
    42
1040
1.0
1070
   147
1040
1.524
1070
    73
1070
     0
1070
    74
1070
     0
1070
   140
1040
3.5
1070
   284
1070
    12
1070
    78
1070
    12
1002
}
  0
DIMENSION
  5
211
330
1F
100
AcDbEntity
  8
SLD-0
 62
     7
100
AcDbDimension
  2
*D17
 10
97.720464998
 20
151.5720752077
 30
0.0
 11
101.720464998
 21
151.5720752077
 31
0.0
 70
   160
 71
     1
 42
8.0
  3
SLDDIMSTYLE0
100
AcDbAlignedDimension
 13
105.720464998
 23
162.5432378006
 33
0.0
 14
97.720464998
 24
162.5432378006
 34
0.0
100
AcDbRotatedDimension
1001
ACAD
1000
DSTYLE
1002
{
1070
    77
1070
     3
1070
   143
1040
0.0393700787
1070
    41
1040
3.0
1070
    44
1040
1.0
1070
    42
1040
1.0
1070
   147
1040
1.524
1070
    73
1070
     0
1070
    74
1070
     0
1070
   140
1040
3.5
1070
   284
1070
    12
1070
    78
1070
    12
1002
}
  0
DIMENSION
  5
22B
330
1F
100
AcDbEntity
  8
SLD-0
 62
     7
100
AcDbDimension
  2
*D18
 10
2.403969018
 20
3.8040672694
 30
0.0
 11
124.886481742
 21
-5.07209034
 31
0.0
 70
   163
  1
8-<>
 71
     1
 42
4.4999994255
  3
SLDDIMSTYLE1
100
AcDbDiametricDimension
 15
0.0
 25
0.0
 35
0.0
 40
0.0
1001
ACAD
1000
DSTYLE
1002
{
1070
    77
1070
     0
1070
   143
1040
0.0393700787
1070
    41
1040
3.0
1070
    44
1040
1.0
1070
    42
1040
1.0
1070
   147
1040
1.524
1070
    73
1070
     1
1070
    74
1070
     1
1070
   140
1040
3.5
1070
   284
1070
    12
1070
    78
1070
    12
1002
}
  0
DIMENSION
  5
23E
330
1F
100
AcDbEntity
  8
SLD-0
 62
     7
100
AcDbDimension
  2
*D19
 10
52.4070825926
 20
192.2932378006
 30
0.0
 11
52.4070825926
 21
177.2932378006
 31
0.0
 70
   160
 71
     1
 42
30.0
  3
SLDDIMSTYLE0
100
AcDbAlignedDimension
 13
71.720464998
 23
162.2932378006
 33
0.0
 14
71.5684626908
 24
192.2932378006
 34
0.0
 50
90.0
100
AcDbRotatedDimension
1001
ACAD
1000
DSTYLE
1002
{
1070
    77
1070
     3
1070
   143
1040
0.0393700787
1070
    41
1040
3.0
1070
    44
1040
1.0
1070
    42
1040
1.0
1070
   147
1040
1.524
1070
    73
1070
     0
1070
    74
1070
     0
1070
   140
1040
3.5
1070
   284
1070
    12
1070
    78
1070
    12
1002
}
  0
DIMENSION
  5
256
330
1F
100
AcDbEntity
  8
SLD-0
 62
     7
100
AcDbDimension
  2
*D20
 10
73.7184626908
 20
192.2932378006
 30
0.0
 11
85.8536488986
 21
197.3197965098
 31
0.0
 70
   162
 71
     1
 42
0.7853981634
  3
SLDDIMSTYLE2
100
AcDb2LineAngularDimension
 13
75.8684626908
 23
192.2932378006
 33
0.0
 14
74.807802519
 24
192.2932378006
 34
0.0
 15
70.7184626908
 25
189.2932378006
 35
0.0
 16
86.6011076556
 26
194.8557552087
 36
0.0
1001
ACAD
1000
DSTYLE
1002
{
1070
    77
1070
     3
1070
   143
1040
0.0393700787
1070
    41
1040
3.0
1070
    44
1040
1.0
1070
    42
1040
1.0
1070
   147
1040
1.524
1070
    73
1070
     0
1070
    74
1070
     0
1070
   140
1040
3.5
1070
   284
1070
    12
1070
    78
1070
    12
1002
}
  0
DIMENSION
  5
273
330
1F
100
AcDbEntity
  8
SLD-0
 62
     7
100
AcDbDimension
  2
*D21
 10
69.720464998
 20
132.4180487118
 30
0.0
 11
89.720464998
 21
132.4180487118
 31
0.0
 70
   160
 71
     1
 42
40.0
  3
SLDDIMSTYLE0
100
AcDbAlignedDimension
 13
109.720464998
 23
164.2932378006
 33
0.0
 14
69.720464998
 24
164.2932378006
 34
0.0
100
AcDbRotatedDimension
1001
ACAD
1000
DSTYLE
1002
{
1070
    77
1070
     3
1070
   143
1040
0.0393700787
1070
    41
1040
3.0
1070
    44
1040
1.0
1070
    42
1040
1.0
1070
   147
1040
1.524
1070
    73
1070
     0
1070
    74
1070
     0
1070
   140
1040
3.5
1070
   284
1070
    12
1070
    78
1070
    12
1002
}
  0
DIMENSION
  5
28A
330
1F
100
AcDbEntity
  8
SLD-0
 62
     7
100
AcDbDimension
  2
*D22
 10
163.5061171985
 20
187.7932378006
 30
0.0
 11
144.1863594598
 21
178.4250718003
 31
0.0
 70
   164
  1
最小曲<>
 71
     1
 42
248.999097438
  3
SLDDIMSTYLE3
100
AcDbRadialDimension
 15
0.0
 25
0.0
 35
0.0
 40
0.0
1001
ACAD
1000
DSTYLE
1002
{
1070
    77
1070
     0
1070
   143
1040
0.0393700787
1070
    41
1040
3.0
1070
    44
1040
1.0
1070
    42
1040
1.0
1070
   147
1040
1.524
1070
    73
1070
     1
1070
    74
1070
     1
1070
   140
1040
3.5
1070
   284
1070
    12
1070
    78
1070
    12
1002
}
  0
DIMENSION
  5
29D
330
1F
100
AcDbEntity
  8
SLD-0
 62
     7
100
AcDbDimension
  2
*D23
 10
165.0061171985
 20
150.6285695815
 30
0.0
 11
175.7322716784
 21
150.6285695815
 31
0.0
 70
   160
  1
t<>
 71
     1
 42
3.0
  3
SLDDIMSTYLE0
100
AcDbAlignedDimension
 13
168.0061171985
 23
162.2932378006
 33
0.0
 14
165.0061171985
 24
162.2932378006
 34
0.0
100
AcDbRotatedDimension
1001
ACAD
1000
DSTYLE
1002
{
1070
    77
1070
     3
1070
   143
1040
0.0393700787
1070
    41
1040
3.0
1070
    44
1040
1.0
1070
    42
1040
1.0
1070
   147
1040
1.524
1070
    73
1070
     0
1070
    74
1070
     0
1070
   140
1040
3.5
1070
   284
1070
    12
1070
    78
1070
    12
1002
}
  0
DIMENSION
  5
2BA
330
1F
100
AcDbEntity
  8
SLD-0
 62
     7
100
AcDbDimension
  2
*D24
 10
168.0061171985
 20
197.5533158541
 30
0.0
 11
159.0061171985
 21
197.5533158541
 31
0.0
 70
   160
 71
     1
 42
18.0
  3
SLDDIMSTYLE0
100
AcDbAlignedDimension
 13
150.0061171985
 23
190.707451363
 33
0.0
 14
168.0061171985
 24
187.7932378006
 34
0.0
100
AcDbRotatedDimension
1001
ACAD
1000
DSTYLE
1002
{
1070
    77
1070
     3
1070
   143
1040
0.0393700787
1070
    41
1040
3.0
1070
    44
1040
1.0
1070
    42
1040
1.0
1070
   147
1040
1.524
1070
    73
1070
     0
1070
    74
1070
     0
1070
   140
1040
3.5
1070
   284
1070
    12
1070
    78
1070
    12
1002
}
  0
MTEXT
  5
2D3
330
1F
100
AcDbEntity
  8
SLD-0
 62
     7
100
AcDbMText
 10
161.2103101796
 20
46.3342862055
 30
0.0
 40
4.2333333333
 41
0.0
 71
     1
 72
     1
  1
Ｌ型当板
  7
SLDTEXTSTYLE0
 73
     1
 44
1.0
  0
MTEXT
  5
2D4
330
1F
100
AcDbEntity
  8
SLD-0
 62
     7
100
AcDbMText
 10
158.7817365696
 20
32.2167169112
 30
0.0
 40
4.2333333333
 41
0.0
 71
     1
 72
     1
  1
NCON-CP-03
  7
SLDTEXTSTYLE0
 73
     1
 44
1.0
  0
MTEXT
  5
2D5
330
1F
100
AcDbEntity
  8
SLD-0
 62
     7
100
AcDbMText
 10
163.3592046917
 20
18.5817054837
 30
0.0
 40
4.2333333333
 41
0.0
 71
     1
 72
     1
  1
131258
  7
SLDTEXTSTYLE0
 73
     1
 44
1.0
  0
MTEXT
  5
2D6
330
1F
100
AcDbEntity
  8
SLD-0
 62
     7
100
AcDbMText
 10
101.9350592184
 20
214.6590608433
 30
0.0
 40
3.5
 41
0.0
 71
     1
 72
     1
  1
セレーション
  7
SLDTEXTSTYLE0
 73
     1
 44
1.0
  0
MTEXT
  5
2D7
330
1F
100
AcDbEntity
  8
SLD-0
 62
     7
100
AcDbMText
 10
101.7781846372
 20
209.2013761018
 30
0.0
 40
3.5
 41
0.0
 71
     1
 72
     1
  1
P=1.5深0.75
  7
SLDTEXTSTYLE0
 73
     1
 44
1.0
  0
HATCH
  5
2D8
330
1F
100
AcDbEntity
  8
0
  6
Continuous
 62
   179
100
AcDbHatch
 10
0.0
 20
0.0
 30
0.0
210
0.0
220
0.0
230
1.0
  2
ANSI32
 70
     0
 71
     0
 91
        1
 92
        0
 93
        3
 72
     1
 10
90.81201019713456
 20
193.28557917621
 11
91.58184193763862
 21
192.6473322872145
 72
     1
 10
91.58184193763862
 20
192.6473322872145
 11
89.2821854004
 21
190.6569605102
 72
     1
 10
89.2821854004
 20
190.6569605102
 11
90.81201019713456
 21
193.28557917621
 97
        0
 75
     0
 76
     1
 52
0.0
 41
1.0
 77
     0
 78
     1
 53
45.00000209717174
 43
0.0
 44
0.0
 45
-2.245064112442359
 46
2.245063948092215
 79
     0
 98
        1
 10
0.0
 20
0.0
  0
INSERT
  5
2D9
330
1F
100
AcDbEntity
  8
0
  6
Continuous
 62
     7
370
     0
100
AcDbBlockReference
  2
SW_CENTERMARKSYMBOL_0
 10
73.720464998
 20
167.2932378006
 30
0.0
  0
INSERT
  5
2DA
330
1F
100
AcDbEntity
  8
0
  6
Continuous
 62
     7
370
     0
100
AcDbBlockReference
  2
SW_CENTERMARKSYMBOL_1
 10
105.720464998
 20
167.2932378006
 30
0.0
  0
INSERT
  5
2DB
330
1F
100
AcDbEntity
  8
0
  6
Continuous
 62
     7
370
     0
100
AcDbBlockReference
  2
SW_CENTERMARKSYMBOL_2
 10
73.720464998
 20
183.2932378006
 30
0.0
  0
INSERT
  5
2DC
330
1F
100
AcDbEntity
  8
0
  6
Continuous
 62
     7
370
     0
100
AcDbBlockReference
  2
SW_CENTERMARKSYMBOL_3
 10
105.720464998
 20
183.2932378006
 30
0.0
  0
INSERT
  5
2DD
330
1F
100
AcDbEntity
  8
0
  6
Continuous
 62
     7
370
     0
100
AcDbBlockReference
  2
SW_CENTERMARKSYMBOL_4
 10
97.720464998
 20
183.2932378006
 30
0.0
  0
INSERT
  5
2DE
330
1F
100
AcDbEntity
  8
0
  6
Continuous
 62
     7
370
     0
100
AcDbBlockReference
  2
SW_CENTERMARKSYMBOL_5
 10
81.720464998
 20
183.2932378006
 30
0.0
  0
INSERT
  5
2DF
330
1F
100
AcDbEntity
  8
0
  6
Continuous
 62
     7
370
     0
100
AcDbBlockReference
  2
SW_CENTERMARKSYMBOL_6
 10
81.720464998
 20
167.2932378006
 30
0.0
  0
INSERT
  5
2E0
330
1F
100
AcDbEntity
  8
0
  6
Continuous
 62
     7
370
     0
100
AcDbBlockReference
  2
SW_CENTERMARKSYMBOL_7
 10
97.720464998
 20
167.2932378006
 30
0.0
  0
ENDSEC
  0
SECTION
  2
OBJECTS
  0
DICTIONARY
  5
C
330
0
100
AcDbDictionary
281
     1
  3
ACAD_GROUP
350
D
  3
ACAD_LAYOUT
350
1A
  3
ACAD_MLINESTYLE
350
17
  3
ACAD_PLOTSETTINGS
350
19
  3
ACAD_PLOTSTYLENAME
350
E
  0
DICTIONARY
  5
D
102
{ACAD_REACTORS
330
C
102
}
330
C
100
AcDbDictionary
281
     1
  0
DICTIONARY
  5
1A
102
{ACAD_REACTORS
330
C
102
}
330
C
100
AcDbDictionary
281
     1
  3
Layout1
350
1E
  3
Layout2
350
26
  3
Model
350
22
  0
DICTIONARY
  5
17
102
{ACAD_REACTORS
330
C
102
}
330
C
100
AcDbDictionary
281
     1
  3
Standard
350
18
  0
DICTIONARY
  5
19
102
{ACAD_REACTORS
330
C
102
}
330
C
100
AcDbDictionary
281
     1
  0
ACDBDICTIONARYWDFLT
  5
E
102
{ACAD_REACTORS
330
C
102
}
330
C
100
AcDbDictionary
281
     1
  3
Normal
350
F
100
AcDbDictionaryWithDefault
340
F
  0
LAYOUT
  5
1E
102
{ACAD_REACTORS
330
1A
102
}
330
1A
100
AcDbPlotSettings
  1

  2

  4

  6

 40
0.0
 41
0.0
 42
0.0
 43
0.0
 44
0.0
 45
0.0
 46
0.0
 47
0.0
 48
0.0
 49
0.0
140
0.0
141
0.0
142
1.0
143
1.0
 70
   688
 72
     0
 73
     0
 74
     5
  7

 75
    16
147
1.0
148
0.0
149
0.0
100
AcDbLayout
  1
Layout1
 70
     1
 71
     1
 10
0.0
 20
0.0
 11
0.0
 21
0.0
 12
0.0
 22
0.0
 32
0.0
 14
0.0
 24
0.0
 34
0.0
 15
0.0
 25
0.0
 35
0.0
146
0.0
 13
0.0
 23
0.0
 33
0.0
 16
1.0
 26
0.0
 36
0.0
 17
0.0
 27
1.0
 37
0.0
 76
     0
330
1B
  0
LAYOUT
  5
26
102
{ACAD_REACTORS
330
1A
102
}
330
1A
100
AcDbPlotSettings
  1

  2

  4

  6

 40
0.0
 41
0.0
 42
0.0
 43
0.0
 44
0.0
 45
0.0
 46
0.0
 47
0.0
 48
0.0
 49
0.0
140
0.0
141
0.0
142
1.0
143
1.0
 70
   688
 72
     0
 73
     0
 74
     5
  7

 75
    16
147
1.0
148
0.0
149
0.0
100
AcDbLayout
  1
Layout2
 70
     1
 71
     2
 10
0.0
 20
0.0
 11
0.0
 21
0.0
 12
0.0
 22
0.0
 32
0.0
 14
0.0
 24
0.0
 34
0.0
 15
0.0
 25
0.0
 35
0.0
146
0.0
 13
0.0
 23
0.0
 33
0.0
 16
1.0
 26
0.0
 36
0.0
 17
0.0
 27
1.0
 37
0.0
 76
     0
330
23
  0
LAYOUT
  5
22
102
{ACAD_REACTORS
330
1A
102
}
330
1A
100
AcDbPlotSettings
  1

  2

  4

  6

 40
0.0
 41
0.0
 42
0.0
 43
0.0
 44
0.0
 45
0.0
 46
0.0
 47
0.0
 48
0.0
 49
0.0
140
0.0
141
0.0
142
1.0
143
1.0
 70
  1712
 72
     0
 73
     0
 74
     0
  7

 75
     0
147
1.0
148
0.0
149
0.0
100
AcDbLayout
  1
Model
 70
     1
 71
     0
 10
0.0
 20
0.0
 11
0.0
 21
0.0
 12
0.0
 22
0.0
 32
0.0
 14
0.0
 24
0.0
 34
0.0
 15
210.0
 25
297.0
 35
0.0
146
0.0
 13
0.0
 23
0.0
 33
0.0
 16
1.0
 26
0.0
 36
0.0
 17
0.0
 27
1.0
 37
0.0
 76
     0
330
1F
  0
MLINESTYLE
  5
18
102
{ACAD_REACTORS
330
17
102
}
330
17
100
AcDbMlineStyle
  2
Standard
 70
     0
  3

 62
   256
 51
90.0
 52
90.0
 71
     2
 49
0.5
 62
   256
  6
BYLAYER
 49
-0.5
 62
   256
  6
BYLAYER
  0
ACDBPLACEHOLDER
  5
F
102
{ACAD_REACTORS
330
E
102
}
330
E
  0
ENDSEC
  0
EOF
