  0
SECTION
  2
HEADER
  9
$ACADVER
  1
AC1015
  9
$ACADMAINTVER
 70
     6
  9
$DWGCODEPAGE
  3
DOS932
  9
$INSBASE
 10
0.0
 20
0.0
 30
0.0
  9
$EXTMIN
 10
0.0
 20
0.0
 30
0.0
  9
$EXTMAX
 10
210.0
 20
297.0
 30
0.0
  9
$LIMMIN
 10
0.0
 20
0.0
  9
$LIMMAX
 10
0.0
 20
0.0
  9
$ORTHOMODE
 70
     0
  9
$REGENMODE
 70
     1
  9
$FILLMODE
 70
     1
  9
$QTEXTMODE
 70
     0
  9
$MIRRTEXT
 70
     1
  9
$LTSCALE
 40
1.0
  9
$ATTMODE
 70
     1
  9
$TEXTSIZE
 40
3.5
  9
$TRACEWID
 40
1.0
  9
$TEXTSTYLE
  7
Standard
  9
$CLAYER
  8
0
  9
$CELTYPE
  6
ByLayer
  9
$CECOLOR
 62
   256
  9
$CELTSCALE
 40
1.0
  9
$DISPSILH
 70
     0
  9
$DIMSCALE
 40
1.0
  9
$DIMASZ
 40
3.0
  9
$DIMEXO
 40
1.0
  9
$DIMDLI
 40
3.75
  9
$DIMRND
 40
0.0
  9
$DIMDLE
 40
0.0
  9
$DIMEXE
 40
1.0
  9
$DIMTP
 40
0.0
  9
$DIMTM
 40
0.0
  9
$DIMTXT
 40
3.5
  9
$DIMCEN
 40
2.5
  9
$DIMTSZ
 40
0.0
  9
$DIMTOL
 70
     0
  9
$DIMLIM
 70
     0
  9
$DIMTIH
 70
     1
  9
$DIMTOH
 70
     1
  9
$DIMSE1
 70
     0
  9
$DIMSE2
 70
     0
  9
$DIMTAD
 70
     1
  9
$DIMZIN
 70
     1
  9
$DIMBLK
  1

  9
$DIMASO
 70
     1
  9
$DIMSHO
 70
     1
  9
$DIMPOST
  1

  9
$DIMAPOST
  1

  9
$DIMALT
 70
     0
  9
$DIMALTD
 70
     3
  9
$DIMALTF
 40
0.0393700787
  9
$DIMLFAC
 40
1.0
  9
$DIMTOFL
 70
     1
  9
$DIMTVP
 40
0.0
  9
$DIMTIX
 70
     0
  9
$DIMSOXD
 70
     0
  9
$DIMSAH
 70
     0
  9
$DIMBLK1
  1

  9
$DIMBLK2
  1

  9
$DIMSTYLE
  2
ISO-25
  9
$DIMCLRD
 70
     0
  9
$DIMCLRE
 70
     0
  9
$DIMCLRT
 70
     0
  9
$DIMTFAC
 40
1.0
  9
$DIMGAP
 40
1.524
  9
$DIMJUST
 70
     0
  9
$DIMSD1
 70
     0
  9
$DIMSD2
 70
     0
  9
$DIMTOLJ
 70
     0
  9
$DIMTZIN
 70
     1
  9
$DIMALTZ
 70
     0
  9
$DIMALTTZ
 70
     0
  9
$DIMUPT
 70
     0
  9
$DIMDEC
 70
     2
  9
$DIMTDEC
 70
     2
  9
$DIMALTU
 70
     2
  9
$DIMALTTD
 70
     3
  9
$DIMTXSTY
  7
Standard
  9
$DIMAUNIT
 70
     0
  9
$DIMADEC
 70
     0
  9
$DIMALTRND
 40
0.0
  9
$DIMAZIN
 70
     0
  9
$DIMDSEP
 70
    44
  9
$DIMATFIT
 70
     3
  9
$DIMFRAC
 70
     0
  9
$DIMLDRBLK
  1

  9
$DIMLUNIT
 70
     2
  9
$DIMLWD
 70
    -2
  9
$DIMLWE
 70
    -2
  9
$DIMTMOVE
 70
     0
  9
$LUNITS
 70
     2
  9
$LUPREC
 70
     1
  9
$SKETCHINC
 40
1.0
  9
$FILLETRAD
 40
10.0
  9
$AUNITS
 70
     0
  9
$AUPREC
 70
     0
  9
$MENU
  1
.
  9
$ELEVATION
 40
0.0
  9
$PELEVATION
 40
0.0
  9
$THICKNESS
 40
0.0
  9
$LIMCHECK
 70
     0
  9
$CHAMFERA
 40
10.0
  9
$CHAMFERB
 40
10.0
  9
$CHAMFERC
 40
20.0
  9
$CHAMFERD
 40
0.0
  9
$SKPOLY
 70
     0
  9
$TDCREATE
 40
2454723.632735637
  9
$TDUCREATE
 40
2454723.257735637
  9
$TDUPDATE
 40
2454723.632735648
  9
$TDUUPDATE
 40
2454723.257735648
  9
$TDINDWG
 40
0.0000000116
  9
$TDUSRTIMER
 40
0.0000000116
  9
$USRTIMER
 70
     1
  9
$ANGBASE
 50
0.0
  9
$ANGDIR
 70
     0
  9
$PDMODE
 70
     0
  9
$PDSIZE
 40
-1.0
  9
$PLINEWID
 40
0.0
  9
$SPLFRAME
 70
     0
  9
$SPLINETYPE
 70
     6
  9
$SPLINESEGS
 70
     8
  9
$HANDSEED
  5
279
  9
$SURFTAB1
 70
     6
  9
$SURFTAB2
 70
     6
  9
$SURFTYPE
 70
     6
  9
$SURFU
 70
     6
  9
$SURFV
 70
     6
  9
$UCSBASE
  2

  9
$UCSNAME
  2

  9
$UCSORG
 10
0.0
 20
0.0
 30
0.0
  9
$UCSXDIR
 10
1.0
 20
0.0
 30
0.0
  9
$UCSYDIR
 10
0.0
 20
1.0
 30
0.0
  9
$UCSORTHOREF
  2

  9
$UCSORTHOVIEW
 70
     0
  9
$UCSORGTOP
 10
0.0
 20
0.0
 30
0.0
  9
$UCSORGBOTTOM
 10
0.0
 20
0.0
 30
0.0
  9
$UCSORGLEFT
 10
0.0
 20
0.0
 30
0.0
  9
$UCSORGRIGHT
 10
0.0
 20
0.0
 30
0.0
  9
$UCSORGFRONT
 10
0.0
 20
0.0
 30
0.0
  9
$UCSORGBACK
 10
0.0
 20
0.0
 30
0.0
  9
$PUCSBASE
  2

  9
$PUCSNAME
  2

  9
$PUCSORG
 10
0.0
 20
0.0
 30
0.0
  9
$PUCSXDIR
 10
1.0
 20
0.0
 30
0.0
  9
$PUCSYDIR
 10
0.0
 20
1.0
 30
0.0
  9
$PUCSORTHOREF
  2

  9
$PUCSORTHOVIEW
 70
     0
  9
$PUCSORGTOP
 10
0.0
 20
0.0
 30
0.0
  9
$PUCSORGBOTTOM
 10
0.0
 20
0.0
 30
0.0
  9
$PUCSORGLEFT
 10
0.0
 20
0.0
 30
0.0
  9
$PUCSORGRIGHT
 10
0.0
 20
0.0
 30
0.0
  9
$PUCSORGFRONT
 10
0.0
 20
0.0
 30
0.0
  9
$PUCSORGBACK
 10
0.0
 20
0.0
 30
0.0
  9
$USERI1
 70
     0
  9
$USERI2
 70
     0
  9
$USERI3
 70
     0
  9
$USERI4
 70
     0
  9
$USERI5
 70
     0
  9
$USERR1
 40
0.0
  9
$USERR2
 40
0.0
  9
$USERR3
 40
0.0
  9
$USERR4
 40
0.0
  9
$USERR5
 40
0.0
  9
$WORLDVIEW
 70
     1
  9
$SHADEDGE
 70
     3
  9
$SHADEDIF
 70
    70
  9
$TILEMODE
 70
     1
  9
$MAXACTVP
 70
    64
  9
$PINSBASE
 10
0.0
 20
0.0
 30
0.0
  9
$PLIMCHECK
 70
     0
  9
$PEXTMIN
 10
1.0000000000E+20
 20
1.0000000000E+20
 30
1.0000000000E+20
  9
$PEXTMAX
 10
-1.0000000000E+20
 20
-1.0000000000E+20
 30
-1.0000000000E+20
  9
$PLIMMIN
 10
0.0
 20
0.0
  9
$PLIMMAX
 10
420.0
 20
297.0
  9
$UNITMODE
 70
     0
  9
$VISRETAIN
 70
     1
  9
$PLINEGEN
 70
     0
  9
$PSLTSCALE
 70
     1
  9
$TREEDEPTH
 70
  3020
  9
$CMLSTYLE
  2
Standard
  9
$CMLJUST
 70
     0
  9
$CMLSCALE
 40
20.0
  9
$PROXYGRAPHICS
 70
     1
  9
$MEASUREMENT
 70
     1
  9
$CELWEIGHT
370
    -1
  9
$ENDCAPS
280
     0
  9
$JOINSTYLE
280
     0
  9
$LWDISPLAY
290
     1
  9
$INSUNITS
 70
     4
  9
$HYPERLINKBASE
  1

  9
$STYLESHEET
  1

  9
$XEDIT
290
     1
  9
$CEPSNTYPE
380
     0
  9
$PSTYLEMODE
290
     1
  9
$FINGERPRINTGUID
  2
{4B6376DC-C706-49CB-96BD-F5DA02A3A8F9}
  9
$VERSIONGUID
  2
{FAEB1C32-E019-11D5-929B-00C0DF256EC4}
  9
$EXTNAMES
290
     1
  9
$PSVPSCALE
 40
0.0
  9
$OLESTARTUP
290
     0
  0
ENDSEC
  0
SECTION
  2
CLASSES
  0
CLASS
  1
ACDBDICTIONARYWDFLT
  2
AcDbDictionaryWithDefault
  3
ObjectDBX Classes
 90
        0
280
     0
281
     0
  0
CLASS
  1
ACDBPLACEHOLDER
  2
AcDbPlaceHolder
  3
ObjectDBX Classes
 90
        0
280
     0
281
     0
  0
CLASS
  1
LAYOUT
  2
AcDbLayout
  3
ObjectDBX Classes
 90
        0
280
     0
281
     0
  0
ENDSEC
  0
SECTION
  2
TABLES
  0
TABLE
  2
VPORT
  5
8
330
0
100
AcDbSymbolTable
 70
     1
  0
VPORT
  5
29
330
8
100
AcDbSymbolTableRecord
100
AcDbViewportTableRecord
  2
*Active
 70
     0
 10
0.0
 20
0.0
 11
1.0
 21
1.0
 12
105.0
 22
148.5
 13
0.0
 23
0.0
 14
10.0
 24
10.0
 15
10.0
 25
10.0
 16
0.0
 26
0.0
 36
1.0
 17
0.0
 27
0.0
 37
0.0
 40
297.0
 41
1.9729729729
 42
50.0
 43
0.0
 44
0.0
 50
0.0
 51
0.0
 71
     0
 72
  2000
 73
     1
 74
     3
 75
     0
 76
     0
 77
     0
 78
     0
281
     0
 65
     1
110
0.0
120
0.0
130
0.0
111
1.0
121
0.0
131
0.0
112
0.0
122
1.0
132
0.0
 79
     0
146
0.0
  0
ENDTAB
  0
TABLE
  2
LTYPE
  5
5
330
0
100
AcDbSymbolTable
 70
     6
  0
LTYPE
  5
14
330
5
100
AcDbSymbolTableRecord
100
AcDbLinetypeTableRecord
  2
ByBlock
 70
     0
  3

 72
    65
 73
     0
 40
0.0
  0
LTYPE
  5
15
330
5
100
AcDbSymbolTableRecord
100
AcDbLinetypeTableRecord
  2
ByLayer
 70
     0
  3

 72
    65
 73
     0
 40
0.0
  0
LTYPE
  5
16
330
5
100
AcDbSymbolTableRecord
100
AcDbLinetypeTableRecord
  2
Continuous
 70
     0
  3
Solid line
 72
    65
 73
     0
 40
0.0
  0
LTYPE
  5
2A
330
5
100
AcDbSymbolTableRecord
100
AcDbLinetypeTableRecord
  2
HIDDEN
 70
     0
  3
Hidden __ __ __ __ __ __ __ __ __ __ __ __ __ __
 72
    65
 73
     2
 40
1.905
 49
1.27
 74
     0
 49
-0.635
 74
     0
  0
LTYPE
  5
2B
330
5
100
AcDbSymbolTableRecord
100
AcDbLinetypeTableRecord
  2
PHANTOM
 70
     0
  3
Phantom ______  __  __  ______  __  __  ______
 72
    65
 73
     6
 40
12.7
 49
6.35
 74
     0
 49
-1.27
 74
     0
 49
1.27
 74
     0
 49
-1.27
 74
     0
 49
1.27
 74
     0
 49
-1.27
 74
     0
  0
LTYPE
  5
2C
330
5
100
AcDbSymbolTableRecord
100
AcDbLinetypeTableRecord
  2
CENTER
 70
     0
  3
Center ____ _ ____ _ ____ _ ____ _ ____ _ ____
 72
    65
 73
     4
 40
10.16
 49
6.35
 74
     0
 49
-1.27
 74
     0
 49
1.27
 74
     0
 49
-1.27
 74
     0
  0
LTYPE
  5
2D
330
5
100
AcDbSymbolTableRecord
100
AcDbLinetypeTableRecord
  2
CENTERX2
 70
     0
  3
Center (2x) ________  __  ________  __  _____
 72
    65
 73
     4
 40
20.32
 49
12.7
 74
     0
 49
-2.54
 74
     0
 49
2.54
 74
     0
 49
-2.54
 74
     0
  0
LTYPE
  5
2E
330
5
100
AcDbSymbolTableRecord
100
AcDbLinetypeTableRecord
  2
DOT2
 70
     0
  3
Dot (.5x) ........................................
 72
    65
 73
     2
 40
0.635
 49
0.0
 74
     0
 49
-0.635
 74
     0
  0
ENDTAB
  0
TABLE
  2
LAYER
  5
2
330
0
100
AcDbSymbolTable
 70
     4
  0
LAYER
  5
10
330
2
100
AcDbSymbolTableRecord
100
AcDbLayerTableRecord
  2
0
 70
     0
 62
     7
  6
Continuous
370
    -3
390
F
  0
LAYER
  5
2F
330
2
100
AcDbSymbolTableRecord
100
AcDbLayerTableRecord
  2
SLD-0
 70
     0
 62
   179
  6
Continuous
370
     0
390
F
  0
LAYER
  5
30
330
2
100
AcDbSymbolTableRecord
100
AcDbLayerTableRecord
  2
SLD-DEFPOINTS
 70
     0
 62
   179
  6
Continuous
370
     0
390
F
  0
LAYER
  5
D6
330
2
100
AcDbSymbolTableRecord
100
AcDbLayerTableRecord
  2
Defpoints
 70
     0
 62
     7
  6
Continuous
290
     0
370
    -3
390
F
  0
ENDTAB
  0
TABLE
  2
STYLE
  5
3
330
0
100
AcDbSymbolTable
 70
     3
  0
STYLE
  5
11
330
3
100
AcDbSymbolTableRecord
100
AcDbTextStyleTableRecord
  2
Standard
 70
     0
 40
0.0
 41
1.0
 50
0.0
 71
     0
 42
2.5
  3
txt
  4
bigfont
  0
STYLE
  5
34
330
3
100
AcDbSymbolTableRecord
100
AcDbTextStyleTableRecord
  2
SLDTEXTSTYLE0
 70
     0
 40
0.0
 41
0.7
 50
0.0
 71
     0
 42
0.2
  3
TXT
  4
bigfont
  0
STYLE
  5
F1
330
3
100
AcDbSymbolTableRecord
100
AcDbTextStyleTableRecord
  2
SLDTEXTSTYLE1
 70
     0
 40
0.0
 41
0.96
 50
0.0
 71
     0
 42
0.2
  3
TXT
  4
bigfont
  0
ENDTAB
  0
TABLE
  2
VIEW
  5
6
330
0
100
AcDbSymbolTable
 70
     0
  0
ENDTAB
  0
TABLE
  2
UCS
  5
7
330
0
100
AcDbSymbolTable
 70
     0
  0
ENDTAB
  0
TABLE
  2
APPID
  5
9
330
0
100
AcDbSymbolTable
 70
     1
  0
APPID
  5
12
330
9
100
AcDbSymbolTableRecord
100
AcDbRegAppTableRecord
  2
ACAD
 70
     0
  0
ENDTAB
  0
TABLE
  2
DIMSTYLE
  5
A
330
0
100
AcDbSymbolTable
 70
     6
100
AcDbDimStyleTable
  0
DIMSTYLE
105
27
330
A
100
AcDbSymbolTableRecord
100
AcDbDimStyleTableRecord
  2
ISO-25
 70
     0
 41
2.5
 42
0.625
 43
3.75
 44
1.25
 73
     0
 74
     0
 77
     1
 78
     8
140
2.5
141
2.5
143
0.0393700787
147
0.625
171
     3
172
     1
271
     2
272
     2
274
     3
278
    44
283
     0
284
     8
340
11
  0
DIMSTYLE
105
E4
102
{ACAD_REACTORS
330
D5
330
F3
330
10A
330
125
330
13D
330
154
330
16D
330
1B2
330
1CD
330
233
330
24C
102
}
330
A
100
AcDbSymbolTableRecord
100
AcDbDimStyleTableRecord
  2
SLDDIMSTYLE0
 70
     0
 41
3.0
 44
0.0
 73
     0
 74
     0
 77
     3
 78
    12
140
3.5
147
0.875
173
     1
271
     0
272
     2
284
    12
340
34
341
E5
343
E5
344
E5
  0
DIMSTYLE
105
192
102
{ACAD_REACTORS
330
184
330
1E7
330
1FF
102
}
330
A
100
AcDbSymbolTableRecord
100
AcDbDimStyleTableRecord
  2
SLDDIMSTYLE1
 70
     0
 41
3.0
 44
0.0
 73
     0
 74
     0
 77
     3
 78
    12
140
3.5
147
0.875
173
     1
271
     1
272
     2
284
    12
340
34
341
E5
343
E5
344
E5
  0
DIMSTYLE
105
1A9
102
{ACAD_REACTORS
330
19F
102
}
330
A
100
AcDbSymbolTableRecord
100
AcDbDimStyleTableRecord
  2
SLDDIMSTYLE2
 70
     0
 41
3.0
 44
0.0
 78
    12
140
3.5
147
0.875
173
     1
271
     2
272
     2
284
    12
340
34
341
E5
343
E5
344
E5
  0
DIMSTYLE
105
229
102
{ACAD_REACTORS
330
21A
102
}
330
A
100
AcDbSymbolTableRecord
100
AcDbDimStyleTableRecord
  2
SLDDIMSTYLE3
 70
     0
 41
3.0
 44
0.0
 73
     0
 74
     0
 77
     3
 78
    12
140
3.5
147
0.875
173
     1
272
     2
284
    12
340
34
341
E5
343
E5
344
E5
  0
DIMSTYLE
105
26C
330
A
100
AcDbSymbolTableRecord
100
AcDbDimStyleTableRecord
  2
SLDDIMSTYLE4
 70
     0
 41
3.0
 44
0.0
140
3.0
147
0.75
173
     1
271
     0
272
     0
340
11
341
26D
343
26D
344
26D
  0
ENDTAB
  0
TABLE
  2
BLOCK_RECORD
  5
1
330
0
100
AcDbSymbolTable
 70
    24
  0
BLOCK_RECORD
  5
1F
330
1
100
AcDbSymbolTableRecord
100
AcDbBlockTableRecord
  2
*Model_Space
340
22
  0
BLOCK_RECORD
  5
1B
330
1
100
AcDbSymbolTableRecord
100
AcDbBlockTableRecord
  2
*Paper_Space
340
1E
  0
BLOCK_RECORD
  5
23
330
1
100
AcDbSymbolTableRecord
100
AcDbBlockTableRecord
  2
*Paper_Space0
340
26
  0
BLOCK_RECORD
  5
31
330
1
100
AcDbSymbolTableRecord
100
AcDbBlockTableRecord
  2
注記
340
0
  0
BLOCK_RECORD
  5
37
330
1
100
AcDbSymbolTableRecord
100
AcDbBlockTableRecord
  2
SW_CENTERMARKSYMBOL_0
340
0
102
{BLKREFS
331
275
102
}
  0
BLOCK_RECORD
  5
42
330
1
100
AcDbSymbolTableRecord
100
AcDbBlockTableRecord
  2
SW_CENTERMARKSYMBOL_1
340
0
102
{BLKREFS
331
276
102
}
  0
BLOCK_RECORD
  5
4D
330
1
100
AcDbSymbolTableRecord
100
AcDbBlockTableRecord
  2
SW_CENTERMARKSYMBOL_2
340
0
102
{BLKREFS
331
277
102
}
  0
BLOCK_RECORD
  5
58
330
1
100
AcDbSymbolTableRecord
100
AcDbBlockTableRecord
  2
SW_CENTERMARKSYMBOL_3
340
0
102
{BLKREFS
331
278
102
}
  0
BLOCK_RECORD
  5
D7
330
1
100
AcDbSymbolTableRecord
100
AcDbBlockTableRecord
  2
*D6
340
0
  0
BLOCK_RECORD
  5
E5
330
1
100
AcDbSymbolTableRecord
100
AcDbBlockTableRecord
  2
_None
340
0
102
{BLKREFS
331
DC
331
DB
331
F9
331
F8
331
111
331
110
331
12B
331
12A
331
143
331
142
331
15A
331
159
331
173
331
172
331
18A
331
189
331
1A4
331
1B9
331
1B8
331
1D3
331
1D2
331
1ED
331
1EC
331
206
331
205
331
220
331
21F
331
239
331
238
331
253
331
252
102
}
  0
BLOCK_RECORD
  5
F4
330
1
100
AcDbSymbolTableRecord
100
AcDbBlockTableRecord
  2
*D8
340
0
  0
BLOCK_RECORD
  5
10B
330
1
100
AcDbSymbolTableRecord
100
AcDbBlockTableRecord
  2
*D9
340
0
  0
BLOCK_RECORD
  5
126
330
1
100
AcDbSymbolTableRecord
100
AcDbBlockTableRecord
  2
*D10
340
0
  0
BLOCK_RECORD
  5
13E
330
1
100
AcDbSymbolTableRecord
100
AcDbBlockTableRecord
  2
*D11
340
0
  0
BLOCK_RECORD
  5
155
330
1
100
AcDbSymbolTableRecord
100
AcDbBlockTableRecord
  2
*D12
340
0
  0
BLOCK_RECORD
  5
16E
330
1
100
AcDbSymbolTableRecord
100
AcDbBlockTableRecord
  2
*D13
340
0
  0
BLOCK_RECORD
  5
185
330
1
100
AcDbSymbolTableRecord
100
AcDbBlockTableRecord
  2
*D14
340
0
  0
BLOCK_RECORD
  5
1A0
330
1
100
AcDbSymbolTableRecord
100
AcDbBlockTableRecord
  2
*D15
340
0
  0
BLOCK_RECORD
  5
1B3
330
1
100
AcDbSymbolTableRecord
100
AcDbBlockTableRecord
  2
*D16
340
0
  0
BLOCK_RECORD
  5
1CE
330
1
100
AcDbSymbolTableRecord
100
AcDbBlockTableRecord
  2
*D17
340
0
  0
BLOCK_RECORD
  5
1E8
330
1
100
AcDbSymbolTableRecord
100
AcDbBlockTableRecord
  2
*D18
340
0
  0
BLOCK_RECORD
  5
200
330
1
100
AcDbSymbolTableRecord
100
AcDbBlockTableRecord
  2
*D19
340
0
  0
BLOCK_RECORD
  5
21B
330
1
100
AcDbSymbolTableRecord
100
AcDbBlockTableRecord
  2
*D20
340
0
  0
BLOCK_RECORD
  5
234
330
1
100
AcDbSymbolTableRecord
100
AcDbBlockTableRecord
  2
*D21
340
0
  0
BLOCK_RECORD
  5
24D
330
1
100
AcDbSymbolTableRecord
100
AcDbBlockTableRecord
  2
*D22
340
0
  0
BLOCK_RECORD
  5
26D
330
1
100
AcDbSymbolTableRecord
100
AcDbBlockTableRecord
  2
_Open30
340
0
  0
ENDTAB
  0
ENDSEC
  0
SECTION
  2
BLOCKS
  0
BLOCK
  5
20
330
1F
100
AcDbEntity
  8
0
100
AcDbBlockBegin
  2
*Model_Space
 70
     0
 71
     0
 10
0.0
 20
0.0
 30
0.0
  3
*Model_Space
  1

  0
ENDBLK
  5
21
330
1F
100
AcDbEntity
  8
0
100
AcDbBlockEnd
  0
BLOCK
  5
1C
330
1B
100
AcDbEntity
 67
     1
  8
0
100
AcDbBlockBegin
  2
*Paper_Space
 70
     0
 71
     0
 10
0.0
 20
0.0
 30
0.0
  3
*Paper_Space
  1

  0
ENDBLK
  5
1D
330
1B
100
AcDbEntity
 67
     1
  8
0
100
AcDbBlockEnd
  0
BLOCK
  5
24
330
23
100
AcDbEntity
  8
0
100
AcDbBlockBegin
  2
*Paper_Space0
 70
     0
 71
     0
 10
0.0
 20
0.0
 30
0.0
  3
*Paper_Space0
  1

  0
ENDBLK
  5
25
330
23
100
AcDbEntity
  8
0
100
AcDbBlockEnd
  0
BLOCK
  5
32
330
31
100
AcDbEntity
  8
0
100
AcDbBlockBegin
  2
注記
 70
     0
 71
     0
 10
0.0
 20
0.0
 30
0.0
  3
注記
  1

  0
MTEXT
  5
35
330
31
100
AcDbEntity
  8
0
  6
Continuous
 62
     7
370
     0
100
AcDbMText
 10
0.2636785918
 20
9.0739778448
 30
0.0
 40
3.5
 41
0.0
 71
     1
 72
     1
  1
１．特記ナキ角部ハ、バリ　カエリノ無キコト。
  7
SLDTEXTSTYLE0
 73
     1
 44
1.0
  0
MTEXT
  5
36
330
31
100
AcDbEntity
  8
0
  6
Continuous
 62
     7
370
     0
100
AcDbMText
 10
0.2636785918
 20
3.5759549983
 30
0.0
 40
3.5
 41
0.0
 71
     1
 72
     1
  1
２．特記ナキ隅部ハ、Ｒ０．４ＭＡＸトスル。
  7
SLDTEXTSTYLE0
 73
     1
 44
1.0
  0
ENDBLK
  5
33
330
31
100
AcDbEntity
  8
0
100
AcDbBlockEnd
  0
BLOCK
  5
38
330
37
100
AcDbEntity
  8
0
100
AcDbBlockBegin
  2
SW_CENTERMARKSYMBOL_0
 70
     0
 71
     0
 10
0.0
 20
0.0
 30
0.0
  3
SW_CENTERMARKSYMBOL_0
  1

  0
LINE
  5
3A
330
37
100
AcDbEntity
  8
SLD-0
  6
Continuous
 62
   179
370
     0
100
AcDbLine
 10
0.0
 20
0.0
 30
0.0
 11
0.0
 21
2.5
 31
0.0
  0
LINE
  5
3B
330
37
100
AcDbEntity
  8
SLD-0
  6
Continuous
 62
   179
370
     0
100
AcDbLine
 10
0.0
 20
0.0
 30
0.0
 11
-2.5
 21
0.0
 31
0.0
  0
LINE
  5
3C
330
37
100
AcDbEntity
  8
SLD-0
  6
Continuous
 62
   179
370
     0
100
AcDbLine
 10
0.0
 20
0.0
 30
0.0
 11
0.0
 21
-2.5
 31
0.0
  0
LINE
  5
3D
330
37
100
AcDbEntity
  8
SLD-0
  6
Continuous
 62
   179
370
     0
100
AcDbLine
 10
0.0
 20
0.0
 30
0.0
 11
2.5
 21
0.0
 31
0.0
  0
LINE
  5
3E
330
37
100
AcDbEntity
  8
SLD-0
  6
Continuous
 62
   179
370
     0
100
AcDbLine
 10
0.0
 20
2.5
 30
0.0
 11
0.0
 21
4.75
 31
0.0
  0
LINE
  5
3F
330
37
100
AcDbEntity
  8
SLD-0
  6
Continuous
 62
   179
370
     0
100
AcDbLine
 10
-2.5
 20
0.0
 30
0.0
 11
-4.75
 21
0.0
 31
0.0
  0
LINE
  5
40
330
37
100
AcDbEntity
  8
SLD-0
  6
Continuous
 62
   179
370
     0
100
AcDbLine
 10
0.0
 20
-2.5
 30
0.0
 11
0.0
 21
-4.75
 31
0.0
  0
LINE
  5
41
330
37
100
AcDbEntity
  8
SLD-0
  6
Continuous
 62
   179
370
     0
100
AcDbLine
 10
2.5
 20
0.0
 30
0.0
 11
4.75
 21
0.0
 31
0.0
  0
ENDBLK
  5
39
330
37
100
AcDbEntity
  8
0
100
AcDbBlockEnd
  0
BLOCK
  5
43
330
42
100
AcDbEntity
  8
0
100
AcDbBlockBegin
  2
SW_CENTERMARKSYMBOL_1
 70
     0
 71
     0
 10
0.0
 20
0.0
 30
0.0
  3
SW_CENTERMARKSYMBOL_1
  1

  0
LINE
  5
45
330
42
100
AcDbEntity
  8
SLD-0
  6
Continuous
 62
   179
370
     0
100
AcDbLine
 10
0.0
 20
0.0
 30
0.0
 11
0.0
 21
2.5
 31
0.0
  0
LINE
  5
46
330
42
100
AcDbEntity
  8
SLD-0
  6
Continuous
 62
   179
370
     0
100
AcDbLine
 10
0.0
 20
0.0
 30
0.0
 11
-2.5
 21
0.0
 31
0.0
  0
LINE
  5
47
330
42
100
AcDbEntity
  8
SLD-0
  6
Continuous
 62
   179
370
     0
100
AcDbLine
 10
0.0
 20
0.0
 30
0.0
 11
0.0
 21
-2.5
 31
0.0
  0
LINE
  5
48
330
42
100
AcDbEntity
  8
SLD-0
  6
Continuous
 62
   179
370
     0
100
AcDbLine
 10
0.0
 20
0.0
 30
0.0
 11
2.5
 21
0.0
 31
0.0
  0
LINE
  5
49
330
42
100
AcDbEntity
  8
SLD-0
  6
Continuous
 62
   179
370
     0
100
AcDbLine
 10
0.0
 20
2.5
 30
0.0
 11
0.0
 21
4.75
 31
0.0
  0
LINE
  5
4A
330
42
100
AcDbEntity
  8
SLD-0
  6
Continuous
 62
   179
370
     0
100
AcDbLine
 10
-2.5
 20
0.0
 30
0.0
 11
-4.75
 21
0.0
 31
0.0
  0
LINE
  5
4B
330
42
100
AcDbEntity
  8
SLD-0
  6
Continuous
 62
   179
370
     0
100
AcDbLine
 10
0.0
 20
-2.5
 30
0.0
 11
0.0
 21
-4.75
 31
0.0
  0
LINE
  5
4C
330
42
100
AcDbEntity
  8
SLD-0
  6
Continuous
 62
   179
370
     0
100
AcDbLine
 10
2.5
 20
0.0
 30
0.0
 11
4.75
 21
0.0
 31
0.0
  0
ENDBLK
  5
44
330
42
100
AcDbEntity
  8
0
100
AcDbBlockEnd
  0
BLOCK
  5
4E
330
4D
100
AcDbEntity
  8
0
100
AcDbBlockBegin
  2
SW_CENTERMARKSYMBOL_2
 70
     0
 71
     0
 10
0.0
 20
0.0
 30
0.0
  3
SW_CENTERMARKSYMBOL_2
  1

  0
LINE
  5
50
330
4D
100
AcDbEntity
  8
SLD-0
  6
Continuous
 62
   179
370
     0
100
AcDbLine
 10
0.0
 20
0.0
 30
0.0
 11
0.0
 21
2.5
 31
0.0
  0
LINE
  5
51
330
4D
100
AcDbEntity
  8
SLD-0
  6
Continuous
 62
   179
370
     0
100
AcDbLine
 10
0.0
 20
0.0
 30
0.0
 11
-2.5
 21
0.0
 31
0.0
  0
LINE
  5
52
330
4D
100
AcDbEntity
  8
SLD-0
  6
Continuous
 62
   179
370
     0
100
AcDbLine
 10
0.0
 20
0.0
 30
0.0
 11
0.0
 21
-2.5
 31
0.0
  0
LINE
  5
53
330
4D
100
AcDbEntity
  8
SLD-0
  6
Continuous
 62
   179
370
     0
100
AcDbLine
 10
0.0
 20
0.0
 30
0.0
 11
2.5
 21
0.0
 31
0.0
  0
LINE
  5
54
330
4D
100
AcDbEntity
  8
SLD-0
  6
Continuous
 62
   179
370
     0
100
AcDbLine
 10
0.0
 20
2.5
 30
0.0
 11
0.0
 21
4.75
 31
0.0
  0
LINE
  5
55
330
4D
100
AcDbEntity
  8
SLD-0
  6
Continuous
 62
   179
370
     0
100
AcDbLine
 10
-2.5
 20
0.0
 30
0.0
 11
-4.75
 21
0.0
 31
0.0
  0
LINE
  5
56
330
4D
100
AcDbEntity
  8
SLD-0
  6
Continuous
 62
   179
370
     0
100
AcDbLine
 10
0.0
 20
-2.5
 30
0.0
 11
0.0
 21
-4.75
 31
0.0
  0
LINE
  5
57
330
4D
100
AcDbEntity
  8
SLD-0
  6
Continuous
 62
   179
370
     0
100
AcDbLine
 10
2.5
 20
0.0
 30
0.0
 11
4.75
 21
0.0
 31
0.0
  0
ENDBLK
  5
4F
330
4D
100
AcDbEntity
  8
0
100
AcDbBlockEnd
  0
BLOCK
  5
59
330
58
100
AcDbEntity
  8
0
100
AcDbBlockBegin
  2
SW_CENTERMARKSYMBOL_3
 70
     0
 71
     0
 10
0.0
 20
0.0
 30
0.0
  3
SW_CENTERMARKSYMBOL_3
  1

  0
LINE
  5
5B
330
58
100
AcDbEntity
  8
SLD-0
  6
Continuous
 62
   179
370
     0
100
AcDbLine
 10
0.0
 20
0.0
 30
0.0
 11
0.0
 21
2.5
 31
0.0
  0
LINE
  5
5C
330
58
100
AcDbEntity
  8
SLD-0
  6
Continuous
 62
   179
370
     0
100
AcDbLine
 10
0.0
 20
0.0
 30
0.0
 11
-2.5
 21
0.0
 31
0.0
  0
LINE
  5
5D
330
58
100
AcDbEntity
  8
SLD-0
  6
Continuous
 62
   179
370
     0
100
AcDbLine
 10
0.0
 20
0.0
 30
0.0
 11
0.0
 21
-2.5
 31
0.0
  0
LINE
  5
5E
330
58
100
AcDbEntity
  8
SLD-0
  6
Continuous
 62
   179
370
     0
100
AcDbLine
 10
0.0
 20
0.0
 30
0.0
 11
2.5
 21
0.0
 31
0.0
  0
LINE
  5
5F
330
58
100
AcDbEntity
  8
SLD-0
  6
Continuous
 62
   179
370
     0
100
AcDbLine
 10
0.0
 20
2.5
 30
0.0
 11
0.0
 21
4.75
 31
0.0
  0
LINE
  5
60
330
58
100
AcDbEntity
  8
SLD-0
  6
Continuous
 62
   179
370
     0
100
AcDbLine
 10
-2.5
 20
0.0
 30
0.0
 11
-4.75
 21
0.0
 31
0.0
  0
LINE
  5
61
330
58
100
AcDbEntity
  8
SLD-0
  6
Continuous
 62
   179
370
     0
100
AcDbLine
 10
0.0
 20
-2.5
 30
0.0
 11
0.0
 21
-4.75
 31
0.0
  0
LINE
  5
62
330
58
100
AcDbEntity
  8
SLD-0
  6
Continuous
 62
   179
370
     0
100
AcDbLine
 10
2.5
 20
0.0
 30
0.0
 11
4.75
 21
0.0
 31
0.0
  0
ENDBLK
  5
5A
330
58
100
AcDbEntity
  8
0
100
AcDbBlockEnd
  0
BLOCK
  5
E2
330
D7
100
AcDbEntity
  8
0
100
AcDbBlockBegin
  2
*D6
 70
     1
 71
     0
 10
0.0
 20
0.0
 30
0.0
  3
*D6
  1

  0
LINE
  5
E8
330
D7
100
AcDbEntity
  8
SLD-0
 62
     7
100
AcDbLine
 10
48.3841264922
 20
192.366407994
 30
0.0
 11
49.1879734922
 21
195.366407994
 31
0.0
  0
LINE
  5
E9
330
D7
100
AcDbEntity
  8
SLD-0
 62
     7
100
AcDbLine
 10
49.1879734922
 20
195.366407994
 30
0.0
 11
49.9918204922
 21
192.366407994
 31
0.0
  0
LINE
  5
EA
330
D7
100
AcDbEntity
  8
SLD-0
 62
     7
100
AcDbLine
 10
49.1879734922
 20
195.366407994
 30
0.0
 11
49.1879734922
 21
192.366407994
 31
0.0
  0
LINE
  5
EB
330
D7
100
AcDbEntity
  8
SLD-0
 62
     7
100
AcDbLine
 10
49.9918204922
 20
136.366407994
 30
0.0
 11
49.1879734922
 21
133.366407994
 31
0.0
  0
LINE
  5
EC
330
D7
100
AcDbEntity
  8
SLD-0
 62
     7
100
AcDbLine
 10
49.1879734922
 20
133.366407994
 30
0.0
 11
48.3841264922
 21
136.366407994
 31
0.0
  0
LINE
  5
ED
330
D7
100
AcDbEntity
  8
SLD-0
 62
     7
100
AcDbLine
 10
49.1879734922
 20
133.366407994
 30
0.0
 11
49.1879734922
 21
136.366407994
 31
0.0
  0
LINE
  5
EE
330
D7
100
AcDbEntity
  8
SLD-0
 62
     7
100
AcDbLine
 10
66.5644239508
 20
195.366407994
 30
0.0
 11
48.1879734922
 21
195.366407994
 31
0.0
  0
LINE
  5
EF
330
D7
100
AcDbEntity
  8
SLD-0
 62
     7
100
AcDbLine
 10
68.5644239508
 20
133.366407994
 30
0.0
 11
48.1879734922
 21
133.366407994
 31
0.0
  0
LINE
  5
F0
330
D7
100
AcDbEntity
  8
SLD-0
 62
     7
100
AcDbLine
 10
49.1879734922
 20
195.366407994
 30
0.0
 11
49.1879734922
 21
133.366407994
 31
0.0
  0
MTEXT
  5
F2
330
D7
100
AcDbEntity
  8
SLD-0
 62
     7
100
AcDbMText
 10
45.1152464523
 20
162.245445249
 30
0.1
 40
3.5
 41
0.0
 71
     1
 72
     1
  1
62
  7
SLDTEXTSTYLE1
 11
-7.044197039909883E-15
 21
1.0
 31
0.0
 73
     1
 44
1.0
  0
ENDBLK
  5
E3
330
D7
100
AcDbEntity
  8
0
100
AcDbBlockEnd
  0
BLOCK
  5
E6
330
E5
100
AcDbEntity
  8
0
100
AcDbBlockBegin
  2
_None
 70
     0
 71
     0
 10
0.0
 20
0.0
 30
0.0
  3
_None
  1

  0
ENDBLK
  5
E7
330
E5
100
AcDbEntity
  8
0
100
AcDbBlockEnd
  0
BLOCK
  5
FE
330
F4
100
AcDbEntity
  8
0
100
AcDbBlockBegin
  2
*D8
 70
     1
 71
     0
 10
0.0
 20
0.0
 30
0.0
  3
*D8
  1

  0
LINE
  5
100
330
F4
100
AcDbEntity
  8
SLD-0
 62
     7
100
AcDbLine
 10
81.5644239508
 20
120.7733430001
 30
0.0
 11
78.5644239508
 21
121.5771900001
 31
0.0
  0
LINE
  5
101
330
F4
100
AcDbEntity
  8
SLD-0
 62
     7
100
AcDbLine
 10
78.5644239508
 20
121.5771900001
 30
0.0
 11
81.5644239508
 21
122.3810370001
 31
0.0
  0
LINE
  5
102
330
F4
100
AcDbEntity
  8
SLD-0
 62
     7
100
AcDbLine
 10
78.5644239508
 20
121.5771900001
 30
0.0
 11
81.5644239508
 21
121.5771900001
 31
0.0
  0
LINE
  5
103
330
F4
100
AcDbEntity
  8
SLD-0
 62
     7
100
AcDbLine
 10
95.5644239508
 20
122.3810370001
 30
0.0
 11
98.5644239508
 21
121.5771900001
 31
0.0
  0
LINE
  5
104
330
F4
100
AcDbEntity
  8
SLD-0
 62
     7
100
AcDbLine
 10
98.5644239508
 20
121.5771900001
 30
0.0
 11
95.5644239508
 21
120.7733430001
 31
0.0
  0
LINE
  5
105
330
F4
100
AcDbEntity
  8
SLD-0
 62
     7
100
AcDbLine
 10
98.5644239508
 20
121.5771900001
 30
0.0
 11
95.5644239508
 21
121.5771900001
 31
0.0
  0
LINE
  5
106
330
F4
100
AcDbEntity
  8
SLD-0
 62
     7
100
AcDbLine
 10
78.5644239508
 20
132.366407994
 30
0.0
 11
78.5644239508
 21
120.5771900001
 31
0.0
  0
LINE
  5
107
330
F4
100
AcDbEntity
  8
SLD-0
 62
     7
100
AcDbLine
 10
98.5644239508
 20
132.366407994
 30
0.0
 11
98.5644239508
 21
120.5771900001
 31
0.0
  0
LINE
  5
108
330
F4
100
AcDbEntity
  8
SLD-0
 62
     7
100
AcDbLine
 10
78.5644239508
 20
121.5771900001
 30
0.0
 11
98.5644239508
 21
121.5771900001
 31
0.0
  0
MTEXT
  5
109
330
F4
100
AcDbEntity
  8
SLD-0
 62
     7
100
AcDbMText
 10
82.9886722001
 20
125.64991704
 30
0.1
 40
3.5
 41
0.0
 71
     1
 72
     1
  1
20
  7
SLDTEXTSTYLE1
 73
     1
 44
1.0
  0
ENDBLK
  5
FF
330
F4
100
AcDbEntity
  8
0
100
AcDbBlockEnd
  0
BLOCK
  5
117
330
10B
100
AcDbEntity
  8
0
100
AcDbBlockBegin
  2
*D9
 70
     1
 71
     0
 10
0.0
 20
0.0
 30
0.0
  3
*D9
  1

  0
LINE
  5
119
330
10B
100
AcDbEntity
  8
SLD-0
 62
     7
100
AcDbLine
 10
57.904978867
 20
141.366407994
 30
0.0
 11
57.101131867
 21
138.366407994
 31
0.0
  0
LINE
  5
11A
330
10B
100
AcDbEntity
  8
SLD-0
 62
     7
100
AcDbLine
 10
57.101131867
 20
138.366407994
 30
0.0
 11
56.297284867
 21
141.366407994
 31
0.0
  0
LINE
  5
11B
330
10B
100
AcDbEntity
  8
SLD-0
 62
     7
100
AcDbLine
 10
57.101131867
 20
138.366407994
 30
0.0
 11
57.101131867
 21
141.366407994
 31
0.0
  0
LINE
  5
11C
330
10B
100
AcDbEntity
  8
SLD-0
 62
     7
100
AcDbLine
 10
56.297284867
 20
130.366407994
 30
0.0
 11
57.101131867
 21
133.366407994
 31
0.0
  0
LINE
  5
11D
330
10B
100
AcDbEntity
  8
SLD-0
 62
     7
100
AcDbLine
 10
57.101131867
 20
133.366407994
 30
0.0
 11
57.904978867
 21
130.366407994
 31
0.0
  0
LINE
  5
11E
330
10B
100
AcDbEntity
  8
SLD-0
 62
     7
100
AcDbLine
 10
57.101131867
 20
133.366407994
 30
0.0
 11
57.101131867
 21
130.366407994
 31
0.0
  0
LINE
  5
11F
330
10B
100
AcDbEntity
  8
SLD-0
 62
     7
100
AcDbLine
 10
66.8144239508
 20
138.366407994
 30
0.0
 11
56.101131867
 21
138.366407994
 31
0.0
  0
LINE
  5
120
330
10B
100
AcDbEntity
  8
SLD-0
 62
     7
100
AcDbLine
 10
68.5644239508
 20
133.366407994
 30
0.0
 11
56.101131867
 21
133.366407994
 31
0.0
  0
LINE
  5
121
330
10B
100
AcDbEntity
  8
SLD-0
 62
     7
100
AcDbLine
 10
57.101131867
 20
138.366407994
 30
0.0
 11
57.101131867
 21
144.366407994
 31
0.0
  0
LINE
  5
122
330
10B
100
AcDbEntity
  8
SLD-0
 62
     7
100
AcDbLine
 10
57.101131867
 20
138.366407994
 30
0.0
 11
57.101131867
 21
133.366407994
 31
0.0
  0
LINE
  5
123
330
10B
100
AcDbEntity
  8
SLD-0
 62
     7
100
AcDbLine
 10
57.101131867
 20
133.366407994
 30
0.0
 11
57.101131867
 21
123.4557655884
 31
0.0
  0
MTEXT
  5
124
330
10B
100
AcDbEntity
  8
SLD-0
 62
     7
100
AcDbMText
 10
53.0284048271
 20
125.0432655884
 30
0.1
 40
3.5
 41
0.0
 71
     1
 72
     1
  1
5
  7
SLDTEXTSTYLE1
 11
-7.044197039909883E-15
 21
1.0
 31
0.0
 73
     1
 44
1.0
  0
ENDBLK
  5
118
330
10B
100
AcDbEntity
  8
0
100
AcDbBlockEnd
  0
BLOCK
  5
131
330
126
100
AcDbEntity
  8
0
100
AcDbBlockBegin
  2
*D10
 70
     1
 71
     0
 10
0.0
 20
0.0
 30
0.0
  3
*D10
  1

  0
LINE
  5
133
330
126
100
AcDbEntity
  8
SLD-0
 62
     7
100
AcDbLine
 10
57.904978867
 20
141.366407994
 30
0.0
 11
57.101131867
 21
138.366407994
 31
0.0
  0
LINE
  5
134
330
126
100
AcDbEntity
  8
SLD-0
 62
     7
100
AcDbLine
 10
57.101131867
 20
138.366407994
 30
0.0
 11
56.297284867
 21
141.366407994
 31
0.0
  0
LINE
  5
135
330
126
100
AcDbEntity
  8
SLD-0
 62
     7
100
AcDbLine
 10
57.101131867
 20
138.366407994
 30
0.0
 11
57.101131867
 21
141.366407994
 31
0.0
  0
LINE
  5
136
330
126
100
AcDbEntity
  8
SLD-0
 62
     7
100
AcDbLine
 10
56.297284867
 20
185.366407994
 30
0.0
 11
57.101131867
 21
188.366407994
 31
0.0
  0
LINE
  5
137
330
126
100
AcDbEntity
  8
SLD-0
 62
     7
100
AcDbLine
 10
57.101131867
 20
188.366407994
 30
0.0
 11
57.904978867
 21
185.366407994
 31
0.0
  0
LINE
  5
138
330
126
100
AcDbEntity
  8
SLD-0
 62
     7
100
AcDbLine
 10
57.101131867
 20
188.366407994
 30
0.0
 11
57.101131867
 21
185.366407994
 31
0.0
  0
LINE
  5
139
330
126
100
AcDbEntity
  8
SLD-0
 62
     7
100
AcDbLine
 10
66.8144239508
 20
138.366407994
 30
0.0
 11
56.101131867
 21
138.366407994
 31
0.0
  0
LINE
  5
13A
330
126
100
AcDbEntity
  8
SLD-0
 62
     7
100
AcDbLine
 10
66.8144239508
 20
188.366407994
 30
0.0
 11
56.101131867
 21
188.366407994
 31
0.0
  0
LINE
  5
13B
330
126
100
AcDbEntity
  8
SLD-0
 62
     7
100
AcDbLine
 10
57.101131867
 20
138.366407994
 30
0.0
 11
57.101131867
 21
188.366407994
 31
0.0
  0
MTEXT
  5
13C
330
126
100
AcDbEntity
  8
SLD-0
 62
     7
100
AcDbMText
 10
53.0284048271
 20
158.3507491704
 30
0.1
 40
3.5
 41
0.0
 71
     1
 72
     1
  1
50
  7
SLDTEXTSTYLE1
 11
6.123031769111886E-17
 21
1.0
 31
0.0
 73
     1
 44
1.0
  0
ENDBLK
  5
132
330
126
100
AcDbEntity
  8
0
100
AcDbBlockEnd
  0
BLOCK
  5
148
330
13E
100
AcDbEntity
  8
0
100
AcDbBlockBegin
  2
*D11
 70
     1
 71
     0
 10
0.0
 20
0.0
 30
0.0
  3
*D11
  1

  0
LINE
  5
14A
330
13E
100
AcDbEntity
  8
SLD-0
 62
     7
100
AcDbLine
 10
75.5644239508
 20
104.2384562504
 30
0.0
 11
72.5644239508
 21
105.0423032504
 31
0.0
  0
LINE
  5
14B
330
13E
100
AcDbEntity
  8
SLD-0
 62
     7
100
AcDbLine
 10
72.5644239508
 20
105.0423032504
 30
0.0
 11
75.5644239508
 21
105.8461502504
 31
0.0
  0
LINE
  5
14C
330
13E
100
AcDbEntity
  8
SLD-0
 62
     7
100
AcDbLine
 10
72.5644239508
 20
105.0423032504
 30
0.0
 11
75.5644239508
 21
105.0423032504
 31
0.0
  0
LINE
  5
14D
330
13E
100
AcDbEntity
  8
SLD-0
 62
     7
100
AcDbLine
 10
101.5644239508
 20
105.8461502504
 30
0.0
 11
104.5644239508
 21
105.0423032504
 31
0.0
  0
LINE
  5
14E
330
13E
100
AcDbEntity
  8
SLD-0
 62
     7
100
AcDbLine
 10
104.5644239508
 20
105.0423032504
 30
0.0
 11
101.5644239508
 21
104.2384562504
 31
0.0
  0
LINE
  5
14F
330
13E
100
AcDbEntity
  8
SLD-0
 62
     7
100
AcDbLine
 10
104.5644239508
 20
105.0423032504
 30
0.0
 11
101.5644239508
 21
105.0423032504
 31
0.0
  0
LINE
  5
150
330
13E
100
AcDbEntity
  8
SLD-0
 62
     7
100
AcDbLine
 10
72.5644239508
 20
132.616407994
 30
0.0
 11
72.5644239508
 21
104.0423032504
 31
0.0
  0
LINE
  5
151
330
13E
100
AcDbEntity
  8
SLD-0
 62
     7
100
AcDbLine
 10
104.5644239508
 20
132.616407994
 30
0.0
 11
104.5644239508
 21
104.0423032504
 31
0.0
  0
LINE
  5
152
330
13E
100
AcDbEntity
  8
SLD-0
 62
     7
100
AcDbLine
 10
72.5644239508
 20
105.0423032504
 30
0.0
 11
104.5644239508
 21
105.0423032504
 31
0.0
  0
MTEXT
  5
153
330
13E
100
AcDbEntity
  8
SLD-0
 62
     7
100
AcDbMText
 10
85.760393006
 20
109.1150302903
 30
0.1
 40
3.5
 41
0.0
 71
     1
 72
     1
  1
32
  7
SLDTEXTSTYLE1
 73
     1
 44
1.0
  0
ENDBLK
  5
149
330
13E
100
AcDbEntity
  8
0
100
AcDbBlockEnd
  0
BLOCK
  5
15F
330
155
100
AcDbEntity
  8
0
100
AcDbBlockBegin
  2
*D12
 70
     1
 71
     0
 10
0.0
 20
0.0
 30
0.0
  3
*D12
  1

  0
LINE
  5
161
330
155
100
AcDbEntity
  8
SLD-0
 62
     7
100
AcDbLine
 10
69.5644239508
 20
113.8774651019
 30
0.0
 11
72.5644239508
 21
113.0736181019
 31
0.0
  0
LINE
  5
162
330
155
100
AcDbEntity
  8
SLD-0
 62
     7
100
AcDbLine
 10
72.5644239508
 20
113.0736181019
 30
0.0
 11
69.5644239508
 21
112.2697711019
 31
0.0
  0
LINE
  5
163
330
155
100
AcDbEntity
  8
SLD-0
 62
     7
100
AcDbLine
 10
72.5644239508
 20
113.0736181019
 30
0.0
 11
69.5644239508
 21
113.0736181019
 31
0.0
  0
LINE
  5
164
330
155
100
AcDbEntity
  8
SLD-0
 62
     7
100
AcDbLine
 10
91.5644239508
 20
112.2697711019
 30
0.0
 11
88.5644239508
 21
113.0736181019
 31
0.0
  0
LINE
  5
165
330
155
100
AcDbEntity
  8
SLD-0
 62
     7
100
AcDbLine
 10
88.5644239508
 20
113.0736181019
 30
0.0
 11
91.5644239508
 21
113.8774651019
 31
0.0
  0
LINE
  5
166
330
155
100
AcDbEntity
  8
SLD-0
 62
     7
100
AcDbLine
 10
88.5644239508
 20
113.0736181019
 30
0.0
 11
91.5644239508
 21
113.0736181019
 31
0.0
  0
LINE
  5
167
330
155
100
AcDbEntity
  8
SLD-0
 62
     7
100
AcDbLine
 10
72.5644239508
 20
132.616407994
 30
0.0
 11
72.5644239508
 21
112.0736181019
 31
0.0
  0
LINE
  5
168
330
155
100
AcDbEntity
  8
SLD-0
 62
     7
100
AcDbLine
 10
88.5644239508
 20
146.6718063166
 30
0.0
 11
88.5644239508
 21
112.0736181019
 31
0.0
  0
LINE
  5
169
330
155
100
AcDbEntity
  8
SLD-0
 62
     7
100
AcDbLine
 10
72.5644239508
 20
113.0736181019
 30
0.0
 11
66.5644239508
 21
113.0736181019
 31
0.0
  0
LINE
  5
16A
330
155
100
AcDbEntity
  8
SLD-0
 62
     7
100
AcDbLine
 10
72.5644239508
 20
113.0736181019
 30
0.0
 11
88.5644239508
 21
113.0736181019
 31
0.0
  0
LINE
  5
16B
330
155
100
AcDbEntity
  8
SLD-0
 62
     7
100
AcDbLine
 10
88.5644239508
 20
113.0736181019
 30
0.0
 11
94.5644239508
 21
113.0736181019
 31
0.0
  0
MTEXT
  5
16C
330
155
100
AcDbEntity
  8
SLD-0
 62
     7
100
AcDbMText
 10
79.7671479365
 20
117.1463451418
 30
0.1
 40
3.5
 41
0.0
 71
     1
 72
     1
  1
16
  7
SLDTEXTSTYLE1
 73
     1
 44
1.0
  0
ENDBLK
  5
160
330
155
100
AcDbEntity
  8
0
100
AcDbBlockEnd
  0
BLOCK
  5
178
330
16E
100
AcDbEntity
  8
0
100
AcDbBlockBegin
  2
*D13
 70
     1
 71
     0
 10
0.0
 20
0.0
 30
0.0
  3
*D13
  1

  0
LINE
  5
17A
330
16E
100
AcDbEntity
  8
SLD-0
 62
     7
100
AcDbLine
 10
70.5644239508
 20
96.8598440824
 30
0.0
 11
67.5644239508
 21
97.6636910824
 31
0.0
  0
LINE
  5
17B
330
16E
100
AcDbEntity
  8
SLD-0
 62
     7
100
AcDbLine
 10
67.5644239508
 20
97.6636910824
 30
0.0
 11
70.5644239508
 21
98.4675380824
 31
0.0
  0
LINE
  5
17C
330
16E
100
AcDbEntity
  8
SLD-0
 62
     7
100
AcDbLine
 10
67.5644239508
 20
97.6636910824
 30
0.0
 11
70.5644239508
 21
97.6636910824
 31
0.0
  0
LINE
  5
17D
330
16E
100
AcDbEntity
  8
SLD-0
 62
     7
100
AcDbLine
 10
106.5644239508
 20
98.4675380824
 30
0.0
 11
109.5644239508
 21
97.6636910824
 31
0.0
  0
LINE
  5
17E
330
16E
100
AcDbEntity
  8
SLD-0
 62
     7
100
AcDbLine
 10
109.5644239508
 20
97.6636910824
 30
0.0
 11
106.5644239508
 21
96.8598440824
 31
0.0
  0
LINE
  5
17F
330
16E
100
AcDbEntity
  8
SLD-0
 62
     7
100
AcDbLine
 10
109.5644239508
 20
97.6636910824
 30
0.0
 11
106.5644239508
 21
97.6636910824
 31
0.0
  0
LINE
  5
180
330
16E
100
AcDbEntity
  8
SLD-0
 62
     7
100
AcDbLine
 10
67.5644239508
 20
134.366407994
 30
0.0
 11
67.5644239508
 21
96.6636910824
 31
0.0
  0
LINE
  5
181
330
16E
100
AcDbEntity
  8
SLD-0
 62
     7
100
AcDbLine
 10
109.5644239508
 20
134.366407994
 30
0.0
 11
109.5644239508
 21
96.6636910824
 31
0.0
  0
LINE
  5
182
330
16E
100
AcDbEntity
  8
SLD-0
 62
     7
100
AcDbLine
 10
67.5644239508
 20
97.6636910824
 30
0.0
 11
109.5644239508
 21
97.6636910824
 31
0.0
  0
MTEXT
  5
183
330
16E
100
AcDbEntity
  8
SLD-0
 62
     7
100
AcDbMText
 10
85.760393006
 20
101.7364181223
 30
0.1
 40
3.5
 41
0.0
 71
     1
 72
     1
  1
42
  7
SLDTEXTSTYLE1
 73
     1
 44
1.0
  0
ENDBLK
  5
179
330
16E
100
AcDbEntity
  8
0
100
AcDbBlockEnd
  0
BLOCK
  5
190
330
185
100
AcDbEntity
  8
0
100
AcDbBlockBegin
  2
*D14
 70
     1
 71
     0
 10
0.0
 20
0.0
 30
0.0
  3
*D14
  1

  0
ARC
  5
193
330
185
100
AcDbEntity
  8
SLD-0
 62
     7
100
AcDbCircle
 10
39.2535844549
 20
186.2102698433
 30
0.0
 40
4.553855961931678
100
AcDbArc
 50
243.4349488229
 51
296.5650511771
  0
ARC
  5
194
330
185
100
AcDbEntity
  8
SLD-0
 62
     7
100
AcDbCircle
 10
39.2535844549
 20
191.4218161414
 30
0.0
 40
4.553855961931649
100
AcDbArc
 50
63.4349488229
 51
116.5650511771
  0
LINE
  5
195
330
185
100
AcDbEntity
  8
SLD-0
 62
     7
100
AcDbLine
 10
40.486283753
 20
235.5763033696
 30
0.0
 11
41.290130753
 21
238.5763033696
 31
0.0
  0
LINE
  5
196
330
185
100
AcDbEntity
  8
SLD-0
 62
     7
100
AcDbLine
 10
41.290130753
 20
238.5763033696
 30
0.0
 11
42.093977753
 21
235.5763033696
 31
0.0
  0
LINE
  5
197
330
185
100
AcDbEntity
  8
SLD-0
 62
     7
100
AcDbLine
 10
41.290130753
 20
238.5763033696
 30
0.0
 11
41.290130753
 21
235.5763033696
 31
0.0
  0
LINE
  5
198
330
185
100
AcDbEntity
  8
SLD-0
 62
     7
100
AcDbLine
 10
42.093977753
 20
136.366407994
 30
0.0
 11
41.290130753
 21
133.366407994
 31
0.0
  0
LINE
  5
199
330
185
100
AcDbEntity
  8
SLD-0
 62
     7
100
AcDbLine
 10
41.290130753
 20
133.366407994
 30
0.0
 11
40.486283753
 21
136.366407994
 31
0.0
  0
LINE
  5
19A
330
185
100
AcDbEntity
  8
SLD-0
 62
     7
100
AcDbLine
 10
41.290130753
 20
133.366407994
 30
0.0
 11
41.290130753
 21
136.366407994
 31
0.0
  0
LINE
  5
19B
330
185
100
AcDbEntity
  8
SLD-0
 62
     7
100
AcDbLine
 10
68.5644239508
 20
238.5763033696
 30
0.0
 11
40.290130753
 21
238.5763033696
 31
0.0
  0
LINE
  5
19C
330
185
100
AcDbEntity
  8
SLD-0
 62
     7
100
AcDbLine
 10
68.5644239508
 20
133.366407994
 30
0.0
 11
40.290130753
 21
133.366407994
 31
0.0
  0
LINE
  5
19D
330
185
100
AcDbEntity
  8
SLD-0
 62
     7
100
AcDbLine
 10
41.290130753
 20
238.5763033696
 30
0.0
 11
41.290130753
 21
133.366407994
 31
0.0
  0
MTEXT
  5
19E
330
185
100
AcDbEntity
  8
SLD-0
 62
     7
100
AcDbMText
 10
37.2174037131
 20
183.7246772471
 30
0.1
 40
3.5
 41
0.0
 71
     1
 72
     1
  1
105.2
  7
SLDTEXTSTYLE1
 11
-7.044197039909883E-15
 21
1.0
 31
0.0
 73
     1
 44
1.0
  0
ENDBLK
  5
191
330
185
100
AcDbEntity
  8
0
100
AcDbBlockEnd
  0
BLOCK
  5
1A7
330
1A0
100
AcDbEntity
  8
0
100
AcDbBlockBegin
  2
*D15
 70
     1
 71
     0
 10
0.0
 20
0.0
 30
0.0
  3
*D15
  1

  0
LINE
  5
1AA
330
1A0
100
AcDbEntity
  8
SLD-0
 62
     7
100
AcDbLine
 10
69.4449796839
 20
134.0678341066
 30
0.0
 11
71.5337551874
 21
136.3663525197
 31
0.0
  0
LINE
  5
1AB
330
1A0
100
AcDbEntity
  8
SLD-0
 62
     7
100
AcDbLine
 10
71.5337551874
 20
136.3663525197
 30
0.0
 11
70.8740806553
 21
133.331389668
 31
0.0
  0
LINE
  5
1AC
330
1A0
100
AcDbEntity
  8
SLD-0
 62
     7
100
AcDbLine
 10
71.5337551874
 20
136.3663525197
 30
0.0
 11
70.1595301696
 21
133.6996118873
 31
0.0
  0
LINE
  5
1AD
330
1A0
100
AcDbEntity
  8
SLD-0
 62
     7
100
AcDbLine
 10
71.5337551874
 20
136.3663525197
 30
0.0
 11
61.5138865228
 21
116.922381879
 31
0.0
  0
LINE
  5
1AE
330
1A0
100
AcDbEntity
  8
SLD-0
 62
     7
100
AcDbLine
 10
72.5644239508
 20
138.366407994
 30
0.0
 11
71.5337551874
 21
136.3663525197
 31
0.0
  0
LINE
  5
1AF
330
1A0
100
AcDbEntity
  8
SLD-0
 62
     7
100
AcDbLine
 10
61.5138865228
 20
116.922381879
 30
0.0
 11
42.4955624359
 21
116.922381879
 31
0.0
  0
MTEXT
  5
1B0
330
1A0
100
AcDbEntity
  8
SLD-0
 62
     7
100
AcDbMText
 10
44.0830624359
 20
120.9951089189
 30
0.1
 40
3.5
 41
0.0
 71
     1
 72
     1
  1
4-R
  7
SLDTEXTSTYLE1
 73
     1
 44
1.0
  0
MTEXT
  5
1B1
330
1A0
100
AcDbEntity
  8
SLD-0
 62
     7
100
AcDbMText
 10
50.1927013303
 20
120.9951089189
 30
0.1
 40
3.5
 41
0.0
 71
     1
 72
     1
  1
2.25
  7
SLDTEXTSTYLE1
 73
     1
 44
1.0
  0
ENDBLK
  5
1A8
330
1A0
100
AcDbEntity
  8
0
100
AcDbBlockEnd
  0
BLOCK
  5
1BF
330
1B3
100
AcDbEntity
  8
0
100
AcDbBlockBegin
  2
*D16
 70
     1
 71
     0
 10
0.0
 20
0.0
 30
0.0
  3
*D16
  1

  0
LINE
  5
1C1
330
1B3
100
AcDbEntity
  8
SLD-0
 62
     7
100
AcDbLine
 10
151.5027323789
 20
242.5245528636
 30
0.0
 11
148.5842085484
 21
241.4622964679
 31
0.0
  0
LINE
  5
1C2
330
1B3
100
AcDbEntity
  8
SLD-0
 62
     7
100
AcDbLine
 10
148.5842085484
 20
241.4622964679
 30
0.0
 11
150.5805969836
 21
243.8414986903
 31
0.0
  0
LINE
  5
1C3
330
1B3
100
AcDbEntity
  8
SLD-0
 62
     7
100
AcDbLine
 10
148.5842085484
 20
241.4622964679
 30
0.0
 11
151.0416646813
 21
243.183025777
 31
0.0
  0
LINE
  5
1C4
330
1B3
100
AcDbEntity
  8
SLD-0
 62
     7
100
AcDbLine
 10
141.5699244965
 20
237.5321578904
 30
0.0
 11
144.488448327
 21
238.5944142861
 31
0.0
  0
LINE
  5
1C5
330
1B3
100
AcDbEntity
  8
SLD-0
 62
     7
100
AcDbLine
 10
144.488448327
 20
238.5944142861
 30
0.0
 11
142.4920598918
 21
236.2152120637
 31
0.0
  0
LINE
  5
1C6
330
1B3
100
AcDbEntity
  8
SLD-0
 62
     7
100
AcDbLine
 10
144.488448327
 20
238.5944142861
 30
0.0
 11
142.0309921941
 21
236.873684977
 31
0.0
  0
LINE
  5
1C7
330
1B3
100
AcDbEntity
  8
SLD-0
 62
     7
100
AcDbLine
 10
151.8246008831
 20
236.834536614
 30
0.0
 11
148.0106321121
 21
242.2814485121
 31
0.0
  0
LINE
  5
1C8
330
1B3
100
AcDbEntity
  8
SLD-0
 62
     7
100
AcDbLine
 10
147.7288406617
 20
233.9666544323
 30
0.0
 11
143.9148718906
 21
239.4135663304
 31
0.0
  0
LINE
  5
1C9
330
1B3
100
AcDbEntity
  8
SLD-0
 62
     7
100
AcDbLine
 10
148.5842085484
 20
241.4622964679
 30
0.0
 11
156.2359479016
 21
246.8201020434
 31
0.0
  0
LINE
  5
1CA
330
1B3
100
AcDbEntity
  8
SLD-0
 62
     7
100
AcDbLine
 10
148.5842085484
 20
241.4622964679
 30
0.0
 11
144.488448327
 21
238.5944142861
 31
0.0
  0
LINE
  5
1CB
330
1B3
100
AcDbEntity
  8
SLD-0
 62
     7
100
AcDbLine
 10
144.488448327
 20
238.5944142861
 30
0.0
 11
139.5735360613
 21
235.152955668
 31
0.0
  0
MTEXT
  5
1CC
330
1B3
100
AcDbEntity
  8
SLD-0
 62
     7
100
AcDbMText
 10
150.9312827061
 20
248.0776171631
 30
0.1
 40
3.5
 41
0.0
 71
     1
 72
     1
  1
5
  7
SLDTEXTSTYLE1
 11
0.8191520442889864
 21
0.5735764363510539
 31
0.0
 73
     1
 44
1.0
  0
ENDBLK
  5
1C0
330
1B3
100
AcDbEntity
  8
0
100
AcDbBlockEnd
  0
BLOCK
  5
1D9
330
1CE
100
AcDbEntity
  8
0
100
AcDbBlockBegin
  2
*D17
 70
     1
 71
     0
 10
0.0
 20
0.0
 30
0.0
  3
*D17
  1

  0
LINE
  5
1DB
330
1CE
100
AcDbEntity
  8
SLD-0
 62
     7
100
AcDbLine
 10
139.1500250276
 20
230.4012522339
 30
0.0
 11
140.2122814233
 21
227.4827284034
 31
0.0
  0
LINE
  5
1DC
330
1CE
100
AcDbEntity
  8
SLD-0
 62
     7
100
AcDbLine
 10
140.2122814233
 20
227.4827284034
 30
0.0
 11
137.8330792009
 21
229.4791168386
 31
0.0
  0
LINE
  5
1DD
330
1CE
100
AcDbEntity
  8
SLD-0
 62
     7
100
AcDbLine
 10
140.2122814233
 20
227.4827284034
 30
0.0
 11
138.4915521142
 21
229.9401845363
 31
0.0
  0
LINE
  5
1DE
330
1CE
100
AcDbEntity
  8
SLD-0
 62
     7
100
AcDbLine
 10
148.7310314915
 20
213.9152279971
 30
0.0
 11
147.6687750958
 21
216.8337518276
 31
0.0
  0
LINE
  5
1DF
330
1CE
100
AcDbEntity
  8
SLD-0
 62
     7
100
AcDbLine
 10
147.6687750958
 20
216.8337518276
 30
0.0
 11
150.0479773182
 21
214.8373633924
 31
0.0
  0
LINE
  5
1E0
330
1CE
100
AcDbEntity
  8
SLD-0
 62
     7
100
AcDbLine
 10
147.6687750958
 20
216.8337518276
 30
0.0
 11
149.3895044049
 21
214.3762956947
 31
0.0
  0
LINE
  5
1E1
330
1CE
100
AcDbEntity
  8
SLD-0
 62
     7
100
AcDbLine
 10
151.5790252752
 20
235.4418081334
 30
0.0
 11
139.393129379
 21
226.909151967
 31
0.0
  0
LINE
  5
1E2
330
1CE
100
AcDbEntity
  8
SLD-0
 62
     7
100
AcDbLine
 10
159.0355189477
 20
224.7928315576
 30
0.0
 11
146.8496230515
 21
216.2601753913
 31
0.0
  0
LINE
  5
1E3
330
1CE
100
AcDbEntity
  8
SLD-0
 62
     7
100
AcDbLine
 10
140.2122814233
 20
227.4827284034
 30
0.0
 11
136.7708228052
 21
232.3976406691
 31
0.0
  0
LINE
  5
1E4
330
1CE
100
AcDbEntity
  8
SLD-0
 62
     7
100
AcDbLine
 10
140.2122814233
 20
227.4827284034
 30
0.0
 11
147.6687750958
 21
216.8337518276
 31
0.0
  0
LINE
  5
1E5
330
1CE
100
AcDbEntity
  8
SLD-0
 62
     7
100
AcDbLine
 10
147.6687750958
 20
216.8337518276
 30
0.0
 11
151.1102337139
 21
211.9188395619
 31
0.0
  0
MTEXT
  5
1E6
330
1CE
100
AcDbEntity
  8
SLD-0
 62
     7
100
AcDbMText
 10
146.4662636474
 20
225.651699063
 30
0.1
 40
3.5
 41
0.0
 71
     1
 72
     1
  1
13
  7
SLDTEXTSTYLE1
 11
0.5735764363510585
 21
-0.8191520442889831
 31
0.0
 73
     1
 44
1.0
  0
ENDBLK
  5
1DA
330
1CE
100
AcDbEntity
  8
0
100
AcDbBlockEnd
  0
BLOCK
  5
1F3
330
1E8
100
AcDbEntity
  8
0
100
AcDbBlockBegin
  2
*D18
 70
     1
 71
     0
 10
0.0
 20
0.0
 30
0.0
  3
*D18
  1

  0
LINE
  5
1F5
330
1E8
100
AcDbEntity
  8
SLD-0
 62
     7
100
AcDbLine
 10
177.6085621325
 20
136.366407994
 30
0.0
 11
176.8047151325
 21
133.366407994
 31
0.0
  0
LINE
  5
1F6
330
1E8
100
AcDbEntity
  8
SLD-0
 62
     7
100
AcDbLine
 10
176.8047151325
 20
133.366407994
 30
0.0
 11
176.0008681325
 21
136.366407994
 31
0.0
  0
LINE
  5
1F7
330
1E8
100
AcDbEntity
  8
SLD-0
 62
     7
100
AcDbLine
 10
176.8047151325
 20
133.366407994
 30
0.0
 11
176.8047151325
 21
136.366407994
 31
0.0
  0
LINE
  5
1F8
330
1E8
100
AcDbEntity
  8
SLD-0
 62
     7
100
AcDbLine
 10
176.0008681325
 20
223.009853977
 30
0.0
 11
176.8047151325
 21
226.009853977
 31
0.0
  0
LINE
  5
1F9
330
1E8
100
AcDbEntity
  8
SLD-0
 62
     7
100
AcDbLine
 10
176.8047151325
 20
226.009853977
 30
0.0
 11
177.6085621325
 21
223.009853977
 31
0.0
  0
LINE
  5
1FA
330
1E8
100
AcDbEntity
  8
SLD-0
 62
     7
100
AcDbLine
 10
176.8047151325
 20
226.009853977
 30
0.0
 11
176.8047151325
 21
223.009853977
 31
0.0
  0
LINE
  5
1FB
330
1E8
100
AcDbEntity
  8
SLD-0
 62
     7
100
AcDbLine
 10
165.854670992
 20
133.366407994
 30
0.0
 11
177.8047151325
 21
133.366407994
 31
0.0
  0
LINE
  5
1FC
330
1E8
100
AcDbEntity
  8
SLD-0
 62
     7
100
AcDbLine
 10
165.854670992
 20
226.009853977
 30
0.0
 11
177.8047151325
 21
226.009853977
 31
0.0
  0
LINE
  5
1FD
330
1E8
100
AcDbEntity
  8
SLD-0
 62
     7
100
AcDbLine
 10
176.8047151325
 20
133.366407994
 30
0.0
 11
176.8047151325
 21
226.009853977
 31
0.0
  0
MTEXT
  5
1FE
330
1E8
100
AcDbEntity
  8
SLD-0
 62
     7
100
AcDbMText
 10
172.7319880926
 20
176.3328550424
 30
0.1
 40
3.5
 41
0.0
 71
     1
 72
     1
  1
92.6
  7
SLDTEXTSTYLE1
 11
-1.608142872339125E-16
 21
1.0
 31
0.0
 73
     1
 44
1.0
  0
ENDBLK
  5
1F4
330
1E8
100
AcDbEntity
  8
0
100
AcDbBlockEnd
  0
BLOCK
  5
20B
330
200
100
AcDbEntity
  8
0
100
AcDbBlockBegin
  2
*D19
 70
     1
 71
     0
 10
0.0
 20
0.0
 30
0.0
  3
*D19
  1

  0
ARC
  5
20D
330
200
100
AcDbEntity
  8
SLD-0
 62
     7
100
AcDbCircle
 10
174.7681688344
 20
249.2587290804
 30
0.0
 40
4.553855961931706
100
AcDbArc
 50
243.4349488229
 51
296.5650511771
  0
ARC
  5
20E
330
200
100
AcDbEntity
  8
SLD-0
 62
     7
100
AcDbCircle
 10
174.7681688344
 20
252.4337290804
 30
0.0
 40
4.553855961931706
100
AcDbArc
 50
63.4349488229
 51
116.5650511771
  0
LINE
  5
20F
330
200
100
AcDbEntity
  8
SLD-0
 62
     7
100
AcDbLine
 10
177.6085621325
 20
229.009853977
 30
0.0
 11
176.8047151325
 21
226.009853977
 31
0.0
  0
LINE
  5
210
330
200
100
AcDbEntity
  8
SLD-0
 62
     7
100
AcDbLine
 10
176.8047151325
 20
226.009853977
 30
0.0
 11
176.0008681325
 21
229.009853977
 31
0.0
  0
LINE
  5
211
330
200
100
AcDbEntity
  8
SLD-0
 62
     7
100
AcDbLine
 10
176.8047151325
 20
226.009853977
 30
0.0
 11
176.8047151325
 21
229.009853977
 31
0.0
  0
LINE
  5
212
330
200
100
AcDbEntity
  8
SLD-0
 62
     7
100
AcDbLine
 10
176.0008681325
 20
235.5763033696
 30
0.0
 11
176.8047151325
 21
238.5763033696
 31
0.0
  0
LINE
  5
213
330
200
100
AcDbEntity
  8
SLD-0
 62
     7
100
AcDbLine
 10
176.8047151325
 20
238.5763033696
 30
0.0
 11
177.6085621325
 21
235.5763033696
 31
0.0
  0
LINE
  5
214
330
200
100
AcDbEntity
  8
SLD-0
 62
     7
100
AcDbLine
 10
176.8047151325
 20
238.5763033696
 30
0.0
 11
176.8047151325
 21
235.5763033696
 31
0.0
  0
LINE
  5
215
330
200
100
AcDbEntity
  8
SLD-0
 62
     7
100
AcDbLine
 10
165.854670992
 20
226.009853977
 30
0.0
 11
177.8047151325
 21
226.009853977
 31
0.0
  0
LINE
  5
216
330
200
100
AcDbEntity
  8
SLD-0
 62
     7
100
AcDbLine
 10
157.0555483988
 20
238.5763033696
 30
0.0
 11
177.8047151325
 21
238.5763033696
 31
0.0
  0
LINE
  5
217
330
200
100
AcDbEntity
  8
SLD-0
 62
     7
100
AcDbLine
 10
176.8047151325
 20
226.009853977
 30
0.0
 11
176.8047151325
 21
238.5763033696
 31
0.0
  0
LINE
  5
218
330
200
100
AcDbEntity
  8
SLD-0
 62
     7
100
AcDbLine
 10
176.8047151325
 20
238.5763033696
 30
0.0
 11
176.8047151325
 21
258.0943216767
 31
0.0
  0
MTEXT
  5
219
330
200
100
AcDbEntity
  8
SLD-0
 62
     7
100
AcDbMText
 10
172.7319880926
 20
246.7731364842
 30
0.1
 40
3.5
 41
0.0
 71
     1
 72
     1
  1
12.6
  7
SLDTEXTSTYLE1
 11
6.123031769111886E-17
 21
1.0
 31
0.0
 73
     1
 44
1.0
  0
ENDBLK
  5
20C
330
200
100
AcDbEntity
  8
0
100
AcDbBlockEnd
  0
BLOCK
  5
227
330
21B
100
AcDbEntity
  8
0
100
AcDbBlockBegin
  2
*D20
 70
     1
 71
     0
 10
0.0
 20
0.0
 30
0.0
  3
*D20
  1

  0
ARC
  5
22A
330
21B
100
AcDbEntity
  8
SLD-0
 62
     7
100
AcDbCircle
 10
159.854670992
 20
225.366407994
 30
0.0
 40
29.21895555392315
100
AcDbArc
 50
125.0
 51
270.0
  0
LINE
  5
22B
330
21B
100
AcDbEntity
  8
SLD-0
 62
     7
100
AcDbLine
 10
140.2349793596
 20
248.091069849
 30
0.0
 11
143.0953665915
 21
249.301175168
 31
0.0
  0
LINE
  5
22C
330
21B
100
AcDbEntity
  8
SLD-0
 62
     7
100
AcDbLine
 10
143.0953665915
 20
249.301175168
 30
0.0
 11
141.2232503536
 21
246.8230002768
 31
0.0
  0
LINE
  5
22D
330
21B
100
AcDbEntity
  8
SLD-0
 62
     7
100
AcDbLine
 10
143.0953665915
 20
249.301175168
 30
0.0
 11
140.7291148566
 21
247.4570350629
 31
0.0
  0
LINE
  5
22E
330
21B
100
AcDbEntity
  8
SLD-0
 62
     7
100
AcDbLine
 10
156.8997004259
 20
197.1036527082
 30
0.0
 11
159.854670992
 21
196.1474524401
 31
0.0
  0
LINE
  5
22F
330
21B
100
AcDbEntity
  8
SLD-0
 62
     7
100
AcDbLine
 10
159.854670992
 20
196.1474524401
 30
0.0
 11
156.8174910471
 21
195.4980619709
 31
0.0
  0
LINE
  5
230
330
21B
100
AcDbEntity
  8
SLD-0
 62
     7
100
AcDbLine
 10
159.854670992
 20
196.1474524401
 30
0.0
 11
156.8585957365
 21
196.3008573395
 31
0.0
  0
LINE
  5
231
330
21B
100
AcDbEntity
  8
SLD-0
 62
     7
100
AcDbLine
 10
151.8246008831
 20
236.834536614
 30
0.0
 11
142.5217901552
 21
250.1203272123
 31
0.0
  0
MTEXT
  5
232
330
21B
100
AcDbEntity
  8
SLD-0
 62
     7
100
AcDbMText
 10
135.0929659977
 20
218.649803241
 30
0.1
 40
3.5
 41
0.0
 71
     1
 72
     1
  1
145°
  7
SLDTEXTSTYLE1
 11
0.4481063692242521
 21
-0.8939802469074237
 31
0.0
 73
     1
 44
1.0
  0
ENDBLK
  5
228
330
21B
100
AcDbEntity
  8
0
100
AcDbBlockEnd
  0
BLOCK
  5
23E
330
234
100
AcDbEntity
  8
0
100
AcDbBlockBegin
  2
*D21
 70
     1
 71
     0
 10
0.0
 20
0.0
 30
0.0
  3
*D21
  1

  0
LINE
  5
240
330
234
100
AcDbEntity
  8
SLD-0
 62
     7
100
AcDbLine
 10
167.854670992
 20
114.1723991773
 30
0.0
 11
164.854670992
 21
114.9762461773
 31
0.0
  0
LINE
  5
241
330
234
100
AcDbEntity
  8
SLD-0
 62
     7
100
AcDbLine
 10
164.854670992
 20
114.9762461773
 30
0.0
 11
167.854670992
 21
115.7800931773
 31
0.0
  0
LINE
  5
242
330
234
100
AcDbEntity
  8
SLD-0
 62
     7
100
AcDbLine
 10
164.854670992
 20
114.9762461773
 30
0.0
 11
167.854670992
 21
114.9762461773
 31
0.0
  0
LINE
  5
243
330
234
100
AcDbEntity
  8
SLD-0
 62
     7
100
AcDbLine
 10
151.854670992
 20
115.7800931773
 30
0.0
 11
154.854670992
 21
114.9762461773
 31
0.0
  0
LINE
  5
244
330
234
100
AcDbEntity
  8
SLD-0
 62
     7
100
AcDbLine
 10
154.854670992
 20
114.9762461773
 30
0.0
 11
151.854670992
 21
114.1723991773
 31
0.0
  0
LINE
  5
245
330
234
100
AcDbEntity
  8
SLD-0
 62
     7
100
AcDbLine
 10
154.854670992
 20
114.9762461773
 30
0.0
 11
151.854670992
 21
114.9762461773
 31
0.0
  0
LINE
  5
246
330
234
100
AcDbEntity
  8
SLD-0
 62
     7
100
AcDbLine
 10
164.854670992
 20
132.366407994
 30
0.0
 11
164.854670992
 21
113.9762461773
 31
0.0
  0
LINE
  5
247
330
234
100
AcDbEntity
  8
SLD-0
 62
     7
100
AcDbLine
 10
154.854670992
 20
132.366407994
 30
0.0
 11
154.854670992
 21
113.9762461773
 31
0.0
  0
LINE
  5
248
330
234
100
AcDbEntity
  8
SLD-0
 62
     7
100
AcDbLine
 10
164.854670992
 20
114.9762461773
 30
0.0
 11
170.854670992
 21
114.9762461773
 31
0.0
  0
LINE
  5
249
330
234
100
AcDbEntity
  8
SLD-0
 62
     7
100
AcDbLine
 10
164.854670992
 20
114.9762461773
 30
0.0
 11
154.854670992
 21
114.9762461773
 31
0.0
  0
LINE
  5
24A
330
234
100
AcDbEntity
  8
SLD-0
 62
     7
100
AcDbLine
 10
154.854670992
 20
114.9762461773
 30
0.0
 11
148.854670992
 21
114.9762461773
 31
0.0
  0
MTEXT
  5
24B
330
234
100
AcDbEntity
  8
SLD-0
 62
     7
100
AcDbMText
 10
157.3532510939
 20
119.0489732172
 30
0.1
 40
3.5
 41
0.0
 71
     1
 72
     1
  1
10
  7
SLDTEXTSTYLE1
 73
     1
 44
1.0
  0
ENDBLK
  5
23F
330
234
100
AcDbEntity
  8
0
100
AcDbBlockEnd
  0
BLOCK
  5
25A
330
24D
100
AcDbEntity
  8
0
100
AcDbBlockBegin
  2
*D22
 70
     1
 71
     0
 10
0.0
 20
0.0
 30
0.0
  3
*D22
  1

  0
LINE
  5
25C
330
24D
100
AcDbEntity
  8
SLD-0
 62
     7
100
AcDbLine
 10
158.854670992
 20
124.5254202615
 30
0.0
 11
161.854670992
 21
123.7215732615
 31
0.0
  0
LINE
  5
25D
330
24D
100
AcDbEntity
  8
SLD-0
 62
     7
100
AcDbLine
 10
161.854670992
 20
123.7215732615
 30
0.0
 11
158.854670992
 21
122.9177262615
 31
0.0
  0
LINE
  5
25E
330
24D
100
AcDbEntity
  8
SLD-0
 62
     7
100
AcDbLine
 10
161.854670992
 20
123.7215732615
 30
0.0
 11
158.854670992
 21
123.7215732615
 31
0.0
  0
LINE
  5
25F
330
24D
100
AcDbEntity
  8
SLD-0
 62
     7
100
AcDbLine
 10
167.854670992
 20
122.9177262615
 30
0.0
 11
164.854670992
 21
123.7215732615
 31
0.0
  0
LINE
  5
260
330
24D
100
AcDbEntity
  8
SLD-0
 62
     7
100
AcDbLine
 10
164.854670992
 20
123.7215732615
 30
0.0
 11
167.854670992
 21
124.5254202615
 31
0.0
  0
LINE
  5
261
330
24D
100
AcDbEntity
  8
SLD-0
 62
     7
100
AcDbLine
 10
164.854670992
 20
123.7215732615
 30
0.0
 11
167.854670992
 21
123.7215732615
 31
0.0
  0
LINE
  5
262
330
24D
100
AcDbEntity
  8
SLD-0
 62
     7
100
AcDbLine
 10
161.854670992
 20
132.366407994
 30
0.0
 11
161.854670992
 21
122.7215732615
 31
0.0
  0
LINE
  5
263
330
24D
100
AcDbEntity
  8
SLD-0
 62
     7
100
AcDbLine
 10
164.854670992
 20
132.366407994
 30
0.0
 11
164.854670992
 21
122.7215732615
 31
0.0
  0
LINE
  5
264
330
24D
100
AcDbEntity
  8
SLD-0
 62
     7
100
AcDbLine
 10
161.854670992
 20
123.7215732615
 30
0.0
 11
155.854670992
 21
123.7215732615
 31
0.0
  0
LINE
  5
265
330
24D
100
AcDbEntity
  8
SLD-0
 62
     7
100
AcDbLine
 10
161.854670992
 20
123.7215732615
 30
0.0
 11
164.854670992
 21
123.7215732615
 31
0.0
  0
LINE
  5
266
330
24D
100
AcDbEntity
  8
SLD-0
 62
     7
100
AcDbLine
 10
164.854670992
 20
123.7215732615
 30
0.0
 11
173.3491530714
 21
123.7215732615
 31
0.0
  0
MTEXT
  5
267
330
24D
100
AcDbEntity
  8
SLD-0
 62
     7
100
AcDbMText
 10
169.7251067733
 20
127.7943003014
 30
0.1
 40
3.5
 41
0.0
 71
     1
 72
     1
  1
3
  7
SLDTEXTSTYLE1
 73
     1
 44
1.0
  0
ENDBLK
  5
25B
330
24D
100
AcDbEntity
  8
0
100
AcDbBlockEnd
  0
BLOCK
  5
26E
330
26D
100
AcDbEntity
  8
0
100
AcDbBlockBegin
  2
_Open30
 70
     0
 71
     0
 10
0.0
 20
0.0
 30
0.0
  3
_Open30
  1

  0
LINE
  5
270
330
26D
100
AcDbEntity
  8
0
  6
ByBlock
 62
     0
370
    -2
100
AcDbLine
 10
-1.0
 20
0.267949
 30
0.0
 11
0.0
 21
0.0
 31
0.0
  0
LINE
  5
271
330
26D
100
AcDbEntity
  8
0
  6
ByBlock
 62
     0
370
    -2
100
AcDbLine
 10
0.0
 20
0.0
 30
0.0
 11
-1.0
 21
-0.267949
 31
0.0
  0
LINE
  5
272
330
26D
100
AcDbEntity
  8
0
  6
ByBlock
 62
     0
370
    -2
100
AcDbLine
 10
0.0
 20
0.0
 30
0.0
 11
-1.0
 21
0.0
 31
0.0
  0
ENDBLK
  5
26F
330
26D
100
AcDbEntity
  8
0
100
AcDbBlockEnd
  0
ENDSEC
  0
SECTION
  2
ENTITIES
  0
LINE
  5
63
330
1F
100
AcDbEntity
  8
SLD-0
100
AcDbLine
 10
148.302417098
 20
233.147502388
 30
0.0
 11
149.4495699707
 21
231.5091982994
 31
0.0
  0
LINE
  5
64
330
1F
100
AcDbEntity
  8
SLD-0
100
AcDbLine
 10
149.4495699707
 20
231.5091982994
 30
0.0
 11
154.854670992
 21
223.7899140496
 31
0.0
  0
LINE
  5
65
330
1F
100
AcDbEntity
  8
SLD-0
100
AcDbLine
 10
154.854670992
 20
223.7899140496
 30
0.0
 11
154.854670992
 21
195.366407994
 31
0.0
  0
LINE
  5
66
330
1F
100
AcDbEntity
  8
SLD-0
100
AcDbLine
 10
154.854670992
 20
195.366407994
 30
0.0
 11
154.854670992
 21
190.366407994
 31
0.0
  0
LINE
  5
67
330
1F
100
AcDbEntity
  8
SLD-0
100
AcDbLine
 10
154.854670992
 20
190.366407994
 30
0.0
 11
154.854670992
 21
133.366407994
 31
0.0
  0
LINE
  5
68
330
1F
100
AcDbEntity
  8
SLD-0
100
AcDbLine
 10
154.854670992
 20
133.366407994
 30
0.0
 11
159.854670992
 21
133.366407994
 31
0.0
  0
LINE
  5
69
330
1F
100
AcDbEntity
  8
SLD-0
100
AcDbLine
 10
159.854670992
 20
133.366407994
 30
0.0
 11
159.854670992
 21
190.366407994
 31
0.0
  0
LINE
  5
6A
330
1F
100
AcDbEntity
  8
SLD-0
100
AcDbLine
 10
159.854670992
 20
190.366407994
 30
0.0
 11
159.854670992
 21
195.366407994
 31
0.0
  0
LINE
  5
6B
330
1F
100
AcDbEntity
  8
SLD-0
100
AcDbLine
 10
159.854670992
 20
195.366407994
 30
0.0
 11
159.854670992
 21
225.366407994
 31
0.0
  0
LINE
  5
6C
330
1F
100
AcDbEntity
  8
SLD-0
100
AcDbLine
 10
159.854670992
 20
225.366407994
 30
0.0
 11
153.5453301922
 21
234.3770804812
 31
0.0
  0
LINE
  5
6D
330
1F
100
AcDbEntity
  8
SLD-0
100
AcDbLine
 10
153.5453301922
 20
234.3770804812
 30
0.0
 11
152.3981773195
 21
236.0153845698
 31
0.0
  0
LINE
  5
6E
330
1F
100
AcDbEntity
  8
SLD-0
100
AcDbLine
 10
152.3981773195
 20
236.0153845698
 30
0.0
 11
148.302417098
 21
233.147502388
 31
0.0
  0
LINE
  5
6F
330
1F
100
AcDbEntity
  8
SLD-0
  6
Continuous
 62
   179
370
     0
100
AcDbLine
 10
146.2939574258
 20
50.75
 30
0.0
 11
196.7604743903
 21
50.75
 31
0.0
  0
LINE
  5
70
330
1F
100
AcDbEntity
  8
SLD-0
  6
Continuous
 62
   179
370
     0
100
AcDbLine
 10
20.2604743903
 20
285.0
 30
0.0
 11
196.7604743903
 21
285.0
 31
0.0
  0
LINE
  5
71
330
1F
100
AcDbEntity
  8
SLD-0
  6
Continuous
 62
   179
370
     0
100
AcDbLine
 10
20.2604743903
 20
285.0
 30
0.0
 11
20.2604743903
 21
10.0
 31
0.0
  0
LINE
  5
72
330
1F
100
AcDbEntity
  8
SLD-0
  6
Continuous
 62
   179
370
     0
100
AcDbLine
 10
20.2604743903
 20
10.0
 30
0.0
 11
196.7604743903
 21
10.0
 31
0.0
  0
LINE
  5
73
330
1F
100
AcDbEntity
  8
SLD-0
  6
Continuous
 62
   179
370
     0
100
AcDbLine
 10
196.7604743903
 20
285.0
 30
0.0
 11
196.7604743903
 21
10.0
 31
0.0
  0
LINE
  5
74
330
1F
100
AcDbEntity
  8
SLD-0
  6
Continuous
 62
   179
370
     0
100
AcDbLine
 10
65.7604743903
 20
285.0
 30
0.0
 11
196.7604743903
 21
285.0
 31
0.0
  0
LINE
  5
75
330
1F
100
AcDbEntity
  8
SLD-0
  6
Continuous
 62
   179
370
     0
100
AcDbLine
 10
196.7604743903
 20
285.0
 30
0.0
 11
196.7604743903
 21
264.25
 31
0.0
  0
LINE
  5
76
330
1F
100
AcDbEntity
  8
SLD-0
  6
Continuous
 62
   179
370
     0
100
AcDbLine
 10
146.2939574258
 20
50.75
 30
0.0
 11
146.2939574258
 21
10.0
 31
0.0
  0
LINE
  5
77
330
1F
100
AcDbEntity
  8
SLD-0
  6
Continuous
 62
   179
370
     0
100
AcDbLine
 10
146.2939574258
 20
22.75
 30
0.0
 11
196.7604743903
 21
22.75
 31
0.0
  0
LINE
  5
78
330
1F
100
AcDbEntity
  8
SLD-0
  6
Continuous
 62
   179
370
     0
100
AcDbLine
 10
146.2939574258
 20
36.75
 30
0.0
 11
196.7604743903
 21
36.75
 31
0.0
  0
LINE
  5
79
330
1F
100
AcDbEntity
  8
SLD-0
  6
Continuous
 62
   179
370
    15
100
AcDbLine
 10
67.5644242339
 20
234.3770806527
 30
0.0
 11
67.5644242339
 21
236.9379979407
 31
0.0
  0
LINE
  5
7A
330
1F
100
AcDbEntity
  8
SLD-0
  6
Continuous
 62
   179
370
    15
100
AcDbLine
 10
67.5644242339
 20
236.9379979407
 30
0.0
 11
69.5644245617
 21
238.5763023829
 31
0.0
  0
LINE
  5
7B
330
1F
100
AcDbEntity
  8
SLD-0
  6
Continuous
 62
   179
370
    15
100
AcDbLine
 10
69.5644245617
 20
238.5763023829
 30
0.0
 11
69.5644245617
 21
236.0153850948
 31
0.0
  0
LINE
  5
7C
330
1F
100
AcDbEntity
  8
SLD-0
  6
Continuous
 62
   179
370
    15
100
AcDbLine
 10
69.5644245617
 20
236.0153850948
 30
0.0
 11
67.5644242339
 21
234.3770806527
 31
0.0
  0
LINE
  5
7D
330
1F
100
AcDbEntity
  8
SLD-0
  6
Continuous
 62
   179
370
    15
100
AcDbLine
 10
69.5644245617
 20
238.5763023829
 30
0.0
 11
107.5644233398
 21
238.5763023829
 31
0.0
  0
LINE
  5
7E
330
1F
100
AcDbEntity
  8
SLD-0
  6
Continuous
 62
   179
370
    15
100
AcDbLine
 10
107.5644233398
 20
236.0153850948
 30
0.0
 11
107.5644233398
 21
238.5763023829
 31
0.0
  0
LINE
  5
7F
330
1F
100
AcDbEntity
  8
SLD-0
  6
Continuous
 62
   179
370
    15
100
AcDbLine
 10
69.5644245617
 20
236.0153850948
 30
0.0
 11
107.5644233398
 21
236.0153850948
 31
0.0
  0
LINE
  5
80
330
1F
100
AcDbEntity
  8
SLD-0
  6
Continuous
 62
   179
370
    15
100
AcDbLine
 10
109.5644236676
 20
236.9379979407
 30
0.0
 11
109.5644236676
 21
234.3770806527
 31
0.0
  0
LINE
  5
81
330
1F
100
AcDbEntity
  8
SLD-0
  6
Continuous
 62
   179
370
    15
100
AcDbLine
 10
109.5644236676
 20
234.3770806527
 30
0.0
 11
107.5644233398
 21
236.0153850948
 31
0.0
  0
LINE
  5
82
330
1F
100
AcDbEntity
  8
SLD-0
  6
Continuous
 62
   179
370
    15
100
AcDbLine
 10
107.5644233398
 20
238.5763023829
 30
0.0
 11
109.5644236676
 21
236.9379979407
 31
0.0
  0
LINE
  5
83
330
1F
100
AcDbEntity
  8
SLD-0
  6
Continuous
 62
   179
370
    15
100
AcDbLine
 10
109.5644236676
 20
135.3664082324
 30
0.0
 11
107.5644233398
 21
133.3664079046
 31
0.0
  0
LINE
  5
84
330
1F
100
AcDbEntity
  8
SLD-0
  6
Continuous
 62
   179
370
    15
100
AcDbLine
 10
102.3144239508
 20
188.366407994
 30
0.0
 11
102.3144239508
 21
138.366407994
 31
0.0
  0
LINE
  5
85
330
1F
100
AcDbEntity
  8
SLD-0
  6
Continuous
 62
   179
370
    15
100
AcDbLine
 10
106.8144239508
 20
138.366407994
 30
0.0
 11
106.8144239508
 21
188.366407994
 31
0.0
  0
LINE
  5
86
330
1F
100
AcDbEntity
  8
SLD-0
  6
Continuous
 62
   179
370
    15
100
AcDbLine
 10
98.5644237272
 20
133.3664079046
 30
0.0
 11
107.5644233398
 21
133.3664079046
 31
0.0
  0
LINE
  5
87
330
1F
100
AcDbEntity
  8
SLD-0
  6
Continuous
 62
   179
370
    15
100
AcDbLine
 10
109.5644236676
 20
135.3664082324
 30
0.0
 11
109.5644236676
 21
195.366408754
 31
0.0
  0
LINE
  5
88
330
1F
100
AcDbEntity
  8
SLD-0
  6
Continuous
 62
   179
370
    15
100
AcDbLine
 10
69.5644245617
 20
133.3664079046
 30
0.0
 11
67.5644242339
 21
135.3664082324
 31
0.0
  0
LINE
  5
89
330
1F
100
AcDbEntity
  8
SLD-0
  6
Continuous
 62
   179
370
    15
100
AcDbLine
 10
74.8144239508
 20
138.366407994
 30
0.0
 11
74.8144239508
 21
188.366407994
 31
0.0
  0
LINE
  5
8A
330
1F
100
AcDbEntity
  8
SLD-0
  6
Continuous
 62
   179
370
    15
100
AcDbLine
 10
70.3144239508
 20
188.366407994
 30
0.0
 11
70.3144239508
 21
138.366407994
 31
0.0
  0
LINE
  5
8B
330
1F
100
AcDbEntity
  8
SLD-0
  6
Continuous
 62
   179
370
    15
100
AcDbLine
 10
69.5644245617
 20
133.3664079046
 30
0.0
 11
78.5644241743
 21
133.3664079046
 31
0.0
  0
LINE
  5
8C
330
1F
100
AcDbEntity
  8
SLD-0
  6
Continuous
 62
   179
370
    15
100
AcDbLine
 10
67.5644242339
 20
195.366408754
 30
0.0
 11
67.5644242339
 21
135.3664082324
 31
0.0
  0
LINE
  5
8D
330
1F
100
AcDbEntity
  8
SLD-0
  6
Continuous
 62
   179
370
    15
100
AcDbLine
 10
69.5644245617
 20
236.0153850948
 30
0.0
 11
69.5644245617
 21
233.1475038862
 31
0.0
  0
LINE
  5
8E
330
1F
100
AcDbEntity
  8
SLD-0
  6
Continuous
 62
   179
370
    15
100
AcDbLine
 10
69.5644245617
 20
236.0153850948
 30
0.0
 11
107.5644233398
 21
236.0153850948
 31
0.0
  0
LINE
  5
8F
330
1F
100
AcDbEntity
  8
SLD-0
  6
Continuous
 62
   179
370
    15
100
AcDbLine
 10
107.5644233398
 20
233.1475038862
 30
0.0
 11
107.5644233398
 21
236.0153850948
 31
0.0
  0
LINE
  5
90
330
1F
100
AcDbEntity
  8
SLD-0
  6
Continuous
 62
   179
370
    15
100
AcDbLine
 10
69.5644245617
 20
233.1475038862
 30
0.0
 11
107.5644233398
 21
233.1475038862
 31
0.0
  0
LINE
  5
91
330
1F
100
AcDbEntity
  8
SLD-0
  6
Continuous
 62
   179
370
    15
100
AcDbLine
 10
67.5644242339
 20
231.509199444
 30
0.0
 11
67.5644242339
 21
234.3770806527
 31
0.0
  0
LINE
  5
92
330
1F
100
AcDbEntity
  8
SLD-0
  6
Continuous
 62
   179
370
    15
100
AcDbLine
 10
67.5644242339
 20
234.3770806527
 30
0.0
 11
69.5644245617
 21
236.0153850948
 31
0.0
  0
LINE
  5
93
330
1F
100
AcDbEntity
  8
SLD-0
  6
Continuous
 62
   179
370
    15
100
AcDbLine
 10
69.5644245617
 20
233.1475038862
 30
0.0
 11
67.5644242339
 21
231.509199444
 31
0.0
  0
LINE
  5
94
330
1F
100
AcDbEntity
  8
SLD-0
  6
Continuous
 62
   179
370
    15
100
AcDbLine
 10
67.5644242339
 20
223.7899136579
 30
0.0
 11
109.5644236676
 21
223.7899136579
 31
0.0
  0
LINE
  5
95
330
1F
100
AcDbEntity
  8
SLD-0
  6
Continuous
 62
   179
370
    15
100
AcDbLine
 10
67.5644242339
 20
223.7899136579
 30
0.0
 11
67.5644242339
 21
231.509199444
 31
0.0
  0
LINE
  5
96
330
1F
100
AcDbEntity
  8
SLD-0
  6
Continuous
 62
   179
370
    15
100
AcDbLine
 10
109.5644236676
 20
231.509199444
 30
0.0
 11
107.5644233398
 21
233.1475038862
 31
0.0
  0
LINE
  5
97
330
1F
100
AcDbEntity
  8
SLD-0
  6
Continuous
 62
   179
370
    15
100
AcDbLine
 10
109.5644236676
 20
231.509199444
 30
0.0
 11
109.5644236676
 21
223.7899136579
 31
0.0
  0
LINE
  5
98
330
1F
100
AcDbEntity
  8
SLD-0
  6
Continuous
 62
   179
370
    15
100
AcDbLine
 10
109.5644236676
 20
234.3770806527
 30
0.0
 11
109.5644236676
 21
231.509199444
 31
0.0
  0
LINE
  5
99
330
1F
100
AcDbEntity
  8
SLD-0
  6
Continuous
 62
   179
370
    15
100
AcDbLine
 10
107.5644233398
 20
236.0153850948
 30
0.0
 11
109.5644236676
 21
234.3770806527
 31
0.0
  0
LINE
  5
9A
330
1F
100
AcDbEntity
  8
SLD-0
  6
Continuous
 62
   179
370
    15
100
AcDbLine
 10
73.5644239508
 20
195.366407994
 30
0.0
 11
67.5644242339
 21
195.366408754
 31
0.0
  0
LINE
  5
9B
330
1F
100
AcDbEntity
  8
SLD-0
  6
Continuous
 62
   179
370
    15
100
AcDbLine
 10
78.5644241743
 20
133.3664079046
 30
0.0
 11
98.5644237272
 21
133.3664079046
 31
0.0
  0
LINE
  5
9C
330
1F
100
AcDbEntity
  8
SLD-0
  6
Continuous
 62
   179
370
    15
100
AcDbLine
 10
78.5644241743
 20
133.3664079046
 30
0.0
 11
78.5644241743
 21
190.366407994
 31
0.0
  0
LINE
  5
9D
330
1F
100
AcDbEntity
  8
SLD-0
  6
Continuous
 62
   179
370
    15
100
AcDbLine
 10
109.5644236676
 20
195.366408754
 30
0.0
 11
103.5644239508
 21
195.366407994
 31
0.0
  0
LINE
  5
9E
330
1F
100
AcDbEntity
  8
SLD-0
  6
Continuous
 62
   179
370
    15
100
AcDbLine
 10
98.5644237272
 20
190.366407994
 30
0.0
 11
98.5644237272
 21
133.3664079046
 31
0.0
  0
LINE
  5
9F
330
1F
100
AcDbEntity
  8
SLD-0
  6
Continuous
 62
   179
370
    15
100
AcDbLine
 10
109.5644236676
 20
223.7899136579
 30
0.0
 11
109.5644236676
 21
195.366408754
 31
0.0
  0
LINE
  5
A0
330
1F
100
AcDbEntity
  8
SLD-0
  6
Continuous
 62
   179
370
    15
100
AcDbLine
 10
67.5644242339
 20
195.366408754
 30
0.0
 11
67.5644242339
 21
223.7899136579
 31
0.0
  0
LINE
  5
A1
330
1F
100
AcDbEntity
  8
SLD-0
  6
CENTERX2
 62
   179
370
     0
100
AcDbLine
 10
88.5644239508
 20
147.6718063166
 30
0.0
 11
88.5644239508
 21
230.6866525647
 31
0.0
  0
LINE
  5
A2
330
1F
100
AcDbEntity
  8
SLD-0
  6
Continuous
 62
   179
370
     0
100
AcDbLine
 10
154.854670992
 20
190.366407994
 30
0.0
 11
154.854670992
 21
133.366407994
 31
0.0
  0
LINE
  5
A3
330
1F
100
AcDbEntity
  8
SLD-0
  6
Continuous
 62
   179
370
     0
100
AcDbLine
 10
154.854670992
 20
133.366407994
 30
0.0
 11
159.854670992
 21
133.366407994
 31
0.0
  0
LINE
  5
A4
330
1F
100
AcDbEntity
  8
SLD-0
  6
Continuous
 62
   179
370
     0
100
AcDbLine
 10
159.854670992
 20
133.366407994
 30
0.0
 11
159.854670992
 21
190.366407994
 31
0.0
  0
LINE
  5
A5
330
1F
100
AcDbEntity
  8
SLD-0
  6
Continuous
 62
   179
370
     0
100
AcDbLine
 10
154.854670992
 20
195.366407994
 30
0.0
 11
154.854670992
 21
190.366407994
 31
0.0
  0
LINE
  5
A6
330
1F
100
AcDbEntity
  8
SLD-0
  6
Continuous
 62
   179
370
     0
100
AcDbLine
 10
159.854670992
 20
190.366407994
 30
0.0
 11
159.854670992
 21
195.366407994
 31
0.0
  0
LINE
  5
A7
330
1F
100
AcDbEntity
  8
SLD-0
  6
Continuous
 62
   179
370
     0
100
AcDbLine
 10
159.854670992
 20
225.366407994
 30
0.0
 11
153.5453301922
 21
234.3770804812
 31
0.0
  0
LINE
  5
A8
330
1F
100
AcDbEntity
  8
SLD-0
  6
Continuous
 62
   179
370
     0
100
AcDbLine
 10
149.4495699707
 20
231.5091982994
 30
0.0
 11
154.854670992
 21
223.7899140496
 31
0.0
  0
LINE
  5
A9
330
1F
100
AcDbEntity
  8
SLD-0
  6
Continuous
 62
   179
370
     0
100
AcDbLine
 10
154.854670992
 20
223.7899140496
 30
0.0
 11
154.854670992
 21
195.366407994
 31
0.0
  0
LINE
  5
AA
330
1F
100
AcDbEntity
  8
SLD-0
  6
Continuous
 62
   179
370
     0
100
AcDbLine
 10
159.854670992
 20
195.366407994
 30
0.0
 11
159.854670992
 21
225.366407994
 31
0.0
  0
LINE
  5
AB
330
1F
100
AcDbEntity
  8
SLD-0
  6
Continuous
 62
   179
370
     0
100
AcDbLine
 10
153.5453301922
 20
234.3770804812
 30
0.0
 11
152.3981773195
 21
236.0153845698
 31
0.0
  0
LINE
  5
AC
330
1F
100
AcDbEntity
  8
SLD-0
  6
Continuous
 62
   179
370
     0
100
AcDbLine
 10
152.3981773195
 20
236.0153845698
 30
0.0
 11
148.302417098
 21
233.147502388
 31
0.0
  0
LINE
  5
AD
330
1F
100
AcDbEntity
  8
SLD-0
  6
Continuous
 62
   179
370
     0
100
AcDbLine
 10
148.302417098
 20
233.147502388
 30
0.0
 11
149.4495699707
 21
231.5091982994
 31
0.0
  0
LINE
  5
AE
330
1F
100
AcDbEntity
  8
SLD-0
  6
Continuous
 62
   179
370
    15
100
AcDbLine
 10
164.854670992
 20
135.3664083218
 30
0.0
 11
164.854670992
 21
133.366407994
 31
0.0
  0
LINE
  5
AF
330
1F
100
AcDbEntity
  8
SLD-0
  6
Continuous
 62
   179
370
    15
100
AcDbLine
 10
164.854670992
 20
133.366407994
 30
0.0
 11
161.8546709659
 21
133.366407994
 31
0.0
  0
LINE
  5
B0
330
1F
100
AcDbEntity
  8
SLD-0
  6
Continuous
 62
   179
370
    15
100
AcDbLine
 10
161.8546709659
 20
135.3664083218
 30
0.0
 11
161.8546709659
 21
133.366407994
 31
0.0
  0
LINE
  5
B1
330
1F
100
AcDbEntity
  8
SLD-0
  6
Continuous
 62
   179
370
    15
100
AcDbLine
 10
161.8546709659
 20
135.3664083218
 30
0.0
 11
164.854670992
 21
135.3664083218
 31
0.0
  0
LINE
  5
B2
330
1F
100
AcDbEntity
  8
SLD-0
  6
Continuous
 62
   179
370
    15
100
AcDbLine
 10
153.5453301922
 20
234.3770804812
 30
0.0
 11
159.854670992
 21
225.366407994
 31
0.0
  0
LINE
  5
B3
330
1F
100
AcDbEntity
  8
SLD-0
  6
Continuous
 62
   179
370
    15
100
AcDbLine
 10
157.2027012016
 20
236.9379979407
 30
0.0
 11
153.5453301922
 21
234.3770804812
 31
0.0
  0
LINE
  5
B4
330
1F
100
AcDbEntity
  8
SLD-0
  6
Continuous
 62
   179
370
    15
100
AcDbLine
 10
164.854670992
 20
226.0098551249
 30
0.0
 11
157.2027012016
 21
236.9379979407
 31
0.0
  0
LINE
  5
B5
330
1F
100
AcDbEntity
  8
SLD-0
  6
Continuous
 62
   179
370
    15
100
AcDbLine
 10
164.854670992
 20
135.3664083218
 30
0.0
 11
164.854670992
 21
226.0098551249
 31
0.0
  0
LINE
  5
B6
330
1F
100
AcDbEntity
  8
SLD-0
  6
Continuous
 62
   179
370
    15
100
AcDbLine
 10
161.8546709659
 20
135.3664083218
 30
0.0
 11
161.8546709659
 21
195.366408754
 31
0.0
  0
LINE
  5
B7
330
1F
100
AcDbEntity
  8
SLD-0
  6
Continuous
 62
   179
370
    15
100
AcDbLine
 10
161.8546709659
 20
195.366408754
 30
0.0
 11
159.854670992
 21
195.366407994
 31
0.0
  0
LINE
  5
B8
330
1F
100
AcDbEntity
  8
SLD-0
  6
Continuous
 62
   179
370
    15
100
AcDbLine
 10
159.854670992
 20
195.366407994
 30
0.0
 11
159.854670992
 21
225.366407994
 31
0.0
  0
LINE
  5
B9
330
1F
100
AcDbEntity
  8
SLD-0
  6
Continuous
 62
   179
370
    15
100
AcDbLine
 10
152.3981773195
 20
236.0153845698
 30
0.0
 11
156.0555483456
 21
238.5763023829
 31
0.0
  0
LINE
  5
BA
330
1F
100
AcDbEntity
  8
SLD-0
  6
Continuous
 62
   179
370
    15
100
AcDbLine
 10
153.5453301922
 20
234.3770804812
 30
0.0
 11
152.3981773195
 21
236.0153845698
 31
0.0
  0
LINE
  5
BB
330
1F
100
AcDbEntity
  8
SLD-0
  6
Continuous
 62
   179
370
    15
100
AcDbLine
 10
156.0555483456
 20
238.5763023829
 30
0.0
 11
157.2027012016
 21
236.9379979407
 31
0.0
  0
LINE
  5
BC
330
1F
100
AcDbEntity
  8
SLD-0
  6
Continuous
 62
   179
370
    15
100
AcDbLine
 10
161.8546709659
 20
190.366407994
 30
0.0
 11
159.854670992
 21
190.366407994
 31
0.0
  0
LINE
  5
BD
330
1F
100
AcDbEntity
  8
SLD-0
  6
Continuous
 62
   179
370
    15
100
AcDbLine
 10
159.854670992
 20
195.366407994
 30
0.0
 11
159.854670992
 21
190.366407994
 31
0.0
  0
LINE
  5
BE
330
1F
100
AcDbEntity
  8
SLD-0
  6
Continuous
 62
   179
370
    15
100
AcDbLine
 10
161.8546709659
 20
133.366407994
 30
0.0
 11
159.854670992
 21
133.366407994
 31
0.0
  0
LINE
  5
BF
330
1F
100
AcDbEntity
  8
SLD-0
  6
Continuous
 62
   179
370
    15
100
AcDbLine
 10
159.854670992
 20
190.366407994
 30
0.0
 11
159.854670992
 21
133.366407994
 31
0.0
  0
LINE
  5
C0
330
1F
100
AcDbEntity
  8
SLD-0
  6
Continuous
 62
   179
370
    15
100
AcDbLine
 10
159.854670992
 20
195.366407994
 30
0.0
 11
159.854670992
 21
225.366407994
 31
0.0
  0
LINE
  5
C1
330
1F
100
AcDbEntity
  8
SLD-0
  6
Continuous
 62
   179
370
    15
100
AcDbLine
 10
154.854670992
 20
223.7899140496
 30
0.0
 11
154.854670992
 21
195.366407994
 31
0.0
  0
LINE
  5
C2
330
1F
100
AcDbEntity
  8
SLD-0
  6
Continuous
 62
   179
370
    15
100
AcDbLine
 10
149.4495699707
 20
231.5091982994
 30
0.0
 11
154.854670992
 21
223.7899140496
 31
0.0
  0
LINE
  5
C3
330
1F
100
AcDbEntity
  8
SLD-0
  6
Continuous
 62
   179
370
    15
100
AcDbLine
 10
153.5453301922
 20
234.3770804812
 30
0.0
 11
149.4495699707
 21
231.5091982994
 31
0.0
  0
LINE
  5
C4
330
1F
100
AcDbEntity
  8
SLD-0
  6
Continuous
 62
   179
370
    15
100
AcDbLine
 10
159.854670992
 20
225.366407994
 30
0.0
 11
153.5453301922
 21
234.3770804812
 31
0.0
  0
LINE
  5
C5
330
1F
100
AcDbEntity
  8
SLD-0
  6
Continuous
 62
   179
370
    15
100
AcDbLine
 10
154.854670992
 20
195.366407994
 30
0.0
 11
159.854670992
 21
195.366407994
 31
0.0
  0
LINE
  5
C6
330
1F
100
AcDbEntity
  8
SLD-0
  6
Continuous
 62
   179
370
    15
100
AcDbLine
 10
148.302417098
 20
233.147502388
 30
0.0
 11
152.3981773195
 21
236.0153845698
 31
0.0
  0
LINE
  5
C7
330
1F
100
AcDbEntity
  8
SLD-0
  6
Continuous
 62
   179
370
    15
100
AcDbLine
 10
149.4495699707
 20
231.5091982994
 30
0.0
 11
148.302417098
 21
233.147502388
 31
0.0
  0
LINE
  5
C8
330
1F
100
AcDbEntity
  8
SLD-0
  6
Continuous
 62
   179
370
    15
100
AcDbLine
 10
152.3981773195
 20
236.0153845698
 30
0.0
 11
153.5453301922
 21
234.3770804812
 31
0.0
  0
LINE
  5
C9
330
1F
100
AcDbEntity
  8
SLD-0
  6
Continuous
 62
   179
370
    15
100
AcDbLine
 10
154.854670992
 20
190.366407994
 30
0.0
 11
159.854670992
 21
190.366407994
 31
0.0
  0
LINE
  5
CA
330
1F
100
AcDbEntity
  8
SLD-0
  6
Continuous
 62
   179
370
    15
100
AcDbLine
 10
159.854670992
 20
190.366407994
 30
0.0
 11
159.854670992
 21
195.366407994
 31
0.0
  0
LINE
  5
CB
330
1F
100
AcDbEntity
  8
SLD-0
  6
Continuous
 62
   179
370
    15
100
AcDbLine
 10
154.854670992
 20
195.366407994
 30
0.0
 11
154.854670992
 21
190.366407994
 31
0.0
  0
LINE
  5
CC
330
1F
100
AcDbEntity
  8
SLD-0
  6
Continuous
 62
   179
370
    15
100
AcDbLine
 10
154.854670992
 20
133.366407994
 30
0.0
 11
159.854670992
 21
133.366407994
 31
0.0
  0
LINE
  5
CD
330
1F
100
AcDbEntity
  8
SLD-0
  6
Continuous
 62
   179
370
    15
100
AcDbLine
 10
159.854670992
 20
133.366407994
 30
0.0
 11
159.854670992
 21
190.366407994
 31
0.0
  0
LINE
  5
CE
330
1F
100
AcDbEntity
  8
SLD-0
  6
Continuous
 62
   179
370
    15
100
AcDbLine
 10
154.854670992
 20
190.366407994
 30
0.0
 11
154.854670992
 21
133.366407994
 31
0.0
  0
ARC
  5
CF
330
1F
100
AcDbEntity
  8
SLD-0
  6
Continuous
 62
   179
370
    15
100
AcDbCircle
 10
104.5644239508
 20
138.366407994
 30
0.0
 40
2.250000000000014
100
AcDbArc
 50
180.0
 51
0.0
  0
ARC
  5
D0
330
1F
100
AcDbEntity
  8
SLD-0
  6
Continuous
 62
   179
370
    15
100
AcDbCircle
 10
104.5644239508
 20
188.366407994
 30
0.0
 40
2.250000000000014
100
AcDbArc
 50
0.0
 51
180.0
  0
ARC
  5
D1
330
1F
100
AcDbEntity
  8
SLD-0
  6
Continuous
 62
   179
370
    15
100
AcDbCircle
 10
72.5644239508
 20
138.366407994
 30
0.0
 40
2.250000000000014
100
AcDbArc
 50
180.0
 51
0.0
  0
ARC
  5
D2
330
1F
100
AcDbEntity
  8
SLD-0
  6
Continuous
 62
   179
370
    15
100
AcDbCircle
 10
72.5644239508
 20
188.366407994
 30
0.0
 40
2.250000000000014
100
AcDbArc
 50
0.0
 51
180.0
  0
ARC
  5
D3
330
1F
100
AcDbEntity
  8
SLD-0
  6
Continuous
 62
   179
370
    15
100
AcDbCircle
 10
103.5644237272
 20
190.366407994
 30
0.0
 40
5.000000000000005
100
AcDbArc
 50
89.9999974377
 51
180.0
  0
ARC
  5
D4
330
1F
100
AcDbEntity
  8
SLD-0
  6
Continuous
 62
   179
370
    15
100
AcDbCircle
 10
73.5644241743
 20
190.366407994
 30
0.0
 40
5.000000000000005
100
AcDbArc
 50
0.0
 51
90.0000025611
  0
DIMENSION
  5
D5
330
1F
100
AcDbEntity
  8
SLD-0
 62
     7
100
AcDbDimension
  2
*D6
 10
49.1879734922
 20
195.366407994
 30
0.0
 11
49.1879734922
 21
164.366407994
 31
0.0
 70
   160
 71
     1
 42
62.0
  3
SLDDIMSTYLE0
100
AcDbAlignedDimension
 13
69.5644239508
 23
133.366407994
 33
0.0
 14
67.5644239508
 24
195.366407994
 34
0.0
 50
90.0
100
AcDbRotatedDimension
1001
ACAD
1000
DSTYLE
1002
{
1070
    77
1070
     3
1070
   143
1040
0.0393700787
1070
    41
1040
3.0
1070
    44
1040
1.0
1070
    42
1040
1.0
1070
   147
1040
1.524
1070
    73
1070
     0
1070
    74
1070
     0
1070
   140
1040
3.5
1070
   284
1070
    12
1070
    78
1070
    12
1002
}
  0
DIMENSION
  5
F3
330
1F
100
AcDbEntity
  8
SLD-0
 62
     7
100
AcDbDimension
  2
*D8
 10
78.5644239508
 20
121.5771900001
 30
0.0
 11
88.5644239508
 21
121.5771900001
 31
0.0
 70
   160
 71
     1
 42
20.0
  3
SLDDIMSTYLE0
100
AcDbAlignedDimension
 13
98.5644239508
 23
133.366407994
 33
0.0
 14
78.5644239508
 24
133.366407994
 34
0.0
100
AcDbRotatedDimension
1001
ACAD
1000
DSTYLE
1002
{
1070
    77
1070
     3
1070
   143
1040
0.0393700787
1070
    41
1040
3.0
1070
    44
1040
1.0
1070
    42
1040
1.0
1070
   147
1040
1.524
1070
    73
1070
     0
1070
    74
1070
     0
1070
   140
1040
3.5
1070
   284
1070
    12
1070
    78
1070
    12
1002
}
  0
DIMENSION
  5
10A
330
1F
100
AcDbEntity
  8
SLD-0
 62
     7
100
AcDbDimension
  2
*D9
 10
57.101131867
 20
138.366407994
 30
0.0
 11
57.101131867
 21
126.0615387375
 31
0.0
 70
   160
 71
     1
 42
5.0
  3
SLDDIMSTYLE0
100
AcDbAlignedDimension
 13
69.5644239508
 23
133.366407994
 33
0.0
 14
67.8144239508
 24
138.366407994
 34
0.0
 50
90.0
100
AcDbRotatedDimension
1001
ACAD
1000
DSTYLE
1002
{
1070
    77
1070
     3
1070
   143
1040
0.0393700787
1070
    41
1040
3.0
1070
    44
1040
1.0
1070
    42
1040
1.0
1070
   147
1040
1.524
1070
    73
1070
     0
1070
    74
1070
     0
1070
   140
1040
3.5
1070
   284
1070
    12
1070
    78
1070
    12
1002
}
  0
DIMENSION
  5
125
330
1F
100
AcDbEntity
  8
SLD-0
 62
     7
100
AcDbDimension
  2
*D10
 10
57.101131867
 20
138.366407994
 30
0.0
 11
57.101131867
 21
163.366407994
 31
0.0
 70
   160
 71
     1
 42
50.0
  3
SLDDIMSTYLE0
100
AcDbAlignedDimension
 13
67.8144239508
 23
188.366407994
 33
0.0
 14
67.8144239508
 24
138.366407994
 34
0.0
 50
90.0
100
AcDbRotatedDimension
1001
ACAD
1000
DSTYLE
1002
{
1070
    77
1070
     3
1070
   143
1040
0.0393700787
1070
    41
1040
3.0
1070
    44
1040
1.0
1070
    42
1040
1.0
1070
   147
1040
1.524
1070
    73
1070
     0
1070
    74
1070
     0
1070
   140
1040
3.5
1070
   284
1070
    12
1070
    78
1070
    12
1002
}
  0
DIMENSION
  5
13D
330
1F
100
AcDbEntity
  8
SLD-0
 62
     7
100
AcDbDimension
  2
*D11
 10
72.5644239508
 20
105.0423032504
 30
0.0
 11
88.5644239508
 21
105.0423032504
 31
0.0
 70
   160
 71
     1
 42
32.0
  3
SLDDIMSTYLE0
100
AcDbAlignedDimension
 13
104.5644239508
 23
133.616407994
 33
0.0
 14
72.5644239508
 24
133.616407994
 34
0.0
100
AcDbRotatedDimension
1001
ACAD
1000
DSTYLE
1002
{
1070
    77
1070
     3
1070
   143
1040
0.0393700787
1070
    41
1040
3.0
1070
    44
1040
1.0
1070
    42
1040
1.0
1070
   147
1040
1.524
1070
    73
1070
     0
1070
    74
1070
     0
1070
   140
1040
3.5
1070
   284
1070
    12
1070
    78
1070
    12
1002
}
  0
DIMENSION
  5
154
330
1F
100
AcDbEntity
  8
SLD-0
 62
     7
100
AcDbDimension
  2
*D12
 10
72.5644239508
 20
113.0736181019
 30
0.0
 11
80.5644239508
 21
113.0736181019
 31
0.0
 70
   160
 71
     1
 42
16.0
  3
SLDDIMSTYLE0
100
AcDbAlignedDimension
 13
88.5644239508
 23
147.6718063166
 33
0.0
 14
72.5644239508
 24
133.616407994
 34
0.0
100
AcDbRotatedDimension
1001
ACAD
1000
DSTYLE
1002
{
1070
    77
1070
     3
1070
   143
1040
0.0393700787
1070
    41
1040
3.0
1070
    44
1040
1.0
1070
    42
1040
1.0
1070
   147
1040
1.524
1070
    73
1070
     0
1070
    74
1070
     0
1070
   140
1040
3.5
1070
   284
1070
    12
1070
    78
1070
    12
1002
}
  0
DIMENSION
  5
16D
330
1F
100
AcDbEntity
  8
SLD-0
 62
     7
100
AcDbDimension
  2
*D13
 10
67.5644239508
 20
97.6636910824
 30
0.0
 11
88.5644239508
 21
97.6636910824
 31
0.0
 70
   160
 71
     1
 42
42.0
  3
SLDDIMSTYLE0
100
AcDbAlignedDimension
 13
109.5644239508
 23
135.366407994
 33
0.0
 14
67.5644239508
 24
135.366407994
 34
0.0
100
AcDbRotatedDimension
1001
ACAD
1000
DSTYLE
1002
{
1070
    77
1070
     3
1070
   143
1040
0.0393700787
1070
    41
1040
3.0
1070
    44
1040
1.0
1070
    42
1040
1.0
1070
   147
1040
1.524
1070
    73
1070
     0
1070
    74
1070
     0
1070
   140
1040
3.5
1070
   284
1070
    12
1070
    78
1070
    12
1002
}
  0
DIMENSION
  5
184
330
1F
100
AcDbEntity
  8
SLD-0
 62
     7
100
AcDbDimension
  2
*D14
 10
41.290130753
 20
238.5763033696
 30
0.0
 11
41.290130753
 21
185.9713556818
 31
0.0
 70
   160
  1
(<>)
 71
     1
 42
105.2098953756
  3
SLDDIMSTYLE1
100
AcDbAlignedDimension
 13
69.5644239508
 23
133.366407994
 33
0.0
 14
69.5644239508
 24
238.5763033696
 34
0.0
 50
90.0
100
AcDbRotatedDimension
1001
ACAD
1000
DSTYLE
1002
{
1070
    77
1070
     3
1070
   143
1040
0.0393700787
1070
    41
1040
3.0
1070
    44
1040
1.0
1070
    42
1040
1.0
1070
   147
1040
1.524
1070
    73
1070
     0
1070
    74
1070
     0
1070
   140
1040
3.5
1070
   284
1070
    12
1070
    78
1070
    12
1002
}
  0
DIMENSION
  5
19F
330
1F
100
AcDbEntity
  8
SLD-0
 62
     7
100
AcDbDimension
  2
*D15
 10
72.5644239508
 20
138.366407994
 30
0.0
 11
51.2109744794
 21
118.9589281771
 31
0.0
 70
   164
  1
4-<>
 71
     1
 42
156.2397468139
  3
SLDDIMSTYLE2
100
AcDbRadialDimension
 15
0.0
 25
0.0
 35
0.0
 40
0.0
1001
ACAD
1000
DSTYLE
1002
{
1070
    77
1070
     0
1070
   143
1040
0.0393700787
1070
    41
1040
3.0
1070
    44
1040
1.0
1070
    42
1040
1.0
1070
   147
1040
1.524
1070
    73
1070
     1
1070
    74
1070
     1
1070
   140
1040
3.5
1070
   284
1070
    12
1070
    78
1070
    12
1002
}
  0
DIMENSION
  5
1B2
330
1F
100
AcDbEntity
  8
SLD-0
 62
     7
100
AcDbDimension
  2
*D16
 10
148.5842085485
 20
241.4622964679
 30
0.0
 11
154.1014234996
 21
245.3254919666
 31
0.0
 70
   160
 71
     1
 42
5.0000000001
  3
SLDDIMSTYLE0
100
AcDbAlignedDimension
 13
148.302417098
 23
233.147502388
 33
0.0
 14
152.3981773195
 24
236.0153845698
 34
0.0
 50
35.0
100
AcDbRotatedDimension
1001
ACAD
1000
DSTYLE
1002
{
1070
    77
1070
     3
1070
   143
1040
0.0393700787
1070
    41
1040
3.0
1070
    44
1040
1.0
1070
    42
1040
1.0
1070
   147
1040
1.524
1070
    73
1070
     0
1070
    74
1070
     0
1070
   140
1040
3.5
1070
   284
1070
    12
1070
    78
1070
    12
1002
}
  0
DIMENSION
  5
1CD
330
1F
100
AcDbEntity
  8
SLD-0
 62
     7
100
AcDbDimension
  2
*D17
 10
140.2122814233
 20
227.4827284034
 30
0.0
 11
143.9405282596
 21
222.1582401156
 31
0.0
 70
   160
 71
     1
 42
13.0
  3
SLDDIMSTYLE0
100
AcDbAlignedDimension
 13
159.854670992
 23
225.366407994
 33
0.0
 14
152.3981773195
 24
236.0153845698
 34
0.0
 50
-55.0
100
AcDbRotatedDimension
1001
ACAD
1000
DSTYLE
1002
{
1070
    77
1070
     3
1070
   143
1040
0.0393700787
1070
    41
1040
3.0
1070
    44
1040
1.0
1070
    42
1040
1.0
1070
   147
1040
1.524
1070
    73
1070
     0
1070
    74
1070
     0
1070
   140
1040
3.5
1070
   284
1070
    12
1070
    78
1070
    12
1002
}
  0
DIMENSION
  5
1E7
330
1F
100
AcDbEntity
  8
SLD-0
 62
     7
100
AcDbDimension
  2
*D18
 10
176.8047151325
 20
133.366407994
 30
0.0
 11
176.8047151325
 21
179.6881309855
 31
0.0
 70
   160
 71
     1
 42
92.643445983
  3
SLDDIMSTYLE1
100
AcDbAlignedDimension
 13
164.854670992
 23
226.009853977
 33
0.0
 14
164.854670992
 24
133.366407994
 34
0.0
 50
90.0
100
AcDbRotatedDimension
1001
ACAD
1000
DSTYLE
1002
{
1070
    77
1070
     3
1070
   143
1040
0.0393700787
1070
    41
1040
3.0
1070
    44
1040
1.0
1070
    42
1040
1.0
1070
   147
1040
1.524
1070
    73
1070
     0
1070
    74
1070
     0
1070
   140
1040
3.5
1070
   284
1070
    12
1070
    78
1070
    12
1002
}
  0
DIMENSION
  5
1FF
330
1F
100
AcDbEntity
  8
SLD-0
 62
     7
100
AcDbDimension
  2
*D19
 10
176.8047151325
 20
226.009853977
 30
0.0
 11
176.8047151325
 21
250.8462290804
 31
0.0
 70
   160
  1
(<>)
 71
     1
 42
12.5664493926
  3
SLDDIMSTYLE1
100
AcDbAlignedDimension
 13
156.0555483988
 23
238.5763033696
 33
0.0
 14
164.854670992
 24
226.009853977
 34
0.0
 50
90.0
100
AcDbRotatedDimension
1001
ACAD
1000
DSTYLE
1002
{
1070
    77
1070
     3
1070
   143
1040
0.0393700787
1070
    41
1040
3.0
1070
    44
1040
1.0
1070
    42
1040
1.0
1070
   147
1040
1.524
1070
    73
1070
     0
1070
    74
1070
     0
1070
   140
1040
3.5
1070
   284
1070
    12
1070
    78
1070
    12
1002
}
  0
DIMENSION
  5
21A
330
1F
100
AcDbEntity
  8
SLD-0
 62
     7
100
AcDbDimension
  2
*D20
 10
159.854670992
 20
225.366407994
 30
0.0
 11
131.9880577971
 21
216.5800986036
 31
0.0
 70
   162
 71
     1
 42
2.5307274154
  3
SLDDIMSTYLE3
100
AcDb2LineAngularDimension
 13
152.3981773195
 23
236.0153845698
 33
0.0
 14
159.854670992
 24
225.366407994
 34
0.0
 15
159.854670992
 25
133.366407994
 35
0.0
 16
132.1863616257
 26
234.7585334441
 36
0.0
1001
ACAD
1000
DSTYLE
1002
{
1070
    77
1070
     3
1070
   143
1040
0.0393700787
1070
    41
1040
3.0
1070
    44
1040
1.0
1070
    42
1040
1.0
1070
   147
1040
1.524
1070
    73
1070
     0
1070
    74
1070
     0
1070
   140
1040
3.5
1070
   284
1070
    12
1070
    78
1070
    12
1002
}
  0
DIMENSION
  5
233
330
1F
100
AcDbEntity
  8
SLD-0
 62
     7
100
AcDbDimension
  2
*D21
 10
164.854670992
 20
114.9762461773
 30
0.0
 11
159.854670992
 21
114.9762461773
 31
0.0
 70
   160
 71
     1
 42
10.0
  3
SLDDIMSTYLE0
100
AcDbAlignedDimension
 13
154.854670992
 23
133.366407994
 33
0.0
 14
164.854670992
 24
133.366407994
 34
0.0
100
AcDbRotatedDimension
1001
ACAD
1000
DSTYLE
1002
{
1070
    77
1070
     3
1070
   143
1040
0.0393700787
1070
    41
1040
3.0
1070
    44
1040
1.0
1070
    42
1040
1.0
1070
   147
1040
1.524
1070
    73
1070
     0
1070
    74
1070
     0
1070
   140
1040
3.5
1070
   284
1070
    12
1070
    78
1070
    12
1002
}
  0
DIMENSION
  5
24C
330
1F
100
AcDbEntity
  8
SLD-0
 62
     7
100
AcDbDimension
  2
*D22
 10
161.854670992
 20
123.7215732615
 30
0.0
 11
170.7433799223
 21
123.7215732615
 31
0.0
 70
   160
 71
     1
 42
3.0
  3
SLDDIMSTYLE0
100
AcDbAlignedDimension
 13
164.854670992
 23
133.366407994
 33
0.0
 14
161.854670992
 24
133.366407994
 34
0.0
100
AcDbRotatedDimension
1001
ACAD
1000
DSTYLE
1002
{
1070
    77
1070
     3
1070
   143
1040
0.0393700787
1070
    41
1040
3.0
1070
    44
1040
1.0
1070
    42
1040
1.0
1070
   147
1040
1.524
1070
    73
1070
     0
1070
    74
1070
     0
1070
   140
1040
3.5
1070
   284
1070
    12
1070
    78
1070
    12
1002
}
  0
MTEXT
  5
268
330
1F
100
AcDbEntity
  8
SLD-0
 62
     7
100
AcDbMText
 10
161.8617207305
 20
45.3757332051
 30
0.0
 40
4.2333333333
 41
0.0
 71
     1
 72
     1
  1
当　板
  7
SLDTEXTSTYLE0
 73
     1
 44
1.0
  0
MTEXT
  5
269
330
1F
100
AcDbEntity
  8
SLD-0
 62
     7
100
AcDbMText
 10
156.9401000035
 20
32.0488661043
 30
0.0
 40
4.2333333333
 41
0.0
 71
     1
 72
     1
  1
NCON-CP-05
  7
SLDTEXTSTYLE0
 73
     1
 44
1.0
  0
MTEXT
  5
26A
330
1F
100
AcDbEntity
  8
SLD-0
 62
     7
100
AcDbMText
 10
163.5022609729
 20
18.1589587192
 30
0.0
 40
4.2333333333
 41
0.0
 71
     1
 72
     1
  1
131260
  7
SLDTEXTSTYLE0
 73
     1
 44
1.0
  0
MTEXT
  5
26B
330
1F
100
AcDbEntity
  8
SLD-0
100
AcDbMText
 10
131.8474465925
 20
167.4351128492
 30
0.0
 40
3.5
 41
0.0
 71
     1
 72
     1
  1
ゴム板
  7
SLDTEXTSTYLE0
 73
     1
 44
1.0
  0
LEADER
  5
273
330
1F
100
AcDbEntity
  8
SLD-0
100
AcDbLeader
  3
SLDDIMSTYLE4
 76
     3
 10
154.854670992
 20
172.2369878709
 30
0.0
 10
144.5666998026
 20
163.359909773
 30
0.0
 10
131.8474220138
 20
163.359909773
 30
0.0
  0
HATCH
  5
274
330
1F
100
AcDbEntity
  8
0
  6
Continuous
 62
   179
100
AcDbHatch
 10
0.0
 20
0.0
 30
0.0
210
0.0
220
0.0
230
1.0
  2
ANSI31
 70
     0
 71
     0
 91
        1
 92
        0
 93
       12
 72
     1
 10
152.3981773194577
 20
236.0153845697521
 11
148.3024170980127
 21
233.1475023879969
 72
     1
 10
148.3024170980127
 20
233.1475023879969
 11
149.4495699707148
 21
231.5091982994188
 72
     1
 10
149.4495699707148
 20
231.5091982994188
 11
154.8546709920213
 21
223.7899140496003
 72
     1
 10
154.8546709920213
 20
223.7899140496003
 11
154.8546709920213
 21
195.3664079939952
 72
     1
 10
154.8546709920213
 20
195.3664079939952
 11
154.8546709920213
 21
190.3664079939952
 72
     1
 10
154.8546709920213
 20
190.3664079939952
 11
154.8546709920213
 21
133.3664079939952
 72
     1
 10
154.8546709920213
 20
133.3664079939952
 11
159.8546709920213
 21
133.3664079939952
 72
     1
 10
159.8546709920213
 20
133.3664079939952
 11
159.8546709920213
 21
190.3664079939952
 72
     1
 10
159.8546709920213
 20
190.3664079939952
 11
159.8546709920213
 21
195.3664079939952
 72
     1
 10
159.8546709920213
 20
195.3664079939952
 11
159.8546709920213
 21
225.3664079939952
 72
     1
 10
159.8546709920213
 20
225.3664079939952
 11
153.5453301921598
 21
234.3770804811741
 72
     1
 10
153.5453301921598
 20
234.3770804811741
 11
152.3981773194577
 21
236.0153845697521
 97
        0
 75
     0
 76
     1
 52
0.0
 41
0.5
 77
     0
 78
     1
 53
45.00000209717174
 43
0.0
 44
0.0
 45
-1.12253205622118
 46
1.122531974046107
 79
     0
 98
        1
 10
0.0
 20
0.0
  0
INSERT
  5
275
330
1F
100
AcDbEntity
  8
0
  6
Continuous
 62
     7
370
     0
100
AcDbBlockReference
  2
SW_CENTERMARKSYMBOL_0
 10
72.5644239508
 20
188.366407994
 30
0.0
  0
INSERT
  5
276
330
1F
100
AcDbEntity
  8
0
  6
Continuous
 62
     7
370
     0
100
AcDbBlockReference
  2
SW_CENTERMARKSYMBOL_1
 10
72.5644239508
 20
138.366407994
 30
0.0
  0
INSERT
  5
277
330
1F
100
AcDbEntity
  8
0
  6
Continuous
 62
     7
370
     0
100
AcDbBlockReference
  2
SW_CENTERMARKSYMBOL_2
 10
104.5644239508
 20
138.366407994
 30
0.0
  0
INSERT
  5
278
330
1F
100
AcDbEntity
  8
0
  6
Continuous
 62
     7
370
     0
100
AcDbBlockReference
  2
SW_CENTERMARKSYMBOL_3
 10
104.5644239508
 20
188.366407994
 30
0.0
  0
ENDSEC
  0
SECTION
  2
OBJECTS
  0
DICTIONARY
  5
C
330
0
100
AcDbDictionary
281
     1
  3
ACAD_GROUP
350
D
  3
ACAD_LAYOUT
350
1A
  3
ACAD_MLINESTYLE
350
17
  3
ACAD_PLOTSETTINGS
350
19
  3
ACAD_PLOTSTYLENAME
350
E
  0
DICTIONARY
  5
D
102
{ACAD_REACTORS
330
C
102
}
330
C
100
AcDbDictionary
281
     1
  0
DICTIONARY
  5
1A
102
{ACAD_REACTORS
330
C
102
}
330
C
100
AcDbDictionary
281
     1
  3
Layout1
350
1E
  3
Layout2
350
26
  3
Model
350
22
  0
DICTIONARY
  5
17
102
{ACAD_REACTORS
330
C
102
}
330
C
100
AcDbDictionary
281
     1
  3
Standard
350
18
  0
DICTIONARY
  5
19
102
{ACAD_REACTORS
330
C
102
}
330
C
100
AcDbDictionary
281
     1
  0
ACDBDICTIONARYWDFLT
  5
E
102
{ACAD_REACTORS
330
C
102
}
330
C
100
AcDbDictionary
281
     1
  3
Normal
350
F
100
AcDbDictionaryWithDefault
340
F
  0
LAYOUT
  5
1E
102
{ACAD_REACTORS
330
1A
102
}
330
1A
100
AcDbPlotSettings
  1

  2

  4

  6

 40
0.0
 41
0.0
 42
0.0
 43
0.0
 44
0.0
 45
0.0
 46
0.0
 47
0.0
 48
0.0
 49
0.0
140
0.0
141
0.0
142
1.0
143
1.0
 70
   688
 72
     0
 73
     0
 74
     5
  7

 75
    16
147
1.0
148
0.0
149
0.0
100
AcDbLayout
  1
Layout1
 70
     1
 71
     1
 10
0.0
 20
0.0
 11
0.0
 21
0.0
 12
0.0
 22
0.0
 32
0.0
 14
0.0
 24
0.0
 34
0.0
 15
0.0
 25
0.0
 35
0.0
146
0.0
 13
0.0
 23
0.0
 33
0.0
 16
1.0
 26
0.0
 36
0.0
 17
0.0
 27
1.0
 37
0.0
 76
     0
330
1B
  0
LAYOUT
  5
26
102
{ACAD_REACTORS
330
1A
102
}
330
1A
100
AcDbPlotSettings
  1

  2

  4

  6

 40
0.0
 41
0.0
 42
0.0
 43
0.0
 44
0.0
 45
0.0
 46
0.0
 47
0.0
 48
0.0
 49
0.0
140
0.0
141
0.0
142
1.0
143
1.0
 70
   688
 72
     0
 73
     0
 74
     5
  7

 75
    16
147
1.0
148
0.0
149
0.0
100
AcDbLayout
  1
Layout2
 70
     1
 71
     2
 10
0.0
 20
0.0
 11
0.0
 21
0.0
 12
0.0
 22
0.0
 32
0.0
 14
0.0
 24
0.0
 34
0.0
 15
0.0
 25
0.0
 35
0.0
146
0.0
 13
0.0
 23
0.0
 33
0.0
 16
1.0
 26
0.0
 36
0.0
 17
0.0
 27
1.0
 37
0.0
 76
     0
330
23
  0
LAYOUT
  5
22
102
{ACAD_REACTORS
330
1A
102
}
330
1A
100
AcDbPlotSettings
  1

  2

  4

  6

 40
0.0
 41
0.0
 42
0.0
 43
0.0
 44
0.0
 45
0.0
 46
0.0
 47
0.0
 48
0.0
 49
0.0
140
0.0
141
0.0
142
1.0
143
1.0
 70
  1712
 72
     0
 73
     0
 74
     0
  7

 75
     0
147
1.0
148
0.0
149
0.0
100
AcDbLayout
  1
Model
 70
     1
 71
     0
 10
0.0
 20
0.0
 11
0.0
 21
0.0
 12
0.0
 22
0.0
 32
0.0
 14
0.0
 24
0.0
 34
0.0
 15
210.0
 25
297.0
 35
0.0
146
0.0
 13
0.0
 23
0.0
 33
0.0
 16
1.0
 26
0.0
 36
0.0
 17
0.0
 27
1.0
 37
0.0
 76
     0
330
1F
  0
MLINESTYLE
  5
18
102
{ACAD_REACTORS
330
17
102
}
330
17
100
AcDbMlineStyle
  2
Standard
 70
     0
  3

 62
   256
 51
90.0
 52
90.0
 71
     2
 49
0.5
 62
   256
  6
BYLAYER
 49
-0.5
 62
   256
  6
BYLAYER
  0
ACDBPLACEHOLDER
  5
F
102
{ACAD_REACTORS
330
E
102
}
330
E
  0
ENDSEC
  0
EOF
