  0
SECTION
  2
HEADER
  9
$ACADVER
  1
AC1015
  9
$ACADMAINTVER
 70
     6
  9
$DWGCODEPAGE
  3
DOS932
  9
$INSBASE
 10
0.0
 20
0.0
 30
0.0
  9
$EXTMIN
 10
0.0
 20
0.0
 30
0.0
  9
$EXTMAX
 10
210.0
 20
297.0
 30
0.0
  9
$LIMMIN
 10
0.0
 20
0.0
  9
$LIMMAX
 10
0.0
 20
0.0
  9
$ORTHOMODE
 70
     0
  9
$REGENMODE
 70
     1
  9
$FILLMODE
 70
     1
  9
$QTEXTMODE
 70
     0
  9
$MIRRTEXT
 70
     1
  9
$LTSCALE
 40
1.0
  9
$ATTMODE
 70
     1
  9
$TEXTSIZE
 40
3.5
  9
$TRACEWID
 40
1.0
  9
$TEXTSTYLE
  7
Standard
  9
$CLAYER
  8
0
  9
$CELTYPE
  6
ByLayer
  9
$CECOLOR
 62
   256
  9
$CELTSCALE
 40
1.0
  9
$DISPSILH
 70
     0
  9
$DIMSCALE
 40
1.0
  9
$DIMASZ
 40
3.0
  9
$DIMEXO
 40
1.0
  9
$DIMDLI
 40
3.75
  9
$DIMRND
 40
0.0
  9
$DIMDLE
 40
0.0
  9
$DIMEXE
 40
1.0
  9
$DIMTP
 40
0.0
  9
$DIMTM
 40
0.0
  9
$DIMTXT
 40
3.5
  9
$DIMCEN
 40
2.5
  9
$DIMTSZ
 40
0.0
  9
$DIMTOL
 70
     0
  9
$DIMLIM
 70
     0
  9
$DIMTIH
 70
     1
  9
$DIMTOH
 70
     1
  9
$DIMSE1
 70
     0
  9
$DIMSE2
 70
     0
  9
$DIMTAD
 70
     1
  9
$DIMZIN
 70
     1
  9
$DIMBLK
  1

  9
$DIMASO
 70
     1
  9
$DIMSHO
 70
     1
  9
$DIMPOST
  1

  9
$DIMAPOST
  1

  9
$DIMALT
 70
     0
  9
$DIMALTD
 70
     3
  9
$DIMALTF
 40
0.0393700787
  9
$DIMLFAC
 40
1.0
  9
$DIMTOFL
 70
     1
  9
$DIMTVP
 40
0.0
  9
$DIMTIX
 70
     0
  9
$DIMSOXD
 70
     0
  9
$DIMSAH
 70
     0
  9
$DIMBLK1
  1

  9
$DIMBLK2
  1

  9
$DIMSTYLE
  2
ISO-25
  9
$DIMCLRD
 70
     0
  9
$DIMCLRE
 70
     0
  9
$DIMCLRT
 70
     0
  9
$DIMTFAC
 40
1.0
  9
$DIMGAP
 40
1.524
  9
$DIMJUST
 70
     0
  9
$DIMSD1
 70
     0
  9
$DIMSD2
 70
     0
  9
$DIMTOLJ
 70
     0
  9
$DIMTZIN
 70
     1
  9
$DIMALTZ
 70
     0
  9
$DIMALTTZ
 70
     0
  9
$DIMUPT
 70
     0
  9
$DIMDEC
 70
     2
  9
$DIMTDEC
 70
     2
  9
$DIMALTU
 70
     2
  9
$DIMALTTD
 70
     3
  9
$DIMTXSTY
  7
Standard
  9
$DIMAUNIT
 70
     0
  9
$DIMADEC
 70
     0
  9
$DIMALTRND
 40
0.0
  9
$DIMAZIN
 70
     0
  9
$DIMDSEP
 70
    44
  9
$DIMATFIT
 70
     3
  9
$DIMFRAC
 70
     0
  9
$DIMLDRBLK
  1

  9
$DIMLUNIT
 70
     2
  9
$DIMLWD
 70
    -2
  9
$DIMLWE
 70
    -2
  9
$DIMTMOVE
 70
     0
  9
$LUNITS
 70
     2
  9
$LUPREC
 70
     1
  9
$SKETCHINC
 40
1.0
  9
$FILLETRAD
 40
10.0
  9
$AUNITS
 70
     0
  9
$AUPREC
 70
     0
  9
$MENU
  1
.
  9
$ELEVATION
 40
0.0
  9
$PELEVATION
 40
0.0
  9
$THICKNESS
 40
0.0
  9
$LIMCHECK
 70
     0
  9
$CHAMFERA
 40
10.0
  9
$CHAMFERB
 40
10.0
  9
$CHAMFERC
 40
20.0
  9
$CHAMFERD
 40
0.0
  9
$SKPOLY
 70
     0
  9
$TDCREATE
 40
2454723.631460312
  9
$TDUCREATE
 40
2454723.256460312
  9
$TDUPDATE
 40
2454723.631460324
  9
$TDUUPDATE
 40
2454723.256460324
  9
$TDINDWG
 40
0.0000000116
  9
$TDUSRTIMER
 40
0.0000000116
  9
$USRTIMER
 70
     1
  9
$ANGBASE
 50
0.0
  9
$ANGDIR
 70
     0
  9
$PDMODE
 70
     0
  9
$PDSIZE
 40
-1.0
  9
$PLINEWID
 40
0.0
  9
$SPLFRAME
 70
     0
  9
$SPLINETYPE
 70
     6
  9
$SPLINESEGS
 70
     8
  9
$HANDSEED
  5
710
  9
$SURFTAB1
 70
     6
  9
$SURFTAB2
 70
     6
  9
$SURFTYPE
 70
     6
  9
$SURFU
 70
     6
  9
$SURFV
 70
     6
  9
$UCSBASE
  2

  9
$UCSNAME
  2

  9
$UCSORG
 10
0.0
 20
0.0
 30
0.0
  9
$UCSXDIR
 10
1.0
 20
0.0
 30
0.0
  9
$UCSYDIR
 10
0.0
 20
1.0
 30
0.0
  9
$UCSORTHOREF
  2

  9
$UCSORTHOVIEW
 70
     0
  9
$UCSORGTOP
 10
0.0
 20
0.0
 30
0.0
  9
$UCSORGBOTTOM
 10
0.0
 20
0.0
 30
0.0
  9
$UCSORGLEFT
 10
0.0
 20
0.0
 30
0.0
  9
$UCSORGRIGHT
 10
0.0
 20
0.0
 30
0.0
  9
$UCSORGFRONT
 10
0.0
 20
0.0
 30
0.0
  9
$UCSORGBACK
 10
0.0
 20
0.0
 30
0.0
  9
$PUCSBASE
  2

  9
$PUCSNAME
  2

  9
$PUCSORG
 10
0.0
 20
0.0
 30
0.0
  9
$PUCSXDIR
 10
1.0
 20
0.0
 30
0.0
  9
$PUCSYDIR
 10
0.0
 20
1.0
 30
0.0
  9
$PUCSORTHOREF
  2

  9
$PUCSORTHOVIEW
 70
     0
  9
$PUCSORGTOP
 10
0.0
 20
0.0
 30
0.0
  9
$PUCSORGBOTTOM
 10
0.0
 20
0.0
 30
0.0
  9
$PUCSORGLEFT
 10
0.0
 20
0.0
 30
0.0
  9
$PUCSORGRIGHT
 10
0.0
 20
0.0
 30
0.0
  9
$PUCSORGFRONT
 10
0.0
 20
0.0
 30
0.0
  9
$PUCSORGBACK
 10
0.0
 20
0.0
 30
0.0
  9
$USERI1
 70
     0
  9
$USERI2
 70
     0
  9
$USERI3
 70
     0
  9
$USERI4
 70
     0
  9
$USERI5
 70
     0
  9
$USERR1
 40
0.0
  9
$USERR2
 40
0.0
  9
$USERR3
 40
0.0
  9
$USERR4
 40
0.0
  9
$USERR5
 40
0.0
  9
$WORLDVIEW
 70
     1
  9
$SHADEDGE
 70
     3
  9
$SHADEDIF
 70
    70
  9
$TILEMODE
 70
     1
  9
$MAXACTVP
 70
    64
  9
$PINSBASE
 10
0.0
 20
0.0
 30
0.0
  9
$PLIMCHECK
 70
     0
  9
$PEXTMIN
 10
1.0000000000E+20
 20
1.0000000000E+20
 30
1.0000000000E+20
  9
$PEXTMAX
 10
-1.0000000000E+20
 20
-1.0000000000E+20
 30
-1.0000000000E+20
  9
$PLIMMIN
 10
0.0
 20
0.0
  9
$PLIMMAX
 10
420.0
 20
297.0
  9
$UNITMODE
 70
     0
  9
$VISRETAIN
 70
     1
  9
$PLINEGEN
 70
     0
  9
$PSLTSCALE
 70
     1
  9
$TREEDEPTH
 70
  3020
  9
$CMLSTYLE
  2
Standard
  9
$CMLJUST
 70
     0
  9
$CMLSCALE
 40
20.0
  9
$PROXYGRAPHICS
 70
     1
  9
$MEASUREMENT
 70
     1
  9
$CELWEIGHT
370
    -1
  9
$ENDCAPS
280
     0
  9
$JOINSTYLE
280
     0
  9
$LWDISPLAY
290
     1
  9
$INSUNITS
 70
     4
  9
$HYPERLINKBASE
  1

  9
$STYLESHEET
  1

  9
$XEDIT
290
     1
  9
$CEPSNTYPE
380
     0
  9
$PSTYLEMODE
290
     1
  9
$FINGERPRINTGUID
  2
{4A1535FF-7749-4889-B567-4BAE2E910D79}
  9
$VERSIONGUID
  2
{FAEB1C32-E019-11D5-929B-00C0DF256EC4}
  9
$EXTNAMES
290
     1
  9
$PSVPSCALE
 40
0.0
  9
$OLESTARTUP
290
     0
  0
ENDSEC
  0
SECTION
  2
CLASSES
  0
CLASS
  1
ACDBDICTIONARYWDFLT
  2
AcDbDictionaryWithDefault
  3
ObjectDBX Classes
 90
        0
280
     0
281
     0
  0
CLASS
  1
ACDBPLACEHOLDER
  2
AcDbPlaceHolder
  3
ObjectDBX Classes
 90
        0
280
     0
281
     0
  0
CLASS
  1
LAYOUT
  2
AcDbLayout
  3
ObjectDBX Classes
 90
        0
280
     0
281
     0
  0
ENDSEC
  0
SECTION
  2
TABLES
  0
TABLE
  2
VPORT
  5
8
330
0
100
AcDbSymbolTable
 70
     1
  0
VPORT
  5
29
330
8
100
AcDbSymbolTableRecord
100
AcDbViewportTableRecord
  2
*Active
 70
     0
 10
0.0
 20
0.0
 11
1.0
 21
1.0
 12
105.0
 22
148.5
 13
0.0
 23
0.0
 14
10.0
 24
10.0
 15
10.0
 25
10.0
 16
0.0
 26
0.0
 36
1.0
 17
0.0
 27
0.0
 37
0.0
 40
297.0
 41
1.9729729729
 42
50.0
 43
0.0
 44
0.0
 50
0.0
 51
0.0
 71
     0
 72
  2000
 73
     1
 74
     3
 75
     0
 76
     0
 77
     0
 78
     0
281
     0
 65
     1
110
0.0
120
0.0
130
0.0
111
1.0
121
0.0
131
0.0
112
0.0
122
1.0
132
0.0
 79
     0
146
0.0
  0
ENDTAB
  0
TABLE
  2
LTYPE
  5
5
330
0
100
AcDbSymbolTable
 70
     6
  0
LTYPE
  5
14
330
5
100
AcDbSymbolTableRecord
100
AcDbLinetypeTableRecord
  2
ByBlock
 70
     0
  3

 72
    65
 73
     0
 40
0.0
  0
LTYPE
  5
15
330
5
100
AcDbSymbolTableRecord
100
AcDbLinetypeTableRecord
  2
ByLayer
 70
     0
  3

 72
    65
 73
     0
 40
0.0
  0
LTYPE
  5
16
330
5
100
AcDbSymbolTableRecord
100
AcDbLinetypeTableRecord
  2
Continuous
 70
     0
  3
Solid line
 72
    65
 73
     0
 40
0.0
  0
LTYPE
  5
2A
330
5
100
AcDbSymbolTableRecord
100
AcDbLinetypeTableRecord
  2
HIDDEN
 70
     0
  3
Hidden __ __ __ __ __ __ __ __ __ __ __ __ __ __
 72
    65
 73
     2
 40
1.905
 49
1.27
 74
     0
 49
-0.635
 74
     0
  0
LTYPE
  5
2B
330
5
100
AcDbSymbolTableRecord
100
AcDbLinetypeTableRecord
  2
PHANTOM
 70
     0
  3
Phantom ______  __  __  ______  __  __  ______
 72
    65
 73
     6
 40
12.7
 49
6.35
 74
     0
 49
-1.27
 74
     0
 49
1.27
 74
     0
 49
-1.27
 74
     0
 49
1.27
 74
     0
 49
-1.27
 74
     0
  0
LTYPE
  5
2C
330
5
100
AcDbSymbolTableRecord
100
AcDbLinetypeTableRecord
  2
CENTER
 70
     0
  3
Center ____ _ ____ _ ____ _ ____ _ ____ _ ____
 72
    65
 73
     4
 40
10.16
 49
6.35
 74
     0
 49
-1.27
 74
     0
 49
1.27
 74
     0
 49
-1.27
 74
     0
  0
LTYPE
  5
2D
330
5
100
AcDbSymbolTableRecord
100
AcDbLinetypeTableRecord
  2
CENTERX2
 70
     0
  3
Center (2x) ________  __  ________  __  _____
 72
    65
 73
     4
 40
20.32
 49
12.7
 74
     0
 49
-2.54
 74
     0
 49
2.54
 74
     0
 49
-2.54
 74
     0
  0
LTYPE
  5
2E
330
5
100
AcDbSymbolTableRecord
100
AcDbLinetypeTableRecord
  2
DOT2
 70
     0
  3
Dot (.5x) ........................................
 72
    65
 73
     2
 40
0.635
 49
0.0
 74
     0
 49
-0.635
 74
     0
  0
ENDTAB
  0
TABLE
  2
LAYER
  5
2
330
0
100
AcDbSymbolTable
 70
     4
  0
LAYER
  5
10
330
2
100
AcDbSymbolTableRecord
100
AcDbLayerTableRecord
  2
0
 70
     0
 62
     7
  6
Continuous
370
    -3
390
F
  0
LAYER
  5
2F
330
2
100
AcDbSymbolTableRecord
100
AcDbLayerTableRecord
  2
SLD-0
 70
     0
 62
   179
  6
Continuous
370
     0
390
F
  0
LAYER
  5
30
330
2
100
AcDbSymbolTableRecord
100
AcDbLayerTableRecord
  2
SLD-DEFPOINTS
 70
     0
 62
   179
  6
Continuous
370
     0
390
F
  0
LAYER
  5
5C5
330
2
100
AcDbSymbolTableRecord
100
AcDbLayerTableRecord
  2
Defpoints
 70
     0
 62
     7
  6
Continuous
290
     0
370
    -3
390
F
  0
ENDTAB
  0
TABLE
  2
STYLE
  5
3
330
0
100
AcDbSymbolTable
 70
     3
  0
STYLE
  5
11
330
3
100
AcDbSymbolTableRecord
100
AcDbTextStyleTableRecord
  2
Standard
 70
     0
 40
0.0
 41
1.0
 50
0.0
 71
     0
 42
2.5
  3
txt
  4
bigfont
  0
STYLE
  5
34
330
3
100
AcDbSymbolTableRecord
100
AcDbTextStyleTableRecord
  2
SLDTEXTSTYLE0
 70
     0
 40
0.0
 41
0.7
 50
0.0
 71
     0
 42
0.2
  3
TXT
  4
bigfont
  0
STYLE
  5
5FD
330
3
100
AcDbSymbolTableRecord
100
AcDbTextStyleTableRecord
  2
SLDTEXTSTYLE1
 70
     0
 40
0.0
 41
0.96
 50
0.0
 71
     0
 42
0.2
  3
TXT
  4
bigfont
  0
ENDTAB
  0
TABLE
  2
VIEW
  5
6
330
0
100
AcDbSymbolTable
 70
     0
  0
ENDTAB
  0
TABLE
  2
UCS
  5
7
330
0
100
AcDbSymbolTable
 70
     0
  0
ENDTAB
  0
TABLE
  2
APPID
  5
9
330
0
100
AcDbSymbolTable
 70
     1
  0
APPID
  5
12
330
9
100
AcDbSymbolTableRecord
100
AcDbRegAppTableRecord
  2
ACAD
 70
     0
  0
ENDTAB
  0
TABLE
  2
DIMSTYLE
  5
A
330
0
100
AcDbSymbolTable
 70
     4
100
AcDbDimStyleTable
  0
DIMSTYLE
105
27
330
A
100
AcDbSymbolTableRecord
100
AcDbDimStyleTableRecord
  2
ISO-25
 70
     0
 41
2.5
 42
0.625
 43
3.75
 44
1.25
 73
     0
 74
     0
 77
     1
 78
     8
140
2.5
141
2.5
143
0.0393700787
147
0.625
171
     3
172
     1
271
     2
272
     2
274
     3
278
    44
283
     0
284
     8
340
11
  0
DIMSTYLE
105
5D4
102
{ACAD_REACTORS
330
5C4
102
}
330
A
100
AcDbSymbolTableRecord
100
AcDbDimStyleTableRecord
  2
SLDDIMSTYLE0
 70
     0
 41
3.0
 44
0.0
 73
     0
 74
     0
 77
     3
 78
    12
140
3.5
147
0.875
173
     1
271
     0
272
     3
284
    12
340
34
341
5D5
343
5D5
344
5D5
  0
DIMSTYLE
105
5F0
102
{ACAD_REACTORS
330
5E3
330
5FF
330
616
330
62D
330
646
330
65E
330
676
330
68E
330
6A6
330
6F0
102
}
330
A
100
AcDbSymbolTableRecord
100
AcDbDimStyleTableRecord
  2
SLDDIMSTYLE1
 70
     0
 41
3.0
 44
0.0
 73
     0
 74
     0
 77
     3
 78
    12
140
3.5
147
0.875
173
     1
271
     0
272
     2
284
    12
340
34
341
5F1
343
5F1
344
5F1
  0
DIMSTYLE
105
6CD
102
{ACAD_REACTORS
330
6C0
330
6D9
102
}
330
A
100
AcDbSymbolTableRecord
100
AcDbDimStyleTableRecord
  2
SLDDIMSTYLE2
 70
     0
 41
3.0
 44
0.0
 73
     0
 74
     0
 77
     3
 78
    12
140
3.5
147
0.875
173
     1
271
     1
272
     2
284
    12
340
34
341
5F1
343
5F1
344
5F1
  0
ENDTAB
  0
TABLE
  2
BLOCK_RECORD
  5
1
330
0
100
AcDbSymbolTable
 70
    20
  0
BLOCK_RECORD
  5
1F
330
1
100
AcDbSymbolTableRecord
100
AcDbBlockTableRecord
  2
*Model_Space
340
22
  0
BLOCK_RECORD
  5
1B
330
1
100
AcDbSymbolTableRecord
100
AcDbBlockTableRecord
  2
*Paper_Space
340
1E
  0
BLOCK_RECORD
  5
23
330
1
100
AcDbSymbolTableRecord
100
AcDbBlockTableRecord
  2
*Paper_Space0
340
26
  0
BLOCK_RECORD
  5
31
330
1
100
AcDbSymbolTableRecord
100
AcDbBlockTableRecord
  2
注記
340
0
  0
BLOCK_RECORD
  5
37
330
1
100
AcDbSymbolTableRecord
100
AcDbBlockTableRecord
  2
SW_CENTERMARKSYMBOL_0
340
0
102
{BLKREFS
331
70D
102
}
  0
BLOCK_RECORD
  5
42
330
1
100
AcDbSymbolTableRecord
100
AcDbBlockTableRecord
  2
SW_CENTERMARKSYMBOL_1
340
0
102
{BLKREFS
331
70E
102
}
  0
BLOCK_RECORD
  5
4D
330
1
100
AcDbSymbolTableRecord
100
AcDbBlockTableRecord
  2
SW_CENTERMARKSYMBOL_2
340
0
102
{BLKREFS
331
70F
102
}
  0
BLOCK_RECORD
  5
5C6
330
1
100
AcDbSymbolTableRecord
100
AcDbBlockTableRecord
  2
*D5
340
0
  0
BLOCK_RECORD
  5
5D5
330
1
100
AcDbSymbolTableRecord
100
AcDbBlockTableRecord
  2
_Open30
340
0
102
{BLKREFS
331
5CC
331
5CB
331
5DB
331
5DC
102
}
  0
BLOCK_RECORD
  5
5E4
330
1
100
AcDbSymbolTableRecord
100
AcDbBlockTableRecord
  2
*D7
340
0
  0
BLOCK_RECORD
  5
5F1
330
1
100
AcDbSymbolTableRecord
100
AcDbBlockTableRecord
  2
_None
340
0
102
{BLKREFS
331
5E9
331
5E8
331
605
331
604
331
61C
331
61B
331
633
331
632
331
64C
331
64B
331
664
331
663
331
67C
331
67B
331
694
331
693
331
6AD
331
6AC
331
6C6
331
6C5
331
6DF
331
6DE
331
6F6
331
6F5
102
}
  0
BLOCK_RECORD
  5
600
330
1
100
AcDbSymbolTableRecord
100
AcDbBlockTableRecord
  2
*D9
340
0
  0
BLOCK_RECORD
  5
617
330
1
100
AcDbSymbolTableRecord
100
AcDbBlockTableRecord
  2
*D10
340
0
  0
BLOCK_RECORD
  5
62E
330
1
100
AcDbSymbolTableRecord
100
AcDbBlockTableRecord
  2
*D11
340
0
  0
BLOCK_RECORD
  5
647
330
1
100
AcDbSymbolTableRecord
100
AcDbBlockTableRecord
  2
*D12
340
0
  0
BLOCK_RECORD
  5
65F
330
1
100
AcDbSymbolTableRecord
100
AcDbBlockTableRecord
  2
*D13
340
0
  0
BLOCK_RECORD
  5
677
330
1
100
AcDbSymbolTableRecord
100
AcDbBlockTableRecord
  2
*D14
340
0
  0
BLOCK_RECORD
  5
68F
330
1
100
AcDbSymbolTableRecord
100
AcDbBlockTableRecord
  2
*D15
340
0
  0
BLOCK_RECORD
  5
6A7
330
1
100
AcDbSymbolTableRecord
100
AcDbBlockTableRecord
  2
*D16
340
0
  0
BLOCK_RECORD
  5
6C1
330
1
100
AcDbSymbolTableRecord
100
AcDbBlockTableRecord
  2
*D17
340
0
  0
BLOCK_RECORD
  5
6DA
330
1
100
AcDbSymbolTableRecord
100
AcDbBlockTableRecord
  2
*D18
340
0
  0
BLOCK_RECORD
  5
6F1
330
1
100
AcDbSymbolTableRecord
100
AcDbBlockTableRecord
  2
*D19
340
0
  0
ENDTAB
  0
ENDSEC
  0
SECTION
  2
BLOCKS
  0
BLOCK
  5
20
330
1F
100
AcDbEntity
  8
0
100
AcDbBlockBegin
  2
*Model_Space
 70
     0
 71
     0
 10
0.0
 20
0.0
 30
0.0
  3
*Model_Space
  1

  0
ENDBLK
  5
21
330
1F
100
AcDbEntity
  8
0
100
AcDbBlockEnd
  0
BLOCK
  5
1C
330
1B
100
AcDbEntity
 67
     1
  8
0
100
AcDbBlockBegin
  2
*Paper_Space
 70
     0
 71
     0
 10
0.0
 20
0.0
 30
0.0
  3
*Paper_Space
  1

  0
ENDBLK
  5
1D
330
1B
100
AcDbEntity
 67
     1
  8
0
100
AcDbBlockEnd
  0
BLOCK
  5
24
330
23
100
AcDbEntity
  8
0
100
AcDbBlockBegin
  2
*Paper_Space0
 70
     0
 71
     0
 10
0.0
 20
0.0
 30
0.0
  3
*Paper_Space0
  1

  0
ENDBLK
  5
25
330
23
100
AcDbEntity
  8
0
100
AcDbBlockEnd
  0
BLOCK
  5
32
330
31
100
AcDbEntity
  8
0
100
AcDbBlockBegin
  2
注記
 70
     0
 71
     0
 10
0.0
 20
0.0
 30
0.0
  3
注記
  1

  0
MTEXT
  5
35
330
31
100
AcDbEntity
  8
0
  6
Continuous
 62
     7
370
     0
100
AcDbMText
 10
0.2636785918
 20
9.0739778448
 30
0.0
 40
3.5
 41
0.0
 71
     1
 72
     1
  1
１．特記ナキ角部ハ、バリ　カエリノ無キコト。
  7
SLDTEXTSTYLE0
 73
     1
 44
1.0
  0
MTEXT
  5
36
330
31
100
AcDbEntity
  8
0
  6
Continuous
 62
     7
370
     0
100
AcDbMText
 10
0.2636785918
 20
3.5759549983
 30
0.0
 40
3.5
 41
0.0
 71
     1
 72
     1
  1
２．特記ナキ隅部ハ、Ｒ０．４ＭＡＸトスル。
  7
SLDTEXTSTYLE0
 73
     1
 44
1.0
  0
ENDBLK
  5
33
330
31
100
AcDbEntity
  8
0
100
AcDbBlockEnd
  0
BLOCK
  5
38
330
37
100
AcDbEntity
  8
0
100
AcDbBlockBegin
  2
SW_CENTERMARKSYMBOL_0
 70
     0
 71
     0
 10
0.0
 20
0.0
 30
0.0
  3
SW_CENTERMARKSYMBOL_0
  1

  0
LINE
  5
3A
330
37
100
AcDbEntity
  8
SLD-0
  6
Continuous
 62
   179
370
     0
100
AcDbLine
 10
0.0
 20
0.0
 30
0.0
 11
0.0
 21
2.5
 31
0.0
  0
LINE
  5
3B
330
37
100
AcDbEntity
  8
SLD-0
  6
Continuous
 62
   179
370
     0
100
AcDbLine
 10
0.0
 20
0.0
 30
0.0
 11
-2.5
 21
0.0
 31
0.0
  0
LINE
  5
3C
330
37
100
AcDbEntity
  8
SLD-0
  6
Continuous
 62
   179
370
     0
100
AcDbLine
 10
0.0
 20
0.0
 30
0.0
 11
0.0
 21
-2.5
 31
0.0
  0
LINE
  5
3D
330
37
100
AcDbEntity
  8
SLD-0
  6
Continuous
 62
   179
370
     0
100
AcDbLine
 10
0.0
 20
0.0
 30
0.0
 11
2.5
 21
0.0
 31
0.0
  0
LINE
  5
3E
330
37
100
AcDbEntity
  8
SLD-0
  6
Continuous
 62
   179
370
     0
100
AcDbLine
 10
0.0
 20
2.5
 30
0.0
 11
0.0
 21
4.75
 31
0.0
  0
LINE
  5
3F
330
37
100
AcDbEntity
  8
SLD-0
  6
Continuous
 62
   179
370
     0
100
AcDbLine
 10
-2.5
 20
0.0
 30
0.0
 11
-4.75
 21
0.0
 31
0.0
  0
LINE
  5
40
330
37
100
AcDbEntity
  8
SLD-0
  6
Continuous
 62
   179
370
     0
100
AcDbLine
 10
0.0
 20
-2.5
 30
0.0
 11
0.0
 21
-4.75
 31
0.0
  0
LINE
  5
41
330
37
100
AcDbEntity
  8
SLD-0
  6
Continuous
 62
   179
370
     0
100
AcDbLine
 10
2.5
 20
0.0
 30
0.0
 11
4.75
 21
0.0
 31
0.0
  0
ENDBLK
  5
39
330
37
100
AcDbEntity
  8
0
100
AcDbBlockEnd
  0
BLOCK
  5
43
330
42
100
AcDbEntity
  8
0
100
AcDbBlockBegin
  2
SW_CENTERMARKSYMBOL_1
 70
     0
 71
     0
 10
0.0
 20
0.0
 30
0.0
  3
SW_CENTERMARKSYMBOL_1
  1

  0
LINE
  5
45
330
42
100
AcDbEntity
  8
SLD-0
  6
Continuous
 62
   179
370
     0
100
AcDbLine
 10
0.0
 20
0.0
 30
0.0
 11
0.0
 21
2.5
 31
0.0
  0
LINE
  5
46
330
42
100
AcDbEntity
  8
SLD-0
  6
Continuous
 62
   179
370
     0
100
AcDbLine
 10
0.0
 20
0.0
 30
0.0
 11
-2.5
 21
0.0
 31
0.0
  0
LINE
  5
47
330
42
100
AcDbEntity
  8
SLD-0
  6
Continuous
 62
   179
370
     0
100
AcDbLine
 10
0.0
 20
0.0
 30
0.0
 11
0.0
 21
-2.5
 31
0.0
  0
LINE
  5
48
330
42
100
AcDbEntity
  8
SLD-0
  6
Continuous
 62
   179
370
     0
100
AcDbLine
 10
0.0
 20
0.0
 30
0.0
 11
2.5
 21
0.0
 31
0.0
  0
LINE
  5
49
330
42
100
AcDbEntity
  8
SLD-0
  6
Continuous
 62
   179
370
     0
100
AcDbLine
 10
0.0
 20
2.5
 30
0.0
 11
0.0
 21
4.75
 31
0.0
  0
LINE
  5
4A
330
42
100
AcDbEntity
  8
SLD-0
  6
Continuous
 62
   179
370
     0
100
AcDbLine
 10
-2.5
 20
0.0
 30
0.0
 11
-4.75
 21
0.0
 31
0.0
  0
LINE
  5
4B
330
42
100
AcDbEntity
  8
SLD-0
  6
Continuous
 62
   179
370
     0
100
AcDbLine
 10
0.0
 20
-2.5
 30
0.0
 11
0.0
 21
-4.75
 31
0.0
  0
LINE
  5
4C
330
42
100
AcDbEntity
  8
SLD-0
  6
Continuous
 62
   179
370
     0
100
AcDbLine
 10
2.5
 20
0.0
 30
0.0
 11
4.75
 21
0.0
 31
0.0
  0
ENDBLK
  5
44
330
42
100
AcDbEntity
  8
0
100
AcDbBlockEnd
  0
BLOCK
  5
4E
330
4D
100
AcDbEntity
  8
0
100
AcDbBlockBegin
  2
SW_CENTERMARKSYMBOL_2
 70
     0
 71
     0
 10
0.0
 20
0.0
 30
0.0
  3
SW_CENTERMARKSYMBOL_2
  1

  0
LINE
  5
50
330
4D
100
AcDbEntity
  8
SLD-0
  6
Continuous
 62
   179
370
     0
100
AcDbLine
 10
0.0
 20
0.0
 30
0.0
 11
0.0
 21
2.5
 31
0.0
  0
LINE
  5
51
330
4D
100
AcDbEntity
  8
SLD-0
  6
Continuous
 62
   179
370
     0
100
AcDbLine
 10
0.0
 20
0.0
 30
0.0
 11
-2.5
 21
0.0
 31
0.0
  0
LINE
  5
52
330
4D
100
AcDbEntity
  8
SLD-0
  6
Continuous
 62
   179
370
     0
100
AcDbLine
 10
0.0
 20
0.0
 30
0.0
 11
0.0
 21
-2.5
 31
0.0
  0
LINE
  5
53
330
4D
100
AcDbEntity
  8
SLD-0
  6
Continuous
 62
   179
370
     0
100
AcDbLine
 10
0.0
 20
0.0
 30
0.0
 11
2.5
 21
0.0
 31
0.0
  0
LINE
  5
54
330
4D
100
AcDbEntity
  8
SLD-0
  6
Continuous
 62
   179
370
     0
100
AcDbLine
 10
0.0
 20
5.0
 30
0.0
 11
0.0
 21
6.0
 31
0.0
  0
LINE
  5
55
330
4D
100
AcDbEntity
  8
SLD-0
  6
Continuous
 62
   179
370
     0
100
AcDbLine
 10
-5.0
 20
0.0
 30
0.0
 11
-6.0
 21
0.0
 31
0.0
  0
LINE
  5
56
330
4D
100
AcDbEntity
  8
SLD-0
  6
Continuous
 62
   179
370
     0
100
AcDbLine
 10
0.0
 20
-5.0
 30
0.0
 11
0.0
 21
-6.0
 31
0.0
  0
LINE
  5
57
330
4D
100
AcDbEntity
  8
SLD-0
  6
Continuous
 62
   179
370
     0
100
AcDbLine
 10
5.0
 20
0.0
 30
0.0
 11
6.0
 21
0.0
 31
0.0
  0
ENDBLK
  5
4F
330
4D
100
AcDbEntity
  8
0
100
AcDbBlockEnd
  0
BLOCK
  5
5D2
330
5C6
100
AcDbEntity
  8
0
100
AcDbBlockBegin
  2
*D5
 70
     1
 71
     0
 10
0.0
 20
0.0
 30
0.0
  3
*D5
  1

  0
INSERT
  5
5DB
330
5C6
100
AcDbEntity
  8
SLD-0
100
AcDbBlockReference
  2
_Open30
 10
48.61039295
 20
140.2740161058
 30
0.1
 41
3.0
 42
3.0
 50
270.0
  0
INSERT
  5
5DC
330
5C6
100
AcDbEntity
  8
SLD-0
100
AcDbBlockReference
  2
_Open30
 10
48.61039295
 20
135.2740161058
 30
0.1
 41
3.0
 42
3.0
 50
90.0
  0
LINE
  5
5DD
330
5C6
100
AcDbEntity
  8
SLD-0
100
AcDbLine
 10
54.9219901769
 20
140.2740161058
 30
0.0
 11
47.61039295
 21
140.2740161058
 31
0.0
  0
LINE
  5
5DE
330
5C6
100
AcDbEntity
  8
SLD-0
100
AcDbLine
 10
54.1719901282
 20
135.2740161058
 30
0.0
 11
47.61039295
 21
135.2740161058
 31
0.0
  0
LINE
  5
5DF
330
5C6
100
AcDbEntity
  8
SLD-0
100
AcDbLine
 10
48.61039295
 20
140.2740161058
 30
0.0
 11
48.61039295
 21
145.2740161058
 31
0.0
  0
LINE
  5
5E0
330
5C6
100
AcDbEntity
  8
SLD-0
100
AcDbLine
 10
48.61039295
 20
140.2740161058
 30
0.0
 11
48.61039295
 21
135.2740161058
 31
0.0
  0
LINE
  5
5E1
330
5C6
100
AcDbEntity
  8
SLD-0
100
AcDbLine
 10
48.61039295
 20
135.2740161058
 30
0.0
 11
48.61039295
 21
126.6812324186
 31
0.0
  0
MTEXT
  5
5E2
330
5C6
100
AcDbEntity
  8
SLD-0
100
AcDbMText
 10
44.5376659101
 20
128.2687324186
 30
0.0
 40
3.5
 41
0.0
 71
     1
 72
     1
  1
5
  7
SLDTEXTSTYLE0
 11
-7.044197039909883E-15
 21
1.0
 31
0.0
 73
     1
 44
1.0
  0
ENDBLK
  5
5D3
330
5C6
100
AcDbEntity
  8
0
100
AcDbBlockEnd
  0
BLOCK
  5
5D6
330
5D5
100
AcDbEntity
  8
0
100
AcDbBlockBegin
  2
_Open30
 70
     0
 71
     0
 10
0.0
 20
0.0
 30
0.0
  3
_Open30
  1

  0
LINE
  5
5D8
330
5D5
100
AcDbEntity
  8
0
  6
ByBlock
 62
     0
370
    -2
100
AcDbLine
 10
-1.0
 20
0.267949
 30
0.0
 11
0.0
 21
0.0
 31
0.0
  0
LINE
  5
5D9
330
5D5
100
AcDbEntity
  8
0
  6
ByBlock
 62
     0
370
    -2
100
AcDbLine
 10
0.0
 20
0.0
 30
0.0
 11
-1.0
 21
-0.267949
 31
0.0
  0
LINE
  5
5DA
330
5D5
100
AcDbEntity
  8
0
  6
ByBlock
 62
     0
370
    -2
100
AcDbLine
 10
0.0
 20
0.0
 30
0.0
 11
-1.0
 21
0.0
 31
0.0
  0
ENDBLK
  5
5D7
330
5D5
100
AcDbEntity
  8
0
100
AcDbBlockEnd
  0
BLOCK
  5
5EE
330
5E4
100
AcDbEntity
  8
0
100
AcDbBlockBegin
  2
*D7
 70
     1
 71
     0
 10
0.0
 20
0.0
 30
0.0
  3
*D7
  1

  0
LINE
  5
5F4
330
5E4
100
AcDbEntity
  8
SLD-0
 62
     7
100
AcDbLine
 10
61.1719901026
 20
127.3778127351
 30
0.0
 11
58.1719901026
 21
128.1816597351
 31
0.0
  0
LINE
  5
5F5
330
5E4
100
AcDbEntity
  8
SLD-0
 62
     7
100
AcDbLine
 10
58.1719901026
 20
128.1816597351
 30
0.0
 11
61.1719901026
 21
128.9855067351
 31
0.0
  0
LINE
  5
5F6
330
5E4
100
AcDbEntity
  8
SLD-0
 62
     7
100
AcDbLine
 10
58.1719901026
 20
128.1816597351
 30
0.0
 11
61.1719901026
 21
128.1816597351
 31
0.0
  0
LINE
  5
5F7
330
5E4
100
AcDbEntity
  8
SLD-0
 62
     7
100
AcDbLine
 10
87.1719901026
 20
128.9855067351
 30
0.0
 11
90.1719901026
 21
128.1816597351
 31
0.0
  0
LINE
  5
5F8
330
5E4
100
AcDbEntity
  8
SLD-0
 62
     7
100
AcDbLine
 10
90.1719901026
 20
128.1816597351
 30
0.0
 11
87.1719901026
 21
127.3778127351
 31
0.0
  0
LINE
  5
5F9
330
5E4
100
AcDbEntity
  8
SLD-0
 62
     7
100
AcDbLine
 10
90.1719901026
 20
128.1816597351
 30
0.0
 11
87.1719901026
 21
128.1816597351
 31
0.0
  0
LINE
  5
5FA
330
5E4
100
AcDbEntity
  8
SLD-0
 62
     7
100
AcDbLine
 10
58.1719901026
 20
134.5240161058
 30
0.0
 11
58.1719901026
 21
127.1816597351
 31
0.0
  0
LINE
  5
5FB
330
5E4
100
AcDbEntity
  8
SLD-0
 62
     7
100
AcDbLine
 10
90.1719901026
 20
134.5240161058
 30
0.0
 11
90.1719901026
 21
127.1816597351
 31
0.0
  0
LINE
  5
5FC
330
5E4
100
AcDbEntity
  8
SLD-0
 62
     7
100
AcDbLine
 10
58.1719901026
 20
128.1816597351
 30
0.0
 11
90.1719901026
 21
128.1816597351
 31
0.0
  0
MTEXT
  5
5FE
330
5E4
100
AcDbEntity
  8
SLD-0
 62
     7
100
AcDbMText
 10
72.1354438045
 20
132.254386775
 30
0.1
 40
3.5
 41
0.0
 71
     1
 72
     1
  1
32
  7
SLDTEXTSTYLE1
 73
     1
 44
1.0
  0
ENDBLK
  5
5EF
330
5E4
100
AcDbEntity
  8
0
100
AcDbBlockEnd
  0
BLOCK
  5
5F2
330
5F1
100
AcDbEntity
  8
0
100
AcDbBlockBegin
  2
_None
 70
     0
 71
     0
 10
0.0
 20
0.0
 30
0.0
  3
_None
  1

  0
ENDBLK
  5
5F3
330
5F1
100
AcDbEntity
  8
0
100
AcDbBlockEnd
  0
BLOCK
  5
60A
330
600
100
AcDbEntity
  8
0
100
AcDbBlockBegin
  2
*D9
 70
     1
 71
     0
 10
0.0
 20
0.0
 30
0.0
  3
*D9
  1

  0
LINE
  5
60C
330
600
100
AcDbEntity
  8
SLD-0
 62
     7
100
AcDbLine
 10
92.1719901026
 20
122.2255993583
 30
0.0
 11
95.1719901026
 21
121.4217523583
 31
0.0
  0
LINE
  5
60D
330
600
100
AcDbEntity
  8
SLD-0
 62
     7
100
AcDbLine
 10
95.1719901026
 20
121.4217523583
 30
0.0
 11
92.1719901026
 21
120.6179053583
 31
0.0
  0
LINE
  5
60E
330
600
100
AcDbEntity
  8
SLD-0
 62
     7
100
AcDbLine
 10
95.1719901026
 20
121.4217523583
 30
0.0
 11
92.1719901026
 21
121.4217523583
 31
0.0
  0
LINE
  5
60F
330
600
100
AcDbEntity
  8
SLD-0
 62
     7
100
AcDbLine
 10
56.1719901026
 20
120.6179053583
 30
0.0
 11
53.1719901026
 21
121.4217523583
 31
0.0
  0
LINE
  5
610
330
600
100
AcDbEntity
  8
SLD-0
 62
     7
100
AcDbLine
 10
53.1719901026
 20
121.4217523583
 30
0.0
 11
56.1719901026
 21
122.2255993583
 31
0.0
  0
LINE
  5
611
330
600
100
AcDbEntity
  8
SLD-0
 62
     7
100
AcDbLine
 10
53.1719901026
 20
121.4217523583
 30
0.0
 11
56.1719901026
 21
121.4217523583
 31
0.0
  0
LINE
  5
612
330
600
100
AcDbEntity
  8
SLD-0
 62
     7
100
AcDbLine
 10
95.1719901026
 20
136.2740161058
 30
0.0
 11
95.1719901026
 21
120.4217523583
 31
0.0
  0
LINE
  5
613
330
600
100
AcDbEntity
  8
SLD-0
 62
     7
100
AcDbLine
 10
53.1719901026
 20
136.2740161058
 30
0.0
 11
53.1719901026
 21
120.4217523583
 31
0.0
  0
LINE
  5
614
330
600
100
AcDbEntity
  8
SLD-0
 62
     7
100
AcDbLine
 10
95.1719901026
 20
121.4217523583
 30
0.0
 11
53.1719901026
 21
121.4217523583
 31
0.0
  0
MTEXT
  5
615
330
600
100
AcDbEntity
  8
SLD-0
 62
     7
100
AcDbMText
 10
72.1354438045
 20
125.4944793982
 30
0.1
 40
3.5
 41
0.0
 71
     1
 72
     1
  1
42
  7
SLDTEXTSTYLE1
 73
     1
 44
1.0
  0
ENDBLK
  5
60B
330
600
100
AcDbEntity
  8
0
100
AcDbBlockEnd
  0
BLOCK
  5
621
330
617
100
AcDbEntity
  8
0
100
AcDbBlockBegin
  2
*D10
 70
     1
 71
     0
 10
0.0
 20
0.0
 30
0.0
  3
*D10
  1

  0
LINE
  5
623
330
617
100
AcDbEntity
  8
SLD-0
 62
     7
100
AcDbLine
 10
56.1719901026
 20
218.9596996091
 30
0.0
 11
53.1719901026
 21
219.7635466091
 31
0.0
  0
LINE
  5
624
330
617
100
AcDbEntity
  8
SLD-0
 62
     7
100
AcDbLine
 10
53.1719901026
 20
219.7635466091
 30
0.0
 11
56.1719901026
 21
220.5673936091
 31
0.0
  0
LINE
  5
625
330
617
100
AcDbEntity
  8
SLD-0
 62
     7
100
AcDbLine
 10
53.1719901026
 20
219.7635466091
 30
0.0
 11
56.1719901026
 21
219.7635466091
 31
0.0
  0
LINE
  5
626
330
617
100
AcDbEntity
  8
SLD-0
 62
     7
100
AcDbLine
 10
101.1719901026
 20
220.5673936091
 30
0.0
 11
104.1719901026
 21
219.7635466091
 31
0.0
  0
LINE
  5
627
330
617
100
AcDbEntity
  8
SLD-0
 62
     7
100
AcDbLine
 10
104.1719901026
 20
219.7635466091
 30
0.0
 11
101.1719901026
 21
218.9596996091
 31
0.0
  0
LINE
  5
628
330
617
100
AcDbEntity
  8
SLD-0
 62
     7
100
AcDbLine
 10
104.1719901026
 20
219.7635466091
 30
0.0
 11
101.1719901026
 21
219.7635466091
 31
0.0
  0
LINE
  5
629
330
617
100
AcDbEntity
  8
SLD-0
 62
     7
100
AcDbLine
 10
53.1719901026
 20
204.2740161058
 30
0.0
 11
53.1719901026
 21
220.7635466091
 31
0.0
  0
LINE
  5
62A
330
617
100
AcDbEntity
  8
SLD-0
 62
     7
100
AcDbLine
 10
104.1719901026
 20
211.2740161058
 30
0.0
 11
104.1719901026
 21
220.7635466091
 31
0.0
  0
LINE
  5
62B
330
617
100
AcDbEntity
  8
SLD-0
 62
     7
100
AcDbLine
 10
53.1719901026
 20
219.7635466091
 30
0.0
 11
104.1719901026
 21
219.7635466091
 31
0.0
  0
MTEXT
  5
62C
330
617
100
AcDbEntity
  8
SLD-0
 62
     7
100
AcDbMText
 10
76.6354438045
 20
223.836273649
 30
0.1
 40
3.5
 41
0.0
 71
     1
 72
     1
  1
51
  7
SLDTEXTSTYLE1
 73
     1
 44
1.0
  0
ENDBLK
  5
622
330
617
100
AcDbEntity
  8
0
100
AcDbBlockEnd
  0
BLOCK
  5
639
330
62E
100
AcDbEntity
  8
0
100
AcDbBlockBegin
  2
*D11
 70
     1
 71
     0
 10
0.0
 20
0.0
 30
0.0
  3
*D11
  1

  0
LINE
  5
63B
330
62E
100
AcDbEntity
  8
SLD-0
 62
     7
100
AcDbLine
 10
82.1719901026
 20
174.0120772986
 30
0.0
 11
79.1719901026
 21
174.8159242986
 31
0.0
  0
LINE
  5
63C
330
62E
100
AcDbEntity
  8
SLD-0
 62
     7
100
AcDbLine
 10
79.1719901026
 20
174.8159242986
 30
0.0
 11
82.1719901026
 21
175.6197712986
 31
0.0
  0
LINE
  5
63D
330
62E
100
AcDbEntity
  8
SLD-0
 62
     7
100
AcDbLine
 10
79.1719901026
 20
174.8159242986
 30
0.0
 11
82.1719901026
 21
174.8159242986
 31
0.0
  0
LINE
  5
63E
330
62E
100
AcDbEntity
  8
SLD-0
 62
     7
100
AcDbLine
 10
71.1719901026
 20
175.6197712986
 30
0.0
 11
74.1719901026
 21
174.8159242986
 31
0.0
  0
LINE
  5
63F
330
62E
100
AcDbEntity
  8
SLD-0
 62
     7
100
AcDbLine
 10
74.1719901026
 20
174.8159242986
 30
0.0
 11
71.1719901026
 21
174.0120772986
 31
0.0
  0
LINE
  5
640
330
62E
100
AcDbEntity
  8
SLD-0
 62
     7
100
AcDbLine
 10
74.1719901026
 20
174.8159242986
 30
0.0
 11
71.1719901026
 21
174.8159242986
 31
0.0
  0
LINE
  5
641
330
62E
100
AcDbEntity
  8
SLD-0
 62
     7
100
AcDbLine
 10
79.1719901026
 20
188.2740161058
 30
0.0
 11
79.1719901026
 21
173.8159242986
 31
0.0
  0
LINE
  5
642
330
62E
100
AcDbEntity
  8
SLD-0
 62
     7
100
AcDbLine
 10
79.1719901026
 20
174.8159242986
 30
0.0
 11
84.1719901026
 21
174.8159242986
 31
0.0
  0
LINE
  5
643
330
62E
100
AcDbEntity
  8
SLD-0
 62
     7
100
AcDbLine
 10
79.1719901026
 20
174.8159242986
 30
0.0
 11
74.1719901026
 21
174.8159242986
 31
0.0
  0
LINE
  5
644
330
62E
100
AcDbEntity
  8
SLD-0
 62
     7
100
AcDbLine
 10
74.1719901026
 20
174.8159242986
 30
0.0
 11
69.1719901026
 21
174.8159242986
 31
0.0
  0
MTEXT
  5
645
330
62E
100
AcDbEntity
  8
SLD-0
 62
     7
100
AcDbMText
 10
75.6537169536
 20
178.8886513385
 30
0.1
 40
3.5
 41
0.0
 71
     1
 72
     1
  1
5
  7
SLDTEXTSTYLE1
 73
     1
 44
1.0
  0
ENDBLK
  5
63A
330
62E
100
AcDbEntity
  8
0
100
AcDbBlockEnd
  0
BLOCK
  5
652
330
647
100
AcDbEntity
  8
0
100
AcDbBlockBegin
  2
*D12
 70
     1
 71
     0
 10
0.0
 20
0.0
 30
0.0
  3
*D12
  1

  0
LINE
  5
654
330
647
100
AcDbEntity
  8
SLD-0
 62
     7
100
AcDbLine
 10
47.7969985924
 20
182.3740161058
 30
0.0
 11
48.6008455924
 21
185.3740161058
 31
0.0
  0
LINE
  5
655
330
647
100
AcDbEntity
  8
SLD-0
 62
     7
100
AcDbLine
 10
48.6008455924
 20
185.3740161058
 30
0.0
 11
49.4046925924
 21
182.3740161058
 31
0.0
  0
LINE
  5
656
330
647
100
AcDbEntity
  8
SLD-0
 62
     7
100
AcDbLine
 10
48.6008455924
 20
185.3740161058
 30
0.0
 11
48.6008455924
 21
182.3740161058
 31
0.0
  0
LINE
  5
657
330
647
100
AcDbEntity
  8
SLD-0
 62
     7
100
AcDbLine
 10
49.4046925924
 20
143.2740161058
 30
0.0
 11
48.6008455924
 21
140.2740161058
 31
0.0
  0
LINE
  5
658
330
647
100
AcDbEntity
  8
SLD-0
 62
     7
100
AcDbLine
 10
48.6008455924
 20
140.2740161058
 30
0.0
 11
47.7969985924
 21
143.2740161058
 31
0.0
  0
LINE
  5
659
330
647
100
AcDbEntity
  8
SLD-0
 62
     7
100
AcDbLine
 10
48.6008455924
 20
140.2740161058
 30
0.0
 11
48.6008455924
 21
143.2740161058
 31
0.0
  0
LINE
  5
65A
330
647
100
AcDbEntity
  8
SLD-0
 62
     7
100
AcDbLine
 10
51.1719901026
 20
185.3740161058
 30
0.0
 11
47.6008455924
 21
185.3740161058
 31
0.0
  0
LINE
  5
65B
330
647
100
AcDbEntity
  8
SLD-0
 62
     7
100
AcDbLine
 10
52.4219901026
 20
140.2740161058
 30
0.0
 11
47.6008455924
 21
140.2740161058
 31
0.0
  0
LINE
  5
65C
330
647
100
AcDbEntity
  8
SLD-0
 62
     7
100
AcDbLine
 10
48.6008455924
 20
185.3740161058
 30
0.0
 11
48.6008455924
 21
140.2740161058
 31
0.0
  0
MTEXT
  5
65D
330
647
100
AcDbEntity
  8
SLD-0
 62
     7
100
AcDbMText
 10
44.5281185525
 20
160.7874698077
 30
0.1
 40
3.5
 41
0.0
 71
     1
 72
     1
  1
45
  7
SLDTEXTSTYLE1
 11
-7.932375459610008E-15
 21
1.0
 31
0.0
 73
     1
 44
1.0
  0
ENDBLK
  5
653
330
647
100
AcDbEntity
  8
0
100
AcDbBlockEnd
  0
BLOCK
  5
66A
330
65F
100
AcDbEntity
  8
0
100
AcDbBlockBegin
  2
*D13
 70
     1
 71
     0
 10
0.0
 20
0.0
 30
0.0
  3
*D13
  1

  0
LINE
  5
66C
330
65F
100
AcDbEntity
  8
SLD-0
 62
     7
100
AcDbLine
 10
42.4632096844
 20
138.2740161058
 30
0.0
 11
41.6593626844
 21
135.2740161058
 31
0.0
  0
LINE
  5
66D
330
65F
100
AcDbEntity
  8
SLD-0
 62
     7
100
AcDbLine
 10
41.6593626844
 20
135.2740161058
 30
0.0
 11
40.8555156844
 21
138.2740161058
 31
0.0
  0
LINE
  5
66E
330
65F
100
AcDbEntity
  8
SLD-0
 62
     7
100
AcDbLine
 10
41.6593626844
 20
135.2740161058
 30
0.0
 11
41.6593626844
 21
138.2740161058
 31
0.0
  0
LINE
  5
66F
330
65F
100
AcDbEntity
  8
SLD-0
 62
     7
100
AcDbLine
 10
40.8555156844
 20
207.2740161058
 30
0.0
 11
41.6593626844
 21
210.2740161058
 31
0.0
  0
LINE
  5
670
330
65F
100
AcDbEntity
  8
SLD-0
 62
     7
100
AcDbLine
 10
41.6593626844
 20
210.2740161058
 30
0.0
 11
42.4632096844
 21
207.2740161058
 31
0.0
  0
LINE
  5
671
330
65F
100
AcDbEntity
  8
SLD-0
 62
     7
100
AcDbLine
 10
41.6593626844
 20
210.2740161058
 30
0.0
 11
41.6593626844
 21
207.2740161058
 31
0.0
  0
LINE
  5
672
330
65F
100
AcDbEntity
  8
SLD-0
 62
     7
100
AcDbLine
 10
54.1719901026
 20
135.2740161058
 30
0.0
 11
40.6593626844
 21
135.2740161058
 31
0.0
  0
LINE
  5
673
330
65F
100
AcDbEntity
  8
SLD-0
 62
     7
100
AcDbLine
 10
53.1719901026
 20
210.2740161058
 30
0.0
 11
40.6593626844
 21
210.2740161058
 31
0.0
  0
LINE
  5
674
330
65F
100
AcDbEntity
  8
SLD-0
 62
     7
100
AcDbLine
 10
41.6593626844
 20
135.2740161058
 30
0.0
 11
41.6593626844
 21
210.2740161058
 31
0.0
  0
MTEXT
  5
675
330
65F
100
AcDbEntity
  8
SLD-0
 62
     7
100
AcDbMText
 10
37.5866356445
 20
170.7374698077
 30
0.1
 40
3.5
 41
0.0
 71
     1
 72
     1
  1
75
  7
SLDTEXTSTYLE1
 11
6.123031769111886E-17
 21
1.0
 31
0.0
 73
     1
 44
1.0
  0
ENDBLK
  5
66B
330
65F
100
AcDbEntity
  8
0
100
AcDbBlockEnd
  0
BLOCK
  5
682
330
677
100
AcDbEntity
  8
0
100
AcDbBlockBegin
  2
*D14
 70
     1
 71
     0
 10
0.0
 20
0.0
 30
0.0
  3
*D14
  1

  0
LINE
  5
684
330
677
100
AcDbEntity
  8
SLD-0
 62
     7
100
AcDbLine
 10
184.1566988147
 20
138.2740161058
 30
0.0
 11
183.3528518147
 21
135.2740161058
 31
0.0
  0
LINE
  5
685
330
677
100
AcDbEntity
  8
SLD-0
 62
     7
100
AcDbLine
 10
183.3528518147
 20
135.2740161058
 30
0.0
 11
182.5490048147
 21
138.2740161058
 31
0.0
  0
LINE
  5
686
330
677
100
AcDbEntity
  8
SLD-0
 62
     7
100
AcDbLine
 10
183.3528518147
 20
135.2740161058
 30
0.0
 11
183.3528518147
 21
138.2740161058
 31
0.0
  0
LINE
  5
687
330
677
100
AcDbEntity
  8
SLD-0
 62
     7
100
AcDbLine
 10
182.5490048147
 20
202.2740161058
 30
0.0
 11
183.3528518147
 21
205.2740161058
 31
0.0
  0
LINE
  5
688
330
677
100
AcDbEntity
  8
SLD-0
 62
     7
100
AcDbLine
 10
183.3528518147
 20
205.2740161058
 30
0.0
 11
184.1566988147
 21
202.2740161058
 31
0.0
  0
LINE
  5
689
330
677
100
AcDbEntity
  8
SLD-0
 62
     7
100
AcDbLine
 10
183.3528518147
 20
205.2740161058
 30
0.0
 11
183.3528518147
 21
202.2740161058
 31
0.0
  0
LINE
  5
68A
330
677
100
AcDbEntity
  8
SLD-0
 62
     7
100
AcDbLine
 10
163.6785481236
 20
135.2740161058
 30
0.0
 11
184.3528518147
 21
135.2740161058
 31
0.0
  0
LINE
  5
68B
330
677
100
AcDbEntity
  8
SLD-0
 62
     7
100
AcDbLine
 10
163.6785481236
 20
205.2740161058
 30
0.0
 11
184.3528518147
 21
205.2740161058
 31
0.0
  0
LINE
  5
68C
330
677
100
AcDbEntity
  8
SLD-0
 62
     7
100
AcDbLine
 10
183.3528518147
 20
135.2740161058
 30
0.0
 11
183.3528518147
 21
205.2740161058
 31
0.0
  0
MTEXT
  5
68D
330
677
100
AcDbEntity
  8
SLD-0
 62
     7
100
AcDbMText
 10
179.2801247748
 20
168.2374698077
 30
0.1
 40
3.5
 41
0.0
 71
     1
 72
     1
  1
70
  7
SLDTEXTSTYLE1
 11
6.123031769111886E-17
 21
1.0
 31
0.0
 73
     1
 44
1.0
  0
ENDBLK
  5
683
330
677
100
AcDbEntity
  8
0
100
AcDbBlockEnd
  0
BLOCK
  5
69A
330
68F
100
AcDbEntity
  8
0
100
AcDbBlockBegin
  2
*D15
 70
     1
 71
     0
 10
0.0
 20
0.0
 30
0.0
  3
*D15
  1

  0
LINE
  5
69C
330
68F
100
AcDbEntity
  8
SLD-0
 62
     7
100
AcDbLine
 10
126.7118777376
 20
207.2740161058
 30
0.0
 11
127.5157247376
 21
210.2740161058
 31
0.0
  0
LINE
  5
69D
330
68F
100
AcDbEntity
  8
SLD-0
 62
     7
100
AcDbLine
 10
127.5157247376
 20
210.2740161058
 30
0.0
 11
128.3195717376
 21
207.2740161058
 31
0.0
  0
LINE
  5
69E
330
68F
100
AcDbEntity
  8
SLD-0
 62
     7
100
AcDbLine
 10
127.5157247376
 20
210.2740161058
 30
0.0
 11
127.5157247376
 21
207.2740161058
 31
0.0
  0
LINE
  5
69F
330
68F
100
AcDbEntity
  8
SLD-0
 62
     7
100
AcDbLine
 10
128.3195717376
 20
138.2740161058
 30
0.0
 11
127.5157247376
 21
135.2740161058
 31
0.0
  0
LINE
  5
6A0
330
68F
100
AcDbEntity
  8
SLD-0
 62
     7
100
AcDbLine
 10
127.5157247376
 20
135.2740161058
 30
0.0
 11
126.7118777376
 21
138.2740161058
 31
0.0
  0
LINE
  5
6A1
330
68F
100
AcDbEntity
  8
SLD-0
 62
     7
100
AcDbLine
 10
127.5157247376
 20
135.2740161058
 30
0.0
 11
127.5157247376
 21
138.2740161058
 31
0.0
  0
LINE
  5
6A2
330
68F
100
AcDbEntity
  8
SLD-0
 62
     7
100
AcDbLine
 10
140.0785481236
 20
210.2740161058
 30
0.0
 11
126.5157247376
 21
210.2740161058
 31
0.0
  0
LINE
  5
6A3
330
68F
100
AcDbEntity
  8
SLD-0
 62
     7
100
AcDbLine
 10
156.6785481236
 20
135.2740161058
 30
0.0
 11
126.5157247376
 21
135.2740161058
 31
0.0
  0
LINE
  5
6A4
330
68F
100
AcDbEntity
  8
SLD-0
 62
     7
100
AcDbLine
 10
127.5157247376
 20
210.2740161058
 30
0.0
 11
127.5157247376
 21
135.2740161058
 31
0.0
  0
MTEXT
  5
6A5
330
68F
100
AcDbEntity
  8
SLD-0
 62
     7
100
AcDbMText
 10
123.4429976977
 20
170.7374698077
 30
0.1
 40
3.5
 41
0.0
 71
     1
 72
     1
  1
75
  7
SLDTEXTSTYLE1
 11
-5.267840200509633E-15
 21
1.0
 31
0.0
 73
     1
 44
1.0
  0
ENDBLK
  5
69B
330
68F
100
AcDbEntity
  8
0
100
AcDbBlockEnd
  0
BLOCK
  5
6B4
330
6A7
100
AcDbEntity
  8
0
100
AcDbBlockBegin
  2
*D16
 70
     1
 71
     0
 10
0.0
 20
0.0
 30
0.0
  3
*D16
  1

  0
LINE
  5
6B6
330
6A7
100
AcDbEntity
  8
SLD-0
 62
     7
100
AcDbLine
 10
165.6785481236
 20
144.3561865921
 30
0.0
 11
162.6785481236
 21
145.1600335921
 31
0.0
  0
LINE
  5
6B7
330
6A7
100
AcDbEntity
  8
SLD-0
 62
     7
100
AcDbLine
 10
162.6785481236
 20
145.1600335921
 30
0.0
 11
165.6785481236
 21
145.9638805921
 31
0.0
  0
LINE
  5
6B8
330
6A7
100
AcDbEntity
  8
SLD-0
 62
     7
100
AcDbLine
 10
162.6785481236
 20
145.1600335921
 30
0.0
 11
165.6785481236
 21
145.1600335921
 31
0.0
  0
LINE
  5
6B9
330
6A7
100
AcDbEntity
  8
SLD-0
 62
     7
100
AcDbLine
 10
154.6785481236
 20
145.9638805921
 30
0.0
 11
157.6785481236
 21
145.1600335921
 31
0.0
  0
LINE
  5
6BA
330
6A7
100
AcDbEntity
  8
SLD-0
 62
     7
100
AcDbLine
 10
157.6785481236
 20
145.1600335921
 30
0.0
 11
154.6785481236
 21
144.3561865921
 31
0.0
  0
LINE
  5
6BB
330
6A7
100
AcDbEntity
  8
SLD-0
 62
     7
100
AcDbLine
 10
157.6785481236
 20
145.1600335921
 30
0.0
 11
154.6785481236
 21
145.1600335921
 31
0.0
  0
LINE
  5
6BC
330
6A7
100
AcDbEntity
  8
SLD-0
 62
     7
100
AcDbLine
 10
162.6785481236
 20
145.1600335921
 30
0.0
 11
167.6785481236
 21
145.1600335921
 31
0.0
  0
LINE
  5
6BD
330
6A7
100
AcDbEntity
  8
SLD-0
 62
     7
100
AcDbLine
 10
162.6785481236
 20
145.1600335921
 30
0.0
 11
157.6785481236
 21
145.1600335921
 31
0.0
  0
LINE
  5
6BE
330
6A7
100
AcDbEntity
  8
SLD-0
 62
     7
100
AcDbLine
 10
157.6785481236
 20
145.1600335921
 30
0.0
 11
149.239969115
 21
145.1600335921
 31
0.0
  0
MTEXT
  5
6BF
330
6A7
100
AcDbEntity
  8
SLD-0
 62
     7
100
AcDbMText
 10
150.827469115
 20
149.232760632
 30
0.1
 40
3.5
 41
0.0
 71
     1
 72
     1
  1
5
  7
SLDTEXTSTYLE1
 73
     1
 44
1.0
  0
ENDBLK
  5
6B5
330
6A7
100
AcDbEntity
  8
0
100
AcDbBlockEnd
  0
BLOCK
  5
6CB
330
6C1
100
AcDbEntity
  8
0
100
AcDbBlockBegin
  2
*D17
 70
     1
 71
     0
 10
0.0
 20
0.0
 30
0.0
  3
*D17
  1

  0
LINE
  5
6CE
330
6C1
100
AcDbEntity
  8
SLD-0
 62
     7
100
AcDbLine
 10
160.6785481236
 20
167.9100451882
 30
0.0
 11
157.6785481236
 21
168.7138921882
 31
0.0
  0
LINE
  5
6CF
330
6C1
100
AcDbEntity
  8
SLD-0
 62
     7
100
AcDbLine
 10
157.6785481236
 20
168.7138921882
 30
0.0
 11
160.6785481236
 21
169.5177391882
 31
0.0
  0
LINE
  5
6D0
330
6C1
100
AcDbEntity
  8
SLD-0
 62
     7
100
AcDbLine
 10
157.6785481236
 20
168.7138921882
 30
0.0
 11
160.6785481236
 21
168.7138921882
 31
0.0
  0
LINE
  5
6D1
330
6C1
100
AcDbEntity
  8
SLD-0
 62
     7
100
AcDbLine
 10
138.0785481236
 20
169.5177391882
 30
0.0
 11
141.0785481236
 21
168.7138921882
 31
0.0
  0
LINE
  5
6D2
330
6C1
100
AcDbEntity
  8
SLD-0
 62
     7
100
AcDbLine
 10
141.0785481236
 20
168.7138921882
 30
0.0
 11
138.0785481236
 21
167.9100451882
 31
0.0
  0
LINE
  5
6D3
330
6C1
100
AcDbEntity
  8
SLD-0
 62
     7
100
AcDbLine
 10
141.0785481236
 20
168.7138921882
 30
0.0
 11
138.0785481236
 21
168.7138921882
 31
0.0
  0
LINE
  5
6D4
330
6C1
100
AcDbEntity
  8
SLD-0
 62
     7
100
AcDbLine
 10
141.0785481236
 20
185.2740161058
 30
0.0
 11
141.0785481236
 21
167.7138921882
 31
0.0
  0
LINE
  5
6D5
330
6C1
100
AcDbEntity
  8
SLD-0
 62
     7
100
AcDbLine
 10
157.6785481236
 20
168.7138921882
 30
0.0
 11
162.6785481236
 21
168.7138921882
 31
0.0
  0
LINE
  5
6D6
330
6C1
100
AcDbEntity
  8
SLD-0
 62
     7
100
AcDbLine
 10
157.6785481236
 20
168.7138921882
 30
0.0
 11
141.0785481236
 21
168.7138921882
 31
0.0
  0
LINE
  5
6D7
330
6C1
100
AcDbEntity
  8
SLD-0
 62
     7
100
AcDbLine
 10
141.0785481236
 20
168.7138921882
 30
0.0
 11
136.0785481236
 21
168.7138921882
 31
0.0
  0
MTEXT
  5
6D8
330
6C1
100
AcDbEntity
  8
SLD-0
 62
     7
100
AcDbMText
 10
145.3054555273
 20
172.7866192281
 30
0.1
 40
3.5
 41
0.0
 71
     1
 72
     1
  1
16.6
  7
SLDTEXTSTYLE1
 73
     1
 44
1.0
  0
ENDBLK
  5
6CC
330
6C1
100
AcDbEntity
  8
0
100
AcDbBlockEnd
  0
BLOCK
  5
6E4
330
6DA
100
AcDbEntity
  8
0
100
AcDbBlockBegin
  2
*D18
 70
     1
 71
     0
 10
0.0
 20
0.0
 30
0.0
  3
*D18
  1

  0
LINE
  5
6E6
330
6DA
100
AcDbEntity
  8
SLD-0
 62
     7
100
AcDbLine
 10
144.0785481236
 20
219.1126467429
 30
0.0
 11
141.0785481236
 21
219.9164937429
 31
0.0
  0
LINE
  5
6E7
330
6DA
100
AcDbEntity
  8
SLD-0
 62
     7
100
AcDbLine
 10
141.0785481236
 20
219.9164937429
 30
0.0
 11
144.0785481236
 21
220.7203407429
 31
0.0
  0
LINE
  5
6E8
330
6DA
100
AcDbEntity
  8
SLD-0
 62
     7
100
AcDbLine
 10
141.0785481236
 20
219.9164937429
 30
0.0
 11
144.0785481236
 21
219.9164937429
 31
0.0
  0
LINE
  5
6E9
330
6DA
100
AcDbEntity
  8
SLD-0
 62
     7
100
AcDbLine
 10
163.6785481236
 20
220.7203407429
 30
0.0
 11
166.6785481236
 21
219.9164937429
 31
0.0
  0
LINE
  5
6EA
330
6DA
100
AcDbEntity
  8
SLD-0
 62
     7
100
AcDbLine
 10
166.6785481236
 20
219.9164937429
 30
0.0
 11
163.6785481236
 21
219.1126467429
 31
0.0
  0
LINE
  5
6EB
330
6DA
100
AcDbEntity
  8
SLD-0
 62
     7
100
AcDbLine
 10
166.6785481236
 20
219.9164937429
 30
0.0
 11
163.6785481236
 21
219.9164937429
 31
0.0
  0
LINE
  5
6EC
330
6DA
100
AcDbEntity
  8
SLD-0
 62
     7
100
AcDbLine
 10
141.0785481236
 20
187.2740161058
 30
0.0
 11
141.0785481236
 21
220.9164937429
 31
0.0
  0
LINE
  5
6ED
330
6DA
100
AcDbEntity
  8
SLD-0
 62
     7
100
AcDbLine
 10
166.6785481236
 20
202.2740161058
 30
0.0
 11
166.6785481236
 21
220.9164937429
 31
0.0
  0
LINE
  5
6EE
330
6DA
100
AcDbEntity
  8
SLD-0
 62
     7
100
AcDbLine
 10
141.0785481236
 20
219.9164937429
 30
0.0
 11
166.6785481236
 21
219.9164937429
 31
0.0
  0
MTEXT
  5
6EF
330
6DA
100
AcDbEntity
  8
SLD-0
 62
     7
100
AcDbMText
 10
149.8054555273
 20
223.9892207828
 30
0.1
 40
3.5
 41
0.0
 71
     1
 72
     1
  1
25.6
  7
SLDTEXTSTYLE1
 73
     1
 44
1.0
  0
ENDBLK
  5
6E5
330
6DA
100
AcDbEntity
  8
0
100
AcDbBlockEnd
  0
BLOCK
  5
6FC
330
6F1
100
AcDbEntity
  8
0
100
AcDbBlockBegin
  2
*D19
 70
     1
 71
     0
 10
0.0
 20
0.0
 30
0.0
  3
*D19
  1

  0
LINE
  5
6FE
330
6F1
100
AcDbEntity
  8
SLD-0
 62
     7
100
AcDbLine
 10
135.7599364339
 20
189.2740161058
 30
0.0
 11
134.9560894339
 21
186.2740161058
 31
0.0
  0
LINE
  5
6FF
330
6F1
100
AcDbEntity
  8
SLD-0
 62
     7
100
AcDbLine
 10
134.9560894339
 20
186.2740161058
 30
0.0
 11
134.1522424339
 21
189.2740161058
 31
0.0
  0
LINE
  5
700
330
6F1
100
AcDbEntity
  8
SLD-0
 62
     7
100
AcDbLine
 10
134.9560894339
 20
186.2740161058
 30
0.0
 11
134.9560894339
 21
189.2740161058
 31
0.0
  0
LINE
  5
701
330
6F1
100
AcDbEntity
  8
SLD-0
 62
     7
100
AcDbLine
 10
134.1522424339
 20
207.2740161058
 30
0.0
 11
134.9560894339
 21
210.2740161058
 31
0.0
  0
LINE
  5
702
330
6F1
100
AcDbEntity
  8
SLD-0
 62
     7
100
AcDbLine
 10
134.9560894339
 20
210.2740161058
 30
0.0
 11
135.7599364339
 21
207.2740161058
 31
0.0
  0
LINE
  5
703
330
6F1
100
AcDbEntity
  8
SLD-0
 62
     7
100
AcDbLine
 10
134.9560894339
 20
210.2740161058
 30
0.0
 11
134.9560894339
 21
207.2740161058
 31
0.0
  0
LINE
  5
704
330
6F1
100
AcDbEntity
  8
SLD-0
 62
     7
100
AcDbLine
 10
140.0785481236
 20
186.2740161058
 30
0.0
 11
133.9560894339
 21
186.2740161058
 31
0.0
  0
LINE
  5
705
330
6F1
100
AcDbEntity
  8
SLD-0
 62
     7
100
AcDbLine
 10
140.0785481236
 20
210.2740161058
 30
0.0
 11
133.9560894339
 21
210.2740161058
 31
0.0
  0
LINE
  5
706
330
6F1
100
AcDbEntity
  8
SLD-0
 62
     7
100
AcDbLine
 10
134.9560894339
 20
186.2740161058
 30
0.0
 11
134.9560894339
 21
210.2740161058
 31
0.0
  0
MTEXT
  5
707
330
6F1
100
AcDbEntity
  8
SLD-0
 62
     7
100
AcDbMText
 10
130.883362394
 20
196.2374698077
 30
0.1
 40
3.5
 41
0.0
 71
     1
 72
     1
  1
24
  7
SLDTEXTSTYLE1
 11
2.832749226161502E-16
 21
1.0
 31
0.0
 73
     1
 44
1.0
  0
ENDBLK
  5
6FD
330
6F1
100
AcDbEntity
  8
0
100
AcDbBlockEnd
  0
ENDSEC
  0
SECTION
  2
ENTITIES
  0
LINE
  5
58
330
1F
100
AcDbEntity
  8
SLD-0
  6
Continuous
 62
   179
370
     0
100
AcDbLine
 10
20.2604743903
 20
285.0
 30
0.0
 11
196.7604743903
 21
285.0
 31
0.0
  0
LINE
  5
59
330
1F
100
AcDbEntity
  8
SLD-0
  6
Continuous
 62
   179
370
     0
100
AcDbLine
 10
20.2604743903
 20
285.0
 30
0.0
 11
20.2604743903
 21
10.0
 31
0.0
  0
LINE
  5
5A
330
1F
100
AcDbEntity
  8
SLD-0
  6
Continuous
 62
   179
370
     0
100
AcDbLine
 10
20.2604743903
 20
10.0
 30
0.0
 11
196.7604743903
 21
10.0
 31
0.0
  0
LINE
  5
5B
330
1F
100
AcDbEntity
  8
SLD-0
  6
Continuous
 62
   179
370
     0
100
AcDbLine
 10
196.7604743903
 20
285.0
 30
0.0
 11
196.7604743903
 21
10.0
 31
0.0
  0
LINE
  5
5C
330
1F
100
AcDbEntity
  8
SLD-0
  6
Continuous
 62
   179
370
     0
100
AcDbLine
 10
127.0104743903
 20
50.75
 30
0.0
 11
196.7604743903
 21
50.75
 31
0.0
  0
LINE
  5
5D
330
1F
100
AcDbEntity
  8
SLD-0
  6
Continuous
 62
   179
370
     0
100
AcDbLine
 10
127.0104743903
 20
50.75
 30
0.0
 11
127.0104743903
 21
10.0
 31
0.0
  0
LINE
  5
5E
330
1F
100
AcDbEntity
  8
SLD-0
  6
Continuous
 62
   179
370
     0
100
AcDbLine
 10
127.0104743903
 20
22.75
 30
0.0
 11
196.7604743903
 21
22.75
 31
0.0
  0
LINE
  5
5F
330
1F
100
AcDbEntity
  8
SLD-0
  6
Continuous
 62
   179
370
     0
100
AcDbLine
 10
127.0104743903
 20
36.75
 30
0.0
 11
196.7604743903
 21
36.75
 31
0.0
  0
LINE
  5
60
330
1F
100
AcDbEntity
  8
SLD-0
  6
Continuous
 62
   179
370
    15
100
AcDbLine
 10
66.6719901026
 20
182.2740161058
 30
0.0
 11
91.6719901026
 21
182.2740161058
 31
0.0
  0
LINE
  5
61
330
1F
100
AcDbEntity
  8
SLD-0
  6
Continuous
 62
   179
370
    15
100
AcDbLine
 10
91.6719899831
 20
183.8740158813
 30
0.0
 11
91.8719896434
 21
183.8740158813
 31
0.0
  0
LINE
  5
62
330
1F
100
AcDbEntity
  8
SLD-0
  6
Continuous
 62
   179
370
    15
100
AcDbLine
 10
66.4719899504
 20
183.8740158813
 30
0.0
 11
66.6719900763
 21
183.8740158813
 31
0.0
  0
LINE
  5
63
330
1F
100
AcDbEntity
  8
SLD-0
  6
Continuous
 62
   179
370
    15
100
AcDbLine
 10
98.1719901026
 20
176.706199852
 30
0.0
 11
98.1719882546
 21
182.274014874
 31
0.0
  0
LINE
  5
64
330
1F
100
AcDbEntity
  8
SLD-0
  6
Continuous
 62
   179
370
    15
100
AcDbLine
 10
96.1719916521
 20
182.274014874
 30
0.0
 11
96.1719901026
 21
176.706199852
 31
0.0
  0
LINE
  5
65
330
1F
100
AcDbEntity
  8
SLD-0
  6
Continuous
 62
   179
370
    15
100
AcDbLine
 10
96.1719901026
 20
176.706199852
 30
0.0
 11
96.1719901026
 21
171.6468165892
 31
0.0
  0
LINE
  5
66
330
1F
100
AcDbEntity
  8
SLD-0
  6
Continuous
 62
   179
370
    15
100
AcDbLine
 10
98.1719901026
 20
171.6468165892
 30
0.0
 11
98.1719901026
 21
176.706199852
 31
0.0
  0
LINE
  5
67
330
1F
100
AcDbEntity
  8
SLD-0
  6
Continuous
 62
   179
370
    15
100
AcDbLine
 10
98.1719882546
 20
169.0537028002
 30
0.0
 11
98.1719919799
 21
169.8510266827
 31
0.0
  0
LINE
  5
68
330
1F
100
AcDbEntity
  8
SLD-0
  6
Continuous
 62
   179
370
    15
100
AcDbLine
 10
98.1719919799
 20
169.8510266827
 30
0.0
 11
98.1719882546
 21
170.7163315253
 31
0.0
  0
LINE
  5
69
330
1F
100
AcDbEntity
  8
SLD-0
  6
Continuous
 62
   179
370
    15
100
AcDbLine
 10
98.1719882546
 20
170.7163315253
 30
0.0
 11
98.1719901026
 21
171.6468165892
 31
0.0
  0
LINE
  5
6A
330
1F
100
AcDbEntity
  8
SLD-0
  6
Continuous
 62
   179
370
    15
100
AcDbLine
 10
96.1719901026
 20
171.6468165892
 30
0.0
 11
96.1719916521
 21
169.0537028002
 31
0.0
  0
LINE
  5
6B
330
1F
100
AcDbEntity
  8
SLD-0
  6
Continuous
 62
   179
370
    15
100
AcDbLine
 10
96.1719916521
 20
172.6339321571
 30
0.0
 11
96.1719916521
 21
170.584927498
 31
0.0
  0
LINE
  5
6C
330
1F
100
AcDbEntity
  8
SLD-0
  6
Continuous
 62
   179
370
    15
100
AcDbLine
 10
98.1719882546
 20
170.584927498
 30
0.0
 11
98.1719882546
 21
172.6339321571
 31
0.0
  0
LINE
  5
6D
330
1F
100
AcDbEntity
  8
SLD-0
  6
Continuous
 62
   179
370
    15
100
AcDbLine
 10
98.1719882546
 20
171.7304933803
 30
0.0
 11
98.1719882546
 21
172.2845669823
 31
0.0
  0
LINE
  5
6E
330
1F
100
AcDbEntity
  8
SLD-0
  6
Continuous
 62
   179
370
    15
100
AcDbLine
 10
79.1719907282
 20
197.0470596092
 30
0.0
 11
77.6364893971
 21
196.1605373757
 31
0.0
  0
LINE
  5
6F
330
1F
100
AcDbEntity
  8
SLD-0
  6
Continuous
 62
   179
370
    15
100
AcDbLine
 10
77.6364893971
 20
196.1605373757
 30
0.0
 11
77.6364893971
 21
194.3874929087
 31
0.0
  0
LINE
  5
70
330
1F
100
AcDbEntity
  8
SLD-0
  6
Continuous
 62
   179
370
    15
100
AcDbLine
 10
79.1719907282
 20
193.5009744005
 30
0.0
 11
77.6364893971
 21
194.3874929087
 31
0.0
  0
LINE
  5
71
330
1F
100
AcDbEntity
  8
SLD-0
  6
Continuous
 62
   179
370
    15
100
AcDbLine
 10
80.7074901966
 20
194.3874929087
 30
0.0
 11
79.1719907282
 21
193.5009744005
 31
0.0
  0
LINE
  5
72
330
1F
100
AcDbEntity
  8
SLD-0
  6
Continuous
 62
   179
370
    15
100
AcDbLine
 10
80.7074901966
 20
194.3874929087
 30
0.0
 11
80.7074901966
 21
196.1605373757
 31
0.0
  0
LINE
  5
73
330
1F
100
AcDbEntity
  8
SLD-0
  6
Continuous
 62
   179
370
    15
100
AcDbLine
 10
79.1719907282
 20
197.0470596092
 30
0.0
 11
80.7074901966
 21
196.1605373757
 31
0.0
  0
LINE
  5
74
330
1F
100
AcDbEntity
  8
SLD-0
  6
Continuous
 62
   179
370
    15
100
AcDbLine
 10
104.1719892381
 20
210.2740194635
 30
0.0
 11
54.17198989
 21
210.2740194635
 31
0.0
  0
LINE
  5
75
330
1F
100
AcDbEntity
  8
SLD-0
  6
Continuous
 62
   179
370
    15
100
AcDbLine
 10
104.1719892381
 20
186.2740155296
 30
0.0
 11
104.1719892381
 21
210.2740194635
 31
0.0
  0
LINE
  5
76
330
1F
100
AcDbEntity
  8
SLD-0
  6
Continuous
 62
   179
370
    15
100
AcDbLine
 10
102.6719899235
 20
209.7740184503
 30
0.0
 11
99.6719912944
 21
209.7740184503
 31
0.0
  0
LINE
  5
77
330
1F
100
AcDbEntity
  8
SLD-0
  6
Continuous
 62
   179
370
    15
100
AcDbLine
 10
99.6719912944
 20
209.7740184503
 30
0.0
 11
99.6719912944
 21
206.7740198212
 31
0.0
  0
LINE
  5
78
330
1F
100
AcDbEntity
  8
SLD-0
  6
Continuous
 62
   179
370
    15
100
AcDbLine
 10
99.6719912944
 20
206.7740198212
 30
0.0
 11
102.6719899235
 21
206.7740198212
 31
0.0
  0
LINE
  5
79
330
1F
100
AcDbEntity
  8
SLD-0
  6
Continuous
 62
   179
370
    15
100
AcDbLine
 10
102.6719899235
 20
206.7740198212
 30
0.0
 11
102.6719899235
 21
209.7740184503
 31
0.0
  0
LINE
  5
7A
330
1F
100
AcDbEntity
  8
SLD-0
  6
Continuous
 62
   179
370
    15
100
AcDbLine
 10
102.6719899235
 20
205.7740177946
 30
0.0
 11
99.6719912944
 21
205.7740177946
 31
0.0
  0
LINE
  5
7B
330
1F
100
AcDbEntity
  8
SLD-0
  6
Continuous
 62
   179
370
    15
100
AcDbLine
 10
99.6719912944
 20
205.7740177946
 30
0.0
 11
99.6719912944
 21
202.7740191655
 31
0.0
  0
LINE
  5
7C
330
1F
100
AcDbEntity
  8
SLD-0
  6
Continuous
 62
   179
370
    15
100
AcDbLine
 10
99.6719912944
 20
202.7740191655
 30
0.0
 11
102.6719899235
 21
202.7740191655
 31
0.0
  0
LINE
  5
7D
330
1F
100
AcDbEntity
  8
SLD-0
  6
Continuous
 62
   179
370
    15
100
AcDbLine
 10
102.6719899235
 20
202.7740191655
 30
0.0
 11
102.6719899235
 21
205.7740177946
 31
0.0
  0
LINE
  5
7E
330
1F
100
AcDbEntity
  8
SLD-0
  6
Continuous
 62
   179
370
    15
100
AcDbLine
 10
102.6719899235
 20
201.774017139
 30
0.0
 11
99.6719912944
 21
201.774017139
 31
0.0
  0
LINE
  5
7F
330
1F
100
AcDbEntity
  8
SLD-0
  6
Continuous
 62
   179
370
    15
100
AcDbLine
 10
99.6719912944
 20
201.774017139
 30
0.0
 11
99.6719912944
 21
198.7740147846
 31
0.0
  0
LINE
  5
80
330
1F
100
AcDbEntity
  8
SLD-0
  6
Continuous
 62
   179
370
    15
100
AcDbLine
 10
99.6719912944
 20
198.7740147846
 30
0.0
 11
102.6719899235
 21
198.7740147846
 31
0.0
  0
LINE
  5
81
330
1F
100
AcDbEntity
  8
SLD-0
  6
Continuous
 62
   179
370
    15
100
AcDbLine
 10
102.6719899235
 20
198.7740147846
 30
0.0
 11
102.6719899235
 21
201.774017139
 31
0.0
  0
LINE
  5
82
330
1F
100
AcDbEntity
  8
SLD-0
  6
Continuous
 62
   179
370
    15
100
AcDbLine
 10
102.6719899235
 20
197.7740164833
 30
0.0
 11
99.6719912944
 21
197.7740164833
 31
0.0
  0
LINE
  5
83
330
1F
100
AcDbEntity
  8
SLD-0
  6
Continuous
 62
   179
370
    15
100
AcDbLine
 10
99.6719912944
 20
197.7740164833
 30
0.0
 11
99.6719912944
 21
194.7740178542
 31
0.0
  0
LINE
  5
84
330
1F
100
AcDbEntity
  8
SLD-0
  6
Continuous
 62
   179
370
    15
100
AcDbLine
 10
99.6719912944
 20
194.7740178542
 30
0.0
 11
102.6719899235
 21
194.7740178542
 31
0.0
  0
LINE
  5
85
330
1F
100
AcDbEntity
  8
SLD-0
  6
Continuous
 62
   179
370
    15
100
AcDbLine
 10
102.6719899235
 20
194.7740178542
 30
0.0
 11
102.6719899235
 21
197.7740164833
 31
0.0
  0
LINE
  5
86
330
1F
100
AcDbEntity
  8
SLD-0
  6
Continuous
 62
   179
370
    15
100
AcDbLine
 10
102.6719899235
 20
193.7740158277
 30
0.0
 11
99.6719912944
 21
193.7740158277
 31
0.0
  0
LINE
  5
87
330
1F
100
AcDbEntity
  8
SLD-0
  6
Continuous
 62
   179
370
    15
100
AcDbLine
 10
99.6719912944
 20
193.7740158277
 30
0.0
 11
99.6719912944
 21
190.7740171986
 31
0.0
  0
LINE
  5
88
330
1F
100
AcDbEntity
  8
SLD-0
  6
Continuous
 62
   179
370
    15
100
AcDbLine
 10
99.6719912944
 20
190.7740171986
 30
0.0
 11
102.6719899235
 21
190.7740171986
 31
0.0
  0
LINE
  5
89
330
1F
100
AcDbEntity
  8
SLD-0
  6
Continuous
 62
   179
370
    15
100
AcDbLine
 10
102.6719899235
 20
190.7740171986
 30
0.0
 11
102.6719899235
 21
193.7740158277
 31
0.0
  0
LINE
  5
8A
330
1F
100
AcDbEntity
  8
SLD-0
  6
Continuous
 62
   179
370
    15
100
AcDbLine
 10
102.6719899235
 20
189.774015172
 30
0.0
 11
99.6719912944
 21
189.774015172
 31
0.0
  0
LINE
  5
8B
330
1F
100
AcDbEntity
  8
SLD-0
  6
Continuous
 62
   179
370
    15
100
AcDbLine
 10
99.6719912944
 20
189.774015172
 30
0.0
 11
99.6719912944
 21
186.7740165429
 31
0.0
  0
LINE
  5
8C
330
1F
100
AcDbEntity
  8
SLD-0
  6
Continuous
 62
   179
370
    15
100
AcDbLine
 10
99.6719912944
 20
186.7740165429
 30
0.0
 11
102.6719899235
 21
186.7740165429
 31
0.0
  0
LINE
  5
8D
330
1F
100
AcDbEntity
  8
SLD-0
  6
Continuous
 62
   179
370
    15
100
AcDbLine
 10
102.6719899235
 20
186.7740165429
 30
0.0
 11
102.6719899235
 21
189.774015172
 31
0.0
  0
LINE
  5
8E
330
1F
100
AcDbEntity
  8
SLD-0
  6
Continuous
 62
   179
370
    15
100
AcDbLine
 10
98.6719892679
 20
209.7740184503
 30
0.0
 11
95.6719906388
 21
209.7740184503
 31
0.0
  0
LINE
  5
8F
330
1F
100
AcDbEntity
  8
SLD-0
  6
Continuous
 62
   179
370
    15
100
AcDbLine
 10
95.6719906388
 20
209.7740184503
 30
0.0
 11
95.6719906388
 21
206.7740198212
 31
0.0
  0
LINE
  5
90
330
1F
100
AcDbEntity
  8
SLD-0
  6
Continuous
 62
   179
370
    15
100
AcDbLine
 10
95.6719906388
 20
206.7740198212
 30
0.0
 11
98.6719892679
 21
206.7740198212
 31
0.0
  0
LINE
  5
91
330
1F
100
AcDbEntity
  8
SLD-0
  6
Continuous
 62
   179
370
    15
100
AcDbLine
 10
98.6719892679
 20
206.7740198212
 30
0.0
 11
98.6719892679
 21
209.7740184503
 31
0.0
  0
LINE
  5
92
330
1F
100
AcDbEntity
  8
SLD-0
  6
Continuous
 62
   179
370
    15
100
AcDbLine
 10
98.6719892679
 20
205.7740177946
 30
0.0
 11
95.6719906388
 21
205.7740177946
 31
0.0
  0
LINE
  5
93
330
1F
100
AcDbEntity
  8
SLD-0
  6
Continuous
 62
   179
370
    15
100
AcDbLine
 10
95.6719906388
 20
205.7740177946
 30
0.0
 11
95.6719906388
 21
202.7740191655
 31
0.0
  0
LINE
  5
94
330
1F
100
AcDbEntity
  8
SLD-0
  6
Continuous
 62
   179
370
    15
100
AcDbLine
 10
95.6719906388
 20
202.7740191655
 30
0.0
 11
98.6719892679
 21
202.7740191655
 31
0.0
  0
LINE
  5
95
330
1F
100
AcDbEntity
  8
SLD-0
  6
Continuous
 62
   179
370
    15
100
AcDbLine
 10
98.6719892679
 20
202.7740191655
 30
0.0
 11
98.6719892679
 21
205.7740177946
 31
0.0
  0
LINE
  5
96
330
1F
100
AcDbEntity
  8
SLD-0
  6
Continuous
 62
   179
370
    15
100
AcDbLine
 10
98.6719892679
 20
201.774017139
 30
0.0
 11
95.6719906388
 21
201.774017139
 31
0.0
  0
LINE
  5
97
330
1F
100
AcDbEntity
  8
SLD-0
  6
Continuous
 62
   179
370
    15
100
AcDbLine
 10
95.6719906388
 20
201.774017139
 30
0.0
 11
95.6719906388
 21
198.7740147846
 31
0.0
  0
LINE
  5
98
330
1F
100
AcDbEntity
  8
SLD-0
  6
Continuous
 62
   179
370
    15
100
AcDbLine
 10
95.6719906388
 20
198.7740147846
 30
0.0
 11
98.6719892679
 21
198.7740147846
 31
0.0
  0
LINE
  5
99
330
1F
100
AcDbEntity
  8
SLD-0
  6
Continuous
 62
   179
370
    15
100
AcDbLine
 10
98.6719892679
 20
198.7740147846
 30
0.0
 11
98.6719892679
 21
201.774017139
 31
0.0
  0
LINE
  5
9A
330
1F
100
AcDbEntity
  8
SLD-0
  6
Continuous
 62
   179
370
    15
100
AcDbLine
 10
98.6719892679
 20
197.7740164833
 30
0.0
 11
95.6719906388
 21
197.7740164833
 31
0.0
  0
LINE
  5
9B
330
1F
100
AcDbEntity
  8
SLD-0
  6
Continuous
 62
   179
370
    15
100
AcDbLine
 10
95.6719906388
 20
197.7740164833
 30
0.0
 11
95.6719906388
 21
194.7740178542
 31
0.0
  0
LINE
  5
9C
330
1F
100
AcDbEntity
  8
SLD-0
  6
Continuous
 62
   179
370
    15
100
AcDbLine
 10
95.6719906388
 20
194.7740178542
 30
0.0
 11
98.6719892679
 21
194.7740178542
 31
0.0
  0
LINE
  5
9D
330
1F
100
AcDbEntity
  8
SLD-0
  6
Continuous
 62
   179
370
    15
100
AcDbLine
 10
98.6719892679
 20
194.7740178542
 30
0.0
 11
98.6719892679
 21
197.7740164833
 31
0.0
  0
LINE
  5
9E
330
1F
100
AcDbEntity
  8
SLD-0
  6
Continuous
 62
   179
370
    15
100
AcDbLine
 10
98.6719892679
 20
193.7740158277
 30
0.0
 11
95.6719906388
 21
193.7740158277
 31
0.0
  0
LINE
  5
9F
330
1F
100
AcDbEntity
  8
SLD-0
  6
Continuous
 62
   179
370
    15
100
AcDbLine
 10
95.6719906388
 20
193.7740158277
 30
0.0
 11
95.6719906388
 21
190.7740171986
 31
0.0
  0
LINE
  5
A0
330
1F
100
AcDbEntity
  8
SLD-0
  6
Continuous
 62
   179
370
    15
100
AcDbLine
 10
95.6719906388
 20
190.7740171986
 30
0.0
 11
98.6719892679
 21
190.7740171986
 31
0.0
  0
LINE
  5
A1
330
1F
100
AcDbEntity
  8
SLD-0
  6
Continuous
 62
   179
370
    15
100
AcDbLine
 10
98.6719892679
 20
190.7740171986
 30
0.0
 11
98.6719892679
 21
193.7740158277
 31
0.0
  0
LINE
  5
A2
330
1F
100
AcDbEntity
  8
SLD-0
  6
Continuous
 62
   179
370
    15
100
AcDbLine
 10
98.6719892679
 20
189.774015172
 30
0.0
 11
95.6719906388
 21
189.774015172
 31
0.0
  0
LINE
  5
A3
330
1F
100
AcDbEntity
  8
SLD-0
  6
Continuous
 62
   179
370
    15
100
AcDbLine
 10
95.6719906388
 20
189.774015172
 30
0.0
 11
95.6719906388
 21
186.7740165429
 31
0.0
  0
LINE
  5
A4
330
1F
100
AcDbEntity
  8
SLD-0
  6
Continuous
 62
   179
370
    15
100
AcDbLine
 10
95.6719906388
 20
186.7740165429
 30
0.0
 11
98.6719892679
 21
186.7740165429
 31
0.0
  0
LINE
  5
A5
330
1F
100
AcDbEntity
  8
SLD-0
  6
Continuous
 62
   179
370
    15
100
AcDbLine
 10
98.6719892679
 20
186.7740165429
 30
0.0
 11
98.6719892679
 21
189.774015172
 31
0.0
  0
LINE
  5
A6
330
1F
100
AcDbEntity
  8
SLD-0
  6
Continuous
 62
   179
370
    15
100
AcDbLine
 10
94.6719886122
 20
209.7740184503
 30
0.0
 11
91.6719899831
 21
209.7740184503
 31
0.0
  0
LINE
  5
A7
330
1F
100
AcDbEntity
  8
SLD-0
  6
Continuous
 62
   179
370
    15
100
AcDbLine
 10
91.6719899831
 20
209.7740184503
 30
0.0
 11
91.6719899831
 21
206.7740198212
 31
0.0
  0
LINE
  5
A8
330
1F
100
AcDbEntity
  8
SLD-0
  6
Continuous
 62
   179
370
    15
100
AcDbLine
 10
91.6719899831
 20
206.7740198212
 30
0.0
 11
94.6719886122
 21
206.7740198212
 31
0.0
  0
LINE
  5
A9
330
1F
100
AcDbEntity
  8
SLD-0
  6
Continuous
 62
   179
370
    15
100
AcDbLine
 10
94.6719886122
 20
206.7740198212
 30
0.0
 11
94.6719886122
 21
209.7740184503
 31
0.0
  0
LINE
  5
AA
330
1F
100
AcDbEntity
  8
SLD-0
  6
Continuous
 62
   179
370
    15
100
AcDbLine
 10
94.6719886122
 20
205.7740177946
 30
0.0
 11
91.6719899831
 21
205.7740177946
 31
0.0
  0
LINE
  5
AB
330
1F
100
AcDbEntity
  8
SLD-0
  6
Continuous
 62
   179
370
    15
100
AcDbLine
 10
91.6719899831
 20
205.7740177946
 30
0.0
 11
91.6719899831
 21
202.7740191655
 31
0.0
  0
LINE
  5
AC
330
1F
100
AcDbEntity
  8
SLD-0
  6
Continuous
 62
   179
370
    15
100
AcDbLine
 10
91.6719899831
 20
202.7740191655
 30
0.0
 11
94.6719886122
 21
202.7740191655
 31
0.0
  0
LINE
  5
AD
330
1F
100
AcDbEntity
  8
SLD-0
  6
Continuous
 62
   179
370
    15
100
AcDbLine
 10
94.6719886122
 20
202.7740191655
 30
0.0
 11
94.6719886122
 21
205.7740177946
 31
0.0
  0
LINE
  5
AE
330
1F
100
AcDbEntity
  8
SLD-0
  6
Continuous
 62
   179
370
    15
100
AcDbLine
 10
94.6719886122
 20
201.774017139
 30
0.0
 11
91.6719899831
 21
201.774017139
 31
0.0
  0
LINE
  5
AF
330
1F
100
AcDbEntity
  8
SLD-0
  6
Continuous
 62
   179
370
    15
100
AcDbLine
 10
91.6719899831
 20
201.774017139
 30
0.0
 11
91.6719899831
 21
198.7740147846
 31
0.0
  0
LINE
  5
B0
330
1F
100
AcDbEntity
  8
SLD-0
  6
Continuous
 62
   179
370
    15
100
AcDbLine
 10
91.6719899831
 20
198.7740147846
 30
0.0
 11
94.6719886122
 21
198.7740147846
 31
0.0
  0
LINE
  5
B1
330
1F
100
AcDbEntity
  8
SLD-0
  6
Continuous
 62
   179
370
    15
100
AcDbLine
 10
94.6719886122
 20
198.7740147846
 30
0.0
 11
94.6719886122
 21
201.774017139
 31
0.0
  0
LINE
  5
B2
330
1F
100
AcDbEntity
  8
SLD-0
  6
Continuous
 62
   179
370
    15
100
AcDbLine
 10
94.6719886122
 20
197.7740164833
 30
0.0
 11
91.6719899831
 21
197.7740164833
 31
0.0
  0
LINE
  5
B3
330
1F
100
AcDbEntity
  8
SLD-0
  6
Continuous
 62
   179
370
    15
100
AcDbLine
 10
91.6719899831
 20
197.7740164833
 30
0.0
 11
91.6719899831
 21
194.7740178542
 31
0.0
  0
LINE
  5
B4
330
1F
100
AcDbEntity
  8
SLD-0
  6
Continuous
 62
   179
370
    15
100
AcDbLine
 10
91.6719899831
 20
194.7740178542
 30
0.0
 11
94.6719886122
 21
194.7740178542
 31
0.0
  0
LINE
  5
B5
330
1F
100
AcDbEntity
  8
SLD-0
  6
Continuous
 62
   179
370
    15
100
AcDbLine
 10
94.6719886122
 20
194.7740178542
 30
0.0
 11
94.6719886122
 21
197.7740164833
 31
0.0
  0
LINE
  5
B6
330
1F
100
AcDbEntity
  8
SLD-0
  6
Continuous
 62
   179
370
    15
100
AcDbLine
 10
94.6719886122
 20
193.7740158277
 30
0.0
 11
91.6719899831
 21
193.7740158277
 31
0.0
  0
LINE
  5
B7
330
1F
100
AcDbEntity
  8
SLD-0
  6
Continuous
 62
   179
370
    15
100
AcDbLine
 10
91.6719899831
 20
193.7740158277
 30
0.0
 11
91.6719899831
 21
190.7740171986
 31
0.0
  0
LINE
  5
B8
330
1F
100
AcDbEntity
  8
SLD-0
  6
Continuous
 62
   179
370
    15
100
AcDbLine
 10
91.6719899831
 20
190.7740171986
 30
0.0
 11
94.6719886122
 21
190.7740171986
 31
0.0
  0
LINE
  5
B9
330
1F
100
AcDbEntity
  8
SLD-0
  6
Continuous
 62
   179
370
    15
100
AcDbLine
 10
94.6719886122
 20
190.7740171986
 30
0.0
 11
94.6719886122
 21
193.7740158277
 31
0.0
  0
LINE
  5
BA
330
1F
100
AcDbEntity
  8
SLD-0
  6
Continuous
 62
   179
370
    15
100
AcDbLine
 10
94.6719886122
 20
189.774015172
 30
0.0
 11
91.6719899831
 21
189.774015172
 31
0.0
  0
LINE
  5
BB
330
1F
100
AcDbEntity
  8
SLD-0
  6
Continuous
 62
   179
370
    15
100
AcDbLine
 10
91.6719899831
 20
189.774015172
 30
0.0
 11
91.6719899831
 21
186.7740165429
 31
0.0
  0
LINE
  5
BC
330
1F
100
AcDbEntity
  8
SLD-0
  6
Continuous
 62
   179
370
    15
100
AcDbLine
 10
91.6719899831
 20
186.7740165429
 30
0.0
 11
94.6719886122
 21
186.7740165429
 31
0.0
  0
LINE
  5
BD
330
1F
100
AcDbEntity
  8
SLD-0
  6
Continuous
 62
   179
370
    15
100
AcDbLine
 10
94.6719886122
 20
186.7740165429
 30
0.0
 11
94.6719886122
 21
189.774015172
 31
0.0
  0
LINE
  5
BE
330
1F
100
AcDbEntity
  8
SLD-0
  6
Continuous
 62
   179
370
    15
100
AcDbLine
 10
90.6719898192
 20
209.7740184503
 30
0.0
 11
87.6719893275
 21
209.7740184503
 31
0.0
  0
LINE
  5
BF
330
1F
100
AcDbEntity
  8
SLD-0
  6
Continuous
 62
   179
370
    15
100
AcDbLine
 10
87.6719893275
 20
209.7740184503
 30
0.0
 11
87.6719893275
 21
206.7740198212
 31
0.0
  0
LINE
  5
C0
330
1F
100
AcDbEntity
  8
SLD-0
  6
Continuous
 62
   179
370
    15
100
AcDbLine
 10
87.6719893275
 20
206.7740198212
 30
0.0
 11
90.6719898192
 21
206.7740198212
 31
0.0
  0
LINE
  5
C1
330
1F
100
AcDbEntity
  8
SLD-0
  6
Continuous
 62
   179
370
    15
100
AcDbLine
 10
90.6719898192
 20
206.7740198212
 30
0.0
 11
90.6719898192
 21
209.7740184503
 31
0.0
  0
LINE
  5
C2
330
1F
100
AcDbEntity
  8
SLD-0
  6
Continuous
 62
   179
370
    15
100
AcDbLine
 10
90.6719898192
 20
205.7740177946
 30
0.0
 11
87.6719893275
 21
205.7740177946
 31
0.0
  0
LINE
  5
C3
330
1F
100
AcDbEntity
  8
SLD-0
  6
Continuous
 62
   179
370
    15
100
AcDbLine
 10
87.6719893275
 20
205.7740177946
 30
0.0
 11
87.6719893275
 21
202.7740191655
 31
0.0
  0
LINE
  5
C4
330
1F
100
AcDbEntity
  8
SLD-0
  6
Continuous
 62
   179
370
    15
100
AcDbLine
 10
87.6719893275
 20
202.7740191655
 30
0.0
 11
90.6719898192
 21
202.7740191655
 31
0.0
  0
LINE
  5
C5
330
1F
100
AcDbEntity
  8
SLD-0
  6
Continuous
 62
   179
370
    15
100
AcDbLine
 10
90.6719898192
 20
202.7740191655
 30
0.0
 11
90.6719898192
 21
205.7740177946
 31
0.0
  0
LINE
  5
C6
330
1F
100
AcDbEntity
  8
SLD-0
  6
Continuous
 62
   179
370
    15
100
AcDbLine
 10
90.6719898192
 20
201.774017139
 30
0.0
 11
87.6719893275
 21
201.774017139
 31
0.0
  0
LINE
  5
C7
330
1F
100
AcDbEntity
  8
SLD-0
  6
Continuous
 62
   179
370
    15
100
AcDbLine
 10
87.6719893275
 20
201.774017139
 30
0.0
 11
87.6719893275
 21
198.7740147846
 31
0.0
  0
LINE
  5
C8
330
1F
100
AcDbEntity
  8
SLD-0
  6
Continuous
 62
   179
370
    15
100
AcDbLine
 10
87.6719893275
 20
198.7740147846
 30
0.0
 11
90.6719898192
 21
198.7740147846
 31
0.0
  0
LINE
  5
C9
330
1F
100
AcDbEntity
  8
SLD-0
  6
Continuous
 62
   179
370
    15
100
AcDbLine
 10
90.6719898192
 20
198.7740147846
 30
0.0
 11
90.6719898192
 21
201.774017139
 31
0.0
  0
LINE
  5
CA
330
1F
100
AcDbEntity
  8
SLD-0
  6
Continuous
 62
   179
370
    15
100
AcDbLine
 10
90.6719898192
 20
197.7740164833
 30
0.0
 11
87.6719893275
 21
197.7740164833
 31
0.0
  0
LINE
  5
CB
330
1F
100
AcDbEntity
  8
SLD-0
  6
Continuous
 62
   179
370
    15
100
AcDbLine
 10
87.6719893275
 20
197.7740164833
 30
0.0
 11
87.6719893275
 21
194.7740178542
 31
0.0
  0
LINE
  5
CC
330
1F
100
AcDbEntity
  8
SLD-0
  6
Continuous
 62
   179
370
    15
100
AcDbLine
 10
87.6719893275
 20
194.7740178542
 30
0.0
 11
90.6719898192
 21
194.7740178542
 31
0.0
  0
LINE
  5
CD
330
1F
100
AcDbEntity
  8
SLD-0
  6
Continuous
 62
   179
370
    15
100
AcDbLine
 10
90.6719898192
 20
194.7740178542
 30
0.0
 11
90.6719898192
 21
197.7740164833
 31
0.0
  0
LINE
  5
CE
330
1F
100
AcDbEntity
  8
SLD-0
  6
Continuous
 62
   179
370
    15
100
AcDbLine
 10
90.6719898192
 20
193.7740158277
 30
0.0
 11
87.6719893275
 21
193.7740158277
 31
0.0
  0
LINE
  5
CF
330
1F
100
AcDbEntity
  8
SLD-0
  6
Continuous
 62
   179
370
    15
100
AcDbLine
 10
87.6719893275
 20
193.7740158277
 30
0.0
 11
87.6719893275
 21
190.7740171986
 31
0.0
  0
LINE
  5
D0
330
1F
100
AcDbEntity
  8
SLD-0
  6
Continuous
 62
   179
370
    15
100
AcDbLine
 10
87.6719893275
 20
190.7740171986
 30
0.0
 11
90.6719898192
 21
190.7740171986
 31
0.0
  0
LINE
  5
D1
330
1F
100
AcDbEntity
  8
SLD-0
  6
Continuous
 62
   179
370
    15
100
AcDbLine
 10
90.6719898192
 20
190.7740171986
 30
0.0
 11
90.6719898192
 21
193.7740158277
 31
0.0
  0
LINE
  5
D2
330
1F
100
AcDbEntity
  8
SLD-0
  6
Continuous
 62
   179
370
    15
100
AcDbLine
 10
90.6719898192
 20
189.774015172
 30
0.0
 11
87.6719893275
 21
189.774015172
 31
0.0
  0
LINE
  5
D3
330
1F
100
AcDbEntity
  8
SLD-0
  6
Continuous
 62
   179
370
    15
100
AcDbLine
 10
87.6719893275
 20
189.774015172
 30
0.0
 11
87.6719893275
 21
186.7740165429
 31
0.0
  0
LINE
  5
D4
330
1F
100
AcDbEntity
  8
SLD-0
  6
Continuous
 62
   179
370
    15
100
AcDbLine
 10
87.6719893275
 20
186.7740165429
 30
0.0
 11
90.6719898192
 21
186.7740165429
 31
0.0
  0
LINE
  5
D5
330
1F
100
AcDbEntity
  8
SLD-0
  6
Continuous
 62
   179
370
    15
100
AcDbLine
 10
90.6719898192
 20
186.7740165429
 30
0.0
 11
90.6719898192
 21
189.774015172
 31
0.0
  0
LINE
  5
D6
330
1F
100
AcDbEntity
  8
SLD-0
  6
Continuous
 62
   179
370
    15
100
AcDbLine
 10
86.6719910262
 20
209.7740184503
 30
0.0
 11
83.6719905345
 21
209.7740184503
 31
0.0
  0
LINE
  5
D7
330
1F
100
AcDbEntity
  8
SLD-0
  6
Continuous
 62
   179
370
    15
100
AcDbLine
 10
83.6719905345
 20
209.7740184503
 30
0.0
 11
83.6719905345
 21
206.7740198212
 31
0.0
  0
LINE
  5
D8
330
1F
100
AcDbEntity
  8
SLD-0
  6
Continuous
 62
   179
370
    15
100
AcDbLine
 10
83.6719905345
 20
206.7740198212
 30
0.0
 11
86.6719910262
 21
206.7740198212
 31
0.0
  0
LINE
  5
D9
330
1F
100
AcDbEntity
  8
SLD-0
  6
Continuous
 62
   179
370
    15
100
AcDbLine
 10
86.6719910262
 20
206.7740198212
 30
0.0
 11
86.6719910262
 21
209.7740184503
 31
0.0
  0
LINE
  5
DA
330
1F
100
AcDbEntity
  8
SLD-0
  6
Continuous
 62
   179
370
    15
100
AcDbLine
 10
86.6719910262
 20
205.7740177946
 30
0.0
 11
83.6719905345
 21
205.7740177946
 31
0.0
  0
LINE
  5
DB
330
1F
100
AcDbEntity
  8
SLD-0
  6
Continuous
 62
   179
370
    15
100
AcDbLine
 10
83.6719905345
 20
205.7740177946
 30
0.0
 11
83.6719905345
 21
202.7740191655
 31
0.0
  0
LINE
  5
DC
330
1F
100
AcDbEntity
  8
SLD-0
  6
Continuous
 62
   179
370
    15
100
AcDbLine
 10
83.6719905345
 20
202.7740191655
 30
0.0
 11
86.6719910262
 21
202.7740191655
 31
0.0
  0
LINE
  5
DD
330
1F
100
AcDbEntity
  8
SLD-0
  6
Continuous
 62
   179
370
    15
100
AcDbLine
 10
86.6719910262
 20
202.7740191655
 30
0.0
 11
86.6719910262
 21
205.7740177946
 31
0.0
  0
LINE
  5
DE
330
1F
100
AcDbEntity
  8
SLD-0
  6
Continuous
 62
   179
370
    15
100
AcDbLine
 10
86.6719910262
 20
201.774017139
 30
0.0
 11
83.6719905345
 21
201.774017139
 31
0.0
  0
LINE
  5
DF
330
1F
100
AcDbEntity
  8
SLD-0
  6
Continuous
 62
   179
370
    15
100
AcDbLine
 10
83.6719905345
 20
201.774017139
 30
0.0
 11
83.6719905345
 21
198.7740147846
 31
0.0
  0
LINE
  5
E0
330
1F
100
AcDbEntity
  8
SLD-0
  6
Continuous
 62
   179
370
    15
100
AcDbLine
 10
83.6719905345
 20
198.7740147846
 30
0.0
 11
86.6719910262
 21
198.7740147846
 31
0.0
  0
LINE
  5
E1
330
1F
100
AcDbEntity
  8
SLD-0
  6
Continuous
 62
   179
370
    15
100
AcDbLine
 10
86.6719910262
 20
198.7740147846
 30
0.0
 11
86.6719910262
 21
201.774017139
 31
0.0
  0
LINE
  5
E2
330
1F
100
AcDbEntity
  8
SLD-0
  6
Continuous
 62
   179
370
    15
100
AcDbLine
 10
86.6719910262
 20
197.7740164833
 30
0.0
 11
83.6719905345
 21
197.7740164833
 31
0.0
  0
LINE
  5
E3
330
1F
100
AcDbEntity
  8
SLD-0
  6
Continuous
 62
   179
370
    15
100
AcDbLine
 10
83.6719905345
 20
197.7740164833
 30
0.0
 11
83.6719905345
 21
194.7740178542
 31
0.0
  0
LINE
  5
E4
330
1F
100
AcDbEntity
  8
SLD-0
  6
Continuous
 62
   179
370
    15
100
AcDbLine
 10
83.6719905345
 20
194.7740178542
 30
0.0
 11
86.6719910262
 21
194.7740178542
 31
0.0
  0
LINE
  5
E5
330
1F
100
AcDbEntity
  8
SLD-0
  6
Continuous
 62
   179
370
    15
100
AcDbLine
 10
86.6719910262
 20
194.7740178542
 30
0.0
 11
86.6719910262
 21
197.7740164833
 31
0.0
  0
LINE
  5
E6
330
1F
100
AcDbEntity
  8
SLD-0
  6
Continuous
 62
   179
370
    15
100
AcDbLine
 10
86.6719910262
 20
193.7740158277
 30
0.0
 11
83.6719905345
 21
193.7740158277
 31
0.0
  0
LINE
  5
E7
330
1F
100
AcDbEntity
  8
SLD-0
  6
Continuous
 62
   179
370
    15
100
AcDbLine
 10
83.6719905345
 20
193.7740158277
 30
0.0
 11
83.6719905345
 21
190.7740171986
 31
0.0
  0
LINE
  5
E8
330
1F
100
AcDbEntity
  8
SLD-0
  6
Continuous
 62
   179
370
    15
100
AcDbLine
 10
83.6719905345
 20
190.7740171986
 30
0.0
 11
86.6719910262
 21
190.7740171986
 31
0.0
  0
LINE
  5
E9
330
1F
100
AcDbEntity
  8
SLD-0
  6
Continuous
 62
   179
370
    15
100
AcDbLine
 10
86.6719910262
 20
190.7740171986
 30
0.0
 11
86.6719910262
 21
193.7740158277
 31
0.0
  0
LINE
  5
EA
330
1F
100
AcDbEntity
  8
SLD-0
  6
Continuous
 62
   179
370
    15
100
AcDbLine
 10
86.6719910262
 20
189.774015172
 30
0.0
 11
83.6719905345
 21
189.774015172
 31
0.0
  0
LINE
  5
EB
330
1F
100
AcDbEntity
  8
SLD-0
  6
Continuous
 62
   179
370
    15
100
AcDbLine
 10
83.6719905345
 20
189.774015172
 30
0.0
 11
83.6719905345
 21
186.7740165429
 31
0.0
  0
LINE
  5
EC
330
1F
100
AcDbEntity
  8
SLD-0
  6
Continuous
 62
   179
370
    15
100
AcDbLine
 10
83.6719905345
 20
186.7740165429
 30
0.0
 11
86.6719910262
 21
186.7740165429
 31
0.0
  0
LINE
  5
ED
330
1F
100
AcDbEntity
  8
SLD-0
  6
Continuous
 62
   179
370
    15
100
AcDbLine
 10
86.6719910262
 20
186.7740165429
 30
0.0
 11
86.6719910262
 21
189.774015172
 31
0.0
  0
LINE
  5
EE
330
1F
100
AcDbEntity
  8
SLD-0
  6
Continuous
 62
   179
370
    15
100
AcDbLine
 10
82.6719903706
 20
209.7740184503
 30
0.0
 11
79.6719898788
 21
209.7740184503
 31
0.0
  0
LINE
  5
EF
330
1F
100
AcDbEntity
  8
SLD-0
  6
Continuous
 62
   179
370
    15
100
AcDbLine
 10
79.6719898788
 20
209.7740184503
 30
0.0
 11
79.6719898788
 21
206.7740198212
 31
0.0
  0
LINE
  5
F0
330
1F
100
AcDbEntity
  8
SLD-0
  6
Continuous
 62
   179
370
    15
100
AcDbLine
 10
79.6719898788
 20
206.7740198212
 30
0.0
 11
82.6719903706
 21
206.7740198212
 31
0.0
  0
LINE
  5
F1
330
1F
100
AcDbEntity
  8
SLD-0
  6
Continuous
 62
   179
370
    15
100
AcDbLine
 10
82.6719903706
 20
206.7740198212
 30
0.0
 11
82.6719903706
 21
209.7740184503
 31
0.0
  0
LINE
  5
F2
330
1F
100
AcDbEntity
  8
SLD-0
  6
Continuous
 62
   179
370
    15
100
AcDbLine
 10
82.6719903706
 20
205.7740177946
 30
0.0
 11
79.6719898788
 21
205.7740177946
 31
0.0
  0
LINE
  5
F3
330
1F
100
AcDbEntity
  8
SLD-0
  6
Continuous
 62
   179
370
    15
100
AcDbLine
 10
79.6719898788
 20
205.7740177946
 30
0.0
 11
79.6719898788
 21
202.7740191655
 31
0.0
  0
LINE
  5
F4
330
1F
100
AcDbEntity
  8
SLD-0
  6
Continuous
 62
   179
370
    15
100
AcDbLine
 10
79.6719898788
 20
202.7740191655
 30
0.0
 11
82.6719903706
 21
202.7740191655
 31
0.0
  0
LINE
  5
F5
330
1F
100
AcDbEntity
  8
SLD-0
  6
Continuous
 62
   179
370
    15
100
AcDbLine
 10
82.6719903706
 20
202.7740191655
 30
0.0
 11
82.6719903706
 21
205.7740177946
 31
0.0
  0
LINE
  5
F6
330
1F
100
AcDbEntity
  8
SLD-0
  6
Continuous
 62
   179
370
    15
100
AcDbLine
 10
82.6719903706
 20
189.774015172
 30
0.0
 11
79.6719898788
 21
189.774015172
 31
0.0
  0
LINE
  5
F7
330
1F
100
AcDbEntity
  8
SLD-0
  6
Continuous
 62
   179
370
    15
100
AcDbLine
 10
79.6719898788
 20
189.774015172
 30
0.0
 11
79.6719898788
 21
186.7740165429
 31
0.0
  0
LINE
  5
F8
330
1F
100
AcDbEntity
  8
SLD-0
  6
Continuous
 62
   179
370
    15
100
AcDbLine
 10
79.6719898788
 20
186.7740165429
 30
0.0
 11
82.6719903706
 21
186.7740165429
 31
0.0
  0
LINE
  5
F9
330
1F
100
AcDbEntity
  8
SLD-0
  6
Continuous
 62
   179
370
    15
100
AcDbLine
 10
82.6719903706
 20
186.7740165429
 30
0.0
 11
82.6719903706
 21
189.774015172
 31
0.0
  0
LINE
  5
FA
330
1F
100
AcDbEntity
  8
SLD-0
  6
Continuous
 62
   179
370
    15
100
AcDbLine
 10
78.6719897149
 20
209.7740184503
 30
0.0
 11
75.6719892232
 21
209.7740184503
 31
0.0
  0
LINE
  5
FB
330
1F
100
AcDbEntity
  8
SLD-0
  6
Continuous
 62
   179
370
    15
100
AcDbLine
 10
75.6719892232
 20
209.7740184503
 30
0.0
 11
75.6719892232
 21
206.7740198212
 31
0.0
  0
LINE
  5
FC
330
1F
100
AcDbEntity
  8
SLD-0
  6
Continuous
 62
   179
370
    15
100
AcDbLine
 10
75.6719892232
 20
206.7740198212
 30
0.0
 11
78.6719897149
 21
206.7740198212
 31
0.0
  0
LINE
  5
FD
330
1F
100
AcDbEntity
  8
SLD-0
  6
Continuous
 62
   179
370
    15
100
AcDbLine
 10
78.6719897149
 20
206.7740198212
 30
0.0
 11
78.6719897149
 21
209.7740184503
 31
0.0
  0
LINE
  5
FE
330
1F
100
AcDbEntity
  8
SLD-0
  6
Continuous
 62
   179
370
    15
100
AcDbLine
 10
78.6719897149
 20
205.7740177946
 30
0.0
 11
75.6719892232
 21
205.7740177946
 31
0.0
  0
LINE
  5
FF
330
1F
100
AcDbEntity
  8
SLD-0
  6
Continuous
 62
   179
370
    15
100
AcDbLine
 10
75.6719892232
 20
205.7740177946
 30
0.0
 11
75.6719892232
 21
202.7740191655
 31
0.0
  0
LINE
  5
100
330
1F
100
AcDbEntity
  8
SLD-0
  6
Continuous
 62
   179
370
    15
100
AcDbLine
 10
75.6719892232
 20
202.7740191655
 30
0.0
 11
78.6719897149
 21
202.7740191655
 31
0.0
  0
LINE
  5
101
330
1F
100
AcDbEntity
  8
SLD-0
  6
Continuous
 62
   179
370
    15
100
AcDbLine
 10
78.6719897149
 20
202.7740191655
 30
0.0
 11
78.6719897149
 21
205.7740177946
 31
0.0
  0
LINE
  5
102
330
1F
100
AcDbEntity
  8
SLD-0
  6
Continuous
 62
   179
370
    15
100
AcDbLine
 10
78.6719897149
 20
189.774015172
 30
0.0
 11
75.6719892232
 21
189.774015172
 31
0.0
  0
LINE
  5
103
330
1F
100
AcDbEntity
  8
SLD-0
  6
Continuous
 62
   179
370
    15
100
AcDbLine
 10
75.6719892232
 20
189.774015172
 30
0.0
 11
75.6719892232
 21
186.7740165429
 31
0.0
  0
LINE
  5
104
330
1F
100
AcDbEntity
  8
SLD-0
  6
Continuous
 62
   179
370
    15
100
AcDbLine
 10
75.6719892232
 20
186.7740165429
 30
0.0
 11
78.6719897149
 21
186.7740165429
 31
0.0
  0
LINE
  5
105
330
1F
100
AcDbEntity
  8
SLD-0
  6
Continuous
 62
   179
370
    15
100
AcDbLine
 10
78.6719897149
 20
186.7740165429
 30
0.0
 11
78.6719897149
 21
189.774015172
 31
0.0
  0
LINE
  5
106
330
1F
100
AcDbEntity
  8
SLD-0
  6
Continuous
 62
   179
370
    15
100
AcDbLine
 10
74.6719899906
 20
209.7740184503
 30
0.0
 11
71.6719904302
 21
209.7740184503
 31
0.0
  0
LINE
  5
107
330
1F
100
AcDbEntity
  8
SLD-0
  6
Continuous
 62
   179
370
    15
100
AcDbLine
 10
71.6719904302
 20
209.7740184503
 30
0.0
 11
71.6719904302
 21
206.7740198212
 31
0.0
  0
LINE
  5
108
330
1F
100
AcDbEntity
  8
SLD-0
  6
Continuous
 62
   179
370
    15
100
AcDbLine
 10
71.6719904302
 20
206.7740198212
 30
0.0
 11
74.6719899906
 21
206.7740198212
 31
0.0
  0
LINE
  5
109
330
1F
100
AcDbEntity
  8
SLD-0
  6
Continuous
 62
   179
370
    15
100
AcDbLine
 10
74.6719899906
 20
206.7740198212
 30
0.0
 11
74.6719899906
 21
209.7740184503
 31
0.0
  0
LINE
  5
10A
330
1F
100
AcDbEntity
  8
SLD-0
  6
Continuous
 62
   179
370
    15
100
AcDbLine
 10
74.6719899906
 20
205.7740177946
 30
0.0
 11
71.6719904302
 21
205.7740177946
 31
0.0
  0
LINE
  5
10B
330
1F
100
AcDbEntity
  8
SLD-0
  6
Continuous
 62
   179
370
    15
100
AcDbLine
 10
71.6719904302
 20
205.7740177946
 30
0.0
 11
71.6719904302
 21
202.7740191655
 31
0.0
  0
LINE
  5
10C
330
1F
100
AcDbEntity
  8
SLD-0
  6
Continuous
 62
   179
370
    15
100
AcDbLine
 10
71.6719904302
 20
202.7740191655
 30
0.0
 11
74.6719899906
 21
202.7740191655
 31
0.0
  0
LINE
  5
10D
330
1F
100
AcDbEntity
  8
SLD-0
  6
Continuous
 62
   179
370
    15
100
AcDbLine
 10
74.6719899906
 20
202.7740191655
 30
0.0
 11
74.6719899906
 21
205.7740177946
 31
0.0
  0
LINE
  5
10E
330
1F
100
AcDbEntity
  8
SLD-0
  6
Continuous
 62
   179
370
    15
100
AcDbLine
 10
74.6719899906
 20
201.774017139
 30
0.0
 11
71.6719904302
 21
201.774017139
 31
0.0
  0
LINE
  5
10F
330
1F
100
AcDbEntity
  8
SLD-0
  6
Continuous
 62
   179
370
    15
100
AcDbLine
 10
71.6719904302
 20
201.774017139
 30
0.0
 11
71.6719904302
 21
198.7740147846
 31
0.0
  0
LINE
  5
110
330
1F
100
AcDbEntity
  8
SLD-0
  6
Continuous
 62
   179
370
    15
100
AcDbLine
 10
71.6719904302
 20
198.7740147846
 30
0.0
 11
74.6719899906
 21
198.7740147846
 31
0.0
  0
LINE
  5
111
330
1F
100
AcDbEntity
  8
SLD-0
  6
Continuous
 62
   179
370
    15
100
AcDbLine
 10
74.6719899906
 20
198.7740147846
 30
0.0
 11
74.6719899906
 21
201.774017139
 31
0.0
  0
LINE
  5
112
330
1F
100
AcDbEntity
  8
SLD-0
  6
Continuous
 62
   179
370
    15
100
AcDbLine
 10
74.6719899906
 20
197.7740164833
 30
0.0
 11
71.6719904302
 21
197.7740164833
 31
0.0
  0
LINE
  5
113
330
1F
100
AcDbEntity
  8
SLD-0
  6
Continuous
 62
   179
370
    15
100
AcDbLine
 10
71.6719904302
 20
197.7740164833
 30
0.0
 11
71.6719904302
 21
194.7740178542
 31
0.0
  0
LINE
  5
114
330
1F
100
AcDbEntity
  8
SLD-0
  6
Continuous
 62
   179
370
    15
100
AcDbLine
 10
71.6719904302
 20
194.7740178542
 30
0.0
 11
74.6719899906
 21
194.7740178542
 31
0.0
  0
LINE
  5
115
330
1F
100
AcDbEntity
  8
SLD-0
  6
Continuous
 62
   179
370
    15
100
AcDbLine
 10
74.6719899906
 20
194.7740178542
 30
0.0
 11
74.6719899906
 21
197.7740164833
 31
0.0
  0
LINE
  5
116
330
1F
100
AcDbEntity
  8
SLD-0
  6
Continuous
 62
   179
370
    15
100
AcDbLine
 10
74.6719899906
 20
193.7740158277
 30
0.0
 11
71.6719904302
 21
193.7740158277
 31
0.0
  0
LINE
  5
117
330
1F
100
AcDbEntity
  8
SLD-0
  6
Continuous
 62
   179
370
    15
100
AcDbLine
 10
71.6719904302
 20
193.7740158277
 30
0.0
 11
71.6719904302
 21
190.7740171986
 31
0.0
  0
LINE
  5
118
330
1F
100
AcDbEntity
  8
SLD-0
  6
Continuous
 62
   179
370
    15
100
AcDbLine
 10
71.6719904302
 20
190.7740171986
 30
0.0
 11
74.6719899906
 21
190.7740171986
 31
0.0
  0
LINE
  5
119
330
1F
100
AcDbEntity
  8
SLD-0
  6
Continuous
 62
   179
370
    15
100
AcDbLine
 10
74.6719899906
 20
190.7740171986
 30
0.0
 11
74.6719899906
 21
193.7740158277
 31
0.0
  0
LINE
  5
11A
330
1F
100
AcDbEntity
  8
SLD-0
  6
Continuous
 62
   179
370
    15
100
AcDbLine
 10
74.6719899906
 20
189.774015172
 30
0.0
 11
71.6719904302
 21
189.774015172
 31
0.0
  0
LINE
  5
11B
330
1F
100
AcDbEntity
  8
SLD-0
  6
Continuous
 62
   179
370
    15
100
AcDbLine
 10
71.6719904302
 20
189.774015172
 30
0.0
 11
71.6719904302
 21
186.7740165429
 31
0.0
  0
LINE
  5
11C
330
1F
100
AcDbEntity
  8
SLD-0
  6
Continuous
 62
   179
370
    15
100
AcDbLine
 10
71.6719904302
 20
186.7740165429
 30
0.0
 11
74.6719899906
 21
186.7740165429
 31
0.0
  0
LINE
  5
11D
330
1F
100
AcDbEntity
  8
SLD-0
  6
Continuous
 62
   179
370
    15
100
AcDbLine
 10
74.6719899906
 20
186.7740165429
 30
0.0
 11
74.6719899906
 21
189.774015172
 31
0.0
  0
LINE
  5
11E
330
1F
100
AcDbEntity
  8
SLD-0
  6
Continuous
 62
   179
370
    15
100
AcDbLine
 10
70.6719902663
 20
209.7740184503
 30
0.0
 11
67.6719897745
 21
209.7740184503
 31
0.0
  0
LINE
  5
11F
330
1F
100
AcDbEntity
  8
SLD-0
  6
Continuous
 62
   179
370
    15
100
AcDbLine
 10
67.6719897745
 20
209.7740184503
 30
0.0
 11
67.6719897745
 21
206.7740198212
 31
0.0
  0
LINE
  5
120
330
1F
100
AcDbEntity
  8
SLD-0
  6
Continuous
 62
   179
370
    15
100
AcDbLine
 10
67.6719897745
 20
206.7740198212
 30
0.0
 11
70.6719902663
 21
206.7740198212
 31
0.0
  0
LINE
  5
121
330
1F
100
AcDbEntity
  8
SLD-0
  6
Continuous
 62
   179
370
    15
100
AcDbLine
 10
70.6719902663
 20
206.7740198212
 30
0.0
 11
70.6719902663
 21
209.7740184503
 31
0.0
  0
LINE
  5
122
330
1F
100
AcDbEntity
  8
SLD-0
  6
Continuous
 62
   179
370
    15
100
AcDbLine
 10
70.6719902663
 20
205.7740177946
 30
0.0
 11
67.6719897745
 21
205.7740177946
 31
0.0
  0
LINE
  5
123
330
1F
100
AcDbEntity
  8
SLD-0
  6
Continuous
 62
   179
370
    15
100
AcDbLine
 10
67.6719897745
 20
205.7740177946
 30
0.0
 11
67.6719897745
 21
202.7740191655
 31
0.0
  0
LINE
  5
124
330
1F
100
AcDbEntity
  8
SLD-0
  6
Continuous
 62
   179
370
    15
100
AcDbLine
 10
67.6719897745
 20
202.7740191655
 30
0.0
 11
70.6719902663
 21
202.7740191655
 31
0.0
  0
LINE
  5
125
330
1F
100
AcDbEntity
  8
SLD-0
  6
Continuous
 62
   179
370
    15
100
AcDbLine
 10
70.6719902663
 20
202.7740191655
 30
0.0
 11
70.6719902663
 21
205.7740177946
 31
0.0
  0
LINE
  5
126
330
1F
100
AcDbEntity
  8
SLD-0
  6
Continuous
 62
   179
370
    15
100
AcDbLine
 10
70.6719902663
 20
201.774017139
 30
0.0
 11
67.6719897745
 21
201.774017139
 31
0.0
  0
LINE
  5
127
330
1F
100
AcDbEntity
  8
SLD-0
  6
Continuous
 62
   179
370
    15
100
AcDbLine
 10
67.6719897745
 20
201.774017139
 30
0.0
 11
67.6719897745
 21
198.7740147846
 31
0.0
  0
LINE
  5
128
330
1F
100
AcDbEntity
  8
SLD-0
  6
Continuous
 62
   179
370
    15
100
AcDbLine
 10
67.6719897745
 20
198.7740147846
 30
0.0
 11
70.6719902663
 21
198.7740147846
 31
0.0
  0
LINE
  5
129
330
1F
100
AcDbEntity
  8
SLD-0
  6
Continuous
 62
   179
370
    15
100
AcDbLine
 10
70.6719902663
 20
198.7740147846
 30
0.0
 11
70.6719902663
 21
201.774017139
 31
0.0
  0
LINE
  5
12A
330
1F
100
AcDbEntity
  8
SLD-0
  6
Continuous
 62
   179
370
    15
100
AcDbLine
 10
70.6719902663
 20
197.7740164833
 30
0.0
 11
67.6719897745
 21
197.7740164833
 31
0.0
  0
LINE
  5
12B
330
1F
100
AcDbEntity
  8
SLD-0
  6
Continuous
 62
   179
370
    15
100
AcDbLine
 10
67.6719897745
 20
197.7740164833
 30
0.0
 11
67.6719897745
 21
194.7740178542
 31
0.0
  0
LINE
  5
12C
330
1F
100
AcDbEntity
  8
SLD-0
  6
Continuous
 62
   179
370
    15
100
AcDbLine
 10
67.6719897745
 20
194.7740178542
 30
0.0
 11
70.6719902663
 21
194.7740178542
 31
0.0
  0
LINE
  5
12D
330
1F
100
AcDbEntity
  8
SLD-0
  6
Continuous
 62
   179
370
    15
100
AcDbLine
 10
70.6719902663
 20
194.7740178542
 30
0.0
 11
70.6719902663
 21
197.7740164833
 31
0.0
  0
LINE
  5
12E
330
1F
100
AcDbEntity
  8
SLD-0
  6
Continuous
 62
   179
370
    15
100
AcDbLine
 10
70.6719902663
 20
193.7740158277
 30
0.0
 11
67.6719897745
 21
193.7740158277
 31
0.0
  0
LINE
  5
12F
330
1F
100
AcDbEntity
  8
SLD-0
  6
Continuous
 62
   179
370
    15
100
AcDbLine
 10
67.6719897745
 20
193.7740158277
 30
0.0
 11
67.6719897745
 21
190.7740171986
 31
0.0
  0
LINE
  5
130
330
1F
100
AcDbEntity
  8
SLD-0
  6
Continuous
 62
   179
370
    15
100
AcDbLine
 10
67.6719897745
 20
190.7740171986
 30
0.0
 11
70.6719902663
 21
190.7740171986
 31
0.0
  0
LINE
  5
131
330
1F
100
AcDbEntity
  8
SLD-0
  6
Continuous
 62
   179
370
    15
100
AcDbLine
 10
70.6719902663
 20
190.7740171986
 30
0.0
 11
70.6719902663
 21
193.7740158277
 31
0.0
  0
LINE
  5
132
330
1F
100
AcDbEntity
  8
SLD-0
  6
Continuous
 62
   179
370
    15
100
AcDbLine
 10
70.6719902663
 20
189.774015172
 30
0.0
 11
67.6719897745
 21
189.774015172
 31
0.0
  0
LINE
  5
133
330
1F
100
AcDbEntity
  8
SLD-0
  6
Continuous
 62
   179
370
    15
100
AcDbLine
 10
67.6719897745
 20
189.774015172
 30
0.0
 11
67.6719897745
 21
186.7740165429
 31
0.0
  0
LINE
  5
134
330
1F
100
AcDbEntity
  8
SLD-0
  6
Continuous
 62
   179
370
    15
100
AcDbLine
 10
67.6719897745
 20
186.7740165429
 30
0.0
 11
70.6719902663
 21
186.7740165429
 31
0.0
  0
LINE
  5
135
330
1F
100
AcDbEntity
  8
SLD-0
  6
Continuous
 62
   179
370
    15
100
AcDbLine
 10
70.6719902663
 20
186.7740165429
 30
0.0
 11
70.6719902663
 21
189.774015172
 31
0.0
  0
LINE
  5
136
330
1F
100
AcDbEntity
  8
SLD-0
  6
Continuous
 62
   179
370
    15
100
AcDbLine
 10
66.6719900763
 20
209.7740184503
 30
0.0
 11
63.6719900502
 21
209.7740184503
 31
0.0
  0
LINE
  5
137
330
1F
100
AcDbEntity
  8
SLD-0
  6
Continuous
 62
   179
370
    15
100
AcDbLine
 10
63.6719900502
 20
209.7740184503
 30
0.0
 11
63.6719900502
 21
206.7740198212
 31
0.0
  0
LINE
  5
138
330
1F
100
AcDbEntity
  8
SLD-0
  6
Continuous
 62
   179
370
    15
100
AcDbLine
 10
63.6719900502
 20
206.7740198212
 30
0.0
 11
66.6719900763
 21
206.7740198212
 31
0.0
  0
LINE
  5
139
330
1F
100
AcDbEntity
  8
SLD-0
  6
Continuous
 62
   179
370
    15
100
AcDbLine
 10
66.6719900763
 20
206.7740198212
 30
0.0
 11
66.6719900763
 21
209.7740184503
 31
0.0
  0
LINE
  5
13A
330
1F
100
AcDbEntity
  8
SLD-0
  6
Continuous
 62
   179
370
    15
100
AcDbLine
 10
66.6719900763
 20
205.7740177946
 30
0.0
 11
63.6719900502
 21
205.7740177946
 31
0.0
  0
LINE
  5
13B
330
1F
100
AcDbEntity
  8
SLD-0
  6
Continuous
 62
   179
370
    15
100
AcDbLine
 10
63.6719900502
 20
205.7740177946
 30
0.0
 11
63.6719900502
 21
202.7740191655
 31
0.0
  0
LINE
  5
13C
330
1F
100
AcDbEntity
  8
SLD-0
  6
Continuous
 62
   179
370
    15
100
AcDbLine
 10
63.6719900502
 20
202.7740191655
 30
0.0
 11
66.6719900763
 21
202.7740191655
 31
0.0
  0
LINE
  5
13D
330
1F
100
AcDbEntity
  8
SLD-0
  6
Continuous
 62
   179
370
    15
100
AcDbLine
 10
66.6719900763
 20
202.7740191655
 30
0.0
 11
66.6719900763
 21
205.7740177946
 31
0.0
  0
LINE
  5
13E
330
1F
100
AcDbEntity
  8
SLD-0
  6
Continuous
 62
   179
370
    15
100
AcDbLine
 10
66.6719900763
 20
201.774017139
 30
0.0
 11
63.6719900502
 21
201.774017139
 31
0.0
  0
LINE
  5
13F
330
1F
100
AcDbEntity
  8
SLD-0
  6
Continuous
 62
   179
370
    15
100
AcDbLine
 10
63.6719900502
 20
201.774017139
 30
0.0
 11
63.6719900502
 21
198.7740147846
 31
0.0
  0
LINE
  5
140
330
1F
100
AcDbEntity
  8
SLD-0
  6
Continuous
 62
   179
370
    15
100
AcDbLine
 10
63.6719900502
 20
198.7740147846
 30
0.0
 11
66.6719900763
 21
198.7740147846
 31
0.0
  0
LINE
  5
141
330
1F
100
AcDbEntity
  8
SLD-0
  6
Continuous
 62
   179
370
    15
100
AcDbLine
 10
66.6719900763
 20
198.7740147846
 30
0.0
 11
66.6719900763
 21
201.774017139
 31
0.0
  0
LINE
  5
142
330
1F
100
AcDbEntity
  8
SLD-0
  6
Continuous
 62
   179
370
    15
100
AcDbLine
 10
66.6719900763
 20
197.7740164833
 30
0.0
 11
63.6719900502
 21
197.7740164833
 31
0.0
  0
LINE
  5
143
330
1F
100
AcDbEntity
  8
SLD-0
  6
Continuous
 62
   179
370
    15
100
AcDbLine
 10
63.6719900502
 20
197.7740164833
 30
0.0
 11
63.6719900502
 21
194.7740178542
 31
0.0
  0
LINE
  5
144
330
1F
100
AcDbEntity
  8
SLD-0
  6
Continuous
 62
   179
370
    15
100
AcDbLine
 10
63.6719900502
 20
194.7740178542
 30
0.0
 11
66.6719900763
 21
194.7740178542
 31
0.0
  0
LINE
  5
145
330
1F
100
AcDbEntity
  8
SLD-0
  6
Continuous
 62
   179
370
    15
100
AcDbLine
 10
66.6719900763
 20
194.7740178542
 30
0.0
 11
66.6719900763
 21
197.7740164833
 31
0.0
  0
LINE
  5
146
330
1F
100
AcDbEntity
  8
SLD-0
  6
Continuous
 62
   179
370
    15
100
AcDbLine
 10
66.6719900763
 20
193.7740158277
 30
0.0
 11
63.6719900502
 21
193.7740158277
 31
0.0
  0
LINE
  5
147
330
1F
100
AcDbEntity
  8
SLD-0
  6
Continuous
 62
   179
370
    15
100
AcDbLine
 10
63.6719900502
 20
193.7740158277
 30
0.0
 11
63.6719900502
 21
190.7740171986
 31
0.0
  0
LINE
  5
148
330
1F
100
AcDbEntity
  8
SLD-0
  6
Continuous
 62
   179
370
    15
100
AcDbLine
 10
63.6719900502
 20
190.7740171986
 30
0.0
 11
66.6719900763
 21
190.7740171986
 31
0.0
  0
LINE
  5
149
330
1F
100
AcDbEntity
  8
SLD-0
  6
Continuous
 62
   179
370
    15
100
AcDbLine
 10
66.6719900763
 20
190.7740171986
 30
0.0
 11
66.6719900763
 21
193.7740158277
 31
0.0
  0
LINE
  5
14A
330
1F
100
AcDbEntity
  8
SLD-0
  6
Continuous
 62
   179
370
    15
100
AcDbLine
 10
66.6719900763
 20
189.774015172
 30
0.0
 11
63.6719900502
 21
189.774015172
 31
0.0
  0
LINE
  5
14B
330
1F
100
AcDbEntity
  8
SLD-0
  6
Continuous
 62
   179
370
    15
100
AcDbLine
 10
63.6719900502
 20
189.774015172
 30
0.0
 11
63.6719900502
 21
186.7740165429
 31
0.0
  0
LINE
  5
14C
330
1F
100
AcDbEntity
  8
SLD-0
  6
Continuous
 62
   179
370
    15
100
AcDbLine
 10
63.6719900502
 20
186.7740165429
 30
0.0
 11
66.6719900763
 21
186.7740165429
 31
0.0
  0
LINE
  5
14D
330
1F
100
AcDbEntity
  8
SLD-0
  6
Continuous
 62
   179
370
    15
100
AcDbLine
 10
66.6719900763
 20
186.7740165429
 30
0.0
 11
66.6719900763
 21
189.774015172
 31
0.0
  0
LINE
  5
14E
330
1F
100
AcDbEntity
  8
SLD-0
  6
Continuous
 62
   179
370
    15
100
AcDbLine
 10
62.6719901191
 20
209.7740184503
 30
0.0
 11
59.6719901003
 21
209.7740184503
 31
0.0
  0
LINE
  5
14F
330
1F
100
AcDbEntity
  8
SLD-0
  6
Continuous
 62
   179
370
    15
100
AcDbLine
 10
59.6719901003
 20
209.7740184503
 30
0.0
 11
59.6719901003
 21
206.7740198212
 31
0.0
  0
LINE
  5
150
330
1F
100
AcDbEntity
  8
SLD-0
  6
Continuous
 62
   179
370
    15
100
AcDbLine
 10
59.6719901003
 20
206.7740198212
 30
0.0
 11
62.6719901191
 21
206.7740198212
 31
0.0
  0
LINE
  5
151
330
1F
100
AcDbEntity
  8
SLD-0
  6
Continuous
 62
   179
370
    15
100
AcDbLine
 10
62.6719901191
 20
206.7740198212
 30
0.0
 11
62.6719901191
 21
209.7740184503
 31
0.0
  0
LINE
  5
152
330
1F
100
AcDbEntity
  8
SLD-0
  6
Continuous
 62
   179
370
    15
100
AcDbLine
 10
62.6719901191
 20
205.7740177946
 30
0.0
 11
59.6719901003
 21
205.7740177946
 31
0.0
  0
LINE
  5
153
330
1F
100
AcDbEntity
  8
SLD-0
  6
Continuous
 62
   179
370
    15
100
AcDbLine
 10
59.6719901003
 20
205.7740177946
 30
0.0
 11
59.6719901003
 21
202.7740191655
 31
0.0
  0
LINE
  5
154
330
1F
100
AcDbEntity
  8
SLD-0
  6
Continuous
 62
   179
370
    15
100
AcDbLine
 10
59.6719901003
 20
202.7740191655
 30
0.0
 11
62.6719901191
 21
202.7740191655
 31
0.0
  0
LINE
  5
155
330
1F
100
AcDbEntity
  8
SLD-0
  6
Continuous
 62
   179
370
    15
100
AcDbLine
 10
62.6719901191
 20
202.7740191655
 30
0.0
 11
62.6719901191
 21
205.7740177946
 31
0.0
  0
LINE
  5
156
330
1F
100
AcDbEntity
  8
SLD-0
  6
Continuous
 62
   179
370
    15
100
AcDbLine
 10
62.6719901191
 20
201.774017139
 30
0.0
 11
59.6719901003
 21
201.774017139
 31
0.0
  0
LINE
  5
157
330
1F
100
AcDbEntity
  8
SLD-0
  6
Continuous
 62
   179
370
    15
100
AcDbLine
 10
59.6719901003
 20
201.774017139
 30
0.0
 11
59.6719901003
 21
198.7740147846
 31
0.0
  0
LINE
  5
158
330
1F
100
AcDbEntity
  8
SLD-0
  6
Continuous
 62
   179
370
    15
100
AcDbLine
 10
59.6719901003
 20
198.7740147846
 30
0.0
 11
62.6719901191
 21
198.7740147846
 31
0.0
  0
LINE
  5
159
330
1F
100
AcDbEntity
  8
SLD-0
  6
Continuous
 62
   179
370
    15
100
AcDbLine
 10
62.6719901191
 20
198.7740147846
 30
0.0
 11
62.6719901191
 21
201.774017139
 31
0.0
  0
LINE
  5
15A
330
1F
100
AcDbEntity
  8
SLD-0
  6
Continuous
 62
   179
370
    15
100
AcDbLine
 10
62.6719901191
 20
197.7740164833
 30
0.0
 11
59.6719901003
 21
197.7740164833
 31
0.0
  0
LINE
  5
15B
330
1F
100
AcDbEntity
  8
SLD-0
  6
Continuous
 62
   179
370
    15
100
AcDbLine
 10
59.6719901003
 20
197.7740164833
 30
0.0
 11
59.6719901003
 21
194.7740178542
 31
0.0
  0
LINE
  5
15C
330
1F
100
AcDbEntity
  8
SLD-0
  6
Continuous
 62
   179
370
    15
100
AcDbLine
 10
59.6719901003
 20
194.7740178542
 30
0.0
 11
62.6719901191
 21
194.7740178542
 31
0.0
  0
LINE
  5
15D
330
1F
100
AcDbEntity
  8
SLD-0
  6
Continuous
 62
   179
370
    15
100
AcDbLine
 10
62.6719901191
 20
194.7740178542
 30
0.0
 11
62.6719901191
 21
197.7740164833
 31
0.0
  0
LINE
  5
15E
330
1F
100
AcDbEntity
  8
SLD-0
  6
Continuous
 62
   179
370
    15
100
AcDbLine
 10
62.6719901191
 20
193.7740158277
 30
0.0
 11
59.6719901003
 21
193.7740158277
 31
0.0
  0
LINE
  5
15F
330
1F
100
AcDbEntity
  8
SLD-0
  6
Continuous
 62
   179
370
    15
100
AcDbLine
 10
59.6719901003
 20
193.7740158277
 30
0.0
 11
59.6719901003
 21
190.7740171986
 31
0.0
  0
LINE
  5
160
330
1F
100
AcDbEntity
  8
SLD-0
  6
Continuous
 62
   179
370
    15
100
AcDbLine
 10
59.6719901003
 20
190.7740171986
 30
0.0
 11
62.6719901191
 21
190.7740171986
 31
0.0
  0
LINE
  5
161
330
1F
100
AcDbEntity
  8
SLD-0
  6
Continuous
 62
   179
370
    15
100
AcDbLine
 10
62.6719901191
 20
190.7740171986
 30
0.0
 11
62.6719901191
 21
193.7740158277
 31
0.0
  0
LINE
  5
162
330
1F
100
AcDbEntity
  8
SLD-0
  6
Continuous
 62
   179
370
    15
100
AcDbLine
 10
62.6719901191
 20
189.774015172
 30
0.0
 11
59.6719901003
 21
189.774015172
 31
0.0
  0
LINE
  5
163
330
1F
100
AcDbEntity
  8
SLD-0
  6
Continuous
 62
   179
370
    15
100
AcDbLine
 10
59.6719901003
 20
189.774015172
 30
0.0
 11
59.6719901003
 21
186.7740165429
 31
0.0
  0
LINE
  5
164
330
1F
100
AcDbEntity
  8
SLD-0
  6
Continuous
 62
   179
370
    15
100
AcDbLine
 10
59.6719901003
 20
186.7740165429
 30
0.0
 11
62.6719901191
 21
186.7740165429
 31
0.0
  0
LINE
  5
165
330
1F
100
AcDbEntity
  8
SLD-0
  6
Continuous
 62
   179
370
    15
100
AcDbLine
 10
62.6719901191
 20
186.7740165429
 30
0.0
 11
62.6719901191
 21
189.774015172
 31
0.0
  0
LINE
  5
166
330
1F
100
AcDbEntity
  8
SLD-0
  6
Continuous
 62
   179
370
    15
100
AcDbLine
 10
58.6719901037
 20
209.7740184503
 30
0.0
 11
55.6719901359
 21
209.7740184503
 31
0.0
  0
LINE
  5
167
330
1F
100
AcDbEntity
  8
SLD-0
  6
Continuous
 62
   179
370
    15
100
AcDbLine
 10
55.6719901359
 20
209.7740184503
 30
0.0
 11
55.6719901359
 21
206.7740198212
 31
0.0
  0
LINE
  5
168
330
1F
100
AcDbEntity
  8
SLD-0
  6
Continuous
 62
   179
370
    15
100
AcDbLine
 10
55.6719901359
 20
206.7740198212
 30
0.0
 11
58.6719901037
 21
206.7740198212
 31
0.0
  0
LINE
  5
169
330
1F
100
AcDbEntity
  8
SLD-0
  6
Continuous
 62
   179
370
    15
100
AcDbLine
 10
58.6719901037
 20
206.7740198212
 30
0.0
 11
58.6719901037
 21
209.7740184503
 31
0.0
  0
LINE
  5
16A
330
1F
100
AcDbEntity
  8
SLD-0
  6
Continuous
 62
   179
370
    15
100
AcDbLine
 10
58.6719901037
 20
205.7740177946
 30
0.0
 11
55.6719901359
 21
205.7740177946
 31
0.0
  0
LINE
  5
16B
330
1F
100
AcDbEntity
  8
SLD-0
  6
Continuous
 62
   179
370
    15
100
AcDbLine
 10
55.6719901359
 20
205.7740177946
 30
0.0
 11
55.6719901359
 21
202.7740191655
 31
0.0
  0
LINE
  5
16C
330
1F
100
AcDbEntity
  8
SLD-0
  6
Continuous
 62
   179
370
    15
100
AcDbLine
 10
55.6719901359
 20
202.7740191655
 30
0.0
 11
58.6719901037
 21
202.7740191655
 31
0.0
  0
LINE
  5
16D
330
1F
100
AcDbEntity
  8
SLD-0
  6
Continuous
 62
   179
370
    15
100
AcDbLine
 10
58.6719901037
 20
202.7740191655
 30
0.0
 11
58.6719901037
 21
205.7740177946
 31
0.0
  0
LINE
  5
16E
330
1F
100
AcDbEntity
  8
SLD-0
  6
Continuous
 62
   179
370
    15
100
AcDbLine
 10
58.6719901037
 20
201.774017139
 30
0.0
 11
55.6719901359
 21
201.774017139
 31
0.0
  0
LINE
  5
16F
330
1F
100
AcDbEntity
  8
SLD-0
  6
Continuous
 62
   179
370
    15
100
AcDbLine
 10
55.6719901359
 20
201.774017139
 30
0.0
 11
55.6719901359
 21
198.7740147846
 31
0.0
  0
LINE
  5
170
330
1F
100
AcDbEntity
  8
SLD-0
  6
Continuous
 62
   179
370
    15
100
AcDbLine
 10
55.6719901359
 20
198.7740147846
 30
0.0
 11
58.6719901037
 21
198.7740147846
 31
0.0
  0
LINE
  5
171
330
1F
100
AcDbEntity
  8
SLD-0
  6
Continuous
 62
   179
370
    15
100
AcDbLine
 10
58.6719901037
 20
198.7740147846
 30
0.0
 11
58.6719901037
 21
201.774017139
 31
0.0
  0
LINE
  5
172
330
1F
100
AcDbEntity
  8
SLD-0
  6
Continuous
 62
   179
370
    15
100
AcDbLine
 10
58.6719901037
 20
197.7740164833
 30
0.0
 11
55.6719901359
 21
197.7740164833
 31
0.0
  0
LINE
  5
173
330
1F
100
AcDbEntity
  8
SLD-0
  6
Continuous
 62
   179
370
    15
100
AcDbLine
 10
55.6719901359
 20
197.7740164833
 30
0.0
 11
55.6719901359
 21
194.7740178542
 31
0.0
  0
LINE
  5
174
330
1F
100
AcDbEntity
  8
SLD-0
  6
Continuous
 62
   179
370
    15
100
AcDbLine
 10
55.6719901359
 20
194.7740178542
 30
0.0
 11
58.6719901037
 21
194.7740178542
 31
0.0
  0
LINE
  5
175
330
1F
100
AcDbEntity
  8
SLD-0
  6
Continuous
 62
   179
370
    15
100
AcDbLine
 10
58.6719901037
 20
194.7740178542
 30
0.0
 11
58.6719901037
 21
197.7740164833
 31
0.0
  0
LINE
  5
176
330
1F
100
AcDbEntity
  8
SLD-0
  6
Continuous
 62
   179
370
    15
100
AcDbLine
 10
58.6719901037
 20
193.7740158277
 30
0.0
 11
55.6719901359
 21
193.7740158277
 31
0.0
  0
LINE
  5
177
330
1F
100
AcDbEntity
  8
SLD-0
  6
Continuous
 62
   179
370
    15
100
AcDbLine
 10
55.6719901359
 20
193.7740158277
 30
0.0
 11
55.6719901359
 21
190.7740171986
 31
0.0
  0
LINE
  5
178
330
1F
100
AcDbEntity
  8
SLD-0
  6
Continuous
 62
   179
370
    15
100
AcDbLine
 10
55.6719901359
 20
190.7740171986
 30
0.0
 11
58.6719901037
 21
190.7740171986
 31
0.0
  0
LINE
  5
179
330
1F
100
AcDbEntity
  8
SLD-0
  6
Continuous
 62
   179
370
    15
100
AcDbLine
 10
58.6719901037
 20
190.7740171986
 30
0.0
 11
58.6719901037
 21
193.7740158277
 31
0.0
  0
LINE
  5
17A
330
1F
100
AcDbEntity
  8
SLD-0
  6
Continuous
 62
   179
370
    15
100
AcDbLine
 10
58.6719901037
 20
189.774015172
 30
0.0
 11
55.6719901359
 21
189.774015172
 31
0.0
  0
LINE
  5
17B
330
1F
100
AcDbEntity
  8
SLD-0
  6
Continuous
 62
   179
370
    15
100
AcDbLine
 10
55.6719901359
 20
189.774015172
 30
0.0
 11
55.6719901359
 21
186.7740165429
 31
0.0
  0
LINE
  5
17C
330
1F
100
AcDbEntity
  8
SLD-0
  6
Continuous
 62
   179
370
    15
100
AcDbLine
 10
55.6719901359
 20
186.7740165429
 30
0.0
 11
58.6719901037
 21
186.7740165429
 31
0.0
  0
LINE
  5
17D
330
1F
100
AcDbEntity
  8
SLD-0
  6
Continuous
 62
   179
370
    15
100
AcDbLine
 10
58.6719901037
 20
186.7740165429
 30
0.0
 11
58.6719901037
 21
189.774015172
 31
0.0
  0
LINE
  5
17E
330
1F
100
AcDbEntity
  8
SLD-0
  6
Continuous
 62
   179
370
    15
100
AcDbLine
 10
82.6719901026
 20
197.2105077789
 30
0.0
 11
82.6719903706
 21
197.7740164833
 31
0.0
  0
LINE
  5
17F
330
1F
100
AcDbEntity
  8
SLD-0
  6
Continuous
 62
   179
370
    15
100
AcDbLine
 10
82.6719903706
 20
197.7740164833
 30
0.0
 11
82.2944891018
 21
197.7740161058
 31
0.0
  0
LINE
  5
180
330
1F
100
AcDbEntity
  8
SLD-0
  6
Continuous
 62
   179
370
    15
100
AcDbLine
 10
82.6719903706
 20
198.7740147846
 30
0.0
 11
81.1084817757
 21
198.7740161058
 31
0.0
  0
LINE
  5
181
330
1F
100
AcDbEntity
  8
SLD-0
  6
Continuous
 62
   179
370
    15
100
AcDbLine
 10
82.6719903706
 20
198.7740147846
 30
0.0
 11
82.6719903706
 21
201.774017139
 31
0.0
  0
LINE
  5
182
330
1F
100
AcDbEntity
  8
SLD-0
  6
Continuous
 62
   179
370
    15
100
AcDbLine
 10
82.6719903706
 20
201.774017139
 30
0.0
 11
79.6719898788
 21
201.774017139
 31
0.0
  0
LINE
  5
183
330
1F
100
AcDbEntity
  8
SLD-0
  6
Continuous
 62
   179
370
    15
100
AcDbLine
 10
79.6719898788
 20
201.774017139
 30
0.0
 11
79.6719901026
 21
199.2426430724
 31
0.0
  0
LINE
  5
184
330
1F
100
AcDbEntity
  8
SLD-0
  6
Continuous
 62
   179
370
    15
100
AcDbLine
 10
78.6719901026
 20
199.2426430724
 30
0.0
 11
78.6719897149
 21
201.774017139
 31
0.0
  0
LINE
  5
185
330
1F
100
AcDbEntity
  8
SLD-0
  6
Continuous
 62
   179
370
    15
100
AcDbLine
 10
78.6719897149
 20
201.774017139
 30
0.0
 11
75.6719892232
 21
201.774017139
 31
0.0
  0
LINE
  5
186
330
1F
100
AcDbEntity
  8
SLD-0
  6
Continuous
 62
   179
370
    15
100
AcDbLine
 10
75.6719892232
 20
201.774017139
 30
0.0
 11
75.6719892232
 21
198.7740147846
 31
0.0
  0
LINE
  5
187
330
1F
100
AcDbEntity
  8
SLD-0
  6
Continuous
 62
   179
370
    15
100
AcDbLine
 10
77.2354984295
 20
198.7740161058
 30
0.0
 11
75.6719892232
 21
198.7740147846
 31
0.0
  0
LINE
  5
188
330
1F
100
AcDbEntity
  8
SLD-0
  6
Continuous
 62
   179
370
    15
100
AcDbLine
 10
76.0494911034
 20
197.7740161058
 30
0.0
 11
75.6719892232
 21
197.7740164833
 31
0.0
  0
LINE
  5
189
330
1F
100
AcDbEntity
  8
SLD-0
  6
Continuous
 62
   179
370
    15
100
AcDbLine
 10
75.6719892232
 20
197.7740164833
 30
0.0
 11
75.6719901026
 21
197.2105077789
 31
0.0
  0
LINE
  5
18A
330
1F
100
AcDbEntity
  8
SLD-0
  6
Continuous
 62
   179
370
    15
100
AcDbLine
 10
75.6719901026
 20
193.3375244327
 30
0.0
 11
75.6719892232
 21
190.7740171986
 31
0.0
  0
LINE
  5
18B
330
1F
100
AcDbEntity
  8
SLD-0
  6
Continuous
 62
   179
370
    15
100
AcDbLine
 10
75.6719892232
 20
190.7740171986
 30
0.0
 11
78.6719897149
 21
190.7740171986
 31
0.0
  0
LINE
  5
18C
330
1F
100
AcDbEntity
  8
SLD-0
  6
Continuous
 62
   179
370
    15
100
AcDbLine
 10
78.6719901026
 20
191.3053891392
 30
0.0
 11
78.6719897149
 21
190.7740171986
 31
0.0
  0
LINE
  5
18D
330
1F
100
AcDbEntity
  8
SLD-0
  6
Continuous
 62
   179
370
    15
100
AcDbLine
 10
79.6719898788
 20
190.7740171986
 30
0.0
 11
79.6719901026
 21
191.3053891392
 31
0.0
  0
LINE
  5
18E
330
1F
100
AcDbEntity
  8
SLD-0
  6
Continuous
 62
   179
370
    15
100
AcDbLine
 10
79.6719898788
 20
190.7740171986
 30
0.0
 11
82.6719903706
 21
190.7740171986
 31
0.0
  0
LINE
  5
18F
330
1F
100
AcDbEntity
  8
SLD-0
  6
Continuous
 62
   179
370
    15
100
AcDbLine
 10
82.6719903706
 20
190.7740171986
 30
0.0
 11
82.6719901026
 21
193.3375244327
 31
0.0
  0
LINE
  5
190
330
1F
100
AcDbEntity
  8
SLD-0
  6
Continuous
 62
   179
370
    15
100
AcDbLine
 10
54.17198989
 20
210.2740194635
 30
0.0
 11
54.17198989
 21
186.2740155296
 31
0.0
  0
LINE
  5
191
330
1F
100
AcDbEntity
  8
SLD-0
  6
Continuous
 62
   179
370
    15
100
AcDbLine
 10
54.17198989
 20
186.2740155296
 30
0.0
 11
104.1719892381
 21
186.2740155296
 31
0.0
  0
LINE
  5
192
330
1F
100
AcDbEntity
  8
SLD-0
  6
Continuous
 62
   179
370
    15
100
AcDbLine
 10
100.4219890891
 20
205.02402
 30
0.0
 11
99.6719912944
 21
205.7740177946
 31
0.0
  0
LINE
  5
193
330
1F
100
AcDbEntity
  8
SLD-0
  6
Continuous
 62
   179
370
    15
100
AcDbLine
 10
102.6719899235
 20
205.7740177946
 30
0.0
 11
101.9219921289
 21
205.02402
 31
0.0
  0
LINE
  5
194
330
1F
100
AcDbEntity
  8
SLD-0
  6
Continuous
 62
   179
370
    15
100
AcDbLine
 10
101.9219921289
 20
205.02402
 30
0.0
 11
100.4219890891
 21
205.02402
 31
0.0
  0
LINE
  5
195
330
1F
100
AcDbEntity
  8
SLD-0
  6
Continuous
 62
   179
370
    15
100
AcDbLine
 10
102.6719899235
 20
202.7740191655
 30
0.0
 11
101.9219921289
 21
203.5240169602
 31
0.0
  0
LINE
  5
196
330
1F
100
AcDbEntity
  8
SLD-0
  6
Continuous
 62
   179
370
    15
100
AcDbLine
 10
101.9219921289
 20
203.5240169602
 30
0.0
 11
101.9219921289
 21
205.02402
 31
0.0
  0
LINE
  5
197
330
1F
100
AcDbEntity
  8
SLD-0
  6
Continuous
 62
   179
370
    15
100
AcDbLine
 10
102.6719899235
 20
209.7740184503
 30
0.0
 11
101.9219921289
 21
209.0240206556
 31
0.0
  0
LINE
  5
198
330
1F
100
AcDbEntity
  8
SLD-0
  6
Continuous
 62
   179
370
    15
100
AcDbLine
 10
102.6719899235
 20
206.7740198212
 30
0.0
 11
101.9219921289
 21
207.5240176158
 31
0.0
  0
LINE
  5
199
330
1F
100
AcDbEntity
  8
SLD-0
  6
Continuous
 62
   179
370
    15
100
AcDbLine
 10
101.9219921289
 20
207.5240176158
 30
0.0
 11
101.9219921289
 21
209.0240206556
 31
0.0
  0
LINE
  5
19A
330
1F
100
AcDbEntity
  8
SLD-0
  6
Continuous
 62
   179
370
    15
100
AcDbLine
 10
99.6719912944
 20
202.7740191655
 30
0.0
 11
100.4219890891
 21
203.5240169602
 31
0.0
  0
LINE
  5
19B
330
1F
100
AcDbEntity
  8
SLD-0
  6
Continuous
 62
   179
370
    15
100
AcDbLine
 10
100.4219890891
 20
205.02402
 30
0.0
 11
100.4219890891
 21
203.5240169602
 31
0.0
  0
LINE
  5
19C
330
1F
100
AcDbEntity
  8
SLD-0
  6
Continuous
 62
   179
370
    15
100
AcDbLine
 10
99.6719912944
 20
206.7740198212
 30
0.0
 11
100.4219890891
 21
207.5240176158
 31
0.0
  0
LINE
  5
19D
330
1F
100
AcDbEntity
  8
SLD-0
  6
Continuous
 62
   179
370
    15
100
AcDbLine
 10
100.4219890891
 20
207.5240176158
 30
0.0
 11
101.9219921289
 21
207.5240176158
 31
0.0
  0
LINE
  5
19E
330
1F
100
AcDbEntity
  8
SLD-0
  6
Continuous
 62
   179
370
    15
100
AcDbLine
 10
100.4219890891
 20
209.0240206556
 30
0.0
 11
99.6719912944
 21
209.7740184503
 31
0.0
  0
LINE
  5
19F
330
1F
100
AcDbEntity
  8
SLD-0
  6
Continuous
 62
   179
370
    15
100
AcDbLine
 10
101.9219921289
 20
209.0240206556
 30
0.0
 11
100.4219890891
 21
209.0240206556
 31
0.0
  0
LINE
  5
1A0
330
1F
100
AcDbEntity
  8
SLD-0
  6
Continuous
 62
   179
370
    15
100
AcDbLine
 10
100.4219890891
 20
209.0240206556
 30
0.0
 11
100.4219890891
 21
207.5240176158
 31
0.0
  0
LINE
  5
1A1
330
1F
100
AcDbEntity
  8
SLD-0
  6
Continuous
 62
   179
370
    15
100
AcDbLine
 10
96.4219884334
 20
205.02402
 30
0.0
 11
95.6719906388
 21
205.7740177946
 31
0.0
  0
LINE
  5
1A2
330
1F
100
AcDbEntity
  8
SLD-0
  6
Continuous
 62
   179
370
    15
100
AcDbLine
 10
98.6719892679
 20
205.7740177946
 30
0.0
 11
97.9219914733
 21
205.02402
 31
0.0
  0
LINE
  5
1A3
330
1F
100
AcDbEntity
  8
SLD-0
  6
Continuous
 62
   179
370
    15
100
AcDbLine
 10
97.9219914733
 20
205.02402
 30
0.0
 11
96.4219884334
 21
205.02402
 31
0.0
  0
LINE
  5
1A4
330
1F
100
AcDbEntity
  8
SLD-0
  6
Continuous
 62
   179
370
    15
100
AcDbLine
 10
98.6719892679
 20
202.7740191655
 30
0.0
 11
97.9219914733
 21
203.5240169602
 31
0.0
  0
LINE
  5
1A5
330
1F
100
AcDbEntity
  8
SLD-0
  6
Continuous
 62
   179
370
    15
100
AcDbLine
 10
97.9219914733
 20
203.5240169602
 30
0.0
 11
97.9219914733
 21
205.02402
 31
0.0
  0
LINE
  5
1A6
330
1F
100
AcDbEntity
  8
SLD-0
  6
Continuous
 62
   179
370
    15
100
AcDbLine
 10
96.4219884334
 20
209.0240206556
 30
0.0
 11
95.6719906388
 21
209.7740184503
 31
0.0
  0
LINE
  5
1A7
330
1F
100
AcDbEntity
  8
SLD-0
  6
Continuous
 62
   179
370
    15
100
AcDbLine
 10
98.6719892679
 20
209.7740184503
 30
0.0
 11
97.9219914733
 21
209.0240206556
 31
0.0
  0
LINE
  5
1A8
330
1F
100
AcDbEntity
  8
SLD-0
  6
Continuous
 62
   179
370
    15
100
AcDbLine
 10
97.9219914733
 20
209.0240206556
 30
0.0
 11
96.4219884334
 21
209.0240206556
 31
0.0
  0
LINE
  5
1A9
330
1F
100
AcDbEntity
  8
SLD-0
  6
Continuous
 62
   179
370
    15
100
AcDbLine
 10
98.6719892679
 20
206.7740198212
 30
0.0
 11
97.9219914733
 21
207.5240176158
 31
0.0
  0
LINE
  5
1AA
330
1F
100
AcDbEntity
  8
SLD-0
  6
Continuous
 62
   179
370
    15
100
AcDbLine
 10
95.6719906388
 20
206.7740198212
 30
0.0
 11
96.4219884334
 21
207.5240176158
 31
0.0
  0
LINE
  5
1AB
330
1F
100
AcDbEntity
  8
SLD-0
  6
Continuous
 62
   179
370
    15
100
AcDbLine
 10
96.4219884334
 20
207.5240176158
 30
0.0
 11
97.9219914733
 21
207.5240176158
 31
0.0
  0
LINE
  5
1AC
330
1F
100
AcDbEntity
  8
SLD-0
  6
Continuous
 62
   179
370
    15
100
AcDbLine
 10
97.9219914733
 20
207.5240176158
 30
0.0
 11
97.9219914733
 21
209.0240206556
 31
0.0
  0
LINE
  5
1AD
330
1F
100
AcDbEntity
  8
SLD-0
  6
Continuous
 62
   179
370
    15
100
AcDbLine
 10
95.6719906388
 20
202.7740191655
 30
0.0
 11
96.4219884334
 21
203.5240169602
 31
0.0
  0
LINE
  5
1AE
330
1F
100
AcDbEntity
  8
SLD-0
  6
Continuous
 62
   179
370
    15
100
AcDbLine
 10
96.4219884334
 20
205.02402
 30
0.0
 11
96.4219884334
 21
203.5240169602
 31
0.0
  0
LINE
  5
1AF
330
1F
100
AcDbEntity
  8
SLD-0
  6
Continuous
 62
   179
370
    15
100
AcDbLine
 10
96.4219884334
 20
209.0240206556
 30
0.0
 11
96.4219884334
 21
207.5240176158
 31
0.0
  0
LINE
  5
1B0
330
1F
100
AcDbEntity
  8
SLD-0
  6
Continuous
 62
   179
370
    15
100
AcDbLine
 10
92.4219877778
 20
205.02402
 30
0.0
 11
91.6719899831
 21
205.7740177946
 31
0.0
  0
LINE
  5
1B1
330
1F
100
AcDbEntity
  8
SLD-0
  6
Continuous
 62
   179
370
    15
100
AcDbLine
 10
94.6719886122
 20
205.7740177946
 30
0.0
 11
93.9219908176
 21
205.02402
 31
0.0
  0
LINE
  5
1B2
330
1F
100
AcDbEntity
  8
SLD-0
  6
Continuous
 62
   179
370
    15
100
AcDbLine
 10
93.9219908176
 20
205.02402
 30
0.0
 11
92.4219877778
 21
205.02402
 31
0.0
  0
LINE
  5
1B3
330
1F
100
AcDbEntity
  8
SLD-0
  6
Continuous
 62
   179
370
    15
100
AcDbLine
 10
94.6719886122
 20
202.7740191655
 30
0.0
 11
93.9219908176
 21
203.5240169602
 31
0.0
  0
LINE
  5
1B4
330
1F
100
AcDbEntity
  8
SLD-0
  6
Continuous
 62
   179
370
    15
100
AcDbLine
 10
93.9219908176
 20
203.5240169602
 30
0.0
 11
93.9219908176
 21
205.02402
 31
0.0
  0
LINE
  5
1B5
330
1F
100
AcDbEntity
  8
SLD-0
  6
Continuous
 62
   179
370
    15
100
AcDbLine
 10
94.6719886122
 20
209.7740184503
 30
0.0
 11
93.9219908176
 21
209.0240206556
 31
0.0
  0
LINE
  5
1B6
330
1F
100
AcDbEntity
  8
SLD-0
  6
Continuous
 62
   179
370
    15
100
AcDbLine
 10
94.6719886122
 20
206.7740198212
 30
0.0
 11
93.9219908176
 21
207.5240176158
 31
0.0
  0
LINE
  5
1B7
330
1F
100
AcDbEntity
  8
SLD-0
  6
Continuous
 62
   179
370
    15
100
AcDbLine
 10
93.9219908176
 20
207.5240176158
 30
0.0
 11
93.9219908176
 21
209.0240206556
 31
0.0
  0
LINE
  5
1B8
330
1F
100
AcDbEntity
  8
SLD-0
  6
Continuous
 62
   179
370
    15
100
AcDbLine
 10
92.4219877778
 20
209.0240206556
 30
0.0
 11
91.6719899831
 21
209.7740184503
 31
0.0
  0
LINE
  5
1B9
330
1F
100
AcDbEntity
  8
SLD-0
  6
Continuous
 62
   179
370
    15
100
AcDbLine
 10
93.9219908176
 20
209.0240206556
 30
0.0
 11
92.4219877778
 21
209.0240206556
 31
0.0
  0
LINE
  5
1BA
330
1F
100
AcDbEntity
  8
SLD-0
  6
Continuous
 62
   179
370
    15
100
AcDbLine
 10
91.6719899831
 20
206.7740198212
 30
0.0
 11
92.4219877778
 21
207.5240176158
 31
0.0
  0
LINE
  5
1BB
330
1F
100
AcDbEntity
  8
SLD-0
  6
Continuous
 62
   179
370
    15
100
AcDbLine
 10
92.4219877778
 20
207.5240176158
 30
0.0
 11
93.9219908176
 21
207.5240176158
 31
0.0
  0
LINE
  5
1BC
330
1F
100
AcDbEntity
  8
SLD-0
  6
Continuous
 62
   179
370
    15
100
AcDbLine
 10
91.6719899831
 20
202.7740191655
 30
0.0
 11
92.4219877778
 21
203.5240169602
 31
0.0
  0
LINE
  5
1BD
330
1F
100
AcDbEntity
  8
SLD-0
  6
Continuous
 62
   179
370
    15
100
AcDbLine
 10
92.4219877778
 20
205.02402
 30
0.0
 11
92.4219877778
 21
203.5240169602
 31
0.0
  0
LINE
  5
1BE
330
1F
100
AcDbEntity
  8
SLD-0
  6
Continuous
 62
   179
370
    15
100
AcDbLine
 10
92.4219877778
 20
209.0240206556
 30
0.0
 11
92.4219877778
 21
207.5240176158
 31
0.0
  0
LINE
  5
1BF
330
1F
100
AcDbEntity
  8
SLD-0
  6
Continuous
 62
   179
370
    15
100
AcDbLine
 10
88.4219889848
 20
205.02402
 30
0.0
 11
87.6719893275
 21
205.7740177946
 31
0.0
  0
LINE
  5
1C0
330
1F
100
AcDbEntity
  8
SLD-0
  6
Continuous
 62
   179
370
    15
100
AcDbLine
 10
90.6719898192
 20
205.7740177946
 30
0.0
 11
89.9219920246
 21
205.02402
 31
0.0
  0
LINE
  5
1C1
330
1F
100
AcDbEntity
  8
SLD-0
  6
Continuous
 62
   179
370
    15
100
AcDbLine
 10
89.9219920246
 20
205.02402
 30
0.0
 11
88.4219889848
 21
205.02402
 31
0.0
  0
LINE
  5
1C2
330
1F
100
AcDbEntity
  8
SLD-0
  6
Continuous
 62
   179
370
    15
100
AcDbLine
 10
90.6719898192
 20
202.7740191655
 30
0.0
 11
89.9219920246
 21
203.5240169602
 31
0.0
  0
LINE
  5
1C3
330
1F
100
AcDbEntity
  8
SLD-0
  6
Continuous
 62
   179
370
    15
100
AcDbLine
 10
89.9219920246
 20
203.5240169602
 30
0.0
 11
89.9219920246
 21
205.02402
 31
0.0
  0
LINE
  5
1C4
330
1F
100
AcDbEntity
  8
SLD-0
  6
Continuous
 62
   179
370
    15
100
AcDbLine
 10
88.4219889848
 20
209.0240206556
 30
0.0
 11
87.6719893275
 21
209.7740184503
 31
0.0
  0
LINE
  5
1C5
330
1F
100
AcDbEntity
  8
SLD-0
  6
Continuous
 62
   179
370
    15
100
AcDbLine
 10
90.6719898192
 20
209.7740184503
 30
0.0
 11
89.9219920246
 21
209.0240206556
 31
0.0
  0
LINE
  5
1C6
330
1F
100
AcDbEntity
  8
SLD-0
  6
Continuous
 62
   179
370
    15
100
AcDbLine
 10
89.9219920246
 20
209.0240206556
 30
0.0
 11
88.4219889848
 21
209.0240206556
 31
0.0
  0
LINE
  5
1C7
330
1F
100
AcDbEntity
  8
SLD-0
  6
Continuous
 62
   179
370
    15
100
AcDbLine
 10
90.6719898192
 20
206.7740198212
 30
0.0
 11
89.9219920246
 21
207.5240176158
 31
0.0
  0
LINE
  5
1C8
330
1F
100
AcDbEntity
  8
SLD-0
  6
Continuous
 62
   179
370
    15
100
AcDbLine
 10
87.6719893275
 20
206.7740198212
 30
0.0
 11
88.4219889848
 21
207.5240176158
 31
0.0
  0
LINE
  5
1C9
330
1F
100
AcDbEntity
  8
SLD-0
  6
Continuous
 62
   179
370
    15
100
AcDbLine
 10
88.4219889848
 20
207.5240176158
 30
0.0
 11
89.9219920246
 21
207.5240176158
 31
0.0
  0
LINE
  5
1CA
330
1F
100
AcDbEntity
  8
SLD-0
  6
Continuous
 62
   179
370
    15
100
AcDbLine
 10
89.9219920246
 20
207.5240176158
 30
0.0
 11
89.9219920246
 21
209.0240206556
 31
0.0
  0
LINE
  5
1CB
330
1F
100
AcDbEntity
  8
SLD-0
  6
Continuous
 62
   179
370
    15
100
AcDbLine
 10
68.4219885005
 20
205.02402
 30
0.0
 11
67.6719897745
 21
205.7740177946
 31
0.0
  0
LINE
  5
1CC
330
1F
100
AcDbEntity
  8
SLD-0
  6
Continuous
 62
   179
370
    15
100
AcDbLine
 10
70.6719902663
 20
205.7740177946
 30
0.0
 11
69.9219915403
 21
205.02402
 31
0.0
  0
LINE
  5
1CD
330
1F
100
AcDbEntity
  8
SLD-0
  6
Continuous
 62
   179
370
    15
100
AcDbLine
 10
69.9219915403
 20
205.02402
 30
0.0
 11
68.4219885005
 21
205.02402
 31
0.0
  0
LINE
  5
1CE
330
1F
100
AcDbEntity
  8
SLD-0
  6
Continuous
 62
   179
370
    15
100
AcDbLine
 10
70.6719902663
 20
206.7740198212
 30
0.0
 11
69.9219915403
 21
207.5240176158
 31
0.0
  0
LINE
  5
1CF
330
1F
100
AcDbEntity
  8
SLD-0
  6
Continuous
 62
   179
370
    15
100
AcDbLine
 10
67.6719897745
 20
206.7740198212
 30
0.0
 11
68.4219885005
 21
207.5240176158
 31
0.0
  0
LINE
  5
1D0
330
1F
100
AcDbEntity
  8
SLD-0
  6
Continuous
 62
   179
370
    15
100
AcDbLine
 10
68.4219885005
 20
207.5240176158
 30
0.0
 11
69.9219915403
 21
207.5240176158
 31
0.0
  0
LINE
  5
1D1
330
1F
100
AcDbEntity
  8
SLD-0
  6
Continuous
 62
   179
370
    15
100
AcDbLine
 10
68.4219885005
 20
209.0240206556
 30
0.0
 11
67.6719897745
 21
209.7740184503
 31
0.0
  0
LINE
  5
1D2
330
1F
100
AcDbEntity
  8
SLD-0
  6
Continuous
 62
   179
370
    15
100
AcDbLine
 10
70.6719902663
 20
209.7740184503
 30
0.0
 11
69.9219915403
 21
209.0240206556
 31
0.0
  0
LINE
  5
1D3
330
1F
100
AcDbEntity
  8
SLD-0
  6
Continuous
 62
   179
370
    15
100
AcDbLine
 10
69.9219915403
 20
209.0240206556
 30
0.0
 11
68.4219885005
 21
209.0240206556
 31
0.0
  0
LINE
  5
1D4
330
1F
100
AcDbEntity
  8
SLD-0
  6
Continuous
 62
   179
370
    15
100
AcDbLine
 10
67.6719897745
 20
202.7740191655
 30
0.0
 11
68.4219885005
 21
203.5240169602
 31
0.0
  0
LINE
  5
1D5
330
1F
100
AcDbEntity
  8
SLD-0
  6
Continuous
 62
   179
370
    15
100
AcDbLine
 10
68.4219885005
 20
205.02402
 30
0.0
 11
68.4219885005
 21
203.5240169602
 31
0.0
  0
LINE
  5
1D6
330
1F
100
AcDbEntity
  8
SLD-0
  6
Continuous
 62
   179
370
    15
100
AcDbLine
 10
68.4219885005
 20
209.0240206556
 30
0.0
 11
68.4219885005
 21
207.5240176158
 31
0.0
  0
LINE
  5
1D7
330
1F
100
AcDbEntity
  8
SLD-0
  6
Continuous
 62
   179
370
    15
100
AcDbLine
 10
66.6719900763
 20
205.7740177946
 30
0.0
 11
65.921991816
 21
205.02402
 31
0.0
  0
LINE
  5
1D8
330
1F
100
AcDbEntity
  8
SLD-0
  6
Continuous
 62
   179
370
    15
100
AcDbLine
 10
66.6719900763
 20
202.7740191655
 30
0.0
 11
65.921991816
 21
203.5240169602
 31
0.0
  0
LINE
  5
1D9
330
1F
100
AcDbEntity
  8
SLD-0
  6
Continuous
 62
   179
370
    15
100
AcDbLine
 10
65.921991816
 20
203.5240169602
 30
0.0
 11
65.921991816
 21
205.02402
 31
0.0
  0
LINE
  5
1DA
330
1F
100
AcDbEntity
  8
SLD-0
  6
Continuous
 62
   179
370
    15
100
AcDbLine
 10
64.4219883105
 20
205.02402
 30
0.0
 11
63.6719900502
 21
205.7740177946
 31
0.0
  0
LINE
  5
1DB
330
1F
100
AcDbEntity
  8
SLD-0
  6
Continuous
 62
   179
370
    15
100
AcDbLine
 10
65.921991816
 20
205.02402
 30
0.0
 11
64.4219883105
 21
205.02402
 31
0.0
  0
LINE
  5
1DC
330
1F
100
AcDbEntity
  8
SLD-0
  6
Continuous
 62
   179
370
    15
100
AcDbLine
 10
64.4219883105
 20
209.0240206556
 30
0.0
 11
63.6719900502
 21
209.7740184503
 31
0.0
  0
LINE
  5
1DD
330
1F
100
AcDbEntity
  8
SLD-0
  6
Continuous
 62
   179
370
    15
100
AcDbLine
 10
66.6719900763
 20
209.7740184503
 30
0.0
 11
65.921991816
 21
209.0240206556
 31
0.0
  0
LINE
  5
1DE
330
1F
100
AcDbEntity
  8
SLD-0
  6
Continuous
 62
   179
370
    15
100
AcDbLine
 10
65.921991816
 20
209.0240206556
 30
0.0
 11
64.4219883105
 21
209.0240206556
 31
0.0
  0
LINE
  5
1DF
330
1F
100
AcDbEntity
  8
SLD-0
  6
Continuous
 62
   179
370
    15
100
AcDbLine
 10
66.6719900763
 20
206.7740198212
 30
0.0
 11
65.921991816
 21
207.5240176158
 31
0.0
  0
LINE
  5
1E0
330
1F
100
AcDbEntity
  8
SLD-0
  6
Continuous
 62
   179
370
    15
100
AcDbLine
 10
65.921991816
 20
207.5240176158
 30
0.0
 11
65.921991816
 21
209.0240206556
 31
0.0
  0
LINE
  5
1E1
330
1F
100
AcDbEntity
  8
SLD-0
  6
Continuous
 62
   179
370
    15
100
AcDbLine
 10
63.6719900502
 20
206.7740198212
 30
0.0
 11
64.4219883105
 21
207.5240176158
 31
0.0
  0
LINE
  5
1E2
330
1F
100
AcDbEntity
  8
SLD-0
  6
Continuous
 62
   179
370
    15
100
AcDbLine
 10
64.4219883105
 20
207.5240176158
 30
0.0
 11
65.921991816
 21
207.5240176158
 31
0.0
  0
LINE
  5
1E3
330
1F
100
AcDbEntity
  8
SLD-0
  6
Continuous
 62
   179
370
    15
100
AcDbLine
 10
63.6719900502
 20
202.7740191655
 30
0.0
 11
64.4219883105
 21
203.5240169602
 31
0.0
  0
LINE
  5
1E4
330
1F
100
AcDbEntity
  8
SLD-0
  6
Continuous
 62
   179
370
    15
100
AcDbLine
 10
64.4219883105
 20
205.02402
 30
0.0
 11
64.4219883105
 21
203.5240169602
 31
0.0
  0
LINE
  5
1E5
330
1F
100
AcDbEntity
  8
SLD-0
  6
Continuous
 62
   179
370
    15
100
AcDbLine
 10
64.4219883105
 20
209.0240206556
 30
0.0
 11
64.4219883105
 21
207.5240176158
 31
0.0
  0
LINE
  5
1E6
330
1F
100
AcDbEntity
  8
SLD-0
  6
Continuous
 62
   179
370
    15
100
AcDbLine
 10
60.4219882951
 20
205.02402
 30
0.0
 11
59.6719901003
 21
205.7740177946
 31
0.0
  0
LINE
  5
1E7
330
1F
100
AcDbEntity
  8
SLD-0
  6
Continuous
 62
   179
370
    15
100
AcDbLine
 10
62.6719901191
 20
205.7740177946
 30
0.0
 11
61.9219918588
 21
205.02402
 31
0.0
  0
LINE
  5
1E8
330
1F
100
AcDbEntity
  8
SLD-0
  6
Continuous
 62
   179
370
    15
100
AcDbLine
 10
61.9219918588
 20
205.02402
 30
0.0
 11
60.4219882951
 21
205.02402
 31
0.0
  0
LINE
  5
1E9
330
1F
100
AcDbEntity
  8
SLD-0
  6
Continuous
 62
   179
370
    15
100
AcDbLine
 10
62.6719901191
 20
202.7740191655
 30
0.0
 11
61.9219918588
 21
203.5240169602
 31
0.0
  0
LINE
  5
1EA
330
1F
100
AcDbEntity
  8
SLD-0
  6
Continuous
 62
   179
370
    15
100
AcDbLine
 10
61.9219918588
 20
203.5240169602
 30
0.0
 11
61.9219918588
 21
205.02402
 31
0.0
  0
LINE
  5
1EB
330
1F
100
AcDbEntity
  8
SLD-0
  6
Continuous
 62
   179
370
    15
100
AcDbLine
 10
62.6719901191
 20
209.7740184503
 30
0.0
 11
61.9219918588
 21
209.0240206556
 31
0.0
  0
LINE
  5
1EC
330
1F
100
AcDbEntity
  8
SLD-0
  6
Continuous
 62
   179
370
    15
100
AcDbLine
 10
62.6719901191
 20
206.7740198212
 30
0.0
 11
61.9219918588
 21
207.5240176158
 31
0.0
  0
LINE
  5
1ED
330
1F
100
AcDbEntity
  8
SLD-0
  6
Continuous
 62
   179
370
    15
100
AcDbLine
 10
61.9219918588
 20
207.5240176158
 30
0.0
 11
61.9219918588
 21
209.0240206556
 31
0.0
  0
LINE
  5
1EE
330
1F
100
AcDbEntity
  8
SLD-0
  6
Continuous
 62
   179
370
    15
100
AcDbLine
 10
59.6719901003
 20
206.7740198212
 30
0.0
 11
60.4219882951
 21
207.5240176158
 31
0.0
  0
LINE
  5
1EF
330
1F
100
AcDbEntity
  8
SLD-0
  6
Continuous
 62
   179
370
    15
100
AcDbLine
 10
60.4219882951
 20
207.5240176158
 30
0.0
 11
61.9219918588
 21
207.5240176158
 31
0.0
  0
LINE
  5
1F0
330
1F
100
AcDbEntity
  8
SLD-0
  6
Continuous
 62
   179
370
    15
100
AcDbLine
 10
60.4219882951
 20
209.0240206556
 30
0.0
 11
59.6719901003
 21
209.7740184503
 31
0.0
  0
LINE
  5
1F1
330
1F
100
AcDbEntity
  8
SLD-0
  6
Continuous
 62
   179
370
    15
100
AcDbLine
 10
61.9219918588
 20
209.0240206556
 30
0.0
 11
60.4219882951
 21
209.0240206556
 31
0.0
  0
LINE
  5
1F2
330
1F
100
AcDbEntity
  8
SLD-0
  6
Continuous
 62
   179
370
    15
100
AcDbLine
 10
59.6719901003
 20
202.7740191655
 30
0.0
 11
60.4219882951
 21
203.5240169602
 31
0.0
  0
LINE
  5
1F3
330
1F
100
AcDbEntity
  8
SLD-0
  6
Continuous
 62
   179
370
    15
100
AcDbLine
 10
60.4219882951
 20
205.02402
 30
0.0
 11
60.4219882951
 21
203.5240169602
 31
0.0
  0
LINE
  5
1F4
330
1F
100
AcDbEntity
  8
SLD-0
  6
Continuous
 62
   179
370
    15
100
AcDbLine
 10
60.4219882951
 20
209.0240206556
 30
0.0
 11
60.4219882951
 21
207.5240176158
 31
0.0
  0
LINE
  5
1F5
330
1F
100
AcDbEntity
  8
SLD-0
  6
Continuous
 62
   179
370
    15
100
AcDbLine
 10
56.4219883962
 20
205.02402
 30
0.0
 11
55.6719901359
 21
205.7740177946
 31
0.0
  0
LINE
  5
1F6
330
1F
100
AcDbEntity
  8
SLD-0
  6
Continuous
 62
   179
370
    15
100
AcDbLine
 10
58.6719901037
 20
205.7740177946
 30
0.0
 11
57.9219919017
 21
205.02402
 31
0.0
  0
LINE
  5
1F7
330
1F
100
AcDbEntity
  8
SLD-0
  6
Continuous
 62
   179
370
    15
100
AcDbLine
 10
57.9219919017
 20
205.02402
 30
0.0
 11
56.4219883962
 21
205.02402
 31
0.0
  0
LINE
  5
1F8
330
1F
100
AcDbEntity
  8
SLD-0
  6
Continuous
 62
   179
370
    15
100
AcDbLine
 10
58.6719901037
 20
202.7740191655
 30
0.0
 11
57.9219919017
 21
203.5240169602
 31
0.0
  0
LINE
  5
1F9
330
1F
100
AcDbEntity
  8
SLD-0
  6
Continuous
 62
   179
370
    15
100
AcDbLine
 10
57.9219919017
 20
203.5240169602
 30
0.0
 11
57.9219919017
 21
205.02402
 31
0.0
  0
LINE
  5
1FA
330
1F
100
AcDbEntity
  8
SLD-0
  6
Continuous
 62
   179
370
    15
100
AcDbLine
 10
58.6719901037
 20
209.7740184503
 30
0.0
 11
57.9219919017
 21
209.0240206556
 31
0.0
  0
LINE
  5
1FB
330
1F
100
AcDbEntity
  8
SLD-0
  6
Continuous
 62
   179
370
    15
100
AcDbLine
 10
58.6719901037
 20
206.7740198212
 30
0.0
 11
57.9219919017
 21
207.5240176158
 31
0.0
  0
LINE
  5
1FC
330
1F
100
AcDbEntity
  8
SLD-0
  6
Continuous
 62
   179
370
    15
100
AcDbLine
 10
57.9219919017
 20
207.5240176158
 30
0.0
 11
57.9219919017
 21
209.0240206556
 31
0.0
  0
LINE
  5
1FD
330
1F
100
AcDbEntity
  8
SLD-0
  6
Continuous
 62
   179
370
    15
100
AcDbLine
 10
55.6719901359
 20
206.7740198212
 30
0.0
 11
56.4219883962
 21
207.5240176158
 31
0.0
  0
LINE
  5
1FE
330
1F
100
AcDbEntity
  8
SLD-0
  6
Continuous
 62
   179
370
    15
100
AcDbLine
 10
56.4219883962
 20
207.5240176158
 30
0.0
 11
57.9219919017
 21
207.5240176158
 31
0.0
  0
LINE
  5
1FF
330
1F
100
AcDbEntity
  8
SLD-0
  6
Continuous
 62
   179
370
    15
100
AcDbLine
 10
56.4219883962
 20
209.0240206556
 30
0.0
 11
55.6719901359
 21
209.7740184503
 31
0.0
  0
LINE
  5
200
330
1F
100
AcDbEntity
  8
SLD-0
  6
Continuous
 62
   179
370
    15
100
AcDbLine
 10
57.9219919017
 20
209.0240206556
 30
0.0
 11
56.4219883962
 21
209.0240206556
 31
0.0
  0
LINE
  5
201
330
1F
100
AcDbEntity
  8
SLD-0
  6
Continuous
 62
   179
370
    15
100
AcDbLine
 10
55.6719901359
 20
202.7740191655
 30
0.0
 11
56.4219883962
 21
203.5240169602
 31
0.0
  0
LINE
  5
202
330
1F
100
AcDbEntity
  8
SLD-0
  6
Continuous
 62
   179
370
    15
100
AcDbLine
 10
56.4219883962
 20
205.02402
 30
0.0
 11
56.4219883962
 21
203.5240169602
 31
0.0
  0
LINE
  5
203
330
1F
100
AcDbEntity
  8
SLD-0
  6
Continuous
 62
   179
370
    15
100
AcDbLine
 10
56.4219883962
 20
209.0240206556
 30
0.0
 11
56.4219883962
 21
207.5240176158
 31
0.0
  0
LINE
  5
204
330
1F
100
AcDbEntity
  8
SLD-0
  6
Continuous
 62
   179
370
    15
100
AcDbLine
 10
102.6719899235
 20
194.7740178542
 30
0.0
 11
101.9219921289
 21
195.5240156489
 31
0.0
  0
LINE
  5
205
330
1F
100
AcDbEntity
  8
SLD-0
  6
Continuous
 62
   179
370
    15
100
AcDbLine
 10
99.6719912944
 20
194.7740178542
 30
0.0
 11
100.4219890891
 21
195.5240156489
 31
0.0
  0
LINE
  5
206
330
1F
100
AcDbEntity
  8
SLD-0
  6
Continuous
 62
   179
370
    15
100
AcDbLine
 10
100.4219890891
 20
195.5240156489
 30
0.0
 11
101.9219921289
 21
195.5240156489
 31
0.0
  0
LINE
  5
207
330
1F
100
AcDbEntity
  8
SLD-0
  6
Continuous
 62
   179
370
    15
100
AcDbLine
 10
100.4219890891
 20
197.0240186887
 30
0.0
 11
99.6719912944
 21
197.7740164833
 31
0.0
  0
LINE
  5
208
330
1F
100
AcDbEntity
  8
SLD-0
  6
Continuous
 62
   179
370
    15
100
AcDbLine
 10
100.4219890891
 20
197.0240186887
 30
0.0
 11
100.4219890891
 21
195.5240156489
 31
0.0
  0
LINE
  5
209
330
1F
100
AcDbEntity
  8
SLD-0
  6
Continuous
 62
   179
370
    15
100
AcDbLine
 10
98.6719892679
 20
194.7740178542
 30
0.0
 11
97.9219914733
 21
195.5240156489
 31
0.0
  0
LINE
  5
20A
330
1F
100
AcDbEntity
  8
SLD-0
  6
Continuous
 62
   179
370
    15
100
AcDbLine
 10
95.6719906388
 20
194.7740178542
 30
0.0
 11
96.4219884334
 21
195.5240156489
 31
0.0
  0
LINE
  5
20B
330
1F
100
AcDbEntity
  8
SLD-0
  6
Continuous
 62
   179
370
    15
100
AcDbLine
 10
96.4219884334
 20
195.5240156489
 30
0.0
 11
97.9219914733
 21
195.5240156489
 31
0.0
  0
LINE
  5
20C
330
1F
100
AcDbEntity
  8
SLD-0
  6
Continuous
 62
   179
370
    15
100
AcDbLine
 10
102.6719899235
 20
189.774015172
 30
0.0
 11
101.9219921289
 21
189.0240173774
 31
0.0
  0
LINE
  5
20D
330
1F
100
AcDbEntity
  8
SLD-0
  6
Continuous
 62
   179
370
    15
100
AcDbLine
 10
102.6719899235
 20
186.7740165429
 30
0.0
 11
101.9219921289
 21
187.5240143376
 31
0.0
  0
LINE
  5
20E
330
1F
100
AcDbEntity
  8
SLD-0
  6
Continuous
 62
   179
370
    15
100
AcDbLine
 10
101.9219921289
 20
187.5240143376
 30
0.0
 11
101.9219921289
 21
189.0240173774
 31
0.0
  0
LINE
  5
20F
330
1F
100
AcDbEntity
  8
SLD-0
  6
Continuous
 62
   179
370
    15
100
AcDbLine
 10
96.4219884334
 20
197.0240186887
 30
0.0
 11
95.6719906388
 21
197.7740164833
 31
0.0
  0
LINE
  5
210
330
1F
100
AcDbEntity
  8
SLD-0
  6
Continuous
 62
   179
370
    15
100
AcDbLine
 10
96.4219884334
 20
197.0240186887
 30
0.0
 11
96.4219884334
 21
195.5240156489
 31
0.0
  0
LINE
  5
211
330
1F
100
AcDbEntity
  8
SLD-0
  6
Continuous
 62
   179
370
    15
100
AcDbLine
 10
99.6719912944
 20
186.7740165429
 30
0.0
 11
100.4219890891
 21
187.5240143376
 31
0.0
  0
LINE
  5
212
330
1F
100
AcDbEntity
  8
SLD-0
  6
Continuous
 62
   179
370
    15
100
AcDbLine
 10
100.4219890891
 20
187.5240143376
 30
0.0
 11
101.9219921289
 21
187.5240143376
 31
0.0
  0
LINE
  5
213
330
1F
100
AcDbEntity
  8
SLD-0
  6
Continuous
 62
   179
370
    15
100
AcDbLine
 10
102.6719899235
 20
198.7740147846
 30
0.0
 11
101.9219921289
 21
199.5240125792
 31
0.0
  0
LINE
  5
214
330
1F
100
AcDbEntity
  8
SLD-0
  6
Continuous
 62
   179
370
    15
100
AcDbLine
 10
99.6719912944
 20
198.7740147846
 30
0.0
 11
100.4219890891
 21
199.5240125792
 31
0.0
  0
LINE
  5
215
330
1F
100
AcDbEntity
  8
SLD-0
  6
Continuous
 62
   179
370
    15
100
AcDbLine
 10
100.4219890891
 20
199.5240125792
 30
0.0
 11
101.9219921289
 21
199.5240125792
 31
0.0
  0
LINE
  5
216
330
1F
100
AcDbEntity
  8
SLD-0
  6
Continuous
 62
   179
370
    15
100
AcDbLine
 10
100.4219890891
 20
193.024018033
 30
0.0
 11
99.6719912944
 21
193.7740158277
 31
0.0
  0
LINE
  5
217
330
1F
100
AcDbEntity
  8
SLD-0
  6
Continuous
 62
   179
370
    15
100
AcDbLine
 10
102.6719899235
 20
193.7740158277
 30
0.0
 11
101.9219921289
 21
193.024018033
 31
0.0
  0
LINE
  5
218
330
1F
100
AcDbEntity
  8
SLD-0
  6
Continuous
 62
   179
370
    15
100
AcDbLine
 10
101.9219921289
 20
193.024018033
 30
0.0
 11
100.4219890891
 21
193.024018033
 31
0.0
  0
LINE
  5
219
330
1F
100
AcDbEntity
  8
SLD-0
  6
Continuous
 62
   179
370
    15
100
AcDbLine
 10
100.4219890891
 20
203.5240169602
 30
0.0
 11
101.9219921289
 21
203.5240169602
 31
0.0
  0
LINE
  5
21A
330
1F
100
AcDbEntity
  8
SLD-0
  6
Continuous
 62
   179
370
    15
100
AcDbLine
 10
100.4219890891
 20
201.0240193443
 30
0.0
 11
99.6719912944
 21
201.774017139
 31
0.0
  0
LINE
  5
21B
330
1F
100
AcDbEntity
  8
SLD-0
  6
Continuous
 62
   179
370
    15
100
AcDbLine
 10
102.6719899235
 20
201.774017139
 30
0.0
 11
101.9219921289
 21
201.0240193443
 31
0.0
  0
LINE
  5
21C
330
1F
100
AcDbEntity
  8
SLD-0
  6
Continuous
 62
   179
370
    15
100
AcDbLine
 10
101.9219921289
 20
201.0240193443
 30
0.0
 11
100.4219890891
 21
201.0240193443
 31
0.0
  0
LINE
  5
21D
330
1F
100
AcDbEntity
  8
SLD-0
  6
Continuous
 62
   179
370
    15
100
AcDbLine
 10
102.6719899235
 20
197.7740164833
 30
0.0
 11
101.9219921289
 21
197.0240186887
 31
0.0
  0
LINE
  5
21E
330
1F
100
AcDbEntity
  8
SLD-0
  6
Continuous
 62
   179
370
    15
100
AcDbLine
 10
101.9219921289
 20
197.0240186887
 30
0.0
 11
100.4219890891
 21
197.0240186887
 31
0.0
  0
LINE
  5
21F
330
1F
100
AcDbEntity
  8
SLD-0
  6
Continuous
 62
   179
370
    15
100
AcDbLine
 10
102.6719899235
 20
190.7740171986
 30
0.0
 11
101.9219921289
 21
191.5240149932
 31
0.0
  0
LINE
  5
220
330
1F
100
AcDbEntity
  8
SLD-0
  6
Continuous
 62
   179
370
    15
100
AcDbLine
 10
101.9219921289
 20
191.5240149932
 30
0.0
 11
101.9219921289
 21
193.024018033
 31
0.0
  0
LINE
  5
221
330
1F
100
AcDbEntity
  8
SLD-0
  6
Continuous
 62
   179
370
    15
100
AcDbLine
 10
100.4219890891
 20
189.0240173774
 30
0.0
 11
99.6719912944
 21
189.774015172
 31
0.0
  0
LINE
  5
222
330
1F
100
AcDbEntity
  8
SLD-0
  6
Continuous
 62
   179
370
    15
100
AcDbLine
 10
101.9219921289
 20
189.0240173774
 30
0.0
 11
100.4219890891
 21
189.0240173774
 31
0.0
  0
LINE
  5
223
330
1F
100
AcDbEntity
  8
SLD-0
  6
Continuous
 62
   179
370
    15
100
AcDbLine
 10
101.9219921289
 20
199.5240125792
 30
0.0
 11
101.9219921289
 21
201.0240193443
 31
0.0
  0
LINE
  5
224
330
1F
100
AcDbEntity
  8
SLD-0
  6
Continuous
 62
   179
370
    15
100
AcDbLine
 10
99.6719912944
 20
190.7740171986
 30
0.0
 11
100.4219890891
 21
191.5240149932
 31
0.0
  0
LINE
  5
225
330
1F
100
AcDbEntity
  8
SLD-0
  6
Continuous
 62
   179
370
    15
100
AcDbLine
 10
100.4219890891
 20
191.5240149932
 30
0.0
 11
101.9219921289
 21
191.5240149932
 31
0.0
  0
LINE
  5
226
330
1F
100
AcDbEntity
  8
SLD-0
  6
Continuous
 62
   179
370
    15
100
AcDbLine
 10
101.9219921289
 20
195.5240156489
 30
0.0
 11
101.9219921289
 21
197.0240186887
 31
0.0
  0
LINE
  5
227
330
1F
100
AcDbEntity
  8
SLD-0
  6
Continuous
 62
   179
370
    15
100
AcDbLine
 10
94.6719886122
 20
194.7740178542
 30
0.0
 11
93.9219908176
 21
195.5240156489
 31
0.0
  0
LINE
  5
228
330
1F
100
AcDbEntity
  8
SLD-0
  6
Continuous
 62
   179
370
    15
100
AcDbLine
 10
91.6719899831
 20
194.7740178542
 30
0.0
 11
92.4219877778
 21
195.5240156489
 31
0.0
  0
LINE
  5
229
330
1F
100
AcDbEntity
  8
SLD-0
  6
Continuous
 62
   179
370
    15
100
AcDbLine
 10
92.4219877778
 20
195.5240156489
 30
0.0
 11
93.9219908176
 21
195.5240156489
 31
0.0
  0
LINE
  5
22A
330
1F
100
AcDbEntity
  8
SLD-0
  6
Continuous
 62
   179
370
    15
100
AcDbLine
 10
100.4219890891
 20
189.0240173774
 30
0.0
 11
100.4219890891
 21
187.5240143376
 31
0.0
  0
LINE
  5
22B
330
1F
100
AcDbEntity
  8
SLD-0
  6
Continuous
 62
   179
370
    15
100
AcDbLine
 10
100.4219890891
 20
201.0240193443
 30
0.0
 11
100.4219890891
 21
199.5240125792
 31
0.0
  0
LINE
  5
22C
330
1F
100
AcDbEntity
  8
SLD-0
  6
Continuous
 62
   179
370
    15
100
AcDbLine
 10
100.4219890891
 20
193.024018033
 30
0.0
 11
100.4219890891
 21
191.5240149932
 31
0.0
  0
LINE
  5
22D
330
1F
100
AcDbEntity
  8
SLD-0
  6
Continuous
 62
   179
370
    15
100
AcDbLine
 10
92.4219877778
 20
197.0240186887
 30
0.0
 11
91.6719899831
 21
197.7740164833
 31
0.0
  0
LINE
  5
22E
330
1F
100
AcDbEntity
  8
SLD-0
  6
Continuous
 62
   179
370
    15
100
AcDbLine
 10
92.4219877778
 20
197.0240186887
 30
0.0
 11
92.4219877778
 21
195.5240156489
 31
0.0
  0
LINE
  5
22F
330
1F
100
AcDbEntity
  8
SLD-0
  6
Continuous
 62
   179
370
    15
100
AcDbLine
 10
96.4219884334
 20
189.0240173774
 30
0.0
 11
95.6719906388
 21
189.774015172
 31
0.0
  0
LINE
  5
230
330
1F
100
AcDbEntity
  8
SLD-0
  6
Continuous
 62
   179
370
    15
100
AcDbLine
 10
98.6719892679
 20
189.774015172
 30
0.0
 11
97.9219914733
 21
189.0240173774
 31
0.0
  0
LINE
  5
231
330
1F
100
AcDbEntity
  8
SLD-0
  6
Continuous
 62
   179
370
    15
100
AcDbLine
 10
97.9219914733
 20
189.0240173774
 30
0.0
 11
96.4219884334
 21
189.0240173774
 31
0.0
  0
LINE
  5
232
330
1F
100
AcDbEntity
  8
SLD-0
  6
Continuous
 62
   179
370
    15
100
AcDbLine
 10
98.6719892679
 20
186.7740165429
 30
0.0
 11
97.9219914733
 21
187.5240143376
 31
0.0
  0
LINE
  5
233
330
1F
100
AcDbEntity
  8
SLD-0
  6
Continuous
 62
   179
370
    15
100
AcDbLine
 10
95.6719906388
 20
186.7740165429
 30
0.0
 11
96.4219884334
 21
187.5240143376
 31
0.0
  0
LINE
  5
234
330
1F
100
AcDbEntity
  8
SLD-0
  6
Continuous
 62
   179
370
    15
100
AcDbLine
 10
96.4219884334
 20
187.5240143376
 30
0.0
 11
97.9219914733
 21
187.5240143376
 31
0.0
  0
LINE
  5
235
330
1F
100
AcDbEntity
  8
SLD-0
  6
Continuous
 62
   179
370
    15
100
AcDbLine
 10
96.4219884334
 20
201.0240193443
 30
0.0
 11
95.6719906388
 21
201.774017139
 31
0.0
  0
LINE
  5
236
330
1F
100
AcDbEntity
  8
SLD-0
  6
Continuous
 62
   179
370
    15
100
AcDbLine
 10
98.6719892679
 20
201.774017139
 30
0.0
 11
97.9219914733
 21
201.0240193443
 31
0.0
  0
LINE
  5
237
330
1F
100
AcDbEntity
  8
SLD-0
  6
Continuous
 62
   179
370
    15
100
AcDbLine
 10
97.9219914733
 20
201.0240193443
 30
0.0
 11
96.4219884334
 21
201.0240193443
 31
0.0
  0
LINE
  5
238
330
1F
100
AcDbEntity
  8
SLD-0
  6
Continuous
 62
   179
370
    15
100
AcDbLine
 10
98.6719892679
 20
198.7740147846
 30
0.0
 11
97.9219914733
 21
199.5240125792
 31
0.0
  0
LINE
  5
239
330
1F
100
AcDbEntity
  8
SLD-0
  6
Continuous
 62
   179
370
    15
100
AcDbLine
 10
97.9219914733
 20
199.5240125792
 30
0.0
 11
97.9219914733
 21
201.0240193443
 31
0.0
  0
LINE
  5
23A
330
1F
100
AcDbEntity
  8
SLD-0
  6
Continuous
 62
   179
370
    15
100
AcDbLine
 10
96.4219884334
 20
203.5240169602
 30
0.0
 11
97.9219914733
 21
203.5240169602
 31
0.0
  0
LINE
  5
23B
330
1F
100
AcDbEntity
  8
SLD-0
  6
Continuous
 62
   179
370
    15
100
AcDbLine
 10
96.4219884334
 20
193.024018033
 30
0.0
 11
95.6719906388
 21
193.7740158277
 31
0.0
  0
LINE
  5
23C
330
1F
100
AcDbEntity
  8
SLD-0
  6
Continuous
 62
   179
370
    15
100
AcDbLine
 10
98.6719892679
 20
193.7740158277
 30
0.0
 11
97.9219914733
 21
193.024018033
 31
0.0
  0
LINE
  5
23D
330
1F
100
AcDbEntity
  8
SLD-0
  6
Continuous
 62
   179
370
    15
100
AcDbLine
 10
97.9219914733
 20
193.024018033
 30
0.0
 11
96.4219884334
 21
193.024018033
 31
0.0
  0
LINE
  5
23E
330
1F
100
AcDbEntity
  8
SLD-0
  6
Continuous
 62
   179
370
    15
100
AcDbLine
 10
97.9219914733
 20
187.5240143376
 30
0.0
 11
97.9219914733
 21
189.0240173774
 31
0.0
  0
LINE
  5
23F
330
1F
100
AcDbEntity
  8
SLD-0
  6
Continuous
 62
   179
370
    15
100
AcDbLine
 10
98.6719892679
 20
197.7740164833
 30
0.0
 11
97.9219914733
 21
197.0240186887
 31
0.0
  0
LINE
  5
240
330
1F
100
AcDbEntity
  8
SLD-0
  6
Continuous
 62
   179
370
    15
100
AcDbLine
 10
97.9219914733
 20
197.0240186887
 30
0.0
 11
96.4219884334
 21
197.0240186887
 31
0.0
  0
LINE
  5
241
330
1F
100
AcDbEntity
  8
SLD-0
  6
Continuous
 62
   179
370
    15
100
AcDbLine
 10
97.9219914733
 20
195.5240156489
 30
0.0
 11
97.9219914733
 21
197.0240186887
 31
0.0
  0
LINE
  5
242
330
1F
100
AcDbEntity
  8
SLD-0
  6
Continuous
 62
   179
370
    15
100
AcDbLine
 10
98.6719892679
 20
190.7740171986
 30
0.0
 11
97.9219914733
 21
191.5240149932
 31
0.0
  0
LINE
  5
243
330
1F
100
AcDbEntity
  8
SLD-0
  6
Continuous
 62
   179
370
    15
100
AcDbLine
 10
97.9219914733
 20
191.5240149932
 30
0.0
 11
97.9219914733
 21
193.024018033
 31
0.0
  0
LINE
  5
244
330
1F
100
AcDbEntity
  8
SLD-0
  6
Continuous
 62
   179
370
    15
100
AcDbLine
 10
95.6719906388
 20
190.7740171986
 30
0.0
 11
96.4219884334
 21
191.5240149932
 31
0.0
  0
LINE
  5
245
330
1F
100
AcDbEntity
  8
SLD-0
  6
Continuous
 62
   179
370
    15
100
AcDbLine
 10
96.4219884334
 20
191.5240149932
 30
0.0
 11
97.9219914733
 21
191.5240149932
 31
0.0
  0
LINE
  5
246
330
1F
100
AcDbEntity
  8
SLD-0
  6
Continuous
 62
   179
370
    15
100
AcDbLine
 10
95.6719906388
 20
198.7740147846
 30
0.0
 11
96.4219884334
 21
199.5240125792
 31
0.0
  0
LINE
  5
247
330
1F
100
AcDbEntity
  8
SLD-0
  6
Continuous
 62
   179
370
    15
100
AcDbLine
 10
96.4219884334
 20
199.5240125792
 30
0.0
 11
97.9219914733
 21
199.5240125792
 31
0.0
  0
LINE
  5
248
330
1F
100
AcDbEntity
  8
SLD-0
  6
Continuous
 62
   179
370
    15
100
AcDbLine
 10
96.4219884334
 20
201.0240193443
 30
0.0
 11
96.4219884334
 21
199.5240125792
 31
0.0
  0
LINE
  5
249
330
1F
100
AcDbEntity
  8
SLD-0
  6
Continuous
 62
   179
370
    15
100
AcDbLine
 10
96.4219884334
 20
193.024018033
 30
0.0
 11
96.4219884334
 21
191.5240149932
 31
0.0
  0
LINE
  5
24A
330
1F
100
AcDbEntity
  8
SLD-0
  6
Continuous
 62
   179
370
    15
100
AcDbLine
 10
96.4219884334
 20
189.0240173774
 30
0.0
 11
96.4219884334
 21
187.5240143376
 31
0.0
  0
LINE
  5
24B
330
1F
100
AcDbEntity
  8
SLD-0
  6
Continuous
 62
   179
370
    15
100
AcDbLine
 10
92.4219877778
 20
189.0240173774
 30
0.0
 11
91.6719899831
 21
189.774015172
 31
0.0
  0
LINE
  5
24C
330
1F
100
AcDbEntity
  8
SLD-0
  6
Continuous
 62
   179
370
    15
100
AcDbLine
 10
94.6719886122
 20
189.774015172
 30
0.0
 11
93.9219908176
 21
189.0240173774
 31
0.0
  0
LINE
  5
24D
330
1F
100
AcDbEntity
  8
SLD-0
  6
Continuous
 62
   179
370
    15
100
AcDbLine
 10
93.9219908176
 20
189.0240173774
 30
0.0
 11
92.4219877778
 21
189.0240173774
 31
0.0
  0
LINE
  5
24E
330
1F
100
AcDbEntity
  8
SLD-0
  6
Continuous
 62
   179
370
    15
100
AcDbLine
 10
94.6719886122
 20
190.7740171986
 30
0.0
 11
93.9219908176
 21
191.5240149932
 31
0.0
  0
LINE
  5
24F
330
1F
100
AcDbEntity
  8
SLD-0
  6
Continuous
 62
   179
370
    15
100
AcDbLine
 10
91.6719899831
 20
190.7740171986
 30
0.0
 11
92.4219877778
 21
191.5240149932
 31
0.0
  0
LINE
  5
250
330
1F
100
AcDbEntity
  8
SLD-0
  6
Continuous
 62
   179
370
    15
100
AcDbLine
 10
92.4219877778
 20
191.5240149932
 30
0.0
 11
93.9219908176
 21
191.5240149932
 31
0.0
  0
LINE
  5
251
330
1F
100
AcDbEntity
  8
SLD-0
  6
Continuous
 62
   179
370
    15
100
AcDbLine
 10
94.6719886122
 20
186.7740165429
 30
0.0
 11
93.9219908176
 21
187.5240143376
 31
0.0
  0
LINE
  5
252
330
1F
100
AcDbEntity
  8
SLD-0
  6
Continuous
 62
   179
370
    15
100
AcDbLine
 10
93.9219908176
 20
187.5240143376
 30
0.0
 11
93.9219908176
 21
189.0240173774
 31
0.0
  0
LINE
  5
253
330
1F
100
AcDbEntity
  8
SLD-0
  6
Continuous
 62
   179
370
    15
100
AcDbLine
 10
92.4219877778
 20
193.024018033
 30
0.0
 11
91.6719899831
 21
193.7740158277
 31
0.0
  0
LINE
  5
254
330
1F
100
AcDbEntity
  8
SLD-0
  6
Continuous
 62
   179
370
    15
100
AcDbLine
 10
94.6719886122
 20
193.7740158277
 30
0.0
 11
93.9219908176
 21
193.024018033
 31
0.0
  0
LINE
  5
255
330
1F
100
AcDbEntity
  8
SLD-0
  6
Continuous
 62
   179
370
    15
100
AcDbLine
 10
93.9219908176
 20
193.024018033
 30
0.0
 11
92.4219877778
 21
193.024018033
 31
0.0
  0
LINE
  5
256
330
1F
100
AcDbEntity
  8
SLD-0
  6
Continuous
 62
   179
370
    15
100
AcDbLine
 10
94.6719886122
 20
198.7740147846
 30
0.0
 11
93.9219908176
 21
199.5240125792
 31
0.0
  0
LINE
  5
257
330
1F
100
AcDbEntity
  8
SLD-0
  6
Continuous
 62
   179
370
    15
100
AcDbLine
 10
91.6719899831
 20
198.7740147846
 30
0.0
 11
92.4219877778
 21
199.5240125792
 31
0.0
  0
LINE
  5
258
330
1F
100
AcDbEntity
  8
SLD-0
  6
Continuous
 62
   179
370
    15
100
AcDbLine
 10
92.4219877778
 20
199.5240125792
 30
0.0
 11
93.9219908176
 21
199.5240125792
 31
0.0
  0
LINE
  5
259
330
1F
100
AcDbEntity
  8
SLD-0
  6
Continuous
 62
   179
370
    15
100
AcDbLine
 10
94.6719886122
 20
197.7740164833
 30
0.0
 11
93.9219908176
 21
197.0240186887
 31
0.0
  0
LINE
  5
25A
330
1F
100
AcDbEntity
  8
SLD-0
  6
Continuous
 62
   179
370
    15
100
AcDbLine
 10
93.9219908176
 20
195.5240156489
 30
0.0
 11
93.9219908176
 21
197.0240186887
 31
0.0
  0
LINE
  5
25B
330
1F
100
AcDbEntity
  8
SLD-0
  6
Continuous
 62
   179
370
    15
100
AcDbLine
 10
93.9219908176
 20
191.5240149932
 30
0.0
 11
93.9219908176
 21
193.024018033
 31
0.0
  0
LINE
  5
25C
330
1F
100
AcDbEntity
  8
SLD-0
  6
Continuous
 62
   179
370
    15
100
AcDbLine
 10
91.6719899831
 20
186.7740165429
 30
0.0
 11
92.4219877778
 21
187.5240143376
 31
0.0
  0
LINE
  5
25D
330
1F
100
AcDbEntity
  8
SLD-0
  6
Continuous
 62
   179
370
    15
100
AcDbLine
 10
92.4219877778
 20
187.5240143376
 30
0.0
 11
93.9219908176
 21
187.5240143376
 31
0.0
  0
LINE
  5
25E
330
1F
100
AcDbEntity
  8
SLD-0
  6
Continuous
 62
   179
370
    15
100
AcDbLine
 10
92.4219877778
 20
203.5240169602
 30
0.0
 11
93.9219908176
 21
203.5240169602
 31
0.0
  0
LINE
  5
25F
330
1F
100
AcDbEntity
  8
SLD-0
  6
Continuous
 62
   179
370
    15
100
AcDbLine
 10
94.6719886122
 20
201.774017139
 30
0.0
 11
93.9219908176
 21
201.0240193443
 31
0.0
  0
LINE
  5
260
330
1F
100
AcDbEntity
  8
SLD-0
  6
Continuous
 62
   179
370
    15
100
AcDbLine
 10
93.9219908176
 20
199.5240125792
 30
0.0
 11
93.9219908176
 21
201.0240193443
 31
0.0
  0
LINE
  5
261
330
1F
100
AcDbEntity
  8
SLD-0
  6
Continuous
 62
   179
370
    15
100
AcDbLine
 10
93.9219908176
 20
197.0240186887
 30
0.0
 11
92.4219877778
 21
197.0240186887
 31
0.0
  0
LINE
  5
262
330
1F
100
AcDbEntity
  8
SLD-0
  6
Continuous
 62
   179
370
    15
100
AcDbLine
 10
92.4219877778
 20
201.0240193443
 30
0.0
 11
91.6719899831
 21
201.774017139
 31
0.0
  0
LINE
  5
263
330
1F
100
AcDbEntity
  8
SLD-0
  6
Continuous
 62
   179
370
    15
100
AcDbLine
 10
93.9219908176
 20
201.0240193443
 30
0.0
 11
92.4219877778
 21
201.0240193443
 31
0.0
  0
LINE
  5
264
330
1F
100
AcDbEntity
  8
SLD-0
  6
Continuous
 62
   179
370
    15
100
AcDbLine
 10
92.4219877778
 20
193.024018033
 30
0.0
 11
92.4219877778
 21
191.5240149932
 31
0.0
  0
LINE
  5
265
330
1F
100
AcDbEntity
  8
SLD-0
  6
Continuous
 62
   179
370
    15
100
AcDbLine
 10
92.4219877778
 20
189.0240173774
 30
0.0
 11
92.4219877778
 21
187.5240143376
 31
0.0
  0
LINE
  5
266
330
1F
100
AcDbEntity
  8
SLD-0
  6
Continuous
 62
   179
370
    15
100
AcDbLine
 10
92.4219877778
 20
201.0240193443
 30
0.0
 11
92.4219877778
 21
199.5240125792
 31
0.0
  0
LINE
  5
267
330
1F
100
AcDbEntity
  8
SLD-0
  6
Continuous
 62
   179
370
    15
100
AcDbLine
 10
90.6719898192
 20
189.774015172
 30
0.0
 11
89.9219920246
 21
189.0240173774
 31
0.0
  0
LINE
  5
268
330
1F
100
AcDbEntity
  8
SLD-0
  6
Continuous
 62
   179
370
    15
100
AcDbLine
 10
90.6719898192
 20
186.7740165429
 30
0.0
 11
89.9219920246
 21
187.5240143376
 31
0.0
  0
LINE
  5
269
330
1F
100
AcDbEntity
  8
SLD-0
  6
Continuous
 62
   179
370
    15
100
AcDbLine
 10
89.9219920246
 20
187.5240143376
 30
0.0
 11
89.9219920246
 21
189.0240173774
 31
0.0
  0
LINE
  5
26A
330
1F
100
AcDbEntity
  8
SLD-0
  6
Continuous
 62
   179
370
    15
100
AcDbLine
 10
88.4219889848
 20
201.0240193443
 30
0.0
 11
87.6719893275
 21
201.774017139
 31
0.0
  0
LINE
  5
26B
330
1F
100
AcDbEntity
  8
SLD-0
  6
Continuous
 62
   179
370
    15
100
AcDbLine
 10
90.6719898192
 20
201.774017139
 30
0.0
 11
89.9219920246
 21
201.0240193443
 31
0.0
  0
LINE
  5
26C
330
1F
100
AcDbEntity
  8
SLD-0
  6
Continuous
 62
   179
370
    15
100
AcDbLine
 10
89.9219920246
 20
201.0240193443
 30
0.0
 11
88.4219889848
 21
201.0240193443
 31
0.0
  0
LINE
  5
26D
330
1F
100
AcDbEntity
  8
SLD-0
  6
Continuous
 62
   179
370
    15
100
AcDbLine
 10
90.6719898192
 20
193.7740158277
 30
0.0
 11
89.9219920246
 21
193.024018033
 31
0.0
  0
LINE
  5
26E
330
1F
100
AcDbEntity
  8
SLD-0
  6
Continuous
 62
   179
370
    15
100
AcDbLine
 10
90.6719898192
 20
190.7740171986
 30
0.0
 11
89.9219920246
 21
191.5240149932
 31
0.0
  0
LINE
  5
26F
330
1F
100
AcDbEntity
  8
SLD-0
  6
Continuous
 62
   179
370
    15
100
AcDbLine
 10
89.9219920246
 20
191.5240149932
 30
0.0
 11
89.9219920246
 21
193.024018033
 31
0.0
  0
LINE
  5
270
330
1F
100
AcDbEntity
  8
SLD-0
  6
Continuous
 62
   179
370
    15
100
AcDbLine
 10
88.4219889848
 20
197.0240186887
 30
0.0
 11
87.6719893275
 21
197.7740164833
 31
0.0
  0
LINE
  5
271
330
1F
100
AcDbEntity
  8
SLD-0
  6
Continuous
 62
   179
370
    15
100
AcDbLine
 10
90.6719898192
 20
197.7740164833
 30
0.0
 11
89.9219920246
 21
197.0240186887
 31
0.0
  0
LINE
  5
272
330
1F
100
AcDbEntity
  8
SLD-0
  6
Continuous
 62
   179
370
    15
100
AcDbLine
 10
89.9219920246
 20
197.0240186887
 30
0.0
 11
88.4219889848
 21
197.0240186887
 31
0.0
  0
LINE
  5
273
330
1F
100
AcDbEntity
  8
SLD-0
  6
Continuous
 62
   179
370
    15
100
AcDbLine
 10
90.6719898192
 20
194.7740178542
 30
0.0
 11
89.9219920246
 21
195.5240156489
 31
0.0
  0
LINE
  5
274
330
1F
100
AcDbEntity
  8
SLD-0
  6
Continuous
 62
   179
370
    15
100
AcDbLine
 10
89.9219920246
 20
195.5240156489
 30
0.0
 11
89.9219920246
 21
197.0240186887
 31
0.0
  0
LINE
  5
275
330
1F
100
AcDbEntity
  8
SLD-0
  6
Continuous
 62
   179
370
    15
100
AcDbLine
 10
88.4219889848
 20
193.024018033
 30
0.0
 11
87.6719893275
 21
193.7740158277
 31
0.0
  0
LINE
  5
276
330
1F
100
AcDbEntity
  8
SLD-0
  6
Continuous
 62
   179
370
    15
100
AcDbLine
 10
89.9219920246
 20
193.024018033
 30
0.0
 11
88.4219889848
 21
193.024018033
 31
0.0
  0
LINE
  5
277
330
1F
100
AcDbEntity
  8
SLD-0
  6
Continuous
 62
   179
370
    15
100
AcDbLine
 10
88.4219889848
 20
189.0240173774
 30
0.0
 11
87.6719893275
 21
189.774015172
 31
0.0
  0
LINE
  5
278
330
1F
100
AcDbEntity
  8
SLD-0
  6
Continuous
 62
   179
370
    15
100
AcDbLine
 10
89.9219920246
 20
189.0240173774
 30
0.0
 11
88.4219889848
 21
189.0240173774
 31
0.0
  0
LINE
  5
279
330
1F
100
AcDbEntity
  8
SLD-0
  6
Continuous
 62
   179
370
    15
100
AcDbLine
 10
90.6719898192
 20
198.7740147846
 30
0.0
 11
89.9219920246
 21
199.5240125792
 31
0.0
  0
LINE
  5
27A
330
1F
100
AcDbEntity
  8
SLD-0
  6
Continuous
 62
   179
370
    15
100
AcDbLine
 10
89.9219920246
 20
199.5240125792
 30
0.0
 11
89.9219920246
 21
201.0240193443
 31
0.0
  0
LINE
  5
27B
330
1F
100
AcDbEntity
  8
SLD-0
  6
Continuous
 62
   179
370
    15
100
AcDbLine
 10
87.6719893275
 20
194.7740178542
 30
0.0
 11
88.4219889848
 21
195.5240156489
 31
0.0
  0
LINE
  5
27C
330
1F
100
AcDbEntity
  8
SLD-0
  6
Continuous
 62
   179
370
    15
100
AcDbLine
 10
88.4219889848
 20
195.5240156489
 30
0.0
 11
89.9219920246
 21
195.5240156489
 31
0.0
  0
LINE
  5
27D
330
1F
100
AcDbEntity
  8
SLD-0
  6
Continuous
 62
   179
370
    15
100
AcDbLine
 10
86.6719910262
 20
209.7740184503
 30
0.0
 11
85.9219913689
 21
209.0240206556
 31
0.0
  0
LINE
  5
27E
330
1F
100
AcDbEntity
  8
SLD-0
  6
Continuous
 62
   179
370
    15
100
AcDbLine
 10
86.6719910262
 20
206.7740198212
 30
0.0
 11
85.9219913689
 21
207.5240176158
 31
0.0
  0
LINE
  5
27F
330
1F
100
AcDbEntity
  8
SLD-0
  6
Continuous
 62
   179
370
    15
100
AcDbLine
 10
85.9219913689
 20
207.5240176158
 30
0.0
 11
85.9219913689
 21
209.0240206556
 31
0.0
  0
LINE
  5
280
330
1F
100
AcDbEntity
  8
SLD-0
  6
Continuous
 62
   179
370
    15
100
AcDbLine
 10
83.6719905345
 20
206.7740198212
 30
0.0
 11
84.4219883291
 21
207.5240176158
 31
0.0
  0
LINE
  5
281
330
1F
100
AcDbEntity
  8
SLD-0
  6
Continuous
 62
   179
370
    15
100
AcDbLine
 10
84.4219883291
 20
207.5240176158
 30
0.0
 11
85.9219913689
 21
207.5240176158
 31
0.0
  0
LINE
  5
282
330
1F
100
AcDbEntity
  8
SLD-0
  6
Continuous
 62
   179
370
    15
100
AcDbLine
 10
78.6719897149
 20
209.7740184503
 30
0.0
 11
77.9219919203
 21
209.0240206556
 31
0.0
  0
LINE
  5
283
330
1F
100
AcDbEntity
  8
SLD-0
  6
Continuous
 62
   179
370
    15
100
AcDbLine
 10
78.6719897149
 20
206.7740198212
 30
0.0
 11
77.9219919203
 21
207.5240176158
 31
0.0
  0
LINE
  5
284
330
1F
100
AcDbEntity
  8
SLD-0
  6
Continuous
 62
   179
370
    15
100
AcDbLine
 10
77.9219919203
 20
207.5240176158
 30
0.0
 11
77.9219919203
 21
209.0240206556
 31
0.0
  0
LINE
  5
285
330
1F
100
AcDbEntity
  8
SLD-0
  6
Continuous
 62
   179
370
    15
100
AcDbLine
 10
75.6719892232
 20
206.7740198212
 30
0.0
 11
76.4219888804
 21
207.5240176158
 31
0.0
  0
LINE
  5
286
330
1F
100
AcDbEntity
  8
SLD-0
  6
Continuous
 62
   179
370
    15
100
AcDbLine
 10
76.4219888804
 20
207.5240176158
 30
0.0
 11
77.9219919203
 21
207.5240176158
 31
0.0
  0
LINE
  5
287
330
1F
100
AcDbEntity
  8
SLD-0
  6
Continuous
 62
   179
370
    15
100
AcDbLine
 10
80.4219876735
 20
205.02402
 30
0.0
 11
79.6719898788
 21
205.7740177946
 31
0.0
  0
LINE
  5
288
330
1F
100
AcDbEntity
  8
SLD-0
  6
Continuous
 62
   179
370
    15
100
AcDbLine
 10
82.6719903706
 20
205.7740177946
 30
0.0
 11
81.9219925759
 21
205.02402
 31
0.0
  0
LINE
  5
289
330
1F
100
AcDbEntity
  8
SLD-0
  6
Continuous
 62
   179
370
    15
100
AcDbLine
 10
81.9219925759
 20
205.02402
 30
0.0
 11
80.4219876735
 21
205.02402
 31
0.0
  0
LINE
  5
28A
330
1F
100
AcDbEntity
  8
SLD-0
  6
Continuous
 62
   179
370
    15
100
AcDbLine
 10
87.6719893275
 20
190.7740171986
 30
0.0
 11
88.4219889848
 21
191.5240149932
 31
0.0
  0
LINE
  5
28B
330
1F
100
AcDbEntity
  8
SLD-0
  6
Continuous
 62
   179
370
    15
100
AcDbLine
 10
88.4219889848
 20
191.5240149932
 30
0.0
 11
89.9219920246
 21
191.5240149932
 31
0.0
  0
LINE
  5
28C
330
1F
100
AcDbEntity
  8
SLD-0
  6
Continuous
 62
   179
370
    15
100
AcDbLine
 10
87.6719893275
 20
198.7740147846
 30
0.0
 11
88.4219889848
 21
199.5240125792
 31
0.0
  0
LINE
  5
28D
330
1F
100
AcDbEntity
  8
SLD-0
  6
Continuous
 62
   179
370
    15
100
AcDbLine
 10
88.4219889848
 20
199.5240125792
 30
0.0
 11
89.9219920246
 21
199.5240125792
 31
0.0
  0
LINE
  5
28E
330
1F
100
AcDbEntity
  8
SLD-0
  6
Continuous
 62
   179
370
    15
100
AcDbLine
 10
87.6719893275
 20
202.7740191655
 30
0.0
 11
88.4219889848
 21
203.5240169602
 31
0.0
  0
LINE
  5
28F
330
1F
100
AcDbEntity
  8
SLD-0
  6
Continuous
 62
   179
370
    15
100
AcDbLine
 10
88.4219889848
 20
203.5240169602
 30
0.0
 11
89.9219920246
 21
203.5240169602
 31
0.0
  0
LINE
  5
290
330
1F
100
AcDbEntity
  8
SLD-0
  6
Continuous
 62
   179
370
    15
100
AcDbLine
 10
87.6719893275
 20
186.7740165429
 30
0.0
 11
88.4219889848
 21
187.5240143376
 31
0.0
  0
LINE
  5
291
330
1F
100
AcDbEntity
  8
SLD-0
  6
Continuous
 62
   179
370
    15
100
AcDbLine
 10
88.4219889848
 20
187.5240143376
 30
0.0
 11
89.9219920246
 21
187.5240143376
 31
0.0
  0
LINE
  5
292
330
1F
100
AcDbEntity
  8
SLD-0
  6
Continuous
 62
   179
370
    15
100
AcDbLine
 10
82.6719903706
 20
206.7740198212
 30
0.0
 11
81.9219925759
 21
207.5240176158
 31
0.0
  0
LINE
  5
293
330
1F
100
AcDbEntity
  8
SLD-0
  6
Continuous
 62
   179
370
    15
100
AcDbLine
 10
79.6719898788
 20
206.7740198212
 30
0.0
 11
80.4219876735
 21
207.5240176158
 31
0.0
  0
LINE
  5
294
330
1F
100
AcDbEntity
  8
SLD-0
  6
Continuous
 62
   179
370
    15
100
AcDbLine
 10
80.4219876735
 20
207.5240176158
 30
0.0
 11
81.9219925759
 21
207.5240176158
 31
0.0
  0
LINE
  5
295
330
1F
100
AcDbEntity
  8
SLD-0
  6
Continuous
 62
   179
370
    15
100
AcDbLine
 10
79.6719898788
 20
202.7740191655
 30
0.0
 11
80.4219876735
 21
203.5240169602
 31
0.0
  0
LINE
  5
296
330
1F
100
AcDbEntity
  8
SLD-0
  6
Continuous
 62
   179
370
    15
100
AcDbLine
 10
80.4219876735
 20
205.02402
 30
0.0
 11
80.4219876735
 21
203.5240169602
 31
0.0
  0
LINE
  5
297
330
1F
100
AcDbEntity
  8
SLD-0
  6
Continuous
 62
   179
370
    15
100
AcDbLine
 10
88.4219889848
 20
205.02402
 30
0.0
 11
88.4219889848
 21
203.5240169602
 31
0.0
  0
LINE
  5
298
330
1F
100
AcDbEntity
  8
SLD-0
  6
Continuous
 62
   179
370
    15
100
AcDbLine
 10
82.6719903706
 20
209.7740184503
 30
0.0
 11
81.9219925759
 21
209.0240206556
 31
0.0
  0
LINE
  5
299
330
1F
100
AcDbEntity
  8
SLD-0
  6
Continuous
 62
   179
370
    15
100
AcDbLine
 10
81.9219925759
 20
207.5240176158
 30
0.0
 11
81.9219925759
 21
209.0240206556
 31
0.0
  0
LINE
  5
29A
330
1F
100
AcDbEntity
  8
SLD-0
  6
Continuous
 62
   179
370
    15
100
AcDbLine
 10
80.4219876735
 20
209.0240206556
 30
0.0
 11
79.6719898788
 21
209.7740184503
 31
0.0
  0
LINE
  5
29B
330
1F
100
AcDbEntity
  8
SLD-0
  6
Continuous
 62
   179
370
    15
100
AcDbLine
 10
81.9219925759
 20
209.0240206556
 30
0.0
 11
80.4219876735
 21
209.0240206556
 31
0.0
  0
LINE
  5
29C
330
1F
100
AcDbEntity
  8
SLD-0
  6
Continuous
 62
   179
370
    15
100
AcDbLine
 10
86.6719910262
 20
205.7740177946
 30
0.0
 11
85.9219913689
 21
205.02402
 31
0.0
  0
LINE
  5
29D
330
1F
100
AcDbEntity
  8
SLD-0
  6
Continuous
 62
   179
370
    15
100
AcDbLine
 10
86.6719910262
 20
202.7740191655
 30
0.0
 11
85.9219913689
 21
203.5240169602
 31
0.0
  0
LINE
  5
29E
330
1F
100
AcDbEntity
  8
SLD-0
  6
Continuous
 62
   179
370
    15
100
AcDbLine
 10
85.9219913689
 20
203.5240169602
 30
0.0
 11
85.9219913689
 21
205.02402
 31
0.0
  0
LINE
  5
29F
330
1F
100
AcDbEntity
  8
SLD-0
  6
Continuous
 62
   179
370
    15
100
AcDbLine
 10
80.4219876735
 20
209.0240206556
 30
0.0
 11
80.4219876735
 21
207.5240176158
 31
0.0
  0
LINE
  5
2A0
330
1F
100
AcDbEntity
  8
SLD-0
  6
Continuous
 62
   179
370
    15
100
AcDbLine
 10
84.4219883291
 20
205.02402
 30
0.0
 11
83.6719905345
 21
205.7740177946
 31
0.0
  0
LINE
  5
2A1
330
1F
100
AcDbEntity
  8
SLD-0
  6
Continuous
 62
   179
370
    15
100
AcDbLine
 10
85.9219913689
 20
205.02402
 30
0.0
 11
84.4219883291
 21
205.02402
 31
0.0
  0
LINE
  5
2A2
330
1F
100
AcDbEntity
  8
SLD-0
  6
Continuous
 62
   179
370
    15
100
AcDbLine
 10
76.4219888804
 20
205.02402
 30
0.0
 11
75.6719892232
 21
205.7740177946
 31
0.0
  0
LINE
  5
2A3
330
1F
100
AcDbEntity
  8
SLD-0
  6
Continuous
 62
   179
370
    15
100
AcDbLine
 10
78.6719897149
 20
205.7740177946
 30
0.0
 11
77.9219919203
 21
205.02402
 31
0.0
  0
LINE
  5
2A4
330
1F
100
AcDbEntity
  8
SLD-0
  6
Continuous
 62
   179
370
    15
100
AcDbLine
 10
77.9219919203
 20
205.02402
 30
0.0
 11
76.4219888804
 21
205.02402
 31
0.0
  0
LINE
  5
2A5
330
1F
100
AcDbEntity
  8
SLD-0
  6
Continuous
 62
   179
370
    15
100
AcDbLine
 10
88.4219889848
 20
209.0240206556
 30
0.0
 11
88.4219889848
 21
207.5240176158
 31
0.0
  0
LINE
  5
2A6
330
1F
100
AcDbEntity
  8
SLD-0
  6
Continuous
 62
   179
370
    15
100
AcDbLine
 10
78.6719897149
 20
202.7740191655
 30
0.0
 11
77.9219919203
 21
203.5240169602
 31
0.0
  0
LINE
  5
2A7
330
1F
100
AcDbEntity
  8
SLD-0
  6
Continuous
 62
   179
370
    15
100
AcDbLine
 10
77.9219919203
 20
203.5240169602
 30
0.0
 11
77.9219919203
 21
205.02402
 31
0.0
  0
LINE
  5
2A8
330
1F
100
AcDbEntity
  8
SLD-0
  6
Continuous
 62
   179
370
    15
100
AcDbLine
 10
84.4219883291
 20
209.0240206556
 30
0.0
 11
83.6719905345
 21
209.7740184503
 31
0.0
  0
LINE
  5
2A9
330
1F
100
AcDbEntity
  8
SLD-0
  6
Continuous
 62
   179
370
    15
100
AcDbLine
 10
85.9219913689
 20
209.0240206556
 30
0.0
 11
84.4219883291
 21
209.0240206556
 31
0.0
  0
LINE
  5
2AA
330
1F
100
AcDbEntity
  8
SLD-0
  6
Continuous
 62
   179
370
    15
100
AcDbLine
 10
83.6719905345
 20
202.7740191655
 30
0.0
 11
84.4219883291
 21
203.5240169602
 31
0.0
  0
LINE
  5
2AB
330
1F
100
AcDbEntity
  8
SLD-0
  6
Continuous
 62
   179
370
    15
100
AcDbLine
 10
84.4219883291
 20
205.02402
 30
0.0
 11
84.4219883291
 21
203.5240169602
 31
0.0
  0
LINE
  5
2AC
330
1F
100
AcDbEntity
  8
SLD-0
  6
Continuous
 62
   179
370
    15
100
AcDbLine
 10
76.4219888804
 20
209.0240206556
 30
0.0
 11
75.6719892232
 21
209.7740184503
 31
0.0
  0
LINE
  5
2AD
330
1F
100
AcDbEntity
  8
SLD-0
  6
Continuous
 62
   179
370
    15
100
AcDbLine
 10
77.9219919203
 20
209.0240206556
 30
0.0
 11
76.4219888804
 21
209.0240206556
 31
0.0
  0
LINE
  5
2AE
330
1F
100
AcDbEntity
  8
SLD-0
  6
Continuous
 62
   179
370
    15
100
AcDbLine
 10
70.6719902663
 20
194.7740178542
 30
0.0
 11
69.9219915403
 21
195.5240156489
 31
0.0
  0
LINE
  5
2AF
330
1F
100
AcDbEntity
  8
SLD-0
  6
Continuous
 62
   179
370
    15
100
AcDbLine
 10
67.6719897745
 20
194.7740178542
 30
0.0
 11
68.4219885005
 21
195.5240156489
 31
0.0
  0
LINE
  5
2B0
330
1F
100
AcDbEntity
  8
SLD-0
  6
Continuous
 62
   179
370
    15
100
AcDbLine
 10
68.4219885005
 20
195.5240156489
 30
0.0
 11
69.9219915403
 21
195.5240156489
 31
0.0
  0
LINE
  5
2B1
330
1F
100
AcDbEntity
  8
SLD-0
  6
Continuous
 62
   179
370
    15
100
AcDbLine
 10
82.6719903706
 20
202.7740191655
 30
0.0
 11
81.9219925759
 21
203.5240169602
 31
0.0
  0
LINE
  5
2B2
330
1F
100
AcDbEntity
  8
SLD-0
  6
Continuous
 62
   179
370
    15
100
AcDbLine
 10
81.9219925759
 20
203.5240169602
 30
0.0
 11
81.9219925759
 21
205.02402
 31
0.0
  0
LINE
  5
2B3
330
1F
100
AcDbEntity
  8
SLD-0
  6
Continuous
 62
   179
370
    15
100
AcDbLine
 10
84.4219883291
 20
209.0240206556
 30
0.0
 11
84.4219883291
 21
207.5240176158
 31
0.0
  0
LINE
  5
2B4
330
1F
100
AcDbEntity
  8
SLD-0
  6
Continuous
 62
   179
370
    15
100
AcDbLine
 10
68.4219885005
 20
197.0240186887
 30
0.0
 11
67.6719897745
 21
197.7740164833
 31
0.0
  0
LINE
  5
2B5
330
1F
100
AcDbEntity
  8
SLD-0
  6
Continuous
 62
   179
370
    15
100
AcDbLine
 10
68.4219885005
 20
197.0240186887
 30
0.0
 11
68.4219885005
 21
195.5240156489
 31
0.0
  0
LINE
  5
2B6
330
1F
100
AcDbEntity
  8
SLD-0
  6
Continuous
 62
   179
370
    15
100
AcDbLine
 10
74.6719899906
 20
206.7740198212
 30
0.0
 11
73.921992196
 21
207.5240176158
 31
0.0
  0
LINE
  5
2B7
330
1F
100
AcDbEntity
  8
SLD-0
  6
Continuous
 62
   179
370
    15
100
AcDbLine
 10
71.6719904302
 20
206.7740198212
 30
0.0
 11
72.4219882248
 21
207.5240176158
 31
0.0
  0
LINE
  5
2B8
330
1F
100
AcDbEntity
  8
SLD-0
  6
Continuous
 62
   179
370
    15
100
AcDbLine
 10
72.4219882248
 20
207.5240176158
 30
0.0
 11
73.921992196
 21
207.5240176158
 31
0.0
  0
LINE
  5
2B9
330
1F
100
AcDbEntity
  8
SLD-0
  6
Continuous
 62
   179
370
    15
100
AcDbLine
 10
74.6719899906
 20
209.7740184503
 30
0.0
 11
73.921992196
 21
209.0240206556
 31
0.0
  0
LINE
  5
2BA
330
1F
100
AcDbEntity
  8
SLD-0
  6
Continuous
 62
   179
370
    15
100
AcDbLine
 10
73.921992196
 20
207.5240176158
 30
0.0
 11
73.921992196
 21
209.0240206556
 31
0.0
  0
LINE
  5
2BB
330
1F
100
AcDbEntity
  8
SLD-0
  6
Continuous
 62
   179
370
    15
100
AcDbLine
 10
66.6719900763
 20
194.7740178542
 30
0.0
 11
65.921991816
 21
195.5240156489
 31
0.0
  0
LINE
  5
2BC
330
1F
100
AcDbEntity
  8
SLD-0
  6
Continuous
 62
   179
370
    15
100
AcDbLine
 10
63.6719900502
 20
194.7740178542
 30
0.0
 11
64.4219883105
 21
195.5240156489
 31
0.0
  0
LINE
  5
2BD
330
1F
100
AcDbEntity
  8
SLD-0
  6
Continuous
 62
   179
370
    15
100
AcDbLine
 10
64.4219883105
 20
195.5240156489
 30
0.0
 11
65.921991816
 21
195.5240156489
 31
0.0
  0
LINE
  5
2BE
330
1F
100
AcDbEntity
  8
SLD-0
  6
Continuous
 62
   179
370
    15
100
AcDbLine
 10
68.4219885005
 20
193.024018033
 30
0.0
 11
67.6719897745
 21
193.7740158277
 31
0.0
  0
LINE
  5
2BF
330
1F
100
AcDbEntity
  8
SLD-0
  6
Continuous
 62
   179
370
    15
100
AcDbLine
 10
70.6719902663
 20
193.7740158277
 30
0.0
 11
69.9219915403
 21
193.024018033
 31
0.0
  0
LINE
  5
2C0
330
1F
100
AcDbEntity
  8
SLD-0
  6
Continuous
 62
   179
370
    15
100
AcDbLine
 10
69.9219915403
 20
193.024018033
 30
0.0
 11
68.4219885005
 21
193.024018033
 31
0.0
  0
LINE
  5
2C1
330
1F
100
AcDbEntity
  8
SLD-0
  6
Continuous
 62
   179
370
    15
100
AcDbLine
 10
70.6719902663
 20
198.7740147846
 30
0.0
 11
69.9219915403
 21
199.5240125792
 31
0.0
  0
LINE
  5
2C2
330
1F
100
AcDbEntity
  8
SLD-0
  6
Continuous
 62
   179
370
    15
100
AcDbLine
 10
67.6719897745
 20
198.7740147846
 30
0.0
 11
68.4219885005
 21
199.5240125792
 31
0.0
  0
LINE
  5
2C3
330
1F
100
AcDbEntity
  8
SLD-0
  6
Continuous
 62
   179
370
    15
100
AcDbLine
 10
68.4219885005
 20
199.5240125792
 30
0.0
 11
69.9219915403
 21
199.5240125792
 31
0.0
  0
LINE
  5
2C4
330
1F
100
AcDbEntity
  8
SLD-0
  6
Continuous
 62
   179
370
    15
100
AcDbLine
 10
70.6719902663
 20
197.7740164833
 30
0.0
 11
69.9219915403
 21
197.0240186887
 31
0.0
  0
LINE
  5
2C5
330
1F
100
AcDbEntity
  8
SLD-0
  6
Continuous
 62
   179
370
    15
100
AcDbLine
 10
69.9219915403
 20
197.0240186887
 30
0.0
 11
68.4219885005
 21
197.0240186887
 31
0.0
  0
LINE
  5
2C6
330
1F
100
AcDbEntity
  8
SLD-0
  6
Continuous
 62
   179
370
    15
100
AcDbLine
 10
68.4219885005
 20
189.0240173774
 30
0.0
 11
67.6719897745
 21
189.774015172
 31
0.0
  0
LINE
  5
2C7
330
1F
100
AcDbEntity
  8
SLD-0
  6
Continuous
 62
   179
370
    15
100
AcDbLine
 10
70.6719902663
 20
189.774015172
 30
0.0
 11
69.9219915403
 21
189.0240173774
 31
0.0
  0
LINE
  5
2C8
330
1F
100
AcDbEntity
  8
SLD-0
  6
Continuous
 62
   179
370
    15
100
AcDbLine
 10
69.9219915403
 20
189.0240173774
 30
0.0
 11
68.4219885005
 21
189.0240173774
 31
0.0
  0
LINE
  5
2C9
330
1F
100
AcDbEntity
  8
SLD-0
  6
Continuous
 62
   179
370
    15
100
AcDbLine
 10
70.6719902663
 20
190.7740171986
 30
0.0
 11
69.9219915403
 21
191.5240149932
 31
0.0
  0
LINE
  5
2CA
330
1F
100
AcDbEntity
  8
SLD-0
  6
Continuous
 62
   179
370
    15
100
AcDbLine
 10
67.6719897745
 20
190.7740171986
 30
0.0
 11
68.4219885005
 21
191.5240149932
 31
0.0
  0
LINE
  5
2CB
330
1F
100
AcDbEntity
  8
SLD-0
  6
Continuous
 62
   179
370
    15
100
AcDbLine
 10
68.4219885005
 20
191.5240149932
 30
0.0
 11
69.9219915403
 21
191.5240149932
 31
0.0
  0
LINE
  5
2CC
330
1F
100
AcDbEntity
  8
SLD-0
  6
Continuous
 62
   179
370
    15
100
AcDbLine
 10
70.6719902663
 20
186.7740165429
 30
0.0
 11
69.9219915403
 21
187.5240143376
 31
0.0
  0
LINE
  5
2CD
330
1F
100
AcDbEntity
  8
SLD-0
  6
Continuous
 62
   179
370
    15
100
AcDbLine
 10
67.6719897745
 20
186.7740165429
 30
0.0
 11
68.4219885005
 21
187.5240143376
 31
0.0
  0
LINE
  5
2CE
330
1F
100
AcDbEntity
  8
SLD-0
  6
Continuous
 62
   179
370
    15
100
AcDbLine
 10
68.4219885005
 20
187.5240143376
 30
0.0
 11
69.9219915403
 21
187.5240143376
 31
0.0
  0
LINE
  5
2CF
330
1F
100
AcDbEntity
  8
SLD-0
  6
Continuous
 62
   179
370
    15
100
AcDbLine
 10
64.4219883105
 20
197.0240186887
 30
0.0
 11
63.6719900502
 21
197.7740164833
 31
0.0
  0
LINE
  5
2D0
330
1F
100
AcDbEntity
  8
SLD-0
  6
Continuous
 62
   179
370
    15
100
AcDbLine
 10
64.4219883105
 20
197.0240186887
 30
0.0
 11
64.4219883105
 21
195.5240156489
 31
0.0
  0
LINE
  5
2D1
330
1F
100
AcDbEntity
  8
SLD-0
  6
Continuous
 62
   179
370
    15
100
AcDbLine
 10
68.4219885005
 20
201.0240193443
 30
0.0
 11
67.6719897745
 21
201.774017139
 31
0.0
  0
LINE
  5
2D2
330
1F
100
AcDbEntity
  8
SLD-0
  6
Continuous
 62
   179
370
    15
100
AcDbLine
 10
70.6719902663
 20
201.774017139
 30
0.0
 11
69.9219915403
 21
201.0240193443
 31
0.0
  0
LINE
  5
2D3
330
1F
100
AcDbEntity
  8
SLD-0
  6
Continuous
 62
   179
370
    15
100
AcDbLine
 10
69.9219915403
 20
201.0240193443
 30
0.0
 11
68.4219885005
 21
201.0240193443
 31
0.0
  0
LINE
  5
2D4
330
1F
100
AcDbEntity
  8
SLD-0
  6
Continuous
 62
   179
370
    15
100
AcDbLine
 10
75.6719892232
 20
202.7740191655
 30
0.0
 11
76.4219888804
 21
203.5240169602
 31
0.0
  0
LINE
  5
2D5
330
1F
100
AcDbEntity
  8
SLD-0
  6
Continuous
 62
   179
370
    15
100
AcDbLine
 10
76.4219888804
 20
205.02402
 30
0.0
 11
76.4219888804
 21
203.5240169602
 31
0.0
  0
LINE
  5
2D6
330
1F
100
AcDbEntity
  8
SLD-0
  6
Continuous
 62
   179
370
    15
100
AcDbLine
 10
62.6719901191
 20
194.7740178542
 30
0.0
 11
61.9219918588
 21
195.5240156489
 31
0.0
  0
LINE
  5
2D7
330
1F
100
AcDbEntity
  8
SLD-0
  6
Continuous
 62
   179
370
    15
100
AcDbLine
 10
59.6719901003
 20
194.7740178542
 30
0.0
 11
60.4219882951
 21
195.5240156489
 31
0.0
  0
LINE
  5
2D8
330
1F
100
AcDbEntity
  8
SLD-0
  6
Continuous
 62
   179
370
    15
100
AcDbLine
 10
60.4219882951
 20
195.5240156489
 30
0.0
 11
61.9219918588
 21
195.5240156489
 31
0.0
  0
LINE
  5
2D9
330
1F
100
AcDbEntity
  8
SLD-0
  6
Continuous
 62
   179
370
    15
100
AcDbLine
 10
70.6719902663
 20
202.7740191655
 30
0.0
 11
69.9219915403
 21
203.5240169602
 31
0.0
  0
LINE
  5
2DA
330
1F
100
AcDbEntity
  8
SLD-0
  6
Continuous
 62
   179
370
    15
100
AcDbLine
 10
68.4219885005
 20
203.5240169602
 30
0.0
 11
69.9219915403
 21
203.5240169602
 31
0.0
  0
LINE
  5
2DB
330
1F
100
AcDbEntity
  8
SLD-0
  6
Continuous
 62
   179
370
    15
100
AcDbLine
 10
69.9219915403
 20
207.5240176158
 30
0.0
 11
69.9219915403
 21
209.0240206556
 31
0.0
  0
LINE
  5
2DC
330
1F
100
AcDbEntity
  8
SLD-0
  6
Continuous
 62
   179
370
    15
100
AcDbLine
 10
68.4219885005
 20
201.0240193443
 30
0.0
 11
68.4219885005
 21
199.5240125792
 31
0.0
  0
LINE
  5
2DD
330
1F
100
AcDbEntity
  8
SLD-0
  6
Continuous
 62
   179
370
    15
100
AcDbLine
 10
68.4219885005
 20
189.0240173774
 30
0.0
 11
68.4219885005
 21
187.5240143376
 31
0.0
  0
LINE
  5
2DE
330
1F
100
AcDbEntity
  8
SLD-0
  6
Continuous
 62
   179
370
    15
100
AcDbLine
 10
68.4219885005
 20
193.024018033
 30
0.0
 11
68.4219885005
 21
191.5240149932
 31
0.0
  0
LINE
  5
2DF
330
1F
100
AcDbEntity
  8
SLD-0
  6
Continuous
 62
   179
370
    15
100
AcDbLine
 10
76.4219888804
 20
209.0240206556
 30
0.0
 11
76.4219888804
 21
207.5240176158
 31
0.0
  0
LINE
  5
2E0
330
1F
100
AcDbEntity
  8
SLD-0
  6
Continuous
 62
   179
370
    15
100
AcDbLine
 10
72.4219882248
 20
205.02402
 30
0.0
 11
71.6719904302
 21
205.7740177946
 31
0.0
  0
LINE
  5
2E1
330
1F
100
AcDbEntity
  8
SLD-0
  6
Continuous
 62
   179
370
    15
100
AcDbLine
 10
74.6719899906
 20
205.7740177946
 30
0.0
 11
73.921992196
 21
205.02402
 31
0.0
  0
LINE
  5
2E2
330
1F
100
AcDbEntity
  8
SLD-0
  6
Continuous
 62
   179
370
    15
100
AcDbLine
 10
73.921992196
 20
205.02402
 30
0.0
 11
72.4219882248
 21
205.02402
 31
0.0
  0
LINE
  5
2E3
330
1F
100
AcDbEntity
  8
SLD-0
  6
Continuous
 62
   179
370
    15
100
AcDbLine
 10
74.6719899906
 20
202.7740191655
 30
0.0
 11
73.921992196
 21
203.5240169602
 31
0.0
  0
LINE
  5
2E4
330
1F
100
AcDbEntity
  8
SLD-0
  6
Continuous
 62
   179
370
    15
100
AcDbLine
 10
73.921992196
 20
203.5240169602
 30
0.0
 11
73.921992196
 21
205.02402
 31
0.0
  0
LINE
  5
2E5
330
1F
100
AcDbEntity
  8
SLD-0
  6
Continuous
 62
   179
370
    15
100
AcDbLine
 10
60.4219882951
 20
197.0240186887
 30
0.0
 11
59.6719901003
 21
197.7740164833
 31
0.0
  0
LINE
  5
2E6
330
1F
100
AcDbEntity
  8
SLD-0
  6
Continuous
 62
   179
370
    15
100
AcDbLine
 10
60.4219882951
 20
197.0240186887
 30
0.0
 11
60.4219882951
 21
195.5240156489
 31
0.0
  0
LINE
  5
2E7
330
1F
100
AcDbEntity
  8
SLD-0
  6
Continuous
 62
   179
370
    15
100
AcDbLine
 10
64.4219883105
 20
193.024018033
 30
0.0
 11
63.6719900502
 21
193.7740158277
 31
0.0
  0
LINE
  5
2E8
330
1F
100
AcDbEntity
  8
SLD-0
  6
Continuous
 62
   179
370
    15
100
AcDbLine
 10
66.6719900763
 20
193.7740158277
 30
0.0
 11
65.921991816
 21
193.024018033
 31
0.0
  0
LINE
  5
2E9
330
1F
100
AcDbEntity
  8
SLD-0
  6
Continuous
 62
   179
370
    15
100
AcDbLine
 10
65.921991816
 20
193.024018033
 30
0.0
 11
64.4219883105
 21
193.024018033
 31
0.0
  0
LINE
  5
2EA
330
1F
100
AcDbEntity
  8
SLD-0
  6
Continuous
 62
   179
370
    15
100
AcDbLine
 10
66.6719900763
 20
197.7740164833
 30
0.0
 11
65.921991816
 21
197.0240186887
 31
0.0
  0
LINE
  5
2EB
330
1F
100
AcDbEntity
  8
SLD-0
  6
Continuous
 62
   179
370
    15
100
AcDbLine
 10
65.921991816
 20
197.0240186887
 30
0.0
 11
64.4219883105
 21
197.0240186887
 31
0.0
  0
LINE
  5
2EC
330
1F
100
AcDbEntity
  8
SLD-0
  6
Continuous
 62
   179
370
    15
100
AcDbLine
 10
66.6719900763
 20
190.7740171986
 30
0.0
 11
65.921991816
 21
191.5240149932
 31
0.0
  0
LINE
  5
2ED
330
1F
100
AcDbEntity
  8
SLD-0
  6
Continuous
 62
   179
370
    15
100
AcDbLine
 10
63.6719900502
 20
190.7740171986
 30
0.0
 11
64.4219883105
 21
191.5240149932
 31
0.0
  0
LINE
  5
2EE
330
1F
100
AcDbEntity
  8
SLD-0
  6
Continuous
 62
   179
370
    15
100
AcDbLine
 10
64.4219883105
 20
191.5240149932
 30
0.0
 11
65.921991816
 21
191.5240149932
 31
0.0
  0
LINE
  5
2EF
330
1F
100
AcDbEntity
  8
SLD-0
  6
Continuous
 62
   179
370
    15
100
AcDbLine
 10
65.921991816
 20
191.5240149932
 30
0.0
 11
65.921991816
 21
193.024018033
 31
0.0
  0
LINE
  5
2F0
330
1F
100
AcDbEntity
  8
SLD-0
  6
Continuous
 62
   179
370
    15
100
AcDbLine
 10
64.4219883105
 20
189.0240173774
 30
0.0
 11
63.6719900502
 21
189.774015172
 31
0.0
  0
LINE
  5
2F1
330
1F
100
AcDbEntity
  8
SLD-0
  6
Continuous
 62
   179
370
    15
100
AcDbLine
 10
66.6719900763
 20
189.774015172
 30
0.0
 11
65.921991816
 21
189.0240173774
 31
0.0
  0
LINE
  5
2F2
330
1F
100
AcDbEntity
  8
SLD-0
  6
Continuous
 62
   179
370
    15
100
AcDbLine
 10
65.921991816
 20
189.0240173774
 30
0.0
 11
64.4219883105
 21
189.0240173774
 31
0.0
  0
LINE
  5
2F3
330
1F
100
AcDbEntity
  8
SLD-0
  6
Continuous
 62
   179
370
    15
100
AcDbLine
 10
66.6719900763
 20
186.7740165429
 30
0.0
 11
65.921991816
 21
187.5240143376
 31
0.0
  0
LINE
  5
2F4
330
1F
100
AcDbEntity
  8
SLD-0
  6
Continuous
 62
   179
370
    15
100
AcDbLine
 10
65.921991816
 20
187.5240143376
 30
0.0
 11
65.921991816
 21
189.0240173774
 31
0.0
  0
LINE
  5
2F5
330
1F
100
AcDbEntity
  8
SLD-0
  6
Continuous
 62
   179
370
    15
100
AcDbLine
 10
63.6719900502
 20
186.7740165429
 30
0.0
 11
64.4219883105
 21
187.5240143376
 31
0.0
  0
LINE
  5
2F6
330
1F
100
AcDbEntity
  8
SLD-0
  6
Continuous
 62
   179
370
    15
100
AcDbLine
 10
64.4219883105
 20
187.5240143376
 30
0.0
 11
65.921991816
 21
187.5240143376
 31
0.0
  0
LINE
  5
2F7
330
1F
100
AcDbEntity
  8
SLD-0
  6
Continuous
 62
   179
370
    15
100
AcDbLine
 10
65.921991816
 20
195.5240156489
 30
0.0
 11
65.921991816
 21
197.0240186887
 31
0.0
  0
LINE
  5
2F8
330
1F
100
AcDbEntity
  8
SLD-0
  6
Continuous
 62
   179
370
    15
100
AcDbLine
 10
64.4219883105
 20
201.0240193443
 30
0.0
 11
63.6719900502
 21
201.774017139
 31
0.0
  0
LINE
  5
2F9
330
1F
100
AcDbEntity
  8
SLD-0
  6
Continuous
 62
   179
370
    15
100
AcDbLine
 10
66.6719900763
 20
201.774017139
 30
0.0
 11
65.921991816
 21
201.0240193443
 31
0.0
  0
LINE
  5
2FA
330
1F
100
AcDbEntity
  8
SLD-0
  6
Continuous
 62
   179
370
    15
100
AcDbLine
 10
65.921991816
 20
201.0240193443
 30
0.0
 11
64.4219883105
 21
201.0240193443
 31
0.0
  0
LINE
  5
2FB
330
1F
100
AcDbEntity
  8
SLD-0
  6
Continuous
 62
   179
370
    15
100
AcDbLine
 10
72.4219882248
 20
209.0240206556
 30
0.0
 11
71.6719904302
 21
209.7740184503
 31
0.0
  0
LINE
  5
2FC
330
1F
100
AcDbEntity
  8
SLD-0
  6
Continuous
 62
   179
370
    15
100
AcDbLine
 10
73.921992196
 20
209.0240206556
 30
0.0
 11
72.4219882248
 21
209.0240206556
 31
0.0
  0
LINE
  5
2FD
330
1F
100
AcDbEntity
  8
SLD-0
  6
Continuous
 62
   179
370
    15
100
AcDbLine
 10
64.4219883105
 20
203.5240169602
 30
0.0
 11
65.921991816
 21
203.5240169602
 31
0.0
  0
LINE
  5
2FE
330
1F
100
AcDbEntity
  8
SLD-0
  6
Continuous
 62
   179
370
    15
100
AcDbLine
 10
66.6719900763
 20
198.7740147846
 30
0.0
 11
65.921991816
 21
199.5240125792
 31
0.0
  0
LINE
  5
2FF
330
1F
100
AcDbEntity
  8
SLD-0
  6
Continuous
 62
   179
370
    15
100
AcDbLine
 10
63.6719900502
 20
198.7740147846
 30
0.0
 11
64.4219883105
 21
199.5240125792
 31
0.0
  0
LINE
  5
300
330
1F
100
AcDbEntity
  8
SLD-0
  6
Continuous
 62
   179
370
    15
100
AcDbLine
 10
64.4219883105
 20
199.5240125792
 30
0.0
 11
65.921991816
 21
199.5240125792
 31
0.0
  0
LINE
  5
301
330
1F
100
AcDbEntity
  8
SLD-0
  6
Continuous
 62
   179
370
    15
100
AcDbLine
 10
65.921991816
 20
199.5240125792
 30
0.0
 11
65.921991816
 21
201.0240193443
 31
0.0
  0
LINE
  5
302
330
1F
100
AcDbEntity
  8
SLD-0
  6
Continuous
 62
   179
370
    15
100
AcDbLine
 10
71.6719904302
 20
202.7740191655
 30
0.0
 11
72.4219882248
 21
203.5240169602
 31
0.0
  0
LINE
  5
303
330
1F
100
AcDbEntity
  8
SLD-0
  6
Continuous
 62
   179
370
    15
100
AcDbLine
 10
72.4219882248
 20
205.02402
 30
0.0
 11
72.4219882248
 21
203.5240169602
 31
0.0
  0
LINE
  5
304
330
1F
100
AcDbEntity
  8
SLD-0
  6
Continuous
 62
   179
370
    15
100
AcDbLine
 10
64.4219883105
 20
193.024018033
 30
0.0
 11
64.4219883105
 21
191.5240149932
 31
0.0
  0
LINE
  5
305
330
1F
100
AcDbEntity
  8
SLD-0
  6
Continuous
 62
   179
370
    15
100
AcDbLine
 10
64.4219883105
 20
189.0240173774
 30
0.0
 11
64.4219883105
 21
187.5240143376
 31
0.0
  0
LINE
  5
306
330
1F
100
AcDbEntity
  8
SLD-0
  6
Continuous
 62
   179
370
    15
100
AcDbLine
 10
58.6719901037
 20
194.7740178542
 30
0.0
 11
57.9219919017
 21
195.5240156489
 31
0.0
  0
LINE
  5
307
330
1F
100
AcDbEntity
  8
SLD-0
  6
Continuous
 62
   179
370
    15
100
AcDbLine
 10
55.6719901359
 20
194.7740178542
 30
0.0
 11
56.4219883962
 21
195.5240156489
 31
0.0
  0
LINE
  5
308
330
1F
100
AcDbEntity
  8
SLD-0
  6
Continuous
 62
   179
370
    15
100
AcDbLine
 10
56.4219883962
 20
195.5240156489
 30
0.0
 11
57.9219919017
 21
195.5240156489
 31
0.0
  0
LINE
  5
309
330
1F
100
AcDbEntity
  8
SLD-0
  6
Continuous
 62
   179
370
    15
100
AcDbLine
 10
69.9219915403
 20
203.5240169602
 30
0.0
 11
69.9219915403
 21
205.02402
 31
0.0
  0
LINE
  5
30A
330
1F
100
AcDbEntity
  8
SLD-0
  6
Continuous
 62
   179
370
    15
100
AcDbLine
 10
64.4219883105
 20
201.0240193443
 30
0.0
 11
64.4219883105
 21
199.5240125792
 31
0.0
  0
LINE
  5
30B
330
1F
100
AcDbEntity
  8
SLD-0
  6
Continuous
 62
   179
370
    15
100
AcDbLine
 10
72.4219882248
 20
209.0240206556
 30
0.0
 11
72.4219882248
 21
207.5240176158
 31
0.0
  0
LINE
  5
30C
330
1F
100
AcDbEntity
  8
SLD-0
  6
Continuous
 62
   179
370
    15
100
AcDbLine
 10
62.6719901191
 20
197.7740164833
 30
0.0
 11
61.9219918588
 21
197.0240186887
 31
0.0
  0
LINE
  5
30D
330
1F
100
AcDbEntity
  8
SLD-0
  6
Continuous
 62
   179
370
    15
100
AcDbLine
 10
61.9219918588
 20
195.5240156489
 30
0.0
 11
61.9219918588
 21
197.0240186887
 31
0.0
  0
LINE
  5
30E
330
1F
100
AcDbEntity
  8
SLD-0
  6
Continuous
 62
   179
370
    15
100
AcDbLine
 10
60.4219882951
 20
193.024018033
 30
0.0
 11
59.6719901003
 21
193.7740158277
 31
0.0
  0
LINE
  5
30F
330
1F
100
AcDbEntity
  8
SLD-0
  6
Continuous
 62
   179
370
    15
100
AcDbLine
 10
62.6719901191
 20
193.7740158277
 30
0.0
 11
61.9219918588
 21
193.024018033
 31
0.0
  0
LINE
  5
310
330
1F
100
AcDbEntity
  8
SLD-0
  6
Continuous
 62
   179
370
    15
100
AcDbLine
 10
61.9219918588
 20
193.024018033
 30
0.0
 11
60.4219882951
 21
193.024018033
 31
0.0
  0
LINE
  5
311
330
1F
100
AcDbEntity
  8
SLD-0
  6
Continuous
 62
   179
370
    15
100
AcDbLine
 10
62.6719901191
 20
190.7740171986
 30
0.0
 11
61.9219918588
 21
191.5240149932
 31
0.0
  0
LINE
  5
312
330
1F
100
AcDbEntity
  8
SLD-0
  6
Continuous
 62
   179
370
    15
100
AcDbLine
 10
59.6719901003
 20
190.7740171986
 30
0.0
 11
60.4219882951
 21
191.5240149932
 31
0.0
  0
LINE
  5
313
330
1F
100
AcDbEntity
  8
SLD-0
  6
Continuous
 62
   179
370
    15
100
AcDbLine
 10
60.4219882951
 20
191.5240149932
 30
0.0
 11
61.9219918588
 21
191.5240149932
 31
0.0
  0
LINE
  5
314
330
1F
100
AcDbEntity
  8
SLD-0
  6
Continuous
 62
   179
370
    15
100
AcDbLine
 10
60.4219882951
 20
189.0240173774
 30
0.0
 11
59.6719901003
 21
189.774015172
 31
0.0
  0
LINE
  5
315
330
1F
100
AcDbEntity
  8
SLD-0
  6
Continuous
 62
   179
370
    15
100
AcDbLine
 10
62.6719901191
 20
189.774015172
 30
0.0
 11
61.9219918588
 21
189.0240173774
 31
0.0
  0
LINE
  5
316
330
1F
100
AcDbEntity
  8
SLD-0
  6
Continuous
 62
   179
370
    15
100
AcDbLine
 10
61.9219918588
 20
189.0240173774
 30
0.0
 11
60.4219882951
 21
189.0240173774
 31
0.0
  0
LINE
  5
317
330
1F
100
AcDbEntity
  8
SLD-0
  6
Continuous
 62
   179
370
    15
100
AcDbLine
 10
56.4219883962
 20
197.0240186887
 30
0.0
 11
55.6719901359
 21
197.7740164833
 31
0.0
  0
LINE
  5
318
330
1F
100
AcDbEntity
  8
SLD-0
  6
Continuous
 62
   179
370
    15
100
AcDbLine
 10
56.4219883962
 20
197.0240186887
 30
0.0
 11
56.4219883962
 21
195.5240156489
 31
0.0
  0
LINE
  5
319
330
1F
100
AcDbEntity
  8
SLD-0
  6
Continuous
 62
   179
370
    15
100
AcDbLine
 10
62.6719901191
 20
186.7740165429
 30
0.0
 11
61.9219918588
 21
187.5240143376
 31
0.0
  0
LINE
  5
31A
330
1F
100
AcDbEntity
  8
SLD-0
  6
Continuous
 62
   179
370
    15
100
AcDbLine
 10
59.6719901003
 20
186.7740165429
 30
0.0
 11
60.4219882951
 21
187.5240143376
 31
0.0
  0
LINE
  5
31B
330
1F
100
AcDbEntity
  8
SLD-0
  6
Continuous
 62
   179
370
    15
100
AcDbLine
 10
60.4219882951
 20
187.5240143376
 30
0.0
 11
61.9219918588
 21
187.5240143376
 31
0.0
  0
LINE
  5
31C
330
1F
100
AcDbEntity
  8
SLD-0
  6
Continuous
 62
   179
370
    15
100
AcDbLine
 10
61.9219918588
 20
187.5240143376
 30
0.0
 11
61.9219918588
 21
189.0240173774
 31
0.0
  0
LINE
  5
31D
330
1F
100
AcDbEntity
  8
SLD-0
  6
Continuous
 62
   179
370
    15
100
AcDbLine
 10
61.9219918588
 20
191.5240149932
 30
0.0
 11
61.9219918588
 21
193.024018033
 31
0.0
  0
LINE
  5
31E
330
1F
100
AcDbEntity
  8
SLD-0
  6
Continuous
 62
   179
370
    15
100
AcDbLine
 10
61.9219918588
 20
197.0240186887
 30
0.0
 11
60.4219882951
 21
197.0240186887
 31
0.0
  0
LINE
  5
31F
330
1F
100
AcDbEntity
  8
SLD-0
  6
Continuous
 62
   179
370
    15
100
AcDbLine
 10
60.4219882951
 20
203.5240169602
 30
0.0
 11
61.9219918588
 21
203.5240169602
 31
0.0
  0
LINE
  5
320
330
1F
100
AcDbEntity
  8
SLD-0
  6
Continuous
 62
   179
370
    15
100
AcDbLine
 10
62.6719901191
 20
198.7740147846
 30
0.0
 11
61.9219918588
 21
199.5240125792
 31
0.0
  0
LINE
  5
321
330
1F
100
AcDbEntity
  8
SLD-0
  6
Continuous
 62
   179
370
    15
100
AcDbLine
 10
59.6719901003
 20
198.7740147846
 30
0.0
 11
60.4219882951
 21
199.5240125792
 31
0.0
  0
LINE
  5
322
330
1F
100
AcDbEntity
  8
SLD-0
  6
Continuous
 62
   179
370
    15
100
AcDbLine
 10
60.4219882951
 20
199.5240125792
 30
0.0
 11
61.9219918588
 21
199.5240125792
 31
0.0
  0
LINE
  5
323
330
1F
100
AcDbEntity
  8
SLD-0
  6
Continuous
 62
   179
370
    15
100
AcDbLine
 10
60.4219882951
 20
201.0240193443
 30
0.0
 11
59.6719901003
 21
201.774017139
 31
0.0
  0
LINE
  5
324
330
1F
100
AcDbEntity
  8
SLD-0
  6
Continuous
 62
   179
370
    15
100
AcDbLine
 10
62.6719901191
 20
201.774017139
 30
0.0
 11
61.9219918588
 21
201.0240193443
 31
0.0
  0
LINE
  5
325
330
1F
100
AcDbEntity
  8
SLD-0
  6
Continuous
 62
   179
370
    15
100
AcDbLine
 10
61.9219918588
 20
201.0240193443
 30
0.0
 11
60.4219882951
 21
201.0240193443
 31
0.0
  0
LINE
  5
326
330
1F
100
AcDbEntity
  8
SLD-0
  6
Continuous
 62
   179
370
    15
100
AcDbLine
 10
61.9219918588
 20
199.5240125792
 30
0.0
 11
61.9219918588
 21
201.0240193443
 31
0.0
  0
LINE
  5
327
330
1F
100
AcDbEntity
  8
SLD-0
  6
Continuous
 62
   179
370
    15
100
AcDbLine
 10
60.4219882951
 20
193.024018033
 30
0.0
 11
60.4219882951
 21
191.5240149932
 31
0.0
  0
LINE
  5
328
330
1F
100
AcDbEntity
  8
SLD-0
  6
Continuous
 62
   179
370
    15
100
AcDbLine
 10
60.4219882951
 20
189.0240173774
 30
0.0
 11
60.4219882951
 21
187.5240143376
 31
0.0
  0
LINE
  5
329
330
1F
100
AcDbEntity
  8
SLD-0
  6
Continuous
 62
   179
370
    15
100
AcDbLine
 10
60.4219882951
 20
201.0240193443
 30
0.0
 11
60.4219882951
 21
199.5240125792
 31
0.0
  0
LINE
  5
32A
330
1F
100
AcDbEntity
  8
SLD-0
  6
Continuous
 62
   179
370
    15
100
AcDbLine
 10
58.6719901037
 20
189.774015172
 30
0.0
 11
57.9219919017
 21
189.0240173774
 31
0.0
  0
LINE
  5
32B
330
1F
100
AcDbEntity
  8
SLD-0
  6
Continuous
 62
   179
370
    15
100
AcDbLine
 10
58.6719901037
 20
186.7740165429
 30
0.0
 11
57.9219919017
 21
187.5240143376
 31
0.0
  0
LINE
  5
32C
330
1F
100
AcDbEntity
  8
SLD-0
  6
Continuous
 62
   179
370
    15
100
AcDbLine
 10
57.9219919017
 20
187.5240143376
 30
0.0
 11
57.9219919017
 21
189.0240173774
 31
0.0
  0
LINE
  5
32D
330
1F
100
AcDbEntity
  8
SLD-0
  6
Continuous
 62
   179
370
    15
100
AcDbLine
 10
58.6719901037
 20
198.7740147846
 30
0.0
 11
57.9219919017
 21
199.5240125792
 31
0.0
  0
LINE
  5
32E
330
1F
100
AcDbEntity
  8
SLD-0
  6
Continuous
 62
   179
370
    15
100
AcDbLine
 10
55.6719901359
 20
198.7740147846
 30
0.0
 11
56.4219883962
 21
199.5240125792
 31
0.0
  0
LINE
  5
32F
330
1F
100
AcDbEntity
  8
SLD-0
  6
Continuous
 62
   179
370
    15
100
AcDbLine
 10
56.4219883962
 20
199.5240125792
 30
0.0
 11
57.9219919017
 21
199.5240125792
 31
0.0
  0
LINE
  5
330
330
1F
100
AcDbEntity
  8
SLD-0
  6
Continuous
 62
   179
370
    15
100
AcDbLine
 10
58.6719901037
 20
201.774017139
 30
0.0
 11
57.9219919017
 21
201.0240193443
 31
0.0
  0
LINE
  5
331
330
1F
100
AcDbEntity
  8
SLD-0
  6
Continuous
 62
   179
370
    15
100
AcDbLine
 10
57.9219919017
 20
199.5240125792
 30
0.0
 11
57.9219919017
 21
201.0240193443
 31
0.0
  0
LINE
  5
332
330
1F
100
AcDbEntity
  8
SLD-0
  6
Continuous
 62
   179
370
    15
100
AcDbLine
 10
56.4219883962
 20
193.024018033
 30
0.0
 11
55.6719901359
 21
193.7740158277
 31
0.0
  0
LINE
  5
333
330
1F
100
AcDbEntity
  8
SLD-0
  6
Continuous
 62
   179
370
    15
100
AcDbLine
 10
58.6719901037
 20
193.7740158277
 30
0.0
 11
57.9219919017
 21
193.024018033
 31
0.0
  0
LINE
  5
334
330
1F
100
AcDbEntity
  8
SLD-0
  6
Continuous
 62
   179
370
    15
100
AcDbLine
 10
57.9219919017
 20
193.024018033
 30
0.0
 11
56.4219883962
 21
193.024018033
 31
0.0
  0
LINE
  5
335
330
1F
100
AcDbEntity
  8
SLD-0
  6
Continuous
 62
   179
370
    15
100
AcDbLine
 10
58.6719901037
 20
190.7740171986
 30
0.0
 11
57.9219919017
 21
191.5240149932
 31
0.0
  0
LINE
  5
336
330
1F
100
AcDbEntity
  8
SLD-0
  6
Continuous
 62
   179
370
    15
100
AcDbLine
 10
57.9219919017
 20
191.5240149932
 30
0.0
 11
57.9219919017
 21
193.024018033
 31
0.0
  0
LINE
  5
337
330
1F
100
AcDbEntity
  8
SLD-0
  6
Continuous
 62
   179
370
    15
100
AcDbLine
 10
58.6719901037
 20
197.7740164833
 30
0.0
 11
57.9219919017
 21
197.0240186887
 31
0.0
  0
LINE
  5
338
330
1F
100
AcDbEntity
  8
SLD-0
  6
Continuous
 62
   179
370
    15
100
AcDbLine
 10
57.9219919017
 20
197.0240186887
 30
0.0
 11
56.4219883962
 21
197.0240186887
 31
0.0
  0
LINE
  5
339
330
1F
100
AcDbEntity
  8
SLD-0
  6
Continuous
 62
   179
370
    15
100
AcDbLine
 10
56.4219883962
 20
189.0240173774
 30
0.0
 11
55.6719901359
 21
189.774015172
 31
0.0
  0
LINE
  5
33A
330
1F
100
AcDbEntity
  8
SLD-0
  6
Continuous
 62
   179
370
    15
100
AcDbLine
 10
57.9219919017
 20
189.0240173774
 30
0.0
 11
56.4219883962
 21
189.0240173774
 31
0.0
  0
LINE
  5
33B
330
1F
100
AcDbEntity
  8
SLD-0
  6
Continuous
 62
   179
370
    15
100
AcDbLine
 10
57.9219919017
 20
195.5240156489
 30
0.0
 11
57.9219919017
 21
197.0240186887
 31
0.0
  0
LINE
  5
33C
330
1F
100
AcDbEntity
  8
SLD-0
  6
Continuous
 62
   179
370
    15
100
AcDbLine
 10
55.6719901359
 20
190.7740171986
 30
0.0
 11
56.4219883962
 21
191.5240149932
 31
0.0
  0
LINE
  5
33D
330
1F
100
AcDbEntity
  8
SLD-0
  6
Continuous
 62
   179
370
    15
100
AcDbLine
 10
56.4219883962
 20
191.5240149932
 30
0.0
 11
57.9219919017
 21
191.5240149932
 31
0.0
  0
LINE
  5
33E
330
1F
100
AcDbEntity
  8
SLD-0
  6
Continuous
 62
   179
370
    15
100
AcDbLine
 10
55.6719901359
 20
186.7740165429
 30
0.0
 11
56.4219883962
 21
187.5240143376
 31
0.0
  0
LINE
  5
33F
330
1F
100
AcDbEntity
  8
SLD-0
  6
Continuous
 62
   179
370
    15
100
AcDbLine
 10
56.4219883962
 20
187.5240143376
 30
0.0
 11
57.9219919017
 21
187.5240143376
 31
0.0
  0
LINE
  5
340
330
1F
100
AcDbEntity
  8
SLD-0
  6
Continuous
 62
   179
370
    15
100
AcDbLine
 10
56.4219883962
 20
203.5240169602
 30
0.0
 11
57.9219919017
 21
203.5240169602
 31
0.0
  0
LINE
  5
341
330
1F
100
AcDbEntity
  8
SLD-0
  6
Continuous
 62
   179
370
    15
100
AcDbLine
 10
56.4219883962
 20
201.0240193443
 30
0.0
 11
55.6719901359
 21
201.774017139
 31
0.0
  0
LINE
  5
342
330
1F
100
AcDbEntity
  8
SLD-0
  6
Continuous
 62
   179
370
    15
100
AcDbLine
 10
57.9219919017
 20
201.0240193443
 30
0.0
 11
56.4219883962
 21
201.0240193443
 31
0.0
  0
LINE
  5
343
330
1F
100
AcDbEntity
  8
SLD-0
  6
Continuous
 62
   179
370
    15
100
AcDbLine
 10
56.4219883962
 20
189.0240173774
 30
0.0
 11
56.4219883962
 21
187.5240143376
 31
0.0
  0
LINE
  5
344
330
1F
100
AcDbEntity
  8
SLD-0
  6
Continuous
 62
   179
370
    15
100
AcDbLine
 10
56.4219883962
 20
201.0240193443
 30
0.0
 11
56.4219883962
 21
199.5240125792
 31
0.0
  0
LINE
  5
345
330
1F
100
AcDbEntity
  8
SLD-0
  6
Continuous
 62
   179
370
    15
100
AcDbLine
 10
56.4219883962
 20
193.024018033
 30
0.0
 11
56.4219883962
 21
191.5240149932
 31
0.0
  0
LINE
  5
346
330
1F
100
AcDbEntity
  8
SLD-0
  6
Continuous
 62
   179
370
    15
100
AcDbLine
 10
80.4219876735
 20
199.5240125792
 30
0.0
 11
80.0699067621
 21
199.1719316678
 31
0.0
  0
LINE
  5
347
330
1F
100
AcDbEntity
  8
SLD-0
  6
Continuous
 62
   179
370
    15
100
AcDbLine
 10
80.4219876735
 20
199.5240125792
 30
0.0
 11
81.9219925759
 21
199.5240125792
 31
0.0
  0
LINE
  5
348
330
1F
100
AcDbEntity
  8
SLD-0
  6
Continuous
 62
   179
370
    15
100
AcDbLine
 10
82.6719903706
 20
198.7740147846
 30
0.0
 11
81.9219925759
 21
199.5240125792
 31
0.0
  0
LINE
  5
349
330
1F
100
AcDbEntity
  8
SLD-0
  6
Continuous
 62
   179
370
    15
100
AcDbLine
 10
88.4219889848
 20
197.0240186887
 30
0.0
 11
88.4219889848
 21
195.5240156489
 31
0.0
  0
LINE
  5
34A
330
1F
100
AcDbEntity
  8
SLD-0
  6
Continuous
 62
   179
370
    15
100
AcDbLine
 10
86.6719910262
 20
197.7740164833
 30
0.0
 11
85.9219913689
 21
197.0240186887
 31
0.0
  0
LINE
  5
34B
330
1F
100
AcDbEntity
  8
SLD-0
  6
Continuous
 62
   179
370
    15
100
AcDbLine
 10
86.6719910262
 20
194.7740178542
 30
0.0
 11
85.9219913689
 21
195.5240156489
 31
0.0
  0
LINE
  5
34C
330
1F
100
AcDbEntity
  8
SLD-0
  6
Continuous
 62
   179
370
    15
100
AcDbLine
 10
85.9219913689
 20
195.5240156489
 30
0.0
 11
85.9219913689
 21
197.0240186887
 31
0.0
  0
LINE
  5
34D
330
1F
100
AcDbEntity
  8
SLD-0
  6
Continuous
 62
   179
370
    15
100
AcDbLine
 10
79.6719898788
 20
201.774017139
 30
0.0
 11
80.4219876735
 21
201.0240193443
 31
0.0
  0
LINE
  5
34E
330
1F
100
AcDbEntity
  8
SLD-0
  6
Continuous
 62
   179
370
    15
100
AcDbLine
 10
80.4219876735
 20
201.0240193443
 30
0.0
 11
80.4219876735
 21
199.5240125792
 31
0.0
  0
LINE
  5
34F
330
1F
100
AcDbEntity
  8
SLD-0
  6
Continuous
 62
   179
370
    15
100
AcDbLine
 10
79.6719898788
 20
190.7740171986
 30
0.0
 11
80.3491135446
 21
191.4511408644
 31
0.0
  0
LINE
  5
350
330
1F
100
AcDbEntity
  8
SLD-0
  6
Continuous
 62
   179
370
    15
100
AcDbLine
 10
83.6719905345
 20
194.7740178542
 30
0.0
 11
84.4219883291
 21
195.5240156489
 31
0.0
  0
LINE
  5
351
330
1F
100
AcDbEntity
  8
SLD-0
  6
Continuous
 62
   179
370
    15
100
AcDbLine
 10
84.4219883291
 20
195.5240156489
 30
0.0
 11
85.9219913689
 21
195.5240156489
 31
0.0
  0
LINE
  5
352
330
1F
100
AcDbEntity
  8
SLD-0
  6
Continuous
 62
   179
370
    15
100
AcDbLine
 10
77.9948660491
 20
191.4511408644
 30
0.0
 11
78.6719897149
 21
190.7740171986
 31
0.0
  0
LINE
  5
353
330
1F
100
AcDbEntity
  8
SLD-0
  6
Continuous
 62
   179
370
    15
100
AcDbLine
 10
78.2740746943
 20
199.1719316678
 30
0.0
 11
77.9219919203
 21
199.5240125792
 31
0.0
  0
LINE
  5
354
330
1F
100
AcDbEntity
  8
SLD-0
  6
Continuous
 62
   179
370
    15
100
AcDbLine
 10
76.4219888804
 20
199.5240125792
 30
0.0
 11
75.6719892232
 21
198.7740147846
 31
0.0
  0
LINE
  5
355
330
1F
100
AcDbEntity
  8
SLD-0
  6
Continuous
 62
   179
370
    15
100
AcDbLine
 10
76.4219888804
 20
199.5240125792
 30
0.0
 11
77.9219919203
 21
199.5240125792
 31
0.0
  0
LINE
  5
356
330
1F
100
AcDbEntity
  8
SLD-0
  6
Continuous
 62
   179
370
    15
100
AcDbLine
 10
77.9219919203
 20
199.5240125792
 30
0.0
 11
77.9219919203
 21
201.0240193443
 31
0.0
  0
LINE
  5
357
330
1F
100
AcDbEntity
  8
SLD-0
  6
Continuous
 62
   179
370
    15
100
AcDbLine
 10
78.6719897149
 20
201.774017139
 30
0.0
 11
77.9219919203
 21
201.0240193443
 31
0.0
  0
LINE
  5
358
330
1F
100
AcDbEntity
  8
SLD-0
  6
Continuous
 62
   179
370
    15
100
AcDbLine
 10
84.4219883291
 20
197.0240186887
 30
0.0
 11
83.6719905345
 21
197.7740164833
 31
0.0
  0
LINE
  5
359
330
1F
100
AcDbEntity
  8
SLD-0
  6
Continuous
 62
   179
370
    15
100
AcDbLine
 10
84.4219883291
 20
197.0240186887
 30
0.0
 11
84.4219883291
 21
195.5240156489
 31
0.0
  0
LINE
  5
35A
330
1F
100
AcDbEntity
  8
SLD-0
  6
Continuous
 62
   179
370
    15
100
AcDbLine
 10
82.6719903706
 20
197.7740164833
 30
0.0
 11
82.4558713792
 21
197.5578974919
 31
0.0
  0
LINE
  5
35B
330
1F
100
AcDbEntity
  8
SLD-0
  6
Continuous
 62
   179
370
    15
100
AcDbLine
 10
80.4219876735
 20
203.5240169602
 30
0.0
 11
81.9219925759
 21
203.5240169602
 31
0.0
  0
LINE
  5
35C
330
1F
100
AcDbEntity
  8
SLD-0
  6
Continuous
 62
   179
370
    15
100
AcDbLine
 10
82.6719903706
 20
186.7740165429
 30
0.0
 11
81.9219925759
 21
187.5240143376
 31
0.0
  0
LINE
  5
35D
330
1F
100
AcDbEntity
  8
SLD-0
  6
Continuous
 62
   179
370
    15
100
AcDbLine
 10
79.6719898788
 20
186.7740165429
 30
0.0
 11
80.4219876735
 21
187.5240143376
 31
0.0
  0
LINE
  5
35E
330
1F
100
AcDbEntity
  8
SLD-0
  6
Continuous
 62
   179
370
    15
100
AcDbLine
 10
80.4219876735
 20
187.5240143376
 30
0.0
 11
81.9219925759
 21
187.5240143376
 31
0.0
  0
LINE
  5
35F
330
1F
100
AcDbEntity
  8
SLD-0
  6
Continuous
 62
   179
370
    15
100
AcDbLine
 10
81.9219925759
 20
191.5240149932
 30
0.0
 11
81.9219919031
 21
192.3692803007
 31
0.0
  0
LINE
  5
360
330
1F
100
AcDbEntity
  8
SLD-0
  6
Continuous
 62
   179
370
    15
100
AcDbLine
 10
82.6719903706
 20
190.7740171986
 30
0.0
 11
81.9219925759
 21
191.5240149932
 31
0.0
  0
LINE
  5
361
330
1F
100
AcDbEntity
  8
SLD-0
  6
Continuous
 62
   179
370
    15
100
AcDbLine
 10
80.5639263428
 20
191.5240143054
 30
0.0
 11
81.9219925759
 21
191.5240149932
 31
0.0
  0
LINE
  5
362
330
1F
100
AcDbEntity
  8
SLD-0
  6
Continuous
 62
   179
370
    15
100
AcDbLine
 10
80.4219876735
 20
189.0240173774
 30
0.0
 11
79.6719898788
 21
189.774015172
 31
0.0
  0
LINE
  5
363
330
1F
100
AcDbEntity
  8
SLD-0
  6
Continuous
 62
   179
370
    15
100
AcDbLine
 10
82.6719903706
 20
189.774015172
 30
0.0
 11
81.9219925759
 21
189.0240173774
 31
0.0
  0
LINE
  5
364
330
1F
100
AcDbEntity
  8
SLD-0
  6
Continuous
 62
   179
370
    15
100
AcDbLine
 10
81.9219925759
 20
189.0240173774
 30
0.0
 11
80.4219876735
 21
189.0240173774
 31
0.0
  0
LINE
  5
365
330
1F
100
AcDbEntity
  8
SLD-0
  6
Continuous
 62
   179
370
    15
100
AcDbLine
 10
88.4219889848
 20
189.0240173774
 30
0.0
 11
88.4219889848
 21
187.5240143376
 31
0.0
  0
LINE
  5
366
330
1F
100
AcDbEntity
  8
SLD-0
  6
Continuous
 62
   179
370
    15
100
AcDbLine
 10
88.4219889848
 20
193.024018033
 30
0.0
 11
88.4219889848
 21
191.5240149932
 31
0.0
  0
LINE
  5
367
330
1F
100
AcDbEntity
  8
SLD-0
  6
Continuous
 62
   179
370
    15
100
AcDbLine
 10
82.6719903706
 20
201.774017139
 30
0.0
 11
81.9219925759
 21
201.0240193443
 31
0.0
  0
LINE
  5
368
330
1F
100
AcDbEntity
  8
SLD-0
  6
Continuous
 62
   179
370
    15
100
AcDbLine
 10
81.9219925759
 20
199.5240125792
 30
0.0
 11
81.9219925759
 21
201.0240193443
 31
0.0
  0
LINE
  5
369
330
1F
100
AcDbEntity
  8
SLD-0
  6
Continuous
 62
   179
370
    15
100
AcDbLine
 10
81.9219925759
 20
201.0240193443
 30
0.0
 11
80.4219876735
 21
201.0240193443
 31
0.0
  0
LINE
  5
36A
330
1F
100
AcDbEntity
  8
SLD-0
  6
Continuous
 62
   179
370
    15
100
AcDbLine
 10
88.4219889848
 20
201.0240193443
 30
0.0
 11
88.4219889848
 21
199.5240125792
 31
0.0
  0
LINE
  5
36B
330
1F
100
AcDbEntity
  8
SLD-0
  6
Continuous
 62
   179
370
    15
100
AcDbLine
 10
80.4219876735
 20
189.0240173774
 30
0.0
 11
80.4219876735
 21
187.5240143376
 31
0.0
  0
LINE
  5
36C
330
1F
100
AcDbEntity
  8
SLD-0
  6
Continuous
 62
   179
370
    15
100
AcDbLine
 10
84.4219883291
 20
201.0240193443
 30
0.0
 11
83.6719905345
 21
201.774017139
 31
0.0
  0
LINE
  5
36D
330
1F
100
AcDbEntity
  8
SLD-0
  6
Continuous
 62
   179
370
    15
100
AcDbLine
 10
86.6719910262
 20
201.774017139
 30
0.0
 11
85.9219913689
 21
201.0240193443
 31
0.0
  0
LINE
  5
36E
330
1F
100
AcDbEntity
  8
SLD-0
  6
Continuous
 62
   179
370
    15
100
AcDbLine
 10
85.9219913689
 20
201.0240193443
 30
0.0
 11
84.4219883291
 21
201.0240193443
 31
0.0
  0
LINE
  5
36F
330
1F
100
AcDbEntity
  8
SLD-0
  6
Continuous
 62
   179
370
    15
100
AcDbLine
 10
86.6719910262
 20
193.7740158277
 30
0.0
 11
85.9219913689
 21
193.024018033
 31
0.0
  0
LINE
  5
370
330
1F
100
AcDbEntity
  8
SLD-0
  6
Continuous
 62
   179
370
    15
100
AcDbLine
 10
86.6719910262
 20
190.7740171986
 30
0.0
 11
85.9219913689
 21
191.5240149932
 31
0.0
  0
LINE
  5
371
330
1F
100
AcDbEntity
  8
SLD-0
  6
Continuous
 62
   179
370
    15
100
AcDbLine
 10
85.9219913689
 20
191.5240149932
 30
0.0
 11
85.9219913689
 21
193.024018033
 31
0.0
  0
LINE
  5
372
330
1F
100
AcDbEntity
  8
SLD-0
  6
Continuous
 62
   179
370
    15
100
AcDbLine
 10
86.6719910262
 20
198.7740147846
 30
0.0
 11
85.9219913689
 21
199.5240125792
 31
0.0
  0
LINE
  5
373
330
1F
100
AcDbEntity
  8
SLD-0
  6
Continuous
 62
   179
370
    15
100
AcDbLine
 10
83.6719905345
 20
198.7740147846
 30
0.0
 11
84.4219883291
 21
199.5240125792
 31
0.0
  0
LINE
  5
374
330
1F
100
AcDbEntity
  8
SLD-0
  6
Continuous
 62
   179
370
    15
100
AcDbLine
 10
84.4219883291
 20
199.5240125792
 30
0.0
 11
85.9219913689
 21
199.5240125792
 31
0.0
  0
LINE
  5
375
330
1F
100
AcDbEntity
  8
SLD-0
  6
Continuous
 62
   179
370
    15
100
AcDbLine
 10
86.6719910262
 20
189.774015172
 30
0.0
 11
85.9219913689
 21
189.0240173774
 31
0.0
  0
LINE
  5
376
330
1F
100
AcDbEntity
  8
SLD-0
  6
Continuous
 62
   179
370
    15
100
AcDbLine
 10
86.6719910262
 20
186.7740165429
 30
0.0
 11
85.9219913689
 21
187.5240143376
 31
0.0
  0
LINE
  5
377
330
1F
100
AcDbEntity
  8
SLD-0
  6
Continuous
 62
   179
370
    15
100
AcDbLine
 10
85.9219913689
 20
187.5240143376
 30
0.0
 11
85.9219913689
 21
189.0240173774
 31
0.0
  0
LINE
  5
378
330
1F
100
AcDbEntity
  8
SLD-0
  6
Continuous
 62
   179
370
    15
100
AcDbLine
 10
85.9219913689
 20
199.5240125792
 30
0.0
 11
85.9219913689
 21
201.0240193443
 31
0.0
  0
LINE
  5
379
330
1F
100
AcDbEntity
  8
SLD-0
  6
Continuous
 62
   179
370
    15
100
AcDbLine
 10
83.6719905345
 20
190.7740171986
 30
0.0
 11
84.4219883291
 21
191.5240149932
 31
0.0
  0
LINE
  5
37A
330
1F
100
AcDbEntity
  8
SLD-0
  6
Continuous
 62
   179
370
    15
100
AcDbLine
 10
84.4219883291
 20
191.5240149932
 30
0.0
 11
85.9219913689
 21
191.5240149932
 31
0.0
  0
LINE
  5
37B
330
1F
100
AcDbEntity
  8
SLD-0
  6
Continuous
 62
   179
370
    15
100
AcDbLine
 10
84.4219883291
 20
189.0240173774
 30
0.0
 11
83.6719905345
 21
189.774015172
 31
0.0
  0
LINE
  5
37C
330
1F
100
AcDbEntity
  8
SLD-0
  6
Continuous
 62
   179
370
    15
100
AcDbLine
 10
85.9219913689
 20
189.0240173774
 30
0.0
 11
84.4219883291
 21
189.0240173774
 31
0.0
  0
LINE
  5
37D
330
1F
100
AcDbEntity
  8
SLD-0
  6
Continuous
 62
   179
370
    15
100
AcDbLine
 10
83.6719905345
 20
186.7740165429
 30
0.0
 11
84.4219883291
 21
187.5240143376
 31
0.0
  0
LINE
  5
37E
330
1F
100
AcDbEntity
  8
SLD-0
  6
Continuous
 62
   179
370
    15
100
AcDbLine
 10
84.4219883291
 20
187.5240143376
 30
0.0
 11
85.9219913689
 21
187.5240143376
 31
0.0
  0
LINE
  5
37F
330
1F
100
AcDbEntity
  8
SLD-0
  6
Continuous
 62
   179
370
    15
100
AcDbLine
 10
84.4219883291
 20
193.024018033
 30
0.0
 11
83.6719905345
 21
193.7740158277
 31
0.0
  0
LINE
  5
380
330
1F
100
AcDbEntity
  8
SLD-0
  6
Continuous
 62
   179
370
    15
100
AcDbLine
 10
85.9219913689
 20
193.024018033
 30
0.0
 11
84.4219883291
 21
193.024018033
 31
0.0
  0
LINE
  5
381
330
1F
100
AcDbEntity
  8
SLD-0
  6
Continuous
 62
   179
370
    15
100
AcDbLine
 10
85.9219913689
 20
197.0240186887
 30
0.0
 11
84.4219883291
 21
197.0240186887
 31
0.0
  0
LINE
  5
382
330
1F
100
AcDbEntity
  8
SLD-0
  6
Continuous
 62
   179
370
    15
100
AcDbLine
 10
84.4219883291
 20
203.5240169602
 30
0.0
 11
85.9219913689
 21
203.5240169602
 31
0.0
  0
LINE
  5
383
330
1F
100
AcDbEntity
  8
SLD-0
  6
Continuous
 62
   179
370
    15
100
AcDbLine
 10
76.4219888804
 20
189.0240173774
 30
0.0
 11
75.6719892232
 21
189.774015172
 31
0.0
  0
LINE
  5
384
330
1F
100
AcDbEntity
  8
SLD-0
  6
Continuous
 62
   179
370
    15
100
AcDbLine
 10
78.6719897149
 20
189.774015172
 30
0.0
 11
77.9219919203
 21
189.0240173774
 31
0.0
  0
LINE
  5
385
330
1F
100
AcDbEntity
  8
SLD-0
  6
Continuous
 62
   179
370
    15
100
AcDbLine
 10
77.9219919203
 20
189.0240173774
 30
0.0
 11
76.4219888804
 21
189.0240173774
 31
0.0
  0
LINE
  5
386
330
1F
100
AcDbEntity
  8
SLD-0
  6
Continuous
 62
   179
370
    15
100
AcDbLine
 10
75.6719892232
 20
201.774017139
 30
0.0
 11
76.4219888804
 21
201.0240193443
 31
0.0
  0
LINE
  5
387
330
1F
100
AcDbEntity
  8
SLD-0
  6
Continuous
 62
   179
370
    15
100
AcDbLine
 10
77.9219919203
 20
201.0240193443
 30
0.0
 11
76.4219888804
 21
201.0240193443
 31
0.0
  0
LINE
  5
388
330
1F
100
AcDbEntity
  8
SLD-0
  6
Continuous
 62
   179
370
    15
100
AcDbLine
 10
78.6719897149
 20
186.7740165429
 30
0.0
 11
77.9219919203
 21
187.5240143376
 31
0.0
  0
LINE
  5
389
330
1F
100
AcDbEntity
  8
SLD-0
  6
Continuous
 62
   179
370
    15
100
AcDbLine
 10
75.6719892232
 20
186.7740165429
 30
0.0
 11
76.4219888804
 21
187.5240143376
 31
0.0
  0
LINE
  5
38A
330
1F
100
AcDbEntity
  8
SLD-0
  6
Continuous
 62
   179
370
    15
100
AcDbLine
 10
76.4219888804
 20
187.5240143376
 30
0.0
 11
77.9219919203
 21
187.5240143376
 31
0.0
  0
LINE
  5
38B
330
1F
100
AcDbEntity
  8
SLD-0
  6
Continuous
 62
   179
370
    15
100
AcDbLine
 10
77.9219919203
 20
187.5240143376
 30
0.0
 11
77.9219919203
 21
189.0240173774
 31
0.0
  0
LINE
  5
38C
330
1F
100
AcDbEntity
  8
SLD-0
  6
Continuous
 62
   179
370
    15
100
AcDbLine
 10
76.4219888804
 20
191.5240149932
 30
0.0
 11
77.7800538624
 21
191.5240143054
 31
0.0
  0
LINE
  5
38D
330
1F
100
AcDbEntity
  8
SLD-0
  6
Continuous
 62
   179
370
    15
100
AcDbLine
 10
75.6719892232
 20
190.7740171986
 30
0.0
 11
76.4219888804
 21
191.5240149932
 31
0.0
  0
LINE
  5
38E
330
1F
100
AcDbEntity
  8
SLD-0
  6
Continuous
 62
   179
370
    15
100
AcDbLine
 10
84.4219883291
 20
201.0240193443
 30
0.0
 11
84.4219883291
 21
199.5240125792
 31
0.0
  0
LINE
  5
38F
330
1F
100
AcDbEntity
  8
SLD-0
  6
Continuous
 62
   179
370
    15
100
AcDbLine
 10
84.4219883291
 20
193.024018033
 30
0.0
 11
84.4219883291
 21
191.5240149932
 31
0.0
  0
LINE
  5
390
330
1F
100
AcDbEntity
  8
SLD-0
  6
Continuous
 62
   179
370
    15
100
AcDbLine
 10
76.4219888804
 20
203.5240169602
 30
0.0
 11
77.9219919203
 21
203.5240169602
 31
0.0
  0
LINE
  5
391
330
1F
100
AcDbEntity
  8
SLD-0
  6
Continuous
 62
   179
370
    15
100
AcDbLine
 10
84.4219883291
 20
189.0240173774
 30
0.0
 11
84.4219883291
 21
187.5240143376
 31
0.0
  0
LINE
  5
392
330
1F
100
AcDbEntity
  8
SLD-0
  6
Continuous
 62
   179
370
    15
100
AcDbLine
 10
75.6719892232
 20
197.7740164833
 30
0.0
 11
75.8881082146
 21
197.5578974919
 31
0.0
  0
LINE
  5
393
330
1F
100
AcDbEntity
  8
SLD-0
  6
Continuous
 62
   179
370
    15
100
AcDbLine
 10
76.4219883022
 20
192.3692803007
 30
0.0
 11
76.4219888804
 21
191.5240149932
 31
0.0
  0
LINE
  5
394
330
1F
100
AcDbEntity
  8
SLD-0
  6
Continuous
 62
   179
370
    15
100
AcDbLine
 10
81.9219925759
 20
187.5240143376
 30
0.0
 11
81.9219925759
 21
189.0240173774
 31
0.0
  0
LINE
  5
395
330
1F
100
AcDbEntity
  8
SLD-0
  6
Continuous
 62
   179
370
    15
100
AcDbLine
 10
74.6719899906
 20
197.7740164833
 30
0.0
 11
73.921992196
 21
197.0240186887
 31
0.0
  0
LINE
  5
396
330
1F
100
AcDbEntity
  8
SLD-0
  6
Continuous
 62
   179
370
    15
100
AcDbLine
 10
74.6719899906
 20
194.7740178542
 30
0.0
 11
73.921992196
 21
195.5240156489
 31
0.0
  0
LINE
  5
397
330
1F
100
AcDbEntity
  8
SLD-0
  6
Continuous
 62
   179
370
    15
100
AcDbLine
 10
73.921992196
 20
195.5240156489
 30
0.0
 11
73.921992196
 21
197.0240186887
 31
0.0
  0
LINE
  5
398
330
1F
100
AcDbEntity
  8
SLD-0
  6
Continuous
 62
   179
370
    15
100
AcDbLine
 10
76.4219888804
 20
201.0240193443
 30
0.0
 11
76.4219888804
 21
199.5240125792
 31
0.0
  0
LINE
  5
399
330
1F
100
AcDbEntity
  8
SLD-0
  6
Continuous
 62
   179
370
    15
100
AcDbLine
 10
71.6719904302
 20
194.7740178542
 30
0.0
 11
72.4219882248
 21
195.5240156489
 31
0.0
  0
LINE
  5
39A
330
1F
100
AcDbEntity
  8
SLD-0
  6
Continuous
 62
   179
370
    15
100
AcDbLine
 10
72.4219882248
 20
195.5240156489
 30
0.0
 11
73.921992196
 21
195.5240156489
 31
0.0
  0
LINE
  5
39B
330
1F
100
AcDbEntity
  8
SLD-0
  6
Continuous
 62
   179
370
    15
100
AcDbLine
 10
72.4219882248
 20
197.0240186887
 30
0.0
 11
71.6719904302
 21
197.7740164833
 31
0.0
  0
LINE
  5
39C
330
1F
100
AcDbEntity
  8
SLD-0
  6
Continuous
 62
   179
370
    15
100
AcDbLine
 10
72.4219882248
 20
197.0240186887
 30
0.0
 11
72.4219882248
 21
195.5240156489
 31
0.0
  0
LINE
  5
39D
330
1F
100
AcDbEntity
  8
SLD-0
  6
Continuous
 62
   179
370
    15
100
AcDbLine
 10
69.9219915403
 20
195.5240156489
 30
0.0
 11
69.9219915403
 21
197.0240186887
 31
0.0
  0
LINE
  5
39E
330
1F
100
AcDbEntity
  8
SLD-0
  6
Continuous
 62
   179
370
    15
100
AcDbLine
 10
76.4219888804
 20
189.0240173774
 30
0.0
 11
76.4219888804
 21
187.5240143376
 31
0.0
  0
LINE
  5
39F
330
1F
100
AcDbEntity
  8
SLD-0
  6
Continuous
 62
   179
370
    15
100
AcDbLine
 10
74.6719899906
 20
198.7740147846
 30
0.0
 11
73.921992196
 21
199.5240125792
 31
0.0
  0
LINE
  5
3A0
330
1F
100
AcDbEntity
  8
SLD-0
  6
Continuous
 62
   179
370
    15
100
AcDbLine
 10
71.6719904302
 20
198.7740147846
 30
0.0
 11
72.4219882248
 21
199.5240125792
 31
0.0
  0
LINE
  5
3A1
330
1F
100
AcDbEntity
  8
SLD-0
  6
Continuous
 62
   179
370
    15
100
AcDbLine
 10
72.4219882248
 20
199.5240125792
 30
0.0
 11
73.921992196
 21
199.5240125792
 31
0.0
  0
LINE
  5
3A2
330
1F
100
AcDbEntity
  8
SLD-0
  6
Continuous
 62
   179
370
    15
100
AcDbLine
 10
72.4219882248
 20
193.024018033
 30
0.0
 11
71.6719904302
 21
193.7740158277
 31
0.0
  0
LINE
  5
3A3
330
1F
100
AcDbEntity
  8
SLD-0
  6
Continuous
 62
   179
370
    15
100
AcDbLine
 10
74.6719899906
 20
193.7740158277
 30
0.0
 11
73.921992196
 21
193.024018033
 31
0.0
  0
LINE
  5
3A4
330
1F
100
AcDbEntity
  8
SLD-0
  6
Continuous
 62
   179
370
    15
100
AcDbLine
 10
73.921992196
 20
193.024018033
 30
0.0
 11
72.4219882248
 21
193.024018033
 31
0.0
  0
LINE
  5
3A5
330
1F
100
AcDbEntity
  8
SLD-0
  6
Continuous
 62
   179
370
    15
100
AcDbLine
 10
74.6719899906
 20
190.7740171986
 30
0.0
 11
73.921992196
 21
191.5240149932
 31
0.0
  0
LINE
  5
3A6
330
1F
100
AcDbEntity
  8
SLD-0
  6
Continuous
 62
   179
370
    15
100
AcDbLine
 10
71.6719904302
 20
190.7740171986
 30
0.0
 11
72.4219882248
 21
191.5240149932
 31
0.0
  0
LINE
  5
3A7
330
1F
100
AcDbEntity
  8
SLD-0
  6
Continuous
 62
   179
370
    15
100
AcDbLine
 10
72.4219882248
 20
191.5240149932
 30
0.0
 11
73.921992196
 21
191.5240149932
 31
0.0
  0
LINE
  5
3A8
330
1F
100
AcDbEntity
  8
SLD-0
  6
Continuous
 62
   179
370
    15
100
AcDbLine
 10
73.921992196
 20
191.5240149932
 30
0.0
 11
73.921992196
 21
193.024018033
 31
0.0
  0
LINE
  5
3A9
330
1F
100
AcDbEntity
  8
SLD-0
  6
Continuous
 62
   179
370
    15
100
AcDbLine
 10
74.6719899906
 20
201.774017139
 30
0.0
 11
73.921992196
 21
201.0240193443
 31
0.0
  0
LINE
  5
3AA
330
1F
100
AcDbEntity
  8
SLD-0
  6
Continuous
 62
   179
370
    15
100
AcDbLine
 10
73.921992196
 20
199.5240125792
 30
0.0
 11
73.921992196
 21
201.0240193443
 31
0.0
  0
LINE
  5
3AB
330
1F
100
AcDbEntity
  8
SLD-0
  6
Continuous
 62
   179
370
    15
100
AcDbLine
 10
72.4219882248
 20
189.0240173774
 30
0.0
 11
71.6719904302
 21
189.774015172
 31
0.0
  0
LINE
  5
3AC
330
1F
100
AcDbEntity
  8
SLD-0
  6
Continuous
 62
   179
370
    15
100
AcDbLine
 10
74.6719899906
 20
189.774015172
 30
0.0
 11
73.921992196
 21
189.0240173774
 31
0.0
  0
LINE
  5
3AD
330
1F
100
AcDbEntity
  8
SLD-0
  6
Continuous
 62
   179
370
    15
100
AcDbLine
 10
73.921992196
 20
189.0240173774
 30
0.0
 11
72.4219882248
 21
189.0240173774
 31
0.0
  0
LINE
  5
3AE
330
1F
100
AcDbEntity
  8
SLD-0
  6
Continuous
 62
   179
370
    15
100
AcDbLine
 10
74.6719899906
 20
186.7740165429
 30
0.0
 11
73.921992196
 21
187.5240143376
 31
0.0
  0
LINE
  5
3AF
330
1F
100
AcDbEntity
  8
SLD-0
  6
Continuous
 62
   179
370
    15
100
AcDbLine
 10
73.921992196
 20
187.5240143376
 30
0.0
 11
73.921992196
 21
189.0240173774
 31
0.0
  0
LINE
  5
3B0
330
1F
100
AcDbEntity
  8
SLD-0
  6
Continuous
 62
   179
370
    15
100
AcDbLine
 10
71.6719904302
 20
186.7740165429
 30
0.0
 11
72.4219882248
 21
187.5240143376
 31
0.0
  0
LINE
  5
3B1
330
1F
100
AcDbEntity
  8
SLD-0
  6
Continuous
 62
   179
370
    15
100
AcDbLine
 10
72.4219882248
 20
187.5240143376
 30
0.0
 11
73.921992196
 21
187.5240143376
 31
0.0
  0
LINE
  5
3B2
330
1F
100
AcDbEntity
  8
SLD-0
  6
Continuous
 62
   179
370
    15
100
AcDbLine
 10
73.921992196
 20
197.0240186887
 30
0.0
 11
72.4219882248
 21
197.0240186887
 31
0.0
  0
LINE
  5
3B3
330
1F
100
AcDbEntity
  8
SLD-0
  6
Continuous
 62
   179
370
    15
100
AcDbLine
 10
72.4219882248
 20
203.5240169602
 30
0.0
 11
73.921992196
 21
203.5240169602
 31
0.0
  0
LINE
  5
3B4
330
1F
100
AcDbEntity
  8
SLD-0
  6
Continuous
 62
   179
370
    15
100
AcDbLine
 10
72.4219882248
 20
201.0240193443
 30
0.0
 11
71.6719904302
 21
201.774017139
 31
0.0
  0
LINE
  5
3B5
330
1F
100
AcDbEntity
  8
SLD-0
  6
Continuous
 62
   179
370
    15
100
AcDbLine
 10
73.921992196
 20
201.0240193443
 30
0.0
 11
72.4219882248
 21
201.0240193443
 31
0.0
  0
LINE
  5
3B6
330
1F
100
AcDbEntity
  8
SLD-0
  6
Continuous
 62
   179
370
    15
100
AcDbLine
 10
72.4219882248
 20
193.024018033
 30
0.0
 11
72.4219882248
 21
191.5240149932
 31
0.0
  0
LINE
  5
3B7
330
1F
100
AcDbEntity
  8
SLD-0
  6
Continuous
 62
   179
370
    15
100
AcDbLine
 10
72.4219882248
 20
189.0240173774
 30
0.0
 11
72.4219882248
 21
187.5240143376
 31
0.0
  0
LINE
  5
3B8
330
1F
100
AcDbEntity
  8
SLD-0
  6
Continuous
 62
   179
370
    15
100
AcDbLine
 10
72.4219882248
 20
201.0240193443
 30
0.0
 11
72.4219882248
 21
199.5240125792
 31
0.0
  0
LINE
  5
3B9
330
1F
100
AcDbEntity
  8
SLD-0
  6
Continuous
 62
   179
370
    15
100
AcDbLine
 10
69.9219915403
 20
187.5240143376
 30
0.0
 11
69.9219915403
 21
189.0240173774
 31
0.0
  0
LINE
  5
3BA
330
1F
100
AcDbEntity
  8
SLD-0
  6
Continuous
 62
   179
370
    15
100
AcDbLine
 10
69.9219915403
 20
191.5240149932
 30
0.0
 11
69.9219915403
 21
193.024018033
 31
0.0
  0
LINE
  5
3BB
330
1F
100
AcDbEntity
  8
SLD-0
  6
Continuous
 62
   179
370
    15
100
AcDbLine
 10
69.9219915403
 20
199.5240125792
 30
0.0
 11
69.9219915403
 21
201.0240193443
 31
0.0
  0
LINE
  5
3BC
330
1F
100
AcDbEntity
  8
SLD-0
  6
Continuous
 62
   179
370
    15
100
AcDbLine
 10
66.6719900763
 20
186.2740155296
 30
0.0
 11
66.6719901026
 21
185.3740161058
 31
0.0
  0
LINE
  5
3BD
330
1F
100
AcDbEntity
  8
SLD-0
  6
Continuous
 62
   179
370
    15
100
AcDbLine
 10
91.6719901026
 20
185.3740161058
 30
0.0
 11
66.6719901026
 21
185.3740161058
 31
0.0
  0
LINE
  5
3BE
330
1F
100
AcDbEntity
  8
SLD-0
  6
Continuous
 62
   179
370
    15
100
AcDbLine
 10
91.6719901026
 20
185.3740161058
 30
0.0
 11
91.6719899831
 21
186.2740155296
 31
0.0
  0
LINE
  5
3BF
330
1F
100
AcDbEntity
  8
SLD-0
  6
Continuous
 62
   179
370
    15
100
AcDbLine
 10
66.6719901026
 20
185.3740161058
 30
0.0
 11
66.6719901026
 21
182.2740161058
 31
0.0
  0
LINE
  5
3C0
330
1F
100
AcDbEntity
  8
SLD-0
  6
Continuous
 62
   179
370
    15
100
AcDbLine
 10
91.6719901026
 20
182.2740161058
 30
0.0
 11
91.6719901026
 21
185.3740161058
 31
0.0
  0
LINE
  5
3C1
330
1F
100
AcDbEntity
  8
SLD-0
  6
Continuous
 62
   179
370
    15
100
AcDbLine
 10
91.8719896434
 20
183.2740169005
 30
0.0
 11
104.1719892381
 21
183.2740169005
 31
0.0
  0
LINE
  5
3C2
330
1F
100
AcDbEntity
  8
SLD-0
  6
Continuous
 62
   179
370
    15
100
AcDbLine
 10
91.8719896434
 20
186.2740155296
 30
0.0
 11
91.8719896434
 21
183.2740169005
 31
0.0
  0
LINE
  5
3C3
330
1F
100
AcDbEntity
  8
SLD-0
  6
Continuous
 62
   179
370
    15
100
AcDbLine
 10
104.1719892381
 20
183.2740169005
 30
0.0
 11
104.1719892381
 21
186.2740155296
 31
0.0
  0
LINE
  5
3C4
330
1F
100
AcDbEntity
  8
SLD-0
  6
Continuous
 62
   179
370
    15
100
AcDbLine
 10
66.4719899504
 20
183.2740169005
 30
0.0
 11
54.17198989
 21
183.2740169005
 31
0.0
  0
LINE
  5
3C5
330
1F
100
AcDbEntity
  8
SLD-0
  6
Continuous
 62
   179
370
    15
100
AcDbLine
 10
66.4719899504
 20
182.274014874
 30
0.0
 11
66.4719899504
 21
183.2740169005
 31
0.0
  0
LINE
  5
3C6
330
1F
100
AcDbEntity
  8
SLD-0
  6
Continuous
 62
   179
370
    15
100
AcDbLine
 10
54.17198989
 20
182.274014874
 30
0.0
 11
66.4719899504
 21
182.274014874
 31
0.0
  0
LINE
  5
3C7
330
1F
100
AcDbEntity
  8
SLD-0
  6
Continuous
 62
   179
370
    15
100
AcDbLine
 10
54.17198989
 20
182.274014874
 30
0.0
 11
54.17198989
 21
183.2740169005
 31
0.0
  0
LINE
  5
3C8
330
1F
100
AcDbEntity
  8
SLD-0
  6
Continuous
 62
   179
370
    15
100
AcDbLine
 10
66.4719899504
 20
186.2740155296
 30
0.0
 11
66.4719899504
 21
183.2740169005
 31
0.0
  0
LINE
  5
3C9
330
1F
100
AcDbEntity
  8
SLD-0
  6
Continuous
 62
   179
370
    15
100
AcDbLine
 10
54.17198989
 20
186.2740155296
 30
0.0
 11
54.17198989
 21
183.2740169005
 31
0.0
  0
LINE
  5
3CA
330
1F
100
AcDbEntity
  8
SLD-0
  6
Continuous
 62
   179
370
    15
100
AcDbLine
 10
91.8719896434
 20
182.274014874
 30
0.0
 11
104.1719892381
 21
182.274014874
 31
0.0
  0
LINE
  5
3CB
330
1F
100
AcDbEntity
  8
SLD-0
  6
Continuous
 62
   179
370
    15
100
AcDbLine
 10
91.8719896434
 20
182.274014874
 30
0.0
 11
91.8719896434
 21
183.2740169005
 31
0.0
  0
LINE
  5
3CC
330
1F
100
AcDbEntity
  8
SLD-0
  6
Continuous
 62
   179
370
    15
100
AcDbLine
 10
104.1719892381
 20
182.274014874
 30
0.0
 11
104.1719892381
 21
183.2740169005
 31
0.0
  0
LINE
  5
3CD
330
1F
100
AcDbEntity
  8
SLD-0
  6
Continuous
 62
   179
370
    15
100
AcDbLine
 10
66.4719899504
 20
182.274014874
 30
0.0
 11
66.6719901026
 21
182.2740161058
 31
0.0
  0
LINE
  5
3CE
330
1F
100
AcDbEntity
  8
SLD-0
  6
Continuous
 62
   179
370
    15
100
AcDbLine
 10
91.6719901026
 20
182.2740161058
 30
0.0
 11
91.8719896434
 21
182.274014874
 31
0.0
  0
LINE
  5
3CF
330
1F
100
AcDbEntity
  8
SLD-0
  6
Continuous
 62
   179
370
    15
100
AcDbLine
 10
98.1719901026
 20
171.6468165892
 30
0.0
 11
98.1230453907
 21
171.5425860124
 31
0.0
  0
LINE
  5
3D0
330
1F
100
AcDbEntity
  8
SLD-0
  6
Continuous
 62
   179
370
    15
100
AcDbLine
 10
98.1230453907
 20
171.5425860124
 30
0.0
 11
97.9810075222
 21
171.4485596852
 31
0.0
  0
LINE
  5
3D1
330
1F
100
AcDbEntity
  8
SLD-0
  6
Continuous
 62
   179
370
    15
100
AcDbLine
 10
97.9810075222
 20
171.4485596852
 30
0.0
 11
97.7597737072
 21
171.3739421206
 31
0.0
  0
LINE
  5
3D2
330
1F
100
AcDbEntity
  8
SLD-0
  6
Continuous
 62
   179
370
    15
100
AcDbLine
 10
97.7597737072
 20
171.3739421206
 30
0.0
 11
97.4810065089
 21
171.3260330247
 31
0.0
  0
LINE
  5
3D3
330
1F
100
AcDbEntity
  8
SLD-0
  6
Continuous
 62
   179
370
    15
100
AcDbLine
 10
97.4810065089
 20
171.3260330247
 30
0.0
 11
97.1719899533
 21
171.3095244007
 31
0.0
  0
LINE
  5
3D4
330
1F
100
AcDbEntity
  8
SLD-0
  6
Continuous
 62
   179
370
    15
100
AcDbLine
 10
97.1719899533
 20
171.3095244007
 30
0.0
 11
96.8629733978
 21
171.3260330247
 31
0.0
  0
LINE
  5
3D5
330
1F
100
AcDbEntity
  8
SLD-0
  6
Continuous
 62
   179
370
    15
100
AcDbLine
 10
96.8629733978
 20
171.3260330247
 30
0.0
 11
96.5842061995
 21
171.3739421206
 31
0.0
  0
LINE
  5
3D6
330
1F
100
AcDbEntity
  8
SLD-0
  6
Continuous
 62
   179
370
    15
100
AcDbLine
 10
96.5842061995
 20
171.3739421206
 30
0.0
 11
96.3629723845
 21
171.4485596852
 31
0.0
  0
LINE
  5
3D7
330
1F
100
AcDbEntity
  8
SLD-0
  6
Continuous
 62
   179
370
    15
100
AcDbLine
 10
96.3629723845
 20
171.4485596852
 30
0.0
 11
96.220934516
 21
171.5425860124
 31
0.0
  0
LINE
  5
3D8
330
1F
100
AcDbEntity
  8
SLD-0
  6
Continuous
 62
   179
370
    15
100
AcDbLine
 10
96.220934516
 20
171.5425860124
 30
0.0
 11
96.1719901026
 21
171.6468165892
 31
0.0
  0
LINE
  5
3D9
330
1F
100
AcDbEntity
  8
SLD-0
  6
Continuous
 62
   179
370
    15
100
AcDbLine
 10
98.1590316949
 20
169.0553531038
 30
0.0
 11
98.1652641056
 21
168.9765967416
 31
0.0
  0
LINE
  5
3DA
330
1F
100
AcDbEntity
  8
SLD-0
  6
Continuous
 62
   179
370
    15
100
AcDbLine
 10
98.1652641056
 20
168.9765967416
 30
0.0
 11
98.0709434805
 21
168.7619920807
 31
0.0
  0
LINE
  5
3DB
330
1F
100
AcDbEntity
  8
SLD-0
  6
Continuous
 62
   179
370
    15
100
AcDbLine
 10
98.0709434805
 20
168.7619920807
 30
0.0
 11
97.8752763329
 21
168.5802780079
 31
0.0
  0
LINE
  5
3DC
330
1F
100
AcDbEntity
  8
SLD-0
  6
Continuous
 62
   179
370
    15
100
AcDbLine
 10
97.8752763329
 20
168.5802780079
 30
0.0
 11
97.6003163813
 21
168.4519380318
 31
0.0
  0
LINE
  5
3DD
330
1F
100
AcDbEntity
  8
SLD-0
  6
Continuous
 62
   179
370
    15
100
AcDbLine
 10
97.6003163813
 20
168.4519380318
 30
0.0
 11
97.2770654915
 21
168.3914430426
 31
0.0
  0
LINE
  5
3DE
330
1F
100
AcDbEntity
  8
SLD-0
  6
Continuous
 62
   179
370
    15
100
AcDbLine
 10
97.2770654915
 20
168.3914430426
 30
0.0
 11
97.1719899533
 21
168.3877568679
 31
0.0
  0
LINE
  5
3DF
330
1F
100
AcDbEntity
  8
SLD-0
  6
Continuous
 62
   179
370
    15
100
AcDbLine
 10
97.1719899533
 20
168.3877568679
 30
0.0
 11
96.8409830092
 21
168.4252966182
 31
0.0
  0
LINE
  5
3E0
330
1F
100
AcDbEntity
  8
SLD-0
  6
Continuous
 62
   179
370
    15
100
AcDbLine
 10
96.8409830092
 20
168.4252966182
 30
0.0
 11
96.5472960232
 21
168.5336858021
 31
0.0
  0
LINE
  5
3E1
330
1F
100
AcDbEntity
  8
SLD-0
  6
Continuous
 62
   179
370
    15
100
AcDbLine
 10
96.5472960232
 20
168.5336858021
 30
0.0
 11
96.3240393756
 21
168.7007036047
 31
0.0
  0
LINE
  5
3E2
330
1F
100
AcDbEntity
  8
SLD-0
  6
Continuous
 62
   179
370
    15
100
AcDbLine
 10
96.3240393756
 20
168.7007036047
 30
0.0
 11
96.1963811276
 21
168.9075186836
 31
0.0
  0
LINE
  5
3E3
330
1F
100
AcDbEntity
  8
SLD-0
  6
Continuous
 62
   179
370
    15
100
AcDbLine
 10
96.1963811276
 20
168.9075186836
 30
0.0
 11
96.1847805737
 21
169.0541535603
 31
0.0
  0
LINE
  5
3E4
330
1F
100
AcDbEntity
  8
SLD-0
  6
Continuous
 62
   179
370
    15
100
AcDbLine
 10
92.4219901026
 20
140.2740161058
 30
0.0
 11
92.4219915031
 21
182.274014874
 31
0.0
  0
LINE
  5
3E5
330
1F
100
AcDbEntity
  8
SLD-0
  6
Continuous
 62
   179
370
    15
100
AcDbLine
 10
87.9219898341
 20
182.274014874
 30
0.0
 11
87.9219901026
 21
140.2740161058
 31
0.0
  0
LINE
  5
3E6
330
1F
100
AcDbEntity
  8
SLD-0
  6
Continuous
 62
   179
370
    15
100
AcDbLine
 10
55.1719901282
 20
135.2740161058
 30
0.0
 11
93.171989372
 21
135.2740161058
 31
0.0
  0
LINE
  5
3E7
330
1F
100
AcDbEntity
  8
SLD-0
  6
Continuous
 62
   179
370
    15
100
AcDbLine
 10
53.1719902661
 20
137.2740162008
 30
0.0
 11
55.1719901282
 21
135.2740161058
 31
0.0
  0
LINE
  5
3E8
330
1F
100
AcDbEntity
  8
SLD-0
  6
Continuous
 62
   179
370
    15
100
AcDbLine
 10
53.1719902661
 20
203.2740128163
 30
0.0
 11
53.1719902661
 21
137.2740162008
 31
0.0
  0
LINE
  5
3E9
330
1F
100
AcDbEntity
  8
SLD-0
  6
Continuous
 62
   179
370
    15
100
AcDbLine
 10
54.1719899643
 20
204.2740148429
 30
0.0
 11
53.1719902661
 21
203.2740128163
 31
0.0
  0
LINE
  5
3EA
330
1F
100
AcDbEntity
  8
SLD-0
  6
Continuous
 62
   179
370
    15
100
AcDbLine
 10
60.4219901769
 20
140.2740161058
 30
0.0
 11
60.4219901769
 21
182.274014874
 31
0.0
  0
LINE
  5
3EB
330
1F
100
AcDbEntity
  8
SLD-0
  6
Continuous
 62
   179
370
    15
100
AcDbLine
 10
55.9219901769
 20
182.274014874
 30
0.0
 11
55.9219901769
 21
140.2740161058
 31
0.0
  0
LINE
  5
3EC
330
1F
100
AcDbEntity
  8
SLD-0
  6
Continuous
 62
   179
370
    15
100
AcDbLine
 10
95.1719896998
 20
137.2740162008
 30
0.0
 11
95.1719896998
 21
182.2740149621
 31
0.0
  0
LINE
  5
3ED
330
1F
100
AcDbEntity
  8
SLD-0
  6
Continuous
 62
   179
370
    15
100
AcDbLine
 10
93.171989372
 20
135.2740161058
 30
0.0
 11
95.1719896998
 21
137.2740162008
 31
0.0
  0
LINE
  5
3EE
330
1F
100
AcDbEntity
  8
SLD-0
  6
Continuous
 62
   179
370
    15
100
AcDbLine
 10
97.1719901026
 20
176.706199852
 30
0.0
 11
96.1719901026
 21
176.706199852
 31
0.0
  0
LINE
  5
3EF
330
1F
100
AcDbEntity
  8
SLD-0
  6
Continuous
 62
   179
370
    15
100
AcDbLine
 10
98.1719901026
 20
176.706199852
 30
0.0
 11
97.1719901026
 21
176.706199852
 31
0.0
  0
LINE
  5
3F0
330
1F
100
AcDbEntity
  8
SLD-0
  6
HIDDEN
 62
   179
370
     0
100
AcDbLine
 10
82.1719901026
 20
192.2740161058
 30
0.0
 11
82.6719903706
 21
192.7740175264
 31
0.0
  0
LINE
  5
3F1
330
1F
100
AcDbEntity
  8
SLD-0
  6
HIDDEN
 62
   179
370
     0
100
AcDbLine
 10
76.1719902365
 20
192.2740165131
 30
0.0
 11
82.1719901026
 21
192.2740161058
 31
0.0
  0
LINE
  5
3F2
330
1F
100
AcDbEntity
  8
SLD-0
  6
HIDDEN
 62
   179
370
     0
100
AcDbLine
 10
75.6719892232
 20
192.7740175264
 30
0.0
 11
76.1719902365
 21
192.2740165131
 31
0.0
  0
LINE
  5
3F3
330
1F
100
AcDbEntity
  8
SLD-0
  6
HIDDEN
 62
   179
370
     0
100
AcDbLine
 10
75.6719901026
 20
197.2105077789
 30
0.0
 11
75.6719901026
 21
193.3375244327
 31
0.0
  0
LINE
  5
3F4
330
1F
100
AcDbEntity
  8
SLD-0
  6
HIDDEN
 62
   179
370
     0
100
AcDbLine
 10
76.1719902365
 20
198.2740174966
 30
0.0
 11
75.6719892232
 21
197.7740164833
 31
0.0
  0
LINE
  5
3F5
330
1F
100
AcDbEntity
  8
SLD-0
  6
HIDDEN
 62
   179
370
     0
100
AcDbLine
 10
82.1719901026
 20
198.2740161058
 30
0.0
 11
76.1719902365
 21
198.2740174966
 31
0.0
  0
LINE
  5
3F6
330
1F
100
AcDbEntity
  8
SLD-0
  6
HIDDEN
 62
   179
370
     0
100
AcDbLine
 10
82.6719903706
 20
197.7740164833
 30
0.0
 11
82.1719901026
 21
198.2740161058
 31
0.0
  0
LINE
  5
3F7
330
1F
100
AcDbEntity
  8
SLD-0
  6
HIDDEN
 62
   179
370
     0
100
AcDbLine
 10
82.6719901026
 20
193.3375244327
 30
0.0
 11
82.6719901026
 21
197.2105077789
 31
0.0
  0
LINE
  5
3F8
330
1F
100
AcDbEntity
  8
SLD-0
  6
HIDDEN
 62
   179
370
     0
100
AcDbLine
 10
76.1719902365
 20
189.274017884
 30
0.0
 11
82.1719893573
 21
189.274017884
 31
0.0
  0
LINE
  5
3F9
330
1F
100
AcDbEntity
  8
SLD-0
  6
HIDDEN
 62
   179
370
     0
100
AcDbLine
 10
75.6719892232
 20
190.7740171986
 30
0.0
 11
75.6719892232
 21
189.774015172
 31
0.0
  0
LINE
  5
3FA
330
1F
100
AcDbEntity
  8
SLD-0
  6
HIDDEN
 62
   179
370
     0
100
AcDbLine
 10
82.6719903706
 20
189.774015172
 30
0.0
 11
82.6719903706
 21
190.7740171986
 31
0.0
  0
LINE
  5
3FB
330
1F
100
AcDbEntity
  8
SLD-0
  6
HIDDEN
 62
   179
370
     0
100
AcDbLine
 10
82.6719903706
 20
200.7740151124
 30
0.0
 11
82.1719893573
 21
201.2740161257
 31
0.0
  0
LINE
  5
3FC
330
1F
100
AcDbEntity
  8
SLD-0
  6
HIDDEN
 62
   179
370
     0
100
AcDbLine
 10
76.1719902365
 20
201.2740161257
 30
0.0
 11
75.6719892232
 21
200.7740151124
 31
0.0
  0
LINE
  5
3FD
330
1F
100
AcDbEntity
  8
SLD-0
  6
HIDDEN
 62
   179
370
     0
100
AcDbLine
 10
82.1719893573
 20
201.2740161257
 30
0.0
 11
76.1719902365
 21
201.2740161257
 31
0.0
  0
LINE
  5
3FE
330
1F
100
AcDbEntity
  8
SLD-0
  6
HIDDEN
 62
   179
370
     0
100
AcDbLine
 10
75.6719892232
 20
198.7740147846
 30
0.0
 11
75.6719892232
 21
197.7740164833
 31
0.0
  0
LINE
  5
3FF
330
1F
100
AcDbEntity
  8
SLD-0
  6
HIDDEN
 62
   179
370
     0
100
AcDbLine
 10
82.6719903706
 20
197.7740164833
 30
0.0
 11
82.6719903706
 21
198.7740147846
 31
0.0
  0
LINE
  5
400
330
1F
100
AcDbEntity
  8
SLD-0
  6
HIDDEN
 62
   179
370
     0
100
AcDbLine
 10
104.1659915207
 20
189.274017884
 30
0.0
 11
91.6719899831
 21
189.274017884
 31
0.0
  0
LINE
  5
401
330
1F
100
AcDbEntity
  8
SLD-0
  6
HIDDEN
 62
   179
370
     0
100
AcDbLine
 10
104.1659901026
 20
207.7740161058
 30
0.0
 11
104.1659915207
 21
189.274017884
 31
0.0
  0
LINE
  5
402
330
1F
100
AcDbEntity
  8
SLD-0
  6
HIDDEN
 62
   179
370
     0
100
AcDbLine
 10
91.6719899831
 20
186.7740165429
 30
0.0
 11
91.6719899831
 21
186.2740155296
 31
0.0
  0
LINE
  5
403
330
1F
100
AcDbEntity
  8
SLD-0
  6
HIDDEN
 62
   179
370
     0
100
AcDbLine
 10
66.6719900763
 20
186.2740155296
 30
0.0
 11
66.6719900763
 21
186.7740165429
 31
0.0
  0
LINE
  5
404
330
1F
100
AcDbEntity
  8
SLD-0
  6
HIDDEN
 62
   179
370
     0
100
AcDbLine
 10
54.1779899357
 20
189.274017884
 30
0.0
 11
66.6719900763
 21
189.274017884
 31
0.0
  0
LINE
  5
405
330
1F
100
AcDbEntity
  8
SLD-0
  6
HIDDEN
 62
   179
370
     0
100
AcDbLine
 10
54.1779901026
 20
207.7740161058
 30
0.0
 11
54.1779899357
 21
189.274017884
 31
0.0
  0
LINE
  5
406
330
1F
100
AcDbEntity
  8
SLD-0
  6
HIDDEN
 62
   179
370
     0
100
AcDbLine
 10
54.1779901026
 20
210.2740161058
 30
0.0
 11
54.1779901026
 21
207.7740161058
 31
0.0
  0
LINE
  5
407
330
1F
100
AcDbEntity
  8
SLD-0
  6
HIDDEN
 62
   179
370
     0
100
AcDbLine
 10
104.1659901026
 20
210.2740161058
 30
0.0
 11
104.1659901026
 21
207.7740161058
 31
0.0
  0
LINE
  5
408
330
1F
100
AcDbEntity
  8
SLD-0
  6
HIDDEN
 62
   179
370
     0
100
AcDbLine
 10
54.1779901026
 20
207.7740161058
 30
0.0
 11
104.1659901026
 21
207.7740161058
 31
0.0
  0
LINE
  5
409
330
1F
100
AcDbEntity
  8
SLD-0
  6
HIDDEN
 62
   179
370
     0
100
AcDbLine
 10
91.8719896434
 20
188.3740175502
 30
0.0
 11
91.8719896434
 21
186.2740155296
 31
0.0
  0
LINE
  5
40A
330
1F
100
AcDbEntity
  8
SLD-0
  6
HIDDEN
 62
   179
370
     0
100
AcDbLine
 10
91.8719896434
 20
188.3740175502
 30
0.0
 11
104.1719892381
 21
188.3740175502
 31
0.0
  0
LINE
  5
40B
330
1F
100
AcDbEntity
  8
SLD-0
  6
HIDDEN
 62
   179
370
     0
100
AcDbLine
 10
54.17198989
 20
188.3740175502
 30
0.0
 11
66.4719899504
 21
188.3740175502
 31
0.0
  0
LINE
  5
40C
330
1F
100
AcDbEntity
  8
SLD-0
  6
HIDDEN
 62
   179
370
     0
100
AcDbLine
 10
66.4719899504
 20
188.3740175502
 30
0.0
 11
66.4719899504
 21
186.2740155296
 31
0.0
  0
LINE
  5
40D
330
1F
100
AcDbEntity
  8
SLD-0
  6
HIDDEN
 62
   179
370
     0
100
AcDbLine
 10
91.6719899831
 20
188.674015178
 30
0.0
 11
91.8719896434
 21
188.674015178
 31
0.0
  0
LINE
  5
40E
330
1F
100
AcDbEntity
  8
SLD-0
  6
HIDDEN
 62
   179
370
     0
100
AcDbLine
 10
104.1719892381
 20
191.7740154998
 30
0.0
 11
104.1659915207
 21
191.7740154998
 31
0.0
  0
LINE
  5
40F
330
1F
100
AcDbEntity
  8
SLD-0
  6
HIDDEN
 62
   179
370
     0
100
AcDbLine
 10
91.8719896434
 20
188.674015178
 30
0.0
 11
91.8719896434
 21
188.3740175502
 31
0.0
  0
LINE
  5
410
330
1F
100
AcDbEntity
  8
SLD-0
  6
HIDDEN
 62
   179
370
     0
100
AcDbLine
 10
104.1659915207
 20
191.7740154998
 30
0.0
 11
97.1719899533
 21
191.7740154998
 31
0.0
  0
LINE
  5
411
330
1F
100
AcDbEntity
  8
SLD-0
  6
HIDDEN
 62
   179
370
     0
100
AcDbLine
 10
54.1779899357
 20
208.6740147309
 30
0.0
 11
104.1659915207
 21
208.6740147309
 31
0.0
  0
LINE
  5
412
330
1F
100
AcDbEntity
  8
SLD-0
  6
HIDDEN
 62
   179
370
     0
100
AcDbLine
 10
97.1719899533
 20
191.7740154998
 30
0.0
 11
97.1719899533
 21
206.7740198212
 31
0.0
  0
LINE
  5
413
330
1F
100
AcDbEntity
  8
SLD-0
  6
HIDDEN
 62
   179
370
     0
100
AcDbLine
 10
66.6719900763
 20
188.674015178
 30
0.0
 11
91.6719899831
 21
188.674015178
 31
0.0
  0
LINE
  5
414
330
1F
100
AcDbEntity
  8
SLD-0
  6
HIDDEN
 62
   179
370
     0
100
AcDbLine
 10
54.1779899357
 20
206.7740198212
 30
0.0
 11
54.17198989
 21
206.7740198212
 31
0.0
  0
LINE
  5
415
330
1F
100
AcDbEntity
  8
SLD-0
  6
HIDDEN
 62
   179
370
     0
100
AcDbLine
 10
66.4719899504
 20
188.674015178
 30
0.0
 11
66.6719900763
 21
188.674015178
 31
0.0
  0
LINE
  5
416
330
1F
100
AcDbEntity
  8
SLD-0
  6
HIDDEN
 62
   179
370
     0
100
AcDbLine
 10
66.4719899504
 20
188.674015178
 30
0.0
 11
66.4719899504
 21
188.3740175502
 31
0.0
  0
LINE
  5
417
330
1F
100
AcDbEntity
  8
SLD-0
  6
HIDDEN
 62
   179
370
     0
100
AcDbLine
 10
103.1719901026
 20
186.8740161058
 30
0.0
 11
103.1719901026
 21
183.8740161058
 31
0.0
  0
LINE
  5
418
330
1F
100
AcDbEntity
  8
SLD-0
  6
HIDDEN
 62
   179
370
     0
100
AcDbLine
 10
55.1719901026
 20
183.8740161058
 30
0.0
 11
55.1719901026
 21
186.8740161058
 31
0.0
  0
LINE
  5
419
330
1F
100
AcDbEntity
  8
SLD-0
  6
HIDDEN
 62
   179
370
     0
100
AcDbLine
 10
66.6719901026
 20
185.3740161058
 30
0.0
 11
91.6719901026
 21
185.3740161058
 31
0.0
  0
LINE
  5
41A
330
1F
100
AcDbEntity
  8
SLD-0
  6
HIDDEN
 62
   179
370
     0
100
AcDbLine
 10
103.6719901026
 20
186.3740161058
 30
0.0
 11
103.6719901026
 21
184.3740161058
 31
0.0
  0
LINE
  5
41B
330
1F
100
AcDbEntity
  8
SLD-0
  6
HIDDEN
 62
   179
370
     0
100
AcDbLine
 10
54.6719901026
 20
184.3740161058
 30
0.0
 11
54.6719901026
 21
186.3740161058
 31
0.0
  0
LINE
  5
41C
330
1F
100
AcDbEntity
  8
SLD-0
  6
HIDDEN
 62
   179
370
     0
100
AcDbLine
 10
54.1779901026
 20
207.7740161058
 30
0.0
 11
54.17198989
 21
207.7740143972
 31
0.0
  0
LINE
  5
41D
330
1F
100
AcDbEntity
  8
SLD-0
  6
HIDDEN
 62
   179
370
     0
100
AcDbLine
 10
97.1719899533
 20
207.7740143972
 30
0.0
 11
97.1719899533
 21
206.7740198212
 31
0.0
  0
LINE
  5
41E
330
1F
100
AcDbEntity
  8
SLD-0
  6
HIDDEN
 62
   179
370
     0
100
AcDbLine
 10
95.6719906388
 20
206.7740198212
 30
0.0
 11
94.6719886122
 21
206.7740198212
 31
0.0
  0
LINE
  5
41F
330
1F
100
AcDbEntity
  8
SLD-0
  6
HIDDEN
 62
   179
370
     0
100
AcDbLine
 10
91.6719899831
 20
206.7740198212
 30
0.0
 11
90.6719898192
 21
206.7740198212
 31
0.0
  0
LINE
  5
420
330
1F
100
AcDbEntity
  8
SLD-0
  6
HIDDEN
 62
   179
370
     0
100
AcDbLine
 10
87.6719893275
 20
206.7740198212
 30
0.0
 11
86.6719910262
 21
206.7740198212
 31
0.0
  0
LINE
  5
421
330
1F
100
AcDbEntity
  8
SLD-0
  6
HIDDEN
 62
   179
370
     0
100
AcDbLine
 10
83.6719905345
 20
206.7740198212
 30
0.0
 11
82.6719903706
 21
206.7740198212
 31
0.0
  0
LINE
  5
422
330
1F
100
AcDbEntity
  8
SLD-0
  6
HIDDEN
 62
   179
370
     0
100
AcDbLine
 10
79.6719898788
 20
206.7740198212
 30
0.0
 11
78.6719897149
 21
206.7740198212
 31
0.0
  0
LINE
  5
423
330
1F
100
AcDbEntity
  8
SLD-0
  6
HIDDEN
 62
   179
370
     0
100
AcDbLine
 10
75.6719892232
 20
206.7740198212
 30
0.0
 11
74.6719899906
 21
206.7740198212
 31
0.0
  0
LINE
  5
424
330
1F
100
AcDbEntity
  8
SLD-0
  6
HIDDEN
 62
   179
370
     0
100
AcDbLine
 10
71.6719904302
 20
206.7740198212
 30
0.0
 11
70.6719902663
 21
206.7740198212
 31
0.0
  0
LINE
  5
425
330
1F
100
AcDbEntity
  8
SLD-0
  6
HIDDEN
 62
   179
370
     0
100
AcDbLine
 10
67.6719897745
 20
206.7740198212
 30
0.0
 11
66.6719900763
 21
206.7740198212
 31
0.0
  0
LINE
  5
426
330
1F
100
AcDbEntity
  8
SLD-0
  6
HIDDEN
 62
   179
370
     0
100
AcDbLine
 10
63.6719900502
 20
206.7740198212
 30
0.0
 11
62.6719901191
 21
206.7740198212
 31
0.0
  0
LINE
  5
427
330
1F
100
AcDbEntity
  8
SLD-0
  6
HIDDEN
 62
   179
370
     0
100
AcDbLine
 10
59.6719901003
 20
206.7740198212
 30
0.0
 11
58.6719901037
 21
206.7740198212
 31
0.0
  0
LINE
  5
428
330
1F
100
AcDbEntity
  8
SLD-0
  6
HIDDEN
 62
   179
370
     0
100
AcDbLine
 10
55.6719901359
 20
206.7740198212
 30
0.0
 11
54.1779899357
 21
206.7740198212
 31
0.0
  0
LINE
  5
429
330
1F
100
AcDbEntity
  8
SLD-0
  6
HIDDEN
 62
   179
370
     0
100
AcDbLine
 10
91.6719899831
 20
188.4740155177
 30
0.0
 11
66.6719900763
 21
188.4740155177
 31
0.0
  0
LINE
  5
42A
330
1F
100
AcDbEntity
  8
SLD-0
  6
HIDDEN
 62
   179
370
     0
100
AcDbLine
 10
66.6719900763
 20
186.8740145104
 30
0.0
 11
91.6719899831
 21
186.8740145104
 31
0.0
  0
LINE
  5
42B
330
1F
100
AcDbEntity
  8
SLD-0
  6
HIDDEN
 62
   179
370
     0
100
AcDbLine
 10
97.1719899533
 20
204.6240132289
 30
0.0
 11
101.6719916223
 21
204.6240132289
 31
0.0
  0
LINE
  5
42C
330
1F
100
AcDbEntity
  8
SLD-0
  6
HIDDEN
 62
   179
370
     0
100
AcDbLine
 10
101.6719916223
 20
191.9240143137
 30
0.0
 11
97.1719899533
 21
191.9240143137
 31
0.0
  0
LINE
  5
42D
330
1F
100
AcDbEntity
  8
SLD-0
  6
HIDDEN
 62
   179
370
     0
100
AcDbLine
 10
101.6719916223
 20
204.6240132289
 30
0.0
 11
101.6719916223
 21
191.9240143137
 31
0.0
  0
LINE
  5
42E
330
1F
100
AcDbEntity
  8
SLD-0
  6
HIDDEN
 62
   179
370
     0
100
AcDbLine
 10
103.9219901026
 20
202.5740161058
 30
0.0
 11
103.9219901026
 21
198.7740161058
 31
0.0
  0
LINE
  5
42F
330
1F
100
AcDbEntity
  8
SLD-0
  6
HIDDEN
 62
   179
370
     0
100
AcDbLine
 10
103.9219901026
 20
197.7740161058
 30
0.0
 11
103.9219901026
 21
193.9740161058
 31
0.0
  0
LINE
  5
430
330
1F
100
AcDbEntity
  8
SLD-0
  6
HIDDEN
 62
   179
370
     0
100
AcDbLine
 10
54.17198989
 20
204.7740157681
 30
0.0
 11
97.1719899533
 21
204.7740157681
 31
0.0
  0
LINE
  5
431
330
1F
100
AcDbEntity
  8
SLD-0
  6
HIDDEN
 62
   179
370
     0
100
AcDbLine
 10
102.3719885705
 20
196.3763099151
 30
0.0
 11
104.1719892381
 21
196.3763099151
 31
0.0
  0
LINE
  5
432
330
1F
100
AcDbEntity
  8
SLD-0
  6
HIDDEN
 62
   179
370
     0
100
AcDbLine
 10
102.3719885705
 20
195.3717220562
 30
0.0
 11
104.1719892381
 21
195.3717220562
 31
0.0
  0
LINE
  5
433
330
1F
100
AcDbEntity
  8
SLD-0
  6
HIDDEN
 62
   179
370
     0
100
AcDbLine
 10
102.3719885705
 20
200.1717213528
 30
0.0
 11
104.1719892381
 21
200.1717213528
 31
0.0
  0
LINE
  5
434
330
1F
100
AcDbEntity
  8
SLD-0
  6
HIDDEN
 62
   179
370
     0
100
AcDbLine
 10
102.3719885705
 20
201.1763092117
 30
0.0
 11
104.1719892381
 21
201.1763092117
 31
0.0
  0
LINE
  5
435
330
1F
100
AcDbEntity
  8
SLD-0
  6
HIDDEN
 62
   179
370
     0
100
AcDbLine
 10
102.3719885705
 20
195.3717220562
 30
0.0
 11
102.3719885705
 21
194.8694262641
 31
0.0
  0
LINE
  5
436
330
1F
100
AcDbEntity
  8
SLD-0
  6
HIDDEN
 62
   179
370
     0
100
AcDbLine
 10
102.3719885705
 20
195.3717220562
 30
0.0
 11
102.3719885705
 21
196.3763099151
 31
0.0
  0
LINE
  5
437
330
1F
100
AcDbEntity
  8
SLD-0
  6
HIDDEN
 62
   179
370
     0
100
AcDbLine
 10
102.3719885705
 20
196.8786057072
 30
0.0
 11
102.3719885705
 21
196.3763099151
 31
0.0
  0
LINE
  5
438
330
1F
100
AcDbEntity
  8
SLD-0
  6
HIDDEN
 62
   179
370
     0
100
AcDbLine
 10
102.3719885705
 20
201.6786050038
 30
0.0
 11
102.3719885705
 21
201.1763092117
 31
0.0
  0
LINE
  5
439
330
1F
100
AcDbEntity
  8
SLD-0
  6
HIDDEN
 62
   179
370
     0
100
AcDbLine
 10
102.3719885705
 20
200.1717213528
 30
0.0
 11
102.3719885705
 21
201.1763092117
 31
0.0
  0
LINE
  5
43A
330
1F
100
AcDbEntity
  8
SLD-0
  6
HIDDEN
 62
   179
370
     0
100
AcDbLine
 10
102.3719885705
 20
200.1717213528
 30
0.0
 11
102.3719885705
 21
199.6694255607
 31
0.0
  0
LINE
  5
43B
330
1F
100
AcDbEntity
  8
SLD-0
  6
HIDDEN
 62
   179
370
     0
100
AcDbLine
 10
104.1719892381
 20
194.8694262641
 30
0.0
 11
102.3719885705
 21
194.8694262641
 31
0.0
  0
LINE
  5
43C
330
1F
100
AcDbEntity
  8
SLD-0
  6
HIDDEN
 62
   179
370
     0
100
AcDbLine
 10
104.1719892381
 20
199.6694255607
 30
0.0
 11
102.3719885705
 21
199.6694255607
 31
0.0
  0
LINE
  5
43D
330
1F
100
AcDbEntity
  8
SLD-0
  6
HIDDEN
 62
   179
370
     0
100
AcDbLine
 10
102.3719885705
 20
196.8786057072
 30
0.0
 11
104.1719892381
 21
196.8786057072
 31
0.0
  0
LINE
  5
43E
330
1F
100
AcDbEntity
  8
SLD-0
  6
HIDDEN
 62
   179
370
     0
100
AcDbLine
 10
102.3719885705
 20
201.6786050038
 30
0.0
 11
104.1719892381
 21
201.6786050038
 31
0.0
  0
LINE
  5
43F
330
1F
100
AcDbEntity
  8
SLD-0
  6
HIDDEN
 62
   179
370
     0
100
AcDbLine
 10
104.1659915207
 20
205.2740167813
 30
0.0
 11
54.1779899357
 21
205.2740167813
 31
0.0
  0
LINE
  5
440
330
1F
100
AcDbEntity
  8
SLD-0
  6
HIDDEN
 62
   179
370
     0
100
AcDbLine
 10
66.4719899504
 20
183.2740169005
 30
0.0
 11
91.8719896434
 21
183.2740169005
 31
0.0
  0
LINE
  5
441
330
1F
100
AcDbEntity
  8
SLD-0
  6
HIDDEN
 62
   179
370
     0
100
AcDbLine
 10
98.1719901026
 20
190.0990161058
 30
0.0
 11
96.1719901026
 21
190.0990161058
 31
0.0
  0
LINE
  5
442
330
1F
100
AcDbEntity
  8
SLD-0
  6
HIDDEN
 62
   179
370
     0
100
AcDbLine
 10
98.1719882546
 20
192.7740175264
 30
0.0
 11
96.1719916521
 21
192.7740175264
 31
0.0
  0
LINE
  5
443
330
1F
100
AcDbEntity
  8
SLD-0
  6
HIDDEN
 62
   179
370
     0
100
AcDbLine
 10
97.1719899533
 20
171.9841074185
 30
0.0
 11
97.4810065089
 21
171.9676006572
 31
0.0
  0
LINE
  5
444
330
1F
100
AcDbEntity
  8
SLD-0
  6
HIDDEN
 62
   179
370
     0
100
AcDbLine
 10
97.4810065089
 20
171.9676006572
 30
0.0
 11
97.7597737072
 21
171.919693424
 31
0.0
  0
LINE
  5
445
330
1F
100
AcDbEntity
  8
SLD-0
  6
HIDDEN
 62
   179
370
     0
100
AcDbLine
 10
97.7597737072
 20
171.919693424
 30
0.0
 11
97.9810075222
 21
171.845072134
 31
0.0
  0
LINE
  5
446
330
1F
100
AcDbEntity
  8
SLD-0
  6
HIDDEN
 62
   179
370
     0
100
AcDbLine
 10
97.9810075222
 20
171.845072134
 30
0.0
 11
98.1230453907
 21
171.7510458069
 31
0.0
  0
LINE
  5
447
330
1F
100
AcDbEntity
  8
SLD-0
  6
HIDDEN
 62
   179
370
     0
100
AcDbLine
 10
98.1230453907
 20
171.7510458069
 30
0.0
 11
98.1719901026
 21
171.6468165892
 31
0.0
  0
LINE
  5
448
330
1F
100
AcDbEntity
  8
SLD-0
  6
HIDDEN
 62
   179
370
     0
100
AcDbLine
 10
96.1719901026
 20
171.6468165892
 30
0.0
 11
96.220934516
 21
171.7510458069
 31
0.0
  0
LINE
  5
449
330
1F
100
AcDbEntity
  8
SLD-0
  6
HIDDEN
 62
   179
370
     0
100
AcDbLine
 10
96.220934516
 20
171.7510458069
 30
0.0
 11
96.3629723845
 21
171.845072134
 31
0.0
  0
LINE
  5
44A
330
1F
100
AcDbEntity
  8
SLD-0
  6
HIDDEN
 62
   179
370
     0
100
AcDbLine
 10
96.3629723845
 20
171.845072134
 30
0.0
 11
96.5842061995
 21
171.919693424
 31
0.0
  0
LINE
  5
44B
330
1F
100
AcDbEntity
  8
SLD-0
  6
HIDDEN
 62
   179
370
     0
100
AcDbLine
 10
96.5842061995
 20
171.919693424
 30
0.0
 11
96.8629733978
 21
171.9676006572
 31
0.0
  0
LINE
  5
44C
330
1F
100
AcDbEntity
  8
SLD-0
  6
HIDDEN
 62
   179
370
     0
100
AcDbLine
 10
96.8629733978
 20
171.9676006572
 30
0.0
 11
97.1719899533
 21
171.9841074185
 31
0.0
  0
LINE
  5
44D
330
1F
100
AcDbEntity
  8
SLD-0
  6
HIDDEN
 62
   179
370
     0
100
AcDbLine
 10
96.1719901026
 20
195.4490161058
 30
0.0
 11
98.1719882546
 21
195.4490143793
 31
0.0
  0
LINE
  5
44E
330
1F
100
AcDbEntity
  8
SLD-0
  6
HIDDEN
 62
   179
370
     0
100
AcDbLine
 10
97.1719899533
 20
169.7196543204
 30
0.0
 11
97.5029968975
 21
169.6821127074
 31
0.0
  0
LINE
  5
44F
330
1F
100
AcDbEntity
  8
SLD-0
  6
HIDDEN
 62
   179
370
     0
100
AcDbLine
 10
97.5029968975
 20
169.6821127074
 30
0.0
 11
97.7966838835
 21
169.5737253862
 31
0.0
  0
LINE
  5
450
330
1F
100
AcDbEntity
  8
SLD-0
  6
HIDDEN
 62
   179
370
     0
100
AcDbLine
 10
97.7966838835
 20
169.5737253862
 30
0.0
 11
98.0199405311
 21
169.4067075836
 31
0.0
  0
LINE
  5
451
330
1F
100
AcDbEntity
  8
SLD-0
  6
HIDDEN
 62
   179
370
     0
100
AcDbLine
 10
98.0199405311
 20
169.4067075836
 30
0.0
 11
98.147598779
 21
169.1998925047
 31
0.0
  0
LINE
  5
452
330
1F
100
AcDbEntity
  8
SLD-0
  6
HIDDEN
 62
   179
370
     0
100
AcDbLine
 10
98.147598779
 20
169.1998925047
 30
0.0
 11
98.1590316949
 21
169.0553531038
 31
0.0
  0
LINE
  5
453
330
1F
100
AcDbEntity
  8
SLD-0
  6
HIDDEN
 62
   179
370
     0
100
AcDbLine
 10
96.1847805737
 20
169.0541535603
 30
0.0
 11
96.1787158011
 21
169.1308144467
 31
0.0
  0
LINE
  5
454
330
1F
100
AcDbEntity
  8
SLD-0
  6
HIDDEN
 62
   179
370
     0
100
AcDbLine
 10
96.1787158011
 20
169.1308144467
 30
0.0
 11
96.2730364261
 21
169.3454172449
 31
0.0
  0
LINE
  5
455
330
1F
100
AcDbEntity
  8
SLD-0
  6
HIDDEN
 62
   179
370
     0
100
AcDbLine
 10
96.2730364261
 20
169.3454172449
 30
0.0
 11
96.4687035738
 21
169.5271331804
 31
0.0
  0
LINE
  5
456
330
1F
100
AcDbEntity
  8
SLD-0
  6
HIDDEN
 62
   179
370
     0
100
AcDbLine
 10
96.4687035738
 20
169.5271331804
 30
0.0
 11
96.7436635254
 21
169.6554712938
 31
0.0
  0
LINE
  5
457
330
1F
100
AcDbEntity
  8
SLD-0
  6
HIDDEN
 62
   179
370
     0
100
AcDbLine
 10
96.7436635254
 20
169.6554712938
 30
0.0
 11
97.0669144152
 21
169.715966283
 31
0.0
  0
LINE
  5
458
330
1F
100
AcDbEntity
  8
SLD-0
  6
HIDDEN
 62
   179
370
     0
100
AcDbLine
 10
97.0669144152
 20
169.715966283
 30
0.0
 11
97.1719899533
 21
169.7196543204
 31
0.0
  0
LINE
  5
459
330
1F
100
AcDbEntity
  8
SLD-0
  6
HIDDEN
 62
   179
370
     0
100
AcDbLine
 10
97.1719901026
 20
176.706199852
 30
0.0
 11
98.1719901026
 21
176.706199852
 31
0.0
  0
LINE
  5
45A
330
1F
100
AcDbEntity
  8
SLD-0
  6
HIDDEN
 62
   179
370
     0
100
AcDbLine
 10
97.1719901026
 20
176.706199852
 30
0.0
 11
96.1719901026
 21
176.706199852
 31
0.0
  0
LINE
  5
45B
330
1F
100
AcDbEntity
  8
SLD-0
  6
HIDDEN
 62
   179
370
     0
100
AcDbLine
 10
97.1719899533
 20
172.9597087937
 30
0.0
 11
97.4810065089
 21
172.9437645512
 31
0.0
  0
LINE
  5
45C
330
1F
100
AcDbEntity
  8
SLD-0
  6
HIDDEN
 62
   179
370
     0
100
AcDbLine
 10
97.4810065089
 20
172.9437645512
 30
0.0
 11
97.7597737072
 21
172.8974927204
 31
0.0
  0
LINE
  5
45D
330
1F
100
AcDbEntity
  8
SLD-0
  6
HIDDEN
 62
   179
370
     0
100
AcDbLine
 10
97.7597737072
 20
172.8974927204
 30
0.0
 11
97.9810075222
 21
172.825419529
 31
0.0
  0
LINE
  5
45E
330
1F
100
AcDbEntity
  8
SLD-0
  6
HIDDEN
 62
   179
370
     0
100
AcDbLine
 10
97.9810075222
 20
172.825419529
 30
0.0
 11
98.1230453907
 21
172.7346006768
 31
0.0
  0
LINE
  5
45F
330
1F
100
AcDbEntity
  8
SLD-0
  6
HIDDEN
 62
   179
370
     0
100
AcDbLine
 10
98.1230453907
 20
172.7346006768
 30
0.0
 11
98.1719882546
 21
172.6339321571
 31
0.0
  0
LINE
  5
460
330
1F
100
AcDbEntity
  8
SLD-0
  6
HIDDEN
 62
   179
370
     0
100
AcDbLine
 10
98.1719882546
 20
172.6339321571
 30
0.0
 11
98.1230453907
 21
172.5332561867
 31
0.0
  0
LINE
  5
461
330
1F
100
AcDbEntity
  8
SLD-0
  6
HIDDEN
 62
   179
370
     0
100
AcDbLine
 10
98.1230453907
 20
172.5332561867
 30
0.0
 11
97.9810075222
 21
172.4424373345
 31
0.0
  0
LINE
  5
462
330
1F
100
AcDbEntity
  8
SLD-0
  6
HIDDEN
 62
   179
370
     0
100
AcDbLine
 10
97.9810075222
 20
172.4424373345
 30
0.0
 11
97.7597737072
 21
172.3703641431
 31
0.0
  0
LINE
  5
463
330
1F
100
AcDbEntity
  8
SLD-0
  6
HIDDEN
 62
   179
370
     0
100
AcDbLine
 10
97.7597737072
 20
172.3703641431
 30
0.0
 11
97.4810065089
 21
172.3240923123
 31
0.0
  0
LINE
  5
464
330
1F
100
AcDbEntity
  8
SLD-0
  6
HIDDEN
 62
   179
370
     0
100
AcDbLine
 10
97.4810065089
 20
172.3240923123
 30
0.0
 11
97.1719899533
 21
172.3081480699
 31
0.0
  0
LINE
  5
465
330
1F
100
AcDbEntity
  8
SLD-0
  6
HIDDEN
 62
   179
370
     0
100
AcDbLine
 10
97.1719899533
 20
172.3081480699
 30
0.0
 11
96.8629733978
 21
172.3240923123
 31
0.0
  0
LINE
  5
466
330
1F
100
AcDbEntity
  8
SLD-0
  6
HIDDEN
 62
   179
370
     0
100
AcDbLine
 10
96.8629733978
 20
172.3240923123
 30
0.0
 11
96.5842061995
 21
172.3703641431
 31
0.0
  0
LINE
  5
467
330
1F
100
AcDbEntity
  8
SLD-0
  6
HIDDEN
 62
   179
370
     0
100
AcDbLine
 10
96.5842061995
 20
172.3703641431
 30
0.0
 11
96.3629723845
 21
172.4424373345
 31
0.0
  0
LINE
  5
468
330
1F
100
AcDbEntity
  8
SLD-0
  6
HIDDEN
 62
   179
370
     0
100
AcDbLine
 10
96.3629723845
 20
172.4424373345
 30
0.0
 11
96.220934516
 21
172.5332561867
 31
0.0
  0
LINE
  5
469
330
1F
100
AcDbEntity
  8
SLD-0
  6
HIDDEN
 62
   179
370
     0
100
AcDbLine
 10
96.220934516
 20
172.5332561867
 30
0.0
 11
96.1719916521
 21
172.6339321571
 31
0.0
  0
LINE
  5
46A
330
1F
100
AcDbEntity
  8
SLD-0
  6
HIDDEN
 62
   179
370
     0
100
AcDbLine
 10
96.1719916521
 20
172.6339321571
 30
0.0
 11
96.220934516
 21
172.7346006768
 31
0.0
  0
LINE
  5
46B
330
1F
100
AcDbEntity
  8
SLD-0
  6
HIDDEN
 62
   179
370
     0
100
AcDbLine
 10
96.220934516
 20
172.7346006768
 30
0.0
 11
96.3629723845
 21
172.825419529
 31
0.0
  0
LINE
  5
46C
330
1F
100
AcDbEntity
  8
SLD-0
  6
HIDDEN
 62
   179
370
     0
100
AcDbLine
 10
96.3629723845
 20
172.825419529
 30
0.0
 11
96.5842061995
 21
172.8974927204
 31
0.0
  0
LINE
  5
46D
330
1F
100
AcDbEntity
  8
SLD-0
  6
HIDDEN
 62
   179
370
     0
100
AcDbLine
 10
96.5842061995
 20
172.8974927204
 30
0.0
 11
96.8629733978
 21
172.9437645512
 31
0.0
  0
LINE
  5
46E
330
1F
100
AcDbEntity
  8
SLD-0
  6
HIDDEN
 62
   179
370
     0
100
AcDbLine
 10
96.8629733978
 20
172.9437645512
 30
0.0
 11
97.1719899533
 21
172.9597087937
 31
0.0
  0
LINE
  5
46F
330
1F
100
AcDbEntity
  8
SLD-0
  6
HIDDEN
 62
   179
370
     0
100
AcDbLine
 10
97.1719899533
 20
169.8659017669
 30
0.0
 11
96.8409830092
 21
169.9064329254
 31
0.0
  0
LINE
  5
470
330
1F
100
AcDbEntity
  8
SLD-0
  6
HIDDEN
 62
   179
370
     0
100
AcDbLine
 10
96.8409830092
 20
169.9064329254
 30
0.0
 11
96.5472960232
 21
170.0234610574
 31
0.0
  0
LINE
  5
471
330
1F
100
AcDbEntity
  8
SLD-0
  6
HIDDEN
 62
   179
370
     0
100
AcDbLine
 10
96.5472960232
 20
170.0234610574
 30
0.0
 11
96.3240393756
 21
170.2037874596
 31
0.0
  0
LINE
  5
472
330
1F
100
AcDbEntity
  8
SLD-0
  6
HIDDEN
 62
   179
370
     0
100
AcDbLine
 10
96.3240393756
 20
170.2037874596
 30
0.0
 11
96.1963811276
 21
170.4270850854
 31
0.0
  0
LINE
  5
473
330
1F
100
AcDbEntity
  8
SLD-0
  6
HIDDEN
 62
   179
370
     0
100
AcDbLine
 10
96.1963811276
 20
170.4270850854
 30
0.0
 11
96.1787158011
 21
170.6681784229
 31
0.0
  0
LINE
  5
474
330
1F
100
AcDbEntity
  8
SLD-0
  6
HIDDEN
 62
   179
370
     0
100
AcDbLine
 10
96.1787158011
 20
170.6681784229
 30
0.0
 11
96.2730364261
 21
170.8998840289
 31
0.0
  0
LINE
  5
475
330
1F
100
AcDbEntity
  8
SLD-0
  6
HIDDEN
 62
   179
370
     0
100
AcDbLine
 10
96.2730364261
 20
170.8998840289
 30
0.0
 11
96.4687035738
 21
171.0960820304
 31
0.0
  0
LINE
  5
476
330
1F
100
AcDbEntity
  8
SLD-0
  6
HIDDEN
 62
   179
370
     0
100
AcDbLine
 10
96.4687035738
 20
171.0960820304
 30
0.0
 11
96.7436635254
 21
171.234649791
 31
0.0
  0
LINE
  5
477
330
1F
100
AcDbEntity
  8
SLD-0
  6
HIDDEN
 62
   179
370
     0
100
AcDbLine
 10
96.7436635254
 20
171.234649791
 30
0.0
 11
97.0669144152
 21
171.2999653058
 31
0.0
  0
LINE
  5
478
330
1F
100
AcDbEntity
  8
SLD-0
  6
HIDDEN
 62
   179
370
     0
100
AcDbLine
 10
97.0669144152
 20
171.2999653058
 30
0.0
 11
97.1719899533
 21
171.3039457785
 31
0.0
  0
LINE
  5
479
330
1F
100
AcDbEntity
  8
SLD-0
  6
HIDDEN
 62
   179
370
     0
100
AcDbLine
 10
97.1719899533
 20
171.3039457785
 30
0.0
 11
97.5029968975
 21
171.2634146201
 31
0.0
  0
LINE
  5
47A
330
1F
100
AcDbEntity
  8
SLD-0
  6
HIDDEN
 62
   179
370
     0
100
AcDbLine
 10
97.5029968975
 20
171.2634146201
 30
0.0
 11
97.7966838835
 21
171.146386488
 31
0.0
  0
LINE
  5
47B
330
1F
100
AcDbEntity
  8
SLD-0
  6
HIDDEN
 62
   179
370
     0
100
AcDbLine
 10
97.7966838835
 20
171.146386488
 30
0.0
 11
98.0199405311
 21
170.9660600858
 31
0.0
  0
LINE
  5
47C
330
1F
100
AcDbEntity
  8
SLD-0
  6
HIDDEN
 62
   179
370
     0
100
AcDbLine
 10
98.0199405311
 20
170.9660600858
 30
0.0
 11
98.147598779
 21
170.74276246
 31
0.0
  0
LINE
  5
47D
330
1F
100
AcDbEntity
  8
SLD-0
  6
HIDDEN
 62
   179
370
     0
100
AcDbLine
 10
98.147598779
 20
170.74276246
 30
0.0
 11
98.1652641056
 21
170.5016691225
 31
0.0
  0
LINE
  5
47E
330
1F
100
AcDbEntity
  8
SLD-0
  6
HIDDEN
 62
   179
370
     0
100
AcDbLine
 10
98.1652641056
 20
170.5016691225
 30
0.0
 11
98.0709434805
 21
170.2699635165
 31
0.0
  0
LINE
  5
47F
330
1F
100
AcDbEntity
  8
SLD-0
  6
HIDDEN
 62
   179
370
     0
100
AcDbLine
 10
98.0709434805
 20
170.2699635165
 30
0.0
 11
97.8752763329
 21
170.073765515
 31
0.0
  0
LINE
  5
480
330
1F
100
AcDbEntity
  8
SLD-0
  6
HIDDEN
 62
   179
370
     0
100
AcDbLine
 10
97.8752763329
 20
170.073765515
 30
0.0
 11
97.6003163813
 21
169.9351977544
 31
0.0
  0
LINE
  5
481
330
1F
100
AcDbEntity
  8
SLD-0
  6
HIDDEN
 62
   179
370
     0
100
AcDbLine
 10
97.6003163813
 20
169.9351977544
 30
0.0
 11
97.2770654915
 21
169.8698822396
 31
0.0
  0
LINE
  5
482
330
1F
100
AcDbEntity
  8
SLD-0
  6
HIDDEN
 62
   179
370
     0
100
AcDbLine
 10
97.2770654915
 20
169.8698822396
 30
0.0
 11
97.1719899533
 21
169.8659017669
 31
0.0
  0
LINE
  5
483
330
1F
100
AcDbEntity
  8
SLD-0
  6
HIDDEN
 62
   179
370
     0
100
AcDbLine
 10
98.1719901026
 20
176.706199852
 30
0.0
 11
96.1719901026
 21
176.706199852
 31
0.0
  0
LINE
  5
484
330
1F
100
AcDbEntity
  8
SLD-0
  6
HIDDEN
 62
   179
370
     0
100
AcDbLine
 10
97.1719899533
 20
173.7741652863
 30
0.0
 11
97.4810065089
 21
173.7582210438
 31
0.0
  0
LINE
  5
485
330
1F
100
AcDbEntity
  8
SLD-0
  6
HIDDEN
 62
   179
370
     0
100
AcDbLine
 10
97.4810065089
 20
173.7582210438
 30
0.0
 11
97.7597737072
 21
173.7119454877
 31
0.0
  0
LINE
  5
486
330
1F
100
AcDbEntity
  8
SLD-0
  6
HIDDEN
 62
   179
370
     0
100
AcDbLine
 10
97.7597737072
 20
173.7119454877
 30
0.0
 11
97.9810075222
 21
173.6398722963
 31
0.0
  0
LINE
  5
487
330
1F
100
AcDbEntity
  8
SLD-0
  6
HIDDEN
 62
   179
370
     0
100
AcDbLine
 10
97.9810075222
 20
173.6398722963
 30
0.0
 11
98.1230453907
 21
173.5490534442
 31
0.0
  0
LINE
  5
488
330
1F
100
AcDbEntity
  8
SLD-0
  6
HIDDEN
 62
   179
370
     0
100
AcDbLine
 10
98.1230453907
 20
173.5490534442
 30
0.0
 11
98.1719882546
 21
173.4483811991
 31
0.0
  0
LINE
  5
489
330
1F
100
AcDbEntity
  8
SLD-0
  6
HIDDEN
 62
   179
370
     0
100
AcDbLine
 10
98.1719882546
 20
173.4483811991
 30
0.0
 11
98.1230453907
 21
173.3477126794
 31
0.0
  0
LINE
  5
48A
330
1F
100
AcDbEntity
  8
SLD-0
  6
HIDDEN
 62
   179
370
     0
100
AcDbLine
 10
98.1230453907
 20
173.3477126794
 30
0.0
 11
97.9810075222
 21
173.2568938272
 31
0.0
  0
LINE
  5
48B
330
1F
100
AcDbEntity
  8
SLD-0
  6
HIDDEN
 62
   179
370
     0
100
AcDbLine
 10
97.9810075222
 20
173.2568938272
 30
0.0
 11
97.7597737072
 21
173.1848206358
 31
0.0
  0
LINE
  5
48C
330
1F
100
AcDbEntity
  8
SLD-0
  6
HIDDEN
 62
   179
370
     0
100
AcDbLine
 10
97.7597737072
 20
173.1848206358
 30
0.0
 11
97.4810065089
 21
173.1385450797
 31
0.0
  0
LINE
  5
48D
330
1F
100
AcDbEntity
  8
SLD-0
  6
HIDDEN
 62
   179
370
     0
100
AcDbLine
 10
97.4810065089
 20
173.1385450797
 30
0.0
 11
97.1719899533
 21
173.1226008372
 31
0.0
  0
LINE
  5
48E
330
1F
100
AcDbEntity
  8
SLD-0
  6
HIDDEN
 62
   179
370
     0
100
AcDbLine
 10
97.1719899533
 20
173.1226008372
 30
0.0
 11
96.8629733978
 21
173.1385450797
 31
0.0
  0
LINE
  5
48F
330
1F
100
AcDbEntity
  8
SLD-0
  6
HIDDEN
 62
   179
370
     0
100
AcDbLine
 10
96.8629733978
 20
173.1385450797
 30
0.0
 11
96.5842061995
 21
173.1848206358
 31
0.0
  0
LINE
  5
490
330
1F
100
AcDbEntity
  8
SLD-0
  6
HIDDEN
 62
   179
370
     0
100
AcDbLine
 10
96.5842061995
 20
173.1848206358
 30
0.0
 11
96.3629723845
 21
173.2568938272
 31
0.0
  0
LINE
  5
491
330
1F
100
AcDbEntity
  8
SLD-0
  6
HIDDEN
 62
   179
370
     0
100
AcDbLine
 10
96.3629723845
 20
173.2568938272
 30
0.0
 11
96.220934516
 21
173.3477126794
 31
0.0
  0
LINE
  5
492
330
1F
100
AcDbEntity
  8
SLD-0
  6
HIDDEN
 62
   179
370
     0
100
AcDbLine
 10
96.220934516
 20
173.3477126794
 30
0.0
 11
96.1719916521
 21
173.4483811991
 31
0.0
  0
LINE
  5
493
330
1F
100
AcDbEntity
  8
SLD-0
  6
HIDDEN
 62
   179
370
     0
100
AcDbLine
 10
96.1719916521
 20
173.4483811991
 30
0.0
 11
96.220934516
 21
173.5490534442
 31
0.0
  0
LINE
  5
494
330
1F
100
AcDbEntity
  8
SLD-0
  6
HIDDEN
 62
   179
370
     0
100
AcDbLine
 10
96.220934516
 20
173.5490534442
 30
0.0
 11
96.3629723845
 21
173.6398722963
 31
0.0
  0
LINE
  5
495
330
1F
100
AcDbEntity
  8
SLD-0
  6
HIDDEN
 62
   179
370
     0
100
AcDbLine
 10
96.3629723845
 20
173.6398722963
 30
0.0
 11
96.5842061995
 21
173.7119454877
 31
0.0
  0
LINE
  5
496
330
1F
100
AcDbEntity
  8
SLD-0
  6
HIDDEN
 62
   179
370
     0
100
AcDbLine
 10
96.5842061995
 20
173.7119454877
 30
0.0
 11
96.8629733978
 21
173.7582210438
 31
0.0
  0
LINE
  5
497
330
1F
100
AcDbEntity
  8
SLD-0
  6
HIDDEN
 62
   179
370
     0
100
AcDbLine
 10
96.8629733978
 20
173.7582210438
 30
0.0
 11
97.1719899533
 21
173.7741652863
 31
0.0
  0
LINE
  5
498
330
1F
100
AcDbEntity
  8
SLD-0
  6
HIDDEN
 62
   179
370
     0
100
AcDbLine
 10
97.1719899533
 20
172.356323524
 30
0.0
 11
97.5029968975
 21
172.3210450249
 31
0.0
  0
LINE
  5
499
330
1F
100
AcDbEntity
  8
SLD-0
  6
HIDDEN
 62
   179
370
     0
100
AcDbLine
 10
97.5029968975
 20
172.3210450249
 30
0.0
 11
97.7966838835
 21
172.2191844123
 31
0.0
  0
LINE
  5
49A
330
1F
100
AcDbEntity
  8
SLD-0
  6
HIDDEN
 62
   179
370
     0
100
AcDbLine
 10
97.7966838835
 20
172.2191844123
 30
0.0
 11
98.0199405311
 21
172.0622230308
 31
0.0
  0
LINE
  5
49B
330
1F
100
AcDbEntity
  8
SLD-0
  6
HIDDEN
 62
   179
370
     0
100
AcDbLine
 10
98.0199405311
 20
172.0622230308
 30
0.0
 11
98.147598779
 21
171.8678634601
 31
0.0
  0
LINE
  5
49C
330
1F
100
AcDbEntity
  8
SLD-0
  6
HIDDEN
 62
   179
370
     0
100
AcDbLine
 10
98.147598779
 20
171.8678634601
 30
0.0
 11
98.1652641056
 21
171.6580141323
 31
0.0
  0
LINE
  5
49D
330
1F
100
AcDbEntity
  8
SLD-0
  6
HIDDEN
 62
   179
370
     0
100
AcDbLine
 10
98.1652641056
 20
171.6580141323
 30
0.0
 11
98.0709434805
 21
171.4563343661
 31
0.0
  0
LINE
  5
49E
330
1F
100
AcDbEntity
  8
SLD-0
  6
HIDDEN
 62
   179
370
     0
100
AcDbLine
 10
98.0709434805
 20
171.4563343661
 30
0.0
 11
97.8752763329
 21
171.2855614709
 31
0.0
  0
LINE
  5
49F
330
1F
100
AcDbEntity
  8
SLD-0
  6
HIDDEN
 62
   179
370
     0
100
AcDbLine
 10
97.8752763329
 20
171.2855614709
 30
0.0
 11
97.6003163813
 21
171.1649514722
 31
0.0
  0
LINE
  5
4A0
330
1F
100
AcDbEntity
  8
SLD-0
  6
HIDDEN
 62
   179
370
     0
100
AcDbLine
 10
97.6003163813
 20
171.1649514722
 30
0.0
 11
97.2770654915
 21
171.1080979543
 31
0.0
  0
LINE
  5
4A1
330
1F
100
AcDbEntity
  8
SLD-0
  6
HIDDEN
 62
   179
370
     0
100
AcDbLine
 10
97.2770654915
 20
171.1080979543
 30
0.0
 11
97.1719899533
 21
171.1046334343
 31
0.0
  0
LINE
  5
4A2
330
1F
100
AcDbEntity
  8
SLD-0
  6
HIDDEN
 62
   179
370
     0
100
AcDbLine
 10
97.1719899533
 20
171.1046334343
 30
0.0
 11
96.8409830092
 21
171.1399137961
 31
0.0
  0
LINE
  5
4A3
330
1F
100
AcDbEntity
  8
SLD-0
  6
HIDDEN
 62
   179
370
     0
100
AcDbLine
 10
96.8409830092
 20
171.1399137961
 30
0.0
 11
96.5472960232
 21
171.2417744087
 31
0.0
  0
LINE
  5
4A4
330
1F
100
AcDbEntity
  8
SLD-0
  6
HIDDEN
 62
   179
370
     0
100
AcDbLine
 10
96.5472960232
 20
171.2417744087
 30
0.0
 11
96.3240393756
 21
171.3987339275
 31
0.0
  0
LINE
  5
4A5
330
1F
100
AcDbEntity
  8
SLD-0
  6
HIDDEN
 62
   179
370
     0
100
AcDbLine
 10
96.3240393756
 20
171.3987339275
 30
0.0
 11
96.1963811276
 21
171.5930934982
 31
0.0
  0
LINE
  5
4A6
330
1F
100
AcDbEntity
  8
SLD-0
  6
HIDDEN
 62
   179
370
     0
100
AcDbLine
 10
96.1963811276
 20
171.5930934982
 30
0.0
 11
96.1787158011
 21
171.8029465513
 31
0.0
  0
LINE
  5
4A7
330
1F
100
AcDbEntity
  8
SLD-0
  6
HIDDEN
 62
   179
370
     0
100
AcDbLine
 10
96.1787158011
 20
171.8029465513
 30
0.0
 11
96.2730364261
 21
172.0046263175
 31
0.0
  0
LINE
  5
4A8
330
1F
100
AcDbEntity
  8
SLD-0
  6
HIDDEN
 62
   179
370
     0
100
AcDbLine
 10
96.2730364261
 20
172.0046263175
 30
0.0
 11
96.4687035738
 21
172.1753973501
 31
0.0
  0
LINE
  5
4A9
330
1F
100
AcDbEntity
  8
SLD-0
  6
HIDDEN
 62
   179
370
     0
100
AcDbLine
 10
96.4687035738
 20
172.1753973501
 30
0.0
 11
96.7436635254
 21
172.2960073488
 31
0.0
  0
LINE
  5
4AA
330
1F
100
AcDbEntity
  8
SLD-0
  6
HIDDEN
 62
   179
370
     0
100
AcDbLine
 10
96.7436635254
 20
172.2960073488
 30
0.0
 11
97.0669144152
 21
172.352859004
 31
0.0
  0
LINE
  5
4AB
330
1F
100
AcDbEntity
  8
SLD-0
  6
HIDDEN
 62
   179
370
     0
100
AcDbLine
 10
97.0669144152
 20
172.352859004
 30
0.0
 11
97.1719899533
 21
172.356323524
 31
0.0
  0
LINE
  5
4AC
330
1F
100
AcDbEntity
  8
SLD-0
  6
HIDDEN
 62
   179
370
     0
100
AcDbLine
 10
92.4219915031
 20
182.274014874
 30
0.0
 11
92.4219901026
 21
185.2740161058
 31
0.0
  0
LINE
  5
4AD
330
1F
100
AcDbEntity
  8
SLD-0
  6
HIDDEN
 62
   179
370
     0
100
AcDbLine
 10
87.9219901026
 20
185.2740161058
 30
0.0
 11
87.9219898341
 21
182.274014874
 31
0.0
  0
LINE
  5
4AE
330
1F
100
AcDbEntity
  8
SLD-0
  6
HIDDEN
 62
   179
370
     0
100
AcDbLine
 10
55.1719901282
 20
205.2740168694
 30
0.0
 11
54.1719899643
 21
204.2740148429
 31
0.0
  0
LINE
  5
4AF
330
1F
100
AcDbEntity
  8
SLD-0
  6
HIDDEN
 62
   179
370
     0
100
AcDbLine
 10
60.4219901769
 20
182.274014874
 30
0.0
 11
60.4219901769
 21
185.2740161058
 31
0.0
  0
LINE
  5
4B0
330
1F
100
AcDbEntity
  8
SLD-0
  6
HIDDEN
 62
   179
370
     0
100
AcDbLine
 10
55.9219901769
 20
185.2740161058
 30
0.0
 11
55.9219901769
 21
182.274014874
 31
0.0
  0
LINE
  5
4B1
330
1F
100
AcDbEntity
  8
SLD-0
  6
HIDDEN
 62
   179
370
     0
100
AcDbLine
 10
66.1719901026
 20
192.2740161058
 30
0.0
 11
76.1719902365
 21
192.2740165131
 31
0.0
  0
LINE
  5
4B2
330
1F
100
AcDbEntity
  8
SLD-0
  6
HIDDEN
 62
   179
370
     0
100
AcDbLine
 10
76.1719902365
 20
198.2740174966
 30
0.0
 11
66.1719901026
 21
198.2740161058
 31
0.0
  0
LINE
  5
4B3
330
1F
100
AcDbEntity
  8
SLD-0
  6
HIDDEN
 62
   179
370
     0
100
AcDbLine
 10
95.1719896998
 20
182.2740149621
 30
0.0
 11
95.1719896998
 21
203.2740128163
 31
0.0
  0
LINE
  5
4B4
330
1F
100
AcDbEntity
  8
SLD-0
  6
HIDDEN
 62
   179
370
     0
100
AcDbLine
 10
95.1719896998
 20
203.2740128163
 30
0.0
 11
93.171989372
 21
205.2740168694
 31
0.0
  0
LINE
  5
4B5
330
1F
100
AcDbEntity
  8
SLD-0
  6
HIDDEN
 62
   179
370
     0
100
AcDbLine
 10
104.1719892381
 20
186.9240153568
 30
0.0
 11
91.8719896434
 21
186.9240153568
 31
0.0
  0
LINE
  5
4B6
330
1F
100
AcDbEntity
  8
SLD-0
  6
HIDDEN
 62
   179
370
     0
100
AcDbLine
 10
91.8719896434
 20
183.8240150349
 30
0.0
 11
104.1719892381
 21
183.8240150349
 31
0.0
  0
LINE
  5
4B7
330
1F
100
AcDbEntity
  8
SLD-0
  6
HIDDEN
 62
   179
370
     0
100
AcDbLine
 10
66.4719899504
 20
186.9240153568
 30
0.0
 11
54.17198989
 21
186.9240153568
 31
0.0
  0
LINE
  5
4B8
330
1F
100
AcDbEntity
  8
SLD-0
  6
HIDDEN
 62
   179
370
     0
100
AcDbLine
 10
54.17198989
 20
183.8240150349
 30
0.0
 11
66.4719899504
 21
183.8240150349
 31
0.0
  0
LINE
  5
4B9
330
1F
100
AcDbEntity
  8
SLD-0
  6
HIDDEN
 62
   179
370
     0
100
AcDbLine
 10
66.6719900763
 20
186.8740145104
 30
0.0
 11
55.1719901026
 21
186.8740161058
 31
0.0
  0
LINE
  5
4BA
330
1F
100
AcDbEntity
  8
SLD-0
  6
HIDDEN
 62
   179
370
     0
100
AcDbLine
 10
103.1719901026
 20
186.8740161058
 30
0.0
 11
91.6719899831
 21
186.8740145104
 31
0.0
  0
LINE
  5
4BB
330
1F
100
AcDbEntity
  8
SLD-0
  6
HIDDEN
 62
   179
370
     0
100
AcDbLine
 10
91.8719896434
 20
183.8740158813
 30
0.0
 11
103.1719901026
 21
183.8740161058
 31
0.0
  0
LINE
  5
4BC
330
1F
100
AcDbEntity
  8
SLD-0
  6
HIDDEN
 62
   179
370
     0
100
AcDbLine
 10
55.1719901026
 20
183.8740161058
 30
0.0
 11
66.4719899504
 21
183.8740158813
 31
0.0
  0
LINE
  5
4BD
330
1F
100
AcDbEntity
  8
SLD-0
  6
HIDDEN
 62
   179
370
     0
100
AcDbLine
 10
103.1719901026
 20
183.8740161058
 30
0.0
 11
103.6719901026
 21
184.3740161058
 31
0.0
  0
LINE
  5
4BE
330
1F
100
AcDbEntity
  8
SLD-0
  6
HIDDEN
 62
   179
370
     0
100
AcDbLine
 10
103.6719901026
 20
186.3740161058
 30
0.0
 11
103.1719901026
 21
186.8740161058
 31
0.0
  0
LINE
  5
4BF
330
1F
100
AcDbEntity
  8
SLD-0
  6
HIDDEN
 62
   179
370
     0
100
AcDbLine
 10
55.1719901026
 20
186.8740161058
 30
0.0
 11
54.6719901026
 21
186.3740161058
 31
0.0
  0
LINE
  5
4C0
330
1F
100
AcDbEntity
  8
SLD-0
  6
HIDDEN
 62
   179
370
     0
100
AcDbLine
 10
54.6719901026
 20
184.3740161058
 30
0.0
 11
55.1719901026
 21
183.8740161058
 31
0.0
  0
LINE
  5
4C1
330
1F
100
AcDbEntity
  8
SLD-0
  6
HIDDEN
 62
   179
370
     0
100
AcDbLine
 10
103.9219901026
 20
202.5740161058
 30
0.0
 11
101.6719916223
 21
202.57401578
 31
0.0
  0
LINE
  5
4C2
330
1F
100
AcDbEntity
  8
SLD-0
  6
HIDDEN
 62
   179
370
     0
100
AcDbLine
 10
102.6719899235
 20
198.7740147846
 30
0.0
 11
103.9219901026
 21
198.7740161058
 31
0.0
  0
LINE
  5
4C3
330
1F
100
AcDbEntity
  8
SLD-0
  6
HIDDEN
 62
   179
370
     0
100
AcDbLine
 10
103.9219901026
 20
197.7740161058
 30
0.0
 11
102.6719899235
 21
197.7740164833
 31
0.0
  0
LINE
  5
4C4
330
1F
100
AcDbEntity
  8
SLD-0
  6
HIDDEN
 62
   179
370
     0
100
AcDbLine
 10
101.6719916223
 20
193.9740154879
 30
0.0
 11
103.9219901026
 21
193.9740161058
 31
0.0
  0
LINE
  5
4C5
330
1F
100
AcDbEntity
  8
SLD-0
  6
HIDDEN
 62
   179
370
     0
100
AcDbLine
 10
103.9219901026
 20
198.7740161058
 30
0.0
 11
104.1719892381
 21
199.0240152912
 31
0.0
  0
LINE
  5
4C6
330
1F
100
AcDbEntity
  8
SLD-0
  6
HIDDEN
 62
   179
370
     0
100
AcDbLine
 10
104.1719892381
 20
202.3240152733
 30
0.0
 11
103.9219901026
 21
202.5740161058
 31
0.0
  0
LINE
  5
4C7
330
1F
100
AcDbEntity
  8
SLD-0
  6
HIDDEN
 62
   179
370
     0
100
AcDbLine
 10
103.9219901026
 20
193.9740161058
 30
0.0
 11
104.1719892381
 21
194.2240159946
 31
0.0
  0
LINE
  5
4C8
330
1F
100
AcDbEntity
  8
SLD-0
  6
HIDDEN
 62
   179
370
     0
100
AcDbLine
 10
104.1719892381
 20
197.5240159767
 30
0.0
 11
103.9219901026
 21
197.7740161058
 31
0.0
  0
LINE
  5
4C9
330
1F
100
AcDbEntity
  8
SLD-0
  6
HIDDEN
 62
   179
370
     0
100
AcDbLine
 10
98.1719901026
 20
190.0990161058
 30
0.0
 11
98.1719901026
 21
195.0990161058
 31
0.0
  0
LINE
  5
4CA
330
1F
100
AcDbEntity
  8
SLD-0
  6
HIDDEN
 62
   179
370
     0
100
AcDbLine
 10
96.1719901026
 20
195.0990161058
 30
0.0
 11
96.1719901026
 21
190.0990161058
 31
0.0
  0
LINE
  5
4CB
330
1F
100
AcDbEntity
  8
SLD-0
  6
HIDDEN
 62
   179
370
     0
100
AcDbLine
 10
98.1719901026
 20
195.0990161058
 30
0.0
 11
98.1719901026
 21
198.2740161058
 31
0.0
  0
LINE
  5
4CC
330
1F
100
AcDbEntity
  8
SLD-0
  6
HIDDEN
 62
   179
370
     0
100
AcDbLine
 10
96.1719901026
 20
198.2740161058
 30
0.0
 11
96.1719901026
 21
195.0990161058
 31
0.0
  0
LINE
  5
4CD
330
1F
100
AcDbEntity
  8
SLD-0
  6
HIDDEN
 62
   179
370
     0
100
AcDbLine
 10
98.1719882546
 20
182.274014874
 30
0.0
 11
98.1719901026
 21
190.0990161058
 31
0.0
  0
LINE
  5
4CE
330
1F
100
AcDbEntity
  8
SLD-0
  6
HIDDEN
 62
   179
370
     0
100
AcDbLine
 10
96.1719901026
 20
190.0990161058
 30
0.0
 11
96.1719916521
 21
182.274014874
 31
0.0
  0
LINE
  5
4CF
330
1F
100
AcDbEntity
  8
SLD-0
  6
HIDDEN
 62
   179
370
     0
100
AcDbLine
 10
98.1719901026
 20
198.2740161058
 30
0.0
 11
98.1719901026
 21
201.4490161058
 31
0.0
  0
LINE
  5
4D0
330
1F
100
AcDbEntity
  8
SLD-0
  6
HIDDEN
 62
   179
370
     0
100
AcDbLine
 10
96.1719901026
 20
201.4490161058
 30
0.0
 11
96.1719901026
 21
198.2740161058
 31
0.0
  0
LINE
  5
4D1
330
1F
100
AcDbEntity
  8
SLD-0
  6
HIDDEN
 62
   179
370
     0
100
AcDbLine
 10
96.1719901026
 20
176.706199852
 30
0.0
 11
98.1719901026
 21
176.706199852
 31
0.0
  0
LINE
  5
4D2
330
1F
100
AcDbEntity
  8
SLD-0
  6
CENTERX2
 62
   179
370
     0
100
AcDbLine
 10
103.9219901026
 20
200.6740161058
 30
0.0
 11
106.1719901026
 21
200.6740161058
 31
0.0
  0
LINE
  5
4D3
330
1F
100
AcDbEntity
  8
SLD-0
  6
CENTERX2
 62
   179
370
     0
100
AcDbLine
 10
103.9219901026
 20
195.8740161058
 30
0.0
 11
106.1719901026
 21
195.8740161058
 31
0.0
  0
LINE
  5
4D4
330
1F
100
AcDbEntity
  8
SLD-0
  6
CENTERX2
 62
   179
370
     0
100
AcDbLine
 10
99.6719901026
 20
200.6740161058
 30
0.0
 11
103.9219901026
 21
200.6740161058
 31
0.0
  0
LINE
  5
4D5
330
1F
100
AcDbEntity
  8
SLD-0
  6
CENTERX2
 62
   179
370
     0
100
AcDbLine
 10
99.6719901026
 20
195.8740161058
 30
0.0
 11
103.9219901026
 21
195.8740161058
 31
0.0
  0
LINE
  5
4D6
330
1F
100
AcDbEntity
  8
SLD-0
  6
CENTERX2
 62
   179
370
     0
100
AcDbLine
 10
52.1719901026
 20
185.3740161058
 30
0.0
 11
106.1719901026
 21
185.3740161058
 31
0.0
  0
LINE
  5
4D7
330
1F
100
AcDbEntity
  8
SLD-0
  6
CENTERX2
 62
   179
370
     0
100
AcDbLine
 10
97.1719901026
 20
197.4490161058
 30
0.0
 11
97.1719901026
 21
174.706199852
 31
0.0
  0
LINE
  5
4D8
330
1F
100
AcDbEntity
  8
SLD-0
  6
CENTERX2
 62
   179
370
     0
100
AcDbLine
 10
52.1779901026
 20
207.7740161058
 30
0.0
 11
106.1659901026
 21
207.7740161058
 31
0.0
  0
LINE
  5
4D9
330
1F
100
AcDbEntity
  8
SLD-0
  6
CENTERX2
 62
   179
370
     0
100
AcDbLine
 10
74.1719901026
 20
133.2664891402
 30
0.0
 11
74.1719901026
 21
213.761121356
 31
0.0
  0
LINE
  5
4DA
330
1F
100
AcDbEntity
  8
SLD-0
  6
Continuous
 62
   179
370
    15
100
AcDbLine
 10
148.5785481236
 20
198.6740161058
 30
0.0
 11
149.0785479934
 21
198.6740168171
 31
0.0
  0
LINE
  5
4DB
330
1F
100
AcDbEntity
  8
SLD-0
  6
Continuous
 62
   179
370
    15
100
AcDbLine
 10
149.0785479934
 20
202.6740174728
 30
0.0
 11
148.5785481236
 21
202.6740161058
 31
0.0
  0
LINE
  5
4DC
330
1F
100
AcDbEntity
  8
SLD-0
  6
Continuous
 62
   179
370
    15
100
AcDbLine
 10
147.6785466463
 20
199.3740174906
 30
0.0
 11
148.5785469801
 21
199.3740174906
 31
0.0
  0
LINE
  5
4DD
330
1F
100
AcDbEntity
  8
SLD-0
  6
Continuous
 62
   179
370
    15
100
AcDbLine
 10
148.5785469801
 20
201.9740167992
 30
0.0
 11
147.6785466463
 21
201.9740167992
 31
0.0
  0
LINE
  5
4DE
330
1F
100
AcDbEntity
  8
SLD-0
  6
Continuous
 62
   179
370
    15
100
AcDbLine
 10
172.8785481236
 20
176.706199852
 30
0.0
 11
172.8785481236
 21
192.7740161058
 31
0.0
  0
LINE
  5
4DF
330
1F
100
AcDbEntity
  8
SLD-0
  6
Continuous
 62
   179
370
    15
100
AcDbLine
 10
170.8785481236
 20
192.7740161058
 30
0.0
 11
170.8785481236
 21
176.706199852
 31
0.0
  0
LINE
  5
4E0
330
1F
100
AcDbEntity
  8
SLD-0
  6
Continuous
 62
   179
370
    15
100
AcDbLine
 10
175.3785481236
 20
176.7061998521
 30
0.0
 11
175.3785481236
 21
195.4490161058
 31
0.0
  0
LINE
  5
4E1
330
1F
100
AcDbEntity
  8
SLD-0
  6
Continuous
 62
   179
370
    15
100
AcDbLine
 10
173.3785481236
 20
195.4490161058
 30
0.0
 11
173.3785481236
 21
176.7061998521
 31
0.0
  0
LINE
  5
4E2
330
1F
100
AcDbEntity
  8
SLD-0
  6
Continuous
 62
   179
370
    15
100
AcDbLine
 10
170.3785481235
 20
176.706199852
 30
0.0
 11
170.3785481236
 21
190.0990161058
 31
0.0
  0
LINE
  5
4E3
330
1F
100
AcDbEntity
  8
SLD-0
  6
Continuous
 62
   179
370
    15
100
AcDbLine
 10
168.3785481236
 20
190.0990161058
 30
0.0
 11
168.3785481235
 21
176.706199852
 31
0.0
  0
LINE
  5
4E4
330
1F
100
AcDbEntity
  8
SLD-0
  6
Continuous
 62
   179
370
    15
100
AcDbLine
 10
168.3785481236
 20
202.4490161058
 30
0.0
 11
164.3785480798
 21
202.4490173893
 31
0.0
  0
LINE
  5
4E5
330
1F
100
AcDbEntity
  8
SLD-0
  6
Continuous
 62
   179
370
    15
100
AcDbLine
 10
164.3785480798
 20
200.4490170615
 30
0.0
 11
168.3785481236
 21
200.4490161058
 31
0.0
  0
LINE
  5
4E6
330
1F
100
AcDbEntity
  8
SLD-0
  6
Continuous
 62
   179
370
    15
100
AcDbLine
 10
166.3785481236
 20
199.2740161058
 30
0.0
 11
164.3785480798
 21
199.2740157979
 31
0.0
  0
LINE
  5
4E7
330
1F
100
AcDbEntity
  8
SLD-0
  6
Continuous
 62
   179
370
    15
100
AcDbLine
 10
164.3785480798
 20
197.27401547
 30
0.0
 11
166.3785481236
 21
197.2740161058
 31
0.0
  0
LINE
  5
4E8
330
1F
100
AcDbEntity
  8
SLD-0
  6
Continuous
 62
   179
370
    15
100
AcDbLine
 10
166.678547898
 20
189.774015172
 30
0.0
 11
166.678547898
 21
193.3716285961
 31
0.0
  0
LINE
  5
4E9
330
1F
100
AcDbEntity
  8
SLD-0
  6
Continuous
 62
   179
370
    15
100
AcDbLine
 10
166.678547898
 20
195.6406768398
 30
0.0
 11
166.678547898
 21
197.264005615
 31
0.0
  0
LINE
  5
4EA
330
1F
100
AcDbEntity
  8
SLD-0
  6
Continuous
 62
   179
370
    15
100
AcDbLine
 10
166.678547898
 20
199.2670904832
 30
0.0
 11
166.678547898
 21
200.4490170615
 31
0.0
  0
LINE
  5
4EB
330
1F
100
AcDbEntity
  8
SLD-0
  6
Continuous
 62
   179
370
    15
100
AcDbLine
 10
162.6785472424
 20
189.774015172
 30
0.0
 11
166.678547898
 21
189.774015172
 31
0.0
  0
LINE
  5
4EC
330
1F
100
AcDbEntity
  8
SLD-0
  6
Continuous
 62
   179
370
    15
100
AcDbLine
 10
166.678547898
 20
189.774015172
 30
0.0
 11
166.678547898
 21
189.274017884
 31
0.0
  0
LINE
  5
4ED
330
1F
100
AcDbEntity
  8
SLD-0
  6
Continuous
 62
   179
370
    15
100
AcDbLine
 10
166.678547898
 20
189.274017884
 30
0.0
 11
162.6785472424
 21
189.274017884
 31
0.0
  0
LINE
  5
4EE
330
1F
100
AcDbEntity
  8
SLD-0
  6
Continuous
 62
   179
370
    15
100
AcDbLine
 10
147.6785466463
 20
188.3740175502
 30
0.0
 11
147.6785466463
 21
191.7740154998
 31
0.0
  0
LINE
  5
4EF
330
1F
100
AcDbEntity
  8
SLD-0
  6
Continuous
 62
   179
370
    15
100
AcDbLine
 10
147.6785466463
 20
191.7740154998
 30
0.0
 11
157.6785482854
 21
191.7740154998
 31
0.0
  0
LINE
  5
4F0
330
1F
100
AcDbEntity
  8
SLD-0
  6
Continuous
 62
   179
370
    15
100
AcDbLine
 10
156.6785499842
 20
182.274014874
 30
0.0
 11
157.6785482854
 21
183.2740169005
 31
0.0
  0
LINE
  5
4F1
330
1F
100
AcDbEntity
  8
SLD-0
  6
Continuous
 62
   179
370
    15
100
AcDbLine
 10
147.6785466463
 20
182.274014874
 30
0.0
 11
156.6785499842
 21
182.274014874
 31
0.0
  0
LINE
  5
4F2
330
1F
100
AcDbEntity
  8
SLD-0
  6
Continuous
 62
   179
370
    15
100
AcDbLine
 10
147.6785466463
 20
182.274014874
 30
0.0
 11
146.678548345
 21
183.2740169005
 31
0.0
  0
LINE
  5
4F3
330
1F
100
AcDbEntity
  8
SLD-0
  6
Continuous
 62
   179
370
    15
100
AcDbLine
 10
146.678548345
 20
183.2740169005
 30
0.0
 11
146.678548345
 21
188.3740175502
 31
0.0
  0
LINE
  5
4F4
330
1F
100
AcDbEntity
  8
SLD-0
  6
Continuous
 62
   179
370
    15
100
AcDbLine
 10
147.6785466463
 20
188.3740175502
 30
0.0
 11
146.678548345
 21
188.3740175502
 31
0.0
  0
LINE
  5
4F5
330
1F
100
AcDbEntity
  8
SLD-0
  6
Continuous
 62
   179
370
    15
100
AcDbLine
 10
157.6785482854
 20
183.2740169005
 30
0.0
 11
157.6785482854
 21
191.7740154998
 31
0.0
  0
LINE
  5
4F6
330
1F
100
AcDbEntity
  8
SLD-0
  6
Continuous
 62
   179
370
    15
100
AcDbLine
 10
156.5485485286
 20
196.3763099151
 30
0.0
 11
155.6785479576
 21
196.8786057072
 31
0.0
  0
LINE
  5
4F7
330
1F
100
AcDbEntity
  8
SLD-0
  6
Continuous
 62
   179
370
    15
100
AcDbLine
 10
154.8085473866
 20
196.3763099151
 30
0.0
 11
155.6785479576
 21
196.8786057072
 31
0.0
  0
LINE
  5
4F8
330
1F
100
AcDbEntity
  8
SLD-0
  6
Continuous
 62
   179
370
    15
100
AcDbLine
 10
154.8085473866
 20
195.3717220562
 30
0.0
 11
154.8085473866
 21
196.3763099151
 31
0.0
  0
LINE
  5
4F9
330
1F
100
AcDbEntity
  8
SLD-0
  6
Continuous
 62
   179
370
    15
100
AcDbLine
 10
155.6785479576
 20
194.8694262641
 30
0.0
 11
154.8085473866
 21
195.3717220562
 31
0.0
  0
LINE
  5
4FA
330
1F
100
AcDbEntity
  8
SLD-0
  6
Continuous
 62
   179
370
    15
100
AcDbLine
 10
156.5485485286
 20
195.3717220562
 30
0.0
 11
155.6785479576
 21
194.8694262641
 31
0.0
  0
LINE
  5
4FB
330
1F
100
AcDbEntity
  8
SLD-0
  6
Continuous
 62
   179
370
    15
100
AcDbLine
 10
156.5485485286
 20
196.3763099151
 30
0.0
 11
156.5485485286
 21
195.3717220562
 31
0.0
  0
LINE
  5
4FC
330
1F
100
AcDbEntity
  8
SLD-0
  6
Continuous
 62
   179
370
    15
100
AcDbLine
 10
156.5485485286
 20
201.1763092117
 30
0.0
 11
155.6785479576
 21
201.6786050038
 31
0.0
  0
LINE
  5
4FD
330
1F
100
AcDbEntity
  8
SLD-0
  6
Continuous
 62
   179
370
    15
100
AcDbLine
 10
154.8085473866
 20
201.1763092117
 30
0.0
 11
155.6785479576
 21
201.6786050038
 31
0.0
  0
LINE
  5
4FE
330
1F
100
AcDbEntity
  8
SLD-0
  6
Continuous
 62
   179
370
    15
100
AcDbLine
 10
154.8085473866
 20
200.1717213528
 30
0.0
 11
154.8085473866
 21
201.1763092117
 31
0.0
  0
LINE
  5
4FF
330
1F
100
AcDbEntity
  8
SLD-0
  6
Continuous
 62
   179
370
    15
100
AcDbLine
 10
155.6785479576
 20
199.6694255607
 30
0.0
 11
154.8085473866
 21
200.1717213528
 31
0.0
  0
LINE
  5
500
330
1F
100
AcDbEntity
  8
SLD-0
  6
Continuous
 62
   179
370
    15
100
AcDbLine
 10
156.5485485286
 20
200.1717213528
 30
0.0
 11
155.6785479576
 21
199.6694255607
 31
0.0
  0
LINE
  5
501
330
1F
100
AcDbEntity
  8
SLD-0
  6
Continuous
 62
   179
370
    15
100
AcDbLine
 10
156.5485485286
 20
201.1763092117
 30
0.0
 11
156.5485485286
 21
200.1717213528
 31
0.0
  0
LINE
  5
502
330
1F
100
AcDbEntity
  8
SLD-0
  6
Continuous
 62
   179
370
    15
100
AcDbLine
 10
141.0785466821
 20
186.2740155296
 30
0.0
 11
141.0785466821
 21
210.2740194635
 31
0.0
  0
LINE
  5
503
330
1F
100
AcDbEntity
  8
SLD-0
  6
Continuous
 62
   179
370
    15
100
AcDbLine
 10
146.0785493643
 20
210.2740194635
 30
0.0
 11
141.0785466821
 21
210.2740194635
 31
0.0
  0
LINE
  5
504
330
1F
100
AcDbEntity
  8
SLD-0
  6
Continuous
 62
   179
370
    15
100
AcDbLine
 10
141.0785466821
 20
186.2740155296
 30
0.0
 11
146.0785493643
 21
186.2740155296
 31
0.0
  0
LINE
  5
505
330
1F
100
AcDbEntity
  8
SLD-0
  6
Continuous
 62
   179
370
    15
100
AcDbLine
 10
146.0785493643
 20
186.2740155296
 30
0.0
 11
146.0785493643
 21
210.2740194635
 31
0.0
  0
LINE
  5
506
330
1F
100
AcDbEntity
  8
SLD-0
  6
Continuous
 62
   179
370
    15
100
AcDbLine
 10
155.1785481236
 20
210.2740161058
 30
0.0
 11
148.5785481236
 21
210.2740161058
 31
0.0
  0
LINE
  5
507
330
1F
100
AcDbEntity
  8
SLD-0
  6
Continuous
 62
   179
370
    15
100
AcDbLine
 10
156.0785472781
 20
208.6740147309
 30
0.0
 11
156.0785472781
 21
205.2740167813
 31
0.0
  0
LINE
  5
508
330
1F
100
AcDbEntity
  8
SLD-0
  6
Continuous
 62
   179
370
    15
100
AcDbLine
 10
147.6785466463
 20
208.6740147309
 30
0.0
 11
156.0785472781
 21
208.6740147309
 31
0.0
  0
LINE
  5
509
330
1F
100
AcDbEntity
  8
SLD-0
  6
Continuous
 62
   179
370
    15
100
AcDbLine
 10
147.6785466463
 20
191.7740154998
 30
0.0
 11
147.6785466463
 21
208.6740147309
 31
0.0
  0
LINE
  5
50A
330
1F
100
AcDbEntity
  8
SLD-0
  6
Continuous
 62
   179
370
    15
100
AcDbLine
 10
147.6785466463
 20
189.274017884
 30
0.0
 11
146.0785493643
 21
189.274017884
 31
0.0
  0
LINE
  5
50B
330
1F
100
AcDbEntity
  8
SLD-0
  6
Continuous
 62
   179
370
    15
100
AcDbLine
 10
157.6785482854
 20
205.2740167813
 30
0.0
 11
157.6785481236
 21
207.7740161058
 31
0.0
  0
LINE
  5
50C
330
1F
100
AcDbEntity
  8
SLD-0
  6
Continuous
 62
   179
370
    15
100
AcDbLine
 10
157.6785482854
 20
205.2740167813
 30
0.0
 11
156.0785472781
 21
205.2740167813
 31
0.0
  0
LINE
  5
50D
330
1F
100
AcDbEntity
  8
SLD-0
  6
Continuous
 62
   179
370
    15
100
AcDbLine
 10
149.0785479934
 20
191.9240143137
 30
0.0
 11
164.3785480798
 21
191.9240143137
 31
0.0
  0
LINE
  5
50E
330
1F
100
AcDbEntity
  8
SLD-0
  6
Continuous
 62
   179
370
    15
100
AcDbLine
 10
149.0785479934
 20
204.6240132289
 30
0.0
 11
149.0785479934
 21
191.9240143137
 31
0.0
  0
LINE
  5
50F
330
1F
100
AcDbEntity
  8
SLD-0
  6
Continuous
 62
   179
370
    15
100
AcDbLine
 10
164.3785480798
 20
204.6240132289
 30
0.0
 11
149.0785479934
 21
204.6240132289
 31
0.0
  0
LINE
  5
510
330
1F
100
AcDbEntity
  8
SLD-0
  6
Continuous
 62
   179
370
    15
100
AcDbLine
 10
164.3785480798
 20
191.9240143137
 30
0.0
 11
164.3785480798
 21
204.6240132289
 31
0.0
  0
LINE
  5
511
330
1F
100
AcDbEntity
  8
SLD-0
  6
Continuous
 62
   179
370
    15
100
AcDbLine
 10
148.5785481236
 20
200.6740161058
 30
0.0
 11
148.5785481236
 21
202.6740161058
 31
0.0
  0
LINE
  5
512
330
1F
100
AcDbEntity
  8
SLD-0
  6
Continuous
 62
   179
370
    15
100
AcDbLine
 10
148.5785481236
 20
198.6740161058
 30
0.0
 11
148.5785481236
 21
200.6740161058
 31
0.0
  0
LINE
  5
513
330
1F
100
AcDbEntity
  8
SLD-0
  6
Continuous
 62
   179
370
    15
100
AcDbLine
 10
173.5059303276
 20
172.9597105272
 30
0.0
 11
173.4596565754
 21
172.9437645512
 31
0.0
  0
LINE
  5
514
330
1F
100
AcDbEntity
  8
SLD-0
  6
Continuous
 62
   179
370
    15
100
AcDbLine
 10
173.4596565754
 20
172.9437645512
 30
0.0
 11
173.3253673107
 21
172.8974927204
 31
0.0
  0
LINE
  5
515
330
1F
100
AcDbEntity
  8
SLD-0
  6
Continuous
 62
   179
370
    15
100
AcDbLine
 10
173.3253673107
 20
172.8974927204
 30
0.0
 11
173.1162034363
 21
172.825419529
 31
0.0
  0
LINE
  5
516
330
1F
100
AcDbEntity
  8
SLD-0
  6
Continuous
 62
   179
370
    15
100
AcDbLine
 10
173.1162034363
 20
172.825419529
 30
0.0
 11
172.8526447356
 21
172.7346006768
 31
0.0
  0
LINE
  5
517
330
1F
100
AcDbEntity
  8
SLD-0
  6
Continuous
 62
   179
370
    15
100
AcDbLine
 10
172.8526447356
 20
172.7346006768
 30
0.0
 11
172.5604851187
 21
172.6339284318
 31
0.0
  0
LINE
  5
518
330
1F
100
AcDbEntity
  8
SLD-0
  6
Continuous
 62
   179
370
    15
100
AcDbLine
 10
172.5604851187
 20
172.6339284318
 30
0.0
 11
172.2683273644
 21
172.5332561867
 31
0.0
  0
LINE
  5
519
330
1F
100
AcDbEntity
  8
SLD-0
  6
Continuous
 62
   179
370
    15
100
AcDbLine
 10
172.2683273644
 20
172.5332561867
 30
0.0
 11
172.0047668011
 21
172.4424373345
 31
0.0
  0
LINE
  5
51A
330
1F
100
AcDbEntity
  8
SLD-0
  6
Continuous
 62
   179
370
    15
100
AcDbLine
 10
172.0047668011
 20
172.4424373345
 30
0.0
 11
171.7956047893
 21
172.3703641431
 31
0.0
  0
LINE
  5
51B
330
1F
100
AcDbEntity
  8
SLD-0
  6
Continuous
 62
   179
370
    15
100
AcDbLine
 10
171.7956047893
 20
172.3703641431
 30
0.0
 11
171.661313662
 21
172.3240923123
 31
0.0
  0
LINE
  5
51C
330
1F
100
AcDbEntity
  8
SLD-0
  6
Continuous
 62
   179
370
    15
100
AcDbLine
 10
171.661313662
 20
172.3240923123
 30
0.0
 11
171.6150402761
 21
172.3081471663
 31
0.0
  0
LINE
  5
51D
330
1F
100
AcDbEntity
  8
SLD-0
  6
Continuous
 62
   179
370
    15
100
AcDbLine
 10
174.5525207759
 20
171.3039457785
 30
0.0
 11
174.5133418978
 21
171.2634146201
 31
0.0
  0
LINE
  5
51E
330
1F
100
AcDbEntity
  8
SLD-0
  6
Continuous
 62
   179
370
    15
100
AcDbLine
 10
174.5133418978
 20
171.2634146201
 30
0.0
 11
174.4002271832
 21
171.146386488
 31
0.0
  0
LINE
  5
51F
330
1F
100
AcDbEntity
  8
SLD-0
  6
Continuous
 62
   179
370
    15
100
AcDbLine
 10
174.4002271832
 20
171.146386488
 30
0.0
 11
174.2259283007
 21
170.9660600858
 31
0.0
  0
LINE
  5
520
330
1F
100
AcDbEntity
  8
SLD-0
  6
Continuous
 62
   179
370
    15
100
AcDbLine
 10
174.2259283007
 20
170.9660600858
 30
0.0
 11
174.010094294
 21
170.74276246
 31
0.0
  0
LINE
  5
521
330
1F
100
AcDbEntity
  8
SLD-0
  6
Continuous
 62
   179
370
    15
100
AcDbLine
 10
174.010094294
 20
170.74276246
 30
0.0
 11
173.777060622
 21
170.5016691225
 31
0.0
  0
LINE
  5
522
330
1F
100
AcDbEntity
  8
SLD-0
  6
Continuous
 62
   179
370
    15
100
AcDbLine
 10
173.777060622
 20
170.5016691225
 30
0.0
 11
173.5530998946
 21
170.2699635165
 31
0.0
  0
LINE
  5
523
330
1F
100
AcDbEntity
  8
SLD-0
  6
Continuous
 62
   179
370
    15
100
AcDbLine
 10
173.5530998946
 20
170.2699635165
 30
0.0
 11
173.3634621293
 21
170.073765515
 31
0.0
  0
LINE
  5
524
330
1F
100
AcDbEntity
  8
SLD-0
  6
Continuous
 62
   179
370
    15
100
AcDbLine
 10
173.3634621293
 20
170.073765515
 30
0.0
 11
173.2295267672
 21
169.9351977544
 31
0.0
  0
LINE
  5
525
330
1F
100
AcDbEntity
  8
SLD-0
  6
Continuous
 62
   179
370
    15
100
AcDbLine
 10
173.2295267672
 20
169.9351977544
 30
0.0
 11
173.1663924099
 21
169.8698822396
 31
0.0
  0
LINE
  5
526
330
1F
100
AcDbEntity
  8
SLD-0
  6
Continuous
 62
   179
370
    15
100
AcDbLine
 10
173.1663924099
 20
169.8698822396
 30
0.0
 11
173.1625460476
 21
169.8659017669
 31
0.0
  0
LINE
  5
527
330
1F
100
AcDbEntity
  8
SLD-0
  6
Continuous
 62
   179
370
    15
100
AcDbLine
 10
175.8695428919
 20
173.7741647282
 30
0.0
 11
175.8232694507
 21
173.7582210438
 31
0.0
  0
LINE
  5
528
330
1F
100
AcDbEntity
  8
SLD-0
  6
Continuous
 62
   179
370
    15
100
AcDbLine
 10
175.8232694507
 20
173.7582210438
 30
0.0
 11
175.6889783234
 21
173.7119454877
 31
0.0
  0
LINE
  5
529
330
1F
100
AcDbEntity
  8
SLD-0
  6
Continuous
 62
   179
370
    15
100
AcDbLine
 10
175.6889783234
 20
173.7119454877
 30
0.0
 11
175.4798163117
 21
173.6398722963
 31
0.0
  0
LINE
  5
52A
330
1F
100
AcDbEntity
  8
SLD-0
  6
Continuous
 62
   179
370
    15
100
AcDbLine
 10
175.4798163117
 20
173.6398722963
 30
0.0
 11
175.2162557483
 21
173.5490534442
 31
0.0
  0
LINE
  5
52B
330
1F
100
AcDbEntity
  8
SLD-0
  6
Continuous
 62
   179
370
    15
100
AcDbLine
 10
175.2162557483
 20
173.5490534442
 30
0.0
 11
174.924097994
 21
173.4483811991
 31
0.0
  0
LINE
  5
52C
330
1F
100
AcDbEntity
  8
SLD-0
  6
Continuous
 62
   179
370
    15
100
AcDbLine
 10
174.924097994
 20
173.4483811991
 30
0.0
 11
174.6319383771
 21
173.3477126794
 31
0.0
  0
LINE
  5
52D
330
1F
100
AcDbEntity
  8
SLD-0
  6
Continuous
 62
   179
370
    15
100
AcDbLine
 10
174.6319383771
 20
173.3477126794
 30
0.0
 11
174.3683796764
 21
173.2568938272
 31
0.0
  0
LINE
  5
52E
330
1F
100
AcDbEntity
  8
SLD-0
  6
Continuous
 62
   179
370
    15
100
AcDbLine
 10
174.3683796764
 20
173.2568938272
 30
0.0
 11
174.1592176647
 21
173.1848206358
 31
0.0
  0
LINE
  5
52F
330
1F
100
AcDbEntity
  8
SLD-0
  6
Continuous
 62
   179
370
    15
100
AcDbLine
 10
174.1592176647
 20
173.1848206358
 30
0.0
 11
174.0249265373
 21
173.1385450797
 31
0.0
  0
LINE
  5
530
330
1F
100
AcDbEntity
  8
SLD-0
  6
Continuous
 62
   179
370
    15
100
AcDbLine
 10
174.0249265373
 20
173.1385450797
 30
0.0
 11
173.9786528405
 21
173.1226013674
 31
0.0
  0
LINE
  5
531
330
1F
100
AcDbEntity
  8
SLD-0
  6
Continuous
 62
   179
370
    15
100
AcDbLine
 10
176.7668147028
 20
172.356323524
 30
0.0
 11
176.7228488267
 21
172.3210450249
 31
0.0
  0
LINE
  5
532
330
1F
100
AcDbEntity
  8
SLD-0
  6
Continuous
 62
   179
370
    15
100
AcDbLine
 10
176.7228488267
 20
172.3210450249
 30
0.0
 11
176.5959058345
 21
172.2191844123
 31
0.0
  0
LINE
  5
533
330
1F
100
AcDbEntity
  8
SLD-0
  6
Continuous
 62
   179
370
    15
100
AcDbLine
 10
176.5959058345
 20
172.2191844123
 30
0.0
 11
176.4002982915
 21
172.0622230308
 31
0.0
  0
LINE
  5
534
330
1F
100
AcDbEntity
  8
SLD-0
  6
Continuous
 62
   179
370
    15
100
AcDbLine
 10
176.4002982915
 20
172.0622230308
 30
0.0
 11
176.1580799163
 21
171.8678634601
 31
0.0
  0
LINE
  5
535
330
1F
100
AcDbEntity
  8
SLD-0
  6
Continuous
 62
   179
370
    15
100
AcDbLine
 10
176.1580799163
 20
171.8678634601
 30
0.0
 11
175.8965589494
 21
171.6580141323
 31
0.0
  0
LINE
  5
536
330
1F
100
AcDbEntity
  8
SLD-0
  6
Continuous
 62
   179
370
    15
100
AcDbLine
 10
175.8965589494
 20
171.6580141323
 30
0.0
 11
175.6452192009
 21
171.4563343661
 31
0.0
  0
LINE
  5
537
330
1F
100
AcDbEntity
  8
SLD-0
  6
Continuous
 62
   179
370
    15
100
AcDbLine
 10
175.6452192009
 20
171.4563343661
 30
0.0
 11
175.4323970915
 21
171.2855614709
 31
0.0
  0
LINE
  5
538
330
1F
100
AcDbEntity
  8
SLD-0
  6
Continuous
 62
   179
370
    15
100
AcDbLine
 10
175.4323970915
 20
171.2855614709
 30
0.0
 11
175.2820890785
 21
171.1649514722
 31
0.0
  0
LINE
  5
539
330
1F
100
AcDbEntity
  8
SLD-0
  6
Continuous
 62
   179
370
    15
100
AcDbLine
 10
175.2820890785
 20
171.1649514722
 30
0.0
 11
175.2112377823
 21
171.1080979543
 31
0.0
  0
LINE
  5
53A
330
1F
100
AcDbEntity
  8
SLD-0
  6
Continuous
 62
   179
370
    15
100
AcDbLine
 10
175.2112377823
 20
171.1080979543
 30
0.0
 11
175.2069201709
 21
171.1046334343
 31
0.0
  0
LINE
  5
53B
330
1F
100
AcDbEntity
  8
SLD-0
  6
Continuous
 62
   179
370
    15
100
AcDbLine
 10
172.8785481236
 20
176.706199852
 30
0.0
 11
170.8785481236
 21
176.706199852
 31
0.0
  0
LINE
  5
53C
330
1F
100
AcDbEntity
  8
SLD-0
  6
Continuous
 62
   179
370
    15
100
AcDbLine
 10
171.1989481235
 20
171.9841088067
 30
0.0
 11
171.1528730035
 21
171.9676006572
 31
0.0
  0
LINE
  5
53D
330
1F
100
AcDbEntity
  8
SLD-0
  6
Continuous
 62
   179
370
    15
100
AcDbLine
 10
171.1528730035
 20
171.9676006572
 30
0.0
 11
171.0191574336
 21
171.919693424
 31
0.0
  0
LINE
  5
53E
330
1F
100
AcDbEntity
  8
SLD-0
  6
Continuous
 62
   179
370
    15
100
AcDbLine
 10
171.0191574336
 20
171.919693424
 30
0.0
 11
170.8108894915
 21
171.845072134
 31
0.0
  0
LINE
  5
53F
330
1F
100
AcDbEntity
  8
SLD-0
  6
Continuous
 62
   179
370
    15
100
AcDbLine
 10
170.8108894915
 20
171.845072134
 30
0.0
 11
170.5484558285
 21
171.7510458069
 31
0.0
  0
LINE
  5
540
330
1F
100
AcDbEntity
  8
SLD-0
  6
Continuous
 62
   179
370
    15
100
AcDbLine
 10
170.5484558285
 20
171.7510458069
 30
0.0
 11
170.2575479091
 21
171.6468159096
 31
0.0
  0
LINE
  5
541
330
1F
100
AcDbEntity
  8
SLD-0
  6
Continuous
 62
   179
370
    15
100
AcDbLine
 10
170.2575479091
 20
171.6468159096
 30
0.0
 11
169.9666399897
 21
171.5425860124
 31
0.0
  0
LINE
  5
542
330
1F
100
AcDbEntity
  8
SLD-0
  6
Continuous
 62
   179
370
    15
100
AcDbLine
 10
169.9666399897
 20
171.5425860124
 30
0.0
 11
169.7042063267
 21
171.4485596852
 31
0.0
  0
LINE
  5
543
330
1F
100
AcDbEntity
  8
SLD-0
  6
Continuous
 62
   179
370
    15
100
AcDbLine
 10
169.7042063267
 20
171.4485596852
 30
0.0
 11
169.4959402472
 21
171.3739421206
 31
0.0
  0
LINE
  5
544
330
1F
100
AcDbEntity
  8
SLD-0
  6
Continuous
 62
   179
370
    15
100
AcDbLine
 10
169.4959402472
 20
171.3739421206
 30
0.0
 11
169.3622228146
 21
171.3260330247
 31
0.0
  0
LINE
  5
545
330
1F
100
AcDbEntity
  8
SLD-0
  6
Continuous
 62
   179
370
    15
100
AcDbLine
 10
169.3622228146
 20
171.3260330247
 30
0.0
 11
169.3161481235
 21
171.3095243717
 31
0.0
  0
LINE
  5
546
330
1F
100
AcDbEntity
  8
SLD-0
  6
Continuous
 62
   179
370
    15
100
AcDbLine
 10
172.48401981
 20
169.7196543204
 30
0.0
 11
172.4419668705
 21
169.6821127074
 31
0.0
  0
LINE
  5
547
330
1F
100
AcDbEntity
  8
SLD-0
  6
Continuous
 62
   179
370
    15
100
AcDbLine
 10
172.4419668705
 20
169.6821127074
 30
0.0
 11
172.3205503464
 21
169.5737253862
 31
0.0
  0
LINE
  5
548
330
1F
100
AcDbEntity
  8
SLD-0
  6
Continuous
 62
   179
370
    15
100
AcDbLine
 10
172.3205503464
 20
169.5737253862
 30
0.0
 11
172.1334569544
 21
169.4067075836
 31
0.0
  0
LINE
  5
549
330
1F
100
AcDbEntity
  8
SLD-0
  6
Continuous
 62
   179
370
    15
100
AcDbLine
 10
172.1334569544
 20
169.4067075836
 30
0.0
 11
171.9017811508
 21
169.1998925047
 31
0.0
  0
LINE
  5
54A
330
1F
100
AcDbEntity
  8
SLD-0
  6
Continuous
 62
   179
370
    15
100
AcDbLine
 10
171.9017811508
 20
169.1998925047
 30
0.0
 11
171.651644671
 21
168.9765967416
 31
0.0
  0
LINE
  5
54B
330
1F
100
AcDbEntity
  8
SLD-0
  6
Continuous
 62
   179
370
    15
100
AcDbLine
 10
171.651644671
 20
168.9765967416
 30
0.0
 11
171.4112442375
 21
168.7619920807
 31
0.0
  0
LINE
  5
54C
330
1F
100
AcDbEntity
  8
SLD-0
  6
Continuous
 62
   179
370
    15
100
AcDbLine
 10
171.4112442375
 20
168.7619920807
 30
0.0
 11
171.207686925
 21
168.5802780079
 31
0.0
  0
LINE
  5
54D
330
1F
100
AcDbEntity
  8
SLD-0
  6
Continuous
 62
   179
370
    15
100
AcDbLine
 10
171.207686925
 20
168.5802780079
 30
0.0
 11
171.0639205218
 21
168.4519380318
 31
0.0
  0
LINE
  5
54E
330
1F
100
AcDbEntity
  8
SLD-0
  6
Continuous
 62
   179
370
    15
100
AcDbLine
 10
171.0639205218
 20
168.4519380318
 30
0.0
 11
170.996153766
 21
168.3914430426
 31
0.0
  0
LINE
  5
54F
330
1F
100
AcDbEntity
  8
SLD-0
  6
Continuous
 62
   179
370
    15
100
AcDbLine
 10
170.996153766
 20
168.3914430426
 30
0.0
 11
170.9920242817
 21
168.3877568679
 31
0.0
  0
LINE
  5
550
330
1F
100
AcDbEntity
  8
SLD-0
  6
Continuous
 62
   179
370
    15
100
AcDbLine
 10
148.6785486729
 20
207.7740143972
 30
0.0
 11
147.6785466463
 21
206.7740198212
 31
0.0
  0
LINE
  5
551
330
1F
100
AcDbEntity
  8
SLD-0
  6
Continuous
 62
   179
370
    15
100
AcDbLine
 10
154.7785476238
 20
207.7740143972
 30
0.0
 11
148.6785486729
 21
207.7740143972
 31
0.0
  0
LINE
  5
552
330
1F
100
AcDbEntity
  8
SLD-0
  6
Continuous
 62
   179
370
    15
100
AcDbLine
 10
154.7785476238
 20
204.7740157681
 30
0.0
 11
154.7785476238
 21
207.7740143972
 31
0.0
  0
LINE
  5
553
330
1F
100
AcDbEntity
  8
SLD-0
  6
Continuous
 62
   179
370
    15
100
AcDbLine
 10
157.6785482854
 20
204.7740157681
 30
0.0
 11
154.7785476238
 21
204.7740157681
 31
0.0
  0
LINE
  5
554
330
1F
100
AcDbEntity
  8
SLD-0
  6
Continuous
 62
   179
370
    15
100
AcDbLine
 10
157.6785482854
 20
204.6240132289
 30
0.0
 11
157.6785482854
 21
204.7740157681
 31
0.0
  0
LINE
  5
555
330
1F
100
AcDbEntity
  8
SLD-0
  6
Continuous
 62
   179
370
    15
100
AcDbLine
 10
157.6785482854
 20
191.7740154998
 30
0.0
 11
157.6785482854
 21
191.9240143137
 31
0.0
  0
LINE
  5
556
330
1F
100
AcDbEntity
  8
SLD-0
  6
Continuous
 62
   179
370
    15
100
AcDbLine
 10
147.6785466463
 20
185.3740151959
 30
0.0
 11
147.6785466463
 21
185.7645299273
 31
0.0
  0
LINE
  5
557
330
1F
100
AcDbEntity
  8
SLD-0
  6
Continuous
 62
   179
370
    15
100
AcDbLine
 10
148.7880349547
 20
186.8740145104
 30
0.0
 11
149.1785496861
 21
186.8740145104
 31
0.0
  0
LINE
  5
558
330
1F
100
AcDbEntity
  8
SLD-0
  6
Continuous
 62
   179
370
    15
100
AcDbLine
 10
146.0785481236
 20
185.3740161058
 30
0.0
 11
146.0785493643
 21
186.2740155296
 31
0.0
  0
LINE
  5
559
330
1F
100
AcDbEntity
  8
SLD-0
  6
Continuous
 62
   179
370
    15
100
AcDbLine
 10
157.6785482854
 20
137.2740161127
 30
0.0
 11
162.6785472424
 21
137.2740161127
 31
0.0
  0
LINE
  5
55A
330
1F
100
AcDbEntity
  8
SLD-0
  6
Continuous
 62
   179
370
    15
100
AcDbLine
 10
157.6785482854
 20
137.2740161127
 30
0.0
 11
157.6785482854
 21
183.2740169005
 31
0.0
  0
LINE
  5
55B
330
1F
100
AcDbEntity
  8
SLD-0
  6
Continuous
 62
   179
370
    15
100
AcDbLine
 10
162.6785472424
 20
137.2740161127
 30
0.0
 11
162.6785472424
 21
191.9240143137
 31
0.0
  0
LINE
  5
55C
330
1F
100
AcDbEntity
  8
SLD-0
  6
Continuous
 62
   179
370
    15
100
AcDbLine
 10
162.6785472424
 20
135.2740160177
 30
0.0
 11
157.6785482854
 21
135.2740160177
 31
0.0
  0
LINE
  5
55D
330
1F
100
AcDbEntity
  8
SLD-0
  6
Continuous
 62
   179
370
    15
100
AcDbLine
 10
157.6785482854
 20
135.2740160177
 30
0.0
 11
157.6785482854
 21
137.2740161127
 31
0.0
  0
LINE
  5
55E
330
1F
100
AcDbEntity
  8
SLD-0
  6
Continuous
 62
   179
370
    15
100
AcDbLine
 10
162.6785472424
 20
137.2740161127
 30
0.0
 11
162.6785472424
 21
135.2740160177
 31
0.0
  0
LINE
  5
55F
330
1F
100
AcDbEntity
  8
SLD-0
  6
Continuous
 62
   179
370
    15
100
AcDbLine
 10
157.6785482854
 20
205.2740167813
 30
0.0
 11
162.6785472424
 21
205.2740167813
 31
0.0
  0
LINE
  5
560
330
1F
100
AcDbEntity
  8
SLD-0
  6
Continuous
 62
   179
370
    15
100
AcDbLine
 10
157.6785482854
 20
204.7740157681
 30
0.0
 11
157.6785482854
 21
205.2740167813
 31
0.0
  0
LINE
  5
561
330
1F
100
AcDbEntity
  8
SLD-0
  6
Continuous
 62
   179
370
    15
100
AcDbLine
 10
162.6785472424
 20
205.2740167813
 30
0.0
 11
162.6785472424
 21
204.6240132289
 31
0.0
  0
LINE
  5
562
330
1F
100
AcDbEntity
  8
SLD-0
  6
Continuous
 62
   179
370
    15
100
AcDbLine
 10
175.3785481236
 20
176.7061998521
 30
0.0
 11
173.3785481236
 21
176.7061998521
 31
0.0
  0
LINE
  5
563
330
1F
100
AcDbEntity
  8
SLD-0
  6
Continuous
 62
   179
370
    15
100
AcDbLine
 10
172.8785481236
 20
192.7740161058
 30
0.0
 11
170.8785481236
 21
192.7740161058
 31
0.0
  0
LINE
  5
564
330
1F
100
AcDbEntity
  8
SLD-0
  6
Continuous
 62
   179
370
    15
100
AcDbLine
 10
170.3785481235
 20
176.706199852
 30
0.0
 11
168.3785481235
 21
176.706199852
 31
0.0
  0
LINE
  5
565
330
1F
100
AcDbEntity
  8
SLD-0
  6
Continuous
 62
   179
370
    15
100
AcDbLine
 10
175.3785481236
 20
195.4490161058
 30
0.0
 11
173.3785481236
 21
195.4490161058
 31
0.0
  0
LINE
  5
566
330
1F
100
AcDbEntity
  8
SLD-0
  6
Continuous
 62
   179
370
    15
100
AcDbLine
 10
168.3785481236
 20
202.4490161058
 30
0.0
 11
168.3785481236
 21
200.4490161058
 31
0.0
  0
LINE
  5
567
330
1F
100
AcDbEntity
  8
SLD-0
  6
Continuous
 62
   179
370
    15
100
AcDbLine
 10
166.3785481236
 20
198.2740161058
 30
0.0
 11
166.3785481236
 21
197.2740161058
 31
0.0
  0
LINE
  5
568
330
1F
100
AcDbEntity
  8
SLD-0
  6
Continuous
 62
   179
370
    15
100
AcDbLine
 10
166.3785481236
 20
199.2740161058
 30
0.0
 11
166.3785481236
 21
198.2740161058
 31
0.0
  0
LINE
  5
569
330
1F
100
AcDbEntity
  8
SLD-0
  6
Continuous
 62
   179
370
    15
100
AcDbLine
 10
170.3785481236
 20
190.0990161058
 30
0.0
 11
168.3785481236
 21
190.0990161058
 31
0.0
  0
LINE
  5
56A
330
1F
100
AcDbEntity
  8
SLD-0
  6
Continuous
 62
     7
370
     0
100
AcDbLine
 10
143.5001784458
 20
206.755225282
 30
0.0
 11
144.731616576
 21
203.9039571201
 31
0.0
  0
LINE
  5
56B
330
1F
100
AcDbEntity
  8
SLD-0
  6
Continuous
 62
     7
370
     0
100
AcDbLine
 10
144.731616576
 20
203.9039571201
 30
0.0
 11
142.2395264567
 21
205.757509611
 31
0.0
  0
LINE
  5
56C
330
1F
100
AcDbEntity
  8
SLD-0
  6
Continuous
 62
     7
370
     0
100
AcDbLine
 10
144.731616576
 20
203.9039571201
 30
0.0
 11
142.8698524512
 21
206.2563674465
 31
0.0
  0
LINE
  5
56D
330
1F
100
AcDbEntity
  8
SLD-0
  6
Continuous
 62
   179
370
     0
100
AcDbLine
 10
142.8698524512
 20
206.2563674465
 30
0.0
 11
130.7474921027
 21
221.5734343534
 31
0.0
  0
LINE
  5
56E
330
1F
100
AcDbEntity
  8
SLD-0
  6
Continuous
 62
   179
370
     0
100
AcDbLine
 10
130.7474921027
 20
221.5734343534
 30
0.0
 11
115.9916680158
 21
221.5734343534
 31
0.0
  0
CIRCLE
  5
56F
330
1F
100
AcDbEntity
  8
SLD-0
  6
Continuous
 62
   179
370
    15
100
AcDbCircle
 10
79.1719901026
 20
195.2740161058
 30
0.0
 40
3.299999999999997
  0
CIRCLE
  5
570
330
1F
100
AcDbEntity
  8
SLD-0
  6
Continuous
 62
   179
370
    15
100
AcDbCircle
 10
79.1719901026
 20
195.2740161058
 30
0.0
 40
3.5
  0
ARC
  5
571
330
1F
100
AcDbEntity
  8
SLD-0
  6
Continuous
 62
   179
370
    15
100
AcDbCircle
 10
79.1719901026
 20
195.2740161058
 30
0.0
 40
1.535500000000037
100
AcDbArc
 50
0.0
 51
60.0
  0
ARC
  5
572
330
1F
100
AcDbEntity
  8
SLD-0
  6
Continuous
 62
   179
370
    15
100
AcDbCircle
 10
79.1719901026
 20
195.2740161058
 30
0.0
 40
1.535500000000027
100
AcDbArc
 50
300.0
 51
0.0
  0
ARC
  5
573
330
1F
100
AcDbEntity
  8
SLD-0
  6
Continuous
 62
   179
370
    15
100
AcDbCircle
 10
79.1719901026
 20
195.2740161058
 30
0.0
 40
1.535500000000005
100
AcDbArc
 50
240.0
 51
300.0
  0
ARC
  5
574
330
1F
100
AcDbEntity
  8
SLD-0
  6
Continuous
 62
   179
370
    15
100
AcDbCircle
 10
79.1719901026
 20
195.2740161058
 30
0.0
 40
1.535499999999998
100
AcDbArc
 50
180.0
 51
240.0
  0
ARC
  5
575
330
1F
100
AcDbEntity
  8
SLD-0
  6
Continuous
 62
   179
370
    15
100
AcDbCircle
 10
79.1719901026
 20
195.2740161058
 30
0.0
 40
1.535499999999991
100
AcDbArc
 50
120.0
 51
180.0
  0
ARC
  5
576
330
1F
100
AcDbEntity
  8
SLD-0
  6
Continuous
 62
   179
370
    15
100
AcDbCircle
 10
79.1719901026
 20
195.2740161058
 30
0.0
 40
1.535500000000037
100
AcDbArc
 50
60.0
 51
120.0
  0
ARC
  5
577
330
1F
100
AcDbEntity
  8
SLD-0
  6
Continuous
 62
   179
370
    15
100
AcDbCircle
 10
79.1719901026
 20
195.2740161058
 30
0.0
 40
4.000000000000171
100
AcDbArc
 50
331.0449756281
 51
28.9550243719
  0
ARC
  5
578
330
1F
100
AcDbEntity
  8
SLD-0
  6
Continuous
 62
   179
370
    15
100
AcDbCircle
 10
79.1719901026
 20
195.2740161058
 30
0.0
 40
4.000000000000617
100
AcDbArc
 50
38.6821874535
 51
61.0449756281
  0
ARC
  5
579
330
1F
100
AcDbEntity
  8
SLD-0
  6
Continuous
 62
   179
370
    15
100
AcDbCircle
 10
79.1719901026
 20
195.2740161058
 30
0.0
 40
4.000000000003088
100
AcDbArc
 50
82.8192442185
 51
97.1807557815
  0
ARC
  5
57A
330
1F
100
AcDbEntity
  8
SLD-0
  6
Continuous
 62
   179
370
    15
100
AcDbCircle
 10
79.1719901026
 20
195.2740161058
 30
0.0
 40
3.999999999999793
100
AcDbArc
 50
118.9550243718
 51
141.3178125465
  0
ARC
  5
57B
330
1F
100
AcDbEntity
  8
SLD-0
  6
Continuous
 62
   179
370
    15
100
AcDbCircle
 10
79.1719901026
 20
195.2740161058
 30
0.0
 40
4.000000000000159
100
AcDbArc
 50
151.0449756281
 51
208.9550243719
  0
ARC
  5
57C
330
1F
100
AcDbEntity
  8
SLD-0
  6
Continuous
 62
   179
370
    15
100
AcDbCircle
 10
79.1719901026
 20
195.2740161058
 30
0.0
 40
4.000000000003088
100
AcDbArc
 50
262.8192442185
 51
277.1807557815
  0
ARC
  5
57D
330
1F
100
AcDbEntity
  8
SLD-0
  6
Continuous
 62
   179
370
    15
100
AcDbCircle
 10
79.1719901026
 20
195.2740161058
 30
0.0
 40
4.000000006986184
100
AcDbArc
 50
61.0449756835
 51
77.0277469394
  0
ARC
  5
57E
330
1F
100
AcDbEntity
  8
SLD-0
  6
Continuous
 62
   179
370
    15
100
AcDbCircle
 10
79.1719901026
 20
195.2740161058
 30
0.0
 40
4.000000006986184
100
AcDbArc
 50
77.0277469394
 51
82.8192442311
  0
ARC
  5
57F
330
1F
100
AcDbEntity
  8
SLD-0
  6
Continuous
 62
   179
370
    15
100
AcDbCircle
 10
79.1719901026
 20
195.2740161058
 30
0.0
 40
3.999999999999781
100
AcDbArc
 50
277.1807557815
 51
287.1144196381
  0
ARC
  5
580
330
1F
100
AcDbEntity
  8
SLD-0
  6
Continuous
 62
   179
370
    15
100
AcDbCircle
 10
79.1719901026
 20
195.2740161058
 30
0.0
 40
4.000000000003088
100
AcDbArc
 50
252.885571197
 51
262.8192442185
  0
ARC
  5
581
330
1F
100
AcDbEntity
  8
SLD-0
  6
Continuous
 62
   179
370
    15
100
AcDbCircle
 10
79.1719901026
 20
195.2740161058
 30
0.0
 40
3.999999999998209
100
AcDbArc
 50
102.9722346922
 51
118.9550243718
  0
ARC
  5
582
330
1F
100
AcDbEntity
  8
SLD-0
  6
Continuous
 62
   179
370
    15
100
AcDbCircle
 10
79.1719901026
 20
195.2740161058
 30
0.0
 40
3.999999999999751
100
AcDbArc
 50
97.1807557815
 51
102.9722346922
  0
ARC
  5
583
330
1F
100
AcDbEntity
  8
SLD-0
  6
Continuous
 62
   179
370
    15
100
AcDbCircle
 10
79.1719901026
 20
195.2740161058
 30
0.0
 40
4.000000000000617
100
AcDbArc
 50
34.817955296
 51
38.6821874535
  0
ARC
  5
584
330
1F
100
AcDbEntity
  8
SLD-0
  6
Continuous
 62
   179
370
    15
100
AcDbCircle
 10
79.1719901026
 20
195.2740161058
 30
0.0
 40
4.000000000000171
100
AcDbArc
 50
28.9550243719
 51
34.8179552959
  0
ARC
  5
585
330
1F
100
AcDbEntity
  8
SLD-0
  6
Continuous
 62
   179
370
    15
100
AcDbCircle
 10
79.1719901026
 20
195.2740161058
 30
0.0
 40
4.000000000022881
100
AcDbArc
 50
313.4325720722
 51
331.0449756275
  0
ARC
  5
586
330
1F
100
AcDbEntity
  8
SLD-0
  6
Continuous
 62
   179
370
    15
100
AcDbCircle
 10
79.1719901026
 20
195.2740161058
 30
0.0
 40
3.999999999973154
100
AcDbArc
 50
287.1144196382
 51
290.3640606962
  0
ARC
  5
587
330
1F
100
AcDbEntity
  8
SLD-0
  6
Continuous
 62
   179
370
    15
100
AcDbCircle
 10
79.1719901026
 20
195.2740161058
 30
0.0
 40
3.999999999973159
100
AcDbArc
 50
249.6359393038
 51
252.8855711969
  0
ARC
  5
588
330
1F
100
AcDbEntity
  8
SLD-0
  6
Continuous
 62
   179
370
    15
100
AcDbCircle
 10
79.1719901026
 20
195.2740161058
 30
0.0
 40
3.999999999999793
100
AcDbArc
 50
141.3178125465
 51
145.1820600423
  0
ARC
  5
589
330
1F
100
AcDbEntity
  8
SLD-0
  6
Continuous
 62
   179
370
    15
100
AcDbCircle
 10
79.1719901026
 20
195.2740161058
 30
0.0
 40
4.000000000000159
100
AcDbArc
 50
208.9550243719
 51
226.5674279294
  0
ARC
  5
58A
330
1F
100
AcDbEntity
  8
SLD-0
  6
Continuous
 62
   179
370
    15
100
AcDbCircle
 10
79.1719901026
 20
195.2740161058
 30
0.0
 40
3.999999999998201
100
AcDbArc
 50
145.1820600423
 51
151.0449756282
  0
ARC
  5
58B
330
1F
100
AcDbEntity
  8
SLD-0
  6
Continuous
 62
   179
370
    15
100
AcDbCircle
 10
79.1719901026
 20
195.2740161058
 30
0.0
 40
4.000000000022881
100
AcDbArc
 50
290.3640606959
 51
313.4325720722
  0
ARC
  5
58C
330
1F
100
AcDbEntity
  8
SLD-0
  6
Continuous
 62
   179
370
    15
100
AcDbCircle
 10
79.1719901026
 20
195.2740161058
 30
0.0
 40
3.999999999973159
100
AcDbArc
 50
226.5674279291
 51
249.6359393038
  0
ARC
  5
58D
330
1F
100
AcDbEntity
  8
SLD-0
  6
Continuous
 62
   179
370
    15
100
AcDbCircle
 10
90.1719901026
 20
140.2740161058
 30
0.0
 40
2.250000000000014
100
AcDbArc
 50
180.0
 51
0.0
  0
ARC
  5
58E
330
1F
100
AcDbEntity
  8
SLD-0
  6
Continuous
 62
   179
370
    15
100
AcDbCircle
 10
58.1719901769
 20
140.2740161058
 30
0.0
 40
2.250000000000014
100
AcDbArc
 50
180.0
 51
0.0
  0
CIRCLE
  5
58F
330
1F
100
AcDbEntity
  8
SLD-0
  6
HIDDEN
 62
   179
370
     0
100
AcDbCircle
 10
79.1719901026
 20
195.2740161058
 30
0.0
 40
2.0
  0
CIRCLE
  5
590
330
1F
100
AcDbEntity
  8
SLD-0
  6
HIDDEN
 62
   179
370
     0
100
AcDbCircle
 10
79.1719901026
 20
195.2740161058
 30
0.0
 40
2.200000000000017
  0
CIRCLE
  5
591
330
1F
100
AcDbEntity
  8
SLD-0
  6
HIDDEN
 62
   179
370
     0
100
AcDbCircle
 10
79.1719901026
 20
195.2740161058
 30
0.0
 40
1.609999999999999
  0
CIRCLE
  5
592
330
1F
100
AcDbEntity
  8
SLD-0
  6
HIDDEN
 62
   179
370
     0
100
AcDbCircle
 10
79.1719901026
 20
195.2740161058
 30
0.0
 40
1.650000000000048
  0
CIRCLE
  5
593
330
1F
100
AcDbEntity
  8
SLD-0
  6
HIDDEN
 62
   179
370
     0
100
AcDbCircle
 10
79.1719901026
 20
195.2740161058
 30
0.0
 40
2.500000000000767
  0
CIRCLE
  5
594
330
1F
100
AcDbEntity
  8
SLD-0
  6
HIDDEN
 62
   179
370
     0
100
AcDbCircle
 10
99.4219901026
 20
200.6740161058
 30
0.0
 40
1.300000000001319
  0
CIRCLE
  5
595
330
1F
100
AcDbEntity
  8
SLD-0
  6
HIDDEN
 62
   179
370
     0
100
AcDbCircle
 10
99.4219901026
 20
200.6740161058
 30
0.0
 40
2.000000000001506
  0
ARC
  5
596
330
1F
100
AcDbEntity
  8
SLD-0
  6
HIDDEN
 62
   179
370
     0
100
AcDbCircle
 10
97.1719901026
 20
198.2740161058
 30
0.0
 40
0.9999999999999716
100
AcDbArc
 50
90.0
 51
270.0
  0
ARC
  5
597
330
1F
100
AcDbEntity
  8
SLD-0
  6
HIDDEN
 62
   179
370
     0
100
AcDbCircle
 10
97.1719901026
 20
201.4490161058
 30
0.0
 40
1.000000000000085
100
AcDbArc
 50
90.0
 51
270.0
  0
ARC
  5
598
330
1F
100
AcDbEntity
  8
SLD-0
  6
HIDDEN
 62
   179
370
     0
100
AcDbCircle
 10
97.1719901026
 20
195.0990161058
 30
0.0
 40
1.000000000000085
100
AcDbArc
 50
90.0
 51
270.0
  0
ARC
  5
599
330
1F
100
AcDbEntity
  8
SLD-0
  6
HIDDEN
 62
   179
370
     0
100
AcDbCircle
 10
97.1719901026
 20
201.4490161058
 30
0.0
 40
1.000000000000085
100
AcDbArc
 50
270.0
 51
90.0
  0
ARC
  5
59A
330
1F
100
AcDbEntity
  8
SLD-0
  6
HIDDEN
 62
   179
370
     0
100
AcDbCircle
 10
97.1719901026
 20
198.2740161058
 30
0.0
 40
0.9999999999999716
100
AcDbArc
 50
270.0
 51
90.0
  0
ARC
  5
59B
330
1F
100
AcDbEntity
  8
SLD-0
  6
HIDDEN
 62
   179
370
     0
100
AcDbCircle
 10
97.1719901026
 20
195.0990161058
 30
0.0
 40
1.000000000000085
100
AcDbArc
 50
270.0
 51
90.0
  0
ARC
  5
59C
330
1F
100
AcDbEntity
  8
SLD-0
  6
HIDDEN
 62
   179
370
     0
100
AcDbCircle
 10
90.1719901026
 20
185.2740161058
 30
0.0
 40
2.25
100
AcDbArc
 50
0.0
 51
180.0
  0
ARC
  5
59D
330
1F
100
AcDbEntity
  8
SLD-0
  6
HIDDEN
 62
   179
370
     0
100
AcDbCircle
 10
58.1719901769
 20
185.2740161058
 30
0.0
 40
2.250000000000014
100
AcDbArc
 50
0.0
 51
180.0
  0
CIRCLE
  5
59E
330
1F
100
AcDbEntity
  8
SLD-0
  6
HIDDEN
 62
   179
370
     0
100
AcDbCircle
 10
90.1719901026
 20
199.2740161058
 30
0.0
 40
1.649999999999992
  0
CIRCLE
  5
59F
330
1F
100
AcDbEntity
  8
SLD-0
  6
HIDDEN
 62
   179
370
     0
100
AcDbCircle
 10
58.1719901026
 20
199.2740161058
 30
0.0
 40
1.650000000000013
  0
ARC
  5
5A0
330
1F
100
AcDbEntity
  8
SLD-0
  6
HIDDEN
 62
   179
370
     0
100
AcDbCircle
 10
82.1719901026
 20
195.2740161058
 30
0.0
 40
3.0
100
AcDbArc
 50
270.0
 51
90.0
  0
ARC
  5
5A1
330
1F
100
AcDbEntity
  8
SLD-0
  6
HIDDEN
 62
   179
370
     0
100
AcDbCircle
 10
66.1719901026
 20
195.2740161058
 30
0.0
 40
3.0
100
AcDbArc
 50
90.0
 51
270.0
  0
ARC
  5
5A2
330
1F
100
AcDbEntity
  8
SLD-0
  6
Continuous
 62
   179
370
    15
100
AcDbCircle
 10
184.3785481235
 20
176.7061998521
 30
0.0
 40
8.999999999893873
100
AcDbArc
 50
180.0
 51
199.0129395797
  0
ARC
  5
5A3
330
1F
100
AcDbEntity
  8
SLD-0
  6
Continuous
 62
   179
370
    15
100
AcDbCircle
 10
184.3785481235
 20
176.7061998521
 30
0.0
 40
10.99999999988529
100
AcDbArc
 50
180.0
 51
199.0129395797
  0
ARC
  5
5A4
330
1F
100
AcDbEntity
  8
SLD-0
  6
Continuous
 62
   179
370
    15
100
AcDbCircle
 10
184.3785481235
 20
176.7061998521
 30
0.0
 40
11.49999999988915
100
AcDbArc
 50
180.0
 51
199.0129395797
  0
ARC
  5
5A5
330
1F
100
AcDbEntity
  8
SLD-0
  6
Continuous
 62
   179
370
    15
100
AcDbCircle
 10
184.3785481235
 20
176.7061998521
 30
0.0
 40
13.49999999989987
100
AcDbArc
 50
180.0
 51
199.0129395798
  0
ARC
  5
5A6
330
1F
100
AcDbEntity
  8
SLD-0
  6
Continuous
 62
   179
370
    15
100
AcDbCircle
 10
184.3785481235
 20
176.7061998521
 30
0.0
 40
13.99999999999605
100
AcDbArc
 50
180.0
 51
199.7119869371
  0
ARC
  5
5A7
330
1F
100
AcDbEntity
  8
SLD-0
  6
Continuous
 62
   179
370
    15
100
AcDbCircle
 10
184.3785481235
 20
176.7061998521
 30
0.0
 40
15.9999999999995
100
AcDbArc
 50
180.0
 51
199.7119869371
  0
ARC
  5
5A8
330
1F
100
AcDbEntity
  8
SLD-0
  6
Continuous
 62
   179
370
    15
100
AcDbCircle
 10
168.3785481236
 20
195.4490161058
 30
0.0
 40
5.0
100
AcDbArc
 50
0.0
 51
90.0
  0
ARC
  5
5A9
330
1F
100
AcDbEntity
  8
SLD-0
  6
Continuous
 62
   179
370
    15
100
AcDbCircle
 10
168.3785481236
 20
195.4490161058
 30
0.0
 40
7.0
100
AcDbArc
 50
0.0
 51
90.0
  0
ARC
  5
5AA
330
1F
100
AcDbEntity
  8
SLD-0
  6
Continuous
 62
   179
370
    15
100
AcDbCircle
 10
166.3785481236
 20
192.7740161058
 30
0.0
 40
4.500000000014268
100
AcDbArc
 50
0.0
 51
90.0
  0
ARC
  5
5AB
330
1F
100
AcDbEntity
  8
SLD-0
  6
Continuous
 62
   179
370
    15
100
AcDbCircle
 10
166.3785481236
 20
192.7740161058
 30
0.0
 40
6.500000000014921
100
AcDbArc
 50
0.0
 51
90.0
  0
ARC
  5
5AC
330
1F
100
AcDbEntity
  8
SLD-0
  6
Continuous
 62
   179
370
    15
100
AcDbCircle
 10
164.3785481236
 20
190.0990161058
 30
0.0
 40
4.000000000003581
100
AcDbArc
 50
0.0
 51
90.0
  0
ARC
  5
5AD
330
1F
100
AcDbEntity
  8
SLD-0
  6
Continuous
 62
   179
370
    15
100
AcDbCircle
 10
164.3785481236
 20
190.0990161058
 30
0.0
 40
6.000000000001222
100
AcDbArc
 50
0.0
 51
90.0
  0
CIRCLE
  5
5AE
330
1F
100
AcDbEntity
  8
SLD-0
  6
Continuous
 62
   179
370
    15
100
AcDbCircle
 10
149.1785481236
 20
185.3740161058
 30
0.0
 40
1.549999999999812
  0
CIRCLE
  5
5AF
330
1F
100
AcDbEntity
  8
SLD-0
  6
Continuous
 62
   179
370
    15
100
AcDbCircle
 10
155.6785481236
 20
195.8740161058
 30
0.0
 40
1.650000000003047
  0
CIRCLE
  5
5B0
330
1F
100
AcDbEntity
  8
SLD-0
  6
Continuous
 62
   179
370
    15
100
AcDbCircle
 10
155.6785481236
 20
195.8740161058
 30
0.0
 40
1.899999999998443
  0
CIRCLE
  5
5B1
330
1F
100
AcDbEntity
  8
SLD-0
  6
Continuous
 62
   179
370
    15
100
AcDbCircle
 10
155.6785481236
 20
200.6740161058
 30
0.0
 40
1.650000000003075
  0
CIRCLE
  5
5B2
330
1F
100
AcDbEntity
  8
SLD-0
  6
Continuous
 62
   179
370
    15
100
AcDbCircle
 10
155.6785481236
 20
200.6740161058
 30
0.0
 40
1.899999999998471
  0
ARC
  5
5B3
330
1F
100
AcDbEntity
  8
SLD-0
  6
Continuous
 62
   179
370
    15
100
AcDbCircle
 10
148.5785481236
 20
207.7740161058
 30
0.0
 40
2.500000000005002
100
AcDbArc
 50
89.9999999998
 51
180.0
  0
ARC
  5
5B4
330
1F
100
AcDbEntity
  8
SLD-0
  6
Continuous
 62
   179
370
    15
100
AcDbCircle
 10
155.1785481236
 20
207.7740161058
 30
0.0
 40
2.500000000000028
100
AcDbArc
 50
0.0
 51
90.0
  0
CIRCLE
  5
5B5
330
1F
100
AcDbEntity
  8
SLD-0
  6
Continuous
 62
   179
370
    15
100
AcDbCircle
 10
149.1785481236
 20
185.3740161058
 30
0.0
 40
1.000000000001819
  0
CIRCLE
  5
5B6
330
1F
100
AcDbEntity
  8
SLD-0
  6
Continuous
 62
   179
370
    15
100
AcDbCircle
 10
149.1785481236
 20
185.3740161058
 30
0.0
 40
1.499999999999716
  0
ARC
  5
5B7
330
1F
100
AcDbEntity
  8
SLD-0
  6
Continuous
 62
   179
370
    15
100
AcDbCircle
 10
149.1785481236
 20
185.3740161058
 30
0.0
 40
3.10000000000126
100
AcDbArc
 50
180.0
 51
216.249320883
  0
SPLINE
  5
5B8
330
1F
100
AcDbEntity
  8
SLD-0
  6
Continuous
 62
   179
370
    15
100
AcDbSpline
210
0.0
220
0.0
230
1.0
 70
    28
 71
     3
 72
    10
 73
     6
 74
     0
 42
0.00000001
 43
0.00000001
 40
0.0
 40
0.0
 40
0.0
 40
0.0
 40
0.2673636370058868
 40
0.5535219272356873
 40
0.9999999999999999
 40
0.9999999999999999
 40
0.9999999999999999
 40
0.9999999999999999
 10
97.17198995333331
 20
171.3095244007215
 30
0.0
 41
1.0
 10
97.17198995333331
 20
171.025337049525
 30
0.0
 41
1.0
 10
97.17198995333331
 20
170.4369850503827
 30
0.0
 41
1.0
 10
97.17198995333332
 20
169.424451730992
 30
0.0
 41
1.0
 10
97.17198995333332
 20
168.7803069974532
 30
0.0
 41
1.0
 10
97.17198995333332
 20
168.387756867896
 30
0.0
 41
1.0
  0
SPLINE
  5
5B9
330
1F
100
AcDbEntity
  8
SLD-0
  6
HIDDEN
 62
   179
370
     0
100
AcDbSpline
210
0.0
220
0.0
230
1.0
 70
    28
 71
     3
 72
    11
 73
     7
 74
     0
 42
0.00000001
 43
0.00000001
 40
0.0
 40
0.0
 40
0.0
 40
0.0
 40
0.2819599796001855
 40
0.5521324362227932
 40
0.7632240521070813
 40
1.0
 40
1.0
 40
1.0
 40
1.0
 10
97.17198995333334
 20
169.7196543203697
 30
0.0
 41
1.0
 10
97.17198995333334
 20
169.9084724934451
 30
0.0
 41
1.0
 10
97.17198995333334
 20
170.2782151712929
 30
0.0
 41
1.0
 10
97.17198995333334
 20
170.8483099094928
 30
0.0
 41
1.0
 10
97.17198995333331
 20
171.4201660373782
 30
0.0
 41
1.0
 10
97.17198995333332
 20
171.7890748902224
 30
0.0
 41
1.0
 10
97.17198995333332
 20
171.9841074185476
 30
0.0
 41
1.0
  0
SPLINE
  5
5BA
330
1F
100
AcDbEntity
  8
SLD-0
  6
HIDDEN
 62
   179
370
     0
100
AcDbSpline
210
0.0
220
0.0
230
1.0
 70
    28
 71
     3
 72
    10
 73
     6
 74
     0
 42
0.00000001
 43
0.00000001
 40
0.0
 40
0.0
 40
0.0
 40
0.0
 40
0.2788893274592623
 40
0.5584029092157409
 40
1.0
 40
1.0
 40
1.0
 40
1.0
 10
97.17198995333332
 20
172.308148069869
 30
0.0
 41
1.0
 10
97.17198995333332
 20
172.0550112118422
 30
0.0
 41
1.0
 10
97.17198995333334
 20
171.5481708847505
 30
0.0
 41
1.0
 10
97.17198995333334
 20
170.6992885825883
 30
0.0
 41
1.0
 10
97.17198995333335
 20
170.1824225685315
 30
0.0
 41
1.0
 10
97.17198995333334
 20
169.8659017669067
 30
0.0
 41
1.0
  0
SPLINE
  5
5BB
330
1F
100
AcDbEntity
  8
SLD-0
  6
HIDDEN
 62
   179
370
     0
100
AcDbSpline
210
0.0
220
0.0
230
1.0
 70
    28
 71
     3
 72
     9
 73
     5
 74
     0
 42
0.00000001
 43
0.00000001
 40
0.0
 40
0.0
 40
0.0
 40
0.0
 40
0.9393716823974742
 40
1.0
 40
1.0
 40
1.0
 40
1.0
 10
97.17198995333335
 20
173.1226008372411
 30
0.0
 41
1.0
 10
97.17198995333338
 20
172.8897477339557
 30
0.0
 41
1.0
 10
97.17198995333341
 20
172.6418659767676
 30
0.0
 41
1.0
 10
97.17198995333334
 20
172.4191457923476
 30
0.0
 41
1.0
 10
97.17198995333335
 20
172.40564264227
 30
0.0
 41
1.0
  0
SPLINE
  5
5BC
330
1F
100
AcDbEntity
  8
SLD-0
  6
HIDDEN
 62
   179
370
     0
100
AcDbSpline
210
0.0
220
0.0
230
1.0
 70
    28
 71
     1
 72
     4
 73
     2
 74
     0
 42
0.00000001
 43
0.00000001
 40
0.0
 40
0.0
 40
1.0
 40
1.0
 10
97.17198995333334
 20
172.4056314663991
 30
0.0
 41
1.0
 10
97.17198995333334
 20
172.9597087936506
 30
0.0
 41
1.0
  0
SPLINE
  5
5BD
330
1F
100
AcDbEntity
  8
SLD-0
  6
HIDDEN
 62
   179
370
     0
100
AcDbSpline
210
0.0
220
0.0
230
1.0
 70
    28
 71
     1
 72
     4
 73
     2
 74
     0
 42
0.00000001
 43
0.00000001
 40
0.0
 40
0.0
 40
1.0
 40
1.0
 10
97.17198995333337
 20
173.2200879590616
 30
0.0
 41
1.0
 10
97.17198995333337
 20
173.774165286313
 30
0.0
 41
1.0
  0
SPLINE
  5
5BE
330
1F
100
AcDbEntity
  8
SLD-0
  6
Continuous
 62
   179
370
    15
100
AcDbSpline
210
0.0
220
0.0
230
1.0
 70
    12
 71
     3
 72
    10
 73
     6
 74
     0
 42
0.00000001
 43
0.00000001
 40
0.0
 40
0.0
 40
0.0
 40
0.0
 40
0.2788893274592623
 40
0.5584029092157409
 40
1.0
 40
1.0
 40
1.0
 40
1.0
 10
171.615039968557
 20
172.308148069869
 30
0.0
 41
1.0
 10
171.7124005142181
 20
172.0550112118422
 30
0.0
 41
1.0
 10
171.9073395333455
 20
171.5481708847505
 30
0.0
 41
1.0
 10
172.3936009146565
 20
170.6992885825883
 30
0.0
 41
1.0
 10
172.8705002349149
 20
170.1824225685315
 30
0.0
 41
1.0
 10
173.1625460476347
 20
169.8659017669067
 30
0.0
 41
1.0
  0
SPLINE
  5
5BF
330
1F
100
AcDbEntity
  8
SLD-0
  6
Continuous
 62
   179
370
    15
100
AcDbSpline
210
0.0
220
0.0
230
1.0
 70
    12
 71
     3
 72
     9
 73
     5
 74
     0
 42
0.00000001
 43
0.00000001
 40
0.0
 40
0.0
 40
0.0
 40
0.0
 40
0.5567353862987471
 40
1.0
 40
1.0
 40
1.0
 40
1.0
 10
174.5525207758614
 20
171.3039457784996
 30
0.0
 41
1.0
 10
174.3036402791687
 20
171.5777237612738
 30
0.0
 41
1.0
 10
173.856604752386
 20
172.0694797902812
 30
0.0
 41
1.0
 10
173.6136316480598
 20
172.686295996345
 30
0.0
 41
1.0
 10
173.5059302688309
 20
172.9597087936506
 30
0.0
 41
1.0
  0
SPLINE
  5
5C0
330
1F
100
AcDbEntity
  8
SLD-0
  6
Continuous
 62
   179
370
    15
100
AcDbSpline
210
0.0
220
0.0
230
1.0
 70
    12
 71
     3
 72
    10
 73
     6
 74
     0
 42
0.00000001
 43
0.00000001
 40
0.0
 40
0.0
 40
0.0
 40
0.0
 40
0.3133932452665403
 40
0.5899449395515466
 40
1.0
 40
1.0
 40
1.0
 40
1.0
 10
173.9786528438993
 20
173.1226008372411
 30
0.0
 41
1.0
 10
174.0738401410594
 20
172.8932801319246
 30
0.0
 41
1.0
 10
174.2530248079827
 20
172.4615969617248
 30
0.0
 41
1.0
 10
174.6897521810237
 20
171.7995746049892
 30
0.0
 41
1.0
 10
175.0135448308918
 20
171.3644803076153
 30
0.0
 41
1.0
 10
175.2069201708504
 20
171.1046334343061
 30
0.0
 41
1.0
  0
SPLINE
  5
5C1
330
1F
100
AcDbEntity
  8
SLD-0
  6
Continuous
 62
   179
370
    15
100
AcDbSpline
210
0.0
220
0.0
230
1.0
 70
    12
 71
     3
 72
    10
 73
     6
 74
     0
 42
0.00000001
 43
0.00000001
 40
0.0
 40
0.0
 40
0.0
 40
0.0
 40
0.3013595122189331
 40
0.6148773465877744
 40
1.0
 40
1.0
 40
1.0
 40
1.0
 10
176.7668147028156
 20
172.3563235240087
 30
0.0
 41
1.0
 10
176.6656114407928
 20
172.4915273857578
 30
0.0
 41
1.0
 10
176.4591218803324
 20
172.7673898967785
 30
0.0
 41
1.0
 10
176.1320044113117
 20
173.2246236005984
 30
0.0
 41
1.0
 10
175.9628105526837
 20
173.5788818852463
 30
0.0
 41
1.0
 10
175.8695431441732
 20
173.774165286313
 30
0.0
 41
1.0
  0
SPLINE
  5
5C2
330
1F
100
AcDbEntity
  8
SLD-0
  6
Continuous
 62
   179
370
    15
100
AcDbSpline
210
0.0
220
0.0
230
1.0
 70
    12
 71
     3
 72
    10
 73
     6
 74
     0
 42
0.00000001
 43
0.00000001
 40
0.0
 40
0.0
 40
0.0
 40
0.0
 40
0.2673636370058868
 40
0.5535219272356873
 40
0.9999999999999999
 40
0.9999999999999999
 40
0.9999999999999999
 40
0.9999999999999999
 10
169.3161484242149
 20
171.3095244007215
 30
0.0
 41
1.0
 10
169.4190361980304
 20
171.025337049525
 30
0.0
 41
1.0
 10
169.6320443673127
 20
170.4369850503827
 30
0.0
 41
1.0
 10
170.1478392253374
 20
169.424451730992
 30
0.0
 41
1.0
 10
170.6723690339988
 20
168.7803069974532
 30
0.0
 41
1.0
 10
170.9920242816874
 20
168.387756867896
 30
0.0
 41
1.0
  0
SPLINE
  5
5C3
330
1F
100
AcDbEntity
  8
SLD-0
  6
Continuous
 62
   179
370
    15
100
AcDbSpline
210
0.0
220
0.0
230
1.0
 70
    12
 71
     3
 72
    11
 73
     7
 74
     0
 42
0.00000001
 43
0.00000001
 40
0.0
 40
0.0
 40
0.0
 40
0.0
 40
0.2819599796001855
 40
0.5521324362227932
 40
0.7632240521070813
 40
1.0
 40
1.0
 40
1.0
 40
1.0
 10
172.4840198100277
 20
169.7196543203697
 30
0.0
 41
1.0
 10
172.3251416142878
 20
169.9084724934451
 30
0.0
 41
1.0
 10
172.0140272306049
 20
170.2782151712929
 30
0.0
 41
1.0
 10
171.6617199447095
 20
170.8483099094928
 30
0.0
 41
1.0
 10
171.4003427284889
 20
171.4201660373782
 30
0.0
 41
1.0
 10
171.2685976139967
 20
171.7890748902224
 30
0.0
 41
1.0
 10
171.1989473939606
 20
171.9841074185476
 30
0.0
 41
1.0
  0
DIMENSION
  5
5C4
330
1F
100
AcDbEntity
  8
SLD-0
100
AcDbDimension
  2
*D5
 10
48.61039295
 20
135.2740161058
 30
0.0
 11
48.61039295
 21
129.2870055676
 31
0.0
 70
   160
 71
     1
 42
5.0
  3
SLDDIMSTYLE0
100
AcDbAlignedDimension
 13
55.9219901769
 23
140.2740161058
 33
0.0
 14
55.1719901282
 24
135.2740161058
 34
0.0
 50
90.0
100
AcDbRotatedDimension
1001
ACAD
1000
DSTYLE
1002
{
1070
    77
1070
     3
1070
   143
1040
0.0393700787
1070
    41
1040
3.0
1070
    44
1040
1.0
1070
    42
1040
1.0
1070
   147
1040
1.524
1070
    73
1070
     0
1070
    74
1070
     0
1070
   140
1040
3.5
1070
   284
1070
    12
1070
    78
1070
    12
1002
}
  0
DIMENSION
  5
5E3
330
1F
100
AcDbEntity
  8
SLD-0
 62
     7
100
AcDbDimension
  2
*D7
 10
58.1719901026
 20
128.1816597351
 30
0.0
 11
74.1719901026
 21
128.1816597351
 31
0.0
 70
   160
 71
     1
 42
32.0
  3
SLDDIMSTYLE1
100
AcDbAlignedDimension
 13
90.1719901026
 23
135.5240161058
 33
0.0
 14
58.1719901026
 24
135.5240161058
 34
0.0
100
AcDbRotatedDimension
1001
ACAD
1000
DSTYLE
1002
{
1070
    77
1070
     3
1070
   143
1040
0.0393700787
1070
    41
1040
3.0
1070
    44
1040
1.0
1070
    42
1040
1.0
1070
   147
1040
1.524
1070
    73
1070
     0
1070
    74
1070
     0
1070
   140
1040
3.5
1070
   284
1070
    12
1070
    78
1070
    12
1002
}
  0
DIMENSION
  5
5FF
330
1F
100
AcDbEntity
  8
SLD-0
 62
     7
100
AcDbDimension
  2
*D9
 10
95.1719901026
 20
121.4217523583
 30
0.0
 11
74.1719901026
 21
121.4217523583
 31
0.0
 70
   160
 71
     1
 42
42.0
  3
SLDDIMSTYLE1
100
AcDbAlignedDimension
 13
53.1719901026
 23
137.2740161058
 33
0.0
 14
95.1719901026
 24
137.2740161058
 34
0.0
100
AcDbRotatedDimension
1001
ACAD
1000
DSTYLE
1002
{
1070
    77
1070
     3
1070
   143
1040
0.0393700787
1070
    41
1040
3.0
1070
    44
1040
1.0
1070
    42
1040
1.0
1070
   147
1040
1.524
1070
    73
1070
     0
1070
    74
1070
     0
1070
   140
1040
3.5
1070
   284
1070
    12
1070
    78
1070
    12
1002
}
  0
DIMENSION
  5
616
330
1F
100
AcDbEntity
  8
SLD-0
 62
     7
100
AcDbDimension
  2
*D10
 10
53.1719901026
 20
219.7635466091
 30
0.0
 11
78.6719901026
 21
219.7635466091
 31
0.0
 70
   160
 71
     1
 42
51.0
  3
SLDDIMSTYLE1
100
AcDbAlignedDimension
 13
104.1719901026
 23
210.2740161058
 33
0.0
 14
53.1719901026
 24
203.2740161058
 34
0.0
100
AcDbRotatedDimension
1001
ACAD
1000
DSTYLE
1002
{
1070
    77
1070
     3
1070
   143
1040
0.0393700787
1070
    41
1040
3.0
1070
    44
1040
1.0
1070
    42
1040
1.0
1070
   147
1040
1.524
1070
    73
1070
     0
1070
    74
1070
     0
1070
   140
1040
3.5
1070
   284
1070
    12
1070
    78
1070
    12
1002
}
  0
DIMENSION
  5
62D
330
1F
100
AcDbEntity
  8
SLD-0
 62
     7
100
AcDbDimension
  2
*D11
 10
79.1719901026
 20
174.8159242986
 30
0.0
 11
76.6719901026
 21
174.8159242986
 31
0.0
 70
   160
 71
     1
 42
5.0
  3
SLDDIMSTYLE1
100
AcDbAlignedDimension
 13
74.1719901026
 23
213.761121356
 33
0.0
 14
79.1719901026
 24
189.2740161058
 34
0.0
100
AcDbRotatedDimension
1001
ACAD
1000
DSTYLE
1002
{
1070
    77
1070
     3
1070
   143
1040
0.0393700787
1070
    41
1040
3.0
1070
    44
1040
1.0
1070
    42
1040
1.0
1070
   147
1040
1.524
1070
    73
1070
     0
1070
    74
1070
     0
1070
   140
1040
3.5
1070
   284
1070
    12
1070
    78
1070
    12
1002
}
  0
DIMENSION
  5
646
330
1F
100
AcDbEntity
  8
SLD-0
 62
     7
100
AcDbDimension
  2
*D12
 10
48.6008455924
 20
185.3740161058
 30
0.0
 11
48.6008455924
 21
162.8240161058
 31
0.0
 70
   160
 71
     1
 42
45.1
  3
SLDDIMSTYLE1
100
AcDbAlignedDimension
 13
53.4219901026
 23
140.2740161058
 33
0.0
 14
52.1719901026
 24
185.3740161058
 34
0.0
 50
90.0
100
AcDbRotatedDimension
1001
ACAD
1000
DSTYLE
1002
{
1070
    77
1070
     3
1070
   143
1040
0.0393700787
1070
    41
1040
3.0
1070
    44
1040
1.0
1070
    42
1040
1.0
1070
   147
1040
1.524
1070
    73
1070
     0
1070
    74
1070
     0
1070
   140
1040
3.5
1070
   284
1070
    12
1070
    78
1070
    12
1002
}
  0
DIMENSION
  5
65E
330
1F
100
AcDbEntity
  8
SLD-0
 62
     7
100
AcDbDimension
  2
*D13
 10
41.6593626844
 20
135.2740161058
 30
0.0
 11
41.6593626844
 21
172.7740161058
 31
0.0
 70
   160
 71
     1
 42
75.0
  3
SLDDIMSTYLE1
100
AcDbAlignedDimension
 13
54.1719901026
 23
210.2740161058
 33
0.0
 14
55.1719901026
 24
135.2740161058
 34
0.0
 50
90.0
100
AcDbRotatedDimension
1001
ACAD
1000
DSTYLE
1002
{
1070
    77
1070
     3
1070
   143
1040
0.0393700787
1070
    41
1040
3.0
1070
    44
1040
1.0
1070
    42
1040
1.0
1070
   147
1040
1.524
1070
    73
1070
     0
1070
    74
1070
     0
1070
   140
1040
3.5
1070
   284
1070
    12
1070
    78
1070
    12
1002
}
  0
DIMENSION
  5
676
330
1F
100
AcDbEntity
  8
SLD-0
 62
     7
100
AcDbDimension
  2
*D14
 10
183.3528518147
 20
135.2740161058
 30
0.0
 11
183.3528518147
 21
170.2740161058
 31
0.0
 70
   160
 71
     1
 42
70.0
  3
SLDDIMSTYLE1
100
AcDbAlignedDimension
 13
162.6785481236
 23
205.2740161058
 33
0.0
 14
162.6785481236
 24
135.2740161058
 34
0.0
 50
90.0
100
AcDbRotatedDimension
1001
ACAD
1000
DSTYLE
1002
{
1070
    77
1070
     3
1070
   143
1040
0.0393700787
1070
    41
1040
3.0
1070
    44
1040
1.0
1070
    42
1040
1.0
1070
   147
1040
1.524
1070
    73
1070
     0
1070
    74
1070
     0
1070
   140
1040
3.5
1070
   284
1070
    12
1070
    78
1070
    12
1002
}
  0
DIMENSION
  5
68E
330
1F
100
AcDbEntity
  8
SLD-0
 62
     7
100
AcDbDimension
  2
*D15
 10
127.5157247376
 20
210.2740161058
 30
0.0
 11
127.5157247376
 21
172.7740161058
 31
0.0
 70
   160
 71
     1
 42
75.0
  3
SLDDIMSTYLE1
100
AcDbAlignedDimension
 13
157.6785481236
 23
135.2740161058
 33
0.0
 14
141.0785481236
 24
210.2740161058
 34
0.0
 50
90.0
100
AcDbRotatedDimension
1001
ACAD
1000
DSTYLE
1002
{
1070
    77
1070
     3
1070
   143
1040
0.0393700787
1070
    41
1040
3.0
1070
    44
1040
1.0
1070
    42
1040
1.0
1070
   147
1040
1.524
1070
    73
1070
     0
1070
    74
1070
     0
1070
   140
1040
3.5
1070
   284
1070
    12
1070
    78
1070
    12
1002
}
  0
DIMENSION
  5
6A6
330
1F
100
AcDbEntity
  8
SLD-0
 62
     7
100
AcDbDimension
  2
*D16
 10
162.6785481236
 20
145.1600335921
 30
0.0
 11
151.8457422641
 21
145.1600335921
 31
0.0
 70
   160
 71
     1
 42
5.0
  3
SLDDIMSTYLE1
100
AcDbAlignedDimension
 13
157.6785481236
 23
135.2740161058
 33
0.0
 14
162.6785481236
 24
135.2740161058
 34
0.0
100
AcDbRotatedDimension
1001
ACAD
1000
DSTYLE
1002
{
1070
    77
1070
     3
1070
   143
1040
0.0393700787
1070
    41
1040
3.0
1070
    44
1040
1.0
1070
    42
1040
1.0
1070
   147
1040
1.524
1070
    73
1070
     0
1070
    74
1070
     0
1070
   140
1040
3.5
1070
   284
1070
    12
1070
    78
1070
    12
1002
}
  0
DIMENSION
  5
6C0
330
1F
100
AcDbEntity
  8
SLD-0
 62
     7
100
AcDbDimension
  2
*D17
 10
157.6785481236
 20
168.7138921882
 30
0.0
 11
149.3785481236
 21
168.7138921882
 31
0.0
 70
   160
 71
     1
 42
16.6
  3
SLDDIMSTYLE2
100
AcDbAlignedDimension
 13
141.0785481236
 23
186.2740161058
 33
0.0
 14
157.6785481236
 24
135.2740161058
 34
0.0
100
AcDbRotatedDimension
1001
ACAD
1000
DSTYLE
1002
{
1070
    77
1070
     3
1070
   143
1040
0.0393700787
1070
    41
1040
3.0
1070
    44
1040
1.0
1070
    42
1040
1.0
1070
   147
1040
1.524
1070
    73
1070
     0
1070
    74
1070
     0
1070
   140
1040
3.5
1070
   284
1070
    12
1070
    78
1070
    12
1002
}
  0
DIMENSION
  5
6D9
330
1F
100
AcDbEntity
  8
SLD-0
 62
     7
100
AcDbDimension
  2
*D18
 10
141.0785481236
 20
219.9164937429
 30
0.0
 11
153.8785481236
 21
219.9164937429
 31
0.0
 70
   160
 71
     1
 42
25.6
  3
SLDDIMSTYLE2
100
AcDbAlignedDimension
 13
166.6785481236
 23
201.2740161058
 33
0.0
 14
141.0785481236
 24
186.2740161058
 34
0.0
100
AcDbRotatedDimension
1001
ACAD
1000
DSTYLE
1002
{
1070
    77
1070
     3
1070
   143
1040
0.0393700787
1070
    41
1040
3.0
1070
    44
1040
1.0
1070
    42
1040
1.0
1070
   147
1040
1.524
1070
    73
1070
     0
1070
    74
1070
     0
1070
   140
1040
3.5
1070
   284
1070
    12
1070
    78
1070
    12
1002
}
  0
DIMENSION
  5
6F0
330
1F
100
AcDbEntity
  8
SLD-0
 62
     7
100
AcDbDimension
  2
*D19
 10
134.9560894339
 20
186.2740161058
 30
0.0
 11
134.9560894339
 21
198.2740161058
 31
0.0
 70
   160
 71
     1
 42
24.0
  3
SLDDIMSTYLE1
100
AcDbAlignedDimension
 13
141.0785481236
 23
210.2740161058
 33
0.0
 14
141.0785481236
 24
186.2740161058
 34
0.0
 50
90.0
100
AcDbRotatedDimension
1001
ACAD
1000
DSTYLE
1002
{
1070
    77
1070
     3
1070
   143
1040
0.0393700787
1070
    41
1040
3.0
1070
    44
1040
1.0
1070
    42
1040
1.0
1070
   147
1040
1.524
1070
    73
1070
     0
1070
    74
1070
     0
1070
   140
1040
3.5
1070
   284
1070
    12
1070
    78
1070
    12
1002
}
  0
MTEXT
  5
708
330
1F
100
AcDbEntity
  8
SLD-0
 62
     7
100
AcDbMText
 10
148.7859359586
 20
31.5526200183
 30
0.0
 40
4.2333333333
 41
0.0
 71
     1
 72
     1
  1
NCON-CP06
  7
SLDTEXTSTYLE0
 73
     1
 44
1.0
  0
MTEXT
  5
709
330
1F
100
AcDbEntity
  8
SLD-0
 62
     7
100
AcDbMText
 10
153.0964826183
 20
18.9448151296
 30
0.0
 40
4.2333333333
 41
0.0
 71
     1
 72
     1
  1
131281
  7
SLDTEXTSTYLE0
 73
     1
 44
1.0
  0
MTEXT
  5
70A
330
1F
100
AcDbEntity
  8
SLD-0
 62
     7
100
AcDbMText
 10
139.029890853
 20
45.8620402204
 30
0.0
 40
4.2333333333
 41
0.0
 71
     1
 72
     1
  1
当板(KRC5000付け)
  7
SLDTEXTSTYLE0
 73
     1
 44
1.0
  0
MTEXT
  5
70B
330
1F
100
AcDbEntity
  8
SLD-0
 62
     7
100
AcDbMText
 10
114.8978686163
 20
220.1731245633
 30
0.0
 40
3.5
 41
0.0
 71
     1
 72
     1
  1
(100567)
  7
SLDTEXTSTYLE0
 73
     1
 44
1.0
  0
MTEXT
  5
70C
330
1F
100
AcDbEntity
  8
SLD-0
 62
     7
100
AcDbMText
 10
115.9926850552
 20
225.6472067578
 30
0.0
 40
3.5
 41
0.0
 71
     1
 72
     1
  1
KRC5000
  7
SLDTEXTSTYLE0
 73
     1
 44
1.0
  0
INSERT
  5
70D
330
1F
100
AcDbEntity
  8
0
  6
Continuous
 62
     7
370
     0
100
AcDbBlockReference
  2
SW_CENTERMARKSYMBOL_0
 10
58.1719901026
 20
140.2740161058
 30
0.0
  0
INSERT
  5
70E
330
1F
100
AcDbEntity
  8
0
  6
Continuous
 62
     7
370
     0
100
AcDbBlockReference
  2
SW_CENTERMARKSYMBOL_1
 10
90.1719901026
 20
140.2740161058
 30
0.0
  0
INSERT
  5
70F
330
1F
100
AcDbEntity
  8
0
  6
Continuous
 62
     7
370
     0
100
AcDbBlockReference
  2
SW_CENTERMARKSYMBOL_2
 10
79.1719901026
 20
195.2740161058
 30
0.0
  0
ENDSEC
  0
SECTION
  2
OBJECTS
  0
DICTIONARY
  5
C
330
0
100
AcDbDictionary
281
     1
  3
ACAD_GROUP
350
D
  3
ACAD_LAYOUT
350
1A
  3
ACAD_MLINESTYLE
350
17
  3
ACAD_PLOTSETTINGS
350
19
  3
ACAD_PLOTSTYLENAME
350
E
  0
DICTIONARY
  5
D
102
{ACAD_REACTORS
330
C
102
}
330
C
100
AcDbDictionary
281
     1
  0
DICTIONARY
  5
1A
102
{ACAD_REACTORS
330
C
102
}
330
C
100
AcDbDictionary
281
     1
  3
Layout1
350
1E
  3
Layout2
350
26
  3
Model
350
22
  0
DICTIONARY
  5
17
102
{ACAD_REACTORS
330
C
102
}
330
C
100
AcDbDictionary
281
     1
  3
Standard
350
18
  0
DICTIONARY
  5
19
102
{ACAD_REACTORS
330
C
102
}
330
C
100
AcDbDictionary
281
     1
  0
ACDBDICTIONARYWDFLT
  5
E
102
{ACAD_REACTORS
330
C
102
}
330
C
100
AcDbDictionary
281
     1
  3
Normal
350
F
100
AcDbDictionaryWithDefault
340
F
  0
LAYOUT
  5
1E
102
{ACAD_REACTORS
330
1A
102
}
330
1A
100
AcDbPlotSettings
  1

  2

  4

  6

 40
0.0
 41
0.0
 42
0.0
 43
0.0
 44
0.0
 45
0.0
 46
0.0
 47
0.0
 48
0.0
 49
0.0
140
0.0
141
0.0
142
1.0
143
1.0
 70
   688
 72
     0
 73
     0
 74
     5
  7

 75
    16
147
1.0
148
0.0
149
0.0
100
AcDbLayout
  1
Layout1
 70
     1
 71
     1
 10
0.0
 20
0.0
 11
0.0
 21
0.0
 12
0.0
 22
0.0
 32
0.0
 14
0.0
 24
0.0
 34
0.0
 15
0.0
 25
0.0
 35
0.0
146
0.0
 13
0.0
 23
0.0
 33
0.0
 16
1.0
 26
0.0
 36
0.0
 17
0.0
 27
1.0
 37
0.0
 76
     0
330
1B
  0
LAYOUT
  5
26
102
{ACAD_REACTORS
330
1A
102
}
330
1A
100
AcDbPlotSettings
  1

  2

  4

  6

 40
0.0
 41
0.0
 42
0.0
 43
0.0
 44
0.0
 45
0.0
 46
0.0
 47
0.0
 48
0.0
 49
0.0
140
0.0
141
0.0
142
1.0
143
1.0
 70
   688
 72
     0
 73
     0
 74
     5
  7

 75
    16
147
1.0
148
0.0
149
0.0
100
AcDbLayout
  1
Layout2
 70
     1
 71
     2
 10
0.0
 20
0.0
 11
0.0
 21
0.0
 12
0.0
 22
0.0
 32
0.0
 14
0.0
 24
0.0
 34
0.0
 15
0.0
 25
0.0
 35
0.0
146
0.0
 13
0.0
 23
0.0
 33
0.0
 16
1.0
 26
0.0
 36
0.0
 17
0.0
 27
1.0
 37
0.0
 76
     0
330
23
  0
LAYOUT
  5
22
102
{ACAD_REACTORS
330
1A
102
}
330
1A
100
AcDbPlotSettings
  1

  2

  4

  6

 40
0.0
 41
0.0
 42
0.0
 43
0.0
 44
0.0
 45
0.0
 46
0.0
 47
0.0
 48
0.0
 49
0.0
140
0.0
141
0.0
142
1.0
143
1.0
 70
  1712
 72
     0
 73
     0
 74
     0
  7

 75
     0
147
1.0
148
0.0
149
0.0
100
AcDbLayout
  1
Model
 70
     1
 71
     0
 10
0.0
 20
0.0
 11
0.0
 21
0.0
 12
0.0
 22
0.0
 32
0.0
 14
0.0
 24
0.0
 34
0.0
 15
210.0
 25
297.0
 35
0.0
146
0.0
 13
0.0
 23
0.0
 33
0.0
 16
1.0
 26
0.0
 36
0.0
 17
0.0
 27
1.0
 37
0.0
 76
     0
330
1F
  0
MLINESTYLE
  5
18
102
{ACAD_REACTORS
330
17
102
}
330
17
100
AcDbMlineStyle
  2
Standard
 70
     0
  3

 62
   256
 51
90.0
 52
90.0
 71
     2
 49
0.5
 62
   256
  6
BYLAYER
 49
-0.5
 62
   256
  6
BYLAYER
  0
ACDBPLACEHOLDER
  5
F
102
{ACAD_REACTORS
330
E
102
}
330
E
  0
ENDSEC
  0
EOF
