  0
SECTION
  2
HEADER
  9
$ACADVER
  1
AC1015
  9
$ACADMAINTVER
 70
     6
  9
$DWGCODEPAGE
  3
DOS932
  9
$INSBASE
 10
0.0
 20
0.0
 30
0.0
  9
$EXTMIN
 10
0.0
 20
0.0
 30
0.0
  9
$EXTMAX
 10
420.0
 20
297.0
 30
0.0
  9
$LIMMIN
 10
0.0
 20
0.0
  9
$LIMMAX
 10
420.0
 20
297.0
  9
$ORTHOMODE
 70
     0
  9
$REGENMODE
 70
     1
  9
$FILLMODE
 70
     1
  9
$QTEXTMODE
 70
     0
  9
$MIRRTEXT
 70
     1
  9
$LTSCALE
 40
1.0
  9
$ATTMODE
 70
     1
  9
$TEXTSIZE
 40
6.35
  9
$TRACEWID
 40
1.0
  9
$TEXTSTYLE
  7
Standard
  9
$CLAYER
  8
0
  9
$CELTYPE
  6
ByLayer
  9
$CECOLOR
 62
   256
  9
$CELTSCALE
 40
1.0
  9
$DISPSILH
 70
     0
  9
$DIMSCALE
 40
1.0
  9
$DIMASZ
 40
5.9944
  9
$DIMEXO
 40
0.9906
  9
$DIMDLI
 40
3.75
  9
$DIMRND
 40
0.0
  9
$DIMDLE
 40
0.0
  9
$DIMEXE
 40
0.9906
  9
$DIMTP
 40
0.0
  9
$DIMTM
 40
0.0
  9
$DIMTXT
 40
6.35
  9
$DIMCEN
 40
2.5
  9
$DIMTSZ
 40
0.0
  9
$DIMTOL
 70
     0
  9
$DIMLIM
 70
     0
  9
$DIMTIH
 70
     1
  9
$DIMTOH
 70
     1
  9
$DIMSE1
 70
     0
  9
$DIMSE2
 70
     0
  9
$DIMTAD
 70
     1
  9
$DIMZIN
 70
     1
  9
$DIMBLK
  1

  9
$DIMASO
 70
     1
  9
$DIMSHO
 70
     1
  9
$DIMPOST
  1

  9
$DIMAPOST
  1

  9
$DIMALT
 70
     0
  9
$DIMALTD
 70
     3
  9
$DIMALTF
 40
0.0393700787
  9
$DIMLFAC
 40
1.0
  9
$DIMTOFL
 70
     1
  9
$DIMTVP
 40
0.0
  9
$DIMTIX
 70
     0
  9
$DIMSOXD
 70
     0
  9
$DIMSAH
 70
     0
  9
$DIMBLK1
  1

  9
$DIMBLK2
  1

  9
$DIMSTYLE
  2
ISO-25
  9
$DIMCLRD
 70
     0
  9
$DIMCLRE
 70
     0
  9
$DIMCLRT
 70
     0
  9
$DIMTFAC
 40
1.0
  9
$DIMGAP
 40
1.524
  9
$DIMJUST
 70
     0
  9
$DIMSD1
 70
     0
  9
$DIMSD2
 70
     0
  9
$DIMTOLJ
 70
     0
  9
$DIMTZIN
 70
     1
  9
$DIMALTZ
 70
     0
  9
$DIMALTTZ
 70
     0
  9
$DIMUPT
 70
     0
  9
$DIMDEC
 70
     4
  9
$DIMTDEC
 70
     4
  9
$DIMALTU
 70
     2
  9
$DIMALTTD
 70
     3
  9
$DIMTXSTY
  7
Standard
  9
$DIMAUNIT
 70
     0
  9
$DIMADEC
 70
     0
  9
$DIMALTRND
 40
0.0
  9
$DIMAZIN
 70
     0
  9
$DIMDSEP
 70
    44
  9
$DIMATFIT
 70
     3
  9
$DIMFRAC
 70
     0
  9
$DIMLDRBLK
  1

  9
$DIMLUNIT
 70
     2
  9
$DIMLWD
 70
    -2
  9
$DIMLWE
 70
    -2
  9
$DIMTMOVE
 70
     0
  9
$LUNITS
 70
     2
  9
$LUPREC
 70
     4
  9
$SKETCHINC
 40
1.0
  9
$FILLETRAD
 40
10.0
  9
$AUNITS
 70
     0
  9
$AUPREC
 70
     0
  9
$MENU
  1
.
  9
$ELEVATION
 40
0.0
  9
$PELEVATION
 40
0.0
  9
$THICKNESS
 40
0.0
  9
$LIMCHECK
 70
     0
  9
$CHAMFERA
 40
10.0
  9
$CHAMFERB
 40
10.0
  9
$CHAMFERC
 40
20.0
  9
$CHAMFERD
 40
0.0
  9
$SKPOLY
 70
     0
  9
$TDCREATE
 40
2456303.433316609
  9
$TDUCREATE
 40
2456303.058316609
  9
$TDUPDATE
 40
2456303.433316621
  9
$TDUUPDATE
 40
2456303.058316621
  9
$TDINDWG
 40
0.0000000116
  9
$TDUSRTIMER
 40
0.0000000116
  9
$USRTIMER
 70
     1
  9
$ANGBASE
 50
0.0
  9
$ANGDIR
 70
     0
  9
$PDMODE
 70
     0
  9
$PDSIZE
 40
-1.0
  9
$PLINEWID
 40
0.0
  9
$SPLFRAME
 70
     0
  9
$SPLINETYPE
 70
     6
  9
$SPLINESEGS
 70
     8
  9
$HANDSEED
  5
1E1
  9
$SURFTAB1
 70
     6
  9
$SURFTAB2
 70
     6
  9
$SURFTYPE
 70
     6
  9
$SURFU
 70
     6
  9
$SURFV
 70
     6
  9
$UCSBASE
  2

  9
$UCSNAME
  2

  9
$UCSORG
 10
0.0
 20
0.0
 30
0.0
  9
$UCSXDIR
 10
1.0
 20
0.0
 30
0.0
  9
$UCSYDIR
 10
0.0
 20
1.0
 30
0.0
  9
$UCSORTHOREF
  2

  9
$UCSORTHOVIEW
 70
     0
  9
$UCSORGTOP
 10
0.0
 20
0.0
 30
0.0
  9
$UCSORGBOTTOM
 10
0.0
 20
0.0
 30
0.0
  9
$UCSORGLEFT
 10
0.0
 20
0.0
 30
0.0
  9
$UCSORGRIGHT
 10
0.0
 20
0.0
 30
0.0
  9
$UCSORGFRONT
 10
0.0
 20
0.0
 30
0.0
  9
$UCSORGBACK
 10
0.0
 20
0.0
 30
0.0
  9
$PUCSBASE
  2

  9
$PUCSNAME
  2

  9
$PUCSORG
 10
0.0
 20
0.0
 30
0.0
  9
$PUCSXDIR
 10
1.0
 20
0.0
 30
0.0
  9
$PUCSYDIR
 10
0.0
 20
1.0
 30
0.0
  9
$PUCSORTHOREF
  2

  9
$PUCSORTHOVIEW
 70
     0
  9
$PUCSORGTOP
 10
0.0
 20
0.0
 30
0.0
  9
$PUCSORGBOTTOM
 10
0.0
 20
0.0
 30
0.0
  9
$PUCSORGLEFT
 10
0.0
 20
0.0
 30
0.0
  9
$PUCSORGRIGHT
 10
0.0
 20
0.0
 30
0.0
  9
$PUCSORGFRONT
 10
0.0
 20
0.0
 30
0.0
  9
$PUCSORGBACK
 10
0.0
 20
0.0
 30
0.0
  9
$USERI1
 70
     0
  9
$USERI2
 70
     0
  9
$USERI3
 70
     0
  9
$USERI4
 70
     0
  9
$USERI5
 70
     0
  9
$USERR1
 40
0.0
  9
$USERR2
 40
0.0
  9
$USERR3
 40
0.0
  9
$USERR4
 40
0.0
  9
$USERR5
 40
0.0
  9
$WORLDVIEW
 70
     1
  9
$SHADEDGE
 70
     3
  9
$SHADEDIF
 70
    70
  9
$TILEMODE
 70
     1
  9
$MAXACTVP
 70
    64
  9
$PINSBASE
 10
0.0
 20
0.0
 30
0.0
  9
$PLIMCHECK
 70
     0
  9
$PEXTMIN
 10
1.0000000000E+20
 20
1.0000000000E+20
 30
1.0000000000E+20
  9
$PEXTMAX
 10
-1.0000000000E+20
 20
-1.0000000000E+20
 30
-1.0000000000E+20
  9
$PLIMMIN
 10
0.0
 20
0.0
  9
$PLIMMAX
 10
420.0
 20
297.0
  9
$UNITMODE
 70
     0
  9
$VISRETAIN
 70
     1
  9
$PLINEGEN
 70
     0
  9
$PSLTSCALE
 70
     1
  9
$TREEDEPTH
 70
  3020
  9
$CMLSTYLE
  2
Standard
  9
$CMLJUST
 70
     0
  9
$CMLSCALE
 40
20.0
  9
$PROXYGRAPHICS
 70
     1
  9
$MEASUREMENT
 70
     1
  9
$CELWEIGHT
370
    -1
  9
$ENDCAPS
280
     0
  9
$JOINSTYLE
280
     0
  9
$LWDISPLAY
290
     1
  9
$INSUNITS
 70
     4
  9
$HYPERLINKBASE
  1

  9
$STYLESHEET
  1

  9
$XEDIT
290
     1
  9
$CEPSNTYPE
380
     0
  9
$PSTYLEMODE
290
     1
  9
$FINGERPRINTGUID
  2
{DB12187A-DEB5-49C1-9DA7-485A0944D8AF}
  9
$VERSIONGUID
  2
{FAEB1C32-E019-11D5-929B-00C0DF256EC4}
  9
$EXTNAMES
290
     1
  9
$PSVPSCALE
 40
0.0
  9
$OLESTARTUP
290
     0
  0
ENDSEC
  0
SECTION
  2
CLASSES
  0
CLASS
  1
ACDBDICTIONARYWDFLT
  2
AcDbDictionaryWithDefault
  3
ObjectDBX Classes
 90
        0
280
     0
281
     0
  0
CLASS
  1
VISUALSTYLE
  2
AcDbVisualStyle
  3
ObjectDBX Classes
 90
     4095
280
     0
281
     0
  0
CLASS
  1
MATERIAL
  2
AcDbMaterial
  3
ObjectDBX Classes
 90
     1153
280
     0
281
     0
  0
CLASS
  1
SCALE
  2
AcDbScale
  3
ObjectDBX Classes
 90
     1153
280
     0
281
     0
  0
CLASS
  1
DICTIONARYVAR
  2
AcDbDictionaryVar
  3
ObjectDBX Classes
 90
        0
280
     0
281
     0
  0
CLASS
  1
ACDBPLACEHOLDER
  2
AcDbPlaceHolder
  3
ObjectDBX Classes
 90
        0
280
     0
281
     0
  0
CLASS
  1
LAYOUT
  2
AcDbLayout
  3
ObjectDBX Classes
 90
        0
280
     0
281
     0
  0
ENDSEC
  0
SECTION
  2
TABLES
  0
TABLE
  2
VPORT
  5
8
330
0
100
AcDbSymbolTable
 70
     1
  0
VPORT
  5
29
330
8
100
AcDbSymbolTableRecord
100
AcDbViewportTableRecord
  2
*Active
 70
     0
 10
0.0
 20
0.0
 11
1.0
 21
1.0
 12
210.0
 22
148.5
 13
0.0
 23
0.0
 14
10.0
 24
10.0
 15
10.0
 25
10.0
 16
0.0
 26
0.0
 36
1.0
 17
0.0
 27
0.0
 37
0.0
 40
297.0
 41
1.4141414141
 42
50.0
 43
0.0
 44
0.0
 50
0.0
 51
0.0
 71
     0
 72
  2000
 73
     1
 74
     3
 75
     0
 76
     0
 77
     0
 78
     0
281
     0
 65
     1
110
0.0
120
0.0
130
0.0
111
1.0
121
0.0
131
0.0
112
0.0
122
1.0
132
0.0
 79
     0
146
0.0
  0
ENDTAB
  0
TABLE
  2
LTYPE
  5
5
330
0
100
AcDbSymbolTable
 70
     6
  0
LTYPE
  5
14
330
5
100
AcDbSymbolTableRecord
100
AcDbLinetypeTableRecord
  2
ByBlock
 70
     0
  3

 72
    65
 73
     0
 40
0.0
  0
LTYPE
  5
15
330
5
100
AcDbSymbolTableRecord
100
AcDbLinetypeTableRecord
  2
ByLayer
 70
     0
  3

 72
    65
 73
     0
 40
0.0
  0
LTYPE
  5
16
330
5
100
AcDbSymbolTableRecord
100
AcDbLinetypeTableRecord
  2
Continuous
 70
     0
  3
Solid line
 72
    65
 73
     0
 40
0.0
  0
LTYPE
  5
3F
330
5
100
AcDbSymbolTableRecord
100
AcDbLinetypeTableRecord
  2
HIDDEN
 70
     0
  3
Hidden __ __ __ __ __ __ __ __ __ __ __ __ __ __
 72
    65
 73
     2
 40
1.905
 49
1.27
 74
     0
 49
-0.635
 74
     0
  0
LTYPE
  5
40
330
5
100
AcDbSymbolTableRecord
100
AcDbLinetypeTableRecord
  2
PHANTOM
 70
     0
  3
Phantom ______  __  __  ______  __  __  ______
 72
    65
 73
     6
 40
12.7
 49
6.35
 74
     0
 49
-1.27
 74
     0
 49
1.27
 74
     0
 49
-1.27
 74
     0
 49
1.27
 74
     0
 49
-1.27
 74
     0
  0
LTYPE
  5
41
330
5
100
AcDbSymbolTableRecord
100
AcDbLinetypeTableRecord
  2
CENTER
 70
     0
  3
Center ____ _ ____ _ ____ _ ____ _ ____ _ ____
 72
    65
 73
     4
 40
10.16
 49
6.35
 74
     0
 49
-1.27
 74
     0
 49
1.27
 74
     0
 49
-1.27
 74
     0
  0
LTYPE
  5
42
330
5
100
AcDbSymbolTableRecord
100
AcDbLinetypeTableRecord
  2
CENTERX2
 70
     0
  3
Center (2x) ________  __  ________  __  _____
 72
    65
 73
     4
 40
20.32
 49
12.7
 74
     0
 49
-2.54
 74
     0
 49
2.54
 74
     0
 49
-2.54
 74
     0
  0
LTYPE
  5
43
330
5
100
AcDbSymbolTableRecord
100
AcDbLinetypeTableRecord
  2
DOT2
 70
     0
  3
Dot (.5x) ........................................
 72
    65
 73
     2
 40
0.635
 49
0.0
 74
     0
 49
-0.635
 74
     0
  0
ENDTAB
  0
TABLE
  2
LAYER
  5
2
330
0
100
AcDbSymbolTable
 70
    20
  0
LAYER
  5
10
330
2
100
AcDbSymbolTableRecord
100
AcDbLayerTableRecord
  2
0
 70
     0
 62
     7
  6
Continuous
370
    -3
390
F
  0
LAYER
  5
44
330
2
100
AcDbSymbolTableRecord
100
AcDbLayerTableRecord
  2
FORMAT
 70
     0
 62
     7
  6
Continuous
370
    -3
390
F
  0
LAYER
  5
45
330
2
100
AcDbSymbolTableRecord
100
AcDbLayerTableRecord
  2
SLD-0_0
 70
     0
 62
   179
  6
Continuous
370
    -3
390
F
  0
LAYER
  5
46
330
2
100
AcDbSymbolTableRecord
100
AcDbLayerTableRecord
  2
CSLAYER1
 70
     0
 62
   179
  6
Continuous
370
    -3
390
F
  0
LAYER
  5
47
330
2
100
AcDbSymbolTableRecord
100
AcDbLayerTableRecord
  2
CSLAYER2
 70
     0
 62
   179
  6
Continuous
370
    -3
390
F
  0
LAYER
  5
48
330
2
100
AcDbSymbolTableRecord
100
AcDbLayerTableRecord
  2
CSLAYER3
 70
     0
 62
   179
  6
Continuous
370
    -3
390
F
  0
LAYER
  5
49
330
2
100
AcDbSymbolTableRecord
100
AcDbLayerTableRecord
  2
CSLAYER4
 70
     0
 62
   179
  6
Continuous
370
    -3
390
F
  0
LAYER
  5
4A
330
2
100
AcDbSymbolTableRecord
100
AcDbLayerTableRecord
  2
CSLAYER5
 70
     0
 62
   179
  6
Continuous
370
    -3
390
F
  0
LAYER
  5
4B
330
2
100
AcDbSymbolTableRecord
100
AcDbLayerTableRecord
  2
CSLAYER6
 70
     0
 62
   179
  6
Continuous
370
    -3
390
F
  0
LAYER
  5
4C
330
2
100
AcDbSymbolTableRecord
100
AcDbLayerTableRecord
  2
CSLAYER7
 70
     0
 62
   179
  6
Continuous
370
    -3
390
F
  0
LAYER
  5
4D
330
2
100
AcDbSymbolTableRecord
100
AcDbLayerTableRecord
  2
CSLAYER8
 70
     0
 62
   179
  6
Continuous
370
    -3
390
F
  0
LAYER
  5
4E
330
2
100
AcDbSymbolTableRecord
100
AcDbLayerTableRecord
  2
CSLAYER9
 70
     0
 62
   179
  6
Continuous
370
    -3
390
F
  0
LAYER
  5
4F
330
2
100
AcDbSymbolTableRecord
100
AcDbLayerTableRecord
  2
CSLAYER10
 70
     0
 62
   179
  6
Continuous
370
    -3
390
F
  0
LAYER
  5
50
330
2
100
AcDbSymbolTableRecord
100
AcDbLayerTableRecord
  2
CSLAYER11
 70
     0
 62
   179
  6
Continuous
370
    -3
390
F
  0
LAYER
  5
51
330
2
100
AcDbSymbolTableRecord
100
AcDbLayerTableRecord
  2
CSLAYER12
 70
     0
 62
   179
  6
Continuous
370
    -3
390
F
  0
LAYER
  5
52
330
2
100
AcDbSymbolTableRecord
100
AcDbLayerTableRecord
  2
CSLAYER13
 70
     0
 62
   179
  6
Continuous
370
    -3
390
F
  0
LAYER
  5
53
330
2
100
AcDbSymbolTableRecord
100
AcDbLayerTableRecord
  2
CSLAYER14
 70
     0
 62
   179
  6
Continuous
370
    -3
390
F
  0
LAYER
  5
54
330
2
100
AcDbSymbolTableRecord
100
AcDbLayerTableRecord
  2
CSLAYER15
 70
     0
 62
   179
  6
Continuous
370
    -3
390
F
  0
LAYER
  5
55
330
2
100
AcDbSymbolTableRecord
100
AcDbLayerTableRecord
  2
CSLAYER16
 70
     0
 62
   179
  6
Continuous
370
    -3
390
F
  0
LAYER
  5
56
330
2
100
AcDbSymbolTableRecord
100
AcDbLayerTableRecord
  2
SLD-0
 70
     0
 62
   179
  6
Continuous
370
    -3
390
F
  0
ENDTAB
  0
TABLE
  2
STYLE
  5
3
330
0
100
AcDbSymbolTable
 70
     6
  0
STYLE
  5
11
330
3
100
AcDbSymbolTableRecord
100
AcDbTextStyleTableRecord
  2
Standard
 70
     0
 40
0.0
 41
1.0
 50
0.0
 71
     0
 42
2.5
  3
txt
  4
bigfont
  0
STYLE
  5
75
330
3
100
AcDbSymbolTableRecord
100
AcDbTextStyleTableRecord
  2
SLDTEXTSTYLE0
 70
     0
 40
0.0
 41
0.7225806452
 50
0.0
 71
     0
 42
0.2
  3
TXT
  4
bigfont
  0
STYLE
  5
131
330
3
100
AcDbSymbolTableRecord
100
AcDbTextStyleTableRecord
  2
SLDTEXTSTYLE1
 70
     0
 40
0.0
 41
0.7368421053
 50
0.0
 71
     0
 42
0.2
  3
TXT
  4
bigfont
  0
STYLE
  5
143
330
3
100
AcDbSymbolTableRecord
100
AcDbTextStyleTableRecord
  2
SLDTEXTSTYLE2
 70
     0
 40
0.0
 41
0.7
 50
0.0
 71
     0
 42
0.2
  3
TXT
  4
bigfont
  0
STYLE
  5
1D6
330
3
100
AcDbSymbolTableRecord
100
AcDbTextStyleTableRecord
  2
SLDTEXTSTYLE3
 70
     0
 40
0.0
 41
0.7582165605
 50
0.0
 71
     0
 42
0.2
  3
TXT
  4
bigfont
  0
STYLE
  5
1D8
330
3
100
AcDbSymbolTableRecord
100
AcDbTextStyleTableRecord
  2
SLDTEXTSTYLE4
 70
     0
 40
0.0
 41
0.5581395349
 50
0.0
 71
     0
 42
0.2
  3
TXT
  4
bigfont
  0
ENDTAB
  0
TABLE
  2
VIEW
  5
6
330
0
100
AcDbSymbolTable
 70
     0
  0
ENDTAB
  0
TABLE
  2
UCS
  5
7
330
0
100
AcDbSymbolTable
 70
     0
  0
ENDTAB
  0
TABLE
  2
APPID
  5
9
330
0
100
AcDbSymbolTable
 70
     1
  0
APPID
  5
12
330
9
100
AcDbSymbolTableRecord
100
AcDbRegAppTableRecord
  2
ACAD
 70
     0
  0
ENDTAB
  0
TABLE
  2
DIMSTYLE
  5
A
330
0
100
AcDbSymbolTable
 70
     6
100
AcDbDimStyleTable
  0
DIMSTYLE
105
27
330
A
100
AcDbSymbolTableRecord
100
AcDbDimStyleTableRecord
  2
ISO-25
 70
     0
 41
2.5
 42
0.625
 43
3.75
 44
1.25
 73
     0
 74
     0
 77
     1
 78
     8
140
2.5
141
2.5
143
0.0393700787
147
0.625
171
     3
172
     1
271
     2
272
     2
274
     3
278
    44
283
     0
284
     8
340
11
  0
DIMSTYLE
105
132
102
{ACAD_REACTORS
330
130
330
1BC
102
}
330
A
100
AcDbSymbolTableRecord
100
AcDbDimStyleTableRecord
  2
SLDDIMSTYLE0
 70
     0
 41
5.9944
 44
0.0
 45
0.000000001
 73
     0
 77
     1
 78
    12
140
3.2
147
0.8
173
     1
271
     1
276
     2
284
    12
340
131
341
133
343
133
344
133
  0
DIMSTYLE
105
147
102
{ACAD_REACTORS
330
146
330
165
330
186
330
194
330
1A1
330
1CA
102
}
330
A
100
AcDbSymbolTableRecord
100
AcDbDimStyleTableRecord
  2
SLDDIMSTYLE1
 70
     0
 41
5.9944
 44
0.0
 45
0.000000001
 73
     0
 77
     1
 78
    12
140
3.2
147
0.8
173
     1
271
     0
276
     2
284
    12
340
131
341
133
343
133
344
133
  0
DIMSTYLE
105
155
102
{ACAD_REACTORS
330
154
330
15D
102
}
330
A
100
AcDbSymbolTableRecord
100
AcDbDimStyleTableRecord
  2
SLDDIMSTYLE2
 70
     0
 41
5.9944
 44
0.0
 45
0.000000001
 73
     0
 77
     1
 78
    12
140
3.2
141
0.0
147
0.8
173
     1
271
     0
276
     2
284
    12
340
131
341
133
343
133
344
133
  0
DIMSTYLE
105
172
102
{ACAD_REACTORS
330
171
330
17C
102
}
330
A
100
AcDbSymbolTableRecord
100
AcDbDimStyleTableRecord
  2
SLDDIMSTYLE3
 70
     0
 41
5.9944
 44
0.0
 45
0.000000001
 73
     0
 77
     1
 78
    12
140
3.2
147
0.8
173
     1
271
     0
276
     2
284
    12
340
131
341
133
343
133
344
133
  0
DIMSTYLE
105
1B0
102
{ACAD_REACTORS
330
1AF
102
}
330
A
100
AcDbSymbolTableRecord
100
AcDbDimStyleTableRecord
  2
SLDDIMSTYLE4
 70
     0
 41
5.9944
 44
0.0
 73
     0
 77
     1
 78
    12
140
3.2
147
0.8
173
     1
276
     2
284
    12
340
131
341
133
343
133
344
133
  0
ENDTAB
  0
TABLE
  2
BLOCK_RECORD
  5
1
330
0
100
AcDbSymbolTable
 70
    19
  0
BLOCK_RECORD
  5
1F
330
1
100
AcDbSymbolTableRecord
100
AcDbBlockTableRecord
  2
*Model_Space
340
22
  0
BLOCK_RECORD
  5
1B
330
1
100
AcDbSymbolTableRecord
100
AcDbBlockTableRecord
  2
*Paper_Space
340
1E
  0
BLOCK_RECORD
  5
23
330
1
100
AcDbSymbolTableRecord
100
AcDbBlockTableRecord
  2
*Paper_Space0
340
26
  0
BLOCK_RECORD
  5
57
330
1
100
AcDbSymbolTableRecord
100
AcDbBlockTableRecord
  2
FXDIM0000
340
0
102
{BLKREFS
331
12A
102
}
  0
BLOCK_RECORD
  5
61
330
1
100
AcDbSymbolTableRecord
100
AcDbBlockTableRecord
  2
FXDIM0001
340
0
102
{BLKREFS
331
12B
102
}
  0
BLOCK_RECORD
  5
6B
330
1
100
AcDbSymbolTableRecord
100
AcDbBlockTableRecord
  2
FXDIM0002
340
0
102
{BLKREFS
331
12C
102
}
  0
BLOCK_RECORD
  5
72
330
1
100
AcDbSymbolTableRecord
100
AcDbBlockTableRecord
  2
SW_NOTE_0
340
0
102
{BLKREFS
331
9A
102
}
  0
BLOCK_RECORD
  5
133
330
1
100
AcDbSymbolTableRecord
100
AcDbBlockTableRecord
  2
_OPEN30
340
0
102
{BLKREFS
331
13C
331
13D
331
14B
331
14C
331
159
331
161
331
169
331
16A
331
176
331
177
331
180
331
181
331
18A
331
18B
331
198
331
199
331
1A5
331
1A6
331
1B7
331
1B8
331
1C0
331
1C1
331
1CE
331
1CF
102
}
  0
BLOCK_RECORD
  5
139
330
1
100
AcDbSymbolTableRecord
100
AcDbBlockTableRecord
  2
*D6
340
0
  0
BLOCK_RECORD
  5
148
330
1
100
AcDbSymbolTableRecord
100
AcDbBlockTableRecord
  2
*D7
340
0
  0
BLOCK_RECORD
  5
156
330
1
100
AcDbSymbolTableRecord
100
AcDbBlockTableRecord
  2
*D8
340
0
  0
BLOCK_RECORD
  5
15E
330
1
100
AcDbSymbolTableRecord
100
AcDbBlockTableRecord
  2
*D9
340
0
  0
BLOCK_RECORD
  5
166
330
1
100
AcDbSymbolTableRecord
100
AcDbBlockTableRecord
  2
*D10
340
0
  0
BLOCK_RECORD
  5
173
330
1
100
AcDbSymbolTableRecord
100
AcDbBlockTableRecord
  2
*D11
340
0
  0
BLOCK_RECORD
  5
17D
330
1
100
AcDbSymbolTableRecord
100
AcDbBlockTableRecord
  2
*D12
340
0
  0
BLOCK_RECORD
  5
187
330
1
100
AcDbSymbolTableRecord
100
AcDbBlockTableRecord
  2
*D13
340
0
  0
BLOCK_RECORD
  5
195
330
1
100
AcDbSymbolTableRecord
100
AcDbBlockTableRecord
  2
*D14
340
0
  0
BLOCK_RECORD
  5
1A2
330
1
100
AcDbSymbolTableRecord
100
AcDbBlockTableRecord
  2
*D15
340
0
  0
BLOCK_RECORD
  5
1B1
330
1
100
AcDbSymbolTableRecord
100
AcDbBlockTableRecord
  2
*D16
340
0
  0
BLOCK_RECORD
  5
1BD
330
1
100
AcDbSymbolTableRecord
100
AcDbBlockTableRecord
  2
*D17
340
0
  0
BLOCK_RECORD
  5
1CB
330
1
100
AcDbSymbolTableRecord
100
AcDbBlockTableRecord
  2
*D18
340
0
  0
ENDTAB
  0
ENDSEC
  0
SECTION
  2
BLOCKS
  0
BLOCK
  5
20
330
1F
100
AcDbEntity
  8
0
100
AcDbBlockBegin
  2
*Model_Space
 70
     0
 10
0.0
 20
0.0
 30
0.0
  3
*Model_Space
  1

  0
ENDBLK
  5
21
330
1F
100
AcDbEntity
  8
0
100
AcDbBlockEnd
  0
BLOCK
  5
1C
330
1B
100
AcDbEntity
 67
     1
  8
0
100
AcDbBlockBegin
  2
*Paper_Space
 70
     0
 10
0.0
 20
0.0
 30
0.0
  3
*Paper_Space
  1

  0
ENDBLK
  5
1D
330
1B
100
AcDbEntity
 67
     1
  8
0
100
AcDbBlockEnd
  0
BLOCK
  5
24
330
23
100
AcDbEntity
  8
0
100
AcDbBlockBegin
  2
*Paper_Space0
 70
     0
 10
0.0
 20
0.0
 30
0.0
  3
*Paper_Space0
  1

  0
ENDBLK
  5
25
330
23
100
AcDbEntity
  8
0
100
AcDbBlockEnd
  0
BLOCK
  5
58
330
57
100
AcDbEntity
  8
0
100
AcDbBlockBegin
  2
FXDIM0000
 70
     0
 10
0.0
 20
0.0
 30
0.0
  3
FXDIM0000
  1

  0
LINE
  5
5A
330
57
100
AcDbEntity
  8
CSLAYER1
  6
Continuous
 62
     7
100
AcDbLine
 10
191.756938
 20
96.605528
 30
0.0
 11
193.256938
 21
99.203604
 31
0.0
  0
LINE
  5
5B
330
57
100
AcDbEntity
  8
CSLAYER1
  6
Continuous
 62
     7
100
AcDbLine
 10
190.256938
 20
99.203604
 30
0.0
 11
199.256938
 21
99.203604
 31
0.0
  0
LINE
  5
5C
330
57
100
AcDbEntity
  8
CSLAYER1
  6
Continuous
 62
     7
100
AcDbLine
 10
190.256938
 20
99.203604
 30
0.0
 11
191.756938
 21
96.605528
 31
0.0
  0
LINE
  5
5D
330
57
100
AcDbEntity
  8
CSLAYER1
  6
Continuous
 62
     7
100
AcDbLine
 10
194.756938
 20
96.605528
 30
0.0
 11
196.256938
 21
99.203604
 31
0.0
  0
LINE
  5
5E
330
57
100
AcDbEntity
  8
CSLAYER1
  6
Continuous
 62
     7
100
AcDbLine
 10
193.256938
 20
99.203604
 30
0.0
 11
194.756938
 21
96.605528
 31
0.0
  0
LINE
  5
5F
330
57
100
AcDbEntity
  8
CSLAYER1
  6
Continuous
 62
     7
100
AcDbLine
 10
197.756938
 20
96.605528
 30
0.0
 11
199.256938
 21
99.203604
 31
0.0
  0
LINE
  5
60
330
57
100
AcDbEntity
  8
CSLAYER1
  6
Continuous
 62
     7
100
AcDbLine
 10
196.256938
 20
99.203604
 30
0.0
 11
197.756938
 21
96.605528
 31
0.0
  0
ENDBLK
  5
59
330
57
100
AcDbEntity
  8
0
100
AcDbBlockEnd
  0
BLOCK
  5
62
330
61
100
AcDbEntity
  8
0
100
AcDbBlockBegin
  2
FXDIM0001
 70
     0
 10
0.0
 20
0.0
 30
0.0
  3
FXDIM0001
  1

  0
LINE
  5
64
330
61
100
AcDbEntity
  8
CSLAYER1
  6
Continuous
 62
     7
100
AcDbLine
 10
193.914954
 20
79.605528
 30
0.0
 11
192.414954
 21
77.007451
 31
0.0
  0
LINE
  5
65
330
61
100
AcDbEntity
  8
CSLAYER1
  6
Continuous
 62
     7
100
AcDbLine
 10
192.414954
 20
77.007451
 30
0.0
 11
201.414954
 21
77.007451
 31
0.0
  0
LINE
  5
66
330
61
100
AcDbEntity
  8
CSLAYER1
  6
Continuous
 62
     7
100
AcDbLine
 10
195.414954
 20
77.007451
 30
0.0
 11
193.914954
 21
79.605528
 31
0.0
  0
LINE
  5
67
330
61
100
AcDbEntity
  8
CSLAYER1
  6
Continuous
 62
     7
100
AcDbLine
 10
196.914954
 20
79.605528
 30
0.0
 11
195.414954
 21
77.007451
 31
0.0
  0
LINE
  5
68
330
61
100
AcDbEntity
  8
CSLAYER1
  6
Continuous
 62
     7
100
AcDbLine
 10
198.414954
 20
77.007451
 30
0.0
 11
196.914954
 21
79.605528
 31
0.0
  0
LINE
  5
69
330
61
100
AcDbEntity
  8
CSLAYER1
  6
Continuous
 62
     7
100
AcDbLine
 10
199.914954
 20
79.605528
 30
0.0
 11
198.414954
 21
77.007451
 31
0.0
  0
LINE
  5
6A
330
61
100
AcDbEntity
  8
CSLAYER1
  6
Continuous
 62
     7
100
AcDbLine
 10
201.414954
 20
77.007451
 30
0.0
 11
199.914954
 21
79.605528
 31
0.0
  0
ENDBLK
  5
63
330
61
100
AcDbEntity
  8
0
100
AcDbBlockEnd
  0
BLOCK
  5
6C
330
6B
100
AcDbEntity
  8
0
100
AcDbBlockBegin
  2
FXDIM0002
 70
     0
 10
0.0
 20
0.0
 30
0.0
  3
FXDIM0002
  1

  0
LINE
  5
6E
330
6B
100
AcDbEntity
  8
CSLAYER1
  6
Continuous
 62
     7
100
AcDbLine
 10
182.32805
 20
136.37888
 30
0.0
 11
176.246865
 21
113.683586
 31
0.0
  0
LINE
  5
6F
330
6B
100
AcDbEntity
  8
CSLAYER1
  6
Continuous
 62
     7
100
AcDbLine
 10
182.32805
 20
136.37888
 30
0.0
 11
182.32805
 21
133.37888
 31
0.0
  0
LINE
  5
70
330
6B
100
AcDbEntity
  8
CSLAYER1
  6
Continuous
 62
     7
100
AcDbLine
 10
182.32805
 20
136.37888
 30
0.0
 11
180.82805
 21
133.780804
 31
0.0
  0
LINE
  5
71
330
6B
100
AcDbEntity
  8
CSLAYER1
  6
Continuous
 62
     7
100
AcDbLine
 10
176.246865
 20
113.683586
 30
0.0
 11
161.446864
 21
113.683586
 31
0.0
  0
INSERT
  5
9A
330
6B
100
AcDbEntity
  8
CSLAYER1
 62
     7
100
AcDbBlockReference
  2
SW_NOTE_0
 10
162.446863
 20
112.5480305537
 30
0.0
  0
ENDBLK
  5
6D
330
6B
100
AcDbEntity
  8
0
100
AcDbBlockEnd
  0
BLOCK
  5
73
330
72
100
AcDbEntity
  8
0
100
AcDbBlockBegin
  2
SW_NOTE_0
 70
     0
 10
0.0
 20
0.0
 30
0.0
  3
SW_NOTE_0
  1

  0
MTEXT
  5
98
330
72
100
AcDbEntity
  8
CSLAYER1
 62
     0
100
AcDbMText
 10
0.0
 20
4.1250167673
 30
0.0
 40
3.2
 41
0.0
 71
     1
 72
     1
  1
%%c
  7
SLDTEXTSTYLE0
 73
     1
 44
1.0
  0
MTEXT
  5
99
330
72
100
AcDbEntity
  8
CSLAYER1
 62
     0
100
AcDbMText
 10
5.1848888397
 20
4.1250167673
 30
0.0
 40
3.2
 41
0.0
 71
     1
 72
     1
  1
5.1
  7
SLDTEXTSTYLE0
 73
     1
 44
1.0
  0
ENDBLK
  5
74
330
72
100
AcDbEntity
  8
0
100
AcDbBlockEnd
  0
BLOCK
  5
134
330
133
100
AcDbEntity
  8
0
100
AcDbBlockBegin
  2
_OPEN30
 70
     0
 10
0.0
 20
0.0
 30
0.0
  3
_OPEN30
  1

  0
LINE
  5
136
330
133
100
AcDbEntity
  8
0
  6
ByBlock
 62
     0
370
    -2
100
AcDbLine
 10
-1.0
 20
0.267949
 30
0.0
 11
0.0
 21
0.0
 31
0.0
  0
LINE
  5
137
330
133
100
AcDbEntity
  8
0
  6
ByBlock
 62
     0
370
    -2
100
AcDbLine
 10
0.0
 20
0.0
 30
0.0
 11
-1.0
 21
-0.267949
 31
0.0
  0
LINE
  5
138
330
133
100
AcDbEntity
  8
0
  6
ByBlock
 62
     0
370
    -2
100
AcDbLine
 10
0.0
 20
0.0
 30
0.0
 11
-1.0
 21
0.0
 31
0.0
  0
ENDBLK
  5
135
330
133
100
AcDbEntity
  8
0
100
AcDbBlockEnd
  0
BLOCK
  5
13A
330
139
100
AcDbEntity
  8
0
100
AcDbBlockBegin
  2
*D6
 70
     1
 10
0.0
 20
0.0
 30
0.0
  3
*D6
  1

  0
INSERT
  5
13C
330
139
100
AcDbEntity
  8
CSLAYER1
 62
     7
100
AcDbBlockReference
  2
_OPEN30
 10
158.1029232085
 20
220.9588110471
 30
0.1
 41
5.9944
 42
5.9944
 50
270.0
  0
INSERT
  5
13D
330
139
100
AcDbEntity
  8
CSLAYER1
 62
     7
100
AcDbBlockReference
  2
_OPEN30
 10
158.1029232085
 20
188.9588110471
 30
0.1
 41
5.9944
 42
5.9944
 50
90.0
  0
LINE
  5
13E
330
139
100
AcDbEntity
  8
CSLAYER1
 62
     7
100
AcDbLine
 10
186.0991552085
 20
220.9588110471
 30
0.0
 11
157.1123232085
 21
220.9588110471
 31
0.0
  0
LINE
  5
13F
330
139
100
AcDbEntity
  8
CSLAYER1
 62
     7
100
AcDbLine
 10
186.0991552085
 20
188.9588110471
 30
0.0
 11
157.1123232085
 21
188.9588110471
 31
0.0
  0
LINE
  5
140
330
139
100
AcDbEntity
  8
CSLAYER1
 62
     7
100
AcDbLine
 10
158.1029232085
 20
220.9588110471
 30
0.0
 11
158.1029232085
 21
232.9476110471
 31
0.0
  0
LINE
  5
141
330
139
100
AcDbEntity
  8
CSLAYER1
 62
     7
100
AcDbLine
 10
158.1029232085
 20
220.9588110471
 30
0.0
 11
158.1029232085
 21
188.9588110471
 31
0.0
  0
LINE
  5
142
330
139
100
AcDbEntity
  8
CSLAYER1
 62
     7
100
AcDbLine
 10
158.1029232085
 20
188.9588110471
 30
0.0
 11
158.1029232085
 21
176.9700110471
 31
0.0
  0
MTEXT
  5
144
330
139
100
AcDbEntity
  8
CSLAYER1
 62
     7
100
AcDbMText
 10
153.9779059756
 20
194.9715963302
 30
0.0
 40
3.2
 41
0.0
 71
     1
 72
     1
  1
31.5
  7
SLDTEXTSTYLE2
 11
-7.044195017643634E-15
 21
1.0
 31
0.0
 73
     1
 44
1.0
  0
MTEXT
  5
145
330
139
100
AcDbEntity
  8
CSLAYER1
 62
     7
100
AcDbMText
 10
153.9779059756
 20
204.960358097
 30
0.0
 40
3.2
 41
0.0
 71
     1
 72
     1
  1
~33
  7
SLDTEXTSTYLE2
 11
-7.044195017643634E-15
 21
1.0
 31
0.0
 73
     1
 44
1.0
  0
ENDBLK
  5
13B
330
139
100
AcDbEntity
  8
0
100
AcDbBlockEnd
  0
BLOCK
  5
149
330
148
100
AcDbEntity
  8
0
100
AcDbBlockBegin
  2
*D7
 70
     1
 10
0.0
 20
0.0
 30
0.0
  3
*D7
  1

  0
INSERT
  5
14B
330
148
100
AcDbEntity
  8
CSLAYER1
 62
     7
100
AcDbBlockReference
  2
_OPEN30
 10
148.0965199736
 20
162.5291630471
 30
0.1
 41
5.9944
 42
5.9944
 50
270.0
  0
INSERT
  5
14C
330
148
100
AcDbEntity
  8
CSLAYER1
 62
     7
100
AcDbBlockReference
  2
_OPEN30
 10
148.0965199736
 20
145.5291630471
 30
0.1
 41
5.9944
 42
5.9944
 50
90.0
  0
LINE
  5
14D
330
148
100
AcDbEntity
  8
CSLAYER1
 62
     7
100
AcDbLine
 10
196.0991552085
 20
162.5291630471
 30
0.0
 11
147.1059199736
 21
162.5291630471
 31
0.0
  0
LINE
  5
14E
330
148
100
AcDbEntity
  8
CSLAYER1
 62
     7
100
AcDbLine
 10
170.0991552085
 20
145.5291630471
 30
0.0
 11
147.1059199736
 21
145.5291630471
 31
0.0
  0
LINE
  5
14F
330
148
100
AcDbEntity
  8
CSLAYER1
 62
     7
100
AcDbLine
 10
148.0965199736
 20
162.5291630471
 30
0.0
 11
148.0965199736
 21
174.5179630471
 31
0.0
  0
LINE
  5
150
330
148
100
AcDbEntity
  8
CSLAYER1
 62
     7
100
AcDbLine
 10
148.0965199736
 20
162.5291630471
 30
0.0
 11
148.0965199736
 21
145.5291630471
 31
0.0
  0
LINE
  5
151
330
148
100
AcDbEntity
  8
CSLAYER1
 62
     7
100
AcDbLine
 10
148.0965199736
 20
145.5291630471
 30
0.0
 11
148.0965199736
 21
133.5403630471
 31
0.0
  0
MTEXT
  5
152
330
148
100
AcDbEntity
  8
CSLAYER1
 62
     7
100
AcDbMText
 10
143.9715027407
 20
152.0978180774
 30
0.0
 40
3.2
 41
0.0
 71
     1
 72
     1
  1
17
  7
SLDTEXTSTYLE2
 11
-7.044195017643634E-15
 21
1.0
 31
0.0
 73
     1
 44
1.0
  0
MTEXT
  5
153
330
148
100
AcDbEntity
  8
CSLAYER1
 62
     7
100
AcDbMText
 10
143.9715027407
 20
157.6474748478
 30
0.0
 40
3.2
 41
0.0
 71
     1
 72
     1
  1
 
  7
SLDTEXTSTYLE2
 11
-7.044195017643634E-15
 21
1.0
 31
0.0
 73
     1
 44
1.0
  0
ENDBLK
  5
14A
330
148
100
AcDbEntity
  8
0
100
AcDbBlockEnd
  0
BLOCK
  5
157
330
156
100
AcDbEntity
  8
0
100
AcDbBlockBegin
  2
*D8
 70
     1
 10
0.0
 20
0.0
 30
0.0
  3
*D8
  1

  0
INSERT
  5
159
330
156
100
AcDbEntity
  8
CSLAYER1
 62
     7
100
AcDbBlockReference
  2
_OPEN30
 10
176.5745052615
 20
192.8993944411
 30
0.1
 41
5.9944
 42
5.9944
 50
228.9130868374
  0
LINE
  5
15A
330
156
100
AcDbEntity
  8
CSLAYER1
 62
     7
100
AcDbLine
 10
176.5745052615
 20
192.8993944411
 30
0.0
 11
187.0897552085
 21
204.9588110471
 31
0.0
  0
MTEXT
  5
15B
330
156
100
AcDbEntity
  8
CSLAYER1
 62
     7
100
AcDbMText
 10
174.6738693204
 20
196.8546575001
 30
0.0
 40
3.2
 41
0.0
 71
     1
 72
     1
  1
R
  7
SLDTEXTSTYLE2
 11
0.6572031084379921
 21
0.7537135226725342
 31
0.0
 73
     1
 44
1.0
  0
MTEXT
  5
15C
330
156
100
AcDbEntity
  8
CSLAYER1
 62
     7
100
AcDbMText
 10
176.8614048447
 20
199.3634330747
 30
0.0
 40
3.2
 41
0.0
 71
     1
 72
     1
  1
16
  7
SLDTEXTSTYLE2
 11
0.6572031084379921
 21
0.7537135226725342
 31
0.0
 73
     1
 44
1.0
  0
ENDBLK
  5
158
330
156
100
AcDbEntity
  8
0
100
AcDbBlockEnd
  0
BLOCK
  5
15F
330
15E
100
AcDbEntity
  8
0
100
AcDbBlockBegin
  2
*D9
 70
     1
 10
0.0
 20
0.0
 30
0.0
  3
*D9
  1

  0
INSERT
  5
161
330
15E
100
AcDbEntity
  8
CSLAYER1
 62
     7
100
AcDbBlockReference
  2
_OPEN30
 10
131.054904362
 20
193.2320068902
 30
0.1
 41
5.9944
 42
5.9944
 50
236.8905705299
  0
LINE
  5
162
330
15E
100
AcDbEntity
  8
CSLAYER1
 62
     7
100
AcDbLine
 10
131.054904362
 20
193.2320068902
 30
0.0
 11
138.7022622085
 21
204.9588110471
 31
0.0
  0
MTEXT
  5
163
330
15E
100
AcDbEntity
  8
CSLAYER1
 62
     7
100
AcDbMText
 10
129.3524601478
 20
197.8409090019
 30
0.0
 40
3.2
 41
0.0
 71
     1
 72
     1
  1
R
  7
SLDTEXTSTYLE2
 11
0.5462398214267575
 21
0.8376288303823263
 31
0.0
 73
     1
 44
1.0
  0
MTEXT
  5
164
330
15E
100
AcDbEntity
  8
CSLAYER1
 62
     7
100
AcDbMText
 10
131.1706484656
 20
200.6290011443
 30
0.0
 40
3.2
 41
0.0
 71
     1
 72
     1
  1
14
  7
SLDTEXTSTYLE2
 11
0.5462398214267575
 21
0.8376288303823263
 31
0.0
 73
     1
 44
1.0
  0
ENDBLK
  5
160
330
15E
100
AcDbEntity
  8
0
100
AcDbBlockEnd
  0
BLOCK
  5
167
330
166
100
AcDbEntity
  8
0
100
AcDbBlockBegin
  2
*D10
 70
     1
 10
0.0
 20
0.0
 30
0.0
  3
*D10
  1

  0
INSERT
  5
169
330
166
100
AcDbEntity
  8
CSLAYER1
 62
     7
100
AcDbBlockReference
  2
_OPEN30
 10
157.9371062085
 20
153.5291630471
 30
0.1
 41
5.9944
 42
5.9944
 50
270.0
  0
INSERT
  5
16A
330
166
100
AcDbEntity
  8
CSLAYER1
 62
     7
100
AcDbBlockReference
  2
_OPEN30
 10
157.9371062085
 20
145.5291630471
 30
0.1
 41
5.9944
 42
5.9944
 50
90.0
  0
LINE
  5
16B
330
166
100
AcDbEntity
  8
CSLAYER1
 62
     7
100
AcDbLine
 10
185.2978392085
 20
153.5291630471
 30
0.0
 11
156.9465062085
 21
153.5291630471
 31
0.0
  0
LINE
  5
16C
330
166
100
AcDbEntity
  8
CSLAYER1
 62
     7
100
AcDbLine
 10
185.2978392085
 20
145.5291630471
 30
0.0
 11
156.9465062085
 21
145.5291630471
 31
0.0
  0
LINE
  5
16D
330
166
100
AcDbEntity
  8
CSLAYER1
 62
     7
100
AcDbLine
 10
157.9371062085
 20
153.5291630471
 30
0.0
 11
157.9371062085
 21
165.5179630471
 31
0.0
  0
LINE
  5
16E
330
166
100
AcDbEntity
  8
CSLAYER1
 62
     7
100
AcDbLine
 10
157.9371062085
 20
153.5291630471
 30
0.0
 11
157.9371062085
 21
145.5291630471
 31
0.0
  0
LINE
  5
16F
330
166
100
AcDbEntity
  8
CSLAYER1
 62
     7
100
AcDbLine
 10
157.9371062085
 20
145.5291630471
 30
0.0
 11
157.9371062085
 21
133.5403630471
 31
0.0
  0
MTEXT
  5
170
330
166
100
AcDbEntity
  8
CSLAYER1
 62
     7
100
AcDbMText
 10
153.8120889756
 20
147.8648884359
 30
0.0
 40
3.2
 41
0.0
 71
     1
 72
     1
  1
8
  7
SLDTEXTSTYLE2
 11
-7.044195017643634E-15
 21
1.0
 31
0.0
 73
     1
 44
1.0
  0
ENDBLK
  5
168
330
166
100
AcDbEntity
  8
0
100
AcDbBlockEnd
  0
BLOCK
  5
174
330
173
100
AcDbEntity
  8
0
100
AcDbBlockBegin
  2
*D11
 70
     1
 10
0.0
 20
0.0
 30
0.0
  3
*D11
  1

  0
INSERT
  5
176
330
173
100
AcDbEntity
  8
CSLAYER1
 62
     7
100
AcDbBlockReference
  2
_OPEN30
 10
246.0897552085
 20
171.5245570471
 30
0.1
 41
5.9944
 42
5.9944
 50
360.0
  0
INSERT
  5
177
330
173
100
AcDbEntity
  8
CSLAYER1
 62
     7
100
AcDbBlockReference
  2
_OPEN30
 10
197.0897552085
 20
171.5245570471
 30
0.1
 41
5.9944
 42
5.9944
 50
180.0
  0
LINE
  5
178
330
173
100
AcDbEntity
  8
CSLAYER1
 62
     7
100
AcDbLine
 10
246.0897552085
 20
166.9717090471
 30
0.0
 11
246.0897552085
 21
172.5151570471
 31
0.0
  0
LINE
  5
179
330
173
100
AcDbEntity
  8
CSLAYER1
 62
     7
100
AcDbLine
 10
197.0897552085
 20
163.5197630471
 30
0.0
 11
197.0897552085
 21
172.5151570471
 31
0.0
  0
LINE
  5
17A
330
173
100
AcDbEntity
  8
CSLAYER1
 62
     7
100
AcDbLine
 10
246.0897552085
 20
171.5245570471
 30
0.0
 11
197.0897552085
 21
171.5245570471
 31
0.0
  0
MTEXT
  5
17B
330
173
100
AcDbEntity
  8
CSLAYER1
 62
     7
100
AcDbMText
 10
218.2611939862
 20
175.64957428
 30
0.0
 40
3.2
 41
0.0
 71
     1
 72
     1
  1
49
  7
SLDTEXTSTYLE2
 73
     1
 44
1.0
  0
ENDBLK
  5
175
330
173
100
AcDbEntity
  8
0
100
AcDbBlockEnd
  0
BLOCK
  5
17E
330
17D
100
AcDbEntity
  8
0
100
AcDbBlockBegin
  2
*D12
 70
     1
 10
0.0
 20
0.0
 30
0.0
  3
*D12
  1

  0
INSERT
  5
180
330
17D
100
AcDbEntity
  8
CSLAYER1
 62
     7
100
AcDbBlockReference
  2
_OPEN30
 10
246.0897552085
 20
239.0912680471
 30
0.1
 41
5.9944
 42
5.9944
 50
360.0
  0
INSERT
  5
181
330
17D
100
AcDbEntity
  8
CSLAYER1
 62
     7
100
AcDbBlockReference
  2
_OPEN30
 10
171.0897552085
 20
239.0912680471
 30
0.1
 41
5.9944
 42
5.9944
 50
180.0
  0
LINE
  5
182
330
17D
100
AcDbEntity
  8
CSLAYER1
 62
     7
100
AcDbLine
 10
246.0897552085
 20
227.8245620471
 30
0.0
 11
246.0897552085
 21
240.0818680471
 31
0.0
  0
LINE
  5
183
330
17D
100
AcDbEntity
  8
CSLAYER1
 62
     7
100
AcDbLine
 10
171.0897552085
 20
205.9494110471
 30
0.0
 11
171.0897552085
 21
240.0818680471
 31
0.0
  0
LINE
  5
184
330
17D
100
AcDbEntity
  8
CSLAYER1
 62
     7
100
AcDbLine
 10
246.0897552085
 20
239.0912680471
 30
0.0
 11
171.0897552085
 21
239.0912680471
 31
0.0
  0
MTEXT
  5
185
330
17D
100
AcDbEntity
  8
CSLAYER1
 62
     7
100
AcDbMText
 10
205.2611939862
 20
243.21628528
 30
0.0
 40
3.2
 41
0.0
 71
     1
 72
     1
  1
75
  7
SLDTEXTSTYLE2
 73
     1
 44
1.0
  0
ENDBLK
  5
17F
330
17D
100
AcDbEntity
  8
0
100
AcDbBlockEnd
  0
BLOCK
  5
188
330
187
100
AcDbEntity
  8
0
100
AcDbBlockBegin
  2
*D13
 70
     1
 10
0.0
 20
0.0
 30
0.0
  3
*D13
  1

  0
INSERT
  5
18A
330
187
100
AcDbEntity
  8
CSLAYER1
 62
     7
100
AcDbBlockReference
  2
_OPEN30
 10
203.0897552085
 20
129.4266750471
 30
0.1
 41
5.9944
 42
5.9944
 50
180.0
  0
INSERT
  5
18B
330
187
100
AcDbEntity
  8
CSLAYER1
 62
     7
100
AcDbBlockReference
  2
_OPEN30
 10
171.0897552085
 20
129.4266750471
 30
0.1
 41
5.9944
 42
5.9944
 50
0.0
  0
LINE
  5
18C
330
187
100
AcDbEntity
  8
CSLAYER1
 62
     7
100
AcDbLine
 10
203.0897552085
 20
144.5385630471
 30
0.0
 11
203.0897552085
 21
128.4360750471
 31
0.0
  0
LINE
  5
18D
330
187
100
AcDbEntity
  8
CSLAYER1
 62
     7
100
AcDbLine
 10
171.0897552085
 20
144.5385630471
 30
0.0
 11
171.0897552085
 21
128.4360750471
 31
0.0
  0
LINE
  5
18E
330
187
100
AcDbEntity
  8
CSLAYER1
 62
     7
100
AcDbLine
 10
203.0897552085
 20
129.4266750471
 30
0.0
 11
215.0785552085
 21
129.4266750471
 31
0.0
  0
LINE
  5
18F
330
187
100
AcDbEntity
  8
CSLAYER1
 62
     7
100
AcDbLine
 10
203.0897552085
 20
129.4266750471
 30
0.0
 11
171.0897552085
 21
129.4266750471
 31
0.0
  0
LINE
  5
190
330
187
100
AcDbEntity
  8
CSLAYER1
 62
     7
100
AcDbLine
 10
171.0897552085
 20
129.4266750471
 30
0.0
 11
159.1009552085
 21
129.4266750471
 31
0.0
  0
MTEXT
  5
191
330
187
100
AcDbEntity
  8
CSLAYER1
 62
     7
100
AcDbMText
 10
181.5400984381
 20
133.55169228
 30
0.0
 40
3.2
 41
0.0
 71
     1
 72
     1
  1
(
  7
SLDTEXTSTYLE2
 73
     1
 44
1.0
  0
MTEXT
  5
192
330
187
100
AcDbEntity
  8
CSLAYER1
 62
     7
100
AcDbMText
 10
183.7612019862
 20
133.55169228
 30
0.0
 40
3.2
 41
0.0
 71
     1
 72
     1
  1
32
  7
SLDTEXTSTYLE2
 73
     1
 44
1.0
  0
MTEXT
  5
193
330
187
100
AcDbEntity
  8
CSLAYER1
 62
     7
100
AcDbMText
 10
190.4183084308
 20
133.55169228
 30
0.0
 40
3.2
 41
0.0
 71
     1
 72
     1
  1
)
  7
SLDTEXTSTYLE2
 73
     1
 44
1.0
  0
ENDBLK
  5
189
330
187
100
AcDbEntity
  8
0
100
AcDbBlockEnd
  0
BLOCK
  5
196
330
195
100
AcDbEntity
  8
0
100
AcDbBlockBegin
  2
*D14
 70
     1
 10
0.0
 20
0.0
 30
0.0
  3
*D14
  1

  0
INSERT
  5
198
330
195
100
AcDbEntity
  8
CSLAYER1
 62
     7
100
AcDbBlockReference
  2
_OPEN30
 10
196.0897552085
 20
135.4266790471
 30
0.1
 41
5.9944
 42
5.9944
 50
180.0
  0
INSERT
  5
199
330
195
100
AcDbEntity
  8
CSLAYER1
 62
     7
100
AcDbBlockReference
  2
_OPEN30
 10
171.0897552085
 20
135.4266790471
 30
0.1
 41
5.9944
 42
5.9944
 50
0.0
  0
LINE
  5
19A
330
195
100
AcDbEntity
  8
CSLAYER1
 62
     7
100
AcDbLine
 10
196.0897552085
 20
144.5385630471
 30
0.0
 11
196.0897552085
 21
134.4360790471
 31
0.0
  0
LINE
  5
19B
330
195
100
AcDbEntity
  8
CSLAYER1
 62
     7
100
AcDbLine
 10
171.0897552085
 20
144.5385630471
 30
0.0
 11
171.0897552085
 21
134.4360790471
 31
0.0
  0
LINE
  5
19C
330
195
100
AcDbEntity
  8
CSLAYER1
 62
     7
100
AcDbLine
 10
196.0897552085
 20
135.4266790471
 30
0.0
 11
208.0785552085
 21
135.4266790471
 31
0.0
  0
LINE
  5
19D
330
195
100
AcDbEntity
  8
CSLAYER1
 62
     7
100
AcDbLine
 10
196.0897552085
 20
135.4266790471
 30
0.0
 11
171.0897552085
 21
135.4266790471
 31
0.0
  0
LINE
  5
19E
330
195
100
AcDbEntity
  8
CSLAYER1
 62
     7
100
AcDbLine
 10
171.0897552085
 20
135.4266790471
 30
0.0
 11
159.1009552085
 21
135.4266790471
 31
0.0
  0
MTEXT
  5
19F
330
195
100
AcDbEntity
  8
CSLAYER1
 62
     7
100
AcDbMText
 10
161.550886273
 20
139.55169628
 30
0.0
 40
3.2
 41
0.0
 71
     1
 72
     1
  1
切刃部有効
  7
SLDTEXTSTYLE2
 73
     1
 44
1.0
  0
MTEXT
  5
1A0
330
195
100
AcDbEntity
  8
CSLAYER1
 62
     7
100
AcDbMText
 10
198.9715176995
 20
139.55169628
 30
0.0
 40
3.2
 41
0.0
 71
     1
 72
     1
  1
25
  7
SLDTEXTSTYLE2
 73
     1
 44
1.0
  0
ENDBLK
  5
197
330
195
100
AcDbEntity
  8
0
100
AcDbBlockEnd
  0
BLOCK
  5
1A3
330
1A2
100
AcDbEntity
  8
0
100
AcDbBlockBegin
  2
*D15
 70
     1
 10
0.0
 20
0.0
 30
0.0
  3
*D15
  1

  0
INSERT
  5
1A5
330
1A2
100
AcDbEntity
  8
CSLAYER1
 62
     7
100
AcDbBlockReference
  2
_OPEN30
 10
116.0449702085
 20
207.9588110471
 30
0.1
 41
5.9944
 42
5.9944
 50
270.0
  0
INSERT
  5
1A6
330
1A2
100
AcDbEntity
  8
CSLAYER1
 62
     7
100
AcDbBlockReference
  2
_OPEN30
 10
116.0449702085
 20
201.9588110471
 30
0.1
 41
5.9944
 42
5.9944
 50
90.0
  0
LINE
  5
1A7
330
1A2
100
AcDbEntity
  8
CSLAYER1
 62
     7
100
AcDbLine
 10
122.2116622085
 20
207.9588110471
 30
0.0
 11
115.0543702085
 21
207.9588110471
 31
0.0
  0
LINE
  5
1A8
330
1A2
100
AcDbEntity
  8
CSLAYER1
 62
     7
100
AcDbLine
 10
122.2116622085
 20
201.9588110471
 30
0.0
 11
115.0543702085
 21
201.9588110471
 31
0.0
  0
LINE
  5
1A9
330
1A2
100
AcDbEntity
  8
CSLAYER1
 62
     7
100
AcDbLine
 10
116.0449702085
 20
207.9588110471
 30
0.0
 11
116.0449702085
 21
219.9476110471
 31
0.0
  0
LINE
  5
1AA
330
1A2
100
AcDbEntity
  8
CSLAYER1
 62
     7
100
AcDbLine
 10
116.0449702085
 20
207.9588110471
 30
0.0
 11
116.0449702085
 21
201.9588110471
 31
0.0
  0
LINE
  5
1AB
330
1A2
100
AcDbEntity
  8
CSLAYER1
 62
     7
100
AcDbLine
 10
116.0449702085
 20
201.9588110471
 30
0.0
 11
116.0449702085
 21
189.9700110471
 31
0.0
  0
MTEXT
  5
1AC
330
1A2
100
AcDbEntity
  8
CSLAYER1
 62
     7
100
AcDbMText
 10
111.9199529756
 20
201.0734268878
 30
0.0
 40
3.2
 41
0.0
 71
     1
 72
     1
  1
(
  7
SLDTEXTSTYLE2
 11
-7.044195017643634E-15
 21
1.0
 31
0.0
 73
     1
 44
1.0
  0
MTEXT
  5
1AD
330
1A2
100
AcDbEntity
  8
CSLAYER1
 62
     7
100
AcDbMText
 10
111.9199529756
 20
203.2945304359
 30
0.0
 40
3.2
 41
0.0
 71
     1
 72
     1
  1
6
  7
SLDTEXTSTYLE2
 11
-7.044195017643634E-15
 21
1.0
 31
0.0
 73
     1
 44
1.0
  0
MTEXT
  5
1AE
330
1A2
100
AcDbEntity
  8
CSLAYER1
 62
     7
100
AcDbMText
 10
111.9199529756
 20
206.6230836582
 30
0.0
 40
3.2
 41
0.0
 71
     1
 72
     1
  1
)
  7
SLDTEXTSTYLE2
 11
-7.044195017643634E-15
 21
1.0
 31
0.0
 73
     1
 44
1.0
  0
ENDBLK
  5
1A4
330
1A2
100
AcDbEntity
  8
0
100
AcDbBlockEnd
  0
BLOCK
  5
1B2
330
1B1
100
AcDbEntity
  8
0
100
AcDbBlockBegin
  2
*D16
 70
     1
 10
0.0
 20
0.0
 30
0.0
  3
*D16
  1

  0
ARC
  5
1B4
330
1B1
100
AcDbEntity
  8
CSLAYER1
 62
     7
100
AcDbCircle
 10
123.2022622085
 20
204.9588110471
 30
0.0
 40
25.53799663434049
100
AcDbArc
 50
55.0000059686
 51
90.0
  0
ARC
  5
1B5
330
1B1
100
AcDbEntity
  8
CSLAYER1
 62
     7
100
AcDbCircle
 10
123.2022622085
 20
204.9588110471
 30
0.0
 40
25.53799663434049
100
AcDbArc
 50
28.7589501119
 51
55.0000059686
  0
ARC
  5
1B6
330
1B1
100
AcDbEntity
  8
CSLAYER1
 62
     7
100
AcDbCircle
 10
123.2022622085
 20
204.9588110471
 30
0.0
 40
25.53799663434049
100
AcDbArc
 50
90.0
 51
116.2410558566
  0
INSERT
  5
1B7
330
1B1
100
AcDbEntity
  8
CSLAYER1
 62
     7
100
AcDbBlockReference
  2
_OPEN30
 10
137.8502531304
 20
225.878314723
 30
0.1
 41
5.9944
 42
5.9944
 50
138.3952033523
  0
INSERT
  5
1B8
330
1B1
100
AcDbEntity
  8
CSLAYER1
 62
     7
100
AcDbBlockReference
  2
_OPEN30
 10
123.2022622085
 20
230.4968076814
 30
0.1
 41
5.9944
 42
5.9944
 50
6.6048026162
  0
LINE
  5
1B9
330
1B1
100
AcDbEntity
  8
CSLAYER1
 62
     7
100
AcDbLine
 10
125.4866699419
 20
208.2212841213
 30
0.0
 11
138.4184378637
 21
226.6897667973
 31
0.0
  0
LINE
  5
1BA
330
1B1
100
AcDbEntity
  8
CSLAYER1
 62
     7
100
AcDbLine
 10
123.2022622085
 20
208.9494110471
 30
0.0
 11
123.2022622085
 21
231.4874076814
 31
0.0
  0
MTEXT
  5
1BB
330
1B1
100
AcDbEntity
  8
CSLAYER1
 62
     7
100
AcDbMText
 10
130.4447245329
 20
234.0645971443
 30
0.0
 40
3.2
 41
0.0
 71
     1
 72
     1
  1
35°
  7
SLDTEXTSTYLE2
 11
0.9239831530477246
 21
-0.3824331744030389
 31
0.0
 73
     1
 44
1.0
  0
ENDBLK
  5
1B3
330
1B1
100
AcDbEntity
  8
0
100
AcDbBlockEnd
  0
BLOCK
  5
1BE
330
1BD
100
AcDbEntity
  8
0
100
AcDbBlockBegin
  2
*D17
 70
     1
 10
0.0
 20
0.0
 30
0.0
  3
*D17
  1

  0
INSERT
  5
1C0
330
1BD
100
AcDbEntity
  8
CSLAYER1
 62
     7
100
AcDbBlockReference
  2
_OPEN30
 10
123.7022622085
 20
181.8121850471
 30
0.1
 41
5.9944
 42
5.9944
 50
180.0
  0
INSERT
  5
1C1
330
1BD
100
AcDbEntity
  8
CSLAYER1
 62
     7
100
AcDbBlockReference
  2
_OPEN30
 10
123.2022622085
 20
181.8121850471
 30
0.1
 41
5.9944
 42
5.9944
 50
360.0
  0
LINE
  5
1C2
330
1BD
100
AcDbEntity
  8
CSLAYER1
 62
     7
100
AcDbLine
 10
123.7022622085
 20
187.9682110471
 30
0.0
 11
123.7022622085
 21
180.8215850471
 31
0.0
  0
LINE
  5
1C3
330
1BD
100
AcDbEntity
  8
CSLAYER1
 62
     7
100
AcDbLine
 10
123.2022622085
 20
200.9682110471
 30
0.0
 11
123.2022622085
 21
180.8215850471
 31
0.0
  0
LINE
  5
1C4
330
1BD
100
AcDbEntity
  8
CSLAYER1
 62
     7
100
AcDbLine
 10
123.7022622085
 20
181.8121850471
 30
0.0
 11
135.6910622085
 21
181.8121850471
 31
0.0
  0
LINE
  5
1C5
330
1BD
100
AcDbEntity
  8
CSLAYER1
 62
     7
100
AcDbLine
 10
123.7022622085
 20
181.8121850471
 30
0.0
 11
123.2022622085
 21
181.8121850471
 31
0.0
  0
LINE
  5
1C6
330
1BD
100
AcDbEntity
  8
CSLAYER1
 62
     7
100
AcDbLine
 10
123.2022622085
 20
181.8121850471
 30
0.0
 11
104.5220804446
 21
181.8121850471
 31
0.0
  0
MTEXT
  5
1C7
330
1BD
100
AcDbEntity
  8
CSLAYER1
 62
     7
100
AcDbMText
 10
106.1095804446
 20
185.93720228
 30
0.0
 40
3.2
 41
0.0
 71
     1
 72
     1
  1
(
  7
SLDTEXTSTYLE2
 73
     1
 44
1.0
  0
MTEXT
  5
1C8
330
1BD
100
AcDbEntity
  8
CSLAYER1
 62
     7
100
AcDbMText
 10
108.3306839928
 20
185.93720228
 30
0.0
 40
3.2
 41
0.0
 71
     1
 72
     1
  1
0.5
  7
SLDTEXTSTYLE2
 73
     1
 44
1.0
  0
MTEXT
  5
1C9
330
1BD
100
AcDbEntity
  8
CSLAYER1
 62
     7
100
AcDbMText
 10
115.5461684243
 20
185.93720228
 30
0.0
 40
3.2
 41
0.0
 71
     1
 72
     1
  1
)
  7
SLDTEXTSTYLE2
 73
     1
 44
1.0
  0
ENDBLK
  5
1BF
330
1BD
100
AcDbEntity
  8
0
100
AcDbBlockEnd
  0
BLOCK
  5
1CC
330
1CB
100
AcDbEntity
  8
0
100
AcDbBlockBegin
  2
*D18
 70
     1
 10
0.0
 20
0.0
 30
0.0
  3
*D18
  1

  0
INSERT
  5
1CE
330
1CB
100
AcDbEntity
  8
CSLAYER1
 62
     7
100
AcDbBlockReference
  2
_OPEN30
 10
100.6215842085
 20
109.4588110471
 30
0.1
 41
5.9944
 42
5.9944
 50
270.0
  0
INSERT
  5
1CF
330
1CB
100
AcDbEntity
  8
CSLAYER1
 62
     7
100
AcDbBlockReference
  2
_OPEN30
 10
100.6215842085
 20
90.4588110471
 30
0.1
 41
5.9944
 42
5.9944
 50
90.0
  0
LINE
  5
1D0
330
1CB
100
AcDbEntity
  8
CSLAYER1
 62
     7
100
AcDbLine
 10
112.0343562085
 20
109.4588110471
 30
0.0
 11
99.6309842085
 21
109.4588110471
 31
0.0
  0
LINE
  5
1D1
330
1CB
100
AcDbEntity
  8
CSLAYER1
 62
     7
100
AcDbLine
 10
112.0343562085
 20
90.4588110471
 30
0.0
 11
99.6309842085
 21
90.4588110471
 31
0.0
  0
LINE
  5
1D2
330
1CB
100
AcDbEntity
  8
CSLAYER1
 62
     7
100
AcDbLine
 10
100.6215842085
 20
109.4588110471
 30
0.0
 11
100.6215842085
 21
121.4476110471
 31
0.0
  0
LINE
  5
1D3
330
1CB
100
AcDbEntity
  8
CSLAYER1
 62
     7
100
AcDbLine
 10
100.6215842085
 20
109.4588110471
 30
0.0
 11
100.6215842085
 21
90.4588110471
 31
0.0
  0
LINE
  5
1D4
330
1CB
100
AcDbEntity
  8
CSLAYER1
 62
     7
100
AcDbLine
 10
100.6215842085
 20
90.4588110471
 30
0.0
 11
100.6215842085
 21
78.4700110471
 31
0.0
  0
MTEXT
  5
1D5
330
1CB
100
AcDbEntity
  8
CSLAYER1
 62
     7
100
AcDbMText
 10
96.4965669756
 20
97.1839816618
 30
0.0
 40
3.2
 41
0.0
 71
     1
 72
     1
  1
19
  7
SLDTEXTSTYLE2
 11
-7.044195017643634E-15
 21
1.0
 31
0.0
 73
     1
 44
1.0
  0
ENDBLK
  5
1CD
330
1CB
100
AcDbEntity
  8
0
100
AcDbBlockEnd
  0
ENDSEC
  0
SECTION
  2
ENTITIES
  0
LINE
  5
9B
330
1F
100
AcDbEntity
  8
CSLAYER1
  6
Continuous
 62
     7
100
AcDbLine
 10
232.1589942085
 20
145.5291630471
 30
0.0
 11
232.1589942085
 21
153.0291630471
 31
0.0
  0
LINE
  5
9C
330
1F
100
AcDbEntity
  8
CSLAYER1
  6
Continuous
 62
     7
100
AcDbLine
 10
233.1589942085
 20
154.0291630471
 30
0.0
 11
259.0205152085
 21
154.0291630471
 31
0.0
  0
LINE
  5
9D
330
1F
100
AcDbEntity
  8
CSLAYER1
  6
Continuous
 62
     7
100
AcDbLine
 10
260.0205152085
 20
155.0291630471
 30
0.0
 11
260.0205152085
 21
162.5291630471
 31
0.0
  0
LINE
  5
9E
330
1F
100
AcDbEntity
  8
CSLAYER1
  6
Continuous
 62
     7
100
AcDbLine
 10
251.8343172085
 20
162.5291630471
 30
0.0
 11
251.8343172085
 21
154.5291630471
 31
0.0
  0
LINE
  5
9F
330
1F
100
AcDbEntity
  8
CSLAYER1
  6
Continuous
 62
     7
100
AcDbLine
 10
251.8343172085
 20
154.5291630471
 30
0.0
 11
251.3343172085
 21
154.0291630471
 31
0.0
  0
LINE
  5
A0
330
1F
100
AcDbEntity
  8
CSLAYER1
  6
Continuous
 62
     7
100
AcDbLine
 10
272.0897552529
 20
162.5291629508
 30
0.0
 11
323.0920942529
 21
161.2101369508
 31
0.0
  0
LINE
  5
A1
330
1F
100
AcDbEntity
  8
CSLAYER1
  6
Continuous
 62
     7
100
AcDbLine
 10
323.0920942085
 20
146.8481890471
 30
0.0
 11
272.0897552085
 21
145.5291630471
 31
0.0
  0
LINE
  5
A2
330
1F
100
AcDbEntity
  8
CSLAYER1
  6
Continuous
 62
     7
100
AcDbLine
 10
272.0897552085
 20
145.5291630471
 30
0.0
 11
171.0897552085
 21
145.5291630471
 31
0.0
  0
LINE
  5
A3
330
1F
100
AcDbEntity
  8
CSLAYER1
  6
Continuous
 62
     7
100
AcDbLine
 10
171.0897552085
 20
145.5291630471
 30
0.0
 11
171.0897552085
 21
146.5291630471
 31
0.0
  0
LINE
  5
A4
330
1F
100
AcDbEntity
  8
CSLAYER1
  6
Continuous
 62
     7
100
AcDbLine
 10
186.2884392529
 20
153.5291629508
 30
0.0
 11
195.0897552529
 21
153.5291629508
 31
0.0
  0
LINE
  5
A5
330
1F
100
AcDbEntity
  8
CSLAYER1
  6
Continuous
 62
     7
100
AcDbLine
 10
197.0897552529
 20
155.5291629508
 30
0.0
 11
197.0897552529
 21
162.5291629508
 31
0.0
  0
LINE
  5
A6
330
1F
100
AcDbEntity
  8
CSLAYER1
  6
Continuous
 62
     7
100
AcDbLine
 10
197.0897552529
 20
162.5291629508
 30
0.0
 11
272.0897552529
 21
162.5291629508
 31
0.0
  0
LINE
  5
A7
330
1F
100
AcDbEntity
  8
CSLAYER1
  6
Continuous
 62
     7
100
AcDbLine
 10
266.0897552085
 20
188.9588110471
 30
0.0
 11
321.0416672085
 21
194.1105530471
 31
0.0
  0
LINE
  5
A8
330
1F
100
AcDbEntity
  8
CSLAYER1
  6
Continuous
 62
     7
100
AcDbLine
 10
330.0897546261
 20
203.4588110853
 30
0.0
 11
263.8759850625
 21
203.4588110853
 31
0.0
  0
LINE
  5
A9
330
1F
100
AcDbEntity
  8
CSLAYER1
  6
Continuous
 62
     7
100
AcDbLine
 10
260.0205152085
 20
188.9588110471
 30
0.0
 11
264.4536102085
 21
203.4588110471
 31
0.0
  0
LINE
  5
AA
330
1F
100
AcDbEntity
  8
CSLAYER1
  6
Continuous
 62
     7
100
AcDbLine
 10
263.8759849743
 20
206.4588108203
 30
0.0
 11
330.0897549743
 21
206.4588108203
 31
0.0
  0
LINE
  5
AB
330
1F
100
AcDbEntity
  8
CSLAYER1
  6
Continuous
 62
     7
100
AcDbLine
 10
321.041667288
 20
215.8070693084
 30
0.0
 11
266.0897552085
 21
220.9588110471
 31
0.0
  0
LINE
  5
AC
330
1F
100
AcDbEntity
  8
CSLAYER1
  6
Continuous
 62
     7
100
AcDbLine
 10
266.0897552085
 20
220.9588110471
 30
0.0
 11
187.0897552085
 21
220.9588110471
 31
0.0
  0
LINE
  5
AD
330
1F
100
AcDbEntity
  8
CSLAYER1
  6
Continuous
 62
     7
100
AcDbLine
 10
187.0897552085
 20
188.9588110471
 30
0.0
 11
266.0897552085
 21
188.9588110471
 31
0.0
  0
LINE
  5
AE
330
1F
100
AcDbEntity
  8
CSLAYER1
  6
Continuous
 62
     7
100
AcDbLine
 10
316.0897552085
 20
203.4588110471
 30
0.0
 11
316.0897552085
 21
206.4588110471
 31
0.0
  0
LINE
  5
AF
330
1F
100
AcDbEntity
  8
CSLAYER1
  6
Continuous
 62
     7
100
AcDbLine
 10
324.0897552085
 20
206.4588110471
 30
0.0
 11
324.0897552085
 21
203.4588110471
 31
0.0
  0
LINE
  5
B0
330
1F
100
AcDbEntity
  8
CSLAYER1
  6
Continuous
 62
     7
100
AcDbLine
 10
232.1589942085
 20
220.9588110471
 30
0.0
 11
227.5333442085
 21
205.8289920471
 31
0.0
  0
LINE
  5
B1
330
1F
100
AcDbEntity
  8
CSLAYER1
  6
Continuous
 62
     7
100
AcDbLine
 10
227.5333442085
 20
205.8289920471
 30
0.0
 11
226.9666712085
 21
205.2623190471
 31
0.0
  0
LINE
  5
B2
330
1F
100
AcDbEntity
  8
CSLAYER1
  6
Continuous
 62
     7
100
AcDbLine
 10
225.8104547625
 20
205.4588110037
 30
0.0
 11
196.0897547625
 21
205.4588110037
 31
0.0
  0
LINE
  5
B3
330
1F
100
AcDbEntity
  8
CSLAYER1
  6
Continuous
 62
     7
100
AcDbLine
 10
196.0897552085
 20
204.9588110471
 30
0.0
 11
171.0897552085
 21
204.9588110471
 31
0.0
  0
LINE
  5
B4
330
1F
100
AcDbEntity
  8
CSLAYER1
  6
Continuous
 62
     7
100
AcDbLine
 10
171.2786042085
 20
207.4098320471
 30
0.0
 11
196.0897552085
 21
207.4098320471
 31
0.0
  0
LINE
  5
B5
330
1F
100
AcDbEntity
  8
CSLAYER1
  6
Continuous
 62
     7
100
AcDbLine
 10
196.0897547625
 20
204.4588110037
 30
0.0
 11
225.8104547625
 21
204.4588110037
 31
0.0
  0
LINE
  5
B6
330
1F
100
AcDbEntity
  8
CSLAYER1
  6
Continuous
 62
     7
100
AcDbLine
 10
196.0897552085
 20
202.5077900471
 30
0.0
 11
171.2786042085
 21
202.5077900471
 31
0.0
  0
LINE
  5
B7
330
1F
100
AcDbEntity
  8
CSLAYER1
  6
Continuous
 62
     7
100
AcDbLine
 10
131.2022622477
 20
193.1372200733
 30
0.0
 11
131.2022622477
 21
188.9588110733
 31
0.0
  0
LINE
  5
B8
330
1F
100
AcDbEntity
  8
CSLAYER1
  6
Continuous
 62
     7
100
AcDbLine
 10
131.2022622477
 20
188.9588110733
 30
0.0
 11
123.7022622477
 21
188.9588110733
 31
0.0
  0
LINE
  5
B9
330
1F
100
AcDbEntity
  8
CSLAYER1
  6
Continuous
 62
     7
100
AcDbLine
 10
123.7022622477
 20
188.9588110733
 30
0.0
 11
123.7022622477
 21
201.6588110733
 31
0.0
  0
LINE
  5
BA
330
1F
100
AcDbEntity
  8
CSLAYER1
  6
Continuous
 62
     7
100
AcDbLine
 10
123.4022622477
 20
201.9588110733
 30
0.0
 11
123.2022622477
 21
201.9588110733
 31
0.0
  0
LINE
  5
BB
330
1F
100
AcDbEntity
  8
CSLAYER1
  6
Continuous
 62
     7
100
AcDbLine
 10
123.2022622477
 20
201.9588110733
 30
0.0
 11
123.2022622477
 21
207.9588110733
 31
0.0
  0
LINE
  5
BC
330
1F
100
AcDbEntity
  8
CSLAYER1
  6
Continuous
 62
     7
100
AcDbLine
 10
123.2022622477
 20
207.9588110733
 30
0.0
 11
123.4022622477
 21
207.9588110733
 31
0.0
  0
LINE
  5
BD
330
1F
100
AcDbEntity
  8
CSLAYER1
  6
Continuous
 62
     7
100
AcDbLine
 10
123.7022622477
 20
208.2588110733
 30
0.0
 11
123.7022622477
 21
220.9588110733
 31
0.0
  0
LINE
  5
BE
330
1F
100
AcDbEntity
  8
CSLAYER1
  6
Continuous
 62
     7
100
AcDbLine
 10
123.7022622477
 20
220.9588110733
 30
0.0
 11
131.2022620321
 21
220.9588110733
 31
0.0
  0
LINE
  5
BF
330
1F
100
AcDbEntity
  8
CSLAYER1
  6
Continuous
 62
     7
100
AcDbLine
 10
131.2022620321
 20
220.9588110733
 30
0.0
 11
131.2022620321
 21
216.7804013697
 31
0.0
  0
LINE
  5
C0
330
1F
100
AcDbEntity
  8
CSLAYER1
  6
Continuous
 62
     7
100
AcDbLine
 10
124.9184856931
 20
207.4098322572
 30
0.0
 11
123.2022622085
 21
204.9588110471
 31
0.0
  0
LINE
  5
C1
330
1F
100
AcDbEntity
  8
CSLAYER1
  6
Continuous
 62
     7
100
AcDbLine
 10
123.2022622085
 20
204.9588110471
 30
0.0
 11
124.9184852085
 21
202.5077900471
 31
0.0
  0
LINE
  5
C2
330
1F
100
AcDbEntity
  8
CSLAYER1
  6
Continuous
 62
     7
100
AcDbLine
 10
171.0897552085
 20
146.0291630471
 30
0.0
 11
196.9864772085
 21
146.0291630471
 31
0.0
  0
LINE
  5
C3
330
1F
100
AcDbEntity
  8
CSLAYER1
  6
Continuous
 62
     7
100
AcDbLine
 10
240.3451922085
 20
145.5291630471
 30
0.0
 11
240.3451922085
 21
153.5291630471
 31
0.0
  0
LINE
  5
C4
330
1F
100
AcDbEntity
  8
CSLAYER1
  6
Continuous
 62
     7
100
AcDbLine
 10
240.3451922085
 20
153.5291630471
 30
0.0
 11
240.8451922085
 21
154.0291630471
 31
0.0
  0
LINE
  5
C5
330
1F
100
AcDbEntity
  8
CSLAYER1
  6
Continuous
 62
     7
100
AcDbLine
 10
197.0897552085
 20
188.9588110471
 30
0.0
 11
197.0897552085
 21
204.4588110471
 31
0.0
  0
LINE
  5
C6
330
1F
100
AcDbEntity
  8
CSLAYER1
  6
Continuous
 62
     7
100
AcDbLine
 10
196.0897552085
 20
216.7804010471
 30
0.0
 11
176.3078252085
 21
216.7804010471
 31
0.0
  0
LINE
  5
C7
330
1F
100
AcDbEntity
  8
CSLAYER1
  6
Continuous
 62
     7
100
AcDbLine
 10
176.3078252085
 20
193.1372200471
 30
0.0
 11
196.0897552085
 21
193.1372200471
 31
0.0
  0
LINE
  5
C8
330
1F
100
AcDbEntity
  8
CSLAYER1
  6
Continuous
 62
     7
100
AcDbLine
 10
296.0499522085
 20
113.9236350471
 30
0.0
 11
337.0499522085
 21
113.9236350471
 31
0.0
  0
LINE
  5
C9
330
1F
100
AcDbEntity
  8
CSLAYER1
  6
Continuous
 62
     7
100
AcDbLine
 10
337.0499522085
 20
103.9236350471
 30
0.0
 11
296.0499522085
 21
103.9236350471
 31
0.0
  0
LINE
  5
CA
330
1F
100
AcDbEntity
  8
CSLAYER1
  6
CENTER
 62
     7
100
AcDbLine
 10
246.0897552085
 20
141.9277330471
 30
0.0
 11
246.0897552085
 21
165.9811090471
 31
0.0
  0
LINE
  5
CB
330
1F
100
AcDbEntity
  8
CSLAYER1
  6
CENTER
 62
     7
100
AcDbLine
 10
233.1589942085
 20
154.0291630471
 30
0.0
 11
226.2172602085
 21
154.0291630471
 31
0.0
  0
LINE
  5
CC
330
1F
100
AcDbEntity
  8
CSLAYER1
  6
HIDDEN
 62
     7
100
AcDbLine
 10
197.0897552529
 20
155.5291629508
 30
0.0
 11
197.0897552529
 21
146.5291629508
 31
0.0
  0
LINE
  5
CD
330
1F
100
AcDbEntity
  8
CSLAYER1
  6
CENTER
 62
     7
100
AcDbLine
 10
196.0897552085
 20
204.9588110471
 30
0.0
 11
338.3206642085
 21
204.9588110471
 31
0.0
  0
LINE
  5
CE
330
1F
100
AcDbEntity
  8
CSLAYER1
  6
CENTER
 62
     7
100
AcDbLine
 10
320.0897552085
 20
211.3951750471
 30
0.0
 11
320.0897552085
 21
199.0315380471
 31
0.0
  0
LINE
  5
CF
330
1F
100
AcDbEntity
  8
CSLAYER1
  6
CENTER
 62
     7
100
AcDbLine
 10
272.0897552085
 20
196.8109740471
 30
0.0
 11
272.0897552085
 21
213.4588110471
 31
0.0
  0
LINE
  5
D0
330
1F
100
AcDbEntity
  8
CSLAYER1
  6
CENTER
 62
     7
100
AcDbLine
 10
246.0897552085
 20
226.8339620471
 30
0.0
 11
246.0897552085
 21
182.3030530471
 31
0.0
  0
LINE
  5
D1
330
1F
100
AcDbEntity
  8
CSLAYER1
  6
CENTER
 62
     7
100
AcDbLine
 10
259.0205152085
 20
154.0291630471
 30
0.0
 11
267.5279362085
 21
154.0291630471
 31
0.0
  0
LINE
  5
D2
330
1F
100
AcDbEntity
  8
CSLAYER1
  6
CENTER
 62
     7
100
AcDbLine
 10
323.9891492085
 20
154.0431020471
 30
0.0
 11
336.0812702085
 21
154.0431020471
 31
0.0
  0
LINE
  5
D3
330
1F
100
AcDbEntity
  8
CSLAYER1
  6
CENTER
 62
     7
100
AcDbLine
 10
171.0897552085
 20
204.9588110471
 30
0.0
 11
165.2183262085
 21
204.9588110471
 31
0.0
  0
LINE
  5
D4
330
1F
100
AcDbEntity
  8
CSLAYER1
  6
CENTER
 62
     7
100
AcDbLine
 10
134.8373662085
 20
204.9588110471
 30
0.0
 11
120.0662232085
 21
204.9588110471
 31
0.0
  0
LINE
  5
D5
330
1F
100
AcDbEntity
  8
CSLAYER1
  6
Continuous
 62
     7
100
AcDbLine
 10
196.0897547625
 20
205.4588110037
 30
0.0
 11
196.0897547625
 21
204.4588110037
 31
0.0
  0
LINE
  5
D6
330
1F
100
AcDbEntity
  8
CSLAYER1
  6
Continuous
 62
     7
100
AcDbLine
 10
197.0897552085
 20
205.4588110471
 30
0.0
 11
197.0897552085
 21
220.9588110471
 31
0.0
  0
LINE
  5
D7
330
1F
100
AcDbEntity
  8
CSLAYER1
  6
Continuous
 62
     7
100
AcDbLine
 10
187.4208574192
 20
116.0887317747
 30
0.0
 11
130.9227484192
 21
123.3032697747
 31
0.0
  0
LINE
  5
D8
330
1F
100
AcDbEntity
  8
CSLAYER1
  6
Continuous
 62
     7
100
AcDbLine
 10
175.6289702085
 20
117.5944990471
 30
0.0
 11
169.1241352085
 21
103.1724620471
 31
0.0
  0
LINE
  5
D9
330
1F
100
AcDbEntity
  8
CSLAYER1
  6
Continuous
 62
     7
100
AcDbLine
 10
169.1241352085
 20
103.1724620471
 30
0.0
 11
168.4902472085
 21
102.6821320471
 31
0.0
  0
LINE
  5
DA
330
1F
100
AcDbEntity
  8
CSLAYER1
  6
Continuous
 62
     7
100
AcDbLine
 10
167.3682335494
 20
103.0234947326
 30
0.0
 11
137.8869232085
 21
106.7881170471
 31
0.0
  0
LINE
  5
DB
330
1F
100
AcDbEntity
  8
CSLAYER1
  6
Continuous
 62
     7
100
AcDbLine
 10
137.8235902085
 20
106.2921440471
 30
0.0
 11
113.024956789
 21
109.4588107479
 31
0.0
  0
LINE
  5
DC
330
1F
100
AcDbEntity
  8
CSLAYER1
  6
Continuous
 62
     7
100
AcDbLine
 10
113.5227472085
 20
111.8661690471
 30
0.0
 11
138.1340522085
 21
108.7234230471
 31
0.0
  0
LINE
  5
DD
330
1F
100
AcDbEntity
  8
CSLAYER1
  6
Continuous
 62
     7
100
AcDbLine
 10
139.3209908773
 20
118.0185153858
 30
0.0
 11
119.6983992085
 21
120.5242270471
 31
0.0
  0
LINE
  5
DE
330
1F
100
AcDbEntity
  8
CSLAYER1
  6
CENTER
 62
     7
100
AcDbLine
 10
108.3137692085
 20
99.9588110471
 30
0.0
 11
199.3653362085
 21
99.9588110471
 31
0.0
  0
LINE
  5
DF
330
1F
100
AcDbEntity
  8
CSLAYER1
  6
CENTER
 62
     7
100
AcDbLine
 10
187.4208572085
 20
121.8339620471
 30
0.0
 11
187.4208572085
 21
77.3030530471
 31
0.0
  0
LINE
  5
E0
330
1F
100
AcDbEntity
  8
CSLAYER1
  6
Continuous
 62
     7
100
AcDbLine
 10
137.8869232085
 20
106.7881170471
 30
0.0
 11
137.8235902085
 21
106.2921440471
 31
0.0
  0
LINE
  5
E1
330
1F
100
AcDbEntity
  8
CSLAYER1
  6
Continuous
 62
     7
100
AcDbLine
 10
138.8788682085
 20
106.6614500471
 30
0.0
 11
140.8422022085
 21
122.0366030471
 31
0.0
  0
LINE
  5
E2
330
1F
100
AcDbEntity
  8
CSLAYER1
  6
Continuous
 62
     7
100
AcDbLine
 10
199.9719124192
 20
85.4315993194
 30
0.0
 11
130.9227484192
 21
76.6143523194
 31
0.0
  0
LINE
  5
E3
330
1F
100
AcDbEntity
  8
CSLAYER1
  6
Continuous
 62
     7
100
AcDbLine
 10
167.3682335494
 20
96.8941273615
 30
0.0
 11
137.8869232085
 21
93.1295050471
 31
0.0
  0
LINE
  5
E4
330
1F
100
AcDbEntity
  8
CSLAYER1
  6
Continuous
 62
     7
100
AcDbLine
 10
137.8235902085
 20
93.6254780471
 30
0.0
 11
113.024956789
 21
90.4588113462
 31
0.0
  0
LINE
  5
E5
330
1F
100
AcDbEntity
  8
CSLAYER1
  6
Continuous
 62
     7
100
AcDbLine
 10
113.5227472085
 20
88.0514530471
 30
0.0
 11
138.1340522085
 21
91.1941990471
 31
0.0
  0
LINE
  5
E6
330
1F
100
AcDbEntity
  8
CSLAYER1
  6
Continuous
 62
     7
100
AcDbLine
 10
139.3209908773
 20
81.8991057083
 30
0.0
 11
119.6983992085
 21
79.3933950471
 31
0.0
  0
LINE
  5
E7
330
1F
100
AcDbEntity
  8
CSLAYER1
  6
Continuous
 62
     7
100
AcDbLine
 10
137.8869232085
 20
93.1295050471
 30
0.0
 11
137.8235902085
 21
93.6254780471
 31
0.0
  0
LINE
  5
E8
330
1F
100
AcDbEntity
  8
CSLAYER1
  6
Continuous
 62
     7
100
AcDbLine
 10
138.8788682085
 20
93.2561720471
 30
0.0
 11
140.8422022085
 21
77.8810190471
 31
0.0
  0
LINE
  5
E9
330
1F
100
AcDbEntity
  8
CSLAYER1
  6
Continuous
 62
     7
100
AcDbLine
 10
195.5970461521
 20
117.1327920978
 30
0.0
 11
179.695898257
 21
115.1022918756
 31
0.0
  0
LINE
  5
EA
330
1F
100
AcDbEntity
  8
CSLAYER1
  6
Continuous
 62
     7
100
AcDbLine
 10
79.8267192085
 20
109.4588110471
 30
0.0
 11
79.8267192085
 21
112.4588110471
 31
0.0
  0
LINE
  5
EB
330
1F
100
AcDbEntity
  8
CSLAYER1
  6
Continuous
 62
     7
100
AcDbLine
 10
79.8267192085
 20
112.4588110471
 30
0.0
 11
80.0267192085
 21
112.4588110471
 31
0.0
  0
LINE
  5
EC
330
1F
100
AcDbEntity
  8
CSLAYER1
  6
Continuous
 62
     7
100
AcDbLine
 10
80.3267192085
 20
112.7588110471
 30
0.0
 11
80.3267192085
 21
125.4588110471
 31
0.0
  0
LINE
  5
ED
330
1F
100
AcDbEntity
  8
CSLAYER1
  6
Continuous
 62
     7
100
AcDbLine
 10
80.3267192085
 20
125.4588110471
 30
0.0
 11
87.8267189405
 21
125.4588110471
 31
0.0
  0
LINE
  5
EE
330
1F
100
AcDbEntity
  8
CSLAYER1
  6
Continuous
 62
     7
100
AcDbLine
 10
87.8267189405
 20
125.4588110471
 30
0.0
 11
87.8267189405
 21
121.2804012268
 31
0.0
  0
LINE
  5
EF
330
1F
100
AcDbEntity
  8
CSLAYER1
  6
Continuous
 62
     7
100
AcDbLine
 10
81.5429426931
 20
111.9098322572
 30
0.0
 11
79.8267192085
 21
109.4588110471
 31
0.0
  0
LINE
  5
F0
330
1F
100
AcDbEntity
  8
CSLAYER1
  6
CENTER
 62
     7
100
AcDbLine
 10
91.4618232085
 20
99.9588110471
 30
0.0
 11
76.6906802085
 21
99.9588110471
 31
0.0
  0
LINE
  5
F1
330
1F
100
AcDbEntity
  8
CSLAYER1
  6
Continuous
 62
     7
100
AcDbLine
 10
79.8267192085
 20
90.4588110471
 30
0.0
 11
79.8267192085
 21
87.4588110471
 31
0.0
  0
LINE
  5
F2
330
1F
100
AcDbEntity
  8
CSLAYER1
  6
Continuous
 62
     7
100
AcDbLine
 10
79.8267192085
 20
87.4588110471
 30
0.0
 11
80.0267192085
 21
87.4588110471
 31
0.0
  0
LINE
  5
F3
330
1F
100
AcDbEntity
  8
CSLAYER1
  6
Continuous
 62
     7
100
AcDbLine
 10
80.3267192085
 20
87.1588110471
 30
0.0
 11
80.3267192085
 21
74.4588110471
 31
0.0
  0
LINE
  5
F4
330
1F
100
AcDbEntity
  8
CSLAYER1
  6
Continuous
 62
     7
100
AcDbLine
 10
80.3267192085
 20
74.4588110471
 30
0.0
 11
87.8267195824
 21
74.4588110471
 31
0.0
  0
LINE
  5
F5
330
1F
100
AcDbEntity
  8
CSLAYER1
  6
Continuous
 62
     7
100
AcDbLine
 10
87.8267195824
 20
74.4588110471
 30
0.0
 11
87.8267195824
 21
78.6372202978
 31
0.0
  0
LINE
  5
F6
330
1F
100
AcDbEntity
  8
CSLAYER1
  6
Continuous
 62
     7
100
AcDbLine
 10
81.5429426931
 20
88.0077898369
 30
0.0
 11
79.8267192085
 21
90.4588110471
 31
0.0
  0
LINE
  5
F7
330
1F
100
AcDbEntity
  8
SLD-0
100
AcDbLine
 10
334.4999964925
 20
24.4999957746
 30
0.0
 11
334.4999964925
 21
36.9999957746
 31
0.0
  0
LINE
  5
F8
330
1F
100
AcDbEntity
  8
SLD-0
100
AcDbLine
 10
16.9999964925
 20
11.9999957746
 30
0.0
 11
402.9999964925
 21
11.9999957746
 31
0.0
  0
LINE
  5
F9
330
1F
100
AcDbEntity
  8
SLD-0
100
AcDbLine
 10
16.9999964925
 20
11.9999957746
 30
0.0
 11
16.9999964925
 21
284.9999957746
 31
0.0
  0
LINE
  5
FA
330
1F
100
AcDbEntity
  8
SLD-0
100
AcDbLine
 10
16.9999964925
 20
284.9999957746
 30
0.0
 11
402.9999964925
 21
284.9999957746
 31
0.0
  0
LINE
  5
FB
330
1F
100
AcDbEntity
  8
SLD-0
100
AcDbLine
 10
402.9999964925
 20
11.9999957746
 30
0.0
 11
402.9999964925
 21
284.9999957746
 31
0.0
  0
LINE
  5
FC
330
1F
100
AcDbEntity
  8
SLD-0
100
AcDbLine
 10
402.9999964925
 20
24.4999957746
 30
0.0
 11
334.4999964925
 21
24.4999957746
 31
0.0
  0
LINE
  5
FD
330
1F
100
AcDbEntity
  8
SLD-0
100
AcDbLine
 10
334.4999964925
 20
11.9999957746
 30
0.0
 11
334.4999964925
 21
24.4999957746
 31
0.0
  0
LINE
  5
FE
330
1F
100
AcDbEntity
  8
SLD-0
100
AcDbLine
 10
334.4999964925
 20
36.9999957746
 30
0.0
 11
402.9999964925
 21
36.9999957746
 31
0.0
  0
LINE
  5
FF
330
1F
100
AcDbEntity
  8
SLD-0
100
AcDbLine
 10
334.4999964925
 20
36.9999957746
 30
0.0
 11
334.4999964925
 21
49.4999957746
 31
0.0
  0
LINE
  5
100
330
1F
100
AcDbEntity
  8
SLD-0
100
AcDbLine
 10
334.4999964925
 20
49.4999957746
 30
0.0
 11
402.9999964925
 21
49.4999957746
 31
0.0
  0
ARC
  5
101
330
1F
100
AcDbEntity
  8
CSLAYER1
  6
Continuous
 62
     7
100
AcDbCircle
 10
233.1589942085
 20
153.0291630471
 30
0.0
 40
1.0
100
AcDbArc
 50
90.0
 51
180.0
  0
ARC
  5
102
330
1F
100
AcDbEntity
  8
CSLAYER1
  6
Continuous
 62
     7
100
AcDbCircle
 10
259.0205152085
 20
155.0291630471
 30
0.0
 40
1.0
100
AcDbArc
 50
270.0
 51
0.0
  0
ARC
  5
103
330
1F
100
AcDbEntity
  8
CSLAYER1
  6
Continuous
 62
     7
100
AcDbCircle
 10
322.9063802085
 20
154.0291630471
 30
0.0
 40
7.183375000000012
100
AcDbArc
 50
270.0
 51
90.0
  0
ARC
  5
104
330
1F
100
AcDbEntity
  8
CSLAYER1
  6
Continuous
 62
     7
100
AcDbCircle
 10
186.2884392529
 20
133.5291630091
 30
0.0
 40
19.99999994164822
100
AcDbArc
 50
90.0
 51
139.4583978405
  0
ARC
  5
105
330
1F
100
AcDbEntity
  8
CSLAYER1
  6
Continuous
 62
     7
100
AcDbCircle
 10
195.0897552529
 20
155.5291629508
 30
0.0
 40
2.0
100
AcDbArc
 50
270.0
 51
0.0
  0
ARC
  5
106
330
1F
100
AcDbEntity
  8
CSLAYER1
  6
Continuous
 62
     7
100
AcDbCircle
 10
320.1082601961
 20
204.0668951803
 30
0.0
 40
9.999999866215363
100
AcDbArc
 50
275.3558246863
 51
356.513784
  0
ARC
  5
107
330
1F
100
AcDbEntity
  8
CSLAYER1
  6
Continuous
 62
     7
100
AcDbCircle
 10
263.8759850625
 20
204.2588110853
 30
0.0
 40
0.799999999999983
100
AcDbArc
 50
177.746214
 51
270.0
  0
ARC
  5
108
330
1F
100
AcDbEntity
  8
CSLAYER1
  6
Continuous
 62
     7
100
AcDbCircle
 10
246.0897546601
 20
204.9588111224
 30
0.0
 40
17.00000000000003
100
AcDbArc
 50
289.749923
 51
2.253786
  0
ARC
  5
109
330
1F
100
AcDbEntity
  8
CSLAYER1
  6
Continuous
 62
     7
100
AcDbCircle
 10
263.8759849743
 20
205.6588111347
 30
0.0
 40
0.7999996855744144
100
AcDbArc
 50
90.0
 51
182.2537875196
  0
ARC
  5
10A
330
1F
100
AcDbEntity
  8
CSLAYER1
  6
Continuous
 62
     7
100
AcDbCircle
 10
320.1082601885
 20
205.8507268334
 30
0.0
 40
10.00000021465203
100
AcDbArc
 50
3.4862152584
 51
84.644175
  0
ARC
  5
10B
330
1F
100
AcDbEntity
  8
CSLAYER1
  6
Continuous
 62
     7
100
AcDbCircle
 10
187.0897552085
 20
204.9588110471
 30
0.0
 40
16.0
100
AcDbArc
 50
90.0
 51
270.0
  0
CIRCLE
  5
10C
330
1F
100
AcDbEntity
  8
CSLAYER1
  6
Continuous
 62
     7
100
AcDbCircle
 10
246.0897546601
 20
204.9588111224
 30
0.0
 40
9.550000000000004
  0
CIRCLE
  5
10D
330
1F
100
AcDbEntity
  8
CSLAYER1
  6
Continuous
 62
     7
100
AcDbCircle
 10
246.0897546601
 20
204.9588111224
 30
0.0
 40
2.749999999999949
  0
ARC
  5
10E
330
1F
100
AcDbEntity
  8
CSLAYER1
  6
Continuous
 62
     7
100
AcDbCircle
 10
246.0897546601
 20
204.9588111224
 30
0.0
 40
17.00000000000002
100
AcDbArc
 50
109.749923
 51
171.585032
  0
ARC
  5
10F
330
1F
100
AcDbEntity
  8
CSLAYER1
  6
Continuous
 62
     7
100
AcDbCircle
 10
225.8104547625
 20
201.9588110037
 30
0.0
 40
3.5
100
AcDbArc
 50
58.997281
 51
90.0
  0
ARC
  5
110
330
1F
100
AcDbEntity
  8
CSLAYER1
  6
Continuous
 62
     7
100
AcDbCircle
 10
196.0897552085
 20
206.4098320471
 30
0.0
 40
1.0
100
AcDbArc
 50
0.0
 51
90.0
  0
ARC
  5
111
330
1F
100
AcDbEntity
  8
CSLAYER1
  6
Continuous
 62
     7
100
AcDbCircle
 10
225.8104547625
 20
207.9588111072
 30
0.0
 40
3.500000103536568
100
AcDbArc
 50
270.0
 51
351.5850320052
  0
ARC
  5
112
330
1F
100
AcDbEntity
  8
CSLAYER1
  6
Continuous
 62
     7
100
AcDbCircle
 10
196.0897552085
 20
203.5077900471
 30
0.0
 40
1.0
100
AcDbArc
 50
270.0
 51
0.0
  0
ARC
  5
113
330
1F
100
AcDbEntity
  8
CSLAYER1
  6
Continuous
 62
     7
100
AcDbCircle
 10
123.4022622477
 20
201.6588110733
 30
0.0
 40
0.3000000000000114
100
AcDbArc
 50
0.0
 51
90.0
  0
ARC
  5
114
330
1F
100
AcDbEntity
  8
CSLAYER1
  6
Continuous
 62
     7
100
AcDbCircle
 10
123.4022622477
 20
208.2588110733
 30
0.0
 40
0.3000000000000114
100
AcDbArc
 50
270.0
 51
0.0
  0
ARC
  5
115
330
1F
100
AcDbEntity
  8
CSLAYER1
  6
Continuous
 62
     7
100
AcDbCircle
 10
138.7022622339
 20
204.9588110516
 30
0.0
 40
14.00000002419013
100
AcDbArc
 50
122.3923664013
 51
169.9170970364
  0
ARC
  5
116
330
1F
100
AcDbEntity
  8
CSLAYER1
  6
Continuous
 62
     7
100
AcDbCircle
 10
138.7022622339
 20
204.9588110516
 30
0.0
 40
14.00000046606161
100
AcDbArc
 50
190.0829018061
 51
237.6076357912
  0
ARC
  5
117
330
1F
100
AcDbEntity
  8
CSLAYER1
  6
Continuous
 62
     7
100
AcDbCircle
 10
196.9864772085
 20
108.5291630471
 30
0.0
 40
37.5
100
AcDbArc
 50
80.633211
 51
90.0
  0
ARC
  5
118
330
1F
100
AcDbEntity
  8
CSLAYER1
  6
Continuous
 62
     7
100
AcDbCircle
 10
196.0897552085
 20
215.7804010471
 30
0.0
 40
1.0
100
AcDbArc
 50
0.0
 51
90.0
  0
ARC
  5
119
330
1F
100
AcDbEntity
  8
CSLAYER1
  6
Continuous
 62
     7
100
AcDbCircle
 10
196.0897552085
 20
194.1372200471
 30
0.0
 40
1.0
100
AcDbArc
 50
270.0
 51
0.0
  0
ARC
  5
11A
330
1F
100
AcDbEntity
  8
CSLAYER1
  6
HIDDEN
 62
     7
100
AcDbCircle
 10
196.0897552529
 20
146.5291629508
 30
0.0
 40
1.0
100
AcDbArc
 50
270.0
 51
0.0
  0
ARC
  5
11B
330
1F
100
AcDbEntity
  8
CSLAYER1
  6
Continuous
 62
     7
100
AcDbCircle
 10
128.8960824501
 20
107.4321440162
 30
0.0
 40
16.00000024349116
100
AcDbArc
 50
82.7229887528
 51
172.722986
  0
CIRCLE
  5
11C
330
1F
100
AcDbEntity
  8
CSLAYER1
  6
Continuous
 62
     7
100
AcDbCircle
 10
187.4208571521
 20
99.9588110978
 30
0.0
 40
9.550000000000004
  0
CIRCLE
  5
11D
330
1F
100
AcDbEntity
  8
CSLAYER1
  6
Continuous
 62
     7
100
AcDbCircle
 10
187.4208571521
 20
99.9588110978
 30
0.0
 40
2.750000000000039
  0
ARC
  5
11E
330
1F
100
AcDbEntity
  8
CSLAYER1
  6
Continuous
 62
     7
100
AcDbCircle
 10
187.4208571521
 20
99.9588110978
 30
0.0
 40
16.99999999999998
100
AcDbArc
 50
117.026937
 51
178.862046
  0
ARC
  5
11F
330
1F
100
AcDbEntity
  8
CSLAYER1
  6
Continuous
 62
     7
100
AcDbCircle
 10
166.9249002085
 20
99.5516860471
 30
0.0
 40
3.500000000000036
100
AcDbArc
 50
1.137954
 51
82.722986
  0
ARC
  5
120
330
1F
100
AcDbEntity
  8
CSLAYER1
  6
Continuous
 62
     7
100
AcDbCircle
 10
138.0073861819
 20
107.7314778384
 30
0.0
 40
0.9999997896452102
100
AcDbArc
 50
352.722986
 51
82.7230215527
  0
ARC
  5
121
330
1F
100
AcDbEntity
  8
CSLAYER1
  6
Continuous
 62
     7
100
AcDbCircle
 10
139.1943242085
 20
117.0265700471
 30
0.0
 40
0.9999999999999984
100
AcDbArc
 50
352.722986
 51
82.722986
  0
ARC
  5
122
330
1F
100
AcDbEntity
  8
CSLAYER1
  6
Continuous
 62
     7
100
AcDbCircle
 10
128.8960824501
 20
92.4854780779
 30
0.0
 40
16.00000024349115
100
AcDbArc
 50
187.277014
 51
277.2770112472
  0
ARC
  5
123
330
1F
100
AcDbEntity
  8
CSLAYER1
  6
Continuous
 62
     7
100
AcDbCircle
 10
166.9249002022
 20
100.3659360968
 30
0.0
 40
3.500000050139942
100
AcDbArc
 50
277.277014
 51
358.8620400679
  0
ARC
  5
124
330
1F
100
AcDbEntity
  8
CSLAYER1
  6
Continuous
 62
     7
100
AcDbCircle
 10
138.0073861819
 20
92.1861442557
 30
0.0
 40
0.9999997896451831
100
AcDbArc
 50
277.2769784473
 51
7.277014
  0
ARC
  5
125
330
1F
100
AcDbEntity
  8
CSLAYER1
  6
Continuous
 62
     7
100
AcDbCircle
 10
139.1943242085
 20
82.8910510471
 30
0.0
 40
0.9999999999999843
100
AcDbArc
 50
277.277014
 51
7.277014
  0
ARC
  5
126
330
1F
100
AcDbEntity
  8
CSLAYER1
  6
Continuous
 62
     7
100
AcDbCircle
 10
80.0267192085
 20
112.7588110471
 30
0.0
 40
0.3000000000000114
100
AcDbArc
 50
270.0
 51
0.0
  0
ARC
  5
127
330
1F
100
AcDbEntity
  8
CSLAYER1
  6
Continuous
 62
     7
100
AcDbCircle
 10
95.326719035
 20
109.4588110779
 30
0.0
 40
13.99999982371605
100
AcDbArc
 50
122.3923664013
 51
169.917097
  0
ARC
  5
128
330
1F
100
AcDbEntity
  8
CSLAYER1
  6
Continuous
 62
     7
100
AcDbCircle
 10
80.0267192085
 20
87.1588110471
 30
0.0
 40
0.3000000000000114
100
AcDbArc
 50
0.0
 51
90.0
  0
ARC
  5
129
330
1F
100
AcDbEntity
  8
CSLAYER1
  6
Continuous
 62
     7
100
AcDbCircle
 10
95.3267194507
 20
90.4588110901
 30
0.0
 40
14.00000024591573
100
AcDbArc
 50
190.082903
 51
237.6076357912
  0
INSERT
  5
12A
330
1F
100
AcDbEntity
  8
0
  6
Continuous
 62
     7
100
AcDbBlockReference
  2
FXDIM0000
 10
63.0499522085
 20
65.9236350471
 30
0.0
  0
INSERT
  5
12B
330
1F
100
AcDbEntity
  8
0
  6
Continuous
 62
     7
100
AcDbBlockReference
  2
FXDIM0001
 10
63.0499522085
 20
65.9236350471
 30
0.0
  0
INSERT
  5
12C
330
1F
100
AcDbEntity
  8
0
  6
Continuous
 62
     7
100
AcDbBlockReference
  2
FXDIM0002
 10
63.0499522085
 20
65.9236350471
 30
0.0
  0
POINT
  5
12D
330
1F
100
AcDbEntity
  8
CSLAYER1
100
AcDbPoint
 10
256.0897552085
 20
204.9588110471
 30
0.0
  0
POINT
  5
12E
330
1F
100
AcDbEntity
  8
CSLAYER1
100
AcDbPoint
 10
246.0897552085
 20
204.9588110471
 30
0.0
  0
POINT
  5
12F
330
1F
100
AcDbEntity
  8
CSLAYER1
100
AcDbPoint
 10
246.0897552085
 20
154.0291630471
 30
0.0
  0
DIMENSION
  5
130
330
1F
100
AcDbEntity
  8
CSLAYER1
 62
     7
100
AcDbDimension
  2
*D6
 10
158.1029232085
 20
188.9588110471
 30
0.0
 11
158.1029232085
 21
204.9588070471
 31
0.0
 70
   160
  1
<>~33
 71
     2
 42
-1.0
  3
SLDDIMSTYLE0
100
AcDbAlignedDimension
 13
187.0897552085
 23
220.9588110471
 33
0.0
 14
187.0897552085
 24
188.9588110471
 34
0.0
 50
90.0
100
AcDbRotatedDimension
  0
DIMENSION
  5
146
330
1F
100
AcDbEntity
  8
CSLAYER1
 62
     7
100
AcDbDimension
  2
*D7
 10
148.0965199736
 20
145.5291630471
 30
0.0
 11
148.0965199736
 21
156.5369230737
 31
0.0
 70
   160
  1
<> 
 71
     2
 42
-1.0
  3
SLDDIMSTYLE1
100
AcDbAlignedDimension
 13
197.0897552085
 23
162.5291630471
 33
0.0
 14
171.0897552085
 24
145.5291630471
 34
0.0
 50
90.0
100
AcDbRotatedDimension
  0
DIMENSION
  5
154
330
1F
100
AcDbEntity
  8
CSLAYER1
 62
     7
100
AcDbDimension
  2
*D8
 10
187.0897552085
 20
204.9588110471
 30
0.0
 11
180.4020662085
 21
197.2890320471
 31
0.0
 70
   164
  1
<>
 71
     1
 42
-1.0
  3
SLDDIMSTYLE2
100
AcDbRadialDimension
 15
176.5745052615
 25
192.8993944411
 35
0.0
 40
0.0
  0
DIMENSION
  5
15D
330
1F
100
AcDbEntity
  8
CSLAYER1
 62
     7
100
AcDbDimension
  2
*D9
 10
138.7022622085
 20
204.9588110471
 30
0.0
 11
134.8225372085
 21
199.0094600471
 31
0.0
 70
   164
  1
<>
 71
     1
 42
-1.0
  3
SLDDIMSTYLE2
100
AcDbRadialDimension
 15
131.054904362
 25
193.2320068902
 35
0.0
 40
0.0
  0
DIMENSION
  5
165
330
1F
100
AcDbEntity
  8
CSLAYER1
 62
     7
100
AcDbDimension
  2
*D10
 10
157.9371062085
 20
145.5291630471
 30
0.0
 11
157.9371062085
 21
149.5291650471
 31
0.0
 70
   160
 71
     2
 42
-1.0
  3
SLDDIMSTYLE1
100
AcDbAlignedDimension
 13
186.2884392085
 23
153.5291630471
 33
0.0
 14
186.2884392085
 24
145.5291630471
 34
0.0
 50
90.0
100
AcDbRotatedDimension
  0
DIMENSION
  5
171
330
1F
100
AcDbEntity
  8
CSLAYER1
 62
     7
100
AcDbDimension
  2
*D11
 10
197.0897552085
 20
171.5245570471
 30
0.0
 11
221.5897472085
 21
171.5245570471
 31
0.0
 70
   160
 71
     2
 42
-1.0
  3
SLDDIMSTYLE3
100
AcDbAlignedDimension
 13
246.0897552085
 23
165.9811090471
 33
0.0
 14
197.0897552085
 24
162.5291630471
 34
0.0
100
AcDbRotatedDimension
  0
DIMENSION
  5
17C
330
1F
100
AcDbEntity
  8
CSLAYER1
 62
     7
100
AcDbDimension
  2
*D12
 10
171.0897552085
 20
239.0912680471
 30
0.0
 11
208.5897472085
 21
239.0912680471
 31
0.0
 70
   160
 71
     2
 42
-1.0
  3
SLDDIMSTYLE3
100
AcDbAlignedDimension
 13
246.0897552085
 23
226.8339620471
 33
0.0
 14
171.0897552085
 24
204.9588110471
 34
0.0
100
AcDbRotatedDimension
  0
DIMENSION
  5
186
330
1F
100
AcDbEntity
  8
CSLAYER1
 62
     7
100
AcDbDimension
  2
*D13
 10
171.0897552085
 20
129.4266750471
 30
0.0
 11
187.0897552085
 21
129.4266750471
 31
0.0
 70
   160
  1
(<>)
 71
     2
 42
-1.0
  3
SLDDIMSTYLE1
100
AcDbAlignedDimension
 13
203.0897552085
 23
145.5291630471
 33
0.0
 14
171.0897552085
 24
145.5291630471
 34
0.0
100
AcDbRotatedDimension
  0
DIMENSION
  5
194
330
1F
100
AcDbEntity
  8
CSLAYER1
 62
     7
100
AcDbDimension
  2
*D14
 10
171.0897552085
 20
135.4266790471
 30
0.0
 11
183.5897552085
 21
135.4266790471
 31
0.0
 70
   160
  1
切刃部有効<>
 71
     2
 42
-1.0
  3
SLDDIMSTYLE1
100
AcDbAlignedDimension
 13
196.0897552085
 23
145.5291630471
 33
0.0
 14
171.0897552085
 24
145.5291630471
 34
0.0
100
AcDbRotatedDimension
  0
DIMENSION
  5
1A1
330
1F
100
AcDbEntity
  8
CSLAYER1
 62
     7
100
AcDbDimension
  2
*D15
 10
116.0449702085
 20
201.9588110471
 30
0.0
 11
116.0449702085
 21
204.9588070471
 31
0.0
 70
   160
  1
(<>)
 71
     2
 42
-1.0
  3
SLDDIMSTYLE1
100
AcDbAlignedDimension
 13
123.2022622085
 23
207.9588110471
 33
0.0
 14
123.2022622085
 24
201.9588110471
 34
0.0
 50
90.0
100
AcDbRotatedDimension
  0
DIMENSION
  5
1AF
330
1F
100
AcDbEntity
  8
CSLAYER1
 62
     7
100
AcDbDimension
  2
*D16
 10
123.2022622085
 20
204.9588110471
 30
0.0
 11
132.9688393293
 21
228.5554896998
 31
0.0
 70
   162
 71
     1
 42
-1.0
  3
SLDDIMSTYLE4
100
AcDb2LineAngularDimension
 13
124.9184852085
 23
207.4098320471
 33
0.0
 14
123.2022622085
 24
204.9588110471
 34
0.0
 15
123.2022622085
 25
207.9588110471
 35
0.0
 16
130.8816846356
 26
229.3148317254
 36
0.0
  0
DIMENSION
  5
1BC
330
1F
100
AcDbEntity
  8
CSLAYER1
 62
     7
100
AcDbDimension
  2
*D17
 10
123.2022622085
 20
181.8121850471
 30
0.0
 11
111.9384262085
 21
181.8121850471
 31
0.0
 70
   160
  1
(<>)
 71
     2
 42
-1.0
  3
SLDDIMSTYLE0
100
AcDbAlignedDimension
 13
123.7022622085
 23
188.9588110471
 33
0.0
 14
123.2022622085
 24
201.9588110471
 34
0.0
100
AcDbRotatedDimension
  0
DIMENSION
  5
1CA
330
1F
100
AcDbEntity
  8
CSLAYER1
 62
     7
100
AcDbDimension
  2
*D18
 10
100.6215842085
 20
90.4588110471
 30
0.0
 11
100.6215842085
 21
99.9588100471
 31
0.0
 70
   160
 71
     2
 42
-1.0
  3
SLDDIMSTYLE1
100
AcDbAlignedDimension
 13
113.0249562085
 23
109.4588110471
 33
0.0
 14
113.0249562085
 24
90.4588110471
 34
0.0
 50
90.0
100
AcDbRotatedDimension
  0
MTEXT
  5
1D7
330
1F
100
AcDbEntity
  8
CSLAYER1
 62
     7
100
AcDbMText
 10
296.7537699264
 20
120.3274732819
 30
0.0
 40
5.0
 41
0.0
 71
     1
 72
     1
  1
刃開キハ
  7
SLDTEXTSTYLE3
 73
     1
 44
1.0
  0
MTEXT
  5
1D9
330
1F
100
AcDbEntity
  8
CSLAYER1
 62
     7
100
AcDbMText
 10
296.704906763
 20
109.9037001114
 30
0.0
 40
5.0
 41
0.0
 71
     1
 72
     1
  1
切刃部有効
  7
SLDTEXTSTYLE4
 73
     1
 44
1.0
  0
MTEXT
  5
1DA
330
1F
100
AcDbEntity
  8
CSLAYER1
 62
     7
100
AcDbMText
 10
324.7356561207
 20
119.2371913642
 30
0.0
 40
5.0
 41
0.0
 71
     1
 72
     1
  1
19
  7
SLDTEXTSTYLE0
 73
     1
 44
1.0
  0
MTEXT
  5
1DB
330
1F
100
AcDbEntity
  8
CSLAYER1
 62
     7
100
AcDbMText
 10
324.704921763
 20
108.8134181937
 30
0.0
 40
5.0
 41
0.0
 71
     1
 72
     1
  1
25
  7
SLDTEXTSTYLE0
 73
     1
 44
1.0
  0
MTEXT
  5
1DC
330
1F
100
AcDbEntity
  8
CSLAYER1
 62
     7
100
AcDbMText
 10
338.9712926965
 20
44.7880725873
 30
0.0
 40
2.6458333333
 41
0.0
 71
     1
 72
     1
  1
替刃・ＧＴ－ＮＳ、ＮＲ、ＮＢ３０用
  7
SLDTEXTSTYLE2
 73
     1
 44
1.0
  0
MTEXT
  5
1DD
330
1F
100
AcDbEntity
  8
CSLAYER1
 62
     7
100
AcDbMText
 10
358.3740751293
 20
32.8223508021
 30
0.0
 40
4.7625
 41
0.0
 71
     1
 72
     1
  1
N30AJL
  7
SLDTEXTSTYLE2
 73
     1
 44
1.0
  0
MTEXT
  5
1DE
330
1F
100
AcDbEntity
  8
CSLAYER1
 62
     7
100
AcDbMText
 10
358.3740751293
 20
20.4235717698
 30
0.0
 40
4.7625
 41
0.0
 71
     1
 72
     1
  1
131470
  7
SLDTEXTSTYLE2
 73
     1
 44
1.0
  0
ENDSEC
  0
SECTION
  2
OBJECTS
  0
DICTIONARY
  5
C
330
0
100
AcDbDictionary
281
     1
  3
ACAD_GROUP
350
D
  3
ACAD_LAYOUT
350
1A
  3
ACAD_MLINESTYLE
350
17
  3
ACAD_PLOTSETTINGS
350
19
  3
ACAD_PLOTSTYLENAME
350
E
  3
ACAD_SCALELIST
350
76
  3
AcDbVariableDictionary
350
1DF
  0
DICTIONARY
  5
D
102
{ACAD_REACTORS
330
C
102
}
330
C
100
AcDbDictionary
281
     1
  0
DICTIONARY
  5
1A
102
{ACAD_REACTORS
330
C
102
}
330
C
100
AcDbDictionary
281
     1
  3
Layout1
350
1E
  3
Layout2
350
26
  3
Model
350
22
  0
DICTIONARY
  5
17
102
{ACAD_REACTORS
330
C
102
}
330
C
100
AcDbDictionary
281
     1
  3
Standard
350
18
  0
DICTIONARY
  5
19
102
{ACAD_REACTORS
330
C
102
}
330
C
100
AcDbDictionary
281
     1
  0
ACDBDICTIONARYWDFLT
  5
E
102
{ACAD_REACTORS
330
C
102
}
330
C
100
AcDbDictionary
281
     1
  3
Normal
350
F
100
AcDbDictionaryWithDefault
340
F
  0
DICTIONARY
  5
76
102
{ACAD_REACTORS
330
C
102
}
330
C
100
AcDbDictionary
281
     1
  3
A0
350
77
  3
A1
350
78
  3
A2
350
79
  3
A3
350
7A
  3
A4
350
7B
  3
A5
350
7C
  3
A6
350
7D
  3
A7
350
7E
  3
A8
350
7F
  3
A9
350
80
  3
B0
350
81
  3
B1
350
82
  3
B2
350
83
  3
B3
350
84
  3
B4
350
85
  3
B5
350
86
  3
B6
350
87
  3
B7
350
88
  3
B8
350
89
  3
B9
350
8A
  3
C0
350
8B
  3
C1
350
8C
  3
C2
350
8D
  3
C3
350
8E
  3
C4
350
8F
  3
C5
350
90
  3
C6
350
91
  3
C7
350
92
  3
C8
350
93
  3
C9
350
94
  3
D0
350
95
  3
D1
350
96
  3
D2
350
97
  0
DICTIONARY
  5
1DF
102
{ACAD_REACTORS
330
C
102
}
330
C
100
AcDbDictionary
281
     1
  3
CANNOSCALE
350
1E0
  0
LAYOUT
  5
1E
102
{ACAD_REACTORS
330
1A
102
}
330
1A
100
AcDbPlotSettings
  1

  2
none_device
  4

  6

 40
0.0
 41
0.0
 42
0.0
 43
0.0
 44
0.0
 45
0.0
 46
0.0
 47
0.0
 48
0.0
 49
0.0
140
0.0
141
0.0
142
1.0
143
1.0
 70
   688
 72
     0
 73
     0
 74
     5
  7

 75
    16
147
1.0
148
0.0
149
0.0
100
AcDbLayout
  1
Layout1
 70
     1
 71
     1
 10
0.0
 20
0.0
 11
420.0
 21
297.0
 12
0.0
 22
0.0
 32
0.0
 14
1.0000000000E+20
 24
1.0000000000E+20
 34
1.0000000000E+20
 15
-1.0000000000E+20
 25
-1.0000000000E+20
 35
-1.0000000000E+20
146
0.0
 13
0.0
 23
0.0
 33
0.0
 16
1.0
 26
0.0
 36
0.0
 17
0.0
 27
1.0
 37
0.0
 76
     0
330
1B
  0
LAYOUT
  5
26
102
{ACAD_REACTORS
330
1A
102
}
330
1A
100
AcDbPlotSettings
  1

  2
none_device
  4

  6

 40
0.0
 41
0.0
 42
0.0
 43
0.0
 44
0.0
 45
0.0
 46
0.0
 47
0.0
 48
0.0
 49
0.0
140
0.0
141
0.0
142
1.0
143
1.0
 70
   688
 72
     0
 73
     0
 74
     5
  7

 75
    16
147
1.0
148
0.0
149
0.0
100
AcDbLayout
  1
Layout2
 70
     1
 71
     2
 10
0.0
 20
0.0
 11
0.0
 21
0.0
 12
0.0
 22
0.0
 32
0.0
 14
0.0
 24
0.0
 34
0.0
 15
0.0
 25
0.0
 35
0.0
146
0.0
 13
0.0
 23
0.0
 33
0.0
 16
1.0
 26
0.0
 36
0.0
 17
0.0
 27
1.0
 37
0.0
 76
     0
330
23
  0
LAYOUT
  5
22
102
{ACAD_REACTORS
330
1A
102
}
330
1A
100
AcDbPlotSettings
  1

  2
none_device
  4

  6

 40
0.0
 41
0.0
 42
0.0
 43
0.0
 44
0.0
 45
0.0
 46
0.0
 47
0.0
 48
0.0
 49
0.0
140
0.0
141
0.0
142
1.0
143
1.0
 70
  1712
 72
     0
 73
     0
 74
     0
  7

 75
     0
147
1.0
148
0.0
149
0.0
100
AcDbLayout
  1
Model
 70
     1
 71
     0
 10
0.0
 20
0.0
 11
420.0
 21
297.0
 12
0.0
 22
0.0
 32
0.0
 14
0.0
 24
0.0
 34
0.0
 15
420.0
 25
297.0
 35
0.0
146
0.0
 13
0.0
 23
0.0
 33
0.0
 16
1.0
 26
0.0
 36
0.0
 17
0.0
 27
1.0
 37
0.0
 76
     0
330
1F
331
29
  0
MLINESTYLE
  5
18
102
{ACAD_REACTORS
330
17
102
}
330
17
100
AcDbMlineStyle
  2
Standard
 70
     0
  3

 62
   256
 51
90.0
 52
90.0
 71
     2
 49
0.5
 62
   256
  6
BYLAYER
 49
-0.5
 62
   256
  6
BYLAYER
  0
ACDBPLACEHOLDER
  5
F
102
{ACAD_REACTORS
330
E
102
}
330
E
  0
SCALE
  5
77
102
{ACAD_REACTORS
330
76
102
}
330
76
100
AcDbScale
 70
     0
300
1:1
140
1.0
141
1.0
290
     1
  0
SCALE
  5
78
102
{ACAD_REACTORS
330
76
102
}
330
76
100
AcDbScale
 70
     0
300
1:2
140
1.0
141
2.0
290
     0
  0
SCALE
  5
79
102
{ACAD_REACTORS
330
76
102
}
330
76
100
AcDbScale
 70
     0
300
1:4
140
1.0
141
4.0
290
     0
  0
SCALE
  5
7A
102
{ACAD_REACTORS
330
76
102
}
330
76
100
AcDbScale
 70
     0
300
1:5
140
1.0
141
5.0
290
     0
  0
SCALE
  5
7B
102
{ACAD_REACTORS
330
76
102
}
330
76
100
AcDbScale
 70
     0
300
1:8
140
1.0
141
8.0
290
     0
  0
SCALE
  5
7C
102
{ACAD_REACTORS
330
76
102
}
330
76
100
AcDbScale
 70
     0
300
1:10
140
1.0
141
10.0
290
     0
  0
SCALE
  5
7D
102
{ACAD_REACTORS
330
76
102
}
330
76
100
AcDbScale
 70
     0
300
1:16
140
1.0
141
16.0
290
     0
  0
SCALE
  5
7E
102
{ACAD_REACTORS
330
76
102
}
330
76
100
AcDbScale
 70
     0
300
1:20
140
1.0
141
20.0
290
     0
  0
SCALE
  5
7F
102
{ACAD_REACTORS
330
76
102
}
330
76
100
AcDbScale
 70
     0
300
1:30
140
1.0
141
30.0
290
     0
  0
SCALE
  5
80
102
{ACAD_REACTORS
330
76
102
}
330
76
100
AcDbScale
 70
     0
300
1:40
140
1.0
141
40.0
290
     0
  0
SCALE
  5
81
102
{ACAD_REACTORS
330
76
102
}
330
76
100
AcDbScale
 70
     0
300
1:50
140
1.0
141
50.0
290
     0
  0
SCALE
  5
82
102
{ACAD_REACTORS
330
76
102
}
330
76
100
AcDbScale
 70
     0
300
1:100
140
1.0
141
100.0
290
     0
  0
SCALE
  5
83
102
{ACAD_REACTORS
330
76
102
}
330
76
100
AcDbScale
 70
     0
300
2:1
140
2.0
141
1.0
290
     0
  0
SCALE
  5
84
102
{ACAD_REACTORS
330
76
102
}
330
76
100
AcDbScale
 70
     0
300
4:1
140
4.0
141
1.0
290
     0
  0
SCALE
  5
85
102
{ACAD_REACTORS
330
76
102
}
330
76
100
AcDbScale
 70
     0
300
8:1
140
8.0
141
1.0
290
     0
  0
SCALE
  5
86
102
{ACAD_REACTORS
330
76
102
}
330
76
100
AcDbScale
 70
     0
300
10:1
140
10.0
141
1.0
290
     0
  0
SCALE
  5
87
102
{ACAD_REACTORS
330
76
102
}
330
76
100
AcDbScale
 70
     0
300
100:1
140
100.0
141
1.0
290
     0
  0
SCALE
  5
88
102
{ACAD_REACTORS
330
76
102
}
330
76
100
AcDbScale
 70
     0
300
1/128" = 1'-0"
140
0.0078125
141
12.0
290
     0
  0
SCALE
  5
89
102
{ACAD_REACTORS
330
76
102
}
330
76
100
AcDbScale
 70
     0
300
1/64" = 1'-0"
140
0.015625
141
12.0
290
     0
  0
SCALE
  5
8A
102
{ACAD_REACTORS
330
76
102
}
330
76
100
AcDbScale
 70
     0
300
1/32" = 1'-0"
140
0.03125
141
12.0
290
     0
  0
SCALE
  5
8B
102
{ACAD_REACTORS
330
76
102
}
330
76
100
AcDbScale
 70
     0
300
1/16" = 1'-0"
140
0.0625
141
12.0
290
     0
  0
SCALE
  5
8C
102
{ACAD_REACTORS
330
76
102
}
330
76
100
AcDbScale
 70
     0
300
3/32" = 1'-0"
140
0.09375
141
12.0
290
     0
  0
SCALE
  5
8D
102
{ACAD_REACTORS
330
76
102
}
330
76
100
AcDbScale
 70
     0
300
1/8" = 1'-0"
140
0.125
141
12.0
290
     0
  0
SCALE
  5
8E
102
{ACAD_REACTORS
330
76
102
}
330
76
100
AcDbScale
 70
     0
300
3/16" = 1'-0"
140
0.1875
141
12.0
290
     0
  0
SCALE
  5
8F
102
{ACAD_REACTORS
330
76
102
}
330
76
100
AcDbScale
 70
     0
300
1/4" = 1'-0"
140
0.25
141
12.0
290
     0
  0
SCALE
  5
90
102
{ACAD_REACTORS
330
76
102
}
330
76
100
AcDbScale
 70
     0
300
3/8" = 1'-0"
140
0.375
141
12.0
290
     0
  0
SCALE
  5
91
102
{ACAD_REACTORS
330
76
102
}
330
76
100
AcDbScale
 70
     0
300
1/2" = 1'-0"
140
0.5
141
12.0
290
     0
  0
SCALE
  5
92
102
{ACAD_REACTORS
330
76
102
}
330
76
100
AcDbScale
 70
     0
300
3/4" = 1'-0"
140
0.75
141
12.0
290
     0
  0
SCALE
  5
93
102
{ACAD_REACTORS
330
76
102
}
330
76
100
AcDbScale
 70
     0
300
1" = 1'-0"
140
1.0
141
12.0
290
     0
  0
SCALE
  5
94
102
{ACAD_REACTORS
330
76
102
}
330
76
100
AcDbScale
 70
     0
300
1-1/2" = 1'-0"
140
1.5
141
12.0
290
     0
  0
SCALE
  5
95
102
{ACAD_REACTORS
330
76
102
}
330
76
100
AcDbScale
 70
     0
300
3" = 1'-0"
140
3.0
141
12.0
290
     0
  0
SCALE
  5
96
102
{ACAD_REACTORS
330
76
102
}
330
76
100
AcDbScale
 70
     0
300
6" = 1'-0"
140
6.0
141
12.0
290
     0
  0
SCALE
  5
97
102
{ACAD_REACTORS
330
76
102
}
330
76
100
AcDbScale
 70
     0
300
1'-0" = 1'-0"
140
12.0
141
12.0
290
     0
  0
DICTIONARYVAR
  5
1E0
102
{ACAD_REACTORS
330
1DF
102
}
330
1DF
100
DictionaryVariables
280
     0
  1
1:1
  0
ENDSEC
  0
EOF
