  0
SECTION
  2
HEADER
  9
$ACADVER
  1
AC1015
  9
$ACADMAINTVER
 70
     6
  9
$DWGCODEPAGE
  3
DOS932
  9
$INSBASE
 10
0.0
 20
0.0
 30
0.0
  9
$EXTMIN
 10
0.0
 20
0.0
 30
0.0
  9
$EXTMAX
 10
210.0
 20
297.0
 30
0.0
  9
$LIMMIN
 10
0.0
 20
0.0
  9
$LIMMAX
 10
210.0
 20
297.0
  9
$ORTHOMODE
 70
     0
  9
$REGENMODE
 70
     1
  9
$FILLMODE
 70
     1
  9
$QTEXTMODE
 70
     0
  9
$MIRRTEXT
 70
     1
  9
$LTSCALE
 40
1.0
  9
$ATTMODE
 70
     1
  9
$TEXTSIZE
 40
3.5
  9
$TRACEWID
 40
1.0
  9
$TEXTSTYLE
  7
Standard
  9
$CLAYER
  8
0
  9
$CELTYPE
  6
ByLayer
  9
$CECOLOR
 62
   256
  9
$CELTSCALE
 40
1.0
  9
$DISPSILH
 70
     0
  9
$DIMSCALE
 40
1.0
  9
$DIMASZ
 40
3.302
  9
$DIMEXO
 40
1.0
  9
$DIMDLI
 40
3.75
  9
$DIMRND
 40
0.0
  9
$DIMDLE
 40
0.0
  9
$DIMEXE
 40
1.0
  9
$DIMTP
 40
0.0
  9
$DIMTM
 40
0.0
  9
$DIMTXT
 40
3.5
  9
$DIMCEN
 40
2.5
  9
$DIMTSZ
 40
0.0
  9
$DIMTOL
 70
     0
  9
$DIMLIM
 70
     0
  9
$DIMTIH
 70
     1
  9
$DIMTOH
 70
     1
  9
$DIMSE1
 70
     0
  9
$DIMSE2
 70
     0
  9
$DIMTAD
 70
     1
  9
$DIMZIN
 70
     0
  9
$DIMBLK
  1

  9
$DIMASO
 70
     1
  9
$DIMSHO
 70
     1
  9
$DIMPOST
  1

  9
$DIMAPOST
  1

  9
$DIMALT
 70
     0
  9
$DIMALTD
 70
     3
  9
$DIMALTF
 40
0.0393700787
  9
$DIMLFAC
 40
1.0
  9
$DIMTOFL
 70
     1
  9
$DIMTVP
 40
0.0
  9
$DIMTIX
 70
     0
  9
$DIMSOXD
 70
     0
  9
$DIMSAH
 70
     0
  9
$DIMBLK1
  1

  9
$DIMBLK2
  1

  9
$DIMSTYLE
  2
ISO-25
  9
$DIMCLRD
 70
     0
  9
$DIMCLRE
 70
     0
  9
$DIMCLRT
 70
     0
  9
$DIMTFAC
 40
1.0
  9
$DIMGAP
 40
1.524
  9
$DIMJUST
 70
     0
  9
$DIMSD1
 70
     0
  9
$DIMSD2
 70
     0
  9
$DIMTOLJ
 70
     0
  9
$DIMTZIN
 70
     0
  9
$DIMALTZ
 70
     0
  9
$DIMALTTZ
 70
     0
  9
$DIMUPT
 70
     0
  9
$DIMDEC
 70
     2
  9
$DIMTDEC
 70
     2
  9
$DIMALTU
 70
     2
  9
$DIMALTTD
 70
     3
  9
$DIMTXSTY
  7
Standard
  9
$DIMAUNIT
 70
     0
  9
$DIMADEC
 70
     2
  9
$DIMALTRND
 40
0.0
  9
$DIMAZIN
 70
     0
  9
$DIMDSEP
 70
    44
  9
$DIMATFIT
 70
     3
  9
$DIMFRAC
 70
     0
  9
$DIMLDRBLK
  1

  9
$DIMLUNIT
 70
     2
  9
$DIMLWD
 70
    -2
  9
$DIMLWE
 70
    -2
  9
$DIMTMOVE
 70
     0
  9
$LUNITS
 70
     2
  9
$LUPREC
 70
     2
  9
$SKETCHINC
 40
1.0
  9
$FILLETRAD
 40
10.0
  9
$AUNITS
 70
     0
  9
$AUPREC
 70
     2
  9
$MENU
  1
.
  9
$ELEVATION
 40
0.0
  9
$PELEVATION
 40
0.0
  9
$THICKNESS
 40
0.0
  9
$LIMCHECK
 70
     0
  9
$CHAMFERA
 40
10.0
  9
$CHAMFERB
 40
10.0
  9
$CHAMFERC
 40
20.0
  9
$CHAMFERD
 40
0.0
  9
$SKPOLY
 70
     0
  9
$TDCREATE
 40
2456892.668559398
  9
$TDUCREATE
 40
2456892.293559398
  9
$TDUPDATE
 40
2456892.668562292
  9
$TDUUPDATE
 40
2456892.293562292
  9
$TDINDWG
 40
0.0000000116
  9
$TDUSRTIMER
 40
0.0000000116
  9
$USRTIMER
 70
     1
  9
$ANGBASE
 50
0.0
  9
$ANGDIR
 70
     0
  9
$PDMODE
 70
     0
  9
$PDSIZE
 40
-1.0
  9
$PLINEWID
 40
0.0
  9
$SPLFRAME
 70
     0
  9
$SPLINETYPE
 70
     6
  9
$SPLINESEGS
 70
     8
  9
$HANDSEED
  5
3E2
  9
$SURFTAB1
 70
     6
  9
$SURFTAB2
 70
     6
  9
$SURFTYPE
 70
     6
  9
$SURFU
 70
     6
  9
$SURFV
 70
     6
  9
$UCSBASE
  2

  9
$UCSNAME
  2

  9
$UCSORG
 10
0.0
 20
0.0
 30
0.0
  9
$UCSXDIR
 10
1.0
 20
0.0
 30
0.0
  9
$UCSYDIR
 10
0.0
 20
1.0
 30
0.0
  9
$UCSORTHOREF
  2

  9
$UCSORTHOVIEW
 70
     0
  9
$UCSORGTOP
 10
0.0
 20
0.0
 30
0.0
  9
$UCSORGBOTTOM
 10
0.0
 20
0.0
 30
0.0
  9
$UCSORGLEFT
 10
0.0
 20
0.0
 30
0.0
  9
$UCSORGRIGHT
 10
0.0
 20
0.0
 30
0.0
  9
$UCSORGFRONT
 10
0.0
 20
0.0
 30
0.0
  9
$UCSORGBACK
 10
0.0
 20
0.0
 30
0.0
  9
$PUCSBASE
  2

  9
$PUCSNAME
  2

  9
$PUCSORG
 10
0.0
 20
0.0
 30
0.0
  9
$PUCSXDIR
 10
1.0
 20
0.0
 30
0.0
  9
$PUCSYDIR
 10
0.0
 20
1.0
 30
0.0
  9
$PUCSORTHOREF
  2

  9
$PUCSORTHOVIEW
 70
     0
  9
$PUCSORGTOP
 10
0.0
 20
0.0
 30
0.0
  9
$PUCSORGBOTTOM
 10
0.0
 20
0.0
 30
0.0
  9
$PUCSORGLEFT
 10
0.0
 20
0.0
 30
0.0
  9
$PUCSORGRIGHT
 10
0.0
 20
0.0
 30
0.0
  9
$PUCSORGFRONT
 10
0.0
 20
0.0
 30
0.0
  9
$PUCSORGBACK
 10
0.0
 20
0.0
 30
0.0
  9
$USERI1
 70
     0
  9
$USERI2
 70
     0
  9
$USERI3
 70
     0
  9
$USERI4
 70
     0
  9
$USERI5
 70
     0
  9
$USERR1
 40
0.0
  9
$USERR2
 40
0.0
  9
$USERR3
 40
0.0
  9
$USERR4
 40
0.0
  9
$USERR5
 40
0.0
  9
$WORLDVIEW
 70
     1
  9
$SHADEDGE
 70
     3
  9
$SHADEDIF
 70
    70
  9
$TILEMODE
 70
     1
  9
$MAXACTVP
 70
    64
  9
$PINSBASE
 10
0.0
 20
0.0
 30
0.0
  9
$PLIMCHECK
 70
     0
  9
$PEXTMIN
 10
1.0000000000E+20
 20
1.0000000000E+20
 30
1.0000000000E+20
  9
$PEXTMAX
 10
-1.0000000000E+20
 20
-1.0000000000E+20
 30
-1.0000000000E+20
  9
$PLIMMIN
 10
0.0
 20
0.0
  9
$PLIMMAX
 10
420.0
 20
297.0
  9
$UNITMODE
 70
     0
  9
$VISRETAIN
 70
     1
  9
$PLINEGEN
 70
     0
  9
$PSLTSCALE
 70
     1
  9
$TREEDEPTH
 70
  3020
  9
$CMLSTYLE
  2
Standard
  9
$CMLJUST
 70
     0
  9
$CMLSCALE
 40
20.0
  9
$PROXYGRAPHICS
 70
     1
  9
$MEASUREMENT
 70
     1
  9
$CELWEIGHT
370
    -1
  9
$ENDCAPS
280
     0
  9
$JOINSTYLE
280
     0
  9
$LWDISPLAY
290
     1
  9
$INSUNITS
 70
     4
  9
$HYPERLINKBASE
  1

  9
$STYLESHEET
  1

  9
$XEDIT
290
     1
  9
$CEPSNTYPE
380
     0
  9
$PSTYLEMODE
290
     1
  9
$FINGERPRINTGUID
  2
{60E22161-F308-4D11-B52A-24299437E929}
  9
$VERSIONGUID
  2
{FAEB1C32-E019-11D5-929B-00C0DF256EC4}
  9
$EXTNAMES
290
     1
  9
$PSVPSCALE
 40
0.0
  9
$OLESTARTUP
290
     0
  0
ENDSEC
  0
SECTION
  2
CLASSES
  0
CLASS
  1
ACDBDICTIONARYWDFLT
  2
AcDbDictionaryWithDefault
  3
ObjectDBX Classes
 90
        0
280
     0
281
     0
  0
CLASS
  1
VISUALSTYLE
  2
AcDbVisualStyle
  3
ObjectDBX Classes
 90
     4095
280
     0
281
     0
  0
CLASS
  1
MATERIAL
  2
AcDbMaterial
  3
ObjectDBX Classes
 90
     1153
280
     0
281
     0
  0
CLASS
  1
ACDBPLACEHOLDER
  2
AcDbPlaceHolder
  3
ObjectDBX Classes
 90
        0
280
     0
281
     0
  0
CLASS
  1
LAYOUT
  2
AcDbLayout
  3
ObjectDBX Classes
 90
        0
280
     0
281
     0
  0
ENDSEC
  0
SECTION
  2
TABLES
  0
TABLE
  2
VPORT
  5
8
330
0
100
AcDbSymbolTable
 70
     1
  0
VPORT
  5
29
330
8
100
AcDbSymbolTableRecord
100
AcDbViewportTableRecord
  2
*Active
 70
     0
 10
0.0
 20
0.0
 11
1.0
 21
1.0
 12
105.0
 22
148.5
 13
0.0
 23
0.0
 14
10.0
 24
10.0
 15
10.0
 25
10.0
 16
0.0
 26
0.0
 36
1.0
 17
0.0
 27
0.0
 37
0.0
 40
297.0
 41
0.7070707071
 42
50.0
 43
0.0
 44
0.0
 50
0.0
 51
0.0
 71
     0
 72
  2000
 73
     1
 74
     3
 75
     0
 76
     0
 77
     0
 78
     0
281
     0
 65
     1
110
0.0
120
0.0
130
0.0
111
1.0
121
0.0
131
0.0
112
0.0
122
1.0
132
0.0
 79
     0
146
0.0
  0
ENDTAB
  0
TABLE
  2
LTYPE
  5
5
330
0
100
AcDbSymbolTable
 70
     6
  0
LTYPE
  5
14
330
5
100
AcDbSymbolTableRecord
100
AcDbLinetypeTableRecord
  2
ByBlock
 70
     0
  3

 72
    65
 73
     0
 40
0.0
  0
LTYPE
  5
15
330
5
100
AcDbSymbolTableRecord
100
AcDbLinetypeTableRecord
  2
ByLayer
 70
     0
  3

 72
    65
 73
     0
 40
0.0
  0
LTYPE
  5
16
330
5
100
AcDbSymbolTableRecord
100
AcDbLinetypeTableRecord
  2
Continuous
 70
     0
  3
Solid line
 72
    65
 73
     0
 40
0.0
  0
LTYPE
  5
3F
330
5
100
AcDbSymbolTableRecord
100
AcDbLinetypeTableRecord
  2
HIDDEN
 70
     0
  3
Hidden __ __ __ __ __ __ __ __ __ __ __ __ __ __
 72
    65
 73
     2
 40
1.905
 49
1.27
 74
     0
 49
-0.635
 74
     0
  0
LTYPE
  5
40
330
5
100
AcDbSymbolTableRecord
100
AcDbLinetypeTableRecord
  2
PHANTOM
 70
     0
  3
Phantom ______  __  __  ______  __  __  ______
 72
    65
 73
     6
 40
12.7
 49
6.35
 74
     0
 49
-1.27
 74
     0
 49
1.27
 74
     0
 49
-1.27
 74
     0
 49
1.27
 74
     0
 49
-1.27
 74
     0
  0
LTYPE
  5
41
330
5
100
AcDbSymbolTableRecord
100
AcDbLinetypeTableRecord
  2
CENTER
 70
     0
  3
Center ____ _ ____ _ ____ _ ____ _ ____ _ ____
 72
    65
 73
     4
 40
10.16
 49
6.35
 74
     0
 49
-1.27
 74
     0
 49
1.27
 74
     0
 49
-1.27
 74
     0
  0
LTYPE
  5
42
330
5
100
AcDbSymbolTableRecord
100
AcDbLinetypeTableRecord
  2
CENTERX2
 70
     0
  3
Center (2x) ________  __  ________  __  _____
 72
    65
 73
     4
 40
20.32
 49
12.7
 74
     0
 49
-2.54
 74
     0
 49
2.54
 74
     0
 49
-2.54
 74
     0
  0
LTYPE
  5
43
330
5
100
AcDbSymbolTableRecord
100
AcDbLinetypeTableRecord
  2
DOT2
 70
     0
  3
Dot (.5x) ........................................
 72
    65
 73
     2
 40
0.635
 49
0.0
 74
     0
 49
-0.635
 74
     0
  0
ENDTAB
  0
TABLE
  2
LAYER
  5
2
330
0
100
AcDbSymbolTable
 70
     1
  0
LAYER
  5
10
330
2
100
AcDbSymbolTableRecord
100
AcDbLayerTableRecord
  2
0
 70
     0
 62
     7
  6
Continuous
370
    -3
390
F
  0
ENDTAB
  0
TABLE
  2
STYLE
  5
3
330
0
100
AcDbSymbolTable
 70
     3
  0
STYLE
  5
11
330
3
100
AcDbSymbolTableRecord
100
AcDbTextStyleTableRecord
  2
Standard
 70
     0
 40
0.0
 41
1.0
 50
0.0
 71
     0
 42
3.5
  3
txt
  4
bigfont
  0
STYLE
  5
4C
330
3
100
AcDbSymbolTableRecord
100
AcDbTextStyleTableRecord
  2
SLDTEXTSTYLE0
 70
     0
 40
0.0
 41
0.75
 50
0.0
 71
     0
 42
0.2
  3
TXT
  4
bigfont
  0
STYLE
  5
4F
330
3
100
AcDbSymbolTableRecord
100
AcDbTextStyleTableRecord
  2
SLDTEXTSTYLE1
 70
     0
 40
0.0
 41
0.7
 50
0.0
 71
     0
 42
0.2
  3
TXT
  4
bigfont
  0
ENDTAB
  0
TABLE
  2
VIEW
  5
6
330
0
100
AcDbSymbolTable
 70
     0
  0
ENDTAB
  0
TABLE
  2
UCS
  5
7
330
0
100
AcDbSymbolTable
 70
     0
  0
ENDTAB
  0
TABLE
  2
APPID
  5
9
330
0
100
AcDbSymbolTable
 70
     1
  0
APPID
  5
12
330
9
100
AcDbSymbolTableRecord
100
AcDbRegAppTableRecord
  2
ACAD
 70
     0
  0
ENDTAB
  0
TABLE
  2
DIMSTYLE
  5
A
330
0
100
AcDbSymbolTable
 70
     9
100
AcDbDimStyleTable
  0
DIMSTYLE
105
27
330
A
100
AcDbSymbolTableRecord
100
AcDbDimStyleTableRecord
  2
ISO-25
 70
     0
 41
2.5
 42
0.625
 43
3.75
 44
1.25
 73
     0
 74
     0
 77
     1
 78
     8
140
2.5
141
2.5
143
0.0393700787
147
0.625
171
     3
172
     1
178
     0
271
     2
272
     2
274
     3
278
    44
283
     0
284
     8
340
11
  0
DIMSTYLE
105
15C
102
{ACAD_REACTORS
330
15B
102
}
330
A
100
AcDbSymbolTableRecord
100
AcDbDimStyleTableRecord
  2
SLDDIMSTYLE0
 70
     0
 41
3.302
 44
0.0
 45
0.000000001
 73
     0
 74
     0
 77
     3
 78
    12
 79
     3
140
3.5
147
0.875
172
     1
173
     1
178
     0
271
     2
272
     2
276
     2
284
    12
289
     0
340
4C
344
15D
  0
DIMSTYLE
105
174
102
{ACAD_REACTORS
330
173
330
2E0
102
}
330
A
100
AcDbSymbolTableRecord
100
AcDbDimStyleTableRecord
  2
SLDDIMSTYLE1
 70
     0
 41
3.302
 44
0.0
 45
0.000000001
 73
     0
 74
     0
 77
     3
 78
    12
 79
     3
140
3.5
147
0.875
173
     1
178
     0
271
     1
272
     1
276
     2
284
    12
340
4C
  0
DIMSTYLE
105
17F
102
{ACAD_REACTORS
330
17E
330
189
330
193
330
19D
330
1A7
330
1BE
330
1C8
330
29A
330
2A4
330
2BB
330
3B1
330
3BB
102
}
330
A
100
AcDbSymbolTableRecord
100
AcDbDimStyleTableRecord
  2
SLDDIMSTYLE2
 70
     0
 41
3.302
 44
0.0
 45
0.000000001
 73
     0
 74
     0
 77
     3
 78
    12
 79
     3
140
3.5
147
0.875
173
     1
178
     0
271
     1
272
     2
276
     2
284
    12
340
4C
  0
DIMSTYLE
105
1B2
102
{ACAD_REACTORS
330
1B1
102
}
330
A
100
AcDbSymbolTableRecord
100
AcDbDimStyleTableRecord
  2
SLDDIMSTYLE3
 70
     0
 41
3.0
 44
0.0
 45
0.000000001
 73
     0
 74
     0
 77
     3
 78
    12
 79
     3
140
3.5
147
0.875
172
     1
173
     1
178
     0
271
     1
272
     2
276
     2
284
    12
289
     0
340
4C
341
15D
343
15D
  0
DIMSTYLE
105
1DF
330
A
100
AcDbSymbolTableRecord
100
AcDbDimStyleTableRecord
  2
SLDDIMSTYLE4
 70
     0
 41
3.0
 44
0.0
 45
0.000000001
140
0.0
146
3.0
147
0.0
173
     1
178
     0
271
     0
272
     0
276
     2
340
11
341
15D
343
15D
344
15D
  0
DIMSTYLE
105
2AF
102
{ACAD_REACTORS
330
2AE
102
}
330
A
100
AcDbSymbolTableRecord
100
AcDbDimStyleTableRecord
  2
SLDDIMSTYLE5
 70
     0
 41
3.302
 44
0.0
 45
0.000000001
 73
     0
 74
     0
 77
     3
 78
    12
 79
     3
140
3.5
147
0.875
172
     1
173
     1
178
     0
271
     1
272
     2
276
     2
284
    12
289
     0
340
4C
  0
DIMSTYLE
105
2C6
102
{ACAD_REACTORS
330
2C5
330
2D2
102
}
330
A
100
AcDbSymbolTableRecord
100
AcDbDimStyleTableRecord
  2
SLDDIMSTYLE6
 70
     0
 41
3.302
 44
0.0
 45
0.000000001
 73
     0
 74
     0
 77
     3
 78
    12
 79
     3
140
3.5
147
0.875
172
     1
173
     1
178
     0
271
     1
272
     1
276
     2
284
    12
289
     0
340
4C
  0
DIMSTYLE
105
3C8
330
A
100
AcDbSymbolTableRecord
100
AcDbDimStyleTableRecord
  2
SLDDIMSTYLE7
 70
     0
 41
3.302
 44
0.0
 45
0.000000001
140
0.0
146
3.302
147
0.0
173
     1
178
     0
271
     0
272
     0
276
     2
340
11
  0
ENDTAB
  0
TABLE
  2
BLOCK_RECORD
  5
1
330
0
100
AcDbSymbolTable
 70
    29
  0
BLOCK_RECORD
  5
1F
330
1
100
AcDbSymbolTableRecord
100
AcDbBlockTableRecord
  2
*Model_Space
340
22
  0
BLOCK_RECORD
  5
1B
330
1
100
AcDbSymbolTableRecord
100
AcDbBlockTableRecord
  2
*Paper_Space
340
1E
  0
BLOCK_RECORD
  5
23
330
1
100
AcDbSymbolTableRecord
100
AcDbBlockTableRecord
  2
*Paper_Space0
340
26
  0
BLOCK_RECORD
  5
15D
330
1
100
AcDbSymbolTableRecord
100
AcDbBlockTableRecord
  2
_DOT
340
0
102
{BLKREFS
331
169
331
1B6
331
1E1
102
}
  0
BLOCK_RECORD
  5
165
330
1
100
AcDbSymbolTableRecord
100
AcDbBlockTableRecord
  2
_D
340
0
  0
BLOCK_RECORD
  5
175
330
1
100
AcDbSymbolTableRecord
100
AcDbBlockTableRecord
  2
_D_1
340
0
  0
BLOCK_RECORD
  5
180
330
1
100
AcDbSymbolTableRecord
100
AcDbBlockTableRecord
  2
_D_2
340
0
  0
BLOCK_RECORD
  5
18A
330
1
100
AcDbSymbolTableRecord
100
AcDbBlockTableRecord
  2
_D_3
340
0
  0
BLOCK_RECORD
  5
194
330
1
100
AcDbSymbolTableRecord
100
AcDbBlockTableRecord
  2
_D_4
340
0
  0
BLOCK_RECORD
  5
19E
330
1
100
AcDbSymbolTableRecord
100
AcDbBlockTableRecord
  2
_D_5
340
0
  0
BLOCK_RECORD
  5
1A8
330
1
100
AcDbSymbolTableRecord
100
AcDbBlockTableRecord
  2
_D_6
340
0
  0
BLOCK_RECORD
  5
1B3
330
1
100
AcDbSymbolTableRecord
100
AcDbBlockTableRecord
  2
_D_7
340
0
  0
BLOCK_RECORD
  5
1BF
330
1
100
AcDbSymbolTableRecord
100
AcDbBlockTableRecord
  2
_D_8
340
0
  0
BLOCK_RECORD
  5
1C9
330
1
100
AcDbSymbolTableRecord
100
AcDbBlockTableRecord
  2
_D_9
340
0
  0
BLOCK_RECORD
  5
1D3
330
1
100
AcDbSymbolTableRecord
100
AcDbBlockTableRecord
  2
SW_NOTE_0
340
0
102
{BLKREFS
331
1DD
102
}
  0
BLOCK_RECORD
  5
29B
330
1
100
AcDbSymbolTableRecord
100
AcDbBlockTableRecord
  2
_D_10
340
0
  0
BLOCK_RECORD
  5
2A5
330
1
100
AcDbSymbolTableRecord
100
AcDbBlockTableRecord
  2
_D_11
340
0
  0
BLOCK_RECORD
  5
2B0
330
1
100
AcDbSymbolTableRecord
100
AcDbBlockTableRecord
  2
_D_12
340
0
  0
BLOCK_RECORD
  5
2BC
330
1
100
AcDbSymbolTableRecord
100
AcDbBlockTableRecord
  2
_D_13
340
0
  0
BLOCK_RECORD
  5
2C7
330
1
100
AcDbSymbolTableRecord
100
AcDbBlockTableRecord
  2
_D_14
340
0
  0
BLOCK_RECORD
  5
2D3
330
1
100
AcDbSymbolTableRecord
100
AcDbBlockTableRecord
  2
_D_15
340
0
  0
BLOCK_RECORD
  5
2E1
330
1
100
AcDbSymbolTableRecord
100
AcDbBlockTableRecord
  2
_D_16
340
0
  0
BLOCK_RECORD
  5
2EC
330
1
100
AcDbSymbolTableRecord
100
AcDbBlockTableRecord
  2
SW_CENTERMARKSYMBOL_0
340
0
102
{BLKREFS
331
2F7
102
}
  0
BLOCK_RECORD
  5
2F8
330
1
100
AcDbSymbolTableRecord
100
AcDbBlockTableRecord
  2
SW_CENTERMARKSYMBOL_1
340
0
102
{BLKREFS
331
303
102
}
  0
BLOCK_RECORD
  5
304
330
1
100
AcDbSymbolTableRecord
100
AcDbBlockTableRecord
  2
SW_CENTERMARKSYMBOL_2
340
0
102
{BLKREFS
331
30F
102
}
  0
BLOCK_RECORD
  5
310
330
1
100
AcDbSymbolTableRecord
100
AcDbBlockTableRecord
  2
SW_CENTERMARKSYMBOL_3
340
0
102
{BLKREFS
331
31B
102
}
  0
BLOCK_RECORD
  5
31C
330
1
100
AcDbSymbolTableRecord
100
AcDbBlockTableRecord
  2
SW_CENTERMARKSYMBOL_4
340
0
102
{BLKREFS
331
327
102
}
  0
BLOCK_RECORD
  5
3B2
330
1
100
AcDbSymbolTableRecord
100
AcDbBlockTableRecord
  2
_D_17
340
0
  0
BLOCK_RECORD
  5
3BC
330
1
100
AcDbSymbolTableRecord
100
AcDbBlockTableRecord
  2
_D_18
340
0
  0
BLOCK_RECORD
  5
3CA
330
1
100
AcDbSymbolTableRecord
100
AcDbBlockTableRecord
  2
SW_CENTERMARKSYMBOL_5
340
0
102
{BLKREFS
331
3D5
102
}
  0
BLOCK_RECORD
  5
3D6
330
1
100
AcDbSymbolTableRecord
100
AcDbBlockTableRecord
  2
SW_CENTERMARKSYMBOL_6
340
0
102
{BLKREFS
331
3E1
102
}
  0
ENDTAB
  0
ENDSEC
  0
SECTION
  2
BLOCKS
  0
BLOCK
  5
20
330
1F
100
AcDbEntity
  8
0
100
AcDbBlockBegin
  2
*Model_Space
 70
     0
 10
0.0
 20
0.0
 30
0.0
  3
*Model_Space
  1

  0
ENDBLK
  5
21
330
1F
100
AcDbEntity
  8
0
100
AcDbBlockEnd
  0
BLOCK
  5
1C
330
1B
100
AcDbEntity
 67
     1
  8
0
100
AcDbBlockBegin
  2
*Paper_Space
 70
     0
 10
0.0
 20
0.0
 30
0.0
  3
*Paper_Space
  1

  0
ENDBLK
  5
1D
330
1B
100
AcDbEntity
 67
     1
  8
0
100
AcDbBlockEnd
  0
BLOCK
  5
24
330
23
100
AcDbEntity
  8
0
100
AcDbBlockBegin
  2
*Paper_Space0
 70
     0
 10
0.0
 20
0.0
 30
0.0
  3
*Paper_Space0
  1

  0
ENDBLK
  5
25
330
23
100
AcDbEntity
  8
0
100
AcDbBlockEnd
  0
BLOCK
  5
15E
330
15D
100
AcDbEntity
  8
0
100
AcDbBlockBegin
  2
_DOT
 70
     0
 10
0.0
 20
0.0
 30
0.0
  3
_DOT
  1

  0
POLYLINE
  5
160
330
15D
100
AcDbEntity
  8
0
  6
ByBlock
 62
     0
100
AcDb2dPolyline
 66
     1
 10
0.0
 20
0.0
 30
0.0
 70
     1
 40
0.5
 41
0.5
  0
VERTEX
  5
162
330
160
100
AcDbEntity
  8
0
  6
ByBlock
 62
     0
100
AcDbVertex
100
AcDb2dVertex
 10
-0.25
 20
0.0
 30
0.0
 42
1.0
  0
VERTEX
  5
163
330
160
100
AcDbEntity
  8
0
  6
ByBlock
 62
     0
100
AcDbVertex
100
AcDb2dVertex
 10
0.25
 20
0.0
 30
0.0
 42
1.0
  0
SEQEND
  5
164
330
160
100
AcDbEntity
  8
0
  6
ByBlock
 62
     0
  0
LINE
  5
161
330
15D
100
AcDbEntity
  8
0
  6
ByBlock
 62
     0
370
    -2
100
AcDbLine
 10
-0.5
 20
0.0
 30
0.0
 11
-1.0
 21
0.0
 31
0.0
  0
ENDBLK
  5
15F
330
15D
100
AcDbEntity
  8
0
100
AcDbBlockEnd
  0
BLOCK
  5
166
330
165
100
AcDbEntity
  8
0
100
AcDbBlockBegin
  2
_D
 70
     0
 10
0.0
 20
0.0
 30
0.0
  3
_D
  1

  0
SOLID
  5
168
330
165
100
AcDbEntity
  8
0
  6
Continuous
 62
     7
370
     0
100
AcDbTrace
 10
177.4586449891
 20
207.4237577302
 30
0.0
 11
174.1566449891
 21
208.9237577302
 31
0.0
 12
174.1566449891
 22
205.9237577302
 32
0.0
 13
174.1566449891
 23
205.9237577302
 33
0.0
  0
INSERT
  5
169
330
165
100
AcDbEntity
  8
0
  6
Continuous
 62
     7
370
     0
100
AcDbBlockReference
  2
_DOT
 10
179.4586449891
 20
207.4237577302
 30
0.1
 41
3.0
 42
3.0
 50
180.0
  0
LINE
  5
16A
330
165
100
AcDbEntity
  8
0
  6
Continuous
 62
     7
370
     0
100
AcDbLine
 10
177.4586449891
 20
198.3027899882
 30
0.0
 11
177.4586449891
 21
208.4237577302
 31
0.0
  0
LINE
  5
16B
330
165
100
AcDbEntity
  8
0
  6
Continuous
 62
     7
370
     0
100
AcDbLine
 10
179.4586449891
 20
198.3027899882
 30
0.0
 11
179.4586449891
 21
208.4237577302
 31
0.0
  0
LINE
  5
16C
330
165
100
AcDbEntity
  8
0
  6
Continuous
 62
     7
370
     0
100
AcDbLine
 10
177.4586449891
 20
207.4237577302
 30
0.0
 11
171.1086449891
 21
207.4237577302
 31
0.0
  0
LINE
  5
16D
330
165
100
AcDbEntity
  8
0
  6
Continuous
 62
     7
370
     0
100
AcDbLine
 10
177.4586449891
 20
207.4237577302
 30
0.0
 11
179.4586449891
 21
207.4237577302
 31
0.0
  0
LINE
  5
16E
330
165
100
AcDbEntity
  8
0
  6
Continuous
 62
     7
370
     0
100
AcDbLine
 10
179.4586449891
 20
207.4237577302
 30
0.0
 11
185.8086449891
 21
207.4237577302
 31
0.0
  0
LINE
  5
16F
330
165
100
AcDbEntity
  8
0
  6
Continuous
 62
     7
370
     0
100
AcDbLine
 10
178.4586449891
 20
207.4237577302
 30
0.0
 11
171.2300824494
 21
221.5766940025
 31
0.0
  0
LINE
  5
170
330
165
100
AcDbEntity
  8
0
  6
Continuous
 62
     7
370
     0
100
AcDbLine
 10
171.2300824494
 20
221.5766940025
 30
0.0
 11
138.1599465877
 21
221.5766940025
 31
0.0
  0
MTEXT
  5
171
330
165
100
AcDbEntity
  8
0
  6
Continuous
 62
     7
370
     0
100
AcDbMText
 10
138.1599465877
 20
226.0884309171
 30
0.1
 40
3.5
 41
0.0
 71
     1
 72
     1
  1
Maxストローク
  7
SLDTEXTSTYLE0
 73
     1
 44
1.0
  0
MTEXT
  5
172
330
165
100
AcDbEntity
  8
0
  6
Continuous
 62
     7
370
     0
100
AcDbMText
 10
168.6439747483
 20
226.0884309171
 30
0.1
 40
3.5
 41
0.0
 71
     1
 72
     1
  1
2
  7
SLDTEXTSTYLE0
 73
     1
 44
1.0
  0
ENDBLK
  5
167
330
165
100
AcDbEntity
  8
0
100
AcDbBlockEnd
  0
BLOCK
  5
176
330
175
100
AcDbEntity
  8
0
100
AcDbBlockBegin
  2
_D_1
 70
     0
 10
0.0
 20
0.0
 30
0.0
  3
_D_1
  1

  0
SOLID
  5
178
330
175
100
AcDbEntity
  8
0
  6
Continuous
 62
     7
370
     0
100
AcDbTrace
 10
177.4586449891
 20
207.4237577302
 30
0.0
 11
175.4586449891
 21
208.1737577302
 31
0.0
 12
175.4586449891
 22
206.6737577302
 32
0.0
 13
175.4586449891
 23
206.6737577302
 33
0.0
  0
SOLID
  5
179
330
175
100
AcDbEntity
  8
0
  6
Continuous
 62
     7
370
     0
100
AcDbTrace
 10
160.1586449891
 20
207.4237577302
 30
0.0
 11
162.1586449891
 21
206.6737577302
 31
0.0
 12
162.1586449891
 22
208.1737577302
 32
0.0
 13
162.1586449891
 23
208.1737577302
 33
0.0
  0
LINE
  5
17A
330
175
100
AcDbEntity
  8
0
  6
Continuous
 62
     7
370
     0
100
AcDbLine
 10
177.4586449891
 20
198.3027899882
 30
0.0
 11
177.4586449891
 21
208.4237577302
 31
0.0
  0
LINE
  5
17B
330
175
100
AcDbEntity
  8
0
  6
Continuous
 62
     7
370
     0
100
AcDbLine
 10
160.1586449891
 20
154.1965091078
 30
0.0
 11
160.1586449891
 21
208.4237577302
 31
0.0
  0
LINE
  5
17C
330
175
100
AcDbEntity
  8
0
  6
Continuous
 62
     7
370
     0
100
AcDbLine
 10
177.4586449891
 20
207.4237577302
 30
0.0
 11
160.1586449891
 21
207.4237577302
 31
0.0
  0
MTEXT
  5
17D
330
175
100
AcDbEntity
  8
0
  6
Continuous
 62
     7
370
     0
100
AcDbMText
 10
164.2829504587
 20
211.9354946447
 30
0.1
 40
3.5
 41
0.0
 71
     1
 72
     1
  1
17.3
  7
SLDTEXTSTYLE0
 73
     1
 44
1.0
  0
ENDBLK
  5
177
330
175
100
AcDbEntity
  8
0
100
AcDbBlockEnd
  0
BLOCK
  5
181
330
180
100
AcDbEntity
  8
0
100
AcDbBlockBegin
  2
_D_2
 70
     0
 10
0.0
 20
0.0
 30
0.0
  3
_D_2
  1

  0
SOLID
  5
183
330
180
100
AcDbEntity
  8
0
  6
Continuous
 62
     7
370
     0
100
AcDbTrace
 10
160.1586449891
 20
136.6965091078
 30
0.0
 11
162.1586449891
 21
135.9465091078
 31
0.0
 12
162.1586449891
 22
137.4465091078
 32
0.0
 13
162.1586449891
 23
137.4465091078
 33
0.0
  0
SOLID
  5
184
330
180
100
AcDbEntity
  8
0
  6
Continuous
 62
     7
370
     0
100
AcDbTrace
 10
186.1586449891
 20
136.6965091078
 30
0.0
 11
184.1586449891
 21
137.4465091078
 31
0.0
 12
184.1586449891
 22
135.9465091078
 32
0.0
 13
184.1586449891
 23
135.9465091078
 33
0.0
  0
LINE
  5
185
330
180
100
AcDbEntity
  8
0
  6
Continuous
 62
     7
370
     0
100
AcDbLine
 10
160.1586449891
 20
143.6965091078
 30
0.0
 11
160.1586449891
 21
135.6965091078
 31
0.0
  0
LINE
  5
186
330
180
100
AcDbEntity
  8
0
  6
Continuous
 62
     7
370
     0
100
AcDbLine
 10
186.1586449891
 20
159.0965091078
 30
0.0
 11
186.1586449891
 21
135.6965091078
 31
0.0
  0
LINE
  5
187
330
180
100
AcDbEntity
  8
0
  6
Continuous
 62
     7
370
     0
100
AcDbLine
 10
160.1586449891
 20
136.6965091078
 30
0.0
 11
186.1586449891
 21
136.6965091078
 31
0.0
  0
MTEXT
  5
188
330
180
100
AcDbEntity
  8
0
  6
Continuous
 62
     7
370
     0
100
AcDbMText
 10
170.8306041275
 20
141.2082460223
 30
0.1
 40
3.5
 41
0.0
 71
     1
 72
     1
  1
26
  7
SLDTEXTSTYLE0
 73
     1
 44
1.0
  0
ENDBLK
  5
182
330
180
100
AcDbEntity
  8
0
100
AcDbBlockEnd
  0
BLOCK
  5
18B
330
18A
100
AcDbEntity
  8
0
100
AcDbBlockBegin
  2
_D_3
 70
     0
 10
0.0
 20
0.0
 30
0.0
  3
_D_3
  1

  0
SOLID
  5
18D
330
18A
100
AcDbEntity
  8
0
  6
Continuous
 62
     7
370
     0
100
AcDbTrace
 10
160.1586449891
 20
136.6965091078
 30
0.0
 11
158.1586449891
 21
137.4465091078
 31
0.0
 12
158.1586449891
 22
135.9465091078
 32
0.0
 13
158.1586449891
 23
135.9465091078
 33
0.0
  0
SOLID
  5
18E
330
18A
100
AcDbEntity
  8
0
  6
Continuous
 62
     7
370
     0
100
AcDbTrace
 10
140.1586449891
 20
136.6965091078
 30
0.0
 11
142.1586449891
 21
135.9465091078
 31
0.0
 12
142.1586449891
 22
137.4465091078
 32
0.0
 13
142.1586449891
 23
137.4465091078
 33
0.0
  0
LINE
  5
18F
330
18A
100
AcDbEntity
  8
0
  6
Continuous
 62
     7
370
     0
100
AcDbLine
 10
160.1586449891
 20
143.6965091078
 30
0.0
 11
160.1586449891
 21
135.6965091078
 31
0.0
  0
LINE
  5
190
330
18A
100
AcDbEntity
  8
0
  6
Continuous
 62
     7
370
     0
100
AcDbLine
 10
140.1586449891
 20
143.6965091078
 30
0.0
 11
140.1586449891
 21
135.6965091078
 31
0.0
  0
LINE
  5
191
330
18A
100
AcDbEntity
  8
0
  6
Continuous
 62
     7
370
     0
100
AcDbLine
 10
160.1586449891
 20
136.6965091078
 30
0.0
 11
140.1586449891
 21
136.6965091078
 31
0.0
  0
MTEXT
  5
192
330
18A
100
AcDbEntity
  8
0
  6
Continuous
 62
     7
370
     0
100
AcDbMText
 10
147.5596187891
 20
141.2082460223
 30
0.1
 40
3.5
 41
0.0
 71
     1
 72
     1
  1
20
  7
SLDTEXTSTYLE0
 73
     1
 44
1.0
  0
ENDBLK
  5
18C
330
18A
100
AcDbEntity
  8
0
100
AcDbBlockEnd
  0
BLOCK
  5
195
330
194
100
AcDbEntity
  8
0
100
AcDbBlockBegin
  2
_D_4
 70
     0
 10
0.0
 20
0.0
 30
0.0
  3
_D_4
  1

  0
SOLID
  5
197
330
194
100
AcDbEntity
  8
0
  6
Continuous
 62
     7
370
     0
100
AcDbTrace
 10
124.6586449891
 20
127.1105598451
 30
0.0
 11
126.6586449891
 21
126.3605598451
 31
0.0
 12
126.6586449891
 22
127.8605598451
 32
0.0
 13
126.6586449891
 23
127.8605598451
 33
0.0
  0
SOLID
  5
198
330
194
100
AcDbEntity
  8
0
  6
Continuous
 62
     7
370
     0
100
AcDbTrace
 10
186.1586449891
 20
127.1105598451
 30
0.0
 11
184.1586449891
 21
127.8605598451
 31
0.0
 12
184.1586449891
 22
126.3605598451
 32
0.0
 13
184.1586449891
 23
126.3605598451
 33
0.0
  0
LINE
  5
199
330
194
100
AcDbEntity
  8
0
  6
Continuous
 62
     7
370
     0
100
AcDbLine
 10
124.6586449891
 20
151.1965091078
 30
0.0
 11
124.6586449891
 21
126.1105598451
 31
0.0
  0
LINE
  5
19A
330
194
100
AcDbEntity
  8
0
  6
Continuous
 62
     7
370
     0
100
AcDbLine
 10
186.1586449891
 20
159.0965091078
 30
0.0
 11
186.1586449891
 21
126.1105598451
 31
0.0
  0
LINE
  5
19B
330
194
100
AcDbEntity
  8
0
  6
Continuous
 62
     7
370
     0
100
AcDbLine
 10
124.6586449891
 20
127.1105598451
 30
0.0
 11
186.1586449891
 21
127.1105598451
 31
0.0
  0
MTEXT
  5
19C
330
194
100
AcDbEntity
  8
0
  6
Continuous
 62
     7
370
     0
100
AcDbMText
 10
148.2153751283
 20
131.6222967597
 30
0.1
 40
3.5
 41
0.0
 71
     1
 72
     1
  1
61.5
  7
SLDTEXTSTYLE0
 73
     1
 44
1.0
  0
ENDBLK
  5
196
330
194
100
AcDbEntity
  8
0
100
AcDbBlockEnd
  0
BLOCK
  5
19F
330
19E
100
AcDbEntity
  8
0
100
AcDbBlockBegin
  2
_D_5
 70
     0
 10
0.0
 20
0.0
 30
0.0
  3
_D_5
  1

  0
SOLID
  5
1A1
330
19E
100
AcDbEntity
  8
0
  6
Continuous
 62
     7
370
     0
100
AcDbTrace
 10
109.6586449891
 20
117.3941868602
 30
0.0
 11
111.6586449891
 21
116.6441868602
 31
0.0
 12
111.6586449891
 22
118.1441868602
 32
0.0
 13
111.6586449891
 23
118.1441868602
 33
0.0
  0
SOLID
  5
1A2
330
19E
100
AcDbEntity
  8
0
  6
Continuous
 62
     7
370
     0
100
AcDbTrace
 10
186.1586449891
 20
117.3941868602
 30
0.0
 11
184.1586449891
 21
118.1441868602
 31
0.0
 12
184.1586449891
 22
116.6441868602
 32
0.0
 13
184.1586449891
 23
116.6441868602
 33
0.0
  0
LINE
  5
1A3
330
19E
100
AcDbEntity
  8
0
  6
Continuous
 62
     7
370
     0
100
AcDbLine
 10
109.6586449891
 20
159.0465091078
 30
0.0
 11
109.6586449891
 21
116.3941868602
 31
0.0
  0
LINE
  5
1A4
330
19E
100
AcDbEntity
  8
0
  6
Continuous
 62
     7
370
     0
100
AcDbLine
 10
186.1586449891
 20
159.0965091078
 30
0.0
 11
186.1586449891
 21
116.3941868602
 31
0.0
  0
LINE
  5
1A5
330
19E
100
AcDbEntity
  8
0
  6
Continuous
 62
     7
370
     0
100
AcDbLine
 10
109.6586449891
 20
117.3941868602
 30
0.0
 11
186.1586449891
 21
117.3941868602
 31
0.0
  0
MTEXT
  5
1A6
330
19E
100
AcDbEntity
  8
0
  6
Continuous
 62
     7
370
     0
100
AcDbMText
 10
148.2102003335
 20
121.9059237748
 30
0.1
 40
3.5
 41
0.0
 71
     1
 72
     1
  1
76.5
  7
SLDTEXTSTYLE0
 73
     1
 44
1.0
  0
ENDBLK
  5
1A0
330
19E
100
AcDbEntity
  8
0
100
AcDbBlockEnd
  0
BLOCK
  5
1A9
330
1A8
100
AcDbEntity
  8
0
100
AcDbBlockBegin
  2
_D_6
 70
     0
 10
0.0
 20
0.0
 30
0.0
  3
_D_6
  1

  0
SOLID
  5
1AB
330
1A8
100
AcDbEntity
  8
0
  6
Continuous
 62
     7
370
     0
100
AcDbTrace
 10
193.0907007774
 20
146.6965091078
 30
0.0
 11
193.8407007774
 21
148.6965091078
 31
0.0
 12
192.3407007774
 22
148.6965091078
 32
0.0
 13
192.3407007774
 23
148.6965091078
 33
0.0
  0
SOLID
  5
1AC
330
1A8
100
AcDbEntity
  8
0
  6
Continuous
 62
     7
370
     0
100
AcDbTrace
 10
193.0907007774
 20
197.4237577302
 30
0.0
 11
192.3407007774
 21
195.4237577302
 31
0.0
 12
193.8407007774
 22
195.4237577302
 32
0.0
 13
193.8407007774
 23
195.4237577302
 33
0.0
  0
LINE
  5
1AD
330
1A8
100
AcDbEntity
  8
0
  6
Continuous
 62
     7
370
     0
100
AcDbLine
 10
165.6586449891
 20
146.6965091078
 30
0.0
 11
194.0907007774
 21
146.6965091078
 31
0.0
  0
LINE
  5
1AE
330
1A8
100
AcDbEntity
  8
0
  6
Continuous
 62
     7
370
     0
100
AcDbLine
 10
180.4586449891
 20
197.4237577302
 30
0.0
 11
194.0907007774
 21
197.4237577302
 31
0.0
  0
LINE
  5
1AF
330
1A8
100
AcDbEntity
  8
0
  6
Continuous
 62
     7
370
     0
100
AcDbLine
 10
193.0907007774
 20
146.6965091078
 30
0.0
 11
193.0907007774
 21
197.4237577302
 31
0.0
  0
MTEXT
  5
1B0
330
1A8
100
AcDbEntity
  8
0
  6
Continuous
 62
     7
370
     0
100
AcDbMText
 10
188.5789638628
 20
163.6217659918
 30
0.1
 40
3.5
 41
0.0
 71
     1
 72
     1
  1
50.7
  7
SLDTEXTSTYLE0
 11
-1.037486409151910E-14
 21
1.0
 31
0.0
 73
     1
 44
1.0
  0
ENDBLK
  5
1AA
330
1A8
100
AcDbEntity
  8
0
100
AcDbBlockEnd
  0
BLOCK
  5
1B4
330
1B3
100
AcDbEntity
  8
0
100
AcDbBlockBegin
  2
_D_7
 70
     0
 10
0.0
 20
0.0
 30
0.0
  3
_D_7
  1

  0
INSERT
  5
1B6
330
1B3
100
AcDbEntity
  8
0
  6
Continuous
 62
     7
370
     0
100
AcDbBlockReference
  2
_DOT
 10
179.4586449891
 20
207.4237577302
 30
0.1
 41
3.0
 42
3.0
 50
0.0
  0
SOLID
  5
1B7
330
1B3
100
AcDbEntity
  8
0
  6
Continuous
 62
     7
370
     0
100
AcDbTrace
 10
186.1586449891
 20
207.4237577302
 30
0.0
 11
188.1586449891
 21
206.6737577302
 31
0.0
 12
188.1586449891
 22
208.1737577302
 32
0.0
 13
188.1586449891
 23
208.1737577302
 33
0.0
  0
LINE
  5
1B8
330
1B3
100
AcDbEntity
  8
0
  6
Continuous
 62
     7
370
     0
100
AcDbLine
 10
179.4586449891
 20
198.3027899882
 30
0.0
 11
179.4586449891
 21
208.4237577302
 31
0.0
  0
LINE
  5
1B9
330
1B3
100
AcDbEntity
  8
0
  6
Continuous
 62
     7
370
     0
100
AcDbLine
 10
186.1586449891
 20
187.9965091113
 30
0.0
 11
186.1586449891
 21
208.4237577302
 31
0.0
  0
LINE
  5
1BA
330
1B3
100
AcDbEntity
  8
0
  6
Continuous
 62
     7
370
     0
100
AcDbLine
 10
179.4586449891
 20
207.4237577302
 30
0.0
 11
173.1086449891
 21
207.4237577302
 31
0.0
  0
LINE
  5
1BB
330
1B3
100
AcDbEntity
  8
0
  6
Continuous
 62
     7
370
     0
100
AcDbLine
 10
179.4586449891
 20
207.4237577302
 30
0.0
 11
186.1586449891
 21
207.4237577302
 31
0.0
  0
LINE
  5
1BC
330
1B3
100
AcDbEntity
  8
0
  6
Continuous
 62
     7
370
     0
100
AcDbLine
 10
186.1586449891
 20
207.4237577302
 30
0.0
 11
196.3233395946
 21
207.4237577302
 31
0.0
  0
MTEXT
  5
1BD
330
1B3
100
AcDbEntity
  8
0
  6
Continuous
 62
     7
370
     0
100
AcDbMText
 10
189.8580619601
 20
211.9354946447
 30
0.1
 40
3.5
 41
0.0
 71
     1
 72
     1
  1
6.7
  7
SLDTEXTSTYLE0
 73
     1
 44
1.0
  0
ENDBLK
  5
1B5
330
1B3
100
AcDbEntity
  8
0
100
AcDbBlockEnd
  0
BLOCK
  5
1C0
330
1BF
100
AcDbEntity
  8
0
100
AcDbBlockBegin
  2
_D_8
 70
     0
 10
0.0
 20
0.0
 30
0.0
  3
_D_8
  1

  0
SOLID
  5
1C2
330
1BF
100
AcDbEntity
  8
0
  6
Continuous
 62
     7
370
     0
100
AcDbTrace
 10
96.0421303048
 20
174.4965091078
 30
0.0
 11
95.2921303048
 21
172.4965091078
 31
0.0
 12
96.7921303048
 22
172.4965091078
 32
0.0
 13
96.7921303048
 23
172.4965091078
 33
0.0
  0
SOLID
  5
1C3
330
1BF
100
AcDbEntity
  8
0
  6
Continuous
 62
     7
370
     0
100
AcDbTrace
 10
96.0421303048
 20
146.6965091078
 30
0.0
 11
96.7921303048
 21
148.6965091078
 31
0.0
 12
95.2921303048
 22
148.6965091078
 32
0.0
 13
95.2921303048
 23
148.6965091078
 33
0.0
  0
LINE
  5
1C4
330
1BF
100
AcDbEntity
  8
0
  6
Continuous
 62
     7
370
     0
100
AcDbLine
 10
117.6561822812
 20
174.4965091078
 30
0.0
 11
95.0421303048
 21
174.4965091078
 31
0.0
  0
LINE
  5
1C5
330
1BF
100
AcDbEntity
  8
0
  6
Continuous
 62
     7
370
     0
100
AcDbLine
 10
128.6586449891
 20
146.6965091078
 30
0.0
 11
95.0421303048
 21
146.6965091078
 31
0.0
  0
LINE
  5
1C6
330
1BF
100
AcDbEntity
  8
0
  6
Continuous
 62
     7
370
     0
100
AcDbLine
 10
96.0421303048
 20
174.4965091078
 30
0.0
 11
96.0421303048
 21
146.6965091078
 31
0.0
  0
MTEXT
  5
1C7
330
1BF
100
AcDbEntity
  8
0
  6
Continuous
 62
     7
370
     0
100
AcDbMText
 10
91.5303933902
 20
156.0708145773
 30
0.1
 40
3.5
 41
0.0
 71
     1
 72
     1
  1
27.8
  7
SLDTEXTSTYLE0
 11
-1.770233605404514E-14
 21
1.0
 31
0.0
 73
     1
 44
1.0
  0
ENDBLK
  5
1C1
330
1BF
100
AcDbEntity
  8
0
100
AcDbBlockEnd
  0
BLOCK
  5
1CA
330
1C9
100
AcDbEntity
  8
0
100
AcDbBlockBegin
  2
_D_9
 70
     0
 10
0.0
 20
0.0
 30
0.0
  3
_D_9
  1

  0
SOLID
  5
1CC
330
1C9
100
AcDbEntity
  8
0
  6
Continuous
 62
     7
370
     0
100
AcDbTrace
 10
105.1586162607
 20
163.4965091078
 30
0.0
 11
104.4086162607
 21
161.4965091078
 31
0.0
 12
105.9086162607
 22
161.4965091078
 32
0.0
 13
105.9086162607
 23
161.4965091078
 33
0.0
  0
SOLID
  5
1CD
330
1C9
100
AcDbEntity
  8
0
  6
Continuous
 62
     7
370
     0
100
AcDbTrace
 10
105.1586162607
 20
146.6965091078
 30
0.0
 11
105.9086162607
 21
148.6965091078
 31
0.0
 12
104.4086162607
 22
148.6965091078
 32
0.0
 13
104.4086162607
 23
148.6965091078
 33
0.0
  0
LINE
  5
1CE
330
1C9
100
AcDbEntity
  8
0
  6
Continuous
 62
     7
370
     0
100
AcDbLine
 10
107.1586449891
 20
163.4965091078
 30
0.0
 11
104.1586162607
 21
163.4965091078
 31
0.0
  0
LINE
  5
1CF
330
1C9
100
AcDbEntity
  8
0
  6
Continuous
 62
     7
370
     0
100
AcDbLine
 10
128.6586449891
 20
146.6965091078
 30
0.0
 11
104.1586162607
 21
146.6965091078
 31
0.0
  0
LINE
  5
1D0
330
1C9
100
AcDbEntity
  8
0
  6
Continuous
 62
     7
370
     0
100
AcDbLine
 10
105.1586162607
 20
163.4965091078
 30
0.0
 11
105.1586162607
 21
146.6965091078
 31
0.0
  0
MTEXT
  5
1D1
330
1C9
100
AcDbEntity
  8
0
  6
Continuous
 62
     7
370
     0
100
AcDbMText
 10
100.6468793461
 20
150.5708145773
 30
0.1
 40
3.5
 41
0.0
 71
     1
 72
     1
  1
16.8
  7
SLDTEXTSTYLE0
 11
-1.770233605404514E-14
 21
1.0
 31
0.0
 73
     1
 44
1.0
  0
ENDBLK
  5
1CB
330
1C9
100
AcDbEntity
  8
0
100
AcDbBlockEnd
  0
BLOCK
  5
1D4
330
1D3
100
AcDbEntity
  8
0
100
AcDbBlockBegin
  2
SW_NOTE_0
 70
     0
 10
0.0
 20
0.0
 30
0.0
  3
SW_NOTE_0
  1

  0
LINE
  5
1D6
330
1D3
100
AcDbEntity
  8
0
  6
Continuous
 62
     0
370
     0
100
AcDbLine
 10
-0.0602556377
 20
0.3197444902
 30
0.0
 11
17.5247385007
 21
0.3197444902
 31
0.0
  0
LINE
  5
1D7
330
1D3
100
AcDbEntity
  8
0
  6
Continuous
 62
     0
370
     0
100
AcDbLine
 10
17.5247385007
 20
0.3197444902
 30
0.0
 11
-0.0602556377
 21
0.3197444902
 31
0.0
  0
LINE
  5
1D8
330
1D3
100
AcDbEntity
  8
0
  6
Continuous
 62
     0
370
     0
100
AcDbLine
 10
-0.0602556377
 20
0.3197444902
 30
0.0
 11
17.5247385007
 21
0.3197444902
 31
0.0
  0
LINE
  5
1D9
330
1D3
100
AcDbEntity
  8
0
  6
Continuous
 62
     0
370
     0
100
AcDbLine
 10
17.5247385007
 20
0.3197444902
 30
0.0
 11
-0.0602556377
 21
0.3197444902
 31
0.0
  0
LINE
  5
1DA
330
1D3
100
AcDbEntity
  8
0
  6
Continuous
 62
     0
370
     0
100
AcDbLine
 10
-0.0602556377
 20
0.3197444902
 30
0.0
 11
17.5247385007
 21
0.3197444902
 31
0.0
  0
LINE
  5
1DB
330
1D3
100
AcDbEntity
  8
0
  6
Continuous
 62
     0
370
     0
100
AcDbLine
 10
17.5247385007
 20
0.3197444902
 30
0.0
 11
-0.0602556377
 21
0.3197444902
 31
0.0
  0
MTEXT
  5
1DC
330
1D3
100
AcDbEntity
  8
0
  6
Continuous
 62
     0
370
     0
100
AcDbMText
 10
0.0
 20
4.5117370892
 30
0.0
 40
3.5
 41
0.0
 71
     1
 72
     1
  1
プル配管
  7
SLDTEXTSTYLE0
 73
     1
 44
1.0
  0
ENDBLK
  5
1D5
330
1D3
100
AcDbEntity
  8
0
100
AcDbBlockEnd
  0
BLOCK
  5
29C
330
29B
100
AcDbEntity
  8
0
100
AcDbBlockBegin
  2
_D_10
 70
     0
 10
0.0
 20
0.0
 30
0.0
  3
_D_10
  1

  0
SOLID
  5
29E
330
29B
100
AcDbEntity
  8
0
  6
Continuous
 62
     7
370
     0
100
AcDbTrace
 10
67.1692674105
 20
178.4965091078
 30
0.0
 11
66.4192674105
 21
176.4965091078
 31
0.0
 12
67.9192674105
 22
176.4965091078
 32
0.0
 13
67.9192674105
 23
176.4965091078
 33
0.0
  0
SOLID
  5
29F
330
29B
100
AcDbEntity
  8
0
  6
Continuous
 62
     7
370
     0
100
AcDbTrace
 10
67.1692674105
 20
146.6965091078
 30
0.0
 11
67.9192674105
 21
148.6965091078
 31
0.0
 12
66.4192674105
 22
148.6965091078
 32
0.0
 13
66.4192674105
 23
148.6965091078
 33
0.0
  0
LINE
  5
2A0
330
29B
100
AcDbEntity
  8
0
  6
Continuous
 62
     7
370
     0
100
AcDbLine
 10
57.5948135561
 20
178.4965091078
 30
0.0
 11
68.1692674105
 21
178.4965091078
 31
0.0
  0
LINE
  5
2A1
330
29B
100
AcDbEntity
  8
0
  6
Continuous
 62
     7
370
     0
100
AcDbLine
 10
60.0948135561
 20
146.6965091078
 30
0.0
 11
68.1692674105
 21
146.6965091078
 31
0.0
  0
LINE
  5
2A2
330
29B
100
AcDbEntity
  8
0
  6
Continuous
 62
     7
370
     0
100
AcDbLine
 10
67.1692674105
 20
178.4965091078
 30
0.0
 11
67.1692674105
 21
146.6965091078
 31
0.0
  0
MTEXT
  5
2A3
330
29B
100
AcDbEntity
  8
0
  6
Continuous
 62
     7
370
     0
100
AcDbMText
 10
62.657530496
 20
156.373365343
 30
-35.4313718718
 40
3.5
 41
0.0
 71
     1
 72
     1
  1
31.8
  7
SLDTEXTSTYLE0
 11
-7.044195017643634E-15
 21
1.0
 31
0.0
 73
     1
 44
1.0
  0
ENDBLK
  5
29D
330
29B
100
AcDbEntity
  8
0
100
AcDbBlockEnd
  0
BLOCK
  5
2A6
330
2A5
100
AcDbEntity
  8
0
100
AcDbBlockBegin
  2
_D_11
 70
     0
 10
0.0
 20
0.0
 30
0.0
  3
_D_11
  1

  0
SOLID
  5
2A8
330
2A5
100
AcDbEntity
  8
0
  6
Continuous
 62
     7
370
     0
100
AcDbTrace
 10
76.4878691635
 20
186.9965091115
 30
0.0
 11
75.7378691635
 21
184.9965091115
 31
0.0
 12
77.2378691635
 22
184.9965091115
 32
0.0
 13
77.2378691635
 23
184.9965091115
 33
0.0
  0
SOLID
  5
2A9
330
2A5
100
AcDbEntity
  8
0
  6
Continuous
 62
     7
370
     0
100
AcDbTrace
 10
76.4878691635
 20
146.6965091078
 30
0.0
 11
77.2378691635
 21
148.6965091078
 31
0.0
 12
75.7378691635
 22
148.6965091078
 32
0.0
 13
75.7378691635
 23
148.6965091078
 33
0.0
  0
LINE
  5
2AA
330
2A5
100
AcDbEntity
  8
0
  6
Continuous
 62
     7
370
     0
100
AcDbLine
 10
57.7655248143
 20
186.9965091115
 30
0.0
 11
77.4878691635
 21
186.9965091115
 31
0.0
  0
LINE
  5
2AB
330
2A5
100
AcDbEntity
  8
0
  6
Continuous
 62
     7
370
     0
100
AcDbLine
 10
60.0948135561
 20
146.6965091078
 30
0.0
 11
77.4878691635
 21
146.6965091078
 31
0.0
  0
LINE
  5
2AC
330
2A5
100
AcDbEntity
  8
0
  6
Continuous
 62
     7
370
     0
100
AcDbLine
 10
76.4878691635
 20
186.9965091115
 30
0.0
 11
76.4878691635
 21
146.6965091078
 31
0.0
  0
MTEXT
  5
2AD
330
2A5
100
AcDbEntity
  8
0
  6
Continuous
 62
     7
370
     0
100
AcDbMText
 10
71.976132249
 20
162.320814581
 30
-35.4313718718
 40
3.5
 41
0.0
 71
     1
 72
     1
  1
40.3
  7
SLDTEXTSTYLE0
 11
-7.044195017643634E-15
 21
1.0
 31
0.0
 73
     1
 44
1.0
  0
ENDBLK
  5
2A7
330
2A5
100
AcDbEntity
  8
0
100
AcDbBlockEnd
  0
BLOCK
  5
2B1
330
2B0
100
AcDbEntity
  8
0
100
AcDbBlockBegin
  2
_D_12
 70
     0
 10
0.0
 20
0.0
 30
0.0
  3
_D_12
  1

  0
SOLID
  5
2B3
330
2B0
100
AcDbEntity
  8
0
  6
Continuous
 62
     7
370
     0
100
AcDbTrace
 10
76.4878691635
 20
186.9965091165
 30
0.0
 11
75.737869164
 21
184.9965091163
 31
0.0
 12
77.237869164
 22
184.9965091167
 32
0.0
 13
77.237869164
 23
184.9965091167
 33
0.0
  0
SOLID
  5
2B4
330
2B0
100
AcDbEntity
  8
0
  6
Continuous
 62
     7
370
     0
100
AcDbTrace
 10
76.4878691609
 20
197.4237577367
 30
0.0
 11
77.2378691603
 21
199.4237577369
 31
0.0
 12
75.7378691603
 22
199.4237577365
 32
0.0
 13
75.7378691603
 23
199.4237577365
 33
0.0
  0
LINE
  5
2B5
330
2B0
100
AcDbEntity
  8
0
  6
Continuous
 62
     7
370
     0
100
AcDbLine
 10
57.7655248143
 20
186.9965091117
 30
0.0
 11
77.4878691635
 21
186.9965091168
 31
0.0
  0
LINE
  5
2B6
330
2B0
100
AcDbEntity
  8
0
  6
Continuous
 62
     7
370
     0
100
AcDbLine
 10
52.0948135561
 20
197.4237577304
 30
0.0
 11
77.4878691609
 21
197.4237577369
 31
0.0
  0
LINE
  5
2B7
330
2B0
100
AcDbEntity
  8
0
  6
Continuous
 62
     7
370
     0
100
AcDbLine
 10
76.4878691635
 20
186.9965091165
 30
0.0
 11
76.4878691648
 21
181.9965091165
 31
0.0
  0
LINE
  5
2B8
330
2B0
100
AcDbEntity
  8
0
  6
Continuous
 62
     7
370
     0
100
AcDbLine
 10
76.4878691635
 20
186.9965091165
 30
0.0
 11
76.4878691609
 21
197.4237577367
 31
0.0
  0
LINE
  5
2B9
330
2B0
100
AcDbEntity
  8
0
  6
Continuous
 62
     7
370
     0
100
AcDbLine
 10
76.4878691609
 20
197.4237577367
 30
0.0
 11
76.4878691596
 21
202.4237577367
 31
0.0
  0
MTEXT
  5
2BA
330
2B0
100
AcDbEntity
  8
0
  6
Continuous
 62
     7
370
     0
100
AcDbMText
 10
71.9761322488
 20
187.684438895
 30
-35.4313718718
 40
3.5
 41
0.0
 71
     1
 72
     1
  1
10.4
  7
SLDTEXTSTYLE0
 11
-2.571966471429780E-10
 21
1.0
 31
0.0
 73
     1
 44
1.0
  0
ENDBLK
  5
2B2
330
2B0
100
AcDbEntity
  8
0
100
AcDbBlockEnd
  0
BLOCK
  5
2BD
330
2BC
100
AcDbEntity
  8
0
100
AcDbBlockBegin
  2
_D_13
 70
     0
 10
0.0
 20
0.0
 30
0.0
  3
_D_13
  1

  0
SOLID
  5
2BF
330
2BC
100
AcDbEntity
  8
0
  6
Continuous
 62
     7
370
     0
100
AcDbTrace
 10
39.5948135561
 20
139.5407026723
 30
0.0
 11
41.5948135561
 21
138.7907026723
 31
0.0
 12
41.5948135561
 22
140.2907026723
 32
0.0
 13
41.5948135561
 23
140.2907026723
 33
0.0
  0
SOLID
  5
2C0
330
2BC
100
AcDbEntity
  8
0
  6
Continuous
 62
     7
370
     0
100
AcDbTrace
 10
59.5948135561
 20
139.5407026723
 30
0.0
 11
57.5948135561
 21
140.2907026723
 31
0.0
 12
57.5948135561
 22
138.7907026723
 32
0.0
 13
57.5948135561
 23
138.7907026723
 33
0.0
  0
LINE
  5
2C1
330
2BC
100
AcDbEntity
  8
0
  6
Continuous
 62
     7
370
     0
100
AcDbLine
 10
39.5948135561
 20
146.9965091078
 30
0.0
 11
39.5948135561
 21
138.5407026723
 31
0.0
  0
LINE
  5
2C2
330
2BC
100
AcDbEntity
  8
0
  6
Continuous
 62
     7
370
     0
100
AcDbLine
 10
59.5948135561
 20
146.9965091078
 30
0.0
 11
59.5948135561
 21
138.5407026723
 31
0.0
  0
LINE
  5
2C3
330
2BC
100
AcDbEntity
  8
0
  6
Continuous
 62
     7
370
     0
100
AcDbLine
 10
39.5948135561
 20
139.5407026723
 30
0.0
 11
59.5948135561
 21
139.5407026723
 31
0.0
  0
MTEXT
  5
2C4
330
2BC
100
AcDbEntity
  8
0
  6
Continuous
 62
     7
370
     0
100
AcDbMText
 10
47.0087023626
 20
144.0524395869
 30
-35.4313718718
 40
3.5
 41
0.0
 71
     1
 72
     1
  1
20
  7
SLDTEXTSTYLE0
 73
     1
 44
1.0
  0
ENDBLK
  5
2BE
330
2BC
100
AcDbEntity
  8
0
100
AcDbBlockEnd
  0
BLOCK
  5
2C8
330
2C7
100
AcDbEntity
  8
0
100
AcDbBlockBegin
  2
_D_14
 70
     0
 10
0.0
 20
0.0
 30
0.0
  3
_D_14
  1

  0
SOLID
  5
2CA
330
2C7
100
AcDbEntity
  8
0
  6
Continuous
 62
     7
370
     0
100
AcDbTrace
 10
48.0948135561
 20
204.7879722807
 30
0.0
 11
46.0948135561
 21
205.5379722807
 31
0.0
 12
46.0948135561
 22
204.0379722807
 32
0.0
 13
46.0948135561
 23
204.0379722807
 33
0.0
  0
SOLID
  5
2CB
330
2C7
100
AcDbEntity
  8
0
  6
Continuous
 62
     7
370
     0
100
AcDbTrace
 10
51.0948135561
 20
204.7879722807
 30
0.0
 11
53.0948135561
 21
204.0379722807
 31
0.0
 12
53.0948135561
 22
205.5379722807
 32
0.0
 13
53.0948135561
 23
205.5379722807
 33
0.0
  0
LINE
  5
2CC
330
2C7
100
AcDbEntity
  8
0
  6
Continuous
 62
     7
370
     0
100
AcDbLine
 10
48.0948135561
 20
198.4237577302
 30
0.0
 11
48.0948135561
 21
205.7879722807
 31
0.0
  0
LINE
  5
2CD
330
2C7
100
AcDbEntity
  8
0
  6
Continuous
 62
     7
370
     0
100
AcDbLine
 10
51.0948135561
 20
198.4237577302
 30
0.0
 11
51.0948135561
 21
205.7879722807
 31
0.0
  0
LINE
  5
2CE
330
2C7
100
AcDbEntity
  8
0
  6
Continuous
 62
     7
370
     0
100
AcDbLine
 10
48.0948135561
 20
204.7879722807
 30
0.0
 11
45.0948135561
 21
204.7879722807
 31
0.0
  0
LINE
  5
2CF
330
2C7
100
AcDbEntity
  8
0
  6
Continuous
 62
     7
370
     0
100
AcDbLine
 10
48.0948135561
 20
204.7879722807
 30
0.0
 11
51.0948135561
 21
204.7879722807
 31
0.0
  0
LINE
  5
2D0
330
2C7
100
AcDbEntity
  8
0
  6
Continuous
 62
     7
370
     0
100
AcDbLine
 10
51.0948135561
 20
204.7879722807
 30
0.0
 11
60.9211340967
 21
204.7879722807
 31
0.0
  0
MTEXT
  5
2D1
330
2C7
100
AcDbEntity
  8
0
  6
Continuous
 62
     7
370
     0
100
AcDbMText
 10
58.3350229031
 20
209.2997091952
 30
-35.4313718718
 40
3.5
 41
0.0
 71
     1
 72
     1
  1
3
  7
SLDTEXTSTYLE0
 73
     1
 44
1.0
  0
ENDBLK
  5
2C9
330
2C7
100
AcDbEntity
  8
0
100
AcDbBlockEnd
  0
BLOCK
  5
2D4
330
2D3
100
AcDbEntity
  8
0
100
AcDbBlockBegin
  2
_D_15
 70
     0
 10
0.0
 20
0.0
 30
0.0
  3
_D_15
  1

  0
ARC
  5
2D6
330
2D3
100
AcDbEntity
  8
0
  6
Continuous
 62
     7
370
     0
100
AcDbCircle
 10
50.6253691913
 20
214.4206873726
 30
0.0
 40
6.212076339995606
100
AcDbArc
 50
153.4349488229
 51
206.5650511771
  0
ARC
  5
2D7
330
2D3
100
AcDbEntity
  8
0
  6
Continuous
 62
     7
370
     0
100
AcDbCircle
 10
48.5642582701
 20
214.4206873726
 30
0.0
 40
6.212076339995606
100
AcDbArc
 50
333.4349488229
 51
26.5650511771
  0
SOLID
  5
2D8
330
2D3
100
AcDbEntity
  8
0
  6
Continuous
 62
     7
370
     0
100
AcDbTrace
 10
55.4192305643
 20
211.642562377
 30
0.0
 11
57.4192305643
 21
210.892562377
 31
0.0
 12
57.4192305643
 22
212.392562377
 32
0.0
 13
57.4192305643
 23
212.392562377
 33
0.0
  0
SOLID
  5
2D9
330
2D3
100
AcDbEntity
  8
0
  6
Continuous
 62
     7
370
     0
100
AcDbTrace
 10
43.7703965479
 20
211.642562377
 30
0.0
 11
41.7703965479
 21
212.392562377
 31
0.0
 12
41.7703965479
 22
210.892562377
 32
0.0
 13
41.7703965479
 23
210.892562377
 33
0.0
  0
LINE
  5
2DA
330
2D3
100
AcDbEntity
  8
0
  6
Continuous
 62
     7
370
     0
100
AcDbLine
 10
55.4192305643
 20
187.07584256
 30
0.0
 11
55.4192305643
 21
212.642562377
 31
0.0
  0
LINE
  5
2DB
330
2D3
100
AcDbEntity
  8
0
  6
Continuous
 62
     7
370
     0
100
AcDbLine
 10
43.7703965479
 20
187.07584256
 30
0.0
 11
43.7703965479
 21
212.642562377
 31
0.0
  0
LINE
  5
2DC
330
2D3
100
AcDbEntity
  8
0
  6
Continuous
 62
     7
370
     0
100
AcDbLine
 10
55.4192305643
 20
211.642562377
 30
0.0
 11
60.4192305643
 21
211.642562377
 31
0.0
  0
LINE
  5
2DD
330
2D3
100
AcDbEntity
  8
0
  6
Continuous
 62
     7
370
     0
100
AcDbLine
 10
55.4192305643
 20
211.642562377
 30
0.0
 11
43.7703965479
 21
211.642562377
 31
0.0
  0
LINE
  5
2DE
330
2D3
100
AcDbEntity
  8
0
  6
Continuous
 62
     7
370
     0
100
AcDbLine
 10
43.7703965479
 20
211.642562377
 30
0.0
 11
38.7703965479
 21
211.642562377
 31
0.0
  0
MTEXT
  5
2DF
330
2D3
100
AcDbEntity
  8
0
  6
Continuous
 62
     7
370
     0
100
AcDbMText
 10
45.0691192003
 20
216.1542992916
 30
-35.4313718718
 40
3.5
 41
0.0
 71
     1
 72
     1
  1
11.6
  7
SLDTEXTSTYLE0
 73
     1
 44
1.0
  0
ENDBLK
  5
2D5
330
2D3
100
AcDbEntity
  8
0
100
AcDbBlockEnd
  0
BLOCK
  5
2E2
330
2E1
100
AcDbEntity
  8
0
100
AcDbBlockBegin
  2
_D_16
 70
     0
 10
0.0
 20
0.0
 30
0.0
  3
_D_16
  1

  0
ARC
  5
2E4
330
2E1
100
AcDbEntity
  8
0
  6
Continuous
 62
     7
370
     0
100
AcDbCircle
 10
31.1646978167
 20
165.3770647439
 30
0.0
 40
6.212076339995591
100
AcDbArc
 50
243.4349488229
 51
296.5650511771
  0
ARC
  5
2E5
330
2E1
100
AcDbEntity
  8
0
  6
Continuous
 62
     7
370
     0
100
AcDbCircle
 10
31.1646978167
 20
163.3159538227
 30
0.0
 40
6.212076339995618
100
AcDbArc
 50
63.4349488229
 51
116.5650511771
  0
SOLID
  5
2E6
330
2E1
100
AcDbEntity
  8
0
  6
Continuous
 62
     7
370
     0
100
AcDbTrace
 10
33.9428228122
 20
181.9965091096
 30
0.0
 11
33.1928228122
 21
179.9965091096
 31
0.0
 12
34.6928228122
 22
179.9965091096
 32
0.0
 13
34.6928228122
 23
179.9965091096
 33
0.0
  0
SOLID
  5
2E7
330
2E1
100
AcDbEntity
  8
0
  6
Continuous
 62
     7
370
     0
100
AcDbTrace
 10
33.9428228122
 20
146.6965091078
 30
0.0
 11
34.6928228122
 21
148.6965091078
 31
0.0
 12
33.1928228122
 22
148.6965091078
 32
0.0
 13
33.1928228122
 23
148.6965091078
 33
0.0
  0
LINE
  5
2E8
330
2E1
100
AcDbEntity
  8
0
  6
Continuous
 62
     7
370
     0
100
AcDbLine
 10
43.5948135561
 20
181.9965091096
 30
0.0
 11
32.9428228122
 21
181.9965091096
 31
0.0
  0
LINE
  5
2E9
330
2E1
100
AcDbEntity
  8
0
  6
Continuous
 62
     7
370
     0
100
AcDbLine
 10
39.0948135561
 20
146.6965091078
 30
0.0
 11
32.9428228122
 21
146.6965091078
 31
0.0
  0
LINE
  5
2EA
330
2E1
100
AcDbEntity
  8
0
  6
Continuous
 62
     7
370
     0
100
AcDbLine
 10
33.9428228122
 20
181.9965091096
 30
0.0
 11
33.9428228122
 21
146.6965091078
 31
0.0
  0
MTEXT
  5
2EB
330
2E1
100
AcDbEntity
  8
0
  6
Continuous
 62
     7
370
     0
100
AcDbMText
 10
29.4310858976
 20
159.8208147529
 30
-35.4313718718
 40
3.5
 41
0.0
 71
     1
 72
     1
  1
35.3
  7
SLDTEXTSTYLE0
 11
-7.044195017643634E-15
 21
1.0
 31
0.0
 73
     1
 44
1.0
  0
ENDBLK
  5
2E3
330
2E1
100
AcDbEntity
  8
0
100
AcDbBlockEnd
  0
BLOCK
  5
2ED
330
2EC
100
AcDbEntity
  8
0
100
AcDbBlockBegin
  2
SW_CENTERMARKSYMBOL_0
 70
     0
 10
0.0
 20
0.0
 30
0.0
  3
SW_CENTERMARKSYMBOL_0
  1

  0
LINE
  5
2EF
330
2EC
100
AcDbEntity
  8
0
  6
Continuous
 62
     0
370
     0
100
AcDbLine
 10
0.0
 20
0.0
 30
0.0
 11
0.0
 21
2.5
 31
0.0
  0
LINE
  5
2F0
330
2EC
100
AcDbEntity
  8
0
  6
Continuous
 62
     0
370
     0
100
AcDbLine
 10
0.0
 20
0.0
 30
0.0
 11
-2.5
 21
0.0
 31
0.0
  0
LINE
  5
2F1
330
2EC
100
AcDbEntity
  8
0
  6
Continuous
 62
     0
370
     0
100
AcDbLine
 10
0.0
 20
0.0
 30
0.0
 11
0.0
 21
-2.5
 31
0.0
  0
LINE
  5
2F2
330
2EC
100
AcDbEntity
  8
0
  6
Continuous
 62
     0
370
     0
100
AcDbLine
 10
0.0
 20
0.0
 30
0.0
 11
2.5
 21
0.0
 31
0.0
  0
LINE
  5
2F3
330
2EC
100
AcDbEntity
  8
0
  6
Continuous
 62
     0
370
     0
100
AcDbLine
 10
0.0
 20
5.0
 30
0.0
 11
0.0
 21
6.45
 31
0.0
  0
LINE
  5
2F4
330
2EC
100
AcDbEntity
  8
0
  6
Continuous
 62
     0
370
     0
100
AcDbLine
 10
-5.0
 20
0.0
 30
0.0
 11
-6.45
 21
0.0
 31
0.0
  0
LINE
  5
2F5
330
2EC
100
AcDbEntity
  8
0
  6
Continuous
 62
     0
370
     0
100
AcDbLine
 10
0.0
 20
-5.0
 30
0.0
 11
0.0
 21
-6.45
 31
0.0
  0
LINE
  5
2F6
330
2EC
100
AcDbEntity
  8
0
  6
Continuous
 62
     0
370
     0
100
AcDbLine
 10
5.0
 20
0.0
 30
0.0
 11
6.45
 21
0.0
 31
0.0
  0
ENDBLK
  5
2EE
330
2EC
100
AcDbEntity
  8
0
100
AcDbBlockEnd
  0
BLOCK
  5
2F9
330
2F8
100
AcDbEntity
  8
0
100
AcDbBlockBegin
  2
SW_CENTERMARKSYMBOL_1
 70
     0
 10
0.0
 20
0.0
 30
0.0
  3
SW_CENTERMARKSYMBOL_1
  1

  0
LINE
  5
2FB
330
2F8
100
AcDbEntity
  8
0
  6
Continuous
 62
     0
370
     0
100
AcDbLine
 10
0.0
 20
0.0
 30
0.0
 11
0.0
 21
2.5
 31
0.0
  0
LINE
  5
2FC
330
2F8
100
AcDbEntity
  8
0
  6
Continuous
 62
     0
370
     0
100
AcDbLine
 10
0.0
 20
0.0
 30
0.0
 11
-2.5
 21
0.0
 31
0.0
  0
LINE
  5
2FD
330
2F8
100
AcDbEntity
  8
0
  6
Continuous
 62
     0
370
     0
100
AcDbLine
 10
0.0
 20
0.0
 30
0.0
 11
0.0
 21
-2.5
 31
0.0
  0
LINE
  5
2FE
330
2F8
100
AcDbEntity
  8
0
  6
Continuous
 62
     0
370
     0
100
AcDbLine
 10
0.0
 20
0.0
 30
0.0
 11
2.5
 21
0.0
 31
0.0
  0
LINE
  5
2FF
330
2F8
100
AcDbEntity
  8
0
  6
Continuous
 62
     0
370
     0
100
AcDbLine
 10
0.0
 20
2.5
 30
0.0
 11
0.0
 21
3.7195
 31
0.0
  0
LINE
  5
300
330
2F8
100
AcDbEntity
  8
0
  6
Continuous
 62
     0
370
     0
100
AcDbLine
 10
-2.5
 20
0.0
 30
0.0
 11
-3.7195
 21
0.0
 31
0.0
  0
LINE
  5
301
330
2F8
100
AcDbEntity
  8
0
  6
Continuous
 62
     0
370
     0
100
AcDbLine
 10
0.0
 20
-2.5
 30
0.0
 11
0.0
 21
-3.7195
 31
0.0
  0
LINE
  5
302
330
2F8
100
AcDbEntity
  8
0
  6
Continuous
 62
     0
370
     0
100
AcDbLine
 10
2.5
 20
0.0
 30
0.0
 11
3.7195
 21
0.0
 31
0.0
  0
ENDBLK
  5
2FA
330
2F8
100
AcDbEntity
  8
0
100
AcDbBlockEnd
  0
BLOCK
  5
305
330
304
100
AcDbEntity
  8
0
100
AcDbBlockBegin
  2
SW_CENTERMARKSYMBOL_2
 70
     0
 10
0.0
 20
0.0
 30
0.0
  3
SW_CENTERMARKSYMBOL_2
  1

  0
LINE
  5
307
330
304
100
AcDbEntity
  8
0
  6
Continuous
 62
     0
370
     0
100
AcDbLine
 10
0.0
 20
0.0
 30
0.0
 11
0.0
 21
2.5
 31
0.0
  0
LINE
  5
308
330
304
100
AcDbEntity
  8
0
  6
Continuous
 62
     0
370
     0
100
AcDbLine
 10
0.0
 20
0.0
 30
0.0
 11
-2.5
 21
0.0
 31
0.0
  0
LINE
  5
309
330
304
100
AcDbEntity
  8
0
  6
Continuous
 62
     0
370
     0
100
AcDbLine
 10
0.0
 20
0.0
 30
0.0
 11
0.0
 21
-2.5
 31
0.0
  0
LINE
  5
30A
330
304
100
AcDbEntity
  8
0
  6
Continuous
 62
     0
370
     0
100
AcDbLine
 10
0.0
 20
0.0
 30
0.0
 11
2.5
 21
0.0
 31
0.0
  0
LINE
  5
30B
330
304
100
AcDbEntity
  8
0
  6
Continuous
 62
     0
370
     0
100
AcDbLine
 10
0.0
 20
2.5
 30
0.0
 11
0.0
 21
4.625
 31
0.0
  0
LINE
  5
30C
330
304
100
AcDbEntity
  8
0
  6
Continuous
 62
     0
370
     0
100
AcDbLine
 10
-2.5
 20
0.0
 30
0.0
 11
-4.625
 21
0.0
 31
0.0
  0
LINE
  5
30D
330
304
100
AcDbEntity
  8
0
  6
Continuous
 62
     0
370
     0
100
AcDbLine
 10
0.0
 20
-2.5
 30
0.0
 11
0.0
 21
-4.625
 31
0.0
  0
LINE
  5
30E
330
304
100
AcDbEntity
  8
0
  6
Continuous
 62
     0
370
     0
100
AcDbLine
 10
2.5
 20
0.0
 30
0.0
 11
4.625
 21
0.0
 31
0.0
  0
ENDBLK
  5
306
330
304
100
AcDbEntity
  8
0
100
AcDbBlockEnd
  0
BLOCK
  5
311
330
310
100
AcDbEntity
  8
0
100
AcDbBlockBegin
  2
SW_CENTERMARKSYMBOL_3
 70
     0
 10
0.0
 20
0.0
 30
0.0
  3
SW_CENTERMARKSYMBOL_3
  1

  0
LINE
  5
313
330
310
100
AcDbEntity
  8
0
  6
Continuous
 62
     0
370
     0
100
AcDbLine
 10
0.0
 20
0.0
 30
0.0
 11
0.0
 21
2.5
 31
0.0
  0
LINE
  5
314
330
310
100
AcDbEntity
  8
0
  6
Continuous
 62
     0
370
     0
100
AcDbLine
 10
0.0
 20
0.0
 30
0.0
 11
-2.5
 21
0.0
 31
0.0
  0
LINE
  5
315
330
310
100
AcDbEntity
  8
0
  6
Continuous
 62
     0
370
     0
100
AcDbLine
 10
0.0
 20
0.0
 30
0.0
 11
0.0
 21
-2.5
 31
0.0
  0
LINE
  5
316
330
310
100
AcDbEntity
  8
0
  6
Continuous
 62
     0
370
     0
100
AcDbLine
 10
0.0
 20
0.0
 30
0.0
 11
2.5
 21
0.0
 31
0.0
  0
LINE
  5
317
330
310
100
AcDbEntity
  8
0
  6
Continuous
 62
     0
370
     0
100
AcDbLine
 10
0.0
 20
2.5
 30
0.0
 11
0.0
 21
4.75
 31
0.0
  0
LINE
  5
318
330
310
100
AcDbEntity
  8
0
  6
Continuous
 62
     0
370
     0
100
AcDbLine
 10
-2.5
 20
0.0
 30
0.0
 11
-4.75
 21
0.0
 31
0.0
  0
LINE
  5
319
330
310
100
AcDbEntity
  8
0
  6
Continuous
 62
     0
370
     0
100
AcDbLine
 10
0.0
 20
-2.5
 30
0.0
 11
0.0
 21
-4.75
 31
0.0
  0
LINE
  5
31A
330
310
100
AcDbEntity
  8
0
  6
Continuous
 62
     0
370
     0
100
AcDbLine
 10
2.5
 20
0.0
 30
0.0
 11
4.75
 21
0.0
 31
0.0
  0
ENDBLK
  5
312
330
310
100
AcDbEntity
  8
0
100
AcDbBlockEnd
  0
BLOCK
  5
31D
330
31C
100
AcDbEntity
  8
0
100
AcDbBlockBegin
  2
SW_CENTERMARKSYMBOL_4
 70
     0
 10
0.0
 20
0.0
 30
0.0
  3
SW_CENTERMARKSYMBOL_4
  1

  0
LINE
  5
31F
330
31C
100
AcDbEntity
  8
0
  6
Continuous
 62
     0
370
     0
100
AcDbLine
 10
0.0
 20
0.0
 30
0.0
 11
0.0
 21
2.5
 31
0.0
  0
LINE
  5
320
330
31C
100
AcDbEntity
  8
0
  6
Continuous
 62
     0
370
     0
100
AcDbLine
 10
0.0
 20
0.0
 30
0.0
 11
-2.5
 21
0.0
 31
0.0
  0
LINE
  5
321
330
31C
100
AcDbEntity
  8
0
  6
Continuous
 62
     0
370
     0
100
AcDbLine
 10
0.0
 20
0.0
 30
0.0
 11
0.0
 21
-2.5
 31
0.0
  0
LINE
  5
322
330
31C
100
AcDbEntity
  8
0
  6
Continuous
 62
     0
370
     0
100
AcDbLine
 10
0.0
 20
0.0
 30
0.0
 11
2.5
 21
0.0
 31
0.0
  0
LINE
  5
323
330
31C
100
AcDbEntity
  8
0
  6
Continuous
 62
     0
370
     0
100
AcDbLine
 10
0.0
 20
2.5
 30
0.0
 11
0.0
 21
5.0
 31
0.0
  0
LINE
  5
324
330
31C
100
AcDbEntity
  8
0
  6
Continuous
 62
     0
370
     0
100
AcDbLine
 10
-2.5
 20
0.0
 30
0.0
 11
-5.0
 21
0.0
 31
0.0
  0
LINE
  5
325
330
31C
100
AcDbEntity
  8
0
  6
Continuous
 62
     0
370
     0
100
AcDbLine
 10
0.0
 20
-2.5
 30
0.0
 11
0.0
 21
-5.0
 31
0.0
  0
LINE
  5
326
330
31C
100
AcDbEntity
  8
0
  6
Continuous
 62
     0
370
     0
100
AcDbLine
 10
2.5
 20
0.0
 30
0.0
 11
5.0
 21
0.0
 31
0.0
  0
ENDBLK
  5
31E
330
31C
100
AcDbEntity
  8
0
100
AcDbBlockEnd
  0
BLOCK
  5
3B3
330
3B2
100
AcDbEntity
  8
0
100
AcDbBlockBegin
  2
_D_17
 70
     0
 10
0.0
 20
0.0
 30
0.0
  3
_D_17
  1

  0
SOLID
  5
3B5
330
3B2
100
AcDbEntity
  8
0
  6
Continuous
 62
     7
370
     0
100
AcDbTrace
 10
140.1586449891
 20
66.7529253953
 30
0.0
 11
142.1586449891
 21
66.0029253953
 31
0.0
 12
142.1586449891
 22
67.5029253953
 32
0.0
 13
142.1586449891
 23
67.5029253953
 33
0.0
  0
SOLID
  5
3B6
330
3B2
100
AcDbEntity
  8
0
  6
Continuous
 62
     7
370
     0
100
AcDbTrace
 10
160.1586449891
 20
66.7529253953
 30
0.0
 11
158.1586449891
 21
67.5029253953
 31
0.0
 12
158.1586449891
 22
66.0029253953
 32
0.0
 13
158.1586449891
 23
66.0029253953
 33
0.0
  0
LINE
  5
3B7
330
3B2
100
AcDbEntity
  8
0
  6
Continuous
 62
     7
370
     0
100
AcDbLine
 10
140.1586449891
 20
81.7784837778
 30
0.0
 11
140.1586449891
 21
65.7529253953
 31
0.0
  0
LINE
  5
3B8
330
3B2
100
AcDbEntity
  8
0
  6
Continuous
 62
     7
370
     0
100
AcDbLine
 10
160.1586449891
 20
81.7784837778
 30
0.0
 11
160.1586449891
 21
65.7529253953
 31
0.0
  0
LINE
  5
3B9
330
3B2
100
AcDbEntity
  8
0
  6
Continuous
 62
     7
370
     0
100
AcDbLine
 10
140.1586449891
 20
66.7529253953
 30
0.0
 11
160.1586449891
 21
66.7529253953
 31
0.0
  0
MTEXT
  5
3BA
330
3B2
100
AcDbEntity
  8
0
  6
Continuous
 62
     7
370
     0
100
AcDbMText
 10
147.5725337956
 20
71.2646623099
 30
12.3035862266
 40
3.5
 41
0.0
 71
     1
 72
     1
  1
20
  7
SLDTEXTSTYLE0
 73
     1
 44
1.0
  0
ENDBLK
  5
3B4
330
3B2
100
AcDbEntity
  8
0
100
AcDbBlockEnd
  0
BLOCK
  5
3BD
330
3BC
100
AcDbEntity
  8
0
100
AcDbBlockBegin
  2
_D_18
 70
     0
 10
0.0
 20
0.0
 30
0.0
  3
_D_18
  1

  0
SOLID
  5
3BF
330
3BC
100
AcDbEntity
  8
0
  6
Continuous
 62
     7
370
     0
100
AcDbTrace
 10
160.1586449891
 20
66.7529253953
 30
0.0
 11
162.1586449891
 21
66.0029253953
 31
0.0
 12
162.1586449891
 22
67.5029253953
 32
0.0
 13
162.1586449891
 23
67.5029253953
 33
0.0
  0
SOLID
  5
3C0
330
3BC
100
AcDbEntity
  8
0
  6
Continuous
 62
     7
370
     0
100
AcDbTrace
 10
186.1586449891
 20
66.7529253953
 30
0.0
 11
184.1586449891
 21
67.5029253953
 31
0.0
 12
184.1586449891
 22
66.0029253953
 32
0.0
 13
184.1586449891
 23
66.0029253953
 33
0.0
  0
LINE
  5
3C1
330
3BC
100
AcDbEntity
  8
0
  6
Continuous
 62
     7
370
     0
100
AcDbLine
 10
160.1586449891
 20
81.7784837778
 30
0.0
 11
160.1586449891
 21
65.7529253953
 31
0.0
  0
LINE
  5
3C2
330
3BC
100
AcDbEntity
  8
0
  6
Continuous
 62
     7
370
     0
100
AcDbLine
 10
186.1586449891
 20
76.4284837778
 30
0.0
 11
186.1586449891
 21
65.7529253953
 31
0.0
  0
LINE
  5
3C3
330
3BC
100
AcDbEntity
  8
0
  6
Continuous
 62
     7
370
     0
100
AcDbLine
 10
160.1586449891
 20
66.7529253953
 30
0.0
 11
186.1586449891
 21
66.7529253953
 31
0.0
  0
MTEXT
  5
3C4
330
3BC
100
AcDbEntity
  8
0
  6
Continuous
 62
     7
370
     0
100
AcDbMText
 10
170.5725337956
 20
71.2646623099
 30
12.3035862266
 40
3.5
 41
0.0
 71
     1
 72
     1
  1
26
  7
SLDTEXTSTYLE0
 73
     1
 44
1.0
  0
ENDBLK
  5
3BE
330
3BC
100
AcDbEntity
  8
0
100
AcDbBlockEnd
  0
BLOCK
  5
3CB
330
3CA
100
AcDbEntity
  8
0
100
AcDbBlockBegin
  2
SW_CENTERMARKSYMBOL_5
 70
     0
 10
0.0
 20
0.0
 30
0.0
  3
SW_CENTERMARKSYMBOL_5
  1

  0
LINE
  5
3CD
330
3CA
100
AcDbEntity
  8
0
  6
Continuous
 62
     0
370
     0
100
AcDbLine
 10
0.0
 20
0.0
 30
0.0
 11
0.0
 21
2.5
 31
0.0
  0
LINE
  5
3CE
330
3CA
100
AcDbEntity
  8
0
  6
Continuous
 62
     0
370
     0
100
AcDbLine
 10
0.0
 20
0.0
 30
0.0
 11
-2.5
 21
0.0
 31
0.0
  0
LINE
  5
3CF
330
3CA
100
AcDbEntity
  8
0
  6
Continuous
 62
     0
370
     0
100
AcDbLine
 10
0.0
 20
0.0
 30
0.0
 11
0.0
 21
-2.5
 31
0.0
  0
LINE
  5
3D0
330
3CA
100
AcDbEntity
  8
0
  6
Continuous
 62
     0
370
     0
100
AcDbLine
 10
0.0
 20
0.0
 30
0.0
 11
2.5
 21
0.0
 31
0.0
  0
LINE
  5
3D1
330
3CA
100
AcDbEntity
  8
0
  6
Continuous
 62
     0
370
     0
100
AcDbLine
 10
0.0
 20
2.5
 30
0.0
 11
0.0
 21
4.15
 31
0.0
  0
LINE
  5
3D2
330
3CA
100
AcDbEntity
  8
0
  6
Continuous
 62
     0
370
     0
100
AcDbLine
 10
-2.5
 20
0.0
 30
0.0
 11
-4.15
 21
0.0
 31
0.0
  0
LINE
  5
3D3
330
3CA
100
AcDbEntity
  8
0
  6
Continuous
 62
     0
370
     0
100
AcDbLine
 10
0.0
 20
-2.5
 30
0.0
 11
0.0
 21
-4.15
 31
0.0
  0
LINE
  5
3D4
330
3CA
100
AcDbEntity
  8
0
  6
Continuous
 62
     0
370
     0
100
AcDbLine
 10
2.5
 20
0.0
 30
0.0
 11
4.15
 21
0.0
 31
0.0
  0
ENDBLK
  5
3CC
330
3CA
100
AcDbEntity
  8
0
100
AcDbBlockEnd
  0
BLOCK
  5
3D7
330
3D6
100
AcDbEntity
  8
0
100
AcDbBlockBegin
  2
SW_CENTERMARKSYMBOL_6
 70
     0
 10
0.0
 20
0.0
 30
0.0
  3
SW_CENTERMARKSYMBOL_6
  1

  0
LINE
  5
3D9
330
3D6
100
AcDbEntity
  8
0
  6
Continuous
 62
     0
370
     0
100
AcDbLine
 10
0.0
 20
0.0
 30
0.0
 11
0.0
 21
2.5
 31
0.0
  0
LINE
  5
3DA
330
3D6
100
AcDbEntity
  8
0
  6
Continuous
 62
     0
370
     0
100
AcDbLine
 10
0.0
 20
0.0
 30
0.0
 11
-2.5
 21
0.0
 31
0.0
  0
LINE
  5
3DB
330
3D6
100
AcDbEntity
  8
0
  6
Continuous
 62
     0
370
     0
100
AcDbLine
 10
0.0
 20
0.0
 30
0.0
 11
0.0
 21
-2.5
 31
0.0
  0
LINE
  5
3DC
330
3D6
100
AcDbEntity
  8
0
  6
Continuous
 62
     0
370
     0
100
AcDbLine
 10
0.0
 20
0.0
 30
0.0
 11
2.5
 21
0.0
 31
0.0
  0
LINE
  5
3DD
330
3D6
100
AcDbEntity
  8
0
  6
Continuous
 62
     0
370
     0
100
AcDbLine
 10
0.0
 20
2.5
 30
0.0
 11
0.0
 21
4.15
 31
0.0
  0
LINE
  5
3DE
330
3D6
100
AcDbEntity
  8
0
  6
Continuous
 62
     0
370
     0
100
AcDbLine
 10
-2.5
 20
0.0
 30
0.0
 11
-4.15
 21
0.0
 31
0.0
  0
LINE
  5
3DF
330
3D6
100
AcDbEntity
  8
0
  6
Continuous
 62
     0
370
     0
100
AcDbLine
 10
0.0
 20
-2.5
 30
0.0
 11
0.0
 21
-4.15
 31
0.0
  0
LINE
  5
3E0
330
3D6
100
AcDbEntity
  8
0
  6
Continuous
 62
     0
370
     0
100
AcDbLine
 10
2.5
 20
0.0
 30
0.0
 11
4.15
 21
0.0
 31
0.0
  0
ENDBLK
  5
3D8
330
3D6
100
AcDbEntity
  8
0
100
AcDbBlockEnd
  0
ENDSEC
  0
SECTION
  2
ENTITIES
  0
LINE
  5
44
330
1F
100
AcDbEntity
  8
0
  6
Continuous
 62
     7
370
     0
100
AcDbLine
 10
20.2604743903
 20
285.0
 30
0.0
 11
196.7604743903
 21
285.0
 31
0.0
  0
LINE
  5
45
330
1F
100
AcDbEntity
  8
0
  6
Continuous
 62
     7
370
     0
100
AcDbLine
 10
20.2604743903
 20
285.0
 30
0.0
 11
20.2604743903
 21
10.0
 31
0.0
  0
LINE
  5
46
330
1F
100
AcDbEntity
  8
0
  6
Continuous
 62
     7
370
     0
100
AcDbLine
 10
20.2604743903
 20
10.0
 30
0.0
 11
196.7604743903
 21
10.0
 31
0.0
  0
LINE
  5
47
330
1F
100
AcDbEntity
  8
0
  6
Continuous
 62
     7
370
     0
100
AcDbLine
 10
196.7604743903
 20
285.0
 30
0.0
 11
196.7604743903
 21
10.0
 31
0.0
  0
LINE
  5
48
330
1F
100
AcDbEntity
  8
0
  6
Continuous
 62
     7
370
     0
100
AcDbLine
 10
127.0104743903
 20
50.75
 30
0.0
 11
196.7604743903
 21
50.75
 31
0.0
  0
LINE
  5
49
330
1F
100
AcDbEntity
  8
0
  6
Continuous
 62
     7
370
     0
100
AcDbLine
 10
127.0104743903
 20
50.75
 30
0.0
 11
127.0104743903
 21
10.0
 31
0.0
  0
LINE
  5
4A
330
1F
100
AcDbEntity
  8
0
  6
Continuous
 62
     7
370
     0
100
AcDbLine
 10
127.0104743903
 20
22.75
 30
0.0
 11
196.7604743903
 21
22.75
 31
0.0
  0
LINE
  5
4B
330
1F
100
AcDbEntity
  8
0
  6
Continuous
 62
     7
370
     0
100
AcDbLine
 10
127.0104743903
 20
36.75
 30
0.0
 11
196.7604743903
 21
36.75
 31
0.0
  0
MTEXT
  5
4D
330
1F
100
AcDbEntity
  8
0
  6
Continuous
 62
     7
370
     0
100
AcDbMText
 10
79.8707233399
 20
93.1303916375
 30
0.0
 40
3.5
 41
0.0
 71
     1
 72
     1
  1
ストッパーネジ
  7
SLDTEXTSTYLE0
 73
     1
 44
1.0
  0
MTEXT
  5
4E
330
1F
100
AcDbEntity
  8
0
  6
Continuous
 62
     7
370
     0
100
AcDbMText
 10
109.976809701
 20
207.6985737925
 30
0.0
 40
2.9104166667
 41
0.0
 71
     1
 72
     1
  1
KQ2S04-M3G
  7
SLDTEXTSTYLE0
 73
     1
 44
1.0
  0
MTEXT
  5
50
330
1F
100
AcDbEntity
  8
0
  6
Continuous
 62
     7
370
     0
100
AcDbMText
 10
162.5410499651
 20
30.4171582345
 30
0.0
 40
4.2333333333
 41
0.0
 71
     2
 72
     1
  1
NW1-101
  7
SLDTEXTSTYLE1
 73
     1
 44
1.0
  0
MTEXT
  5
51
330
1F
100
AcDbEntity
  8
0
  6
Continuous
 62
     7
370
     0
100
AcDbMText
 10
157.5690029509
 20
45.1628598281
 30
0.0
 40
3.7041666667
 41
0.0
 71
     2
 72
     1
  1
ミニエアニッパー・本体・薄刃付
  7
SLDTEXTSTYLE1
 73
     1
 44
1.0
  0
MTEXT
  5
52
330
1F
100
AcDbEntity
  8
0
  6
Continuous
 62
     7
370
     0
100
AcDbMText
 10
162.6588903167
 20
16.8228189052
 30
0.0
 40
4.2333333333
 41
0.0
 71
     2
 72
     1
  1
131538
  7
SLDTEXTSTYLE1
 73
     1
 44
1.0
  0
LINE
  5
53
330
1F
100
AcDbEntity
  8
0
  6
Continuous
 62
     7
370
    15
100
AcDbLine
 10
186.2586449891
 20
184.1465091096
 30
0.0
 11
186.1586449891
 21
184.1465091096
 31
0.0
  0
LINE
  5
54
330
1F
100
AcDbEntity
  8
0
  6
Continuous
 62
     7
370
    15
100
AcDbLine
 10
186.1586449891
 20
179.8465091096
 30
0.0
 11
186.2586449891
 21
179.8465091096
 31
0.0
  0
LINE
  5
55
330
1F
100
AcDbEntity
  8
0
  6
Continuous
 62
     7
370
    15
100
AcDbLine
 10
186.2586449891
 20
177.6465091078
 30
0.0
 11
186.1586449891
 21
177.6465091078
 31
0.0
  0
LINE
  5
56
330
1F
100
AcDbEntity
  8
0
  6
Continuous
 62
     7
370
    15
100
AcDbLine
 10
186.1586449891
 20
173.3465091078
 30
0.0
 11
186.2586449891
 21
173.3465091078
 31
0.0
  0
LINE
  5
57
330
1F
100
AcDbEntity
  8
0
  6
Continuous
 62
     7
370
    15
100
AcDbLine
 10
182.7336449891
 20
158.7465091078
 30
0.0
 11
180.3586449891
 21
158.7465091078
 31
0.0
  0
LINE
  5
58
330
1F
100
AcDbEntity
  8
0
  6
Continuous
 62
     7
370
    15
100
AcDbLine
 10
180.3586449891
 20
154.2465091078
 30
0.0
 11
182.7336449891
 21
154.2465091078
 31
0.0
  0
ARC
  5
59
330
1F
100
AcDbEntity
  8
0
  6
Continuous
 62
     7
370
    15
100
AcDbCircle
 10
182.7336449891
 20
158.6215091078
 30
0.0
 40
0.125
100
AcDbArc
 50
0.0
 51
90.0
  0
ARC
  5
5A
330
1F
100
AcDbEntity
  8
0
  6
Continuous
 62
     7
370
    15
100
AcDbCircle
 10
182.7336449891
 20
154.3715091078
 30
0.0
 40
0.125
100
AcDbArc
 50
270.0
 51
0.0
  0
LINE
  5
5B
330
1F
100
AcDbEntity
  8
0
  6
Continuous
 62
     7
370
    15
100
AcDbLine
 10
130.4586449891
 20
166.9965091078
 30
0.0
 11
126.8586449891
 21
166.9965091078
 31
0.0
  0
LINE
  5
5C
330
1F
100
AcDbEntity
  8
0
  6
Continuous
 62
     7
370
    15
100
AcDbLine
 10
126.8586449891
 20
159.9965091078
 30
0.0
 11
130.4586449891
 21
159.9965091078
 31
0.0
  0
LINE
  5
5D
330
1F
100
AcDbEntity
  8
0
  6
Continuous
 62
     7
370
    15
100
AcDbLine
 10
126.8586449891
 20
166.9965091078
 30
0.0
 11
126.6586449891
 21
166.7965091078
 31
0.0
  0
LINE
  5
5E
330
1F
100
AcDbEntity
  8
0
  6
Continuous
 62
     7
370
    15
100
AcDbLine
 10
126.6586449891
 20
160.1965091078
 30
0.0
 11
126.8586449891
 21
159.9965091078
 31
0.0
  0
LINE
  5
5F
330
1F
100
AcDbEntity
  8
0
  6
Continuous
 62
     7
370
    15
100
AcDbLine
 10
122.5042650822
 20
166.6719355883
 30
0.0
 11
122.2586449891
 21
166.2465091078
 31
0.0
  0
LINE
  5
60
330
1F
100
AcDbEntity
  8
0
  6
Continuous
 62
     7
370
    15
100
AcDbLine
 10
122.2586449891
 20
160.7465091078
 30
0.0
 11
122.5042650822
 21
160.3210826272
 31
0.0
  0
LINE
  5
61
330
1F
100
AcDbEntity
  8
0
  6
Continuous
 62
     7
370
    15
100
AcDbLine
 10
136.6586449891
 20
161.9965091078
 30
0.0
 11
137.4586449891
 21
161.9965091078
 31
0.0
  0
LINE
  5
62
330
1F
100
AcDbEntity
  8
0
  6
Continuous
 62
     7
370
    15
100
AcDbLine
 10
137.4586449891
 20
164.9965091078
 30
0.0
 11
136.6586449891
 21
164.9965091078
 31
0.0
  0
LINE
  5
63
330
1F
100
AcDbEntity
  8
0
  6
Continuous
 62
     7
370
    15
100
AcDbLine
 10
111.7586449891
 20
159.4965091078
 30
0.0
 11
120.7130568954
 21
159.4965091078
 31
0.0
  0
LINE
  5
64
330
1F
100
AcDbEntity
  8
0
  6
Continuous
 62
     7
370
    15
100
AcDbLine
 10
120.7130568954
 20
167.4965091078
 30
0.0
 11
111.7586449891
 21
167.4965091078
 31
0.0
  0
LINE
  5
65
330
1F
100
AcDbEntity
  8
0
  6
Continuous
 62
     7
370
    15
100
AcDbLine
 10
120.7130568954
 20
159.4965091078
 30
0.0
 11
120.8586449891
 21
159.8965091078
 31
0.0
  0
LINE
  5
66
330
1F
100
AcDbEntity
  8
0
  6
Continuous
 62
     7
370
    15
100
AcDbLine
 10
120.8586449891
 20
167.0965091078
 30
0.0
 11
120.7130568954
 21
167.4965091078
 31
0.0
  0
LINE
  5
67
330
1F
100
AcDbEntity
  8
0
  6
Continuous
 62
     7
370
    15
100
AcDbLine
 10
110.1586449891
 20
159.5465091078
 30
0.0
 11
111.1586449891
 21
159.5465091078
 31
0.0
  0
LINE
  5
68
330
1F
100
AcDbEntity
  8
0
  6
Continuous
 62
     7
370
    15
100
AcDbLine
 10
111.1586449891
 20
167.4465091078
 30
0.0
 11
110.1586449891
 21
167.4465091078
 31
0.0
  0
ARC
  5
69
330
1F
100
AcDbEntity
  8
0
  6
Continuous
 62
     7
370
    15
100
AcDbCircle
 10
110.1586449891
 20
160.0465091078
 30
0.0
 40
0.5
100
AcDbArc
 50
180.0
 51
270.0
  0
ARC
  5
6A
330
1F
100
AcDbEntity
  8
0
  6
Continuous
 62
     7
370
    15
100
AcDbCircle
 10
110.1586449891
 20
166.9465091078
 30
0.0
 40
0.5
100
AcDbArc
 50
90.0
 51
180.0
  0
LINE
  5
6B
330
1F
100
AcDbEntity
  8
0
  6
Continuous
 62
     7
370
    15
100
AcDbLine
 10
120.8586449891
 20
159.8965091078
 30
0.0
 11
123.7586449891
 21
159.8965091078
 31
0.0
  0
LINE
  5
6C
330
1F
100
AcDbEntity
  8
0
  6
Continuous
 62
     7
370
    15
100
AcDbLine
 10
123.7586449891
 20
167.0965091078
 30
0.0
 11
120.8586449891
 21
167.0965091078
 31
0.0
  0
LINE
  5
6D
330
1F
100
AcDbEntity
  8
0
  6
Continuous
 62
     7
370
    15
100
AcDbLine
 10
111.1586449891
 20
161.2965091078
 30
0.0
 11
111.7586449891
 21
161.2965091078
 31
0.0
  0
LINE
  5
6E
330
1F
100
AcDbEntity
  8
0
  6
Continuous
 62
     7
370
    15
100
AcDbLine
 10
111.7586449891
 20
165.6965091078
 30
0.0
 11
111.1586449891
 21
165.6965091078
 31
0.0
  0
LINE
  5
6F
330
1F
100
AcDbEntity
  8
0
  6
Continuous
 62
     7
370
    15
100
AcDbLine
 10
134.0130568954
 20
170.4965091078
 30
0.0
 11
134.1586449891
 21
170.8965091078
 31
0.0
  0
LINE
  5
70
330
1F
100
AcDbEntity
  8
0
  6
Continuous
 62
     7
370
    15
100
AcDbLine
 10
134.1586449891
 20
178.0965091078
 30
0.0
 11
134.0130568954
 21
178.4965091078
 31
0.0
  0
LINE
  5
71
330
1F
100
AcDbEntity
  8
0
  6
Continuous
 62
     7
370
    15
100
AcDbLine
 10
125.0586449891
 20
170.4965091078
 30
0.0
 11
134.0130568954
 21
170.4965091078
 31
0.0
  0
LINE
  5
72
330
1F
100
AcDbEntity
  8
0
  6
Continuous
 62
     7
370
    15
100
AcDbLine
 10
134.0130568954
 20
178.4965091078
 30
0.0
 11
125.0586449891
 21
178.4965091078
 31
0.0
  0
ARC
  5
73
330
1F
100
AcDbEntity
  8
0
  6
Continuous
 62
     7
370
    15
100
AcDbCircle
 10
123.4586449891
 20
171.0465091078
 30
0.0
 40
0.5
100
AcDbArc
 50
180.0
 51
270.0
  0
ARC
  5
74
330
1F
100
AcDbEntity
  8
0
  6
Continuous
 62
     7
370
    15
100
AcDbCircle
 10
123.4586449891
 20
177.9465091078
 30
0.0
 40
0.5
100
AcDbArc
 50
90.0
 51
180.0
  0
LINE
  5
75
330
1F
100
AcDbEntity
  8
0
  6
Continuous
 62
     7
370
    15
100
AcDbLine
 10
123.4586449891
 20
170.5465091078
 30
0.0
 11
124.4586449891
 21
170.5465091078
 31
0.0
  0
LINE
  5
76
330
1F
100
AcDbEntity
  8
0
  6
Continuous
 62
     7
370
    15
100
AcDbLine
 10
124.4586449891
 20
178.4465091078
 30
0.0
 11
123.4586449891
 21
178.4465091078
 31
0.0
  0
LINE
  5
77
330
1F
100
AcDbEntity
  8
0
  6
Continuous
 62
     7
370
    15
100
AcDbLine
 10
134.1586449891
 20
170.8965091078
 30
0.0
 11
137.0586449891
 21
170.8965091078
 31
0.0
  0
LINE
  5
78
330
1F
100
AcDbEntity
  8
0
  6
Continuous
 62
     7
370
    15
100
AcDbLine
 10
137.0586449891
 20
178.0965091078
 30
0.0
 11
134.1586449891
 21
178.0965091078
 31
0.0
  0
LINE
  5
79
330
1F
100
AcDbEntity
  8
0
  6
Continuous
 62
     7
370
    15
100
AcDbLine
 10
124.4586449891
 20
172.2965091078
 30
0.0
 11
125.0586449891
 21
172.2965091078
 31
0.0
  0
LINE
  5
7A
330
1F
100
AcDbEntity
  8
0
  6
Continuous
 62
     7
370
    15
100
AcDbLine
 10
125.0586449891
 20
176.6965091078
 30
0.0
 11
124.4586449891
 21
176.6965091078
 31
0.0
  0
LINE
  5
7B
330
1F
100
AcDbEntity
  8
0
  6
Continuous
 62
     7
370
    15
100
AcDbLine
 10
138.0836449891
 20
154.2465091078
 30
0.0
 11
140.4586449891
 21
154.2465091078
 31
0.0
  0
LINE
  5
7C
330
1F
100
AcDbEntity
  8
0
  6
Continuous
 62
     7
370
    15
100
AcDbLine
 10
140.4586449891
 20
158.7465091078
 30
0.0
 11
138.0836449891
 21
158.7465091078
 31
0.0
  0
ARC
  5
7D
330
1F
100
AcDbEntity
  8
0
  6
Continuous
 62
     7
370
    15
100
AcDbCircle
 10
138.0836449891
 20
154.3715091078
 30
0.0
 40
0.1250000000000284
100
AcDbArc
 50
180.0
 51
270.0
  0
ARC
  5
7E
330
1F
100
AcDbEntity
  8
0
  6
Continuous
 62
     7
370
    15
100
AcDbCircle
 10
138.0836449891
 20
158.6215091078
 30
0.0
 40
0.1249999999999716
100
AcDbArc
 50
90.0
 51
180.0
  0
ARC
  5
7F
330
1F
100
AcDbEntity
  8
0
  6
Continuous
 62
     7
370
    15
100
AcDbCircle
 10
138.0836449891
 20
173.3715091078
 30
0.0
 40
0.125
100
AcDbArc
 50
180.0
 51
270.0
  0
ARC
  5
80
330
1F
100
AcDbEntity
  8
0
  6
Continuous
 62
     7
370
    15
100
AcDbCircle
 10
138.0836449891
 20
177.6215091078
 30
0.0
 40
0.125
100
AcDbArc
 50
90.0
 51
180.0
  0
LINE
  5
81
330
1F
100
AcDbEntity
  8
0
  6
Continuous
 62
     7
370
    15
100
AcDbLine
 10
138.0836449891
 20
173.2465091078
 30
0.0
 11
140.4586449891
 21
173.2465091078
 31
0.0
  0
LINE
  5
82
330
1F
100
AcDbEntity
  8
0
  6
Continuous
 62
     7
370
    15
100
AcDbLine
 10
140.4586449891
 20
177.7465091078
 30
0.0
 11
138.0836449891
 21
177.7465091078
 31
0.0
  0
LINE
  5
83
330
1F
100
AcDbEntity
  8
0
  6
Continuous
 62
     7
370
    15
100
AcDbLine
 10
124.1586449891
 20
167.0965091078
 30
0.0
 11
123.7586449891
 21
167.0965091078
 31
0.0
  0
LINE
  5
84
330
1F
100
AcDbEntity
  8
0
  6
Continuous
 62
     7
370
    15
100
AcDbLine
 10
123.7586449891
 20
159.8965091078
 30
0.0
 11
124.1586449891
 21
159.8965091078
 31
0.0
  0
LINE
  5
85
330
1F
100
AcDbEntity
  8
0
  6
Continuous
 62
     7
370
    15
100
AcDbLine
 10
137.4586449891
 20
178.0965091078
 30
0.0
 11
137.0586449891
 21
178.0965091078
 31
0.0
  0
LINE
  5
86
330
1F
100
AcDbEntity
  8
0
  6
Continuous
 62
     7
370
    15
100
AcDbLine
 10
137.0586449891
 20
170.8965091078
 30
0.0
 11
137.4586449891
 21
170.8965091078
 31
0.0
  0
LINE
  5
87
330
1F
100
AcDbEntity
  8
0
  6
Continuous
 62
     7
370
    15
100
AcDbLine
 10
137.4586449891
 20
168.9965091078
 30
0.0
 11
130.7586449891
 21
168.9965091078
 31
0.0
  0
LINE
  5
88
330
1F
100
AcDbEntity
  8
0
  6
Continuous
 62
     7
370
    15
100
AcDbLine
 10
130.7586449891
 20
157.9965091078
 30
0.0
 11
137.4586449891
 21
157.9965091078
 31
0.0
  0
ARC
  5
89
330
1F
100
AcDbEntity
  8
0
  6
Continuous
 62
     7
370
    15
100
AcDbCircle
 10
130.7586449891
 20
158.2965091078
 30
0.0
 40
0.3000000000000114
100
AcDbArc
 50
180.0
 51
270.0
  0
ARC
  5
8A
330
1F
100
AcDbEntity
  8
0
  6
Continuous
 62
     7
370
    15
100
AcDbCircle
 10
130.7586449891
 20
168.6965091078
 30
0.0
 40
0.3000000000000114
100
AcDbArc
 50
90.0
 51
180.0
  0
LINE
  5
8B
330
1F
100
AcDbEntity
  8
0
  6
Continuous
 62
     7
370
    15
100
AcDbLine
 10
120.8205917397
 20
164.9965091078
 30
0.0
 11
120.6586449891
 21
164.7160091078
 31
0.0
  0
LINE
  5
8C
330
1F
100
AcDbEntity
  8
0
  6
Continuous
 62
     7
370
    15
100
AcDbLine
 10
120.6586449891
 20
162.2770091078
 30
0.0
 11
120.8205917397
 21
161.9965091078
 31
0.0
  0
LINE
  5
8D
330
1F
100
AcDbEntity
  8
0
  6
Continuous
 62
     7
370
    15
100
AcDbLine
 10
136.1586449891
 20
161.9965091078
 30
0.0
 11
136.6586449891
 21
162.4965091078
 31
0.0
  0
LINE
  5
8E
330
1F
100
AcDbEntity
  8
0
  6
Continuous
 62
     7
370
    15
100
AcDbLine
 10
136.6586449891
 20
164.4965091078
 30
0.0
 11
136.1586449891
 21
164.9965091078
 31
0.0
  0
LINE
  5
8F
330
1F
100
AcDbEntity
  8
0
  6
Continuous
 62
     7
370
    15
100
AcDbLine
 10
120.8205917397
 20
161.9965091078
 30
0.0
 11
122.2586449891
 21
161.9965091078
 31
0.0
  0
LINE
  5
90
330
1F
100
AcDbEntity
  8
0
  6
Continuous
 62
     7
370
    15
100
AcDbLine
 10
126.6586449891
 20
161.9965091078
 30
0.0
 11
136.1586449891
 21
161.9965091078
 31
0.0
  0
LINE
  5
91
330
1F
100
AcDbEntity
  8
0
  6
Continuous
 62
     7
370
    15
100
AcDbLine
 10
136.1586449891
 20
164.9965091078
 30
0.0
 11
126.6586449891
 21
164.9965091078
 31
0.0
  0
LINE
  5
92
330
1F
100
AcDbEntity
  8
0
  6
Continuous
 62
     7
370
    15
100
AcDbLine
 10
122.2586449891
 20
164.9965091078
 30
0.0
 11
120.8205917397
 21
164.9965091078
 31
0.0
  0
LINE
  5
93
330
1F
100
AcDbEntity
  8
0
  6
Continuous
 62
     7
370
    15
100
AcDbLine
 10
181.4586449891
 20
187.9687831718
 30
0.0
 11
184.9586449891
 21
187.9687831718
 31
0.0
  0
LINE
  5
94
330
1F
100
AcDbEntity
  8
0
  6
Continuous
 62
     7
370
    15
100
AcDbLine
 10
179.4586449891
 20
197.3027899882
 30
0.0
 11
180.6349298715
 21
197.3027899882
 31
0.0
  0
ELLIPSE
  5
95
330
1F
100
AcDbEntity
  8
0
  6
Continuous
 62
     7
370
    15
100
AcDbEllipse
 10
166.7760310588
 20
186.07584256
 30
0.0
 11
-4.07294404953322
 21
21.77735056609131
 31
0.0
210
0.0
220
0.0
230
1.0
 40
0.7665263533
 41
5.019273391070776
 42
5.10555030787406
  0
LINE
  5
96
330
1F
100
AcDbEntity
  8
0
  6
Continuous
 62
     7
370
    15
100
AcDbLine
 10
181.4586449891
 20
195.6307204427
 30
0.0
 11
181.4586449891
 21
187.9687831718
 31
0.0
  0
LINE
  5
97
330
1F
100
AcDbEntity
  8
0
  6
Continuous
 62
     7
370
    15
100
AcDbLine
 10
184.9586449891
 20
186.9965091078
 30
0.0
 11
184.9586449891
 21
187.9687831718
 31
0.0
  0
LINE
  5
98
330
1F
100
AcDbEntity
  8
0
  6
Continuous
 62
     7
370
    15
100
AcDbLine
 10
179.4586449891
 20
186.9965091115
 30
0.0
 11
179.4586449891
 21
197.3027899882
 31
0.0
  0
LINE
  5
99
330
1F
100
AcDbEntity
  8
0
  6
Continuous
 62
     7
370
    15
100
AcDbLine
 10
184.9586449891
 20
188.4176133698
 30
0.0
 11
181.4586449891
 21
188.4176133698
 31
0.0
  0
LINE
  5
9A
330
1F
100
AcDbEntity
  8
0
  6
Continuous
 62
     7
370
    15
100
AcDbLine
 10
184.9586449891
 20
188.4176133698
 30
0.0
 11
184.9586449891
 21
187.9687831718
 31
0.0
  0
LINE
  5
9B
330
1F
100
AcDbEntity
  8
0
  6
Continuous
 62
     7
370
    15
100
AcDbLine
 10
179.4586449891
 20
197.4237577302
 30
0.0
 11
179.6586449891
 21
197.4237577302
 31
0.0
  0
LINE
  5
9C
330
1F
100
AcDbEntity
  8
0
  6
Continuous
 62
     7
370
    15
100
AcDbLine
 10
180.6349298715
 20
197.3027899882
 30
0.0
 11
179.6586449891
 21
197.4237577302
 31
0.0
  0
LINE
  5
9D
330
1F
100
AcDbEntity
  8
0
  6
Continuous
 62
     7
370
    15
100
AcDbLine
 10
179.4586449891
 20
197.3027899882
 30
0.0
 11
179.4586449891
 21
197.4237577302
 31
0.0
  0
LINE
  5
9E
330
1F
100
AcDbEntity
  8
0
  6
Continuous
 62
     7
370
    15
100
AcDbLine
 10
179.6586449891
 20
197.4237577302
 30
0.0
 11
180.6359177164
 21
197.3027899882
 31
0.0
  0
ELLIPSE
  5
9F
330
1F
100
AcDbEntity
  8
0
  6
Continuous
 62
     7
370
    15
100
AcDbEllipse
 10
166.7629959045
 20
186.07584256
 30
0.0
 11
-4.088456631925652
 21
21.77521698425721
 31
0.0
210
0.0
220
0.0
230
1.0
 40
0.7672493075
 41
5.01879543282765
 42
5.104868530869868
  0
LINE
  5
A0
330
1F
100
AcDbEntity
  8
0
  6
Continuous
 62
     7
370
    15
100
AcDbLine
 10
181.4586449891
 20
195.6307204427
 30
0.0
 11
181.4586449891
 21
195.6347592734
 31
0.0
  0
LINE
  5
A1
330
1F
100
AcDbEntity
  8
0
  6
Continuous
 62
     7
370
    15
100
AcDbLine
 10
185.6586449891
 20
180.0265091078
 30
0.0
 11
185.6586449891
 21
186.9965091115
 31
0.0
  0
SPLINE
  5
A2
330
1F
100
AcDbEntity
  8
0
  6
Continuous
 62
     7
370
    15
100
AcDbSpline
210
0.0
220
0.0
230
1.0
 70
    24
 71
     3
 72
    17
 73
    13
 74
     0
 42
0.00000001
 43
0.00000001
 12
1.0
 22
0.0
 32
0.0
 13
1.0
 23
0.0
 33
0.0
 40
0.0
 40
0.0
 40
0.0
 40
0.0
 40
0.0685323737564146
 40
0.1394266777524705
 40
0.2078983675960309
 40
0.2780900509058948
 40
0.3728589128431546
 40
0.4703308165759063
 40
0.6022146887834101
 40
0.7378009076362578
 40
0.8678654141138541
 40
1.0
 40
1.0
 40
1.0
 40
1.0
 10
185.6586449891441
 20
186.9965091114603
 30
0.0
 10
185.6806736880044
 20
186.99650911146
 30
0.0
 10
185.7254902926096
 20
186.9965091114594
 30
0.0
 10
185.7900505174466
 20
186.9965091114545
 30
0.0
 10
185.8509432287753
 20
186.996509111447
 30
0.0
 10
185.9128930806048
 20
186.9965091114361
 30
0.0
 10
185.9739015026066
 20
186.996509111421
 30
0.0
 10
186.0364305046867
 20
186.9965091113995
 30
0.0
 10
186.0906200741249
 20
186.9965091113726
 30
0.0
 10
186.1304468692347
 20
186.9965091113413
 30
0.0
 10
186.1543626889611
 20
186.9965091113089
 30
0.0
 10
186.1572100623485
 20
186.9965091112872
 30
0.0
 10
186.1586449891441
 20
186.9965091112763
 30
0.0
  0
LINE
  5
A3
330
1F
100
AcDbEntity
  8
0
  6
Continuous
 62
     7
370
    15
100
AcDbLine
 10
186.1586449891
 20
186.9965091113
 30
0.0
 11
186.1586449891
 21
180.0265091078
 31
0.0
  0
LINE
  5
A4
330
1F
100
AcDbEntity
  8
0
  6
Continuous
 62
     7
370
    15
100
AcDbLine
 10
185.6586449891
 20
180.0265091078
 30
0.0
 11
186.1586449891
 21
180.0265091078
 31
0.0
  0
LINE
  5
A5
330
1F
100
AcDbEntity
  8
0
  6
Continuous
 62
     7
370
    15
100
AcDbLine
 10
180.3586449891
 20
155.4965091078
 30
0.0
 11
179.1586449891
 21
155.4965091078
 31
0.0
  0
LINE
  5
A6
330
1F
100
AcDbEntity
  8
0
  6
Continuous
 62
     7
370
    15
100
AcDbLine
 10
180.3586449891
 20
153.9965091078
 30
0.0
 11
180.3586449891
 21
155.4965091078
 31
0.0
  0
LINE
  5
A7
330
1F
100
AcDbEntity
  8
0
  6
Continuous
 62
     7
370
    15
100
AcDbLine
 10
180.3586449891
 20
153.9965091078
 30
0.0
 11
179.1586449891
 21
153.9965091078
 31
0.0
  0
LINE
  5
A8
330
1F
100
AcDbEntity
  8
0
  6
Continuous
 62
     7
370
    15
100
AcDbLine
 10
179.1586449891
 20
186.9965091115
 30
0.0
 11
184.9586449891
 21
186.9965091115
 31
0.0
  0
LINE
  5
A9
330
1F
100
AcDbEntity
  8
0
  6
Continuous
 62
     7
370
    15
100
AcDbLine
 10
184.9586449891
 20
186.9965091115
 30
0.0
 11
185.6586449891
 21
186.9965091115
 31
0.0
  0
LINE
  5
AA
330
1F
100
AcDbEntity
  8
0
  6
Continuous
 62
     7
370
    15
100
AcDbLine
 10
179.1586449891
 20
180.0265091078
 30
0.0
 11
185.6586449891
 21
180.0265091078
 31
0.0
  0
LINE
  5
AB
330
1F
100
AcDbEntity
  8
0
  6
Continuous
 62
     7
370
    15
100
AcDbLine
 10
179.1586449891
 20
180.0265091078
 30
0.0
 11
179.1586449891
 21
186.9965091115
 31
0.0
  0
LINE
  5
AC
330
1F
100
AcDbEntity
  8
0
  6
Continuous
 62
     7
370
    15
100
AcDbLine
 10
180.3586449891
 20
160.0965091078
 30
0.0
 11
185.6586449891
 21
160.0965091078
 31
0.0
  0
LINE
  5
AD
330
1F
100
AcDbEntity
  8
0
  6
Continuous
 62
     7
370
    15
100
AcDbLine
 10
185.6586449891
 20
160.0965091078
 30
0.0
 11
185.6586449891
 21
159.5965091078
 31
0.0
  0
LINE
  5
AE
330
1F
100
AcDbEntity
  8
0
  6
Continuous
 62
     7
370
    15
100
AcDbLine
 10
185.6586449891
 20
159.5965091078
 30
0.0
 11
180.3586449891
 21
159.5965091078
 31
0.0
  0
LINE
  5
AF
330
1F
100
AcDbEntity
  8
0
  6
Continuous
 62
     7
370
    15
100
AcDbLine
 10
185.6586449891
 20
160.0965091078
 30
0.0
 11
186.1586449891
 21
160.0965091078
 31
0.0
  0
ARC
  5
B0
330
1F
100
AcDbEntity
  8
0
  6
Continuous
 62
     7
370
    15
100
AcDbCircle
 10
185.6586449891
 20
160.0965091078
 30
0.0
 40
0.5
100
AcDbArc
 50
270.0
 51
0.0
  0
LINE
  5
B1
330
1F
100
AcDbEntity
  8
0
  6
Continuous
 62
     7
370
    15
100
AcDbLine
 10
185.6586449891
 20
160.0965091078
 30
0.0
 11
185.6586449891
 21
180.0265091078
 31
0.0
  0
LINE
  5
B2
330
1F
100
AcDbEntity
  8
0
  6
Continuous
 62
     7
370
    15
100
AcDbLine
 10
180.3586449891
 20
155.4965091078
 30
0.0
 11
180.3586449891
 21
160.0965091078
 31
0.0
  0
LINE
  5
B3
330
1F
100
AcDbEntity
  8
0
  6
Continuous
 62
     7
370
    15
100
AcDbLine
 10
179.1586449891
 20
155.4965091078
 30
0.0
 11
179.1586449891
 21
180.0265091078
 31
0.0
  0
LINE
  5
B4
330
1F
100
AcDbEntity
  8
0
  6
Continuous
 62
     7
370
    15
100
AcDbLine
 10
186.1586449891
 20
180.0265091078
 30
0.0
 11
186.1586449891
 21
160.0965091078
 31
0.0
  0
LINE
  5
B5
330
1F
100
AcDbEntity
  8
0
  6
Continuous
 62
     7
370
    15
100
AcDbLine
 10
186.2586449891
 20
184.1465091096
 30
0.0
 11
186.2586449891
 21
179.8465091096
 31
0.0
  0
LINE
  5
B6
330
1F
100
AcDbEntity
  8
0
  6
Continuous
 62
     7
370
    15
100
AcDbLine
 10
186.2586449891
 20
177.6465091078
 30
0.0
 11
186.2586449891
 21
173.3465091078
 31
0.0
  0
LINE
  5
B7
330
1F
100
AcDbEntity
  8
0
  6
Continuous
 62
     7
370
    15
100
AcDbLine
 10
182.8586449891
 20
158.6215091078
 30
0.0
 11
182.8586449891
 21
154.3715091078
 31
0.0
  0
LINE
  5
B8
330
1F
100
AcDbEntity
  8
0
  6
Continuous
 62
     7
370
    15
100
AcDbLine
 10
126.8586449891
 20
165.6615726172
 30
0.0
 11
130.4586449891
 21
165.6615726172
 31
0.0
  0
LINE
  5
B9
330
1F
100
AcDbEntity
  8
0
  6
Continuous
 62
     7
370
    15
100
AcDbLine
 10
126.8586449891
 20
166.9965091078
 30
0.0
 11
126.8586449891
 21
165.6615726172
 31
0.0
  0
LINE
  5
BA
330
1F
100
AcDbEntity
  8
0
  6
Continuous
 62
     7
370
    15
100
AcDbLine
 10
126.8586449891
 20
161.3314455983
 30
0.0
 11
126.8586449891
 21
159.9965091078
 31
0.0
  0
LINE
  5
BB
330
1F
100
AcDbEntity
  8
0
  6
Continuous
 62
     7
370
    15
100
AcDbLine
 10
130.4586449891
 20
161.3314455983
 30
0.0
 11
126.8586449891
 21
161.3314455983
 31
0.0
  0
LINE
  5
BC
330
1F
100
AcDbEntity
  8
0
  6
Continuous
 62
     7
370
    15
100
AcDbLine
 10
126.8586449891
 20
165.6615726172
 30
0.0
 11
126.6586449891
 21
165.3206527425
 31
0.0
  0
LINE
  5
BD
330
1F
100
AcDbEntity
  8
0
  6
Continuous
 62
     7
370
    15
100
AcDbLine
 10
126.6586449891
 20
161.6723654731
 30
0.0
 11
126.8586449891
 21
161.3314455983
 31
0.0
  0
LINE
  5
BE
330
1F
100
AcDbEntity
  8
0
  6
Continuous
 62
     7
370
    15
100
AcDbLine
 10
177.4586449891
 20
151.1965091078
 30
0.0
 11
177.4586449891
 21
153.4965091078
 31
0.0
  0
LINE
  5
BF
330
1F
100
AcDbEntity
  8
0
  6
Continuous
 62
     7
370
    15
100
AcDbLine
 10
166.4586449891
 20
151.1965091078
 30
0.0
 11
166.4586449891
 21
153.4965091078
 31
0.0
  0
LINE
  5
C0
330
1F
100
AcDbEntity
  8
0
  6
Continuous
 62
     7
370
    15
100
AcDbLine
 10
175.8316283354
 20
153.4965091078
 30
0.0
 11
168.0856616429
 21
153.4965091078
 31
0.0
  0
LINE
  5
C1
330
1F
100
AcDbEntity
  8
0
  6
Continuous
 62
     7
370
    15
100
AcDbLine
 10
177.4586449891
 20
151.1965091078
 30
0.0
 11
174.6586449891
 21
151.1965091078
 31
0.0
  0
LINE
  5
C2
330
1F
100
AcDbEntity
  8
0
  6
Continuous
 62
     7
370
    15
100
AcDbLine
 10
124.6586449891
 20
165.084222348
 30
0.0
 11
124.6586449891
 21
165.2285599153
 31
0.0
  0
LINE
  5
C3
330
1F
100
AcDbEntity
  8
0
  6
Continuous
 62
     7
370
    15
100
AcDbLine
 10
124.6586449891
 20
165.084222348
 30
0.0
 11
122.5042650822
 21
165.084222348
 31
0.0
  0
SPLINE
  5
C4
330
1F
100
AcDbEntity
  8
0
  6
Continuous
 62
     7
370
    15
100
AcDbSpline
210
0.0
220
0.0
230
1.0
 70
     8
 71
     3
 72
    10
 73
     6
 74
     0
 42
0.00000001
 43
0.00000001
 12
1.0
 22
0.0
 32
0.0
 13
1.0
 23
0.0
 33
0.0
 40
0.0
 40
0.0
 40
0.0
 40
0.0
 40
0.0700125066049144
 40
0.530744427956656
 40
1.0
 40
1.0
 40
1.0
 40
1.0
 10
122.2586449891443
 20
165.8780789681783
 30
0.0
 10
122.258937625596
 20
165.8592828222667
 30
0.0
 10
122.2611560173336
 20
165.7167947127361
 30
0.0
 10
122.3147888491654
 20
165.4481194595454
 30
0.0
 10
122.4407215990757
 20
165.2062602923005
 30
0.0
 10
122.5042650822062
 20
165.0842223480426
 30
0.0
  0
SPLINE
  5
C5
330
1F
100
AcDbEntity
  8
0
  6
Continuous
 62
     7
370
    15
100
AcDbSpline
210
0.0
220
0.0
230
1.0
 70
     8
 71
     3
 72
     9
 73
     5
 74
     0
 42
0.00000001
 43
0.00000001
 12
1.0
 22
0.0
 32
0.0
 13
1.0
 23
0.0
 33
0.0
 40
0.0
 40
0.0
 40
0.0
 40
0.0
 40
0.4954579634770057
 40
1.0
 40
1.0
 40
1.0
 40
1.0
 10
122.5042650822062
 20
166.6719355883141
 30
0.0
 10
122.4356147537279
 20
166.543009783218
 30
0.0
 10
122.2970554136045
 20
166.2827943570871
 30
0.0
 10
122.2715257683518
 20
166.0137986234457
 30
0.0
 10
122.2586449891443
 20
165.8780789681783
 30
0.0
  0
LINE
  5
C6
330
1F
100
AcDbEntity
  8
0
  6
Continuous
 62
     7
370
    15
100
AcDbLine
 10
124.6586449891
 20
166.6719355883
 30
0.0
 11
122.5042650822
 21
166.6719355883
 31
0.0
  0
SPLINE
  5
C7
330
1F
100
AcDbEntity
  8
0
  6
Continuous
 62
     7
370
    15
100
AcDbSpline
210
0.0
220
0.0
230
1.0
 70
     8
 71
     3
 72
     9
 73
     5
 74
     0
 42
0.00000001
 43
0.00000001
 12
1.0
 22
0.0
 32
0.0
 13
1.0
 23
0.0
 33
0.0
 40
0.0
 40
0.0
 40
0.0
 40
0.0
 40
0.4954579634770095
 40
0.9999999999999999
 40
0.9999999999999999
 40
0.9999999999999999
 40
0.9999999999999999
 10
122.5042650822062
 20
161.9087958674996
 30
0.0
 10
122.435614753728
 20
161.7798700624035
 30
0.0
 10
122.2970554136046
 20
161.5196546362726
 30
0.0
 10
122.2715257683519
 20
161.2506589026313
 30
0.0
 10
122.2586449891444
 20
161.1149392473639
 30
0.0
  0
LINE
  5
C8
330
1F
100
AcDbEntity
  8
0
  6
Continuous
 62
     7
370
    15
100
AcDbLine
 10
122.2586449891
 20
163.4965091078
 30
0.0
 11
122.2586449891
 21
161.1149392474
 31
0.0
  0
SPLINE
  5
C9
330
1F
100
AcDbEntity
  8
0
  6
Continuous
 62
     7
370
    15
100
AcDbSpline
210
0.0
220
0.0
230
1.0
 70
     8
 71
     3
 72
    10
 73
     6
 74
     0
 42
0.00000001
 43
0.00000001
 12
1.0
 22
0.0
 32
0.0
 13
1.0
 23
0.0
 33
0.0
 40
0.0
 40
0.0
 40
0.0
 40
0.0
 40
0.2572432618847607
 40
0.6263798857722974
 40
1.0
 40
1.0
 40
1.0
 40
1.0
 10
122.5042650822062
 20
161.9087958674996
 30
0.0
 10
122.4680695870531
 20
162.0421249957657
 30
0.0
 10
122.3799346055831
 20
162.3667775581749
 30
0.0
 10
122.2812813390734
 20
162.8966560747016
 30
0.0
 10
122.2662207424649
 20
163.2957550718334
 30
0.0
 10
122.2586449891443
 20
163.4965091077711
 30
0.0
  0
SPLINE
  5
CA
330
1F
100
AcDbEntity
  8
0
  6
Continuous
 62
     7
370
    15
100
AcDbSpline
210
0.0
220
0.0
230
1.0
 70
     8
 71
     3
 72
    10
 73
     6
 74
     0
 42
0.00000001
 43
0.00000001
 12
1.0
 22
0.0
 32
0.0
 13
1.0
 23
0.0
 33
0.0
 40
0.0
 40
0.0
 40
0.0
 40
0.0
 40
0.268406535932195
 40
0.6323728964502879
 40
1.0
 40
1.0
 40
1.0
 40
1.0
 10
122.2586449891443
 20
163.4965091077711
 30
0.0
 10
122.2626356539707
 20
163.6406967973205
 30
0.0
 10
122.2720377658317
 20
163.9804068068257
 30
0.0
 10
122.3527942807794
 20
164.5133677350735
 30
0.0
 10
122.4536066669242
 20
164.893303769828
 30
0.0
 10
122.5042650822062
 20
165.0842223480426
 30
0.0
  0
LINE
  5
CB
330
1F
100
AcDbEntity
  8
0
  6
Continuous
 62
     7
370
    15
100
AcDbLine
 10
122.2586449891
 20
163.4965091078
 30
0.0
 11
122.2586449891
 21
165.8780789682
 31
0.0
  0
LINE
  5
CC
330
1F
100
AcDbEntity
  8
0
  6
Continuous
 62
     7
370
    15
100
AcDbLine
 10
124.6586449891
 20
161.9087958675
 30
0.0
 11
122.5042650822
 21
161.9087958675
 31
0.0
  0
LINE
  5
CD
330
1F
100
AcDbEntity
  8
0
  6
Continuous
 62
     7
370
    15
100
AcDbLine
 10
124.6586449891
 20
165.084222348
 30
0.0
 11
124.6586449891
 21
161.9087958675
 31
0.0
  0
LINE
  5
CE
330
1F
100
AcDbEntity
  8
0
  6
Continuous
 62
     7
370
    15
100
AcDbLine
 10
124.6586449891
 20
160.3210826272
 30
0.0
 11
122.5042650822
 21
160.3210826272
 31
0.0
  0
SPLINE
  5
CF
330
1F
100
AcDbEntity
  8
0
  6
Continuous
 62
     7
370
    15
100
AcDbSpline
210
0.0
220
0.0
230
1.0
 70
     8
 71
     3
 72
    10
 73
     6
 74
     0
 42
0.00000001
 43
0.00000001
 12
1.0
 22
0.0
 32
0.0
 13
1.0
 23
0.0
 33
0.0
 40
0.0
 40
0.0
 40
0.0
 40
0.0
 40
0.0700125066049452
 40
0.5307444279566748
 40
0.9999999999999999
 40
0.9999999999999999
 40
0.9999999999999999
 40
0.9999999999999999
 10
122.2586449891444
 20
161.1149392473639
 30
0.0
 10
122.2589376255961
 20
161.0961431014524
 30
0.0
 10
122.2611560173337
 20
160.9536549919216
 30
0.0
 10
122.3147888491655
 20
160.684979738731
 30
0.0
 10
122.4407215990757
 20
160.443120571486
 30
0.0
 10
122.5042650822062
 20
160.3210826272282
 30
0.0
  0
LINE
  5
D0
330
1F
100
AcDbEntity
  8
0
  6
Continuous
 62
     7
370
    15
100
AcDbLine
 10
124.6586449891
 20
161.7644583002
 30
0.0
 11
124.6586449891
 21
161.9087958675
 31
0.0
  0
LINE
  5
D1
330
1F
100
AcDbEntity
  8
0
  6
Continuous
 62
     7
370
    15
100
AcDbLine
 10
122.2586449891
 20
166.2465091078
 30
0.0
 11
122.2586449891
 21
165.8780789682
 31
0.0
  0
LINE
  5
D2
330
1F
100
AcDbEntity
  8
0
  6
Continuous
 62
     7
370
    15
100
AcDbLine
 10
122.2586449891
 20
161.1149392474
 30
0.0
 11
122.2586449891
 21
160.7465091078
 31
0.0
  0
ARC
  5
D3
330
1F
100
AcDbEntity
  8
0
  6
Continuous
 62
     7
370
    15
100
AcDbCircle
 10
176.9586449891
 20
150.1965091078
 30
0.0
 40
1.0
100
AcDbArc
 50
270.0
 51
0.0
  0
LINE
  5
D4
330
1F
100
AcDbEntity
  8
0
  6
Continuous
 62
     7
370
    15
100
AcDbLine
 10
177.9586449891
 20
150.1965091078
 30
0.0
 11
177.9586449891
 21
175.4965091078
 31
0.0
  0
LINE
  5
D5
330
1F
100
AcDbEntity
  8
0
  6
Continuous
 62
     7
370
    15
100
AcDbLine
 10
179.1586449891
 20
175.4965091078
 30
0.0
 11
177.9586449891
 21
175.4965091078
 31
0.0
  0
LINE
  5
D6
330
1F
100
AcDbEntity
  8
0
  6
Continuous
 62
     7
370
    15
100
AcDbLine
 10
179.1586449891
 20
148.9965091078
 30
0.0
 11
179.1586449891
 21
175.4965091078
 31
0.0
  0
ARC
  5
D7
330
1F
100
AcDbEntity
  8
0
  6
Continuous
 62
     7
370
    15
100
AcDbCircle
 10
178.1586449891
 20
148.9965091078
 30
0.0
 40
1.0
100
AcDbArc
 50
270.0
 51
0.0
  0
LINE
  5
D8
330
1F
100
AcDbEntity
  8
0
  6
Continuous
 62
     7
370
    15
100
AcDbLine
 10
170.1586449891
 20
147.9965091078
 30
0.0
 11
178.1586449891
 21
147.9965091078
 31
0.0
  0
LINE
  5
D9
330
1F
100
AcDbEntity
  8
0
  6
Continuous
 62
     7
370
    15
100
AcDbLine
 10
170.1586449891
 20
149.1965091078
 30
0.0
 11
170.1586449891
 21
147.9965091078
 31
0.0
  0
LINE
  5
DA
330
1F
100
AcDbEntity
  8
0
  6
Continuous
 62
     7
370
    15
100
AcDbLine
 10
170.1586449891
 20
149.1965091078
 30
0.0
 11
176.9586449891
 21
149.1965091078
 31
0.0
  0
LINE
  5
DB
330
1F
100
AcDbEntity
  8
0
  6
Continuous
 62
     7
370
    15
100
AcDbLine
 10
177.9586449891
 20
178.4965091078
 30
0.0
 11
179.1586449891
 21
178.4965091078
 31
0.0
  0
LINE
  5
DC
330
1F
100
AcDbEntity
  8
0
  6
Continuous
 62
     7
370
    15
100
AcDbLine
 10
177.9586449891
 20
175.4965091078
 30
0.0
 11
177.9586449891
 21
178.4965091078
 31
0.0
  0
LINE
  5
DD
330
1F
100
AcDbEntity
  8
0
  6
Continuous
 62
     7
370
    15
100
AcDbLine
 10
170.1586449891
 20
147.9965091078
 30
0.0
 11
169.1586449891
 21
147.9965091078
 31
0.0
  0
LINE
  5
DE
330
1F
100
AcDbEntity
  8
0
  6
Continuous
 62
     7
370
    15
100
AcDbLine
 10
169.1586449891
 20
147.9965091078
 30
0.0
 11
169.1586449891
 21
149.1965091078
 31
0.0
  0
LINE
  5
DF
330
1F
100
AcDbEntity
  8
0
  6
Continuous
 62
     7
370
    15
100
AcDbLine
 10
150.9586449891
 20
177.9965091078
 30
0.0
 11
150.4586449891
 21
177.9965091078
 31
0.0
  0
LINE
  5
E0
330
1F
100
AcDbEntity
  8
0
  6
Continuous
 62
     7
370
    15
100
AcDbLine
 10
150.9586449891
 20
174.9965091078
 30
0.0
 11
150.4586449891
 21
174.9965091078
 31
0.0
  0
LINE
  5
E1
330
1F
100
AcDbEntity
  8
0
  6
Continuous
 62
     7
370
    15
100
AcDbLine
 10
150.9586449891
 20
156.9965091078
 30
0.0
 11
150.4586449891
 21
156.9965091078
 31
0.0
  0
LINE
  5
E2
330
1F
100
AcDbEntity
  8
0
  6
Continuous
 62
     7
370
    15
100
AcDbLine
 10
150.9586449891
 20
153.9965091078
 30
0.0
 11
150.4586449891
 21
153.9965091078
 31
0.0
  0
LINE
  5
E3
330
1F
100
AcDbEntity
  8
0
  6
Continuous
 62
     7
370
    15
100
AcDbLine
 10
136.6586449891
 20
164.9965091078
 30
0.0
 11
136.6586449891
 21
161.9965091078
 31
0.0
  0
LINE
  5
E4
330
1F
100
AcDbEntity
  8
0
  6
Continuous
 62
     7
370
    15
100
AcDbLine
 10
111.7586449891
 20
159.4965091078
 30
0.0
 11
111.7586449891
 21
167.4965091078
 31
0.0
  0
LINE
  5
E5
330
1F
100
AcDbEntity
  8
0
  6
Continuous
 62
     7
370
    15
100
AcDbLine
 10
120.7130568954
 20
159.4965091078
 30
0.0
 11
120.7130568954
 21
162.1827649215
 31
0.0
  0
LINE
  5
E6
330
1F
100
AcDbEntity
  8
0
  6
Continuous
 62
     7
370
    15
100
AcDbLine
 10
120.7130568954
 20
164.810253294
 30
0.0
 11
120.7130568954
 21
167.4965091078
 31
0.0
  0
LINE
  5
E7
330
1F
100
AcDbEntity
  8
0
  6
Continuous
 62
     7
370
    15
100
AcDbLine
 10
120.8586449891
 20
159.8965091078
 30
0.0
 11
120.8586449891
 21
161.9965091078
 31
0.0
  0
LINE
  5
E8
330
1F
100
AcDbEntity
  8
0
  6
Continuous
 62
     7
370
    15
100
AcDbLine
 10
120.8586449891
 20
164.9965091078
 30
0.0
 11
120.8586449891
 21
167.0965091078
 31
0.0
  0
LINE
  5
E9
330
1F
100
AcDbEntity
  8
0
  6
Continuous
 62
     7
370
    15
100
AcDbLine
 10
111.1586449891
 20
159.5465091078
 30
0.0
 11
111.1586449891
 21
167.4465091078
 31
0.0
  0
LINE
  5
EA
330
1F
100
AcDbEntity
  8
0
  6
Continuous
 62
     7
370
    15
100
AcDbLine
 10
109.6586449891
 20
160.0465091078
 30
0.0
 11
109.6586449891
 21
166.9465091078
 31
0.0
  0
LINE
  5
EB
330
1F
100
AcDbEntity
  8
0
  6
Continuous
 62
     7
370
    15
100
AcDbLine
 10
123.7586449891
 20
167.0965091078
 30
0.0
 11
123.7586449891
 21
166.6719355883
 31
0.0
  0
LINE
  5
EC
330
1F
100
AcDbEntity
  8
0
  6
Continuous
 62
     7
370
    15
100
AcDbLine
 10
123.7586449891
 20
160.3210826272
 30
0.0
 11
123.7586449891
 21
159.8965091078
 31
0.0
  0
LINE
  5
ED
330
1F
100
AcDbEntity
  8
0
  6
Continuous
 62
     7
370
    15
100
AcDbLine
 10
134.1586449891
 20
178.0900603359
 30
0.0
 11
134.1586449891
 21
178.0965091078
 31
0.0
  0
LINE
  5
EE
330
1F
100
AcDbEntity
  8
0
  6
Continuous
 62
     7
370
    15
100
AcDbLine
 10
134.1586449891
 20
170.8965091078
 30
0.0
 11
134.1586449891
 21
178.0900603359
 31
0.0
  0
LINE
  5
EF
330
1F
100
AcDbEntity
  8
0
  6
Continuous
 62
     7
370
    15
100
AcDbLine
 10
134.0130568954
 20
178.4893438057
 30
0.0
 11
134.0130568954
 21
178.4965091078
 31
0.0
  0
LINE
  5
F0
330
1F
100
AcDbEntity
  8
0
  6
Continuous
 62
     7
370
    15
100
AcDbLine
 10
134.0130568954
 20
170.4965091078
 30
0.0
 11
134.0130568954
 21
178.4893438057
 31
0.0
  0
LINE
  5
F1
330
1F
100
AcDbEntity
  8
0
  6
Continuous
 62
     7
370
    15
100
AcDbLine
 10
125.0586449891
 20
178.4893438057
 30
0.0
 11
125.0586449891
 21
178.4965091078
 31
0.0
  0
LINE
  5
F2
330
1F
100
AcDbEntity
  8
0
  6
Continuous
 62
     7
370
    15
100
AcDbLine
 10
125.0586449891
 20
170.4965091078
 30
0.0
 11
125.0586449891
 21
178.4893438057
 31
0.0
  0
LINE
  5
F3
330
1F
100
AcDbEntity
  8
0
  6
Continuous
 62
     7
370
    15
100
AcDbLine
 10
122.9586449891
 20
177.9403290347
 30
0.0
 11
122.9586449891
 21
177.9465091078
 31
0.0
  0
LINE
  5
F4
330
1F
100
AcDbEntity
  8
0
  6
Continuous
 62
     7
370
    15
100
AcDbLine
 10
122.9586449891
 20
171.0465091078
 30
0.0
 11
122.9586449891
 21
177.9403290347
 31
0.0
  0
LINE
  5
F5
330
1F
100
AcDbEntity
  8
0
  6
Continuous
 62
     7
370
    15
100
AcDbLine
 10
124.4586449891
 20
178.439433372
 30
0.0
 11
124.4586449891
 21
178.4465091078
 31
0.0
  0
LINE
  5
F6
330
1F
100
AcDbEntity
  8
0
  6
Continuous
 62
     7
370
    15
100
AcDbLine
 10
124.4586449891
 20
170.5465091078
 30
0.0
 11
124.4586449891
 21
178.439433372
 31
0.0
  0
LINE
  5
F7
330
1F
100
AcDbEntity
  8
0
  6
Continuous
 62
     7
370
    15
100
AcDbLine
 10
137.0586449891
 20
178.0965091078
 30
0.0
 11
137.0586449891
 21
170.8965091078
 31
0.0
  0
LINE
  5
F8
330
1F
100
AcDbEntity
  8
0
  6
Continuous
 62
     7
370
    15
100
AcDbLine
 10
140.4586449891
 20
154.2465091078
 30
0.0
 11
140.4586449891
 21
157.5272855142
 31
0.0
  0
LINE
  5
F9
330
1F
100
AcDbEntity
  8
0
  6
Continuous
 62
     7
370
    15
100
AcDbLine
 10
137.9586449891
 20
154.3715091078
 30
0.0
 11
137.9586449891
 21
158.6215091078
 31
0.0
  0
LINE
  5
FA
330
1F
100
AcDbEntity
  8
0
  6
Continuous
 62
     7
370
    15
100
AcDbLine
 10
137.9586449891
 20
173.3715091078
 30
0.0
 11
137.9586449891
 21
177.6215091078
 31
0.0
  0
LINE
  5
FB
330
1F
100
AcDbEntity
  8
0
  6
Continuous
 62
     7
370
    15
100
AcDbLine
 10
140.4586449891
 20
174.4657327014
 30
0.0
 11
140.4586449891
 21
177.7465091078
 31
0.0
  0
LINE
  5
FC
330
1F
100
AcDbEntity
  8
0
  6
Continuous
 62
     7
370
    15
100
AcDbLine
 10
123.7586449891
 20
160.1491947045
 30
0.0
 11
123.7586449891
 21
159.8965091078
 31
0.0
  0
LINE
  5
FD
330
1F
100
AcDbEntity
  8
0
  6
Continuous
 62
     7
370
    15
100
AcDbLine
 10
123.7586449891
 20
160.3210826272
 30
0.0
 11
123.7586449891
 21
160.1491947045
 31
0.0
  0
LINE
  5
FE
330
1F
100
AcDbEntity
  8
0
  6
Continuous
 62
     7
370
    15
100
AcDbLine
 10
124.1586449891
 20
160.1491947045
 30
0.0
 11
124.1586449891
 21
159.8965091078
 31
0.0
  0
LINE
  5
FF
330
1F
100
AcDbEntity
  8
0
  6
Continuous
 62
     7
370
    15
100
AcDbLine
 10
124.1586449891
 20
167.0965091078
 30
0.0
 11
124.1586449891
 21
166.6719355883
 31
0.0
  0
LINE
  5
100
330
1F
100
AcDbEntity
  8
0
  6
Continuous
 62
     7
370
    15
100
AcDbLine
 10
124.1586449891
 20
160.3210826272
 30
0.0
 11
124.1586449891
 21
160.1491947045
 31
0.0
  0
LINE
  5
101
330
1F
100
AcDbEntity
  8
0
  6
Continuous
 62
     7
370
    15
100
AcDbLine
 10
177.9586449891
 20
178.4965091078
 30
0.0
 11
150.9586449891
 21
178.4965091078
 31
0.0
  0
LINE
  5
102
330
1F
100
AcDbEntity
  8
0
  6
Continuous
 62
     7
370
    15
100
AcDbLine
 10
177.9586449891
 20
175.4965091078
 30
0.0
 11
150.9586449891
 21
175.4965091078
 31
0.0
  0
LINE
  5
103
330
1F
100
AcDbEntity
  8
0
  6
Continuous
 62
     7
370
    15
100
AcDbLine
 10
150.9586449891
 20
178.4965091078
 30
0.0
 11
150.9586449891
 21
175.4965091078
 31
0.0
  0
LINE
  5
104
330
1F
100
AcDbEntity
  8
0
  6
Continuous
 62
     7
370
    15
100
AcDbLine
 10
177.9586449891
 20
175.4965091078
 30
0.0
 11
177.9586449891
 21
156.4965091078
 31
0.0
  0
LINE
  5
105
330
1F
100
AcDbEntity
  8
0
  6
Continuous
 62
     7
370
    15
100
AcDbLine
 10
177.9586449891
 20
156.4965091078
 30
0.0
 11
150.9586449891
 21
156.4965091078
 31
0.0
  0
LINE
  5
106
330
1F
100
AcDbEntity
  8
0
  6
Continuous
 62
     7
370
    15
100
AcDbLine
 10
150.9586449891
 20
175.4965091078
 30
0.0
 11
150.9586449891
 21
156.4965091078
 31
0.0
  0
LINE
  5
107
330
1F
100
AcDbEntity
  8
0
  6
Continuous
 62
     7
370
    15
100
AcDbLine
 10
177.9586449891
 20
153.4965091078
 30
0.0
 11
175.8316283354
 21
153.4965091078
 31
0.0
  0
LINE
  5
108
330
1F
100
AcDbEntity
  8
0
  6
Continuous
 62
     7
370
    15
100
AcDbLine
 10
168.0856616429
 20
153.4965091078
 30
0.0
 11
150.9586449891
 21
153.4965091078
 31
0.0
  0
LINE
  5
109
330
1F
100
AcDbEntity
  8
0
  6
Continuous
 62
     7
370
    15
100
AcDbLine
 10
150.9586449891
 20
156.4965091078
 30
0.0
 11
150.9586449891
 21
153.4965091078
 31
0.0
  0
LINE
  5
10A
330
1F
100
AcDbEntity
  8
0
  6
Continuous
 62
     7
370
    15
100
AcDbLine
 10
150.4586449891
 20
175.4965091078
 30
0.0
 11
148.4586449891
 21
175.4965091078
 31
0.0
  0
LINE
  5
10B
330
1F
100
AcDbEntity
  8
0
  6
Continuous
 62
     7
370
    15
100
AcDbLine
 10
148.4586449891
 20
175.4965091078
 30
0.0
 11
148.4586449891
 21
178.4965091078
 31
0.0
  0
LINE
  5
10C
330
1F
100
AcDbEntity
  8
0
  6
Continuous
 62
     7
370
    15
100
AcDbLine
 10
148.4586449891
 20
178.4965091078
 30
0.0
 11
150.4586449891
 21
178.4965091078
 31
0.0
  0
LINE
  5
10D
330
1F
100
AcDbEntity
  8
0
  6
Continuous
 62
     7
370
    15
100
AcDbLine
 10
150.4586449891
 20
178.4965091078
 30
0.0
 11
150.4586449891
 21
175.4965091078
 31
0.0
  0
LINE
  5
10E
330
1F
100
AcDbEntity
  8
0
  6
Continuous
 62
     7
370
    15
100
AcDbLine
 10
148.4586449891
 20
156.4965091078
 30
0.0
 11
150.4586449891
 21
156.4965091078
 31
0.0
  0
LINE
  5
10F
330
1F
100
AcDbEntity
  8
0
  6
Continuous
 62
     7
370
    15
100
AcDbLine
 10
148.4586449891
 20
175.4965091078
 30
0.0
 11
148.4586449891
 21
156.4965091078
 31
0.0
  0
LINE
  5
110
330
1F
100
AcDbEntity
  8
0
  6
Continuous
 62
     7
370
    15
100
AcDbLine
 10
150.4586449891
 20
175.4965091078
 30
0.0
 11
150.4586449891
 21
156.4965091078
 31
0.0
  0
LINE
  5
111
330
1F
100
AcDbEntity
  8
0
  6
Continuous
 62
     7
370
    15
100
AcDbLine
 10
150.4586449891
 20
153.4965091078
 30
0.0
 11
148.4586449891
 21
153.4965091078
 31
0.0
  0
LINE
  5
112
330
1F
100
AcDbEntity
  8
0
  6
Continuous
 62
     7
370
    15
100
AcDbLine
 10
148.4586449891
 20
153.4965091078
 30
0.0
 11
148.4586449891
 21
156.4965091078
 31
0.0
  0
LINE
  5
113
330
1F
100
AcDbEntity
  8
0
  6
Continuous
 62
     7
370
    15
100
AcDbLine
 10
150.4586449891
 20
156.4965091078
 30
0.0
 11
150.4586449891
 21
153.4965091078
 31
0.0
  0
LINE
  5
114
330
1F
100
AcDbEntity
  8
0
  6
Continuous
 62
     7
370
    15
100
AcDbLine
 10
148.4586449891
 20
153.4965091078
 30
0.0
 11
141.4586449891
 21
153.4965091078
 31
0.0
  0
LINE
  5
115
330
1F
100
AcDbEntity
  8
0
  6
Continuous
 62
     7
370
    15
100
AcDbLine
 10
141.4586449891
 20
156.4965091078
 30
0.0
 11
141.4586449891
 21
153.4965091078
 31
0.0
  0
LINE
  5
116
330
1F
100
AcDbEntity
  8
0
  6
Continuous
 62
     7
370
    15
100
AcDbLine
 10
141.4586449891
 20
156.4965091078
 30
0.0
 11
148.4586449891
 21
156.4965091078
 31
0.0
  0
ARC
  5
117
330
1F
100
AcDbEntity
  8
0
  6
Continuous
 62
     7
370
    15
100
AcDbCircle
 10
141.4586449891
 20
154.4965091078
 30
0.0
 40
1.0
100
AcDbArc
 50
180.0
 51
270.0
  0
LINE
  5
118
330
1F
100
AcDbEntity
  8
0
  6
Continuous
 62
     7
370
    15
100
AcDbLine
 10
141.4586449891
 20
156.4965091078
 30
0.0
 11
140.4586449891
 21
156.4965091078
 31
0.0
  0
LINE
  5
119
330
1F
100
AcDbEntity
  8
0
  6
Continuous
 62
     7
370
    15
100
AcDbLine
 10
148.4586449891
 20
175.4965091078
 30
0.0
 11
141.4586449891
 21
175.4965091078
 31
0.0
  0
LINE
  5
11A
330
1F
100
AcDbEntity
  8
0
  6
Continuous
 62
     7
370
    15
100
AcDbLine
 10
141.4586449891
 20
178.4965091078
 30
0.0
 11
141.4586449891
 21
175.4965091078
 31
0.0
  0
LINE
  5
11B
330
1F
100
AcDbEntity
  8
0
  6
Continuous
 62
     7
370
    15
100
AcDbLine
 10
141.4586449891
 20
178.4965091078
 30
0.0
 11
148.4586449891
 21
178.4965091078
 31
0.0
  0
ARC
  5
11C
330
1F
100
AcDbEntity
  8
0
  6
Continuous
 62
     7
370
    15
100
AcDbCircle
 10
141.4586449891
 20
177.4965091078
 30
0.0
 40
1.0
100
AcDbArc
 50
90.0
 51
180.0
  0
LINE
  5
11D
330
1F
100
AcDbEntity
  8
0
  6
Continuous
 62
     7
370
    15
100
AcDbLine
 10
140.4586449891
 20
175.4965091078
 30
0.0
 11
141.4586449891
 21
175.4965091078
 31
0.0
  0
LINE
  5
11E
330
1F
100
AcDbEntity
  8
0
  6
Continuous
 62
     7
370
    15
100
AcDbLine
 10
137.4586449891
 20
160.4965091078
 30
0.0
 11
137.4586449891
 21
171.4965091078
 31
0.0
  0
LINE
  5
11F
330
1F
100
AcDbEntity
  8
0
  6
Continuous
 62
     7
370
    15
100
AcDbLine
 10
141.4586449891
 20
171.4965091078
 30
0.0
 11
137.4586449891
 21
171.4965091078
 31
0.0
  0
LINE
  5
120
330
1F
100
AcDbEntity
  8
0
  6
Continuous
 62
     7
370
    15
100
AcDbLine
 10
141.4586449891
 20
175.4965091078
 30
0.0
 11
141.4586449891
 21
171.4965091078
 31
0.0
  0
LINE
  5
121
330
1F
100
AcDbEntity
  8
0
  6
Continuous
 62
     7
370
    15
100
AcDbLine
 10
141.4586449891
 20
160.4965091078
 30
0.0
 11
141.4586449891
 21
156.4965091078
 31
0.0
  0
LINE
  5
122
330
1F
100
AcDbEntity
  8
0
  6
Continuous
 62
     7
370
    15
100
AcDbLine
 10
137.4586449891
 20
160.4965091078
 30
0.0
 11
141.4586449891
 21
160.4965091078
 31
0.0
  0
LINE
  5
123
330
1F
100
AcDbEntity
  8
0
  6
Continuous
 62
     7
370
    15
100
AcDbLine
 10
140.4586449891
 20
157.5272855142
 30
0.0
 11
140.4586449891
 21
159.4965091078
 31
0.0
  0
LINE
  5
124
330
1F
100
AcDbEntity
  8
0
  6
Continuous
 62
     7
370
    15
100
AcDbLine
 10
140.4586449891
 20
159.4965091078
 30
0.0
 11
141.4586449891
 21
160.4965091078
 31
0.0
  0
LINE
  5
125
330
1F
100
AcDbEntity
  8
0
  6
Continuous
 62
     7
370
    15
100
AcDbLine
 10
140.4586449891
 20
172.4965091078
 30
0.0
 11
140.4586449891
 21
174.4657327014
 31
0.0
  0
LINE
  5
126
330
1F
100
AcDbEntity
  8
0
  6
Continuous
 62
     7
370
    15
100
AcDbLine
 10
141.4586449891
 20
171.4965091078
 30
0.0
 11
140.4586449891
 21
172.4965091078
 31
0.0
  0
LINE
  5
127
330
1F
100
AcDbEntity
  8
0
  6
Continuous
 62
     7
370
    15
100
AcDbLine
 10
137.4586449891
 20
172.4965091078
 30
0.0
 11
140.4586449891
 21
172.4965091078
 31
0.0
  0
LINE
  5
128
330
1F
100
AcDbEntity
  8
0
  6
Continuous
 62
     7
370
    15
100
AcDbLine
 10
137.4586449891
 20
171.4965091078
 30
0.0
 11
137.4586449891
 21
172.4965091078
 31
0.0
  0
LINE
  5
129
330
1F
100
AcDbEntity
  8
0
  6
Continuous
 62
     7
370
    15
100
AcDbLine
 10
140.4586449891
 20
159.4965091078
 30
0.0
 11
137.4586449891
 21
159.4965091078
 31
0.0
  0
LINE
  5
12A
330
1F
100
AcDbEntity
  8
0
  6
Continuous
 62
     7
370
    15
100
AcDbLine
 10
137.4586449891
 20
159.4965091078
 30
0.0
 11
137.4586449891
 21
160.4965091078
 31
0.0
  0
LINE
  5
12B
330
1F
100
AcDbEntity
  8
0
  6
Continuous
 62
     7
370
    15
100
AcDbLine
 10
137.4586449891
 20
172.4965091078
 30
0.0
 11
137.4586449891
 21
175.4965091078
 31
0.0
  0
LINE
  5
12C
330
1F
100
AcDbEntity
  8
0
  6
Continuous
 62
     7
370
    15
100
AcDbLine
 10
137.4586449891
 20
156.4965091078
 30
0.0
 11
137.4586449891
 21
159.4965091078
 31
0.0
  0
LINE
  5
12D
330
1F
100
AcDbEntity
  8
0
  6
Continuous
 62
     7
370
    15
100
AcDbLine
 10
130.4586449891
 20
164.9965091078
 30
0.0
 11
130.4586449891
 21
168.6965091078
 31
0.0
  0
LINE
  5
12E
330
1F
100
AcDbEntity
  8
0
  6
Continuous
 62
     7
370
    15
100
AcDbLine
 10
130.4586449891
 20
158.2965091078
 30
0.0
 11
130.4586449891
 21
161.9965091078
 31
0.0
  0
LINE
  5
12F
330
1F
100
AcDbEntity
  8
0
  6
Continuous
 62
     7
370
    15
100
AcDbLine
 10
137.4586449891
 20
178.4965091078
 30
0.0
 11
141.4586449891
 21
178.4965091078
 31
0.0
  0
LINE
  5
130
330
1F
100
AcDbEntity
  8
0
  6
Continuous
 62
     7
370
    15
100
AcDbLine
 10
137.4586449891
 20
177.4965091078
 30
0.0
 11
137.4586449891
 21
178.4965091078
 31
0.0
  0
LINE
  5
131
330
1F
100
AcDbEntity
  8
0
  6
Continuous
 62
     7
370
    15
100
AcDbLine
 10
137.4586449891
 20
177.4965091078
 30
0.0
 11
137.4586449891
 21
175.4965091078
 31
0.0
  0
LINE
  5
132
330
1F
100
AcDbEntity
  8
0
  6
Continuous
 62
     7
370
    15
100
AcDbLine
 10
137.4586449891
 20
156.4965091078
 30
0.0
 11
137.4586449891
 21
154.4965091078
 31
0.0
  0
LINE
  5
133
330
1F
100
AcDbEntity
  8
0
  6
Continuous
 62
     7
370
    15
100
AcDbLine
 10
141.4586449891
 20
153.4965091078
 30
0.0
 11
137.4586449891
 21
153.4965091078
 31
0.0
  0
LINE
  5
134
330
1F
100
AcDbEntity
  8
0
  6
Continuous
 62
     7
370
    15
100
AcDbLine
 10
137.4586449891
 20
153.4965091078
 30
0.0
 11
137.4586449891
 21
154.4965091078
 31
0.0
  0
LINE
  5
135
330
1F
100
AcDbEntity
  8
0
  6
Continuous
 62
     7
370
    15
100
AcDbLine
 10
126.6586449891
 20
165.4965091078
 30
0.0
 11
124.6586449891
 21
165.4965091078
 31
0.0
  0
ARC
  5
136
330
1F
100
AcDbEntity
  8
0
  6
Continuous
 62
     7
370
    15
100
AcDbCircle
 10
127.6586449891
 20
152.1965091078
 30
0.0
 40
1.0
100
AcDbArc
 50
180.0
 51
270.0
  0
LINE
  5
137
330
1F
100
AcDbEntity
  8
0
  6
Continuous
 62
     7
370
    15
100
AcDbLine
 10
174.1586449891
 20
151.1965091078
 30
0.0
 11
127.6586449891
 21
151.1965091078
 31
0.0
  0
LINE
  5
138
330
1F
100
AcDbEntity
  8
0
  6
Continuous
 62
     7
370
    15
100
AcDbLine
 10
174.1586449891
 20
149.1965091078
 30
0.0
 11
174.1586449891
 21
151.1965091078
 31
0.0
  0
LINE
  5
139
330
1F
100
AcDbEntity
  8
0
  6
Continuous
 62
     7
370
    15
100
AcDbLine
 10
174.1586449891
 20
149.1965091078
 30
0.0
 11
127.6586449891
 21
149.1965091078
 31
0.0
  0
ARC
  5
13A
330
1F
100
AcDbEntity
  8
0
  6
Continuous
 62
     7
370
    15
100
AcDbCircle
 10
127.6586449891
 20
152.1965091078
 30
0.0
 40
3.0
100
AcDbArc
 50
180.0
 51
270.0
  0
LINE
  5
13B
330
1F
100
AcDbEntity
  8
0
  6
Continuous
 62
     7
370
    15
100
AcDbLine
 10
124.6586449891
 20
152.1965091078
 30
0.0
 11
124.6586449891
 21
161.7644583002
 31
0.0
  0
LINE
  5
13C
330
1F
100
AcDbEntity
  8
0
  6
Continuous
 62
     7
370
    15
100
AcDbLine
 10
124.6586449891
 20
165.2285599153
 30
0.0
 11
124.6586449891
 21
165.4965091078
 31
0.0
  0
LINE
  5
13D
330
1F
100
AcDbEntity
  8
0
  6
Continuous
 62
     7
370
    15
100
AcDbLine
 10
126.6586449891
 20
165.4965091078
 30
0.0
 11
126.6586449891
 21
152.1965091078
 31
0.0
  0
LINE
  5
13E
330
1F
100
AcDbEntity
  8
0
  6
Continuous
 62
     7
370
    15
100
AcDbLine
 10
124.6586449891
 20
169.4965091078
 30
0.0
 11
126.6586449891
 21
169.4965091078
 31
0.0
  0
LINE
  5
13F
330
1F
100
AcDbEntity
  8
0
  6
Continuous
 62
     7
370
    15
100
AcDbLine
 10
124.6586449891
 20
165.4965091078
 30
0.0
 11
124.6586449891
 21
169.4965091078
 31
0.0
  0
LINE
  5
140
330
1F
100
AcDbEntity
  8
0
  6
Continuous
 62
     7
370
    15
100
AcDbLine
 10
126.6586449891
 20
169.4965091078
 30
0.0
 11
126.6586449891
 21
165.4965091078
 31
0.0
  0
LINE
  5
141
330
1F
100
AcDbEntity
  8
0
  6
Continuous
 62
     7
370
    15
100
AcDbLine
 10
174.6586449891
 20
151.1965091078
 30
0.0
 11
174.6586449891
 21
149.1965091078
 31
0.0
  0
LINE
  5
142
330
1F
100
AcDbEntity
  8
0
  6
Continuous
 62
     7
370
    15
100
AcDbLine
 10
174.1586449891
 20
151.1965091078
 30
0.0
 11
174.6586449891
 21
151.1965091078
 31
0.0
  0
LINE
  5
143
330
1F
100
AcDbEntity
  8
0
  6
Continuous
 62
     7
370
    15
100
AcDbLine
 10
164.6586449891
 20
146.6965091078
 30
0.0
 11
129.6586449891
 21
146.6965091078
 31
0.0
  0
LINE
  5
144
330
1F
100
AcDbEntity
  8
0
  6
Continuous
 62
     7
370
    15
100
AcDbLine
 10
129.6586449891
 20
146.6965091078
 30
0.0
 11
129.6586449891
 21
149.1965091078
 31
0.0
  0
LINE
  5
145
330
1F
100
AcDbEntity
  8
0
  6
Continuous
 62
     7
370
    15
100
AcDbLine
 10
164.6586449891
 20
146.6965091078
 30
0.0
 11
164.6586449891
 21
149.1965091078
 31
0.0
  0
LINE
  5
146
330
1F
100
AcDbEntity
  8
0
  6
Continuous
 62
     7
370
    15
100
AcDbLine
 10
120.6586449891
 20
164.0078524696
 30
0.0
 11
120.6586449891
 21
164.7160091078
 31
0.0
  0
LINE
  5
147
330
1F
100
AcDbEntity
  8
0
  6
Continuous
 62
     7
370
    15
100
AcDbLine
 10
120.6586449891
 20
162.2770091078
 30
0.0
 11
120.6586449891
 21
164.0078524696
 31
0.0
  0
LINE
  5
148
330
1F
100
AcDbEntity
  8
0
  6
Continuous
 62
     7
370
    15
100
AcDbLine
 10
120.8205917397
 20
164.1254677324
 30
0.0
 11
120.8205917397
 21
164.9965091078
 31
0.0
  0
LINE
  5
149
330
1F
100
AcDbEntity
  8
0
  6
Continuous
 62
     7
370
    15
100
AcDbLine
 10
120.8205917397
 20
161.9965091078
 30
0.0
 11
120.8205917397
 21
164.1254677324
 31
0.0
  0
LINE
  5
14A
330
1F
100
AcDbEntity
  8
0
  6
Continuous
 62
     7
370
    15
100
AcDbLine
 10
136.1586449891
 20
164.1254677324
 30
0.0
 11
136.1586449891
 21
164.9965091078
 31
0.0
  0
LINE
  5
14B
330
1F
100
AcDbEntity
  8
0
  6
Continuous
 62
     7
370
    15
100
AcDbLine
 10
136.1586449891
 20
161.9965091078
 30
0.0
 11
136.1586449891
 21
164.1254677324
 31
0.0
  0
LINE
  5
14C
330
1F
100
AcDbEntity
  8
0
  6
Continuous
 62
     8
370
    15
100
AcDbLine
 10
182.7336449891
 20
154.2465091078
 30
0.0
 11
182.7336449891
 21
158.7465091078
 31
0.0
  0
LINE
  5
14D
330
1F
100
AcDbEntity
  8
0
  6
Continuous
 62
     8
370
    15
100
AcDbLine
 10
110.1586449891
 20
159.5465091078
 30
0.0
 11
110.1586449891
 21
167.4465091078
 31
0.0
  0
LINE
  5
14E
330
1F
100
AcDbEntity
  8
0
  6
Continuous
 62
     8
370
    15
100
AcDbLine
 10
123.4586449891
 20
178.439433372
 30
0.0
 11
123.4586449891
 21
178.4465091078
 31
0.0
  0
LINE
  5
14F
330
1F
100
AcDbEntity
  8
0
  6
Continuous
 62
     8
370
    15
100
AcDbLine
 10
123.4586449891
 20
170.5465091078
 30
0.0
 11
123.4586449891
 21
178.439433372
 31
0.0
  0
LINE
  5
150
330
1F
100
AcDbEntity
  8
0
  6
Continuous
 62
     8
370
    15
100
AcDbLine
 10
138.0836449891
 20
158.7465091078
 30
0.0
 11
138.0836449891
 21
154.2465091078
 31
0.0
  0
LINE
  5
151
330
1F
100
AcDbEntity
  8
0
  6
Continuous
 62
     8
370
    15
100
AcDbLine
 10
138.0836449891
 20
177.7465091078
 30
0.0
 11
138.0836449891
 21
173.2465091078
 31
0.0
  0
LINE
  5
152
330
1F
100
AcDbEntity
  8
0
  6
Continuous
 62
     8
370
    15
100
AcDbLine
 10
137.4586449891
 20
175.4965091078
 30
0.0
 11
137.9586449891
 21
175.4965091078
 31
0.0
  0
LINE
  5
153
330
1F
100
AcDbEntity
  8
0
  6
Continuous
 62
     8
370
    15
100
AcDbLine
 10
137.9586449891
 20
156.4965091078
 30
0.0
 11
137.4586449891
 21
156.4965091078
 31
0.0
  0
LINE
  5
154
330
1F
100
AcDbEntity
  8
0
  6
Continuous
 62
     8
370
    15
100
AcDbLine
 10
130.7586449891
 20
161.9965091078
 30
0.0
 11
130.7586449891
 21
157.9965091078
 31
0.0
  0
LINE
  5
155
330
1F
100
AcDbEntity
  8
0
  6
Continuous
 62
     8
370
    15
100
AcDbLine
 10
130.7586449891
 20
168.9965091078
 30
0.0
 11
130.7586449891
 21
164.9965091078
 31
0.0
  0
LINE
  5
156
330
1F
100
AcDbEntity
  8
0
  6
Continuous
 62
     8
370
    15
100
AcDbLine
 10
137.9586449891
 20
177.4965091078
 30
0.0
 11
137.4586449891
 21
177.4965091078
 31
0.0
  0
LINE
  5
157
330
1F
100
AcDbEntity
  8
0
  6
Continuous
 62
     8
370
    15
100
AcDbLine
 10
137.4586449891
 20
154.4965091078
 30
0.0
 11
137.9586449891
 21
154.4965091078
 31
0.0
  0
LINE
  5
158
330
1F
100
AcDbEntity
  8
0
  6
CENTERX2
 62
     7
370
     0
100
AcDbLine
 10
177.4586449891
 20
197.3027899882
 30
0.0
 11
177.4586449891
 21
186.9965091115
 31
0.0
  0
LINE
  5
159
330
1F
100
AcDbEntity
  8
0
  6
CENTERX2
 62
     7
370
     0
100
AcDbLine
 10
177.4586449891
 20
197.3027899882
 30
0.0
 11
178.6349298715
 21
197.3027899882
 31
0.0
  0
ELLIPSE
  5
15A
330
1F
100
AcDbEntity
  8
0
  6
CENTERX2
 62
     7
370
     0
100
AcDbEllipse
 10
164.7760310588
 20
186.07584256
 30
0.0
 11
4.072944049533249
 21
-21.77735056609135
 31
0.0
210
0.0
220
0.0
230
1.0
 40
0.7665263533
 41
1.877680737480968
 42
1.963957654284253
  0
DIMENSION
  5
15B
330
1F
100
AcDbEntity
  8
0
  6
Continuous
 62
     7
370
     0
100
AcDbDimension
  2
_D
 10
179.4586449891
 20
207.4237577302
 30
0.0
 11
178.4586449891
 21
207.4237577302
 31
0.0
 70
   160
  1
Maxストローク  <>
 71
     2
 42
-1.0
  3
SLDDIMSTYLE0
100
AcDbAlignedDimension
 13
177.4586449891
 23
197.3027899882
 33
0.0
 14
179.4586449891
 24
197.3027899882
 34
0.0
100
AcDbRotatedDimension
  0
DIMENSION
  5
173
330
1F
100
AcDbEntity
  8
0
  6
Continuous
 62
     7
370
     0
100
AcDbDimension
  2
_D_1
 10
160.1586449891
 20
207.4237577302
 30
0.0
 11
168.8086449891
 21
207.4237577302
 31
0.0
 70
   160
  1
<>
 71
     2
 42
-1.0
  3
SLDDIMSTYLE1
100
AcDbAlignedDimension
 13
177.4586449891
 23
197.3027899882
 33
0.0
 14
160.1586449891
 24
153.1965091078
 34
0.0
 50
0.0
100
AcDbRotatedDimension
  0
DIMENSION
  5
17E
330
1F
100
AcDbEntity
  8
0
  6
Continuous
 62
     7
370
     0
100
AcDbDimension
  2
_D_2
 10
186.1586449891
 20
136.6965091078
 30
0.0
 11
173.4167153211
 21
136.6965091078
 31
0.0
 70
   160
  1
<>
 71
     2
 42
-1.0
  3
SLDDIMSTYLE2
100
AcDbAlignedDimension
 13
160.1586449891
 23
144.6965091078
 33
0.0
 14
186.1586449891
 24
160.0965091078
 34
0.0
 50
0.0
100
AcDbRotatedDimension
  0
DIMENSION
  5
189
330
1F
100
AcDbEntity
  8
0
  6
Continuous
 62
     7
370
     0
100
AcDbDimension
  2
_D_3
 10
140.1586449891
 20
136.6965091078
 30
0.0
 11
150.1457299826
 21
136.6965091078
 31
0.0
 70
   160
  1
<>
 71
     2
 42
-1.0
  3
SLDDIMSTYLE2
100
AcDbAlignedDimension
 13
160.1586449891
 23
144.6965091078
 33
0.0
 14
140.1586449891
 24
144.6965091078
 34
0.0
 50
0.0
100
AcDbRotatedDimension
  0
DIMENSION
  5
193
330
1F
100
AcDbEntity
  8
0
  6
Continuous
 62
     7
370
     0
100
AcDbDimension
  2
_D_4
 10
186.1586449891
 20
127.1105598451
 30
0.0
 11
152.7410696588
 21
127.1105598451
 31
0.0
 70
   160
  1
<>
 71
     2
 42
-1.0
  3
SLDDIMSTYLE2
100
AcDbAlignedDimension
 13
124.6586449891
 23
152.1965091078
 33
0.0
 14
186.1586449891
 24
160.0965091078
 34
0.0
 50
0.0
100
AcDbRotatedDimension
  0
DIMENSION
  5
19D
330
1F
100
AcDbEntity
  8
0
  6
Continuous
 62
     7
370
     0
100
AcDbDimension
  2
_D_5
 10
186.1586449891
 20
117.3941868602
 30
0.0
 11
152.735894864
 21
117.3941868602
 31
0.0
 70
   160
  1
<>
 71
     2
 42
-1.0
  3
SLDDIMSTYLE2
100
AcDbAlignedDimension
 13
109.6586449891
 23
160.0465091078
 33
0.0
 14
186.1586449891
 24
160.0965091078
 34
0.0
 50
0.0
100
AcDbRotatedDimension
  0
DIMENSION
  5
1A7
330
1F
100
AcDbEntity
  8
0
  6
Continuous
 62
     7
370
     0
100
AcDbDimension
  2
_D_6
 10
193.0907007774
 20
197.4237577302
 30
0.0
 11
193.0907007774
 21
168.1474605222
 31
0.0
 70
   160
  1
<>
 71
     2
 42
-1.0
  3
SLDDIMSTYLE2
100
AcDbAlignedDimension
 13
164.6586449891
 23
146.6965091078
 33
0.0
 14
179.4586449891
 24
197.4237577302
 34
0.0
 50
90.0
100
AcDbRotatedDimension
  0
DIMENSION
  5
1B1
330
1F
100
AcDbEntity
  8
0
  6
Continuous
 62
     7
370
     0
100
AcDbDimension
  2
_D_7
 10
186.1586449891
 20
207.4237577302
 30
0.0
 11
193.0907007774
 21
207.4237577302
 31
0.0
 70
   160
  1
<>
 71
     2
 42
-1.0
  3
SLDDIMSTYLE3
100
AcDbAlignedDimension
 13
179.4586449891
 23
197.3027899882
 33
0.0
 14
186.1586449891
 24
186.9965091113
 34
0.0
 50
0.0
100
AcDbRotatedDimension
  0
DIMENSION
  5
1BE
330
1F
100
AcDbEntity
  8
0
  6
Continuous
 62
     7
370
     0
100
AcDbDimension
  2
_D_8
 10
96.0421303048
 20
146.6965091078
 30
0.0
 11
96.0421303048
 21
160.5965091078
 31
0.0
 70
   160
  1
<>
 71
     2
 42
-1.0
  3
SLDDIMSTYLE2
100
AcDbAlignedDimension
 13
118.6561822812
 23
174.4965091078
 33
0.0
 14
129.6586449891
 24
146.6965091078
 34
0.0
 50
90.0
100
AcDbRotatedDimension
  0
DIMENSION
  5
1C8
330
1F
100
AcDbEntity
  8
0
  6
Continuous
 62
     7
370
     0
100
AcDbDimension
  2
_D_9
 10
105.1586162607
 20
146.6965091078
 30
0.0
 11
105.1586162607
 21
155.0965091078
 31
0.0
 70
   160
  1
<>
 71
     2
 42
-1.0
  3
SLDDIMSTYLE2
100
AcDbAlignedDimension
 13
108.1586449891
 23
163.4965091078
 33
0.0
 14
129.6586449891
 24
146.6965091078
 34
0.0
 50
90.0
100
AcDbRotatedDimension
  0
MTEXT
  5
1D2
330
1F
100
AcDbEntity
  8
0
  6
Continuous
 62
     7
370
     0
100
AcDbMText
 10
86.4367601069
 20
197.3896156449
 30
0.0
 40
2.9104166667
 41
0.0
 71
     1
 72
     1
  1
KQ2S04-M3G
  7
SLDTEXTSTYLE0
 73
     1
 44
1.0
  0
INSERT
  5
1DD
330
1F
100
AcDbEntity
  8
0
  6
Continuous
 62
     7
370
     0
100
AcDbBlockReference
  2
SW_NOTE_0
 10
93.7296577479
 20
198.7342297185
 30
0.0
  0
MTEXT
  5
1DE
330
1F
100
AcDbEntity
  8
0
  6
Continuous
 62
     7
370
     0
100
AcDbMText
 10
114.9388430656
 20
212.9723204552
 30
0.0
 40
3.5
 41
0.0
 71
     1
 72
     1
  1
カット配管
  7
SLDTEXTSTYLE0
 73
     1
 44
1.0
  0
LEADER
  5
1E0
330
1F
100
AcDbEntity
  8
0
  6
Continuous
 62
     7
370
     0
100
AcDbLeader
  3
SLDDIMSTYLE4
 76
     3
 10
135.1168105313
 20
176.7327543587
 30
0.0
 10
134.9665885111
 20
208.4407971864
 30
0.0
 10
114.8886283705
 20
208.4407971864
 30
0.0
  0
INSERT
  5
1E1
330
1F
100
AcDbEntity
  8
0
  6
Continuous
 62
     7
370
     0
100
AcDbBlockReference
  2
_DOT
 10
111.1586449891
 20
166.2178678127
 30
0.0
 41
3.0
 42
3.0
 50
269.8329239335
  0
LINE
  5
1E2
330
1F
100
AcDbEntity
  8
0
  6
Continuous
 62
     7
370
     0
100
AcDbLine
 10
111.1586449891
 20
166.2178678127
 30
0.0
 11
111.2543962485
 21
199.0539742087
 31
0.0
  0
LINE
  5
1E3
330
1F
100
AcDbEntity
  8
0
  6
CENTERX2
 62
     7
370
     0
100
AcDbLine
 10
171.9586449891
 20
149.1965091078
 30
0.0
 11
171.9586449891
 21
145.9965091078
 31
0.0
  0
LINE
  5
1E4
330
1F
100
AcDbEntity
  8
0
  6
CENTERX2
 62
     7
370
     0
100
AcDbLine
 10
171.9586449891
 20
151.1965091078
 30
0.0
 11
171.9586449891
 21
155.4965091078
 31
0.0
  0
LINE
  5
1E5
330
1F
100
AcDbEntity
  8
0
  6
CENTERX2
 62
     7
370
     0
100
AcDbLine
 10
171.9586449891
 20
149.1965091078
 30
0.0
 11
171.9586449891
 21
151.1965091078
 31
0.0
  0
LINE
  5
1E6
330
1F
100
AcDbEntity
  8
0
  6
CENTERX2
 62
     7
370
     0
100
AcDbLine
 10
132.6586449891
 20
144.6965091078
 30
0.0
 11
132.6586449891
 21
153.1965091078
 31
0.0
  0
LINE
  5
1E7
330
1F
100
AcDbEntity
  8
0
  6
CENTERX2
 62
     7
370
     0
100
AcDbLine
 10
152.6586449891
 20
144.6965091078
 30
0.0
 11
152.6586449891
 21
153.1965091078
 31
0.0
  0
LINE
  5
1E8
330
1F
100
AcDbEntity
  8
0
  6
CENTERX2
 62
     7
370
     0
100
AcDbLine
 10
167.1586449891
 20
153.1965091078
 30
0.0
 11
167.1586449891
 21
149.4965091078
 31
0.0
  0
LINE
  5
1E9
330
1F
100
AcDbEntity
  8
0
  6
CENTERX2
 62
     7
370
     0
100
AcDbLine
 10
167.1586449891
 20
147.1965091078
 30
0.0
 11
167.1586449891
 21
149.4965091078
 31
0.0
  0
LINE
  5
1EA
330
1F
100
AcDbEntity
  8
0
  6
CENTERX2
 62
     7
370
     0
100
AcDbLine
 10
160.1586449891
 20
153.1965091078
 30
0.0
 11
160.1586449891
 21
144.6965091078
 31
0.0
  0
LINE
  5
1EB
330
1F
100
AcDbEntity
  8
0
  6
CENTERX2
 62
     7
370
     0
100
AcDbLine
 10
140.1586449891
 20
153.1965091078
 30
0.0
 11
140.1586449891
 21
144.6965091078
 31
0.0
  0
LINE
  5
1EC
330
1F
100
AcDbEntity
  8
0
  6
CENTERX2
 62
     7
370
     0
100
AcDbLine
 10
143.3071731266
 20
154.4965091078
 30
0.0
 11
133.7615887143
 21
154.4965091078
 31
0.0
  0
LINE
  5
1ED
330
1F
100
AcDbEntity
  8
0
  6
CENTERX2
 62
     7
370
     0
100
AcDbLine
 10
128.7586449891
 20
163.4965091078
 30
0.0
 11
108.1586449891
 21
163.4965091078
 31
0.0
  0
LINE
  5
1EE
330
1F
100
AcDbEntity
  8
0
  6
CENTERX2
 62
     7
370
     0
100
AcDbLine
 10
122.7130568954
 20
163.4965091078
 30
0.0
 11
109.7586449891
 21
163.4965091078
 31
0.0
  0
LINE
  5
1EF
330
1F
100
AcDbEntity
  8
0
  6
CENTERX2
 62
     7
370
     0
100
AcDbLine
 10
118.6561822812
 20
174.4965091078
 30
0.0
 11
143.2694957441
 21
174.4965091078
 31
0.0
  0
ARC
  5
1F0
330
1F
100
AcDbEntity
  8
0
  6
Continuous
 62
     7
370
    15
100
AcDbCircle
 10
50.2722329109
 20
188.9636536479
 30
0.0
 40
0.5000000000000194
100
AcDbArc
 50
354.4465558043
 51
84.4465558043
  0
LINE
  5
1F1
330
1F
100
AcDbEntity
  8
0
  6
Continuous
 62
     7
370
    15
100
AcDbLine
 10
52.3389465094
 20
197.3027899882
 30
0.0
 11
51.0948135561
 21
197.4237577302
 31
0.0
  0
ARC
  5
1F2
330
1F
100
AcDbEntity
  8
0
  6
Continuous
 62
     7
370
    15
100
AcDbCircle
 10
33.4192305643
 20
186.07584256
 30
0.0
 40
22.00000000000001
100
AcDbArc
 50
354.1624902782
 51
30.6848667901
  0
ARC
  5
1F3
330
1F
100
AcDbEntity
  8
0
  6
Continuous
 62
     7
370
    15
100
AcDbCircle
 10
49.5948135561
 20
181.9965091096
 30
0.0
 40
6.000000000000029
100
AcDbArc
 50
17.8761855697
 51
79.6705248778
  0
ARC
  5
1F4
330
1F
100
AcDbEntity
  8
0
  6
Continuous
 62
     7
370
    15
100
AcDbCircle
 10
50.1754587174
 20
187.9683472853
 30
0.0
 40
0.5000000000000079
100
AcDbArc
 50
352.0585403411
 51
354.4465558043
  0
LINE
  5
1F5
330
1F
100
AcDbEntity
  8
0
  6
Continuous
 62
     7
370
    15
100
AcDbLine
 10
50.7698860922
 20
188.9152665512
 30
0.0
 11
50.6731118987
 21
187.9199601885
 31
0.0
  0
LINE
  5
1F6
330
1F
100
AcDbEntity
  8
0
  6
Continuous
 62
     7
370
    15
100
AcDbLine
 10
51.0948135561
 20
197.4237577302
 30
0.0
 11
50.3206200077
 21
189.4613068292
 31
0.0
  0
LINE
  5
1F7
330
1F
100
AcDbEntity
  8
0
  6
Continuous
 62
     7
370
    15
100
AcDbLine
 10
55.2625469376
 20
183.4548637703
 30
0.0
 11
55.0689985505
 21
181.4642510451
 31
0.0
  0
LWPOLYLINE
  5
1F8
330
1F
100
AcDbEntity
  8
0
  6
Continuous
 62
     7
370
    15
100
AcDbPolyline
 90
        3
 70
   128
 43
0.0
 10
54.6456168633
 20
179.8194960292
 10
54.5860118251
 20
179.6861109102
 10
54.5618116216
 20
179.6345331959
  0
LINE
  5
1F9
330
1F
100
AcDbEntity
  8
0
  6
Continuous
 62
     7
370
    15
100
AcDbLine
 10
45.1434454795
 20
178.4965091078
 30
0.0
 11
44.6278154906
 21
179.6345331959
 31
0.0
  0
ARC
  5
1FA
330
1F
100
AcDbEntity
  8
0
  6
Continuous
 62
     7
370
    15
100
AcDbCircle
 10
50.1754587174
 20
187.9683472853
 30
0.0
 40
0.500000000000015
100
AcDbArc
 50
264.4465558043
 51
352.0585403411
  0
ARC
  5
1FB
330
1F
100
AcDbEntity
  8
0
  6
Continuous
 62
     7
370
    15
100
AcDbCircle
 10
33.4192305643
 20
186.07584256
 30
0.0
 40
22.0
100
AcDbArc
 50
353.157793331
 51
354.1624902782
  0
CIRCLE
  5
1FC
330
1F
100
AcDbEntity
  8
0
  6
Continuous
 62
     7
370
    15
100
AcDbCircle
 10
49.5948135561
 20
181.9965091096
 30
0.0
 40
2.499999999999996
  0
ARC
  5
1FD
330
1F
100
AcDbEntity
  8
0
  6
Continuous
 62
     7
370
    15
100
AcDbCircle
 10
49.5948135561
 20
181.9965091096
 30
0.0
 40
5.500000000000004
100
AcDbArc
 50
185.5534441957
 51
219.5211963836
  0
LINE
  5
1FE
330
1F
100
AcDbEntity
  8
0
  6
Continuous
 62
     7
370
    15
100
AcDbLine
 10
43.9270801746
 20
183.4548637703
 30
0.0
 11
44.1206285617
 21
181.4642510451
 31
0.0
  0
ARC
  5
1FF
330
1F
100
AcDbEntity
  8
0
  6
Continuous
 62
     7
370
    15
100
AcDbCircle
 10
65.7703965479
 20
186.07584256
 30
0.0
 40
22.0
100
AcDbArc
 50
149.3151332099
 51
186.842206669
  0
LINE
  5
200
330
1F
100
AcDbEntity
  8
0
  6
Continuous
 62
     7
370
    15
100
AcDbLine
 10
48.0948135561
 20
197.4237577302
 30
0.0
 11
46.8506806028
 21
197.3027899882
 31
0.0
  0
LINE
  5
201
330
1F
100
AcDbEntity
  8
0
  6
Continuous
 62
     7
370
    15
100
AcDbLine
 10
48.8690071045
 20
189.4613068292
 30
0.0
 11
48.0948135561
 21
197.4237577302
 31
0.0
  0
ARC
  5
202
330
1F
100
AcDbEntity
  8
0
  6
Continuous
 62
     7
370
    15
100
AcDbCircle
 10
48.9173942013
 20
188.9636536479
 30
0.0
 40
0.5000000000000201
100
AcDbArc
 50
95.5534441957
 51
185.5534441957
  0
LINE
  5
203
330
1F
100
AcDbEntity
  8
0
  6
Continuous
 62
     7
370
    15
100
AcDbLine
 10
48.5165152135
 20
187.9199601885
 30
0.0
 11
48.4197410199
 21
188.9152665512
 31
0.0
  0
ARC
  5
204
330
1F
100
AcDbEntity
  8
0
  6
Continuous
 62
     7
370
    15
100
AcDbCircle
 10
49.0141683948
 20
187.9683472853
 30
0.0
 40
0.5000000000000201
100
AcDbArc
 50
185.5534441957
 51
275.5534441957
  0
ARC
  5
205
330
1F
100
AcDbEntity
  8
0
  6
Continuous
 62
     7
370
    15
100
AcDbCircle
 10
49.5948135561
 20
181.9965091096
 30
0.0
 40
5.499999999999997
100
AcDbArc
 50
336.6828398789
 51
95.5534441957
  0
LINE
  5
206
330
1F
100
AcDbEntity
  8
0
  6
Continuous
 62
     7
370
    15
100
AcDbLine
 10
54.0461816327
 20
178.4965091078
 30
0.0
 11
54.6456168633
 21
179.8194960292
 31
0.0
  0
ARC
  5
207
330
1F
100
AcDbEntity
  8
0
  6
Continuous
 62
     7
370
    15
100
AcDbCircle
 10
49.5948135561
 20
180.0265091078
 30
0.0
 40
10.0
100
AcDbArc
 50
135.8131936084
 51
180.0
  0
LINE
  5
208
330
1F
100
AcDbEntity
  8
0
  6
Continuous
 62
     7
370
    15
100
AcDbLine
 10
42.4241022943
 20
185.1275776233
 30
0.0
 11
42.4241022943
 21
186.9965091078
 31
0.0
  0
ARC
  5
209
330
1F
100
AcDbEntity
  8
0
  6
Continuous
 62
     7
370
    15
100
AcDbCircle
 10
49.5948135561
 20
180.0265091078
 30
0.0
 40
8.800000000000004
100
AcDbArc
 50
144.5728840639
 51
180.0
  0
LINE
  5
20A
330
1F
100
AcDbEntity
  8
0
  6
Continuous
 62
     7
370
    15
100
AcDbLine
 10
40.7948135561
 20
177.8965091078
 30
0.0
 11
40.7948135561
 21
180.0265091078
 31
0.0
  0
LINE
  5
20B
330
1F
100
AcDbEntity
  8
0
  6
Continuous
 62
     7
370
    15
100
AcDbLine
 10
58.3948135561
 20
180.0265091078
 30
0.0
 11
58.3948135561
 21
177.8965091078
 31
0.0
  0
ARC
  5
20C
330
1F
100
AcDbEntity
  8
0
  6
Continuous
 62
     7
370
    15
100
AcDbCircle
 10
49.5948135561
 20
180.0265091078
 30
0.0
 40
8.800000000000004
100
AcDbArc
 50
0.0
 51
35.4271159764
  0
LINE
  5
20D
330
1F
100
AcDbEntity
  8
0
  6
Continuous
 62
     7
370
    15
100
AcDbLine
 10
56.7655248143
 20
186.9965091115
 30
0.0
 11
56.7655248143
 21
185.1275776283
 31
0.0
  0
ARC
  5
20E
330
1F
100
AcDbEntity
  8
0
  6
Continuous
 62
     7
370
    15
100
AcDbCircle
 10
49.5948135561
 20
180.0265091078
 30
0.0
 40
10.00000000000001
100
AcDbArc
 50
0.0
 51
44.1868064211
  0
LINE
  5
20F
330
1F
100
AcDbEntity
  8
0
  6
Continuous
 62
     7
370
    15
100
AcDbLine
 10
59.5948135561
 20
175.4965091078
 30
0.0
 11
59.5948135561
 21
180.0265091078
 31
0.0
  0
LINE
  5
210
330
1F
100
AcDbEntity
  8
0
  6
Continuous
 62
     7
370
    15
100
AcDbLine
 10
39.5948135561
 20
180.0265091078
 30
0.0
 11
39.5948135561
 21
175.4965091078
 31
0.0
  0
LINE
  5
211
330
1F
100
AcDbEntity
  8
0
  6
Continuous
 62
     7
370
    15
100
AcDbLine
 10
42.4241022943
 20
186.9965091078
 30
0.0
 11
43.7896692372
 21
186.9965091081
 31
0.0
  0
LINE
  5
212
330
1F
100
AcDbEntity
  8
0
  6
Continuous
 62
     7
370
    15
100
AcDbLine
 10
55.3999578748
 20
186.9965091111
 30
0.0
 11
56.7655248143
 21
186.9965091115
 31
0.0
  0
CIRCLE
  5
213
330
1F
100
AcDbEntity
  8
0
  6
Continuous
 62
     7
370
    15
100
AcDbCircle
 10
49.5948135561
 20
181.9965091096
 30
0.0
 40
1.250000000000009
  0
ARC
  5
214
330
1F
100
AcDbEntity
  8
0
  6
Continuous
 62
     7
370
    15
100
AcDbCircle
 10
57.0948135561
 20
163.4965091078
 30
0.0
 40
2.750000000000011
100
AcDbArc
 50
60.0
 51
120.0
  0
ARC
  5
215
330
1F
100
AcDbEntity
  8
0
  6
Continuous
 62
     7
370
    15
100
AcDbCircle
 10
57.0948135561
 20
163.4965091078
 30
0.0
 40
2.75
100
AcDbArc
 50
0.0
 51
60.0
  0
ARC
  5
216
330
1F
100
AcDbEntity
  8
0
  6
Continuous
 62
     7
370
    15
100
AcDbCircle
 10
57.0948135561
 20
163.4965091078
 30
0.0
 40
2.750000000000008
100
AcDbArc
 50
300.0
 51
0.0
  0
ARC
  5
217
330
1F
100
AcDbEntity
  8
0
  6
Continuous
 62
     7
370
    15
100
AcDbCircle
 10
57.0948135561
 20
163.4965091078
 30
0.0
 40
2.750000000000015
100
AcDbArc
 50
240.0
 51
300.0
  0
ARC
  5
218
330
1F
100
AcDbEntity
  8
0
  6
Continuous
 62
     7
370
    15
100
AcDbCircle
 10
57.0948135561
 20
163.4965091078
 30
0.0
 40
2.750000000000015
100
AcDbArc
 50
180.0
 51
240.0
  0
ARC
  5
219
330
1F
100
AcDbEntity
  8
0
  6
Continuous
 62
     7
370
    15
100
AcDbCircle
 10
57.0948135561
 20
163.4965091078
 30
0.0
 40
2.750000000000011
100
AcDbArc
 50
120.0
 51
180.0
  0
SPLINE
  5
21A
330
1F
100
AcDbEntity
  8
0
  6
Continuous
 62
     7
370
    15
100
AcDbSpline
210
0.0
220
0.0
230
1.0
 70
    24
 71
     3
 72
     9
 73
     5
 74
     0
 42
0.00000001
 43
0.00000001
 12
1.0
 22
0.0
 32
0.0
 13
1.0
 23
0.0
 33
0.0
 40
0.0
 40
0.0
 40
0.0
 40
0.0
 40
0.4954579634770057
 40
1.0
 40
1.0
 40
1.0
 40
1.0
 10
57.09481355609338
 20
166.6719355883141
 30
0.0
 10
57.31811960092656
 20
166.543009783218
 30
0.0
 10
57.76882593989843
 20
166.2827943570871
 30
0.0
 10
58.23474021758452
 20
166.0137986234457
 30
0.0
 10
58.4698135560934
 20
165.8780789681783
 30
0.0
  0
SPLINE
  5
21B
330
1F
100
AcDbEntity
  8
0
  6
Continuous
 62
     7
370
    15
100
AcDbSpline
210
0.0
220
0.0
230
1.0
 70
    24
 71
     3
 72
    10
 73
     6
 74
     0
 42
0.00000001
 43
0.00000001
 12
1.0
 22
0.0
 32
0.0
 13
1.0
 23
0.0
 33
0.0
 40
0.0
 40
0.0
 40
0.0
 40
0.0
 40
0.0700125066049265
 40
0.5307444279566615
 40
1.0
 40
1.0
 40
1.0
 40
1.0
 10
55.71981355609336
 20
165.8780789681784
 30
0.0
 10
55.75236943579872
 20
165.8968751140899
 30
0.0
 10
55.99916608098024
 20
166.0393632236206
 30
0.0
 10
56.46452527024296
 20
166.3080384768113
 30
0.0
 10
56.88343763618752
 20
166.5498976440562
 30
0.0
 10
57.09481355609338
 20
166.6719355883141
 30
0.0
  0
SPLINE
  5
21C
330
1F
100
AcDbEntity
  8
0
  6
Continuous
 62
     7
370
    15
100
AcDbSpline
210
0.0
220
0.0
230
1.0
 70
    24
 71
     3
 72
    10
 73
     6
 74
     0
 42
0.00000001
 43
0.00000001
 12
1.0
 22
0.0
 32
0.0
 13
1.0
 23
0.0
 33
0.0
 40
0.0
 40
0.0
 40
0.0
 40
0.0
 40
0.2684065359322049
 40
0.632372896450292
 40
1.0
 40
1.0
 40
1.0
 40
1.0
 10
54.34481355609337
 20
163.4965091077711
 30
0.0
 10
54.34481355609337
 20
163.6406967973205
 30
0.0
 10
54.34481355609337
 20
163.9804068068257
 30
0.0
 10
54.34481355609337
 20
164.5133677350735
 30
0.0
 10
54.34481355609337
 20
164.893303769828
 30
0.0
 10
54.34481355609337
 20
165.0842223480426
 30
0.0
  0
SPLINE
  5
21D
330
1F
100
AcDbEntity
  8
0
  6
Continuous
 62
     7
370
    15
100
AcDbSpline
210
0.0
220
0.0
230
1.0
 70
    24
 71
     3
 72
     9
 73
     5
 74
     0
 42
0.00000001
 43
0.00000001
 12
1.0
 22
0.0
 32
0.0
 13
1.0
 23
0.0
 33
0.0
 40
0.0
 40
0.0
 40
0.0
 40
0.0
 40
0.4954579634770093
 40
1.0
 40
1.0
 40
1.0
 40
1.0
 10
54.34481355609337
 20
165.0842223480426
 30
0.0
 10
54.56811960092655
 20
165.2131481531387
 30
0.0
 10
55.01882593989841
 20
165.4733635792696
 30
0.0
 10
55.48474021758449
 20
165.7423593129109
 30
0.0
 10
55.71981355609336
 20
165.8780789681784
 30
0.0
  0
SPLINE
  5
21E
330
1F
100
AcDbEntity
  8
0
  6
Continuous
 62
     7
370
    15
100
AcDbSpline
210
0.0
220
0.0
230
1.0
 70
    24
 71
     3
 72
    10
 73
     6
 74
     0
 42
0.00000001
 43
0.00000001
 12
1.0
 22
0.0
 32
0.0
 13
1.0
 23
0.0
 33
0.0
 40
0.0
 40
0.0
 40
0.0
 40
0.0
 40
0.268406535932195
 40
0.6323728964502878
 40
1.0
 40
1.0
 40
1.0
 40
1.0
 10
59.84481355609337
 20
163.4965091077711
 30
0.0
 10
59.84481355609337
 20
163.6406967973205
 30
0.0
 10
59.84481355609337
 20
163.9804068068257
 30
0.0
 10
59.84481355609336
 20
164.5133677350735
 30
0.0
 10
59.84481355609337
 20
164.893303769828
 30
0.0
 10
59.84481355609337
 20
165.0842223480426
 30
0.0
  0
SPLINE
  5
21F
330
1F
100
AcDbEntity
  8
0
  6
Continuous
 62
     7
370
    15
100
AcDbSpline
210
0.0
220
0.0
230
1.0
 70
    24
 71
     3
 72
    10
 73
     6
 74
     0
 42
0.00000001
 43
0.00000001
 12
1.0
 22
0.0
 32
0.0
 13
1.0
 23
0.0
 33
0.0
 40
0.0
 40
0.0
 40
0.0
 40
0.0
 40
0.0700125066049144
 40
0.530744427956656
 40
1.0
 40
1.0
 40
1.0
 40
1.0
 10
58.4698135560934
 20
165.8780789681783
 30
0.0
 10
58.50236943579874
 20
165.8592828222667
 30
0.0
 10
58.74916608098025
 20
165.7167947127361
 30
0.0
 10
59.21452527024295
 20
165.4481194595454
 30
0.0
 10
59.6334376361875
 20
165.2062602923005
 30
0.0
 10
59.84481355609337
 20
165.0842223480426
 30
0.0
  0
SPLINE
  5
220
330
1F
100
AcDbEntity
  8
0
  6
Continuous
 62
     7
370
    15
100
AcDbSpline
210
0.0
220
0.0
230
1.0
 70
    24
 71
     3
 72
    10
 73
     6
 74
     0
 42
0.00000001
 43
0.00000001
 12
1.0
 22
0.0
 32
0.0
 13
1.0
 23
0.0
 33
0.0
 40
0.0
 40
0.0
 40
0.0
 40
0.0
 40
0.070012506604917
 40
0.5307444279566574
 40
1.0
 40
1.0
 40
1.0
 40
1.0
 10
55.71981355609335
 20
161.1149392473639
 30
0.0
 10
55.68725767638799
 20
161.1337353932755
 30
0.0
 10
55.44046103120645
 20
161.2762235028061
 30
0.0
 10
54.97510184194378
 20
161.5448987559969
 30
0.0
 10
54.55618947599925
 20
161.7867579232418
 30
0.0
 10
54.34481355609337
 20
161.9087958674997
 30
0.0
  0
SPLINE
  5
221
330
1F
100
AcDbEntity
  8
0
  6
Continuous
 62
     7
370
    15
100
AcDbSpline
210
0.0
220
0.0
230
1.0
 70
    24
 71
     3
 72
    10
 73
     6
 74
     0
 42
0.00000001
 43
0.00000001
 12
1.0
 22
0.0
 32
0.0
 13
1.0
 23
0.0
 33
0.0
 40
0.0
 40
0.0
 40
0.0
 40
0.0
 40
0.2572432618847597
 40
0.6263798857722969
 40
1.0
 40
1.0
 40
1.0
 40
1.0
 10
54.34481355609337
 20
161.9087958674997
 30
0.0
 10
54.34481355609337
 20
162.0421249957657
 30
0.0
 10
54.34481355609337
 20
162.3667775581749
 30
0.0
 10
54.34481355609337
 20
162.8966560747016
 30
0.0
 10
54.34481355609337
 20
163.2957550718334
 30
0.0
 10
54.34481355609337
 20
163.4965091077711
 30
0.0
  0
SPLINE
  5
222
330
1F
100
AcDbEntity
  8
0
  6
Continuous
 62
     7
370
    15
100
AcDbSpline
210
0.0
220
0.0
230
1.0
 70
    24
 71
     3
 72
     9
 73
     5
 74
     0
 42
0.00000001
 43
0.00000001
 12
1.0
 22
0.0
 32
0.0
 13
1.0
 23
0.0
 33
0.0
 40
0.0
 40
0.0
 40
0.0
 40
0.0
 40
0.4954579634770097
 40
1.0
 40
1.0
 40
1.0
 40
1.0
 10
59.84481355609336
 20
161.9087958674996
 30
0.0
 10
59.62150751126018
 20
161.7798700624035
 30
0.0
 10
59.17080117228833
 20
161.5196546362726
 30
0.0
 10
58.70488689460225
 20
161.2506589026313
 30
0.0
 10
58.46981355609338
 20
161.1149392473639
 30
0.0
  0
SPLINE
  5
223
330
1F
100
AcDbEntity
  8
0
  6
Continuous
 62
     7
370
    15
100
AcDbSpline
210
0.0
220
0.0
230
1.0
 70
    24
 71
     3
 72
    10
 73
     6
 74
     0
 42
0.00000001
 43
0.00000001
 12
1.0
 22
0.0
 32
0.0
 13
1.0
 23
0.0
 33
0.0
 40
0.0
 40
0.0
 40
0.0
 40
0.0
 40
0.2572432618847607
 40
0.6263798857722975
 40
1.0
 40
1.0
 40
1.0
 40
1.0
 10
59.84481355609336
 20
161.9087958674996
 30
0.0
 10
59.84481355609336
 20
162.0421249957656
 30
0.0
 10
59.84481355609338
 20
162.3667775581749
 30
0.0
 10
59.84481355609337
 20
162.8966560747016
 30
0.0
 10
59.84481355609337
 20
163.2957550718334
 30
0.0
 10
59.84481355609337
 20
163.4965091077711
 30
0.0
  0
SPLINE
  5
224
330
1F
100
AcDbEntity
  8
0
  6
Continuous
 62
     7
370
    15
100
AcDbSpline
210
0.0
220
0.0
230
1.0
 70
    24
 71
     3
 72
    10
 73
     6
 74
     0
 42
0.00000001
 43
0.00000001
 12
1.0
 22
0.0
 32
0.0
 13
1.0
 23
0.0
 33
0.0
 40
0.0
 40
0.0
 40
0.0
 40
0.0
 40
0.0700125066049452
 40
0.5307444279566748
 40
0.9999999999999999
 40
0.9999999999999999
 40
0.9999999999999999
 40
0.9999999999999999
 10
58.46981355609338
 20
161.1149392473639
 30
0.0
 10
58.43725767638801
 20
161.0961431014523
 30
0.0
 10
58.19046103120652
 20
160.9536549919216
 30
0.0
 10
57.72510184194377
 20
160.684979738731
 30
0.0
 10
57.30618947599919
 20
160.443120571486
 30
0.0
 10
57.09481355609331
 20
160.3210826272282
 30
0.0
  0
SPLINE
  5
225
330
1F
100
AcDbEntity
  8
0
  6
Continuous
 62
     7
370
    15
100
AcDbSpline
210
0.0
220
0.0
230
1.0
 70
    24
 71
     3
 72
     9
 73
     5
 74
     0
 42
0.00000001
 43
0.00000001
 12
1.0
 22
0.0
 32
0.0
 13
1.0
 23
0.0
 33
0.0
 40
0.0
 40
0.0
 40
0.0
 40
0.0
 40
0.4954579634770087
 40
0.9999999999999999
 40
0.9999999999999999
 40
0.9999999999999999
 40
0.9999999999999999
 10
57.09481355609331
 20
160.3210826272282
 30
0.0
 10
56.87150751126013
 20
160.4500084323243
 30
0.0
 10
56.42080117228827
 20
160.7102238584552
 30
0.0
 10
55.95488689460221
 20
160.9792195920965
 30
0.0
 10
55.71981355609335
 20
161.1149392473639
 30
0.0
  0
LINE
  5
226
330
1F
100
AcDbEntity
  8
0
  6
Continuous
 62
     7
370
    15
100
AcDbLine
 10
39.5948135561
 20
147.9965091078
 30
0.0
 11
39.5948135561
 21
149.1965091078
 31
0.0
  0
LINE
  5
227
330
1F
100
AcDbEntity
  8
0
  6
Continuous
 62
     7
370
    15
100
AcDbLine
 10
40.0948135561
 20
147.9965091078
 30
0.0
 11
39.5948135561
 21
147.9965091078
 31
0.0
  0
LINE
  5
228
330
1F
100
AcDbEntity
  8
0
  6
Continuous
 62
     7
370
    15
100
AcDbLine
 10
59.5948135561
 20
149.1965091078
 30
0.0
 11
59.5948135561
 21
147.9965091078
 31
0.0
  0
LINE
  5
229
330
1F
100
AcDbEntity
  8
0
  6
Continuous
 62
     7
370
    15
100
AcDbLine
 10
59.5948135561
 20
147.9965091078
 30
0.0
 11
59.0948135561
 21
147.9965091078
 31
0.0
  0
LINE
  5
22A
330
1F
100
AcDbEntity
  8
0
  6
Continuous
 62
     7
370
    15
100
AcDbLine
 10
39.5948135561
 20
156.4965091078
 30
0.0
 11
39.5948135561
 21
151.1965091078
 31
0.0
  0
CIRCLE
  5
22B
330
1F
100
AcDbEntity
  8
0
  6
Continuous
 62
     7
370
    15
100
AcDbCircle
 10
49.5948135561
 20
163.4965091078
 30
0.0
 40
3.449999999999988
  0
CIRCLE
  5
22C
330
1F
100
AcDbEntity
  8
0
  6
Continuous
 62
     7
370
    15
100
AcDbCircle
 10
49.5948135561
 20
163.4965091078
 30
0.0
 40
3.950000000000012
  0
CIRCLE
  5
22D
330
1F
100
AcDbEntity
  8
0
  6
Continuous
 62
     7
370
    15
100
AcDbCircle
 10
49.5948135561
 20
163.4965091078
 30
0.0
 40
2.499999999999992
  0
CIRCLE
  5
22E
330
1F
100
AcDbEntity
  8
0
  6
Continuous
 62
     7
370
    15
100
AcDbCircle
 10
49.5948135561
 20
163.4965091078
 30
0.0
 40
2.00000000000002
  0
CIRCLE
  5
22F
330
1F
100
AcDbEntity
  8
0
  6
Continuous
 62
     7
370
    15
100
AcDbCircle
 10
49.5948135561
 20
163.4965091078
 30
0.0
 40
3.999999999999985
  0
LINE
  5
230
330
1F
100
AcDbEntity
  8
0
  6
Continuous
 62
     7
370
    15
100
AcDbLine
 10
49.341636382
 20
161.7830619045
 30
0.0
 11
50.9521137752
 21
162.4205276417
 31
0.0
  0
LINE
  5
231
330
1F
100
AcDbEntity
  8
0
  6
Continuous
 62
     7
370
    15
100
AcDbLine
 10
50.9521137752
 20
162.4205276417
 30
0.0
 11
51.2052909492
 21
164.133974845
 31
0.0
  0
LINE
  5
232
330
1F
100
AcDbEntity
  8
0
  6
Continuous
 62
     7
370
    15
100
AcDbLine
 10
51.2052909492
 20
164.133974845
 30
0.0
 11
49.8479907301
 21
165.2099563111
 31
0.0
  0
LINE
  5
233
330
1F
100
AcDbEntity
  8
0
  6
Continuous
 62
     7
370
    15
100
AcDbLine
 10
49.8479907301
 20
165.2099563111
 30
0.0
 11
48.237513337
 21
164.5724905738
 31
0.0
  0
LINE
  5
234
330
1F
100
AcDbEntity
  8
0
  6
Continuous
 62
     7
370
    15
100
AcDbLine
 10
48.237513337
 20
164.5724905738
 30
0.0
 11
47.984336163
 21
162.8590433705
 31
0.0
  0
LINE
  5
235
330
1F
100
AcDbEntity
  8
0
  6
Continuous
 62
     7
370
    15
100
AcDbLine
 10
47.984336163
 20
162.8590433705
 30
0.0
 11
49.341636382
 21
161.7830619045
 31
0.0
  0
CIRCLE
  5
236
330
1F
100
AcDbEntity
  8
0
  6
Continuous
 62
     7
370
    15
100
AcDbCircle
 10
49.5948135561
 20
163.4965091078
 30
0.0
 40
0.7499999999999875
  0
CIRCLE
  5
237
330
1F
100
AcDbEntity
  8
0
  6
Continuous
 62
     7
370
    15
100
AcDbCircle
 10
49.5948135561
 20
174.4965091078
 30
0.0
 40
3.450000000000021
  0
CIRCLE
  5
238
330
1F
100
AcDbEntity
  8
0
  6
Continuous
 62
     7
370
    15
100
AcDbCircle
 10
49.5948135561
 20
174.4965091078
 30
0.0
 40
3.950000000000012
  0
CIRCLE
  5
239
330
1F
100
AcDbEntity
  8
0
  6
Continuous
 62
     7
370
    15
100
AcDbCircle
 10
49.5948135561
 20
174.4965091078
 30
0.0
 40
2.500000000000008
  0
CIRCLE
  5
23A
330
1F
100
AcDbEntity
  8
0
  6
Continuous
 62
     7
370
    15
100
AcDbCircle
 10
49.5948135561
 20
174.4965091078
 30
0.0
 40
1.999999999999989
  0
CIRCLE
  5
23B
330
1F
100
AcDbEntity
  8
0
  6
Continuous
 62
     7
370
    15
100
AcDbCircle
 10
49.5948135561
 20
174.4965091078
 30
0.0
 40
4.000000000000007
  0
LINE
  5
23C
330
1F
100
AcDbEntity
  8
0
  6
Continuous
 62
     7
370
    15
100
AcDbLine
 10
48.6405968262
 20
173.0510090447
 30
0.0
 11
50.369544967
 21
172.9473831474
 31
0.0
  0
LINE
  5
23D
330
1F
100
AcDbEntity
  8
0
  6
Continuous
 62
     7
370
    15
100
AcDbLine
 10
50.369544967
 20
172.9473831474
 30
0.0
 11
51.3237616968
 21
174.3928832105
 31
0.0
  0
LINE
  5
23E
330
1F
100
AcDbEntity
  8
0
  6
Continuous
 62
     7
370
    15
100
AcDbLine
 10
51.3237616968
 20
174.3928832105
 30
0.0
 11
50.549030286
 21
175.9420091709
 31
0.0
  0
LINE
  5
23F
330
1F
100
AcDbEntity
  8
0
  6
Continuous
 62
     7
370
    15
100
AcDbLine
 10
50.549030286
 20
175.9420091709
 30
0.0
 11
48.8200821452
 21
176.0456350681
 31
0.0
  0
LINE
  5
240
330
1F
100
AcDbEntity
  8
0
  6
Continuous
 62
     7
370
    15
100
AcDbLine
 10
48.8200821452
 20
176.0456350681
 30
0.0
 11
47.8658654153
 21
174.600135005
 31
0.0
  0
LINE
  5
241
330
1F
100
AcDbEntity
  8
0
  6
Continuous
 62
     7
370
    15
100
AcDbLine
 10
47.8658654153
 20
174.600135005
 30
0.0
 11
48.6405968262
 21
173.0510090447
 31
0.0
  0
CIRCLE
  5
242
330
1F
100
AcDbEntity
  8
0
  6
Continuous
 62
     7
370
    15
100
AcDbCircle
 10
49.5948135561
 20
174.4965091078
 30
0.0
 40
0.7499999999999997
  0
CIRCLE
  5
243
330
1F
100
AcDbEntity
  8
0
  6
Continuous
 62
     7
370
    15
100
AcDbCircle
 10
42.5948135561
 20
175.4965091078
 30
0.0
 40
2.125000000000007
  0
CIRCLE
  5
244
330
1F
100
AcDbEntity
  8
0
  6
Continuous
 62
     7
370
    15
100
AcDbCircle
 10
42.5948135561
 20
175.4965091078
 30
0.0
 40
2.250000000000025
  0
LINE
  5
245
330
1F
100
AcDbEntity
  8
0
  6
Continuous
 62
     7
370
    15
100
AcDbLine
 10
41.6074497528
 20
174.8491135152
 30
0.0
 11
42.6617926839
 21
174.3177291751
 31
0.0
  0
LINE
  5
246
330
1F
100
AcDbEntity
  8
0
  6
Continuous
 62
     7
370
    15
100
AcDbLine
 10
42.6617926839
 20
174.3177291751
 30
0.0
 11
43.6491564872
 21
174.9651247676
 31
0.0
  0
LINE
  5
247
330
1F
100
AcDbEntity
  8
0
  6
Continuous
 62
     7
370
    15
100
AcDbLine
 10
43.5821773594
 20
176.1439047004
 30
0.0
 11
43.6491564872
 21
174.9651247676
 31
0.0
  0
LINE
  5
248
330
1F
100
AcDbEntity
  8
0
  6
Continuous
 62
     7
370
    15
100
AcDbLine
 10
42.5278344283
 20
176.6752890405
 30
0.0
 11
43.5821773594
 21
176.1439047004
 31
0.0
  0
LINE
  5
249
330
1F
100
AcDbEntity
  8
0
  6
Continuous
 62
     7
370
    15
100
AcDbLine
 10
42.5278344283
 20
176.6752890405
 30
0.0
 11
41.540470625
 21
176.0278934479
 31
0.0
  0
LINE
  5
24A
330
1F
100
AcDbEntity
  8
0
  6
Continuous
 62
     7
370
    15
100
AcDbLine
 10
41.6074497528
 20
174.8491135152
 30
0.0
 11
41.540470625
 21
176.0278934479
 31
0.0
  0
ARC
  5
24B
330
1F
100
AcDbEntity
  8
0
  6
Continuous
 62
     7
370
    15
100
AcDbCircle
 10
42.5948135561
 20
175.4965091078
 30
0.0
 40
1.022500000000019
100
AcDbArc
 50
63.2520907211
 51
123.2520907211
  0
ARC
  5
24C
330
1F
100
AcDbEntity
  8
0
  6
Continuous
 62
     7
370
    15
100
AcDbCircle
 10
42.5948135561
 20
175.4965091078
 30
0.0
 40
1.022500000000019
100
AcDbArc
 50
3.2520907211
 51
63.2520907211
  0
ARC
  5
24D
330
1F
100
AcDbEntity
  8
0
  6
Continuous
 62
     7
370
    15
100
AcDbCircle
 10
42.5948135561
 20
175.4965091078
 30
0.0
 40
1.022500000000001
100
AcDbArc
 50
303.2520907211
 51
3.2520907211
  0
ARC
  5
24E
330
1F
100
AcDbEntity
  8
0
  6
Continuous
 62
     7
370
    15
100
AcDbCircle
 10
42.5948135561
 20
175.4965091078
 30
0.0
 40
1.022499999999994
100
AcDbArc
 50
243.2520907211
 51
303.2520907211
  0
ARC
  5
24F
330
1F
100
AcDbEntity
  8
0
  6
Continuous
 62
     7
370
    15
100
AcDbCircle
 10
42.5948135561
 20
175.4965091078
 30
0.0
 40
1.022500000000014
100
AcDbArc
 50
183.2520907211
 51
243.2520907211
  0
ARC
  5
250
330
1F
100
AcDbEntity
  8
0
  6
Continuous
 62
     7
370
    15
100
AcDbCircle
 10
42.5948135561
 20
175.4965091078
 30
0.0
 40
1.022500000000014
100
AcDbArc
 50
123.2520907211
 51
183.2520907211
  0
LWPOLYLINE
  5
251
330
1F
100
AcDbEntity
  8
0
  6
Continuous
 62
     7
370
    15
100
AcDbPolyline
 90
        3
 70
   128
 43
0.0
 10
41.3610851294
 20
158.378107941
 10
41.696822936
 20
158.5595439708
 10
41.8455151207
 20
158.6180773614
  0
ARC
  5
252
330
1F
100
AcDbEntity
  8
0
  6
Continuous
 62
     7
370
    15
100
AcDbCircle
 10
42.5948135561
 20
156.4965091078
 30
0.0
 40
2.250000000000021
100
AcDbArc
 50
123.2520907211
 51
216.8063035547
  0
CIRCLE
  5
253
330
1F
100
AcDbEntity
  8
0
  6
Continuous
 62
     7
370
    15
100
AcDbCircle
 10
56.5948135561
 20
175.4965091078
 30
0.0
 40
2.125
  0
LINE
  5
254
330
1F
100
AcDbEntity
  8
0
  6
Continuous
 62
     7
370
    15
100
AcDbLine
 10
55.6074497528
 20
174.8491135152
 30
0.0
 11
56.6617926839
 21
174.3177291751
 31
0.0
  0
LINE
  5
255
330
1F
100
AcDbEntity
  8
0
  6
Continuous
 62
     7
370
    15
100
AcDbLine
 10
56.6617926839
 20
174.3177291751
 30
0.0
 11
57.6491564872
 21
174.9651247676
 31
0.0
  0
LINE
  5
256
330
1F
100
AcDbEntity
  8
0
  6
Continuous
 62
     7
370
    15
100
AcDbLine
 10
57.5821773594
 20
176.1439047004
 30
0.0
 11
57.6491564872
 21
174.9651247676
 31
0.0
  0
LINE
  5
257
330
1F
100
AcDbEntity
  8
0
  6
Continuous
 62
     7
370
    15
100
AcDbLine
 10
56.5278344283
 20
176.6752890405
 30
0.0
 11
57.5821773594
 21
176.1439047004
 31
0.0
  0
LINE
  5
258
330
1F
100
AcDbEntity
  8
0
  6
Continuous
 62
     7
370
    15
100
AcDbLine
 10
56.5278344283
 20
176.6752890405
 30
0.0
 11
55.540470625
 21
176.0278934479
 31
0.0
  0
LINE
  5
259
330
1F
100
AcDbEntity
  8
0
  6
Continuous
 62
     7
370
    15
100
AcDbLine
 10
55.6074497528
 20
174.8491135152
 30
0.0
 11
55.540470625
 21
176.0278934479
 31
0.0
  0
CIRCLE
  5
25A
330
1F
100
AcDbEntity
  8
0
  6
Continuous
 62
     7
370
    15
100
AcDbCircle
 10
56.5948135561
 20
175.4965091078
 30
0.0
 40
2.249999999999993
  0
ARC
  5
25B
330
1F
100
AcDbEntity
  8
0
  6
Continuous
 62
     7
370
    15
100
AcDbCircle
 10
56.5948135561
 20
175.4965091078
 30
0.0
 40
1.022500000000022
100
AcDbArc
 50
63.2520907211
 51
123.2520907211
  0
ARC
  5
25C
330
1F
100
AcDbEntity
  8
0
  6
Continuous
 62
     7
370
    15
100
AcDbCircle
 10
56.5948135561
 20
175.4965091078
 30
0.0
 40
1.022500000000022
100
AcDbArc
 50
3.2520907211
 51
63.2520907211
  0
ARC
  5
25D
330
1F
100
AcDbEntity
  8
0
  6
Continuous
 62
     7
370
    15
100
AcDbCircle
 10
56.5948135561
 20
175.4965091078
 30
0.0
 40
1.022499999999999
100
AcDbArc
 50
303.2520907211
 51
3.2520907211
  0
ARC
  5
25E
330
1F
100
AcDbEntity
  8
0
  6
Continuous
 62
     7
370
    15
100
AcDbCircle
 10
56.5948135561
 20
175.4965091078
 30
0.0
 40
1.022499999999992
100
AcDbArc
 50
243.2520907211
 51
303.2520907211
  0
ARC
  5
25F
330
1F
100
AcDbEntity
  8
0
  6
Continuous
 62
     7
370
    15
100
AcDbCircle
 10
56.5948135561
 20
175.4965091078
 30
0.0
 40
1.022499999999992
100
AcDbArc
 50
183.2520907211
 51
243.2520907211
  0
ARC
  5
260
330
1F
100
AcDbEntity
  8
0
  6
Continuous
 62
     7
370
    15
100
AcDbCircle
 10
56.5948135561
 20
175.4965091078
 30
0.0
 40
1.022500000000004
100
AcDbArc
 50
123.2520907211
 51
183.2520907211
  0
LINE
  5
261
330
1F
100
AcDbEntity
  8
0
  6
Continuous
 62
     7
370
    15
100
AcDbLine
 10
42.111912685
 20
159.4965091078
 30
0.0
 11
40.5948135561
 21
159.4965091078
 31
0.0
  0
ARC
  5
262
330
1F
100
AcDbEntity
  8
0
  6
Continuous
 62
     7
370
    15
100
AcDbCircle
 10
40.5948135561
 20
160.4965091078
 30
0.0
 40
1.0
100
AcDbArc
 50
180.0
 51
270.0
  0
LINE
  5
263
330
1F
100
AcDbEntity
  8
0
  6
Continuous
 62
     7
370
    15
100
AcDbLine
 10
39.5948135561
 20
171.4965091078
 30
0.0
 11
39.5948135561
 21
160.4965091078
 31
0.0
  0
ARC
  5
264
330
1F
100
AcDbEntity
  8
0
  6
Continuous
 62
     7
370
    15
100
AcDbCircle
 10
40.5948135561
 20
171.4965091078
 30
0.0
 40
1.0
100
AcDbArc
 50
90.0
 51
180.0
  0
LINE
  5
265
330
1F
100
AcDbEntity
  8
0
  6
Continuous
 62
     7
370
    15
100
AcDbLine
 10
40.5948135561
 20
172.4965091078
 30
0.0
 11
42.5948135561
 21
172.4965091078
 31
0.0
  0
ARC
  5
266
330
1F
100
AcDbEntity
  8
0
  6
Continuous
 62
     7
370
    15
100
AcDbCircle
 10
42.5948135561
 20
175.4965091078
 30
0.0
 40
3.0
100
AcDbArc
 50
270.0
 51
0.0
  0
LINE
  5
267
330
1F
100
AcDbEntity
  8
0
  6
Continuous
 62
     7
370
    15
100
AcDbLine
 10
45.5948135561
 20
175.4965091078
 30
0.0
 11
45.5948135561
 21
177.4965091078
 31
0.0
  0
ARC
  5
268
330
1F
100
AcDbEntity
  8
0
  6
Continuous
 62
     7
370
    15
100
AcDbCircle
 10
46.5948135561
 20
177.4965091078
 30
0.0
 40
1.0
100
AcDbArc
 50
90.0
 51
180.0
  0
LINE
  5
269
330
1F
100
AcDbEntity
  8
0
  6
Continuous
 62
     7
370
    15
100
AcDbLine
 10
52.5948135561
 20
178.4965091078
 30
0.0
 11
46.5948135561
 21
178.4965091078
 31
0.0
  0
ARC
  5
26A
330
1F
100
AcDbEntity
  8
0
  6
Continuous
 62
     7
370
    15
100
AcDbCircle
 10
52.5948135561
 20
177.4965091078
 30
0.0
 40
1.0
100
AcDbArc
 50
0.0
 51
90.0
  0
LINE
  5
26B
330
1F
100
AcDbEntity
  8
0
  6
Continuous
 62
     7
370
    15
100
AcDbLine
 10
53.5948135561
 20
177.4965091078
 30
0.0
 11
53.5948135561
 21
175.4965091078
 31
0.0
  0
ARC
  5
26C
330
1F
100
AcDbEntity
  8
0
  6
Continuous
 62
     7
370
    15
100
AcDbCircle
 10
56.5948135561
 20
175.4965091078
 30
0.0
 40
3.0
100
AcDbArc
 50
180.0
 51
270.0
  0
LINE
  5
26D
330
1F
100
AcDbEntity
  8
0
  6
Continuous
 62
     7
370
    15
100
AcDbLine
 10
56.5948135561
 20
172.4965091078
 30
0.0
 11
58.5948135561
 21
172.4965091078
 31
0.0
  0
ARC
  5
26E
330
1F
100
AcDbEntity
  8
0
  6
Continuous
 62
     7
370
    15
100
AcDbCircle
 10
58.5948135561
 20
171.4965091078
 30
0.0
 40
1.0
100
AcDbArc
 50
0.0
 51
90.0
  0
LINE
  5
26F
330
1F
100
AcDbEntity
  8
0
  6
Continuous
 62
     7
370
    15
100
AcDbLine
 10
59.5948135561
 20
165.4965091078
 30
0.0
 11
59.5948135561
 21
171.4965091078
 31
0.0
  0
ARC
  5
270
330
1F
100
AcDbEntity
  8
0
  6
Continuous
 62
     7
370
    15
100
AcDbCircle
 10
42.5948135561
 20
175.4965091078
 30
0.0
 40
3.000000000000021
100
AcDbArc
 50
90.0
 51
180.0
  0
LINE
  5
271
330
1F
100
AcDbEntity
  8
0
  6
Continuous
 62
     7
370
    15
100
AcDbLine
 10
42.5948135561
 20
178.4965091078
 30
0.0
 11
46.5948135561
 21
178.4965091078
 31
0.0
  0
LINE
  5
272
330
1F
100
AcDbEntity
  8
0
  6
Continuous
 62
     7
370
    15
100
AcDbLine
 10
52.5948135561
 20
178.4965091078
 30
0.0
 11
56.5948135561
 21
178.4965091078
 31
0.0
  0
ARC
  5
273
330
1F
100
AcDbEntity
  8
0
  6
Continuous
 62
     7
370
    15
100
AcDbCircle
 10
56.5948135561
 20
175.4965091078
 30
0.0
 40
3.0
100
AcDbArc
 50
0.0
 51
90.0
  0
LINE
  5
274
330
1F
100
AcDbEntity
  8
0
  6
Continuous
 62
     7
370
    15
100
AcDbLine
 10
39.5948135561
 20
171.4965091078
 30
0.0
 11
39.5948135561
 21
175.4965091078
 31
0.0
  0
LINE
  5
275
330
1F
100
AcDbEntity
  8
0
  6
Continuous
 62
     7
370
    15
100
AcDbLine
 10
59.5948135561
 20
175.4965091078
 30
0.0
 11
59.5948135561
 21
171.4965091078
 31
0.0
  0
LINE
  5
276
330
1F
100
AcDbEntity
  8
0
  6
Continuous
 62
     7
370
    15
100
AcDbLine
 10
39.5948135561
 20
156.4965091078
 30
0.0
 11
39.5948135561
 21
160.4965091078
 31
0.0
  0
ARC
  5
277
330
1F
100
AcDbEntity
  8
0
  6
Continuous
 62
     7
370
    15
100
AcDbCircle
 10
42.5948135561
 20
156.4965091078
 30
0.0
 40
3.000000000000021
100
AcDbArc
 50
180.0
 51
226.7537754393
  0
ARC
  5
278
330
1F
100
AcDbEntity
  8
0
  6
Continuous
 62
     7
370
    15
100
AcDbCircle
 10
55.5948135561
 20
165.4965091078
 30
0.0
 40
4.0
100
AcDbArc
 50
0.0
 51
90.0
  0
LINE
  5
279
330
1F
100
AcDbEntity
  8
0
  6
Continuous
 62
     7
370
    15
100
AcDbLine
 10
59.5948135561
 20
152.1965091078
 30
0.0
 11
59.5948135561
 21
161.7644583002
 31
0.0
  0
LINE
  5
27A
330
1F
100
AcDbEntity
  8
0
  6
Continuous
 62
     7
370
    15
100
AcDbLine
 10
59.5948135561
 20
165.2285599153
 30
0.0
 11
59.5948135561
 21
165.4965091078
 31
0.0
  0
LINE
  5
27B
330
1F
100
AcDbEntity
  8
0
  6
Continuous
 62
     7
370
    15
100
AcDbLine
 10
39.8980785114
 20
152.1965091078
 30
0.0
 11
59.5948135561
 21
152.1965091078
 31
0.0
  0
LINE
  5
27C
330
1F
100
AcDbEntity
  8
0
  6
Continuous
 62
     7
370
    15
100
AcDbLine
 10
39.8980785114
 20
152.1965091078
 30
0.0
 11
43.8530412028
 21
165.2377874438
 31
0.0
  0
ARC
  5
27D
330
1F
100
AcDbEntity
  8
0
  6
Continuous
 62
     7
370
    15
100
AcDbCircle
 10
49.5948135561
 20
163.4965091078
 30
0.0
 40
6.000000000000013
100
AcDbArc
 50
90.0
 51
163.1292881975
  0
LINE
  5
27E
330
1F
100
AcDbEntity
  8
0
  6
Continuous
 62
     7
370
    15
100
AcDbLine
 10
55.5948135561
 20
169.4965091078
 30
0.0
 11
49.5948135561
 21
169.4965091078
 31
0.0
  0
LINE
  5
27F
330
1F
100
AcDbEntity
  8
0
  6
Continuous
 62
     7
370
    15
100
AcDbLine
 10
59.5948135561
 20
149.1965091078
 30
0.0
 11
39.5948135561
 21
149.1965091078
 31
0.0
  0
LINE
  5
280
330
1F
100
AcDbEntity
  8
0
  6
Continuous
 62
     7
370
    15
100
AcDbLine
 10
39.5948135561
 20
149.1965091078
 30
0.0
 11
39.5948135561
 21
151.1965091078
 31
0.0
  0
LINE
  5
281
330
1F
100
AcDbEntity
  8
0
  6
Continuous
 62
     7
370
    15
100
AcDbLine
 10
59.5948135561
 20
152.1965091078
 30
0.0
 11
59.5948135561
 21
149.1965091078
 31
0.0
  0
LINE
  5
282
330
1F
100
AcDbEntity
  8
0
  6
Continuous
 62
     7
370
    15
100
AcDbLine
 10
39.8980785114
 20
152.1965091078
 30
0.0
 11
39.5948135561
 21
151.1965091078
 31
0.0
  0
LINE
  5
283
330
1F
100
AcDbEntity
  8
0
  6
Continuous
 62
     7
370
    15
100
AcDbLine
 10
59.0948135561
 20
146.6965091078
 30
0.0
 11
59.0948135561
 21
149.1965091078
 31
0.0
  0
LINE
  5
284
330
1F
100
AcDbEntity
  8
0
  6
Continuous
 62
     7
370
    15
100
AcDbLine
 10
59.0948135561
 20
146.6965091078
 30
0.0
 11
40.0948135561
 21
146.6965091078
 31
0.0
  0
LINE
  5
285
330
1F
100
AcDbEntity
  8
0
  6
Continuous
 62
     7
370
    15
100
AcDbLine
 10
40.0948135561
 20
146.6965091078
 30
0.0
 11
40.0948135561
 21
149.1965091078
 31
0.0
  0
CIRCLE
  5
286
330
1F
100
AcDbEntity
  8
0
  6
Continuous
 62
     7
370
    15
100
AcDbCircle
 10
57.0948135561
 20
163.4965091078
 30
0.0
 40
1.219499999999998
  0
CIRCLE
  5
287
330
1F
100
AcDbEntity
  8
0
  6
Continuous
 62
     7
370
    15
100
AcDbCircle
 10
57.0948135561
 20
163.4965091078
 30
0.0
 40
1.499999999999989
  0
LINE
  5
288
330
1F
100
AcDbEntity
  8
0
  6
Continuous
 62
     7
370
    15
100
AcDbLine
 10
56.3872257931
 20
163.9958282017
 30
0.0
 11
56.3085966546
 21
163.1333796766
 31
0.0
  0
LINE
  5
289
330
1F
100
AcDbEntity
  8
0
  6
Continuous
 62
     7
370
    15
100
AcDbLine
 10
57.0161844176
 20
162.6340605826
 30
0.0
 11
56.3085966546
 21
163.1333796766
 31
0.0
  0
LINE
  5
28A
330
1F
100
AcDbEntity
  8
0
  6
Continuous
 62
     7
370
    15
100
AcDbLine
 10
57.8024013191
 20
162.9971900138
 30
0.0
 11
57.0161844176
 21
162.6340605826
 31
0.0
  0
LINE
  5
28B
330
1F
100
AcDbEntity
  8
0
  6
Continuous
 62
     7
370
    15
100
AcDbLine
 10
57.8024013191
 20
162.9971900138
 30
0.0
 11
57.8810304576
 21
163.859638539
 31
0.0
  0
LINE
  5
28C
330
1F
100
AcDbEntity
  8
0
  6
Continuous
 62
     7
370
    15
100
AcDbLine
 10
57.1734426945
 20
164.358957633
 30
0.0
 11
57.8810304576
 21
163.859638539
 31
0.0
  0
LINE
  5
28D
330
1F
100
AcDbEntity
  8
0
  6
Continuous
 62
     7
370
    15
100
AcDbLine
 10
57.1734426945
 20
164.358957633
 30
0.0
 11
56.3872257931
 21
163.9958282017
 31
0.0
  0
ARC
  5
28E
330
1F
100
AcDbEntity
  8
0
  6
Continuous
 62
     8
370
    15
100
AcDbCircle
 10
42.5948135561
 20
156.4965091078
 30
0.0
 40
2.125000000000007
100
AcDbArc
 50
123.2520907211
 51
214.2869330624
  0
LWPOLYLINE
  5
28F
330
1F
100
AcDbEntity
  8
0
  6
Continuous
 62
     8
370
    15
100
AcDbPolyline
 90
        3
 70
   128
 43
0.0
 10
41.7997497609
 20
158.4671685308
 10
41.7559116177
 20
158.4489098191
 10
41.4296255975
 20
158.2735746725
  0
LINE
  5
290
330
1F
100
AcDbEntity
  8
0
  6
Continuous
 62
     8
370
    15
100
AcDbLine
 10
40.3448135561
 20
175.4965091078
 30
0.0
 11
39.5948135561
 21
175.4965091078
 31
0.0
  0
LINE
  5
291
330
1F
100
AcDbEntity
  8
0
  6
Continuous
 62
     8
370
    15
100
AcDbLine
 10
42.5948135561
 20
177.7465091078
 30
0.0
 11
42.5948135561
 21
178.4965091078
 31
0.0
  0
LINE
  5
292
330
1F
100
AcDbEntity
  8
0
  6
Continuous
 62
     8
370
    15
100
AcDbLine
 10
45.5948135561
 20
177.4965091078
 30
0.0
 11
43.6255899625
 21
177.4965091078
 31
0.0
  0
LINE
  5
293
330
1F
100
AcDbEntity
  8
0
  6
Continuous
 62
     8
370
    15
100
AcDbLine
 10
40.5948135561
 20
174.4657327014
 30
0.0
 11
40.5948135561
 21
172.4965091078
 31
0.0
  0
LINE
  5
294
330
1F
100
AcDbEntity
  8
0
  6
Continuous
 62
     8
370
    15
100
AcDbLine
 10
55.5640371497
 20
177.4965091078
 30
0.0
 11
53.5948135561
 21
177.4965091078
 31
0.0
  0
LINE
  5
295
330
1F
100
AcDbEntity
  8
0
  6
Continuous
 62
     8
370
    15
100
AcDbLine
 10
56.5948135561
 20
177.7465091078
 30
0.0
 11
56.5948135561
 21
178.4965091078
 31
0.0
  0
LINE
  5
296
330
1F
100
AcDbEntity
  8
0
  6
Continuous
 62
     8
370
    15
100
AcDbLine
 10
58.8448135561
 20
175.4965091078
 30
0.0
 11
59.5948135561
 21
175.4965091078
 31
0.0
  0
LINE
  5
297
330
1F
100
AcDbEntity
  8
0
  6
Continuous
 62
     8
370
    15
100
AcDbLine
 10
58.5948135561
 20
172.4965091078
 30
0.0
 11
58.5948135561
 21
174.4657327014
 31
0.0
  0
LINE
  5
298
330
1F
100
AcDbEntity
  8
0
  6
Continuous
 62
     8
370
    15
100
AcDbLine
 10
40.5948135561
 20
159.4965091078
 30
0.0
 11
40.5948135561
 21
157.5272855142
 31
0.0
  0
LINE
  5
299
330
1F
100
AcDbEntity
  8
0
  6
Continuous
 62
     8
370
    15
100
AcDbLine
 10
39.5948135561
 20
156.4965091078
 30
0.0
 11
40.3448135561
 21
156.4965091078
 31
0.0
  0
DIMENSION
  5
29A
330
1F
100
AcDbEntity
  8
0
  6
Continuous
 62
     7
370
     0
100
AcDbDimension
  2
_D_10
 10
67.1692674105
 20
146.6965091078
 30
0.0
 11
67.1692674105
 21
160.8990598735
 31
0.0
 70
   160
  1
<>
 71
     2
 42
-1.0
  3
SLDDIMSTYLE2
100
AcDbAlignedDimension
 13
56.5948135561
 23
178.4965091078
 33
0.0
 14
59.0948135561
 24
146.6965091078
 34
0.0
 50
90.0
100
AcDbRotatedDimension
  0
DIMENSION
  5
2A4
330
1F
100
AcDbEntity
  8
0
  6
Continuous
 62
     7
370
     0
100
AcDbDimension
  2
_D_11
 10
76.4878691635
 20
146.6965091078
 30
0.0
 11
76.4878691635
 21
166.8465091115
 31
0.0
 70
   160
  1
<>
 71
     2
 42
-1.0
  3
SLDDIMSTYLE2
100
AcDbAlignedDimension
 13
56.7655248143
 23
186.9965091115
 33
0.0
 14
59.0948135561
 24
146.6965091078
 34
0.0
 50
90.0
100
AcDbRotatedDimension
  0
DIMENSION
  5
2AE
330
1F
100
AcDbEntity
  8
0
  6
Continuous
 62
     7
370
     0
100
AcDbDimension
  2
_D_12
 10
76.4878691609
 20
197.4237577367
 30
0.0
 11
76.4878691622
 21
192.2101334266
 31
0.0
 70
   160
  1
<>
 71
     2
 42
-1.0
  3
SLDDIMSTYLE5
100
AcDbAlignedDimension
 13
56.7655248143
 23
186.9965091115
 33
0.0
 14
51.0948135561
 24
197.4237577302
 34
0.0
 50
90.0
100
AcDbRotatedDimension
  0
DIMENSION
  5
2BB
330
1F
100
AcDbEntity
  8
0
  6
Continuous
 62
     7
370
     0
100
AcDbDimension
  2
_D_13
 10
59.5948135561
 20
139.5407026723
 30
0.0
 11
49.5948135561
 21
139.5407026723
 31
0.0
 70
   160
  1
<>
 71
     2
 42
-1.0
  3
SLDDIMSTYLE2
100
AcDbAlignedDimension
 13
39.5948135561
 23
147.9965091078
 33
0.0
 14
59.5948135561
 24
147.9965091078
 34
0.0
 50
0.0
100
AcDbRotatedDimension
  0
DIMENSION
  5
2C5
330
1F
100
AcDbEntity
  8
0
  6
Continuous
 62
     7
370
     0
100
AcDbDimension
  2
_D_14
 10
51.0948135561
 20
204.7879722807
 30
0.0
 11
59.6280784999
 21
204.7879722807
 31
0.0
 70
   160
  1
<>
 71
     2
 42
-1.0
  3
SLDDIMSTYLE6
100
AcDbAlignedDimension
 13
48.0948135561
 23
197.4237577302
 33
0.0
 14
51.0948135561
 24
197.4237577302
 34
0.0
100
AcDbRotatedDimension
  0
DIMENSION
  5
2D2
330
1F
100
AcDbEntity
  8
0
  6
Continuous
 62
     7
370
     0
100
AcDbDimension
  2
_D_15
 10
43.7703965479
 20
211.642562377
 30
0.0
 11
49.5948135561
 21
211.642562377
 31
0.0
 70
   160
  1
(<>)
 71
     2
 42
-1.0
  3
SLDDIMSTYLE6
100
AcDbAlignedDimension
 13
55.4192305643
 23
186.07584256
 33
0.0
 14
43.7703965479
 24
186.07584256
 34
0.0
100
AcDbRotatedDimension
  0
DIMENSION
  5
2E0
330
1F
100
AcDbEntity
  8
0
  6
Continuous
 62
     7
370
     0
100
AcDbDimension
  2
_D_16
 10
33.9428228122
 20
146.6965091078
 30
0.0
 11
33.9428228122
 21
164.3465091087
 31
0.0
 70
   160
  1
(<>)
 71
     2
 42
-1.0
  3
SLDDIMSTYLE1
100
AcDbAlignedDimension
 13
44.5948135561
 23
181.9965091096
 33
0.0
 14
40.0948135561
 24
146.6965091078
 34
0.0
 50
90.0
100
AcDbRotatedDimension
  0
INSERT
  5
2F7
330
1F
100
AcDbEntity
  8
0
  6
Continuous
 62
     7
370
     0
100
AcDbBlockReference
  2
SW_CENTERMARKSYMBOL_0
 10
49.5948135561
 20
163.4965091078
 30
0.0
  0
INSERT
  5
303
330
1F
100
AcDbEntity
  8
0
  6
Continuous
 62
     7
370
     0
100
AcDbBlockReference
  2
SW_CENTERMARKSYMBOL_1
 10
57.0948135561
 20
163.4965091078
 30
0.0
  0
INSERT
  5
30F
330
1F
100
AcDbEntity
  8
0
  6
Continuous
 62
     7
370
     0
100
AcDbBlockReference
  2
SW_CENTERMARKSYMBOL_2
 10
56.5948135561
 20
175.4965091078
 30
0.0
  0
INSERT
  5
31B
330
1F
100
AcDbEntity
  8
0
  6
Continuous
 62
     7
370
     0
100
AcDbBlockReference
  2
SW_CENTERMARKSYMBOL_3
 10
42.5948135561
 20
175.4965091078
 30
0.0
  0
INSERT
  5
327
330
1F
100
AcDbEntity
  8
0
  6
Continuous
 62
     7
370
     0
100
AcDbBlockReference
  2
SW_CENTERMARKSYMBOL_4
 10
49.5948135561
 20
181.9965091096
 30
0.0
  0
LINE
  5
328
330
1F
100
AcDbEntity
  8
0
  6
Continuous
 62
     7
370
    15
100
AcDbLine
 10
186.2586449891
 20
89.0784837778
 30
0.0
 11
186.1586449891
 21
89.0784837778
 31
0.0
  0
LINE
  5
329
330
1F
100
AcDbEntity
  8
0
  6
Continuous
 62
     7
370
    15
100
AcDbLine
 10
186.1586449891
 20
84.7784837778
 30
0.0
 11
186.2586449891
 21
84.7784837778
 31
0.0
  0
LINE
  5
32A
330
1F
100
AcDbEntity
  8
0
  6
Continuous
 62
     7
370
    15
100
AcDbLine
 10
186.2586449891
 20
82.0784837778
 30
0.0
 11
186.1586449891
 21
82.0784837778
 31
0.0
  0
LINE
  5
32B
330
1F
100
AcDbEntity
  8
0
  6
Continuous
 62
     7
370
    15
100
AcDbLine
 10
186.1586449891
 20
77.7784837778
 30
0.0
 11
186.2586449891
 21
77.7784837778
 31
0.0
  0
LINE
  5
32C
330
1F
100
AcDbEntity
  8
0
  6
Continuous
 62
     7
370
    15
100
AcDbLine
 10
186.2586449891
 20
96.0784837778
 30
0.0
 11
186.1586449891
 21
96.0784837778
 31
0.0
  0
LINE
  5
32D
330
1F
100
AcDbEntity
  8
0
  6
Continuous
 62
     7
370
    15
100
AcDbLine
 10
186.1586449891
 20
91.7784837778
 30
0.0
 11
186.2586449891
 21
91.7784837778
 31
0.0
  0
LINE
  5
32E
330
1F
100
AcDbEntity
  8
0
  6
Continuous
 62
     7
370
    15
100
AcDbLine
 10
182.7336449891
 20
96.1784837778
 30
0.0
 11
180.3586449891
 21
96.1784837778
 31
0.0
  0
LINE
  5
32F
330
1F
100
AcDbEntity
  8
0
  6
Continuous
 62
     7
370
    15
100
AcDbLine
 10
180.3586449891
 20
91.6784837778
 30
0.0
 11
182.7336449891
 21
91.6784837778
 31
0.0
  0
ARC
  5
330
330
1F
100
AcDbEntity
  8
0
  6
Continuous
 62
     7
370
    15
100
AcDbCircle
 10
182.7336449891
 20
96.0534837778
 30
0.0
 40
0.125
100
AcDbArc
 50
0.0
 51
90.0
  0
ARC
  5
331
330
1F
100
AcDbEntity
  8
0
  6
Continuous
 62
     7
370
    15
100
AcDbCircle
 10
182.7336449891
 20
91.8034837778
 30
0.0
 40
0.125
100
AcDbArc
 50
270.0
 51
0.0
  0
LINE
  5
332
330
1F
100
AcDbEntity
  8
0
  6
Continuous
 62
     7
370
    15
100
AcDbLine
 10
182.7336449891
 20
82.1784837778
 30
0.0
 11
180.3586449891
 21
82.1784837778
 31
0.0
  0
LINE
  5
333
330
1F
100
AcDbEntity
  8
0
  6
Continuous
 62
     7
370
    15
100
AcDbLine
 10
180.3586449891
 20
77.6784837778
 30
0.0
 11
182.7336449891
 21
77.6784837778
 31
0.0
  0
ARC
  5
334
330
1F
100
AcDbEntity
  8
0
  6
Continuous
 62
     7
370
    15
100
AcDbCircle
 10
182.7336449891
 20
82.0534837778
 30
0.0
 40
0.125
100
AcDbArc
 50
0.0
 51
90.0
  0
ARC
  5
335
330
1F
100
AcDbEntity
  8
0
  6
Continuous
 62
     7
370
    15
100
AcDbCircle
 10
182.7336449891
 20
77.8034837778
 30
0.0
 40
0.1250000000000142
100
AcDbArc
 50
270.0
 51
0.0
  0
LINE
  5
336
330
1F
100
AcDbEntity
  8
0
  6
Continuous
 62
     7
370
    15
100
AcDbLine
 10
111.7586449891
 20
82.9284837778
 30
0.0
 11
120.7130568954
 21
82.9284837778
 31
0.0
  0
LINE
  5
337
330
1F
100
AcDbEntity
  8
0
  6
Continuous
 62
     7
370
    15
100
AcDbLine
 10
120.7130568954
 20
90.9284837778
 30
0.0
 11
111.7586449891
 21
90.9284837778
 31
0.0
  0
LINE
  5
338
330
1F
100
AcDbEntity
  8
0
  6
Continuous
 62
     7
370
    15
100
AcDbLine
 10
120.7130568954
 20
82.9284837778
 30
0.0
 11
120.8586449891
 21
83.3284837778
 31
0.0
  0
LINE
  5
339
330
1F
100
AcDbEntity
  8
0
  6
Continuous
 62
     7
370
    15
100
AcDbLine
 10
120.8586449891
 20
90.5284837778
 30
0.0
 11
120.7130568954
 21
90.9284837778
 31
0.0
  0
ARC
  5
33A
330
1F
100
AcDbEntity
  8
0
  6
Continuous
 62
     7
370
    15
100
AcDbCircle
 10
110.1586449891
 20
83.4784837778
 30
0.0
 40
0.5
100
AcDbArc
 50
180.0
 51
270.0
  0
ARC
  5
33B
330
1F
100
AcDbEntity
  8
0
  6
Continuous
 62
     7
370
    15
100
AcDbCircle
 10
110.1586449891
 20
90.3784837778
 30
0.0
 40
0.5
100
AcDbArc
 50
90.0
 51
180.0
  0
LINE
  5
33C
330
1F
100
AcDbEntity
  8
0
  6
Continuous
 62
     7
370
    15
100
AcDbLine
 10
110.1586449891
 20
82.9784837778
 30
0.0
 11
111.1586449891
 21
82.9784837778
 31
0.0
  0
LINE
  5
33D
330
1F
100
AcDbEntity
  8
0
  6
Continuous
 62
     7
370
    15
100
AcDbLine
 10
111.1586449891
 20
90.8784837778
 30
0.0
 11
110.1586449891
 21
90.8784837778
 31
0.0
  0
LINE
  5
33E
330
1F
100
AcDbEntity
  8
0
  6
Continuous
 62
     7
370
    15
100
AcDbLine
 10
120.8586449891
 20
83.3284837778
 30
0.0
 11
123.7586449891
 21
83.3284837778
 31
0.0
  0
LINE
  5
33F
330
1F
100
AcDbEntity
  8
0
  6
Continuous
 62
     7
370
    15
100
AcDbLine
 10
123.7586449891
 20
90.5284837778
 30
0.0
 11
120.8586449891
 21
90.5284837778
 31
0.0
  0
LINE
  5
340
330
1F
100
AcDbEntity
  8
0
  6
Continuous
 62
     7
370
    15
100
AcDbLine
 10
111.1586449891
 20
84.7284837778
 30
0.0
 11
111.7586449891
 21
84.7284837778
 31
0.0
  0
LINE
  5
341
330
1F
100
AcDbEntity
  8
0
  6
Continuous
 62
     7
370
    15
100
AcDbLine
 10
111.7586449891
 20
89.1284837778
 30
0.0
 11
111.1586449891
 21
89.1284837778
 31
0.0
  0
ARC
  5
342
330
1F
100
AcDbEntity
  8
0
  6
Continuous
 62
     7
370
    15
100
AcDbCircle
 10
123.4586449891
 20
83.4784837778
 30
0.0
 40
0.4999999999999972
100
AcDbArc
 50
197.4576031237
 51
270.0
  0
ARC
  5
343
330
1F
100
AcDbEntity
  8
0
  6
Continuous
 62
     7
370
    15
100
AcDbCircle
 10
123.4586449891
 20
90.3784837778
 30
0.0
 40
0.4999999999999858
100
AcDbArc
 50
90.0
 51
162.5423968763
  0
LINE
  5
344
330
1F
100
AcDbEntity
  8
0
  6
Continuous
 62
     7
370
    15
100
AcDbLine
 10
123.4586449891
 20
82.9784837778
 30
0.0
 11
124.4586449891
 21
82.9784837778
 31
0.0
  0
LINE
  5
345
330
1F
100
AcDbEntity
  8
0
  6
Continuous
 62
     7
370
    15
100
AcDbLine
 10
124.4586449891
 20
90.8784837778
 30
0.0
 11
123.4586449891
 21
90.8784837778
 31
0.0
  0
LINE
  5
346
330
1F
100
AcDbEntity
  8
0
  6
Continuous
 62
     7
370
    15
100
AcDbLine
 10
124.1586449891
 20
90.5284837778
 30
0.0
 11
123.7586449891
 21
90.5284837778
 31
0.0
  0
LINE
  5
347
330
1F
100
AcDbEntity
  8
0
  6
Continuous
 62
     7
370
    15
100
AcDbLine
 10
123.7586449891
 20
83.3284837778
 30
0.0
 11
124.1586449891
 21
83.3284837778
 31
0.0
  0
LINE
  5
348
330
1F
100
AcDbEntity
  8
0
  6
Continuous
 62
     7
370
    15
100
AcDbLine
 10
124.1586449891
 20
83.9284837778
 30
0.0
 11
124.6586449891
 21
83.9284837778
 31
0.0
  0
LINE
  5
349
330
1F
100
AcDbEntity
  8
0
  6
Continuous
 62
     7
370
    15
100
AcDbLine
 10
124.6586449891
 20
89.9284837778
 30
0.0
 11
124.1586449891
 21
89.9284837778
 31
0.0
  0
LINE
  5
34A
330
1F
100
AcDbEntity
  8
0
  6
Continuous
 62
     7
370
    15
100
AcDbLine
 10
120.8205917397
 20
95.9284837778
 30
0.0
 11
120.6586449891
 21
95.6479837778
 31
0.0
  0
LINE
  5
34B
330
1F
100
AcDbEntity
  8
0
  6
Continuous
 62
     7
370
    15
100
AcDbLine
 10
120.6586449891
 20
93.2089837778
 30
0.0
 11
120.8205917397
 21
92.9284837778
 31
0.0
  0
LINE
  5
34C
330
1F
100
AcDbEntity
  8
0
  6
Continuous
 62
     7
370
    15
100
AcDbLine
 10
120.8205917397
 20
92.9284837778
 30
0.0
 11
122.2586449891
 21
92.9284837778
 31
0.0
  0
LINE
  5
34D
330
1F
100
AcDbEntity
  8
0
  6
Continuous
 62
     7
370
    15
100
AcDbLine
 10
122.2586449891
 20
95.9284837778
 30
0.0
 11
120.8205917397
 21
95.9284837778
 31
0.0
  0
LINE
  5
34E
330
1F
100
AcDbEntity
  8
0
  6
Continuous
 62
     7
370
    15
100
AcDbLine
 10
180.3586449891
 20
78.4284837778
 30
0.0
 11
179.1586449891
 21
78.4284837778
 31
0.0
  0
LINE
  5
34F
330
1F
100
AcDbEntity
  8
0
  6
Continuous
 62
     7
370
    15
100
AcDbLine
 10
180.3586449891
 20
76.9284837778
 30
0.0
 11
180.3586449891
 21
78.4284837778
 31
0.0
  0
LINE
  5
350
330
1F
100
AcDbEntity
  8
0
  6
Continuous
 62
     7
370
    15
100
AcDbLine
 10
180.3586449891
 20
76.9284837778
 30
0.0
 11
179.1586449891
 21
76.9284837778
 31
0.0
  0
LINE
  5
351
330
1F
100
AcDbEntity
  8
0
  6
Continuous
 62
     7
370
    15
100
AcDbLine
 10
180.3586449891
 20
95.4284837778
 30
0.0
 11
179.1586449891
 21
95.4284837778
 31
0.0
  0
LINE
  5
352
330
1F
100
AcDbEntity
  8
0
  6
Continuous
 62
     7
370
    15
100
AcDbLine
 10
180.3586449891
 20
78.4284837778
 30
0.0
 11
180.3586449891
 21
95.4284837778
 31
0.0
  0
LINE
  5
353
330
1F
100
AcDbEntity
  8
0
  6
Continuous
 62
     7
370
    15
100
AcDbLine
 10
180.3586449891
 20
96.9284837778
 30
0.0
 11
179.1586449891
 21
96.9284837778
 31
0.0
  0
LINE
  5
354
330
1F
100
AcDbEntity
  8
0
  6
Continuous
 62
     7
370
    15
100
AcDbLine
 10
180.3586449891
 20
95.4284837778
 30
0.0
 11
180.3586449891
 21
96.9284837778
 31
0.0
  0
LINE
  5
355
330
1F
100
AcDbEntity
  8
0
  6
Continuous
 62
     7
370
    15
100
AcDbLine
 10
180.3586449891
 20
77.4284837778
 30
0.0
 11
185.6586449891
 21
77.4284837778
 31
0.0
  0
LINE
  5
356
330
1F
100
AcDbEntity
  8
0
  6
Continuous
 62
     7
370
    15
100
AcDbLine
 10
185.6586449891
 20
77.4284837778
 30
0.0
 11
185.6586449891
 21
76.9284837778
 31
0.0
  0
LINE
  5
357
330
1F
100
AcDbEntity
  8
0
  6
Continuous
 62
     7
370
    15
100
AcDbLine
 10
185.6586449891
 20
76.9284837778
 30
0.0
 11
180.3586449891
 21
76.9284837778
 31
0.0
  0
LINE
  5
358
330
1F
100
AcDbEntity
  8
0
  6
Continuous
 62
     7
370
    15
100
AcDbLine
 10
185.6586449891
 20
96.4284837778
 30
0.0
 11
180.3586449891
 21
96.4284837778
 31
0.0
  0
LINE
  5
359
330
1F
100
AcDbEntity
  8
0
  6
Continuous
 62
     7
370
    15
100
AcDbLine
 10
185.6586449891
 20
77.4284837778
 30
0.0
 11
185.6586449891
 21
96.4284837778
 31
0.0
  0
LINE
  5
35A
330
1F
100
AcDbEntity
  8
0
  6
Continuous
 62
     7
370
    15
100
AcDbLine
 10
185.6586449891
 20
77.4284837778
 30
0.0
 11
186.1586449891
 21
77.4284837778
 31
0.0
  0
ARC
  5
35B
330
1F
100
AcDbEntity
  8
0
  6
Continuous
 62
     7
370
    15
100
AcDbCircle
 10
185.6586449891
 20
77.4284837778
 30
0.0
 40
0.5000000000000142
100
AcDbArc
 50
270.0
 51
0.0
  0
LINE
  5
35C
330
1F
100
AcDbEntity
  8
0
  6
Continuous
 62
     7
370
    15
100
AcDbLine
 10
185.6586449891
 20
96.4284837778
 30
0.0
 11
186.1586449891
 21
96.4284837778
 31
0.0
  0
LINE
  5
35D
330
1F
100
AcDbEntity
  8
0
  6
Continuous
 62
     7
370
    15
100
AcDbLine
 10
186.1586449891
 20
96.4284837778
 30
0.0
 11
186.1586449891
 21
77.4284837778
 31
0.0
  0
LINE
  5
35E
330
1F
100
AcDbEntity
  8
0
  6
Continuous
 62
     7
370
    15
100
AcDbLine
 10
185.6586449891
 20
96.9284837778
 30
0.0
 11
185.6586449891
 21
96.4284837778
 31
0.0
  0
LINE
  5
35F
330
1F
100
AcDbEntity
  8
0
  6
Continuous
 62
     7
370
    15
100
AcDbLine
 10
180.3586449891
 20
96.9284837778
 30
0.0
 11
185.6586449891
 21
96.9284837778
 31
0.0
  0
ARC
  5
360
330
1F
100
AcDbEntity
  8
0
  6
Continuous
 62
     7
370
    15
100
AcDbCircle
 10
185.6586449891
 20
96.4284837778
 30
0.0
 40
0.5
100
AcDbArc
 50
0.0
 51
90.0
  0
LINE
  5
361
330
1F
100
AcDbEntity
  8
0
  6
Continuous
 62
     7
370
    15
100
AcDbLine
 10
186.2586449891
 20
85.7040767501
 30
0.0
 11
186.2586449891
 21
84.7784837778
 31
0.0
  0
LINE
  5
362
330
1F
100
AcDbEntity
  8
0
  6
Continuous
 62
     7
370
    15
100
AcDbLine
 10
186.2586449891
 20
89.0784837778
 30
0.0
 11
186.2586449891
 21
85.7040767501
 31
0.0
  0
LINE
  5
363
330
1F
100
AcDbEntity
  8
0
  6
Continuous
 62
     7
370
    15
100
AcDbLine
 10
186.2586449891
 20
78.7040767501
 30
0.0
 11
186.2586449891
 21
77.7784837778
 31
0.0
  0
LINE
  5
364
330
1F
100
AcDbEntity
  8
0
  6
Continuous
 62
     7
370
    15
100
AcDbLine
 10
186.2586449891
 20
82.0784837778
 30
0.0
 11
186.2586449891
 21
78.7040767501
 31
0.0
  0
LINE
  5
365
330
1F
100
AcDbEntity
  8
0
  6
Continuous
 62
     7
370
    15
100
AcDbLine
 10
186.2586449891
 20
92.7040767501
 30
0.0
 11
186.2586449891
 21
91.7784837778
 31
0.0
  0
LINE
  5
366
330
1F
100
AcDbEntity
  8
0
  6
Continuous
 62
     7
370
    15
100
AcDbLine
 10
186.2586449891
 20
96.0784837778
 30
0.0
 11
186.2586449891
 21
92.7040767501
 31
0.0
  0
LINE
  5
367
330
1F
100
AcDbEntity
  8
0
  6
Continuous
 62
     7
370
    15
100
AcDbLine
 10
182.8586449891
 20
92.7183140411
 30
0.0
 11
182.8586449891
 21
91.8034837778
 31
0.0
  0
LINE
  5
368
330
1F
100
AcDbEntity
  8
0
  6
Continuous
 62
     7
370
    15
100
AcDbLine
 10
182.8586449891
 20
96.0534837778
 30
0.0
 11
182.8586449891
 21
92.7183140411
 31
0.0
  0
LINE
  5
369
330
1F
100
AcDbEntity
  8
0
  6
Continuous
 62
     7
370
    15
100
AcDbLine
 10
182.8586449891
 20
78.3334964832
 30
0.0
 11
182.8586449891
 21
77.8034837778
 31
0.0
  0
LINE
  5
36A
330
1F
100
AcDbEntity
  8
0
  6
Continuous
 62
     7
370
    15
100
AcDbLine
 10
182.8586449891
 20
82.0534837778
 30
0.0
 11
182.8586449891
 21
78.3334964832
 31
0.0
  0
CIRCLE
  5
36B
330
1F
100
AcDbEntity
  8
0
  6
Continuous
 62
     7
370
    15
100
AcDbCircle
 10
171.9586449891
 20
86.9284837778
 30
0.0
 40
1.550000000000011
  0
LINE
  5
36C
330
1F
100
AcDbEntity
  8
0
  6
Continuous
 62
     7
370
    15
100
AcDbLine
 10
166.4586449891
 20
89.3284837778
 30
0.0
 11
166.4586449891
 21
84.5284837778
 31
0.0
  0
LINE
  5
36D
330
1F
100
AcDbEntity
  8
0
  6
Continuous
 62
     7
370
    15
100
AcDbLine
 10
124.6586449891
 20
91.6784837778
 30
0.0
 11
122.5042650822
 21
91.6784837778
 31
0.0
  0
SPLINE
  5
36E
330
1F
100
AcDbEntity
  8
0
  6
Continuous
 62
     7
370
    15
100
AcDbSpline
210
0.0
220
0.0
230
1.0
 70
     8
 71
     3
 72
    10
 73
     6
 74
     0
 42
0.00000001
 43
0.00000001
 12
1.0
 22
0.0
 32
0.0
 13
1.0
 23
0.0
 33
0.0
 40
0.0
 40
0.0
 40
0.0
 40
0.0
 40
0.070012506604917
 40
0.5307444279566575
 40
1.0
 40
1.0
 40
1.0
 40
1.0
 10
122.2586449891444
 20
93.05348377783938
 30
0.0
 10
122.2589376255961
 20
93.02092789813402
 30
0.0
 10
122.2611560173337
 20
92.77413125295247
 30
0.0
 10
122.3147888491654
 20
92.3087720636898
 30
0.0
 10
122.4407215990757
 20
91.88985969774525
 30
0.0
 10
122.5042650822062
 20
91.67848377783938
 30
0.0
  0
SPLINE
  5
36F
330
1F
100
AcDbEntity
  8
0
  6
Continuous
 62
     7
370
    15
100
AcDbSpline
210
0.0
220
0.0
230
1.0
 70
     8
 71
     3
 72
     9
 73
     5
 74
     0
 42
0.00000001
 43
0.00000001
 12
1.0
 22
0.0
 32
0.0
 13
1.0
 23
0.0
 33
0.0
 40
0.0
 40
0.0
 40
0.0
 40
0.0
 40
0.4954579634770087
 40
0.9999999999999999
 40
0.9999999999999999
 40
0.9999999999999999
 40
0.9999999999999999
 10
122.5042650822062
 20
94.42848377783933
 30
0.0
 10
122.435614753728
 20
94.20517773300615
 30
0.0
 10
122.2970554136046
 20
93.7544713940343
 30
0.0
 10
122.2715257683519
 20
93.28855711634823
 30
0.0
 10
122.2586449891444
 20
93.05348377783938
 30
0.0
  0
LINE
  5
370
330
1F
100
AcDbEntity
  8
0
  6
Continuous
 62
     7
370
    15
100
AcDbLine
 10
124.6586449891
 20
94.4284837778
 30
0.0
 11
122.5042650822
 21
94.4284837778
 31
0.0
  0
LINE
  5
371
330
1F
100
AcDbEntity
  8
0
  6
Continuous
 62
     7
370
    15
100
AcDbLine
 10
124.6586449891
 20
96.9284837778
 30
0.0
 11
124.6586449891
 21
97.1784837778
 31
0.0
  0
SPLINE
  5
372
330
1F
100
AcDbEntity
  8
0
  6
Continuous
 62
     7
370
    15
100
AcDbSpline
210
0.0
220
0.0
230
1.0
 70
     8
 71
     3
 72
    10
 73
     6
 74
     0
 42
0.00000001
 43
0.00000001
 12
1.0
 22
0.0
 32
0.0
 13
1.0
 23
0.0
 33
0.0
 40
0.0
 40
0.0
 40
0.0
 40
0.0
 40
0.0700125066049452
 40
0.5307444279566748
 40
0.9999999999999999
 40
0.9999999999999999
 40
0.9999999999999999
 40
0.9999999999999999
 10
122.2586449891444
 20
95.8034837778394
 30
0.0
 10
122.2589376255961
 20
95.77092789813403
 30
0.0
 10
122.2611560173337
 20
95.52413125295254
 30
0.0
 10
122.3147888491655
 20
95.05877206368979
 30
0.0
 10
122.4407215990757
 20
94.63985969774521
 30
0.0
 10
122.5042650822062
 20
94.42848377783933
 30
0.0
  0
SPLINE
  5
373
330
1F
100
AcDbEntity
  8
0
  6
Continuous
 62
     7
370
    15
100
AcDbSpline
210
0.0
220
0.0
230
1.0
 70
     8
 71
     3
 72
     9
 73
     5
 74
     0
 42
0.00000001
 43
0.00000001
 12
1.0
 22
0.0
 32
0.0
 13
1.0
 23
0.0
 33
0.0
 40
0.0
 40
0.0
 40
0.0
 40
0.0
 40
0.4954579634770095
 40
1.0
 40
1.0
 40
1.0
 40
1.0
 10
122.5042650822062
 20
97.17848377783938
 30
0.0
 10
122.435614753728
 20
96.9551777330062
 30
0.0
 10
122.2970554136046
 20
96.50447139403435
 30
0.0
 10
122.2715257683519
 20
96.03855711634826
 30
0.0
 10
122.2586449891444
 20
95.8034837778394
 30
0.0
  0
LINE
  5
374
330
1F
100
AcDbEntity
  8
0
  6
Continuous
 62
     7
370
    15
100
AcDbLine
 10
124.6586449891
 20
97.1784837778
 30
0.0
 11
122.5042650822
 21
97.1784837778
 31
0.0
  0
LINE
  5
375
330
1F
100
AcDbEntity
  8
0
  6
Continuous
 62
     7
370
    15
100
AcDbLine
 10
122.2586449891
 20
95.8034837778
 30
0.0
 11
122.2586449891
 21
93.0534837778
 31
0.0
  0
SPLINE
  5
376
330
1F
100
AcDbEntity
  8
0
  6
Continuous
 62
     7
370
    15
100
AcDbSpline
210
0.0
220
0.0
230
1.0
 70
    24
 71
     3
 72
    10
 73
     6
 74
     0
 42
0.00000001
 43
0.00000001
 12
1.0
 22
0.0
 32
0.0
 13
1.0
 23
0.0
 33
0.0
 40
0.0
 40
0.0
 40
0.0
 40
0.0
 40
0.2572432618847597
 40
0.6263798857722969
 40
1.0
 40
1.0
 40
1.0
 40
1.0
 10
122.5042650822062
 20
91.67848377783938
 30
0.0
 10
122.4680695870531
 20
91.67848377783938
 30
0.0
 10
122.379934605583
 20
91.67848377783938
 30
0.0
 10
122.2812813390734
 20
91.67848377783939
 30
0.0
 10
122.2662207424649
 20
91.67848377783938
 30
0.0
 10
122.2586449891443
 20
91.67848377783938
 30
0.0
  0
LINE
  5
377
330
1F
100
AcDbEntity
  8
0
  6
Continuous
 62
     7
370
    15
100
AcDbLine
 10
122.2586449891
 20
93.0534837778
 30
0.0
 11
122.2586449891
 21
91.6784837778
 31
0.0
  0
SPLINE
  5
378
330
1F
100
AcDbEntity
  8
0
  6
Continuous
 62
     7
370
    15
100
AcDbSpline
210
0.0
220
0.0
230
1.0
 70
    24
 71
     3
 72
    10
 73
     6
 74
     0
 42
0.00000001
 43
0.00000001
 12
1.0
 22
0.0
 32
0.0
 13
1.0
 23
0.0
 33
0.0
 40
0.0
 40
0.0
 40
0.0
 40
0.0
 40
0.2572432618847607
 40
0.6263798857722974
 40
1.0
 40
1.0
 40
1.0
 40
1.0
 10
122.5042650822062
 20
97.17848377783938
 30
0.0
 10
122.4680695870531
 20
97.17848377783938
 30
0.0
 10
122.3799346055831
 20
97.17848377783939
 30
0.0
 10
122.2812813390734
 20
97.17848377783939
 30
0.0
 10
122.2662207424649
 20
97.17848377783939
 30
0.0
 10
122.2586449891443
 20
97.17848377783939
 30
0.0
  0
LINE
  5
379
330
1F
100
AcDbEntity
  8
0
  6
Continuous
 62
     7
370
    15
100
AcDbLine
 10
122.2586449891
 20
97.1784837778
 30
0.0
 11
122.2586449891
 21
95.8034837778
 31
0.0
  0
LINE
  5
37A
330
1F
100
AcDbEntity
  8
0
  6
Continuous
 62
     7
370
    15
100
AcDbLine
 10
178.1586449891
 20
76.9284837778
 30
0.0
 11
178.1586449891
 21
96.9284837778
 31
0.0
  0
LINE
  5
37B
330
1F
100
AcDbEntity
  8
0
  6
Continuous
 62
     7
370
    15
100
AcDbLine
 10
170.1586449891
 20
76.9284837778
 30
0.0
 11
178.1586449891
 21
76.9284837778
 31
0.0
  0
LINE
  5
37C
330
1F
100
AcDbEntity
  8
0
  6
Continuous
 62
     7
370
    15
100
AcDbLine
 10
169.1586449891
 20
77.9284837778
 30
0.0
 11
170.1586449891
 21
76.9284837778
 31
0.0
  0
LINE
  5
37D
330
1F
100
AcDbEntity
  8
0
  6
Continuous
 62
     7
370
    15
100
AcDbLine
 10
169.1586449891
 20
95.9284837778
 30
0.0
 11
169.1586449891
 21
77.9284837778
 31
0.0
  0
LINE
  5
37E
330
1F
100
AcDbEntity
  8
0
  6
Continuous
 62
     7
370
    15
100
AcDbLine
 10
170.1586449891
 20
96.9284837778
 30
0.0
 11
169.1586449891
 21
95.9284837778
 31
0.0
  0
LINE
  5
37F
330
1F
100
AcDbEntity
  8
0
  6
Continuous
 62
     7
370
    15
100
AcDbLine
 10
170.1586449891
 20
96.9284837778
 30
0.0
 11
178.1586449891
 21
96.9284837778
 31
0.0
  0
CIRCLE
  5
380
330
1F
100
AcDbEntity
  8
0
  6
Continuous
 62
     7
370
    15
100
AcDbCircle
 10
171.9586449891
 20
86.9284837778
 30
0.0
 40
1.600000000000009
  0
LINE
  5
381
330
1F
100
AcDbEntity
  8
0
  6
Continuous
 62
     7
370
    15
100
AcDbLine
 10
179.1586449891
 20
96.9284837778
 30
0.0
 11
179.1586449891
 21
76.9284837778
 31
0.0
  0
LINE
  5
382
330
1F
100
AcDbEntity
  8
0
  6
Continuous
 62
     7
370
    15
100
AcDbLine
 10
178.1586449891
 20
96.9284837778
 30
0.0
 11
179.1586449891
 21
96.9284837778
 31
0.0
  0
LINE
  5
383
330
1F
100
AcDbEntity
  8
0
  6
Continuous
 62
     7
370
    15
100
AcDbLine
 10
179.1586449891
 20
76.9284837778
 30
0.0
 11
178.1586449891
 21
76.9284837778
 31
0.0
  0
LINE
  5
384
330
1F
100
AcDbEntity
  8
0
  6
Continuous
 62
     7
370
    15
100
AcDbLine
 10
120.7130568954
 20
82.9284837778
 30
0.0
 11
120.7130568954
 21
90.9284837778
 31
0.0
  0
LINE
  5
385
330
1F
100
AcDbEntity
  8
0
  6
Continuous
 62
     7
370
    15
100
AcDbLine
 10
111.7586449891
 20
82.9284837778
 30
0.0
 11
111.7586449891
 21
90.9284837778
 31
0.0
  0
LINE
  5
386
330
1F
100
AcDbEntity
  8
0
  6
Continuous
 62
     7
370
    15
100
AcDbLine
 10
120.8586449891
 20
83.3284837778
 30
0.0
 11
120.8586449891
 21
90.5284837778
 31
0.0
  0
LINE
  5
387
330
1F
100
AcDbEntity
  8
0
  6
Continuous
 62
     7
370
    15
100
AcDbLine
 10
109.6586449891
 20
83.4784837778
 30
0.0
 11
109.6586449891
 21
90.3784837778
 31
0.0
  0
LINE
  5
388
330
1F
100
AcDbEntity
  8
0
  6
Continuous
 62
     7
370
    15
100
AcDbLine
 10
111.1586449891
 20
82.9784837778
 30
0.0
 11
111.1586449891
 21
90.8784837778
 31
0.0
  0
LINE
  5
389
330
1F
100
AcDbEntity
  8
0
  6
Continuous
 62
     7
370
    15
100
AcDbLine
 10
123.7586449891
 20
90.5284837778
 30
0.0
 11
123.7586449891
 21
83.3284837778
 31
0.0
  0
LINE
  5
38A
330
1F
100
AcDbEntity
  8
0
  6
Continuous
 62
     7
370
    15
100
AcDbLine
 10
124.4586449891
 20
82.9784837778
 30
0.0
 11
124.4586449891
 21
83.9284837778
 31
0.0
  0
LINE
  5
38B
330
1F
100
AcDbEntity
  8
0
  6
Continuous
 62
     7
370
    15
100
AcDbLine
 10
124.4586449891
 20
89.9284837778
 30
0.0
 11
124.4586449891
 21
90.8784837778
 31
0.0
  0
LINE
  5
38C
330
1F
100
AcDbEntity
  8
0
  6
Continuous
 62
     7
370
    15
100
AcDbLine
 10
124.1586449891
 20
88.2534314319
 30
0.0
 11
124.1586449891
 21
83.3284837778
 31
0.0
  0
LINE
  5
38D
330
1F
100
AcDbEntity
  8
0
  6
Continuous
 62
     7
370
    15
100
AcDbLine
 10
124.1586449891
 20
90.5284837778
 30
0.0
 11
124.1586449891
 21
88.2534314319
 31
0.0
  0
LINE
  5
38E
330
1F
100
AcDbEntity
  8
0
  6
Continuous
 62
     7
370
    15
100
AcDbLine
 10
123.7586449891
 20
88.2534314319
 30
0.0
 11
123.7586449891
 21
83.3284837778
 31
0.0
  0
LINE
  5
38F
330
1F
100
AcDbEntity
  8
0
  6
Continuous
 62
     7
370
    15
100
AcDbLine
 10
123.7586449891
 20
90.5284837778
 30
0.0
 11
123.7586449891
 21
88.2534314319
 31
0.0
  0
CIRCLE
  5
390
330
1F
100
AcDbEntity
  8
0
  6
Continuous
 62
     7
370
    15
100
AcDbCircle
 10
152.6586449891
 20
86.9284837778
 30
0.0
 40
1.0
  0
LINE
  5
391
330
1F
100
AcDbEntity
  8
0
  6
Continuous
 62
     7
370
    15
100
AcDbLine
 10
164.6586449891
 20
96.4284837778
 30
0.0
 11
129.6586449891
 21
96.4284837778
 31
0.0
  0
LINE
  5
392
330
1F
100
AcDbEntity
  8
0
  6
Continuous
 62
     7
370
    15
100
AcDbLine
 10
164.6586449891
 20
77.4284837778
 30
0.0
 11
164.6586449891
 21
96.4284837778
 31
0.0
  0
CIRCLE
  5
393
330
1F
100
AcDbEntity
  8
0
  6
Continuous
 62
     7
370
    15
100
AcDbCircle
 10
132.6586449891
 20
86.9284837778
 30
0.0
 40
1.0
  0
CIRCLE
  5
394
330
1F
100
AcDbEntity
  8
0
  6
Continuous
 62
     7
370
    15
100
AcDbCircle
 10
160.1586449891
 20
86.9284837778
 30
0.0
 40
1.649999999999977
  0
CIRCLE
  5
395
330
1F
100
AcDbEntity
  8
0
  6
Continuous
 62
     7
370
    15
100
AcDbCircle
 10
140.1586449891
 20
86.9284837778
 30
0.0
 40
1.650000000000006
  0
LINE
  5
396
330
1F
100
AcDbEntity
  8
0
  6
Continuous
 62
     7
370
    15
100
AcDbLine
 10
129.6586449891
 20
77.4284837778
 30
0.0
 11
164.6586449891
 21
77.4284837778
 31
0.0
  0
LINE
  5
397
330
1F
100
AcDbEntity
  8
0
  6
Continuous
 62
     7
370
    15
100
AcDbLine
 10
129.6586449891
 20
96.4284837778
 30
0.0
 11
129.6586449891
 21
77.4284837778
 31
0.0
  0
LINE
  5
398
330
1F
100
AcDbEntity
  8
0
  6
Continuous
 62
     7
370
    15
100
AcDbLine
 10
124.6586449891
 20
77.2317487331
 30
0.0
 11
124.6586449891
 21
96.9284837778
 31
0.0
  0
LINE
  5
399
330
1F
100
AcDbEntity
  8
0
  6
Continuous
 62
     7
370
    15
100
AcDbLine
 10
124.6586449891
 20
96.9284837778
 30
0.0
 11
127.6586449891
 21
96.9284837778
 31
0.0
  0
LINE
  5
39A
330
1F
100
AcDbEntity
  8
0
  6
Continuous
 62
     7
370
    15
100
AcDbLine
 10
127.6586449891
 20
96.9284837778
 30
0.0
 11
127.6586449891
 21
76.9284837778
 31
0.0
  0
LINE
  5
39B
330
1F
100
AcDbEntity
  8
0
  6
Continuous
 62
     7
370
    15
100
AcDbLine
 10
127.6586449891
 20
76.9284837778
 30
0.0
 11
124.8302178644
 21
76.9284837778
 31
0.0
  0
ELLIPSE
  5
39C
330
1F
100
AcDbEntity
  8
0
  6
Continuous
 62
     7
370
    15
100
AcDbEllipse
 10
127.6586449891
 20
77.2317487331
 30
0.0
 11
3.0
 21
0.0
 31
0.0
210
0.0
220
0.0
230
1.0
 40
0.3032649553
 41
3.141592653589793
 42
3.481429563043949
  0
LINE
  5
39D
330
1F
100
AcDbEntity
  8
0
  6
Continuous
 62
     7
370
    15
100
AcDbLine
 10
167.1586449891
 20
89.7284837778
 30
0.0
 11
169.1586449891
 21
89.7284837778
 31
0.0
  0
ARC
  5
39E
330
1F
100
AcDbEntity
  8
0
  6
Continuous
 62
     7
370
    15
100
AcDbCircle
 10
167.1586449891
 20
86.9284837778
 30
0.0
 40
2.800000000000011
100
AcDbArc
 50
90.0
 51
153.2344994232
  0
ARC
  5
39F
330
1F
100
AcDbEntity
  8
0
  6
Continuous
 62
     7
370
    15
100
AcDbCircle
 10
167.1586449891
 20
86.9284837778
 30
0.0
 40
2.800000000000026
100
AcDbArc
 50
206.7655005768
 51
270.0
  0
LINE
  5
3A0
330
1F
100
AcDbEntity
  8
0
  6
Continuous
 62
     7
370
    15
100
AcDbLine
 10
169.1586449891
 20
84.1284837778
 30
0.0
 11
167.1586449891
 21
84.1284837778
 31
0.0
  0
LINE
  5
3A1
330
1F
100
AcDbEntity
  8
0
  6
Continuous
 62
     7
370
    15
100
AcDbLine
 10
170.1586449891
 20
96.9284837778
 30
0.0
 11
127.6586449891
 21
96.9284837778
 31
0.0
  0
LINE
  5
3A2
330
1F
100
AcDbEntity
  8
0
  6
Continuous
 62
     7
370
    15
100
AcDbLine
 10
127.6586449891
 20
76.9284837778
 30
0.0
 11
170.1586449891
 21
76.9284837778
 31
0.0
  0
ARC
  5
3A3
330
1F
100
AcDbEntity
  8
0
  6
Continuous
 62
     7
370
    15
100
AcDbCircle
 10
167.1586449891
 20
86.9284837778
 30
0.0
 40
2.5
100
AcDbArc
 50
90.0
 51
270.0
  0
LINE
  5
3A4
330
1F
100
AcDbEntity
  8
0
  6
Continuous
 62
     7
370
    15
100
AcDbLine
 10
167.1586449891
 20
84.4284837778
 30
0.0
 11
167.1586449891
 21
84.1284837778
 31
0.0
  0
LINE
  5
3A5
330
1F
100
AcDbEntity
  8
0
  6
Continuous
 62
     7
370
    15
100
AcDbLine
 10
167.1586449891
 20
89.4284837778
 30
0.0
 11
167.1586449891
 21
89.7284837778
 31
0.0
  0
LINE
  5
3A6
330
1F
100
AcDbEntity
  8
0
  6
Continuous
 62
     7
370
    15
100
AcDbLine
 10
167.1586449891
 20
84.4284837778
 30
0.0
 11
169.1586449891
 21
84.4284837778
 31
0.0
  0
LINE
  5
3A7
330
1F
100
AcDbEntity
  8
0
  6
Continuous
 62
     7
370
    15
100
AcDbLine
 10
169.1586449891
 20
89.4284837778
 30
0.0
 11
167.1586449891
 21
89.4284837778
 31
0.0
  0
LINE
  5
3A8
330
1F
100
AcDbEntity
  8
0
  6
Continuous
 62
     7
370
    15
100
AcDbLine
 10
120.6586449891
 20
93.2089837778
 30
0.0
 11
120.6586449891
 21
95.6479837778
 31
0.0
  0
LINE
  5
3A9
330
1F
100
AcDbEntity
  8
0
  6
Continuous
 62
     7
370
    15
100
AcDbLine
 10
120.8205917397
 20
92.9284837778
 30
0.0
 11
120.8205917397
 21
95.9284837778
 31
0.0
  0
LINE
  5
3AA
330
1F
100
AcDbEntity
  8
0
  6
Continuous
 62
     8
370
    15
100
AcDbLine
 10
182.7336449891
 20
92.647127586
 30
0.0
 11
182.7336449891
 21
96.1784837778
 31
0.0
  0
LINE
  5
3AB
330
1F
100
AcDbEntity
  8
0
  6
Continuous
 62
     8
370
    15
100
AcDbLine
 10
182.7336449891
 20
91.6784837778
 30
0.0
 11
182.7336449891
 21
92.647127586
 31
0.0
  0
LINE
  5
3AC
330
1F
100
AcDbEntity
  8
0
  6
Continuous
 62
     8
370
    15
100
AcDbLine
 10
182.7336449891
 20
78.2396737011
 30
0.0
 11
182.7336449891
 21
82.1784837778
 31
0.0
  0
LINE
  5
3AD
330
1F
100
AcDbEntity
  8
0
  6
Continuous
 62
     8
370
    15
100
AcDbLine
 10
182.7336449891
 20
77.6784837778
 30
0.0
 11
182.7336449891
 21
78.2396737011
 31
0.0
  0
LINE
  5
3AE
330
1F
100
AcDbEntity
  8
0
  6
Continuous
 62
     8
370
    15
100
AcDbLine
 10
110.1586449891
 20
82.9784837778
 30
0.0
 11
110.1586449891
 21
90.8784837778
 31
0.0
  0
LINE
  5
3AF
330
1F
100
AcDbEntity
  8
0
  6
Continuous
 62
     8
370
    15
100
AcDbLine
 10
123.4586449891
 20
82.9784837778
 30
0.0
 11
123.4586449891
 21
83.3284837778
 31
0.0
  0
LINE
  5
3B0
330
1F
100
AcDbEntity
  8
0
  6
Continuous
 62
     8
370
    15
100
AcDbLine
 10
123.4586449891
 20
90.5284837778
 30
0.0
 11
123.4586449891
 21
90.8784837778
 31
0.0
  0
DIMENSION
  5
3B1
330
1F
100
AcDbEntity
  8
0
  6
Continuous
 62
     7
370
     0
100
AcDbDimension
  2
_D_17
 10
160.1586449891
 20
66.7529253953
 30
0.0
 11
150.1586449891
 21
66.7529253953
 31
0.0
 70
   160
  1
<>
 71
     2
 42
-1.0
  3
SLDDIMSTYLE2
100
AcDbAlignedDimension
 13
140.1586449891
 23
82.7784837778
 33
0.0
 14
160.1586449891
 24
82.7784837778
 34
0.0
100
AcDbRotatedDimension
  0
DIMENSION
  5
3BB
330
1F
100
AcDbEntity
  8
0
  6
Continuous
 62
     7
370
     0
100
AcDbDimension
  2
_D_18
 10
186.1586449891
 20
66.7529253953
 30
0.0
 11
173.1586449891
 21
66.7529253953
 31
0.0
 70
   160
  1
<>
 71
     2
 42
-1.0
  3
SLDDIMSTYLE2
100
AcDbAlignedDimension
 13
160.1586449891
 23
82.7784837778
 33
0.0
 14
186.1586449891
 24
77.4284837778
 34
0.0
 50
0.0
100
AcDbRotatedDimension
  0
MTEXT
  5
3C5
330
1F
100
AcDbEntity
  8
0
  6
Continuous
 62
     7
370
     0
100
AcDbMText
 10
73.3956545341
 20
99.2055399804
 30
0.0
 40
3.5
 41
0.0
 71
     1
 72
     1
  1
ストローク調整
  7
SLDTEXTSTYLE0
 73
     1
 44
1.0
  0
LEADER
  5
3C6
330
1F
100
AcDbEntity
  8
0
  6
Continuous
 62
     7
370
     0
100
AcDbLeader
  3
SLDDIMSTYLE4
 76
     3
 10
120.8205917397
 20
94.5302307649
 30
0.0
 10
101.7895662368
 20
94.7245017585
 30
0.0
 10
73.388042204
 20
94.7245017585
 30
0.0
  0
MTEXT
  5
3C7
330
1F
100
AcDbEntity
  8
0
  6
Continuous
 62
     7
370
     0
100
AcDbMText
 10
98.4860844298
 20
109.1244298789
 30
0.0
 40
3.5
 41
0.0
 71
     1
 72
     1
  1
2-M4 取付用
  7
SLDTEXTSTYLE0
 73
     1
 44
1.0
  0
LEADER
  5
3C9
330
1F
100
AcDbEntity
  8
0
  6
Continuous
 62
     7
370
     0
100
AcDbLeader
  3
SLDDIMSTYLE7
 76
     3
 10
138.9602769212
 20
88.0626856883
 30
0.0
 10
125.9396248535
 20
104.572098476
 30
0.0
 10
98.4759671747
 20
104.572098476
 30
0.0
  0
INSERT
  5
3D5
330
1F
100
AcDbEntity
  8
0
  6
Continuous
 62
     7
370
     0
100
AcDbBlockReference
  2
SW_CENTERMARKSYMBOL_5
 10
140.1586449891
 20
86.9284837778
 30
0.0
  0
INSERT
  5
3E1
330
1F
100
AcDbEntity
  8
0
  6
Continuous
 62
     7
370
     0
100
AcDbBlockReference
  2
SW_CENTERMARKSYMBOL_6
 10
160.1586449891
 20
86.9284837778
 30
0.0
  0
ENDSEC
  0
SECTION
  2
OBJECTS
  0
DICTIONARY
  5
C
330
0
100
AcDbDictionary
281
     1
  3
ACAD_GROUP
350
D
  3
ACAD_LAYOUT
350
1A
  3
ACAD_MLINESTYLE
350
17
  3
ACAD_PLOTSETTINGS
350
19
  3
ACAD_PLOTSTYLENAME
350
E
  0
DICTIONARY
  5
D
102
{ACAD_REACTORS
330
C
102
}
330
C
100
AcDbDictionary
281
     1
  0
DICTIONARY
  5
1A
102
{ACAD_REACTORS
330
C
102
}
330
C
100
AcDbDictionary
281
     1
  3
Layout1
350
1E
  3
Layout2
350
26
  3
Model
350
22
  0
DICTIONARY
  5
17
102
{ACAD_REACTORS
330
C
102
}
330
C
100
AcDbDictionary
281
     1
  3
Standard
350
18
  0
DICTIONARY
  5
19
102
{ACAD_REACTORS
330
C
102
}
330
C
100
AcDbDictionary
281
     1
  0
ACDBDICTIONARYWDFLT
  5
E
102
{ACAD_REACTORS
330
C
102
}
330
C
100
AcDbDictionary
281
     1
  3
Normal
350
F
100
AcDbDictionaryWithDefault
340
F
  0
LAYOUT
  5
1E
102
{ACAD_REACTORS
330
1A
102
}
330
1A
100
AcDbPlotSettings
  1

  2
none_device
  4

  6

 40
0.0
 41
0.0
 42
0.0
 43
0.0
 44
0.0
 45
0.0
 46
0.0
 47
0.0
 48
0.0
 49
0.0
140
0.0
141
0.0
142
1.0
143
1.0
 70
   688
 72
     0
 73
     0
 74
     5
  7

 75
    16
147
1.0
148
0.0
149
0.0
100
AcDbLayout
  1
Layout1
 70
     1
 71
     1
 10
0.0
 20
0.0
 11
420.0
 21
297.0
 12
0.0
 22
0.0
 32
0.0
 14
1.0000000000E+20
 24
1.0000000000E+20
 34
1.0000000000E+20
 15
-1.0000000000E+20
 25
-1.0000000000E+20
 35
-1.0000000000E+20
146
0.0
 13
0.0
 23
0.0
 33
0.0
 16
1.0
 26
0.0
 36
0.0
 17
0.0
 27
1.0
 37
0.0
 76
     0
330
1B
  0
LAYOUT
  5
26
102
{ACAD_REACTORS
330
1A
102
}
330
1A
100
AcDbPlotSettings
  1

  2
none_device
  4

  6

 40
0.0
 41
0.0
 42
0.0
 43
0.0
 44
0.0
 45
0.0
 46
0.0
 47
0.0
 48
0.0
 49
0.0
140
0.0
141
0.0
142
1.0
143
1.0
 70
   688
 72
     0
 73
     0
 74
     5
  7

 75
    16
147
1.0
148
0.0
149
0.0
100
AcDbLayout
  1
Layout2
 70
     1
 71
     2
 10
0.0
 20
0.0
 11
0.0
 21
0.0
 12
0.0
 22
0.0
 32
0.0
 14
0.0
 24
0.0
 34
0.0
 15
0.0
 25
0.0
 35
0.0
146
0.0
 13
0.0
 23
0.0
 33
0.0
 16
1.0
 26
0.0
 36
0.0
 17
0.0
 27
1.0
 37
0.0
 76
     0
330
23
  0
LAYOUT
  5
22
102
{ACAD_REACTORS
330
1A
102
}
330
1A
100
AcDbPlotSettings
  1

  2
none_device
  4

  6

 40
0.0
 41
0.0
 42
0.0
 43
0.0
 44
0.0
 45
0.0
 46
0.0
 47
0.0
 48
0.0
 49
0.0
140
0.0
141
0.0
142
1.0
143
1.0
 70
  1712
 72
     0
 73
     0
 74
     0
  7

 75
     0
147
1.0
148
0.0
149
0.0
100
AcDbLayout
  1
Model
 70
     1
 71
     0
 10
0.0
 20
0.0
 11
210.0
 21
297.0
 12
0.0
 22
0.0
 32
0.0
 14
0.0
 24
0.0
 34
0.0
 15
210.0
 25
297.0
 35
0.0
146
0.0
 13
0.0
 23
0.0
 33
0.0
 16
1.0
 26
0.0
 36
0.0
 17
0.0
 27
1.0
 37
0.0
 76
     0
330
1F
331
29
  0
MLINESTYLE
  5
18
102
{ACAD_REACTORS
330
17
102
}
330
17
100
AcDbMlineStyle
  2
Standard
 70
     0
  3

 62
   256
 51
90.0
 52
90.0
 71
     2
 49
0.5
 62
   256
  6
BYLAYER
 49
-0.5
 62
   256
  6
BYLAYER
  0
ACDBPLACEHOLDER
  5
F
102
{ACAD_REACTORS
330
E
102
}
330
E
  0
ENDSEC
  0
EOF
