  0
SECTION
  2
HEADER
  9
$ACADVER
  1
AC1015
  9
$ACADMAINTVER
 70
     6
  9
$DWGCODEPAGE
  3
DOS932
  9
$INSBASE
 10
0.0
 20
0.0
 30
0.0
  9
$EXTMIN
 10
0.0
 20
0.0
 30
0.0
  9
$EXTMAX
 10
210.0
 20
297.0
 30
0.0
  9
$LIMMIN
 10
0.0
 20
0.0
  9
$LIMMAX
 10
210.0
 20
297.0
  9
$ORTHOMODE
 70
     0
  9
$REGENMODE
 70
     1
  9
$FILLMODE
 70
     1
  9
$QTEXTMODE
 70
     0
  9
$MIRRTEXT
 70
     1
  9
$LTSCALE
 40
1.0
  9
$ATTMODE
 70
     1
  9
$TEXTSIZE
 40
3.5
  9
$TRACEWID
 40
1.0
  9
$TEXTSTYLE
  7
Standard
  9
$CLAYER
  8
0
  9
$CELTYPE
  6
ByLayer
  9
$CECOLOR
 62
   256
  9
$CELTSCALE
 40
1.0
  9
$DISPSILH
 70
     0
  9
$DIMSCALE
 40
1.0
  9
$DIMASZ
 40
3.302
  9
$DIMEXO
 40
1.0
  9
$DIMDLI
 40
3.75
  9
$DIMRND
 40
0.0
  9
$DIMDLE
 40
0.0
  9
$DIMEXE
 40
1.0
  9
$DIMTP
 40
0.0
  9
$DIMTM
 40
0.0
  9
$DIMTXT
 40
3.5
  9
$DIMCEN
 40
2.5
  9
$DIMTSZ
 40
0.0
  9
$DIMTOL
 70
     0
  9
$DIMLIM
 70
     0
  9
$DIMTIH
 70
     1
  9
$DIMTOH
 70
     1
  9
$DIMSE1
 70
     0
  9
$DIMSE2
 70
     0
  9
$DIMTAD
 70
     1
  9
$DIMZIN
 70
     0
  9
$DIMBLK
  1

  9
$DIMASO
 70
     1
  9
$DIMSHO
 70
     1
  9
$DIMPOST
  1

  9
$DIMAPOST
  1

  9
$DIMALT
 70
     0
  9
$DIMALTD
 70
     3
  9
$DIMALTF
 40
0.0393700787
  9
$DIMLFAC
 40
1.0
  9
$DIMTOFL
 70
     1
  9
$DIMTVP
 40
0.0
  9
$DIMTIX
 70
     0
  9
$DIMSOXD
 70
     0
  9
$DIMSAH
 70
     0
  9
$DIMBLK1
  1

  9
$DIMBLK2
  1

  9
$DIMSTYLE
  2
ISO-25
  9
$DIMCLRD
 70
     0
  9
$DIMCLRE
 70
     0
  9
$DIMCLRT
 70
     0
  9
$DIMTFAC
 40
1.0
  9
$DIMGAP
 40
1.524
  9
$DIMJUST
 70
     0
  9
$DIMSD1
 70
     0
  9
$DIMSD2
 70
     0
  9
$DIMTOLJ
 70
     0
  9
$DIMTZIN
 70
     0
  9
$DIMALTZ
 70
     0
  9
$DIMALTTZ
 70
     0
  9
$DIMUPT
 70
     0
  9
$DIMDEC
 70
     2
  9
$DIMTDEC
 70
     2
  9
$DIMALTU
 70
     2
  9
$DIMALTTD
 70
     3
  9
$DIMTXSTY
  7
Standard
  9
$DIMAUNIT
 70
     0
  9
$DIMADEC
 70
     2
  9
$DIMALTRND
 40
0.0
  9
$DIMAZIN
 70
     0
  9
$DIMDSEP
 70
    44
  9
$DIMATFIT
 70
     3
  9
$DIMFRAC
 70
     0
  9
$DIMLDRBLK
  1

  9
$DIMLUNIT
 70
     2
  9
$DIMLWD
 70
    -2
  9
$DIMLWE
 70
    -2
  9
$DIMTMOVE
 70
     0
  9
$LUNITS
 70
     2
  9
$LUPREC
 70
     2
  9
$SKETCHINC
 40
1.0
  9
$FILLETRAD
 40
10.0
  9
$AUNITS
 70
     0
  9
$AUPREC
 70
     2
  9
$MENU
  1
.
  9
$ELEVATION
 40
0.0
  9
$PELEVATION
 40
0.0
  9
$THICKNESS
 40
0.0
  9
$LIMCHECK
 70
     0
  9
$CHAMFERA
 40
10.0
  9
$CHAMFERB
 40
10.0
  9
$CHAMFERC
 40
20.0
  9
$CHAMFERD
 40
0.0
  9
$SKPOLY
 70
     0
  9
$TDCREATE
 40
2456892.644987951
  9
$TDUCREATE
 40
2456892.269987951
  9
$TDUPDATE
 40
2456892.644991018
  9
$TDUUPDATE
 40
2456892.269991018
  9
$TDINDWG
 40
0.0000000116
  9
$TDUSRTIMER
 40
0.0000000116
  9
$USRTIMER
 70
     1
  9
$ANGBASE
 50
0.0
  9
$ANGDIR
 70
     0
  9
$PDMODE
 70
     0
  9
$PDSIZE
 40
-1.0
  9
$PLINEWID
 40
0.0
  9
$SPLFRAME
 70
     0
  9
$SPLINETYPE
 70
     6
  9
$SPLINESEGS
 70
     8
  9
$HANDSEED
  5
418
  9
$SURFTAB1
 70
     6
  9
$SURFTAB2
 70
     6
  9
$SURFTYPE
 70
     6
  9
$SURFU
 70
     6
  9
$SURFV
 70
     6
  9
$UCSBASE
  2

  9
$UCSNAME
  2

  9
$UCSORG
 10
0.0
 20
0.0
 30
0.0
  9
$UCSXDIR
 10
1.0
 20
0.0
 30
0.0
  9
$UCSYDIR
 10
0.0
 20
1.0
 30
0.0
  9
$UCSORTHOREF
  2

  9
$UCSORTHOVIEW
 70
     0
  9
$UCSORGTOP
 10
0.0
 20
0.0
 30
0.0
  9
$UCSORGBOTTOM
 10
0.0
 20
0.0
 30
0.0
  9
$UCSORGLEFT
 10
0.0
 20
0.0
 30
0.0
  9
$UCSORGRIGHT
 10
0.0
 20
0.0
 30
0.0
  9
$UCSORGFRONT
 10
0.0
 20
0.0
 30
0.0
  9
$UCSORGBACK
 10
0.0
 20
0.0
 30
0.0
  9
$PUCSBASE
  2

  9
$PUCSNAME
  2

  9
$PUCSORG
 10
0.0
 20
0.0
 30
0.0
  9
$PUCSXDIR
 10
1.0
 20
0.0
 30
0.0
  9
$PUCSYDIR
 10
0.0
 20
1.0
 30
0.0
  9
$PUCSORTHOREF
  2

  9
$PUCSORTHOVIEW
 70
     0
  9
$PUCSORGTOP
 10
0.0
 20
0.0
 30
0.0
  9
$PUCSORGBOTTOM
 10
0.0
 20
0.0
 30
0.0
  9
$PUCSORGLEFT
 10
0.0
 20
0.0
 30
0.0
  9
$PUCSORGRIGHT
 10
0.0
 20
0.0
 30
0.0
  9
$PUCSORGFRONT
 10
0.0
 20
0.0
 30
0.0
  9
$PUCSORGBACK
 10
0.0
 20
0.0
 30
0.0
  9
$USERI1
 70
     0
  9
$USERI2
 70
     0
  9
$USERI3
 70
     0
  9
$USERI4
 70
     0
  9
$USERI5
 70
     0
  9
$USERR1
 40
0.0
  9
$USERR2
 40
0.0
  9
$USERR3
 40
0.0
  9
$USERR4
 40
0.0
  9
$USERR5
 40
0.0
  9
$WORLDVIEW
 70
     1
  9
$SHADEDGE
 70
     3
  9
$SHADEDIF
 70
    70
  9
$TILEMODE
 70
     1
  9
$MAXACTVP
 70
    64
  9
$PINSBASE
 10
0.0
 20
0.0
 30
0.0
  9
$PLIMCHECK
 70
     0
  9
$PEXTMIN
 10
1.0000000000E+20
 20
1.0000000000E+20
 30
1.0000000000E+20
  9
$PEXTMAX
 10
-1.0000000000E+20
 20
-1.0000000000E+20
 30
-1.0000000000E+20
  9
$PLIMMIN
 10
0.0
 20
0.0
  9
$PLIMMAX
 10
420.0
 20
297.0
  9
$UNITMODE
 70
     0
  9
$VISRETAIN
 70
     1
  9
$PLINEGEN
 70
     0
  9
$PSLTSCALE
 70
     1
  9
$TREEDEPTH
 70
  3020
  9
$CMLSTYLE
  2
Standard
  9
$CMLJUST
 70
     0
  9
$CMLSCALE
 40
20.0
  9
$PROXYGRAPHICS
 70
     1
  9
$MEASUREMENT
 70
     1
  9
$CELWEIGHT
370
    -1
  9
$ENDCAPS
280
     0
  9
$JOINSTYLE
280
     0
  9
$LWDISPLAY
290
     1
  9
$INSUNITS
 70
     4
  9
$HYPERLINKBASE
  1

  9
$STYLESHEET
  1

  9
$XEDIT
290
     1
  9
$CEPSNTYPE
380
     0
  9
$PSTYLEMODE
290
     1
  9
$FINGERPRINTGUID
  2
{EC56F3F8-25A6-4F2A-8EE3-1364FBDC5519}
  9
$VERSIONGUID
  2
{FAEB1C32-E019-11D5-929B-00C0DF256EC4}
  9
$EXTNAMES
290
     1
  9
$PSVPSCALE
 40
0.0
  9
$OLESTARTUP
290
     0
  0
ENDSEC
  0
SECTION
  2
CLASSES
  0
CLASS
  1
ACDBDICTIONARYWDFLT
  2
AcDbDictionaryWithDefault
  3
ObjectDBX Classes
 90
        0
280
     0
281
     0
  0
CLASS
  1
VISUALSTYLE
  2
AcDbVisualStyle
  3
ObjectDBX Classes
 90
     4095
280
     0
281
     0
  0
CLASS
  1
MATERIAL
  2
AcDbMaterial
  3
ObjectDBX Classes
 90
     1153
280
     0
281
     0
  0
CLASS
  1
ACDBPLACEHOLDER
  2
AcDbPlaceHolder
  3
ObjectDBX Classes
 90
        0
280
     0
281
     0
  0
CLASS
  1
LAYOUT
  2
AcDbLayout
  3
ObjectDBX Classes
 90
        0
280
     0
281
     0
  0
ENDSEC
  0
SECTION
  2
TABLES
  0
TABLE
  2
VPORT
  5
8
330
0
100
AcDbSymbolTable
 70
     1
  0
VPORT
  5
29
330
8
100
AcDbSymbolTableRecord
100
AcDbViewportTableRecord
  2
*Active
 70
     0
 10
0.0
 20
0.0
 11
1.0
 21
1.0
 12
105.0
 22
148.5
 13
0.0
 23
0.0
 14
10.0
 24
10.0
 15
10.0
 25
10.0
 16
0.0
 26
0.0
 36
1.0
 17
0.0
 27
0.0
 37
0.0
 40
297.0
 41
0.7070707071
 42
50.0
 43
0.0
 44
0.0
 50
0.0
 51
0.0
 71
     0
 72
  2000
 73
     1
 74
     3
 75
     0
 76
     0
 77
     0
 78
     0
281
     0
 65
     1
110
0.0
120
0.0
130
0.0
111
1.0
121
0.0
131
0.0
112
0.0
122
1.0
132
0.0
 79
     0
146
0.0
  0
ENDTAB
  0
TABLE
  2
LTYPE
  5
5
330
0
100
AcDbSymbolTable
 70
     6
  0
LTYPE
  5
14
330
5
100
AcDbSymbolTableRecord
100
AcDbLinetypeTableRecord
  2
ByBlock
 70
     0
  3

 72
    65
 73
     0
 40
0.0
  0
LTYPE
  5
15
330
5
100
AcDbSymbolTableRecord
100
AcDbLinetypeTableRecord
  2
ByLayer
 70
     0
  3

 72
    65
 73
     0
 40
0.0
  0
LTYPE
  5
16
330
5
100
AcDbSymbolTableRecord
100
AcDbLinetypeTableRecord
  2
Continuous
 70
     0
  3
Solid line
 72
    65
 73
     0
 40
0.0
  0
LTYPE
  5
3F
330
5
100
AcDbSymbolTableRecord
100
AcDbLinetypeTableRecord
  2
HIDDEN
 70
     0
  3
Hidden __ __ __ __ __ __ __ __ __ __ __ __ __ __
 72
    65
 73
     2
 40
1.905
 49
1.27
 74
     0
 49
-0.635
 74
     0
  0
LTYPE
  5
40
330
5
100
AcDbSymbolTableRecord
100
AcDbLinetypeTableRecord
  2
PHANTOM
 70
     0
  3
Phantom ______  __  __  ______  __  __  ______
 72
    65
 73
     6
 40
12.7
 49
6.35
 74
     0
 49
-1.27
 74
     0
 49
1.27
 74
     0
 49
-1.27
 74
     0
 49
1.27
 74
     0
 49
-1.27
 74
     0
  0
LTYPE
  5
41
330
5
100
AcDbSymbolTableRecord
100
AcDbLinetypeTableRecord
  2
CENTER
 70
     0
  3
Center ____ _ ____ _ ____ _ ____ _ ____ _ ____
 72
    65
 73
     4
 40
10.16
 49
6.35
 74
     0
 49
-1.27
 74
     0
 49
1.27
 74
     0
 49
-1.27
 74
     0
  0
LTYPE
  5
42
330
5
100
AcDbSymbolTableRecord
100
AcDbLinetypeTableRecord
  2
CENTERX2
 70
     0
  3
Center (2x) ________  __  ________  __  _____
 72
    65
 73
     4
 40
20.32
 49
12.7
 74
     0
 49
-2.54
 74
     0
 49
2.54
 74
     0
 49
-2.54
 74
     0
  0
LTYPE
  5
43
330
5
100
AcDbSymbolTableRecord
100
AcDbLinetypeTableRecord
  2
DOT2
 70
     0
  3
Dot (.5x) ........................................
 72
    65
 73
     2
 40
0.635
 49
0.0
 74
     0
 49
-0.635
 74
     0
  0
ENDTAB
  0
TABLE
  2
LAYER
  5
2
330
0
100
AcDbSymbolTable
 70
     1
  0
LAYER
  5
10
330
2
100
AcDbSymbolTableRecord
100
AcDbLayerTableRecord
  2
0
 70
     0
 62
     7
  6
Continuous
370
    -3
390
F
  0
ENDTAB
  0
TABLE
  2
STYLE
  5
3
330
0
100
AcDbSymbolTable
 70
     3
  0
STYLE
  5
11
330
3
100
AcDbSymbolTableRecord
100
AcDbTextStyleTableRecord
  2
Standard
 70
     0
 40
0.0
 41
1.0
 50
0.0
 71
     0
 42
3.5
  3
txt
  4
bigfont
  0
STYLE
  5
4C
330
3
100
AcDbSymbolTableRecord
100
AcDbTextStyleTableRecord
  2
SLDTEXTSTYLE0
 70
     0
 40
0.0
 41
0.75
 50
0.0
 71
     0
 42
0.2
  3
TXT
  4
bigfont
  0
STYLE
  5
50
330
3
100
AcDbSymbolTableRecord
100
AcDbTextStyleTableRecord
  2
SLDTEXTSTYLE1
 70
     0
 40
0.0
 41
0.7
 50
0.0
 71
     0
 42
0.2
  3
TXT
  4
bigfont
  0
ENDTAB
  0
TABLE
  2
VIEW
  5
6
330
0
100
AcDbSymbolTable
 70
     0
  0
ENDTAB
  0
TABLE
  2
UCS
  5
7
330
0
100
AcDbSymbolTable
 70
     0
  0
ENDTAB
  0
TABLE
  2
APPID
  5
9
330
0
100
AcDbSymbolTable
 70
     1
  0
APPID
  5
12
330
9
100
AcDbSymbolTableRecord
100
AcDbRegAppTableRecord
  2
ACAD
 70
     0
  0
ENDTAB
  0
TABLE
  2
DIMSTYLE
  5
A
330
0
100
AcDbSymbolTable
 70
     6
100
AcDbDimStyleTable
  0
DIMSTYLE
105
27
330
A
100
AcDbSymbolTableRecord
100
AcDbDimStyleTableRecord
  2
ISO-25
 70
     0
 41
2.5
 42
0.625
 43
3.75
 44
1.25
 73
     0
 74
     0
 77
     1
 78
     8
140
2.5
141
2.5
143
0.0393700787
147
0.625
171
     3
172
     1
178
     0
271
     2
272
     2
274
     3
278
    44
283
     0
284
     8
340
11
  0
DIMSTYLE
105
132
102
{ACAD_REACTORS
330
131
330
194
102
}
330
A
100
AcDbSymbolTableRecord
100
AcDbDimStyleTableRecord
  2
SLDDIMSTYLE0
 70
     0
 41
3.0
 44
0.0
 45
0.000000001
 73
     0
 74
     0
 77
     3
 78
    12
 79
     3
140
3.5
147
0.875
172
     1
173
     1
178
     0
271
     1
272
     2
276
     2
284
    12
289
     0
340
4C
341
133
343
133
  0
DIMSTYLE
105
14A
102
{ACAD_REACTORS
330
149
330
154
330
160
330
16C
330
176
330
180
330
18A
330
1A0
330
277
330
281
330
28B
330
295
330
2A1
330
2BA
330
38A
330
3A0
330
3AA
330
3B4
330
3BE
102
}
330
A
100
AcDbSymbolTableRecord
100
AcDbDimStyleTableRecord
  2
SLDDIMSTYLE1
 70
     0
 41
3.302
 44
0.0
 45
0.000000001
 73
     0
 74
     0
 77
     3
 78
    12
 79
     3
140
3.5
147
0.875
173
     1
178
     0
271
     1
272
     2
276
     2
284
    12
340
4C
  0
DIMSTYLE
105
1B5
330
A
100
AcDbSymbolTableRecord
100
AcDbDimStyleTableRecord
  2
SLDDIMSTYLE2
 70
     0
 41
3.0
 44
0.0
 45
0.000000001
140
0.0
146
3.0
147
0.0
173
     1
178
     0
271
     0
272
     0
276
     2
340
11
341
133
343
133
344
133
  0
DIMSTYLE
105
2AE
102
{ACAD_REACTORS
330
2AD
330
394
102
}
330
A
100
AcDbSymbolTableRecord
100
AcDbDimStyleTableRecord
  2
SLDDIMSTYLE3
 70
     0
 41
3.302
 44
0.0
 45
0.000000001
 73
     0
 74
     0
 77
     3
 78
    12
 79
     3
140
3.5
147
0.875
172
     1
173
     1
178
     0
271
     1
272
     2
276
     2
284
    12
289
     0
340
4C
  0
DIMSTYLE
105
3CB
330
A
100
AcDbSymbolTableRecord
100
AcDbDimStyleTableRecord
  2
SLDDIMSTYLE4
 70
     0
 41
3.302
 44
0.0
 45
0.000000001
140
0.0
146
3.302
147
0.0
173
     1
178
     0
271
     0
272
     0
276
     2
340
11
  0
ENDTAB
  0
TABLE
  2
BLOCK_RECORD
  5
1
330
0
100
AcDbSymbolTable
 70
    39
  0
BLOCK_RECORD
  5
1F
330
1
100
AcDbSymbolTableRecord
100
AcDbBlockTableRecord
  2
*Model_Space
340
22
  0
BLOCK_RECORD
  5
1B
330
1
100
AcDbSymbolTableRecord
100
AcDbBlockTableRecord
  2
*Paper_Space
340
1E
  0
BLOCK_RECORD
  5
23
330
1
100
AcDbSymbolTableRecord
100
AcDbBlockTableRecord
  2
*Paper_Space0
340
26
  0
BLOCK_RECORD
  5
133
330
1
100
AcDbSymbolTableRecord
100
AcDbBlockTableRecord
  2
_DOT
340
0
102
{BLKREFS
331
13E
331
198
331
1C2
102
}
  0
BLOCK_RECORD
  5
13B
330
1
100
AcDbSymbolTableRecord
100
AcDbBlockTableRecord
  2
_D
340
0
  0
BLOCK_RECORD
  5
14B
330
1
100
AcDbSymbolTableRecord
100
AcDbBlockTableRecord
  2
_D_1
340
0
  0
BLOCK_RECORD
  5
155
330
1
100
AcDbSymbolTableRecord
100
AcDbBlockTableRecord
  2
_D_2
340
0
  0
BLOCK_RECORD
  5
161
330
1
100
AcDbSymbolTableRecord
100
AcDbBlockTableRecord
  2
_D_3
340
0
  0
BLOCK_RECORD
  5
16D
330
1
100
AcDbSymbolTableRecord
100
AcDbBlockTableRecord
  2
_D_4
340
0
  0
BLOCK_RECORD
  5
177
330
1
100
AcDbSymbolTableRecord
100
AcDbBlockTableRecord
  2
_D_5
340
0
  0
BLOCK_RECORD
  5
181
330
1
100
AcDbSymbolTableRecord
100
AcDbBlockTableRecord
  2
_D_6
340
0
  0
BLOCK_RECORD
  5
18B
330
1
100
AcDbSymbolTableRecord
100
AcDbBlockTableRecord
  2
_D_7
340
0
  0
BLOCK_RECORD
  5
195
330
1
100
AcDbSymbolTableRecord
100
AcDbBlockTableRecord
  2
_D_8
340
0
  0
BLOCK_RECORD
  5
1A1
330
1
100
AcDbSymbolTableRecord
100
AcDbBlockTableRecord
  2
_D_9
340
0
  0
BLOCK_RECORD
  5
1AA
330
1
100
AcDbSymbolTableRecord
100
AcDbBlockTableRecord
  2
SW_NOTE_0
340
0
102
{BLKREFS
331
1B4
102
}
  0
BLOCK_RECORD
  5
1B7
330
1
100
AcDbSymbolTableRecord
100
AcDbBlockTableRecord
  2
SW_NOTE_1
340
0
102
{BLKREFS
331
1C1
102
}
  0
BLOCK_RECORD
  5
278
330
1
100
AcDbSymbolTableRecord
100
AcDbBlockTableRecord
  2
_D_10
340
0
  0
BLOCK_RECORD
  5
282
330
1
100
AcDbSymbolTableRecord
100
AcDbBlockTableRecord
  2
_D_11
340
0
  0
BLOCK_RECORD
  5
28C
330
1
100
AcDbSymbolTableRecord
100
AcDbBlockTableRecord
  2
_D_12
340
0
  0
BLOCK_RECORD
  5
296
330
1
100
AcDbSymbolTableRecord
100
AcDbBlockTableRecord
  2
_D_13
340
0
  0
BLOCK_RECORD
  5
2A2
330
1
100
AcDbSymbolTableRecord
100
AcDbBlockTableRecord
  2
_D_14
340
0
  0
BLOCK_RECORD
  5
2AF
330
1
100
AcDbSymbolTableRecord
100
AcDbBlockTableRecord
  2
_D_15
340
0
  0
BLOCK_RECORD
  5
2BB
330
1
100
AcDbSymbolTableRecord
100
AcDbBlockTableRecord
  2
_D_16
340
0
  0
BLOCK_RECORD
  5
2C4
330
1
100
AcDbSymbolTableRecord
100
AcDbBlockTableRecord
  2
SW_CENTERMARKSYMBOL_0
340
0
102
{BLKREFS
331
2CF
102
}
  0
BLOCK_RECORD
  5
2D0
330
1
100
AcDbSymbolTableRecord
100
AcDbBlockTableRecord
  2
SW_CENTERMARKSYMBOL_1
340
0
102
{BLKREFS
331
2DB
102
}
  0
BLOCK_RECORD
  5
2DC
330
1
100
AcDbSymbolTableRecord
100
AcDbBlockTableRecord
  2
SW_CENTERMARKSYMBOL_2
340
0
102
{BLKREFS
331
2E7
102
}
  0
BLOCK_RECORD
  5
2E8
330
1
100
AcDbSymbolTableRecord
100
AcDbBlockTableRecord
  2
SW_CENTERMARKSYMBOL_3
340
0
102
{BLKREFS
331
2F3
102
}
  0
BLOCK_RECORD
  5
2F4
330
1
100
AcDbSymbolTableRecord
100
AcDbBlockTableRecord
  2
SW_CENTERMARKSYMBOL_4
340
0
102
{BLKREFS
331
2FF
102
}
  0
BLOCK_RECORD
  5
300
330
1
100
AcDbSymbolTableRecord
100
AcDbBlockTableRecord
  2
SW_CENTERMARKSYMBOL_5
340
0
102
{BLKREFS
331
30B
102
}
  0
BLOCK_RECORD
  5
38B
330
1
100
AcDbSymbolTableRecord
100
AcDbBlockTableRecord
  2
_D_17
340
0
  0
BLOCK_RECORD
  5
395
330
1
100
AcDbSymbolTableRecord
100
AcDbBlockTableRecord
  2
_D_18
340
0
  0
BLOCK_RECORD
  5
3A1
330
1
100
AcDbSymbolTableRecord
100
AcDbBlockTableRecord
  2
_D_19
340
0
  0
BLOCK_RECORD
  5
3AB
330
1
100
AcDbSymbolTableRecord
100
AcDbBlockTableRecord
  2
_D_20
340
0
  0
BLOCK_RECORD
  5
3B5
330
1
100
AcDbSymbolTableRecord
100
AcDbBlockTableRecord
  2
_D_21
340
0
  0
BLOCK_RECORD
  5
3BF
330
1
100
AcDbSymbolTableRecord
100
AcDbBlockTableRecord
  2
_D_22
340
0
  0
BLOCK_RECORD
  5
3CD
330
1
100
AcDbSymbolTableRecord
100
AcDbBlockTableRecord
  2
SW_CENTERMARKSYMBOL_6
340
0
102
{BLKREFS
331
3D8
102
}
  0
BLOCK_RECORD
  5
3D9
330
1
100
AcDbSymbolTableRecord
100
AcDbBlockTableRecord
  2
SW_CENTERMARKSYMBOL_7
340
0
102
{BLKREFS
331
3E4
102
}
  0
BLOCK_RECORD
  5
3E5
330
1
100
AcDbSymbolTableRecord
100
AcDbBlockTableRecord
  2
SW_CENTERMARKSYMBOL_8
340
0
102
{BLKREFS
331
3F0
102
}
  0
BLOCK_RECORD
  5
3F1
330
1
100
AcDbSymbolTableRecord
100
AcDbBlockTableRecord
  2
SW_CENTERMARKSYMBOL_9
340
0
102
{BLKREFS
331
3FC
102
}
  0
BLOCK_RECORD
  5
3FD
330
1
100
AcDbSymbolTableRecord
100
AcDbBlockTableRecord
  2
SW_CENTERMARKSYMBOL_10
340
0
102
{BLKREFS
331
408
102
}
  0
BLOCK_RECORD
  5
409
330
1
100
AcDbSymbolTableRecord
100
AcDbBlockTableRecord
  2
SW_CENTERMARKSYMBOL_11
340
0
102
{BLKREFS
331
414
102
}
  0
ENDTAB
  0
ENDSEC
  0
SECTION
  2
BLOCKS
  0
BLOCK
  5
20
330
1F
100
AcDbEntity
  8
0
100
AcDbBlockBegin
  2
*Model_Space
 70
     0
 10
0.0
 20
0.0
 30
0.0
  3
*Model_Space
  1

  0
ENDBLK
  5
21
330
1F
100
AcDbEntity
  8
0
100
AcDbBlockEnd
  0
BLOCK
  5
1C
330
1B
100
AcDbEntity
 67
     1
  8
0
100
AcDbBlockBegin
  2
*Paper_Space
 70
     0
 10
0.0
 20
0.0
 30
0.0
  3
*Paper_Space
  1

  0
ENDBLK
  5
1D
330
1B
100
AcDbEntity
 67
     1
  8
0
100
AcDbBlockEnd
  0
BLOCK
  5
24
330
23
100
AcDbEntity
  8
0
100
AcDbBlockBegin
  2
*Paper_Space0
 70
     0
 10
0.0
 20
0.0
 30
0.0
  3
*Paper_Space0
  1

  0
ENDBLK
  5
25
330
23
100
AcDbEntity
  8
0
100
AcDbBlockEnd
  0
BLOCK
  5
134
330
133
100
AcDbEntity
  8
0
100
AcDbBlockBegin
  2
_DOT
 70
     0
 10
0.0
 20
0.0
 30
0.0
  3
_DOT
  1

  0
POLYLINE
  5
136
330
133
100
AcDbEntity
  8
0
  6
ByBlock
 62
     0
100
AcDb2dPolyline
 66
     1
 10
0.0
 20
0.0
 30
0.0
 70
     1
 40
0.5
 41
0.5
  0
VERTEX
  5
138
330
136
100
AcDbEntity
  8
0
  6
ByBlock
 62
     0
100
AcDbVertex
100
AcDb2dVertex
 10
-0.25
 20
0.0
 30
0.0
 42
1.0
  0
VERTEX
  5
139
330
136
100
AcDbEntity
  8
0
  6
ByBlock
 62
     0
100
AcDbVertex
100
AcDb2dVertex
 10
0.25
 20
0.0
 30
0.0
 42
1.0
  0
SEQEND
  5
13A
330
136
100
AcDbEntity
  8
0
  6
ByBlock
 62
     0
  0
LINE
  5
137
330
133
100
AcDbEntity
  8
0
  6
ByBlock
 62
     0
370
    -2
100
AcDbLine
 10
-0.5
 20
0.0
 30
0.0
 11
-1.0
 21
0.0
 31
0.0
  0
ENDBLK
  5
135
330
133
100
AcDbEntity
  8
0
100
AcDbBlockEnd
  0
BLOCK
  5
13C
330
13B
100
AcDbEntity
  8
0
100
AcDbBlockBegin
  2
_D
 70
     0
 10
0.0
 20
0.0
 30
0.0
  3
_D
  1

  0
INSERT
  5
13E
330
13B
100
AcDbEntity
  8
0
  6
Continuous
 62
     7
370
     0
100
AcDbBlockReference
  2
_DOT
 10
179.145585934
 20
234.7158831457
 30
0.1
 41
3.0
 42
3.0
 50
180.0
  0
SOLID
  5
13F
330
13B
100
AcDbEntity
  8
0
  6
Continuous
 62
     7
370
     0
100
AcDbTrace
 10
176.145585934
 20
234.7158831457
 30
0.0
 11
174.145585934
 21
235.4658831457
 31
0.0
 12
174.145585934
 22
233.9658831457
 32
0.0
 13
174.145585934
 23
233.9658831457
 33
0.0
  0
LINE
  5
140
330
13B
100
AcDbEntity
  8
0
  6
Continuous
 62
     7
370
     0
100
AcDbLine
 10
179.145585934
 20
225.7108819485
 30
0.0
 11
179.145585934
 21
235.7158831457
 31
0.0
  0
LINE
  5
141
330
13B
100
AcDbEntity
  8
0
  6
Continuous
 62
     7
370
     0
100
AcDbLine
 10
176.145585934
 20
225.7108819485
 30
0.0
 11
176.145585934
 21
235.7158831457
 31
0.0
  0
LINE
  5
142
330
13B
100
AcDbEntity
  8
0
  6
Continuous
 62
     7
370
     0
100
AcDbLine
 10
179.145585934
 20
234.7158831457
 30
0.0
 11
185.495585934
 21
234.7158831457
 31
0.0
  0
LINE
  5
143
330
13B
100
AcDbEntity
  8
0
  6
Continuous
 62
     7
370
     0
100
AcDbLine
 10
179.145585934
 20
234.7158831457
 30
0.0
 11
176.145585934
 21
234.7158831457
 31
0.0
  0
LINE
  5
144
330
13B
100
AcDbEntity
  8
0
  6
Continuous
 62
     7
370
     0
100
AcDbLine
 10
176.145585934
 20
234.7158831457
 30
0.0
 11
173.145585934
 21
234.7158831457
 31
0.0
  0
LINE
  5
145
330
13B
100
AcDbEntity
  8
0
  6
Continuous
 62
     7
370
     0
100
AcDbLine
 10
177.645585934
 20
234.7158831457
 30
0.0
 11
167.3028886241
 21
253.429754673
 31
0.0
  0
LINE
  5
146
330
13B
100
AcDbEntity
  8
0
  6
Continuous
 62
     7
370
     0
100
AcDbLine
 10
167.3028886241
 20
253.429754673
 30
0.0
 11
132.9396970492
 21
253.429754673
 31
0.0
  0
MTEXT
  5
147
330
13B
100
AcDbEntity
  8
0
  6
Continuous
 62
     7
370
     0
100
AcDbMText
 10
132.9396970492
 20
257.9414915875
 30
0.1
 40
3.5
 41
0.0
 71
     1
 72
     1
  1
Maxストローク
  7
SLDTEXTSTYLE0
 73
     1
 44
1.0
  0
MTEXT
  5
148
330
13B
100
AcDbEntity
  8
0
  6
Continuous
 62
     7
370
     0
100
AcDbMText
 10
164.716780923
 20
257.9414915875
 30
0.1
 40
3.5
 41
0.0
 71
     1
 72
     1
  1
3
  7
SLDTEXTSTYLE0
 73
     1
 44
1.0
  0
ENDBLK
  5
13D
330
13B
100
AcDbEntity
  8
0
100
AcDbBlockEnd
  0
BLOCK
  5
14C
330
14B
100
AcDbEntity
  8
0
100
AcDbBlockBegin
  2
_D_1
 70
     0
 10
0.0
 20
0.0
 30
0.0
  3
_D_1
  1

  0
SOLID
  5
14E
330
14B
100
AcDbEntity
  8
0
  6
Continuous
 62
     7
370
     0
100
AcDbTrace
 10
176.145585934
 20
234.7158831457
 30
0.0
 11
174.145585934
 21
235.4658831457
 31
0.0
 12
174.145585934
 22
233.9658831457
 32
0.0
 13
174.145585934
 23
233.9658831457
 33
0.0
  0
SOLID
  5
14F
330
14B
100
AcDbEntity
  8
0
  6
Continuous
 62
     7
370
     0
100
AcDbTrace
 10
150.945585934
 20
234.7158831457
 30
0.0
 11
152.945585934
 21
233.9658831457
 31
0.0
 12
152.945585934
 22
235.4658831457
 32
0.0
 13
152.945585934
 23
235.4658831457
 33
0.0
  0
LINE
  5
150
330
14B
100
AcDbEntity
  8
0
  6
Continuous
 62
     7
370
     0
100
AcDbLine
 10
176.145585934
 20
225.7108819485
 30
0.0
 11
176.145585934
 21
235.7158831457
 31
0.0
  0
LINE
  5
151
330
14B
100
AcDbEntity
  8
0
  6
Continuous
 62
     7
370
     0
100
AcDbLine
 10
150.945585934
 20
145.8557315669
 30
0.0
 11
150.945585934
 21
235.7158831457
 31
0.0
  0
LINE
  5
152
330
14B
100
AcDbEntity
  8
0
  6
Continuous
 62
     7
370
     0
100
AcDbLine
 10
176.145585934
 20
234.7158831457
 30
0.0
 11
150.945585934
 21
234.7158831457
 31
0.0
  0
MTEXT
  5
153
330
14B
100
AcDbEntity
  8
0
  6
Continuous
 62
     7
370
     0
100
AcDbMText
 10
158.9698914036
 20
239.2276200603
 30
0.1
 40
3.5
 41
0.0
 71
     1
 72
     1
  1
25.2
  7
SLDTEXTSTYLE0
 73
     1
 44
1.0
  0
ENDBLK
  5
14D
330
14B
100
AcDbEntity
  8
0
100
AcDbBlockEnd
  0
BLOCK
  5
156
330
155
100
AcDbEntity
  8
0
100
AcDbBlockBegin
  2
_D_2
 70
     0
 10
0.0
 20
0.0
 30
0.0
  3
_D_2
  1

  0
ARC
  5
158
330
155
100
AcDbEntity
  8
0
  6
Continuous
 62
     7
370
     0
100
AcDbCircle
 10
142.2761415692
 20
116.6231205879
 30
0.0
 40
6.21207633999562
100
AcDbArc
 50
153.4349488229
 51
206.5650511771
  0
ARC
  5
159
330
155
100
AcDbEntity
  8
0
  6
Continuous
 62
     7
370
     0
100
AcDbCircle
 10
140.215030648
 20
116.6231205879
 30
0.0
 40
6.212076339995594
100
AcDbArc
 50
333.4349488229
 51
26.5650511771
  0
SOLID
  5
15A
330
155
100
AcDbEntity
  8
0
  6
Continuous
 62
     7
370
     0
100
AcDbTrace
 10
93.845585934
 20
113.8449955924
 30
0.0
 11
95.845585934
 21
113.0949955924
 31
0.0
 12
95.845585934
 22
114.5949955924
 32
0.0
 13
95.845585934
 23
114.5949955924
 33
0.0
  0
SOLID
  5
15B
330
155
100
AcDbEntity
  8
0
  6
Continuous
 62
     7
370
     0
100
AcDbTrace
 10
188.645585934
 20
113.8449955924
 30
0.0
 11
186.645585934
 21
114.5949955924
 31
0.0
 12
186.645585934
 22
113.0949955924
 32
0.0
 13
186.645585934
 23
113.0949955924
 33
0.0
  0
LINE
  5
15C
330
155
100
AcDbEntity
  8
0
  6
Continuous
 62
     7
370
     0
100
AcDbLine
 10
93.845585934
 20
154.2057315669
 30
0.0
 11
93.845585934
 21
112.8449955924
 31
0.0
  0
LINE
  5
15D
330
155
100
AcDbEntity
  8
0
  6
Continuous
 62
     7
370
     0
100
AcDbLine
 10
188.645585934
 20
156.2557315669
 30
0.0
 11
188.645585934
 21
112.8449955924
 31
0.0
  0
LINE
  5
15E
330
155
100
AcDbEntity
  8
0
  6
Continuous
 62
     7
370
     0
100
AcDbLine
 10
93.845585934
 20
113.8449955924
 30
0.0
 11
188.645585934
 21
113.8449955924
 31
0.0
  0
MTEXT
  5
15F
330
155
100
AcDbEntity
  8
0
  6
Continuous
 62
     7
370
     0
100
AcDbMText
 10
136.7198915782
 20
118.356732507
 30
0.1
 40
3.5
 41
0.0
 71
     1
 72
     1
  1
94.8
  7
SLDTEXTSTYLE0
 73
     1
 44
1.0
  0
ENDBLK
  5
157
330
155
100
AcDbEntity
  8
0
100
AcDbBlockEnd
  0
BLOCK
  5
162
330
161
100
AcDbEntity
  8
0
100
AcDbBlockBegin
  2
_D_3
 70
     0
 10
0.0
 20
0.0
 30
0.0
  3
_D_3
  1

  0
ARC
  5
164
330
161
100
AcDbEntity
  8
0
  6
Continuous
 62
     7
370
     0
100
AcDbCircle
 10
149.5761415692
 20
125.9674353658
 30
0.0
 40
6.212076339995614
100
AcDbArc
 50
153.4349488229
 51
206.5650511771
  0
ARC
  5
165
330
161
100
AcDbEntity
  8
0
  6
Continuous
 62
     7
370
     0
100
AcDbCircle
 10
147.515030648
 20
125.9674353658
 30
0.0
 40
6.2120763399956
100
AcDbArc
 50
333.4349488229
 51
26.5650511771
  0
SOLID
  5
166
330
161
100
AcDbEntity
  8
0
  6
Continuous
 62
     7
370
     0
100
AcDbTrace
 10
108.445585934
 20
123.1893103703
 30
0.0
 11
110.445585934
 21
122.4393103703
 31
0.0
 12
110.445585934
 22
123.9393103703
 32
0.0
 13
110.445585934
 23
123.9393103703
 33
0.0
  0
SOLID
  5
167
330
161
100
AcDbEntity
  8
0
  6
Continuous
 62
     7
370
     0
100
AcDbTrace
 10
188.645585934
 20
123.1893103702
 30
0.0
 11
186.645585934
 21
123.9393103702
 31
0.0
 12
186.645585934
 22
122.4393103702
 32
0.0
 13
186.645585934
 23
122.4393103702
 33
0.0
  0
LINE
  5
168
330
161
100
AcDbEntity
  8
0
  6
Continuous
 62
     7
370
     0
100
AcDbLine
 10
108.445585934
 20
142.8557315669
 30
0.0
 11
108.445585934
 21
122.1893103703
 31
0.0
  0
LINE
  5
169
330
161
100
AcDbEntity
  8
0
  6
Continuous
 62
     7
370
     0
100
AcDbLine
 10
188.645585934
 20
156.2557315669
 30
0.0
 11
188.645585934
 21
122.1893103702
 31
0.0
  0
LINE
  5
16A
330
161
100
AcDbEntity
  8
0
  6
Continuous
 62
     7
370
     0
100
AcDbLine
 10
108.445585934
 20
123.1893103703
 30
0.0
 11
188.645585934
 21
123.1893103702
 31
0.0
  0
MTEXT
  5
16B
330
161
100
AcDbEntity
  8
0
  6
Continuous
 62
     7
370
     0
100
AcDbMText
 10
144.0198915782
 20
127.7010472848
 30
0.1
 40
3.5
 41
0.0
 71
     1
 72
     1
  1
80.2
  7
SLDTEXTSTYLE0
 73
     1
 44
1.0
  0
ENDBLK
  5
163
330
161
100
AcDbEntity
  8
0
100
AcDbBlockEnd
  0
BLOCK
  5
16E
330
16D
100
AcDbEntity
  8
0
100
AcDbBlockBegin
  2
_D_4
 70
     0
 10
0.0
 20
0.0
 30
0.0
  3
_D_4
  1

  0
SOLID
  5
170
330
16D
100
AcDbEntity
  8
0
  6
Continuous
 62
     7
370
     0
100
AcDbTrace
 10
86.9124435773
 20
159.0557315669
 30
0.0
 11
86.1624435773
 21
157.0557315669
 31
0.0
 12
87.6624435773
 22
157.0557315669
 32
0.0
 13
87.6624435773
 23
157.0557315669
 33
0.0
  0
SOLID
  5
171
330
16D
100
AcDbEntity
  8
0
  6
Continuous
 62
     7
370
     0
100
AcDbTrace
 10
86.9124435773
 20
140.3557315669
 30
0.0
 11
87.6624435773
 21
142.3557315669
 31
0.0
 12
86.1624435773
 22
142.3557315669
 32
0.0
 13
86.1624435773
 23
142.3557315669
 33
0.0
  0
LINE
  5
172
330
16D
100
AcDbEntity
  8
0
  6
Continuous
 62
     7
370
     0
100
AcDbLine
 10
90.2592117132
 20
159.0557315669
 30
0.0
 11
85.9124435773
 21
159.0557315669
 31
0.0
  0
LINE
  5
173
330
16D
100
AcDbEntity
  8
0
  6
Continuous
 62
     7
370
     0
100
AcDbLine
 10
110.945585934
 20
140.3557315669
 30
0.0
 11
85.9124435773
 21
140.3557315669
 31
0.0
  0
LINE
  5
174
330
16D
100
AcDbEntity
  8
0
  6
Continuous
 62
     7
370
     0
100
AcDbLine
 10
86.9124435773
 20
159.0557315669
 30
0.0
 11
86.9124435773
 21
140.3557315669
 31
0.0
  0
MTEXT
  5
175
330
16D
100
AcDbEntity
  8
0
  6
Continuous
 62
     7
370
     0
100
AcDbMText
 10
82.4007066628
 20
145.1803488603
 30
0.0
 40
3.5
 41
0.0
 71
     1
 72
     1
  1
18.7
  7
SLDTEXTSTYLE0
 11
-1.770233605404514E-14
 21
1.0
 31
0.0
 73
     1
 44
1.0
  0
ENDBLK
  5
16F
330
16D
100
AcDbEntity
  8
0
100
AcDbBlockEnd
  0
BLOCK
  5
178
330
177
100
AcDbEntity
  8
0
100
AcDbBlockBegin
  2
_D_5
 70
     0
 10
0.0
 20
0.0
 30
0.0
  3
_D_5
  1

  0
SOLID
  5
17A
330
177
100
AcDbEntity
  8
0
  6
Continuous
 62
     7
370
     0
100
AcDbTrace
 10
80.4965233276
 20
175.0557315669
 30
0.0
 11
79.7465233276
 21
173.0557315669
 31
0.0
 12
81.2465233276
 22
173.0557315669
 32
0.0
 13
81.2465233276
 23
173.0557315669
 33
0.0
  0
SOLID
  5
17B
330
177
100
AcDbEntity
  8
0
  6
Continuous
 62
     7
370
     0
100
AcDbTrace
 10
80.4965233276
 20
140.3557315669
 30
0.0
 11
81.2465233276
 21
142.3557315669
 31
0.0
 12
79.7465233276
 22
142.3557315669
 32
0.0
 13
79.7465233276
 23
142.3557315669
 33
0.0
  0
LINE
  5
17C
330
177
100
AcDbEntity
  8
0
  6
Continuous
 62
     7
370
     0
100
AcDbLine
 10
116.9395563732
 20
175.0557315669
 30
0.0
 11
79.4965233276
 21
175.0557315669
 31
0.0
  0
LINE
  5
17D
330
177
100
AcDbEntity
  8
0
  6
Continuous
 62
     7
370
     0
100
AcDbLine
 10
110.945585934
 20
140.3557315669
 30
0.0
 11
79.4965233276
 21
140.3557315669
 31
0.0
  0
LINE
  5
17E
330
177
100
AcDbEntity
  8
0
  6
Continuous
 62
     7
370
     0
100
AcDbLine
 10
80.4965233276
 20
175.0557315669
 30
0.0
 11
80.4965233276
 21
140.3557315669
 31
0.0
  0
MTEXT
  5
17F
330
177
100
AcDbEntity
  8
0
  6
Continuous
 62
     7
370
     0
100
AcDbMText
 10
75.984786413
 20
153.1803488603
 30
0.0
 40
3.5
 41
0.0
 71
     1
 72
     1
  1
34.7
  7
SLDTEXTSTYLE0
 11
-1.770233605404514E-14
 21
1.0
 31
0.0
 73
     1
 44
1.0
  0
ENDBLK
  5
179
330
177
100
AcDbEntity
  8
0
100
AcDbBlockEnd
  0
BLOCK
  5
182
330
181
100
AcDbEntity
  8
0
100
AcDbBlockBegin
  2
_D_6
 70
     0
 10
0.0
 20
0.0
 30
0.0
  3
_D_6
  1

  0
SOLID
  5
184
330
181
100
AcDbEntity
  8
0
  6
Continuous
 62
     7
370
     0
100
AcDbTrace
 10
140.945585934
 20
133.2751586099
 30
0.0
 11
142.945585934
 21
132.5251586099
 31
0.0
 12
142.945585934
 22
134.0251586099
 32
0.0
 13
142.945585934
 23
134.0251586099
 33
0.0
  0
SOLID
  5
185
330
181
100
AcDbEntity
  8
0
  6
Continuous
 62
     7
370
     0
100
AcDbTrace
 10
150.945585934
 20
133.2751586099
 30
0.0
 11
148.945585934
 21
134.0251586099
 31
0.0
 12
148.945585934
 22
132.5251586099
 32
0.0
 13
148.945585934
 23
132.5251586099
 33
0.0
  0
LINE
  5
186
330
181
100
AcDbEntity
  8
0
  6
Continuous
 62
     7
370
     0
100
AcDbLine
 10
140.945585934
 20
137.3557315669
 30
0.0
 11
140.945585934
 21
132.2751586099
 31
0.0
  0
LINE
  5
187
330
181
100
AcDbEntity
  8
0
  6
Continuous
 62
     7
370
     0
100
AcDbLine
 10
150.945585934
 20
137.3557315669
 30
0.0
 11
150.945585934
 21
132.2751586099
 31
0.0
  0
LINE
  5
188
330
181
100
AcDbEntity
  8
0
  6
Continuous
 62
     7
370
     0
100
AcDbLine
 10
140.945585934
 20
133.2751586099
 30
0.0
 11
150.945585934
 21
133.2751586099
 31
0.0
  0
MTEXT
  5
189
330
181
100
AcDbEntity
  8
0
  6
Continuous
 62
     7
370
     0
100
AcDbMText
 10
143.3594747405
 20
137.7868955245
 30
0.1
 40
3.5
 41
0.0
 71
     1
 72
     1
  1
10
  7
SLDTEXTSTYLE0
 73
     1
 44
1.0
  0
ENDBLK
  5
183
330
181
100
AcDbEntity
  8
0
100
AcDbBlockEnd
  0
BLOCK
  5
18C
330
18B
100
AcDbEntity
  8
0
100
AcDbBlockBegin
  2
_D_7
 70
     0
 10
0.0
 20
0.0
 30
0.0
  3
_D_7
  1

  0
SOLID
  5
18E
330
18B
100
AcDbEntity
  8
0
  6
Continuous
 62
     7
370
     0
100
AcDbTrace
 10
150.945585934
 20
133.2751586099
 30
0.0
 11
152.945585934
 21
132.5251586099
 31
0.0
 12
152.945585934
 22
134.0251586099
 32
0.0
 13
152.945585934
 23
134.0251586099
 33
0.0
  0
SOLID
  5
18F
330
18B
100
AcDbEntity
  8
0
  6
Continuous
 62
     7
370
     0
100
AcDbTrace
 10
188.645585934
 20
133.2751586099
 30
0.0
 11
186.645585934
 21
134.0251586099
 31
0.0
 12
186.645585934
 22
132.5251586099
 32
0.0
 13
186.645585934
 23
132.5251586099
 33
0.0
  0
LINE
  5
190
330
18B
100
AcDbEntity
  8
0
  6
Continuous
 62
     7
370
     0
100
AcDbLine
 10
150.945585934
 20
137.3557315669
 30
0.0
 11
150.945585934
 21
132.2751586099
 31
0.0
  0
LINE
  5
191
330
18B
100
AcDbEntity
  8
0
  6
Continuous
 62
     7
370
     0
100
AcDbLine
 10
188.645585934
 20
156.2557315669
 30
0.0
 11
188.645585934
 21
132.2751586099
 31
0.0
  0
LINE
  5
192
330
18B
100
AcDbEntity
  8
0
  6
Continuous
 62
     7
370
     0
100
AcDbLine
 10
150.945585934
 20
133.2751586099
 30
0.0
 11
188.645585934
 21
133.2751586099
 31
0.0
  0
MTEXT
  5
193
330
18B
100
AcDbEntity
  8
0
  6
Continuous
 62
     7
370
     0
100
AcDbMText
 10
165.2698914035
 20
137.7868955245
 30
0.1
 40
3.5
 41
0.0
 71
     1
 72
     1
  1
37.7
  7
SLDTEXTSTYLE0
 73
     1
 44
1.0
  0
ENDBLK
  5
18D
330
18B
100
AcDbEntity
  8
0
100
AcDbBlockEnd
  0
BLOCK
  5
196
330
195
100
AcDbEntity
  8
0
100
AcDbBlockBegin
  2
_D_8
 70
     0
 10
0.0
 20
0.0
 30
0.0
  3
_D_8
  1

  0
INSERT
  5
198
330
195
100
AcDbEntity
  8
0
  6
Continuous
 62
     7
370
     0
100
AcDbBlockReference
  2
_DOT
 10
179.145585934
 20
234.7158831457
 30
0.1
 41
3.0
 42
3.0
 50
360.0
  0
SOLID
  5
199
330
195
100
AcDbEntity
  8
0
  6
Continuous
 62
     7
370
     0
100
AcDbTrace
 10
188.645585934
 20
234.7158831457
 30
0.0
 11
190.645585934
 21
233.9658831457
 31
0.0
 12
190.645585934
 22
235.4658831457
 32
0.0
 13
190.645585934
 23
235.4658831457
 33
0.0
  0
LINE
  5
19A
330
195
100
AcDbEntity
  8
0
  6
Continuous
 62
     7
370
     0
100
AcDbLine
 10
179.145585934
 20
225.6218825874
 30
0.0
 11
179.145585934
 21
235.7158831457
 31
0.0
  0
LINE
  5
19B
330
195
100
AcDbEntity
  8
0
  6
Continuous
 62
     7
370
     0
100
AcDbLine
 10
188.645585934
 20
194.0557315669
 30
0.0
 11
188.645585934
 21
235.7158831457
 31
0.0
  0
LINE
  5
19C
330
195
100
AcDbEntity
  8
0
  6
Continuous
 62
     7
370
     0
100
AcDbLine
 10
179.145585934
 20
234.7158831457
 30
0.0
 11
172.795585934
 21
234.7158831457
 31
0.0
  0
LINE
  5
19D
330
195
100
AcDbEntity
  8
0
  6
Continuous
 62
     7
370
     0
100
AcDbLine
 10
179.145585934
 20
234.7158831457
 30
0.0
 11
188.645585934
 21
234.7158831457
 31
0.0
  0
LINE
  5
19E
330
195
100
AcDbEntity
  8
0
  6
Continuous
 62
     7
370
     0
100
AcDbLine
 10
188.645585934
 20
234.7158831457
 30
0.0
 11
191.645585934
 21
234.7158831457
 31
0.0
  0
MTEXT
  5
19F
330
195
100
AcDbEntity
  8
0
  6
Continuous
 62
     7
370
     0
100
AcDbMText
 10
180.6629471167
 20
239.2276200603
 30
0.1
 40
3.5
 41
0.0
 71
     1
 72
     1
  1
9.5
  7
SLDTEXTSTYLE0
 73
     1
 44
1.0
  0
ENDBLK
  5
197
330
195
100
AcDbEntity
  8
0
100
AcDbBlockEnd
  0
BLOCK
  5
1A2
330
1A1
100
AcDbEntity
  8
0
100
AcDbBlockBegin
  2
_D_9
 70
     0
 10
0.0
 20
0.0
 30
0.0
  3
_D_9
  1

  0
SOLID
  5
1A4
330
1A1
100
AcDbEntity
  8
0
  6
Continuous
 62
     7
370
     0
100
AcDbTrace
 10
195.6673362111
 20
224.7108823302
 30
0.0
 11
194.9173362111
 21
222.7108823302
 31
0.0
 12
196.4173362111
 22
222.7108823302
 32
0.0
 13
196.4173362111
 23
222.7108823302
 33
0.0
  0
SOLID
  5
1A5
330
1A1
100
AcDbEntity
  8
0
  6
Continuous
 62
     7
370
     0
100
AcDbTrace
 10
195.6673362111
 20
140.3557315669
 30
0.0
 11
196.4173362111
 21
142.3557315669
 31
0.0
 12
194.9173362111
 22
142.3557315669
 32
0.0
 13
194.9173362111
 23
142.3557315669
 33
0.0
  0
LINE
  5
1A6
330
1A1
100
AcDbEntity
  8
0
  6
Continuous
 62
     7
370
     0
100
AcDbLine
 10
181.2047429339
 20
224.7108823302
 30
0.0
 11
196.6673362111
 21
224.7108823302
 31
0.0
  0
LINE
  5
1A7
330
1A1
100
AcDbEntity
  8
0
  6
Continuous
 62
     7
370
     0
100
AcDbLine
 10
155.933502886
 20
140.3557315669
 30
0.0
 11
196.6673362111
 21
140.3557315669
 31
0.0
  0
LINE
  5
1A8
330
1A1
100
AcDbEntity
  8
0
  6
Continuous
 62
     7
370
     0
100
AcDbLine
 10
195.6673362111
 20
224.7108823302
 30
0.0
 11
195.6673362111
 21
140.3557315669
 31
0.0
  0
MTEXT
  5
1A9
330
1A1
100
AcDbEntity
  8
0
  6
Continuous
 62
     7
370
     0
100
AcDbMText
 10
191.1555992965
 20
178.0076124181
 30
0.1
 40
3.5
 41
0.0
 71
     1
 72
     1
  1
84.4
  7
SLDTEXTSTYLE0
 11
-1.770233605404514E-14
 21
1.0
 31
0.0
 73
     1
 44
1.0
  0
ENDBLK
  5
1A3
330
1A1
100
AcDbEntity
  8
0
100
AcDbBlockEnd
  0
BLOCK
  5
1AB
330
1AA
100
AcDbEntity
  8
0
100
AcDbBlockBegin
  2
SW_NOTE_0
 70
     0
 10
0.0
 20
0.0
 30
0.0
  3
SW_NOTE_0
  1

  0
LINE
  5
1AD
330
1AA
100
AcDbEntity
  8
0
  6
Continuous
 62
     0
370
     0
100
AcDbLine
 10
-19.6951934349
 20
0.3435404455
 30
0.0
 11
0.0
 21
0.3435404455
 31
0.0
  0
LINE
  5
1AE
330
1AA
100
AcDbEntity
  8
0
  6
Continuous
 62
     0
370
     0
100
AcDbLine
 10
0.0
 20
0.3435404455
 30
0.0
 11
-19.6951934349
 21
0.3435404455
 31
0.0
  0
LINE
  5
1AF
330
1AA
100
AcDbEntity
  8
0
  6
Continuous
 62
     0
370
     0
100
AcDbLine
 10
-19.6951934349
 20
0.3435404455
 30
0.0
 11
0.0
 21
0.3435404455
 31
0.0
  0
LINE
  5
1B0
330
1AA
100
AcDbEntity
  8
0
  6
Continuous
 62
     0
370
     0
100
AcDbLine
 10
0.0
 20
0.3435404455
 30
0.0
 11
-19.6951934349
 21
0.3435404455
 31
0.0
  0
LINE
  5
1B1
330
1AA
100
AcDbEntity
  8
0
  6
Continuous
 62
     0
370
     0
100
AcDbLine
 10
-19.6951934349
 20
0.3435404455
 30
0.0
 11
0.0
 21
0.3435404455
 31
0.0
  0
LINE
  5
1B2
330
1AA
100
AcDbEntity
  8
0
  6
Continuous
 62
     0
370
     0
100
AcDbLine
 10
0.0
 20
0.3435404455
 30
0.0
 11
-19.6951934349
 21
0.3435404455
 31
0.0
  0
MTEXT
  5
1B3
330
1AA
100
AcDbEntity
  8
0
  6
Continuous
 62
     0
370
     0
100
AcDbMText
 10
-19.626347864
 20
4.5199049222
 30
0.0
 40
3.5
 41
0.0
 71
     1
 72
     1
  1
カット配管
  7
SLDTEXTSTYLE0
 73
     1
 44
1.0
  0
ENDBLK
  5
1AC
330
1AA
100
AcDbEntity
  8
0
100
AcDbBlockEnd
  0
BLOCK
  5
1B8
330
1B7
100
AcDbEntity
  8
0
100
AcDbBlockBegin
  2
SW_NOTE_1
 70
     0
 10
0.0
 20
0.0
 30
0.0
  3
SW_NOTE_1
  1

  0
LINE
  5
1BA
330
1B7
100
AcDbEntity
  8
0
  6
Continuous
 62
     0
370
     0
100
AcDbLine
 10
-0.0317274134
 20
0.313514797
 30
0.0
 11
17.4360334306
 21
0.313514797
 31
0.0
  0
LINE
  5
1BB
330
1B7
100
AcDbEntity
  8
0
  6
Continuous
 62
     0
370
     0
100
AcDbLine
 10
17.4360334306
 20
0.313514797
 30
0.0
 11
-0.0317274134
 21
0.313514797
 31
0.0
  0
LINE
  5
1BC
330
1B7
100
AcDbEntity
  8
0
  6
Continuous
 62
     0
370
     0
100
AcDbLine
 10
-0.0317274134
 20
0.313514797
 30
0.0
 11
17.4360334306
 21
0.313514797
 31
0.0
  0
LINE
  5
1BD
330
1B7
100
AcDbEntity
  8
0
  6
Continuous
 62
     0
370
     0
100
AcDbLine
 10
17.4360334306
 20
0.313514797
 30
0.0
 11
-0.0317274134
 21
0.313514797
 31
0.0
  0
LINE
  5
1BE
330
1B7
100
AcDbEntity
  8
0
  6
Continuous
 62
     0
370
     0
100
AcDbLine
 10
-0.0317274134
 20
0.313514797
 30
0.0
 11
17.4360334306
 21
0.313514797
 31
0.0
  0
LINE
  5
1BF
330
1B7
100
AcDbEntity
  8
0
  6
Continuous
 62
     0
370
     0
100
AcDbLine
 10
17.4360334306
 20
0.313514797
 30
0.0
 11
-0.0317274134
 21
0.313514797
 31
0.0
  0
MTEXT
  5
1C0
330
1B7
100
AcDbEntity
  8
0
  6
Continuous
 62
     0
370
     0
100
AcDbMText
 10
0.0
 20
4.5117370892
 30
0.0
 40
3.5
 41
0.0
 71
     1
 72
     1
  1
プル配管
  7
SLDTEXTSTYLE0
 73
     1
 44
1.0
  0
ENDBLK
  5
1B9
330
1B7
100
AcDbEntity
  8
0
100
AcDbBlockEnd
  0
BLOCK
  5
279
330
278
100
AcDbEntity
  8
0
100
AcDbBlockBegin
  2
_D_10
 70
     0
 10
0.0
 20
0.0
 30
0.0
  3
_D_10
  1

  0
SOLID
  5
27B
330
278
100
AcDbEntity
  8
0
  6
Continuous
 62
     7
370
     0
100
AcDbTrace
 10
31.746113508
 20
130.3557315669
 30
0.0
 11
33.746113508
 21
129.6057315669
 31
0.0
 12
33.746113508
 22
131.1057315669
 32
0.0
 13
33.746113508
 23
131.1057315669
 33
0.0
  0
SOLID
  5
27C
330
278
100
AcDbEntity
  8
0
  6
Continuous
 62
     7
370
     0
100
AcDbTrace
 10
59.746113508
 20
130.3557315669
 30
0.0
 11
57.746113508
 21
131.1057315669
 31
0.0
 12
57.746113508
 22
129.6057315669
 32
0.0
 13
57.746113508
 23
129.6057315669
 33
0.0
  0
LINE
  5
27D
330
278
100
AcDbEntity
  8
0
  6
Continuous
 62
     7
370
     0
100
AcDbLine
 10
31.746113508
 20
139.3557315669
 30
0.0
 11
31.746113508
 21
129.3557315669
 31
0.0
  0
LINE
  5
27E
330
278
100
AcDbEntity
  8
0
  6
Continuous
 62
     7
370
     0
100
AcDbLine
 10
59.746113508
 20
139.3557315669
 30
0.0
 11
59.746113508
 21
129.3557315669
 31
0.0
  0
LINE
  5
27F
330
278
100
AcDbEntity
  8
0
  6
Continuous
 62
     7
370
     0
100
AcDbLine
 10
31.746113508
 20
130.3557315669
 30
0.0
 11
59.746113508
 21
130.3557315669
 31
0.0
  0
MTEXT
  5
280
330
278
100
AcDbEntity
  8
0
  6
Continuous
 62
     7
370
     0
100
AcDbMText
 10
43.1600023144
 20
134.8674684815
 30
-35.4313718718
 40
3.5
 41
0.0
 71
     1
 72
     1
  1
28
  7
SLDTEXTSTYLE0
 73
     1
 44
1.0
  0
ENDBLK
  5
27A
330
278
100
AcDbEntity
  8
0
100
AcDbBlockEnd
  0
BLOCK
  5
283
330
282
100
AcDbEntity
  8
0
100
AcDbBlockBegin
  2
_D_11
 70
     0
 10
0.0
 20
0.0
 30
0.0
  3
_D_11
  1

  0
SOLID
  5
285
330
282
100
AcDbEntity
  8
0
  6
Continuous
 62
     7
370
     0
100
AcDbTrace
 10
66.6466923589
 20
181.0557315669
 30
0.0
 11
65.8966923589
 21
179.0557315669
 31
0.0
 12
67.3966923589
 22
179.0557315669
 32
0.0
 13
67.3966923589
 23
179.0557315669
 33
0.0
  0
SOLID
  5
286
330
282
100
AcDbEntity
  8
0
  6
Continuous
 62
     7
370
     0
100
AcDbTrace
 10
66.6466923589
 20
140.3557315669
 30
0.0
 11
67.3966923589
 21
142.3557315669
 31
0.0
 12
65.8966923589
 22
142.3557315669
 32
0.0
 13
65.8966923589
 23
142.3557315669
 33
0.0
  0
LINE
  5
287
330
282
100
AcDbEntity
  8
0
  6
Continuous
 62
     7
370
     0
100
AcDbLine
 10
56.746113508
 20
181.0557315669
 30
0.0
 11
67.6466923589
 21
181.0557315669
 31
0.0
  0
LINE
  5
288
330
282
100
AcDbEntity
  8
0
  6
Continuous
 62
     7
370
     0
100
AcDbLine
 10
60.746113508
 20
140.3557315669
 30
0.0
 11
67.6466923589
 21
140.3557315669
 31
0.0
  0
LINE
  5
289
330
282
100
AcDbEntity
  8
0
  6
Continuous
 62
     7
370
     0
100
AcDbLine
 10
66.6466923589
 20
181.0557315669
 30
0.0
 11
66.6466923589
 21
140.3557315669
 31
0.0
  0
MTEXT
  5
28A
330
282
100
AcDbEntity
  8
0
  6
Continuous
 62
     7
370
     0
100
AcDbMText
 10
62.1349554443
 20
152.4935789758
 30
-35.4313718718
 40
3.5
 41
0.0
 71
     1
 72
     1
  1
40.7
  7
SLDTEXTSTYLE0
 11
-7.044195017643634E-15
 21
1.0
 31
0.0
 73
     1
 44
1.0
  0
ENDBLK
  5
284
330
282
100
AcDbEntity
  8
0
100
AcDbBlockEnd
  0
BLOCK
  5
28D
330
28C
100
AcDbEntity
  8
0
100
AcDbBlockBegin
  2
_D_12
 70
     0
 10
0.0
 20
0.0
 30
0.0
  3
_D_12
  1

  0
SOLID
  5
28F
330
28C
100
AcDbEntity
  8
0
  6
Continuous
 62
     7
370
     0
100
AcDbTrace
 10
73.6140954784
 20
193.0557315669
 30
0.0
 11
72.8640954784
 21
191.0557315669
 31
0.0
 12
74.3640954784
 22
191.0557315669
 32
0.0
 13
74.3640954784
 23
191.0557315669
 33
0.0
  0
SOLID
  5
290
330
28C
100
AcDbEntity
  8
0
  6
Continuous
 62
     7
370
     0
100
AcDbTrace
 10
73.6140954784
 20
140.3557315669
 30
0.0
 11
74.3640954784
 21
142.3557315669
 31
0.0
 12
72.8640954784
 22
142.3557315669
 32
0.0
 13
72.8640954784
 23
142.3557315669
 33
0.0
  0
LINE
  5
291
330
28C
100
AcDbEntity
  8
0
  6
Continuous
 62
     7
370
     0
100
AcDbLine
 10
57.2414835738
 20
193.0557315669
 30
0.0
 11
74.6140954784
 21
193.0557315669
 31
0.0
  0
LINE
  5
292
330
28C
100
AcDbEntity
  8
0
  6
Continuous
 62
     7
370
     0
100
AcDbLine
 10
60.746113508
 20
140.3557315669
 30
0.0
 11
74.6140954784
 21
140.3557315669
 31
0.0
  0
LINE
  5
293
330
28C
100
AcDbEntity
  8
0
  6
Continuous
 62
     7
370
     0
100
AcDbLine
 10
73.6140954784
 20
193.0557315669
 30
0.0
 11
73.6140954784
 21
140.3557315669
 31
0.0
  0
MTEXT
  5
294
330
28C
100
AcDbEntity
  8
0
  6
Continuous
 62
     7
370
     0
100
AcDbMText
 10
69.1023585638
 20
156.4072029481
 30
-35.4313718718
 40
3.5
 41
0.0
 71
     1
 72
     1
  1
52.7
  7
SLDTEXTSTYLE0
 11
-7.044195017643634E-15
 21
1.0
 31
0.0
 73
     1
 44
1.0
  0
ENDBLK
  5
28E
330
28C
100
AcDbEntity
  8
0
100
AcDbBlockEnd
  0
BLOCK
  5
297
330
296
100
AcDbEntity
  8
0
100
AcDbBlockBegin
  2
_D_13
 70
     0
 10
0.0
 20
0.0
 30
0.0
  3
_D_13
  1

  0
ARC
  5
299
330
296
100
AcDbEntity
  8
0
  6
Continuous
 62
     7
370
     0
100
AcDbCircle
 10
70.8359704828
 20
209.8693627124
 30
0.0
 40
6.2120763399956
100
AcDbArc
 50
243.4349488229
 51
296.5650511771
  0
ARC
  5
29A
330
296
100
AcDbEntity
  8
0
  6
Continuous
 62
     7
370
     0
100
AcDbCircle
 10
70.8359704828
 20
207.8082517912
 30
0.0
 40
6.2120763399956
100
AcDbArc
 50
63.4349488229
 51
116.5650511771
  0
SOLID
  5
29B
330
296
100
AcDbEntity
  8
0
  6
Continuous
 62
     7
370
     0
100
AcDbTrace
 10
73.6140954784
 20
193.0557315669
 30
0.0
 11
74.3640954784
 21
195.0557315669
 31
0.0
 12
72.8640954784
 22
195.0557315669
 32
0.0
 13
72.8640954784
 23
195.0557315669
 33
0.0
  0
SOLID
  5
29C
330
296
100
AcDbEntity
  8
0
  6
Continuous
 62
     7
370
     0
100
AcDbTrace
 10
73.6140954784
 20
224.6218825874
 30
0.0
 11
72.8640954784
 21
222.6218825874
 31
0.0
 12
74.3640954784
 22
222.6218825874
 32
0.0
 13
74.3640954784
 23
222.6218825874
 33
0.0
  0
LINE
  5
29D
330
296
100
AcDbEntity
  8
0
  6
Continuous
 62
     7
370
     0
100
AcDbLine
 10
57.2414835738
 20
193.0557315669
 30
0.0
 11
74.6140954784
 21
193.0557315669
 31
0.0
  0
LINE
  5
29E
330
296
100
AcDbEntity
  8
0
  6
Continuous
 62
     7
370
     0
100
AcDbLine
 10
50.9907620865
 20
224.6218825874
 30
0.0
 11
74.6140954784
 21
224.6218825874
 31
0.0
  0
LINE
  5
29F
330
296
100
AcDbEntity
  8
0
  6
Continuous
 62
     7
370
     0
100
AcDbLine
 10
73.6140954784
 20
193.0557315669
 30
0.0
 11
73.6140954784
 21
224.6218825874
 31
0.0
  0
MTEXT
  5
2A0
330
296
100
AcDbEntity
  8
0
  6
Continuous
 62
     7
370
     0
100
AcDbMText
 10
69.1023585638
 20
204.3131127213
 30
-35.4313718718
 40
3.5
 41
0.0
 71
     1
 72
     1
  1
31.6
  7
SLDTEXTSTYLE0
 11
6.123233995736766E-17
 21
1.0
 31
0.0
 73
     1
 44
1.0
  0
ENDBLK
  5
298
330
296
100
AcDbEntity
  8
0
100
AcDbBlockEnd
  0
BLOCK
  5
2A3
330
2A2
100
AcDbEntity
  8
0
100
AcDbBlockBegin
  2
_D_14
 70
     0
 10
0.0
 20
0.0
 30
0.0
  3
_D_14
  1

  0
ARC
  5
2A5
330
2A2
100
AcDbEntity
  8
0
  6
Continuous
 62
     7
370
     0
100
AcDbCircle
 10
48.7160319036
 20
257.6336700933
 30
0.0
 40
6.212076339995633
100
AcDbArc
 50
153.4352210157
 51
206.5653233699
  0
ARC
  5
2A6
330
2A2
100
AcDbEntity
  8
0
  6
Continuous
 62
     7
370
     0
100
AcDbCircle
 10
42.7757543086
 20
257.633641873
 30
0.0
 40
6.212076339995652
100
AcDbArc
 50
333.4352210157
 51
26.5653233699
  0
SOLID
  5
2A7
330
2A2
100
AcDbEntity
  8
0
  6
Continuous
 62
     7
370
     0
100
AcDbTrace
 10
35.2498730453
 20
254.8554811246
 30
0.0
 11
37.2498766082
 21
254.1054906259
 31
0.0
 12
37.2498694822
 22
255.6054906259
 32
0.0
 13
37.2498694822
 23
255.6054906259
 33
0.0
  0
SOLID
  5
2A8
330
2A2
100
AcDbEntity
  8
0
  6
Continuous
 62
     7
370
     0
100
AcDbTrace
 10
56.2419396793
 20
254.8555808508
 30
0.0
 11
54.2419361163
 21
255.6055713494
 31
0.0
 12
54.2419432423
 22
254.1055713494
 32
0.0
 13
54.2419432423
 23
254.1055713494
 33
0.0
  0
LINE
  5
2A9
330
2A2
100
AcDbEntity
  8
0
  6
Continuous
 62
     7
370
     0
100
AcDbLine
 10
35.250079896
 20
211.3140269144
 30
0.0
 11
35.2498682946
 21
255.8554811246
 31
0.0
  0
LINE
  5
2AA
330
2A2
100
AcDbEntity
  8
0
  6
Continuous
 62
     7
370
     0
100
AcDbLine
 10
56.2421465299
 20
211.3141266406
 30
0.0
 11
56.2419349286
 21
255.8555808507
 31
0.0
  0
LINE
  5
2AB
330
2A2
100
AcDbEntity
  8
0
  6
Continuous
 62
     7
370
     0
100
AcDbLine
 10
35.2498730453
 20
254.8554811246
 30
0.0
 11
56.2419396793
 21
254.8555808508
 31
0.0
  0
MTEXT
  5
2AC
330
2A2
100
AcDbEntity
  8
0
  6
Continuous
 62
     7
370
     0
100
AcDbMText
 10
43.1597736768
 20
259.3672556164
 30
-35.4313718718
 40
3.5
 41
0.0
 71
     1
 72
     1
  1
21
  7
SLDTEXTSTYLE0
 11
0.9999999999887156
 21
4.750660981859362E-6
 31
0.0
 73
     1
 44
1.0
  0
ENDBLK
  5
2A4
330
2A2
100
AcDbEntity
  8
0
100
AcDbBlockEnd
  0
BLOCK
  5
2B0
330
2AF
100
AcDbEntity
  8
0
100
AcDbBlockBegin
  2
_D_15
 70
     0
 10
0.0
 20
0.0
 30
0.0
  3
_D_15
  1

  0
SOLID
  5
2B2
330
2AF
100
AcDbEntity
  8
0
  6
Continuous
 62
     7
370
     0
100
AcDbTrace
 10
42.4974834494
 20
240.7158843325
 30
0.0
 11
40.4974834974
 21
241.4658844603
 31
0.0
 12
40.4974834015
 22
239.9658844603
 32
0.0
 13
40.4974834015
 23
239.9658844603
 33
0.0
  0
SOLID
  5
2B3
330
2AF
100
AcDbEntity
  8
0
  6
Continuous
 62
     7
370
     0
100
AcDbTrace
 10
48.994744565
 20
240.7158839172
 30
0.0
 11
50.9947445171
 21
239.9658837894
 31
0.0
 12
50.9947446129
 22
241.4658837894
 32
0.0
 13
50.9947446129
 23
241.4658837894
 33
0.0
  0
LINE
  5
2B4
330
2AF
100
AcDbEntity
  8
0
  6
Continuous
 62
     7
370
     0
100
AcDbLine
 10
42.4974824904
 20
225.7108823638
 30
0.0
 11
42.4974835133
 21
241.7158843325
 31
0.0
  0
LINE
  5
2B5
330
2AF
100
AcDbEntity
  8
0
  6
Continuous
 62
     7
370
     0
100
AcDbLine
 10
48.994743606
 20
225.7108819485
 30
0.0
 11
48.9947446289
 21
241.7158839172
 31
0.0
  0
LINE
  5
2B6
330
2AF
100
AcDbEntity
  8
0
  6
Continuous
 62
     7
370
     0
100
AcDbLine
 10
42.4974834494
 20
240.7158843325
 30
0.0
 11
39.4974834494
 21
240.7158845242
 31
0.0
  0
LINE
  5
2B7
330
2AF
100
AcDbEntity
  8
0
  6
Continuous
 62
     7
370
     0
100
AcDbLine
 10
42.4974834494
 20
240.7158843325
 30
0.0
 11
48.994744565
 21
240.7158839172
 31
0.0
  0
LINE
  5
2B8
330
2AF
100
AcDbEntity
  8
0
  6
Continuous
 62
     7
370
     0
100
AcDbLine
 10
48.994744565
 20
240.7158839172
 30
0.0
 11
64.2984032696
 21
240.7158829391
 31
0.0
  0
MTEXT
  5
2B9
330
2AF
100
AcDbEntity
  8
0
  6
Continuous
 62
     7
370
     0
100
AcDbMText
 10
57.8331259234
 20
245.2276202669
 30
-35.4313718718
 40
3.5
 41
0.0
 71
     1
 72
     1
  1
6.5
  7
SLDTEXTSTYLE0
 11
0.999999999999998
 21
-6.391402898110767E-8
 31
0.0
 73
     1
 44
1.0
  0
ENDBLK
  5
2B1
330
2AF
100
AcDbEntity
  8
0
100
AcDbBlockEnd
  0
BLOCK
  5
2BC
330
2BB
100
AcDbEntity
  8
0
100
AcDbBlockBegin
  2
_D_16
 70
     0
 10
0.0
 20
0.0
 30
0.0
  3
_D_16
  1

  0
SOLID
  5
2BE
330
2BB
100
AcDbEntity
  8
0
  6
Continuous
 62
     7
370
     0
100
AcDbTrace
 10
27.9515387858
 20
188.3557315669
 30
0.0
 11
27.2015387858
 21
186.3557315669
 31
0.0
 12
28.7015387858
 22
186.3557315669
 32
0.0
 13
28.7015387858
 23
186.3557315669
 33
0.0
  0
SOLID
  5
2BF
330
2BB
100
AcDbEntity
  8
0
  6
Continuous
 62
     7
370
     0
100
AcDbTrace
 10
27.9515387858
 20
140.3557315669
 30
0.0
 11
28.7015387858
 21
142.3557315669
 31
0.0
 12
27.2015387858
 22
142.3557315669
 32
0.0
 13
27.2015387858
 23
142.3557315669
 33
0.0
  0
LINE
  5
2C0
330
2BB
100
AcDbEntity
  8
0
  6
Continuous
 62
     7
370
     0
100
AcDbLine
 10
36.646113508
 20
188.3557315669
 30
0.0
 11
26.9515387858
 21
188.3557315669
 31
0.0
  0
LINE
  5
2C1
330
2BB
100
AcDbEntity
  8
0
  6
Continuous
 62
     7
370
     0
100
AcDbLine
 10
30.746113508
 20
140.3557315669
 30
0.0
 11
26.9515387858
 21
140.3557315669
 31
0.0
  0
LINE
  5
2C2
330
2BB
100
AcDbEntity
  8
0
  6
Continuous
 62
     7
370
     0
100
AcDbLine
 10
27.9515387858
 20
188.3557315669
 30
0.0
 11
27.9515387858
 21
140.3557315669
 31
0.0
  0
MTEXT
  5
2C3
330
2BB
100
AcDbEntity
  8
0
  6
Continuous
 62
     7
370
     0
100
AcDbMText
 10
23.4398018712
 20
158.346786285
 30
-35.4313718718
 40
3.5
 41
0.0
 71
     1
 72
     1
  1
48
  7
SLDTEXTSTYLE0
 11
-7.044195017643634E-15
 21
1.0
 31
0.0
 73
     1
 44
1.0
  0
ENDBLK
  5
2BD
330
2BB
100
AcDbEntity
  8
0
100
AcDbBlockEnd
  0
BLOCK
  5
2C5
330
2C4
100
AcDbEntity
  8
0
100
AcDbBlockBegin
  2
SW_CENTERMARKSYMBOL_0
 70
     0
 10
0.0
 20
0.0
 30
0.0
  3
SW_CENTERMARKSYMBOL_0
  1

  0
LINE
  5
2C7
330
2C4
100
AcDbEntity
  8
0
  6
Continuous
 62
     0
370
     0
100
AcDbLine
 10
0.0
 20
0.0
 30
0.0
 11
0.0
 21
2.5
 31
0.0
  0
LINE
  5
2C8
330
2C4
100
AcDbEntity
  8
0
  6
Continuous
 62
     0
370
     0
100
AcDbLine
 10
0.0
 20
0.0
 30
0.0
 11
-2.5
 21
0.0
 31
0.0
  0
LINE
  5
2C9
330
2C4
100
AcDbEntity
  8
0
  6
Continuous
 62
     0
370
     0
100
AcDbLine
 10
0.0
 20
0.0
 30
0.0
 11
0.0
 21
-2.5
 31
0.0
  0
LINE
  5
2CA
330
2C4
100
AcDbEntity
  8
0
  6
Continuous
 62
     0
370
     0
100
AcDbLine
 10
0.0
 20
0.0
 30
0.0
 11
2.5
 21
0.0
 31
0.0
  0
LINE
  5
2CB
330
2C4
100
AcDbEntity
  8
0
  6
Continuous
 62
     0
370
     0
100
AcDbLine
 10
0.0
 20
5.0
 30
0.0
 11
0.0
 21
5.1
 31
0.0
  0
LINE
  5
2CC
330
2C4
100
AcDbEntity
  8
0
  6
Continuous
 62
     0
370
     0
100
AcDbLine
 10
-5.0
 20
0.0
 30
0.0
 11
-5.1
 21
0.0
 31
0.0
  0
LINE
  5
2CD
330
2C4
100
AcDbEntity
  8
0
  6
Continuous
 62
     0
370
     0
100
AcDbLine
 10
0.0
 20
-5.0
 30
0.0
 11
0.0
 21
-5.1
 31
0.0
  0
LINE
  5
2CE
330
2C4
100
AcDbEntity
  8
0
  6
Continuous
 62
     0
370
     0
100
AcDbLine
 10
5.0
 20
0.0
 30
0.0
 11
5.1
 21
0.0
 31
0.0
  0
ENDBLK
  5
2C6
330
2C4
100
AcDbEntity
  8
0
100
AcDbBlockEnd
  0
BLOCK
  5
2D1
330
2D0
100
AcDbEntity
  8
0
100
AcDbBlockBegin
  2
SW_CENTERMARKSYMBOL_1
 70
     0
 10
0.0
 20
0.0
 30
0.0
  3
SW_CENTERMARKSYMBOL_1
  1

  0
LINE
  5
2D3
330
2D0
100
AcDbEntity
  8
0
  6
Continuous
 62
     0
370
     0
100
AcDbLine
 10
0.0
 20
0.0
 30
0.0
 11
0.0
 21
2.5
 31
0.0
  0
LINE
  5
2D4
330
2D0
100
AcDbEntity
  8
0
  6
Continuous
 62
     0
370
     0
100
AcDbLine
 10
0.0
 20
0.0
 30
0.0
 11
-2.5
 21
0.0
 31
0.0
  0
LINE
  5
2D5
330
2D0
100
AcDbEntity
  8
0
  6
Continuous
 62
     0
370
     0
100
AcDbLine
 10
0.0
 20
0.0
 30
0.0
 11
0.0
 21
-2.5
 31
0.0
  0
LINE
  5
2D6
330
2D0
100
AcDbEntity
  8
0
  6
Continuous
 62
     0
370
     0
100
AcDbLine
 10
0.0
 20
0.0
 30
0.0
 11
2.5
 21
0.0
 31
0.0
  0
LINE
  5
2D7
330
2D0
100
AcDbEntity
  8
0
  6
Continuous
 62
     0
370
     0
100
AcDbLine
 10
0.0
 20
5.0
 30
0.0
 11
0.0
 21
5.1
 31
0.0
  0
LINE
  5
2D8
330
2D0
100
AcDbEntity
  8
0
  6
Continuous
 62
     0
370
     0
100
AcDbLine
 10
-5.0
 20
0.0
 30
0.0
 11
-5.1
 21
0.0
 31
0.0
  0
LINE
  5
2D9
330
2D0
100
AcDbEntity
  8
0
  6
Continuous
 62
     0
370
     0
100
AcDbLine
 10
0.0
 20
-5.0
 30
0.0
 11
0.0
 21
-5.1
 31
0.0
  0
LINE
  5
2DA
330
2D0
100
AcDbEntity
  8
0
  6
Continuous
 62
     0
370
     0
100
AcDbLine
 10
5.0
 20
0.0
 30
0.0
 11
5.1
 21
0.0
 31
0.0
  0
ENDBLK
  5
2D2
330
2D0
100
AcDbEntity
  8
0
100
AcDbBlockEnd
  0
BLOCK
  5
2DD
330
2DC
100
AcDbEntity
  8
0
100
AcDbBlockBegin
  2
SW_CENTERMARKSYMBOL_2
 70
     0
 10
0.0
 20
0.0
 30
0.0
  3
SW_CENTERMARKSYMBOL_2
  1

  0
LINE
  5
2DF
330
2DC
100
AcDbEntity
  8
0
  6
Continuous
 62
     0
370
     0
100
AcDbLine
 10
0.0
 20
0.0
 30
0.0
 11
0.0
 21
2.5
 31
0.0
  0
LINE
  5
2E0
330
2DC
100
AcDbEntity
  8
0
  6
Continuous
 62
     0
370
     0
100
AcDbLine
 10
0.0
 20
0.0
 30
0.0
 11
-2.5
 21
0.0
 31
0.0
  0
LINE
  5
2E1
330
2DC
100
AcDbEntity
  8
0
  6
Continuous
 62
     0
370
     0
100
AcDbLine
 10
0.0
 20
0.0
 30
0.0
 11
0.0
 21
-2.5
 31
0.0
  0
LINE
  5
2E2
330
2DC
100
AcDbEntity
  8
0
  6
Continuous
 62
     0
370
     0
100
AcDbLine
 10
0.0
 20
0.0
 30
0.0
 11
2.5
 21
0.0
 31
0.0
  0
LINE
  5
2E3
330
2DC
100
AcDbEntity
  8
0
  6
Continuous
 62
     0
370
     0
100
AcDbLine
 10
0.0
 20
2.5
 30
0.0
 11
0.0
 21
4.5
 31
0.0
  0
LINE
  5
2E4
330
2DC
100
AcDbEntity
  8
0
  6
Continuous
 62
     0
370
     0
100
AcDbLine
 10
-2.5
 20
0.0
 30
0.0
 11
-4.5
 21
0.0
 31
0.0
  0
LINE
  5
2E5
330
2DC
100
AcDbEntity
  8
0
  6
Continuous
 62
     0
370
     0
100
AcDbLine
 10
0.0
 20
-2.5
 30
0.0
 11
0.0
 21
-4.5
 31
0.0
  0
LINE
  5
2E6
330
2DC
100
AcDbEntity
  8
0
  6
Continuous
 62
     0
370
     0
100
AcDbLine
 10
2.5
 20
0.0
 30
0.0
 11
4.5
 21
0.0
 31
0.0
  0
ENDBLK
  5
2DE
330
2DC
100
AcDbEntity
  8
0
100
AcDbBlockEnd
  0
BLOCK
  5
2E9
330
2E8
100
AcDbEntity
  8
0
100
AcDbBlockBegin
  2
SW_CENTERMARKSYMBOL_3
 70
     0
 10
0.0
 20
0.0
 30
0.0
  3
SW_CENTERMARKSYMBOL_3
  1

  0
LINE
  5
2EB
330
2E8
100
AcDbEntity
  8
0
  6
Continuous
 62
     0
370
     0
100
AcDbLine
 10
0.0
 20
0.0
 30
0.0
 11
0.0
 21
2.5
 31
0.0
  0
LINE
  5
2EC
330
2E8
100
AcDbEntity
  8
0
  6
Continuous
 62
     0
370
     0
100
AcDbLine
 10
0.0
 20
0.0
 30
0.0
 11
-2.5
 21
0.0
 31
0.0
  0
LINE
  5
2ED
330
2E8
100
AcDbEntity
  8
0
  6
Continuous
 62
     0
370
     0
100
AcDbLine
 10
0.0
 20
0.0
 30
0.0
 11
0.0
 21
-2.5
 31
0.0
  0
LINE
  5
2EE
330
2E8
100
AcDbEntity
  8
0
  6
Continuous
 62
     0
370
     0
100
AcDbLine
 10
0.0
 20
0.0
 30
0.0
 11
2.5
 21
0.0
 31
0.0
  0
LINE
  5
2EF
330
2E8
100
AcDbEntity
  8
0
  6
Continuous
 62
     0
370
     0
100
AcDbLine
 10
0.0
 20
5.0
 30
0.0
 11
0.0
 21
6.5
 31
0.0
  0
LINE
  5
2F0
330
2E8
100
AcDbEntity
  8
0
  6
Continuous
 62
     0
370
     0
100
AcDbLine
 10
-5.0
 20
0.0
 30
0.0
 11
-6.5
 21
0.0
 31
0.0
  0
LINE
  5
2F1
330
2E8
100
AcDbEntity
  8
0
  6
Continuous
 62
     0
370
     0
100
AcDbLine
 10
0.0
 20
-5.0
 30
0.0
 11
0.0
 21
-6.5233635281
 31
0.0
  0
LINE
  5
2F2
330
2E8
100
AcDbEntity
  8
0
  6
Continuous
 62
     0
370
     0
100
AcDbLine
 10
5.0
 20
0.0
 30
0.0
 11
6.5
 21
0.0
 31
0.0
  0
ENDBLK
  5
2EA
330
2E8
100
AcDbEntity
  8
0
100
AcDbBlockEnd
  0
BLOCK
  5
2F5
330
2F4
100
AcDbEntity
  8
0
100
AcDbBlockBegin
  2
SW_CENTERMARKSYMBOL_4
 70
     0
 10
0.0
 20
0.0
 30
0.0
  3
SW_CENTERMARKSYMBOL_4
  1

  0
LINE
  5
2F7
330
2F4
100
AcDbEntity
  8
0
  6
Continuous
 62
     0
370
     0
100
AcDbLine
 10
0.0
 20
0.0
 30
0.0
 11
0.0
 21
2.5
 31
0.0
  0
LINE
  5
2F8
330
2F4
100
AcDbEntity
  8
0
  6
Continuous
 62
     0
370
     0
100
AcDbLine
 10
0.0
 20
0.0
 30
0.0
 11
-2.5
 21
0.0
 31
0.0
  0
LINE
  5
2F9
330
2F4
100
AcDbEntity
  8
0
  6
Continuous
 62
     0
370
     0
100
AcDbLine
 10
0.0
 20
0.0
 30
0.0
 11
0.0
 21
-2.5
 31
0.0
  0
LINE
  5
2FA
330
2F4
100
AcDbEntity
  8
0
  6
Continuous
 62
     0
370
     0
100
AcDbLine
 10
0.0
 20
0.0
 30
0.0
 11
2.5
 21
0.0
 31
0.0
  0
LINE
  5
2FB
330
2F4
100
AcDbEntity
  8
0
  6
Continuous
 62
     0
370
     0
100
AcDbLine
 10
0.0
 20
5.0
 30
0.0
 11
0.0
 21
8.1
 31
0.0
  0
LINE
  5
2FC
330
2F4
100
AcDbEntity
  8
0
  6
Continuous
 62
     0
370
     0
100
AcDbLine
 10
-5.0
 20
0.0
 30
0.0
 11
-8.1
 21
0.0
 31
0.0
  0
LINE
  5
2FD
330
2F4
100
AcDbEntity
  8
0
  6
Continuous
 62
     0
370
     0
100
AcDbLine
 10
0.0
 20
-5.0
 30
0.0
 11
0.0
 21
-8.1644917693
 31
0.0
  0
LINE
  5
2FE
330
2F4
100
AcDbEntity
  8
0
  6
Continuous
 62
     0
370
     0
100
AcDbLine
 10
5.0
 20
0.0
 30
0.0
 11
8.1
 21
0.0
 31
0.0
  0
ENDBLK
  5
2F6
330
2F4
100
AcDbEntity
  8
0
100
AcDbBlockEnd
  0
BLOCK
  5
301
330
300
100
AcDbEntity
  8
0
100
AcDbBlockBegin
  2
SW_CENTERMARKSYMBOL_5
 70
     0
 10
0.0
 20
0.0
 30
0.0
  3
SW_CENTERMARKSYMBOL_5
  1

  0
LINE
  5
303
330
300
100
AcDbEntity
  8
0
  6
Continuous
 62
     0
370
     0
100
AcDbLine
 10
0.0
 20
0.0
 30
0.0
 11
0.0
 21
2.5
 31
0.0
  0
LINE
  5
304
330
300
100
AcDbEntity
  8
0
  6
Continuous
 62
     0
370
     0
100
AcDbLine
 10
0.0
 20
0.0
 30
0.0
 11
-2.5
 21
0.0
 31
0.0
  0
LINE
  5
305
330
300
100
AcDbEntity
  8
0
  6
Continuous
 62
     0
370
     0
100
AcDbLine
 10
0.0
 20
0.0
 30
0.0
 11
0.0
 21
-2.5
 31
0.0
  0
LINE
  5
306
330
300
100
AcDbEntity
  8
0
  6
Continuous
 62
     0
370
     0
100
AcDbLine
 10
0.0
 20
0.0
 30
0.0
 11
2.5
 21
0.0
 31
0.0
  0
LINE
  5
307
330
300
100
AcDbEntity
  8
0
  6
Continuous
 62
     0
370
     0
100
AcDbLine
 10
0.0
 20
5.0
 30
0.0
 11
0.0
 21
6.35
 31
0.0
  0
LINE
  5
308
330
300
100
AcDbEntity
  8
0
  6
Continuous
 62
     0
370
     0
100
AcDbLine
 10
-5.0
 20
0.0
 30
0.0
 11
-6.35
 21
0.0
 31
0.0
  0
LINE
  5
309
330
300
100
AcDbEntity
  8
0
  6
Continuous
 62
     0
370
     0
100
AcDbLine
 10
0.0
 20
-5.0
 30
0.0
 11
0.0
 21
-6.6805401387
 31
0.0
  0
LINE
  5
30A
330
300
100
AcDbEntity
  8
0
  6
Continuous
 62
     0
370
     0
100
AcDbLine
 10
5.0
 20
0.0
 30
0.0
 11
6.35
 21
0.0
 31
0.0
  0
ENDBLK
  5
302
330
300
100
AcDbEntity
  8
0
100
AcDbBlockEnd
  0
BLOCK
  5
38C
330
38B
100
AcDbEntity
  8
0
100
AcDbBlockBegin
  2
_D_17
 70
     0
 10
0.0
 20
0.0
 30
0.0
  3
_D_17
  1

  0
SOLID
  5
38E
330
38B
100
AcDbEntity
  8
0
  6
Continuous
 62
     7
370
     0
100
AcDbTrace
 10
108.445585934
 20
105.1503203108
 30
0.0
 11
110.445585934
 21
104.4003203108
 31
0.0
 12
110.445585934
 22
105.9003203108
 32
0.0
 13
110.445585934
 23
105.9003203108
 33
0.0
  0
SOLID
  5
38F
330
38B
100
AcDbEntity
  8
0
  6
Continuous
 62
     7
370
     0
100
AcDbTrace
 10
150.945585934
 20
105.1503203108
 30
0.0
 11
148.945585934
 21
105.9003203108
 31
0.0
 12
148.945585934
 22
104.4003203108
 32
0.0
 13
148.945585934
 23
104.4003203108
 33
0.0
  0
LINE
  5
390
330
38B
100
AcDbEntity
  8
0
  6
Continuous
 62
     7
370
     0
100
AcDbLine
 10
108.445585934
 20
95.3469494539
 30
0.0
 11
108.445585934
 21
106.1503203108
 31
0.0
  0
LINE
  5
391
330
38B
100
AcDbEntity
  8
0
  6
Continuous
 62
     7
370
     0
100
AcDbLine
 10
150.945585934
 20
95.4969494539
 30
0.0
 11
150.945585934
 21
106.1503203108
 31
0.0
  0
LINE
  5
392
330
38B
100
AcDbEntity
  8
0
  6
Continuous
 62
     7
370
     0
100
AcDbLine
 10
108.445585934
 20
105.1503203108
 30
0.0
 11
150.945585934
 21
105.1503203108
 31
0.0
  0
MTEXT
  5
393
330
38B
100
AcDbEntity
  8
0
  6
Continuous
 62
     7
370
     0
100
AcDbMText
 10
125.1698914036
 20
109.6620572253
 30
12.3035862266
 40
3.5
 41
0.0
 71
     1
 72
     1
  1
42.5
  7
SLDTEXTSTYLE0
 73
     1
 44
1.0
  0
ENDBLK
  5
38D
330
38B
100
AcDbEntity
  8
0
100
AcDbBlockEnd
  0
BLOCK
  5
396
330
395
100
AcDbEntity
  8
0
100
AcDbBlockBegin
  2
_D_18
 70
     0
 10
0.0
 20
0.0
 30
0.0
  3
_D_18
  1

  0
SOLID
  5
398
330
395
100
AcDbEntity
  8
0
  6
Continuous
 62
     7
370
     0
100
AcDbTrace
 10
140.945585934
 20
98.6201658444
 30
0.0
 11
138.945585934
 21
99.3701658444
 31
0.0
 12
138.945585934
 22
97.8701658444
 32
0.0
 13
138.945585934
 23
97.8701658444
 33
0.0
  0
SOLID
  5
399
330
395
100
AcDbEntity
  8
0
  6
Continuous
 62
     7
370
     0
100
AcDbTrace
 10
150.945585934
 20
98.6201658444
 30
0.0
 11
152.945585934
 21
97.8701658444
 31
0.0
 12
152.945585934
 22
99.3701658444
 32
0.0
 13
152.945585934
 23
99.3701658444
 33
0.0
  0
LINE
  5
39A
330
395
100
AcDbEntity
  8
0
  6
Continuous
 62
     7
370
     0
100
AcDbLine
 10
140.945585934
 20
95.4969494539
 30
0.0
 11
140.945585934
 21
99.6201658444
 31
0.0
  0
LINE
  5
39B
330
395
100
AcDbEntity
  8
0
  6
Continuous
 62
     7
370
     0
100
AcDbLine
 10
150.945585934
 20
95.4969494539
 30
0.0
 11
150.945585934
 21
99.6201658444
 31
0.0
  0
LINE
  5
39C
330
395
100
AcDbEntity
  8
0
  6
Continuous
 62
     7
370
     0
100
AcDbLine
 10
140.945585934
 20
98.6201658444
 30
0.0
 11
137.945585934
 21
98.6201658444
 31
0.0
  0
LINE
  5
39D
330
395
100
AcDbEntity
  8
0
  6
Continuous
 62
     7
370
     0
100
AcDbLine
 10
140.945585934
 20
98.6201658444
 30
0.0
 11
150.945585934
 21
98.6201658444
 31
0.0
  0
LINE
  5
39E
330
395
100
AcDbEntity
  8
0
  6
Continuous
 62
     7
370
     0
100
AcDbLine
 10
150.945585934
 20
98.6201658444
 30
0.0
 11
153.945585934
 21
98.6201658444
 31
0.0
  0
MTEXT
  5
39F
330
395
100
AcDbEntity
  8
0
  6
Continuous
 62
     7
370
     0
100
AcDbMText
 10
143.0847122865
 20
103.1319027589
 30
12.3035862266
 40
3.5
 41
0.0
 71
     1
 72
     1
  1
10
  7
SLDTEXTSTYLE0
 73
     1
 44
1.0
  0
ENDBLK
  5
397
330
395
100
AcDbEntity
  8
0
100
AcDbBlockEnd
  0
BLOCK
  5
3A2
330
3A1
100
AcDbEntity
  8
0
100
AcDbBlockBegin
  2
_D_19
 70
     0
 10
0.0
 20
0.0
 30
0.0
  3
_D_19
  1

  0
SOLID
  5
3A4
330
3A1
100
AcDbEntity
  8
0
  6
Continuous
 62
     7
370
     0
100
AcDbTrace
 10
150.945585934
 20
105.1503203108
 30
0.0
 11
152.945585934
 21
104.4003203108
 31
0.0
 12
152.945585934
 22
105.9003203108
 32
0.0
 13
152.945585934
 23
105.9003203108
 33
0.0
  0
SOLID
  5
3A5
330
3A1
100
AcDbEntity
  8
0
  6
Continuous
 62
     7
370
     0
100
AcDbTrace
 10
188.645585934
 20
105.1503203108
 30
0.0
 11
186.645585934
 21
105.9003203108
 31
0.0
 12
186.645585934
 22
104.4003203108
 32
0.0
 13
186.645585934
 23
104.4003203108
 33
0.0
  0
LINE
  5
3A6
330
3A1
100
AcDbEntity
  8
0
  6
Continuous
 62
     7
370
     0
100
AcDbLine
 10
150.945585934
 20
95.4969494539
 30
0.0
 11
150.945585934
 21
106.1503203108
 31
0.0
  0
LINE
  5
3A7
330
3A1
100
AcDbEntity
  8
0
  6
Continuous
 62
     7
370
     0
100
AcDbLine
 10
188.645585934
 20
92.9469494539
 30
0.0
 11
188.645585934
 21
106.1503203108
 31
0.0
  0
LINE
  5
3A8
330
3A1
100
AcDbEntity
  8
0
  6
Continuous
 62
     7
370
     0
100
AcDbLine
 10
150.945585934
 20
105.1503203108
 30
0.0
 11
188.645585934
 21
105.1503203108
 31
0.0
  0
MTEXT
  5
3A9
330
3A1
100
AcDbEntity
  8
0
  6
Continuous
 62
     7
370
     0
100
AcDbMText
 10
164.9432131604
 20
109.6620572253
 30
12.3035862266
 40
3.5
 41
0.0
 71
     1
 72
     1
  1
37.7
  7
SLDTEXTSTYLE0
 73
     1
 44
1.0
  0
ENDBLK
  5
3A3
330
3A1
100
AcDbEntity
  8
0
100
AcDbBlockEnd
  0
BLOCK
  5
3AC
330
3AB
100
AcDbEntity
  8
0
100
AcDbBlockBegin
  2
_D_20
 70
     0
 10
0.0
 20
0.0
 30
0.0
  3
_D_20
  1

  0
SOLID
  5
3AE
330
3AB
100
AcDbEntity
  8
0
  6
Continuous
 62
     7
370
     0
100
AcDbTrace
 10
122.1324769011
 20
90.3469494539
 30
0.0
 11
120.6324769011
 21
87.0449494539
 31
0.0
 12
123.6324769011
 22
87.0449494539
 32
0.0
 13
123.6324769011
 23
87.0449494539
 33
0.0
  0
SOLID
  5
3AF
330
3AB
100
AcDbEntity
  8
0
  6
Continuous
 62
     7
370
     0
100
AcDbTrace
 10
122.1324769011
 20
70.3469494539
 30
0.0
 11
123.6324769011
 21
73.6489494539
 31
0.0
 12
120.6324769011
 22
73.6489494539
 32
0.0
 13
120.6324769011
 23
73.6489494539
 33
0.0
  0
LINE
  5
3B0
330
3AB
100
AcDbEntity
  8
0
  6
Continuous
 62
     7
370
     0
100
AcDbLine
 10
135.795585934
 20
90.3469494539
 30
0.0
 11
121.1324769011
 21
90.3469494539
 31
0.0
  0
LINE
  5
3B1
330
3AB
100
AcDbEntity
  8
0
  6
Continuous
 62
     7
370
     0
100
AcDbLine
 10
135.795585934
 20
70.3469494539
 30
0.0
 11
121.1324769011
 21
70.3469494539
 31
0.0
  0
LINE
  5
3B2
330
3AB
100
AcDbEntity
  8
0
  6
Continuous
 62
     7
370
     0
100
AcDbLine
 10
122.1324769011
 20
90.3469494539
 30
0.0
 11
122.1324769011
 21
70.3469494539
 31
0.0
  0
MTEXT
  5
3B3
330
3AB
100
AcDbEntity
  8
0
  6
Continuous
 62
     7
370
     0
100
AcDbMText
 10
117.6207399865
 20
77.987170645
 30
12.3035862266
 40
3.5
 41
0.0
 71
     1
 72
     1
  1
20
  7
SLDTEXTSTYLE0
 11
-7.044195017643634E-15
 21
1.0
 31
0.0
 73
     1
 44
1.0
  0
ENDBLK
  5
3AD
330
3AB
100
AcDbEntity
  8
0
100
AcDbBlockEnd
  0
BLOCK
  5
3B6
330
3B5
100
AcDbEntity
  8
0
100
AcDbBlockBegin
  2
_D_21
 70
     0
 10
0.0
 20
0.0
 30
0.0
  3
_D_21
  1

  0
SOLID
  5
3B8
330
3B5
100
AcDbEntity
  8
0
  6
Continuous
 62
     7
370
     0
100
AcDbTrace
 10
130.945585934
 20
60.4635268432
 30
0.0
 11
132.945585934
 21
59.7135268432
 31
0.0
 12
132.945585934
 22
61.2135268432
 32
0.0
 13
132.945585934
 23
61.2135268432
 33
0.0
  0
SOLID
  5
3B9
330
3B5
100
AcDbEntity
  8
0
  6
Continuous
 62
     7
370
     0
100
AcDbTrace
 10
150.945585934
 20
60.4635268432
 30
0.0
 11
148.945585934
 21
61.2135268432
 31
0.0
 12
148.945585934
 22
59.7135268432
 32
0.0
 13
148.945585934
 23
59.7135268432
 33
0.0
  0
LINE
  5
3BA
330
3B5
100
AcDbEntity
  8
0
  6
Continuous
 62
     7
370
     0
100
AcDbLine
 10
130.945585934
 20
75.1969494539
 30
0.0
 11
130.945585934
 21
59.4635268432
 31
0.0
  0
LINE
  5
3BB
330
3B5
100
AcDbEntity
  8
0
  6
Continuous
 62
     7
370
     0
100
AcDbLine
 10
150.945585934
 20
65.1969494539
 30
0.0
 11
150.945585934
 21
59.4635268432
 31
0.0
  0
LINE
  5
3BC
330
3B5
100
AcDbEntity
  8
0
  6
Continuous
 62
     7
370
     0
100
AcDbLine
 10
130.945585934
 20
60.4635268432
 30
0.0
 11
150.945585934
 21
60.4635268432
 31
0.0
  0
MTEXT
  5
3BD
330
3B5
100
AcDbEntity
  8
0
  6
Continuous
 62
     7
370
     0
100
AcDbMText
 10
138.901879625
 20
64.9752637578
 30
12.3035862266
 40
3.5
 41
0.0
 71
     1
 72
     1
  1
20
  7
SLDTEXTSTYLE0
 73
     1
 44
1.0
  0
ENDBLK
  5
3B7
330
3B5
100
AcDbEntity
  8
0
100
AcDbBlockEnd
  0
BLOCK
  5
3C0
330
3BF
100
AcDbEntity
  8
0
100
AcDbBlockBegin
  2
_D_22
 70
     0
 10
0.0
 20
0.0
 30
0.0
  3
_D_22
  1

  0
SOLID
  5
3C2
330
3BF
100
AcDbEntity
  8
0
  6
Continuous
 62
     7
370
     0
100
AcDbTrace
 10
156.3010618357
 20
53.4703536588
 30
0.0
 11
154.3010618357
 21
54.2203536588
 31
0.0
 12
154.3010618357
 22
52.7203536588
 32
0.0
 13
154.3010618357
 23
52.7203536588
 33
0.0
  0
SOLID
  5
3C3
330
3BF
100
AcDbEntity
  8
0
  6
Continuous
 62
     7
370
     0
100
AcDbTrace
 10
108.445585934
 20
53.4703536588
 30
0.0
 11
110.445585934
 21
52.7203536588
 31
0.0
 12
110.445585934
 22
54.2203536588
 32
0.0
 13
110.445585934
 23
54.2203536588
 33
0.0
  0
LINE
  5
3C4
330
3BF
100
AcDbEntity
  8
0
  6
Continuous
 62
     7
370
     0
100
AcDbLine
 10
156.3010618357
 20
65.3469494539
 30
0.0
 11
156.3010618357
 21
52.4703536588
 31
0.0
  0
LINE
  5
3C5
330
3BF
100
AcDbEntity
  8
0
  6
Continuous
 62
     7
370
     0
100
AcDbLine
 10
108.445585934
 20
65.3469494539
 30
0.0
 11
108.445585934
 21
52.4703536588
 31
0.0
  0
LINE
  5
3C6
330
3BF
100
AcDbEntity
  8
0
  6
Continuous
 62
     7
370
     0
100
AcDbLine
 10
156.3010618357
 20
53.4703536588
 30
0.0
 11
108.445585934
 21
53.4703536588
 31
0.0
  0
MTEXT
  5
3C7
330
3BF
100
AcDbEntity
  8
0
  6
Continuous
 62
     7
370
     0
100
AcDbMText
 10
129.8152890798
 20
57.9820905734
 30
12.3035862266
 40
3.5
 41
0.0
 71
     1
 72
     1
  1
47.9
  7
SLDTEXTSTYLE0
 73
     1
 44
1.0
  0
ENDBLK
  5
3C1
330
3BF
100
AcDbEntity
  8
0
100
AcDbBlockEnd
  0
BLOCK
  5
3CE
330
3CD
100
AcDbEntity
  8
0
100
AcDbBlockBegin
  2
SW_CENTERMARKSYMBOL_6
 70
     0
 10
0.0
 20
0.0
 30
0.0
  3
SW_CENTERMARKSYMBOL_6
  1

  0
LINE
  5
3D0
330
3CD
100
AcDbEntity
  8
0
  6
Continuous
 62
     0
370
     0
100
AcDbLine
 10
0.0
 20
0.0
 30
0.0
 11
0.0
 21
2.5
 31
0.0
  0
LINE
  5
3D1
330
3CD
100
AcDbEntity
  8
0
  6
Continuous
 62
     0
370
     0
100
AcDbLine
 10
0.0
 20
0.0
 30
0.0
 11
-2.5
 21
0.0
 31
0.0
  0
LINE
  5
3D2
330
3CD
100
AcDbEntity
  8
0
  6
Continuous
 62
     0
370
     0
100
AcDbLine
 10
0.0
 20
0.0
 30
0.0
 11
0.0
 21
-2.5
 31
0.0
  0
LINE
  5
3D3
330
3CD
100
AcDbEntity
  8
0
  6
Continuous
 62
     0
370
     0
100
AcDbLine
 10
0.0
 20
0.0
 30
0.0
 11
2.5
 21
0.0
 31
0.0
  0
LINE
  5
3D4
330
3CD
100
AcDbEntity
  8
0
  6
Continuous
 62
     0
370
     0
100
AcDbLine
 10
0.0
 20
2.5
 30
0.0
 11
0.0
 21
4.15
 31
0.0
  0
LINE
  5
3D5
330
3CD
100
AcDbEntity
  8
0
  6
Continuous
 62
     0
370
     0
100
AcDbLine
 10
-2.5
 20
0.0
 30
0.0
 11
-4.15
 21
0.0
 31
0.0
  0
LINE
  5
3D6
330
3CD
100
AcDbEntity
  8
0
  6
Continuous
 62
     0
370
     0
100
AcDbLine
 10
0.0
 20
-2.5
 30
0.0
 11
0.0
 21
-4.15
 31
0.0
  0
LINE
  5
3D7
330
3CD
100
AcDbEntity
  8
0
  6
Continuous
 62
     0
370
     0
100
AcDbLine
 10
2.5
 20
0.0
 30
0.0
 11
4.15
 21
0.0
 31
0.0
  0
ENDBLK
  5
3CF
330
3CD
100
AcDbEntity
  8
0
100
AcDbBlockEnd
  0
BLOCK
  5
3DA
330
3D9
100
AcDbEntity
  8
0
100
AcDbBlockBegin
  2
SW_CENTERMARKSYMBOL_7
 70
     0
 10
0.0
 20
0.0
 30
0.0
  3
SW_CENTERMARKSYMBOL_7
  1

  0
LINE
  5
3DC
330
3D9
100
AcDbEntity
  8
0
  6
Continuous
 62
     0
370
     0
100
AcDbLine
 10
0.0
 20
0.0
 30
0.0
 11
0.0
 21
2.5
 31
0.0
  0
LINE
  5
3DD
330
3D9
100
AcDbEntity
  8
0
  6
Continuous
 62
     0
370
     0
100
AcDbLine
 10
0.0
 20
0.0
 30
0.0
 11
-2.5
 21
0.0
 31
0.0
  0
LINE
  5
3DE
330
3D9
100
AcDbEntity
  8
0
  6
Continuous
 62
     0
370
     0
100
AcDbLine
 10
0.0
 20
0.0
 30
0.0
 11
0.0
 21
-2.5
 31
0.0
  0
LINE
  5
3DF
330
3D9
100
AcDbEntity
  8
0
  6
Continuous
 62
     0
370
     0
100
AcDbLine
 10
0.0
 20
0.0
 30
0.0
 11
2.5
 21
0.0
 31
0.0
  0
LINE
  5
3E0
330
3D9
100
AcDbEntity
  8
0
  6
Continuous
 62
     0
370
     0
100
AcDbLine
 10
0.0
 20
2.5
 30
0.0
 11
0.0
 21
4.15
 31
0.0
  0
LINE
  5
3E1
330
3D9
100
AcDbEntity
  8
0
  6
Continuous
 62
     0
370
     0
100
AcDbLine
 10
-2.5
 20
0.0
 30
0.0
 11
-4.15
 21
0.0
 31
0.0
  0
LINE
  5
3E2
330
3D9
100
AcDbEntity
  8
0
  6
Continuous
 62
     0
370
     0
100
AcDbLine
 10
0.0
 20
-2.5
 30
0.0
 11
0.0
 21
-4.15
 31
0.0
  0
LINE
  5
3E3
330
3D9
100
AcDbEntity
  8
0
  6
Continuous
 62
     0
370
     0
100
AcDbLine
 10
2.5
 20
0.0
 30
0.0
 11
4.15
 21
0.0
 31
0.0
  0
ENDBLK
  5
3DB
330
3D9
100
AcDbEntity
  8
0
100
AcDbBlockEnd
  0
BLOCK
  5
3E6
330
3E5
100
AcDbEntity
  8
0
100
AcDbBlockBegin
  2
SW_CENTERMARKSYMBOL_8
 70
     0
 10
0.0
 20
0.0
 30
0.0
  3
SW_CENTERMARKSYMBOL_8
  1

  0
LINE
  5
3E8
330
3E5
100
AcDbEntity
  8
0
  6
Continuous
 62
     0
370
     0
100
AcDbLine
 10
0.0
 20
0.0
 30
0.0
 11
0.0
 21
2.5
 31
0.0
  0
LINE
  5
3E9
330
3E5
100
AcDbEntity
  8
0
  6
Continuous
 62
     0
370
     0
100
AcDbLine
 10
0.0
 20
0.0
 30
0.0
 11
-2.5
 21
0.0
 31
0.0
  0
LINE
  5
3EA
330
3E5
100
AcDbEntity
  8
0
  6
Continuous
 62
     0
370
     0
100
AcDbLine
 10
0.0
 20
0.0
 30
0.0
 11
0.0
 21
-2.5
 31
0.0
  0
LINE
  5
3EB
330
3E5
100
AcDbEntity
  8
0
  6
Continuous
 62
     0
370
     0
100
AcDbLine
 10
0.0
 20
0.0
 30
0.0
 11
2.5
 21
0.0
 31
0.0
  0
LINE
  5
3EC
330
3E5
100
AcDbEntity
  8
0
  6
Continuous
 62
     0
370
     0
100
AcDbLine
 10
0.0
 20
2.5
 30
0.0
 11
0.0
 21
4.15
 31
0.0
  0
LINE
  5
3ED
330
3E5
100
AcDbEntity
  8
0
  6
Continuous
 62
     0
370
     0
100
AcDbLine
 10
-2.5
 20
0.0
 30
0.0
 11
-4.15
 21
0.0
 31
0.0
  0
LINE
  5
3EE
330
3E5
100
AcDbEntity
  8
0
  6
Continuous
 62
     0
370
     0
100
AcDbLine
 10
0.0
 20
-2.5
 30
0.0
 11
0.0
 21
-4.15
 31
0.0
  0
LINE
  5
3EF
330
3E5
100
AcDbEntity
  8
0
  6
Continuous
 62
     0
370
     0
100
AcDbLine
 10
2.5
 20
0.0
 30
0.0
 11
4.15
 21
0.0
 31
0.0
  0
ENDBLK
  5
3E7
330
3E5
100
AcDbEntity
  8
0
100
AcDbBlockEnd
  0
BLOCK
  5
3F2
330
3F1
100
AcDbEntity
  8
0
100
AcDbBlockBegin
  2
SW_CENTERMARKSYMBOL_9
 70
     0
 10
0.0
 20
0.0
 30
0.0
  3
SW_CENTERMARKSYMBOL_9
  1

  0
LINE
  5
3F4
330
3F1
100
AcDbEntity
  8
0
  6
Continuous
 62
     0
370
     0
100
AcDbLine
 10
0.0
 20
0.0
 30
0.0
 11
0.0
 21
2.5
 31
0.0
  0
LINE
  5
3F5
330
3F1
100
AcDbEntity
  8
0
  6
Continuous
 62
     0
370
     0
100
AcDbLine
 10
0.0
 20
0.0
 30
0.0
 11
-2.5
 21
0.0
 31
0.0
  0
LINE
  5
3F6
330
3F1
100
AcDbEntity
  8
0
  6
Continuous
 62
     0
370
     0
100
AcDbLine
 10
0.0
 20
0.0
 30
0.0
 11
0.0
 21
-2.5
 31
0.0
  0
LINE
  5
3F7
330
3F1
100
AcDbEntity
  8
0
  6
Continuous
 62
     0
370
     0
100
AcDbLine
 10
0.0
 20
0.0
 30
0.0
 11
2.5
 21
0.0
 31
0.0
  0
LINE
  5
3F8
330
3F1
100
AcDbEntity
  8
0
  6
Continuous
 62
     0
370
     0
100
AcDbLine
 10
0.0
 20
2.5
 30
0.0
 11
0.0
 21
4.15
 31
0.0
  0
LINE
  5
3F9
330
3F1
100
AcDbEntity
  8
0
  6
Continuous
 62
     0
370
     0
100
AcDbLine
 10
-2.5
 20
0.0
 30
0.0
 11
-4.15
 21
0.0
 31
0.0
  0
LINE
  5
3FA
330
3F1
100
AcDbEntity
  8
0
  6
Continuous
 62
     0
370
     0
100
AcDbLine
 10
0.0
 20
-2.5
 30
0.0
 11
0.0
 21
-4.15
 31
0.0
  0
LINE
  5
3FB
330
3F1
100
AcDbEntity
  8
0
  6
Continuous
 62
     0
370
     0
100
AcDbLine
 10
2.5
 20
0.0
 30
0.0
 11
4.15
 21
0.0
 31
0.0
  0
ENDBLK
  5
3F3
330
3F1
100
AcDbEntity
  8
0
100
AcDbBlockEnd
  0
BLOCK
  5
3FE
330
3FD
100
AcDbEntity
  8
0
100
AcDbBlockBegin
  2
SW_CENTERMARKSYMBOL_10
 70
     0
 10
0.0
 20
0.0
 30
0.0
  3
SW_CENTERMARKSYMBOL_10
  1

  0
LINE
  5
400
330
3FD
100
AcDbEntity
  8
0
  6
Continuous
 62
     0
370
     0
100
AcDbLine
 10
0.0
 20
0.0
 30
0.0
 11
0.0
 21
2.5
 31
0.0
  0
LINE
  5
401
330
3FD
100
AcDbEntity
  8
0
  6
Continuous
 62
     0
370
     0
100
AcDbLine
 10
0.0
 20
0.0
 30
0.0
 11
-2.5
 21
0.0
 31
0.0
  0
LINE
  5
402
330
3FD
100
AcDbEntity
  8
0
  6
Continuous
 62
     0
370
     0
100
AcDbLine
 10
0.0
 20
0.0
 30
0.0
 11
0.0
 21
-2.5
 31
0.0
  0
LINE
  5
403
330
3FD
100
AcDbEntity
  8
0
  6
Continuous
 62
     0
370
     0
100
AcDbLine
 10
0.0
 20
0.0
 30
0.0
 11
2.5
 21
0.0
 31
0.0
  0
LINE
  5
404
330
3FD
100
AcDbEntity
  8
0
  6
Continuous
 62
     0
370
     0
100
AcDbLine
 10
0.0
 20
2.5
 30
0.0
 11
0.0
 21
4.15
 31
0.0
  0
LINE
  5
405
330
3FD
100
AcDbEntity
  8
0
  6
Continuous
 62
     0
370
     0
100
AcDbLine
 10
-2.5
 20
0.0
 30
0.0
 11
-13.8581313382
 21
0.0
 31
0.0
  0
LINE
  5
406
330
3FD
100
AcDbEntity
  8
0
  6
Continuous
 62
     0
370
     0
100
AcDbLine
 10
0.0
 20
-2.5
 30
0.0
 11
0.0
 21
-4.15
 31
0.0
  0
LINE
  5
407
330
3FD
100
AcDbEntity
  8
0
  6
Continuous
 62
     0
370
     0
100
AcDbLine
 10
2.5
 20
0.0
 30
0.0
 11
39.6936611741
 21
0.0
 31
0.0
  0
ENDBLK
  5
3FF
330
3FD
100
AcDbEntity
  8
0
100
AcDbBlockEnd
  0
BLOCK
  5
40A
330
409
100
AcDbEntity
  8
0
100
AcDbBlockBegin
  2
SW_CENTERMARKSYMBOL_11
 70
     0
 10
0.0
 20
0.0
 30
0.0
  3
SW_CENTERMARKSYMBOL_11
  1

  0
LINE
  5
40C
330
409
100
AcDbEntity
  8
0
  6
Continuous
 62
     0
370
     0
100
AcDbLine
 10
0.0
 20
0.0
 30
0.0
 11
0.0
 21
2.5
 31
0.0
  0
LINE
  5
40D
330
409
100
AcDbEntity
  8
0
  6
Continuous
 62
     0
370
     0
100
AcDbLine
 10
0.0
 20
0.0
 30
0.0
 11
-2.5
 21
0.0
 31
0.0
  0
LINE
  5
40E
330
409
100
AcDbEntity
  8
0
  6
Continuous
 62
     0
370
     0
100
AcDbLine
 10
0.0
 20
0.0
 30
0.0
 11
0.0
 21
-2.5
 31
0.0
  0
LINE
  5
40F
330
409
100
AcDbEntity
  8
0
  6
Continuous
 62
     0
370
     0
100
AcDbLine
 10
0.0
 20
0.0
 30
0.0
 11
2.5
 21
0.0
 31
0.0
  0
LINE
  5
410
330
409
100
AcDbEntity
  8
0
  6
Continuous
 62
     0
370
     0
100
AcDbLine
 10
0.0
 20
2.5
 30
0.0
 11
0.0
 21
4.15
 31
0.0
  0
LINE
  5
411
330
409
100
AcDbEntity
  8
0
  6
Continuous
 62
     0
370
     0
100
AcDbLine
 10
-2.5
 20
0.0
 30
0.0
 11
-4.15
 21
0.0
 31
0.0
  0
LINE
  5
412
330
409
100
AcDbEntity
  8
0
  6
Continuous
 62
     0
370
     0
100
AcDbLine
 10
0.0
 20
-2.5
 30
0.0
 11
0.0
 21
-4.15
 31
0.0
  0
LINE
  5
413
330
409
100
AcDbEntity
  8
0
  6
Continuous
 62
     0
370
     0
100
AcDbLine
 10
2.5
 20
0.0
 30
0.0
 11
4.15
 21
0.0
 31
0.0
  0
ENDBLK
  5
40B
330
409
100
AcDbEntity
  8
0
100
AcDbBlockEnd
  0
ENDSEC
  0
SECTION
  2
ENTITIES
  0
LINE
  5
44
330
1F
100
AcDbEntity
  8
0
  6
Continuous
 62
     7
370
     0
100
AcDbLine
 10
20.2604743903
 20
285.0
 30
0.0
 11
196.7604743903
 21
285.0
 31
0.0
  0
LINE
  5
45
330
1F
100
AcDbEntity
  8
0
  6
Continuous
 62
     7
370
     0
100
AcDbLine
 10
20.2604743903
 20
285.0
 30
0.0
 11
20.2604743903
 21
10.0
 31
0.0
  0
LINE
  5
46
330
1F
100
AcDbEntity
  8
0
  6
Continuous
 62
     7
370
     0
100
AcDbLine
 10
20.2604743903
 20
10.0
 30
0.0
 11
196.7604743903
 21
10.0
 31
0.0
  0
LINE
  5
47
330
1F
100
AcDbEntity
  8
0
  6
Continuous
 62
     7
370
     0
100
AcDbLine
 10
196.7604743903
 20
285.0
 30
0.0
 11
196.7604743903
 21
10.0
 31
0.0
  0
LINE
  5
48
330
1F
100
AcDbEntity
  8
0
  6
Continuous
 62
     7
370
     0
100
AcDbLine
 10
127.0104743903
 20
50.75
 30
0.0
 11
196.7604743903
 21
50.75
 31
0.0
  0
LINE
  5
49
330
1F
100
AcDbEntity
  8
0
  6
Continuous
 62
     7
370
     0
100
AcDbLine
 10
127.0104743903
 20
50.75
 30
0.0
 11
127.0104743903
 21
10.0
 31
0.0
  0
LINE
  5
4A
330
1F
100
AcDbEntity
  8
0
  6
Continuous
 62
     7
370
     0
100
AcDbLine
 10
127.0104743903
 20
22.75
 30
0.0
 11
196.7604743903
 21
22.75
 31
0.0
  0
LINE
  5
4B
330
1F
100
AcDbEntity
  8
0
  6
Continuous
 62
     7
370
     0
100
AcDbLine
 10
127.0104743903
 20
36.75
 30
0.0
 11
196.7604743903
 21
36.75
 31
0.0
  0
MTEXT
  5
4D
330
1F
100
AcDbEntity
  8
0
  6
Continuous
 62
     7
370
     0
100
AcDbMText
 10
61.7336297939
 20
87.9091071318
 30
0.0
 40
3.5
 41
0.0
 71
     1
 72
     1
  1
ストッパーネジ
  7
SLDTEXTSTYLE0
 73
     1
 44
1.0
  0
MTEXT
  5
4E
330
1F
100
AcDbEntity
  8
0
  6
Continuous
 62
     7
370
     0
100
AcDbMText
 10
76.4455104043
 20
204.2806665872
 30
0.0
 40
2.9104166667
 41
0.0
 71
     1
 72
     1
  1
KQ2S04-M5N
  7
SLDTEXTSTYLE0
 73
     1
 44
1.0
  0
MTEXT
  5
4F
330
1F
100
AcDbEntity
  8
0
  6
Continuous
 62
     7
370
     0
100
AcDbMText
 10
102.0552180381
 20
193.3474306304
 30
0.0
 40
2.9104166667
 41
0.0
 71
     1
 72
     1
  1
KQ2S04-M5N
  7
SLDTEXTSTYLE0
 73
     1
 44
1.0
  0
MTEXT
  5
51
330
1F
100
AcDbEntity
  8
0
  6
Continuous
 62
     7
370
     0
100
AcDbMText
 10
161.4170603085
 20
30.4171582345
 30
0.0
 40
4.2333333333
 41
0.0
 71
     2
 72
     1
  1
NW2-20-V001S
  7
SLDTEXTSTYLE1
 73
     1
 44
1.0
  0
MTEXT
  5
52
330
1F
100
AcDbEntity
  8
0
  6
Continuous
 62
     7
370
     0
100
AcDbMText
 10
157.3139153309
 20
45.1628598281
 30
0.0
 40
3.7041666667
 41
0.0
 71
     2
 72
     1
  1
ミニエアーニッパー・本体・長刃付
  7
SLDTEXTSTYLE1
 73
     1
 44
1.0
  0
MTEXT
  5
53
330
1F
100
AcDbEntity
  8
0
  6
Continuous
 62
     7
370
     0
100
AcDbMText
 10
162.6486010649
 20
16.8228189052
 30
0.0
 40
4.2333333333
 41
0.0
 71
     2
 72
     1
  1
131543
  7
SLDTEXTSTYLE1
 73
     1
 44
1.0
  0
LINE
  5
54
330
1F
100
AcDbEntity
  8
0
  6
Continuous
 62
     7
370
    15
100
AcDbLine
 10
117.2455849029
 20
171.0557313992
 30
0.0
 11
129.4455865301
 21
171.0557313992
 31
0.0
  0
LINE
  5
55
330
1F
100
AcDbEntity
  8
0
  6
Continuous
 62
     7
370
    15
100
AcDbLine
 10
129.4455865301
 20
179.0557313136
 30
0.0
 11
117.2455849029
 21
179.0557313136
 31
0.0
  0
LINE
  5
56
330
1F
100
AcDbEntity
  8
0
  6
Continuous
 62
     7
370
    15
100
AcDbLine
 10
114.8455852545
 20
171.2057316101
 30
0.0
 11
116.3455845691
 21
171.2057316101
 31
0.0
  0
LINE
  5
57
330
1F
100
AcDbEntity
  8
0
  6
Continuous
 62
     7
370
    15
100
AcDbLine
 10
116.3455845691
 20
178.9057315684
 30
0.0
 11
114.8455852545
 21
178.9057315684
 31
0.0
  0
LINE
  5
58
330
1F
100
AcDbEntity
  8
0
  6
Continuous
 62
     7
370
    15
100
AcDbLine
 10
116.3455845691
 20
172.6557319409
 30
0.0
 11
117.2455849029
 21
172.6557319409
 31
0.0
  0
LINE
  5
59
330
1F
100
AcDbEntity
  8
0
  6
Continuous
 62
     7
370
    15
100
AcDbLine
 10
117.2455849029
 20
177.4557312376
 30
0.0
 11
116.3455845691
 21
177.4557312376
 31
0.0
  0
LINE
  5
5A
330
1F
100
AcDbEntity
  8
0
  6
Continuous
 62
     7
370
    15
100
AcDbLine
 10
96.2455833233
 20
155.0557311049
 30
0.0
 11
108.4455886758
 21
155.0557311049
 31
0.0
  0
LINE
  5
5B
330
1F
100
AcDbEntity
  8
0
  6
Continuous
 62
     7
370
    15
100
AcDbLine
 10
108.4455886758
 20
163.0557315431
 30
0.0
 11
96.2455833233
 21
163.0557315431
 31
0.0
  0
LINE
  5
5C
330
1F
100
AcDbEntity
  8
0
  6
Continuous
 62
     7
370
    15
100
AcDbLine
 10
93.8455874003
 20
155.2057317815
 30
0.0
 11
95.3455829895
 21
155.2057317815
 31
0.0
  0
LINE
  5
5D
330
1F
100
AcDbEntity
  8
0
  6
Continuous
 62
     7
370
    15
100
AcDbLine
 10
95.3455829895
 20
162.9057315651
 30
0.0
 11
93.8455874003
 21
162.9057315651
 31
0.0
  0
LINE
  5
5E
330
1F
100
AcDbEntity
  8
0
  6
Continuous
 62
     7
370
    15
100
AcDbLine
 10
95.3455829895
 20
156.6557316466
 30
0.0
 11
96.2455833233
 21
156.6557316466
 31
0.0
  0
LINE
  5
5F
330
1F
100
AcDbEntity
  8
0
  6
Continuous
 62
     7
370
    15
100
AcDbLine
 10
96.2455833233
 20
161.4557316418
 30
0.0
 11
95.3455829895
 21
161.4557316418
 31
0.0
  0
SPLINE
  5
60
330
1F
100
AcDbEntity
  8
0
  6
Continuous
 62
     7
370
    15
100
AcDbSpline
210
0.0
220
0.0
230
1.0
 70
     8
 71
     3
 72
    15
 73
    11
 74
     0
 42
0.00000001
 43
0.00000001
 12
1.0
 22
0.0
 32
0.0
 13
1.0
 23
0.0
 33
0.0
 40
0.0
 40
0.0
 40
0.0
 40
0.0
 40
0.121225782444904
 40
0.2487264856325554
 40
0.3796041234829372
 40
0.5108476441688499
 40
0.6398635847607463
 40
0.7648475003618869
 40
0.8849123257228632
 40
1.0
 40
1.0
 40
1.0
 40
1.0
 10
186.2455859682871
 20
154.8943645677342
 30
0.0
 10
186.3975044935641
 20
154.9073121090886
 30
0.0
 10
186.7092051906648
 20
154.9338773858287
 30
0.0
 10
187.1731752247948
 20
155.0812048294643
 30
0.0
 10
187.6107450710285
 20
155.3107985229319
 30
0.0
 10
187.9909264904739
 20
155.6211998251682
 30
0.0
 10
188.2921622979852
 20
155.9930635888024
 30
0.0
 10
188.5018753237075
 20
156.4066276660878
 30
0.0
 10
188.6271644813671
 20
156.8413013367629
 30
0.0
 10
188.6394143167235
 20
157.1390622897493
 30
0.0
 10
188.645409596653
 20
157.2847916169836
 30
0.0
  0
LINE
  5
61
330
1F
100
AcDbEntity
  8
0
  6
Continuous
 62
     7
370
    15
100
AcDbLine
 10
182.4455859042
 20
152.8057312018
 30
0.0
 11
179.7455858342
 21
152.8057312018
 31
0.0
  0
LINE
  5
62
330
1F
100
AcDbEntity
  8
0
  6
Continuous
 62
     7
370
    15
100
AcDbLine
 10
179.7455858342
 20
147.3057321629
 30
0.0
 11
182.4455859042
 21
147.3057321629
 31
0.0
  0
LINE
  5
63
330
1F
100
AcDbEntity
  8
0
  6
Continuous
 62
     7
370
    15
100
AcDbLine
 10
182.4455859042
 20
147.3057321629
 30
0.0
 11
182.7455858603
 21
147.8057313136
 31
0.0
  0
LINE
  5
64
330
1F
100
AcDbEntity
  8
0
  6
Continuous
 62
     7
370
    15
100
AcDbLine
 10
182.7455858603
 20
152.3057311198
 30
0.0
 11
182.4455859042
 21
152.8057312018
 31
0.0
  0
LINE
  5
65
330
1F
100
AcDbEntity
  8
0
  6
Continuous
 62
     7
370
    15
100
AcDbLine
 10
104.3707543887
 20
157.0557314328
 30
0.0
 11
105.2455866612
 21
157.0557314328
 31
0.0
  0
LINE
  5
66
330
1F
100
AcDbEntity
  8
0
  6
Continuous
 62
     7
370
    15
100
AcDbLine
 10
110.9455862916
 20
157.0557314328
 30
0.0
 11
113.3955830611
 21
157.0557314328
 31
0.0
  0
LINE
  5
67
330
1F
100
AcDbEntity
  8
0
  6
Continuous
 62
     7
370
    15
100
AcDbLine
 10
113.3955830611
 20
161.0557316228
 30
0.0
 11
110.9455862916
 21
161.0557316228
 31
0.0
  0
LINE
  5
68
330
1F
100
AcDbEntity
  8
0
  6
Continuous
 62
     7
370
    15
100
AcDbLine
 10
105.2455866612
 20
161.0557316228
 30
0.0
 11
104.3707543887
 21
161.0557316228
 31
0.0
  0
LINE
  5
69
330
1F
100
AcDbEntity
  8
0
  6
Continuous
 62
     7
370
    15
100
AcDbLine
 10
104.3707543887
 20
161.0557316228
 30
0.0
 11
104.1455829419
 21
160.6657316799
 31
0.0
  0
LINE
  5
6A
330
1F
100
AcDbEntity
  8
0
  6
Continuous
 62
     7
370
    15
100
AcDbLine
 10
104.1455829419
 20
157.4457316085
 30
0.0
 11
104.3707543887
 21
157.0557314328
 31
0.0
  0
LINE
  5
6B
330
1F
100
AcDbEntity
  8
0
  6
Continuous
 62
     7
370
    15
100
AcDbLine
 10
113.3955830611
 20
157.0557314328
 30
0.0
 11
114.1455883063
 21
157.8057315557
 31
0.0
  0
LINE
  5
6C
330
1F
100
AcDbEntity
  8
0
  6
Continuous
 62
     7
370
    15
100
AcDbLine
 10
114.1455883063
 20
160.3057314998
 30
0.0
 11
113.3955830611
 21
161.0557316228
 31
0.0
  0
LINE
  5
6D
330
1F
100
AcDbEntity
  8
0
  6
Continuous
 62
     7
370
    15
100
AcDbLine
 10
180.8455858282
 20
152.8057312018
 30
0.0
 11
179.7455858342
 21
152.8057312018
 31
0.0
  0
LINE
  5
6E
330
1F
100
AcDbEntity
  8
0
  6
Continuous
 62
     7
370
    15
100
AcDbLine
 10
179.7455858342
 20
147.3057321629
 30
0.0
 11
180.8455858282
 21
147.3057321629
 31
0.0
  0
ARC
  5
6F
330
1F
100
AcDbEntity
  8
0
  6
Continuous
 62
     7
370
    15
100
AcDbCircle
 10
129.595585934
 20
174.4557315669
 30
0.0
 40
0.1500000000000341
100
AcDbArc
 50
180.0
 51
270.0
  0
ARC
  5
70
330
1F
100
AcDbEntity
  8
0
  6
Continuous
 62
     7
370
    15
100
AcDbCircle
 10
129.595585934
 20
179.6557315669
 30
0.0
 40
0.1500000000000057
100
AcDbArc
 50
90.0
 51
180.0
  0
LINE
  5
71
330
1F
100
AcDbEntity
  8
0
  6
Continuous
 62
     7
370
    15
100
AcDbLine
 10
129.5955853439
 20
174.305731932
 30
0.0
 11
132.4455851592
 21
174.305731932
 31
0.0
  0
LINE
  5
72
330
1F
100
AcDbEntity
  8
0
  6
Continuous
 62
     7
370
    15
100
AcDbLine
 10
132.4455851592
 20
179.8057309708
 30
0.0
 11
129.5955853439
 21
179.8057309708
 31
0.0
  0
ARC
  5
73
330
1F
100
AcDbEntity
  8
0
  6
Continuous
 62
     7
370
    15
100
AcDbCircle
 10
129.595585934
 20
147.4557315669
 30
0.0
 40
0.1500000000000057
100
AcDbArc
 50
180.0
 51
270.0
  0
ARC
  5
74
330
1F
100
AcDbEntity
  8
0
  6
Continuous
 62
     7
370
    15
100
AcDbCircle
 10
129.595585934
 20
152.6557315669
 30
0.0
 40
0.1500000000000341
100
AcDbArc
 50
90.0
 51
180.0
  0
LINE
  5
75
330
1F
100
AcDbEntity
  8
0
  6
Continuous
 62
     7
370
    15
100
AcDbLine
 10
129.5955853439
 20
147.3057321629
 30
0.0
 11
132.4455851592
 21
147.3057321629
 31
0.0
  0
LINE
  5
76
330
1F
100
AcDbEntity
  8
0
  6
Continuous
 62
     7
370
    15
100
AcDbLine
 10
132.4455851592
 20
152.8057312018
 30
0.0
 11
129.5955853439
 21
152.8057312018
 31
0.0
  0
LINE
  5
77
330
1F
100
AcDbEntity
  8
0
  6
Continuous
 62
     7
370
    15
100
AcDbLine
 10
114.9455869473
 20
161.0557316228
 30
0.0
 11
114.1455883063
 21
161.0557316228
 31
0.0
  0
LINE
  5
78
330
1F
100
AcDbEntity
  8
0
  6
Continuous
 62
     7
370
    15
100
AcDbLine
 10
114.1455883063
 20
157.0557314328
 30
0.0
 11
114.9455869473
 21
157.0557314328
 31
0.0
  0
LINE
  5
79
330
1F
100
AcDbEntity
  8
0
  6
Continuous
 62
     7
370
    15
100
AcDbLine
 10
164.4455857477
 20
144.655732008
 30
0.0
 11
164.4455857477
 21
144.5536311141
 31
0.0
  0
LINE
  5
7A
330
1F
100
AcDbEntity
  8
0
  6
Continuous
 62
     7
370
    15
100
AcDbLine
 10
172.4455861277
 20
142.1557306669
 30
0.0
 11
172.4455861277
 21
144.655732008
 31
0.0
  0
LINE
  5
7B
330
1F
100
AcDbEntity
  8
0
  6
Continuous
 62
     7
370
    15
100
AcDbLine
 10
114.9455869473
 20
163.0557315431
 30
0.0
 11
114.445585934
 21
163.0557315431
 31
0.0
  0
LINE
  5
7C
330
1F
100
AcDbEntity
  8
0
  6
Continuous
 62
     7
370
    15
100
AcDbLine
 10
114.445585934
 20
155.0557311049
 30
0.0
 11
114.9455869473
 21
155.0557311049
 31
0.0
  0
LINE
  5
7D
330
1F
100
AcDbEntity
  8
0
  6
Continuous
 62
     7
370
    15
100
AcDbLine
 10
129.4455865301
 20
169.0557315371
 30
0.0
 11
114.9455869473
 21
169.0557315371
 31
0.0
  0
LINE
  5
7E
330
1F
100
AcDbEntity
  8
0
  6
Continuous
 62
     7
370
    15
100
AcDbLine
 10
114.9455869473
 20
149.0557319841
 30
0.0
 11
129.4455865301
 21
149.0557319841
 31
0.0
  0
LINE
  5
7F
330
1F
100
AcDbEntity
  8
0
  6
Continuous
 62
     7
370
    15
100
AcDbLine
 10
117.2455849029
 20
171.0557313992
 30
0.0
 11
117.2455849029
 21
179.0557313136
 31
0.0
  0
LINE
  5
80
330
1F
100
AcDbEntity
  8
0
  6
Continuous
 62
     7
370
    15
100
AcDbLine
 10
114.8455852545
 20
171.2057316101
 30
0.0
 11
114.8455852545
 21
178.9057315684
 31
0.0
  0
LINE
  5
81
330
1F
100
AcDbEntity
  8
0
  6
Continuous
 62
     7
370
    15
100
AcDbLine
 10
116.3455845691
 20
171.2057316101
 30
0.0
 11
116.3455845691
 21
178.9057315684
 31
0.0
  0
LINE
  5
82
330
1F
100
AcDbEntity
  8
0
  6
Continuous
 62
     7
370
    15
100
AcDbLine
 10
96.2455833233
 20
155.0557311049
 30
0.0
 11
96.2455833233
 21
163.0557315431
 31
0.0
  0
LINE
  5
83
330
1F
100
AcDbEntity
  8
0
  6
Continuous
 62
     7
370
    15
100
AcDbLine
 10
93.8455874003
 20
155.2057317815
 30
0.0
 11
93.8455874003
 21
162.9057315651
 31
0.0
  0
LINE
  5
84
330
1F
100
AcDbEntity
  8
0
  6
Continuous
 62
     7
370
    15
100
AcDbLine
 10
95.3455829895
 20
155.2057317815
 30
0.0
 11
95.3455829895
 21
162.9057315651
 31
0.0
  0
LINE
  5
85
330
1F
100
AcDbEntity
  8
0
  6
Continuous
 62
     7
370
    15
100
AcDbLine
 10
188.6455856166
 20
157.2557315587
 30
0.0
 11
186.2455859683
 21
157.2557315587
 31
0.0
  0
LINE
  5
86
330
1F
100
AcDbEntity
  8
0
  6
Continuous
 62
     7
370
    15
100
AcDbLine
 10
186.2455859683
 20
154.8943608424
 30
0.0
 11
186.2455859683
 21
154.8557314447
 31
0.0
  0
LINE
  5
87
330
1F
100
AcDbEntity
  8
0
  6
Continuous
 62
     7
370
    15
100
AcDbLine
 10
179.8455858971
 20
184.0557321331
 30
0.0
 11
186.2455859683
 21
184.0557321331
 31
0.0
  0
LINE
  5
88
330
1F
100
AcDbEntity
  8
0
  6
Continuous
 62
     7
370
    15
100
AcDbLine
 10
179.8455858971
 20
184.0557321331
 30
0.0
 11
179.8455858971
 21
193.0564656279
 31
0.0
  0
LINE
  5
89
330
1F
100
AcDbEntity
  8
0
  6
Continuous
 62
     7
370
    15
100
AcDbLine
 10
179.8455858971
 20
193.0564656279
 30
0.0
 11
186.2455859683
 21
193.0564656279
 31
0.0
  0
LINE
  5
8A
330
1F
100
AcDbEntity
  8
0
  6
Continuous
 62
     7
370
    15
100
AcDbLine
 10
186.2455859683
 20
193.0564656279
 30
0.0
 11
186.2455859683
 21
184.0557321331
 31
0.0
  0
SPLINE
  5
8B
330
1F
100
AcDbEntity
  8
0
  6
Continuous
 62
     7
370
    15
100
AcDbSpline
210
0.0
220
0.0
230
1.0
 70
     8
 71
     3
 72
    11
 73
     7
 74
     0
 42
0.00000001
 43
0.00000001
 12
1.0
 22
0.0
 32
0.0
 13
1.0
 23
0.0
 33
0.0
 40
0.0
 40
0.0
 40
0.0
 40
0.0
 40
0.2439075356447143
 40
0.4901319365035652
 40
0.7437738556912329
 40
1.0
 40
1.0
 40
1.0
 40
1.0
 10
186.2455859682866
 20
193.0564656278862
 30
0.0
 10
186.3207114981919
 20
193.0547822144194
 30
0.0
 10
186.4716761715711
 20
193.0513993968271
 30
0.0
 10
186.6984574959361
 20
193.0232364891888
 30
0.0
 10
186.9251938936794
 20
192.9788729103333
 30
0.0
 10
187.071874353252
 20
192.9333451634504
 30
0.0
 10
187.1455863020726
 20
192.910465913154
 30
0.0
  0
LINE
  5
8C
330
1F
100
AcDbEntity
  8
0
  6
Continuous
 62
     7
370
    15
100
AcDbLine
 10
187.1455863021
 20
193.0557317457
 30
0.0
 11
187.1455863021
 21
192.9104659132
 31
0.0
  0
SPLINE
  5
8D
330
1F
100
AcDbEntity
  8
0
  6
Continuous
 62
     7
370
    15
100
AcDbSpline
210
0.0
220
0.0
230
1.0
 70
    24
 71
     3
 72
    13
 73
     9
 74
     0
 42
0.00000001
 43
0.00000001
 12
1.0
 22
0.0
 32
0.0
 13
1.0
 23
0.0
 33
0.0
 40
0.0
 40
0.0
 40
0.0
 40
0.0
 40
0.2252510089761229
 40
0.3605020041553085
 40
0.4996546834811741
 40
0.6894110673883669
 40
0.8844388613524529
 40
0.9999999999999999
 40
0.9999999999999999
 40
0.9999999999999999
 40
0.9999999999999999
 10
187.1455863020726
 20
193.0557317456974
 30
0.0
 10
187.3753529345562
 20
193.0557317456974
 30
0.0
 10
187.7430819488449
 20
193.0557317456974
 30
0.0
 10
188.0989529437068
 20
193.0557317456974
 30
0.0
 10
188.3566394427354
 20
193.0557317456974
 30
0.0
 10
188.5451814282627
 20
193.0557317456974
 30
0.0
 10
188.6345803018069
 20
193.0557317456974
 30
0.0
 10
188.6426012531364
 20
193.0557317456974
 30
0.0
 10
188.6455856166192
 20
193.0557317456974
 30
0.0
  0
LINE
  5
8E
330
1F
100
AcDbEntity
  8
0
  6
Continuous
 62
     7
370
    15
100
AcDbLine
 10
188.6455856166
 20
184.0557321331
 30
0.0
 11
188.6455856166
 21
193.0557317457
 31
0.0
  0
LINE
  5
8F
330
1F
100
AcDbEntity
  8
0
  6
Continuous
 62
     7
370
    15
100
AcDbLine
 10
186.2455859683
 20
184.0557321331
 30
0.0
 11
188.6455856166
 21
184.0557321331
 31
0.0
  0
LINE
  5
90
330
1F
100
AcDbEntity
  8
0
  6
Continuous
 62
     7
370
    15
100
AcDbLine
 10
186.2455859683
 20
184.0557321331
 30
0.0
 11
186.2455859683
 21
157.2557315587
 31
0.0
  0
LINE
  5
91
330
1F
100
AcDbEntity
  8
0
  6
Continuous
 62
     7
370
    15
100
AcDbLine
 10
188.6455856166
 20
184.0557321331
 30
0.0
 11
188.6455856166
 21
157.2557315587
 31
0.0
  0
LINE
  5
92
330
1F
100
AcDbEntity
  8
0
  6
Continuous
 62
     7
370
    15
100
AcDbLine
 10
178.145585991
 20
182.0557318053
 30
0.0
 11
179.8455858971
 21
182.0557318053
 31
0.0
  0
LINE
  5
93
330
1F
100
AcDbEntity
  8
0
  6
Continuous
 62
     7
370
    15
100
AcDbLine
 10
179.8455858971
 20
182.0557318053
 30
0.0
 11
179.8455858971
 21
184.0557321331
 31
0.0
  0
LINE
  5
94
330
1F
100
AcDbEntity
  8
0
  6
Continuous
 62
     7
370
    15
100
AcDbLine
 10
186.2455859683
 20
157.2557315587
 30
0.0
 11
180.5455858722
 21
157.2557315587
 31
0.0
  0
SPLINE
  5
95
330
1F
100
AcDbEntity
  8
0
  6
Continuous
 62
     7
370
    15
100
AcDbSpline
210
0.0
220
0.0
230
1.0
 70
     8
 71
     3
 72
    11
 73
     7
 74
     0
 42
0.00000001
 43
0.00000001
 12
1.0
 22
0.0
 32
0.0
 13
1.0
 23
0.0
 33
0.0
 40
0.0
 40
0.0
 40
0.0
 40
0.0
 40
0.0042868972112061
 40
0.3543730001178573
 40
0.7076561576196725
 40
1.0
 40
1.0
 40
1.0
 40
1.0
 10
180.5455858721745
 20
157.2557315586878
 30
0.0
 10
180.5439527697316
 20
157.2529031405303
 30
0.0
 10
180.4089536354663
 20
157.0190941689895
 30
0.0
 10
180.1437065523752
 20
156.5518472517806
 30
0.0
 10
179.8213337963011
 20
155.8538078625253
 30
0.0
 10
179.7691947240292
 20
155.361879296038
 30
0.0
 10
179.7455858341766
 20
155.1391310415042
 30
0.0
  0
LINE
  5
96
330
1F
100
AcDbEntity
  8
0
  6
Continuous
 62
     7
370
    15
100
AcDbLine
 10
179.7455858342
 20
155.1391310415
 30
0.0
 11
179.7455858342
 21
149.0557319841
 31
0.0
  0
LINE
  5
97
330
1F
100
AcDbEntity
  8
0
  6
Continuous
 62
     7
370
    15
100
AcDbLine
 10
178.145585991
 20
149.0557319841
 30
0.0
 11
179.7455858342
 21
149.0557319841
 31
0.0
  0
LINE
  5
98
330
1F
100
AcDbEntity
  8
0
  6
Continuous
 62
     7
370
    15
100
AcDbLine
 10
178.145585991
 20
149.0557319841
 30
0.0
 11
178.145585991
 21
182.0557318053
 31
0.0
  0
LINE
  5
99
330
1F
100
AcDbEntity
  8
0
  6
Continuous
 62
     7
370
    15
100
AcDbLine
 10
186.2455859683
 20
154.8557314447
 30
0.0
 11
180.5455858722
 21
154.8557314447
 31
0.0
  0
LINE
  5
9A
330
1F
100
AcDbEntity
  8
0
  6
Continuous
 62
     7
370
    15
100
AcDbLine
 10
180.5455858722
 20
157.2557315587
 30
0.0
 11
180.5455858722
 21
154.8557314447
 31
0.0
  0
ARC
  5
9B
330
1F
100
AcDbEntity
  8
0
  6
Continuous
 62
     7
370
    15
100
AcDbCircle
 10
180.545585934
 20
154.0557315669
 30
0.0
 40
0.7999999999998124
100
AcDbArc
 50
90.0
 51
179.9999999991
  0
LINE
  5
9C
330
1F
100
AcDbEntity
  8
0
  6
Continuous
 62
     7
370
    15
100
AcDbLine
 10
179.7455858342
 20
147.0557316563
 30
0.0
 11
178.145585991
 21
147.0557316563
 31
0.0
  0
LINE
  5
9D
330
1F
100
AcDbEntity
  8
0
  6
Continuous
 62
     7
370
    15
100
AcDbLine
 10
179.7455858342
 20
147.0557316563
 30
0.0
 11
179.7455858342
 21
149.0557319841
 31
0.0
  0
LINE
  5
9E
330
1F
100
AcDbEntity
  8
0
  6
Continuous
 62
     7
370
    15
100
AcDbLine
 10
182.4455859042
 20
150.0557312167
 30
0.0
 11
182.4455859042
 21
147.3057321629
 31
0.0
  0
LINE
  5
9F
330
1F
100
AcDbEntity
  8
0
  6
Continuous
 62
     7
370
    15
100
AcDbLine
 10
182.4455859042
 20
152.8057312018
 30
0.0
 11
182.4455859042
 21
150.0557312167
 31
0.0
  0
LINE
  5
A0
330
1F
100
AcDbEntity
  8
0
  6
Continuous
 62
     7
370
    15
100
AcDbLine
 10
182.7455858603
 20
152.3057311198
 30
0.0
 11
182.7455858603
 21
147.8057313136
 31
0.0
  0
LINE
  5
A1
330
1F
100
AcDbEntity
  8
0
  6
Continuous
 62
     7
370
    15
100
AcDbLine
 10
179.645586004
 20
188.4012981674
 30
0.0
 11
179.8455858971
 21
188.4012981674
 31
0.0
  0
LINE
  5
A2
330
1F
100
AcDbEntity
  8
0
  6
Continuous
 62
     7
370
    15
100
AcDbLine
 10
179.645586004
 20
188.4012981674
 30
0.0
 11
179.645586004
 21
191.8249777875
 31
0.0
  0
LINE
  5
A3
330
1F
100
AcDbEntity
  8
0
  6
Continuous
 62
     7
370
    15
100
AcDbLine
 10
179.1455859221
 20
191.8249777875
 30
0.0
 11
179.645586004
 21
191.8249777875
 31
0.0
  0
LINE
  5
A4
330
1F
100
AcDbEntity
  8
0
  6
Continuous
 62
     7
370
    15
100
AcDbLine
 10
179.1455859221
 20
191.8249777875
 30
0.0
 11
179.1455859221
 21
210.3141262553
 31
0.0
  0
LINE
  5
A5
330
1F
100
AcDbEntity
  8
0
  6
Continuous
 62
     7
370
    15
100
AcDbLine
 10
179.1455859221
 20
210.3141262553
 30
0.0
 11
183.1401783876
 21
210.3141262553
 31
0.0
  0
LINE
  5
A6
330
1F
100
AcDbEntity
  8
0
  6
Continuous
 62
     7
370
    15
100
AcDbLine
 10
183.1455758675
 20
209.657040926
 30
0.0
 11
183.1401783876
 21
210.3141262553
 31
0.0
  0
LINE
  5
A7
330
1F
100
AcDbEntity
  8
0
  6
Continuous
 62
     7
370
    15
100
AcDbLine
 10
183.1455740049
 20
209.657040926
 30
0.0
 11
183.1455726079
 21
203.9963356576
 31
0.0
  0
ARC
  5
A8
330
1F
100
AcDbEntity
  8
0
  6
Continuous
 62
     7
370
    15
100
AcDbCircle
 10
186.145571934
 20
203.9963341589
 30
0.0
 40
3.000000000007847
100
AcDbArc
 50
179.9999999999
 51
221.6335295865
  0
LINE
  5
A9
330
1F
100
AcDbEntity
  8
0
  6
Continuous
 62
     7
370
    15
100
AcDbLine
 10
183.9033436864
 20
202.003242018
 30
0.0
 11
187.1455863021
 21
198.3557208798
 31
0.0
  0
LINE
  5
AA
330
1F
100
AcDbEntity
  8
0
  6
Continuous
 62
     7
370
    15
100
AcDbLine
 10
187.1455863021
 20
193.0557317457
 30
0.0
 11
187.1455863021
 21
198.3557208798
 31
0.0
  0
LINE
  5
AB
330
1F
100
AcDbEntity
  8
0
  6
Continuous
 62
     7
370
    15
100
AcDbLine
 10
179.1455859221
 20
224.6218822322
 30
0.0
 11
180.2407714441
 21
224.6218822322
 31
0.0
  0
SPLINE
  5
AC
330
1F
100
AcDbEntity
  8
0
  6
Continuous
 62
     7
370
    15
100
AcDbSpline
210
0.0
220
0.0
230
1.0
 70
     8
 71
     3
 72
    16
 73
    12
 74
     0
 42
0.00000001
 43
0.00000001
 12
1.0
 22
0.0
 32
0.0
 13
1.0
 23
0.0
 33
0.0
 40
0.0
 40
0.0
 40
0.0
 40
0.0
 40
0.1042606983498634
 40
0.2085192064660315
 40
0.3156217088444643
 40
0.4227175328071824
 40
0.5270623226165795
 40
0.631399535158346
 40
0.7392762694119186
 40
0.8471455440141549
 40
1.0
 40
1.0
 40
1.0
 40
1.0
 10
180.2407714440828
 20
224.6218822321667
 30
0.0
 10
180.3925259240484
 20
224.2360969776329
 30
0.0
 10
180.6960316960308
 20
223.4645345728643
 30
0.0
 10
181.1439881278877
 20
222.1770502620169
 30
0.0
 10
181.5732004752552
 20
220.7953109695015
 30
0.0
 10
181.9692331411402
 20
219.327956608999
 30
0.0
 10
182.3183978568905
 20
217.7996740978008
 30
0.0
 10
182.6181106274367
 20
216.2040852911167
 30
0.0
 10
182.8580359069073
 20
214.5357374465063
 30
0.0
 10
183.0632987299976
 20
212.5673176002304
 30
0.0
 10
183.1117644174417
 20
211.1468837566125
 30
0.0
 10
183.1401783875531
 20
210.3141262552513
 30
0.0
  0
LINE
  5
AD
330
1F
100
AcDbEntity
  8
0
  6
Continuous
 62
     7
370
    15
100
AcDbLine
 10
179.1455859221
 20
210.3141262553
 30
0.0
 11
179.1455859221
 21
224.6218822322
 31
0.0
  0
LINE
  5
AE
330
1F
100
AcDbEntity
  8
0
  6
Continuous
 62
     7
370
    15
100
AcDbLine
 10
179.1455859221
 20
182.0557318053
 30
0.0
 11
179.1455859221
 21
191.8249777875
 31
0.0
  0
LINE
  5
AF
330
1F
100
AcDbEntity
  8
0
  6
Continuous
 62
     7
370
    15
100
AcDbLine
 10
180.2047429975
 20
224.7108831427
 30
0.0
 11
179.1455859221
 21
224.7108831427
 31
0.0
  0
LINE
  5
B0
330
1F
100
AcDbEntity
  8
0
  6
Continuous
 62
     7
370
    15
100
AcDbLine
 10
179.1455859221
 20
224.7108831427
 30
0.0
 11
179.1455859221
 21
224.6218822322
 31
0.0
  0
LINE
  5
B1
330
1F
100
AcDbEntity
  8
0
  6
Continuous
 62
     7
370
    15
100
AcDbLine
 10
180.2407714441
 20
224.6218822322
 30
0.0
 11
180.2047434631
 21
224.7108831427
 31
0.0
  0
LINE
  5
B2
330
1F
100
AcDbEntity
  8
0
  6
Continuous
 62
     7
370
    15
100
AcDbLine
 10
104.3707543887
 20
157.0557314328
 30
0.0
 11
104.3707543887
 21
161.0557316228
 31
0.0
  0
LINE
  5
B3
330
1F
100
AcDbEntity
  8
0
  6
Continuous
 62
     7
370
    15
100
AcDbLine
 10
113.3955830611
 20
157.0557314328
 30
0.0
 11
113.3955830611
 21
161.0557316228
 31
0.0
  0
LINE
  5
B4
330
1F
100
AcDbEntity
  8
0
  6
Continuous
 62
     7
370
    15
100
AcDbLine
 10
104.1455829419
 20
157.4457316085
 30
0.0
 11
104.1455829419
 21
160.6657316799
 31
0.0
  0
LINE
  5
B5
330
1F
100
AcDbEntity
  8
0
  6
Continuous
 62
     7
370
    15
100
AcDbLine
 10
114.1455883063
 20
157.8072952463
 30
0.0
 11
114.1455883063
 21
160.3041680421
 31
0.0
  0
LINE
  5
B6
330
1F
100
AcDbEntity
  8
0
  6
Continuous
 62
     7
370
    15
100
AcDbLine
 10
180.8455858282
 20
152.5487047977
 30
0.0
 11
180.8455858282
 21
147.3057321629
 31
0.0
  0
LINE
  5
B7
330
1F
100
AcDbEntity
  8
0
  6
Continuous
 62
     7
370
    15
100
AcDbLine
 10
180.8455858282
 20
152.8057312018
 30
0.0
 11
180.8455858282
 21
152.5487047977
 31
0.0
  0
LINE
  5
B8
330
1F
100
AcDbEntity
  8
0
  6
Continuous
 62
     7
370
    15
100
AcDbLine
 10
129.4455865301
 20
174.4557316772
 30
0.0
 11
129.4455865301
 21
179.655732157
 31
0.0
  0
LINE
  5
B9
330
1F
100
AcDbEntity
  8
0
  6
Continuous
 62
     7
370
    15
100
AcDbLine
 10
129.4455865301
 20
147.4557309768
 30
0.0
 11
129.4455865301
 21
152.6557314566
 31
0.0
  0
LINE
  5
BA
330
1F
100
AcDbEntity
  8
0
  6
Continuous
 62
     7
370
    15
100
AcDbLine
 10
108.4455886758
 20
155.5557311869
 30
0.0
 11
105.5581906713
 21
155.5557311869
 31
0.0
  0
SPLINE
  5
BB
330
1F
100
AcDbEntity
  8
0
  6
Continuous
 62
     7
370
    15
100
AcDbSpline
210
0.0
220
0.0
230
1.0
 70
     8
 71
     3
 72
    10
 73
     6
 74
     0
 42
0.00000001
 43
0.00000001
 12
1.0
 22
0.0
 32
0.0
 13
1.0
 23
0.0
 33
0.0
 40
0.0
 40
0.0
 40
0.0
 40
0.0
 40
0.0700362528189455
 40
0.5307569207574331
 40
1.0
 40
1.0
 40
1.0
 40
1.0
 10
105.245586661191
 20
157.3057314737504
 30
0.0
 10
105.2459589650201
 20
157.2642826543403
 30
0.0
 10
105.2487804014331
 20
156.950170364295
 30
0.0
 10
105.3170525709237
 20
156.3578966712443
 30
0.0
 10
105.4773217228286
 20
155.8247483149115
 30
0.0
 10
105.5581906712962
 20
155.555731186903
 30
0.0
  0
SPLINE
  5
BC
330
1F
100
AcDbEntity
  8
0
  6
Continuous
 62
     7
370
    15
100
AcDbSpline
210
0.0
220
0.0
230
1.0
 70
     8
 71
     3
 72
     9
 73
     5
 74
     0
 42
0.00000001
 43
0.00000001
 12
1.0
 22
0.0
 32
0.0
 13
1.0
 23
0.0
 33
0.0
 40
0.0
 40
0.0
 40
0.0
 40
0.0
 40
0.4954578422127281
 40
1.0
 40
1.0
 40
1.0
 40
1.0
 10
105.5581906712961
 20
159.0557317605977
 30
0.0
 10
105.470818617829
 20
158.7715239677843
 30
0.0
 10
105.2944725273586
 20
158.1978973771864
 30
0.0
 10
105.2619803396758
 20
157.6049157190665
 30
0.0
 10
105.245586661191
 20
157.3057314737504
 30
0.0
  0
LINE
  5
BD
330
1F
100
AcDbEntity
  8
0
  6
Continuous
 62
     7
370
    15
100
AcDbLine
 10
108.4455886758
 20
159.0557317606
 30
0.0
 11
105.5581906713
 21
159.0557317606
 31
0.0
  0
SPLINE
  5
BE
330
1F
100
AcDbEntity
  8
0
  6
Continuous
 62
     7
370
    15
100
AcDbSpline
210
0.0
220
0.0
230
1.0
 70
     8
 71
     3
 72
    10
 73
     6
 74
     0
 42
0.00000001
 43
0.00000001
 12
1.0
 22
0.0
 32
0.0
 13
1.0
 23
0.0
 33
0.0
 40
0.0
 40
0.0
 40
0.0
 40
0.0
 40
0.0700365914175321
 40
0.5307571199293314
 40
1.0
 40
1.0
 40
1.0
 40
1.0
 10
105.245586661191
 20
160.8057315817838
 30
0.0
 10
105.2459589629893
 20
160.7642826953284
 30
0.0
 10
105.2487803714313
 20
160.4501712979279
 30
0.0
 10
105.3170525603161
 20
159.8578960834803
 30
0.0
 10
105.4773217225152
 20
159.3247484883039
 30
0.0
 10
105.5581906712961
 20
159.0557317605977
 30
0.0
  0
LINE
  5
BF
330
1F
100
AcDbEntity
  8
0
  6
Continuous
 62
     7
370
    15
100
AcDbLine
 10
105.2455866612
 20
160.8057315818
 30
0.0
 11
105.2455866612
 21
157.3057314738
 31
0.0
  0
SPLINE
  5
C0
330
1F
100
AcDbEntity
  8
0
  6
Continuous
 62
     7
370
    15
100
AcDbSpline
210
0.0
220
0.0
230
1.0
 70
     8
 71
     3
 72
     9
 73
     5
 74
     0
 42
0.00000001
 43
0.00000001
 12
1.0
 22
0.0
 32
0.0
 13
1.0
 23
0.0
 33
0.0
 40
0.0
 40
0.0
 40
0.0
 40
0.0
 40
0.4954578181211137
 40
1.0
 40
1.0
 40
1.0
 40
1.0
 10
105.5581906712961
 20
162.5557315193852
 30
0.0
 10
105.4708186177308
 20
162.2715238069154
 30
0.0
 10
105.2944725184875
 20
161.6978973505853
 30
0.0
 10
105.2619803372211
 20
161.1049157914459
 30
0.0
 10
105.245586661191
 20
160.8057315817838
 30
0.0
  0
LINE
  5
C1
330
1F
100
AcDbEntity
  8
0
  6
Continuous
 62
     7
370
    15
100
AcDbLine
 10
108.4455886758
 20
162.5557315194
 30
0.0
 11
105.5581906713
 21
162.5557315194
 31
0.0
  0
SPLINE
  5
C2
330
1F
100
AcDbEntity
  8
0
  6
Continuous
 62
     7
370
    15
100
AcDbSpline
210
0.0
220
0.0
230
1.0
 70
    24
 71
     3
 72
    10
 73
     6
 74
     0
 42
0.00000001
 43
0.00000001
 12
1.0
 22
0.0
 32
0.0
 13
1.0
 23
0.0
 33
0.0
 40
0.0
 40
0.0
 40
0.0
 40
0.0
 40
0.2684068207404545
 40
0.6323733358689111
 40
1.0
 40
1.0
 40
1.0
 40
1.0
 10
105.245586661191
 20
162.5557315193852
 30
0.0
 10
105.2506643018123
 20
162.5557315193852
 30
0.0
 10
105.2626273530091
 20
162.5557315193852
 30
0.0
 10
105.3654184870984
 20
162.5557315193852
 30
0.0
 10
105.4937193142332
 20
162.5557315193852
 30
0.0
 10
105.5581906712961
 20
162.5557315193852
 30
0.0
  0
LINE
  5
C3
330
1F
100
AcDbEntity
  8
0
  6
Continuous
 62
     7
370
    15
100
AcDbLine
 10
105.2455866612
 20
162.5557315194
 30
0.0
 11
105.2455866612
 21
160.8057315818
 31
0.0
  0
SPLINE
  5
C4
330
1F
100
AcDbEntity
  8
0
  6
Continuous
 62
     7
370
    15
100
AcDbSpline
210
0.0
220
0.0
230
1.0
 70
    24
 71
     3
 72
    10
 73
     6
 74
     0
 42
0.00000001
 43
0.00000001
 12
1.0
 22
0.0
 32
0.0
 13
1.0
 23
0.0
 33
0.0
 40
0.0
 40
0.0
 40
0.0
 40
0.0
 40
0.2684068207404545
 40
0.6323733358689111
 40
1.0
 40
1.0
 40
1.0
 40
1.0
 10
105.245586661191
 20
155.555731186903
 30
0.0
 10
105.2506643018124
 20
155.555731186903
 30
0.0
 10
105.2626273530091
 20
155.555731186903
 30
0.0
 10
105.3654184870984
 20
155.555731186903
 30
0.0
 10
105.4937193142332
 20
155.555731186903
 30
0.0
 10
105.5581906712962
 20
155.555731186903
 30
0.0
  0
LINE
  5
C5
330
1F
100
AcDbEntity
  8
0
  6
Continuous
 62
     7
370
    15
100
AcDbLine
 10
105.2455866612
 20
155.5557311869
 30
0.0
 11
105.2455866612
 21
157.3057314738
 31
0.0
  0
LINE
  5
C6
330
1F
100
AcDbEntity
  8
0
  6
Continuous
 62
     7
370
    15
100
AcDbLine
 10
114.1455883063
 20
157.0557314328
 30
0.0
 11
114.1455883063
 21
157.8057315557
 31
0.0
  0
LINE
  5
C7
330
1F
100
AcDbEntity
  8
0
  6
Continuous
 62
     7
370
    15
100
AcDbLine
 10
114.1455883063
 20
160.3041680421
 30
0.0
 11
114.1455883063
 21
161.0557316228
 31
0.0
  0
LINE
  5
C8
330
1F
100
AcDbEntity
  8
0
  6
Continuous
 62
     7
370
    15
100
AcDbLine
 10
176.4455859103
 20
144.655732008
 30
0.0
 11
176.4455859103
 21
146.0557314924
 31
0.0
  0
LINE
  5
C9
330
1F
100
AcDbEntity
  8
0
  6
Continuous
 62
     7
370
    15
100
AcDbLine
 10
176.4455859103
 20
144.655732008
 30
0.0
 11
160.4455860234
 21
144.655732008
 31
0.0
  0
LINE
  5
CA
330
1F
100
AcDbEntity
  8
0
  6
Continuous
 62
     7
370
    15
100
AcDbLine
 10
160.4455860234
 20
144.655732008
 30
0.0
 11
160.4455860234
 21
146.0557314924
 31
0.0
  0
LINE
  5
CB
330
1F
100
AcDbEntity
  8
0
  6
Continuous
 62
     7
370
    15
100
AcDbLine
 10
175.5210718275
 20
146.0557314924
 30
0.0
 11
161.3700996987
 21
146.0557314924
 31
0.0
  0
LINE
  5
CC
330
1F
100
AcDbEntity
  8
0
  6
Continuous
 62
     7
370
    15
100
AcDbLine
 10
172.4455861277
 20
142.1557306669
 30
0.0
 11
171.9455860458
 21
142.1557306669
 31
0.0
  0
LINE
  5
CD
330
1F
100
AcDbEntity
  8
0
  6
Continuous
 62
     7
370
    15
100
AcDbLine
 10
159.8490385241
 20
144.5536311141
 30
0.0
 11
159.8490385241
 21
142.0536316356
 31
0.0
  0
LINE
  5
CE
330
1F
100
AcDbEntity
  8
0
  6
Continuous
 62
     7
370
    15
100
AcDbLine
 10
159.8490385241
 20
144.5536311141
 30
0.0
 11
170.9455858819
 21
144.5536311141
 31
0.0
  0
LINE
  5
CF
330
1F
100
AcDbEntity
  8
0
  6
Continuous
 62
     7
370
    15
100
AcDbLine
 10
170.9455858819
 20
142.0536316356
 30
0.0
 11
170.9455858819
 21
144.5536311141
 31
0.0
  0
LINE
  5
D0
330
1F
100
AcDbEntity
  8
0
  6
Continuous
 62
     7
370
    15
100
AcDbLine
 10
159.8490385241
 20
142.0536316356
 30
0.0
 11
170.9455858819
 21
142.0536316356
 31
0.0
  0
LINE
  5
D1
330
1F
100
AcDbEntity
  8
0
  6
Continuous
 62
     7
370
    15
100
AcDbLine
 10
155.3242338724
 20
142.9352271727
 30
0.0
 11
156.3010627306
 21
140.6339644811
 31
0.0
  0
LINE
  5
D2
330
1F
100
AcDbEntity
  8
0
  6
Continuous
 62
     7
370
    15
100
AcDbLine
 10
155.3242338724
 20
142.9352271727
 30
0.0
 11
158.4814788676
 21
144.2753984949
 31
0.0
  0
LINE
  5
D3
330
1F
100
AcDbEntity
  8
0
  6
Continuous
 62
     7
370
    15
100
AcDbLine
 10
159.4583077259
 20
141.9741358033
 30
0.0
 11
158.4814788676
 21
144.2753984949
 31
0.0
  0
LINE
  5
D4
330
1F
100
AcDbEntity
  8
0
  6
Continuous
 62
     7
370
    15
100
AcDbLine
 10
156.3010627306
 20
140.6339644811
 30
0.0
 11
159.4583077259
 21
141.9741358033
 31
0.0
  0
ARC
  5
D5
330
1F
100
AcDbEntity
  8
0
  6
Continuous
 62
     7
370
    15
100
AcDbCircle
 10
154.933502886
 20
143.8557315669
 30
0.0
 40
1.000000000000028
100
AcDbArc
 50
270.0
 51
293.0
  0
ARC
  5
D6
330
1F
100
AcDbEntity
  8
0
  6
Continuous
 62
     7
370
    15
100
AcDbCircle
 10
154.933502886
 20
143.8557315669
 30
0.0
 40
3.500000000000028
100
AcDbArc
 50
270.0
 51
293.0
  0
LINE
  5
D7
330
1F
100
AcDbEntity
  8
0
  6
Continuous
 62
     7
370
    15
100
AcDbLine
 10
154.9335030741
 20
140.3557318619
 30
0.0
 11
154.9335030741
 21
142.8557313404
 31
0.0
  0
ARC
  5
D8
330
1F
100
AcDbEntity
  8
0
  6
Continuous
 62
     7
370
    15
100
AcDbCircle
 10
159.8490382334
 20
141.0536308317
 30
0.0
 40
3.5
100
AcDbArc
 50
90.0
 51
113.0
  0
ARC
  5
D9
330
1F
100
AcDbEntity
  8
0
  6
Continuous
 62
     7
370
    15
100
AcDbCircle
 10
159.8490382334
 20
141.0536308317
 30
0.0
 40
1.0
100
AcDbArc
 50
90.0
 51
113.0
  0
LINE
  5
DA
330
1F
100
AcDbEntity
  8
0
  6
Continuous
 62
     7
370
    15
100
AcDbLine
 10
110.9455862916
 20
159.0557317606
 30
0.0
 11
108.4455886758
 21
159.0557317606
 31
0.0
  0
ARC
  5
DB
330
1F
100
AcDbEntity
  8
0
  6
Continuous
 62
     7
370
    15
100
AcDbCircle
 10
111.945585934
 20
143.8557315669
 30
0.0
 40
1.0
100
AcDbArc
 50
180.0
 51
270.0
  0
LINE
  5
DC
330
1F
100
AcDbEntity
  8
0
  6
Continuous
 62
     7
370
    15
100
AcDbLine
 10
111.9455883182
 20
142.8557313404
 30
0.0
 11
111.9455883182
 21
140.3557318619
 31
0.0
  0
ARC
  5
DD
330
1F
100
AcDbEntity
  8
0
  6
Continuous
 62
     7
370
    15
100
AcDbCircle
 10
111.945585934
 20
143.8557315669
 30
0.0
 40
3.5
100
AcDbArc
 50
180.0
 51
270.0
  0
LINE
  5
DE
330
1F
100
AcDbEntity
  8
0
  6
Continuous
 62
     7
370
    15
100
AcDbLine
 10
108.4455886758
 20
159.0557317606
 30
0.0
 11
108.4455886758
 21
143.8557315043
 31
0.0
  0
LINE
  5
DF
330
1F
100
AcDbEntity
  8
0
  6
Continuous
 62
     7
370
    15
100
AcDbLine
 10
110.9455862916
 20
159.0557317606
 30
0.0
 11
110.9455862916
 21
143.8557315043
 31
0.0
  0
LINE
  5
E0
330
1F
100
AcDbEntity
  8
0
  6
Continuous
 62
     7
370
    15
100
AcDbLine
 10
171.9455860458
 20
144.5536311141
 30
0.0
 11
171.9455860458
 21
142.0557308367
 31
0.0
  0
LINE
  5
E1
330
1F
100
AcDbEntity
  8
0
  6
Continuous
 62
     7
370
    15
100
AcDbLine
 10
170.9455858819
 20
144.5536311141
 30
0.0
 11
171.9455860458
 21
144.5536311141
 31
0.0
  0
LINE
  5
E2
330
1F
100
AcDbEntity
  8
0
  6
Continuous
 62
     7
370
    15
100
AcDbLine
 10
111.9455883182
 20
142.8557313404
 30
0.0
 11
154.9335030741
 21
142.8557313404
 31
0.0
  0
LINE
  5
E3
330
1F
100
AcDbEntity
  8
0
  6
Continuous
 62
     7
370
    15
100
AcDbLine
 10
111.9455883182
 20
140.3557318619
 30
0.0
 11
154.9335030741
 21
140.3557318619
 31
0.0
  0
LINE
  5
E4
330
1F
100
AcDbEntity
  8
0
  6
Continuous
 62
     7
370
    15
100
AcDbLine
 10
110.9455862916
 20
169.0557315371
 30
0.0
 11
108.4455886758
 21
169.0557315371
 31
0.0
  0
LINE
  5
E5
330
1F
100
AcDbEntity
  8
0
  6
Continuous
 62
     7
370
    15
100
AcDbLine
 10
108.4455886758
 20
159.0557317606
 30
0.0
 11
108.4455886758
 21
169.0557315371
 31
0.0
  0
LINE
  5
E6
330
1F
100
AcDbEntity
  8
0
  6
Continuous
 62
     7
370
    15
100
AcDbLine
 10
110.9455862916
 20
159.0557317606
 30
0.0
 11
110.9455862916
 21
169.0557315371
 31
0.0
  0
ARC
  5
E7
330
1F
100
AcDbEntity
  8
0
  6
Continuous
 62
     7
370
    15
100
AcDbCircle
 10
175.945585934
 20
143.0557315669
 30
0.0
 40
2.200000000000017
100
AcDbArc
 50
270.0
 51
0.0
  0
LINE
  5
E8
330
1F
100
AcDbEntity
  8
0
  6
Continuous
 62
     7
370
    15
100
AcDbLine
 10
175.9455858865
 20
140.8557310126
 30
0.0
 11
175.9455858865
 21
142.0557308367
 31
0.0
  0
LINE
  5
E9
330
1F
100
AcDbEntity
  8
0
  6
Continuous
 62
     7
370
    15
100
AcDbLine
 10
176.945585934
 20
143.0557310006
 30
0.0
 11
178.145585991
 21
143.0557310006
 31
0.0
  0
ARC
  5
EA
330
1F
100
AcDbEntity
  8
0
  6
Continuous
 62
     7
370
    15
100
AcDbCircle
 10
175.945585934
 20
143.0557315669
 30
0.0
 40
1.0
100
AcDbArc
 50
270.0
 51
0.0
  0
LINE
  5
EB
330
1F
100
AcDbEntity
  8
0
  6
Continuous
 62
     7
370
    15
100
AcDbLine
 10
166.1455856539
 20
140.8557310126
 30
0.0
 11
175.9455858865
 21
140.8557310126
 31
0.0
  0
LINE
  5
EC
330
1F
100
AcDbEntity
  8
0
  6
Continuous
 62
     7
370
    15
100
AcDbLine
 10
166.1455856539
 20
142.0557308367
 30
0.0
 11
166.1455856539
 21
140.8557310126
 31
0.0
  0
LINE
  5
ED
330
1F
100
AcDbEntity
  8
0
  6
Continuous
 62
     7
370
    15
100
AcDbLine
 10
166.1455856539
 20
142.0557308367
 30
0.0
 11
175.9455858865
 21
142.0557308367
 31
0.0
  0
LINE
  5
EE
330
1F
100
AcDbEntity
  8
0
  6
Continuous
 62
     7
370
    15
100
AcDbLine
 10
178.145585991
 20
177.0557319171
 30
0.0
 11
176.945585934
 21
177.0557319171
 31
0.0
  0
LINE
  5
EF
330
1F
100
AcDbEntity
  8
0
  6
Continuous
 62
     7
370
    15
100
AcDbLine
 10
178.145585991
 20
143.0557310006
 30
0.0
 11
178.145585991
 21
177.0557319171
 31
0.0
  0
LINE
  5
F0
330
1F
100
AcDbEntity
  8
0
  6
Continuous
 62
     7
370
    15
100
AcDbLine
 10
176.945585934
 20
143.0557310006
 30
0.0
 11
176.945585934
 21
177.0557319171
 31
0.0
  0
LINE
  5
F1
330
1F
100
AcDbEntity
  8
0
  6
Continuous
 62
     7
370
    15
100
AcDbLine
 10
165.14558549
 20
140.8557310126
 30
0.0
 11
165.14558549
 21
142.0536316356
 31
0.0
  0
LINE
  5
F2
330
1F
100
AcDbEntity
  8
0
  6
Continuous
 62
     7
370
    15
100
AcDbLine
 10
166.1455856539
 20
140.8557310126
 30
0.0
 11
165.14558549
 21
140.8557310126
 31
0.0
  0
LINE
  5
F3
330
1F
100
AcDbEntity
  8
0
  6
Continuous
 62
     7
370
    15
100
AcDbLine
 10
176.945585934
 20
181.0557316414
 30
0.0
 11
178.145585991
 21
181.0557316414
 31
0.0
  0
LINE
  5
F4
330
1F
100
AcDbEntity
  8
0
  6
Continuous
 62
     7
370
    15
100
AcDbLine
 10
176.945585934
 20
177.0557319171
 30
0.0
 11
176.945585934
 21
181.0557316414
 31
0.0
  0
LINE
  5
F5
330
1F
100
AcDbEntity
  8
0
  6
Continuous
 62
     7
370
    15
100
AcDbLine
 10
110.9455862916
 20
162.5557315194
 30
0.0
 11
111.2455839194
 21
162.5557315194
 31
0.0
  0
LINE
  5
F6
330
1F
100
AcDbEntity
  8
0
  6
Continuous
 62
     7
370
    15
100
AcDbLine
 10
111.2455839194
 20
162.5557315194
 30
0.0
 11
111.2455839194
 21
161.0557316228
 31
0.0
  0
LINE
  5
F7
330
1F
100
AcDbEntity
  8
0
  6
Continuous
 62
     7
370
    15
100
AcDbLine
 10
111.2455839194
 20
157.0557314328
 30
0.0
 11
111.2455839194
 21
155.5557311869
 31
0.0
  0
LINE
  5
F8
330
1F
100
AcDbEntity
  8
0
  6
Continuous
 62
     7
370
    15
100
AcDbLine
 10
111.2455839194
 20
155.5557311869
 30
0.0
 11
110.9455862916
 21
155.5557311869
 31
0.0
  0
LWPOLYLINE
  5
F9
330
1F
100
AcDbEntity
  8
0
  6
Continuous
 62
     7
370
    15
100
AcDbPolyline
 90
        5
 70
   128
 43
0.0
 10
113.9455849207
 20
155.5557311869
 10
114.1616964615
 20
155.3396215088
 10
114.318568436
 20
155.182748603
 10
114.4137048996
 20
155.0876130706
 10
114.445585934
 20
155.0557311049
  0
LINE
  5
FA
330
1F
100
AcDbEntity
  8
0
  6
Continuous
 62
     7
370
    15
100
AcDbLine
 10
111.2455839194
 20
155.5557311869
 30
0.0
 11
113.9455849207
 21
155.5557311869
 31
0.0
  0
LINE
  5
FB
330
1F
100
AcDbEntity
  8
0
  6
Continuous
 62
     7
370
    15
100
AcDbLine
 10
113.9455849207
 20
162.5557315194
 30
0.0
 11
111.2455839194
 21
162.5557315194
 31
0.0
  0
LWPOLYLINE
  5
FC
330
1F
100
AcDbEntity
  8
0
  6
Continuous
 62
     7
370
    15
100
AcDbPolyline
 90
        5
 70
   128
 43
0.0
 10
114.445585934
 20
163.0557315431
 10
114.4137048996
 20
163.0238503341
 10
114.318568436
 20
162.9287149182
 10
114.1616964615
 20
162.7718417796
 10
113.9455849207
 20
162.5557315194
  0
LINE
  5
FD
330
1F
100
AcDbEntity
  8
0
  6
Continuous
 62
     7
370
    15
100
AcDbLine
 10
136.4455858148
 20
177.0557319171
 30
0.0
 11
132.4455851592
 21
177.0557319171
 31
0.0
  0
LINE
  5
FE
330
1F
100
AcDbEntity
  8
0
  6
Continuous
 62
     7
370
    15
100
AcDbLine
 10
136.4455858148
 20
150.0557312167
 30
0.0
 11
136.4455858148
 21
177.0557319171
 31
0.0
  0
LINE
  5
FF
330
1F
100
AcDbEntity
  8
0
  6
Continuous
 62
     7
370
    15
100
AcDbLine
 10
132.4455851592
 20
150.0557312167
 30
0.0
 11
136.4455858148
 21
150.0557312167
 31
0.0
  0
LINE
  5
100
330
1F
100
AcDbEntity
  8
0
  6
Continuous
 62
     7
370
    15
100
AcDbLine
 10
132.4455851592
 20
150.0557312167
 30
0.0
 11
132.4455851592
 21
156.1666364207
 31
0.0
  0
LINE
  5
101
330
1F
100
AcDbEntity
  8
0
  6
Continuous
 62
     7
370
    15
100
AcDbLine
 10
132.4455851592
 20
156.1666364207
 30
0.0
 11
129.4455865301
 21
156.1666364207
 31
0.0
  0
LINE
  5
102
330
1F
100
AcDbEntity
  8
0
  6
Continuous
 62
     7
370
    15
100
AcDbLine
 10
129.4455865301
 20
156.1666364207
 30
0.0
 11
129.4455865301
 21
170.9448267131
 31
0.0
  0
LINE
  5
103
330
1F
100
AcDbEntity
  8
0
  6
Continuous
 62
     7
370
    15
100
AcDbLine
 10
132.4455851592
 20
170.9448267131
 30
0.0
 11
129.4455865301
 21
170.9448267131
 31
0.0
  0
LINE
  5
104
330
1F
100
AcDbEntity
  8
0
  6
Continuous
 62
     7
370
    15
100
AcDbLine
 10
132.4455851592
 20
170.9448267131
 30
0.0
 11
132.4455851592
 21
177.0557319171
 31
0.0
  0
LINE
  5
105
330
1F
100
AcDbEntity
  8
0
  6
Continuous
 62
     7
370
    15
100
AcDbLine
 10
132.4455851592
 20
181.0557316414
 30
0.0
 11
136.4455858148
 21
181.0557316414
 31
0.0
  0
LINE
  5
106
330
1F
100
AcDbEntity
  8
0
  6
Continuous
 62
     7
370
    15
100
AcDbLine
 10
136.4455858148
 20
181.0557316414
 30
0.0
 11
136.4455858148
 21
177.0557319171
 31
0.0
  0
LINE
  5
107
330
1F
100
AcDbEntity
  8
0
  6
Continuous
 62
     7
370
    15
100
AcDbLine
 10
132.4455851592
 20
177.0557319171
 30
0.0
 11
132.4455851592
 21
181.0557316414
 31
0.0
  0
LINE
  5
108
330
1F
100
AcDbEntity
  8
0
  6
Continuous
 62
     7
370
    15
100
AcDbLine
 10
136.4455858148
 20
150.0557312167
 30
0.0
 11
136.4455858148
 21
146.0557314924
 31
0.0
  0
LINE
  5
109
330
1F
100
AcDbEntity
  8
0
  6
Continuous
 62
     7
370
    15
100
AcDbLine
 10
136.4455858148
 20
146.0557314924
 30
0.0
 11
132.4455851592
 21
146.0557314924
 31
0.0
  0
LINE
  5
10A
330
1F
100
AcDbEntity
  8
0
  6
Continuous
 62
     7
370
    15
100
AcDbLine
 10
132.4455851592
 20
146.0557314924
 30
0.0
 11
132.4455851592
 21
150.0557312167
 31
0.0
  0
LINE
  5
10B
330
1F
100
AcDbEntity
  8
0
  6
Continuous
 62
     7
370
    15
100
AcDbLine
 10
132.4455851592
 20
153.2550347394
 30
0.0
 11
129.4455865301
 21
153.2550347394
 31
0.0
  0
LINE
  5
10C
330
1F
100
AcDbEntity
  8
0
  6
Continuous
 62
     7
370
    15
100
AcDbLine
 10
129.4455865301
 20
156.1666364207
 30
0.0
 11
129.4455865301
 21
153.2550347394
 31
0.0
  0
LINE
  5
10D
330
1F
100
AcDbEntity
  8
0
  6
Continuous
 62
     7
370
    15
100
AcDbLine
 10
132.4455851592
 20
173.8564283944
 30
0.0
 11
129.4455865301
 21
173.8564283944
 31
0.0
  0
LINE
  5
10E
330
1F
100
AcDbEntity
  8
0
  6
Continuous
 62
     7
370
    15
100
AcDbLine
 10
129.4455865301
 20
173.8564283944
 30
0.0
 11
129.4455865301
 21
170.9448267131
 31
0.0
  0
LINE
  5
10F
330
1F
100
AcDbEntity
  8
0
  6
Continuous
 62
     7
370
    15
100
AcDbLine
 10
129.4455865301
 20
153.2550347394
 30
0.0
 11
129.4455865301
 21
152.6557314566
 31
0.0
  0
LINE
  5
110
330
1F
100
AcDbEntity
  8
0
  6
Continuous
 62
     7
370
    15
100
AcDbLine
 10
129.4455865301
 20
174.4557316772
 30
0.0
 11
129.4455865301
 21
173.8564283944
 31
0.0
  0
LINE
  5
111
330
1F
100
AcDbEntity
  8
0
  6
Continuous
 62
     7
370
    15
100
AcDbLine
 10
114.9455869473
 20
159.0557317606
 30
0.0
 11
114.9455869473
 21
169.0557315371
 31
0.0
  0
LINE
  5
112
330
1F
100
AcDbEntity
  8
0
  6
Continuous
 62
     7
370
    15
100
AcDbLine
 10
114.9455869473
 20
149.0557319841
 30
0.0
 11
114.9455869473
 21
159.0557317606
 31
0.0
  0
LINE
  5
113
330
1F
100
AcDbEntity
  8
0
  6
Continuous
 62
     7
370
    15
100
AcDbLine
 10
132.4455851592
 20
146.0557314924
 30
0.0
 11
129.4455865301
 21
146.0557314924
 31
0.0
  0
SPLINE
  5
114
330
1F
100
AcDbEntity
  8
0
  6
Continuous
 62
     7
370
    15
100
AcDbSpline
210
0.0
220
0.0
230
1.0
 70
    24
 71
     3
 72
    11
 73
     7
 74
     0
 42
0.00000001
 43
0.00000001
 12
1.0
 22
0.0
 32
0.0
 13
1.0
 23
0.0
 33
0.0
 40
0.0
 40
0.0
 40
0.0
 40
0.0
 40
0.243658218923918
 40
0.477052626641806
 40
0.7320437339528468
 40
1.0
 40
1.0
 40
1.0
 40
1.0
 10
129.4455865300609
 20
147.3861835322149
 30
0.0
 10
129.4455865300609
 20
147.21518192475
 30
0.0
 10
129.4455865300609
 20
146.8803819481214
 30
0.0
 10
129.4455865300609
 20
146.5589391106658
 30
0.0
 10
129.4455865300609
 20
146.29242135589
 30
0.0
 10
129.4455865300609
 20
146.135921453427
 30
0.0
 10
129.4455865300609
 20
146.0557314923771
 30
0.0
  0
LINE
  5
115
330
1F
100
AcDbEntity
  8
0
  6
Continuous
 62
     7
370
    15
100
AcDbLine
 10
132.4455851592
 20
181.0557316414
 30
0.0
 11
129.4455865301
 21
181.0557316414
 31
0.0
  0
SPLINE
  5
116
330
1F
100
AcDbEntity
  8
0
  6
Continuous
 62
     7
370
    15
100
AcDbSpline
210
0.0
220
0.0
230
1.0
 70
    24
 71
     3
 72
    11
 73
     7
 74
     0
 42
0.00000001
 43
0.00000001
 12
1.0
 22
0.0
 32
0.0
 13
1.0
 23
0.0
 33
0.0
 40
0.0
 40
0.0
 40
0.0
 40
0.0
 40
0.3413352784530668
 40
0.6569354865146476
 40
0.9375647855223341
 40
1.0
 40
1.0
 40
1.0
 40
1.0
 10
129.4455865300606
 20
181.0557316413887
 30
0.0
 10
129.4455865300606
 20
180.9543125826447
 30
0.0
 10
129.4455865300606
 20
180.7591209839333
 30
0.0
 10
129.4455865300606
 20
180.4028059718812
 30
0.0
 10
129.4455865300606
 20
180.047488064546
 30
0.0
 10
129.4455865300606
 20
179.786778598939
 30
0.0
 10
129.4455865300606
 20
179.7393313965567
 30
0.0
  0
LINE
  5
117
330
1F
100
AcDbEntity
  8
0
  6
Continuous
 62
     7
370
    15
100
AcDbLine
 10
138.4455861426
 20
177.0557319171
 30
0.0
 11
136.4455858148
 21
177.0557319171
 31
0.0
  0
LINE
  5
118
330
1F
100
AcDbEntity
  8
0
  6
Continuous
 62
     7
370
    15
100
AcDbLine
 10
136.4455858148
 20
150.0557312167
 30
0.0
 11
138.4455861426
 21
150.0557312167
 31
0.0
  0
LINE
  5
119
330
1F
100
AcDbEntity
  8
0
  6
Continuous
 62
     7
370
    15
100
AcDbLine
 10
138.4455861426
 20
150.0557312167
 30
0.0
 11
138.4455861426
 21
177.0557319171
 31
0.0
  0
LINE
  5
11A
330
1F
100
AcDbEntity
  8
0
  6
Continuous
 62
     7
370
    15
100
AcDbLine
 10
138.4455861426
 20
146.0557314924
 30
0.0
 11
136.4455858148
 21
146.0557314924
 31
0.0
  0
LINE
  5
11B
330
1F
100
AcDbEntity
  8
0
  6
Continuous
 62
     7
370
    15
100
AcDbLine
 10
138.4455861426
 20
150.0557312167
 30
0.0
 11
138.4455861426
 21
146.0557314924
 31
0.0
  0
LINE
  5
11C
330
1F
100
AcDbEntity
  8
0
  6
Continuous
 62
     7
370
    15
100
AcDbLine
 10
136.4455858148
 20
181.0557316414
 30
0.0
 11
138.4455861426
 21
181.0557316414
 31
0.0
  0
LINE
  5
11D
330
1F
100
AcDbEntity
  8
0
  6
Continuous
 62
     7
370
    15
100
AcDbLine
 10
138.4455861426
 20
181.0557316414
 30
0.0
 11
138.4455861426
 21
177.0557319171
 31
0.0
  0
LINE
  5
11E
330
1F
100
AcDbEntity
  8
0
  6
Continuous
 62
     7
370
    15
100
AcDbLine
 10
138.4455861426
 20
176.5557318351
 30
0.0
 11
138.9455871559
 21
176.5557318351
 31
0.0
  0
LINE
  5
11F
330
1F
100
AcDbEntity
  8
0
  6
Continuous
 62
     7
370
    15
100
AcDbLine
 10
138.4455861426
 20
180.5557324908
 30
0.0
 11
138.9455871559
 21
180.5557324908
 31
0.0
  0
LINE
  5
120
330
1F
100
AcDbEntity
  8
0
  6
Continuous
 62
     7
370
    15
100
AcDbLine
 10
138.4455861426
 20
150.5557312987
 30
0.0
 11
138.9455871559
 21
150.5557312987
 31
0.0
  0
LINE
  5
121
330
1F
100
AcDbEntity
  8
0
  6
Continuous
 62
     7
370
    15
100
AcDbLine
 10
138.4455861426
 20
146.555730643
 30
0.0
 11
138.9455871559
 21
146.555730643
 31
0.0
  0
LINE
  5
122
330
1F
100
AcDbEntity
  8
0
  6
Continuous
 62
     7
370
    15
100
AcDbLine
 10
138.9455871559
 20
150.0557312167
 30
0.0
 11
176.945585934
 21
150.0557312167
 31
0.0
  0
LINE
  5
123
330
1F
100
AcDbEntity
  8
0
  6
Continuous
 62
     7
370
    15
100
AcDbLine
 10
176.945585934
 20
146.0557314924
 30
0.0
 11
175.5210718275
 21
146.0557314924
 31
0.0
  0
LINE
  5
124
330
1F
100
AcDbEntity
  8
0
  6
Continuous
 62
     7
370
    15
100
AcDbLine
 10
161.3700996987
 20
146.0557314924
 30
0.0
 11
138.9455871559
 21
146.0557314924
 31
0.0
  0
LINE
  5
125
330
1F
100
AcDbEntity
  8
0
  6
Continuous
 62
     7
370
    15
100
AcDbLine
 10
138.9455871559
 20
146.0557314924
 30
0.0
 11
138.9455871559
 21
150.0557312167
 31
0.0
  0
LINE
  5
126
330
1F
100
AcDbEntity
  8
0
  6
Continuous
 62
     7
370
    15
100
AcDbLine
 10
138.9455871559
 20
181.0557316414
 30
0.0
 11
176.945585934
 21
181.0557316414
 31
0.0
  0
LINE
  5
127
330
1F
100
AcDbEntity
  8
0
  6
Continuous
 62
     7
370
    15
100
AcDbLine
 10
176.945585934
 20
177.0557319171
 30
0.0
 11
138.9455871559
 21
177.0557319171
 31
0.0
  0
LINE
  5
128
330
1F
100
AcDbEntity
  8
0
  6
Continuous
 62
     7
370
    15
100
AcDbLine
 10
138.9455871559
 20
177.0557319171
 30
0.0
 11
138.9455871559
 21
181.0557316414
 31
0.0
  0
LINE
  5
129
330
1F
100
AcDbEntity
  8
0
  6
Continuous
 62
     7
370
    15
100
AcDbLine
 10
176.945585934
 20
150.0557312167
 30
0.0
 11
176.945585934
 21
177.0557319171
 31
0.0
  0
LINE
  5
12A
330
1F
100
AcDbEntity
  8
0
  6
Continuous
 62
     7
370
    15
100
AcDbLine
 10
138.9455871559
 20
150.0557312167
 30
0.0
 11
138.9455871559
 21
177.0557319171
 31
0.0
  0
LINE
  5
12B
330
1F
100
AcDbEntity
  8
0
  6
Continuous
 62
     8
370
    15
100
AcDbLine
 10
186.2455859683
 20
157.2557315587
 30
0.0
 11
186.2455859683
 21
154.8943608424
 31
0.0
  0
LINE
  5
12C
330
1F
100
AcDbEntity
  8
0
  6
Continuous
 62
     8
370
    15
100
AcDbLine
 10
129.5955853439
 20
179.8057309708
 30
0.0
 11
129.5955853439
 21
174.305731932
 31
0.0
  0
LINE
  5
12D
330
1F
100
AcDbEntity
  8
0
  6
Continuous
 62
     8
370
    15
100
AcDbLine
 10
129.5955853439
 20
152.8057312018
 30
0.0
 11
129.5955853439
 21
147.3057321629
 31
0.0
  0
LINE
  5
12E
330
1F
100
AcDbEntity
  8
0
  6
CENTERX2
 62
     7
370
     0
100
AcDbLine
 10
177.2047431364
 20
224.7108820787
 30
0.0
 11
176.145585934
 21
224.7108819485
 31
0.0
  0
LINE
  5
12F
330
1F
100
AcDbEntity
  8
0
  6
CENTERX2
 62
     7
370
     0
100
AcDbLine
 10
176.145585934
 20
181.0557315669
 30
0.0
 11
176.145585934
 21
224.7108819485
 31
0.0
  0
ARC
  5
130
330
1F
100
AcDbEntity
  8
0
  6
CENTERX2
 62
     7
370
     0
100
AcDbCircle
 10
140.1095475819
 20
209.7460410582
 30
0.0
 40
39.99999999997416
100
AcDbArc
 50
12.6041500541
 51
21.9699972666
  0
DIMENSION
  5
131
330
1F
100
AcDbEntity
  8
0
  6
Continuous
 62
     7
370
     0
100
AcDbDimension
  2
_D
 10
176.145585934
 20
234.7158831457
 30
0.0
 11
177.645585934
 21
234.7158831457
 31
0.0
 70
   160
  1
Maxストローク   <>
 71
     2
 42
-1.0
  3
SLDDIMSTYLE0
100
AcDbAlignedDimension
 13
179.145585934
 23
224.7108819485
 33
0.0
 14
176.145585934
 24
224.7108819485
 34
0.0
 50
0.0
100
AcDbRotatedDimension
  0
DIMENSION
  5
149
330
1F
100
AcDbEntity
  8
0
  6
Continuous
 62
     7
370
     0
100
AcDbDimension
  2
_D_1
 10
150.945585934
 20
234.7158831457
 30
0.0
 11
163.495585934
 21
234.7158831457
 31
0.0
 70
   160
  1
<>
 71
     2
 42
-1.0
  3
SLDDIMSTYLE1
100
AcDbAlignedDimension
 13
176.145585934
 23
224.7108819485
 33
0.0
 14
150.945585934
 24
144.8557315669
 34
0.0
 50
0.0
100
AcDbRotatedDimension
  0
DIMENSION
  5
154
330
1F
100
AcDbEntity
  8
0
  6
Continuous
 62
     7
370
     0
100
AcDbDimension
  2
_D_2
 10
188.645585934
 20
113.8449955924
 30
0.0
 11
141.245585934
 21
113.8449955924
 31
0.0
 70
   160
  1
(<>)
 71
     2
 42
-1.0
  3
SLDDIMSTYLE1
100
AcDbAlignedDimension
 13
93.845585934
 23
155.2057315669
 33
0.0
 14
188.645585934
 24
157.2557315669
 34
0.0
 50
0.0
100
AcDbRotatedDimension
  0
DIMENSION
  5
160
330
1F
100
AcDbEntity
  8
0
  6
Continuous
 62
     7
370
     0
100
AcDbDimension
  2
_D_3
 10
188.645585934
 20
123.1893103702
 30
0.0
 11
148.545585934
 21
123.1893103702
 31
0.0
 70
   160
  1
(<>)
 71
     2
 42
-1.0
  3
SLDDIMSTYLE1
100
AcDbAlignedDimension
 13
108.445585934
 23
143.8557315669
 33
0.0
 14
188.645585934
 24
157.2557315669
 34
0.0
 50
0.0
100
AcDbRotatedDimension
  0
DIMENSION
  5
16C
330
1F
100
AcDbEntity
  8
0
  6
Continuous
 62
     7
370
     0
100
AcDbDimension
  2
_D_4
 10
86.9124435773
 20
140.3557315669
 30
0.0
 11
86.9124435773
 21
149.7057315669
 31
0.0
 70
   160
  1
<>
 71
     2
 42
-1.0
  3
SLDDIMSTYLE1
100
AcDbAlignedDimension
 13
91.2592117132
 23
159.0557315669
 33
0.0
 14
111.945585934
 24
140.3557315669
 34
0.0
 50
90.0
100
AcDbRotatedDimension
  0
DIMENSION
  5
176
330
1F
100
AcDbEntity
  8
0
  6
Continuous
 62
     7
370
     0
100
AcDbDimension
  2
_D_5
 10
80.4965233276
 20
140.3557315669
 30
0.0
 11
80.4965233276
 21
157.7057315669
 31
0.0
 70
   160
  1
<>
 71
     2
 42
-1.0
  3
SLDDIMSTYLE1
100
AcDbAlignedDimension
 13
117.9395563732
 23
175.0557315669
 33
0.0
 14
111.945585934
 24
140.3557315669
 34
0.0
 50
90.0
100
AcDbRotatedDimension
  0
DIMENSION
  5
180
330
1F
100
AcDbEntity
  8
0
  6
Continuous
 62
     7
370
     0
100
AcDbDimension
  2
_D_6
 10
150.945585934
 20
133.2751586099
 30
0.0
 11
145.945585934
 21
133.2751586099
 31
0.0
 70
   160
  1
<>
 71
     2
 42
-1.0
  3
SLDDIMSTYLE1
100
AcDbAlignedDimension
 13
140.945585934
 23
138.3557315669
 33
0.0
 14
150.945585934
 24
138.3557315669
 34
0.0
 50
0.0
100
AcDbRotatedDimension
  0
DIMENSION
  5
18A
330
1F
100
AcDbEntity
  8
0
  6
Continuous
 62
     7
370
     0
100
AcDbDimension
  2
_D_7
 10
188.645585934
 20
133.2751586099
 30
0.0
 11
169.795585934
 21
133.2751586099
 31
0.0
 70
   160
  1
<>
 71
     2
 42
-1.0
  3
SLDDIMSTYLE1
100
AcDbAlignedDimension
 13
150.945585934
 23
138.3557315669
 33
0.0
 14
188.645585934
 24
157.2557315669
 34
0.0
 50
0.0
100
AcDbRotatedDimension
  0
DIMENSION
  5
194
330
1F
100
AcDbEntity
  8
0
  6
Continuous
 62
     7
370
     0
100
AcDbDimension
  2
_D_8
 10
188.645585934
 20
234.7158831457
 30
0.0
 11
183.895585934
 21
234.7158831457
 31
0.0
 70
   160
  1
<>
 71
     2
 42
-1.0
  3
SLDDIMSTYLE0
100
AcDbAlignedDimension
 13
179.145585934
 23
224.6218825874
 33
0.0
 14
188.645585934
 24
193.0557315669
 34
0.0
 50
0.0
100
AcDbRotatedDimension
  0
DIMENSION
  5
1A0
330
1F
100
AcDbEntity
  8
0
  6
Continuous
 62
     7
370
     0
100
AcDbDimension
  2
_D_9
 10
195.6673362111
 20
140.3557315669
 30
0.0
 11
195.6673362111
 21
182.5333069485
 31
0.0
 70
   160
  1
<>
 71
     2
 42
-1.0
  3
SLDDIMSTYLE1
100
AcDbAlignedDimension
 13
180.2047429339
 23
224.7108823302
 33
0.0
 14
154.933502886
 24
140.3557315669
 34
0.0
 50
90.0
100
AcDbRotatedDimension
  0
INSERT
  5
1B4
330
1F
100
AcDbEntity
  8
0
  6
Continuous
 62
     7
370
     0
100
AcDbBlockReference
  2
SW_NOTE_0
 10
126.7291910903
 20
193.9038686987
 30
0.0
  0
LEADER
  5
1B6
330
1F
100
AcDbEntity
  8
0
  6
Continuous
 62
     7
370
     0
100
AcDbLeader
  3
SLDDIMSTYLE2
 76
     2
 10
126.7561810866
 20
176.7483945238
 30
0.0
 10
126.7291910903
 20
193.9038686987
 30
0.0
  0
INSERT
  5
1C1
330
1F
100
AcDbEntity
  8
0
  6
Continuous
 62
     7
370
     0
100
AcDbBlockReference
  2
SW_NOTE_1
 10
83.3845996292
 20
205.4227571842
 30
0.0
  0
INSERT
  5
1C2
330
1F
100
AcDbEntity
  8
0
  6
Continuous
 62
     7
370
     0
100
AcDbBlockReference
  2
_DOT
 10
100.8045363647
 20
161.7402144437
 30
2.9653923322
 41
3.0
 42
3.0
 50
269.9790373797
  0
LINE
  5
1C3
330
1F
100
AcDbEntity
  8
0
  6
Continuous
 62
     7
370
     0
100
AcDbLine
 10
100.8045363647
 20
161.7402144437
 30
0.0
 11
100.8206330598
 21
205.7362719812
 31
0.0
  0
LINE
  5
1C4
330
1F
100
AcDbEntity
  8
0
  6
CENTERX2
 62
     7
370
     0
100
AcDbLine
 10
100.8783500821
 20
159.0557315669
 30
0.0
 11
91.2592117132
 21
159.0557315669
 31
0.0
  0
LINE
  5
1C5
330
1F
100
AcDbEntity
  8
0
  6
CENTERX2
 62
     7
370
     0
100
AcDbLine
 10
140.945585934
 20
144.8557315669
 30
0.0
 11
140.945585934
 21
138.3557315669
 31
0.0
  0
LINE
  5
1C6
330
1F
100
AcDbEntity
  8
0
  6
CENTERX2
 62
     7
370
     0
100
AcDbLine
 10
150.945585934
 20
138.3557315669
 30
0.0
 11
150.945585934
 21
144.8557315669
 31
0.0
  0
CIRCLE
  5
1C7
330
1F
100
AcDbEntity
  8
0
  6
Continuous
 62
     7
370
    15
100
AcDbCircle
 10
45.746113508
 20
175.0557315669
 30
0.0
 40
3.850000000000001
  0
CIRCLE
  5
1C8
330
1F
100
AcDbEntity
  8
0
  6
Continuous
 62
     7
370
    15
100
AcDbCircle
 10
45.746113508
 20
175.0557315669
 30
0.0
 40
2.050000000000005
  0
CIRCLE
  5
1C9
330
1F
100
AcDbEntity
  8
0
  6
Continuous
 62
     7
370
    15
100
AcDbCircle
 10
45.746113508
 20
175.0557315669
 30
0.0
 40
4.000000000000005
  0
LINE
  5
1CA
330
1F
100
AcDbEntity
  8
0
  6
Continuous
 62
     7
370
    15
100
AcDbLine
 10
46.8209592942
 20
174.6337837896
 30
0.0
 11
46.6489538517
 21
175.7756010986
 31
0.0
  0
LINE
  5
1CB
330
1F
100
AcDbEntity
  8
0
  6
Continuous
 62
     7
370
    15
100
AcDbLine
 10
45.5741080946
 20
176.1975488982
 30
0.0
 11
46.6489538517
 21
175.7756010986
 31
0.0
  0
LINE
  5
1CC
330
1F
100
AcDbEntity
  8
0
  6
Continuous
 62
     7
370
    15
100
AcDbLine
 10
45.5741080946
 20
176.1975488982
 30
0.0
 11
44.6712677218
 21
175.4776793889
 31
0.0
  0
LINE
  5
1CD
330
1F
100
AcDbEntity
  8
0
  6
Continuous
 62
     7
370
    15
100
AcDbLine
 10
44.6712677218
 20
175.4776793889
 30
0.0
 11
44.8432731642
 21
174.3358620799
 31
0.0
  0
LINE
  5
1CE
330
1F
100
AcDbEntity
  8
0
  6
Continuous
 62
     7
370
    15
100
AcDbLine
 10
44.8432731642
 20
174.3358620799
 30
0.0
 11
45.9181189213
 21
173.9139142803
 31
0.0
  0
LINE
  5
1CF
330
1F
100
AcDbEntity
  8
0
  6
Continuous
 62
     7
370
    15
100
AcDbLine
 10
45.9181189213
 20
173.9139142803
 30
0.0
 11
46.8209592942
 21
174.6337837896
 31
0.0
  0
CIRCLE
  5
1D0
330
1F
100
AcDbEntity
  8
0
  6
Continuous
 62
     7
370
    15
100
AcDbCircle
 10
45.746113508
 20
159.0557315669
 30
0.0
 40
3.850000000000001
  0
CIRCLE
  5
1D1
330
1F
100
AcDbEntity
  8
0
  6
Continuous
 62
     7
370
    15
100
AcDbCircle
 10
45.746113508
 20
159.0557315669
 30
0.0
 40
2.050000000000005
  0
CIRCLE
  5
1D2
330
1F
100
AcDbEntity
  8
0
  6
Continuous
 62
     7
370
    15
100
AcDbCircle
 10
45.746113508
 20
159.0557315669
 30
0.0
 40
4.000000000000005
  0
LINE
  5
1D3
330
1F
100
AcDbEntity
  8
0
  6
Continuous
 62
     7
370
    15
100
AcDbLine
 10
46.8209592942
 20
158.633783961
 30
0.0
 11
46.6489538517
 21
159.7756015028
 31
0.0
  0
LINE
  5
1D4
330
1F
100
AcDbEntity
  8
0
  6
Continuous
 62
     7
370
    15
100
AcDbLine
 10
45.5741080946
 20
160.1975490696
 30
0.0
 11
46.6489538517
 21
159.7756015028
 31
0.0
  0
LINE
  5
1D5
330
1F
100
AcDbEntity
  8
0
  6
Continuous
 62
     7
370
    15
100
AcDbLine
 10
45.5741080946
 20
160.1975490696
 30
0.0
 11
44.6712677218
 21
159.4776790946
 31
0.0
  0
LINE
  5
1D6
330
1F
100
AcDbEntity
  8
0
  6
Continuous
 62
     7
370
    15
100
AcDbLine
 10
44.6712677218
 20
159.4776790946
 30
0.0
 11
44.8432731642
 21
158.3358617856
 31
0.0
  0
LINE
  5
1D7
330
1F
100
AcDbEntity
  8
0
  6
Continuous
 62
     7
370
    15
100
AcDbLine
 10
44.8432731642
 20
158.3358617856
 30
0.0
 11
45.9181189213
 21
157.913913986
 31
0.0
  0
LINE
  5
1D8
330
1F
100
AcDbEntity
  8
0
  6
Continuous
 62
     7
370
    15
100
AcDbLine
 10
45.9181189213
 20
157.913913986
 30
0.0
 11
46.8209592942
 21
158.633783961
 31
0.0
  0
LINE
  5
1D9
330
1F
100
AcDbEntity
  8
0
  6
Continuous
 62
     7
370
    15
100
AcDbLine
 10
59.7461139401
 20
182.0557318053
 30
0.0
 11
58.1461138641
 21
182.0557318053
 31
0.0
  0
LINE
  5
1DA
330
1F
100
AcDbEntity
  8
0
  6
Continuous
 62
     7
370
    15
100
AcDbLine
 10
59.7461139401
 20
177.0557319171
 30
0.0
 11
59.7461139401
 21
182.0557318053
 31
0.0
  0
LINE
  5
1DB
330
1F
100
AcDbEntity
  8
0
  6
Continuous
 62
     7
370
    15
100
AcDbLine
 10
58.1461138641
 20
180.2557311377
 30
0.0
 11
58.1461138641
 21
182.0557318053
 31
0.0
  0
LINE
  5
1DC
330
1F
100
AcDbEntity
  8
0
  6
Continuous
 62
     7
370
    15
100
AcDbLine
 10
31.7461130758
 20
182.0557318053
 30
0.0
 11
33.3469457542
 21
182.0557318053
 31
0.0
  0
LINE
  5
1DD
330
1F
100
AcDbEntity
  8
0
  6
Continuous
 62
     7
370
    15
100
AcDbLine
 10
33.3469457542
 20
182.0557318053
 30
0.0
 11
33.3469457542
 21
180.2563551239
 31
0.0
  0
LINE
  5
1DE
330
1F
100
AcDbEntity
  8
0
  6
Continuous
 62
     7
370
    15
100
AcDbLine
 10
31.7461130758
 20
182.0557318053
 30
0.0
 11
31.7461130758
 21
177.0557319171
 31
0.0
  0
LINE
  5
1DF
330
1F
100
AcDbEntity
  8
0
  6
Continuous
 62
     7
370
    15
100
AcDbLine
 10
54.590000174
 20
191.8249777875
 30
0.0
 11
56.2421515202
 21
210.3141262553
 31
0.0
  0
ARC
  5
1E0
330
1F
100
AcDbEntity
  8
0
  6
Continuous
 62
     7
370
    15
100
AcDbCircle
 10
45.746113508
 20
188.3557315669
 30
0.0
 40
9.499999999980751
100
AcDbArc
 50
21.4188961235
 51
75.4834703492
  0
LINE
  5
1E1
330
1F
100
AcDbEntity
  8
0
  6
Continuous
 62
     7
370
    15
100
AcDbLine
 10
48.1273768087
 20
197.5524477086
 30
0.0
 11
47.1720134224
 21
198.6953034422
 31
0.0
  0
LINE
  5
1E2
330
1F
100
AcDbEntity
  8
0
  6
Continuous
 62
     7
370
    15
100
AcDbLine
 10
47.1720134224
 20
198.6953034422
 30
0.0
 11
47.8309873575
 21
206.0695826432
 31
0.0
  0
SPLINE
  5
1E3
330
1F
100
AcDbEntity
  8
0
  6
Continuous
 62
     7
370
    15
100
AcDbSpline
210
0.0
220
0.0
230
1.0
 70
     8
 71
     3
 72
    11
 73
     7
 74
     0
 42
0.00000001
 43
0.00000001
 12
1.0
 22
0.0
 32
0.0
 13
1.0
 23
0.0
 33
0.0
 40
0.0
 40
0.0
 40
0.0
 40
0.0
 40
0.2499986699556107
 40
0.4999975082615503
 40
0.7499989513048816
 40
1.0
 40
1.0
 40
1.0
 40
1.0
 10
47.39268122608957
 20
206.7823126337303
 30
0.0
 10
47.45961227962143
 20
206.7481839627029
 30
0.0
 10
47.59347443175685
 20
206.6799265976659
 30
0.0
 10
47.73917521161616
 20
206.5041822611856
 30
0.0
 10
47.83022907445469
 20
206.2948398396886
 30
0.0
 10
47.83071410750893
 20
206.1445789289245
 30
0.0
 10
47.83095662384478
 20
206.0694485327972
 30
0.0
  0
LINE
  5
1E4
330
1F
100
AcDbEntity
  8
0
  6
Continuous
 62
     7
370
    15
100
AcDbLine
 10
47.3926812261
 20
206.7823126337
 30
0.0
 11
48.9947435995
 21
224.7108831427
 31
0.0
  0
LINE
  5
1E5
330
1F
100
AcDbEntity
  8
0
  6
Continuous
 62
     7
370
    15
100
AcDbLine
 10
48.9947435995
 20
224.7108831427
 30
0.0
 11
49.9907618938
 21
224.6218822322
 31
0.0
  0
ARC
  5
1E6
330
1F
100
AcDbEntity
  8
0
  6
Continuous
 62
     7
370
    15
100
AcDbCircle
 10
36.243343508
 20
210.0957515669
 30
0.0
 40
20.00000000001112
100
AcDbArc
 50
0.625610935
 51
46.5776462634
  0
ARC
  5
1E7
330
1F
100
AcDbEntity
  8
0
  6
Continuous
 62
     7
370
    15
100
AcDbCircle
 10
45.746113508
 20
188.3557315669
 30
0.0
 40
9.000000000029168
100
AcDbArc
 50
204.2940203229
 51
234.2046324562
  0
LINE
  5
1E8
330
1F
100
AcDbEntity
  8
0
  6
Continuous
 62
     7
370
    15
100
AcDbLine
 10
37.5430978452
 20
184.6529576353
 30
0.0
 11
35.250084809
 21
210.3140256724
 31
0.0
  0
LINE
  5
1E9
330
1F
100
AcDbEntity
  8
0
  6
Continuous
 62
     7
370
    15
100
AcDbLine
 10
41.5014772294
 20
224.6218859575
 30
0.0
 11
42.4974824851
 21
224.7108831427
 31
0.0
  0
LINE
  5
1EA
330
1F
100
AcDbEntity
  8
0
  6
Continuous
 62
     7
370
    15
100
AcDbLine
 10
42.4974824851
 20
224.7108831427
 30
0.0
 11
44.288692981
 21
206.8284764311
 31
0.0
  0
ARC
  5
1EB
330
1F
100
AcDbEntity
  8
0
  6
Continuous
 62
     7
370
    15
100
AcDbCircle
 10
44.358453508
 20
206.1319615669
 30
0.0
 40
0.6999999899977218
100
AcDbArc
 50
95.7194707017
 51
185.1150635345
  0
LINE
  5
1EC
330
1F
100
AcDbEntity
  8
0
  6
Continuous
 62
     7
370
    15
100
AcDbLine
 10
43.6612263871
 20
206.0696198962
 30
0.0
 11
44.2781925518
 21
199.1652227363
 31
0.0
  0
ARC
  5
1ED
330
1F
100
AcDbEntity
  8
0
  6
Continuous
 62
     7
370
    15
100
AcDbCircle
 10
46.270253508
 20
199.3432315669
 30
0.0
 40
2.000000000003734
100
AcDbArc
 50
185.1063139632
 51
267.1473247105
  0
ARC
  5
1EE
330
1F
100
AcDbEntity
  8
0
  6
Continuous
 62
     7
370
    15
100
AcDbCircle
 10
45.746113508
 20
188.3557315669
 30
0.0
 40
9.000000000010552
100
AcDbArc
 50
24.9075410156
 51
87.2958833285
  0
LINE
  5
1EF
330
1F
100
AcDbEntity
  8
0
  6
Continuous
 62
     7
370
    15
100
AcDbLine
 10
55.0197487315
 20
181.0557316414
 30
0.0
 11
53.9090105881
 21
192.1461276135
 31
0.0
  0
CIRCLE
  5
1F0
330
1F
100
AcDbEntity
  8
0
  6
Continuous
 62
     7
370
    15
100
AcDbCircle
 10
45.746113508
 20
188.3557315669
 30
0.0
 40
5.599999999997351
  0
ARC
  5
1F1
330
1F
100
AcDbEntity
  8
0
  6
Continuous
 62
     7
370
    15
100
AcDbCircle
 10
55.248893508
 20
210.0957515669
 30
0.0
 40
20.00000000000653
100
AcDbArc
 50
133.4223455118
 51
179.3746747764
  0
ARC
  5
1F2
330
1F
100
AcDbEntity
  8
0
  6
Continuous
 62
     7
370
    15
100
AcDbCircle
 10
45.7461135079
 20
188.3557315669
 30
0.0
 40
9.499999999962183
100
AcDbArc
 50
200.8677512962
 51
230.2123117177
  0
LINE
  5
1F3
330
1F
100
AcDbEntity
  8
0
  6
Continuous
 62
     7
370
    15
100
AcDbLine
 10
36.8692645421
 20
184.9717158249
 30
0.0
 11
36.4770641168
 21
181.0557316414
 31
0.0
  0
SPLINE
  5
1F4
330
1F
100
AcDbEntity
  8
0
  6
Continuous
 62
     7
370
    15
100
AcDbSpline
210
0.0
220
0.0
230
1.0
 70
     8
 71
     3
 72
    23
 73
    19
 74
     0
 42
0.00000001
 43
0.00000001
 12
1.0
 22
0.0
 32
0.0
 13
1.0
 23
0.0
 33
0.0
 40
0.0
 40
0.0
 40
0.0
 40
0.0
 40
0.0625000725586976
 40
0.1250000287199306
 40
0.1875000061801035
 40
0.2499999836188106
 40
0.3124999924857448
 40
0.374999996247139
 40
0.4375000006846459
 40
0.5000000000001427
 40
0.562499999315354
 40
0.6250000037528609
 40
0.6875000075142551
 40
0.7500000163811892
 40
0.8124999938198963
 40
0.8749999712800692
 40
0.9374999274413023
 40
1.0
 40
1.0
 40
1.0
 40
1.0
 10
40.59611340887097
 20
188.3557322791589
 30
0.0
 10
40.61528013837401
 20
188.0186679347484
 30
0.0
 10
40.6536135616848
 20
187.3445398736617
 30
0.0
 10
40.95984694722259
 20
186.3722078118197
 30
0.0
 10
41.43580330353576
 20
185.4761016413659
 30
0.0
 10
42.08121028113609
 20
184.6906578929461
 30
0.0
 10
42.86643730498815
 20
184.0460609049264
 30
0.0
 10
43.76260174633274
 20
183.5670813925316
 30
0.0
 10
44.73491875054292
 20
183.2721279027707
 30
0.0
 10
45.74611350796449
 20
183.1725322245984
 30
0.0
 10
46.75730826538592
 20
183.2721279027712
 30
0.0
 10
47.72962526959464
 20
183.5670813925316
 30
0.0
 10
48.62578971093923
 20
184.0460609049264
 30
0.0
 10
49.41101673479129
 20
184.6906578929461
 30
0.0
 10
50.05642371239162
 20
185.4761016413659
 30
0.0
 10
50.53238006870479
 20
186.3722078118197
 30
0.0
 10
50.83861345424258
 20
187.3445398736617
 30
0.0
 10
50.87694687755337
 20
188.0186679347484
 30
0.0
 10
50.89611360705641
 20
188.3557322791589
 30
0.0
  0
SPLINE
  5
1F5
330
1F
100
AcDbEntity
  8
0
  6
Continuous
 62
     7
370
    15
100
AcDbSpline
210
0.0
220
0.0
230
1.0
 70
     8
 71
     3
 72
    23
 73
    19
 74
     0
 42
0.00000001
 43
0.00000001
 12
1.0
 22
0.0
 32
0.0
 13
1.0
 23
0.0
 33
0.0
 40
0.0
 40
0.0
 40
0.0
 40
0.0
 40
0.0624999662301244
 40
0.1249999308185651
 40
0.1875000184012387
 40
0.2500000042671565
 40
0.3125000215613056
 40
0.3749999793927112
 40
0.4374999922574324
 40
0.5000000000004283
 40
0.5625000077425677
 40
0.6250000206072889
 40
0.6874999784386946
 40
0.7499999957328436
 40
0.8124999815987614
 40
0.8750000691814349
 40
0.9375000337698757
 40
1.0
 40
1.0
 40
1.0
 40
1.0
 10
50.89611360705641
 20
188.355732279159
 30
0.0
 10
50.87694685056092
 20
188.6927960099077
 30
0.0
 10
50.83861333807339
 20
189.3669234625515
 30
0.0
 10
50.53237958813143
 20
190.3392552353365
 30
0.0
 10
50.05642433673803
 20
191.235362663784
 30
0.0
 10
49.41101658852921
 20
192.0208064831233
 30
0.0
 10
48.6257902493351
 20
192.6654040226769
 30
0.0
 10
47.72962470852488
 20
193.1443808696966
 30
0.0
 10
46.75730833518053
 20
193.4393349411747
 30
0.0
 10
45.7461135079613
 20
193.5389303969382
 30
0.0
 10
44.73491868074242
 20
193.4393349411734
 30
0.0
 10
43.7626023074025
 20
193.1443808696966
 30
0.0
 10
42.86643676659229
 20
192.6654040226769
 30
0.0
 10
42.08121042739818
 20
192.0208064831232
 30
0.0
 10
41.43580267918934
 20
191.235362663784
 30
0.0
 10
40.95984742779594
 20
190.3392552353365
 30
0.0
 10
40.65361367785399
 20
189.3669234625515
 30
0.0
 10
40.61528016536646
 20
188.6927960099077
 30
0.0
 10
40.59611340887097
 20
188.3557322791589
 30
0.0
  0
SPLINE
  5
1F6
330
1F
100
AcDbEntity
  8
0
  6
Continuous
 62
     7
370
    15
100
AcDbSpline
210
0.0
220
0.0
230
1.0
 70
     8
 71
     3
 72
    23
 73
    19
 74
     0
 42
0.00000001
 43
0.00000001
 12
1.0
 22
0.0
 32
0.0
 13
1.0
 23
0.0
 33
0.0
 40
0.0
 40
0.0
 40
0.0
 40
0.0
 40
0.0625000990717287
 40
0.1250000617834719
 40
0.1874999811541119
 40
0.2500000533596313
 40
0.3125000277195718
 40
0.3750000294879156
 40
0.4375000143981257
 40
0.5000000000000854
 40
0.5624999856018742
 40
0.6249999705120843
 40
0.6874999722804281
 40
0.7499999466403687
 40
0.8125000188458881
 40
0.8749999382165281
 40
0.9374999009282713
 40
1.0
 40
1.0
 40
1.0
 40
1.0
 10
41.74611331797389
 20
188.3557322791589
 30
0.0
 10
41.76100033165067
 20
188.0939346336338
 30
0.0
 10
41.7907743265244
 20
187.5703399137622
 30
0.0
 10
42.0286240583848
 20
186.8151300216356
 30
0.0
 10
42.39830066021527
 20
186.1191258977086
 30
0.0
 10
42.89958602826256
 20
185.5090711195149
 30
0.0
 10
43.5094719941654
 20
185.0084136268796
 30
0.0
 10
44.20552163403374
 20
184.6363904532176
 30
0.0
 10
44.96071951883216
 20
184.4073005228878
 30
0.0
 10
45.74611350796405
 20
184.3299471736751
 30
0.0
 10
46.53150749709591
 20
184.407300522888
 30
0.0
 10
47.28670538189363
 20
184.6363904532176
 30
0.0
 10
47.98275502176197
 20
185.0084136268796
 30
0.0
 10
48.59264098766482
 20
185.5090711195149
 30
0.0
 10
49.09392635571211
 20
186.1191258977086
 30
0.0
 10
49.46360295754258
 20
186.8151300216356
 30
0.0
 10
49.70145268940298
 20
187.5703399137622
 30
0.0
 10
49.73122668427671
 20
188.0939346336338
 30
0.0
 10
49.7461136979535
 20
188.3557322791589
 30
0.0
  0
SPLINE
  5
1F7
330
1F
100
AcDbEntity
  8
0
  6
Continuous
 62
     7
370
    15
100
AcDbSpline
210
0.0
220
0.0
230
1.0
 70
     8
 71
     3
 72
    23
 73
    19
 74
     0
 42
0.00000001
 43
0.00000001
 12
1.0
 22
0.0
 32
0.0
 13
1.0
 23
0.0
 33
0.0
 40
0.0
 40
0.0
 40
0.0
 40
0.0
 40
0.0624999677710372
 40
0.1249999469301349
 40
0.1875000136807571
 40
0.2499999875701881
 40
0.3124999783774862
 40
0.3749999965931947
 40
0.4374999979507653
 40
0.4999999999995718
 40
0.5625000020492349
 40
0.6250000034068054
 40
0.687500021622514
 40
0.7500000124298121
 40
0.812499986319243
 40
0.8750000530698652
 40
0.9375000322289628
 40
1.0
 40
1.0
 40
1.0
 40
1.0
 10
49.7461136979535
 20
188.3557322791589
 30
0.0
 10
49.73122666479123
 20
188.6175293166377
 30
0.0
 10
49.70145259575416
 20
189.1411234392972
 30
0.0
 10
49.46360238689081
 20
189.8963329581368
 30
0.0
 10
49.09392754412229
 20
190.5923382341245
 30
0.0
 10
48.59264023422258
 20
191.2023915926968
 30
0.0
 10
47.9827551235875
 20
191.7030491464981
 30
0.0
 10
47.28670535474016
 20
192.0750722215346
 30
0.0
 10
46.53150750388565
 20
192.3041621787616
 30
0.0
 10
45.74611350796555
 20
192.3815155190089
 30
0.0
 10
44.96071951204517
 20
192.3041621787626
 30
0.0
 10
44.20552166118722
 20
192.0750722215346
 30
0.0
 10
43.50947189233987
 20
191.7030491464981
 30
0.0
 10
42.8995867817048
 20
191.2023915926968
 30
0.0
 10
42.39829947180509
 20
190.5923382341245
 30
0.0
 10
42.02862462903656
 20
189.8963329581368
 30
0.0
 10
41.79077442017323
 20
189.1411234392972
 30
0.0
 10
41.76100035113615
 20
188.6175293166378
 30
0.0
 10
41.74611331797389
 20
188.3557322791589
 30
0.0
  0
SPLINE
  5
1F8
330
1F
100
AcDbEntity
  8
0
  6
Continuous
 62
     7
370
    15
100
AcDbSpline
210
0.0
220
0.0
230
1.0
 70
     8
 71
     3
 72
    15
 73
    11
 74
     0
 42
0.00000001
 43
0.00000001
 12
1.0
 22
0.0
 32
0.0
 13
1.0
 23
0.0
 33
0.0
 40
0.0
 40
0.0
 40
0.0
 40
0.0
 40
0.1249999733298793
 40
0.2500001877597287
 40
0.3749999314783668
 40
0.4999999999965188
 40
0.6250000685216333
 40
0.7499998122402713
 40
0.8750000266701208
 40
1.0
 40
1.0
 40
1.0
 40
1.0
 10
46.87748440443722
 20
188.755731599666
 30
0.0
 10
46.82606217156027
 20
188.8681077480121
 30
0.0
 10
46.72321760662314
 20
189.0928602614555
 30
0.0
 10
46.44867106746244
 20
189.3506572128784
 30
0.0
 10
46.11570348202627
 20
189.5176793179087
 30
0.0
 10
45.74611350796742
 20
189.574758520752
 30
0.0
 10
45.37652353390722
 20
189.5176793179119
 30
0.0
 10
45.04355594846496
 20
189.3506572128784
 30
0.0
 10
44.76900940930422
 20
189.0928602614555
 30
0.0
 10
44.66616484436711
 20
188.8681077480121
 30
0.0
 10
44.61474261149016
 20
188.755731599666
 30
0.0
  0
LINE
  5
1F9
330
1F
100
AcDbEntity
  8
0
  6
Continuous
 62
     7
370
    15
100
AcDbLine
 10
44.6147426115
 20
188.7557315997
 30
0.0
 11
42.8738322658
 21
188.7557315997
 31
0.0
  0
SPLINE
  5
1FA
330
1F
100
AcDbEntity
  8
0
  6
Continuous
 62
     7
370
    15
100
AcDbSpline
210
0.0
220
0.0
230
1.0
 70
     8
 71
     3
 72
    23
 73
    19
 74
     0
 42
0.00000001
 43
0.00000001
 12
1.0
 22
0.0
 32
0.0
 13
1.0
 23
0.0
 33
0.0
 40
0.0
 40
0.0
 40
0.0
 40
0.0
 40
0.0624998890559669
 40
0.1249999862416182
 40
0.1875000201501295
 40
0.2500000639308903
 40
0.3125000122044224
 40
0.3750000501080334
 40
0.4374999958569535
 40
0.5000000000011064
 40
0.5625000041430465
 40
0.6249999498919665
 40
0.6874999877955775
 40
0.7499999360691096
 40
0.8124999798498704
 40
0.8750000137583818
 40
0.9375001109440331
 40
1.0
 40
1.0
 40
1.0
 40
1.0
 10
48.61839475012568
 20
188.755731599666
 30
0.0
 10
48.58563652006141
 20
188.9259232111959
 30
0.0
 10
48.52011995084532
 20
189.2663070010076
 30
0.0
 10
48.30854031440644
 20
189.7443410365085
 30
0.0
 10
48.02162121325171
 20
190.1788931458396
 30
0.0
 10
47.6601785265746
 20
190.5549054386726
 30
0.0
 10
47.23800641533174
 20
190.8606640422688
 30
0.0
 10
46.76800717088254
 20
191.0863146239625
 30
0.0
 10
46.26536539044972
 20
191.2246562147141
 30
0.0
 10
45.74611350796053
 20
191.2712685170897
 30
0.0
 10
45.22686162547176
 20
191.2246562147125
 30
0.0
 10
44.72421984504484
 20
191.0863146239625
 30
0.0
 10
44.25422060059564
 20
190.8606640422688
 30
0.0
 10
43.83204848935278
 20
190.5549054386726
 30
0.0
 10
43.47060580267566
 20
190.1788931458396
 30
0.0
 10
43.18368670152095
 20
189.7443410365085
 30
0.0
 10
42.97210706508206
 20
189.2663070010076
 30
0.0
 10
42.90659049586597
 20
188.9259232111959
 30
0.0
 10
42.8738322658017
 20
188.755731599666
 30
0.0
  0
LINE
  5
1FB
330
1F
100
AcDbEntity
  8
0
  6
Continuous
 62
     7
370
    15
100
AcDbLine
 10
48.6183947501
 20
188.7557315997
 30
0.0
 11
46.8774844044
 21
188.7557315997
 31
0.0
  0
LINE
  5
1FC
330
1F
100
AcDbEntity
  8
0
  6
Continuous
 62
     7
370
    15
100
AcDbLine
 10
42.8738322658
 20
187.955731096
 30
0.0
 11
44.6147426115
 21
187.955731096
 31
0.0
  0
LINE
  5
1FD
330
1F
100
AcDbEntity
  8
0
  6
Continuous
 62
     7
370
    15
100
AcDbLine
 10
46.8774844044
 20
187.955731096
 30
0.0
 11
48.6183947501
 21
187.955731096
 31
0.0
  0
SPLINE
  5
1FE
330
1F
100
AcDbEntity
  8
0
  6
Continuous
 62
     7
370
    15
100
AcDbSpline
210
0.0
220
0.0
230
1.0
 70
     8
 71
     3
 72
    15
 73
    11
 74
     0
 42
0.00000001
 43
0.00000001
 12
1.0
 22
0.0
 32
0.0
 13
1.0
 23
0.0
 33
0.0
 40
0.0
 40
0.0
 40
0.0
 40
0.0
 40
0.1250000371888811
 40
0.2499998751333376
 40
0.3749999646329509
 40
0.499999999999999
 40
0.6250000353670492
 40
0.7500001248666626
 40
0.874999962811119
 40
1.0
 40
1.0
 40
1.0
 40
1.0
 10
44.61474261149016
 20
187.9557310960067
 30
0.0
 10
44.666164701814
 20
187.8433547623457
 30
0.0
 10
44.76900880049718
 20
187.6186022741465
 30
0.0
 10
45.04355715010902
 20
187.3608080716196
 30
0.0
 10
45.37652277263103
 20
187.1937819661223
 30
0.0
 10
45.74611350796369
 20
187.1367077035472
 30
0.0
 10
46.11570424329636
 20
187.1937819661223
 30
0.0
 10
46.44866986581836
 20
187.3608080716196
 30
0.0
 10
46.72321821543021
 20
187.6186022741465
 30
0.0
 10
46.82606231411339
 20
187.8433547623457
 30
0.0
 10
46.87748440443722
 20
187.9557310960067
 30
0.0
  0
SPLINE
  5
1FF
330
1F
100
AcDbEntity
  8
0
  6
Continuous
 62
     7
370
    15
100
AcDbSpline
210
0.0
220
0.0
230
1.0
 70
     8
 71
     3
 72
    23
 73
    19
 74
     0
 42
0.00000001
 43
0.00000001
 12
1.0
 22
0.0
 32
0.0
 13
1.0
 23
0.0
 33
0.0
 40
0.0
 40
0.0
 40
0.0
 40
0.0
 40
0.0624998975405323
 40
0.1250000032107772
 40
0.1875000456038735
 40
0.2499999359299818
 40
0.3125000243475
 40
0.374999973566066
 40
0.4374999873723724
 40
0.5000000000000007
 40
0.5625000126276274
 40
0.6250000264339339
 40
0.6874999756524999
 40
0.7500000640700181
 40
0.8124999543961264
 40
0.8749999967892227
 40
0.9375001024594676
 40
1.0
 40
1.0
 40
1.0
 40
1.0
 10
42.8738322658017
 20
187.9557310960068
 30
0.0
 10
42.90659048535021
 20
187.7855394728968
 30
0.0
 10
42.97210703353477
 20
187.445155659925
 30
0.0
 10
43.18368682771055
 20
186.9671217981254
 30
0.0
 10
43.47060508166089
 20
186.5325694040416
 30
0.0
 10
43.83204985327917
 20
186.1565595626463
 30
0.0
 10
44.25421933311304
 20
185.8507977139355
 30
0.0
 10
44.72422079412251
 20
185.6251511264252
 30
0.0
 10
45.22686120915921
 20
185.4868056317892
 30
0.0
 10
45.74611350796369
 20
185.4401946105729
 30
0.0
 10
46.26536580676817
 20
185.4868056317892
 30
0.0
 10
46.76800622180487
 20
185.6251511264252
 30
0.0
 10
47.23800768281434
 20
185.8507977139355
 30
0.0
 10
47.66017716264821
 20
186.1565595626463
 30
0.0
 10
48.02162193426651
 20
186.5325694040416
 30
0.0
 10
48.30854018821684
 20
186.9671217981254
 30
0.0
 10
48.52011998239261
 20
187.445155659925
 30
0.0
 10
48.58563653057717
 20
187.7855394728968
 30
0.0
 10
48.61839475012568
 20
187.9557310960068
 30
0.0
  0
ARC
  5
200
330
1F
100
AcDbEntity
  8
0
  6
Continuous
 62
     7
370
    15
100
AcDbCircle
 10
45.221943508
 20
199.3432315669
 30
0.0
 40
2.000000000003398
100
AcDbArc
 50
285.193369425
 51
354.8935481562
  0
LINE
  5
201
330
1F
100
AcDbEntity
  8
0
  6
Continuous
 62
     7
370
    15
100
AcDbLine
 10
54.2840672275
 20
188.4012981674
 30
0.0
 11
54.590000174
 21
191.8249777875
 31
0.0
  0
LINE
  5
202
330
1F
100
AcDbEntity
  8
0
  6
Continuous
 62
     7
370
    15
100
AcDbLine
 10
37.2103213882
 20
188.3770483902
 30
0.0
 11
36.8692645421
 21
184.9717158249
 31
0.0
  0
ARC
  5
203
330
1F
100
AcDbEntity
  8
0
  6
Continuous
 62
     7
370
    15
100
AcDbCircle
 10
45.7500257217
 20
184.0557315669
 30
0.0
 40
14.00391221375986
100
AcDbArc
 50
140.0042764338
 51
180.0
  0
LINE
  5
204
330
1F
100
AcDbEntity
  8
0
  6
Continuous
 62
     7
370
    15
100
AcDbLine
 10
35.996093749
 20
191.7171418092
 30
0.0
 11
35.0217347582
 21
193.0564712158
 31
0.0
  0
ARC
  5
205
330
1F
100
AcDbEntity
  8
0
  6
Continuous
 62
     7
370
    15
100
AcDbCircle
 10
45.7500257217
 20
184.0557315668
 30
0.0
 40
12.40308013431226
100
AcDbArc
 50
141.8514689067
 51
179.9999999999
  0
LINE
  5
206
330
1F
100
AcDbEntity
  8
0
  6
Continuous
 62
     7
370
    15
100
AcDbLine
 10
33.3469457542
 20
184.0557321331
 30
0.0
 11
33.3469457542
 21
182.0557318053
 31
0.0
  0
LINE
  5
207
330
1F
100
AcDbEntity
  8
0
  6
Continuous
 62
     7
370
    15
100
AcDbLine
 10
31.7461130758
 20
184.0557321331
 30
0.0
 11
31.7461130758
 21
182.0557318053
 31
0.0
  0
ARC
  5
208
330
1F
100
AcDbEntity
  8
0
  6
Continuous
 62
     7
370
    15
100
AcDbCircle
 10
45.7422012942
 20
184.0557315669
 30
0.0
 40
14.00391254166766
100
AcDbArc
 50
360.0
 51
39.9956897742
  0
ARC
  5
209
330
1F
100
AcDbEntity
  8
0
  6
Continuous
 62
     7
370
    15
100
AcDbCircle
 10
45.7422012942
 20
184.0557315669
 30
0.0
 40
12.40391221378542
100
AcDbArc
 50
0.0
 51
38.1496480415
  0
LINE
  5
20A
330
1F
100
AcDbEntity
  8
0
  6
Continuous
 62
     7
370
    15
100
AcDbLine
 10
55.4966380437
 20
191.7178458891
 30
0.0
 11
56.4704978456
 21
193.0564656279
 31
0.0
  0
LINE
  5
20B
330
1F
100
AcDbEntity
  8
0
  6
Continuous
 62
     7
370
    15
100
AcDbLine
 10
58.1461138641
 20
182.0557318053
 30
0.0
 11
58.1461138641
 21
184.0557321331
 31
0.0
  0
LINE
  5
20C
330
1F
100
AcDbEntity
  8
0
  6
Continuous
 62
     7
370
    15
100
AcDbLine
 10
59.7461139401
 20
182.0557318053
 30
0.0
 11
59.7461139401
 21
184.0557321331
 31
0.0
  0
LINE
  5
20D
330
1F
100
AcDbEntity
  8
0
  6
Continuous
 62
     7
370
    15
100
AcDbLine
 10
44.546113451
 20
188.3557322792
 30
0.0
 11
44.6147426115
 21
187.955731096
 31
0.0
  0
LINE
  5
20E
330
1F
100
AcDbEntity
  8
0
  6
Continuous
 62
     7
370
    15
100
AcDbLine
 10
44.546113451
 20
188.3557322792
 30
0.0
 11
44.6147426115
 21
188.7557315997
 31
0.0
  0
LINE
  5
20F
330
1F
100
AcDbEntity
  8
0
  6
Continuous
 62
     7
370
    15
100
AcDbLine
 10
42.8461135448
 20
188.3557322792
 30
0.0
 11
42.8738322658
 21
188.7557315997
 31
0.0
  0
LINE
  5
210
330
1F
100
AcDbEntity
  8
0
  6
Continuous
 62
     7
370
    15
100
AcDbLine
 10
42.8738322658
 20
187.955731096
 30
0.0
 11
42.8461135448
 21
188.3557322792
 31
0.0
  0
LINE
  5
211
330
1F
100
AcDbEntity
  8
0
  6
Continuous
 62
     7
370
    15
100
AcDbLine
 10
46.8774844044
 20
188.7557315997
 30
0.0
 11
46.946113565
 21
188.3557322792
 31
0.0
  0
LINE
  5
212
330
1F
100
AcDbEntity
  8
0
  6
Continuous
 62
     7
370
    15
100
AcDbLine
 10
46.946113565
 20
188.3557322792
 30
0.0
 11
46.8774844044
 21
187.955731096
 31
0.0
  0
LINE
  5
213
330
1F
100
AcDbEntity
  8
0
  6
Continuous
 62
     7
370
    15
100
AcDbLine
 10
48.6461134711
 20
188.3557322792
 30
0.0
 11
48.6183947501
 21
187.955731096
 31
0.0
  0
LINE
  5
214
330
1F
100
AcDbEntity
  8
0
  6
Continuous
 62
     7
370
    15
100
AcDbLine
 10
48.6183947501
 20
188.7557315997
 30
0.0
 11
48.6461134711
 21
188.3557322792
 31
0.0
  0
ARC
  5
215
330
1F
100
AcDbEntity
  8
0
  6
Continuous
 62
     7
370
    15
100
AcDbCircle
 10
45.7500257217
 20
184.0557315669
 30
0.0
 40
13.82877175991063
100
AcDbArc
 50
139.3967701093
 51
140.1848480492
  0
ARC
  5
216
330
1F
100
AcDbEntity
  8
0
  6
Continuous
 62
     7
370
    15
100
AcDbCircle
 10
45.7422012942
 20
184.0557315669
 30
0.0
 40
13.82877175985317
100
AcDbArc
 50
39.8151238759
 51
40.6032298907
  0
LINE
  5
217
330
1F
100
AcDbEntity
  8
0
  6
Continuous
 62
     7
370
    15
100
AcDbLine
 10
36.7922450965
 20
193.0557317457
 30
0.0
 11
35.250743254
 21
193.0557317457
 31
0.0
  0
LINE
  5
218
330
1F
100
AcDbEntity
  8
0
  6
Continuous
 62
     7
370
    15
100
AcDbLine
 10
56.2414837619
 20
193.0557317457
 30
0.0
 11
54.6999772628
 21
193.0557317457
 31
0.0
  0
CIRCLE
  5
219
330
1F
100
AcDbEntity
  8
0
  6
Continuous
 62
     7
370
    15
100
AcDbCircle
 10
55.246113508
 20
159.0557315669
 30
0.0
 40
1.609999999999989
  0
CIRCLE
  5
21A
330
1F
100
AcDbEntity
  8
0
  6
Continuous
 62
     7
370
    15
100
AcDbCircle
 10
55.246113508
 20
159.0557315669
 30
0.0
 40
2.000000000000003
  0
LINE
  5
21B
330
1F
100
AcDbEntity
  8
0
  6
Continuous
 62
     7
370
    15
100
AcDbLine
 10
56.3710409766
 20
158.7952105685
 30
0.0
 11
56.0341946398
 21
159.8996869645
 31
0.0
  0
LINE
  5
21C
330
1F
100
AcDbEntity
  8
0
  6
Continuous
 62
     7
370
    15
100
AcDbLine
 10
54.9092677971
 20
160.1602079238
 30
0.0
 11
56.0341946398
 21
159.8996869645
 31
0.0
  0
LINE
  5
21D
330
1F
100
AcDbEntity
  8
0
  6
Continuous
 62
     7
370
    15
100
AcDbLine
 10
54.1211854284
 20
159.316252487
 30
0.0
 11
54.9092677971
 21
160.1602079238
 31
0.0
  0
LINE
  5
21E
330
1F
100
AcDbEntity
  8
0
  6
Continuous
 62
     7
370
    15
100
AcDbLine
 10
54.1211854284
 20
159.316252487
 30
0.0
 11
54.4580317651
 21
158.211776091
 31
0.0
  0
LINE
  5
21F
330
1F
100
AcDbEntity
  8
0
  6
Continuous
 62
     7
370
    15
100
AcDbLine
 10
55.5829595392
 20
157.9512553646
 30
0.0
 11
54.4580317651
 21
158.211776091
 31
0.0
  0
LINE
  5
220
330
1F
100
AcDbEntity
  8
0
  6
Continuous
 62
     7
370
    15
100
AcDbLine
 10
55.5829595392
 20
157.9512553646
 30
0.0
 11
56.3710409766
 21
158.7952105685
 31
0.0
  0
CIRCLE
  5
221
330
1F
100
AcDbEntity
  8
0
  6
Continuous
 62
     7
370
    15
100
AcDbCircle
 10
55.746113508
 20
177.0557315669
 30
0.0
 40
2.600000000000024
  0
LINE
  5
222
330
1F
100
AcDbEntity
  8
0
  6
Continuous
 62
     7
370
    15
100
AcDbLine
 10
54.2798408856
 20
176.8697784639
 30
0.0
 11
55.174016728
 21
175.692925731
 31
0.0
  0
LINE
  5
223
330
1F
100
AcDbEntity
  8
0
  6
Continuous
 62
     7
370
    15
100
AcDbLine
 10
55.174016728
 20
175.692925731
 30
0.0
 11
56.6402891269
 21
175.8788791842
 31
0.0
  0
LINE
  5
224
330
1F
100
AcDbEntity
  8
0
  6
Continuous
 62
     7
370
    15
100
AcDbLine
 10
57.2123856833
 20
177.2416844389
 30
0.0
 11
56.6402891269
 21
175.8788791842
 31
0.0
  0
LINE
  5
225
330
1F
100
AcDbEntity
  8
0
  6
Continuous
 62
     7
370
    15
100
AcDbLine
 10
56.3182098409
 20
178.4185371718
 30
0.0
 11
57.2123856833
 21
177.2416844389
 31
0.0
  0
LINE
  5
226
330
1F
100
AcDbEntity
  8
0
  6
Continuous
 62
     7
370
    15
100
AcDbLine
 10
56.3182098409
 20
178.4185371718
 30
0.0
 11
54.851937442
 21
178.23258465
 31
0.0
  0
LINE
  5
227
330
1F
100
AcDbEntity
  8
0
  6
Continuous
 62
     7
370
    15
100
AcDbLine
 10
54.2798408856
 20
176.8697784639
 30
0.0
 11
54.851937442
 21
178.23258465
 31
0.0
  0
CIRCLE
  5
228
330
1F
100
AcDbEntity
  8
0
  6
Continuous
 62
     7
370
    15
100
AcDbCircle
 10
55.746113508
 20
177.0557315669
 30
0.0
 40
2.750000000000016
  0
ARC
  5
229
330
1F
100
AcDbEntity
  8
0
  6
Continuous
 62
     7
370
    15
100
AcDbCircle
 10
55.746113508
 20
177.0557315669
 30
0.0
 40
1.280000000000006
100
AcDbArc
 50
37.2276683999
 51
97.2276683999
  0
ARC
  5
22A
330
1F
100
AcDbEntity
  8
0
  6
Continuous
 62
     7
370
    15
100
AcDbCircle
 10
55.746113508
 20
177.0557315669
 30
0.0
 40
1.279999999999997
100
AcDbArc
 50
337.2276683999
 51
37.2276683999
  0
ARC
  5
22B
330
1F
100
AcDbEntity
  8
0
  6
Continuous
 62
     7
370
    15
100
AcDbCircle
 10
55.746113508
 20
177.0557315669
 30
0.0
 40
1.279999999999992
100
AcDbArc
 50
277.2276683999
 51
337.2276683999
  0
ARC
  5
22C
330
1F
100
AcDbEntity
  8
0
  6
Continuous
 62
     7
370
    15
100
AcDbCircle
 10
55.746113508
 20
177.0557315669
 30
0.0
 40
1.280000000000014
100
AcDbArc
 50
217.2276683999
 51
277.2276683999
  0
ARC
  5
22D
330
1F
100
AcDbEntity
  8
0
  6
Continuous
 62
     7
370
    15
100
AcDbCircle
 10
55.746113508
 20
177.0557315669
 30
0.0
 40
1.280000000000014
100
AcDbArc
 50
157.2276683999
 51
217.2276683999
  0
ARC
  5
22E
330
1F
100
AcDbEntity
  8
0
  6
Continuous
 62
     7
370
    15
100
AcDbCircle
 10
55.746113508
 20
177.0557315669
 30
0.0
 40
1.280000000000006
100
AcDbArc
 50
97.2276683999
 51
157.2276683999
  0
ARC
  5
22F
330
1F
100
AcDbEntity
  8
0
  6
Continuous
 62
     7
370
    15
100
AcDbCircle
 10
35.746113508
 20
150.0557315669
 30
0.0
 40
2.750000000000004
100
AcDbArc
 50
137.8110212786
 51
194.7779030418
  0
CIRCLE
  5
230
330
1F
100
AcDbEntity
  8
0
  6
Continuous
 62
     7
370
    15
100
AcDbCircle
 10
35.746113508
 20
177.0557315669
 30
0.0
 40
2.600000000000006
  0
LINE
  5
231
330
1F
100
AcDbEntity
  8
0
  6
Continuous
 62
     7
370
    15
100
AcDbLine
 10
35.6137532359
 20
175.5836536533
 30
0.0
 11
36.9547906881
 21
176.2050656027
 31
0.0
  0
LINE
  5
232
330
1F
100
AcDbEntity
  8
0
  6
Continuous
 62
     7
370
    15
100
AcDbLine
 10
36.9547906881
 20
176.2050656027
 30
0.0
 11
37.0871502524
 21
177.6771438665
 31
0.0
  0
LINE
  5
233
330
1F
100
AcDbEntity
  8
0
  6
Continuous
 62
     7
370
    15
100
AcDbLine
 10
35.8784732958
 20
178.5278101808
 30
0.0
 11
37.0871502524
 21
177.6771438665
 31
0.0
  0
LINE
  5
234
330
1F
100
AcDbEntity
  8
0
  6
Continuous
 62
     7
370
    15
100
AcDbLine
 10
34.5374367749
 20
177.9063982314
 30
0.0
 11
35.8784732958
 21
178.5278101808
 31
0.0
  0
LINE
  5
235
330
1F
100
AcDbEntity
  8
0
  6
Continuous
 62
     7
370
    15
100
AcDbLine
 10
34.5374367749
 20
177.9063982314
 30
0.0
 11
34.4050762793
 21
176.4343199677
 31
0.0
  0
LINE
  5
236
330
1F
100
AcDbEntity
  8
0
  6
Continuous
 62
     7
370
    15
100
AcDbLine
 10
35.6137532359
 20
175.5836536533
 30
0.0
 11
34.4050762793
 21
176.4343199677
 31
0.0
  0
CIRCLE
  5
237
330
1F
100
AcDbEntity
  8
0
  6
Continuous
 62
     7
370
    15
100
AcDbCircle
 10
35.746113508
 20
177.0557315669
 30
0.0
 40
2.750000000000008
  0
ARC
  5
238
330
1F
100
AcDbEntity
  8
0
  6
Continuous
 62
     7
370
    15
100
AcDbCircle
 10
35.746113508
 20
177.0557315669
 30
0.0
 40
1.280000000000009
100
AcDbArc
 50
114.8621378469
 51
174.8621378469
  0
ARC
  5
239
330
1F
100
AcDbEntity
  8
0
  6
Continuous
 62
     7
370
    15
100
AcDbCircle
 10
35.746113508
 20
177.0557315669
 30
0.0
 40
1.280000000000002
100
AcDbArc
 50
54.8621378469
 51
114.8621378469
  0
ARC
  5
23A
330
1F
100
AcDbEntity
  8
0
  6
Continuous
 62
     7
370
    15
100
AcDbCircle
 10
35.746113508
 20
177.0557315669
 30
0.0
 40
1.28
100
AcDbArc
 50
354.8621378469
 51
54.8621378469
  0
ARC
  5
23B
330
1F
100
AcDbEntity
  8
0
  6
Continuous
 62
     7
370
    15
100
AcDbCircle
 10
35.746113508
 20
177.0557315669
 30
0.0
 40
1.280000000000019
100
AcDbArc
 50
294.8621378469
 51
354.8621378469
  0
ARC
  5
23C
330
1F
100
AcDbEntity
  8
0
  6
Continuous
 62
     7
370
    15
100
AcDbCircle
 10
35.746113508
 20
177.0557315669
 30
0.0
 40
1.280000000000019
100
AcDbArc
 50
234.8621378469
 51
294.8621378469
  0
ARC
  5
23D
330
1F
100
AcDbEntity
  8
0
  6
Continuous
 62
     7
370
    15
100
AcDbCircle
 10
35.746113508
 20
177.0557315669
 30
0.0
 40
1.280000000000009
100
AcDbArc
 50
174.8621378469
 51
234.8621378469
  0
SPLINE
  5
23E
330
1F
100
AcDbEntity
  8
0
  6
Continuous
 62
     7
370
    15
100
AcDbSpline
210
0.0
220
0.0
230
1.0
 70
     8
 71
     3
 72
    10
 73
     6
 74
     0
 42
0.00000001
 43
0.00000001
 12
1.0
 22
0.0
 32
0.0
 13
1.0
 23
0.0
 33
0.0
 40
0.0
 40
0.0
 40
0.0
 40
0.0
 40
0.0700363610398951
 40
0.5307570939997404
 40
1.0
 40
1.0
 40
1.0
 40
1.0
 10
52.21502469754962
 20
160.8057315817838
 30
0.0
 10
52.23895514837305
 20
160.8471804800783
 30
0.0
 10
52.42030746806191
 20
161.1612929850918
 30
0.0
 10
52.76225781956843
 20
161.7535664751292
 30
0.0
 10
53.07007080048725
 20
162.2867145841698
 30
0.0
 10
53.22538768775014
 20
162.5557315193852
 30
0.0
  0
SPLINE
  5
23F
330
1F
100
AcDbEntity
  8
0
  6
Continuous
 62
     7
370
    15
100
AcDbSpline
210
0.0
220
0.0
230
1.0
 70
    24
 71
     3
 72
    10
 73
     6
 74
     0
 42
0.00000001
 43
0.00000001
 12
1.0
 22
0.0
 32
0.0
 13
1.0
 23
0.0
 33
0.0
 40
0.0
 40
0.0
 40
0.0
 40
0.0
 40
0.2572431768452554
 40
0.6263799428923559
 40
1.0
 40
1.0
 40
1.0
 40
1.0
 10
53.22538768775014
 20
162.5557315193852
 30
0.0
 10
53.39507930691206
 20
162.5557315193852
 30
0.0
 10
53.80827365485737
 20
162.5557315193852
 30
0.0
 10
54.48266367421103
 20
162.5557315193852
 30
0.0
 10
54.99060803985403
 20
162.5557315193852
 30
0.0
 10
55.24611320248989
 20
162.5557315193852
 30
0.0
  0
ARC
  5
240
330
1F
100
AcDbEntity
  8
0
  6
Continuous
 62
     7
370
    15
100
AcDbCircle
 10
55.246113508
 20
159.0557315669
 30
0.0
 40
3.499999999999992
100
AcDbArc
 50
90.0
 51
150.0
  0
ARC
  5
241
330
1F
100
AcDbEntity
  8
0
  6
Continuous
 62
     7
370
    15
100
AcDbCircle
 10
55.246113508
 20
159.0557315669
 30
0.0
 40
3.500000000000012
100
AcDbArc
 50
330.0
 51
30.0
  0
ARC
  5
242
330
1F
100
AcDbEntity
  8
0
  6
Continuous
 62
     7
370
    15
100
AcDbCircle
 10
55.246113508
 20
159.0557315669
 30
0.0
 40
3.500000000000012
100
AcDbArc
 50
270.0
 51
330.0
  0
ARC
  5
243
330
1F
100
AcDbEntity
  8
0
  6
Continuous
 62
     7
370
    15
100
AcDbCircle
 10
55.246113508
 20
159.0557315669
 30
0.0
 40
3.500000000000006
100
AcDbArc
 50
210.0
 51
270.0
  0
ARC
  5
244
330
1F
100
AcDbEntity
  8
0
  6
Continuous
 62
     7
370
    15
100
AcDbCircle
 10
55.246113508
 20
159.0557315669
 30
0.0
 40
3.500000000000006
100
AcDbArc
 50
150.0
 51
210.0
  0
ARC
  5
245
330
1F
100
AcDbEntity
  8
0
  6
Continuous
 62
     7
370
    15
100
AcDbCircle
 10
55.246113508
 20
159.0557315669
 30
0.0
 40
3.499999999999998
100
AcDbArc
 50
30.0
 51
90.0
  0
SPLINE
  5
246
330
1F
100
AcDbEntity
  8
0
  6
Continuous
 62
     7
370
    15
100
AcDbSpline
210
0.0
220
0.0
230
1.0
 70
     8
 71
     3
 72
     9
 73
     5
 74
     0
 42
0.00000001
 43
0.00000001
 12
1.0
 22
0.0
 32
0.0
 13
1.0
 23
0.0
 33
0.0
 40
0.0
 40
0.0
 40
0.0
 40
0.0
 40
0.4954578181211137
 40
1.0
 40
1.0
 40
1.0
 40
1.0
 10
57.26683918289093
 20
162.5557315193852
 30
0.0
 10
57.43092660728366
 20
162.2715238069154
 30
0.0
 10
57.76211004690521
 20
161.6978973505853
 30
0.0
 10
58.10446809601154
 20
161.1049157914459
 30
0.0
 10
58.27720217309145
 20
160.8057315817838
 30
0.0
  0
SPLINE
  5
247
330
1F
100
AcDbEntity
  8
0
  6
Continuous
 62
     7
370
    15
100
AcDbSpline
210
0.0
220
0.0
230
1.0
 70
    24
 71
     3
 72
    10
 73
     6
 74
     0
 42
0.00000001
 43
0.00000001
 12
1.0
 22
0.0
 32
0.0
 13
1.0
 23
0.0
 33
0.0
 40
0.0
 40
0.0
 40
0.0
 40
0.0
 40
0.2684068207404545
 40
0.6323733358689111
 40
1.0
 40
1.0
 40
1.0
 40
1.0
 10
55.24611320248989
 20
162.5557315193852
 30
0.0
 10
55.42962504612793
 20
162.5557315193852
 30
0.0
 10
55.86198364421684
 20
162.5557315193852
 30
0.0
 10
56.54029577837613
 20
162.5557315193852
 30
0.0
 10
57.02385164063156
 20
162.5557315193852
 30
0.0
 10
57.26683918289093
 20
162.5557315193852
 30
0.0
  0
SPLINE
  5
248
330
1F
100
AcDbEntity
  8
0
  6
Continuous
 62
     7
370
    15
100
AcDbSpline
210
0.0
220
0.0
230
1.0
 70
     8
 71
     3
 72
    10
 73
     6
 74
     0
 42
0.00000001
 43
0.00000001
 12
1.0
 22
0.0
 32
0.0
 13
1.0
 23
0.0
 33
0.0
 40
0.0
 40
0.0
 40
0.0
 40
0.0
 40
0.0700365626465201
 40
0.5307571149786066
 40
1.0
 40
1.0
 40
1.0
 40
1.0
 10
52.21502469754962
 20
157.3057314737504
 30
0.0
 10
52.19109408379232
 20
157.347180445214
 30
0.0
 10
52.00974104421505
 20
157.6612926129384
 30
0.0
 10
51.66779185527084
 20
158.2535668831383
 30
0.0
 10
51.3599787061905
 20
158.7867148505519
 30
0.0
 10
51.2046617073491
 20
159.0557317605977
 30
0.0
  0
SPLINE
  5
249
330
1F
100
AcDbEntity
  8
0
  6
Continuous
 62
     7
370
    15
100
AcDbSpline
210
0.0
220
0.0
230
1.0
 70
     8
 71
     3
 72
     9
 73
     5
 74
     0
 42
0.00000001
 43
0.00000001
 12
1.0
 22
0.0
 32
0.0
 13
1.0
 23
0.0
 33
0.0
 40
0.0
 40
0.0
 40
0.0
 40
0.0
 40
0.4954577454629549
 40
1.0
 40
1.0
 40
1.0
 40
1.0
 10
51.2046617073491
 20
159.0557317605977
 30
0.0
 10
51.36874914402249
 20
159.3399393880617
 30
0.0
 10
51.69993265699809
 20
159.913565756943
 30
0.0
 10
52.04229063265363
 20
160.5065473246925
 30
0.0
 10
52.21502469754962
 20
160.8057315817838
 30
0.0
  0
SPLINE
  5
24A
330
1F
100
AcDbEntity
  8
0
  6
Continuous
 62
     7
370
    15
100
AcDbSpline
210
0.0
220
0.0
230
1.0
 70
     8
 71
     3
 72
     9
 73
     5
 74
     0
 42
0.00000001
 43
0.00000001
 12
1.0
 22
0.0
 32
0.0
 13
1.0
 23
0.0
 33
0.0
 40
0.0
 40
0.0
 40
0.0
 40
0.0
 40
0.4954578422127281
 40
1.0
 40
1.0
 40
1.0
 40
1.0
 10
59.28756516329197
 20
159.0557317605977
 30
0.0
 10
59.12347774297118
 20
158.7715239677843
 30
0.0
 10
58.79229432767198
 20
158.1978973771864
 30
0.0
 10
58.44993625421122
 20
157.6049157190665
 30
0.0
 10
58.27720217309145
 20
157.3057314737504
 30
0.0
  0
SPLINE
  5
24B
330
1F
100
AcDbEntity
  8
0
  6
Continuous
 62
     7
370
    15
100
AcDbSpline
210
0.0
220
0.0
230
1.0
 70
     8
 71
     3
 72
    10
 73
     6
 74
     0
 42
0.00000001
 43
0.00000001
 12
1.0
 22
0.0
 32
0.0
 13
1.0
 23
0.0
 33
0.0
 40
0.0
 40
0.0
 40
0.0
 40
0.0
 40
0.0700365914175321
 40
0.5307571199293314
 40
1.0
 40
1.0
 40
1.0
 40
1.0
 10
58.27720217309145
 20
160.8057315817838
 30
0.0
 10
58.30113295488411
 20
160.7642826953284
 30
0.0
 10
58.48248719507281
 20
160.4501712979279
 30
0.0
 10
58.82443448278276
 20
159.8578960834803
 30
0.0
 10
59.13224798373553
 20
159.3247484883039
 30
0.0
 10
59.28756516329197
 20
159.0557317605977
 30
0.0
  0
SPLINE
  5
24C
330
1F
100
AcDbEntity
  8
0
  6
Continuous
 62
     7
370
    15
100
AcDbSpline
210
0.0
220
0.0
230
1.0
 70
    24
 71
     3
 72
    10
 73
     6
 74
     0
 42
0.00000001
 43
0.00000001
 12
1.0
 22
0.0
 32
0.0
 13
1.0
 23
0.0
 33
0.0
 40
0.0
 40
0.0
 40
0.0
 40
0.0
 40
0.2572431768452554
 40
0.6263799428923559
 40
1.0
 40
1.0
 40
1.0
 40
1.0
 10
53.22538768775014
 20
155.555731186903
 30
0.0
 10
53.39507930691206
 20
155.555731186903
 30
0.0
 10
53.80827365485737
 20
155.555731186903
 30
0.0
 10
54.48266367421103
 20
155.555731186903
 30
0.0
 10
54.99060803985403
 20
155.555731186903
 30
0.0
 10
55.24611320248989
 20
155.555731186903
 30
0.0
  0
SPLINE
  5
24D
330
1F
100
AcDbEntity
  8
0
  6
Continuous
 62
     7
370
    15
100
AcDbSpline
210
0.0
220
0.0
230
1.0
 70
     8
 71
     3
 72
     9
 73
     5
 74
     0
 42
0.00000001
 43
0.00000001
 12
1.0
 22
0.0
 32
0.0
 13
1.0
 23
0.0
 33
0.0
 40
0.0
 40
0.0
 40
0.0
 40
0.0
 40
0.4954578422127281
 40
1.0
 40
1.0
 40
1.0
 40
1.0
 10
53.22538768775014
 20
155.555731186903
 30
0.0
 10
53.06130026742935
 20
155.8399389797165
 30
0.0
 10
52.73011685213016
 20
156.4135655703143
 30
0.0
 10
52.3877587786694
 20
157.0065472284343
 30
0.0
 10
52.21502469754962
 20
157.3057314737504
 30
0.0
  0
SPLINE
  5
24E
330
1F
100
AcDbEntity
  8
0
  6
Continuous
 62
     7
370
    15
100
AcDbSpline
210
0.0
220
0.0
230
1.0
 70
    24
 71
     3
 72
    10
 73
     6
 74
     0
 42
0.00000001
 43
0.00000001
 12
1.0
 22
0.0
 32
0.0
 13
1.0
 23
0.0
 33
0.0
 40
0.0
 40
0.0
 40
0.0
 40
0.0
 40
0.2684068207404545
 40
0.6323733358689111
 40
1.0
 40
1.0
 40
1.0
 40
1.0
 10
55.24611320248989
 20
155.555731186903
 30
0.0
 10
55.42962504612793
 20
155.555731186903
 30
0.0
 10
55.86198364421684
 20
155.555731186903
 30
0.0
 10
56.54029577837613
 20
155.555731186903
 30
0.0
 10
57.02385164063156
 20
155.555731186903
 30
0.0
 10
57.26683918289093
 20
155.555731186903
 30
0.0
  0
SPLINE
  5
24F
330
1F
100
AcDbEntity
  8
0
  6
Continuous
 62
     7
370
    15
100
AcDbSpline
210
0.0
220
0.0
230
1.0
 70
     8
 71
     3
 72
    10
 73
     6
 74
     0
 42
0.00000001
 43
0.00000001
 12
1.0
 22
0.0
 32
0.0
 13
1.0
 23
0.0
 33
0.0
 40
0.0
 40
0.0
 40
0.0
 40
0.0
 40
0.0700362528189455
 40
0.5307569207574331
 40
1.0
 40
1.0
 40
1.0
 40
1.0
 10
58.27720217309145
 20
157.3057314737504
 30
0.0
 10
58.25327171999731
 20
157.2642826543403
 30
0.0
 10
58.07191916206697
 20
156.950170364295
 30
0.0
 10
57.72996898653601
 20
156.3578966712443
 30
0.0
 10
57.42215607460943
 20
155.8247483149115
 30
0.0
 10
57.26683918289093
 20
155.555731186903
 30
0.0
  0
ARC
  5
250
330
1F
100
AcDbEntity
  8
0
  6
Continuous
 62
     7
370
    15
100
AcDbCircle
 10
45.746113508
 20
159.0557315669
 30
0.0
 40
10.00000000000001
100
AcDbArc
 50
90.0
 51
166.2944621602
  0
LINE
  5
251
330
1F
100
AcDbEntity
  8
0
  6
Continuous
 62
     7
370
    15
100
AcDbLine
 10
47.746113603
 20
169.0557315371
 30
0.0
 11
45.746113508
 21
169.0557315371
 31
0.0
  0
ARC
  5
252
330
1F
100
AcDbEntity
  8
0
  6
Continuous
 62
     7
370
    15
100
AcDbCircle
 10
47.746113508
 20
157.0557315669
 30
0.0
 40
11.99999999999999
100
AcDbArc
 50
9.5940682269
 51
90.0
  0
LINE
  5
253
330
1F
100
AcDbEntity
  8
0
  6
Continuous
 62
     7
370
    15
100
AcDbLine
 10
59.5782728483
 20
159.0557317606
 30
0.0
 11
59.7461139401
 21
159.0557317606
 31
0.0
  0
LINE
  5
254
330
1F
100
AcDbEntity
  8
0
  6
Continuous
 62
     7
370
    15
100
AcDbLine
 10
59.7461139401
 20
159.0557317606
 30
0.0
 11
59.7461139401
 21
143.8557315043
 31
0.0
  0
LINE
  5
255
330
1F
100
AcDbEntity
  8
0
  6
Continuous
 62
     7
370
    15
100
AcDbLine
 10
31.7461130758
 20
143.8557315043
 30
0.0
 11
59.7461139401
 21
143.8557315043
 31
0.0
  0
LINE
  5
256
330
1F
100
AcDbEntity
  8
0
  6
Continuous
 62
     7
370
    15
100
AcDbLine
 10
35.4530302425
 20
159.0557317606
 30
0.0
 11
31.7461130758
 21
143.8557315043
 31
0.0
  0
LINE
  5
257
330
1F
100
AcDbEntity
  8
0
  6
Continuous
 62
     7
370
    15
100
AcDbLine
 10
36.0308516388
 20
161.4250520135
 30
0.0
 11
35.4530302425
 21
159.0557317606
 31
0.0
  0
LINE
  5
258
330
1F
100
AcDbEntity
  8
0
  6
Continuous
 62
     7
370
    15
100
AcDbLine
 10
31.7461130758
 20
140.3557318619
 30
0.0
 11
59.7461139401
 21
140.3557318619
 31
0.0
  0
LINE
  5
259
330
1F
100
AcDbEntity
  8
0
  6
Continuous
 62
     7
370
    15
100
AcDbLine
 10
31.7461130758
 20
143.8557315043
 30
0.0
 11
31.7461130758
 21
140.3557318619
 31
0.0
  0
LINE
  5
25A
330
1F
100
AcDbEntity
  8
0
  6
Continuous
 62
     7
370
    15
100
AcDbLine
 10
59.7461139401
 20
143.8557315043
 30
0.0
 11
59.7461139401
 21
140.3557318619
 31
0.0
  0
LINE
  5
25B
330
1F
100
AcDbEntity
  8
0
  6
Continuous
 62
     7
370
    15
100
AcDbLine
 10
31.7461130758
 20
143.8557315043
 30
0.0
 11
31.7461130758
 21
144.2753984949
 31
0.0
  0
LINE
  5
25C
330
1F
100
AcDbEntity
  8
0
  6
Continuous
 62
     7
370
    15
100
AcDbLine
 10
31.7461130758
 20
144.5536311141
 30
0.0
 11
31.916314139
 21
144.5536311141
 31
0.0
  0
LINE
  5
25D
330
1F
100
AcDbEntity
  8
0
  6
Continuous
 62
     7
370
    15
100
AcDbLine
 10
31.7461130758
 20
144.2753984949
 30
0.0
 11
31.7461130758
 21
144.5536311141
 31
0.0
  0
LINE
  5
25E
330
1F
100
AcDbEntity
  8
0
  6
Continuous
 62
     7
370
    15
100
AcDbLine
 10
31.7461130758
 20
144.5536311141
 30
0.0
 11
31.7461130758
 21
150.0557312167
 31
0.0
  0
LINE
  5
25F
330
1F
100
AcDbEntity
  8
0
  6
Continuous
 62
     7
370
    15
100
AcDbLine
 10
50.6613374305
 20
181.0557316414
 30
0.0
 11
40.8308895854
 21
181.0557316414
 31
0.0
  0
SPLINE
  5
260
330
1F
100
AcDbEntity
  8
0
  6
Continuous
 62
     7
370
    15
100
AcDbSpline
210
0.0
220
0.0
230
1.0
 70
     8
 71
     3
 72
    13
 73
     9
 74
     0
 42
0.00000001
 43
0.00000001
 12
1.0
 22
0.0
 32
0.0
 13
1.0
 23
0.0
 33
0.0
 40
0.0
 40
0.0
 40
0.0
 40
0.0
 40
0.2066236378736374
 40
0.3976688278079883
 40
0.5675447542509966
 40
0.6995726686623813
 40
0.8446908559654156
 40
1.0
 40
1.0
 40
1.0
 40
1.0
 10
50.66133743054417
 20
181.0557316413887
 30
0.0
 10
50.91146007289009
 20
180.953781969892
 30
0.0
 10
51.39284728982975
 20
180.7575691513744
 30
0.0
 10
52.04792094396793
 20
180.4082118009051
 30
0.0
 10
52.52918397949695
 20
179.947343855465
 30
0.0
 10
52.71157633981471
 20
179.376060569955
 30
0.0
 10
52.72447708859428
 20
178.8088598484564
 30
0.0
 10
52.69401564350918
 20
178.4175758940373
 30
0.0
 10
52.67826827145365
 20
178.215297440327
 30
0.0
  0
LINE
  5
261
330
1F
100
AcDbEntity
  8
0
  6
Continuous
 62
     7
370
    15
100
AcDbLine
 10
52.6782682715
 20
178.2152974403
 30
0.0
 11
52.6782682715
 21
178.1224436483
 31
0.0
  0
ARC
  5
262
330
1F
100
AcDbEntity
  8
0
  6
Continuous
 62
     7
370
    15
100
AcDbCircle
 10
55.746113508
 20
177.0557315669
 30
0.0
 40
3.248007215816021
100
AcDbArc
 50
160.8270595738
 51
279.9346943189
  0
LINE
  5
263
330
1F
100
AcDbEntity
  8
0
  6
Continuous
 62
     7
370
    15
100
AcDbLine
 10
56.3064779704
 20
173.8564283944
 30
0.0
 11
57.1030037095
 21
173.8564283944
 31
0.0
  0
ARC
  5
264
330
1F
100
AcDbEntity
  8
0
  6
Continuous
 62
     7
370
    15
100
AcDbCircle
 10
56.7769219327
 20
170.9049265539
 30
0.0
 40
2.969459650929021
100
AcDbArc
 50
0.769893905
 51
83.6955340404
  0
LINE
  5
265
330
1F
100
AcDbEntity
  8
0
  6
Continuous
 62
     7
370
    15
100
AcDbLine
 10
59.7461139401
 20
159.0557317606
 30
0.0
 11
59.7461139401
 21
170.9448267131
 31
0.0
  0
ARC
  5
266
330
1F
100
AcDbEntity
  8
0
  6
Continuous
 62
     7
370
    15
100
AcDbCircle
 10
34.7153050832
 20
156.2065365798
 30
0.0
 40
2.969459650929005
100
AcDbArc
 50
180.769893905
 51
257.0982042662
  0
LINE
  5
267
330
1F
100
AcDbEntity
  8
0
  6
Continuous
 62
     7
370
    15
100
AcDbLine
 10
31.7461130758
 20
170.9448267131
 30
0.0
 11
31.7461130758
 21
156.1666364207
 31
0.0
  0
ARC
  5
268
330
1F
100
AcDbEntity
  8
0
  6
Continuous
 62
     7
370
    15
100
AcDbCircle
 10
34.7153050832
 20
170.9049265539
 30
0.0
 40
2.969459650929021
100
AcDbArc
 50
96.3044659596
 51
179.230106095
  0
LINE
  5
269
330
1F
100
AcDbEntity
  8
0
  6
Continuous
 62
     7
370
    15
100
AcDbLine
 10
34.3892233064
 20
173.8564283944
 30
0.0
 11
35.1857490455
 21
173.8564283944
 31
0.0
  0
ARC
  5
26A
330
1F
100
AcDbEntity
  8
0
  6
Continuous
 62
     7
370
    15
100
AcDbCircle
 10
35.746113508
 20
177.0557315669
 30
0.0
 40
3.248007215816028
100
AcDbArc
 50
260.0653056811
 51
19.1729404262
  0
LINE
  5
26B
330
1F
100
AcDbEntity
  8
0
  6
Continuous
 62
     7
370
    15
100
AcDbLine
 10
38.8139587445
 20
178.1224436483
 30
0.0
 11
38.8139587445
 21
178.2152974403
 31
0.0
  0
SPLINE
  5
26C
330
1F
100
AcDbEntity
  8
0
  6
Continuous
 62
     7
370
    15
100
AcDbSpline
210
0.0
220
0.0
230
1.0
 70
     8
 71
     3
 72
    13
 73
     9
 74
     0
 42
0.00000001
 43
0.00000001
 12
1.0
 22
0.0
 32
0.0
 13
1.0
 23
0.0
 33
0.0
 40
0.0
 40
0.0
 40
0.0
 40
0.0
 40
0.1962825596096509
 40
0.3734497957646644
 40
0.5391744027104453
 40
0.6813774649128472
 40
0.8367390121262692
 40
1.0
 40
1.0
 40
1.0
 40
1.0
 10
38.81395874447373
 20
178.215297440327
 30
0.0
 10
38.79393842974922
 20
178.4699839208231
 30
0.0
 10
38.75584751398021
 20
178.9545537894577
 30
0.0
 10
38.81816481566663
 20
179.6749796377713
 30
0.0
 10
39.20264016706201
 20
180.2126168368951
 30
0.0
 10
39.706368847199
 20
180.5541786519872
 30
0.0
 10
40.24794178835047
 20
180.8185875453241
 30
0.0
 10
40.6333882625789
 20
180.975387787434
 30
0.0
 10
40.83088958538321
 20
181.0557316413887
 30
0.0
  0
ARC
  5
26D
330
1F
100
AcDbEntity
  8
0
  6
Continuous
 62
     7
370
    15
100
AcDbCircle
 10
35.746113508
 20
177.0557315669
 30
0.0
 40
4.000000000000028
100
AcDbArc
 50
90.0
 51
180.0
  0
LINE
  5
26E
330
1F
100
AcDbEntity
  8
0
  6
Continuous
 62
     7
370
    15
100
AcDbLine
 10
31.7461130758
 20
177.0557319171
 30
0.0
 11
31.7461130758
 21
170.9448267131
 31
0.0
  0
LINE
  5
26F
330
1F
100
AcDbEntity
  8
0
  6
Continuous
 62
     7
370
    15
100
AcDbLine
 10
40.8308895854
 20
181.0557316414
 30
0.0
 11
35.7461137315
 21
181.0557316414
 31
0.0
  0
ARC
  5
270
330
1F
100
AcDbEntity
  8
0
  6
Continuous
 62
     7
370
    15
100
AcDbCircle
 10
55.746113508
 20
177.0557315669
 30
0.0
 40
4.000000000000028
100
AcDbArc
 50
0.0
 51
90.0
  0
LINE
  5
271
330
1F
100
AcDbEntity
  8
0
  6
Continuous
 62
     7
370
    15
100
AcDbLine
 10
59.7461139401
 20
170.9448267131
 30
0.0
 11
59.7461139401
 21
177.0557319171
 31
0.0
  0
LINE
  5
272
330
1F
100
AcDbEntity
  8
0
  6
Continuous
 62
     7
370
    15
100
AcDbLine
 10
55.7461132844
 20
181.0557316414
 30
0.0
 11
50.6613374305
 21
181.0557316414
 31
0.0
  0
ARC
  5
273
330
1F
100
AcDbEntity
  8
0
  6
Continuous
 62
     7
370
    15
100
AcDbCircle
 10
35.746113508
 20
150.0557315669
 30
0.0
 40
4.000000000000028
100
AcDbArc
 50
180.0
 51
219.1173017795
  0
LINE
  5
274
330
1F
100
AcDbEntity
  8
0
  6
Continuous
 62
     7
370
    15
100
AcDbLine
 10
31.7461130758
 20
156.1666364207
 30
0.0
 11
31.7461130758
 21
150.0557312167
 31
0.0
  0
ARC
  5
275
330
1F
100
AcDbEntity
  8
0
  6
Continuous
 62
     8
370
    15
100
AcDbCircle
 10
35.746113508
 20
150.0557315669
 30
0.0
 40
2.600000000000001
100
AcDbArc
 50
144.6769491027
 51
187.9119752177
  0
LINE
  5
276
330
1F
100
AcDbEntity
  8
0
  6
Continuous
 62
     8
370
    15
100
AcDbLine
 10
31.7461130758
 20
144.2753984949
 30
0.0
 11
31.8484598388
 21
144.2753984949
 31
0.0
  0
DIMENSION
  5
277
330
1F
100
AcDbEntity
  8
0
  6
Continuous
 62
     7
370
     0
100
AcDbDimension
  2
_D_10
 10
59.746113508
 20
130.3557315669
 30
0.0
 11
45.746113508
 21
130.3557315669
 31
0.0
 70
   160
  1
<>
 71
     2
 42
-1.0
  3
SLDDIMSTYLE1
100
AcDbAlignedDimension
 13
31.746113508
 23
140.3557315669
 33
0.0
 14
59.746113508
 24
140.3557315669
 34
0.0
100
AcDbRotatedDimension
  0
DIMENSION
  5
281
330
1F
100
AcDbEntity
  8
0
  6
Continuous
 62
     7
370
     0
100
AcDbDimension
  2
_D_11
 10
66.6466923589
 20
140.3557315669
 30
0.0
 11
66.6466923589
 21
157.0192735062
 31
0.0
 70
   160
  1
<>
 71
     2
 42
-1.0
  3
SLDDIMSTYLE1
100
AcDbAlignedDimension
 13
55.746113508
 23
181.0557315669
 33
0.0
 14
59.746113508
 24
140.3557315669
 34
0.0
 50
90.0
100
AcDbRotatedDimension
  0
DIMENSION
  5
28B
330
1F
100
AcDbEntity
  8
0
  6
Continuous
 62
     7
370
     0
100
AcDbDimension
  2
_D_12
 10
73.6140954784
 20
140.3557315669
 30
0.0
 11
73.6140954784
 21
160.9328974785
 31
0.0
 70
   160
  1
<>
 71
     2
 42
-1.0
  3
SLDDIMSTYLE1
100
AcDbAlignedDimension
 13
56.2414835738
 23
193.0557315669
 33
0.0
 14
59.746113508
 24
140.3557315669
 34
0.0
 50
90.0
100
AcDbRotatedDimension
  0
DIMENSION
  5
295
330
1F
100
AcDbEntity
  8
0
  6
Continuous
 62
     7
370
     0
100
AcDbDimension
  2
_D_13
 10
73.6140954784
 20
224.6218825874
 30
0.0
 11
73.6140954784
 21
208.8388070772
 31
0.0
 70
   160
  1
(<>)
 71
     2
 42
-1.0
  3
SLDDIMSTYLE1
100
AcDbAlignedDimension
 13
56.2414835738
 23
193.0557315669
 33
0.0
 14
49.9907620865
 24
224.6218825874
 34
0.0
 50
90.0
100
AcDbRotatedDimension
  0
DIMENSION
  5
2A1
330
1F
100
AcDbEntity
  8
0
  6
Continuous
 62
     7
370
     0
100
AcDbDimension
  2
_D_14
 10
56.2419396793
 20
254.8555808508
 30
0.0
 11
45.7459063623
 21
254.8555309877
 31
0.0
 70
   160
  1
(<>)
 71
     2
 42
-1.0
  3
SLDDIMSTYLE1
100
AcDbAlignedDimension
 13
35.2500846466
 23
210.3140269144
 33
0.0
 14
56.2421512806
 24
210.3141266406
 34
0.0
 50
0.0002721928
100
AcDbRotatedDimension
  0
DIMENSION
  5
2AD
330
1F
100
AcDbEntity
  8
0
  6
Continuous
 62
     7
370
     0
100
AcDbDimension
  2
_D_15
 10
48.994744565
 20
240.7158839172
 30
0.0
 11
61.0657644523
 21
240.7158831457
 31
0.0
 70
   160
  1
<>
 71
     2
 42
-1.0
  3
SLDDIMSTYLE3
100
AcDbAlignedDimension
 13
42.4974824265
 23
224.7108823638
 33
0.0
 14
48.9947435421
 24
224.7108819485
 34
0.0
 50
-0.000003662
100
AcDbRotatedDimension
  0
DIMENSION
  5
2BA
330
1F
100
AcDbEntity
  8
0
  6
Continuous
 62
     7
370
     0
100
AcDbDimension
  2
_D_16
 10
27.9515387858
 20
140.3557315669
 30
0.0
 11
27.9515387858
 21
160.9328974785
 31
0.0
 70
   160
  1
<>
 71
     2
 42
-1.0
  3
SLDDIMSTYLE1
100
AcDbAlignedDimension
 13
37.646113508
 23
188.3557315669
 33
0.0
 14
31.746113508
 24
140.3557315669
 34
0.0
 50
90.0
100
AcDbRotatedDimension
  0
INSERT
  5
2CF
330
1F
100
AcDbEntity
  8
0
  6
Continuous
 62
     7
370
     0
100
AcDbBlockReference
  2
SW_CENTERMARKSYMBOL_0
 10
35.746113508
 20
177.0557315669
 30
0.0
  0
INSERT
  5
2DB
330
1F
100
AcDbEntity
  8
0
  6
Continuous
 62
     7
370
     0
100
AcDbBlockReference
  2
SW_CENTERMARKSYMBOL_1
 10
55.746113508
 20
177.0557315669
 30
0.0
  0
INSERT
  5
2E7
330
1F
100
AcDbEntity
  8
0
  6
Continuous
 62
     7
370
     0
100
AcDbBlockReference
  2
SW_CENTERMARKSYMBOL_2
 10
55.246113508
 20
159.0557315669
 30
0.0
  0
INSERT
  5
2F3
330
1F
100
AcDbEntity
  8
0
  6
Continuous
 62
     7
370
     0
100
AcDbBlockReference
  2
SW_CENTERMARKSYMBOL_3
 10
45.746113508
 20
175.0557315669
 30
0.0
  0
INSERT
  5
2FF
330
1F
100
AcDbEntity
  8
0
  6
Continuous
 62
     7
370
     0
100
AcDbBlockReference
  2
SW_CENTERMARKSYMBOL_4
 10
45.746113508
 20
188.3557315669
 30
0.0
  0
INSERT
  5
30B
330
1F
100
AcDbEntity
  8
0
  6
Continuous
 62
     7
370
     0
100
AcDbBlockReference
  2
SW_CENTERMARKSYMBOL_5
 10
45.746113508
 20
159.0557315669
 30
0.0
  0
LINE
  5
30C
330
1F
100
AcDbEntity
  8
0
  6
Continuous
 62
     7
370
    15
100
AcDbLine
 10
96.2455833233
 20
76.3469492639
 30
0.0
 11
108.4455886758
 21
76.3469492639
 31
0.0
  0
LINE
  5
30D
330
1F
100
AcDbEntity
  8
0
  6
Continuous
 62
     7
370
    15
100
AcDbLine
 10
108.4455886758
 20
84.3469496439
 30
0.0
 11
96.2455833233
 21
84.3469496439
 31
0.0
  0
LINE
  5
30E
330
1F
100
AcDbEntity
  8
0
  6
Continuous
 62
     7
370
    15
100
AcDbLine
 10
93.8455874003
 20
76.4969494748
 30
0.0
 11
95.3455829895
 21
76.4969494748
 31
0.0
  0
LINE
  5
30F
330
1F
100
AcDbEntity
  8
0
  6
Continuous
 62
     7
370
    15
100
AcDbLine
 10
95.3455829895
 20
84.1969494331
 30
0.0
 11
93.8455874003
 21
84.1969494331
 31
0.0
  0
LINE
  5
310
330
1F
100
AcDbEntity
  8
0
  6
Continuous
 62
     7
370
    15
100
AcDbLine
 10
95.3455829895
 20
77.9469493399
 30
0.0
 11
96.2455833233
 21
77.9469493399
 31
0.0
  0
LINE
  5
311
330
1F
100
AcDbEntity
  8
0
  6
Continuous
 62
     7
370
    15
100
AcDbLine
 10
96.2455833233
 20
82.7469495679
 30
0.0
 11
95.3455829895
 21
82.7469495679
 31
0.0
  0
LINE
  5
312
330
1F
100
AcDbEntity
  8
0
  6
Continuous
 62
     7
370
    15
100
AcDbLine
 10
182.4455859042
 20
93.0969492155
 30
0.0
 11
179.7455858342
 21
93.0969492155
 31
0.0
  0
LINE
  5
313
330
1F
100
AcDbEntity
  8
0
  6
Continuous
 62
     7
370
    15
100
AcDbLine
 10
179.7455858342
 20
87.5969492453
 30
0.0
 11
182.4455859042
 21
87.5969492453
 31
0.0
  0
LINE
  5
314
330
1F
100
AcDbEntity
  8
0
  6
Continuous
 62
     7
370
    15
100
AcDbLine
 10
182.4455859042
 20
87.5969492453
 30
0.0
 11
182.7455858603
 21
88.0969493273
 31
0.0
  0
LINE
  5
315
330
1F
100
AcDbEntity
  8
0
  6
Continuous
 62
     7
370
    15
100
AcDbLine
 10
182.7455858603
 20
92.5969491335
 30
0.0
 11
182.4455859042
 21
93.0969492155
 31
0.0
  0
LINE
  5
316
330
1F
100
AcDbEntity
  8
0
  6
Continuous
 62
     7
370
    15
100
AcDbLine
 10
182.4455859042
 20
73.0969496625
 30
0.0
 11
179.7455858342
 21
73.0969496625
 31
0.0
  0
LINE
  5
317
330
1F
100
AcDbEntity
  8
0
  6
Continuous
 62
     7
370
    15
100
AcDbLine
 10
179.7455858342
 20
67.5969496923
 30
0.0
 11
182.4455859042
 21
67.5969496923
 31
0.0
  0
LINE
  5
318
330
1F
100
AcDbEntity
  8
0
  6
Continuous
 62
     7
370
    15
100
AcDbLine
 10
182.4455859042
 20
67.5969496923
 30
0.0
 11
182.7455858603
 21
68.0969497743
 31
0.0
  0
LINE
  5
319
330
1F
100
AcDbEntity
  8
0
  6
Continuous
 62
     7
370
    15
100
AcDbLine
 10
182.7455858603
 20
72.5969495806
 30
0.0
 11
182.4455859042
 21
73.0969496625
 31
0.0
  0
SPLINE
  5
31A
330
1F
100
AcDbEntity
  8
0
  6
Continuous
 62
     7
370
    15
100
AcDbSpline
210
0.0
220
0.0
230
1.0
 70
     8
 71
     3
 72
    15
 73
    11
 74
     0
 42
0.00000001
 43
0.00000001
 12
1.0
 22
0.0
 32
0.0
 13
1.0
 23
0.0
 33
0.0
 40
0.0
 40
0.0
 40
0.0
 40
0.0
 40
0.1212258224921532
 40
0.2487264478951261
 40
0.3796040806113289
 40
0.5108475516082818
 40
0.63986370038098
 40
0.7648474770852369
 40
0.8849123429376806
 40
0.9999999999999999
 40
0.9999999999999999
 40
0.9999999999999999
 40
0.9999999999999999
 10
186.245585968287
 20
66.38558214482002
 30
0.0
 10
186.3975044499426
 20
66.39853015995361
 30
0.0
 10
186.7092049072793
 20
66.42509639596885
 30
0.0
 10
187.1731754455861
 20
66.57242205813164
 30
0.0
 10
187.6107448926777
 20
66.80201616753634
 30
0.0
 10
187.9909269843303
 20
67.11241751852761
 30
0.0
 10
188.2921617893707
 20
67.48428183638465
 30
0.0
 10
188.5018755478484
 20
67.89784594422213
 30
0.0
 10
188.6271644240066
 20
68.33251925179415
 30
0.0
 10
188.6394142988756
 20
68.6302803148498
 30
0.0
 10
188.645409596653
 20
68.77600965973072
 30
0.0
  0
SPLINE
  5
31B
330
1F
100
AcDbEntity
  8
0
  6
Continuous
 62
     7
370
    15
100
AcDbSpline
210
0.0
220
0.0
230
1.0
 70
     8
 71
     3
 72
    15
 73
    11
 74
     0
 42
0.00000001
 43
0.00000001
 12
1.0
 22
0.0
 32
0.0
 13
1.0
 23
0.0
 33
0.0
 40
0.0
 40
0.0
 40
0.0
 40
0.0
 40
0.1150876570623193
 40
0.235152522914763
 40
0.36013629961902
 40
0.4891524483917182
 40
0.6203959193886712
 40
0.751273552104874
 40
0.8787741775078469
 40
1.0
 40
1.0
 40
1.0
 40
1.0
 10
188.645409596653
 20
91.91788924809627
 30
0.0
 10
188.6394142988756
 20
92.06361859297716
 30
0.0
 10
188.6271644240066
 20
92.36137965603284
 30
0.0
 10
188.5018755478484
 20
92.79605296360484
 30
0.0
 10
188.2921617893707
 20
93.20961707144234
 30
0.0
 10
187.9909269843303
 20
93.58148138929938
 30
0.0
 10
187.6107448926777
 20
93.89188274029063
 30
0.0
 10
187.1731754455861
 20
94.12147684969534
 30
0.0
 10
186.7092049072793
 20
94.26880251185813
 30
0.0
 10
186.3975044499426
 20
94.29536874787337
 30
0.0
 10
186.245585968287
 20
94.30831676300697
 30
0.0
  0
LINE
  5
31C
330
1F
100
AcDbEntity
  8
0
  6
Continuous
 62
     7
370
    15
100
AcDbLine
 10
104.3707543887
 20
91.8469494763
 30
0.0
 11
104.1455829419
 21
91.4569497662
 31
0.0
  0
LINE
  5
31D
330
1F
100
AcDbEntity
  8
0
  6
Continuous
 62
     7
370
    15
100
AcDbLine
 10
104.1455829419
 20
88.236949462
 30
0.0
 11
104.3707543887
 21
87.8469492863
 31
0.0
  0
LINE
  5
31E
330
1F
100
AcDbEntity
  8
0
  6
Continuous
 62
     7
370
    15
100
AcDbLine
 10
104.3707543887
 20
87.8469492863
 30
0.0
 11
105.2455866612
 21
87.8469492863
 31
0.0
  0
LINE
  5
31F
330
1F
100
AcDbEntity
  8
0
  6
Continuous
 62
     7
370
    15
100
AcDbLine
 10
105.2455866612
 20
91.8469494763
 30
0.0
 11
104.3707543887
 21
91.8469494763
 31
0.0
  0
LINE
  5
320
330
1F
100
AcDbEntity
  8
0
  6
Continuous
 62
     7
370
    15
100
AcDbLine
 10
180.8455858282
 20
93.0969492155
 30
0.0
 11
179.7455858342
 21
93.0969492155
 31
0.0
  0
LINE
  5
321
330
1F
100
AcDbEntity
  8
0
  6
Continuous
 62
     7
370
    15
100
AcDbLine
 10
179.7455858342
 20
87.5969492453
 30
0.0
 11
180.8455858282
 21
87.5969492453
 31
0.0
  0
LINE
  5
322
330
1F
100
AcDbEntity
  8
0
  6
Continuous
 62
     7
370
    15
100
AcDbLine
 10
105.2455866612
 20
86.3469495061
 30
0.0
 11
105.5581906713
 21
85.8054976533
 31
0.0
  0
LINE
  5
323
330
1F
100
AcDbEntity
  8
0
  6
Continuous
 62
     7
370
    15
100
AcDbLine
 10
105.5581906713
 20
93.8884011092
 30
0.0
 11
105.2455866612
 21
93.3469497221
 31
0.0
  0
LINE
  5
324
330
1F
100
AcDbEntity
  8
0
  6
Continuous
 62
     7
370
    15
100
AcDbLine
 10
96.2455833233
 20
78.8852795348
 30
0.0
 11
96.2455833233
 21
84.3469496439
 31
0.0
  0
LINE
  5
325
330
1F
100
AcDbEntity
  8
0
  6
Continuous
 62
     7
370
    15
100
AcDbLine
 10
96.2455833233
 20
76.3469492639
 30
0.0
 11
96.2455833233
 21
78.8852795348
 31
0.0
  0
LINE
  5
326
330
1F
100
AcDbEntity
  8
0
  6
Continuous
 62
     7
370
    15
100
AcDbLine
 10
95.3455829895
 20
76.4969494748
 30
0.0
 11
95.3455829895
 21
84.1969494331
 31
0.0
  0
LINE
  5
327
330
1F
100
AcDbEntity
  8
0
  6
Continuous
 62
     7
370
    15
100
AcDbLine
 10
93.8455874003
 20
76.4969494748
 30
0.0
 11
93.8455874003
 21
84.1969494331
 31
0.0
  0
LINE
  5
328
330
1F
100
AcDbEntity
  8
0
  6
Continuous
 62
     7
370
    15
100
AcDbLine
 10
179.7455858342
 20
92.3469495582
 30
0.0
 11
178.145585991
 21
92.3469495582
 31
0.0
  0
LINE
  5
329
330
1F
100
AcDbEntity
  8
0
  6
Continuous
 62
     7
370
    15
100
AcDbLine
 10
179.7455858342
 20
68.3469493496
 30
0.0
 11
179.7455858342
 21
92.3469495582
 31
0.0
  0
LINE
  5
32A
330
1F
100
AcDbEntity
  8
0
  6
Continuous
 62
     7
370
    15
100
AcDbLine
 10
178.145585991
 20
68.3469493496
 30
0.0
 11
179.7455858342
 21
68.3469493496
 31
0.0
  0
LINE
  5
32B
330
1F
100
AcDbEntity
  8
0
  6
Continuous
 62
     7
370
    15
100
AcDbLine
 10
178.145585991
 20
94.346949886
 30
0.0
 11
179.7455858342
 21
94.346949886
 31
0.0
  0
LINE
  5
32C
330
1F
100
AcDbEntity
  8
0
  6
Continuous
 62
     7
370
    15
100
AcDbLine
 10
179.7455858342
 20
92.3469495582
 30
0.0
 11
179.7455858342
 21
94.346949886
 31
0.0
  0
LINE
  5
32D
330
1F
100
AcDbEntity
  8
0
  6
Continuous
 62
     7
370
    15
100
AcDbLine
 10
178.145585991
 20
66.3469490218
 30
0.0
 11
179.7455858342
 21
66.3469490218
 31
0.0
  0
LINE
  5
32E
330
1F
100
AcDbEntity
  8
0
  6
Continuous
 62
     7
370
    15
100
AcDbLine
 10
179.7455858342
 20
66.3469490218
 30
0.0
 11
179.7455858342
 21
68.3469493496
 31
0.0
  0
LINE
  5
32F
330
1F
100
AcDbEntity
  8
0
  6
Continuous
 62
     7
370
    15
100
AcDbLine
 10
182.4455859042
 20
93.0969492155
 30
0.0
 11
182.4455859042
 21
87.5969492453
 31
0.0
  0
LINE
  5
330
330
1F
100
AcDbEntity
  8
0
  6
Continuous
 62
     7
370
    15
100
AcDbLine
 10
182.7455858603
 20
92.5969491335
 30
0.0
 11
182.7455858603
 21
88.0969493273
 31
0.0
  0
LINE
  5
331
330
1F
100
AcDbEntity
  8
0
  6
Continuous
 62
     7
370
    15
100
AcDbLine
 10
182.4455859042
 20
73.0969496625
 30
0.0
 11
182.4455859042
 21
67.5969496923
 31
0.0
  0
LINE
  5
332
330
1F
100
AcDbEntity
  8
0
  6
Continuous
 62
     7
370
    15
100
AcDbLine
 10
182.7455858603
 20
72.5969495806
 30
0.0
 11
182.7455858603
 21
68.0969497743
 31
0.0
  0
SPLINE
  5
333
330
1F
100
AcDbEntity
  8
0
  6
Continuous
 62
     7
370
    15
100
AcDbSpline
210
0.0
220
0.0
230
1.0
 70
    24
 71
     3
 72
    11
 73
     7
 74
     0
 42
0.00000001
 43
0.00000001
 12
1.0
 22
0.0
 32
0.0
 13
1.0
 23
0.0
 33
0.0
 40
0.0
 40
0.0
 40
0.0
 40
0.0
 40
0.3133618072204102
 40
0.6516791566984372
 40
0.9957126931829565
 40
1.0
 40
1.0
 40
1.0
 40
1.0
 10
179.7455862998379
 20
66.34694902177982
 30
0.0
 10
179.7724364059612
 20
66.34694902177982
 30
0.0
 10
179.8282749099286
 20
66.34694902177984
 30
0.0
 10
180.1539570389942
 20
66.34694902177974
 30
0.0
 10
180.4112716787982
 20
66.34694902177996
 30
0.0
 10
180.5439527671068
 20
66.34694902177982
 30
0.0
 10
180.5455858721745
 20
66.34694902177982
 30
0.0
  0
SPLINE
  5
334
330
1F
100
AcDbEntity
  8
0
  6
Continuous
 62
     7
370
    15
100
AcDbSpline
210
0.0
220
0.0
230
1.0
 70
    24
 71
     3
 72
    11
 73
     7
 74
     0
 42
0.00000001
 43
0.00000001
 12
1.0
 22
0.0
 32
0.0
 13
1.0
 23
0.0
 33
0.0
 40
0.0
 40
0.0
 40
0.0
 40
0.0
 40
0.0042868972112061
 40
0.3543730001178573
 40
0.7076561576196725
 40
1.0
 40
1.0
 40
1.0
 40
1.0
 10
180.5455858721745
 20
94.34694988604717
 30
0.0
 10
180.5439527697316
 20
94.34694988604717
 30
0.0
 10
180.4089536354663
 20
94.34694988604713
 30
0.0
 10
180.1437065523752
 20
94.34694988604718
 30
0.0
 10
179.8213337963011
 20
94.34694988604716
 30
0.0
 10
179.7691947240292
 20
94.34694988604717
 30
0.0
 10
179.7455858341766
 20
94.34694988604717
 30
0.0
  0
LINE
  5
335
330
1F
100
AcDbEntity
  8
0
  6
Continuous
 62
     7
370
    15
100
AcDbLine
 10
186.2455859683
 20
66.3855793509
 30
0.0
 11
186.2455859683
 21
66.3469490218
 31
0.0
  0
LINE
  5
336
330
1F
100
AcDbEntity
  8
0
  6
Continuous
 62
     7
370
    15
100
AcDbLine
 10
188.6455856166
 20
68.7469496014
 30
0.0
 11
186.2455859683
 21
68.7469496014
 31
0.0
  0
LINE
  5
337
330
1F
100
AcDbEntity
  8
0
  6
Continuous
 62
     7
370
    15
100
AcDbLine
 10
188.6455856166
 20
91.9469493064
 30
0.0
 11
186.2455859683
 21
91.9469493064
 31
0.0
  0
LINE
  5
338
330
1F
100
AcDbEntity
  8
0
  6
Continuous
 62
     7
370
    15
100
AcDbLine
 10
186.2455859683
 20
94.346949886
 30
0.0
 11
186.2455859683
 21
94.3082394632
 31
0.0
  0
LINE
  5
339
330
1F
100
AcDbEntity
  8
0
  6
Continuous
 62
     7
370
    15
100
AcDbLine
 10
186.2455859683
 20
91.9469493064
 30
0.0
 11
186.2455859683
 21
68.7469496014
 31
0.0
  0
LINE
  5
33A
330
1F
100
AcDbEntity
  8
0
  6
Continuous
 62
     7
370
    15
100
AcDbLine
 10
186.2455859683
 20
94.346949886
 30
0.0
 11
180.5455858722
 21
94.346949886
 31
0.0
  0
LINE
  5
33B
330
1F
100
AcDbEntity
  8
0
  6
Continuous
 62
     7
370
    15
100
AcDbLine
 10
180.5455858722
 20
66.3469490218
 30
0.0
 11
186.2455859683
 21
66.3469490218
 31
0.0
  0
LINE
  5
33C
330
1F
100
AcDbEntity
  8
0
  6
Continuous
 62
     7
370
    15
100
AcDbLine
 10
188.6455856166
 20
68.7469496014
 30
0.0
 11
188.6455856166
 21
91.9469493064
 31
0.0
  0
LINE
  5
33D
330
1F
100
AcDbEntity
  8
0
  6
Continuous
 62
     7
370
    15
100
AcDbLine
 10
104.1455829419
 20
88.7481263461
 30
0.0
 11
104.1455829419
 21
91.4569497662
 31
0.0
  0
LINE
  5
33E
330
1F
100
AcDbEntity
  8
0
  6
Continuous
 62
     7
370
    15
100
AcDbLine
 10
104.1455829419
 20
88.236949462
 30
0.0
 11
104.1455829419
 21
88.7481263461
 31
0.0
  0
LINE
  5
33F
330
1F
100
AcDbEntity
  8
0
  6
Continuous
 62
     7
370
    15
100
AcDbLine
 10
104.3707543887
 20
88.4819524917
 30
0.0
 11
104.3707543887
 21
91.8469494763
 31
0.0
  0
LINE
  5
340
330
1F
100
AcDbEntity
  8
0
  6
Continuous
 62
     7
370
    15
100
AcDbLine
 10
104.3707543887
 20
87.8469492863
 30
0.0
 11
104.3707543887
 21
88.4819524917
 31
0.0
  0
LINE
  5
341
330
1F
100
AcDbEntity
  8
0
  6
Continuous
 62
     7
370
    15
100
AcDbLine
 10
180.8455858282
 20
93.0969492155
 30
0.0
 11
180.8455858282
 21
87.5969492453
 31
0.0
  0
LINE
  5
342
330
1F
100
AcDbEntity
  8
0
  6
Continuous
 62
     7
370
    15
100
AcDbLine
 10
108.4455886758
 20
85.8054976533
 30
0.0
 11
105.5581906713
 21
85.8054976533
 31
0.0
  0
SPLINE
  5
343
330
1F
100
AcDbEntity
  8
0
  6
Continuous
 62
     7
370
    15
100
AcDbSpline
210
0.0
220
0.0
230
1.0
 70
     8
 71
     3
 72
    10
 73
     6
 74
     0
 42
0.00000001
 43
0.00000001
 12
1.0
 22
0.0
 32
0.0
 13
1.0
 23
0.0
 33
0.0
 40
0.0
 40
0.0
 40
0.0
 40
0.0
 40
0.0700365626465201
 40
0.5307571149786066
 40
1.0
 40
1.0
 40
1.0
 40
1.0
 10
105.245586661191
 20
86.81586064349942
 30
0.0
 10
105.2459589631849
 20
86.79193002974212
 30
0.0
 10
105.2487803742412
 20
86.61057699016484
 30
0.0
 10
105.3170525557722
 20
86.26862780122063
 30
0.0
 10
105.4773217220871
 20
85.9608146521403
 30
0.0
 10
105.5581906712961
 20
85.8054976532989
 30
0.0
  0
SPLINE
  5
344
330
1F
100
AcDbEntity
  8
0
  6
Continuous
 62
     7
370
    15
100
AcDbSpline
210
0.0
220
0.0
230
1.0
 70
     8
 71
     3
 72
     9
 73
     5
 74
     0
 42
0.00000001
 43
0.00000001
 12
1.0
 22
0.0
 32
0.0
 13
1.0
 23
0.0
 33
0.0
 40
0.0
 40
0.0
 40
0.0
 40
0.0
 40
0.4954578422127281
 40
1.0
 40
1.0
 40
1.0
 40
1.0
 10
105.5581906712962
 20
87.82622363369994
 30
0.0
 10
105.4708186178291
 20
87.66213621337914
 30
0.0
 10
105.2944725273587
 20
87.33095279807995
 30
0.0
 10
105.2619803396758
 20
86.98859472461919
 30
0.0
 10
105.245586661191
 20
86.81586064349942
 30
0.0
  0
LINE
  5
345
330
1F
100
AcDbEntity
  8
0
  6
Continuous
 62
     7
370
    15
100
AcDbLine
 10
108.4455886758
 20
87.8262236337
 30
0.0
 11
105.5581906713
 21
87.8262236337
 31
0.0
  0
SPLINE
  5
346
330
1F
100
AcDbEntity
  8
0
  6
Continuous
 62
     7
370
    15
100
AcDbSpline
210
0.0
220
0.0
230
1.0
 70
     8
 71
     3
 72
    10
 73
     6
 74
     0
 42
0.00000001
 43
0.00000001
 12
1.0
 22
0.0
 32
0.0
 13
1.0
 23
0.0
 33
0.0
 40
0.0
 40
0.0
 40
0.0
 40
0.0
 40
0.2572431768452554
 40
0.6263799428923559
 40
1.0
 40
1.0
 40
1.0
 40
1.0
 10
105.5581906712962
 20
87.82622363369994
 30
0.0
 10
105.5121241996875
 20
87.99591525286185
 30
0.0
 10
105.399953629376
 20
88.40910960080717
 30
0.0
 10
105.2743909296872
 20
89.08349962016084
 30
0.0
 10
105.2552266426621
 20
89.59144398580383
 30
0.0
 10
105.245586661191
 20
89.84694914843969
 30
0.0
  0
LINE
  5
347
330
1F
100
AcDbEntity
  8
0
  6
Continuous
 62
     7
370
    15
100
AcDbLine
 10
105.2455866612
 20
89.8469491484
 30
0.0
 11
105.2455866612
 21
86.8158606435
 31
0.0
  0
SPLINE
  5
348
330
1F
100
AcDbEntity
  8
0
  6
Continuous
 62
     7
370
    15
100
AcDbSpline
210
0.0
220
0.0
230
1.0
 70
     8
 71
     3
 72
    10
 73
     6
 74
     0
 42
0.00000001
 43
0.00000001
 12
1.0
 22
0.0
 32
0.0
 13
1.0
 23
0.0
 33
0.0
 40
0.0
 40
0.0
 40
0.0
 40
0.0
 40
0.2684068207404545
 40
0.6323733358689111
 40
1.0
 40
1.0
 40
1.0
 40
1.0
 10
105.245586661191
 20
89.84694914843969
 30
0.0
 10
105.2506643018124
 20
90.03046099207774
 30
0.0
 10
105.2626273530091
 20
90.46281959016663
 30
0.0
 10
105.3654184870984
 20
91.14113172432592
 30
0.0
 10
105.4937193142332
 20
91.62468758658135
 30
0.0
 10
105.5581906712962
 20
91.86767512884073
 30
0.0
  0
LINE
  5
349
330
1F
100
AcDbEntity
  8
0
  6
Continuous
 62
     7
370
    15
100
AcDbLine
 10
108.4455886758
 20
91.8676751288
 30
0.0
 11
105.5581906713
 21
91.8676751288
 31
0.0
  0
SPLINE
  5
34A
330
1F
100
AcDbEntity
  8
0
  6
Continuous
 62
     7
370
    15
100
AcDbSpline
210
0.0
220
0.0
230
1.0
 70
     8
 71
     3
 72
    10
 73
     6
 74
     0
 42
0.00000001
 43
0.00000001
 12
1.0
 22
0.0
 32
0.0
 13
1.0
 23
0.0
 33
0.0
 40
0.0
 40
0.0
 40
0.0
 40
0.0
 40
0.0700362528189455
 40
0.5307569207574331
 40
1.0
 40
1.0
 40
1.0
 40
1.0
 10
105.245586661191
 20
92.87803811904125
 30
0.0
 10
105.2459589650201
 20
92.85410766594711
 30
0.0
 10
105.2487804014331
 20
92.67275510801677
 30
0.0
 10
105.3170525709237
 20
92.3308049324858
 30
0.0
 10
105.4773217228286
 20
92.02299202055922
 30
0.0
 10
105.5581906712962
 20
91.86767512884073
 30
0.0
  0
LINE
  5
34B
330
1F
100
AcDbEntity
  8
0
  6
Continuous
 62
     7
370
    15
100
AcDbLine
 10
105.2455866612
 20
89.8469491484
 30
0.0
 11
105.2455866612
 21
92.878038119
 31
0.0
  0
SPLINE
  5
34C
330
1F
100
AcDbEntity
  8
0
  6
Continuous
 62
     7
370
    15
100
AcDbSpline
210
0.0
220
0.0
230
1.0
 70
     8
 71
     3
 72
     9
 73
     5
 74
     0
 42
0.00000001
 43
0.00000001
 12
1.0
 22
0.0
 32
0.0
 13
1.0
 23
0.0
 33
0.0
 40
0.0
 40
0.0
 40
0.0
 40
0.0
 40
0.4954578422127281
 40
1.0
 40
1.0
 40
1.0
 40
1.0
 10
105.5581906712961
 20
93.88840110924177
 30
0.0
 10
105.470818617829
 20
93.72431368892097
 30
0.0
 10
105.2944725273586
 20
93.39313027362178
 30
0.0
 10
105.2619803396758
 20
93.05077220016102
 30
0.0
 10
105.245586661191
 20
92.87803811904125
 30
0.0
  0
LINE
  5
34D
330
1F
100
AcDbEntity
  8
0
  6
Continuous
 62
     7
370
    15
100
AcDbLine
 10
108.4455886758
 20
93.8884011092
 30
0.0
 11
105.5581906713
 21
93.8884011092
 31
0.0
  0
LINE
  5
34E
330
1F
100
AcDbEntity
  8
0
  6
Continuous
 62
     7
370
    15
100
AcDbLine
 10
105.2455866612
 20
86.8158606435
 30
0.0
 11
105.2455866612
 21
86.3469495061
 31
0.0
  0
LINE
  5
34F
330
1F
100
AcDbEntity
  8
0
  6
Continuous
 62
     7
370
    15
100
AcDbLine
 10
105.2455866612
 20
93.3469497221
 30
0.0
 11
105.2455866612
 21
92.878038119
 31
0.0
  0
CIRCLE
  5
350
330
1F
100
AcDbEntity
  8
0
  6
Continuous
 62
     7
370
    15
100
AcDbCircle
 10
168.445585934
 20
80.3469494539
 30
0.0
 40
2.000000000000014
  0
ARC
  5
351
330
1F
100
AcDbEntity
  8
0
  6
Continuous
 62
     7
370
    15
100
AcDbCircle
 10
168.445585934
 20
80.3469494539
 30
0.0
 40
3.999999999999988
100
AcDbArc
 50
145.5884913302
 51
214.4115086698
  0
LINE
  5
352
330
1F
100
AcDbEntity
  8
0
  6
Continuous
 62
     7
370
    15
100
AcDbLine
 10
160.4455860234
 20
83.8110510348
 30
0.0
 11
160.4455860234
 21
76.882847873
 31
0.0
  0
LINE
  5
353
330
1F
100
AcDbEntity
  8
0
  6
Continuous
 62
     7
370
    15
100
AcDbLine
 10
111.9455883182
 20
66.3469490218
 30
0.0
 11
111.9455883182
 21
94.346949886
 31
0.0
  0
LINE
  5
354
330
1F
100
AcDbEntity
  8
0
  6
Continuous
 62
     7
370
    15
100
AcDbLine
 10
108.4455886758
 20
66.3469490218
 30
0.0
 11
111.9455883182
 21
66.3469490218
 31
0.0
  0
LINE
  5
355
330
1F
100
AcDbEntity
  8
0
  6
Continuous
 62
     7
370
    15
100
AcDbLine
 10
108.4455886758
 20
66.3469490218
 30
0.0
 11
108.4455886758
 21
94.346949886
 31
0.0
  0
LINE
  5
356
330
1F
100
AcDbEntity
  8
0
  6
Continuous
 62
     7
370
    15
100
AcDbLine
 10
108.4455886758
 20
94.346949886
 30
0.0
 11
111.9455883182
 21
94.346949886
 31
0.0
  0
LINE
  5
357
330
1F
100
AcDbEntity
  8
0
  6
Continuous
 62
     7
370
    15
100
AcDbLine
 10
154.9335030741
 20
66.3469490218
 30
0.0
 11
154.9335030741
 21
94.346949886
 31
0.0
  0
LINE
  5
358
330
1F
100
AcDbEntity
  8
0
  6
Continuous
 62
     7
370
    15
100
AcDbLine
 10
111.9455883182
 20
94.346949886
 30
0.0
 11
154.9335030741
 21
94.346949886
 31
0.0
  0
CIRCLE
  5
359
330
1F
100
AcDbEntity
  8
0
  6
Continuous
 62
     7
370
    15
100
AcDbCircle
 10
140.945585934
 20
90.3469494539
 30
0.0
 40
1.649999999999991
  0
CIRCLE
  5
35A
330
1F
100
AcDbEntity
  8
0
  6
Continuous
 62
     7
370
    15
100
AcDbCircle
 10
150.945585934
 20
90.3469494539
 30
0.0
 40
1.649999999999991
  0
CIRCLE
  5
35B
330
1F
100
AcDbEntity
  8
0
  6
Continuous
 62
     7
370
    15
100
AcDbCircle
 10
140.945585934
 20
70.3469494539
 30
0.0
 40
1.649999999999991
  0
CIRCLE
  5
35C
330
1F
100
AcDbEntity
  8
0
  6
Continuous
 62
     7
370
    15
100
AcDbCircle
 10
150.945585934
 20
70.3469494539
 30
0.0
 40
1.649999999999991
  0
CIRCLE
  5
35D
330
1F
100
AcDbEntity
  8
0
  6
Continuous
 62
     7
370
    15
100
AcDbCircle
 10
150.945585934
 20
80.3469494539
 30
0.0
 40
1.649999999999991
  0
CIRCLE
  5
35E
330
1F
100
AcDbEntity
  8
0
  6
Continuous
 62
     7
370
    15
100
AcDbCircle
 10
130.945585934
 20
80.3469494539
 30
0.0
 40
1.649999999999991
  0
LINE
  5
35F
330
1F
100
AcDbEntity
  8
0
  6
Continuous
 62
     7
370
    15
100
AcDbLine
 10
111.9455883182
 20
66.3469490218
 30
0.0
 11
154.9335030741
 21
66.3469490218
 31
0.0
  0
LINE
  5
360
330
1F
100
AcDbEntity
  8
0
  6
Continuous
 62
     7
370
    15
100
AcDbLine
 10
156.3010627306
 20
66.3469490218
 30
0.0
 11
156.3010627306
 21
94.346949886
 31
0.0
  0
LINE
  5
361
330
1F
100
AcDbEntity
  8
0
  6
Continuous
 62
     7
370
    15
100
AcDbLine
 10
154.9335030741
 20
66.3469490218
 30
0.0
 11
156.3010627306
 21
66.3469490218
 31
0.0
  0
LINE
  5
362
330
1F
100
AcDbEntity
  8
0
  6
Continuous
 62
     7
370
    15
100
AcDbLine
 10
154.9335030741
 20
94.346949886
 30
0.0
 11
156.3010627306
 21
94.346949886
 31
0.0
  0
LINE
  5
363
330
1F
100
AcDbEntity
  8
0
  6
Continuous
 62
     7
370
    15
100
AcDbLine
 10
156.3010627306
 20
94.346949886
 30
0.0
 11
159.4583077259
 21
94.346949886
 31
0.0
  0
LINE
  5
364
330
1F
100
AcDbEntity
  8
0
  6
Continuous
 62
     7
370
    15
100
AcDbLine
 10
159.4583077259
 20
83.007055623
 30
0.0
 11
159.4583077259
 21
94.346949886
 31
0.0
  0
ARC
  5
365
330
1F
100
AcDbEntity
  8
0
  6
Continuous
 62
     7
370
    15
100
AcDbCircle
 10
162.445585934
 20
80.3469494539
 30
0.0
 40
4.000000000000001
100
AcDbArc
 50
138.3156370023
 51
221.6843629977
  0
LINE
  5
366
330
1F
100
AcDbEntity
  8
0
  6
Continuous
 62
     7
370
    15
100
AcDbLine
 10
159.4583077259
 20
66.3469490218
 30
0.0
 11
159.4583077259
 21
77.6868432849
 31
0.0
  0
LINE
  5
367
330
1F
100
AcDbEntity
  8
0
  6
Continuous
 62
     7
370
    15
100
AcDbLine
 10
156.3010627306
 20
66.3469490218
 30
0.0
 11
159.4583077259
 21
66.3469490218
 31
0.0
  0
LINE
  5
368
330
1F
100
AcDbEntity
  8
0
  6
Continuous
 62
     7
370
    15
100
AcDbLine
 10
159.4583077259
 20
94.346949886
 30
0.0
 11
159.8490385241
 21
94.346949886
 31
0.0
  0
LINE
  5
369
330
1F
100
AcDbEntity
  8
0
  6
Continuous
 62
     7
370
    15
100
AcDbLine
 10
159.8490385241
 20
83.3896357189
 30
0.0
 11
159.8490385241
 21
94.346949886
 31
0.0
  0
SPLINE
  5
36A
330
1F
100
AcDbEntity
  8
0
  6
Continuous
 62
     7
370
    15
100
AcDbSpline
210
0.0
220
0.0
230
1.0
 70
     8
 71
     3
 72
    10
 73
     6
 74
     0
 42
0.00000001
 43
0.00000001
 12
1.0
 22
0.0
 32
0.0
 13
1.0
 23
0.0
 33
0.0
 40
0.0
 40
0.0
 40
0.0
 40
0.0
 40
0.4937150385427715
 40
0.7461768085231779
 40
1.0
 40
1.0
 40
1.0
 40
1.0
 10
159.8490385241224
 20
83.38963571887545
 30
0.0
 10
159.7807441148547
 20
83.3290047059924
 30
0.0
 10
159.6775272784833
 20
83.23736995282763
 30
0.0
 10
159.5497359117689
 20
83.10759131734771
 30
0.0
 10
159.4888383731868
 20
83.04062754389663
 30
0.0
 10
159.4583077258779
 20
83.00705562297337
 30
0.0
  0
LINE
  5
36B
330
1F
100
AcDbEntity
  8
0
  6
Continuous
 62
     7
370
    15
100
AcDbLine
 10
159.4583077259
 20
66.3469490218
 30
0.0
 11
159.8490385241
 21
66.3469490218
 31
0.0
  0
SPLINE
  5
36C
330
1F
100
AcDbEntity
  8
0
  6
Continuous
 62
     7
370
    15
100
AcDbSpline
210
0.0
220
0.0
230
1.0
 70
     8
 71
     3
 72
    10
 73
     6
 74
     0
 42
0.00000001
 43
0.00000001
 12
1.0
 22
0.0
 32
0.0
 13
1.0
 23
0.0
 33
0.0
 40
0.0
 40
0.0
 40
0.0
 40
0.0
 40
0.4941693131587601
 40
0.7462474354110195
 40
1.0
 40
1.0
 40
1.0
 40
1.0
 10
159.4583077258779
 20
77.68684328485362
 30
0.0
 10
159.5186120648858
 20
77.6216314667856
 30
0.0
 10
159.6096779346807
 20
77.52315478946895
 30
0.0
 10
159.7432248563881
 20
77.39652485233269
 30
0.0
 10
159.8136895488711
 20
77.33508487130449
 30
0.0
 10
159.8490385241224
 20
77.30426318895154
 30
0.0
  0
LINE
  5
36D
330
1F
100
AcDbEntity
  8
0
  6
Continuous
 62
     7
370
    15
100
AcDbLine
 10
159.8490385241
 20
66.3469490218
 30
0.0
 11
159.8490385241
 21
77.304263189
 31
0.0
  0
ARC
  5
36E
330
1F
100
AcDbEntity
  8
0
  6
Continuous
 62
     7
370
    15
100
AcDbCircle
 10
162.445585934
 20
80.3469494539
 30
0.0
 40
4.000000000000014
100
AcDbArc
 50
229.5234387067
 51
270.0
  0
LINE
  5
36F
330
1F
100
AcDbEntity
  8
0
  6
Continuous
 62
     7
370
    15
100
AcDbLine
 10
162.4455863512
 20
76.3469492639
 30
0.0
 11
165.14558549
 21
76.3469492639
 31
0.0
  0
LINE
  5
370
330
1F
100
AcDbEntity
  8
0
  6
Continuous
 62
     7
370
    15
100
AcDbLine
 10
159.8490385241
 20
66.3469490218
 30
0.0
 11
166.1455856539
 21
66.3469490218
 31
0.0
  0
LINE
  5
371
330
1F
100
AcDbEntity
  8
0
  6
Continuous
 62
     7
370
    15
100
AcDbLine
 10
165.14558549
 20
84.3469496439
 30
0.0
 11
162.4455863512
 21
84.3469496439
 31
0.0
  0
LINE
  5
372
330
1F
100
AcDbEntity
  8
0
  6
Continuous
 62
     7
370
    15
100
AcDbLine
 10
159.8490385241
 20
94.346949886
 30
0.0
 11
166.1455856539
 21
94.346949886
 31
0.0
  0
ARC
  5
373
330
1F
100
AcDbEntity
  8
0
  6
Continuous
 62
     7
370
    15
100
AcDbCircle
 10
162.445585934
 20
80.3469494539
 30
0.0
 40
4.0
100
AcDbArc
 50
90.0
 51
130.4765612933
  0
LINE
  5
374
330
1F
100
AcDbEntity
  8
0
  6
Continuous
 62
     7
370
    15
100
AcDbLine
 10
175.9455858865
 20
94.346949886
 30
0.0
 11
175.9455858865
 21
66.3469490218
 31
0.0
  0
LINE
  5
375
330
1F
100
AcDbEntity
  8
0
  6
Continuous
 62
     7
370
    15
100
AcDbLine
 10
166.1455856539
 20
66.3469490218
 30
0.0
 11
175.9455858865
 21
66.3469490218
 31
0.0
  0
LINE
  5
376
330
1F
100
AcDbEntity
  8
0
  6
Continuous
 62
     7
370
    15
100
AcDbLine
 10
165.14558549
 20
67.3469491857
 30
0.0
 11
166.1455856539
 21
66.3469490218
 31
0.0
  0
LINE
  5
377
330
1F
100
AcDbEntity
  8
0
  6
Continuous
 62
     7
370
    15
100
AcDbLine
 10
165.14558549
 20
93.3469497221
 30
0.0
 11
165.14558549
 21
67.3469491857
 31
0.0
  0
LINE
  5
378
330
1F
100
AcDbEntity
  8
0
  6
Continuous
 62
     7
370
    15
100
AcDbLine
 10
166.1455856539
 20
94.346949886
 30
0.0
 11
165.14558549
 21
93.3469497221
 31
0.0
  0
LINE
  5
379
330
1F
100
AcDbEntity
  8
0
  6
Continuous
 62
     7
370
    15
100
AcDbLine
 10
166.1455856539
 20
94.346949886
 30
0.0
 11
175.9455858865
 21
94.346949886
 31
0.0
  0
CIRCLE
  5
37A
330
1F
100
AcDbEntity
  8
0
  6
Continuous
 62
     7
370
    15
100
AcDbCircle
 10
168.445585934
 20
80.3469494539
 30
0.0
 40
2.099999999999994
  0
LINE
  5
37B
330
1F
100
AcDbEntity
  8
0
  6
Continuous
 62
     7
370
    15
100
AcDbLine
 10
175.9455858865
 20
94.346949886
 30
0.0
 11
178.145585991
 21
94.346949886
 31
0.0
  0
LINE
  5
37C
330
1F
100
AcDbEntity
  8
0
  6
Continuous
 62
     7
370
    15
100
AcDbLine
 10
178.145585991
 20
94.346949886
 30
0.0
 11
178.145585991
 21
66.3469490218
 31
0.0
  0
LINE
  5
37D
330
1F
100
AcDbEntity
  8
0
  6
Continuous
 62
     7
370
    15
100
AcDbLine
 10
175.9455858865
 20
66.3469490218
 30
0.0
 11
178.145585991
 21
66.3469490218
 31
0.0
  0
LINE
  5
37E
330
1F
100
AcDbEntity
  8
0
  6
Continuous
 62
     7
370
    15
100
AcDbLine
 10
129.4455865301
 20
79.659563079
 30
0.0
 11
129.4455865301
 21
81.0343358288
 31
0.0
  0
LINE
  5
37F
330
1F
100
AcDbEntity
  8
0
  6
Continuous
 62
     8
370
    15
100
AcDbLine
 10
180.5455858722
 20
67.5969496923
 30
0.0
 11
180.5455858722
 21
66.3469490218
 31
0.0
  0
LINE
  5
380
330
1F
100
AcDbEntity
  8
0
  6
Continuous
 62
     8
370
    15
100
AcDbLine
 10
180.5455858722
 20
87.5969492453
 30
0.0
 11
180.5455858722
 21
73.0969496625
 31
0.0
  0
LINE
  5
381
330
1F
100
AcDbEntity
  8
0
  6
Continuous
 62
     8
370
    15
100
AcDbLine
 10
180.5455858722
 20
94.346949886
 30
0.0
 11
180.5455858722
 21
93.0969492155
 31
0.0
  0
LINE
  5
382
330
1F
100
AcDbEntity
  8
0
  6
Continuous
 62
     8
370
    15
100
AcDbLine
 10
186.2455859683
 20
68.7469496014
 30
0.0
 11
186.2455859683
 21
66.3855793509
 31
0.0
  0
LINE
  5
383
330
1F
100
AcDbEntity
  8
0
  6
Continuous
 62
     8
370
    15
100
AcDbLine
 10
186.2455859683
 20
94.3082394632
 30
0.0
 11
186.2455859683
 21
91.9469493064
 31
0.0
  0
LINE
  5
384
330
1F
100
AcDbEntity
  8
0
  6
Continuous
 62
     8
370
    15
100
AcDbLine
 10
186.2455859683
 20
68.7469496014
 30
0.0
 11
182.7455858603
 21
68.7469496014
 31
0.0
  0
LINE
  5
385
330
1F
100
AcDbEntity
  8
0
  6
Continuous
 62
     8
370
    15
100
AcDbLine
 10
186.2455859683
 20
91.9469493064
 30
0.0
 11
182.7455858603
 21
91.9469493064
 31
0.0
  0
LINE
  5
386
330
1F
100
AcDbEntity
  8
0
  6
Continuous
 62
     8
370
    15
100
AcDbLine
 10
139.29558563
 20
70.3469496774
 30
0.0
 11
142.5955856121
 21
70.3469496774
 31
0.0
  0
LINE
  5
387
330
1F
100
AcDbEntity
  8
0
  6
Continuous
 62
     8
370
    15
100
AcDbLine
 10
149.2955854065
 20
70.3469496774
 30
0.0
 11
152.5955853886
 21
70.3469496774
 31
0.0
  0
LINE
  5
388
330
1F
100
AcDbEntity
  8
0
  6
Continuous
 62
     8
370
    15
100
AcDbLine
 10
152.5955853886
 20
90.3469492304
 30
0.0
 11
149.2955854065
 21
90.3469492304
 31
0.0
  0
LINE
  5
389
330
1F
100
AcDbEntity
  8
0
  6
Continuous
 62
     8
370
    15
100
AcDbLine
 10
142.5955856121
 20
90.3469492304
 30
0.0
 11
139.29558563
 21
90.3469492304
 31
0.0
  0
DIMENSION
  5
38A
330
1F
100
AcDbEntity
  8
0
  6
Continuous
 62
     7
370
     0
100
AcDbDimension
  2
_D_17
 10
150.945585934
 20
105.1503203108
 30
0.0
 11
129.695585934
 21
105.1503203108
 31
0.0
 70
   160
  1
<>
 71
     2
 42
-1.0
  3
SLDDIMSTYLE1
100
AcDbAlignedDimension
 13
108.445585934
 23
94.3469494539
 33
0.0
 14
150.945585934
 24
94.4969494539
 34
0.0
100
AcDbRotatedDimension
  0
DIMENSION
  5
394
330
1F
100
AcDbEntity
  8
0
  6
Continuous
 62
     7
370
     0
100
AcDbDimension
  2
_D_18
 10
150.945585934
 20
98.6201658444
 30
0.0
 11
145.67082348
 21
98.6201658444
 31
0.0
 70
   160
  1
<>
 71
     2
 42
-1.0
  3
SLDDIMSTYLE3
100
AcDbAlignedDimension
 13
140.945585934
 23
94.4969494539
 33
0.0
 14
150.945585934
 24
94.4969494539
 34
0.0
100
AcDbRotatedDimension
  0
DIMENSION
  5
3A0
330
1F
100
AcDbEntity
  8
0
  6
Continuous
 62
     7
370
     0
100
AcDbDimension
  2
_D_19
 10
188.645585934
 20
105.1503203108
 30
0.0
 11
169.4689076909
 21
105.1503203108
 31
0.0
 70
   160
  1
<>
 71
     2
 42
-1.0
  3
SLDDIMSTYLE1
100
AcDbAlignedDimension
 13
150.945585934
 23
94.4969494539
 33
0.0
 14
188.645585934
 24
91.9469494539
 34
0.0
 50
0.0
100
AcDbRotatedDimension
  0
DIMENSION
  5
3AA
330
1F
100
AcDbEntity
  8
0
  6
Continuous
 62
     7
370
     0
100
AcDbDimension
  2
_D_20
 10
122.1324769011
 20
70.3469494539
 30
0.0
 11
122.1324769011
 21
80.5732818385
 31
0.0
 70
   160
  1
<>
 71
     2
 42
-1.0
  3
SLDDIMSTYLE1
100
AcDbAlignedDimension
 13
136.795585934
 23
90.3469494539
 33
0.0
 14
136.795585934
 24
70.3469494539
 34
0.0
 50
90.0
100
AcDbRotatedDimension
  0
DIMENSION
  5
3B4
330
1F
100
AcDbEntity
  8
0
  6
Continuous
 62
     7
370
     0
100
AcDbDimension
  2
_D_21
 10
150.945585934
 20
60.4635268432
 30
0.0
 11
141.4879908186
 21
60.4635268432
 31
0.0
 70
   160
  1
<>
 71
     2
 42
-1.0
  3
SLDDIMSTYLE1
100
AcDbAlignedDimension
 13
130.945585934
 23
76.1969494539
 33
0.0
 14
150.945585934
 24
66.1969494539
 34
0.0
100
AcDbRotatedDimension
  0
DIMENSION
  5
3BE
330
1F
100
AcDbEntity
  8
0
  6
Continuous
 62
     7
370
     0
100
AcDbDimension
  2
_D_22
 10
108.445585934
 20
53.4703536588
 30
0.0
 11
134.3409836102
 21
53.4703536588
 31
0.0
 70
   160
  1
<>
 71
     2
 42
-1.0
  3
SLDDIMSTYLE1
100
AcDbAlignedDimension
 13
156.3010618357
 23
66.3469494539
 33
0.0
 14
108.445585934
 24
66.3469494539
 34
0.0
100
AcDbRotatedDimension
  0
MTEXT
  5
3C8
330
1F
100
AcDbEntity
  8
0
  6
Continuous
 62
     7
370
     0
100
AcDbMText
 10
61.5297265626
 20
94.2358331401
 30
0.0
 40
3.5
 41
0.0
 71
     1
 72
     1
  1
ストローク調整
  7
SLDTEXTSTYLE0
 73
     1
 44
1.0
  0
LEADER
  5
3C9
330
1F
100
AcDbEntity
  8
0
  6
Continuous
 62
     7
370
     0
100
AcDbLeader
  3
SLDDIMSTYLE2
 76
     3
 10
104.145585934
 20
89.8353283722
 30
0.0
 10
89.949003517
 20
89.8007033998
 30
0.0
 10
61.4302461899
 20
89.8007033998
 30
0.0
  0
MTEXT
  5
3CA
330
1F
100
AcDbEntity
  8
0
  6
Continuous
 62
     7
370
     0
100
AcDbMText
 10
66.7766328571
 20
110.2565937285
 30
0.0
 40
3.5
 41
0.0
 71
     1
 72
     1
  1
6-M4 取付用
  7
SLDTEXTSTYLE0
 73
     1
 44
1.0
  0
LEADER
  5
3CC
330
1F
100
AcDbEntity
  8
0
  6
Continuous
 62
     7
370
     0
100
AcDbLeader
  3
SLDDIMSTYLE4
 76
     3
 10
139.7407700688
 20
91.4742997681
 30
0.0
 10
94.2866354045
 20
105.7444314185
 30
0.0
 10
66.7057444314
 20
105.7444314185
 30
0.0
  0
INSERT
  5
3D8
330
1F
100
AcDbEntity
  8
0
  6
Continuous
 62
     7
370
     0
100
AcDbBlockReference
  2
SW_CENTERMARKSYMBOL_6
 10
130.945585934
 20
80.3469494539
 30
0.0
  0
INSERT
  5
3E4
330
1F
100
AcDbEntity
  8
0
  6
Continuous
 62
     7
370
     0
100
AcDbBlockReference
  2
SW_CENTERMARKSYMBOL_7
 10
140.945585934
 20
90.3469494539
 30
0.0
  0
INSERT
  5
3F0
330
1F
100
AcDbEntity
  8
0
  6
Continuous
 62
     7
370
     0
100
AcDbBlockReference
  2
SW_CENTERMARKSYMBOL_8
 10
140.945585934
 20
70.3469494539
 30
0.0
  0
INSERT
  5
3FC
330
1F
100
AcDbEntity
  8
0
  6
Continuous
 62
     7
370
     0
100
AcDbBlockReference
  2
SW_CENTERMARKSYMBOL_9
 10
150.945585934
 20
70.3469494539
 30
0.0
  0
INSERT
  5
408
330
1F
100
AcDbEntity
  8
0
  6
Continuous
 62
     7
370
     0
100
AcDbBlockReference
  2
SW_CENTERMARKSYMBOL_10
 10
150.945585934
 20
80.3469494539
 30
0.0
  0
INSERT
  5
414
330
1F
100
AcDbEntity
  8
0
  6
Continuous
 62
     7
370
     0
100
AcDbBlockReference
  2
SW_CENTERMARKSYMBOL_11
 10
150.945585934
 20
90.3469494539
 30
0.0
  0
LINE
  5
415
330
1F
100
AcDbEntity
  8
0
  6
CENTERX2
 62
     7
370
     0
100
AcDbLine
 10
91.845585934
 20
80.3469494539
 30
0.0
 11
113.445585934
 21
80.3469494539
 31
0.0
  0
LINE
  5
416
330
1F
100
AcDbEntity
  8
0
  6
CENTERX2
 62
     7
370
     0
100
AcDbLine
 10
94.245585934
 20
80.3469494539
 30
0.0
 11
110.445585934
 21
80.3469494539
 31
0.0
  0
LINE
  5
417
330
1F
100
AcDbEntity
  8
0
  6
CENTERX2
 62
     7
370
     0
100
AcDbLine
 10
110.445585934
 20
89.8469494539
 30
0.0
 11
103.5581933252
 21
89.8469494539
 31
0.0
  0
ENDSEC
  0
SECTION
  2
OBJECTS
  0
DICTIONARY
  5
C
330
0
100
AcDbDictionary
281
     1
  3
ACAD_GROUP
350
D
  3
ACAD_LAYOUT
350
1A
  3
ACAD_MLINESTYLE
350
17
  3
ACAD_PLOTSETTINGS
350
19
  3
ACAD_PLOTSTYLENAME
350
E
  0
DICTIONARY
  5
D
102
{ACAD_REACTORS
330
C
102
}
330
C
100
AcDbDictionary
281
     1
  0
DICTIONARY
  5
1A
102
{ACAD_REACTORS
330
C
102
}
330
C
100
AcDbDictionary
281
     1
  3
Layout1
350
1E
  3
Layout2
350
26
  3
Model
350
22
  0
DICTIONARY
  5
17
102
{ACAD_REACTORS
330
C
102
}
330
C
100
AcDbDictionary
281
     1
  3
Standard
350
18
  0
DICTIONARY
  5
19
102
{ACAD_REACTORS
330
C
102
}
330
C
100
AcDbDictionary
281
     1
  0
ACDBDICTIONARYWDFLT
  5
E
102
{ACAD_REACTORS
330
C
102
}
330
C
100
AcDbDictionary
281
     1
  3
Normal
350
F
100
AcDbDictionaryWithDefault
340
F
  0
LAYOUT
  5
1E
102
{ACAD_REACTORS
330
1A
102
}
330
1A
100
AcDbPlotSettings
  1

  2
none_device
  4

  6

 40
0.0
 41
0.0
 42
0.0
 43
0.0
 44
0.0
 45
0.0
 46
0.0
 47
0.0
 48
0.0
 49
0.0
140
0.0
141
0.0
142
1.0
143
1.0
 70
   688
 72
     0
 73
     0
 74
     5
  7

 75
    16
147
1.0
148
0.0
149
0.0
100
AcDbLayout
  1
Layout1
 70
     1
 71
     1
 10
0.0
 20
0.0
 11
420.0
 21
297.0
 12
0.0
 22
0.0
 32
0.0
 14
1.0000000000E+20
 24
1.0000000000E+20
 34
1.0000000000E+20
 15
-1.0000000000E+20
 25
-1.0000000000E+20
 35
-1.0000000000E+20
146
0.0
 13
0.0
 23
0.0
 33
0.0
 16
1.0
 26
0.0
 36
0.0
 17
0.0
 27
1.0
 37
0.0
 76
     0
330
1B
  0
LAYOUT
  5
26
102
{ACAD_REACTORS
330
1A
102
}
330
1A
100
AcDbPlotSettings
  1

  2
none_device
  4

  6

 40
0.0
 41
0.0
 42
0.0
 43
0.0
 44
0.0
 45
0.0
 46
0.0
 47
0.0
 48
0.0
 49
0.0
140
0.0
141
0.0
142
1.0
143
1.0
 70
   688
 72
     0
 73
     0
 74
     5
  7

 75
    16
147
1.0
148
0.0
149
0.0
100
AcDbLayout
  1
Layout2
 70
     1
 71
     2
 10
0.0
 20
0.0
 11
0.0
 21
0.0
 12
0.0
 22
0.0
 32
0.0
 14
0.0
 24
0.0
 34
0.0
 15
0.0
 25
0.0
 35
0.0
146
0.0
 13
0.0
 23
0.0
 33
0.0
 16
1.0
 26
0.0
 36
0.0
 17
0.0
 27
1.0
 37
0.0
 76
     0
330
23
  0
LAYOUT
  5
22
102
{ACAD_REACTORS
330
1A
102
}
330
1A
100
AcDbPlotSettings
  1

  2
none_device
  4

  6

 40
0.0
 41
0.0
 42
0.0
 43
0.0
 44
0.0
 45
0.0
 46
0.0
 47
0.0
 48
0.0
 49
0.0
140
0.0
141
0.0
142
1.0
143
1.0
 70
  1712
 72
     0
 73
     0
 74
     0
  7

 75
     0
147
1.0
148
0.0
149
0.0
100
AcDbLayout
  1
Model
 70
     1
 71
     0
 10
0.0
 20
0.0
 11
210.0
 21
297.0
 12
0.0
 22
0.0
 32
0.0
 14
0.0
 24
0.0
 34
0.0
 15
210.0
 25
297.0
 35
0.0
146
0.0
 13
0.0
 23
0.0
 33
0.0
 16
1.0
 26
0.0
 36
0.0
 17
0.0
 27
1.0
 37
0.0
 76
     0
330
1F
331
29
  0
MLINESTYLE
  5
18
102
{ACAD_REACTORS
330
17
102
}
330
17
100
AcDbMlineStyle
  2
Standard
 70
     0
  3

 62
   256
 51
90.0
 52
90.0
 71
     2
 49
0.5
 62
   256
  6
BYLAYER
 49
-0.5
 62
   256
  6
BYLAYER
  0
ACDBPLACEHOLDER
  5
F
102
{ACAD_REACTORS
330
E
102
}
330
E
  0
ENDSEC
  0
EOF
