  0
SECTION
  2
HEADER
  9
$ACADVER
  1
AC1015
  9
$ACADMAINTVER
 70
     6
  9
$DWGCODEPAGE
  3
DOS932
  9
$INSBASE
 10
0.0
 20
0.0
 30
0.0
  9
$EXTMIN
 10
0.0
 20
0.0
 30
0.0
  9
$EXTMAX
 10
210.0
 20
297.0
 30
0.0
  9
$LIMMIN
 10
0.0
 20
0.0
  9
$LIMMAX
 10
210.0
 20
297.0
  9
$ORTHOMODE
 70
     0
  9
$REGENMODE
 70
     1
  9
$FILLMODE
 70
     1
  9
$QTEXTMODE
 70
     0
  9
$MIRRTEXT
 70
     1
  9
$LTSCALE
 40
1.0
  9
$ATTMODE
 70
     1
  9
$TEXTSIZE
 40
3.5
  9
$TRACEWID
 40
1.0
  9
$TEXTSTYLE
  7
Standard
  9
$CLAYER
  8
0
  9
$CELTYPE
  6
ByLayer
  9
$CECOLOR
 62
   256
  9
$CELTSCALE
 40
1.0
  9
$DISPSILH
 70
     0
  9
$DIMSCALE
 40
1.0
  9
$DIMASZ
 40
3.302
  9
$DIMEXO
 40
1.0
  9
$DIMDLI
 40
3.75
  9
$DIMRND
 40
0.0
  9
$DIMDLE
 40
0.0
  9
$DIMEXE
 40
1.0
  9
$DIMTP
 40
0.0
  9
$DIMTM
 40
0.0
  9
$DIMTXT
 40
3.5
  9
$DIMCEN
 40
2.5
  9
$DIMTSZ
 40
0.0
  9
$DIMTOL
 70
     0
  9
$DIMLIM
 70
     0
  9
$DIMTIH
 70
     1
  9
$DIMTOH
 70
     1
  9
$DIMSE1
 70
     0
  9
$DIMSE2
 70
     0
  9
$DIMTAD
 70
     1
  9
$DIMZIN
 70
     0
  9
$DIMBLK
  1

  9
$DIMASO
 70
     1
  9
$DIMSHO
 70
     1
  9
$DIMPOST
  1

  9
$DIMAPOST
  1

  9
$DIMALT
 70
     0
  9
$DIMALTD
 70
     3
  9
$DIMALTF
 40
0.0393700787
  9
$DIMLFAC
 40
1.0
  9
$DIMTOFL
 70
     1
  9
$DIMTVP
 40
0.0
  9
$DIMTIX
 70
     0
  9
$DIMSOXD
 70
     0
  9
$DIMSAH
 70
     0
  9
$DIMBLK1
  1

  9
$DIMBLK2
  1

  9
$DIMSTYLE
  2
ISO-25
  9
$DIMCLRD
 70
     0
  9
$DIMCLRE
 70
     0
  9
$DIMCLRT
 70
     0
  9
$DIMTFAC
 40
1.0
  9
$DIMGAP
 40
1.524
  9
$DIMJUST
 70
     0
  9
$DIMSD1
 70
     0
  9
$DIMSD2
 70
     0
  9
$DIMTOLJ
 70
     0
  9
$DIMTZIN
 70
     0
  9
$DIMALTZ
 70
     0
  9
$DIMALTTZ
 70
     0
  9
$DIMUPT
 70
     0
  9
$DIMDEC
 70
     2
  9
$DIMTDEC
 70
     2
  9
$DIMALTU
 70
     2
  9
$DIMALTTD
 70
     3
  9
$DIMTXSTY
  7
Standard
  9
$DIMAUNIT
 70
     0
  9
$DIMADEC
 70
     2
  9
$DIMALTRND
 40
0.0
  9
$DIMAZIN
 70
     0
  9
$DIMDSEP
 70
    44
  9
$DIMATFIT
 70
     3
  9
$DIMFRAC
 70
     0
  9
$DIMLDRBLK
  1

  9
$DIMLUNIT
 70
     2
  9
$DIMLWD
 70
    -2
  9
$DIMLWE
 70
    -2
  9
$DIMTMOVE
 70
     0
  9
$LUNITS
 70
     2
  9
$LUPREC
 70
     2
  9
$SKETCHINC
 40
1.0
  9
$FILLETRAD
 40
10.0
  9
$AUNITS
 70
     0
  9
$AUPREC
 70
     2
  9
$MENU
  1
.
  9
$ELEVATION
 40
0.0
  9
$PELEVATION
 40
0.0
  9
$THICKNESS
 40
0.0
  9
$LIMCHECK
 70
     0
  9
$CHAMFERA
 40
10.0
  9
$CHAMFERB
 40
10.0
  9
$CHAMFERC
 40
20.0
  9
$CHAMFERD
 40
0.0
  9
$SKPOLY
 70
     0
  9
$TDCREATE
 40
2456892.64097728
  9
$TDUCREATE
 40
2456892.26597728
  9
$TDUPDATE
 40
2456892.640980347
  9
$TDUUPDATE
 40
2456892.265980347
  9
$TDINDWG
 40
0.0000000116
  9
$TDUSRTIMER
 40
0.0000000116
  9
$USRTIMER
 70
     1
  9
$ANGBASE
 50
0.0
  9
$ANGDIR
 70
     0
  9
$PDMODE
 70
     0
  9
$PDSIZE
 40
-1.0
  9
$PLINEWID
 40
0.0
  9
$SPLFRAME
 70
     0
  9
$SPLINETYPE
 70
     6
  9
$SPLINESEGS
 70
     8
  9
$HANDSEED
  5
421
  9
$SURFTAB1
 70
     6
  9
$SURFTAB2
 70
     6
  9
$SURFTYPE
 70
     6
  9
$SURFU
 70
     6
  9
$SURFV
 70
     6
  9
$UCSBASE
  2

  9
$UCSNAME
  2

  9
$UCSORG
 10
0.0
 20
0.0
 30
0.0
  9
$UCSXDIR
 10
1.0
 20
0.0
 30
0.0
  9
$UCSYDIR
 10
0.0
 20
1.0
 30
0.0
  9
$UCSORTHOREF
  2

  9
$UCSORTHOVIEW
 70
     0
  9
$UCSORGTOP
 10
0.0
 20
0.0
 30
0.0
  9
$UCSORGBOTTOM
 10
0.0
 20
0.0
 30
0.0
  9
$UCSORGLEFT
 10
0.0
 20
0.0
 30
0.0
  9
$UCSORGRIGHT
 10
0.0
 20
0.0
 30
0.0
  9
$UCSORGFRONT
 10
0.0
 20
0.0
 30
0.0
  9
$UCSORGBACK
 10
0.0
 20
0.0
 30
0.0
  9
$PUCSBASE
  2

  9
$PUCSNAME
  2

  9
$PUCSORG
 10
0.0
 20
0.0
 30
0.0
  9
$PUCSXDIR
 10
1.0
 20
0.0
 30
0.0
  9
$PUCSYDIR
 10
0.0
 20
1.0
 30
0.0
  9
$PUCSORTHOREF
  2

  9
$PUCSORTHOVIEW
 70
     0
  9
$PUCSORGTOP
 10
0.0
 20
0.0
 30
0.0
  9
$PUCSORGBOTTOM
 10
0.0
 20
0.0
 30
0.0
  9
$PUCSORGLEFT
 10
0.0
 20
0.0
 30
0.0
  9
$PUCSORGRIGHT
 10
0.0
 20
0.0
 30
0.0
  9
$PUCSORGFRONT
 10
0.0
 20
0.0
 30
0.0
  9
$PUCSORGBACK
 10
0.0
 20
0.0
 30
0.0
  9
$USERI1
 70
     0
  9
$USERI2
 70
     0
  9
$USERI3
 70
     0
  9
$USERI4
 70
     0
  9
$USERI5
 70
     0
  9
$USERR1
 40
0.0
  9
$USERR2
 40
0.0
  9
$USERR3
 40
0.0
  9
$USERR4
 40
0.0
  9
$USERR5
 40
0.0
  9
$WORLDVIEW
 70
     1
  9
$SHADEDGE
 70
     3
  9
$SHADEDIF
 70
    70
  9
$TILEMODE
 70
     1
  9
$MAXACTVP
 70
    64
  9
$PINSBASE
 10
0.0
 20
0.0
 30
0.0
  9
$PLIMCHECK
 70
     0
  9
$PEXTMIN
 10
1.0000000000E+20
 20
1.0000000000E+20
 30
1.0000000000E+20
  9
$PEXTMAX
 10
-1.0000000000E+20
 20
-1.0000000000E+20
 30
-1.0000000000E+20
  9
$PLIMMIN
 10
0.0
 20
0.0
  9
$PLIMMAX
 10
420.0
 20
297.0
  9
$UNITMODE
 70
     0
  9
$VISRETAIN
 70
     1
  9
$PLINEGEN
 70
     0
  9
$PSLTSCALE
 70
     1
  9
$TREEDEPTH
 70
  3020
  9
$CMLSTYLE
  2
Standard
  9
$CMLJUST
 70
     0
  9
$CMLSCALE
 40
20.0
  9
$PROXYGRAPHICS
 70
     1
  9
$MEASUREMENT
 70
     1
  9
$CELWEIGHT
370
    -1
  9
$ENDCAPS
280
     0
  9
$JOINSTYLE
280
     0
  9
$LWDISPLAY
290
     1
  9
$INSUNITS
 70
     4
  9
$HYPERLINKBASE
  1

  9
$STYLESHEET
  1

  9
$XEDIT
290
     1
  9
$CEPSNTYPE
380
     0
  9
$PSTYLEMODE
290
     1
  9
$FINGERPRINTGUID
  2
{14694EFD-AC20-4115-BD98-8D6978825AEA}
  9
$VERSIONGUID
  2
{FAEB1C32-E019-11D5-929B-00C0DF256EC4}
  9
$EXTNAMES
290
     1
  9
$PSVPSCALE
 40
0.0
  9
$OLESTARTUP
290
     0
  0
ENDSEC
  0
SECTION
  2
CLASSES
  0
CLASS
  1
ACDBDICTIONARYWDFLT
  2
AcDbDictionaryWithDefault
  3
ObjectDBX Classes
 90
        0
280
     0
281
     0
  0
CLASS
  1
VISUALSTYLE
  2
AcDbVisualStyle
  3
ObjectDBX Classes
 90
     4095
280
     0
281
     0
  0
CLASS
  1
MATERIAL
  2
AcDbMaterial
  3
ObjectDBX Classes
 90
     1153
280
     0
281
     0
  0
CLASS
  1
ACDBPLACEHOLDER
  2
AcDbPlaceHolder
  3
ObjectDBX Classes
 90
        0
280
     0
281
     0
  0
CLASS
  1
LAYOUT
  2
AcDbLayout
  3
ObjectDBX Classes
 90
        0
280
     0
281
     0
  0
ENDSEC
  0
SECTION
  2
TABLES
  0
TABLE
  2
VPORT
  5
8
330
0
100
AcDbSymbolTable
 70
     1
  0
VPORT
  5
29
330
8
100
AcDbSymbolTableRecord
100
AcDbViewportTableRecord
  2
*Active
 70
     0
 10
0.0
 20
0.0
 11
1.0
 21
1.0
 12
105.0
 22
148.5
 13
0.0
 23
0.0
 14
10.0
 24
10.0
 15
10.0
 25
10.0
 16
0.0
 26
0.0
 36
1.0
 17
0.0
 27
0.0
 37
0.0
 40
297.0
 41
0.7070707071
 42
50.0
 43
0.0
 44
0.0
 50
0.0
 51
0.0
 71
     0
 72
  2000
 73
     1
 74
     3
 75
     0
 76
     0
 77
     0
 78
     0
281
     0
 65
     1
110
0.0
120
0.0
130
0.0
111
1.0
121
0.0
131
0.0
112
0.0
122
1.0
132
0.0
 79
     0
146
0.0
  0
ENDTAB
  0
TABLE
  2
LTYPE
  5
5
330
0
100
AcDbSymbolTable
 70
     6
  0
LTYPE
  5
14
330
5
100
AcDbSymbolTableRecord
100
AcDbLinetypeTableRecord
  2
ByBlock
 70
     0
  3

 72
    65
 73
     0
 40
0.0
  0
LTYPE
  5
15
330
5
100
AcDbSymbolTableRecord
100
AcDbLinetypeTableRecord
  2
ByLayer
 70
     0
  3

 72
    65
 73
     0
 40
0.0
  0
LTYPE
  5
16
330
5
100
AcDbSymbolTableRecord
100
AcDbLinetypeTableRecord
  2
Continuous
 70
     0
  3
Solid line
 72
    65
 73
     0
 40
0.0
  0
LTYPE
  5
3F
330
5
100
AcDbSymbolTableRecord
100
AcDbLinetypeTableRecord
  2
HIDDEN
 70
     0
  3
Hidden __ __ __ __ __ __ __ __ __ __ __ __ __ __
 72
    65
 73
     2
 40
1.905
 49
1.27
 74
     0
 49
-0.635
 74
     0
  0
LTYPE
  5
40
330
5
100
AcDbSymbolTableRecord
100
AcDbLinetypeTableRecord
  2
PHANTOM
 70
     0
  3
Phantom ______  __  __  ______  __  __  ______
 72
    65
 73
     6
 40
12.7
 49
6.35
 74
     0
 49
-1.27
 74
     0
 49
1.27
 74
     0
 49
-1.27
 74
     0
 49
1.27
 74
     0
 49
-1.27
 74
     0
  0
LTYPE
  5
41
330
5
100
AcDbSymbolTableRecord
100
AcDbLinetypeTableRecord
  2
CENTER
 70
     0
  3
Center ____ _ ____ _ ____ _ ____ _ ____ _ ____
 72
    65
 73
     4
 40
10.16
 49
6.35
 74
     0
 49
-1.27
 74
     0
 49
1.27
 74
     0
 49
-1.27
 74
     0
  0
LTYPE
  5
42
330
5
100
AcDbSymbolTableRecord
100
AcDbLinetypeTableRecord
  2
CENTERX2
 70
     0
  3
Center (2x) ________  __  ________  __  _____
 72
    65
 73
     4
 40
20.32
 49
12.7
 74
     0
 49
-2.54
 74
     0
 49
2.54
 74
     0
 49
-2.54
 74
     0
  0
LTYPE
  5
43
330
5
100
AcDbSymbolTableRecord
100
AcDbLinetypeTableRecord
  2
DOT2
 70
     0
  3
Dot (.5x) ........................................
 72
    65
 73
     2
 40
0.635
 49
0.0
 74
     0
 49
-0.635
 74
     0
  0
ENDTAB
  0
TABLE
  2
LAYER
  5
2
330
0
100
AcDbSymbolTable
 70
     1
  0
LAYER
  5
10
330
2
100
AcDbSymbolTableRecord
100
AcDbLayerTableRecord
  2
0
 70
     0
 62
     7
  6
Continuous
370
    -3
390
F
  0
ENDTAB
  0
TABLE
  2
STYLE
  5
3
330
0
100
AcDbSymbolTable
 70
     3
  0
STYLE
  5
11
330
3
100
AcDbSymbolTableRecord
100
AcDbTextStyleTableRecord
  2
Standard
 70
     0
 40
0.0
 41
1.0
 50
0.0
 71
     0
 42
3.5
  3
txt
  4
bigfont
  0
STYLE
  5
4C
330
3
100
AcDbSymbolTableRecord
100
AcDbTextStyleTableRecord
  2
SLDTEXTSTYLE0
 70
     0
 40
0.0
 41
0.75
 50
0.0
 71
     0
 42
0.2
  3
TXT
  4
bigfont
  0
STYLE
  5
4F
330
3
100
AcDbSymbolTableRecord
100
AcDbTextStyleTableRecord
  2
SLDTEXTSTYLE1
 70
     0
 40
0.0
 41
0.7
 50
0.0
 71
     0
 42
0.2
  3
TXT
  4
bigfont
  0
ENDTAB
  0
TABLE
  2
VIEW
  5
6
330
0
100
AcDbSymbolTable
 70
     0
  0
ENDTAB
  0
TABLE
  2
UCS
  5
7
330
0
100
AcDbSymbolTable
 70
     0
  0
ENDTAB
  0
TABLE
  2
APPID
  5
9
330
0
100
AcDbSymbolTable
 70
     1
  0
APPID
  5
12
330
9
100
AcDbSymbolTableRecord
100
AcDbRegAppTableRecord
  2
ACAD
 70
     0
  0
ENDTAB
  0
TABLE
  2
DIMSTYLE
  5
A
330
0
100
AcDbSymbolTable
 70
     6
100
AcDbDimStyleTable
  0
DIMSTYLE
105
27
330
A
100
AcDbSymbolTableRecord
100
AcDbDimStyleTableRecord
  2
ISO-25
 70
     0
 41
2.5
 42
0.625
 43
3.75
 44
1.25
 73
     0
 74
     0
 77
     1
 78
     8
140
2.5
141
2.5
143
0.0393700787
147
0.625
171
     3
172
     1
178
     0
271
     2
272
     2
274
     3
278
    44
283
     0
284
     8
340
11
  0
DIMSTYLE
105
131
102
{ACAD_REACTORS
330
130
330
195
102
}
330
A
100
AcDbSymbolTableRecord
100
AcDbDimStyleTableRecord
  2
SLDDIMSTYLE0
 70
     0
 41
3.0
 44
0.0
 45
0.000000001
 73
     0
 74
     0
 77
     3
 78
    12
 79
     3
140
3.5
147
0.875
172
     1
173
     1
178
     0
271
     1
272
     2
276
     2
284
    12
289
     0
340
4C
341
132
343
132
  0
DIMSTYLE
105
149
102
{ACAD_REACTORS
330
148
330
155
330
161
330
16D
330
177
330
181
330
18B
330
1A1
330
283
330
28D
330
297
330
2A1
330
2AD
330
2C6
330
393
330
3A9
330
3B3
330
3BD
330
3C7
102
}
330
A
100
AcDbSymbolTableRecord
100
AcDbDimStyleTableRecord
  2
SLDDIMSTYLE1
 70
     0
 41
3.302
 44
0.0
 45
0.000000001
 73
     0
 74
     0
 77
     3
 78
    12
 79
     3
140
3.5
147
0.875
173
     1
178
     0
271
     1
272
     2
276
     2
284
    12
340
4C
  0
DIMSTYLE
105
1B7
330
A
100
AcDbSymbolTableRecord
100
AcDbDimStyleTableRecord
  2
SLDDIMSTYLE2
 70
     0
 41
3.0
 44
0.0
 45
0.000000001
140
0.0
146
3.0
147
0.0
173
     1
178
     0
271
     0
272
     0
276
     2
340
11
341
132
343
132
344
132
  0
DIMSTYLE
105
2BA
102
{ACAD_REACTORS
330
2B9
330
39D
102
}
330
A
100
AcDbSymbolTableRecord
100
AcDbDimStyleTableRecord
  2
SLDDIMSTYLE3
 70
     0
 41
3.302
 44
0.0
 45
0.000000001
 73
     0
 74
     0
 77
     3
 78
    12
 79
     3
140
3.5
147
0.875
172
     1
173
     1
178
     0
271
     1
272
     2
276
     2
284
    12
289
     0
340
4C
  0
DIMSTYLE
105
3D4
330
A
100
AcDbSymbolTableRecord
100
AcDbDimStyleTableRecord
  2
SLDDIMSTYLE4
 70
     0
 41
3.302
 44
0.0
 45
0.000000001
140
0.0
146
3.302
147
0.0
173
     1
178
     0
271
     0
272
     0
276
     2
340
11
  0
ENDTAB
  0
TABLE
  2
BLOCK_RECORD
  5
1
330
0
100
AcDbSymbolTable
 70
    39
  0
BLOCK_RECORD
  5
1F
330
1
100
AcDbSymbolTableRecord
100
AcDbBlockTableRecord
  2
*Model_Space
340
22
  0
BLOCK_RECORD
  5
1B
330
1
100
AcDbSymbolTableRecord
100
AcDbBlockTableRecord
  2
*Paper_Space
340
1E
  0
BLOCK_RECORD
  5
23
330
1
100
AcDbSymbolTableRecord
100
AcDbBlockTableRecord
  2
*Paper_Space0
340
26
  0
BLOCK_RECORD
  5
132
330
1
100
AcDbSymbolTableRecord
100
AcDbBlockTableRecord
  2
_DOT
340
0
102
{BLKREFS
331
13D
331
199
331
1C4
102
}
  0
BLOCK_RECORD
  5
13A
330
1
100
AcDbSymbolTableRecord
100
AcDbBlockTableRecord
  2
_D
340
0
  0
BLOCK_RECORD
  5
14A
330
1
100
AcDbSymbolTableRecord
100
AcDbBlockTableRecord
  2
_D_1
340
0
  0
BLOCK_RECORD
  5
156
330
1
100
AcDbSymbolTableRecord
100
AcDbBlockTableRecord
  2
_D_2
340
0
  0
BLOCK_RECORD
  5
162
330
1
100
AcDbSymbolTableRecord
100
AcDbBlockTableRecord
  2
_D_3
340
0
  0
BLOCK_RECORD
  5
16E
330
1
100
AcDbSymbolTableRecord
100
AcDbBlockTableRecord
  2
_D_4
340
0
  0
BLOCK_RECORD
  5
178
330
1
100
AcDbSymbolTableRecord
100
AcDbBlockTableRecord
  2
_D_5
340
0
  0
BLOCK_RECORD
  5
182
330
1
100
AcDbSymbolTableRecord
100
AcDbBlockTableRecord
  2
_D_6
340
0
  0
BLOCK_RECORD
  5
18C
330
1
100
AcDbSymbolTableRecord
100
AcDbBlockTableRecord
  2
_D_7
340
0
  0
BLOCK_RECORD
  5
196
330
1
100
AcDbSymbolTableRecord
100
AcDbBlockTableRecord
  2
_D_8
340
0
  0
BLOCK_RECORD
  5
1A2
330
1
100
AcDbSymbolTableRecord
100
AcDbBlockTableRecord
  2
_D_9
340
0
  0
BLOCK_RECORD
  5
1AC
330
1
100
AcDbSymbolTableRecord
100
AcDbBlockTableRecord
  2
SW_NOTE_0
340
0
102
{BLKREFS
331
1B6
102
}
  0
BLOCK_RECORD
  5
1B9
330
1
100
AcDbSymbolTableRecord
100
AcDbBlockTableRecord
  2
SW_NOTE_1
340
0
102
{BLKREFS
331
1C3
102
}
  0
BLOCK_RECORD
  5
284
330
1
100
AcDbSymbolTableRecord
100
AcDbBlockTableRecord
  2
_D_10
340
0
  0
BLOCK_RECORD
  5
28E
330
1
100
AcDbSymbolTableRecord
100
AcDbBlockTableRecord
  2
_D_11
340
0
  0
BLOCK_RECORD
  5
298
330
1
100
AcDbSymbolTableRecord
100
AcDbBlockTableRecord
  2
_D_12
340
0
  0
BLOCK_RECORD
  5
2A2
330
1
100
AcDbSymbolTableRecord
100
AcDbBlockTableRecord
  2
_D_13
340
0
  0
BLOCK_RECORD
  5
2AE
330
1
100
AcDbSymbolTableRecord
100
AcDbBlockTableRecord
  2
_D_14
340
0
  0
BLOCK_RECORD
  5
2BB
330
1
100
AcDbSymbolTableRecord
100
AcDbBlockTableRecord
  2
_D_15
340
0
  0
BLOCK_RECORD
  5
2C7
330
1
100
AcDbSymbolTableRecord
100
AcDbBlockTableRecord
  2
_D_16
340
0
  0
BLOCK_RECORD
  5
2D0
330
1
100
AcDbSymbolTableRecord
100
AcDbBlockTableRecord
  2
SW_CENTERMARKSYMBOL_0
340
0
102
{BLKREFS
331
2DB
102
}
  0
BLOCK_RECORD
  5
2DC
330
1
100
AcDbSymbolTableRecord
100
AcDbBlockTableRecord
  2
SW_CENTERMARKSYMBOL_1
340
0
102
{BLKREFS
331
2E7
102
}
  0
BLOCK_RECORD
  5
2E8
330
1
100
AcDbSymbolTableRecord
100
AcDbBlockTableRecord
  2
SW_CENTERMARKSYMBOL_2
340
0
102
{BLKREFS
331
2F3
102
}
  0
BLOCK_RECORD
  5
2F4
330
1
100
AcDbSymbolTableRecord
100
AcDbBlockTableRecord
  2
SW_CENTERMARKSYMBOL_3
340
0
102
{BLKREFS
331
2FF
102
}
  0
BLOCK_RECORD
  5
300
330
1
100
AcDbSymbolTableRecord
100
AcDbBlockTableRecord
  2
SW_CENTERMARKSYMBOL_4
340
0
102
{BLKREFS
331
30B
102
}
  0
BLOCK_RECORD
  5
30C
330
1
100
AcDbSymbolTableRecord
100
AcDbBlockTableRecord
  2
SW_CENTERMARKSYMBOL_5
340
0
102
{BLKREFS
331
317
102
}
  0
BLOCK_RECORD
  5
394
330
1
100
AcDbSymbolTableRecord
100
AcDbBlockTableRecord
  2
_D_17
340
0
  0
BLOCK_RECORD
  5
39E
330
1
100
AcDbSymbolTableRecord
100
AcDbBlockTableRecord
  2
_D_18
340
0
  0
BLOCK_RECORD
  5
3AA
330
1
100
AcDbSymbolTableRecord
100
AcDbBlockTableRecord
  2
_D_19
340
0
  0
BLOCK_RECORD
  5
3B4
330
1
100
AcDbSymbolTableRecord
100
AcDbBlockTableRecord
  2
_D_20
340
0
  0
BLOCK_RECORD
  5
3BE
330
1
100
AcDbSymbolTableRecord
100
AcDbBlockTableRecord
  2
_D_21
340
0
  0
BLOCK_RECORD
  5
3C8
330
1
100
AcDbSymbolTableRecord
100
AcDbBlockTableRecord
  2
_D_22
340
0
  0
BLOCK_RECORD
  5
3D6
330
1
100
AcDbSymbolTableRecord
100
AcDbBlockTableRecord
  2
SW_CENTERMARKSYMBOL_6
340
0
102
{BLKREFS
331
3E1
102
}
  0
BLOCK_RECORD
  5
3E2
330
1
100
AcDbSymbolTableRecord
100
AcDbBlockTableRecord
  2
SW_CENTERMARKSYMBOL_7
340
0
102
{BLKREFS
331
3ED
102
}
  0
BLOCK_RECORD
  5
3EE
330
1
100
AcDbSymbolTableRecord
100
AcDbBlockTableRecord
  2
SW_CENTERMARKSYMBOL_8
340
0
102
{BLKREFS
331
3F9
102
}
  0
BLOCK_RECORD
  5
3FA
330
1
100
AcDbSymbolTableRecord
100
AcDbBlockTableRecord
  2
SW_CENTERMARKSYMBOL_9
340
0
102
{BLKREFS
331
405
102
}
  0
BLOCK_RECORD
  5
406
330
1
100
AcDbSymbolTableRecord
100
AcDbBlockTableRecord
  2
SW_CENTERMARKSYMBOL_10
340
0
102
{BLKREFS
331
411
102
}
  0
BLOCK_RECORD
  5
412
330
1
100
AcDbSymbolTableRecord
100
AcDbBlockTableRecord
  2
SW_CENTERMARKSYMBOL_11
340
0
102
{BLKREFS
331
41D
102
}
  0
ENDTAB
  0
ENDSEC
  0
SECTION
  2
BLOCKS
  0
BLOCK
  5
20
330
1F
100
AcDbEntity
  8
0
100
AcDbBlockBegin
  2
*Model_Space
 70
     0
 10
0.0
 20
0.0
 30
0.0
  3
*Model_Space
  1

  0
ENDBLK
  5
21
330
1F
100
AcDbEntity
  8
0
100
AcDbBlockEnd
  0
BLOCK
  5
1C
330
1B
100
AcDbEntity
 67
     1
  8
0
100
AcDbBlockBegin
  2
*Paper_Space
 70
     0
 10
0.0
 20
0.0
 30
0.0
  3
*Paper_Space
  1

  0
ENDBLK
  5
1D
330
1B
100
AcDbEntity
 67
     1
  8
0
100
AcDbBlockEnd
  0
BLOCK
  5
24
330
23
100
AcDbEntity
  8
0
100
AcDbBlockBegin
  2
*Paper_Space0
 70
     0
 10
0.0
 20
0.0
 30
0.0
  3
*Paper_Space0
  1

  0
ENDBLK
  5
25
330
23
100
AcDbEntity
  8
0
100
AcDbBlockEnd
  0
BLOCK
  5
133
330
132
100
AcDbEntity
  8
0
100
AcDbBlockBegin
  2
_DOT
 70
     0
 10
0.0
 20
0.0
 30
0.0
  3
_DOT
  1

  0
POLYLINE
  5
135
330
132
100
AcDbEntity
  8
0
  6
ByBlock
 62
     0
100
AcDb2dPolyline
 66
     1
 10
0.0
 20
0.0
 30
0.0
 70
     1
 40
0.5
 41
0.5
  0
VERTEX
  5
137
330
135
100
AcDbEntity
  8
0
  6
ByBlock
 62
     0
100
AcDbVertex
100
AcDb2dVertex
 10
-0.25
 20
0.0
 30
0.0
 42
1.0
  0
VERTEX
  5
138
330
135
100
AcDbEntity
  8
0
  6
ByBlock
 62
     0
100
AcDbVertex
100
AcDb2dVertex
 10
0.25
 20
0.0
 30
0.0
 42
1.0
  0
SEQEND
  5
139
330
135
100
AcDbEntity
  8
0
  6
ByBlock
 62
     0
  0
LINE
  5
136
330
132
100
AcDbEntity
  8
0
  6
ByBlock
 62
     0
370
    -2
100
AcDbLine
 10
-0.5
 20
0.0
 30
0.0
 11
-1.0
 21
0.0
 31
0.0
  0
ENDBLK
  5
134
330
132
100
AcDbEntity
  8
0
100
AcDbBlockEnd
  0
BLOCK
  5
13B
330
13A
100
AcDbEntity
  8
0
100
AcDbBlockBegin
  2
_D
 70
     0
 10
0.0
 20
0.0
 30
0.0
  3
_D
  1

  0
INSERT
  5
13D
330
13A
100
AcDbEntity
  8
0
  6
Continuous
 62
     7
370
     0
100
AcDbBlockReference
  2
_DOT
 10
173.9181912116
 20
248.7848215326
 30
0.1
 41
3.0
 42
3.0
 50
180.0
  0
SOLID
  5
13E
330
13A
100
AcDbEntity
  8
0
  6
Continuous
 62
     7
370
     0
100
AcDbTrace
 10
170.9181912116
 20
248.7848215326
 30
0.0
 11
168.9181912116
 21
249.5348215326
 31
0.0
 12
168.9181912116
 22
248.0348215326
 32
0.0
 13
168.9181912116
 23
248.0348215326
 33
0.0
  0
LINE
  5
13F
330
13A
100
AcDbEntity
  8
0
  6
Continuous
 62
     7
370
     0
100
AcDbLine
 10
173.9181912116
 20
218.7121504012
 30
0.0
 11
173.9181912116
 21
249.7848215326
 31
0.0
  0
LINE
  5
140
330
13A
100
AcDbEntity
  8
0
  6
Continuous
 62
     7
370
     0
100
AcDbLine
 10
170.9181912116
 20
218.7121504012
 30
0.0
 11
170.9181912116
 21
249.7848215326
 31
0.0
  0
LINE
  5
141
330
13A
100
AcDbEntity
  8
0
  6
Continuous
 62
     7
370
     0
100
AcDbLine
 10
173.9181912116
 20
248.7848215326
 30
0.0
 11
180.2681912116
 21
248.7848215326
 31
0.0
  0
LINE
  5
142
330
13A
100
AcDbEntity
  8
0
  6
Continuous
 62
     7
370
     0
100
AcDbLine
 10
173.9181912116
 20
248.7848215326
 30
0.0
 11
170.9181912116
 21
248.7848215326
 31
0.0
  0
LINE
  5
143
330
13A
100
AcDbEntity
  8
0
  6
Continuous
 62
     7
370
     0
100
AcDbLine
 10
170.9181912116
 20
248.7848215326
 30
0.0
 11
167.9181912116
 21
248.7848215326
 31
0.0
  0
LINE
  5
144
330
13A
100
AcDbEntity
  8
0
  6
Continuous
 62
     7
370
     0
100
AcDbLine
 10
172.4181912116
 20
248.7848215326
 30
0.0
 11
165.7621040654
 21
263.4861471197
 31
0.0
  0
LINE
  5
145
330
13A
100
AcDbEntity
  8
0
  6
Continuous
 62
     7
370
     0
100
AcDbLine
 10
165.7621040654
 20
263.4861471197
 30
0.0
 11
130.1058567774
 21
263.4861471197
 31
0.0
  0
MTEXT
  5
146
330
13A
100
AcDbEntity
  8
0
  6
Continuous
 62
     7
370
     0
100
AcDbMText
 10
130.1058567774
 20
267.9978840342
 30
0.1
 40
3.5
 41
0.0
 71
     1
 72
     1
  1
Max ストローク
  7
SLDTEXTSTYLE0
 73
     1
 44
1.0
  0
MTEXT
  5
147
330
13A
100
AcDbEntity
  8
0
  6
Continuous
 62
     7
370
     0
100
AcDbMText
 10
163.1759963643
 20
267.9978840342
 30
0.1
 40
3.5
 41
0.0
 71
     1
 72
     1
  1
3
  7
SLDTEXTSTYLE0
 73
     1
 44
1.0
  0
ENDBLK
  5
13C
330
13A
100
AcDbEntity
  8
0
100
AcDbBlockEnd
  0
BLOCK
  5
14B
330
14A
100
AcDbEntity
  8
0
100
AcDbBlockBegin
  2
_D_1
 70
     0
 10
0.0
 20
0.0
 30
0.0
  3
_D_1
  1

  0
ARC
  5
14D
330
14A
100
AcDbEntity
  8
0
  6
Continuous
 62
     7
370
     0
100
AcDbCircle
 10
160.3487468468
 20
251.5629465282
 30
0.0
 40
6.212076339995626
100
AcDbArc
 50
153.4349488229
 51
206.5650511771
  0
ARC
  5
14E
330
14A
100
AcDbEntity
  8
0
  6
Continuous
 62
     7
370
     0
100
AcDbCircle
 10
158.2876359256
 20
251.5629465282
 30
0.0
 40
6.2120763399956
100
AcDbArc
 50
333.4349488229
 51
26.5650511771
  0
SOLID
  5
14F
330
14A
100
AcDbEntity
  8
0
  6
Continuous
 62
     7
370
     0
100
AcDbTrace
 10
147.7181912116
 20
248.7848215326
 30
0.0
 11
149.7181912116
 21
248.0348215326
 31
0.0
 12
149.7181912116
 22
249.5348215326
 32
0.0
 13
149.7181912116
 23
249.5348215326
 33
0.0
  0
SOLID
  5
150
330
14A
100
AcDbEntity
  8
0
  6
Continuous
 62
     7
370
     0
100
AcDbTrace
 10
170.9181912116
 20
248.7848215326
 30
0.0
 11
168.9181912116
 21
249.5348215326
 31
0.0
 12
168.9181912116
 22
248.0348215326
 32
0.0
 13
168.9181912116
 23
248.0348215326
 33
0.0
  0
LINE
  5
151
330
14A
100
AcDbEntity
  8
0
  6
Continuous
 62
     7
370
     0
100
AcDbLine
 10
147.7181912116
 20
145.4121504012
 30
0.0
 11
147.7181912116
 21
249.7848215326
 31
0.0
  0
LINE
  5
152
330
14A
100
AcDbEntity
  8
0
  6
Continuous
 62
     7
370
     0
100
AcDbLine
 10
170.9181912116
 20
218.7121504012
 30
0.0
 11
170.9181912116
 21
249.7848215326
 31
0.0
  0
LINE
  5
153
330
14A
100
AcDbEntity
  8
0
  6
Continuous
 62
     7
370
     0
100
AcDbLine
 10
147.7181912116
 20
248.7848215326
 30
0.0
 11
170.9181912116
 21
248.7848215326
 31
0.0
  0
MTEXT
  5
154
330
14A
100
AcDbEntity
  8
0
  6
Continuous
 62
     7
370
     0
100
AcDbMText
 10
154.7924968558
 20
253.2965584472
 30
0.1
 40
3.5
 41
0.0
 71
     1
 72
     1
  1
23.2
  7
SLDTEXTSTYLE0
 73
     1
 44
1.0
  0
ENDBLK
  5
14C
330
14A
100
AcDbEntity
  8
0
100
AcDbBlockEnd
  0
BLOCK
  5
157
330
156
100
AcDbEntity
  8
0
100
AcDbBlockBegin
  2
_D_2
 70
     0
 10
0.0
 20
0.0
 30
0.0
  3
_D_2
  1

  0
ARC
  5
159
330
156
100
AcDbEntity
  8
0
  6
Continuous
 62
     7
370
     0
100
AcDbCircle
 10
139.0487468468
 20
116.1795394223
 30
0.0
 40
6.212076339995614
100
AcDbArc
 50
153.4349488229
 51
206.5650511771
  0
ARC
  5
15A
330
156
100
AcDbEntity
  8
0
  6
Continuous
 62
     7
370
     0
100
AcDbCircle
 10
136.9876359256
 20
116.1795394223
 30
0.0
 40
6.212076339995607
100
AcDbArc
 50
333.4349488229
 51
26.5650511771
  0
SOLID
  5
15B
330
156
100
AcDbEntity
  8
0
  6
Continuous
 62
     7
370
     0
100
AcDbTrace
 10
90.6181912116
 20
113.4014144267
 30
0.0
 11
92.6181912116
 21
112.6514144267
 31
0.0
 12
92.6181912116
 22
114.1514144267
 32
0.0
 13
92.6181912116
 23
114.1514144267
 33
0.0
  0
SOLID
  5
15C
330
156
100
AcDbEntity
  8
0
  6
Continuous
 62
     7
370
     0
100
AcDbTrace
 10
185.4181912116
 20
113.4014144267
 30
0.0
 11
183.4181912116
 21
114.1514144267
 31
0.0
 12
183.4181912116
 22
112.6514144267
 32
0.0
 13
183.4181912116
 23
112.6514144267
 33
0.0
  0
LINE
  5
15D
330
156
100
AcDbEntity
  8
0
  6
Continuous
 62
     7
370
     0
100
AcDbLine
 10
90.6181912116
 20
153.7621504012
 30
0.0
 11
90.6181912116
 21
112.4014144267
 31
0.0
  0
LINE
  5
15E
330
156
100
AcDbEntity
  8
0
  6
Continuous
 62
     7
370
     0
100
AcDbLine
 10
185.4181912116
 20
155.8121504012
 30
0.0
 11
185.4181912116
 21
112.4014144267
 31
0.0
  0
LINE
  5
15F
330
156
100
AcDbEntity
  8
0
  6
Continuous
 62
     7
370
     0
100
AcDbLine
 10
90.6181912116
 20
113.4014144267
 30
0.0
 11
185.4181912116
 21
113.4014144267
 31
0.0
  0
MTEXT
  5
160
330
156
100
AcDbEntity
  8
0
  6
Continuous
 62
     7
370
     0
100
AcDbMText
 10
133.4924968558
 20
117.9131513413
 30
0.1
 40
3.5
 41
0.0
 71
     1
 72
     1
  1
94.8
  7
SLDTEXTSTYLE0
 73
     1
 44
1.0
  0
ENDBLK
  5
158
330
156
100
AcDbEntity
  8
0
100
AcDbBlockEnd
  0
BLOCK
  5
163
330
162
100
AcDbEntity
  8
0
100
AcDbBlockBegin
  2
_D_3
 70
     0
 10
0.0
 20
0.0
 30
0.0
  3
_D_3
  1

  0
ARC
  5
165
330
162
100
AcDbEntity
  8
0
  6
Continuous
 62
     7
370
     0
100
AcDbCircle
 10
146.3487468468
 20
125.5238542001
 30
0.0
 40
6.212076339995607
100
AcDbArc
 50
153.4349488229
 51
206.5650511771
  0
ARC
  5
166
330
162
100
AcDbEntity
  8
0
  6
Continuous
 62
     7
370
     0
100
AcDbCircle
 10
144.2876359256
 20
125.5238542001
 30
0.0
 40
6.212076339995601
100
AcDbArc
 50
333.4349488229
 51
26.5650511771
  0
SOLID
  5
167
330
162
100
AcDbEntity
  8
0
  6
Continuous
 62
     7
370
     0
100
AcDbTrace
 10
105.2181912116
 20
122.7457292046
 30
0.0
 11
107.2181912116
 21
121.9957292046
 31
0.0
 12
107.2181912116
 22
123.4957292046
 32
0.0
 13
107.2181912116
 23
123.4957292046
 33
0.0
  0
SOLID
  5
168
330
162
100
AcDbEntity
  8
0
  6
Continuous
 62
     7
370
     0
100
AcDbTrace
 10
185.4181912116
 20
122.7457292046
 30
0.0
 11
183.4181912116
 21
123.4957292046
 31
0.0
 12
183.4181912116
 22
121.9957292046
 32
0.0
 13
183.4181912116
 23
121.9957292046
 33
0.0
  0
LINE
  5
169
330
162
100
AcDbEntity
  8
0
  6
Continuous
 62
     7
370
     0
100
AcDbLine
 10
105.2181912116
 20
142.4121504012
 30
0.0
 11
105.2181912116
 21
121.7457292046
 31
0.0
  0
LINE
  5
16A
330
162
100
AcDbEntity
  8
0
  6
Continuous
 62
     7
370
     0
100
AcDbLine
 10
185.4181912116
 20
155.8121504012
 30
0.0
 11
185.4181912116
 21
121.7457292046
 31
0.0
  0
LINE
  5
16B
330
162
100
AcDbEntity
  8
0
  6
Continuous
 62
     7
370
     0
100
AcDbLine
 10
105.2181912116
 20
122.7457292046
 30
0.0
 11
185.4181912116
 21
122.7457292046
 31
0.0
  0
MTEXT
  5
16C
330
162
100
AcDbEntity
  8
0
  6
Continuous
 62
     7
370
     0
100
AcDbMText
 10
140.7924968558
 20
127.2574661192
 30
0.1
 40
3.5
 41
0.0
 71
     1
 72
     1
  1
80.2
  7
SLDTEXTSTYLE0
 73
     1
 44
1.0
  0
ENDBLK
  5
164
330
162
100
AcDbEntity
  8
0
100
AcDbBlockEnd
  0
BLOCK
  5
16F
330
16E
100
AcDbEntity
  8
0
100
AcDbBlockBegin
  2
_D_4
 70
     0
 10
0.0
 20
0.0
 30
0.0
  3
_D_4
  1

  0
SOLID
  5
171
330
16E
100
AcDbEntity
  8
0
  6
Continuous
 62
     7
370
     0
100
AcDbTrace
 10
85.7340271967
 20
158.6121504012
 30
0.0
 11
84.9840271967
 21
156.6121504012
 31
0.0
 12
86.4840271967
 22
156.6121504012
 32
0.0
 13
86.4840271967
 23
156.6121504012
 33
0.0
  0
SOLID
  5
172
330
16E
100
AcDbEntity
  8
0
  6
Continuous
 62
     7
370
     0
100
AcDbTrace
 10
85.7340271967
 20
139.9121504012
 30
0.0
 11
86.4840271967
 21
141.9121504012
 31
0.0
 12
84.9840271967
 22
141.9121504012
 32
0.0
 13
84.9840271967
 23
141.9121504012
 33
0.0
  0
LINE
  5
173
330
16E
100
AcDbEntity
  8
0
  6
Continuous
 62
     7
370
     0
100
AcDbLine
 10
87.0318169908
 20
158.6121504012
 30
0.0
 11
84.7340271967
 21
158.6121504012
 31
0.0
  0
LINE
  5
174
330
16E
100
AcDbEntity
  8
0
  6
Continuous
 62
     7
370
     0
100
AcDbLine
 10
107.7181912116
 20
139.9121504012
 30
0.0
 11
84.7340271967
 21
139.9121504012
 31
0.0
  0
LINE
  5
175
330
16E
100
AcDbEntity
  8
0
  6
Continuous
 62
     7
370
     0
100
AcDbLine
 10
85.7340271967
 20
158.6121504012
 30
0.0
 11
85.7340271967
 21
139.9121504012
 31
0.0
  0
MTEXT
  5
176
330
16E
100
AcDbEntity
  8
0
  6
Continuous
 62
     7
370
     0
100
AcDbMText
 10
81.2222902821
 20
144.7366815776
 30
0.0
 40
3.5
 41
0.0
 71
     1
 72
     1
  1
18.7
  7
SLDTEXTSTYLE0
 11
-1.770233605404514E-14
 21
1.0
 31
0.0
 73
     1
 44
1.0
  0
ENDBLK
  5
170
330
16E
100
AcDbEntity
  8
0
100
AcDbBlockEnd
  0
BLOCK
  5
179
330
178
100
AcDbEntity
  8
0
100
AcDbBlockBegin
  2
_D_5
 70
     0
 10
0.0
 20
0.0
 30
0.0
  3
_D_5
  1

  0
SOLID
  5
17B
330
178
100
AcDbEntity
  8
0
  6
Continuous
 62
     7
370
     0
100
AcDbTrace
 10
80.6181912116
 20
174.6121504012
 30
0.0
 11
79.8681912116
 21
172.6121504012
 31
0.0
 12
81.3681912116
 22
172.6121504012
 32
0.0
 13
81.3681912116
 23
172.6121504012
 33
0.0
  0
SOLID
  5
17C
330
178
100
AcDbEntity
  8
0
  6
Continuous
 62
     7
370
     0
100
AcDbTrace
 10
80.6181912116
 20
139.9121504012
 30
0.0
 11
81.3681912116
 21
141.9121504012
 31
0.0
 12
79.8681912116
 22
141.9121504012
 32
0.0
 13
79.8681912116
 23
141.9121504012
 33
0.0
  0
LINE
  5
17D
330
178
100
AcDbEntity
  8
0
  6
Continuous
 62
     7
370
     0
100
AcDbLine
 10
113.7121616508
 20
174.6121504012
 30
0.0
 11
79.6181912116
 21
174.6121504012
 31
0.0
  0
LINE
  5
17E
330
178
100
AcDbEntity
  8
0
  6
Continuous
 62
     7
370
     0
100
AcDbLine
 10
107.7181912116
 20
139.9121504012
 30
0.0
 11
79.6181912116
 21
139.9121504012
 31
0.0
  0
LINE
  5
17F
330
178
100
AcDbEntity
  8
0
  6
Continuous
 62
     7
370
     0
100
AcDbLine
 10
80.6181912116
 20
174.6121504012
 30
0.0
 11
80.6181912116
 21
139.9121504012
 31
0.0
  0
MTEXT
  5
180
330
178
100
AcDbEntity
  8
0
  6
Continuous
 62
     7
370
     0
100
AcDbMText
 10
76.106454297
 20
152.7366815776
 30
0.0
 40
3.5
 41
0.0
 71
     1
 72
     1
  1
34.7
  7
SLDTEXTSTYLE0
 11
-1.770233605404514E-14
 21
1.0
 31
0.0
 73
     1
 44
1.0
  0
ENDBLK
  5
17A
330
178
100
AcDbEntity
  8
0
100
AcDbBlockEnd
  0
BLOCK
  5
183
330
182
100
AcDbEntity
  8
0
100
AcDbBlockBegin
  2
_D_6
 70
     0
 10
0.0
 20
0.0
 30
0.0
  3
_D_6
  1

  0
SOLID
  5
185
330
182
100
AcDbEntity
  8
0
  6
Continuous
 62
     7
370
     0
100
AcDbTrace
 10
137.7181912116
 20
132.8315774442
 30
0.0
 11
139.7181912116
 21
132.0815774442
 31
0.0
 12
139.7181912116
 22
133.5815774442
 32
0.0
 13
139.7181912116
 23
133.5815774442
 33
0.0
  0
SOLID
  5
186
330
182
100
AcDbEntity
  8
0
  6
Continuous
 62
     7
370
     0
100
AcDbTrace
 10
147.7181912116
 20
132.8315774442
 30
0.0
 11
145.7181912116
 21
133.5815774442
 31
0.0
 12
145.7181912116
 22
132.0815774442
 32
0.0
 13
145.7181912116
 23
132.0815774442
 33
0.0
  0
LINE
  5
187
330
182
100
AcDbEntity
  8
0
  6
Continuous
 62
     7
370
     0
100
AcDbLine
 10
137.7181912116
 20
136.9121504012
 30
0.0
 11
137.7181912116
 21
131.8315774442
 31
0.0
  0
LINE
  5
188
330
182
100
AcDbEntity
  8
0
  6
Continuous
 62
     7
370
     0
100
AcDbLine
 10
147.7181912116
 20
136.9121504012
 30
0.0
 11
147.7181912116
 21
131.8315774442
 31
0.0
  0
LINE
  5
189
330
182
100
AcDbEntity
  8
0
  6
Continuous
 62
     7
370
     0
100
AcDbLine
 10
137.7181912116
 20
132.8315774442
 30
0.0
 11
147.7181912116
 21
132.8315774442
 31
0.0
  0
MTEXT
  5
18A
330
182
100
AcDbEntity
  8
0
  6
Continuous
 62
     7
370
     0
100
AcDbMText
 10
140.1320800181
 20
137.3433143588
 30
0.1
 40
3.5
 41
0.0
 71
     1
 72
     1
  1
10
  7
SLDTEXTSTYLE0
 73
     1
 44
1.0
  0
ENDBLK
  5
184
330
182
100
AcDbEntity
  8
0
100
AcDbBlockEnd
  0
BLOCK
  5
18D
330
18C
100
AcDbEntity
  8
0
100
AcDbBlockBegin
  2
_D_7
 70
     0
 10
0.0
 20
0.0
 30
0.0
  3
_D_7
  1

  0
SOLID
  5
18F
330
18C
100
AcDbEntity
  8
0
  6
Continuous
 62
     7
370
     0
100
AcDbTrace
 10
147.7181912116
 20
132.8315774442
 30
0.0
 11
149.7181912116
 21
132.0815774442
 31
0.0
 12
149.7181912116
 22
133.5815774442
 32
0.0
 13
149.7181912116
 23
133.5815774442
 33
0.0
  0
SOLID
  5
190
330
18C
100
AcDbEntity
  8
0
  6
Continuous
 62
     7
370
     0
100
AcDbTrace
 10
185.4181912116
 20
132.8315774442
 30
0.0
 11
183.4181912116
 21
133.5815774442
 31
0.0
 12
183.4181912116
 22
132.0815774442
 32
0.0
 13
183.4181912116
 23
132.0815774442
 33
0.0
  0
LINE
  5
191
330
18C
100
AcDbEntity
  8
0
  6
Continuous
 62
     7
370
     0
100
AcDbLine
 10
147.7181912116
 20
136.9121504012
 30
0.0
 11
147.7181912116
 21
131.8315774442
 31
0.0
  0
LINE
  5
192
330
18C
100
AcDbEntity
  8
0
  6
Continuous
 62
     7
370
     0
100
AcDbLine
 10
185.4181912116
 20
155.8121504012
 30
0.0
 11
185.4181912116
 21
131.8315774442
 31
0.0
  0
LINE
  5
193
330
18C
100
AcDbEntity
  8
0
  6
Continuous
 62
     7
370
     0
100
AcDbLine
 10
147.7181912116
 20
132.8315774442
 30
0.0
 11
185.4181912116
 21
132.8315774442
 31
0.0
  0
MTEXT
  5
194
330
18C
100
AcDbEntity
  8
0
  6
Continuous
 62
     7
370
     0
100
AcDbMText
 10
162.0424966812
 20
137.3433143588
 30
0.1
 40
3.5
 41
0.0
 71
     1
 72
     1
  1
37.7
  7
SLDTEXTSTYLE0
 73
     1
 44
1.0
  0
ENDBLK
  5
18E
330
18C
100
AcDbEntity
  8
0
100
AcDbBlockEnd
  0
BLOCK
  5
197
330
196
100
AcDbEntity
  8
0
100
AcDbBlockBegin
  2
_D_8
 70
     0
 10
0.0
 20
0.0
 30
0.0
  3
_D_8
  1

  0
INSERT
  5
199
330
196
100
AcDbEntity
  8
0
  6
Continuous
 62
     7
370
     0
100
AcDbBlockReference
  2
_DOT
 10
173.9181912116
 20
248.7848215326
 30
0.1
 41
3.0
 42
3.0
 50
0.0
  0
SOLID
  5
19A
330
196
100
AcDbEntity
  8
0
  6
Continuous
 62
     7
370
     0
100
AcDbTrace
 10
185.4181912116
 20
248.7848215326
 30
0.0
 11
187.4181912116
 21
248.0348215326
 31
0.0
 12
187.4181912116
 22
249.5348215326
 32
0.0
 13
187.4181912116
 23
249.5348215326
 33
0.0
  0
LINE
  5
19B
330
196
100
AcDbEntity
  8
0
  6
Continuous
 62
     7
370
     0
100
AcDbLine
 10
173.9181912116
 20
218.7121504012
 30
0.0
 11
173.9181912116
 21
249.7848215326
 31
0.0
  0
LINE
  5
19C
330
196
100
AcDbEntity
  8
0
  6
Continuous
 62
     7
370
     0
100
AcDbLine
 10
185.4181912116
 20
193.6121539745
 30
0.0
 11
185.4181912116
 21
249.7848215326
 31
0.0
  0
LINE
  5
19D
330
196
100
AcDbEntity
  8
0
  6
Continuous
 62
     7
370
     0
100
AcDbLine
 10
173.9181912116
 20
248.7848215326
 30
0.0
 11
167.5681912116
 21
248.7848215326
 31
0.0
  0
LINE
  5
19E
330
196
100
AcDbEntity
  8
0
  6
Continuous
 62
     7
370
     0
100
AcDbLine
 10
173.9181912116
 20
248.7848215326
 30
0.0
 11
185.4181912116
 21
248.7848215326
 31
0.0
  0
LINE
  5
19F
330
196
100
AcDbEntity
  8
0
  6
Continuous
 62
     7
370
     0
100
AcDbLine
 10
185.4181912116
 20
248.7848215326
 30
0.0
 11
195.8329324931
 21
248.7848215326
 31
0.0
  0
MTEXT
  5
1A0
330
196
100
AcDbEntity
  8
0
  6
Continuous
 62
     7
370
     0
100
AcDbMText
 10
186.7815434322
 20
253.2965584472
 30
0.1
 40
3.5
 41
0.0
 71
     1
 72
     1
  1
11.5
  7
SLDTEXTSTYLE0
 73
     1
 44
1.0
  0
ENDBLK
  5
198
330
196
100
AcDbEntity
  8
0
100
AcDbBlockEnd
  0
BLOCK
  5
1A3
330
1A2
100
AcDbEntity
  8
0
100
AcDbBlockBegin
  2
_D_9
 70
     0
 10
0.0
 20
0.0
 30
0.0
  3
_D_9
  1

  0
SOLID
  5
1A5
330
1A2
100
AcDbEntity
  8
0
  6
Continuous
 62
     7
370
     0
100
AcDbTrace
 10
195.7554490215
 20
217.7121504012
 30
0.0
 11
195.0054490215
 21
215.7121504012
 31
0.0
 12
196.5054490215
 22
215.7121504012
 32
0.0
 13
196.5054490215
 23
215.7121504012
 33
0.0
  0
SOLID
  5
1A6
330
1A2
100
AcDbEntity
  8
0
  6
Continuous
 62
     7
370
     0
100
AcDbTrace
 10
195.7554490215
 20
139.9121504012
 30
0.0
 11
196.5054490215
 21
141.9121504012
 31
0.0
 12
195.0054490215
 22
141.9121504012
 32
0.0
 13
195.0054490215
 23
141.9121504012
 33
0.0
  0
LINE
  5
1A7
330
1A2
100
AcDbEntity
  8
0
  6
Continuous
 62
     7
370
     0
100
AcDbLine
 10
184.9181912116
 20
217.7121504012
 30
0.0
 11
196.7554490215
 21
217.7121504012
 31
0.0
  0
LINE
  5
1A8
330
1A2
100
AcDbEntity
  8
0
  6
Continuous
 62
     7
370
     0
100
AcDbLine
 10
152.7061081636
 20
139.9121504012
 30
0.0
 11
196.7554490215
 21
139.9121504012
 31
0.0
  0
LINE
  5
1A9
330
1A2
100
AcDbEntity
  8
0
  6
Continuous
 62
     7
370
     0
100
AcDbLine
 10
195.7554490215
 20
217.7121504012
 30
0.0
 11
195.7554490215
 21
139.9121504012
 31
0.0
  0
MTEXT
  5
1AA
330
1A2
100
AcDbEntity
  8
0
  6
Continuous
 62
     7
370
     0
100
AcDbMText
 10
191.2437121069
 20
174.2864558708
 30
0.1
 40
3.5
 41
0.0
 71
     1
 72
     1
  1
77.8
  7
SLDTEXTSTYLE0
 11
-1.770233605404514E-14
 21
1.0
 31
0.0
 73
     1
 44
1.0
  0
ENDBLK
  5
1A4
330
1A2
100
AcDbEntity
  8
0
100
AcDbBlockEnd
  0
BLOCK
  5
1AD
330
1AC
100
AcDbEntity
  8
0
100
AcDbBlockBegin
  2
SW_NOTE_0
 70
     0
 10
0.0
 20
0.0
 30
0.0
  3
SW_NOTE_0
  1

  0
LINE
  5
1AF
330
1AC
100
AcDbEntity
  8
0
  6
Continuous
 62
     0
370
     0
100
AcDbLine
 10
-19.5779601407
 20
0.3435404455
 30
0.0
 11
0.0
 21
0.3435404455
 31
0.0
  0
LINE
  5
1B0
330
1AC
100
AcDbEntity
  8
0
  6
Continuous
 62
     0
370
     0
100
AcDbLine
 10
0.0
 20
0.3435404455
 30
0.0
 11
-19.5779601407
 21
0.3435404455
 31
0.0
  0
LINE
  5
1B1
330
1AC
100
AcDbEntity
  8
0
  6
Continuous
 62
     0
370
     0
100
AcDbLine
 10
-19.5779601407
 20
0.3435404455
 30
0.0
 11
0.0
 21
0.3435404455
 31
0.0
  0
LINE
  5
1B2
330
1AC
100
AcDbEntity
  8
0
  6
Continuous
 62
     0
370
     0
100
AcDbLine
 10
0.0
 20
0.3435404455
 30
0.0
 11
-19.5779601407
 21
0.3435404455
 31
0.0
  0
LINE
  5
1B3
330
1AC
100
AcDbEntity
  8
0
  6
Continuous
 62
     0
370
     0
100
AcDbLine
 10
-19.5779601407
 20
0.3435404455
 30
0.0
 11
0.0
 21
0.3435404455
 31
0.0
  0
LINE
  5
1B4
330
1AC
100
AcDbEntity
  8
0
  6
Continuous
 62
     0
370
     0
100
AcDbLine
 10
0.0
 20
0.3435404455
 30
0.0
 11
-19.5779601407
 21
0.3435404455
 31
0.0
  0
MTEXT
  5
1B5
330
1AC
100
AcDbEntity
  8
0
  6
Continuous
 62
     0
370
     0
100
AcDbMText
 10
-19.5524935698
 20
4.5855156425
 30
0.0
 40
3.5
 41
0.0
 71
     1
 72
     1
  1
カット配管
  7
SLDTEXTSTYLE0
 73
     1
 44
1.0
  0
ENDBLK
  5
1AE
330
1AC
100
AcDbEntity
  8
0
100
AcDbBlockEnd
  0
BLOCK
  5
1BA
330
1B9
100
AcDbEntity
  8
0
100
AcDbBlockBegin
  2
SW_NOTE_1
 70
     0
 10
0.0
 20
0.0
 30
0.0
  3
SW_NOTE_1
  1

  0
LINE
  5
1BC
330
1B9
100
AcDbEntity
  8
0
  6
Continuous
 62
     0
370
     0
100
AcDbLine
 10
-0.0907121782
 20
0.3060074706
 30
0.0
 11
17.4942819602
 21
0.3060074706
 31
0.0
  0
LINE
  5
1BD
330
1B9
100
AcDbEntity
  8
0
  6
Continuous
 62
     0
370
     0
100
AcDbLine
 10
17.4942819602
 20
0.3060074706
 30
0.0
 11
-0.0907121782
 21
0.3060074706
 31
0.0
  0
LINE
  5
1BE
330
1B9
100
AcDbEntity
  8
0
  6
Continuous
 62
     0
370
     0
100
AcDbLine
 10
-0.0907121782
 20
0.3060074706
 30
0.0
 11
17.4942819602
 21
0.3060074706
 31
0.0
  0
LINE
  5
1BF
330
1B9
100
AcDbEntity
  8
0
  6
Continuous
 62
     0
370
     0
100
AcDbLine
 10
17.4942819602
 20
0.3060074706
 30
0.0
 11
-0.0907121782
 21
0.3060074706
 31
0.0
  0
LINE
  5
1C0
330
1B9
100
AcDbEntity
  8
0
  6
Continuous
 62
     0
370
     0
100
AcDbLine
 10
-0.0907121782
 20
0.3060074706
 30
0.0
 11
17.4942819602
 21
0.3060074706
 31
0.0
  0
LINE
  5
1C1
330
1B9
100
AcDbEntity
  8
0
  6
Continuous
 62
     0
370
     0
100
AcDbLine
 10
17.4942819602
 20
0.3060074706
 30
0.0
 11
-0.0907121782
 21
0.3060074706
 31
0.0
  0
MTEXT
  5
1C2
330
1B9
100
AcDbEntity
  8
0
  6
Continuous
 62
     0
370
     0
100
AcDbMText
 10
0.0
 20
4.5117370892
 30
0.0
 40
3.5
 41
0.0
 71
     1
 72
     1
  1
プル配管
  7
SLDTEXTSTYLE0
 73
     1
 44
1.0
  0
ENDBLK
  5
1BB
330
1B9
100
AcDbEntity
  8
0
100
AcDbBlockEnd
  0
BLOCK
  5
285
330
284
100
AcDbEntity
  8
0
100
AcDbBlockBegin
  2
_D_10
 70
     0
 10
0.0
 20
0.0
 30
0.0
  3
_D_10
  1

  0
SOLID
  5
287
330
284
100
AcDbEntity
  8
0
  6
Continuous
 62
     7
370
     0
100
AcDbTrace
 10
30.5632303995
 20
129.9121504012
 30
0.0
 11
32.5632303995
 21
129.1621504012
 31
0.0
 12
32.5632303995
 22
130.6621504012
 32
0.0
 13
32.5632303995
 23
130.6621504012
 33
0.0
  0
SOLID
  5
288
330
284
100
AcDbEntity
  8
0
  6
Continuous
 62
     7
370
     0
100
AcDbTrace
 10
58.5632303995
 20
129.9121504012
 30
0.0
 11
56.5632303995
 21
130.6621504012
 31
0.0
 12
56.5632303995
 22
129.1621504012
 32
0.0
 13
56.5632303995
 23
129.1621504012
 33
0.0
  0
LINE
  5
289
330
284
100
AcDbEntity
  8
0
  6
Continuous
 62
     7
370
     0
100
AcDbLine
 10
30.5632303995
 20
138.9121504012
 30
0.0
 11
30.5632303995
 21
128.9121504012
 31
0.0
  0
LINE
  5
28A
330
284
100
AcDbEntity
  8
0
  6
Continuous
 62
     7
370
     0
100
AcDbLine
 10
58.5632303995
 20
138.9121504012
 30
0.0
 11
58.5632303995
 21
128.9121504012
 31
0.0
  0
LINE
  5
28B
330
284
100
AcDbEntity
  8
0
  6
Continuous
 62
     7
370
     0
100
AcDbLine
 10
30.5632303995
 20
129.9121504012
 30
0.0
 11
58.5632303995
 21
129.9121504012
 31
0.0
  0
MTEXT
  5
28C
330
284
100
AcDbEntity
  8
0
  6
Continuous
 62
     7
370
     0
100
AcDbMText
 10
41.977119206
 20
134.4238873158
 30
-35.4313718718
 40
3.5
 41
0.0
 71
     1
 72
     1
  1
28
  7
SLDTEXTSTYLE0
 73
     1
 44
1.0
  0
ENDBLK
  5
286
330
284
100
AcDbEntity
  8
0
100
AcDbBlockEnd
  0
BLOCK
  5
28F
330
28E
100
AcDbEntity
  8
0
100
AcDbBlockBegin
  2
_D_11
 70
     0
 10
0.0
 20
0.0
 30
0.0
  3
_D_11
  1

  0
SOLID
  5
291
330
28E
100
AcDbEntity
  8
0
  6
Continuous
 62
     7
370
     0
100
AcDbTrace
 10
65.8285467933
 20
180.6121504012
 30
0.0
 11
65.0785467933
 21
178.6121504012
 31
0.0
 12
66.5785467933
 22
178.6121504012
 32
0.0
 13
66.5785467933
 23
178.6121504012
 33
0.0
  0
SOLID
  5
292
330
28E
100
AcDbEntity
  8
0
  6
Continuous
 62
     7
370
     0
100
AcDbTrace
 10
65.8285467933
 20
139.9121504012
 30
0.0
 11
66.5785467933
 21
141.9121504012
 31
0.0
 12
65.0785467933
 22
141.9121504012
 32
0.0
 13
65.0785467933
 23
141.9121504012
 33
0.0
  0
LINE
  5
293
330
28E
100
AcDbEntity
  8
0
  6
Continuous
 62
     7
370
     0
100
AcDbLine
 10
55.5632303995
 20
180.6121504012
 30
0.0
 11
66.8285467933
 21
180.6121504012
 31
0.0
  0
LINE
  5
294
330
28E
100
AcDbEntity
  8
0
  6
Continuous
 62
     7
370
     0
100
AcDbLine
 10
59.5632303995
 20
139.9121504012
 30
0.0
 11
66.8285467933
 21
139.9121504012
 31
0.0
  0
LINE
  5
295
330
28E
100
AcDbEntity
  8
0
  6
Continuous
 62
     7
370
     0
100
AcDbLine
 10
65.8285467933
 20
180.6121504012
 30
0.0
 11
65.8285467933
 21
139.9121504012
 31
0.0
  0
MTEXT
  5
296
330
28E
100
AcDbEntity
  8
0
  6
Continuous
 62
     7
370
     0
100
AcDbMText
 10
61.3168098787
 20
152.0499978101
 30
-35.4313718718
 40
3.5
 41
0.0
 71
     1
 72
     1
  1
40.7
  7
SLDTEXTSTYLE0
 11
-7.044195017643634E-15
 21
1.0
 31
0.0
 73
     1
 44
1.0
  0
ENDBLK
  5
290
330
28E
100
AcDbEntity
  8
0
100
AcDbBlockEnd
  0
BLOCK
  5
299
330
298
100
AcDbEntity
  8
0
100
AcDbBlockBegin
  2
_D_12
 70
     0
 10
0.0
 20
0.0
 30
0.0
  3
_D_12
  1

  0
SOLID
  5
29B
330
298
100
AcDbEntity
  8
0
  6
Continuous
 62
     7
370
     0
100
AcDbTrace
 10
71.6540177274
 20
192.6121504012
 30
0.0
 11
70.9040177274
 21
190.6121504012
 31
0.0
 12
72.4040177274
 22
190.6121504012
 32
0.0
 13
72.4040177274
 23
190.6121504012
 33
0.0
  0
SOLID
  5
29C
330
298
100
AcDbEntity
  8
0
  6
Continuous
 62
     7
370
     0
100
AcDbTrace
 10
71.6540177274
 20
139.9121504012
 30
0.0
 11
72.4040177274
 21
141.9121504012
 31
0.0
 12
70.9040177274
 22
141.9121504012
 32
0.0
 13
70.9040177274
 23
141.9121504012
 33
0.0
  0
LINE
  5
29D
330
298
100
AcDbEntity
  8
0
  6
Continuous
 62
     7
370
     0
100
AcDbLine
 10
56.0586004654
 20
192.6121504012
 30
0.0
 11
72.6540177274
 21
192.6121504012
 31
0.0
  0
LINE
  5
29E
330
298
100
AcDbEntity
  8
0
  6
Continuous
 62
     7
370
     0
100
AcDbLine
 10
59.5632303995
 20
139.9121504012
 30
0.0
 11
72.6540177274
 21
139.9121504012
 31
0.0
  0
LINE
  5
29F
330
298
100
AcDbEntity
  8
0
  6
Continuous
 62
     7
370
     0
100
AcDbLine
 10
71.6540177274
 20
192.6121504012
 30
0.0
 11
71.6540177274
 21
139.9121504012
 31
0.0
  0
MTEXT
  5
2A0
330
298
100
AcDbEntity
  8
0
  6
Continuous
 62
     7
370
     0
100
AcDbMText
 10
67.1422808128
 20
161.7364558708
 30
-35.4313718718
 40
3.5
 41
0.0
 71
     1
 72
     1
  1
52.7
  7
SLDTEXTSTYLE0
 11
-7.044195017643634E-15
 21
1.0
 31
0.0
 73
     1
 44
1.0
  0
ENDBLK
  5
29A
330
298
100
AcDbEntity
  8
0
100
AcDbBlockEnd
  0
BLOCK
  5
2A3
330
2A2
100
AcDbEntity
  8
0
100
AcDbBlockBegin
  2
_D_13
 70
     0
 10
0.0
 20
0.0
 30
0.0
  3
_D_13
  1

  0
ARC
  5
2A5
330
2A2
100
AcDbEntity
  8
0
  6
Continuous
 62
     7
370
     0
100
AcDbCircle
 10
68.8758927318
 20
206.1927060365
 30
0.0
 40
6.2120763399956
100
AcDbArc
 50
243.4349488229
 51
296.5650511771
  0
ARC
  5
2A6
330
2A2
100
AcDbEntity
  8
0
  6
Continuous
 62
     7
370
     0
100
AcDbCircle
 10
68.8758927318
 20
204.1315951153
 30
0.0
 40
6.2120763399956
100
AcDbArc
 50
63.4349488229
 51
116.5650511771
  0
SOLID
  5
2A7
330
2A2
100
AcDbEntity
  8
0
  6
Continuous
 62
     7
370
     0
100
AcDbTrace
 10
71.6540177274
 20
192.6121504012
 30
0.0
 11
72.4040177274
 21
194.6121504012
 31
0.0
 12
70.9040177274
 22
194.6121504012
 32
0.0
 13
70.9040177274
 23
194.6121504012
 33
0.0
  0
SOLID
  5
2A8
330
2A2
100
AcDbEntity
  8
0
  6
Continuous
 62
     7
370
     0
100
AcDbTrace
 10
71.6540177274
 20
217.7121504012
 30
0.0
 11
70.9040177274
 21
215.7121504012
 31
0.0
 12
72.4040177274
 22
215.7121504012
 32
0.0
 13
72.4040177274
 23
215.7121504012
 33
0.0
  0
LINE
  5
2A9
330
2A2
100
AcDbEntity
  8
0
  6
Continuous
 62
     7
370
     0
100
AcDbLine
 10
56.0586004654
 20
192.6121504012
 30
0.0
 11
72.6540177274
 21
192.6121504012
 31
0.0
  0
LINE
  5
2AA
330
2A2
100
AcDbEntity
  8
0
  6
Continuous
 62
     7
370
     0
100
AcDbLine
 10
49.0632303995
 20
217.7121504012
 30
0.0
 11
72.6540177274
 21
217.7121504012
 31
0.0
  0
LINE
  5
2AB
330
2A2
100
AcDbEntity
  8
0
  6
Continuous
 62
     7
370
     0
100
AcDbLine
 10
71.6540177274
 20
192.6121504012
 30
0.0
 11
71.6540177274
 21
217.7121504012
 31
0.0
  0
MTEXT
  5
2AC
330
2A2
100
AcDbEntity
  8
0
  6
Continuous
 62
     7
370
     0
100
AcDbMText
 10
67.1422808128
 20
200.6364560454
 30
-35.4313718718
 40
3.5
 41
0.0
 71
     1
 72
     1
  1
25.1
  7
SLDTEXTSTYLE0
 11
6.123233995736766E-17
 21
1.0
 31
0.0
 73
     1
 44
1.0
  0
ENDBLK
  5
2A4
330
2A2
100
AcDbEntity
  8
0
100
AcDbBlockEnd
  0
BLOCK
  5
2AF
330
2AE
100
AcDbEntity
  8
0
100
AcDbBlockBegin
  2
_D_14
 70
     0
 10
0.0
 20
0.0
 30
0.0
  3
_D_14
  1

  0
ARC
  5
2B1
330
2AE
100
AcDbEntity
  8
0
  6
Continuous
 62
     7
370
     0
100
AcDbCircle
 10
45.5935466702
 20
257.1900805246
 30
0.0
 40
6.212076339995627
100
AcDbArc
 50
153.4352210157
 51
206.5653233699
  0
ARC
  5
2B2
330
2AE
100
AcDbEntity
  8
0
  6
Continuous
 62
     7
370
     0
100
AcDbCircle
 10
43.532435749
 20
257.1900707329
 30
0.0
 40
6.212076339995601
100
AcDbArc
 50
333.4352210157
 51
26.5653233699
  0
SOLID
  5
2B3
330
2AE
100
AcDbEntity
  8
0
  6
Continuous
 62
     7
370
     0
100
AcDbTrace
 10
33.9205821585
 20
254.4119000747
 30
0.0
 11
35.9205857214
 21
253.661909576
 31
0.0
 12
35.9205785955
 22
255.161909576
 32
0.0
 13
35.9205785955
 23
255.161909576
 33
0.0
  0
SOLID
  5
2B4
330
2AE
100
AcDbEntity
  8
0
  6
Continuous
 62
     7
370
     0
100
AcDbTrace
 10
55.2054263073
 20
254.4120011918
 30
0.0
 11
53.2054227443
 21
255.1619916905
 31
0.0
 12
53.2054298703
 22
253.6619916905
 32
0.0
 13
53.2054298703
 23
253.6619916905
 33
0.0
  0
LINE
  5
2B5
330
2AE
100
AcDbEntity
  8
0
  6
Continuous
 62
     7
370
     0
100
AcDbLine
 10
33.9208035742
 20
207.8045394381
 30
0.0
 11
33.9205774078
 21
255.4119000747
 31
0.0
  0
LINE
  5
2B6
330
2AE
100
AcDbEntity
  8
0
  6
Continuous
 62
     7
370
     0
100
AcDbLine
 10
55.2056477235
 20
207.8045394381
 30
0.0
 11
55.2054215566
 21
255.4120011918
 31
0.0
  0
LINE
  5
2B7
330
2AE
100
AcDbEntity
  8
0
  6
Continuous
 62
     7
370
     0
100
AcDbLine
 10
33.9205821585
 20
254.4119000747
 30
0.0
 11
55.2054263073
 21
254.4120011918
 31
0.0
  0
MTEXT
  5
2B8
330
2AE
100
AcDbEntity
  8
0
  6
Continuous
 62
     7
370
     0
100
AcDbMText
 10
40.0372884434
 20
258.9236660477
 30
-35.4313718718
 40
3.5
 41
0.0
 71
     1
 72
     1
  1
21.3
  7
SLDTEXTSTYLE0
 11
0.9999999999887156
 21
4.750660981859362E-6
 31
0.0
 73
     1
 44
1.0
  0
ENDBLK
  5
2B0
330
2AE
100
AcDbEntity
  8
0
100
AcDbBlockEnd
  0
BLOCK
  5
2BC
330
2BB
100
AcDbEntity
  8
0
100
AcDbBlockBegin
  2
_D_15
 70
     0
 10
0.0
 20
0.0
 30
0.0
  3
_D_15
  1

  0
SOLID
  5
2BE
330
2BB
100
AcDbEntity
  8
0
  6
Continuous
 62
     7
370
     0
100
AcDbTrace
 10
41.0632318415
 20
240.2723031829
 30
0.0
 11
39.0632318894
 21
241.0223033107
 31
0.0
 12
39.0632317935
 22
239.5223033107
 32
0.0
 13
39.0632317935
 23
239.5223033107
 33
0.0
  0
SOLID
  5
2BF
330
2BB
100
AcDbEntity
  8
0
  6
Continuous
 62
     7
370
     0
100
AcDbTrace
 10
48.0632318415
 20
240.2723027355
 30
0.0
 11
50.0632317935
 21
239.5223026076
 31
0.0
 12
50.0632318894
 22
241.0223026076
 32
0.0
 13
50.0632318894
 23
241.0223026076
 33
0.0
  0
LINE
  5
2C0
330
2BB
100
AcDbEntity
  8
0
  6
Continuous
 62
     7
370
     0
100
AcDbLine
 10
41.0632304635
 20
218.7121504012
 30
0.0
 11
41.0632319054
 21
241.2723031829
 31
0.0
  0
LINE
  5
2C1
330
2BB
100
AcDbEntity
  8
0
  6
Continuous
 62
     7
370
     0
100
AcDbLine
 10
48.0632304635
 20
218.7121504012
 30
0.0
 11
48.0632319054
 21
241.2723027355
 31
0.0
  0
LINE
  5
2C2
330
2BB
100
AcDbEntity
  8
0
  6
Continuous
 62
     7
370
     0
100
AcDbLine
 10
41.0632318415
 20
240.2723031829
 30
0.0
 11
38.0632318415
 21
240.2723033746
 31
0.0
  0
LINE
  5
2C3
330
2BB
100
AcDbEntity
  8
0
  6
Continuous
 62
     7
370
     0
100
AcDbLine
 10
41.0632318415
 20
240.2723031829
 30
0.0
 11
48.0632318415
 21
240.2723027355
 31
0.0
  0
LINE
  5
2C4
330
2BB
100
AcDbEntity
  8
0
  6
Continuous
 62
     7
370
     0
100
AcDbLine
 10
48.0632318415
 20
240.2723027355
 30
0.0
 11
61.1759369406
 21
240.2723018974
 31
0.0
  0
MTEXT
  5
2C5
330
2BB
100
AcDbEntity
  8
0
  6
Continuous
 62
     7
370
     0
100
AcDbMText
 10
58.5898260355
 20
244.7840389773
 30
-35.4313718718
 40
3.5
 41
0.0
 71
     1
 72
     1
  1
7
  7
SLDTEXTSTYLE0
 11
0.999999999999998
 21
-6.391402898110767E-8
 31
0.0
 73
     1
 44
1.0
  0
ENDBLK
  5
2BD
330
2BB
100
AcDbEntity
  8
0
100
AcDbBlockEnd
  0
BLOCK
  5
2C8
330
2C7
100
AcDbEntity
  8
0
100
AcDbBlockBegin
  2
_D_16
 70
     0
 10
0.0
 20
0.0
 30
0.0
  3
_D_16
  1

  0
SOLID
  5
2CA
330
2C7
100
AcDbEntity
  8
0
  6
Continuous
 62
     7
370
     0
100
AcDbTrace
 10
24.9780287428
 20
139.9121504012
 30
0.0
 11
25.7280287428
 21
141.9121504012
 31
0.0
 12
24.2280287428
 22
141.9121504012
 32
0.0
 13
24.2280287428
 23
141.9121504012
 33
0.0
  0
SOLID
  5
2CB
330
2C7
100
AcDbEntity
  8
0
  6
Continuous
 62
     7
370
     0
100
AcDbTrace
 10
24.9780287428
 20
187.9121504012
 30
0.0
 11
24.2280287428
 21
185.9121504012
 31
0.0
 12
25.7280287428
 22
185.9121504012
 32
0.0
 13
25.7280287428
 23
185.9121504012
 33
0.0
  0
LINE
  5
2CC
330
2C7
100
AcDbEntity
  8
0
  6
Continuous
 62
     7
370
     0
100
AcDbLine
 10
29.5632303995
 20
139.9121504012
 30
0.0
 11
23.9780287428
 21
139.9121504012
 31
0.0
  0
LINE
  5
2CD
330
2C7
100
AcDbEntity
  8
0
  6
Continuous
 62
     7
370
     0
100
AcDbLine
 10
35.4632303995
 20
187.9121504012
 30
0.0
 11
23.9780287428
 21
187.9121504012
 31
0.0
  0
LINE
  5
2CE
330
2C7
100
AcDbEntity
  8
0
  6
Continuous
 62
     7
370
     0
100
AcDbLine
 10
24.9780287428
 20
139.9121504012
 30
0.0
 11
24.9780287428
 21
187.9121504012
 31
0.0
  0
MTEXT
  5
2CF
330
2C7
100
AcDbEntity
  8
0
  6
Continuous
 62
     7
370
     0
100
AcDbMText
 10
20.4662918283
 20
161.3260392077
 30
-35.4313718718
 40
3.5
 41
0.0
 71
     1
 72
     1
  1
48
  7
SLDTEXTSTYLE0
 11
-1.608122649676637E-16
 21
1.0
 31
0.0
 73
     1
 44
1.0
  0
ENDBLK
  5
2C9
330
2C7
100
AcDbEntity
  8
0
100
AcDbBlockEnd
  0
BLOCK
  5
2D1
330
2D0
100
AcDbEntity
  8
0
100
AcDbBlockBegin
  2
SW_CENTERMARKSYMBOL_0
 70
     0
 10
0.0
 20
0.0
 30
0.0
  3
SW_CENTERMARKSYMBOL_0
  1

  0
LINE
  5
2D3
330
2D0
100
AcDbEntity
  8
0
  6
Continuous
 62
     0
370
     0
100
AcDbLine
 10
0.0
 20
0.0
 30
0.0
 11
0.0
 21
2.5
 31
0.0
  0
LINE
  5
2D4
330
2D0
100
AcDbEntity
  8
0
  6
Continuous
 62
     0
370
     0
100
AcDbLine
 10
0.0
 20
0.0
 30
0.0
 11
-2.5
 21
0.0
 31
0.0
  0
LINE
  5
2D5
330
2D0
100
AcDbEntity
  8
0
  6
Continuous
 62
     0
370
     0
100
AcDbLine
 10
0.0
 20
0.0
 30
0.0
 11
0.0
 21
-2.5
 31
0.0
  0
LINE
  5
2D6
330
2D0
100
AcDbEntity
  8
0
  6
Continuous
 62
     0
370
     0
100
AcDbLine
 10
0.0
 20
0.0
 30
0.0
 11
2.5
 21
0.0
 31
0.0
  0
LINE
  5
2D7
330
2D0
100
AcDbEntity
  8
0
  6
Continuous
 62
     0
370
     0
100
AcDbLine
 10
0.0
 20
5.0
 30
0.0
 11
0.0
 21
5.1
 31
0.0
  0
LINE
  5
2D8
330
2D0
100
AcDbEntity
  8
0
  6
Continuous
 62
     0
370
     0
100
AcDbLine
 10
-5.0
 20
0.0
 30
0.0
 11
-5.1
 21
0.0
 31
0.0
  0
LINE
  5
2D9
330
2D0
100
AcDbEntity
  8
0
  6
Continuous
 62
     0
370
     0
100
AcDbLine
 10
0.0
 20
-5.0
 30
0.0
 11
0.0
 21
-5.1
 31
0.0
  0
LINE
  5
2DA
330
2D0
100
AcDbEntity
  8
0
  6
Continuous
 62
     0
370
     0
100
AcDbLine
 10
5.0
 20
0.0
 30
0.0
 11
5.1
 21
0.0
 31
0.0
  0
ENDBLK
  5
2D2
330
2D0
100
AcDbEntity
  8
0
100
AcDbBlockEnd
  0
BLOCK
  5
2DD
330
2DC
100
AcDbEntity
  8
0
100
AcDbBlockBegin
  2
SW_CENTERMARKSYMBOL_1
 70
     0
 10
0.0
 20
0.0
 30
0.0
  3
SW_CENTERMARKSYMBOL_1
  1

  0
LINE
  5
2DF
330
2DC
100
AcDbEntity
  8
0
  6
Continuous
 62
     0
370
     0
100
AcDbLine
 10
0.0
 20
0.0
 30
0.0
 11
0.0
 21
2.5
 31
0.0
  0
LINE
  5
2E0
330
2DC
100
AcDbEntity
  8
0
  6
Continuous
 62
     0
370
     0
100
AcDbLine
 10
0.0
 20
0.0
 30
0.0
 11
-2.5
 21
0.0
 31
0.0
  0
LINE
  5
2E1
330
2DC
100
AcDbEntity
  8
0
  6
Continuous
 62
     0
370
     0
100
AcDbLine
 10
0.0
 20
0.0
 30
0.0
 11
0.0
 21
-2.5
 31
0.0
  0
LINE
  5
2E2
330
2DC
100
AcDbEntity
  8
0
  6
Continuous
 62
     0
370
     0
100
AcDbLine
 10
0.0
 20
0.0
 30
0.0
 11
2.5
 21
0.0
 31
0.0
  0
LINE
  5
2E3
330
2DC
100
AcDbEntity
  8
0
  6
Continuous
 62
     0
370
     0
100
AcDbLine
 10
0.0
 20
5.0
 30
0.0
 11
0.0
 21
5.1
 31
0.0
  0
LINE
  5
2E4
330
2DC
100
AcDbEntity
  8
0
  6
Continuous
 62
     0
370
     0
100
AcDbLine
 10
-5.0
 20
0.0
 30
0.0
 11
-5.1
 21
0.0
 31
0.0
  0
LINE
  5
2E5
330
2DC
100
AcDbEntity
  8
0
  6
Continuous
 62
     0
370
     0
100
AcDbLine
 10
0.0
 20
-5.0
 30
0.0
 11
0.0
 21
-5.1
 31
0.0
  0
LINE
  5
2E6
330
2DC
100
AcDbEntity
  8
0
  6
Continuous
 62
     0
370
     0
100
AcDbLine
 10
5.0
 20
0.0
 30
0.0
 11
5.1
 21
0.0
 31
0.0
  0
ENDBLK
  5
2DE
330
2DC
100
AcDbEntity
  8
0
100
AcDbBlockEnd
  0
BLOCK
  5
2E9
330
2E8
100
AcDbEntity
  8
0
100
AcDbBlockBegin
  2
SW_CENTERMARKSYMBOL_2
 70
     0
 10
0.0
 20
0.0
 30
0.0
  3
SW_CENTERMARKSYMBOL_2
  1

  0
LINE
  5
2EB
330
2E8
100
AcDbEntity
  8
0
  6
Continuous
 62
     0
370
     0
100
AcDbLine
 10
0.0
 20
0.0
 30
0.0
 11
0.0
 21
2.5
 31
0.0
  0
LINE
  5
2EC
330
2E8
100
AcDbEntity
  8
0
  6
Continuous
 62
     0
370
     0
100
AcDbLine
 10
0.0
 20
0.0
 30
0.0
 11
-2.5
 21
0.0
 31
0.0
  0
LINE
  5
2ED
330
2E8
100
AcDbEntity
  8
0
  6
Continuous
 62
     0
370
     0
100
AcDbLine
 10
0.0
 20
0.0
 30
0.0
 11
0.0
 21
-2.5
 31
0.0
  0
LINE
  5
2EE
330
2E8
100
AcDbEntity
  8
0
  6
Continuous
 62
     0
370
     0
100
AcDbLine
 10
0.0
 20
0.0
 30
0.0
 11
2.5
 21
0.0
 31
0.0
  0
LINE
  5
2EF
330
2E8
100
AcDbEntity
  8
0
  6
Continuous
 62
     0
370
     0
100
AcDbLine
 10
0.0
 20
2.5
 30
0.0
 11
0.0
 21
4.5
 31
0.0
  0
LINE
  5
2F0
330
2E8
100
AcDbEntity
  8
0
  6
Continuous
 62
     0
370
     0
100
AcDbLine
 10
-2.5
 20
0.0
 30
0.0
 11
-4.5
 21
0.0
 31
0.0
  0
LINE
  5
2F1
330
2E8
100
AcDbEntity
  8
0
  6
Continuous
 62
     0
370
     0
100
AcDbLine
 10
0.0
 20
-2.5
 30
0.0
 11
0.0
 21
-4.5
 31
0.0
  0
LINE
  5
2F2
330
2E8
100
AcDbEntity
  8
0
  6
Continuous
 62
     0
370
     0
100
AcDbLine
 10
2.5
 20
0.0
 30
0.0
 11
4.5
 21
0.0
 31
0.0
  0
ENDBLK
  5
2EA
330
2E8
100
AcDbEntity
  8
0
100
AcDbBlockEnd
  0
BLOCK
  5
2F5
330
2F4
100
AcDbEntity
  8
0
100
AcDbBlockBegin
  2
SW_CENTERMARKSYMBOL_3
 70
     0
 10
0.0
 20
0.0
 30
0.0
  3
SW_CENTERMARKSYMBOL_3
  1

  0
LINE
  5
2F7
330
2F4
100
AcDbEntity
  8
0
  6
Continuous
 62
     0
370
     0
100
AcDbLine
 10
0.0
 20
0.0
 30
0.0
 11
0.0
 21
2.5
 31
0.0
  0
LINE
  5
2F8
330
2F4
100
AcDbEntity
  8
0
  6
Continuous
 62
     0
370
     0
100
AcDbLine
 10
0.0
 20
0.0
 30
0.0
 11
-2.5
 21
0.0
 31
0.0
  0
LINE
  5
2F9
330
2F4
100
AcDbEntity
  8
0
  6
Continuous
 62
     0
370
     0
100
AcDbLine
 10
0.0
 20
0.0
 30
0.0
 11
0.0
 21
-2.5
 31
0.0
  0
LINE
  5
2FA
330
2F4
100
AcDbEntity
  8
0
  6
Continuous
 62
     0
370
     0
100
AcDbLine
 10
0.0
 20
0.0
 30
0.0
 11
2.5
 21
0.0
 31
0.0
  0
LINE
  5
2FB
330
2F4
100
AcDbEntity
  8
0
  6
Continuous
 62
     0
370
     0
100
AcDbLine
 10
0.0
 20
5.0
 30
0.0
 11
0.0
 21
6.5
 31
0.0
  0
LINE
  5
2FC
330
2F4
100
AcDbEntity
  8
0
  6
Continuous
 62
     0
370
     0
100
AcDbLine
 10
-5.0
 20
0.0
 30
0.0
 11
-6.5
 21
0.0
 31
0.0
  0
LINE
  5
2FD
330
2F4
100
AcDbEntity
  8
0
  6
Continuous
 62
     0
370
     0
100
AcDbLine
 10
0.0
 20
-5.0
 30
0.0
 11
0.0
 21
-6.5233635281
 31
0.0
  0
LINE
  5
2FE
330
2F4
100
AcDbEntity
  8
0
  6
Continuous
 62
     0
370
     0
100
AcDbLine
 10
5.0
 20
0.0
 30
0.0
 11
6.5
 21
0.0
 31
0.0
  0
ENDBLK
  5
2F6
330
2F4
100
AcDbEntity
  8
0
100
AcDbBlockEnd
  0
BLOCK
  5
301
330
300
100
AcDbEntity
  8
0
100
AcDbBlockBegin
  2
SW_CENTERMARKSYMBOL_4
 70
     0
 10
0.0
 20
0.0
 30
0.0
  3
SW_CENTERMARKSYMBOL_4
  1

  0
LINE
  5
303
330
300
100
AcDbEntity
  8
0
  6
Continuous
 62
     0
370
     0
100
AcDbLine
 10
0.0
 20
0.0
 30
0.0
 11
0.0
 21
2.5
 31
0.0
  0
LINE
  5
304
330
300
100
AcDbEntity
  8
0
  6
Continuous
 62
     0
370
     0
100
AcDbLine
 10
0.0
 20
0.0
 30
0.0
 11
-2.5
 21
0.0
 31
0.0
  0
LINE
  5
305
330
300
100
AcDbEntity
  8
0
  6
Continuous
 62
     0
370
     0
100
AcDbLine
 10
0.0
 20
0.0
 30
0.0
 11
0.0
 21
-2.5
 31
0.0
  0
LINE
  5
306
330
300
100
AcDbEntity
  8
0
  6
Continuous
 62
     0
370
     0
100
AcDbLine
 10
0.0
 20
0.0
 30
0.0
 11
2.5
 21
0.0
 31
0.0
  0
LINE
  5
307
330
300
100
AcDbEntity
  8
0
  6
Continuous
 62
     0
370
     0
100
AcDbLine
 10
0.0
 20
5.0
 30
0.0
 11
0.0
 21
6.35
 31
0.0
  0
LINE
  5
308
330
300
100
AcDbEntity
  8
0
  6
Continuous
 62
     0
370
     0
100
AcDbLine
 10
-5.0
 20
0.0
 30
0.0
 11
-6.35
 21
0.0
 31
0.0
  0
LINE
  5
309
330
300
100
AcDbEntity
  8
0
  6
Continuous
 62
     0
370
     0
100
AcDbLine
 10
0.0
 20
-5.0
 30
0.0
 11
0.0
 21
-6.6805401387
 31
0.0
  0
LINE
  5
30A
330
300
100
AcDbEntity
  8
0
  6
Continuous
 62
     0
370
     0
100
AcDbLine
 10
5.0
 20
0.0
 30
0.0
 11
6.35
 21
0.0
 31
0.0
  0
ENDBLK
  5
302
330
300
100
AcDbEntity
  8
0
100
AcDbBlockEnd
  0
BLOCK
  5
30D
330
30C
100
AcDbEntity
  8
0
100
AcDbBlockBegin
  2
SW_CENTERMARKSYMBOL_5
 70
     0
 10
0.0
 20
0.0
 30
0.0
  3
SW_CENTERMARKSYMBOL_5
  1

  0
LINE
  5
30F
330
30C
100
AcDbEntity
  8
0
  6
Continuous
 62
     0
370
     0
100
AcDbLine
 10
0.0
 20
0.0
 30
0.0
 11
0.0
 21
2.5
 31
0.0
  0
LINE
  5
310
330
30C
100
AcDbEntity
  8
0
  6
Continuous
 62
     0
370
     0
100
AcDbLine
 10
0.0
 20
0.0
 30
0.0
 11
-2.5
 21
0.0
 31
0.0
  0
LINE
  5
311
330
30C
100
AcDbEntity
  8
0
  6
Continuous
 62
     0
370
     0
100
AcDbLine
 10
0.0
 20
0.0
 30
0.0
 11
0.0
 21
-2.5
 31
0.0
  0
LINE
  5
312
330
30C
100
AcDbEntity
  8
0
  6
Continuous
 62
     0
370
     0
100
AcDbLine
 10
0.0
 20
0.0
 30
0.0
 11
2.5
 21
0.0
 31
0.0
  0
LINE
  5
313
330
30C
100
AcDbEntity
  8
0
  6
Continuous
 62
     0
370
     0
100
AcDbLine
 10
0.0
 20
5.0
 30
0.0
 11
0.0
 21
8.1
 31
0.0
  0
LINE
  5
314
330
30C
100
AcDbEntity
  8
0
  6
Continuous
 62
     0
370
     0
100
AcDbLine
 10
-5.0
 20
0.0
 30
0.0
 11
-8.1
 21
0.0
 31
0.0
  0
LINE
  5
315
330
30C
100
AcDbEntity
  8
0
  6
Continuous
 62
     0
370
     0
100
AcDbLine
 10
0.0
 20
-5.0
 30
0.0
 11
0.0
 21
-8.1
 31
0.0
  0
LINE
  5
316
330
30C
100
AcDbEntity
  8
0
  6
Continuous
 62
     0
370
     0
100
AcDbLine
 10
5.0
 20
0.0
 30
0.0
 11
8.1
 21
0.0
 31
0.0
  0
ENDBLK
  5
30E
330
30C
100
AcDbEntity
  8
0
100
AcDbBlockEnd
  0
BLOCK
  5
395
330
394
100
AcDbEntity
  8
0
100
AcDbBlockBegin
  2
_D_17
 70
     0
 10
0.0
 20
0.0
 30
0.0
  3
_D_17
  1

  0
SOLID
  5
397
330
394
100
AcDbEntity
  8
0
  6
Continuous
 62
     7
370
     0
100
AcDbTrace
 10
105.2181912116
 20
104.3595847685
 30
0.0
 11
107.2181912116
 21
103.6095847685
 31
0.0
 12
107.2181912116
 22
105.1095847685
 32
0.0
 13
107.2181912116
 23
105.1095847685
 33
0.0
  0
SOLID
  5
398
330
394
100
AcDbEntity
  8
0
  6
Continuous
 62
     7
370
     0
100
AcDbTrace
 10
147.7181912116
 20
104.3595847685
 30
0.0
 11
145.7181912116
 21
105.1095847685
 31
0.0
 12
145.7181912116
 22
103.6095847685
 32
0.0
 13
145.7181912116
 23
103.6095847685
 33
0.0
  0
LINE
  5
399
330
394
100
AcDbEntity
  8
0
  6
Continuous
 62
     7
370
     0
100
AcDbLine
 10
105.2181912116
 20
95.3469494539
 30
0.0
 11
105.2181912116
 21
105.3595847685
 31
0.0
  0
LINE
  5
39A
330
394
100
AcDbEntity
  8
0
  6
Continuous
 62
     7
370
     0
100
AcDbLine
 10
147.7181912116
 20
95.4969494539
 30
0.0
 11
147.7181912116
 21
105.3595847685
 31
0.0
  0
LINE
  5
39B
330
394
100
AcDbEntity
  8
0
  6
Continuous
 62
     7
370
     0
100
AcDbLine
 10
105.2181912116
 20
104.3595847685
 30
0.0
 11
147.7181912116
 21
104.3595847685
 31
0.0
  0
MTEXT
  5
39C
330
394
100
AcDbEntity
  8
0
  6
Continuous
 62
     7
370
     0
100
AcDbMText
 10
121.9424966812
 20
108.8713216831
 30
12.3035862266
 40
3.5
 41
0.0
 71
     1
 72
     1
  1
42.5
  7
SLDTEXTSTYLE0
 73
     1
 44
1.0
  0
ENDBLK
  5
396
330
394
100
AcDbEntity
  8
0
100
AcDbBlockEnd
  0
BLOCK
  5
39F
330
39E
100
AcDbEntity
  8
0
100
AcDbBlockBegin
  2
_D_18
 70
     0
 10
0.0
 20
0.0
 30
0.0
  3
_D_18
  1

  0
SOLID
  5
3A1
330
39E
100
AcDbEntity
  8
0
  6
Continuous
 62
     7
370
     0
100
AcDbTrace
 10
137.7181912116
 20
98.6201658444
 30
0.0
 11
135.7181912116
 21
99.3701658444
 31
0.0
 12
135.7181912116
 22
97.8701658444
 32
0.0
 13
135.7181912116
 23
97.8701658444
 33
0.0
  0
SOLID
  5
3A2
330
39E
100
AcDbEntity
  8
0
  6
Continuous
 62
     7
370
     0
100
AcDbTrace
 10
147.7181912116
 20
98.6201658444
 30
0.0
 11
149.7181912116
 21
97.8701658444
 31
0.0
 12
149.7181912116
 22
99.3701658444
 32
0.0
 13
149.7181912116
 23
99.3701658444
 33
0.0
  0
LINE
  5
3A3
330
39E
100
AcDbEntity
  8
0
  6
Continuous
 62
     7
370
     0
100
AcDbLine
 10
137.7181912116
 20
95.4969494539
 30
0.0
 11
137.7181912116
 21
99.6201658444
 31
0.0
  0
LINE
  5
3A4
330
39E
100
AcDbEntity
  8
0
  6
Continuous
 62
     7
370
     0
100
AcDbLine
 10
147.7181912116
 20
95.4969494539
 30
0.0
 11
147.7181912116
 21
99.6201658444
 31
0.0
  0
LINE
  5
3A5
330
39E
100
AcDbEntity
  8
0
  6
Continuous
 62
     7
370
     0
100
AcDbLine
 10
137.7181912116
 20
98.6201658444
 30
0.0
 11
134.7181912116
 21
98.6201658444
 31
0.0
  0
LINE
  5
3A6
330
39E
100
AcDbEntity
  8
0
  6
Continuous
 62
     7
370
     0
100
AcDbLine
 10
137.7181912116
 20
98.6201658444
 30
0.0
 11
147.7181912116
 21
98.6201658444
 31
0.0
  0
LINE
  5
3A7
330
39E
100
AcDbEntity
  8
0
  6
Continuous
 62
     7
370
     0
100
AcDbLine
 10
147.7181912116
 20
98.6201658444
 30
0.0
 11
150.7181912116
 21
98.6201658444
 31
0.0
  0
MTEXT
  5
3A8
330
39E
100
AcDbEntity
  8
0
  6
Continuous
 62
     7
370
     0
100
AcDbMText
 10
139.8573175641
 20
103.1319027589
 30
12.3035862266
 40
3.5
 41
0.0
 71
     1
 72
     1
  1
10
  7
SLDTEXTSTYLE0
 73
     1
 44
1.0
  0
ENDBLK
  5
3A0
330
39E
100
AcDbEntity
  8
0
100
AcDbBlockEnd
  0
BLOCK
  5
3AB
330
3AA
100
AcDbEntity
  8
0
100
AcDbBlockBegin
  2
_D_19
 70
     0
 10
0.0
 20
0.0
 30
0.0
  3
_D_19
  1

  0
SOLID
  5
3AD
330
3AA
100
AcDbEntity
  8
0
  6
Continuous
 62
     7
370
     0
100
AcDbTrace
 10
147.7181912116
 20
104.3595847685
 30
0.0
 11
149.7181912116
 21
103.6095847685
 31
0.0
 12
149.7181912116
 22
105.1095847685
 32
0.0
 13
149.7181912116
 23
105.1095847685
 33
0.0
  0
SOLID
  5
3AE
330
3AA
100
AcDbEntity
  8
0
  6
Continuous
 62
     7
370
     0
100
AcDbTrace
 10
185.4181912116
 20
104.3595847685
 30
0.0
 11
183.4181912116
 21
105.1095847685
 31
0.0
 12
183.4181912116
 22
103.6095847685
 32
0.0
 13
183.4181912116
 23
103.6095847685
 33
0.0
  0
LINE
  5
3AF
330
3AA
100
AcDbEntity
  8
0
  6
Continuous
 62
     7
370
     0
100
AcDbLine
 10
147.7181912116
 20
95.4969494539
 30
0.0
 11
147.7181912116
 21
105.3595847685
 31
0.0
  0
LINE
  5
3B0
330
3AA
100
AcDbEntity
  8
0
  6
Continuous
 62
     7
370
     0
100
AcDbLine
 10
185.4181912116
 20
92.9469494539
 30
0.0
 11
185.4181912116
 21
105.3595847685
 31
0.0
  0
LINE
  5
3B1
330
3AA
100
AcDbEntity
  8
0
  6
Continuous
 62
     7
370
     0
100
AcDbLine
 10
147.7181912116
 20
104.3595847685
 30
0.0
 11
185.4181912116
 21
104.3595847685
 31
0.0
  0
MTEXT
  5
3B2
330
3AA
100
AcDbEntity
  8
0
  6
Continuous
 62
     7
370
     0
100
AcDbMText
 10
161.9081395309
 20
108.8713216831
 30
12.3035862266
 40
3.5
 41
0.0
 71
     1
 72
     1
  1
37.7
  7
SLDTEXTSTYLE0
 73
     1
 44
1.0
  0
ENDBLK
  5
3AC
330
3AA
100
AcDbEntity
  8
0
100
AcDbBlockEnd
  0
BLOCK
  5
3B5
330
3B4
100
AcDbEntity
  8
0
100
AcDbBlockBegin
  2
_D_20
 70
     0
 10
0.0
 20
0.0
 30
0.0
  3
_D_20
  1

  0
SOLID
  5
3B7
330
3B4
100
AcDbEntity
  8
0
  6
Continuous
 62
     7
370
     0
100
AcDbTrace
 10
118.9050821787
 20
90.3469494539
 30
0.0
 11
117.4050821787
 21
87.0449494539
 31
0.0
 12
120.4050821787
 22
87.0449494539
 32
0.0
 13
120.4050821787
 23
87.0449494539
 33
0.0
  0
SOLID
  5
3B8
330
3B4
100
AcDbEntity
  8
0
  6
Continuous
 62
     7
370
     0
100
AcDbTrace
 10
118.9050821787
 20
70.3469494539
 30
0.0
 11
120.4050821787
 21
73.6489494539
 31
0.0
 12
117.4050821787
 22
73.6489494539
 32
0.0
 13
117.4050821787
 23
73.6489494539
 33
0.0
  0
LINE
  5
3B9
330
3B4
100
AcDbEntity
  8
0
  6
Continuous
 62
     7
370
     0
100
AcDbLine
 10
132.5681912116
 20
90.3469494539
 30
0.0
 11
117.9050821787
 21
90.3469494539
 31
0.0
  0
LINE
  5
3BA
330
3B4
100
AcDbEntity
  8
0
  6
Continuous
 62
     7
370
     0
100
AcDbLine
 10
132.5681912116
 20
70.3469494539
 30
0.0
 11
117.9050821787
 21
70.3469494539
 31
0.0
  0
LINE
  5
3BB
330
3B4
100
AcDbEntity
  8
0
  6
Continuous
 62
     7
370
     0
100
AcDbLine
 10
118.9050821787
 20
90.3469494539
 30
0.0
 11
118.9050821787
 21
70.3469494539
 31
0.0
  0
MTEXT
  5
3BC
330
3B4
100
AcDbEntity
  8
0
  6
Continuous
 62
     7
370
     0
100
AcDbMText
 10
114.3933452641
 20
77.987170645
 30
12.3035862266
 40
3.5
 41
0.0
 71
     1
 72
     1
  1
20
  7
SLDTEXTSTYLE0
 11
-7.044195017643634E-15
 21
1.0
 31
0.0
 73
     1
 44
1.0
  0
ENDBLK
  5
3B6
330
3B4
100
AcDbEntity
  8
0
100
AcDbBlockEnd
  0
BLOCK
  5
3BF
330
3BE
100
AcDbEntity
  8
0
100
AcDbBlockBegin
  2
_D_21
 70
     0
 10
0.0
 20
0.0
 30
0.0
  3
_D_21
  1

  0
SOLID
  5
3C1
330
3BE
100
AcDbEntity
  8
0
  6
Continuous
 62
     7
370
     0
100
AcDbTrace
 10
127.7181912116
 20
60.4635268432
 30
0.0
 11
129.7181912116
 21
59.7135268432
 31
0.0
 12
129.7181912116
 22
61.2135268432
 32
0.0
 13
129.7181912116
 23
61.2135268432
 33
0.0
  0
SOLID
  5
3C2
330
3BE
100
AcDbEntity
  8
0
  6
Continuous
 62
     7
370
     0
100
AcDbTrace
 10
147.7181912116
 20
60.4635268432
 30
0.0
 11
145.7181912116
 21
61.2135268432
 31
0.0
 12
145.7181912116
 22
59.7135268432
 32
0.0
 13
145.7181912116
 23
59.7135268432
 33
0.0
  0
LINE
  5
3C3
330
3BE
100
AcDbEntity
  8
0
  6
Continuous
 62
     7
370
     0
100
AcDbLine
 10
127.7181912116
 20
75.1969494539
 30
0.0
 11
127.7181912116
 21
59.4635268432
 31
0.0
  0
LINE
  5
3C4
330
3BE
100
AcDbEntity
  8
0
  6
Continuous
 62
     7
370
     0
100
AcDbLine
 10
147.7181912116
 20
65.1969494539
 30
0.0
 11
147.7181912116
 21
59.4635268432
 31
0.0
  0
LINE
  5
3C5
330
3BE
100
AcDbEntity
  8
0
  6
Continuous
 62
     7
370
     0
100
AcDbLine
 10
127.7181912116
 20
60.4635268432
 30
0.0
 11
147.7181912116
 21
60.4635268432
 31
0.0
  0
MTEXT
  5
3C6
330
3BE
100
AcDbEntity
  8
0
  6
Continuous
 62
     7
370
     0
100
AcDbMText
 10
135.4477623221
 20
64.9752637578
 30
12.3035862266
 40
3.5
 41
0.0
 71
     1
 72
     1
  1
20
  7
SLDTEXTSTYLE0
 73
     1
 44
1.0
  0
ENDBLK
  5
3C0
330
3BE
100
AcDbEntity
  8
0
100
AcDbBlockEnd
  0
BLOCK
  5
3C9
330
3C8
100
AcDbEntity
  8
0
100
AcDbBlockBegin
  2
_D_22
 70
     0
 10
0.0
 20
0.0
 30
0.0
  3
_D_22
  1

  0
SOLID
  5
3CB
330
3C8
100
AcDbEntity
  8
0
  6
Continuous
 62
     7
370
     0
100
AcDbTrace
 10
153.0736671133
 20
52.665112406
 30
0.0
 11
151.0736671133
 21
53.415112406
 31
0.0
 12
151.0736671133
 22
51.915112406
 32
0.0
 13
151.0736671133
 23
51.915112406
 33
0.0
  0
SOLID
  5
3CC
330
3C8
100
AcDbEntity
  8
0
  6
Continuous
 62
     7
370
     0
100
AcDbTrace
 10
105.2181912116
 20
52.665112406
 30
0.0
 11
107.2181912116
 21
51.915112406
 31
0.0
 12
107.2181912116
 22
53.415112406
 32
0.0
 13
107.2181912116
 23
53.415112406
 33
0.0
  0
LINE
  5
3CD
330
3C8
100
AcDbEntity
  8
0
  6
Continuous
 62
     7
370
     0
100
AcDbLine
 10
153.0736671133
 20
65.3469494539
 30
0.0
 11
153.0736671133
 21
51.665112406
 31
0.0
  0
LINE
  5
3CE
330
3C8
100
AcDbEntity
  8
0
  6
Continuous
 62
     7
370
     0
100
AcDbLine
 10
105.2181912116
 20
65.3469494539
 30
0.0
 11
105.2181912116
 21
51.665112406
 31
0.0
  0
LINE
  5
3CF
330
3C8
100
AcDbEntity
  8
0
  6
Continuous
 62
     7
370
     0
100
AcDbLine
 10
153.0736671133
 20
52.665112406
 30
0.0
 11
105.2181912116
 21
52.665112406
 31
0.0
  0
MTEXT
  5
3D0
330
3C8
100
AcDbEntity
  8
0
  6
Continuous
 62
     7
370
     0
100
AcDbMText
 10
127.556461816
 20
57.1768493206
 30
12.3035862266
 40
3.5
 41
0.0
 71
     1
 72
     1
  1
47.9
  7
SLDTEXTSTYLE0
 73
     1
 44
1.0
  0
ENDBLK
  5
3CA
330
3C8
100
AcDbEntity
  8
0
100
AcDbBlockEnd
  0
BLOCK
  5
3D7
330
3D6
100
AcDbEntity
  8
0
100
AcDbBlockBegin
  2
SW_CENTERMARKSYMBOL_6
 70
     0
 10
0.0
 20
0.0
 30
0.0
  3
SW_CENTERMARKSYMBOL_6
  1

  0
LINE
  5
3D9
330
3D6
100
AcDbEntity
  8
0
  6
Continuous
 62
     0
370
     0
100
AcDbLine
 10
0.0
 20
0.0
 30
0.0
 11
0.0
 21
2.5
 31
0.0
  0
LINE
  5
3DA
330
3D6
100
AcDbEntity
  8
0
  6
Continuous
 62
     0
370
     0
100
AcDbLine
 10
0.0
 20
0.0
 30
0.0
 11
-2.5
 21
0.0
 31
0.0
  0
LINE
  5
3DB
330
3D6
100
AcDbEntity
  8
0
  6
Continuous
 62
     0
370
     0
100
AcDbLine
 10
0.0
 20
0.0
 30
0.0
 11
0.0
 21
-2.5
 31
0.0
  0
LINE
  5
3DC
330
3D6
100
AcDbEntity
  8
0
  6
Continuous
 62
     0
370
     0
100
AcDbLine
 10
0.0
 20
0.0
 30
0.0
 11
2.5
 21
0.0
 31
0.0
  0
LINE
  5
3DD
330
3D6
100
AcDbEntity
  8
0
  6
Continuous
 62
     0
370
     0
100
AcDbLine
 10
0.0
 20
2.5
 30
0.0
 11
0.0
 21
4.15
 31
0.0
  0
LINE
  5
3DE
330
3D6
100
AcDbEntity
  8
0
  6
Continuous
 62
     0
370
     0
100
AcDbLine
 10
-2.5
 20
0.0
 30
0.0
 11
-4.15
 21
0.0
 31
0.0
  0
LINE
  5
3DF
330
3D6
100
AcDbEntity
  8
0
  6
Continuous
 62
     0
370
     0
100
AcDbLine
 10
0.0
 20
-2.5
 30
0.0
 11
0.0
 21
-4.15
 31
0.0
  0
LINE
  5
3E0
330
3D6
100
AcDbEntity
  8
0
  6
Continuous
 62
     0
370
     0
100
AcDbLine
 10
2.5
 20
0.0
 30
0.0
 11
4.15
 21
0.0
 31
0.0
  0
ENDBLK
  5
3D8
330
3D6
100
AcDbEntity
  8
0
100
AcDbBlockEnd
  0
BLOCK
  5
3E3
330
3E2
100
AcDbEntity
  8
0
100
AcDbBlockBegin
  2
SW_CENTERMARKSYMBOL_7
 70
     0
 10
0.0
 20
0.0
 30
0.0
  3
SW_CENTERMARKSYMBOL_7
  1

  0
LINE
  5
3E5
330
3E2
100
AcDbEntity
  8
0
  6
Continuous
 62
     0
370
     0
100
AcDbLine
 10
0.0
 20
0.0
 30
0.0
 11
0.0
 21
2.5
 31
0.0
  0
LINE
  5
3E6
330
3E2
100
AcDbEntity
  8
0
  6
Continuous
 62
     0
370
     0
100
AcDbLine
 10
0.0
 20
0.0
 30
0.0
 11
-2.5
 21
0.0
 31
0.0
  0
LINE
  5
3E7
330
3E2
100
AcDbEntity
  8
0
  6
Continuous
 62
     0
370
     0
100
AcDbLine
 10
0.0
 20
0.0
 30
0.0
 11
0.0
 21
-2.5
 31
0.0
  0
LINE
  5
3E8
330
3E2
100
AcDbEntity
  8
0
  6
Continuous
 62
     0
370
     0
100
AcDbLine
 10
0.0
 20
0.0
 30
0.0
 11
2.5
 21
0.0
 31
0.0
  0
LINE
  5
3E9
330
3E2
100
AcDbEntity
  8
0
  6
Continuous
 62
     0
370
     0
100
AcDbLine
 10
0.0
 20
2.5
 30
0.0
 11
0.0
 21
4.15
 31
0.0
  0
LINE
  5
3EA
330
3E2
100
AcDbEntity
  8
0
  6
Continuous
 62
     0
370
     0
100
AcDbLine
 10
-2.5
 20
0.0
 30
0.0
 11
-4.15
 21
0.0
 31
0.0
  0
LINE
  5
3EB
330
3E2
100
AcDbEntity
  8
0
  6
Continuous
 62
     0
370
     0
100
AcDbLine
 10
0.0
 20
-2.5
 30
0.0
 11
0.0
 21
-4.15
 31
0.0
  0
LINE
  5
3EC
330
3E2
100
AcDbEntity
  8
0
  6
Continuous
 62
     0
370
     0
100
AcDbLine
 10
2.5
 20
0.0
 30
0.0
 11
4.15
 21
0.0
 31
0.0
  0
ENDBLK
  5
3E4
330
3E2
100
AcDbEntity
  8
0
100
AcDbBlockEnd
  0
BLOCK
  5
3EF
330
3EE
100
AcDbEntity
  8
0
100
AcDbBlockBegin
  2
SW_CENTERMARKSYMBOL_8
 70
     0
 10
0.0
 20
0.0
 30
0.0
  3
SW_CENTERMARKSYMBOL_8
  1

  0
LINE
  5
3F1
330
3EE
100
AcDbEntity
  8
0
  6
Continuous
 62
     0
370
     0
100
AcDbLine
 10
0.0
 20
0.0
 30
0.0
 11
0.0
 21
2.5
 31
0.0
  0
LINE
  5
3F2
330
3EE
100
AcDbEntity
  8
0
  6
Continuous
 62
     0
370
     0
100
AcDbLine
 10
0.0
 20
0.0
 30
0.0
 11
-2.5
 21
0.0
 31
0.0
  0
LINE
  5
3F3
330
3EE
100
AcDbEntity
  8
0
  6
Continuous
 62
     0
370
     0
100
AcDbLine
 10
0.0
 20
0.0
 30
0.0
 11
0.0
 21
-2.5
 31
0.0
  0
LINE
  5
3F4
330
3EE
100
AcDbEntity
  8
0
  6
Continuous
 62
     0
370
     0
100
AcDbLine
 10
0.0
 20
0.0
 30
0.0
 11
2.5
 21
0.0
 31
0.0
  0
LINE
  5
3F5
330
3EE
100
AcDbEntity
  8
0
  6
Continuous
 62
     0
370
     0
100
AcDbLine
 10
0.0
 20
2.5
 30
0.0
 11
0.0
 21
4.15
 31
0.0
  0
LINE
  5
3F6
330
3EE
100
AcDbEntity
  8
0
  6
Continuous
 62
     0
370
     0
100
AcDbLine
 10
-2.5
 20
0.0
 30
0.0
 11
-4.15
 21
0.0
 31
0.0
  0
LINE
  5
3F7
330
3EE
100
AcDbEntity
  8
0
  6
Continuous
 62
     0
370
     0
100
AcDbLine
 10
0.0
 20
-2.5
 30
0.0
 11
0.0
 21
-4.15
 31
0.0
  0
LINE
  5
3F8
330
3EE
100
AcDbEntity
  8
0
  6
Continuous
 62
     0
370
     0
100
AcDbLine
 10
2.5
 20
0.0
 30
0.0
 11
4.15
 21
0.0
 31
0.0
  0
ENDBLK
  5
3F0
330
3EE
100
AcDbEntity
  8
0
100
AcDbBlockEnd
  0
BLOCK
  5
3FB
330
3FA
100
AcDbEntity
  8
0
100
AcDbBlockBegin
  2
SW_CENTERMARKSYMBOL_9
 70
     0
 10
0.0
 20
0.0
 30
0.0
  3
SW_CENTERMARKSYMBOL_9
  1

  0
LINE
  5
3FD
330
3FA
100
AcDbEntity
  8
0
  6
Continuous
 62
     0
370
     0
100
AcDbLine
 10
0.0
 20
0.0
 30
0.0
 11
0.0
 21
2.5
 31
0.0
  0
LINE
  5
3FE
330
3FA
100
AcDbEntity
  8
0
  6
Continuous
 62
     0
370
     0
100
AcDbLine
 10
0.0
 20
0.0
 30
0.0
 11
-2.5
 21
0.0
 31
0.0
  0
LINE
  5
3FF
330
3FA
100
AcDbEntity
  8
0
  6
Continuous
 62
     0
370
     0
100
AcDbLine
 10
0.0
 20
0.0
 30
0.0
 11
0.0
 21
-2.5
 31
0.0
  0
LINE
  5
400
330
3FA
100
AcDbEntity
  8
0
  6
Continuous
 62
     0
370
     0
100
AcDbLine
 10
0.0
 20
0.0
 30
0.0
 11
2.5
 21
0.0
 31
0.0
  0
LINE
  5
401
330
3FA
100
AcDbEntity
  8
0
  6
Continuous
 62
     0
370
     0
100
AcDbLine
 10
0.0
 20
2.5
 30
0.0
 11
0.0
 21
4.15
 31
0.0
  0
LINE
  5
402
330
3FA
100
AcDbEntity
  8
0
  6
Continuous
 62
     0
370
     0
100
AcDbLine
 10
-2.5
 20
0.0
 30
0.0
 11
-4.15
 21
0.0
 31
0.0
  0
LINE
  5
403
330
3FA
100
AcDbEntity
  8
0
  6
Continuous
 62
     0
370
     0
100
AcDbLine
 10
0.0
 20
-2.5
 30
0.0
 11
0.0
 21
-4.15
 31
0.0
  0
LINE
  5
404
330
3FA
100
AcDbEntity
  8
0
  6
Continuous
 62
     0
370
     0
100
AcDbLine
 10
2.5
 20
0.0
 30
0.0
 11
4.15
 21
0.0
 31
0.0
  0
ENDBLK
  5
3FC
330
3FA
100
AcDbEntity
  8
0
100
AcDbBlockEnd
  0
BLOCK
  5
407
330
406
100
AcDbEntity
  8
0
100
AcDbBlockBegin
  2
SW_CENTERMARKSYMBOL_10
 70
     0
 10
0.0
 20
0.0
 30
0.0
  3
SW_CENTERMARKSYMBOL_10
  1

  0
LINE
  5
409
330
406
100
AcDbEntity
  8
0
  6
Continuous
 62
     0
370
     0
100
AcDbLine
 10
0.0
 20
0.0
 30
0.0
 11
0.0
 21
2.5
 31
0.0
  0
LINE
  5
40A
330
406
100
AcDbEntity
  8
0
  6
Continuous
 62
     0
370
     0
100
AcDbLine
 10
0.0
 20
0.0
 30
0.0
 11
-2.5
 21
0.0
 31
0.0
  0
LINE
  5
40B
330
406
100
AcDbEntity
  8
0
  6
Continuous
 62
     0
370
     0
100
AcDbLine
 10
0.0
 20
0.0
 30
0.0
 11
0.0
 21
-2.5
 31
0.0
  0
LINE
  5
40C
330
406
100
AcDbEntity
  8
0
  6
Continuous
 62
     0
370
     0
100
AcDbLine
 10
0.0
 20
0.0
 30
0.0
 11
2.5
 21
0.0
 31
0.0
  0
LINE
  5
40D
330
406
100
AcDbEntity
  8
0
  6
Continuous
 62
     0
370
     0
100
AcDbLine
 10
0.0
 20
2.5
 30
0.0
 11
0.0
 21
4.15
 31
0.0
  0
LINE
  5
40E
330
406
100
AcDbEntity
  8
0
  6
Continuous
 62
     0
370
     0
100
AcDbLine
 10
-2.5
 20
0.0
 30
0.0
 11
-13.8581313382
 21
0.0
 31
0.0
  0
LINE
  5
40F
330
406
100
AcDbEntity
  8
0
  6
Continuous
 62
     0
370
     0
100
AcDbLine
 10
0.0
 20
-2.5
 30
0.0
 11
0.0
 21
-4.15
 31
0.0
  0
LINE
  5
410
330
406
100
AcDbEntity
  8
0
  6
Continuous
 62
     0
370
     0
100
AcDbLine
 10
2.5
 20
0.0
 30
0.0
 11
39.6936611741
 21
0.0
 31
0.0
  0
ENDBLK
  5
408
330
406
100
AcDbEntity
  8
0
100
AcDbBlockEnd
  0
BLOCK
  5
413
330
412
100
AcDbEntity
  8
0
100
AcDbBlockBegin
  2
SW_CENTERMARKSYMBOL_11
 70
     0
 10
0.0
 20
0.0
 30
0.0
  3
SW_CENTERMARKSYMBOL_11
  1

  0
LINE
  5
415
330
412
100
AcDbEntity
  8
0
  6
Continuous
 62
     0
370
     0
100
AcDbLine
 10
0.0
 20
0.0
 30
0.0
 11
0.0
 21
2.5
 31
0.0
  0
LINE
  5
416
330
412
100
AcDbEntity
  8
0
  6
Continuous
 62
     0
370
     0
100
AcDbLine
 10
0.0
 20
0.0
 30
0.0
 11
-2.5
 21
0.0
 31
0.0
  0
LINE
  5
417
330
412
100
AcDbEntity
  8
0
  6
Continuous
 62
     0
370
     0
100
AcDbLine
 10
0.0
 20
0.0
 30
0.0
 11
0.0
 21
-2.5
 31
0.0
  0
LINE
  5
418
330
412
100
AcDbEntity
  8
0
  6
Continuous
 62
     0
370
     0
100
AcDbLine
 10
0.0
 20
0.0
 30
0.0
 11
2.5
 21
0.0
 31
0.0
  0
LINE
  5
419
330
412
100
AcDbEntity
  8
0
  6
Continuous
 62
     0
370
     0
100
AcDbLine
 10
0.0
 20
2.5
 30
0.0
 11
0.0
 21
4.15
 31
0.0
  0
LINE
  5
41A
330
412
100
AcDbEntity
  8
0
  6
Continuous
 62
     0
370
     0
100
AcDbLine
 10
-2.5
 20
0.0
 30
0.0
 11
-4.15
 21
0.0
 31
0.0
  0
LINE
  5
41B
330
412
100
AcDbEntity
  8
0
  6
Continuous
 62
     0
370
     0
100
AcDbLine
 10
0.0
 20
-2.5
 30
0.0
 11
0.0
 21
-4.15
 31
0.0
  0
LINE
  5
41C
330
412
100
AcDbEntity
  8
0
  6
Continuous
 62
     0
370
     0
100
AcDbLine
 10
2.5
 20
0.0
 30
0.0
 11
4.15
 21
0.0
 31
0.0
  0
ENDBLK
  5
414
330
412
100
AcDbEntity
  8
0
100
AcDbBlockEnd
  0
ENDSEC
  0
SECTION
  2
ENTITIES
  0
LINE
  5
44
330
1F
100
AcDbEntity
  8
0
  6
Continuous
 62
     7
370
     0
100
AcDbLine
 10
20.2604743903
 20
285.0
 30
0.0
 11
196.7604743903
 21
285.0
 31
0.0
  0
LINE
  5
45
330
1F
100
AcDbEntity
  8
0
  6
Continuous
 62
     7
370
     0
100
AcDbLine
 10
20.2604743903
 20
285.0
 30
0.0
 11
20.2604743903
 21
10.0
 31
0.0
  0
LINE
  5
46
330
1F
100
AcDbEntity
  8
0
  6
Continuous
 62
     7
370
     0
100
AcDbLine
 10
20.2604743903
 20
10.0
 30
0.0
 11
196.7604743903
 21
10.0
 31
0.0
  0
LINE
  5
47
330
1F
100
AcDbEntity
  8
0
  6
Continuous
 62
     7
370
     0
100
AcDbLine
 10
196.7604743903
 20
285.0
 30
0.0
 11
196.7604743903
 21
10.0
 31
0.0
  0
LINE
  5
48
330
1F
100
AcDbEntity
  8
0
  6
Continuous
 62
     7
370
     0
100
AcDbLine
 10
127.0104743903
 20
50.75
 30
0.0
 11
196.7604743903
 21
50.75
 31
0.0
  0
LINE
  5
49
330
1F
100
AcDbEntity
  8
0
  6
Continuous
 62
     7
370
     0
100
AcDbLine
 10
127.0104743903
 20
50.75
 30
0.0
 11
127.0104743903
 21
10.0
 31
0.0
  0
LINE
  5
4A
330
1F
100
AcDbEntity
  8
0
  6
Continuous
 62
     7
370
     0
100
AcDbLine
 10
127.0104743903
 20
22.75
 30
0.0
 11
196.7604743903
 21
22.75
 31
0.0
  0
LINE
  5
4B
330
1F
100
AcDbEntity
  8
0
  6
Continuous
 62
     7
370
     0
100
AcDbLine
 10
127.0104743903
 20
36.75
 30
0.0
 11
196.7604743903
 21
36.75
 31
0.0
  0
MTEXT
  5
4D
330
1F
100
AcDbEntity
  8
0
  6
Continuous
 62
     7
370
     0
100
AcDbMText
 10
58.2185734708
 20
87.5185453182
 30
0.0
 40
3.5
 41
0.0
 71
     1
 72
     1
  1
ストッパーネジ
  7
SLDTEXTSTYLE0
 73
     1
 44
1.0
  0
MTEXT
  5
4E
330
1F
100
AcDbEntity
  8
0
  6
Continuous
 62
     7
370
     0
100
AcDbMText
 10
73.986867455
 20
203.2676501227
 30
0.0
 40
2.9104166667
 41
0.0
 71
     1
 72
     1
  1
KQ2S04-M5N
  7
SLDTEXTSTYLE0
 73
     1
 44
1.0
  0
MTEXT
  5
50
330
1F
100
AcDbEntity
  8
0
  6
Continuous
 62
     7
370
     0
100
AcDbMText
 10
161.812465677
 20
30.4171582345
 30
0.0
 40
4.2333333333
 41
0.0
 71
     2
 72
     1
  1
NW2-20-01C
  7
SLDTEXTSTYLE1
 73
     1
 44
1.0
  0
MTEXT
  5
51
330
1F
100
AcDbEntity
  8
0
  6
Continuous
 62
     7
370
     0
100
AcDbMText
 10
158.3762757661
 20
45.3285902962
 30
0.0
 40
3.175
 41
0.0
 71
     2
 72
     1
  1
ミニエアーニッパー・本体・クイキリ刃付
  7
SLDTEXTSTYLE1
 73
     1
 44
1.0
  0
MTEXT
  5
52
330
1F
100
AcDbEntity
  8
0
  6
Continuous
 62
     7
370
     0
100
AcDbMText
 10
162.6486010649
 20
16.8228189052
 30
0.0
 40
4.2333333333
 41
0.0
 71
     2
 72
     1
  1
131545
  7
SLDTEXTSTYLE1
 73
     1
 44
1.0
  0
LINE
  5
53
330
1F
100
AcDbEntity
  8
0
  6
Continuous
 62
     7
370
    15
100
AcDbLine
 10
93.0181886009
 20
154.6121499393
 30
0.0
 11
105.2181939534
 21
154.6121499393
 31
0.0
  0
LINE
  5
54
330
1F
100
AcDbEntity
  8
0
  6
Continuous
 62
     7
370
    15
100
AcDbLine
 10
105.2181939534
 20
162.6121503775
 30
0.0
 11
93.0181886009
 21
162.6121503775
 31
0.0
  0
LINE
  5
55
330
1F
100
AcDbEntity
  8
0
  6
Continuous
 62
     7
370
    15
100
AcDbLine
 10
90.6181926779
 20
154.7621506158
 30
0.0
 11
92.1181882671
 21
154.7621506158
 31
0.0
  0
LINE
  5
56
330
1F
100
AcDbEntity
  8
0
  6
Continuous
 62
     7
370
    15
100
AcDbLine
 10
92.1181882671
 20
162.4621503995
 30
0.0
 11
90.6181926779
 21
162.4621503995
 31
0.0
  0
LINE
  5
57
330
1F
100
AcDbEntity
  8
0
  6
Continuous
 62
     7
370
    15
100
AcDbLine
 10
92.1181882671
 20
156.2121504809
 30
0.0
 11
93.0181886009
 21
156.2121504809
 31
0.0
  0
LINE
  5
58
330
1F
100
AcDbEntity
  8
0
  6
Continuous
 62
     7
370
    15
100
AcDbLine
 10
93.0181886009
 20
161.0121504761
 30
0.0
 11
92.1181882671
 21
161.0121504761
 31
0.0
  0
LINE
  5
59
330
1F
100
AcDbEntity
  8
0
  6
Continuous
 62
     7
370
    15
100
AcDbLine
 10
114.0181901805
 20
170.6121502336
 30
0.0
 11
126.2181918077
 21
170.6121502336
 31
0.0
  0
LINE
  5
5A
330
1F
100
AcDbEntity
  8
0
  6
Continuous
 62
     7
370
    15
100
AcDbLine
 10
126.2181918077
 20
178.6121501479
 30
0.0
 11
114.0181901805
 21
178.6121501479
 31
0.0
  0
LINE
  5
5B
330
1F
100
AcDbEntity
  8
0
  6
Continuous
 62
     7
370
    15
100
AcDbLine
 10
111.6181905321
 20
170.7621504444
 30
0.0
 11
113.1181898467
 21
170.7621504444
 31
0.0
  0
LINE
  5
5C
330
1F
100
AcDbEntity
  8
0
  6
Continuous
 62
     7
370
    15
100
AcDbLine
 10
113.1181898467
 20
178.4621504027
 30
0.0
 11
111.6181905321
 21
178.4621504027
 31
0.0
  0
LINE
  5
5D
330
1F
100
AcDbEntity
  8
0
  6
Continuous
 62
     7
370
    15
100
AcDbLine
 10
113.1181898467
 20
172.2121507752
 30
0.0
 11
114.0181901805
 21
172.2121507752
 31
0.0
  0
LINE
  5
5E
330
1F
100
AcDbEntity
  8
0
  6
Continuous
 62
     7
370
    15
100
AcDbLine
 10
114.0181901805
 20
177.0121500719
 30
0.0
 11
113.1181898467
 21
177.0121500719
 31
0.0
  0
SPLINE
  5
5F
330
1F
100
AcDbEntity
  8
0
  6
Continuous
 62
     7
370
    15
100
AcDbSpline
210
0.0
220
0.0
230
1.0
 70
     8
 71
     3
 72
    15
 73
    11
 74
     0
 42
0.00000001
 43
0.00000001
 12
1.0
 22
0.0
 32
0.0
 13
1.0
 23
0.0
 33
0.0
 40
0.0
 40
0.0
 40
0.0
 40
0.0
 40
0.121225782444904
 40
0.2487264856325554
 40
0.3796041234829372
 40
0.5108476441688499
 40
0.6398635847607463
 40
0.7648475003618869
 40
0.8849123257228632
 40
1.0
 40
1.0
 40
1.0
 40
1.0
 10
183.0181912458853
 20
154.4507834020761
 30
0.0
 10
183.1701097711624
 20
154.4637309434306
 30
0.0
 10
183.4818104682631
 20
154.4902962201706
 30
0.0
 10
183.9457805023931
 20
154.6376236638062
 30
0.0
 10
184.3833503486268
 20
154.8672173572739
 30
0.0
 10
184.7635317680721
 20
155.1776186595102
 30
0.0
 10
185.0647675755834
 20
155.5494824231444
 30
0.0
 10
185.2744806013058
 20
155.9630465004297
 30
0.0
 10
185.3997697589654
 20
156.3977201711048
 30
0.0
 10
185.4120195943218
 20
156.6954811240912
 30
0.0
 10
185.4180148742513
 20
156.8412104513255
 30
0.0
  0
LINE
  5
60
330
1F
100
AcDbEntity
  8
0
  6
Continuous
 62
     7
370
    15
100
AcDbLine
 10
179.2181911818
 20
152.3621500361
 30
0.0
 11
176.5181911118
 21
152.3621500361
 31
0.0
  0
LINE
  5
61
330
1F
100
AcDbEntity
  8
0
  6
Continuous
 62
     7
370
    15
100
AcDbLine
 10
176.5181911118
 20
146.8621509973
 30
0.0
 11
179.2181911818
 21
146.8621509973
 31
0.0
  0
LINE
  5
62
330
1F
100
AcDbEntity
  8
0
  6
Continuous
 62
     7
370
    15
100
AcDbLine
 10
179.2181911818
 20
146.8621509973
 30
0.0
 11
179.5181911379
 21
147.3621501479
 31
0.0
  0
LINE
  5
63
330
1F
100
AcDbEntity
  8
0
  6
Continuous
 62
     7
370
    15
100
AcDbLine
 10
179.5181911379
 20
151.8621499542
 30
0.0
 11
179.2181911818
 21
152.3621500361
 31
0.0
  0
LINE
  5
64
330
1F
100
AcDbEntity
  8
0
  6
Continuous
 62
     7
370
    15
100
AcDbLine
 10
101.1433596663
 20
160.6121504571
 30
0.0
 11
100.9181882195
 21
160.2221505142
 31
0.0
  0
LINE
  5
65
330
1F
100
AcDbEntity
  8
0
  6
Continuous
 62
     7
370
    15
100
AcDbLine
 10
100.9181882195
 20
157.0021504428
 30
0.0
 11
101.1433596663
 21
156.6121502671
 31
0.0
  0
LINE
  5
66
330
1F
100
AcDbEntity
  8
0
  6
Continuous
 62
     7
370
    15
100
AcDbLine
 10
101.1433596663
 20
156.6121502671
 30
0.0
 11
102.0181919388
 21
156.6121502671
 31
0.0
  0
LINE
  5
67
330
1F
100
AcDbEntity
  8
0
  6
Continuous
 62
     7
370
    15
100
AcDbLine
 10
107.7181915692
 20
156.6121502671
 30
0.0
 11
110.1681883387
 21
156.6121502671
 31
0.0
  0
LINE
  5
68
330
1F
100
AcDbEntity
  8
0
  6
Continuous
 62
     7
370
    15
100
AcDbLine
 10
110.1681883387
 20
160.6121504571
 30
0.0
 11
107.7181915692
 21
160.6121504571
 31
0.0
  0
LINE
  5
69
330
1F
100
AcDbEntity
  8
0
  6
Continuous
 62
     7
370
    15
100
AcDbLine
 10
102.0181919388
 20
160.6121504571
 30
0.0
 11
101.1433596663
 21
160.6121504571
 31
0.0
  0
LINE
  5
6A
330
1F
100
AcDbEntity
  8
0
  6
Continuous
 62
     7
370
    15
100
AcDbLine
 10
110.1681883387
 20
156.6121502671
 30
0.0
 11
110.9181935839
 21
157.36215039
 31
0.0
  0
LINE
  5
6B
330
1F
100
AcDbEntity
  8
0
  6
Continuous
 62
     7
370
    15
100
AcDbLine
 10
110.9181935839
 20
159.8621503342
 30
0.0
 11
110.1681883387
 21
160.6121504571
 31
0.0
  0
ARC
  5
6C
330
1F
100
AcDbEntity
  8
0
  6
Continuous
 62
     7
370
    15
100
AcDbCircle
 10
126.3681912116
 20
147.0121504012
 30
0.0
 40
0.1499999999999915
100
AcDbArc
 50
180.0
 51
270.0
  0
ARC
  5
6D
330
1F
100
AcDbEntity
  8
0
  6
Continuous
 62
     7
370
    15
100
AcDbCircle
 10
126.3681912116
 20
152.2121504012
 30
0.0
 40
0.1500000000000057
100
AcDbArc
 50
90.0
 51
180.0
  0
LINE
  5
6E
330
1F
100
AcDbEntity
  8
0
  6
Continuous
 62
     7
370
    15
100
AcDbLine
 10
126.3681906215
 20
146.8621509973
 30
0.0
 11
129.2181904368
 21
146.8621509973
 31
0.0
  0
LINE
  5
6F
330
1F
100
AcDbEntity
  8
0
  6
Continuous
 62
     7
370
    15
100
AcDbLine
 10
129.2181904368
 20
152.3621500361
 30
0.0
 11
126.3681906215
 21
152.3621500361
 31
0.0
  0
ARC
  5
70
330
1F
100
AcDbEntity
  8
0
  6
Continuous
 62
     7
370
    15
100
AcDbCircle
 10
126.3681912116
 20
174.0121504012
 30
0.0
 40
0.1500000000000057
100
AcDbArc
 50
180.0
 51
270.0
  0
ARC
  5
71
330
1F
100
AcDbEntity
  8
0
  6
Continuous
 62
     7
370
    15
100
AcDbCircle
 10
126.3681912116
 20
179.2121504012
 30
0.0
 40
0.1499999999999773
100
AcDbArc
 50
90.0
 51
180.0
  0
LINE
  5
72
330
1F
100
AcDbEntity
  8
0
  6
Continuous
 62
     7
370
    15
100
AcDbLine
 10
126.3681906215
 20
173.8621507663
 30
0.0
 11
129.2181904368
 21
173.8621507663
 31
0.0
  0
LINE
  5
73
330
1F
100
AcDbEntity
  8
0
  6
Continuous
 62
     7
370
    15
100
AcDbLine
 10
129.2181904368
 20
179.3621498052
 30
0.0
 11
126.3681906215
 21
179.3621498052
 31
0.0
  0
LINE
  5
74
330
1F
100
AcDbEntity
  8
0
  6
Continuous
 62
     7
370
    15
100
AcDbLine
 10
111.7181922249
 20
160.6121504571
 30
0.0
 11
110.9181935839
 21
160.6121504571
 31
0.0
  0
LINE
  5
75
330
1F
100
AcDbEntity
  8
0
  6
Continuous
 62
     7
370
    15
100
AcDbLine
 10
110.9181935839
 20
156.6121502671
 30
0.0
 11
111.7181922249
 21
156.6121502671
 31
0.0
  0
LINE
  5
76
330
1F
100
AcDbEntity
  8
0
  6
Continuous
 62
     7
370
    15
100
AcDbLine
 10
161.2181910253
 20
144.2121508423
 30
0.0
 11
161.2181910253
 21
144.1100499484
 31
0.0
  0
LINE
  5
77
330
1F
100
AcDbEntity
  8
0
  6
Continuous
 62
     7
370
    15
100
AcDbLine
 10
169.2181914053
 20
141.7121495012
 30
0.0
 11
169.2181914053
 21
144.2121508423
 31
0.0
  0
LINE
  5
78
330
1F
100
AcDbEntity
  8
0
  6
Continuous
 62
     7
370
    15
100
AcDbLine
 10
111.7181922249
 20
162.6121503775
 30
0.0
 11
111.2181912116
 21
162.6121503775
 31
0.0
  0
LINE
  5
79
330
1F
100
AcDbEntity
  8
0
  6
Continuous
 62
     7
370
    15
100
AcDbLine
 10
111.2181912116
 20
154.6121499393
 30
0.0
 11
111.7181922249
 21
154.6121499393
 31
0.0
  0
LINE
  5
7A
330
1F
100
AcDbEntity
  8
0
  6
Continuous
 62
     7
370
    15
100
AcDbLine
 10
126.2181918077
 20
168.6121503714
 30
0.0
 11
111.7181922249
 21
168.6121503714
 31
0.0
  0
LINE
  5
7B
330
1F
100
AcDbEntity
  8
0
  6
Continuous
 62
     7
370
    15
100
AcDbLine
 10
111.7181922249
 20
148.6121508185
 30
0.0
 11
126.2181918077
 21
148.6121508185
 31
0.0
  0
LINE
  5
7C
330
1F
100
AcDbEntity
  8
0
  6
Continuous
 62
     7
370
    15
100
AcDbLine
 10
93.0181886009
 20
154.6121499393
 30
0.0
 11
93.0181886009
 21
162.6121503775
 31
0.0
  0
LINE
  5
7D
330
1F
100
AcDbEntity
  8
0
  6
Continuous
 62
     7
370
    15
100
AcDbLine
 10
92.1181882671
 20
154.7621506158
 30
0.0
 11
92.1181882671
 21
162.4621503995
 31
0.0
  0
LINE
  5
7E
330
1F
100
AcDbEntity
  8
0
  6
Continuous
 62
     7
370
    15
100
AcDbLine
 10
90.6181926779
 20
154.7621506158
 30
0.0
 11
90.6181926779
 21
162.4621503995
 31
0.0
  0
LINE
  5
7F
330
1F
100
AcDbEntity
  8
0
  6
Continuous
 62
     7
370
    15
100
AcDbLine
 10
114.0181901805
 20
170.6121502336
 30
0.0
 11
114.0181901805
 21
178.6121501479
 31
0.0
  0
LINE
  5
80
330
1F
100
AcDbEntity
  8
0
  6
Continuous
 62
     7
370
    15
100
AcDbLine
 10
113.1181898467
 20
170.7621504444
 30
0.0
 11
113.1181898467
 21
178.4621504027
 31
0.0
  0
LINE
  5
81
330
1F
100
AcDbEntity
  8
0
  6
Continuous
 62
     7
370
    15
100
AcDbLine
 10
111.6181905321
 20
170.7621504444
 30
0.0
 11
111.6181905321
 21
178.4621504027
 31
0.0
  0
SPLINE
  5
82
330
1F
100
AcDbEntity
  8
0
  6
Continuous
 62
     7
370
    15
100
AcDbSpline
210
0.0
220
0.0
230
1.0
 70
     8
 71
     3
 72
    16
 73
    12
 74
     0
 42
0.00000001
 43
0.00000001
 12
1.0
 22
0.0
 32
0.0
 13
1.0
 23
0.0
 33
0.0
 40
0.0
 40
0.0
 40
0.0
 40
0.0
 40
0.1249743526290404
 40
0.2499487434490016
 40
0.3749231539051447
 40
0.4998974192699555
 40
0.5788667847784452
 40
0.6459580050025006
 40
0.75047542687631
 40
0.8751784969940065
 40
1.0
 40
1.0
 40
1.0
 40
1.0
 10
183.0181912458853
 20
156.8121503930298
 30
0.0
 10
183.1752689360345
 20
156.8121479010605
 30
0.0
 10
183.4894243643341
 20
156.8121429171211
 30
0.0
 10
183.9425601440949
 20
156.8121467690509
 30
0.0
 10
184.3601257033499
 20
156.8121304553428
 30
0.0
 10
184.6813660851472
 20
156.8121916771395
 30
0.0
 10
184.9069676173066
 20
156.8120657109109
 30
0.0
 10
185.087286797667
 20
156.811218763063
 30
0.0
 10
185.256791198817
 20
156.812526615824
 30
0.0
 10
185.3915037791558
 20
156.8116759897763
 30
0.0
 10
185.4092923748387
 20
156.8119922085826
 30
0.0
 10
185.4181908942179
 20
156.8121503930298
 30
0.0
  0
SPLINE
  5
83
330
1F
100
AcDbEntity
  8
0
  6
Continuous
 62
     7
370
    15
100
AcDbSpline
210
0.0
220
0.0
230
1.0
 70
     8
 71
     3
 72
    38
 73
    34
 74
     0
 42
0.00000001
 43
0.00000001
 12
1.0
 22
0.0
 32
0.0
 13
1.0
 23
0.0
 33
0.0
 40
0.0
 40
0.0
 40
0.0
 40
0.0
 40
0.2704314985401078
 40
0.370106482582464
 40
0.4492885690874028
 40
0.5079615715145005
 40
0.5461135312458936
 40
0.5601438532495262
 40
0.56373717653516
 40
0.5646781733840794
 40
0.5650096607497833
 40
0.565048868918832
 40
0.5650532253820596
 40
0.5650571858031757
 40
0.5650655026875193
 40
0.5650819420134551
 40
0.565115012122646
 40
0.5651807557096183
 40
0.5653126380301108
 40
0.5655766015087433
 40
0.56610393459192
 40
0.5671591963973032
 40
0.5692691411049229
 40
0.5734895488574347
 40
0.5819299420609442
 40
0.5988107931860897
 40
0.6325699871402377
 40
0.7000696061849675
 40
0.7640002782999775
 40
0.83733941600899
 40
0.8835815504966616
 40
0.9888670070638468
 40
1.0
 40
1.0
 40
1.0
 40
1.0
 10
183.0181912458853
 20
154.4121502790359
 30
0.0
 10
183.3202176746434
 20
154.4434887391396
 30
0.0
 10
183.7335642699848
 20
154.486377852653
 30
0.0
 10
184.1838399181845
 20
154.7078182186993
 30
0.0
 10
184.4060131148237
 20
154.8494765367018
 30
0.0
 10
184.5596335296212
 20
154.970227362893
 30
0.0
 10
184.6510233786103
 20
155.0524524505318
 30
0.0
 10
184.6954657940979
 20
155.0954442999291
 30
0.0
 10
184.710078110462
 20
155.1099358868964
 30
0.0
 10
184.7138979937139
 20
155.1137442055955
 30
0.0
 10
184.7149259168297
 20
155.1147726441343
 30
0.0
 10
184.7152199263345
 20
155.115066609203
 30
0.0
 10
184.7152571741804
 20
155.1151038673309
 30
0.0
 10
184.7152702205401
 20
155.1151168977418
 30
0.0
 10
184.7152926424136
 20
155.115139498332
 30
0.0
 10
184.715338961686
 20
155.1151838012791
 30
0.0
 10
184.7154277357047
 20
155.1152757300088
 30
0.0
 10
184.7156096691293
 20
155.1154554442235
 30
0.0
 10
184.7159707689373
 20
155.1158179969702
 30
0.0
 10
184.7166942269272
 20
155.1165418032513
 30
0.0
 10
184.7181397946138
 20
155.1179911065859
 30
0.0
 10
184.7210286586935
 20
155.1208910530203
 30
0.0
 10
184.7267917511833
 20
155.1267063621945
 30
0.0
 10
184.7382674611282
 20
155.1383861130898
 30
0.0
 10
184.7610155111508
 20
155.161944651083
 30
0.0
 10
184.8056764003994
 20
155.2098569614595
 30
0.0
 10
184.8915839579515
 20
155.3087560171323
 30
0.0
 10
185.0019062884373
 20
155.4553136674795
 30
0.0
 10
185.1212723053231
 20
155.6486162435546
 30
0.0
 10
185.2122364252674
 20
155.8312702781279
 30
0.0
 10
185.3014104583439
 20
156.0635659857505
 30
0.0
 10
185.3621597864539
 20
156.2363199601704
 30
0.0
 10
185.3738961654487
 20
156.3649010444183
 30
0.0
 10
185.375018504949
 20
156.3771971393136
 30
0.0
  0
LINE
  5
84
330
1F
100
AcDbEntity
  8
0
  6
Continuous
 62
     7
370
    15
100
AcDbLine
 10
185.4054150111
 20
156.6834374223
 30
0.0
 11
185.4181908942
 21
156.812150393
 31
0.0
  0
LINE
  5
85
330
1F
100
AcDbEntity
  8
0
  6
Continuous
 62
     7
370
    15
100
AcDbLine
 10
183.0181912459
 20
154.412150279
 30
0.0
 11
183.0181912459
 21
156.812150393
 31
0.0
  0
LINE
  5
86
330
1F
100
AcDbEntity
  8
0
  6
Continuous
 62
     7
370
    15
100
AcDbLine
 10
177.3181911498
 20
154.412150279
 30
0.0
 11
183.0181912459
 21
154.412150279
 31
0.0
  0
LINE
  5
87
330
1F
100
AcDbEntity
  8
0
  6
Continuous
 62
     7
370
    15
100
AcDbLine
 10
177.3181911498
 20
156.812150393
 30
0.0
 11
177.3181911498
 21
154.412150279
 31
0.0
  0
LINE
  5
88
330
1F
100
AcDbEntity
  8
0
  6
Continuous
 62
     7
370
    15
100
AcDbLine
 10
177.3181911498
 20
156.812150393
 30
0.0
 11
183.0181912459
 21
156.812150393
 31
0.0
  0
LINE
  5
89
330
1F
100
AcDbEntity
  8
0
  6
Continuous
 62
     7
370
    15
100
AcDbLine
 10
176.6181911747
 20
181.6121506396
 30
0.0
 11
174.9181912686
 21
181.6121506396
 31
0.0
  0
LINE
  5
8A
330
1F
100
AcDbEntity
  8
0
  6
Continuous
 62
     7
370
    15
100
AcDbLine
 10
176.6181911747
 20
183.6121509675
 30
0.0
 11
176.6181911747
 21
181.6121506396
 31
0.0
  0
LINE
  5
8B
330
1F
100
AcDbEntity
  8
0
  6
Continuous
 62
     7
370
    15
100
AcDbLine
 10
183.0181912459
 20
183.6121509675
 30
0.0
 11
176.6181911747
 21
183.6121509675
 31
0.0
  0
LINE
  5
8C
330
1F
100
AcDbEntity
  8
0
  6
Continuous
 62
     7
370
    15
100
AcDbLine
 10
183.0181912459
 20
156.812150393
 30
0.0
 11
183.0181912459
 21
183.6121509675
 31
0.0
  0
SPLINE
  5
8D
330
1F
100
AcDbEntity
  8
0
  6
Continuous
 62
     7
370
    15
100
AcDbSpline
210
0.0
220
0.0
230
1.0
 70
     8
 71
     3
 72
    11
 73
     7
 74
     0
 42
0.00000001
 43
0.00000001
 12
1.0
 22
0.0
 32
0.0
 13
1.0
 23
0.0
 33
0.0
 40
0.0
 40
0.0
 40
0.0
 40
0.0
 40
0.313361830063607
 40
0.6516791682864347
 40
0.9957126933255874
 40
1.0
 40
1.0
 40
1.0
 40
1.0
 10
176.5181911117749
 20
154.6955508071687
 30
0.0
 10
176.5450414104182
 20
154.9342378485266
 30
0.0
 10
176.6008803116798
 20
155.4306204888798
 30
0.0
 10
176.9265622761031
 20
156.1260652566426
 30
0.0
 10
177.1838769564824
 20
156.5795283670103
 30
0.0
 10
177.3165580447061
 20
156.8093219785486
 30
0.0
 10
177.3181911497728
 20
156.8121503930297
 30
0.0
  0
LINE
  5
8E
330
1F
100
AcDbEntity
  8
0
  6
Continuous
 62
     7
370
    15
100
AcDbLine
 10
176.5181911118
 20
148.6121508185
 30
0.0
 11
176.5181911118
 21
154.6955508072
 31
0.0
  0
LINE
  5
8F
330
1F
100
AcDbEntity
  8
0
  6
Continuous
 62
     7
370
    15
100
AcDbLine
 10
176.5181911118
 20
148.6121508185
 30
0.0
 11
174.9181912686
 21
148.6121508185
 31
0.0
  0
LINE
  5
90
330
1F
100
AcDbEntity
  8
0
  6
Continuous
 62
     7
370
    15
100
AcDbLine
 10
174.9181912686
 20
181.6121506396
 30
0.0
 11
174.9181912686
 21
148.6121508185
 31
0.0
  0
LINE
  5
91
330
1F
100
AcDbEntity
  8
0
  6
Continuous
 62
     7
370
    15
100
AcDbLine
 10
185.4181908942
 20
156.812150393
 30
0.0
 11
185.4181908942
 21
183.6121509675
 31
0.0
  0
LINE
  5
92
330
1F
100
AcDbEntity
  8
0
  6
Continuous
 62
     7
370
    15
100
AcDbLine
 10
185.4181908942
 20
183.6121509675
 30
0.0
 11
183.0181912459
 21
183.6121509675
 31
0.0
  0
ARC
  5
93
330
1F
100
AcDbEntity
  8
0
  6
Continuous
 62
     7
370
    15
100
AcDbCircle
 10
177.3181912116
 20
153.6121504012
 30
0.0
 40
0.8000000000001535
100
AcDbArc
 50
90.0
 51
179.9999881664
  0
SPLINE
  5
94
330
1F
100
AcDbEntity
  8
0
  6
Continuous
 62
     7
370
    15
100
AcDbSpline
210
0.0
220
0.0
230
1.0
 70
    24
 71
     3
 72
    19
 73
    15
 74
     0
 42
0.00000001
 43
0.00000001
 12
1.0
 22
0.0
 32
0.0
 13
1.0
 23
0.0
 33
0.0
 40
0.0
 40
0.0
 40
0.0
 40
0.0
 40
0.0799584443900318
 40
0.1599189896665925
 40
0.2184579540434895
 40
0.277055915868742
 40
0.3884680631447947
 40
0.499999857415395
 40
0.6111752292948969
 40
0.7222495001665429
 40
0.7807107631223965
 40
0.8392151831335323
 40
0.9195828995779199
 40
1.0
 40
1.0
 40
1.0
 40
1.0
 10
185.4181908942175
 20
192.6121561679748
 30
0.0
 10
185.4181908942175
 20
192.4345251455811
 30
0.0
 10
185.4181908942175
 20
192.0792584335865
 30
0.0
 10
185.4181908942175
 20
191.5438866001186
 30
0.0
 10
185.4181908942175
 20
191.0354324341394
 30
0.0
 10
185.4181908942175
 20
190.4190729853758
 30
0.0
 10
185.4181908942175
 20
189.6161121771401
 30
0.0
 10
185.4181908942176
 20
188.604064926363
 30
0.0
 10
185.4181908942176
 20
187.5448690102691
 30
0.0
 10
185.4181908942176
 20
186.6214615583384
 30
0.0
 10
185.4181908942176
 20
185.8573732772389
 30
0.0
 10
185.4181908942176
 20
185.1893273593414
 30
0.0
 10
185.4181908942176
 20
184.440261340044
 30
0.0
 10
185.4181908942176
 20
183.8882442744404
 30
0.0
 10
185.4181908942176
 20
183.6121509674696
 30
0.0
  0
LINE
  5
95
330
1F
100
AcDbEntity
  8
0
  6
Continuous
 62
     7
370
    15
100
AcDbLine
 10
183.0181912459
 20
183.6121509675
 30
0.0
 11
183.0181912459
 21
192.61215058
 31
0.0
  0
SPLINE
  5
96
330
1F
100
AcDbEntity
  8
0
  6
Continuous
 62
     7
370
    15
100
AcDbSpline
210
0.0
220
0.0
230
1.0
 70
     8
 71
     3
 72
    11
 73
     7
 74
     0
 42
0.00000001
 43
0.00000001
 12
1.0
 22
0.0
 32
0.0
 13
1.0
 23
0.0
 33
0.0
 40
0.0
 40
0.0
 40
0.0
 40
0.0
 40
0.2439369313011211
 40
0.4901609097844916
 40
0.7437767552491739
 40
0.9999999999999999
 40
0.9999999999999999
 40
0.9999999999999999
 40
0.9999999999999999
 10
183.9181915796709
 20
192.4660577330497
 30
0.0
 10
183.8480576438477
 20
192.4879273080397
 30
0.0
 10
183.7071322267469
 20
192.5318714976977
 30
0.0
 10
183.4844928211589
 20
192.5767173737133
 30
0.0
 10
183.2541564962439
 20
192.6065986829075
 30
0.0
 10
183.0971140428112
 20
192.6102936487784
 30
0.0
 10
183.0181912458849
 20
192.6121505800394
 30
0.0
  0
LINE
  5
97
330
1F
100
AcDbEntity
  8
0
  6
Continuous
 62
     7
370
    15
100
AcDbLine
 10
183.9181915797
 20
192.61215058
 30
0.0
 11
183.9181915797
 21
192.466057733
 31
0.0
  0
SPLINE
  5
98
330
1F
100
AcDbEntity
  8
0
  6
Continuous
 62
     7
370
    15
100
AcDbSpline
210
0.0
220
0.0
230
1.0
 70
     8
 71
     3
 72
    20
 73
    16
 74
     0
 42
0.00000001
 43
0.00000001
 12
1.0
 22
0.0
 32
0.0
 13
1.0
 23
0.0
 33
0.0
 40
0.0
 40
0.0
 40
0.0
 40
0.0
 40
0.1153801608846191
 40
0.2314566259948581
 40
0.3502303569646816
 40
0.4702281483815896
 40
0.5350072721056534
 40
0.6000862133843758
 40
0.6662297439409633
 40
0.7328071328665987
 40
0.7862789653006361
 40
0.8400546788765119
 40
0.8948915176547966
 40
0.9501479735040751
 40
0.9999999999999999
 40
0.9999999999999999
 40
0.9999999999999999
 40
0.9999999999999999
 10
185.4181908942175
 20
192.6121543053297
 30
0.0
 10
185.4153079207554
 20
192.6121527319948
 30
0.0
 10
185.4095245754623
 20
192.6121495758303
 30
0.0
 10
185.3588913140024
 20
192.612150857082
 30
0.0
 10
185.271276031906
 20
192.612150502728
 30
0.0
 10
185.1585837790363
 20
192.6121505905262
 30
0.0
 10
185.039950215503
 20
192.6121505779638
 30
0.0
 10
184.9318328575728
 20
192.612150580607
 30
0.0
 10
184.806790322269
 20
192.612150579884
 30
0.0
 10
184.6734294628239
 20
192.6121505800721
 30
0.0
 10
184.5355043356325
 20
192.6121505800314
 30
0.0
 10
184.3957438857927
 20
192.6121505800415
 30
0.0
 10
184.2430016738317
 20
192.6121505800388
 30
0.0
 10
184.0837993787301
 20
192.6121505800395
 30
0.0
 10
183.971468923998
 20
192.6121505800394
 30
0.0
 10
183.9181915796709
 20
192.6121505800394
 30
0.0
  0
LINE
  5
99
330
1F
100
AcDbEntity
  8
0
  6
Continuous
 62
     7
370
    15
100
AcDbLine
 10
176.6181911747
 20
192.61215058
 30
0.0
 11
176.6181911747
 21
183.6121509675
 31
0.0
  0
LINE
  5
9A
330
1F
100
AcDbEntity
  8
0
  6
Continuous
 62
     7
370
    15
100
AcDbLine
 10
183.0181912459
 20
192.61215058
 30
0.0
 11
176.6181911747
 21
192.61215058
 31
0.0
  0
LINE
  5
9B
330
1F
100
AcDbEntity
  8
0
  6
Continuous
 62
     7
370
    15
100
AcDbLine
 10
176.5181911118
 20
148.6121508185
 30
0.0
 11
176.5181911118
 21
146.6121504906
 31
0.0
  0
LINE
  5
9C
330
1F
100
AcDbEntity
  8
0
  6
Continuous
 62
     7
370
    15
100
AcDbLine
 10
176.5181911118
 20
146.6121504906
 30
0.0
 11
174.9181912686
 21
146.6121504906
 31
0.0
  0
LINE
  5
9D
330
1F
100
AcDbEntity
  8
0
  6
Continuous
 62
     7
370
    15
100
AcDbLine
 10
179.2181911818
 20
149.612150051
 30
0.0
 11
179.2181911818
 21
152.3621500361
 31
0.0
  0
LINE
  5
9E
330
1F
100
AcDbEntity
  8
0
  6
Continuous
 62
     7
370
    15
100
AcDbLine
 10
179.2181911818
 20
146.8621509973
 30
0.0
 11
179.2181911818
 21
149.612150051
 31
0.0
  0
LINE
  5
9F
330
1F
100
AcDbEntity
  8
0
  6
Continuous
 62
     7
370
    15
100
AcDbLine
 10
179.5181911379
 20
149.612150051
 30
0.0
 11
179.5181911379
 21
151.8621499542
 31
0.0
  0
LINE
  5
A0
330
1F
100
AcDbEntity
  8
0
  6
Continuous
 62
     7
370
    15
100
AcDbLine
 10
179.5181911379
 20
147.3621501479
 30
0.0
 11
179.5181911379
 21
149.612150051
 31
0.0
  0
SPLINE
  5
A1
330
1F
100
AcDbEntity
  8
0
  6
Continuous
 62
     7
370
    15
100
AcDbSpline
210
0.0
220
0.0
230
1.0
 70
     8
 71
     3
 72
    12
 73
     8
 74
     0
 42
0.00000001
 43
0.00000001
 12
1.0
 22
0.0
 32
0.0
 13
1.0
 23
0.0
 33
0.0
 40
0.0
 40
0.0
 40
0.0
 40
0.0
 40
0.212951723052805
 40
0.4258638829060603
 40
0.6398436607638197
 40
0.8552963691528817
 40
1.0
 40
1.0
 40
1.0
 40
1.0
 10
174.9181912686091
 20
206.8045380417016
 30
0.0
 10
175.0299673312324
 20
206.793503113325
 30
0.0
 10
175.2534986901825
 20
206.7714353066941
 30
0.0
 10
175.5517736280084
 20
206.5996424236957
 30
0.0
 10
175.7782876883907
 20
206.3465343834299
 30
0.0
 10
175.9004384944475
 20
206.0635466374171
 30
0.0
 10
175.9131028958875
 20
205.8752766553313
 30
0.0
 10
175.9181911996912
 20
205.7996335331109
 30
0.0
  0
LINE
  5
A2
330
1F
100
AcDbEntity
  8
0
  6
Continuous
 62
     7
370
    15
100
AcDbLine
 10
173.9181912066
 20
206.8045380417
 30
0.0
 11
174.9181912686
 21
206.8045380417
 31
0.0
  0
LINE
  5
A3
330
1F
100
AcDbEntity
  8
0
  6
Continuous
 62
     7
370
    15
100
AcDbLine
 10
173.9181912066
 20
217.4205946628
 30
0.0
 11
173.9181912066
 21
206.8045380417
 31
0.0
  0
LINE
  5
A4
330
1F
100
AcDbEntity
  8
0
  6
Continuous
 62
     7
370
    15
100
AcDbLine
 10
183.9181915797
 20
217.4205946628
 30
0.0
 11
173.9181912066
 21
217.4205946628
 31
0.0
  0
LINE
  5
A5
330
1F
100
AcDbEntity
  8
0
  6
Continuous
 62
     7
370
    15
100
AcDbLine
 10
183.9181915797
 20
204.8021498028
 30
0.0
 11
175.9181911997
 21
204.8021498028
 31
0.0
  0
LINE
  5
A6
330
1F
100
AcDbEntity
  8
0
  6
Continuous
 62
     7
370
    15
100
AcDbLine
 10
175.9181911997
 20
204.8021498028
 30
0.0
 11
175.9181911997
 21
205.7996335331
 31
0.0
  0
LINE
  5
A7
330
1F
100
AcDbEntity
  8
0
  6
Continuous
 62
     7
370
    15
100
AcDbLine
 10
183.9181915797
 20
204.8021498028
 30
0.0
 11
183.9181915797
 21
217.4205946628
 31
0.0
  0
LINE
  5
A8
330
1F
100
AcDbEntity
  8
0
  6
Continuous
 62
     7
370
    15
100
AcDbLine
 10
176.4181912816
 20
191.1343204681
 30
0.0
 11
176.4181912816
 21
187.9121995423
 31
0.0
  0
LINE
  5
A9
330
1F
100
AcDbEntity
  8
0
  6
Continuous
 62
     7
370
    15
100
AcDbLine
 10
175.9181911997
 20
191.1343204681
 30
0.0
 11
176.4181912816
 21
191.1343204681
 31
0.0
  0
LINE
  5
AA
330
1F
100
AcDbEntity
  8
0
  6
Continuous
 62
     7
370
    15
100
AcDbLine
 10
176.6181911747
 20
187.9121995423
 30
0.0
 11
176.4181912816
 21
187.9121995423
 31
0.0
  0
LINE
  5
AB
330
1F
100
AcDbEntity
  8
0
  6
Continuous
 62
     7
370
    15
100
AcDbLine
 10
175.9181911997
 20
204.8021498028
 30
0.0
 11
175.9181911997
 21
191.1343204681
 31
0.0
  0
LINE
  5
AC
330
1F
100
AcDbEntity
  8
0
  6
Continuous
 62
     7
370
    15
100
AcDbLine
 10
183.9181915797
 20
192.61215058
 30
0.0
 11
183.9181915797
 21
204.8021498028
 31
0.0
  0
LINE
  5
AD
330
1F
100
AcDbEntity
  8
0
  6
Continuous
 62
     7
370
    15
100
AcDbLine
 10
175.9181911997
 20
181.6121506396
 30
0.0
 11
175.9181911997
 21
191.1343204681
 31
0.0
  0
LINE
  5
AE
330
1F
100
AcDbEntity
  8
0
  6
Continuous
 62
     7
370
    15
100
AcDbLine
 10
183.9181915797
 20
217.7121507827
 30
0.0
 11
173.9181912066
 21
217.7121507827
 31
0.0
  0
LINE
  5
AF
330
1F
100
AcDbEntity
  8
0
  6
Continuous
 62
     7
370
    15
100
AcDbLine
 10
173.9181912066
 20
217.7121507827
 30
0.0
 11
173.9181912066
 21
217.4205946628
 31
0.0
  0
LINE
  5
B0
330
1F
100
AcDbEntity
  8
0
  6
Continuous
 62
     7
370
    15
100
AcDbLine
 10
183.9181915797
 20
217.4205946628
 30
0.0
 11
183.9181915797
 21
217.7121507827
 31
0.0
  0
LINE
  5
B1
330
1F
100
AcDbEntity
  8
0
  6
Continuous
 62
     7
370
    15
100
AcDbLine
 10
100.9181882195
 20
157.0021504428
 30
0.0
 11
100.9181882195
 21
160.2221505142
 31
0.0
  0
LINE
  5
B2
330
1F
100
AcDbEntity
  8
0
  6
Continuous
 62
     7
370
    15
100
AcDbLine
 10
101.1433596663
 20
156.6121502671
 30
0.0
 11
101.1433596663
 21
160.6121504571
 31
0.0
  0
LINE
  5
B3
330
1F
100
AcDbEntity
  8
0
  6
Continuous
 62
     7
370
    15
100
AcDbLine
 10
110.1681883387
 20
156.6121502671
 30
0.0
 11
110.1681883387
 21
160.6121504571
 31
0.0
  0
LINE
  5
B4
330
1F
100
AcDbEntity
  8
0
  6
Continuous
 62
     7
370
    15
100
AcDbLine
 10
110.9181935839
 20
157.3637140807
 30
0.0
 11
110.9181935839
 21
159.8605868764
 31
0.0
  0
LINE
  5
B5
330
1F
100
AcDbEntity
  8
0
  6
Continuous
 62
     7
370
    15
100
AcDbLine
 10
126.2181918077
 20
147.0121498111
 30
0.0
 11
126.2181918077
 21
152.212150291
 31
0.0
  0
LINE
  5
B6
330
1F
100
AcDbEntity
  8
0
  6
Continuous
 62
     7
370
    15
100
AcDbLine
 10
126.2181918077
 20
174.0121505115
 30
0.0
 11
126.2181918077
 21
179.2121509913
 31
0.0
  0
LINE
  5
B7
330
1F
100
AcDbEntity
  8
0
  6
Continuous
 62
     7
370
    15
100
AcDbLine
 10
105.2181939534
 20
155.1121500212
 30
0.0
 11
102.3307959489
 21
155.1121500212
 31
0.0
  0
SPLINE
  5
B8
330
1F
100
AcDbEntity
  8
0
  6
Continuous
 62
     7
370
    15
100
AcDbSpline
210
0.0
220
0.0
230
1.0
 70
     8
 71
     3
 72
    10
 73
     6
 74
     0
 42
0.00000001
 43
0.00000001
 12
1.0
 22
0.0
 32
0.0
 13
1.0
 23
0.0
 33
0.0
 40
0.0
 40
0.0
 40
0.0
 40
0.0
 40
0.0700362528189455
 40
0.5307569207574331
 40
1.0
 40
1.0
 40
1.0
 40
1.0
 10
102.0181919387893
 20
156.8621503080923
 30
0.0
 10
102.0185642426184
 20
156.8207014886822
 30
0.0
 10
102.0213856790314
 20
156.5065891986369
 30
0.0
 10
102.089657848522
 20
155.9143155055862
 30
0.0
 10
102.2499270004269
 20
155.3811671492535
 30
0.0
 10
102.3307959488944
 20
155.112150021245
 30
0.0
  0
SPLINE
  5
B9
330
1F
100
AcDbEntity
  8
0
  6
Continuous
 62
     7
370
    15
100
AcDbSpline
210
0.0
220
0.0
230
1.0
 70
     8
 71
     3
 72
     9
 73
     5
 74
     0
 42
0.00000001
 43
0.00000001
 12
1.0
 22
0.0
 32
0.0
 13
1.0
 23
0.0
 33
0.0
 40
0.0
 40
0.0
 40
0.0
 40
0.0
 40
0.4954578422127281
 40
1.0
 40
1.0
 40
1.0
 40
1.0
 10
102.3307959488944
 20
158.6121505949397
 30
0.0
 10
102.2434238954273
 20
158.3279428021262
 30
0.0
 10
102.0670778049569
 20
157.7543162115284
 30
0.0
 10
102.034585617274
 20
157.1613345534084
 30
0.0
 10
102.0181919387893
 20
156.8621503080923
 30
0.0
  0
LINE
  5
BA
330
1F
100
AcDbEntity
  8
0
  6
Continuous
 62
     7
370
    15
100
AcDbLine
 10
105.2181939534
 20
158.6121505949
 30
0.0
 11
102.3307959489
 21
158.6121505949
 31
0.0
  0
SPLINE
  5
BB
330
1F
100
AcDbEntity
  8
0
  6
Continuous
 62
     7
370
    15
100
AcDbSpline
210
0.0
220
0.0
230
1.0
 70
     8
 71
     3
 72
    10
 73
     6
 74
     0
 42
0.00000001
 43
0.00000001
 12
1.0
 22
0.0
 32
0.0
 13
1.0
 23
0.0
 33
0.0
 40
0.0
 40
0.0
 40
0.0
 40
0.0
 40
0.0700365914175321
 40
0.5307571199293314
 40
1.0
 40
1.0
 40
1.0
 40
1.0
 10
102.0181919387892
 20
160.3621504161257
 30
0.0
 10
102.0185642405876
 20
160.3207015296704
 30
0.0
 10
102.0213856490295
 20
160.0065901322699
 30
0.0
 10
102.0896578379144
 20
159.4143149178223
 30
0.0
 10
102.2499270001135
 20
158.8811673226458
 30
0.0
 10
102.3307959488944
 20
158.6121505949397
 30
0.0
  0
LINE
  5
BC
330
1F
100
AcDbEntity
  8
0
  6
Continuous
 62
     7
370
    15
100
AcDbLine
 10
102.0181919388
 20
160.3621504161
 30
0.0
 11
102.0181919388
 21
156.8621503081
 31
0.0
  0
SPLINE
  5
BD
330
1F
100
AcDbEntity
  8
0
  6
Continuous
 62
     7
370
    15
100
AcDbSpline
210
0.0
220
0.0
230
1.0
 70
     8
 71
     3
 72
    11
 73
     7
 74
     0
 42
0.00000001
 43
0.00000001
 12
1.0
 22
0.0
 32
0.0
 13
1.0
 23
0.0
 33
0.0
 40
0.0
 40
0.0
 40
0.0
 40
0.0
 40
0.2472679285379604
 40
0.4953623799002153
 40
0.74687384517116
 40
1.0
 40
1.0
 40
1.0
 40
1.0
 10
102.3307959488943
 20
162.1121503537271
 30
0.0
 10
102.2861137366987
 20
161.9708906109425
 30
0.0
 10
102.1965999566329
 20
161.687898947674
 30
0.0
 10
102.0983553299434
 20
161.2535842195906
 30
0.0
 10
102.03103835605
 20
160.8110037199596
 30
0.0
 10
102.0224832025209
 20
160.5120869987928
 30
0.0
 10
102.0181919387892
 20
160.3621504161257
 30
0.0
  0
LINE
  5
BE
330
1F
100
AcDbEntity
  8
0
  6
Continuous
 62
     7
370
    15
100
AcDbLine
 10
105.2181939534
 20
162.1121503537
 30
0.0
 11
102.3307959489
 21
162.1121503537
 31
0.0
  0
SPLINE
  5
BF
330
1F
100
AcDbEntity
  8
0
  6
Continuous
 62
     7
370
    15
100
AcDbSpline
210
0.0
220
0.0
230
1.0
 70
    24
 71
     3
 72
    10
 73
     6
 74
     0
 42
0.00000001
 43
0.00000001
 12
1.0
 22
0.0
 32
0.0
 13
1.0
 23
0.0
 33
0.0
 40
0.0
 40
0.0
 40
0.0
 40
0.0
 40
0.2684068207404545
 40
0.6323733358689111
 40
1.0
 40
1.0
 40
1.0
 40
1.0
 10
102.0181919387892
 20
162.1121503537271
 30
0.0
 10
102.0232695794106
 20
162.1121503537271
 30
0.0
 10
102.0352326306074
 20
162.1121503537271
 30
0.0
 10
102.1380237646966
 20
162.1121503537271
 30
0.0
 10
102.2663245918315
 20
162.1121503537271
 30
0.0
 10
102.3307959488944
 20
162.1121503537271
 30
0.0
  0
LINE
  5
C0
330
1F
100
AcDbEntity
  8
0
  6
Continuous
 62
     7
370
    15
100
AcDbLine
 10
102.0181919388
 20
162.1121503537
 30
0.0
 11
102.0181919388
 21
160.3621504161
 31
0.0
  0
SPLINE
  5
C1
330
1F
100
AcDbEntity
  8
0
  6
Continuous
 62
     7
370
    15
100
AcDbSpline
210
0.0
220
0.0
230
1.0
 70
    24
 71
     3
 72
    10
 73
     6
 74
     0
 42
0.00000001
 43
0.00000001
 12
1.0
 22
0.0
 32
0.0
 13
1.0
 23
0.0
 33
0.0
 40
0.0
 40
0.0
 40
0.0
 40
0.0
 40
0.2684068207404545
 40
0.6323733358689111
 40
1.0
 40
1.0
 40
1.0
 40
1.0
 10
102.0181919387893
 20
155.112150021245
 30
0.0
 10
102.0232695794107
 20
155.112150021245
 30
0.0
 10
102.0352326306074
 20
155.112150021245
 30
0.0
 10
102.1380237646967
 20
155.112150021245
 30
0.0
 10
102.2663245918315
 20
155.112150021245
 30
0.0
 10
102.3307959488944
 20
155.112150021245
 30
0.0
  0
LINE
  5
C2
330
1F
100
AcDbEntity
  8
0
  6
Continuous
 62
     7
370
    15
100
AcDbLine
 10
102.0181919388
 20
155.1121500212
 30
0.0
 11
102.0181919388
 21
156.8621503081
 31
0.0
  0
LINE
  5
C3
330
1F
100
AcDbEntity
  8
0
  6
Continuous
 62
     7
370
    15
100
AcDbLine
 10
110.9181935839
 20
156.6121502671
 30
0.0
 11
110.9181935839
 21
157.36215039
 31
0.0
  0
LINE
  5
C4
330
1F
100
AcDbEntity
  8
0
  6
Continuous
 62
     7
370
    15
100
AcDbLine
 10
110.9181935839
 20
159.8621503342
 30
0.0
 11
110.9181935839
 21
160.6121504571
 31
0.0
  0
LINE
  5
C5
330
1F
100
AcDbEntity
  8
0
  6
Continuous
 62
     7
370
    15
100
AcDbLine
 10
173.2181911879
 20
144.2121508423
 30
0.0
 11
173.2181911879
 21
145.6121503267
 31
0.0
  0
LINE
  5
C6
330
1F
100
AcDbEntity
  8
0
  6
Continuous
 62
     7
370
    15
100
AcDbLine
 10
173.2181911879
 20
144.2121508423
 30
0.0
 11
157.218191301
 21
144.2121508423
 31
0.0
  0
LINE
  5
C7
330
1F
100
AcDbEntity
  8
0
  6
Continuous
 62
     7
370
    15
100
AcDbLine
 10
157.218191301
 20
144.2121508423
 30
0.0
 11
157.218191301
 21
145.6121503267
 31
0.0
  0
LINE
  5
C8
330
1F
100
AcDbEntity
  8
0
  6
Continuous
 62
     7
370
    15
100
AcDbLine
 10
172.2936771051
 20
145.6121503267
 30
0.0
 11
158.1427049763
 21
145.6121503267
 31
0.0
  0
LINE
  5
C9
330
1F
100
AcDbEntity
  8
0
  6
Continuous
 62
     7
370
    15
100
AcDbLine
 10
169.2181914053
 20
141.7121495012
 30
0.0
 11
168.7181913234
 21
141.7121495012
 31
0.0
  0
LINE
  5
CA
330
1F
100
AcDbEntity
  8
0
  6
Continuous
 62
     7
370
    15
100
AcDbLine
 10
167.7181911595
 20
141.61005047
 30
0.0
 11
167.7181911595
 21
144.1100499484
 31
0.0
  0
LINE
  5
CB
330
1F
100
AcDbEntity
  8
0
  6
Continuous
 62
     7
370
    15
100
AcDbLine
 10
167.7181911595
 20
144.1100499484
 30
0.0
 11
168.7181913234
 21
144.1100499484
 31
0.0
  0
LINE
  5
CC
330
1F
100
AcDbEntity
  8
0
  6
Continuous
 62
     7
370
    15
100
AcDbLine
 10
168.7181913234
 20
144.1100499484
 30
0.0
 11
168.7181913234
 21
141.6121496711
 31
0.0
  0
LINE
  5
CD
330
1F
100
AcDbEntity
  8
0
  6
Continuous
 62
     7
370
    15
100
AcDbLine
 10
156.6216438017
 20
144.1100499484
 30
0.0
 11
156.6216438017
 21
141.61005047
 31
0.0
  0
LINE
  5
CE
330
1F
100
AcDbEntity
  8
0
  6
Continuous
 62
     7
370
    15
100
AcDbLine
 10
156.6216438017
 20
144.1100499484
 30
0.0
 11
167.7181911595
 21
144.1100499484
 31
0.0
  0
LINE
  5
CF
330
1F
100
AcDbEntity
  8
0
  6
Continuous
 62
     7
370
    15
100
AcDbLine
 10
156.6216438017
 20
141.61005047
 30
0.0
 11
167.7181911595
 21
141.61005047
 31
0.0
  0
LINE
  5
D0
330
1F
100
AcDbEntity
  8
0
  6
Continuous
 62
     7
370
    15
100
AcDbLine
 10
152.09683915
 20
142.4916460071
 30
0.0
 11
153.0736680082
 21
140.1903833154
 31
0.0
  0
LINE
  5
D1
330
1F
100
AcDbEntity
  8
0
  6
Continuous
 62
     7
370
    15
100
AcDbLine
 10
152.09683915
 20
142.4916460071
 30
0.0
 11
155.2540841452
 21
143.8318173293
 31
0.0
  0
LINE
  5
D2
330
1F
100
AcDbEntity
  8
0
  6
Continuous
 62
     7
370
    15
100
AcDbLine
 10
156.2309130035
 20
141.5305546377
 30
0.0
 11
155.2540841452
 21
143.8318173293
 31
0.0
  0
LINE
  5
D3
330
1F
100
AcDbEntity
  8
0
  6
Continuous
 62
     7
370
    15
100
AcDbLine
 10
153.0736680082
 20
140.1903833154
 30
0.0
 11
156.2309130035
 21
141.5305546377
 31
0.0
  0
ARC
  5
D4
330
1F
100
AcDbEntity
  8
0
  6
Continuous
 62
     7
370
    15
100
AcDbCircle
 10
156.621643511
 20
140.6100496661
 30
0.0
 40
3.5
100
AcDbArc
 50
90.0
 51
113.0
  0
ARC
  5
D5
330
1F
100
AcDbEntity
  8
0
  6
Continuous
 62
     7
370
    15
100
AcDbCircle
 10
156.621643511
 20
140.6100496661
 30
0.0
 40
1.000000000000002
100
AcDbArc
 50
90.0
 51
113.0
  0
ARC
  5
D6
330
1F
100
AcDbEntity
  8
0
  6
Continuous
 62
     7
370
    15
100
AcDbCircle
 10
151.7061081636
 20
143.4121504012
 30
0.0
 40
1.000000000000002
100
AcDbArc
 50
270.0
 51
293.0
  0
LINE
  5
D7
330
1F
100
AcDbEntity
  8
0
  6
Continuous
 62
     7
370
    15
100
AcDbLine
 10
151.7061083517
 20
139.9121506963
 30
0.0
 11
151.7061083517
 21
142.4121501747
 31
0.0
  0
ARC
  5
D8
330
1F
100
AcDbEntity
  8
0
  6
Continuous
 62
     7
370
    15
100
AcDbCircle
 10
151.7061081636
 20
143.4121504012
 30
0.0
 40
3.5
100
AcDbArc
 50
270.0
 51
293.0
  0
LINE
  5
D9
330
1F
100
AcDbEntity
  8
0
  6
Continuous
 62
     7
370
    15
100
AcDbLine
 10
108.7181935958
 20
142.4121501747
 30
0.0
 11
108.7181935958
 21
139.9121506963
 31
0.0
  0
LINE
  5
DA
330
1F
100
AcDbEntity
  8
0
  6
Continuous
 62
     7
370
    15
100
AcDbLine
 10
108.7181935958
 20
139.9121506963
 30
0.0
 11
151.7061083517
 21
139.9121506963
 31
0.0
  0
LINE
  5
DB
330
1F
100
AcDbEntity
  8
0
  6
Continuous
 62
     7
370
    15
100
AcDbLine
 10
108.7181935958
 20
142.4121501747
 30
0.0
 11
151.7061083517
 21
142.4121501747
 31
0.0
  0
ARC
  5
DC
330
1F
100
AcDbEntity
  8
0
  6
Continuous
 62
     7
370
    15
100
AcDbCircle
 10
108.7181912116
 20
143.4121504012
 30
0.0
 40
3.500000000000028
100
AcDbArc
 50
180.0
 51
270.0
  0
LINE
  5
DD
330
1F
100
AcDbEntity
  8
0
  6
Continuous
 62
     7
370
    15
100
AcDbLine
 10
105.2181939534
 20
158.6121505949
 30
0.0
 11
105.2181939534
 21
143.4121503386
 31
0.0
  0
LINE
  5
DE
330
1F
100
AcDbEntity
  8
0
  6
Continuous
 62
     7
370
    15
100
AcDbLine
 10
107.7181915692
 20
158.6121505949
 30
0.0
 11
105.2181939534
 21
158.6121505949
 31
0.0
  0
ARC
  5
DF
330
1F
100
AcDbEntity
  8
0
  6
Continuous
 62
     7
370
    15
100
AcDbCircle
 10
108.7181912116
 20
143.4121504012
 30
0.0
 40
1.0
100
AcDbArc
 50
180.0
 51
270.0
  0
LINE
  5
E0
330
1F
100
AcDbEntity
  8
0
  6
Continuous
 62
     7
370
    15
100
AcDbLine
 10
107.7181915692
 20
158.6121505949
 30
0.0
 11
107.7181915692
 21
143.4121503386
 31
0.0
  0
LINE
  5
E1
330
1F
100
AcDbEntity
  8
0
  6
Continuous
 62
     7
370
    15
100
AcDbLine
 10
107.7181915692
 20
168.6121503714
 30
0.0
 11
105.2181939534
 21
168.6121503714
 31
0.0
  0
LINE
  5
E2
330
1F
100
AcDbEntity
  8
0
  6
Continuous
 62
     7
370
    15
100
AcDbLine
 10
105.2181939534
 20
158.6121505949
 30
0.0
 11
105.2181939534
 21
168.6121503714
 31
0.0
  0
LINE
  5
E3
330
1F
100
AcDbEntity
  8
0
  6
Continuous
 62
     7
370
    15
100
AcDbLine
 10
107.7181915692
 20
158.6121505949
 30
0.0
 11
107.7181915692
 21
168.6121503714
 31
0.0
  0
LINE
  5
E4
330
1F
100
AcDbEntity
  8
0
  6
Continuous
 62
     7
370
    15
100
AcDbLine
 10
161.9181907676
 20
140.4121498469
 30
0.0
 11
161.9181907676
 21
141.61005047
 31
0.0
  0
LINE
  5
E5
330
1F
100
AcDbEntity
  8
0
  6
Continuous
 62
     7
370
    15
100
AcDbLine
 10
162.9181909315
 20
141.6121496711
 30
0.0
 11
162.9181909315
 21
140.4121498469
 31
0.0
  0
LINE
  5
E6
330
1F
100
AcDbEntity
  8
0
  6
Continuous
 62
     7
370
    15
100
AcDbLine
 10
162.9181909315
 20
140.4121498469
 30
0.0
 11
161.9181907676
 21
140.4121498469
 31
0.0
  0
LINE
  5
E7
330
1F
100
AcDbEntity
  8
0
  6
Continuous
 62
     7
370
    15
100
AcDbLine
 10
172.7181911641
 20
140.4121498469
 30
0.0
 11
172.7181911641
 21
141.6121496711
 31
0.0
  0
LINE
  5
E8
330
1F
100
AcDbEntity
  8
0
  6
Continuous
 62
     7
370
    15
100
AcDbLine
 10
162.9181909315
 20
140.4121498469
 30
0.0
 11
172.7181911641
 21
140.4121498469
 31
0.0
  0
LINE
  5
E9
330
1F
100
AcDbEntity
  8
0
  6
Continuous
 62
     7
370
    15
100
AcDbLine
 10
162.9181909315
 20
141.6121496711
 30
0.0
 11
172.7181911641
 21
141.6121496711
 31
0.0
  0
ARC
  5
EA
330
1F
100
AcDbEntity
  8
0
  6
Continuous
 62
     7
370
    15
100
AcDbCircle
 10
172.7181912116
 20
142.6121504012
 30
0.0
 40
2.200000000000017
100
AcDbArc
 50
270.0
 51
0.0
  0
LINE
  5
EB
330
1F
100
AcDbEntity
  8
0
  6
Continuous
 62
     7
370
    15
100
AcDbLine
 10
173.7181912116
 20
142.612149835
 30
0.0
 11
174.9181912686
 21
142.612149835
 31
0.0
  0
ARC
  5
EC
330
1F
100
AcDbEntity
  8
0
  6
Continuous
 62
     7
370
    15
100
AcDbCircle
 10
172.7181912116
 20
142.6121504012
 30
0.0
 40
1.0
100
AcDbArc
 50
270.0
 51
0.0
  0
LINE
  5
ED
330
1F
100
AcDbEntity
  8
0
  6
Continuous
 62
     7
370
    15
100
AcDbLine
 10
174.9181912686
 20
176.6121507514
 30
0.0
 11
173.7181912116
 21
176.6121507514
 31
0.0
  0
LINE
  5
EE
330
1F
100
AcDbEntity
  8
0
  6
Continuous
 62
     7
370
    15
100
AcDbLine
 10
173.7181912116
 20
142.612149835
 30
0.0
 11
173.7181912116
 21
176.6121507514
 31
0.0
  0
LINE
  5
EF
330
1F
100
AcDbEntity
  8
0
  6
Continuous
 62
     7
370
    15
100
AcDbLine
 10
174.9181912686
 20
142.612149835
 30
0.0
 11
174.9181912686
 21
176.6121507514
 31
0.0
  0
LINE
  5
F0
330
1F
100
AcDbEntity
  8
0
  6
Continuous
 62
     7
370
    15
100
AcDbLine
 10
173.7181912116
 20
180.6121504757
 30
0.0
 11
174.9181912686
 21
180.6121504757
 31
0.0
  0
LINE
  5
F1
330
1F
100
AcDbEntity
  8
0
  6
Continuous
 62
     7
370
    15
100
AcDbLine
 10
173.7181912116
 20
176.6121507514
 30
0.0
 11
173.7181912116
 21
180.6121504757
 31
0.0
  0
LWPOLYLINE
  5
F2
330
1F
100
AcDbEntity
  8
0
  6
Continuous
 62
     7
370
    15
100
AcDbPolyline
 90
        5
 70
   128
 43
0.0
 10
110.7181901983
 20
155.1121500212
 10
110.9343017391
 20
154.8960403431
 10
111.0911737136
 20
154.7391674373
 10
111.1863101772
 20
154.644031905
 10
111.2181912116
 20
154.6121499393
  0
LINE
  5
F3
330
1F
100
AcDbEntity
  8
0
  6
Continuous
 62
     7
370
    15
100
AcDbLine
 10
108.018189197
 20
155.1121500212
 30
0.0
 11
110.7181901983
 21
155.1121500212
 31
0.0
  0
LINE
  5
F4
330
1F
100
AcDbEntity
  8
0
  6
Continuous
 62
     7
370
    15
100
AcDbLine
 10
108.018189197
 20
162.1121503537
 30
0.0
 11
108.018189197
 21
160.6121504571
 31
0.0
  0
LINE
  5
F5
330
1F
100
AcDbEntity
  8
0
  6
Continuous
 62
     7
370
    15
100
AcDbLine
 10
108.018189197
 20
156.6121502671
 30
0.0
 11
108.018189197
 21
155.1121500212
 31
0.0
  0
LINE
  5
F6
330
1F
100
AcDbEntity
  8
0
  6
Continuous
 62
     7
370
    15
100
AcDbLine
 10
110.7181901983
 20
162.1121503537
 30
0.0
 11
108.018189197
 21
162.1121503537
 31
0.0
  0
LWPOLYLINE
  5
F7
330
1F
100
AcDbEntity
  8
0
  6
Continuous
 62
     7
370
    15
100
AcDbPolyline
 90
        5
 70
   128
 43
0.0
 10
111.2181912116
 20
162.6121503775
 10
111.1863101772
 20
162.5802691685
 10
111.0911737136
 20
162.4851337526
 10
110.9343017391
 20
162.328260614
 10
110.7181901983
 20
162.1121503537
  0
LINE
  5
F8
330
1F
100
AcDbEntity
  8
0
  6
Continuous
 62
     7
370
    15
100
AcDbLine
 10
107.7181915692
 20
162.1121503537
 30
0.0
 11
108.018189197
 21
162.1121503537
 31
0.0
  0
LINE
  5
F9
330
1F
100
AcDbEntity
  8
0
  6
Continuous
 62
     7
370
    15
100
AcDbLine
 10
108.018189197
 20
155.1121500212
 30
0.0
 11
107.7181915692
 21
155.1121500212
 31
0.0
  0
LINE
  5
FA
330
1F
100
AcDbEntity
  8
0
  6
Continuous
 62
     7
370
    15
100
AcDbLine
 10
133.2181910924
 20
176.6121507514
 30
0.0
 11
129.2181904368
 21
176.6121507514
 31
0.0
  0
LINE
  5
FB
330
1F
100
AcDbEntity
  8
0
  6
Continuous
 62
     7
370
    15
100
AcDbLine
 10
133.2181910924
 20
149.612150051
 30
0.0
 11
133.2181910924
 21
176.6121507514
 31
0.0
  0
LINE
  5
FC
330
1F
100
AcDbEntity
  8
0
  6
Continuous
 62
     7
370
    15
100
AcDbLine
 10
129.2181904368
 20
149.612150051
 30
0.0
 11
133.2181910924
 21
149.612150051
 31
0.0
  0
LINE
  5
FD
330
1F
100
AcDbEntity
  8
0
  6
Continuous
 62
     7
370
    15
100
AcDbLine
 10
129.2181904368
 20
149.612150051
 30
0.0
 11
129.2181904368
 21
155.723055255
 31
0.0
  0
LINE
  5
FE
330
1F
100
AcDbEntity
  8
0
  6
Continuous
 62
     7
370
    15
100
AcDbLine
 10
129.2181904368
 20
155.723055255
 30
0.0
 11
126.2181918077
 21
155.723055255
 31
0.0
  0
LINE
  5
FF
330
1F
100
AcDbEntity
  8
0
  6
Continuous
 62
     7
370
    15
100
AcDbLine
 10
126.2181918077
 20
155.723055255
 30
0.0
 11
126.2181918077
 21
170.5012455474
 31
0.0
  0
LINE
  5
100
330
1F
100
AcDbEntity
  8
0
  6
Continuous
 62
     7
370
    15
100
AcDbLine
 10
129.2181904368
 20
170.5012455474
 30
0.0
 11
126.2181918077
 21
170.5012455474
 31
0.0
  0
LINE
  5
101
330
1F
100
AcDbEntity
  8
0
  6
Continuous
 62
     7
370
    15
100
AcDbLine
 10
129.2181904368
 20
170.5012455474
 30
0.0
 11
129.2181904368
 21
176.6121507514
 31
0.0
  0
LINE
  5
102
330
1F
100
AcDbEntity
  8
0
  6
Continuous
 62
     7
370
    15
100
AcDbLine
 10
129.2181904368
 20
180.6121504757
 30
0.0
 11
133.2181910924
 21
180.6121504757
 31
0.0
  0
LINE
  5
103
330
1F
100
AcDbEntity
  8
0
  6
Continuous
 62
     7
370
    15
100
AcDbLine
 10
133.2181910924
 20
180.6121504757
 30
0.0
 11
133.2181910924
 21
176.6121507514
 31
0.0
  0
LINE
  5
104
330
1F
100
AcDbEntity
  8
0
  6
Continuous
 62
     7
370
    15
100
AcDbLine
 10
129.2181904368
 20
176.6121507514
 30
0.0
 11
129.2181904368
 21
180.6121504757
 31
0.0
  0
LINE
  5
105
330
1F
100
AcDbEntity
  8
0
  6
Continuous
 62
     7
370
    15
100
AcDbLine
 10
129.2181904368
 20
152.8114535738
 30
0.0
 11
126.2181918077
 21
152.8114535738
 31
0.0
  0
LINE
  5
106
330
1F
100
AcDbEntity
  8
0
  6
Continuous
 62
     7
370
    15
100
AcDbLine
 10
126.2181918077
 20
155.723055255
 30
0.0
 11
126.2181918077
 21
152.8114535738
 31
0.0
  0
LINE
  5
107
330
1F
100
AcDbEntity
  8
0
  6
Continuous
 62
     7
370
    15
100
AcDbLine
 10
133.2181910924
 20
149.612150051
 30
0.0
 11
133.2181910924
 21
145.6121503267
 31
0.0
  0
LINE
  5
108
330
1F
100
AcDbEntity
  8
0
  6
Continuous
 62
     7
370
    15
100
AcDbLine
 10
133.2181910924
 20
145.6121503267
 30
0.0
 11
129.2181904368
 21
145.6121503267
 31
0.0
  0
LINE
  5
109
330
1F
100
AcDbEntity
  8
0
  6
Continuous
 62
     7
370
    15
100
AcDbLine
 10
129.2181904368
 20
145.6121503267
 30
0.0
 11
129.2181904368
 21
149.612150051
 31
0.0
  0
LINE
  5
10A
330
1F
100
AcDbEntity
  8
0
  6
Continuous
 62
     7
370
    15
100
AcDbLine
 10
129.2181904368
 20
173.4128472287
 30
0.0
 11
126.2181918077
 21
173.4128472287
 31
0.0
  0
LINE
  5
10B
330
1F
100
AcDbEntity
  8
0
  6
Continuous
 62
     7
370
    15
100
AcDbLine
 10
126.2181918077
 20
173.4128472287
 30
0.0
 11
126.2181918077
 21
170.5012455474
 31
0.0
  0
LINE
  5
10C
330
1F
100
AcDbEntity
  8
0
  6
Continuous
 62
     7
370
    15
100
AcDbLine
 10
126.2181918077
 20
152.8114535738
 30
0.0
 11
126.2181918077
 21
152.212150291
 31
0.0
  0
LINE
  5
10D
330
1F
100
AcDbEntity
  8
0
  6
Continuous
 62
     7
370
    15
100
AcDbLine
 10
126.2181918077
 20
174.0121505115
 30
0.0
 11
126.2181918077
 21
173.4128472287
 31
0.0
  0
LINE
  5
10E
330
1F
100
AcDbEntity
  8
0
  6
Continuous
 62
     7
370
    15
100
AcDbLine
 10
111.7181922249
 20
158.6121505949
 30
0.0
 11
111.7181922249
 21
168.6121503714
 31
0.0
  0
LINE
  5
10F
330
1F
100
AcDbEntity
  8
0
  6
Continuous
 62
     7
370
    15
100
AcDbLine
 10
111.7181922249
 20
148.6121508185
 30
0.0
 11
111.7181922249
 21
158.6121505949
 31
0.0
  0
LINE
  5
110
330
1F
100
AcDbEntity
  8
0
  6
Continuous
 62
     7
370
    15
100
AcDbLine
 10
129.2181904368
 20
145.6121503267
 30
0.0
 11
126.2181918077
 21
145.6121503267
 31
0.0
  0
SPLINE
  5
111
330
1F
100
AcDbEntity
  8
0
  6
Continuous
 62
     7
370
    15
100
AcDbSpline
210
0.0
220
0.0
230
1.0
 70
    24
 71
     3
 72
    11
 73
     7
 74
     0
 42
0.00000001
 43
0.00000001
 12
1.0
 22
0.0
 32
0.0
 13
1.0
 23
0.0
 33
0.0
 40
0.0
 40
0.0
 40
0.0
 40
0.0
 40
0.2498872653488049
 40
0.4813594936534186
 40
0.7342505564011219
 40
1.0
 40
1.0
 40
1.0
 40
1.0
 10
126.2181918076592
 20
146.9589712921283
 30
0.0
 10
126.2181918076592
 20
146.7819703619648
 30
0.0
 10
126.2181918076592
 20
146.4410122983325
 30
0.0
 10
126.2181918076592
 20
146.1151972006669
 30
0.0
 10
126.2181918076592
 20
145.8488843181404
 30
0.0
 10
126.2181918076592
 20
145.692355238199
 30
0.0
 10
126.2181918076592
 20
145.612150326719
 30
0.0
  0
LINE
  5
112
330
1F
100
AcDbEntity
  8
0
  6
Continuous
 62
     7
370
    15
100
AcDbLine
 10
129.2181904368
 20
180.6121504757
 30
0.0
 11
126.2181918077
 21
180.6121504757
 31
0.0
  0
SPLINE
  5
113
330
1F
100
AcDbEntity
  8
0
  6
Continuous
 62
     7
370
    15
100
AcDbSpline
210
0.0
220
0.0
230
1.0
 70
    24
 71
     3
 72
    11
 73
     7
 74
     0
 42
0.00000001
 43
0.00000001
 12
1.0
 22
0.0
 32
0.0
 13
1.0
 23
0.0
 33
0.0
 40
0.0
 40
0.0
 40
0.0
 40
0.0
 40
0.340844617403552
 40
0.6559911579449854
 40
0.9362170592523236
 40
1.0
 40
1.0
 40
1.0
 40
1.0
 10
126.2181918076588
 20
180.6121504757307
 30
0.0
 10
126.2181918076588
 20
180.5107244079536
 30
0.0
 10
126.2181918076588
 20
180.3155193196241
 30
0.0
 10
126.2181918076589
 20
179.9592962135427
 30
0.0
 10
126.2181918076588
 20
179.6029707438663
 30
0.0
 10
126.2181918076589
 20
179.341082829334
 30
0.0
 10
126.2181918076588
 20
179.2925259921453
 30
0.0
  0
LINE
  5
114
330
1F
100
AcDbEntity
  8
0
  6
Continuous
 62
     7
370
    15
100
AcDbLine
 10
135.2181914202
 20
176.6121507514
 30
0.0
 11
133.2181910924
 21
176.6121507514
 31
0.0
  0
LINE
  5
115
330
1F
100
AcDbEntity
  8
0
  6
Continuous
 62
     7
370
    15
100
AcDbLine
 10
133.2181910924
 20
149.612150051
 30
0.0
 11
135.2181914202
 21
149.612150051
 31
0.0
  0
LINE
  5
116
330
1F
100
AcDbEntity
  8
0
  6
Continuous
 62
     7
370
    15
100
AcDbLine
 10
135.2181914202
 20
149.612150051
 30
0.0
 11
135.2181914202
 21
176.6121507514
 31
0.0
  0
LINE
  5
117
330
1F
100
AcDbEntity
  8
0
  6
Continuous
 62
     7
370
    15
100
AcDbLine
 10
135.2181914202
 20
145.6121503267
 30
0.0
 11
133.2181910924
 21
145.6121503267
 31
0.0
  0
LINE
  5
118
330
1F
100
AcDbEntity
  8
0
  6
Continuous
 62
     7
370
    15
100
AcDbLine
 10
135.2181914202
 20
149.612150051
 30
0.0
 11
135.2181914202
 21
145.6121503267
 31
0.0
  0
LINE
  5
119
330
1F
100
AcDbEntity
  8
0
  6
Continuous
 62
     7
370
    15
100
AcDbLine
 10
133.2181910924
 20
180.6121504757
 30
0.0
 11
135.2181914202
 21
180.6121504757
 31
0.0
  0
LINE
  5
11A
330
1F
100
AcDbEntity
  8
0
  6
Continuous
 62
     7
370
    15
100
AcDbLine
 10
135.2181914202
 20
180.6121504757
 30
0.0
 11
135.2181914202
 21
176.6121507514
 31
0.0
  0
LINE
  5
11B
330
1F
100
AcDbEntity
  8
0
  6
Continuous
 62
     7
370
    15
100
AcDbLine
 10
135.2181914202
 20
176.1121506694
 30
0.0
 11
135.7181924335
 21
176.1121506694
 31
0.0
  0
LINE
  5
11C
330
1F
100
AcDbEntity
  8
0
  6
Continuous
 62
     7
370
    15
100
AcDbLine
 10
135.2181914202
 20
180.1121513251
 30
0.0
 11
135.7181924335
 21
180.1121513251
 31
0.0
  0
LINE
  5
11D
330
1F
100
AcDbEntity
  8
0
  6
Continuous
 62
     7
370
    15
100
AcDbLine
 10
135.2181914202
 20
150.112150133
 30
0.0
 11
135.7181924335
 21
150.112150133
 31
0.0
  0
LINE
  5
11E
330
1F
100
AcDbEntity
  8
0
  6
Continuous
 62
     7
370
    15
100
AcDbLine
 10
135.2181914202
 20
146.1121494774
 30
0.0
 11
135.7181924335
 21
146.1121494774
 31
0.0
  0
LINE
  5
11F
330
1F
100
AcDbEntity
  8
0
  6
Continuous
 62
     7
370
    15
100
AcDbLine
 10
173.7181912116
 20
176.6121507514
 30
0.0
 11
135.7181924335
 21
176.6121507514
 31
0.0
  0
LINE
  5
120
330
1F
100
AcDbEntity
  8
0
  6
Continuous
 62
     7
370
    15
100
AcDbLine
 10
173.7181912116
 20
149.612150051
 30
0.0
 11
173.7181912116
 21
176.6121507514
 31
0.0
  0
LINE
  5
121
330
1F
100
AcDbEntity
  8
0
  6
Continuous
 62
     7
370
    15
100
AcDbLine
 10
135.7181924335
 20
149.612150051
 30
0.0
 11
173.7181912116
 21
149.612150051
 31
0.0
  0
LINE
  5
122
330
1F
100
AcDbEntity
  8
0
  6
Continuous
 62
     7
370
    15
100
AcDbLine
 10
135.7181924335
 20
149.612150051
 30
0.0
 11
135.7181924335
 21
176.6121507514
 31
0.0
  0
LINE
  5
123
330
1F
100
AcDbEntity
  8
0
  6
Continuous
 62
     7
370
    15
100
AcDbLine
 10
173.7181912116
 20
145.6121503267
 30
0.0
 11
172.2936771051
 21
145.6121503267
 31
0.0
  0
LINE
  5
124
330
1F
100
AcDbEntity
  8
0
  6
Continuous
 62
     7
370
    15
100
AcDbLine
 10
158.1427049763
 20
145.6121503267
 30
0.0
 11
135.7181924335
 21
145.6121503267
 31
0.0
  0
LINE
  5
125
330
1F
100
AcDbEntity
  8
0
  6
Continuous
 62
     7
370
    15
100
AcDbLine
 10
135.7181924335
 20
145.6121503267
 30
0.0
 11
135.7181924335
 21
149.612150051
 31
0.0
  0
LINE
  5
126
330
1F
100
AcDbEntity
  8
0
  6
Continuous
 62
     7
370
    15
100
AcDbLine
 10
135.7181924335
 20
180.6121504757
 30
0.0
 11
173.7181912116
 21
180.6121504757
 31
0.0
  0
LINE
  5
127
330
1F
100
AcDbEntity
  8
0
  6
Continuous
 62
     7
370
    15
100
AcDbLine
 10
135.7181924335
 20
176.6121507514
 30
0.0
 11
135.7181924335
 21
180.6121504757
 31
0.0
  0
LINE
  5
128
330
1F
100
AcDbEntity
  8
0
  6
Continuous
 62
     8
370
    15
100
AcDbLine
 10
126.3681906215
 20
152.3621500361
 30
0.0
 11
126.3681906215
 21
146.8621509973
 31
0.0
  0
LINE
  5
129
330
1F
100
AcDbEntity
  8
0
  6
Continuous
 62
     8
370
    15
100
AcDbLine
 10
126.3681906215
 20
179.3621498052
 30
0.0
 11
126.3681906215
 21
173.8621507663
 31
0.0
  0
LINE
  5
12A
330
1F
100
AcDbEntity
  8
0
  6
CENTERX2
 62
     7
370
     0
100
AcDbLine
 10
170.9181912116
 20
206.8535823405
 30
0.0
 11
171.9181912116
 21
206.8535823405
 31
0.0
  0
LINE
  5
12B
330
1F
100
AcDbEntity
  8
0
  6
CENTERX2
 62
     7
370
     0
100
AcDbLine
 10
173.9181912116
 20
217.7121504012
 30
0.0
 11
170.9181912116
 21
217.7121504012
 31
0.0
  0
LINE
  5
12C
330
1F
100
AcDbEntity
  8
0
  6
CENTERX2
 62
     7
370
     0
100
AcDbLine
 10
170.9181912116
 20
217.7121504012
 30
0.0
 11
170.9181912116
 21
206.8535823405
 31
0.0
  0
LINE
  5
12D
330
1F
100
AcDbEntity
  8
0
  6
CENTERX2
 62
     7
370
     0
100
AcDbLine
 10
172.9181912116
 20
205.7996326143
 30
0.0
 11
172.9181912116
 21
180.6121504012
 31
0.0
  0
ARC
  5
12E
330
1F
100
AcDbEntity
  8
0
  6
CENTERX2
 62
     7
370
     0
100
AcDbCircle
 10
171.9181912116
 20
205.8522015475
 30
0.0
 40
1.001380793071149
100
AcDbArc
 50
356.9907919325
 51
90.0
  0
SPLINE
  5
12F
330
1F
100
AcDbEntity
  8
0
  6
Continuous
 62
     7
370
     0
100
AcDbSpline
210
0.0
220
0.0
230
1.0
 70
     8
 71
     3
 72
    12
 73
     8
 74
     0
 42
0.00000001
 43
0.00000001
 12
1.0
 22
0.0
 32
0.0
 13
1.0
 23
0.0
 33
0.0
 40
0.0
 40
0.0
 40
0.0
 40
0.0
 40
0.2500000000000024
 40
0.2500000000000024
 40
0.5000000000000048
 40
0.5000000000000048
 40
1.0
 40
1.0
 40
1.0
 40
1.0
 10
174.9181912116121
 20
206.8045394380957
 30
0.0
 10
175.0505649352956
 20
206.8045394380955
 30
0.0
 10
175.1804642544675
 20
206.778162712123
 30
0.0
 10
175.4226858875595
 20
206.676785461968
 30
0.0
 10
175.5335403698328
 20
206.6018273501792
 30
0.0
 10
175.8097283626629
 20
206.3235940813061
 30
0.0
 10
175.9181912116114
 20
206.0640140553979
 30
0.0
 10
175.9181912116094
 20
205.7996326143345
 30
0.0
  0
DIMENSION
  5
130
330
1F
100
AcDbEntity
  8
0
  6
Continuous
 62
     7
370
     0
100
AcDbDimension
  2
_D
 10
170.9181912116
 20
248.7848215326
 30
0.0
 11
172.4181912116
 21
248.7848215326
 31
0.0
 70
   160
  1
Max ストローク   <>
 71
     2
 42
-1.0
  3
SLDDIMSTYLE0
100
AcDbAlignedDimension
 13
173.9181912116
 23
217.7121504012
 33
0.0
 14
170.9181912116
 24
217.7121504012
 34
0.0
100
AcDbRotatedDimension
  0
DIMENSION
  5
148
330
1F
100
AcDbEntity
  8
0
  6
Continuous
 62
     7
370
     0
100
AcDbDimension
  2
_D_1
 10
170.9181912116
 20
248.7848215326
 30
0.0
 11
159.3181912116
 21
248.7848215326
 31
0.0
 70
   160
  1
(<>)
 71
     2
 42
-1.0
  3
SLDDIMSTYLE1
100
AcDbAlignedDimension
 13
147.7181912116
 23
144.4121504012
 33
0.0
 14
170.9181912116
 24
217.7121504012
 34
0.0
 50
0.0
100
AcDbRotatedDimension
  0
DIMENSION
  5
155
330
1F
100
AcDbEntity
  8
0
  6
Continuous
 62
     7
370
     0
100
AcDbDimension
  2
_D_2
 10
185.4181912116
 20
113.4014144267
 30
0.0
 11
138.0181912116
 21
113.4014144267
 31
0.0
 70
   160
  1
(<>)
 71
     2
 42
-1.0
  3
SLDDIMSTYLE1
100
AcDbAlignedDimension
 13
90.6181912116
 23
154.7621504012
 33
0.0
 14
185.4181912116
 24
156.8121504012
 34
0.0
 50
0.0
100
AcDbRotatedDimension
  0
DIMENSION
  5
161
330
1F
100
AcDbEntity
  8
0
  6
Continuous
 62
     7
370
     0
100
AcDbDimension
  2
_D_3
 10
185.4181912116
 20
122.7457292046
 30
0.0
 11
145.3181912116
 21
122.7457292046
 31
0.0
 70
   160
  1
(<>)
 71
     2
 42
-1.0
  3
SLDDIMSTYLE1
100
AcDbAlignedDimension
 13
105.2181912116
 23
143.4121504012
 33
0.0
 14
185.4181912116
 24
156.8121504012
 34
0.0
 50
0.0
100
AcDbRotatedDimension
  0
DIMENSION
  5
16D
330
1F
100
AcDbEntity
  8
0
  6
Continuous
 62
     7
370
     0
100
AcDbDimension
  2
_D_4
 10
85.7340271967
 20
139.9121504012
 30
0.0
 11
85.7340271967
 21
149.2621504012
 31
0.0
 70
   160
  1
<>
 71
     2
 42
-1.0
  3
SLDDIMSTYLE1
100
AcDbAlignedDimension
 13
88.0318169908
 23
158.6121504012
 33
0.0
 14
108.7181912116
 24
139.9121504012
 34
0.0
 50
90.0
100
AcDbRotatedDimension
  0
DIMENSION
  5
177
330
1F
100
AcDbEntity
  8
0
  6
Continuous
 62
     7
370
     0
100
AcDbDimension
  2
_D_5
 10
80.6181912116
 20
139.9121504012
 30
0.0
 11
80.6181912116
 21
157.2621504012
 31
0.0
 70
   160
  1
<>
 71
     2
 42
-1.0
  3
SLDDIMSTYLE1
100
AcDbAlignedDimension
 13
114.7121616508
 23
174.6121504012
 33
0.0
 14
108.7181912116
 24
139.9121504012
 34
0.0
 50
90.0
100
AcDbRotatedDimension
  0
DIMENSION
  5
181
330
1F
100
AcDbEntity
  8
0
  6
Continuous
 62
     7
370
     0
100
AcDbDimension
  2
_D_6
 10
147.7181912116
 20
132.8315774442
 30
0.0
 11
142.7181912116
 21
132.8315774442
 31
0.0
 70
   160
  1
<>
 71
     2
 42
-1.0
  3
SLDDIMSTYLE1
100
AcDbAlignedDimension
 13
137.7181912116
 23
137.9121504012
 33
0.0
 14
147.7181912116
 24
137.9121504012
 34
0.0
 50
0.0
100
AcDbRotatedDimension
  0
DIMENSION
  5
18B
330
1F
100
AcDbEntity
  8
0
  6
Continuous
 62
     7
370
     0
100
AcDbDimension
  2
_D_7
 10
185.4181912116
 20
132.8315774442
 30
0.0
 11
166.5681912116
 21
132.8315774442
 31
0.0
 70
   160
  1
<>
 71
     2
 42
-1.0
  3
SLDDIMSTYLE1
100
AcDbAlignedDimension
 13
147.7181912116
 23
137.9121504012
 33
0.0
 14
185.4181912116
 24
156.8121504012
 34
0.0
 50
0.0
100
AcDbRotatedDimension
  0
DIMENSION
  5
195
330
1F
100
AcDbEntity
  8
0
  6
Continuous
 62
     7
370
     0
100
AcDbDimension
  2
_D_8
 10
185.4181912116
 20
248.7848215326
 30
0.0
 11
191.3072379627
 21
248.7848215326
 31
0.0
 70
   160
  1
<>
 71
     2
 42
-1.0
  3
SLDDIMSTYLE0
100
AcDbAlignedDimension
 13
173.9181912116
 23
217.7121504012
 33
0.0
 14
185.4181912116
 24
192.6121539745
 34
0.0
 50
0.0
100
AcDbRotatedDimension
  0
DIMENSION
  5
1A1
330
1F
100
AcDbEntity
  8
0
  6
Continuous
 62
     7
370
     0
100
AcDbDimension
  2
_D_9
 10
195.7554490215
 20
139.9121504012
 30
0.0
 11
195.7554490215
 21
178.8121504012
 31
0.0
 70
   160
  1
<>
 71
     2
 42
-1.0
  3
SLDDIMSTYLE1
100
AcDbAlignedDimension
 13
183.9181912116
 23
217.7121504012
 33
0.0
 14
151.7061081636
 24
139.9121504012
 34
0.0
 50
90.0
100
AcDbRotatedDimension
  0
MTEXT
  5
1AB
330
1F
100
AcDbEntity
  8
0
  6
Continuous
 62
     7
370
     0
100
AcDbMText
 10
99.4789698143
 20
192.7903101427
 30
0.0
 40
2.9104166667
 41
0.0
 71
     1
 72
     1
  1
KQ2S04-M5N
  7
SLDTEXTSTYLE0
 73
     1
 44
1.0
  0
INSERT
  5
1B6
330
1F
100
AcDbEntity
  8
0
  6
Continuous
 62
     7
370
     0
100
AcDbBlockReference
  2
SW_NOTE_0
 10
123.9155920281
 20
193.4349355217
 30
0.0
  0
LEADER
  5
1B8
330
1F
100
AcDbEntity
  8
0
  6
Continuous
 62
     7
370
     0
100
AcDbLeader
  3
SLDDIMSTYLE2
 76
     2
 10
124.0164363186
 20
176.0324016488
 30
0.0
 10
123.9155920281
 20
193.4349355217
 30
0.0
  0
INSERT
  5
1C3
330
1F
100
AcDbEntity
  8
0
  6
Continuous
 62
     7
370
     0
100
AcDbBlockReference
  2
SW_NOTE_1
 10
80.9816852145
 20
203.9062316854
 30
0.0
  0
INSERT
  5
1C4
330
1F
100
AcDbEntity
  8
0
  6
Continuous
 62
     7
370
     0
100
AcDbBlockReference
  2
_DOT
 10
98.4532263034
 20
162.283264788
 30
1.5883699693
 41
3.0
 42
3.0
 50
269.9689246913
  0
LINE
  5
1C5
330
1F
100
AcDbEntity
  8
0
  6
Continuous
 62
     7
370
     0
100
AcDbLine
 10
98.4532263034
 20
162.283264788
 30
0.0
 11
98.4759671747
 21
204.2122391559
 31
0.0
  0
LINE
  5
1C6
330
1F
100
AcDbEntity
  8
0
  6
CENTERX2
 62
     7
370
     0
100
AcDbLine
 10
97.6509553597
 20
158.6121504012
 30
0.0
 11
88.0318169908
 21
158.6121504012
 31
0.0
  0
LINE
  5
1C7
330
1F
100
AcDbEntity
  8
0
  6
CENTERX2
 62
     7
370
     0
100
AcDbLine
 10
137.7181912116
 20
144.4121504012
 30
0.0
 11
137.7181912116
 21
137.9121504012
 31
0.0
  0
LINE
  5
1C8
330
1F
100
AcDbEntity
  8
0
  6
CENTERX2
 62
     7
370
     0
100
AcDbLine
 10
147.7181912116
 20
137.9121504012
 30
0.0
 11
147.7181912116
 21
144.4121504012
 31
0.0
  0
CIRCLE
  5
1C9
330
1F
100
AcDbEntity
  8
0
  6
Continuous
 62
     7
370
    15
100
AcDbCircle
 10
44.5632303995
 20
158.6121504012
 30
0.0
 40
2.049999999999983
  0
CIRCLE
  5
1CA
330
1F
100
AcDbEntity
  8
0
  6
Continuous
 62
     7
370
    15
100
AcDbCircle
 10
44.5632303995
 20
158.6121504012
 30
0.0
 40
3.850000000000001
  0
CIRCLE
  5
1CB
330
1F
100
AcDbEntity
  8
0
  6
Continuous
 62
     7
370
    15
100
AcDbCircle
 10
44.5632303995
 20
158.6121504012
 30
0.0
 40
4.0
  0
LINE
  5
1CC
330
1F
100
AcDbEntity
  8
0
  6
Continuous
 62
     7
370
    15
100
AcDbLine
 10
45.7179309265
 20
158.6121505949
 30
0.0
 11
45.140580663
 21
159.6121502932
 31
0.0
  0
LINE
  5
1CD
330
1F
100
AcDbEntity
  8
0
  6
Continuous
 62
     7
370
    15
100
AcDbLine
 10
43.9858801361
 20
159.6121502932
 30
0.0
 11
45.140580663
 21
159.6121502932
 31
0.0
  0
LINE
  5
1CE
330
1F
100
AcDbEntity
  8
0
  6
Continuous
 62
     7
370
    15
100
AcDbLine
 10
43.9858801361
 20
159.6121502932
 30
0.0
 11
43.4085298726
 21
158.6121505949
 31
0.0
  0
LINE
  5
1CF
330
1F
100
AcDbEntity
  8
0
  6
Continuous
 62
     7
370
    15
100
AcDbLine
 10
43.4085298726
 20
158.6121505949
 30
0.0
 11
43.9858801361
 21
157.612150431
 31
0.0
  0
LINE
  5
1D0
330
1F
100
AcDbEntity
  8
0
  6
Continuous
 62
     7
370
    15
100
AcDbLine
 10
43.9858801361
 20
157.612150431
 30
0.0
 11
45.140580663
 21
157.612150431
 31
0.0
  0
LINE
  5
1D1
330
1F
100
AcDbEntity
  8
0
  6
Continuous
 62
     7
370
    15
100
AcDbLine
 10
45.140580663
 20
157.612150431
 30
0.0
 11
45.7179309265
 21
158.6121505949
 31
0.0
  0
CIRCLE
  5
1D2
330
1F
100
AcDbEntity
  8
0
  6
Continuous
 62
     7
370
    15
100
AcDbCircle
 10
44.5632303995
 20
174.6121504012
 30
0.0
 40
2.050000000000011
  0
CIRCLE
  5
1D3
330
1F
100
AcDbEntity
  8
0
  6
Continuous
 62
     7
370
    15
100
AcDbCircle
 10
44.5632303995
 20
174.6121504012
 30
0.0
 40
3.850000000000001
  0
CIRCLE
  5
1D4
330
1F
100
AcDbEntity
  8
0
  6
Continuous
 62
     7
370
    15
100
AcDbCircle
 10
44.5632303995
 20
174.6121504012
 30
0.0
 40
4.0
  0
LINE
  5
1D5
330
1F
100
AcDbEntity
  8
0
  6
Continuous
 62
     7
370
    15
100
AcDbLine
 10
45.7179309265
 20
174.6121504236
 30
0.0
 11
45.140580663
 21
175.6121505875
 31
0.0
  0
LINE
  5
1D6
330
1F
100
AcDbEntity
  8
0
  6
Continuous
 62
     7
370
    15
100
AcDbLine
 10
43.9858801361
 20
175.6121505875
 30
0.0
 11
45.140580663
 21
175.6121505875
 31
0.0
  0
LINE
  5
1D7
330
1F
100
AcDbEntity
  8
0
  6
Continuous
 62
     7
370
    15
100
AcDbLine
 10
43.9858801361
 20
175.6121505875
 30
0.0
 11
43.4085298726
 21
174.6121504236
 31
0.0
  0
LINE
  5
1D8
330
1F
100
AcDbEntity
  8
0
  6
Continuous
 62
     7
370
    15
100
AcDbLine
 10
43.4085298726
 20
174.6121504236
 30
0.0
 11
43.9858801361
 21
173.6121502597
 31
0.0
  0
LINE
  5
1D9
330
1F
100
AcDbEntity
  8
0
  6
Continuous
 62
     7
370
    15
100
AcDbLine
 10
43.9858801361
 20
173.6121502597
 30
0.0
 11
45.140580663
 21
173.6121502597
 31
0.0
  0
LINE
  5
1DA
330
1F
100
AcDbEntity
  8
0
  6
Continuous
 62
     7
370
    15
100
AcDbLine
 10
45.140580663
 20
173.6121502597
 30
0.0
 11
45.7179309265
 21
174.6121504236
 31
0.0
  0
LINE
  5
1DB
330
1F
100
AcDbEntity
  8
0
  6
Continuous
 62
     7
370
    15
100
AcDbLine
 10
39.2038391834
 20
215.3578641716
 30
0.0
 11
41.0632302915
 21
217.7121507827
 31
0.0
  0
ARC
  5
1DC
330
1F
100
AcDbEntity
  8
0
  6
Continuous
 62
     7
370
    15
100
AcDbCircle
 10
41.5581254197
 20
213.498472801
 30
0.0
 40
2.999999999995296
100
AcDbArc
 50
141.6986810876
 51
186.6986810876
  0
LINE
  5
1DD
330
1F
100
AcDbEntity
  8
0
  6
Continuous
 62
     7
370
    15
100
AcDbLine
 10
39.2501892452
 20
207.4304724935
 30
0.0
 11
38.5786055518
 21
213.148528606
 31
0.0
  0
LINE
  5
1DE
330
1F
100
AcDbEntity
  8
0
  6
Continuous
 62
     7
370
    15
100
AcDbLine
 10
33.9208080364
 20
206.8045380417
 30
0.0
 11
39.2501892452
 21
207.4304724935
 31
0.0
  0
ARC
  5
1DF
330
1F
100
AcDbEntity
  8
0
  6
Continuous
 62
     7
370
    15
100
AcDbCircle
 10
48.9186800876
 20
206.5518685249
 30
0.0
 40
14.99999999999286
100
AcDbArc
 50
133.5659310597
 51
179.0348225569
  0
LINE
  5
1E0
330
1F
100
AcDbEntity
  8
0
  6
Continuous
 62
     7
370
    15
100
AcDbLine
 10
41.0632302915
 20
217.7121507827
 30
0.0
 11
38.5808477109
 21
217.4205946628
 31
0.0
  0
ARC
  5
1E1
330
1F
100
AcDbEntity
  8
0
  6
Continuous
 62
     7
370
    15
100
AcDbCircle
 10
47.5683353794
 20
213.498472801
 30
0.0
 40
2.999999999994686
100
AcDbArc
 50
353.3013189124
 51
38.3013189124
  0
LINE
  5
1E2
330
1F
100
AcDbEntity
  8
0
  6
Continuous
 62
     7
370
    15
100
AcDbLine
 10
48.0632305076
 20
217.7121507827
 30
0.0
 11
49.9226216157
 21
215.3578641716
 31
0.0
  0
ARC
  5
1E3
330
1F
100
AcDbEntity
  8
0
  6
Continuous
 62
     7
370
    15
100
AcDbCircle
 10
40.2077807115
 20
206.5518685249
 30
0.0
 40
14.99999999999343
100
AcDbArc
 50
0.9651774431
 51
46.4340689403
  0
LINE
  5
1E4
330
1F
100
AcDbEntity
  8
0
  6
Continuous
 62
     7
370
    15
100
AcDbLine
 10
49.8762715538
 20
207.4304724935
 30
0.0
 11
55.2056527627
 21
206.8045380417
 31
0.0
  0
LINE
  5
1E5
330
1F
100
AcDbEntity
  8
0
  6
Continuous
 62
     7
370
    15
100
AcDbLine
 10
50.5478552473
 20
213.148528606
 30
0.0
 11
49.8762715538
 21
207.4304724935
 31
0.0
  0
LINE
  5
1E6
330
1F
100
AcDbEntity
  8
0
  6
Continuous
 62
     7
370
    15
100
AcDbLine
 10
48.0632305076
 20
217.7121507827
 30
0.0
 11
50.5456130882
 21
217.4205946628
 31
0.0
  0
LINE
  5
1E7
330
1F
100
AcDbEntity
  8
0
  6
Continuous
 62
     7
370
    15
100
AcDbLine
 10
39.3668369321
 20
206.4372989241
 30
0.0
 11
33.9375541476
 21
205.7996335331
 31
0.0
  0
LWPOLYLINE
  5
1E8
330
1F
100
AcDbEntity
  8
0
  6
Continuous
 62
     7
370
    15
100
AcDbPolyline
 90
        9
 70
   128
 43
0.0
 10
39.2501892452
 20
207.4304724935
 10
39.252430473
 20
207.4113915566
 10
39.2590684747
 20
207.3548714522
 10
39.2698480678
 20
207.2630952004
 10
39.2843543482
 20
207.1395794753
 10
39.3020308507
 20
206.9890777472
 10
39.3221977097
 20
206.8173716668
 10
39.3440800649
 20
206.6310587231
 10
39.3668369321
 20
206.4372989241
  0
SPLINE
  5
1E9
330
1F
100
AcDbEntity
  8
0
  6
Continuous
 62
     7
370
    15
100
AcDbSpline
210
0.0
220
0.0
230
1.0
 70
     8
 71
     3
 72
    12
 73
     8
 74
     0
 42
0.00000001
 43
0.00000001
 12
1.0
 22
0.0
 32
0.0
 13
1.0
 23
0.0
 33
0.0
 40
0.0
 40
0.0
 40
0.0
 40
0.0
 40
0.2153673171009353
 40
0.4307135325960248
 40
0.6464883869132994
 40
0.8616290267493947
 40
1.0
 40
1.0
 40
1.0
 40
1.0
 10
33.9375541475944
 20
205.7996335331109
 30
0.0
 10
33.93264940800495
 20
205.9125658993524
 30
0.0
 10
33.92284040939052
 20
206.1384195667661
 30
0.0
 10
33.91839517609787
 20
206.4400232313255
 30
0.0
 10
33.91873908594437
 20
206.667916169412
 30
0.0
 10
33.9205198251279
 20
206.7877402462433
 30
0.0
 10
33.92072695997584
 20
206.7998126715206
 30
0.0
 10
33.92080803638024
 20
206.8045380417016
 30
0.0
  0
LINE
  5
1EA
330
1F
100
AcDbEntity
  8
0
  6
Continuous
 62
     7
370
    15
100
AcDbLine
 10
55.1889066515
 20
205.7996335331
 30
0.0
 11
49.759623867
 21
206.4372989241
 31
0.0
  0
LWPOLYLINE
  5
1EB
330
1F
100
AcDbEntity
  8
0
  6
Continuous
 62
     7
370
    15
100
AcDbPolyline
 90
        9
 70
   128
 43
0.0
 10
49.8762715538
 20
207.4304724935
 10
49.8740303261
 20
207.4113915566
 10
49.8673923244
 20
207.3548714522
 10
49.8566127313
 20
207.2630952004
 10
49.8421064508
 20
207.1395794753
 10
49.8244299484
 20
206.9890777472
 10
49.8042630894
 20
206.8173716668
 10
49.7823807341
 20
206.6310587231
 10
49.759623867
 20
206.4372989241
  0
SPLINE
  5
1EC
330
1F
100
AcDbEntity
  8
0
  6
Continuous
 62
     7
370
    15
100
AcDbSpline
210
0.0
220
0.0
230
1.0
 70
     8
 71
     3
 72
    12
 73
     8
 74
     0
 42
0.00000001
 43
0.00000001
 12
1.0
 22
0.0
 32
0.0
 13
1.0
 23
0.0
 33
0.0
 40
0.0
 40
0.0
 40
0.0
 40
0.0
 40
0.212951723052805
 40
0.4258638829060603
 40
0.6398436607638197
 40
0.8552963691528817
 40
1.0
 40
1.0
 40
1.0
 40
1.0
 10
55.20565276270433
 20
206.8045380417016
 30
0.0
 10
55.20585813098266
 20
206.793503113325
 30
0.0
 10
55.20626882938499
 20
206.7714353066941
 30
0.0
 10
55.20823712639505
 20
206.5996424236957
 30
0.0
 10
55.20723062116921
 20
206.3465343834299
 30
0.0
 10
55.20096155968134
 20
206.0635466374171
 30
0.0
 10
55.19236184518378
 20
205.8752766553313
 30
0.0
 10
55.18890665149016
 20
205.7996335331109
 30
0.0
  0
LINE
  5
1ED
330
1F
100
AcDbEntity
  8
0
  6
Continuous
 62
     7
370
    15
100
AcDbLine
 10
56.9632307557
 20
181.6121506396
 30
0.0
 11
56.9632307557
 21
179.8121499721
 31
0.0
  0
LINE
  5
1EE
330
1F
100
AcDbEntity
  8
0
  6
Continuous
 62
     7
370
    15
100
AcDbLine
 10
58.5632308317
 20
181.6121506396
 30
0.0
 11
56.9632307557
 21
181.6121506396
 31
0.0
  0
LINE
  5
1EF
330
1F
100
AcDbEntity
  8
0
  6
Continuous
 62
     7
370
    15
100
AcDbLine
 10
58.5632308317
 20
181.6121506396
 30
0.0
 11
58.5632308317
 21
176.6121507514
 31
0.0
  0
LINE
  5
1F0
330
1F
100
AcDbEntity
  8
0
  6
Continuous
 62
     7
370
    15
100
AcDbLine
 10
32.1632300434
 20
181.6121506396
 30
0.0
 11
30.5632299674
 21
181.6121506396
 31
0.0
  0
LINE
  5
1F1
330
1F
100
AcDbEntity
  8
0
  6
Continuous
 62
     7
370
    15
100
AcDbLine
 10
32.1632300434
 20
179.8121499721
 30
0.0
 11
32.1632300434
 21
181.6121506396
 31
0.0
  0
LINE
  5
1F2
330
1F
100
AcDbEntity
  8
0
  6
Continuous
 62
     7
370
    15
100
AcDbLine
 10
30.5632299674
 20
181.6121506396
 30
0.0
 11
30.5632299674
 21
176.6121507514
 31
0.0
  0
ARC
  5
1F3
330
1F
100
AcDbEntity
  8
0
  6
Continuous
 62
     7
370
    15
100
AcDbCircle
 10
42.8132303995
 20
202.8097204012
 30
0.0
 40
2.999999999993856
100
AcDbArc
 50
187.486310591
 51
269.0372090899
  0
LINE
  5
1F4
330
1F
100
AcDbEntity
  8
0
  6
Continuous
 62
     7
370
    15
100
AcDbLine
 10
42.8962600814
 20
198.674177647
 30
0.0
 11
42.7628211142
 21
199.8101453189
 31
0.0
  0
ARC
  5
1F5
330
1F
100
AcDbEntity
  8
0
  6
Continuous
 62
     7
370
    15
100
AcDbCircle
 10
44.8826003995
 20
198.9075104012
 30
0.0
 40
1.999999999993112
100
AcDbArc
 50
186.6997696167
 51
268.2497696111
  0
ARC
  5
1F6
330
1F
100
AcDbEntity
  8
0
  6
Continuous
 62
     7
370
    15
100
AcDbCircle
 10
44.5632303996
 20
187.9121504012
 30
0.0
 40
8.999999999996081
100
AcDbArc
 50
25.8880562923
 51
88.3554812447
  0
LINE
  5
1F7
330
1F
100
AcDbEntity
  8
0
  6
Continuous
 62
     7
370
    15
100
AcDbLine
 10
53.9791912702
 20
180.6121504757
 30
0.0
 11
52.6600697008
 21
191.8416785899
 31
0.0
  0
ARC
  5
1F8
330
1F
100
AcDbEntity
  8
0
  6
Continuous
 62
     7
370
    15
100
AcDbCircle
 10
44.5632303995
 20
187.9121504012
 30
0.0
 40
8.999999999973817
100
AcDbArc
 50
205.8868175412
 51
234.2046324564
  0
LINE
  5
1F9
330
1F
100
AcDbEntity
  8
0
  6
Continuous
 62
     7
370
    15
100
AcDbLine
 10
34.0210798127
 20
204.8021498028
 30
0.0
 11
36.4663063479
 21
183.9827968631
 31
0.0
  0
CIRCLE
  5
1FA
330
1F
100
AcDbEntity
  8
0
  6
Continuous
 62
     7
370
    15
100
AcDbCircle
 10
44.5632303995
 20
187.9121504012
 30
0.0
 40
5.599999999997344
  0
LINE
  5
1FB
330
1F
100
AcDbEntity
  8
0
  6
Continuous
 62
     7
370
    15
100
AcDbLine
 10
39.8388023419
 20
202.4188506309
 30
0.0
 11
39.3668369321
 21
206.4372989241
 31
0.0
  0
ARC
  5
1FC
330
1F
100
AcDbEntity
  8
0
  6
Continuous
 62
     7
370
    15
100
AcDbCircle
 10
48.9186800876
 20
206.5518685249
 30
0.0
 40
14.99999999999707
100
AcDbArc
 50
182.8745352596
 51
186.6986810876
  0
LINE
  5
1FD
330
1F
100
AcDbEntity
  8
0
  6
Continuous
 62
     7
370
    15
100
AcDbLine
 10
46.3636108139
 20
199.8101453189
 30
0.0
 11
46.1503320071
 21
197.9945431355
 31
0.0
  0
ARC
  5
1FE
330
1F
100
AcDbEntity
  8
0
  6
Continuous
 62
     7
370
    15
100
AcDbCircle
 10
46.3132303995
 20
202.8097204012
 30
0.0
 40
3.000000000000638
100
AcDbArc
 50
270.9622392211
 51
354.0889484138
  0
LINE
  5
1FF
330
1F
100
AcDbEntity
  8
0
  6
Continuous
 62
     7
370
    15
100
AcDbLine
 10
55.1053809864
 20
204.8021498028
 30
0.0
 11
53.5000984487
 21
191.1343204681
 31
0.0
  0
ARC
  5
200
330
1F
100
AcDbEntity
  8
0
  6
Continuous
 62
     7
370
    15
100
AcDbCircle
 10
44.5632303995
 20
187.9121504012
 30
0.0
 40
9.500000000009644
100
AcDbArc
 50
19.826670929
 51
76.2188895635
  0
LINE
  5
201
330
1F
100
AcDbEntity
  8
0
  6
Continuous
 62
     7
370
    15
100
AcDbLine
 10
46.1503320071
 20
197.9945431355
 30
0.0
 11
46.8262564787
 21
197.1386725906
 31
0.0
  0
LINE
  5
202
330
1F
100
AcDbEntity
  8
0
  6
Continuous
 62
     7
370
    15
100
AcDbLine
 10
49.759623867
 20
206.4372989241
 30
0.0
 11
49.2972794851
 21
202.5007660392
 31
0.0
  0
ARC
  5
203
330
1F
100
AcDbEntity
  8
0
  6
Continuous
 62
     7
370
    15
100
AcDbCircle
 10
40.2077807115
 20
206.5518685249
 30
0.0
 40
14.99999999999424
100
AcDbArc
 50
353.3013189124
 51
357.1254647404
  0
ARC
  5
204
330
1F
100
AcDbEntity
  8
0
  6
Continuous
 62
     7
370
    15
100
AcDbCircle
 10
44.5632303995
 20
187.9121504012
 30
0.0
 40
9.499999999961538
100
AcDbArc
 50
199.8253754045
 51
230.2123117176
  0
LINE
  5
205
330
1F
100
AcDbEntity
  8
0
  6
Continuous
 62
     7
370
    15
100
AcDbLine
 10
35.6262887759
 20
184.690181062
 30
0.0
 11
35.1472490398
 21
180.6121504757
 31
0.0
  0
ARC
  5
206
330
1F
100
AcDbEntity
  8
0
  6
Continuous
 62
     7
370
    15
100
AcDbCircle
 10
44.2438403995
 20
198.9075104012
 30
0.0
 40
1.999999999997797
100
AcDbArc
 50
279.1889031773
 51
353.0861185765
  0
LINE
  5
207
330
1F
100
AcDbEntity
  8
0
  6
Continuous
 62
     7
370
    15
100
AcDbLine
 10
53.5000984487
 20
191.1343204681
 30
0.0
 11
53.1216620398
 21
187.9121995423
 31
0.0
  0
CIRCLE
  5
208
330
1F
100
AcDbEntity
  8
0
  6
Continuous
 62
     7
370
    15
100
AcDbCircle
 10
44.5632303995
 20
187.9121504012
 30
0.0
 40
4.000000000001052
  0
CIRCLE
  5
209
330
1F
100
AcDbEntity
  8
0
  6
Continuous
 62
     7
370
    15
100
AcDbCircle
 10
44.5632303995
 20
187.9121504012
 30
0.0
 40
2.900000000002336
  0
LINE
  5
20A
330
1F
100
AcDbEntity
  8
0
  6
Continuous
 62
     7
370
    15
100
AcDbLine
 10
41.8930245028
 20
188.312150434
 30
0.0
 11
43.4318595031
 21
188.312150434
 31
0.0
  0
ARC
  5
20B
330
1F
100
AcDbEntity
  8
0
  6
Continuous
 62
     7
370
    15
100
AcDbCircle
 10
44.5632303995
 20
187.9121504012
 30
0.0
 40
2.699999999999974
100
AcDbArc
 50
8.5196242541
 51
171.4803757459
  0
LINE
  5
20C
330
1F
100
AcDbEntity
  8
0
  6
Continuous
 62
     7
370
    15
100
AcDbLine
 10
45.694601296
 20
188.312150434
 30
0.0
 11
47.2334362963
 21
188.312150434
 31
0.0
  0
ARC
  5
20D
330
1F
100
AcDbEntity
  8
0
  6
Continuous
 62
     7
370
    15
100
AcDbCircle
 10
44.5632303995
 20
187.9121504012
 30
0.0
 40
1.200000000002053
100
AcDbArc
 50
19.4712206347
 51
160.5287793653
  0
LINE
  5
20E
330
1F
100
AcDbEntity
  8
0
  6
Continuous
 62
     7
370
    15
100
AcDbLine
 10
35.6262887759
 20
184.690181062
 30
0.0
 11
36.0047866521
 21
187.9123019878
 31
0.0
  0
LINE
  5
20F
330
1F
100
AcDbEntity
  8
0
  6
Continuous
 62
     7
370
    15
100
AcDbLine
 10
47.2334362963
 20
187.5121499303
 30
0.0
 11
45.694601296
 21
187.5121499303
 31
0.0
  0
LINE
  5
210
330
1F
100
AcDbEntity
  8
0
  6
Continuous
 62
     7
370
    15
100
AcDbLine
 10
43.4318595031
 20
187.5121499303
 30
0.0
 11
41.8930245028
 21
187.5121499303
 31
0.0
  0
ARC
  5
211
330
1F
100
AcDbEntity
  8
0
  6
Continuous
 62
     7
370
    15
100
AcDbCircle
 10
44.5632303995
 20
187.9121504012
 30
0.0
 40
1.200000000002076
100
AcDbArc
 50
199.4712206347
 51
340.5287793653
  0
ARC
  5
212
330
1F
100
AcDbEntity
  8
0
  6
Continuous
 62
     7
370
    15
100
AcDbCircle
 10
44.5632303995
 20
187.9121504012
 30
0.0
 40
2.699999999999967
100
AcDbArc
 50
188.5196242541
 51
351.4803757459
  0
LINE
  5
213
330
1F
100
AcDbEntity
  8
0
  6
Continuous
 62
     7
370
    15
100
AcDbLine
 10
34.8114355398
 20
191.2726479474
 30
0.0
 11
33.8382304577
 21
192.61215058
 31
0.0
  0
ARC
  5
214
330
1F
100
AcDbEntity
  8
0
  6
Continuous
 62
     7
370
    15
100
AcDbCircle
 10
44.5671426132
 20
183.6121504013
 30
0.0
 40
12.40391221365745
100
AcDbArc
 50
141.8598464848
 51
180.0000000001
  0
ARC
  5
215
330
1F
100
AcDbEntity
  8
0
  6
Continuous
 62
     7
370
    15
100
AcDbCircle
 10
44.5671426133
 20
183.6121504012
 30
0.0
 40
14.00391221375815
100
AcDbArc
 50
140.0082313012
 51
180.0
  0
LINE
  5
216
330
1F
100
AcDbEntity
  8
0
  6
Continuous
 62
     7
370
    15
100
AcDbLine
 10
32.1632300434
 20
183.6121509675
 30
0.0
 11
32.1632300434
 21
181.6121506396
 31
0.0
  0
LINE
  5
217
330
1F
100
AcDbEntity
  8
0
  6
Continuous
 62
     7
370
    15
100
AcDbLine
 10
30.5632299674
 20
183.6121509675
 30
0.0
 11
30.5632299674
 21
181.6121506396
 31
0.0
  0
ARC
  5
218
330
1F
100
AcDbEntity
  8
0
  6
Continuous
 62
     7
370
    15
100
AcDbCircle
 10
44.5593181858
 20
183.6121504012
 30
0.0
 40
14.00391221375814
100
AcDbArc
 50
0.0
 51
39.9917686988
  0
ARC
  5
219
330
1F
100
AcDbEntity
  8
0
  6
Continuous
 62
     7
370
    15
100
AcDbCircle
 10
44.5593181859
 20
183.6121504013
 30
0.0
 40
12.40391221365745
100
AcDbArc
 50
359.9999999999
 51
38.1401535152
  0
LINE
  5
21A
330
1F
100
AcDbEntity
  8
0
  6
Continuous
 62
     7
370
    15
100
AcDbLine
 10
55.2882303414
 20
192.61215058
 30
0.0
 11
54.3150252593
 21
191.2726479474
 31
0.0
  0
LINE
  5
21B
330
1F
100
AcDbEntity
  8
0
  6
Continuous
 62
     7
370
    15
100
AcDbLine
 10
58.5632308317
 20
183.6121509675
 30
0.0
 11
58.5632308317
 21
181.6121506396
 31
0.0
  0
LINE
  5
21C
330
1F
100
AcDbEntity
  8
0
  6
Continuous
 62
     7
370
    15
100
AcDbLine
 10
56.9632307557
 20
181.6121506396
 30
0.0
 11
56.9632307557
 21
183.6121509675
 31
0.0
  0
ARC
  5
21D
330
1F
100
AcDbEntity
  8
0
  6
Continuous
 62
     7
370
    15
100
AcDbCircle
 10
44.5632303995
 20
187.9121504012
 30
0.0
 40
1.200000000002076
100
AcDbArc
 50
160.5287793658
 51
199.4712206347
  0
ARC
  5
21E
330
1F
100
AcDbEntity
  8
0
  6
Continuous
 62
     7
370
    15
100
AcDbCircle
 10
44.5632303995
 20
187.9121504012
 30
0.0
 40
2.700000000000063
100
AcDbArc
 50
171.4803757459
 51
188.5196242541
  0
ARC
  5
21F
330
1F
100
AcDbEntity
  8
0
  6
Continuous
 62
     7
370
    15
100
AcDbCircle
 10
44.5632303995
 20
187.9121504012
 30
0.0
 40
1.200000000002053
100
AcDbArc
 50
340.5287793658
 51
19.4712206347
  0
ARC
  5
220
330
1F
100
AcDbEntity
  8
0
  6
Continuous
 62
     7
370
    15
100
AcDbCircle
 10
44.5632303995
 20
187.9121504012
 30
0.0
 40
2.700000000000049
100
AcDbArc
 50
351.4803757459
 51
8.5196242541
  0
ARC
  5
221
330
1F
100
AcDbEntity
  8
0
  6
Continuous
 62
     7
370
    15
100
AcDbCircle
 10
44.5671426133
 20
183.6121504012
 30
0.0
 40
13.82877175984995
100
AcDbArc
 50
139.3967701093
 51
140.1893379
  0
ARC
  5
222
330
1F
100
AcDbEntity
  8
0
  6
Continuous
 62
     7
370
    15
100
AcDbCircle
 10
44.5593181858
 20
183.6121504012
 30
0.0
 40
13.82877175985309
100
AcDbArc
 50
39.8106621
 51
40.6032298907
  0
LINE
  5
223
330
1F
100
AcDbEntity
  8
0
  6
Continuous
 62
     7
370
    15
100
AcDbLine
 10
35.4527917621
 20
192.61215058
 30
0.0
 11
34.0678601456
 21
192.61215058
 31
0.0
  0
LINE
  5
224
330
1F
100
AcDbEntity
  8
0
  6
Continuous
 62
     7
370
    15
100
AcDbLine
 10
55.0586006535
 20
192.61215058
 30
0.0
 11
53.673669037
 21
192.61215058
 31
0.0
  0
LINE
  5
225
330
1F
100
AcDbEntity
  8
0
  6
Continuous
 62
     7
370
    15
100
AcDbLine
 10
55.1881578681
 20
158.3516294028
 30
0.0
 11
54.8513115314
 21
159.4561057988
 31
0.0
  0
LINE
  5
226
330
1F
100
AcDbEntity
  8
0
  6
Continuous
 62
     7
370
    15
100
AcDbLine
 10
53.7263846887
 20
159.7166267581
 30
0.0
 11
54.8513115314
 21
159.4561057988
 31
0.0
  0
LINE
  5
227
330
1F
100
AcDbEntity
  8
0
  6
Continuous
 62
     7
370
    15
100
AcDbLine
 10
52.93830232
 20
158.8726713214
 30
0.0
 11
53.7263846887
 21
159.7166267581
 31
0.0
  0
LINE
  5
228
330
1F
100
AcDbEntity
  8
0
  6
Continuous
 62
     7
370
    15
100
AcDbLine
 10
52.93830232
 20
158.8726713214
 30
0.0
 11
53.2751486567
 21
157.7681949254
 31
0.0
  0
LINE
  5
229
330
1F
100
AcDbEntity
  8
0
  6
Continuous
 62
     7
370
    15
100
AcDbLine
 10
54.4000764308
 20
157.5076741989
 30
0.0
 11
53.2751486567
 21
157.7681949254
 31
0.0
  0
LINE
  5
22A
330
1F
100
AcDbEntity
  8
0
  6
Continuous
 62
     7
370
    15
100
AcDbLine
 10
54.4000764308
 20
157.5076741989
 30
0.0
 11
55.1881578681
 21
158.3516294028
 31
0.0
  0
CIRCLE
  5
22B
330
1F
100
AcDbEntity
  8
0
  6
Continuous
 62
     7
370
    15
100
AcDbCircle
 10
54.0632303995
 20
158.6121504012
 30
0.0
 40
1.61000000000001
  0
CIRCLE
  5
22C
330
1F
100
AcDbEntity
  8
0
  6
Continuous
 62
     7
370
    15
100
AcDbCircle
 10
54.0632303995
 20
158.6121504012
 30
0.0
 40
2.000000000000003
  0
ARC
  5
22D
330
1F
100
AcDbEntity
  8
0
  6
Continuous
 62
     7
370
    15
100
AcDbCircle
 10
34.5632303995
 20
149.6121504012
 30
0.0
 40
2.750000000000004
100
AcDbArc
 50
137.8110212786
 51
194.7779030418
  0
CIRCLE
  5
22E
330
1F
100
AcDbEntity
  8
0
  6
Continuous
 62
     7
370
    15
100
AcDbCircle
 10
54.5632303995
 20
176.6121504012
 30
0.0
 40
2.600000000000024
  0
LINE
  5
22F
330
1F
100
AcDbEntity
  8
0
  6
Continuous
 62
     7
370
    15
100
AcDbLine
 10
53.0969577772
 20
176.4261972982
 30
0.0
 11
53.9911336196
 21
175.2493445653
 31
0.0
  0
LINE
  5
230
330
1F
100
AcDbEntity
  8
0
  6
Continuous
 62
     7
370
    15
100
AcDbLine
 10
53.9911336196
 20
175.2493445653
 30
0.0
 11
55.4574060184
 21
175.4352980185
 31
0.0
  0
LINE
  5
231
330
1F
100
AcDbEntity
  8
0
  6
Continuous
 62
     7
370
    15
100
AcDbLine
 10
56.0295025749
 20
176.7981032733
 30
0.0
 11
55.4574060184
 21
175.4352980185
 31
0.0
  0
LINE
  5
232
330
1F
100
AcDbEntity
  8
0
  6
Continuous
 62
     7
370
    15
100
AcDbLine
 10
55.1353267324
 20
177.9749560062
 30
0.0
 11
56.0295025749
 21
176.7981032733
 31
0.0
  0
LINE
  5
233
330
1F
100
AcDbEntity
  8
0
  6
Continuous
 62
     7
370
    15
100
AcDbLine
 10
55.1353267324
 20
177.9749560062
 30
0.0
 11
53.6690543336
 21
177.7890034843
 31
0.0
  0
LINE
  5
234
330
1F
100
AcDbEntity
  8
0
  6
Continuous
 62
     7
370
    15
100
AcDbLine
 10
53.0969577772
 20
176.4261972982
 30
0.0
 11
53.6690543336
 21
177.7890034843
 31
0.0
  0
CIRCLE
  5
235
330
1F
100
AcDbEntity
  8
0
  6
Continuous
 62
     7
370
    15
100
AcDbCircle
 10
54.5632303995
 20
176.6121504012
 30
0.0
 40
2.750000000000017
  0
ARC
  5
236
330
1F
100
AcDbEntity
  8
0
  6
Continuous
 62
     7
370
    15
100
AcDbCircle
 10
54.5632303995
 20
176.6121504012
 30
0.0
 40
1.280000000000004
100
AcDbArc
 50
97.2276683999
 51
157.2276683999
  0
ARC
  5
237
330
1F
100
AcDbEntity
  8
0
  6
Continuous
 62
     7
370
    15
100
AcDbCircle
 10
54.5632303995
 20
176.6121504012
 30
0.0
 40
1.280000000000004
100
AcDbArc
 50
37.2276683999
 51
97.2276683999
  0
ARC
  5
238
330
1F
100
AcDbEntity
  8
0
  6
Continuous
 62
     7
370
    15
100
AcDbCircle
 10
54.5632303995
 20
176.6121504012
 30
0.0
 40
1.280000000000005
100
AcDbArc
 50
337.2276683999
 51
37.2276683999
  0
ARC
  5
239
330
1F
100
AcDbEntity
  8
0
  6
Continuous
 62
     7
370
    15
100
AcDbCircle
 10
54.5632303995
 20
176.6121504012
 30
0.0
 40
1.280000000000005
100
AcDbArc
 50
277.2276683999
 51
337.2276683999
  0
ARC
  5
23A
330
1F
100
AcDbEntity
  8
0
  6
Continuous
 62
     7
370
    15
100
AcDbCircle
 10
54.5632303995
 20
176.6121504012
 30
0.0
 40
1.280000000000008
100
AcDbArc
 50
217.2276683999
 51
277.2276683999
  0
ARC
  5
23B
330
1F
100
AcDbEntity
  8
0
  6
Continuous
 62
     7
370
    15
100
AcDbCircle
 10
54.5632303995
 20
176.6121504012
 30
0.0
 40
1.280000000000008
100
AcDbArc
 50
157.2276683999
 51
217.2276683999
  0
CIRCLE
  5
23C
330
1F
100
AcDbEntity
  8
0
  6
Continuous
 62
     7
370
    15
100
AcDbCircle
 10
34.5632303995
 20
176.6121504012
 30
0.0
 40
2.600000000000006
  0
LINE
  5
23D
330
1F
100
AcDbEntity
  8
0
  6
Continuous
 62
     7
370
    15
100
AcDbLine
 10
34.4308701274
 20
175.1400724876
 30
0.0
 11
35.7719075797
 21
175.761484437
 31
0.0
  0
LINE
  5
23E
330
1F
100
AcDbEntity
  8
0
  6
Continuous
 62
     7
370
    15
100
AcDbLine
 10
35.7719075797
 20
175.761484437
 30
0.0
 11
35.904267144
 21
177.2335627008
 31
0.0
  0
LINE
  5
23F
330
1F
100
AcDbEntity
  8
0
  6
Continuous
 62
     7
370
    15
100
AcDbLine
 10
34.6955901874
 20
178.0842290152
 30
0.0
 11
35.904267144
 21
177.2335627008
 31
0.0
  0
LINE
  5
240
330
1F
100
AcDbEntity
  8
0
  6
Continuous
 62
     7
370
    15
100
AcDbLine
 10
33.3545536665
 20
177.4628170658
 30
0.0
 11
34.6955901874
 21
178.0842290152
 31
0.0
  0
LINE
  5
241
330
1F
100
AcDbEntity
  8
0
  6
Continuous
 62
     7
370
    15
100
AcDbLine
 10
33.3545536665
 20
177.4628170658
 30
0.0
 11
33.2221931708
 21
175.990738802
 31
0.0
  0
LINE
  5
242
330
1F
100
AcDbEntity
  8
0
  6
Continuous
 62
     7
370
    15
100
AcDbLine
 10
34.4308701274
 20
175.1400724876
 30
0.0
 11
33.2221931708
 21
175.990738802
 31
0.0
  0
CIRCLE
  5
243
330
1F
100
AcDbEntity
  8
0
  6
Continuous
 62
     7
370
    15
100
AcDbCircle
 10
34.5632303995
 20
176.6121504012
 30
0.0
 40
2.750000000000008
  0
ARC
  5
244
330
1F
100
AcDbEntity
  8
0
  6
Continuous
 62
     7
370
    15
100
AcDbCircle
 10
34.5632303995
 20
176.6121504012
 30
0.0
 40
1.280000000000002
100
AcDbArc
 50
114.8621378469
 51
174.8621378469
  0
ARC
  5
245
330
1F
100
AcDbEntity
  8
0
  6
Continuous
 62
     7
370
    15
100
AcDbCircle
 10
34.5632303995
 20
176.6121504012
 30
0.0
 40
1.280000000000004
100
AcDbArc
 50
54.8621378469
 51
114.8621378469
  0
ARC
  5
246
330
1F
100
AcDbEntity
  8
0
  6
Continuous
 62
     7
370
    15
100
AcDbCircle
 10
34.5632303995
 20
176.6121504012
 30
0.0
 40
1.280000000000004
100
AcDbArc
 50
354.8621378469
 51
54.8621378469
  0
ARC
  5
247
330
1F
100
AcDbEntity
  8
0
  6
Continuous
 62
     7
370
    15
100
AcDbCircle
 10
34.5632303995
 20
176.6121504012
 30
0.0
 40
1.280000000000022
100
AcDbArc
 50
294.8621378469
 51
354.8621378469
  0
ARC
  5
248
330
1F
100
AcDbEntity
  8
0
  6
Continuous
 62
     7
370
    15
100
AcDbCircle
 10
34.5632303995
 20
176.6121504012
 30
0.0
 40
1.280000000000022
100
AcDbArc
 50
234.8621378469
 51
294.8621378469
  0
ARC
  5
249
330
1F
100
AcDbEntity
  8
0
  6
Continuous
 62
     7
370
    15
100
AcDbCircle
 10
34.5632303995
 20
176.6121504012
 30
0.0
 40
1.280000000000004
100
AcDbArc
 50
174.8621378469
 51
234.8621378469
  0
ARC
  5
24A
330
1F
100
AcDbEntity
  8
0
  6
Continuous
 62
     7
370
    15
100
AcDbCircle
 10
54.0632303995
 20
158.6121504012
 30
0.0
 40
3.500000000000018
100
AcDbArc
 50
330.0
 51
30.0
  0
ARC
  5
24B
330
1F
100
AcDbEntity
  8
0
  6
Continuous
 62
     7
370
    15
100
AcDbCircle
 10
54.0632303995
 20
158.6121504012
 30
0.0
 40
3.500000000000018
100
AcDbArc
 50
270.0
 51
330.0
  0
ARC
  5
24C
330
1F
100
AcDbEntity
  8
0
  6
Continuous
 62
     7
370
    15
100
AcDbCircle
 10
54.0632303995
 20
158.6121504012
 30
0.0
 40
3.500000000000006
100
AcDbArc
 50
210.0
 51
270.0
  0
ARC
  5
24D
330
1F
100
AcDbEntity
  8
0
  6
Continuous
 62
     7
370
    15
100
AcDbCircle
 10
54.0632303995
 20
158.6121504012
 30
0.0
 40
3.500000000000006
100
AcDbArc
 50
150.0
 51
210.0
  0
ARC
  5
24E
330
1F
100
AcDbEntity
  8
0
  6
Continuous
 62
     7
370
    15
100
AcDbCircle
 10
54.0632303995
 20
158.6121504012
 30
0.0
 40
3.499999999999992
100
AcDbArc
 50
90.0
 51
150.0
  0
ARC
  5
24F
330
1F
100
AcDbEntity
  8
0
  6
Continuous
 62
     7
370
    15
100
AcDbCircle
 10
54.0632303995
 20
158.6121504012
 30
0.0
 40
3.500000000000004
100
AcDbArc
 50
30.0
 51
90.0
  0
SPLINE
  5
250
330
1F
100
AcDbEntity
  8
0
  6
Continuous
 62
     7
370
    15
100
AcDbSpline
210
0.0
220
0.0
230
1.0
 70
    24
 71
     3
 72
    10
 73
     6
 74
     0
 42
0.00000001
 43
0.00000001
 12
1.0
 22
0.0
 32
0.0
 13
1.0
 23
0.0
 33
0.0
 40
0.0
 40
0.0
 40
0.0
 40
0.0
 40
0.2572431768452554
 40
0.6263799428923559
 40
1.0
 40
1.0
 40
1.0
 40
1.0
 10
52.04250457932873
 20
162.1121503537271
 30
0.0
 10
52.21219619849065
 20
162.1121503537271
 30
0.0
 10
52.62539054643597
 20
162.1121503537271
 30
0.0
 10
53.29978056578963
 20
162.1121503537271
 30
0.0
 10
53.80772493143262
 20
162.1121503537271
 30
0.0
 10
54.06323009406848
 20
162.1121503537271
 30
0.0
  0
SPLINE
  5
251
330
1F
100
AcDbEntity
  8
0
  6
Continuous
 62
     7
370
    15
100
AcDbSpline
210
0.0
220
0.0
230
1.0
 70
     8
 71
     3
 72
    10
 73
     6
 74
     0
 42
0.00000001
 43
0.00000001
 12
1.0
 22
0.0
 32
0.0
 13
1.0
 23
0.0
 33
0.0
 40
0.0
 40
0.0
 40
0.0
 40
0.0
 40
0.0700363610398951
 40
0.5307570939997404
 40
1.0
 40
1.0
 40
1.0
 40
1.0
 10
51.03214158912821
 20
160.3621504161257
 30
0.0
 10
51.05607203995164
 20
160.4035993144202
 30
0.0
 10
51.23742435964051
 20
160.7177118194337
 30
0.0
 10
51.57937471114702
 20
161.3099853094711
 30
0.0
 10
51.88718769206584
 20
161.8431334185117
 30
0.0
 10
52.04250457932873
 20
162.1121503537271
 30
0.0
  0
SPLINE
  5
252
330
1F
100
AcDbEntity
  8
0
  6
Continuous
 62
     7
370
    15
100
AcDbSpline
210
0.0
220
0.0
230
1.0
 70
     8
 71
     3
 72
    10
 73
     6
 74
     0
 42
0.00000001
 43
0.00000001
 12
1.0
 22
0.0
 32
0.0
 13
1.0
 23
0.0
 33
0.0
 40
0.0
 40
0.0
 40
0.0
 40
0.0
 40
0.0700365626465201
 40
0.5307571149786066
 40
1.0
 40
1.0
 40
1.0
 40
1.0
 10
51.03214158912821
 20
156.8621503080923
 30
0.0
 10
51.00821097537091
 20
156.9035992795559
 30
0.0
 10
50.82685793579365
 20
157.2177114472803
 30
0.0
 10
50.48490874684944
 20
157.8099857174802
 30
0.0
 10
50.1770955977691
 20
158.3431336848938
 30
0.0
 10
50.02177859892769
 20
158.6121505949397
 30
0.0
  0
SPLINE
  5
253
330
1F
100
AcDbEntity
  8
0
  6
Continuous
 62
     7
370
    15
100
AcDbSpline
210
0.0
220
0.0
230
1.0
 70
     8
 71
     3
 72
     9
 73
     5
 74
     0
 42
0.00000001
 43
0.00000001
 12
1.0
 22
0.0
 32
0.0
 13
1.0
 23
0.0
 33
0.0
 40
0.0
 40
0.0
 40
0.0
 40
0.0
 40
0.4954577454629549
 40
1.0
 40
1.0
 40
1.0
 40
1.0
 10
50.02177859892769
 20
158.6121505949397
 30
0.0
 10
50.18586603560109
 20
158.8963582224037
 30
0.0
 10
50.51704954857669
 20
159.4699845912849
 30
0.0
 10
50.85940752423222
 20
160.0629661590345
 30
0.0
 10
51.03214158912821
 20
160.3621504161257
 30
0.0
  0
SPLINE
  5
254
330
1F
100
AcDbEntity
  8
0
  6
Continuous
 62
     7
370
    15
100
AcDbSpline
210
0.0
220
0.0
230
1.0
 70
     8
 71
     3
 72
    11
 73
     7
 74
     0
 42
0.00000001
 43
0.00000001
 12
1.0
 22
0.0
 32
0.0
 13
1.0
 23
0.0
 33
0.0
 40
0.0
 40
0.0
 40
0.0
 40
0.0
 40
0.2472679285379604
 40
0.4953623799002153
 40
0.74687384517116
 40
1.0
 40
1.0
 40
1.0
 40
1.0
 10
56.08395607446952
 20
162.1121503537271
 30
0.0
 10
56.16551242009727
 20
161.9708906109425
 30
0.0
 10
56.32889772325809
 20
161.687898947674
 30
0.0
 10
56.57964950782415
 20
161.2535842195906
 30
0.0
 10
56.83517363031885
 20
160.8110037199596
 30
0.0
 10
57.00775318555429
 20
160.5120869987928
 30
0.0
 10
57.09431906467004
 20
160.3621504161257
 30
0.0
  0
SPLINE
  5
255
330
1F
100
AcDbEntity
  8
0
  6
Continuous
 62
     7
370
    15
100
AcDbSpline
210
0.0
220
0.0
230
1.0
 70
    24
 71
     3
 72
    10
 73
     6
 74
     0
 42
0.00000001
 43
0.00000001
 12
1.0
 22
0.0
 32
0.0
 13
1.0
 23
0.0
 33
0.0
 40
0.0
 40
0.0
 40
0.0
 40
0.0
 40
0.2684068207404545
 40
0.6323733358689111
 40
1.0
 40
1.0
 40
1.0
 40
1.0
 10
54.06323009406848
 20
162.1121503537271
 30
0.0
 10
54.24674193770652
 20
162.1121503537271
 30
0.0
 10
54.67910053579543
 20
162.1121503537271
 30
0.0
 10
55.35741266995472
 20
162.1121503537271
 30
0.0
 10
55.84096853221015
 20
162.1121503537271
 30
0.0
 10
56.08395607446952
 20
162.1121503537271
 30
0.0
  0
SPLINE
  5
256
330
1F
100
AcDbEntity
  8
0
  6
Continuous
 62
     7
370
    15
100
AcDbSpline
210
0.0
220
0.0
230
1.0
 70
     8
 71
     3
 72
     9
 73
     5
 74
     0
 42
0.00000001
 43
0.00000001
 12
1.0
 22
0.0
 32
0.0
 13
1.0
 23
0.0
 33
0.0
 40
0.0
 40
0.0
 40
0.0
 40
0.0
 40
0.4954578422127281
 40
1.0
 40
1.0
 40
1.0
 40
1.0
 10
58.10468205487056
 20
158.6121505949397
 30
0.0
 10
57.94059463454978
 20
158.3279428021262
 30
0.0
 10
57.60941121925057
 20
157.7543162115284
 30
0.0
 10
57.26705314578982
 20
157.1613345534084
 30
0.0
 10
57.09431906467004
 20
156.8621503080923
 30
0.0
  0
SPLINE
  5
257
330
1F
100
AcDbEntity
  8
0
  6
Continuous
 62
     7
370
    15
100
AcDbSpline
210
0.0
220
0.0
230
1.0
 70
     8
 71
     3
 72
    10
 73
     6
 74
     0
 42
0.00000001
 43
0.00000001
 12
1.0
 22
0.0
 32
0.0
 13
1.0
 23
0.0
 33
0.0
 40
0.0
 40
0.0
 40
0.0
 40
0.0
 40
0.0700365914175321
 40
0.5307571199293314
 40
1.0
 40
1.0
 40
1.0
 40
1.0
 10
57.09431906467004
 20
160.3621504161257
 30
0.0
 10
57.1182498464627
 20
160.3207015296704
 30
0.0
 10
57.2996040866514
 20
160.0065901322699
 30
0.0
 10
57.64155137436136
 20
159.4143149178223
 30
0.0
 10
57.94936487531412
 20
158.8811673226458
 30
0.0
 10
58.10468205487056
 20
158.6121505949397
 30
0.0
  0
SPLINE
  5
258
330
1F
100
AcDbEntity
  8
0
  6
Continuous
 62
     7
370
    15
100
AcDbSpline
210
0.0
220
0.0
230
1.0
 70
    24
 71
     3
 72
    10
 73
     6
 74
     0
 42
0.00000001
 43
0.00000001
 12
1.0
 22
0.0
 32
0.0
 13
1.0
 23
0.0
 33
0.0
 40
0.0
 40
0.0
 40
0.0
 40
0.0
 40
0.2572431768452554
 40
0.6263799428923559
 40
1.0
 40
1.0
 40
1.0
 40
1.0
 10
52.04250457932873
 20
155.112150021245
 30
0.0
 10
52.21219619849065
 20
155.112150021245
 30
0.0
 10
52.62539054643597
 20
155.112150021245
 30
0.0
 10
53.29978056578963
 20
155.112150021245
 30
0.0
 10
53.80772493143262
 20
155.112150021245
 30
0.0
 10
54.06323009406848
 20
155.112150021245
 30
0.0
  0
SPLINE
  5
259
330
1F
100
AcDbEntity
  8
0
  6
Continuous
 62
     7
370
    15
100
AcDbSpline
210
0.0
220
0.0
230
1.0
 70
     8
 71
     3
 72
     9
 73
     5
 74
     0
 42
0.00000001
 43
0.00000001
 12
1.0
 22
0.0
 32
0.0
 13
1.0
 23
0.0
 33
0.0
 40
0.0
 40
0.0
 40
0.0
 40
0.0
 40
0.4954578422127281
 40
1.0
 40
1.0
 40
1.0
 40
1.0
 10
52.04250457932873
 20
155.112150021245
 30
0.0
 10
51.87841715900795
 20
155.3963578140584
 30
0.0
 10
51.54723374370875
 20
155.9699844046563
 30
0.0
 10
51.20487567024799
 20
156.5629660627762
 30
0.0
 10
51.03214158912821
 20
156.8621503080923
 30
0.0
  0
SPLINE
  5
25A
330
1F
100
AcDbEntity
  8
0
  6
Continuous
 62
     7
370
    15
100
AcDbSpline
210
0.0
220
0.0
230
1.0
 70
    24
 71
     3
 72
    10
 73
     6
 74
     0
 42
0.00000001
 43
0.00000001
 12
1.0
 22
0.0
 32
0.0
 13
1.0
 23
0.0
 33
0.0
 40
0.0
 40
0.0
 40
0.0
 40
0.0
 40
0.2684068207404545
 40
0.6323733358689111
 40
1.0
 40
1.0
 40
1.0
 40
1.0
 10
54.06323009406848
 20
155.112150021245
 30
0.0
 10
54.24674193770652
 20
155.112150021245
 30
0.0
 10
54.67910053579543
 20
155.112150021245
 30
0.0
 10
55.35741266995472
 20
155.112150021245
 30
0.0
 10
55.84096853221015
 20
155.112150021245
 30
0.0
 10
56.08395607446952
 20
155.112150021245
 30
0.0
  0
SPLINE
  5
25B
330
1F
100
AcDbEntity
  8
0
  6
Continuous
 62
     7
370
    15
100
AcDbSpline
210
0.0
220
0.0
230
1.0
 70
     8
 71
     3
 72
    10
 73
     6
 74
     0
 42
0.00000001
 43
0.00000001
 12
1.0
 22
0.0
 32
0.0
 13
1.0
 23
0.0
 33
0.0
 40
0.0
 40
0.0
 40
0.0
 40
0.0
 40
0.0700362528189455
 40
0.5307569207574331
 40
1.0
 40
1.0
 40
1.0
 40
1.0
 10
57.09431906467004
 20
156.8621503080923
 30
0.0
 10
57.07038861157591
 20
156.8207014886822
 30
0.0
 10
56.88903605364556
 20
156.5065891986369
 30
0.0
 10
56.5470858781146
 20
155.9143155055862
 30
0.0
 10
56.23927296618802
 20
155.3811671492535
 30
0.0
 10
56.08395607446952
 20
155.112150021245
 30
0.0
  0
ARC
  5
25C
330
1F
100
AcDbEntity
  8
0
  6
Continuous
 62
     7
370
    15
100
AcDbCircle
 10
44.5632303995
 20
158.6121504012
 30
0.0
 40
10.00000000000001
100
AcDbArc
 50
90.0
 51
166.2944621602
  0
LINE
  5
25D
330
1F
100
AcDbEntity
  8
0
  6
Continuous
 62
     7
370
    15
100
AcDbLine
 10
46.5632304945
 20
168.6121503714
 30
0.0
 11
44.5632303995
 21
168.6121503714
 31
0.0
  0
ARC
  5
25E
330
1F
100
AcDbEntity
  8
0
  6
Continuous
 62
     7
370
    15
100
AcDbCircle
 10
46.5632303995
 20
156.6121504012
 30
0.0
 40
12.0
100
AcDbArc
 50
9.5940682269
 51
90.0
  0
LINE
  5
25F
330
1F
100
AcDbEntity
  8
0
  6
Continuous
 62
     7
370
    15
100
AcDbLine
 10
58.3953897399
 20
158.6121505949
 30
0.0
 11
58.5632308317
 21
158.6121505949
 31
0.0
  0
LINE
  5
260
330
1F
100
AcDbEntity
  8
0
  6
Continuous
 62
     7
370
    15
100
AcDbLine
 10
58.5632308317
 20
158.6121505949
 30
0.0
 11
58.5632308317
 21
143.4121503386
 31
0.0
  0
LINE
  5
261
330
1F
100
AcDbEntity
  8
0
  6
Continuous
 62
     7
370
    15
100
AcDbLine
 10
30.5632299674
 20
143.4121503386
 30
0.0
 11
58.5632308317
 21
143.4121503386
 31
0.0
  0
LINE
  5
262
330
1F
100
AcDbEntity
  8
0
  6
Continuous
 62
     7
370
    15
100
AcDbLine
 10
34.2701471341
 20
158.6121505949
 30
0.0
 11
30.5632299674
 21
143.4121503386
 31
0.0
  0
LINE
  5
263
330
1F
100
AcDbEntity
  8
0
  6
Continuous
 62
     7
370
    15
100
AcDbLine
 10
34.8479685304
 20
160.9814708478
 30
0.0
 11
34.2701471341
 21
158.6121505949
 31
0.0
  0
LINE
  5
264
330
1F
100
AcDbEntity
  8
0
  6
Continuous
 62
     7
370
    15
100
AcDbLine
 10
30.5632299674
 20
139.9121506963
 30
0.0
 11
58.5632308317
 21
139.9121506963
 31
0.0
  0
LINE
  5
265
330
1F
100
AcDbEntity
  8
0
  6
Continuous
 62
     7
370
    15
100
AcDbLine
 10
30.5632299674
 20
143.4121503386
 30
0.0
 11
30.5632299674
 21
139.9121506963
 31
0.0
  0
LINE
  5
266
330
1F
100
AcDbEntity
  8
0
  6
Continuous
 62
     7
370
    15
100
AcDbLine
 10
58.5632308317
 20
143.4121503386
 30
0.0
 11
58.5632308317
 21
139.9121506963
 31
0.0
  0
LINE
  5
267
330
1F
100
AcDbEntity
  8
0
  6
Continuous
 62
     7
370
    15
100
AcDbLine
 10
30.5632299674
 20
143.4121503386
 30
0.0
 11
30.5632299674
 21
143.8318173293
 31
0.0
  0
LINE
  5
268
330
1F
100
AcDbEntity
  8
0
  6
Continuous
 62
     7
370
    15
100
AcDbLine
 10
30.5632299674
 20
143.8318173293
 30
0.0
 11
30.5632299674
 21
144.1100499484
 31
0.0
  0
LINE
  5
269
330
1F
100
AcDbEntity
  8
0
  6
Continuous
 62
     7
370
    15
100
AcDbLine
 10
30.5632299674
 20
144.1100499484
 30
0.0
 11
30.7334310306
 21
144.1100499484
 31
0.0
  0
LINE
  5
26A
330
1F
100
AcDbEntity
  8
0
  6
Continuous
 62
     7
370
    15
100
AcDbLine
 10
30.5632299674
 20
144.1100499484
 30
0.0
 11
30.5632299674
 21
149.612150051
 31
0.0
  0
LINE
  5
26B
330
1F
100
AcDbEntity
  8
0
  6
Continuous
 62
     7
370
    15
100
AcDbLine
 10
49.4784543221
 20
180.6121504757
 30
0.0
 11
39.648006477
 21
180.6121504757
 31
0.0
  0
SPLINE
  5
26C
330
1F
100
AcDbEntity
  8
0
  6
Continuous
 62
     7
370
    15
100
AcDbSpline
210
0.0
220
0.0
230
1.0
 70
     8
 71
     3
 72
    13
 73
     9
 74
     0
 42
0.00000001
 43
0.00000001
 12
1.0
 22
0.0
 32
0.0
 13
1.0
 23
0.0
 33
0.0
 40
0.0
 40
0.0
 40
0.0
 40
0.0
 40
0.2066236378736374
 40
0.3976688278079883
 40
0.5675447542509966
 40
0.6995726686623813
 40
0.8446908559654156
 40
1.0
 40
1.0
 40
1.0
 40
1.0
 10
49.47845432212277
 20
180.6121504757307
 30
0.0
 10
49.72857696446869
 20
180.5102008042339
 30
0.0
 10
50.20996418140835
 20
180.3139879857164
 30
0.0
 10
50.86503783554652
 20
179.964630635247
 30
0.0
 10
51.34630087107554
 20
179.5037626898069
 30
0.0
 10
51.52869323139331
 20
178.932479404297
 30
0.0
 10
51.54159398017288
 20
178.3652786827983
 30
0.0
 10
51.51113253508777
 20
177.9739947283792
 30
0.0
 10
51.49538516303225
 20
177.7717162746689
 30
0.0
  0
LINE
  5
26D
330
1F
100
AcDbEntity
  8
0
  6
Continuous
 62
     7
370
    15
100
AcDbLine
 10
51.495385163
 20
177.7717162747
 30
0.0
 11
51.495385163
 21
177.6788624827
 31
0.0
  0
ARC
  5
26E
330
1F
100
AcDbEntity
  8
0
  6
Continuous
 62
     7
370
    15
100
AcDbCircle
 10
54.5632303995
 20
176.6121504012
 30
0.0
 40
3.248007215816017
100
AcDbArc
 50
160.8270595738
 51
279.9346943189
  0
LINE
  5
26F
330
1F
100
AcDbEntity
  8
0
  6
Continuous
 62
     7
370
    15
100
AcDbLine
 10
55.123594862
 20
173.4128472287
 30
0.0
 11
55.9201206011
 21
173.4128472287
 31
0.0
  0
ARC
  5
270
330
1F
100
AcDbEntity
  8
0
  6
Continuous
 62
     7
370
    15
100
AcDbCircle
 10
55.5940388243
 20
170.4613453883
 30
0.0
 40
2.969459650929002
100
AcDbArc
 50
0.769893905
 51
83.6955340404
  0
LINE
  5
271
330
1F
100
AcDbEntity
  8
0
  6
Continuous
 62
     7
370
    15
100
AcDbLine
 10
58.5632308317
 20
158.6121505949
 30
0.0
 11
58.5632308317
 21
170.5012455474
 31
0.0
  0
ARC
  5
272
330
1F
100
AcDbEntity
  8
0
  6
Continuous
 62
     7
370
    15
100
AcDbCircle
 10
33.5324219748
 20
155.7629554142
 30
0.0
 40
2.969459650929005
100
AcDbArc
 50
180.769893905
 51
257.0982042662
  0
LINE
  5
273
330
1F
100
AcDbEntity
  8
0
  6
Continuous
 62
     7
370
    15
100
AcDbLine
 10
30.5632299674
 20
170.5012455474
 30
0.0
 11
30.5632299674
 21
155.723055255
 31
0.0
  0
ARC
  5
274
330
1F
100
AcDbEntity
  8
0
  6
Continuous
 62
     7
370
    15
100
AcDbCircle
 10
33.5324219748
 20
170.4613453883
 30
0.0
 40
2.969459650928999
100
AcDbArc
 50
96.3044659596
 51
179.230106095
  0
LINE
  5
275
330
1F
100
AcDbEntity
  8
0
  6
Continuous
 62
     7
370
    15
100
AcDbLine
 10
33.206340198
 20
173.4128472287
 30
0.0
 11
34.0028659371
 21
173.4128472287
 31
0.0
  0
ARC
  5
276
330
1F
100
AcDbEntity
  8
0
  6
Continuous
 62
     7
370
    15
100
AcDbCircle
 10
34.5632303995
 20
176.6121504012
 30
0.0
 40
3.248007215816019
100
AcDbArc
 50
260.0653056811
 51
19.1729404262
  0
LINE
  5
277
330
1F
100
AcDbEntity
  8
0
  6
Continuous
 62
     7
370
    15
100
AcDbLine
 10
37.6310756361
 20
177.6788624827
 30
0.0
 11
37.6310756361
 21
177.7717162747
 31
0.0
  0
SPLINE
  5
278
330
1F
100
AcDbEntity
  8
0
  6
Continuous
 62
     7
370
    15
100
AcDbSpline
210
0.0
220
0.0
230
1.0
 70
     8
 71
     3
 72
    13
 73
     9
 74
     0
 42
0.00000001
 43
0.00000001
 12
1.0
 22
0.0
 32
0.0
 13
1.0
 23
0.0
 33
0.0
 40
0.0
 40
0.0
 40
0.0
 40
0.0
 40
0.1962825596096509
 40
0.3734497957646644
 40
0.5391744027104453
 40
0.6813774649128472
 40
0.8367390121262692
 40
1.0
 40
1.0
 40
1.0
 40
1.0
 10
37.63107563605232
 20
177.7717162746689
 30
0.0
 10
37.61105532132781
 20
178.026402755165
 30
0.0
 10
37.57296440555881
 20
178.5109726237996
 30
0.0
 10
37.63528170724523
 20
179.2313984721133
 30
0.0
 10
38.01975705864061
 20
179.769035671237
 30
0.0
 10
38.52348573877759
 20
180.1105974863291
 30
0.0
 10
39.06505867992907
 20
180.375006379666
 30
0.0
 10
39.45050515415749
 20
180.531806621776
 30
0.0
 10
39.6480064769618
 20
180.6121504757307
 30
0.0
  0
ARC
  5
279
330
1F
100
AcDbEntity
  8
0
  6
Continuous
 62
     7
370
    15
100
AcDbCircle
 10
34.5632303995
 20
176.6121504012
 30
0.0
 40
4.000000000000007
100
AcDbArc
 50
90.0
 51
180.0
  0
LINE
  5
27A
330
1F
100
AcDbEntity
  8
0
  6
Continuous
 62
     7
370
    15
100
AcDbLine
 10
30.5632299674
 20
176.6121507514
 30
0.0
 11
30.5632299674
 21
170.5012455474
 31
0.0
  0
LINE
  5
27B
330
1F
100
AcDbEntity
  8
0
  6
Continuous
 62
     7
370
    15
100
AcDbLine
 10
39.648006477
 20
180.6121504757
 30
0.0
 11
34.5632306231
 21
180.6121504757
 31
0.0
  0
ARC
  5
27C
330
1F
100
AcDbEntity
  8
0
  6
Continuous
 62
     7
370
    15
100
AcDbCircle
 10
54.5632303995
 20
176.6121504012
 30
0.0
 40
4.000000000000007
100
AcDbArc
 50
0.0
 51
90.0
  0
LINE
  5
27D
330
1F
100
AcDbEntity
  8
0
  6
Continuous
 62
     7
370
    15
100
AcDbLine
 10
58.5632308317
 20
170.5012455474
 30
0.0
 11
58.5632308317
 21
176.6121507514
 31
0.0
  0
LINE
  5
27E
330
1F
100
AcDbEntity
  8
0
  6
Continuous
 62
     7
370
    15
100
AcDbLine
 10
54.563230176
 20
180.6121504757
 30
0.0
 11
49.4784543221
 21
180.6121504757
 31
0.0
  0
ARC
  5
27F
330
1F
100
AcDbEntity
  8
0
  6
Continuous
 62
     7
370
    15
100
AcDbCircle
 10
34.5632303995
 20
149.6121504012
 30
0.0
 40
4.000000000000006
100
AcDbArc
 50
180.0
 51
219.1173017795
  0
LINE
  5
280
330
1F
100
AcDbEntity
  8
0
  6
Continuous
 62
     7
370
    15
100
AcDbLine
 10
30.5632299674
 20
155.723055255
 30
0.0
 11
30.5632299674
 21
149.612150051
 31
0.0
  0
ARC
  5
281
330
1F
100
AcDbEntity
  8
0
  6
Continuous
 62
     8
370
    15
100
AcDbCircle
 10
34.5632303995
 20
149.6121504012
 30
0.0
 40
2.600000000000013
100
AcDbArc
 50
144.6769491027
 51
187.9119752177
  0
LINE
  5
282
330
1F
100
AcDbEntity
  8
0
  6
Continuous
 62
     8
370
    15
100
AcDbLine
 10
30.5632299674
 20
143.8318173293
 30
0.0
 11
30.6655767304
 21
143.8318173293
 31
0.0
  0
DIMENSION
  5
283
330
1F
100
AcDbEntity
  8
0
  6
Continuous
 62
     7
370
     0
100
AcDbDimension
  2
_D_10
 10
58.5632303995
 20
129.9121504012
 30
0.0
 11
44.5632303995
 21
129.9121504012
 31
0.0
 70
   160
  1
<>
 71
     2
 42
-1.0
  3
SLDDIMSTYLE1
100
AcDbAlignedDimension
 13
30.5632303995
 23
139.9121504012
 33
0.0
 14
58.5632303995
 24
139.9121504012
 34
0.0
100
AcDbRotatedDimension
  0
DIMENSION
  5
28D
330
1F
100
AcDbEntity
  8
0
  6
Continuous
 62
     7
370
     0
100
AcDbDimension
  2
_D_11
 10
65.8285467933
 20
139.9121504012
 30
0.0
 11
65.8285467933
 21
156.5756923406
 31
0.0
 70
   160
  1
<>
 71
     2
 42
-1.0
  3
SLDDIMSTYLE1
100
AcDbAlignedDimension
 13
54.5632303995
 23
180.6121504012
 33
0.0
 14
58.5632303995
 24
139.9121504012
 34
0.0
 50
90.0
100
AcDbRotatedDimension
  0
DIMENSION
  5
297
330
1F
100
AcDbEntity
  8
0
  6
Continuous
 62
     7
370
     0
100
AcDbDimension
  2
_D_12
 10
71.6540177274
 20
139.9121504012
 30
0.0
 11
71.6540177274
 21
166.2621504012
 31
0.0
 70
   160
  1
<>
 71
     2
 42
-1.0
  3
SLDDIMSTYLE1
100
AcDbAlignedDimension
 13
55.0586004654
 23
192.6121504012
 33
0.0
 14
58.5632303995
 24
139.9121504012
 34
0.0
 50
90.0
100
AcDbRotatedDimension
  0
DIMENSION
  5
2A1
330
1F
100
AcDbEntity
  8
0
  6
Continuous
 62
     7
370
     0
100
AcDbDimension
  2
_D_13
 10
71.6540177274
 20
217.7121504012
 30
0.0
 11
71.6540177274
 21
205.1621504012
 31
0.0
 70
   160
  1
(<>)
 71
     2
 42
-1.0
  3
SLDDIMSTYLE1
100
AcDbAlignedDimension
 13
55.0586004654
 23
192.6121504012
 33
0.0
 14
48.0632303995
 24
217.7121504012
 34
0.0
 50
90.0
100
AcDbRotatedDimension
  0
DIMENSION
  5
2AD
330
1F
100
AcDbEntity
  8
0
  6
Continuous
 62
     7
370
     0
100
AcDbDimension
  2
_D_14
 10
55.2054263073
 20
254.4120011918
 30
0.0
 11
44.5630042329
 21
254.4119506333
 31
0.0
 70
   160
  1
(<>)
 71
     2
 42
-1.0
  3
SLDDIMSTYLE1
100
AcDbAlignedDimension
 13
33.9208083249
 23
206.8045394381
 33
0.0
 14
55.2056524742
 24
206.8045394381
 34
0.0
 50
0.0002721928
100
AcDbRotatedDimension
  0
DIMENSION
  5
2B9
330
1F
100
AcDbEntity
  8
0
  6
Continuous
 62
     7
370
     0
100
AcDbDimension
  2
_D_15
 10
48.0632318415
 20
240.2723027355
 30
0.0
 11
59.8828813439
 21
240.27230198
 31
0.0
 70
   160
  1
<>
 71
     2
 42
-1.0
  3
SLDDIMSTYLE3
100
AcDbAlignedDimension
 13
41.0632303995
 23
217.7121504012
 33
0.0
 14
48.0632303995
 24
217.7121504012
 34
0.0
 50
-0.000003662
100
AcDbRotatedDimension
  0
DIMENSION
  5
2C6
330
1F
100
AcDbEntity
  8
0
  6
Continuous
 62
     7
370
     0
100
AcDbDimension
  2
_D_16
 10
24.9780287428
 20
187.9121504012
 30
0.0
 11
24.9780287428
 21
163.9121504012
 31
0.0
 70
   160
  1
<>
 71
     2
 42
-1.0
  3
SLDDIMSTYLE1
100
AcDbAlignedDimension
 13
30.5632303995
 23
139.9121504012
 33
0.0
 14
36.4632303995
 24
187.9121504012
 34
0.0
 50
90.0
100
AcDbRotatedDimension
  0
INSERT
  5
2DB
330
1F
100
AcDbEntity
  8
0
  6
Continuous
 62
     7
370
     0
100
AcDbBlockReference
  2
SW_CENTERMARKSYMBOL_0
 10
34.5632303995
 20
176.6121504012
 30
0.0
  0
INSERT
  5
2E7
330
1F
100
AcDbEntity
  8
0
  6
Continuous
 62
     7
370
     0
100
AcDbBlockReference
  2
SW_CENTERMARKSYMBOL_1
 10
54.5632303995
 20
176.6121504012
 30
0.0
  0
INSERT
  5
2F3
330
1F
100
AcDbEntity
  8
0
  6
Continuous
 62
     7
370
     0
100
AcDbBlockReference
  2
SW_CENTERMARKSYMBOL_2
 10
54.0632303995
 20
158.6121504012
 30
0.0
  0
INSERT
  5
2FF
330
1F
100
AcDbEntity
  8
0
  6
Continuous
 62
     7
370
     0
100
AcDbBlockReference
  2
SW_CENTERMARKSYMBOL_3
 10
44.5632303995
 20
174.6121504012
 30
0.0
  0
INSERT
  5
30B
330
1F
100
AcDbEntity
  8
0
  6
Continuous
 62
     7
370
     0
100
AcDbBlockReference
  2
SW_CENTERMARKSYMBOL_4
 10
44.5632303995
 20
158.6121504012
 30
0.0
  0
INSERT
  5
317
330
1F
100
AcDbEntity
  8
0
  6
Continuous
 62
     7
370
     0
100
AcDbBlockReference
  2
SW_CENTERMARKSYMBOL_5
 10
44.5632303995
 20
187.9121504012
 30
0.0
  0
LINE
  5
318
330
1F
100
AcDbEntity
  8
0
  6
Continuous
 62
     7
370
    15
100
AcDbLine
 10
93.0181886009
 20
76.3469492639
 30
0.0
 11
105.2181939534
 21
76.3469492639
 31
0.0
  0
LINE
  5
319
330
1F
100
AcDbEntity
  8
0
  6
Continuous
 62
     7
370
    15
100
AcDbLine
 10
105.2181939534
 20
84.3469496439
 30
0.0
 11
93.0181886009
 21
84.3469496439
 31
0.0
  0
LINE
  5
31A
330
1F
100
AcDbEntity
  8
0
  6
Continuous
 62
     7
370
    15
100
AcDbLine
 10
90.6181926779
 20
76.4969494748
 30
0.0
 11
92.1181882671
 21
76.4969494748
 31
0.0
  0
LINE
  5
31B
330
1F
100
AcDbEntity
  8
0
  6
Continuous
 62
     7
370
    15
100
AcDbLine
 10
92.1181882671
 20
84.1969494331
 30
0.0
 11
90.6181926779
 21
84.1969494331
 31
0.0
  0
LINE
  5
31C
330
1F
100
AcDbEntity
  8
0
  6
Continuous
 62
     7
370
    15
100
AcDbLine
 10
92.1181882671
 20
77.9469493399
 30
0.0
 11
93.0181886009
 21
77.9469493399
 31
0.0
  0
LINE
  5
31D
330
1F
100
AcDbEntity
  8
0
  6
Continuous
 62
     7
370
    15
100
AcDbLine
 10
93.0181886009
 20
82.7469495679
 30
0.0
 11
92.1181882671
 21
82.7469495679
 31
0.0
  0
LINE
  5
31E
330
1F
100
AcDbEntity
  8
0
  6
Continuous
 62
     7
370
    15
100
AcDbLine
 10
179.2181911818
 20
73.0969496625
 30
0.0
 11
176.5181911118
 21
73.0969496625
 31
0.0
  0
LINE
  5
31F
330
1F
100
AcDbEntity
  8
0
  6
Continuous
 62
     7
370
    15
100
AcDbLine
 10
176.5181911118
 20
67.5969496923
 30
0.0
 11
179.2181911818
 21
67.5969496923
 31
0.0
  0
LINE
  5
320
330
1F
100
AcDbEntity
  8
0
  6
Continuous
 62
     7
370
    15
100
AcDbLine
 10
179.2181911818
 20
67.5969496923
 30
0.0
 11
179.5181911379
 21
68.0969497743
 31
0.0
  0
LINE
  5
321
330
1F
100
AcDbEntity
  8
0
  6
Continuous
 62
     7
370
    15
100
AcDbLine
 10
179.5181911379
 20
72.5969495806
 30
0.0
 11
179.2181911818
 21
73.0969496625
 31
0.0
  0
LINE
  5
322
330
1F
100
AcDbEntity
  8
0
  6
Continuous
 62
     7
370
    15
100
AcDbLine
 10
179.2181911818
 20
93.0969492155
 30
0.0
 11
176.5181911118
 21
93.0969492155
 31
0.0
  0
LINE
  5
323
330
1F
100
AcDbEntity
  8
0
  6
Continuous
 62
     7
370
    15
100
AcDbLine
 10
176.5181911118
 20
87.5969492453
 30
0.0
 11
179.2181911818
 21
87.5969492453
 31
0.0
  0
LINE
  5
324
330
1F
100
AcDbEntity
  8
0
  6
Continuous
 62
     7
370
    15
100
AcDbLine
 10
179.2181911818
 20
87.5969492453
 30
0.0
 11
179.5181911379
 21
88.0969493273
 31
0.0
  0
LINE
  5
325
330
1F
100
AcDbEntity
  8
0
  6
Continuous
 62
     7
370
    15
100
AcDbLine
 10
179.5181911379
 20
92.5969491335
 30
0.0
 11
179.2181911818
 21
93.0969492155
 31
0.0
  0
SPLINE
  5
326
330
1F
100
AcDbEntity
  8
0
  6
Continuous
 62
     7
370
    15
100
AcDbSpline
210
0.0
220
0.0
230
1.0
 70
     8
 71
     3
 72
    15
 73
    11
 74
     0
 42
0.00000001
 43
0.00000001
 12
1.0
 22
0.0
 32
0.0
 13
1.0
 23
0.0
 33
0.0
 40
0.0
 40
0.0
 40
0.0
 40
0.0
 40
0.1212258224921532
 40
0.2487264478951261
 40
0.3796040806113289
 40
0.5108475516082818
 40
0.63986370038098
 40
0.7648474770852369
 40
0.8849123429376806
 40
0.9999999999999999
 40
0.9999999999999999
 40
0.9999999999999999
 40
0.9999999999999999
 10
183.0181912458853
 20
66.38558214482002
 30
0.0
 10
183.1701097275409
 20
66.39853015995361
 30
0.0
 10
183.4818101848776
 20
66.42509639596885
 30
0.0
 10
183.9457807231844
 20
66.57242205813164
 30
0.0
 10
184.383350170276
 20
66.80201616753634
 30
0.0
 10
184.7635322619285
 20
67.11241751852761
 30
0.0
 10
185.064767066969
 20
67.48428183638465
 30
0.0
 10
185.2744808254466
 20
67.89784594422213
 30
0.0
 10
185.3997697016049
 20
68.33251925179415
 30
0.0
 10
185.4120195764739
 20
68.6302803148498
 30
0.0
 10
185.4180148742513
 20
68.77600965973072
 30
0.0
  0
SPLINE
  5
327
330
1F
100
AcDbEntity
  8
0
  6
Continuous
 62
     7
370
    15
100
AcDbSpline
210
0.0
220
0.0
230
1.0
 70
     8
 71
     3
 72
    15
 73
    11
 74
     0
 42
0.00000001
 43
0.00000001
 12
1.0
 22
0.0
 32
0.0
 13
1.0
 23
0.0
 33
0.0
 40
0.0
 40
0.0
 40
0.0
 40
0.0
 40
0.1150876570623193
 40
0.235152522914763
 40
0.36013629961902
 40
0.4891524483917182
 40
0.6203959193886712
 40
0.751273552104874
 40
0.8787741775078469
 40
1.0
 40
1.0
 40
1.0
 40
1.0
 10
185.4180148742513
 20
91.91788924809627
 30
0.0
 10
185.4120195764739
 20
92.06361859297716
 30
0.0
 10
185.3997697016049
 20
92.36137965603284
 30
0.0
 10
185.2744808254466
 20
92.79605296360484
 30
0.0
 10
185.064767066969
 20
93.20961707144234
 30
0.0
 10
184.7635322619285
 20
93.58148138929938
 30
0.0
 10
184.383350170276
 20
93.89188274029063
 30
0.0
 10
183.9457807231844
 20
94.12147684969534
 30
0.0
 10
183.4818101848776
 20
94.26880251185813
 30
0.0
 10
183.1701097275409
 20
94.29536874787337
 30
0.0
 10
183.0181912458853
 20
94.30831676300697
 30
0.0
  0
LINE
  5
328
330
1F
100
AcDbEntity
  8
0
  6
Continuous
 62
     7
370
    15
100
AcDbLine
 10
101.1433596663
 20
91.8469494763
 30
0.0
 11
100.9181882195
 21
91.4569497662
 31
0.0
  0
LINE
  5
329
330
1F
100
AcDbEntity
  8
0
  6
Continuous
 62
     7
370
    15
100
AcDbLine
 10
100.9181882195
 20
88.236949462
 30
0.0
 11
101.1433596663
 21
87.8469492863
 31
0.0
  0
LINE
  5
32A
330
1F
100
AcDbEntity
  8
0
  6
Continuous
 62
     7
370
    15
100
AcDbLine
 10
101.1433596663
 20
87.8469492863
 30
0.0
 11
102.0181919388
 21
87.8469492863
 31
0.0
  0
LINE
  5
32B
330
1F
100
AcDbEntity
  8
0
  6
Continuous
 62
     7
370
    15
100
AcDbLine
 10
102.0181919388
 20
91.8469494763
 30
0.0
 11
101.1433596663
 21
91.8469494763
 31
0.0
  0
LINE
  5
32C
330
1F
100
AcDbEntity
  8
0
  6
Continuous
 62
     7
370
    15
100
AcDbLine
 10
102.0181919388
 20
86.3469495061
 30
0.0
 11
102.3307959489
 21
85.8054976533
 31
0.0
  0
LINE
  5
32D
330
1F
100
AcDbEntity
  8
0
  6
Continuous
 62
     7
370
    15
100
AcDbLine
 10
102.3307959489
 20
93.8884011092
 30
0.0
 11
102.0181919388
 21
93.3469497221
 31
0.0
  0
LINE
  5
32E
330
1F
100
AcDbEntity
  8
0
  6
Continuous
 62
     7
370
    15
100
AcDbLine
 10
93.0181886009
 20
80.3469494539
 30
0.0
 11
93.0181886009
 21
84.3469496439
 31
0.0
  0
LINE
  5
32F
330
1F
100
AcDbEntity
  8
0
  6
Continuous
 62
     7
370
    15
100
AcDbLine
 10
93.0181886009
 20
76.3469492639
 30
0.0
 11
93.0181886009
 21
80.3469494539
 31
0.0
  0
LINE
  5
330
330
1F
100
AcDbEntity
  8
0
  6
Continuous
 62
     7
370
    15
100
AcDbLine
 10
92.1181882671
 20
76.4969494748
 30
0.0
 11
92.1181882671
 21
84.1969494331
 31
0.0
  0
LINE
  5
331
330
1F
100
AcDbEntity
  8
0
  6
Continuous
 62
     7
370
    15
100
AcDbLine
 10
90.6181926779
 20
76.4969494748
 30
0.0
 11
90.6181926779
 21
84.1969494331
 31
0.0
  0
LINE
  5
332
330
1F
100
AcDbEntity
  8
0
  6
Continuous
 62
     7
370
    15
100
AcDbLine
 10
176.5181911118
 20
68.3469493496
 30
0.0
 11
176.5181911118
 21
66.3469490218
 31
0.0
  0
LINE
  5
333
330
1F
100
AcDbEntity
  8
0
  6
Continuous
 62
     7
370
    15
100
AcDbLine
 10
174.9181912686
 20
66.3469490218
 30
0.0
 11
176.5181911118
 21
66.3469490218
 31
0.0
  0
LINE
  5
334
330
1F
100
AcDbEntity
  8
0
  6
Continuous
 62
     7
370
    15
100
AcDbLine
 10
174.9181912686
 20
68.3469493496
 30
0.0
 11
176.5181911118
 21
68.3469493496
 31
0.0
  0
LINE
  5
335
330
1F
100
AcDbEntity
  8
0
  6
Continuous
 62
     7
370
    15
100
AcDbLine
 10
176.5181911118
 20
92.3469495582
 30
0.0
 11
174.9181912686
 21
92.3469495582
 31
0.0
  0
LINE
  5
336
330
1F
100
AcDbEntity
  8
0
  6
Continuous
 62
     7
370
    15
100
AcDbLine
 10
176.5181911118
 20
92.3469495582
 30
0.0
 11
176.5181911118
 21
68.3469493496
 31
0.0
  0
LINE
  5
337
330
1F
100
AcDbEntity
  8
0
  6
Continuous
 62
     7
370
    15
100
AcDbLine
 10
176.5181911118
 20
94.346949886
 30
0.0
 11
174.9181912686
 21
94.346949886
 31
0.0
  0
LINE
  5
338
330
1F
100
AcDbEntity
  8
0
  6
Continuous
 62
     7
370
    15
100
AcDbLine
 10
176.5181911118
 20
94.346949886
 30
0.0
 11
176.5181911118
 21
92.3469495582
 31
0.0
  0
LINE
  5
339
330
1F
100
AcDbEntity
  8
0
  6
Continuous
 62
     7
370
    15
100
AcDbLine
 10
179.2181911818
 20
67.5969496923
 30
0.0
 11
179.2181911818
 21
73.0969496625
 31
0.0
  0
LINE
  5
33A
330
1F
100
AcDbEntity
  8
0
  6
Continuous
 62
     7
370
    15
100
AcDbLine
 10
179.5181911379
 20
68.0969497743
 30
0.0
 11
179.5181911379
 21
72.5969495806
 31
0.0
  0
LINE
  5
33B
330
1F
100
AcDbEntity
  8
0
  6
Continuous
 62
     7
370
    15
100
AcDbLine
 10
179.2181911818
 20
87.5969492453
 30
0.0
 11
179.2181911818
 21
93.0969492155
 31
0.0
  0
LINE
  5
33C
330
1F
100
AcDbEntity
  8
0
  6
Continuous
 62
     7
370
    15
100
AcDbLine
 10
179.5181911379
 20
88.0969493273
 30
0.0
 11
179.5181911379
 21
92.5969491335
 31
0.0
  0
SPLINE
  5
33D
330
1F
100
AcDbEntity
  8
0
  6
Continuous
 62
     7
370
    15
100
AcDbSpline
210
0.0
220
0.0
230
1.0
 70
    24
 71
     3
 72
    11
 73
     7
 74
     0
 42
0.00000001
 43
0.00000001
 12
1.0
 22
0.0
 32
0.0
 13
1.0
 23
0.0
 33
0.0
 40
0.0
 40
0.0
 40
0.0
 40
0.0
 40
0.313361830063607
 40
0.6516791682864347
 40
0.9957126933255874
 40
1.0
 40
1.0
 40
1.0
 40
1.0
 10
176.5181911117749
 20
94.34694988604717
 30
0.0
 10
176.5450414104182
 20
94.34694988604717
 30
0.0
 10
176.6008803116798
 20
94.34694988604717
 30
0.0
 10
176.9265622761031
 20
94.34694988604713
 30
0.0
 10
177.1838769564824
 20
94.34694988604726
 30
0.0
 10
177.3165580447061
 20
94.34694988604716
 30
0.0
 10
177.3181911497728
 20
94.34694988604717
 30
0.0
  0
SPLINE
  5
33E
330
1F
100
AcDbEntity
  8
0
  6
Continuous
 62
     7
370
    15
100
AcDbSpline
210
0.0
220
0.0
230
1.0
 70
    24
 71
     3
 72
    11
 73
     7
 74
     0
 42
0.00000001
 43
0.00000001
 12
1.0
 22
0.0
 32
0.0
 13
1.0
 23
0.0
 33
0.0
 40
0.0
 40
0.0
 40
0.0
 40
0.0
 40
0.3133620270277748
 40
0.6516791728011401
 40
0.9957126933811566
 40
1.0
 40
1.0
 40
1.0
 40
1.0
 10
176.5181911117749
 20
66.34694902177982
 30
0.0
 10
176.5450413720084
 20
66.34694902177982
 30
0.0
 10
176.600880158681
 20
66.3469490217798
 30
0.0
 10
176.9265624083941
 20
66.34694902177984
 30
0.0
 10
177.1838769563514
 20
66.34694902177978
 30
0.0
 10
177.3165580447045
 20
66.34694902177982
 30
0.0
 10
177.3181911497728
 20
66.34694902177982
 30
0.0
  0
LINE
  5
33F
330
1F
100
AcDbEntity
  8
0
  6
Continuous
 62
     7
370
    15
100
AcDbLine
 10
183.0181912459
 20
66.3469490218
 30
0.0
 11
183.0181912459
 21
68.7469496014
 31
0.0
  0
SPLINE
  5
340
330
1F
100
AcDbEntity
  8
0
  6
Continuous
 62
     7
370
    15
100
AcDbSpline
210
0.0
220
0.0
230
1.0
 70
     8
 71
     3
 72
    15
 73
    11
 74
     0
 42
0.00000001
 43
0.00000001
 12
1.0
 22
0.0
 32
0.0
 13
1.0
 23
0.0
 33
0.0
 40
0.0
 40
0.0
 40
0.0
 40
0.0
 40
0.1248475767951244
 40
0.2495765774894852
 40
0.3816140278514373
 40
0.4999983150895475
 40
0.6249985291151716
 40
0.7499990452367458
 40
0.8749995417180364
 40
0.9999999999999999
 40
0.9999999999999999
 40
0.9999999999999999
 40
0.9999999999999999
 10
185.4181908942179
 20
68.74694960143499
 30
0.0
 10
185.4092768069257
 20
68.74680535111666
 30
0.0
 10
185.3914570986468
 20
68.74651698748418
 30
0.0
 10
185.2465215638277
 20
68.74721798426965
 30
0.0
 10
185.0224230407743
 20
68.74609206424182
 30
0.0
 10
184.7196684862517
 20
68.74718401446874
 30
0.0
 10
184.3601715713775
 20
68.74687895836
 30
0.0
 10
183.9425478659992
 20
68.74695875384799
 30
0.0
 10
183.4894274338577
 20
68.74693893142964
 30
0.0
 10
183.1752699592087
 20
68.74694604476689
 30
0.0
 10
183.0181912458853
 20
68.74694960143499
 30
0.0
  0
SPLINE
  5
341
330
1F
100
AcDbEntity
  8
0
  6
Continuous
 62
     7
370
    15
100
AcDbSpline
210
0.0
220
0.0
230
1.0
 70
     8
 71
     3
 72
    38
 73
    34
 74
     0
 42
0.00000001
 43
0.00000001
 12
1.0
 22
0.0
 32
0.0
 13
1.0
 23
0.0
 33
0.0
 40
0.0
 40
0.0
 40
0.0
 40
0.0
 40
0.2390172325569793
 40
0.3271136228427866
 40
0.3970976420368041
 40
0.4489549838835932
 40
0.4826750789200463
 40
0.4950755897898784
 40
0.4982515001111657
 40
0.4990831874844478
 40
0.4993761681217104
 40
0.4994108217331064
 40
0.4994146721343726
 40
0.49941817249916
 40
0.4994255232652138
 40
0.4994400529417177
 40
0.4994692815116951
 40
0.4995273880943282
 40
0.499643950504541
 40
0.4998772510649397
 40
0.5003433272981338
 40
0.501276006212045
 40
0.5031408523841292
 40
0.5068710028537047
 40
0.5143309305473582
 40
0.5292508431349086
 40
0.5590884513862937
 40
0.6187470792821448
 40
0.6752513415701086
 40
0.740071149277248
 40
0.7809416361563188
 40
0.8739967669123037
 40
1.0
 40
1.0
 40
1.0
 40
1.0
 10
183.0181912458853
 20
91.946949306392
 30
0.0
 10
183.3202176746434
 20
91.94695106888958
 30
0.0
 10
183.7335642699847
 20
91.94695348100423
 30
0.0
 10
184.1838399181845
 20
91.94694438688381
 30
0.0
 10
184.4060131148237
 20
91.94694247692311
 30
0.0
 10
184.5596335296214
 20
91.94694290033867
 30
0.0
 10
184.6510233786101
 20
91.94694266013245
 30
0.0
 10
184.695465794098
 20
91.94694475996656
 30
0.0
 10
184.7100781104619
 20
91.946947718503
 30
0.0
 10
184.7138979937139
 20
91.9469473021954
 30
0.0
 10
184.7149259168296
 20
91.94694931062087
 30
0.0
 10
184.7152199263345
 20
91.94694931330436
 30
0.0
 10
184.7152571741804
 20
91.94694930399898
 30
0.0
 10
184.7152702205401
 20
91.94694931875064
 30
0.0
 10
184.7152926424136
 20
91.94694915326635
 30
0.0
 10
184.715338961686
 20
91.94695102041544
 30
0.0
 10
184.7154277357047
 20
91.94694955384855
 30
0.0
 10
184.7156096691293
 20
91.9469522067181
 30
0.0
 10
184.7159707689373
 20
91.94695166592032
 30
0.0
 10
184.7166942269269
 20
91.94695646085054
 30
0.0
 10
184.718139794616
 20
91.9469618869817
 30
0.0
 10
184.7210286586686
 20
91.94697581842615
 30
0.0
 10
184.7267917514643
 20
91.9469998811633
 30
0.0
 10
184.7382674579554
 20
91.94704954658856
 30
0.0
 10
184.7610155469743
 20
91.9471411261207
 30
0.0
 10
184.8056759959147
 20
91.94730726490533
 30
0.0
 10
184.8915885240258
 20
91.94755361252824
 30
0.0
 10
185.0018716241965
 20
91.94767493640546
 30
0.0
 10
185.1213987750068
 20
91.94744049940937
 30
0.0
 10
185.2117734483309
 20
91.9472821733635
 30
0.0
 10
185.3029749319265
 20
91.94704481516193
 30
0.0
 10
185.3939522369974
 20
91.94697756338157
 30
0.0
 10
185.4093398681905
 20
91.94695962475855
 30
0.0
 10
185.4181908942179
 20
91.946949306392
 30
0.0
  0
LINE
  5
342
330
1F
100
AcDbEntity
  8
0
  6
Continuous
 62
     7
370
    15
100
AcDbLine
 10
183.0181912459
 20
91.9469493064
 30
0.0
 11
183.0181912459
 21
94.346949886
 31
0.0
  0
LINE
  5
343
330
1F
100
AcDbEntity
  8
0
  6
Continuous
 62
     7
370
    15
100
AcDbLine
 10
177.3181911498
 20
66.3469490218
 30
0.0
 11
183.0181912459
 21
66.3469490218
 31
0.0
  0
LINE
  5
344
330
1F
100
AcDbEntity
  8
0
  6
Continuous
 62
     7
370
    15
100
AcDbLine
 10
183.0181912459
 20
68.7469496014
 30
0.0
 11
183.0181912459
 21
91.9469493064
 31
0.0
  0
LINE
  5
345
330
1F
100
AcDbEntity
  8
0
  6
Continuous
 62
     7
370
    15
100
AcDbLine
 10
185.4181908942
 20
91.9469493064
 30
0.0
 11
185.4181908942
 21
68.7469496014
 31
0.0
  0
LINE
  5
346
330
1F
100
AcDbEntity
  8
0
  6
Continuous
 62
     7
370
    15
100
AcDbLine
 10
177.3181911498
 20
94.346949886
 30
0.0
 11
183.0181912459
 21
94.346949886
 31
0.0
  0
LINE
  5
347
330
1F
100
AcDbEntity
  8
0
  6
Continuous
 62
     7
370
    15
100
AcDbLine
 10
100.9181882195
 20
88.7481263461
 30
0.0
 11
100.9181882195
 21
91.4569497662
 31
0.0
  0
LINE
  5
348
330
1F
100
AcDbEntity
  8
0
  6
Continuous
 62
     7
370
    15
100
AcDbLine
 10
100.9181882195
 20
88.236949462
 30
0.0
 11
100.9181882195
 21
88.7481263461
 31
0.0
  0
LINE
  5
349
330
1F
100
AcDbEntity
  8
0
  6
Continuous
 62
     7
370
    15
100
AcDbLine
 10
101.1433596663
 20
88.4819524917
 30
0.0
 11
101.1433596663
 21
91.8469494763
 31
0.0
  0
LINE
  5
34A
330
1F
100
AcDbEntity
  8
0
  6
Continuous
 62
     7
370
    15
100
AcDbLine
 10
101.1433596663
 20
87.8469492863
 30
0.0
 11
101.1433596663
 21
88.4819524917
 31
0.0
  0
LINE
  5
34B
330
1F
100
AcDbEntity
  8
0
  6
Continuous
 62
     7
370
    15
100
AcDbLine
 10
105.2181939534
 20
85.8054976533
 30
0.0
 11
102.3307959489
 21
85.8054976533
 31
0.0
  0
SPLINE
  5
34C
330
1F
100
AcDbEntity
  8
0
  6
Continuous
 62
     7
370
    15
100
AcDbSpline
210
0.0
220
0.0
230
1.0
 70
     8
 71
     3
 72
    10
 73
     6
 74
     0
 42
0.00000001
 43
0.00000001
 12
1.0
 22
0.0
 32
0.0
 13
1.0
 23
0.0
 33
0.0
 40
0.0
 40
0.0
 40
0.0
 40
0.0
 40
0.0700365626465201
 40
0.5307571149786066
 40
1.0
 40
1.0
 40
1.0
 40
1.0
 10
102.0181919387893
 20
86.81586064349942
 30
0.0
 10
102.0185642407832
 20
86.79193002974212
 30
0.0
 10
102.0213856518395
 20
86.61057699016484
 30
0.0
 10
102.0896578333704
 20
86.26862780122063
 30
0.0
 10
102.2499269996854
 20
85.9608146521403
 30
0.0
 10
102.3307959488944
 20
85.8054976532989
 30
0.0
  0
SPLINE
  5
34D
330
1F
100
AcDbEntity
  8
0
  6
Continuous
 62
     7
370
    15
100
AcDbSpline
210
0.0
220
0.0
230
1.0
 70
     8
 71
     3
 72
     9
 73
     5
 74
     0
 42
0.00000001
 43
0.00000001
 12
1.0
 22
0.0
 32
0.0
 13
1.0
 23
0.0
 33
0.0
 40
0.0
 40
0.0
 40
0.0
 40
0.0
 40
0.4954578422127281
 40
1.0
 40
1.0
 40
1.0
 40
1.0
 10
102.3307959488944
 20
87.82622363369994
 30
0.0
 10
102.2434238954273
 20
87.66213621337914
 30
0.0
 10
102.067077804957
 20
87.33095279807995
 30
0.0
 10
102.034585617274
 20
86.98859472461919
 30
0.0
 10
102.0181919387893
 20
86.81586064349942
 30
0.0
  0
LINE
  5
34E
330
1F
100
AcDbEntity
  8
0
  6
Continuous
 62
     7
370
    15
100
AcDbLine
 10
105.2181939534
 20
87.8262236337
 30
0.0
 11
102.3307959489
 21
87.8262236337
 31
0.0
  0
LINE
  5
34F
330
1F
100
AcDbEntity
  8
0
  6
Continuous
 62
     7
370
    15
100
AcDbLine
 10
102.0181919388
 20
89.8469491484
 30
0.0
 11
102.0181919388
 21
86.8158606435
 31
0.0
  0
SPLINE
  5
350
330
1F
100
AcDbEntity
  8
0
  6
Continuous
 62
     7
370
    15
100
AcDbSpline
210
0.0
220
0.0
230
1.0
 70
     8
 71
     3
 72
    10
 73
     6
 74
     0
 42
0.00000001
 43
0.00000001
 12
1.0
 22
0.0
 32
0.0
 13
1.0
 23
0.0
 33
0.0
 40
0.0
 40
0.0
 40
0.0
 40
0.0
 40
0.2572431768452554
 40
0.6263799428923559
 40
1.0
 40
1.0
 40
1.0
 40
1.0
 10
102.3307959488944
 20
87.82622363369994
 30
0.0
 10
102.2847294772858
 20
87.99591525286185
 30
0.0
 10
102.1725589069743
 20
88.40910960080717
 30
0.0
 10
102.0469962072854
 20
89.08349962016084
 30
0.0
 10
102.0278319202604
 20
89.59144398580383
 30
0.0
 10
102.0181919387893
 20
89.84694914843969
 30
0.0
  0
SPLINE
  5
351
330
1F
100
AcDbEntity
  8
0
  6
Continuous
 62
     7
370
    15
100
AcDbSpline
210
0.0
220
0.0
230
1.0
 70
     8
 71
     3
 72
    10
 73
     6
 74
     0
 42
0.00000001
 43
0.00000001
 12
1.0
 22
0.0
 32
0.0
 13
1.0
 23
0.0
 33
0.0
 40
0.0
 40
0.0
 40
0.0
 40
0.0
 40
0.2684068207404545
 40
0.6323733358689111
 40
1.0
 40
1.0
 40
1.0
 40
1.0
 10
102.0181919387893
 20
89.84694914843969
 30
0.0
 10
102.0232695794107
 20
90.03046099207774
 30
0.0
 10
102.0352326306074
 20
90.46281959016663
 30
0.0
 10
102.1380237646967
 20
91.14113172432592
 30
0.0
 10
102.2663245918315
 20
91.62468758658135
 30
0.0
 10
102.3307959488944
 20
91.86767512884073
 30
0.0
  0
LINE
  5
352
330
1F
100
AcDbEntity
  8
0
  6
Continuous
 62
     7
370
    15
100
AcDbLine
 10
105.2181939534
 20
91.8676751288
 30
0.0
 11
102.3307959489
 21
91.8676751288
 31
0.0
  0
SPLINE
  5
353
330
1F
100
AcDbEntity
  8
0
  6
Continuous
 62
     7
370
    15
100
AcDbSpline
210
0.0
220
0.0
230
1.0
 70
     8
 71
     3
 72
    10
 73
     6
 74
     0
 42
0.00000001
 43
0.00000001
 12
1.0
 22
0.0
 32
0.0
 13
1.0
 23
0.0
 33
0.0
 40
0.0
 40
0.0
 40
0.0
 40
0.0
 40
0.0700362528189455
 40
0.5307569207574331
 40
1.0
 40
1.0
 40
1.0
 40
1.0
 10
102.0181919387893
 20
92.87803811904125
 30
0.0
 10
102.0185642426184
 20
92.85410766594711
 30
0.0
 10
102.0213856790314
 20
92.67275510801677
 30
0.0
 10
102.089657848522
 20
92.3308049324858
 30
0.0
 10
102.2499270004269
 20
92.02299202055922
 30
0.0
 10
102.3307959488944
 20
91.86767512884073
 30
0.0
  0
LINE
  5
354
330
1F
100
AcDbEntity
  8
0
  6
Continuous
 62
     7
370
    15
100
AcDbLine
 10
102.0181919388
 20
89.8469491484
 30
0.0
 11
102.0181919388
 21
92.878038119
 31
0.0
  0
SPLINE
  5
355
330
1F
100
AcDbEntity
  8
0
  6
Continuous
 62
     7
370
    15
100
AcDbSpline
210
0.0
220
0.0
230
1.0
 70
     8
 71
     3
 72
     9
 73
     5
 74
     0
 42
0.00000001
 43
0.00000001
 12
1.0
 22
0.0
 32
0.0
 13
1.0
 23
0.0
 33
0.0
 40
0.0
 40
0.0
 40
0.0
 40
0.0
 40
0.4954578422127281
 40
1.0
 40
1.0
 40
1.0
 40
1.0
 10
102.3307959488944
 20
93.88840110924177
 30
0.0
 10
102.2434238954273
 20
93.72431368892097
 30
0.0
 10
102.0670778049569
 20
93.39313027362178
 30
0.0
 10
102.034585617274
 20
93.05077220016102
 30
0.0
 10
102.0181919387893
 20
92.87803811904125
 30
0.0
  0
LINE
  5
356
330
1F
100
AcDbEntity
  8
0
  6
Continuous
 62
     7
370
    15
100
AcDbLine
 10
105.2181939534
 20
93.8884011092
 30
0.0
 11
102.3307959489
 21
93.8884011092
 31
0.0
  0
LINE
  5
357
330
1F
100
AcDbEntity
  8
0
  6
Continuous
 62
     7
370
    15
100
AcDbLine
 10
102.0181919388
 20
86.8158606435
 30
0.0
 11
102.0181919388
 21
86.3469495061
 31
0.0
  0
LINE
  5
358
330
1F
100
AcDbEntity
  8
0
  6
Continuous
 62
     7
370
    15
100
AcDbLine
 10
102.0181919388
 20
93.3469497221
 30
0.0
 11
102.0181919388
 21
92.878038119
 31
0.0
  0
CIRCLE
  5
359
330
1F
100
AcDbEntity
  8
0
  6
Continuous
 62
     7
370
    15
100
AcDbCircle
 10
165.2181912116
 20
80.3469494539
 30
0.0
 40
2.0
  0
ARC
  5
35A
330
1F
100
AcDbEntity
  8
0
  6
Continuous
 62
     7
370
    15
100
AcDbCircle
 10
165.2181912116
 20
80.3469494539
 30
0.0
 40
4.000000000000026
100
AcDbArc
 50
145.5884913302
 51
214.4115086698
  0
LINE
  5
35B
330
1F
100
AcDbEntity
  8
0
  6
Continuous
 62
     7
370
    15
100
AcDbLine
 10
157.218191301
 20
83.8110510348
 30
0.0
 11
157.218191301
 21
76.882847873
 31
0.0
  0
LINE
  5
35C
330
1F
100
AcDbEntity
  8
0
  6
Continuous
 62
     7
370
    15
100
AcDbLine
 10
108.7181935958
 20
66.3469490218
 30
0.0
 11
108.7181935958
 21
94.346949886
 31
0.0
  0
LINE
  5
35D
330
1F
100
AcDbEntity
  8
0
  6
Continuous
 62
     7
370
    15
100
AcDbLine
 10
105.2181939534
 20
66.3469490218
 30
0.0
 11
105.2181939534
 21
94.346949886
 31
0.0
  0
LINE
  5
35E
330
1F
100
AcDbEntity
  8
0
  6
Continuous
 62
     7
370
    15
100
AcDbLine
 10
105.2181939534
 20
94.346949886
 30
0.0
 11
108.7181935958
 21
94.346949886
 31
0.0
  0
LINE
  5
35F
330
1F
100
AcDbEntity
  8
0
  6
Continuous
 62
     7
370
    15
100
AcDbLine
 10
105.2181939534
 20
66.3469490218
 30
0.0
 11
108.7181935958
 21
66.3469490218
 31
0.0
  0
LINE
  5
360
330
1F
100
AcDbEntity
  8
0
  6
Continuous
 62
     7
370
    15
100
AcDbLine
 10
151.7061083517
 20
66.3469490218
 30
0.0
 11
151.7061083517
 21
94.346949886
 31
0.0
  0
LINE
  5
361
330
1F
100
AcDbEntity
  8
0
  6
Continuous
 62
     7
370
    15
100
AcDbLine
 10
108.7181935958
 20
66.3469490218
 30
0.0
 11
151.7061083517
 21
66.3469490218
 31
0.0
  0
LINE
  5
362
330
1F
100
AcDbEntity
  8
0
  6
Continuous
 62
     7
370
    15
100
AcDbLine
 10
108.7181935958
 20
94.346949886
 30
0.0
 11
151.7061083517
 21
94.346949886
 31
0.0
  0
CIRCLE
  5
363
330
1F
100
AcDbEntity
  8
0
  6
Continuous
 62
     7
370
    15
100
AcDbCircle
 10
137.7181912116
 20
90.3469494539
 30
0.0
 40
1.649999999999991
  0
CIRCLE
  5
364
330
1F
100
AcDbEntity
  8
0
  6
Continuous
 62
     7
370
    15
100
AcDbCircle
 10
147.7181912116
 20
90.3469494539
 30
0.0
 40
1.649999999999991
  0
CIRCLE
  5
365
330
1F
100
AcDbEntity
  8
0
  6
Continuous
 62
     7
370
    15
100
AcDbCircle
 10
137.7181912116
 20
70.3469494539
 30
0.0
 40
1.649999999999991
  0
CIRCLE
  5
366
330
1F
100
AcDbEntity
  8
0
  6
Continuous
 62
     7
370
    15
100
AcDbCircle
 10
147.7181912116
 20
70.3469494539
 30
0.0
 40
1.649999999999991
  0
CIRCLE
  5
367
330
1F
100
AcDbEntity
  8
0
  6
Continuous
 62
     7
370
    15
100
AcDbCircle
 10
147.7181912116
 20
80.3469494539
 30
0.0
 40
1.649999999999991
  0
CIRCLE
  5
368
330
1F
100
AcDbEntity
  8
0
  6
Continuous
 62
     7
370
    15
100
AcDbCircle
 10
127.7181912116
 20
80.3469494539
 30
0.0
 40
1.649999999999991
  0
LINE
  5
369
330
1F
100
AcDbEntity
  8
0
  6
Continuous
 62
     7
370
    15
100
AcDbLine
 10
153.0736680082
 20
66.3469490218
 30
0.0
 11
153.0736680082
 21
94.346949886
 31
0.0
  0
LINE
  5
36A
330
1F
100
AcDbEntity
  8
0
  6
Continuous
 62
     7
370
    15
100
AcDbLine
 10
151.7061083517
 20
94.346949886
 30
0.0
 11
153.0736680082
 21
94.346949886
 31
0.0
  0
LINE
  5
36B
330
1F
100
AcDbEntity
  8
0
  6
Continuous
 62
     7
370
    15
100
AcDbLine
 10
151.7061083517
 20
66.3469490218
 30
0.0
 11
153.0736680082
 21
66.3469490218
 31
0.0
  0
LINE
  5
36C
330
1F
100
AcDbEntity
  8
0
  6
Continuous
 62
     7
370
    15
100
AcDbLine
 10
153.0736680082
 20
94.346949886
 30
0.0
 11
156.2309130035
 21
94.346949886
 31
0.0
  0
LINE
  5
36D
330
1F
100
AcDbEntity
  8
0
  6
Continuous
 62
     7
370
    15
100
AcDbLine
 10
156.2309130035
 20
83.007055623
 30
0.0
 11
156.2309130035
 21
94.346949886
 31
0.0
  0
ARC
  5
36E
330
1F
100
AcDbEntity
  8
0
  6
Continuous
 62
     7
370
    15
100
AcDbCircle
 10
159.2181912116
 20
80.3469494539
 30
0.0
 40
4.000000000000022
100
AcDbArc
 50
138.3156370023
 51
221.6843629977
  0
LINE
  5
36F
330
1F
100
AcDbEntity
  8
0
  6
Continuous
 62
     7
370
    15
100
AcDbLine
 10
156.2309130035
 20
66.3469490218
 30
0.0
 11
156.2309130035
 21
77.6868432849
 31
0.0
  0
LINE
  5
370
330
1F
100
AcDbEntity
  8
0
  6
Continuous
 62
     7
370
    15
100
AcDbLine
 10
153.0736680082
 20
66.3469490218
 30
0.0
 11
156.2309130035
 21
66.3469490218
 31
0.0
  0
LINE
  5
371
330
1F
100
AcDbEntity
  8
0
  6
Continuous
 62
     7
370
    15
100
AcDbLine
 10
156.2309130035
 20
94.346949886
 30
0.0
 11
156.6216438017
 21
94.346949886
 31
0.0
  0
LINE
  5
372
330
1F
100
AcDbEntity
  8
0
  6
Continuous
 62
     7
370
    15
100
AcDbLine
 10
156.6216438017
 20
83.3896357189
 30
0.0
 11
156.6216438017
 21
94.346949886
 31
0.0
  0
SPLINE
  5
373
330
1F
100
AcDbEntity
  8
0
  6
Continuous
 62
     7
370
    15
100
AcDbSpline
210
0.0
220
0.0
230
1.0
 70
     8
 71
     3
 72
    10
 73
     6
 74
     0
 42
0.00000001
 43
0.00000001
 12
1.0
 22
0.0
 32
0.0
 13
1.0
 23
0.0
 33
0.0
 40
0.0
 40
0.0
 40
0.0
 40
0.0
 40
0.4937150385427715
 40
0.7461768085231779
 40
1.0
 40
1.0
 40
1.0
 40
1.0
 10
156.6216438017207
 20
83.38963571887545
 30
0.0
 10
156.553349392453
 20
83.3290047059924
 30
0.0
 10
156.4501325560816
 20
83.23736995282763
 30
0.0
 10
156.3223411893672
 20
83.10759131734771
 30
0.0
 10
156.261443650785
 20
83.04062754389663
 30
0.0
 10
156.2309130034762
 20
83.00705562297337
 30
0.0
  0
LINE
  5
374
330
1F
100
AcDbEntity
  8
0
  6
Continuous
 62
     7
370
    15
100
AcDbLine
 10
156.2309130035
 20
66.3469490218
 30
0.0
 11
156.6216438017
 21
66.3469490218
 31
0.0
  0
SPLINE
  5
375
330
1F
100
AcDbEntity
  8
0
  6
Continuous
 62
     7
370
    15
100
AcDbSpline
210
0.0
220
0.0
230
1.0
 70
     8
 71
     3
 72
    10
 73
     6
 74
     0
 42
0.00000001
 43
0.00000001
 12
1.0
 22
0.0
 32
0.0
 13
1.0
 23
0.0
 33
0.0
 40
0.0
 40
0.0
 40
0.0
 40
0.0
 40
0.4941693131587601
 40
0.7462474354110195
 40
1.0
 40
1.0
 40
1.0
 40
1.0
 10
156.2309130034762
 20
77.68684328485362
 30
0.0
 10
156.2912173424841
 20
77.6216314667856
 30
0.0
 10
156.382283212279
 20
77.52315478946895
 30
0.0
 10
156.5158301339864
 20
77.39652485233269
 30
0.0
 10
156.5862948264694
 20
77.33508487130449
 30
0.0
 10
156.6216438017207
 20
77.30426318895154
 30
0.0
  0
LINE
  5
376
330
1F
100
AcDbEntity
  8
0
  6
Continuous
 62
     7
370
    15
100
AcDbLine
 10
156.6216438017
 20
66.3469490218
 30
0.0
 11
156.6216438017
 21
77.304263189
 31
0.0
  0
ARC
  5
377
330
1F
100
AcDbEntity
  8
0
  6
Continuous
 62
     7
370
    15
100
AcDbCircle
 10
159.2181912116
 20
80.3469494539
 30
0.0
 40
4.000000000000015
100
AcDbArc
 50
229.5234387067
 51
270.0
  0
LINE
  5
378
330
1F
100
AcDbEntity
  8
0
  6
Continuous
 62
     7
370
    15
100
AcDbLine
 10
159.2181916288
 20
76.3469492639
 30
0.0
 11
161.9181907676
 21
76.3469492639
 31
0.0
  0
LINE
  5
379
330
1F
100
AcDbEntity
  8
0
  6
Continuous
 62
     7
370
    15
100
AcDbLine
 10
156.6216438017
 20
66.3469490218
 30
0.0
 11
162.9181909315
 21
66.3469490218
 31
0.0
  0
LINE
  5
37A
330
1F
100
AcDbEntity
  8
0
  6
Continuous
 62
     7
370
    15
100
AcDbLine
 10
161.9181907676
 20
84.3469496439
 30
0.0
 11
159.2181916288
 21
84.3469496439
 31
0.0
  0
LINE
  5
37B
330
1F
100
AcDbEntity
  8
0
  6
Continuous
 62
     7
370
    15
100
AcDbLine
 10
156.6216438017
 20
94.346949886
 30
0.0
 11
162.9181909315
 21
94.346949886
 31
0.0
  0
ARC
  5
37C
330
1F
100
AcDbEntity
  8
0
  6
Continuous
 62
     7
370
    15
100
AcDbCircle
 10
159.2181912116
 20
80.3469494539
 30
0.0
 40
4.000000000000004
100
AcDbArc
 50
90.0
 51
130.4765612933
  0
LINE
  5
37D
330
1F
100
AcDbEntity
  8
0
  6
Continuous
 62
     7
370
    15
100
AcDbLine
 10
172.7181911641
 20
94.346949886
 30
0.0
 11
172.7181911641
 21
66.3469490218
 31
0.0
  0
LINE
  5
37E
330
1F
100
AcDbEntity
  8
0
  6
Continuous
 62
     7
370
    15
100
AcDbLine
 10
162.9181909315
 20
66.3469490218
 30
0.0
 11
172.7181911641
 21
66.3469490218
 31
0.0
  0
LINE
  5
37F
330
1F
100
AcDbEntity
  8
0
  6
Continuous
 62
     7
370
    15
100
AcDbLine
 10
161.9181907676
 20
67.3469491857
 30
0.0
 11
162.9181909315
 21
66.3469490218
 31
0.0
  0
LINE
  5
380
330
1F
100
AcDbEntity
  8
0
  6
Continuous
 62
     7
370
    15
100
AcDbLine
 10
161.9181907676
 20
93.3469497221
 30
0.0
 11
161.9181907676
 21
67.3469491857
 31
0.0
  0
LINE
  5
381
330
1F
100
AcDbEntity
  8
0
  6
Continuous
 62
     7
370
    15
100
AcDbLine
 10
162.9181909315
 20
94.346949886
 30
0.0
 11
161.9181907676
 21
93.3469497221
 31
0.0
  0
LINE
  5
382
330
1F
100
AcDbEntity
  8
0
  6
Continuous
 62
     7
370
    15
100
AcDbLine
 10
162.9181909315
 20
94.346949886
 30
0.0
 11
172.7181911641
 21
94.346949886
 31
0.0
  0
CIRCLE
  5
383
330
1F
100
AcDbEntity
  8
0
  6
Continuous
 62
     7
370
    15
100
AcDbCircle
 10
165.2181912116
 20
80.3469494539
 30
0.0
 40
2.099999999999994
  0
LINE
  5
384
330
1F
100
AcDbEntity
  8
0
  6
Continuous
 62
     7
370
    15
100
AcDbLine
 10
172.7181911641
 20
94.346949886
 30
0.0
 11
174.9181912686
 21
94.346949886
 31
0.0
  0
LINE
  5
385
330
1F
100
AcDbEntity
  8
0
  6
Continuous
 62
     7
370
    15
100
AcDbLine
 10
174.9181912686
 20
94.346949886
 30
0.0
 11
174.9181912686
 21
66.3469490218
 31
0.0
  0
LINE
  5
386
330
1F
100
AcDbEntity
  8
0
  6
Continuous
 62
     7
370
    15
100
AcDbLine
 10
172.7181911641
 20
66.3469490218
 30
0.0
 11
174.9181912686
 21
66.3469490218
 31
0.0
  0
LINE
  5
387
330
1F
100
AcDbEntity
  8
0
  6
Continuous
 62
     7
370
    15
100
AcDbLine
 10
126.2181918077
 20
79.659563079
 30
0.0
 11
126.2181918077
 21
81.0343358288
 31
0.0
  0
LINE
  5
388
330
1F
100
AcDbEntity
  8
0
  6
Continuous
 62
     8
370
    15
100
AcDbLine
 10
177.3181911498
 20
87.5969492453
 30
0.0
 11
177.3181911498
 21
73.0969496625
 31
0.0
  0
LINE
  5
389
330
1F
100
AcDbEntity
  8
0
  6
Continuous
 62
     8
370
    15
100
AcDbLine
 10
177.3181911498
 20
94.346949886
 30
0.0
 11
177.3181911498
 21
93.0969492155
 31
0.0
  0
LINE
  5
38A
330
1F
100
AcDbEntity
  8
0
  6
Continuous
 62
     8
370
    15
100
AcDbLine
 10
177.3181911498
 20
67.5969496923
 30
0.0
 11
177.3181911498
 21
66.3469490218
 31
0.0
  0
SPLINE
  5
38B
330
1F
100
AcDbEntity
  8
0
  6
Continuous
 62
     8
370
    15
100
AcDbSpline
210
0.0
220
0.0
230
1.0
 70
     8
 71
     3
 72
     9
 73
     5
 74
     0
 42
0.00000001
 43
0.00000001
 12
1.0
 22
0.0
 32
0.0
 13
1.0
 23
0.0
 33
0.0
 40
0.0
 40
0.0
 40
0.0
 40
0.0
 40
0.8451514234870482
 40
1.0
 40
1.0
 40
1.0
 40
1.0
 10
185.4181908942179
 20
68.74694960143499
 30
0.0
 10
185.4170639932272
 20
68.64095178146351
 30
0.0
 10
185.4157306215267
 20
68.51553304935734
 30
0.0
 10
185.3899394404009
 20
68.39335946613491
 30
0.0
 10
185.385945712717
 20
68.37444106068544
 30
0.0
  0
SPLINE
  5
38C
330
1F
100
AcDbEntity
  8
0
  6
Continuous
 62
     8
370
    15
100
AcDbSpline
210
0.0
220
0.0
230
1.0
 70
     8
 71
     3
 72
    40
 73
    36
 74
     0
 42
0.00000001
 43
0.00000001
 12
1.0
 22
0.0
 32
0.0
 13
1.0
 23
0.0
 33
0.0
 40
0.0
 40
0.0
 40
0.0
 40
0.0
 40
0.0524229801347762
 40
0.110492459211252
 40
0.156978697181943
 40
0.2307049796601567
 40
0.2949733972426168
 40
0.3628293337451636
 40
0.3967667362785418
 40
0.4137364918995642
 40
0.4222216432447612
 40
0.4264641289115763
 40
0.4285854115636467
 40
0.4296460439975471
 40
0.4301763600977409
 40
0.4304415178489411
 40
0.4305740967245411
 40
0.4306403867227706
 40
0.4306734317403551
 40
0.4306901539079673
 40
0.430698514695549
 40
0.4307024960229688
 40
0.4307066811537513
 40
0.4307460962952076
 40
0.4310793335191637
 40
0.4320254965458959
 40
0.4356375901066446
 40
0.4497421712331856
 40
0.4787751880830189
 40
0.52101455713794
 40
0.5764566901012055
 40
0.6450967939615853
 40
0.7269293753390897
 40
0.8649365003144613
 40
1.0
 40
1.0
 40
1.0
 40
1.0
 10
185.3692405796961
 20
68.29112401183777
 30
0.0
 10
185.3591584226946
 20
68.23413602719944
 30
0.0
 10
185.3379081557622
 20
68.11402186062607
 30
0.0
 10
185.2834466332919
 20
67.94920527531029
 30
0.0
 10
185.2118770722691
 20
67.7660983809375
 30
0.0
 10
185.1213716295492
 20
67.58340725742866
 30
0.0
 10
185.0018795655683
 20
67.39011467399256
 30
0.0
 10
184.8915867100201
 20
67.24355525229147
 30
0.0
 10
184.8056773798234
 20
67.14465479998505
 30
0.0
 10
184.7610140806031
 20
67.09674511494853
 30
0.0
 10
184.7382688228481
 20
67.0731841366265
 30
0.0
 10
184.7267905283818
 20
67.06150662537294
 30
0.0
 10
184.721029682659
 20
67.05568940168003
 30
0.0
 10
184.7181390530134
 20
67.05279089565784
 30
0.0
 10
184.7166945703382
 20
67.05134082751806
 30
0.0
 10
184.7159711417451
 20
67.05061698277663
 30
0.0
 10
184.7156086589443
 20
67.05025582238144
 30
0.0
 10
184.7154287955528
 20
67.05007402822035
 30
0.0
 10
184.7153381569537
 20
67.04998367587342
 30
0.0
 10
184.7152929278616
 20
67.04993825666713
 30
0.0
 10
184.7152701435866
 20
67.04991572105006
 30
0.0
 10
184.7152574463067
 20
67.04990263514956
 30
0.0
 10
184.71521802335
 20
67.04986796850727
 30
0.0
 10
184.7149327698012
 20
67.04956513148227
 30
0.0
 10
184.7138892305441
 20
67.04855274963367
 30
0.0
 10
184.7100921684662
 20
67.04472055926104
 30
0.0
 10
184.6954423186661
 20
67.03026785329446
 30
0.0
 10
184.6584303290036
 20
66.9943780281578
 30
0.0
 10
184.5888062143171
 20
66.93096649795734
 30
0.0
 10
184.4809932695086
 20
66.84195180709594
 30
0.0
 10
184.3318620431838
 20
66.73491034057317
 30
0.0
 10
184.1364708035898
 20
66.61842272191721
 30
0.0
 10
183.8472298350724
 20
66.48525012661511
 30
0.0
 10
183.4688583058418
 20
66.37122879187955
 30
0.0
 10
183.16733013597
 20
66.35498390670026
 30
0.0
 10
183.0181912458853
 20
66.34694902177982
 30
0.0
  0
LINE
  5
38D
330
1F
100
AcDbEntity
  8
0
  6
Continuous
 62
     8
370
    15
100
AcDbLine
 10
183.0181912459
 20
68.7469496014
 30
0.0
 11
179.5181911379
 21
68.7469496014
 31
0.0
  0
LINE
  5
38E
330
1F
100
AcDbEntity
  8
0
  6
Continuous
 62
     8
370
    15
100
AcDbLine
 10
179.5181911379
 20
91.9469493064
 30
0.0
 11
183.0181912459
 21
91.9469493064
 31
0.0
  0
LINE
  5
38F
330
1F
100
AcDbEntity
  8
0
  6
Continuous
 62
     8
370
    15
100
AcDbLine
 10
136.0681909076
 20
70.3469496774
 30
0.0
 11
139.3681908897
 21
70.3469496774
 31
0.0
  0
LINE
  5
390
330
1F
100
AcDbEntity
  8
0
  6
Continuous
 62
     8
370
    15
100
AcDbLine
 10
146.0681906841
 20
70.3469496774
 30
0.0
 11
149.3681906662
 21
70.3469496774
 31
0.0
  0
LINE
  5
391
330
1F
100
AcDbEntity
  8
0
  6
Continuous
 62
     8
370
    15
100
AcDbLine
 10
149.3681906662
 20
90.3469492304
 30
0.0
 11
146.0681906841
 21
90.3469492304
 31
0.0
  0
LINE
  5
392
330
1F
100
AcDbEntity
  8
0
  6
Continuous
 62
     8
370
    15
100
AcDbLine
 10
139.3681908897
 20
90.3469492304
 30
0.0
 11
136.0681909076
 21
90.3469492304
 31
0.0
  0
DIMENSION
  5
393
330
1F
100
AcDbEntity
  8
0
  6
Continuous
 62
     7
370
     0
100
AcDbDimension
  2
_D_17
 10
147.7181912116
 20
104.3595847685
 30
0.0
 11
126.4681912116
 21
104.3595847685
 31
0.0
 70
   160
  1
<>
 71
     2
 42
-1.0
  3
SLDDIMSTYLE1
100
AcDbAlignedDimension
 13
105.2181912116
 23
94.3469494539
 33
0.0
 14
147.7181912116
 24
94.4969494539
 34
0.0
100
AcDbRotatedDimension
  0
DIMENSION
  5
39D
330
1F
100
AcDbEntity
  8
0
  6
Continuous
 62
     7
370
     0
100
AcDbDimension
  2
_D_18
 10
147.7181912116
 20
98.6201658444
 30
0.0
 11
142.4434287576
 21
98.6201658444
 31
0.0
 70
   160
  1
<>
 71
     2
 42
-1.0
  3
SLDDIMSTYLE3
100
AcDbAlignedDimension
 13
137.7181912116
 23
94.4969494539
 33
0.0
 14
147.7181912116
 24
94.4969494539
 34
0.0
100
AcDbRotatedDimension
  0
DIMENSION
  5
3A9
330
1F
100
AcDbEntity
  8
0
  6
Continuous
 62
     7
370
     0
100
AcDbDimension
  2
_D_19
 10
185.4181912116
 20
104.3595847685
 30
0.0
 11
166.4338340614
 21
104.3595847685
 31
0.0
 70
   160
  1
<>
 71
     2
 42
-1.0
  3
SLDDIMSTYLE1
100
AcDbAlignedDimension
 13
147.7181912116
 23
94.4969494539
 33
0.0
 14
185.4181912116
 24
91.9469494539
 34
0.0
100
AcDbRotatedDimension
  0
DIMENSION
  5
3B3
330
1F
100
AcDbEntity
  8
0
  6
Continuous
 62
     7
370
     0
100
AcDbDimension
  2
_D_20
 10
118.9050821787
 20
70.3469494539
 30
0.0
 11
118.9050821787
 21
80.5732818385
 31
0.0
 70
   160
  1
<>
 71
     2
 42
-1.0
  3
SLDDIMSTYLE1
100
AcDbAlignedDimension
 13
133.5681912116
 23
90.3469494539
 33
0.0
 14
133.5681912116
 24
70.3469494539
 34
0.0
 50
90.0
100
AcDbRotatedDimension
  0
DIMENSION
  5
3BD
330
1F
100
AcDbEntity
  8
0
  6
Continuous
 62
     7
370
     0
100
AcDbDimension
  2
_D_21
 10
147.7181912116
 20
60.4635268432
 30
0.0
 11
138.0338735157
 21
60.4635268432
 31
0.0
 70
   160
  1
<>
 71
     2
 42
-1.0
  3
SLDDIMSTYLE1
100
AcDbAlignedDimension
 13
127.7181912116
 23
76.1969494539
 33
0.0
 14
147.7181912116
 24
66.1969494539
 34
0.0
100
AcDbRotatedDimension
  0
DIMENSION
  5
3C7
330
1F
100
AcDbEntity
  8
0
  6
Continuous
 62
     7
370
     0
100
AcDbDimension
  2
_D_22
 10
105.2181912116
 20
52.665112406
 30
0.0
 11
132.0821563465
 21
52.665112406
 31
0.0
 70
   160
  1
<>
 71
     2
 42
-1.0
  3
SLDDIMSTYLE1
100
AcDbAlignedDimension
 13
153.0736671133
 23
66.3469494539
 33
0.0
 14
105.2181912116
 24
66.3469494539
 34
0.0
100
AcDbRotatedDimension
  0
MTEXT
  5
3D1
330
1F
100
AcDbEntity
  8
0
  6
Continuous
 62
     7
370
     0
100
AcDbMText
 10
58.3023318402
 20
94.2358331401
 30
0.0
 40
3.5
 41
0.0
 71
     1
 72
     1
  1
ストローク調整
  7
SLDTEXTSTYLE0
 73
     1
 44
1.0
  0
LEADER
  5
3D2
330
1F
100
AcDbEntity
  8
0
  6
Continuous
 62
     7
370
     0
100
AcDbLeader
  3
SLDDIMSTYLE2
 76
     3
 10
100.9181912116
 20
89.8353283722
 30
0.0
 10
86.7837045721
 20
89.8007033998
 30
0.0
 10
58.264947245
 20
89.8007033998
 30
0.0
  0
MTEXT
  5
3D3
330
1F
100
AcDbEntity
  8
0
  6
Continuous
 62
     7
370
     0
100
AcDbMText
 10
64.513694382
 20
109.7743656049
 30
0.0
 40
3.5
 41
0.0
 71
     1
 72
     1
  1
6-M4 取付用
  7
SLDTEXTSTYLE0
 73
     1
 44
1.0
  0
LEADER
  5
3D5
330
1F
100
AcDbEntity
  8
0
  6
Continuous
 62
     7
370
     0
100
AcDbLeader
  3
SLDDIMSTYLE4
 76
     3
 10
136.5133753464
 20
91.4742997681
 30
0.0
 10
91.9419695193
 20
105.1582649472
 30
0.0
 10
64.4783118406
 20
105.1582649472
 30
0.0
  0
INSERT
  5
3E1
330
1F
100
AcDbEntity
  8
0
  6
Continuous
 62
     7
370
     0
100
AcDbBlockReference
  2
SW_CENTERMARKSYMBOL_6
 10
127.7181912116
 20
80.3469494539
 30
0.0
  0
INSERT
  5
3ED
330
1F
100
AcDbEntity
  8
0
  6
Continuous
 62
     7
370
     0
100
AcDbBlockReference
  2
SW_CENTERMARKSYMBOL_7
 10
137.7181912116
 20
90.3469494539
 30
0.0
  0
INSERT
  5
3F9
330
1F
100
AcDbEntity
  8
0
  6
Continuous
 62
     7
370
     0
100
AcDbBlockReference
  2
SW_CENTERMARKSYMBOL_8
 10
137.7181912116
 20
70.3469494539
 30
0.0
  0
INSERT
  5
405
330
1F
100
AcDbEntity
  8
0
  6
Continuous
 62
     7
370
     0
100
AcDbBlockReference
  2
SW_CENTERMARKSYMBOL_9
 10
147.7181912116
 20
70.3469494539
 30
0.0
  0
INSERT
  5
411
330
1F
100
AcDbEntity
  8
0
  6
Continuous
 62
     7
370
     0
100
AcDbBlockReference
  2
SW_CENTERMARKSYMBOL_10
 10
147.7181912116
 20
80.3469494539
 30
0.0
  0
INSERT
  5
41D
330
1F
100
AcDbEntity
  8
0
  6
Continuous
 62
     7
370
     0
100
AcDbBlockReference
  2
SW_CENTERMARKSYMBOL_11
 10
147.7181912116
 20
90.3469494539
 30
0.0
  0
LINE
  5
41E
330
1F
100
AcDbEntity
  8
0
  6
CENTERX2
 62
     7
370
     0
100
AcDbLine
 10
88.6181912116
 20
80.3469494539
 30
0.0
 11
110.2181912116
 21
80.3469494539
 31
0.0
  0
LINE
  5
41F
330
1F
100
AcDbEntity
  8
0
  6
CENTERX2
 62
     7
370
     0
100
AcDbLine
 10
91.0181912116
 20
80.3469494539
 30
0.0
 11
107.2181912116
 21
80.3469494539
 31
0.0
  0
LINE
  5
420
330
1F
100
AcDbEntity
  8
0
  6
CENTERX2
 62
     7
370
     0
100
AcDbLine
 10
107.2181912116
 20
89.8469494539
 30
0.0
 11
100.3307986028
 21
89.8469494539
 31
0.0
  0
ENDSEC
  0
SECTION
  2
OBJECTS
  0
DICTIONARY
  5
C
330
0
100
AcDbDictionary
281
     1
  3
ACAD_GROUP
350
D
  3
ACAD_LAYOUT
350
1A
  3
ACAD_MLINESTYLE
350
17
  3
ACAD_PLOTSETTINGS
350
19
  3
ACAD_PLOTSTYLENAME
350
E
  0
DICTIONARY
  5
D
102
{ACAD_REACTORS
330
C
102
}
330
C
100
AcDbDictionary
281
     1
  0
DICTIONARY
  5
1A
102
{ACAD_REACTORS
330
C
102
}
330
C
100
AcDbDictionary
281
     1
  3
Layout1
350
1E
  3
Layout2
350
26
  3
Model
350
22
  0
DICTIONARY
  5
17
102
{ACAD_REACTORS
330
C
102
}
330
C
100
AcDbDictionary
281
     1
  3
Standard
350
18
  0
DICTIONARY
  5
19
102
{ACAD_REACTORS
330
C
102
}
330
C
100
AcDbDictionary
281
     1
  0
ACDBDICTIONARYWDFLT
  5
E
102
{ACAD_REACTORS
330
C
102
}
330
C
100
AcDbDictionary
281
     1
  3
Normal
350
F
100
AcDbDictionaryWithDefault
340
F
  0
LAYOUT
  5
1E
102
{ACAD_REACTORS
330
1A
102
}
330
1A
100
AcDbPlotSettings
  1

  2
none_device
  4

  6

 40
0.0
 41
0.0
 42
0.0
 43
0.0
 44
0.0
 45
0.0
 46
0.0
 47
0.0
 48
0.0
 49
0.0
140
0.0
141
0.0
142
1.0
143
1.0
 70
   688
 72
     0
 73
     0
 74
     5
  7

 75
    16
147
1.0
148
0.0
149
0.0
100
AcDbLayout
  1
Layout1
 70
     1
 71
     1
 10
0.0
 20
0.0
 11
420.0
 21
297.0
 12
0.0
 22
0.0
 32
0.0
 14
1.0000000000E+20
 24
1.0000000000E+20
 34
1.0000000000E+20
 15
-1.0000000000E+20
 25
-1.0000000000E+20
 35
-1.0000000000E+20
146
0.0
 13
0.0
 23
0.0
 33
0.0
 16
1.0
 26
0.0
 36
0.0
 17
0.0
 27
1.0
 37
0.0
 76
     0
330
1B
  0
LAYOUT
  5
26
102
{ACAD_REACTORS
330
1A
102
}
330
1A
100
AcDbPlotSettings
  1

  2
none_device
  4

  6

 40
0.0
 41
0.0
 42
0.0
 43
0.0
 44
0.0
 45
0.0
 46
0.0
 47
0.0
 48
0.0
 49
0.0
140
0.0
141
0.0
142
1.0
143
1.0
 70
   688
 72
     0
 73
     0
 74
     5
  7

 75
    16
147
1.0
148
0.0
149
0.0
100
AcDbLayout
  1
Layout2
 70
     1
 71
     2
 10
0.0
 20
0.0
 11
0.0
 21
0.0
 12
0.0
 22
0.0
 32
0.0
 14
0.0
 24
0.0
 34
0.0
 15
0.0
 25
0.0
 35
0.0
146
0.0
 13
0.0
 23
0.0
 33
0.0
 16
1.0
 26
0.0
 36
0.0
 17
0.0
 27
1.0
 37
0.0
 76
     0
330
23
  0
LAYOUT
  5
22
102
{ACAD_REACTORS
330
1A
102
}
330
1A
100
AcDbPlotSettings
  1

  2
none_device
  4

  6

 40
0.0
 41
0.0
 42
0.0
 43
0.0
 44
0.0
 45
0.0
 46
0.0
 47
0.0
 48
0.0
 49
0.0
140
0.0
141
0.0
142
1.0
143
1.0
 70
  1712
 72
     0
 73
     0
 74
     0
  7

 75
     0
147
1.0
148
0.0
149
0.0
100
AcDbLayout
  1
Model
 70
     1
 71
     0
 10
0.0
 20
0.0
 11
210.0
 21
297.0
 12
0.0
 22
0.0
 32
0.0
 14
0.0
 24
0.0
 34
0.0
 15
210.0
 25
297.0
 35
0.0
146
0.0
 13
0.0
 23
0.0
 33
0.0
 16
1.0
 26
0.0
 36
0.0
 17
0.0
 27
1.0
 37
0.0
 76
     0
330
1F
331
29
  0
MLINESTYLE
  5
18
102
{ACAD_REACTORS
330
17
102
}
330
17
100
AcDbMlineStyle
  2
Standard
 70
     0
  3

 62
   256
 51
90.0
 52
90.0
 71
     2
 49
0.5
 62
   256
  6
BYLAYER
 49
-0.5
 62
   256
  6
BYLAYER
  0
ACDBPLACEHOLDER
  5
F
102
{ACAD_REACTORS
330
E
102
}
330
E
  0
ENDSEC
  0
EOF
