  0
SECTION
  2
HEADER
  9
$ACADVER
  1
AC1015
  9
$ACADMAINTVER
 70
     6
  9
$DWGCODEPAGE
  3
DOS932
  9
$INSBASE
 10
0.0
 20
0.0
 30
0.0
  9
$EXTMIN
 10
0.0
 20
0.0
 30
0.0
  9
$EXTMAX
 10
210.0
 20
297.0
 30
0.0
  9
$LIMMIN
 10
0.0
 20
0.0
  9
$LIMMAX
 10
210.0
 20
297.0
  9
$ORTHOMODE
 70
     0
  9
$REGENMODE
 70
     1
  9
$FILLMODE
 70
     1
  9
$QTEXTMODE
 70
     0
  9
$MIRRTEXT
 70
     1
  9
$LTSCALE
 40
1.0
  9
$ATTMODE
 70
     1
  9
$TEXTSIZE
 40
3.5
  9
$TRACEWID
 40
1.0
  9
$TEXTSTYLE
  7
Standard
  9
$CLAYER
  8
0
  9
$CELTYPE
  6
ByLayer
  9
$CECOLOR
 62
   256
  9
$CELTSCALE
 40
1.0
  9
$DISPSILH
 70
     0
  9
$DIMSCALE
 40
1.0
  9
$DIMASZ
 40
2.0
  9
$DIMEXO
 40
1.0
  9
$DIMDLI
 40
3.75
  9
$DIMRND
 40
0.0
  9
$DIMDLE
 40
0.0
  9
$DIMEXE
 40
1.0
  9
$DIMTP
 40
0.0
  9
$DIMTM
 40
0.0
  9
$DIMTXT
 40
3.5
  9
$DIMCEN
 40
2.5
  9
$DIMTSZ
 40
0.0
  9
$DIMTOL
 70
     0
  9
$DIMLIM
 70
     0
  9
$DIMTIH
 70
     1
  9
$DIMTOH
 70
     1
  9
$DIMSE1
 70
     0
  9
$DIMSE2
 70
     0
  9
$DIMTAD
 70
     1
  9
$DIMZIN
 70
     0
  9
$DIMBLK
  1

  9
$DIMASO
 70
     1
  9
$DIMSHO
 70
     1
  9
$DIMPOST
  1

  9
$DIMAPOST
  1

  9
$DIMALT
 70
     0
  9
$DIMALTD
 70
     3
  9
$DIMALTF
 40
0.0393700787
  9
$DIMLFAC
 40
1.0
  9
$DIMTOFL
 70
     1
  9
$DIMTVP
 40
0.0
  9
$DIMTIX
 70
     0
  9
$DIMSOXD
 70
     0
  9
$DIMSAH
 70
     0
  9
$DIMBLK1
  1

  9
$DIMBLK2
  1

  9
$DIMSTYLE
  2
ISO-25
  9
$DIMCLRD
 70
     0
  9
$DIMCLRE
 70
     0
  9
$DIMCLRT
 70
     0
  9
$DIMTFAC
 40
1.0
  9
$DIMGAP
 40
1.524
  9
$DIMJUST
 70
     0
  9
$DIMSD1
 70
     0
  9
$DIMSD2
 70
     0
  9
$DIMTOLJ
 70
     0
  9
$DIMTZIN
 70
     0
  9
$DIMALTZ
 70
     0
  9
$DIMALTTZ
 70
     0
  9
$DIMUPT
 70
     0
  9
$DIMDEC
 70
     2
  9
$DIMTDEC
 70
     2
  9
$DIMALTU
 70
     2
  9
$DIMALTTD
 70
     3
  9
$DIMTXSTY
  7
Standard
  9
$DIMAUNIT
 70
     0
  9
$DIMADEC
 70
     2
  9
$DIMALTRND
 40
0.0
  9
$DIMAZIN
 70
     0
  9
$DIMDSEP
 70
    44
  9
$DIMATFIT
 70
     3
  9
$DIMFRAC
 70
     0
  9
$DIMLDRBLK
  1

  9
$DIMLUNIT
 70
     2
  9
$DIMLWD
 70
    -2
  9
$DIMLWE
 70
    -2
  9
$DIMTMOVE
 70
     0
  9
$LUNITS
 70
     2
  9
$LUPREC
 70
     2
  9
$SKETCHINC
 40
1.0
  9
$FILLETRAD
 40
10.0
  9
$AUNITS
 70
     0
  9
$AUPREC
 70
     2
  9
$MENU
  1
.
  9
$ELEVATION
 40
0.0
  9
$PELEVATION
 40
0.0
  9
$THICKNESS
 40
0.0
  9
$LIMCHECK
 70
     0
  9
$CHAMFERA
 40
10.0
  9
$CHAMFERB
 40
10.0
  9
$CHAMFERC
 40
20.0
  9
$CHAMFERD
 40
0.0
  9
$SKPOLY
 70
     0
  9
$TDCREATE
 40
2457746.545451088
  9
$TDUCREATE
 40
2457746.170451088
  9
$TDUPDATE
 40
2457746.545460301
  9
$TDUUPDATE
 40
2457746.170460301
  9
$TDINDWG
 40
0.0000000116
  9
$TDUSRTIMER
 40
0.0000000116
  9
$USRTIMER
 70
     1
  9
$ANGBASE
 50
0.0
  9
$ANGDIR
 70
     0
  9
$PDMODE
 70
     0
  9
$PDSIZE
 40
-1.0
  9
$PLINEWID
 40
0.0
  9
$SPLFRAME
 70
     0
  9
$SPLINETYPE
 70
     6
  9
$SPLINESEGS
 70
     8
  9
$HANDSEED
  5
4E6
  9
$SURFTAB1
 70
     6
  9
$SURFTAB2
 70
     6
  9
$SURFTYPE
 70
     6
  9
$SURFU
 70
     6
  9
$SURFV
 70
     6
  9
$UCSBASE
  2

  9
$UCSNAME
  2

  9
$UCSORG
 10
0.0
 20
0.0
 30
0.0
  9
$UCSXDIR
 10
1.0
 20
0.0
 30
0.0
  9
$UCSYDIR
 10
0.0
 20
1.0
 30
0.0
  9
$UCSORTHOREF
  2

  9
$UCSORTHOVIEW
 70
     0
  9
$UCSORGTOP
 10
0.0
 20
0.0
 30
0.0
  9
$UCSORGBOTTOM
 10
0.0
 20
0.0
 30
0.0
  9
$UCSORGLEFT
 10
0.0
 20
0.0
 30
0.0
  9
$UCSORGRIGHT
 10
0.0
 20
0.0
 30
0.0
  9
$UCSORGFRONT
 10
0.0
 20
0.0
 30
0.0
  9
$UCSORGBACK
 10
0.0
 20
0.0
 30
0.0
  9
$PUCSBASE
  2

  9
$PUCSNAME
  2

  9
$PUCSORG
 10
0.0
 20
0.0
 30
0.0
  9
$PUCSXDIR
 10
1.0
 20
0.0
 30
0.0
  9
$PUCSYDIR
 10
0.0
 20
1.0
 30
0.0
  9
$PUCSORTHOREF
  2

  9
$PUCSORTHOVIEW
 70
     0
  9
$PUCSORGTOP
 10
0.0
 20
0.0
 30
0.0
  9
$PUCSORGBOTTOM
 10
0.0
 20
0.0
 30
0.0
  9
$PUCSORGLEFT
 10
0.0
 20
0.0
 30
0.0
  9
$PUCSORGRIGHT
 10
0.0
 20
0.0
 30
0.0
  9
$PUCSORGFRONT
 10
0.0
 20
0.0
 30
0.0
  9
$PUCSORGBACK
 10
0.0
 20
0.0
 30
0.0
  9
$USERI1
 70
     0
  9
$USERI2
 70
     0
  9
$USERI3
 70
     0
  9
$USERI4
 70
     0
  9
$USERI5
 70
     0
  9
$USERR1
 40
0.0
  9
$USERR2
 40
0.0
  9
$USERR3
 40
0.0
  9
$USERR4
 40
0.0
  9
$USERR5
 40
0.0
  9
$WORLDVIEW
 70
     1
  9
$SHADEDGE
 70
     3
  9
$SHADEDIF
 70
    70
  9
$TILEMODE
 70
     1
  9
$MAXACTVP
 70
    64
  9
$PINSBASE
 10
0.0
 20
0.0
 30
0.0
  9
$PLIMCHECK
 70
     0
  9
$PEXTMIN
 10
1.0000000000E+20
 20
1.0000000000E+20
 30
1.0000000000E+20
  9
$PEXTMAX
 10
-1.0000000000E+20
 20
-1.0000000000E+20
 30
-1.0000000000E+20
  9
$PLIMMIN
 10
0.0
 20
0.0
  9
$PLIMMAX
 10
420.0
 20
297.0
  9
$UNITMODE
 70
     0
  9
$VISRETAIN
 70
     1
  9
$PLINEGEN
 70
     0
  9
$PSLTSCALE
 70
     1
  9
$TREEDEPTH
 70
  3020
  9
$CMLSTYLE
  2
Standard
  9
$CMLJUST
 70
     0
  9
$CMLSCALE
 40
20.0
  9
$PROXYGRAPHICS
 70
     1
  9
$MEASUREMENT
 70
     1
  9
$CELWEIGHT
370
    -1
  9
$ENDCAPS
280
     0
  9
$JOINSTYLE
280
     0
  9
$LWDISPLAY
290
     1
  9
$INSUNITS
 70
     4
  9
$HYPERLINKBASE
  1

  9
$STYLESHEET
  1

  9
$XEDIT
290
     1
  9
$CEPSNTYPE
380
     0
  9
$PSTYLEMODE
290
     1
  9
$FINGERPRINTGUID
  2
{DDBF0B77-BAC4-41EB-BEB0-26EAD95796CD}
  9
$VERSIONGUID
  2
{FAEB1C32-E019-11D5-929B-00C0DF256EC4}
  9
$EXTNAMES
290
     1
  9
$PSVPSCALE
 40
0.0
  9
$OLESTARTUP
290
     0
  0
ENDSEC
  0
SECTION
  2
CLASSES
  0
CLASS
  1
ACDBDICTIONARYWDFLT
  2
AcDbDictionaryWithDefault
  3
ObjectDBX Classes
 90
        0
280
     0
281
     0
  0
CLASS
  1
VISUALSTYLE
  2
AcDbVisualStyle
  3
ObjectDBX Classes
 90
     4095
280
     0
281
     0
  0
CLASS
  1
MATERIAL
  2
AcDbMaterial
  3
ObjectDBX Classes
 90
     1153
280
     0
281
     0
  0
CLASS
  1
ACDBPLACEHOLDER
  2
AcDbPlaceHolder
  3
ObjectDBX Classes
 90
        0
280
     0
281
     0
  0
CLASS
  1
LAYOUT
  2
AcDbLayout
  3
ObjectDBX Classes
 90
        0
280
     0
281
     0
  0
ENDSEC
  0
SECTION
  2
TABLES
  0
TABLE
  2
VPORT
  5
8
330
0
100
AcDbSymbolTable
 70
     1
  0
VPORT
  5
29
330
8
100
AcDbSymbolTableRecord
100
AcDbViewportTableRecord
  2
*Active
 70
     0
 10
0.0
 20
0.0
 11
1.0
 21
1.0
 12
105.0
 22
148.5
 13
0.0
 23
0.0
 14
10.0
 24
10.0
 15
10.0
 25
10.0
 16
0.0
 26
0.0
 36
1.0
 17
0.0
 27
0.0
 37
0.0
 40
297.0
 41
0.7070707071
 42
50.0
 43
0.0
 44
0.0
 50
0.0
 51
0.0
 71
     0
 72
  2000
 73
     1
 74
     3
 75
     0
 76
     0
 77
     0
 78
     0
281
     0
 65
     1
110
0.0
120
0.0
130
0.0
111
1.0
121
0.0
131
0.0
112
0.0
122
1.0
132
0.0
 79
     0
146
0.0
  0
ENDTAB
  0
TABLE
  2
LTYPE
  5
5
330
0
100
AcDbSymbolTable
 70
     6
  0
LTYPE
  5
14
330
5
100
AcDbSymbolTableRecord
100
AcDbLinetypeTableRecord
  2
ByBlock
 70
     0
  3

 72
    65
 73
     0
 40
0.0
  0
LTYPE
  5
15
330
5
100
AcDbSymbolTableRecord
100
AcDbLinetypeTableRecord
  2
ByLayer
 70
     0
  3

 72
    65
 73
     0
 40
0.0
  0
LTYPE
  5
16
330
5
100
AcDbSymbolTableRecord
100
AcDbLinetypeTableRecord
  2
Continuous
 70
     0
  3
Solid line
 72
    65
 73
     0
 40
0.0
  0
LTYPE
  5
3F
330
5
100
AcDbSymbolTableRecord
100
AcDbLinetypeTableRecord
  2
HIDDEN
 70
     0
  3
Hidden __ __ __ __ __ __ __ __ __ __ __ __ __ __
 72
    65
 73
     2
 40
1.905
 49
1.27
 74
     0
 49
-0.635
 74
     0
  0
LTYPE
  5
40
330
5
100
AcDbSymbolTableRecord
100
AcDbLinetypeTableRecord
  2
PHANTOM
 70
     0
  3
Phantom ______  __  __  ______  __  __  ______
 72
    65
 73
     6
 40
12.7
 49
6.35
 74
     0
 49
-1.27
 74
     0
 49
1.27
 74
     0
 49
-1.27
 74
     0
 49
1.27
 74
     0
 49
-1.27
 74
     0
  0
LTYPE
  5
41
330
5
100
AcDbSymbolTableRecord
100
AcDbLinetypeTableRecord
  2
CENTER
 70
     0
  3
Center ____ _ ____ _ ____ _ ____ _ ____ _ ____
 72
    65
 73
     4
 40
10.16
 49
6.35
 74
     0
 49
-1.27
 74
     0
 49
1.27
 74
     0
 49
-1.27
 74
     0
  0
LTYPE
  5
42
330
5
100
AcDbSymbolTableRecord
100
AcDbLinetypeTableRecord
  2
CENTERX2
 70
     0
  3
Center (2x) ________  __  ________  __  _____
 72
    65
 73
     4
 40
20.32
 49
12.7
 74
     0
 49
-2.54
 74
     0
 49
2.54
 74
     0
 49
-2.54
 74
     0
  0
LTYPE
  5
43
330
5
100
AcDbSymbolTableRecord
100
AcDbLinetypeTableRecord
  2
DOT2
 70
     0
  3
Dot (.5x) ........................................
 72
    65
 73
     2
 40
0.635
 49
0.0
 74
     0
 49
-0.635
 74
     0
  0
ENDTAB
  0
TABLE
  2
LAYER
  5
2
330
0
100
AcDbSymbolTable
 70
     1
  0
LAYER
  5
10
330
2
100
AcDbSymbolTableRecord
100
AcDbLayerTableRecord
  2
0
 70
     0
 62
     7
  6
Continuous
370
    -3
390
F
  0
ENDTAB
  0
TABLE
  2
STYLE
  5
3
330
0
100
AcDbSymbolTable
 70
     3
  0
STYLE
  5
11
330
3
100
AcDbSymbolTableRecord
100
AcDbTextStyleTableRecord
  2
Standard
 70
     0
 40
0.0
 41
1.0
 50
0.0
 71
     0
 42
3.5
  3
txt
  4
bigfont
  0
STYLE
  5
4C
330
3
100
AcDbSymbolTableRecord
100
AcDbTextStyleTableRecord
  2
SLDTEXTSTYLE0
 70
     0
 40
0.0
 41
0.75
 50
0.0
 71
     0
 42
0.2
  3
TXT
  4
bigfont
  0
STYLE
  5
4F
330
3
100
AcDbSymbolTableRecord
100
AcDbTextStyleTableRecord
  2
SLDTEXTSTYLE1
 70
     0
 40
0.0
 41
0.7
 50
0.0
 71
     0
 42
0.2
  3
TXT
  4
bigfont
  0
ENDTAB
  0
TABLE
  2
VIEW
  5
6
330
0
100
AcDbSymbolTable
 70
     0
  0
ENDTAB
  0
TABLE
  2
UCS
  5
7
330
0
100
AcDbSymbolTable
 70
     0
  0
ENDTAB
  0
TABLE
  2
APPID
  5
9
330
0
100
AcDbSymbolTable
 70
     1
  0
APPID
  5
12
330
9
100
AcDbSymbolTableRecord
100
AcDbRegAppTableRecord
  2
ACAD
 70
     0
  0
ENDTAB
  0
TABLE
  2
DIMSTYLE
  5
A
330
0
100
AcDbSymbolTable
 70
     7
100
AcDbDimStyleTable
  0
DIMSTYLE
105
27
330
A
100
AcDbSymbolTableRecord
100
AcDbDimStyleTableRecord
  2
ISO-25
 70
     0
 41
2.5
 42
0.625
 43
3.75
 44
1.25
 73
     0
 74
     0
 77
     1
 78
     8
140
2.5
141
2.5
143
0.0393700787
147
0.625
171
     3
172
     1
178
     0
271
     2
272
     2
274
     3
278
    44
283
     0
284
     8
340
11
  0
DIMSTYLE
105
17D
102
{ACAD_REACTORS
330
17C
330
189
330
1A8
330
350
330
35A
330
364
330
36E
330
37A
102
}
330
A
100
AcDbSymbolTableRecord
100
AcDbDimStyleTableRecord
  2
SLDDIMSTYLE0
 70
     0
 41
2.0
 44
0.0
 45
0.000000001
 73
     0
 74
     0
 77
     3
 78
    12
 79
     3
140
3.5
147
0.875
173
     1
178
     0
271
     1
272
     1
276
     2
284
    12
340
4C
  0
DIMSTYLE
105
194
102
{ACAD_REACTORS
330
193
330
19E
330
384
330
42C
330
44E
330
458
330
46C
330
476
102
}
330
A
100
AcDbSymbolTableRecord
100
AcDbDimStyleTableRecord
  2
SLDDIMSTYLE1
 70
     0
 41
2.0
 44
0.0
 45
0.000000001
 73
     0
 74
     0
 77
     3
 78
    12
 79
     3
140
3.5
147
0.875
173
     1
178
     0
271
     2
272
     2
276
     2
284
    12
340
4C
  0
DIMSTYLE
105
1B3
102
{ACAD_REACTORS
330
1B2
102
}
330
A
100
AcDbSymbolTableRecord
100
AcDbDimStyleTableRecord
  2
SLDDIMSTYLE2
 70
     0
 41
2.0
 44
0.0
 45
0.000000001
 73
     0
 74
     0
 77
     3
 78
    12
 79
     3
140
3.5
147
0.875
172
     1
173
     1
178
     0
271
     1
272
     1
276
     2
284
    12
289
     0
340
4C
  0
DIMSTYLE
105
1C0
102
{ACAD_REACTORS
330
1BF
330
344
330
436
330
462
102
}
330
A
100
AcDbSymbolTableRecord
100
AcDbDimStyleTableRecord
  2
SLDDIMSTYLE3
 70
     0
 41
2.0
 44
0.0
 45
0.000000001
 73
     0
 74
     0
 77
     3
 78
    12
 79
     3
140
3.5
147
0.875
173
     1
178
     0
271
     1
272
     2
276
     2
284
    12
340
4C
  0
DIMSTYLE
105
337
102
{ACAD_REACTORS
330
336
330
442
102
}
330
A
100
AcDbSymbolTableRecord
100
AcDbDimStyleTableRecord
  2
SLDDIMSTYLE4
 70
     0
 41
2.0
 44
0.0
 45
0.000000001
 73
     0
 74
     0
 77
     3
 78
    12
 79
     3
140
3.5
147
0.875
172
     1
173
     1
178
     0
271
     2
272
     2
276
     2
284
    12
289
     0
340
4C
  0
DIMSTYLE
105
38E
330
A
100
AcDbSymbolTableRecord
100
AcDbDimStyleTableRecord
  2
SLDDIMSTYLE5
 70
     0
 41
2.0
 44
0.0
 45
0.000000001
140
0.0
146
2.0
147
0.0
173
     1
178
     0
271
     0
272
     0
276
     2
340
11
  0
ENDTAB
  0
TABLE
  2
BLOCK_RECORD
  5
1
330
0
100
AcDbSymbolTable
 70
    40
  0
BLOCK_RECORD
  5
1F
330
1
100
AcDbSymbolTableRecord
100
AcDbBlockTableRecord
  2
*Model_Space
340
22
  0
BLOCK_RECORD
  5
1B
330
1
100
AcDbSymbolTableRecord
100
AcDbBlockTableRecord
  2
*Paper_Space
340
1E
  0
BLOCK_RECORD
  5
23
330
1
100
AcDbSymbolTableRecord
100
AcDbBlockTableRecord
  2
*Paper_Space0
340
26
  0
BLOCK_RECORD
  5
17E
330
1
100
AcDbSymbolTableRecord
100
AcDbBlockTableRecord
  2
_D
340
0
  0
BLOCK_RECORD
  5
18A
330
1
100
AcDbSymbolTableRecord
100
AcDbBlockTableRecord
  2
_D_1
340
0
  0
BLOCK_RECORD
  5
195
330
1
100
AcDbSymbolTableRecord
100
AcDbBlockTableRecord
  2
_D_2
340
0
  0
BLOCK_RECORD
  5
19F
330
1
100
AcDbSymbolTableRecord
100
AcDbBlockTableRecord
  2
_D_3
340
0
  0
BLOCK_RECORD
  5
1A9
330
1
100
AcDbSymbolTableRecord
100
AcDbBlockTableRecord
  2
_D_4
340
0
  0
BLOCK_RECORD
  5
1B4
330
1
100
AcDbSymbolTableRecord
100
AcDbBlockTableRecord
  2
_D_5
340
0
  0
BLOCK_RECORD
  5
1C1
330
1
100
AcDbSymbolTableRecord
100
AcDbBlockTableRecord
  2
_D_6
340
0
  0
BLOCK_RECORD
  5
1CC
330
1
100
AcDbSymbolTableRecord
100
AcDbBlockTableRecord
  2
SW_CENTERMARKSYMBOL_0
340
0
102
{BLKREFS
331
1D7
102
}
  0
BLOCK_RECORD
  5
1D8
330
1
100
AcDbSymbolTableRecord
100
AcDbBlockTableRecord
  2
SW_CENTERMARKSYMBOL_1
340
0
102
{BLKREFS
331
1E3
102
}
  0
BLOCK_RECORD
  5
1E4
330
1
100
AcDbSymbolTableRecord
100
AcDbBlockTableRecord
  2
SW_CENTERMARKSYMBOL_2
340
0
102
{BLKREFS
331
1EF
102
}
  0
BLOCK_RECORD
  5
1F0
330
1
100
AcDbSymbolTableRecord
100
AcDbBlockTableRecord
  2
SW_CENTERMARKSYMBOL_3
340
0
102
{BLKREFS
331
1FB
102
}
  0
BLOCK_RECORD
  5
1FC
330
1
100
AcDbSymbolTableRecord
100
AcDbBlockTableRecord
  2
SW_CENTERMARKSYMBOL_4
340
0
102
{BLKREFS
331
207
102
}
  0
BLOCK_RECORD
  5
208
330
1
100
AcDbSymbolTableRecord
100
AcDbBlockTableRecord
  2
SW_CENTERMARKSYMBOL_5
340
0
102
{BLKREFS
331
213
102
}
  0
BLOCK_RECORD
  5
214
330
1
100
AcDbSymbolTableRecord
100
AcDbBlockTableRecord
  2
SW_CENTERMARKSYMBOL_6
340
0
102
{BLKREFS
331
21F
102
}
  0
BLOCK_RECORD
  5
220
330
1
100
AcDbSymbolTableRecord
100
AcDbBlockTableRecord
  2
SW_CENTERMARKSYMBOL_7
340
0
102
{BLKREFS
331
22B
102
}
  0
BLOCK_RECORD
  5
338
330
1
100
AcDbSymbolTableRecord
100
AcDbBlockTableRecord
  2
_D_7
340
0
  0
BLOCK_RECORD
  5
345
330
1
100
AcDbSymbolTableRecord
100
AcDbBlockTableRecord
  2
_D_8
340
0
  0
BLOCK_RECORD
  5
351
330
1
100
AcDbSymbolTableRecord
100
AcDbBlockTableRecord
  2
_D_9
340
0
  0
BLOCK_RECORD
  5
35B
330
1
100
AcDbSymbolTableRecord
100
AcDbBlockTableRecord
  2
_D_10
340
0
  0
BLOCK_RECORD
  5
365
330
1
100
AcDbSymbolTableRecord
100
AcDbBlockTableRecord
  2
_D_11
340
0
  0
BLOCK_RECORD
  5
36F
330
1
100
AcDbSymbolTableRecord
100
AcDbBlockTableRecord
  2
_D_12
340
0
  0
BLOCK_RECORD
  5
37B
330
1
100
AcDbSymbolTableRecord
100
AcDbBlockTableRecord
  2
_D_13
340
0
  0
BLOCK_RECORD
  5
385
330
1
100
AcDbSymbolTableRecord
100
AcDbBlockTableRecord
  2
_D_14
340
0
  0
BLOCK_RECORD
  5
42D
330
1
100
AcDbSymbolTableRecord
100
AcDbBlockTableRecord
  2
_D_15
340
0
  0
BLOCK_RECORD
  5
437
330
1
100
AcDbSymbolTableRecord
100
AcDbBlockTableRecord
  2
_D_16
340
0
  0
BLOCK_RECORD
  5
443
330
1
100
AcDbSymbolTableRecord
100
AcDbBlockTableRecord
  2
_D_17
340
0
  0
BLOCK_RECORD
  5
44F
330
1
100
AcDbSymbolTableRecord
100
AcDbBlockTableRecord
  2
_D_18
340
0
  0
BLOCK_RECORD
  5
459
330
1
100
AcDbSymbolTableRecord
100
AcDbBlockTableRecord
  2
_D_19
340
0
  0
BLOCK_RECORD
  5
463
330
1
100
AcDbSymbolTableRecord
100
AcDbBlockTableRecord
  2
_D_20
340
0
  0
BLOCK_RECORD
  5
46D
330
1
100
AcDbSymbolTableRecord
100
AcDbBlockTableRecord
  2
_D_21
340
0
  0
BLOCK_RECORD
  5
477
330
1
100
AcDbSymbolTableRecord
100
AcDbBlockTableRecord
  2
_D_22
340
0
  0
BLOCK_RECORD
  5
484
330
1
100
AcDbSymbolTableRecord
100
AcDbBlockTableRecord
  2
SW_CENTERMARKSYMBOL_8
340
0
102
{BLKREFS
331
48F
102
}
  0
BLOCK_RECORD
  5
490
330
1
100
AcDbSymbolTableRecord
100
AcDbBlockTableRecord
  2
SW_CENTERMARKSYMBOL_9
340
0
102
{BLKREFS
331
49B
102
}
  0
BLOCK_RECORD
  5
49C
330
1
100
AcDbSymbolTableRecord
100
AcDbBlockTableRecord
  2
SW_CENTERMARKSYMBOL_10
340
0
102
{BLKREFS
331
4A7
102
}
  0
BLOCK_RECORD
  5
4A8
330
1
100
AcDbSymbolTableRecord
100
AcDbBlockTableRecord
  2
SW_CENTERMARKSYMBOL_11
340
0
102
{BLKREFS
331
4B3
102
}
  0
BLOCK_RECORD
  5
4B4
330
1
100
AcDbSymbolTableRecord
100
AcDbBlockTableRecord
  2
SW_CENTERMARKSYMBOL_12
340
0
102
{BLKREFS
331
4BF
102
}
  0
BLOCK_RECORD
  5
4C0
330
1
100
AcDbSymbolTableRecord
100
AcDbBlockTableRecord
  2
SW_CENTERMARKSYMBOL_13
340
0
102
{BLKREFS
331
4CB
102
}
  0
BLOCK_RECORD
  5
4CC
330
1
100
AcDbSymbolTableRecord
100
AcDbBlockTableRecord
  2
SW_CENTERMARKSYMBOL_14
340
0
102
{BLKREFS
331
4D7
102
}
  0
BLOCK_RECORD
  5
4D8
330
1
100
AcDbSymbolTableRecord
100
AcDbBlockTableRecord
  2
SW_CENTERMARKSYMBOL_15
340
0
102
{BLKREFS
331
4E3
102
}
  0
ENDTAB
  0
ENDSEC
  0
SECTION
  2
BLOCKS
  0
BLOCK
  5
20
330
1F
100
AcDbEntity
  8
0
100
AcDbBlockBegin
  2
*Model_Space
 70
     0
 10
0.0
 20
0.0
 30
0.0
  3
*Model_Space
  1

  0
ENDBLK
  5
21
330
1F
100
AcDbEntity
  8
0
100
AcDbBlockEnd
  0
BLOCK
  5
1C
330
1B
100
AcDbEntity
 67
     1
  8
0
100
AcDbBlockBegin
  2
*Paper_Space
 70
     0
 10
0.0
 20
0.0
 30
0.0
  3
*Paper_Space
  1

  0
ENDBLK
  5
1D
330
1B
100
AcDbEntity
 67
     1
  8
0
100
AcDbBlockEnd
  0
BLOCK
  5
24
330
23
100
AcDbEntity
  8
0
100
AcDbBlockBegin
  2
*Paper_Space0
 70
     0
 10
0.0
 20
0.0
 30
0.0
  3
*Paper_Space0
  1

  0
ENDBLK
  5
25
330
23
100
AcDbEntity
  8
0
100
AcDbBlockEnd
  0
BLOCK
  5
17F
330
17E
100
AcDbEntity
  8
0
100
AcDbBlockBegin
  2
_D
 70
     0
 10
0.0
 20
0.0
 30
0.0
  3
_D
  1

  0
ARC
  5
181
330
17E
100
AcDbEntity
  8
0
  6
Continuous
 62
     7
370
     0
100
AcDbCircle
 10
82.7182266939
 20
244.7677512052
 30
0.0
 40
6.21207633999562
100
AcDbArc
 50
243.4349488229
 51
296.5650511771
  0
ARC
  5
182
330
17E
100
AcDbEntity
  8
0
  6
Continuous
 62
     7
370
     0
100
AcDbCircle
 10
82.7182266939
 20
238.8274736101
 30
0.0
 40
6.21207633999562
100
AcDbArc
 50
63.4349488229
 51
116.5650511771
  0
SOLID
  5
183
330
17E
100
AcDbEntity
  8
0
  6
Continuous
 62
     7
370
     0
100
AcDbTrace
 10
85.4963516894
 20
257.9199582632
 30
0.0
 11
84.7463516894
 21
255.9199582632
 31
0.0
 12
86.2463516894
 22
255.9199582632
 32
0.0
 13
86.2463516894
 23
255.9199582632
 33
0.0
  0
SOLID
  5
184
330
17E
100
AcDbEntity
  8
0
  6
Continuous
 62
     7
370
     0
100
AcDbTrace
 10
85.4963516894
 20
225.9689582632
 30
0.0
 11
86.2463516894
 21
227.9689582632
 31
0.0
 12
84.7463516894
 22
227.9689582632
 32
0.0
 13
84.7463516894
 23
227.9689582632
 33
0.0
  0
LINE
  5
185
330
17E
100
AcDbEntity
  8
0
  6
Continuous
 62
     7
370
     0
100
AcDbLine
 10
57.5648492873
 20
257.9199582632
 30
0.0
 11
86.4963516894
 21
257.9199582632
 31
0.0
  0
LINE
  5
186
330
17E
100
AcDbEntity
  8
0
  6
Continuous
 62
     7
370
     0
100
AcDbLine
 10
62.529419287
 20
225.9689582632
 30
0.0
 11
86.4963516894
 21
225.9689582632
 31
0.0
  0
LINE
  5
187
330
17E
100
AcDbEntity
  8
0
  6
Continuous
 62
     7
370
     0
100
AcDbLine
 10
85.4963516894
 20
257.9199582632
 30
0.0
 11
85.4963516894
 21
225.9689582632
 31
0.0
  0
MTEXT
  5
188
330
17E
100
AcDbEntity
  8
0
  6
Continuous
 62
     7
370
     0
100
AcDbMText
 10
80.9846147748
 20
239.2115012141
 30
0.1525005052
 40
3.5
 41
0.0
 71
     1
 72
     1
  1
32
  7
SLDTEXTSTYLE0
 11
-7.044195017643634E-15
 21
1.0
 31
0.0
 73
     1
 44
1.0
  0
ENDBLK
  5
180
330
17E
100
AcDbEntity
  8
0
100
AcDbBlockEnd
  0
BLOCK
  5
18B
330
18A
100
AcDbEntity
  8
0
100
AcDbBlockBegin
  2
_D_1
 70
     0
 10
0.0
 20
0.0
 30
0.0
  3
_D_1
  1

  0
SOLID
  5
18D
330
18A
100
AcDbEntity
  8
0
  6
Continuous
 62
     7
370
     0
100
AcDbTrace
 10
85.4963516894
 20
225.9689582632
 30
0.0
 11
84.7463516894
 21
223.9689582632
 31
0.0
 12
86.2463516894
 22
223.9689582632
 32
0.0
 13
86.2463516894
 23
223.9689582632
 33
0.0
  0
SOLID
  5
18E
330
18A
100
AcDbEntity
  8
0
  6
Continuous
 62
     7
370
     0
100
AcDbTrace
 10
85.4963516894
 20
173.7689582632
 30
0.0
 11
86.2463516894
 21
175.7689582632
 31
0.0
 12
84.7463516894
 22
175.7689582632
 32
0.0
 13
84.7463516894
 23
175.7689582632
 33
0.0
  0
LINE
  5
18F
330
18A
100
AcDbEntity
  8
0
  6
Continuous
 62
     7
370
     0
100
AcDbLine
 10
62.529419287
 20
225.9689582632
 30
0.0
 11
86.4963516894
 21
225.9689582632
 31
0.0
  0
LINE
  5
190
330
18A
100
AcDbEntity
  8
0
  6
Continuous
 62
     7
370
     0
100
AcDbLine
 10
73.529419287
 20
173.7689582632
 30
0.0
 11
86.4963516894
 21
173.7689582632
 31
0.0
  0
LINE
  5
191
330
18A
100
AcDbEntity
  8
0
  6
Continuous
 62
     7
370
     0
100
AcDbLine
 10
85.4963516894
 20
225.9689582632
 30
0.0
 11
85.4963516894
 21
173.7689582632
 31
0.0
  0
MTEXT
  5
192
330
18A
100
AcDbEntity
  8
0
  6
Continuous
 62
     7
370
     0
100
AcDbMText
 10
80.9846147748
 20
191.1298514213
 30
0.1525005052
 40
3.5
 41
0.0
 71
     1
 72
     1
  1
52.2
  7
SLDTEXTSTYLE0
 11
-7.044195017643634E-15
 21
1.0
 31
0.0
 73
     1
 44
1.0
  0
ENDBLK
  5
18C
330
18A
100
AcDbEntity
  8
0
100
AcDbBlockEnd
  0
BLOCK
  5
196
330
195
100
AcDbEntity
  8
0
100
AcDbBlockBegin
  2
_D_2
 70
     0
 10
0.0
 20
0.0
 30
0.0
  3
_D_2
  1

  0
SOLID
  5
198
330
195
100
AcDbEntity
  8
0
  6
Continuous
 62
     7
370
     0
100
AcDbTrace
 10
79.3224023466
 20
214.7689582632
 30
0.0
 11
78.5724023466
 21
212.7689582632
 31
0.0
 12
80.0724023466
 22
212.7689582632
 32
0.0
 13
80.0724023466
 23
212.7689582632
 33
0.0
  0
SOLID
  5
199
330
195
100
AcDbEntity
  8
0
  6
Continuous
 62
     7
370
     0
100
AcDbTrace
 10
79.3224023466
 20
173.7689582632
 30
0.0
 11
80.0724023466
 21
175.7689582632
 31
0.0
 12
78.5724023466
 22
175.7689582632
 32
0.0
 13
78.5724023466
 23
175.7689582632
 33
0.0
  0
LINE
  5
19A
330
195
100
AcDbEntity
  8
0
  6
Continuous
 62
     7
370
     0
100
AcDbLine
 10
71.029419287
 20
214.7689582632
 30
0.0
 11
80.3224023466
 21
214.7689582632
 31
0.0
  0
LINE
  5
19B
330
195
100
AcDbEntity
  8
0
  6
Continuous
 62
     7
370
     0
100
AcDbLine
 10
73.529419287
 20
173.7689582632
 30
0.0
 11
80.3224023466
 21
173.7689582632
 31
0.0
  0
LINE
  5
19C
330
195
100
AcDbEntity
  8
0
  6
Continuous
 62
     7
370
     0
100
AcDbLine
 10
79.3224023466
 20
214.7689582632
 30
0.0
 11
79.3224023466
 21
173.7689582632
 31
0.0
  0
MTEXT
  5
19D
330
195
100
AcDbEntity
  8
0
  6
Continuous
 62
     7
370
     0
100
AcDbMText
 10
74.810665432
 20
191.3577741317
 30
0.1525005052
 40
3.5
 41
0.0
 71
     1
 72
     1
  1
41
  7
SLDTEXTSTYLE0
 11
-7.044195017643634E-15
 21
1.0
 31
0.0
 73
     1
 44
1.0
  0
ENDBLK
  5
197
330
195
100
AcDbEntity
  8
0
100
AcDbBlockEnd
  0
BLOCK
  5
1A0
330
19F
100
AcDbEntity
  8
0
100
AcDbBlockBegin
  2
_D_3
 70
     0
 10
0.0
 20
0.0
 30
0.0
  3
_D_3
  1

  0
SOLID
  5
1A2
330
19F
100
AcDbEntity
  8
0
  6
Continuous
 62
     7
370
     0
100
AcDbTrace
 10
29.029419287
 20
166.8917421428
 30
0.0
 11
31.029419287
 21
166.1417421428
 31
0.0
 12
31.029419287
 22
167.6417421428
 32
0.0
 13
31.029419287
 23
167.6417421428
 33
0.0
  0
SOLID
  5
1A3
330
19F
100
AcDbEntity
  8
0
  6
Continuous
 62
     7
370
     0
100
AcDbTrace
 10
74.029419287
 20
166.8917421428
 30
0.0
 11
72.029419287
 21
167.6417421428
 31
0.0
 12
72.029419287
 22
166.1417421428
 32
0.0
 13
72.029419287
 23
166.1417421428
 33
0.0
  0
LINE
  5
1A4
330
19F
100
AcDbEntity
  8
0
  6
Continuous
 62
     7
370
     0
100
AcDbLine
 10
29.029419287
 20
173.2689582632
 30
0.0
 11
29.029419287
 21
165.8917421428
 31
0.0
  0
LINE
  5
1A5
330
19F
100
AcDbEntity
  8
0
  6
Continuous
 62
     7
370
     0
100
AcDbLine
 10
74.029419287
 20
173.2689582632
 30
0.0
 11
74.029419287
 21
165.8917421428
 31
0.0
  0
LINE
  5
1A6
330
19F
100
AcDbEntity
  8
0
  6
Continuous
 62
     7
370
     0
100
AcDbLine
 10
29.029419287
 20
166.8917421428
 30
0.0
 11
74.029419287
 21
166.8917421428
 31
0.0
  0
MTEXT
  5
1A7
330
19F
100
AcDbEntity
  8
0
  6
Continuous
 62
     7
370
     0
100
AcDbMText
 10
48.9433080935
 20
171.4034790574
 30
0.1525005052
 40
3.5
 41
0.0
 71
     1
 72
     1
  1
45
  7
SLDTEXTSTYLE0
 73
     1
 44
1.0
  0
ENDBLK
  5
1A1
330
19F
100
AcDbEntity
  8
0
100
AcDbBlockEnd
  0
BLOCK
  5
1AA
330
1A9
100
AcDbEntity
  8
0
100
AcDbBlockBegin
  2
_D_4
 70
     0
 10
0.0
 20
0.0
 30
0.0
  3
_D_4
  1

  0
SOLID
  5
1AC
330
1A9
100
AcDbEntity
  8
0
  6
Continuous
 62
     7
370
     0
100
AcDbTrace
 10
25.4985602245
 20
173.7689582632
 30
0.0
 11
26.2485602245
 21
175.7689582632
 31
0.0
 12
24.7485602245
 22
175.7689582632
 32
0.0
 13
24.7485602245
 23
175.7689582632
 33
0.0
  0
SOLID
  5
1AD
330
1A9
100
AcDbEntity
  8
0
  6
Continuous
 62
     7
370
     0
100
AcDbTrace
 10
25.4985602245
 20
221.7689582632
 30
0.0
 11
24.7485602245
 21
219.7689582632
 31
0.0
 12
26.2485602245
 22
219.7689582632
 32
0.0
 13
26.2485602245
 23
219.7689582632
 33
0.0
  0
LINE
  5
1AE
330
1A9
100
AcDbEntity
  8
0
  6
Continuous
 62
     7
370
     0
100
AcDbLine
 10
28.529419287
 20
173.7689582632
 30
0.0
 11
24.4985602245
 21
173.7689582632
 31
0.0
  0
LINE
  5
1AF
330
1A9
100
AcDbEntity
  8
0
  6
Continuous
 62
     7
370
     0
100
AcDbLine
 10
42.429419287
 20
221.7689582632
 30
0.0
 11
24.4985602245
 21
221.7689582632
 31
0.0
  0
LINE
  5
1B0
330
1A9
100
AcDbEntity
  8
0
  6
Continuous
 62
     7
370
     0
100
AcDbLine
 10
25.4985602245
 20
173.7689582632
 30
0.0
 11
25.4985602245
 21
221.7689582632
 31
0.0
  0
MTEXT
  5
1B1
330
1A9
100
AcDbEntity
  8
0
  6
Continuous
 62
     7
370
     0
100
AcDbMText
 10
20.9868233099
 20
195.1828470697
 30
0.1525005052
 40
3.5
 41
0.0
 71
     1
 72
     1
  1
48
  7
SLDTEXTSTYLE0
 11
6.123233995736766E-17
 21
1.0
 31
0.0
 73
     1
 44
1.0
  0
ENDBLK
  5
1AB
330
1A9
100
AcDbEntity
  8
0
100
AcDbBlockEnd
  0
BLOCK
  5
1B5
330
1B4
100
AcDbEntity
  8
0
100
AcDbBlockBegin
  2
_D_5
 70
     0
 10
0.0
 20
0.0
 30
0.0
  3
_D_5
  1

  0
SOLID
  5
1B7
330
1B4
100
AcDbEntity
  8
0
  6
Continuous
 62
     7
370
     0
100
AcDbTrace
 10
56.5643875537
 20
268.7374748699
 30
0.0
 11
58.5644195648
 21
267.9875602383
 31
0.0
 12
58.564355539
 22
269.4875602369
 32
0.0
 13
58.564355539
 23
269.4875602369
 33
0.0
  0
SOLID
  5
1B8
330
1B4
100
AcDbEntity
  8
0
  6
Continuous
 62
     7
370
     0
100
AcDbTrace
 10
46.4903275534
 20
268.7370448699
 30
0.0
 11
44.4902955423
 21
269.4869595015
 31
0.0
 12
44.4903595682
 22
267.9869595028
 32
0.0
 13
44.4903595682
 23
267.9869595028
 33
0.0
  0
LINE
  5
1B9
330
1B4
100
AcDbEntity
  8
0
  6
Continuous
 62
     7
370
     0
100
AcDbLine
 10
56.5648066034
 20
258.9199582623
 30
0.0
 11
56.5643448699
 21
269.7374748689
 31
0.0
  0
LINE
  5
1BA
330
1B4
100
AcDbEntity
  8
0
  6
Continuous
 62
     7
370
     0
100
AcDbLine
 10
46.4907466031
 20
258.9195282623
 30
0.0
 11
46.4902848695
 21
269.737044869
 31
0.0
  0
LINE
  5
1BB
330
1B4
100
AcDbEntity
  8
0
  6
Continuous
 62
     7
370
     0
100
AcDbLine
 10
56.5643875537
 20
268.7374748699
 30
0.0
 11
61.5643875492
 21
268.7376882893
 31
0.0
  0
LINE
  5
1BC
330
1B4
100
AcDbEntity
  8
0
  6
Continuous
 62
     7
370
     0
100
AcDbLine
 10
56.5643875537
 20
268.7374748699
 30
0.0
 11
46.4903275534
 21
268.7370448699
 31
0.0
  0
LINE
  5
1BD
330
1B4
100
AcDbEntity
  8
0
  6
Continuous
 62
     7
370
     0
100
AcDbLine
 10
46.4903275534
 20
268.7370448699
 30
0.0
 11
41.490327558
 21
268.7368314505
 31
0.0
  0
MTEXT
  5
1BE
330
1B4
100
AcDbEntity
  8
0
  6
Continuous
 62
     7
370
     0
100
AcDbMText
 10
47.0014704488
 20
273.2488036062
 30
0.1525005052
 40
3.5
 41
0.0
 71
     1
 72
     1
  1
10.1
  7
SLDTEXTSTYLE0
 11
0.9999999990890432
 21
4.268387869591019E-5
 31
0.0
 73
     1
 44
1.0
  0
ENDBLK
  5
1B6
330
1B4
100
AcDbEntity
  8
0
100
AcDbBlockEnd
  0
BLOCK
  5
1C2
330
1C1
100
AcDbEntity
  8
0
100
AcDbBlockBegin
  2
_D_6
 70
     0
 10
0.0
 20
0.0
 30
0.0
  3
_D_6
  1

  0
ARC
  5
1C4
330
1C1
100
AcDbEntity
  8
0
  6
Continuous
 62
     7
370
     0
100
AcDbCircle
 10
52.5581305229
 20
278.6365990427
 30
0.0
 40
6.212076339995618
100
AcDbArc
 50
153.4340058071
 51
206.5641081613
  0
ARC
  5
1C5
330
1C1
100
AcDbEntity
  8
0
  6
Continuous
 62
     7
370
     0
100
AcDbCircle
 10
50.497019602
 20
278.636632966
 30
0.0
 40
6.212076339995618
100
AcDbArc
 50
333.4340058071
 51
26.5641081613
  0
SOLID
  5
1C6
330
1C1
100
AcDbEntity
  8
0
  6
Continuous
 62
     7
370
     0
100
AcDbTrace
 10
39.9621133601
 20
275.8586813613
 30
0.0
 11
41.9621010158
 21
275.1086484439
 31
0.0
 12
41.9621257039
 22
276.6086484437
 32
0.0
 13
41.9621257039
 23
276.6086484437
 33
0.0
  0
SOLID
  5
1C7
330
1C1
100
AcDbEntity
  8
0
  6
Continuous
 62
     7
370
     0
100
AcDbTrace
 10
63.0958635911
 20
275.8583006091
 30
0.0
 11
61.0958759354
 21
276.6083335265
 31
0.0
 12
61.0958512473
 22
275.1083335267
 32
0.0
 13
61.0958512473
 23
275.1083335267
 33
0.0
  0
LINE
  5
1C8
330
1C1
100
AcDbEntity
  8
0
  6
Continuous
 62
     7
370
     0
100
AcDbLine
 10
39.9615924723
 20
244.2105634713
 30
0.0
 11
39.9621298189
 21
276.8586813611
 31
0.0
  0
LINE
  5
1C9
330
1C1
100
AcDbEntity
  8
0
  6
Continuous
 62
     7
370
     0
100
AcDbLine
 10
63.0953427033
 20
244.2101827191
 30
0.0
 11
63.0958800499
 21
276.858300609
 31
0.0
  0
LINE
  5
1CA
330
1C1
100
AcDbEntity
  8
0
  6
Continuous
 62
     7
370
     0
100
AcDbLine
 10
39.9621133601
 20
275.8586813613
 30
0.0
 11
63.0958635911
 21
275.8583006091
 31
0.0
  0
MTEXT
  5
1CB
330
1C1
100
AcDbEntity
  8
0
  6
Continuous
 62
     7
370
     0
100
AcDbMText
 10
47.0019090657
 20
280.3703024104
 30
0.1525005052
 40
3.5
 41
0.0
 71
     1
 72
     1
  1
23.1
  7
SLDTEXTSTYLE0
 11
0.9999999998645551
 21
-1.645873106287532E-5
 31
0.0
 73
     1
 44
1.0
  0
ENDBLK
  5
1C3
330
1C1
100
AcDbEntity
  8
0
100
AcDbBlockEnd
  0
BLOCK
  5
1CD
330
1CC
100
AcDbEntity
  8
0
100
AcDbBlockBegin
  2
SW_CENTERMARKSYMBOL_0
 70
     0
 10
0.0
 20
0.0
 30
0.0
  3
SW_CENTERMARKSYMBOL_0
  1

  0
LINE
  5
1CF
330
1CC
100
AcDbEntity
  8
0
  6
Continuous
 62
     0
370
     0
100
AcDbLine
 10
0.0
 20
0.0
 30
0.0
 11
0.0
 21
2.5
 31
0.0
  0
LINE
  5
1D0
330
1CC
100
AcDbEntity
  8
0
  6
Continuous
 62
     0
370
     0
100
AcDbLine
 10
0.0
 20
0.0
 30
0.0
 11
-2.5
 21
0.0
 31
0.0
  0
LINE
  5
1D1
330
1CC
100
AcDbEntity
  8
0
  6
Continuous
 62
     0
370
     0
100
AcDbLine
 10
0.0
 20
0.0
 30
0.0
 11
0.0
 21
-2.5
 31
0.0
  0
LINE
  5
1D2
330
1CC
100
AcDbEntity
  8
0
  6
Continuous
 62
     0
370
     0
100
AcDbLine
 10
0.0
 20
0.0
 30
0.0
 11
2.5
 21
0.0
 31
0.0
  0
LINE
  5
1D3
330
1CC
100
AcDbEntity
  8
0
  6
Continuous
 62
     0
370
     0
100
AcDbLine
 10
0.0
 20
5.0
 30
0.0
 11
0.0
 21
5.8
 31
0.0
  0
LINE
  5
1D4
330
1CC
100
AcDbEntity
  8
0
  6
Continuous
 62
     0
370
     0
100
AcDbLine
 10
-5.0
 20
0.0
 30
0.0
 11
-5.8
 21
0.0
 31
0.0
  0
LINE
  5
1D5
330
1CC
100
AcDbEntity
  8
0
  6
Continuous
 62
     0
370
     0
100
AcDbLine
 10
0.0
 20
-5.0
 30
0.0
 11
0.0
 21
-5.8
 31
0.0
  0
LINE
  5
1D6
330
1CC
100
AcDbEntity
  8
0
  6
Continuous
 62
     0
370
     0
100
AcDbLine
 10
5.0
 20
0.0
 30
0.0
 11
5.8
 21
0.0
 31
0.0
  0
ENDBLK
  5
1CE
330
1CC
100
AcDbEntity
  8
0
100
AcDbBlockEnd
  0
BLOCK
  5
1D9
330
1D8
100
AcDbEntity
  8
0
100
AcDbBlockBegin
  2
SW_CENTERMARKSYMBOL_1
 70
     0
 10
0.0
 20
0.0
 30
0.0
  3
SW_CENTERMARKSYMBOL_1
  1

  0
LINE
  5
1DB
330
1D8
100
AcDbEntity
  8
0
  6
Continuous
 62
     0
370
     0
100
AcDbLine
 10
0.0
 20
0.0
 30
0.0
 11
0.0
 21
2.5
 31
0.0
  0
LINE
  5
1DC
330
1D8
100
AcDbEntity
  8
0
  6
Continuous
 62
     0
370
     0
100
AcDbLine
 10
0.0
 20
0.0
 30
0.0
 11
-2.5
 21
0.0
 31
0.0
  0
LINE
  5
1DD
330
1D8
100
AcDbEntity
  8
0
  6
Continuous
 62
     0
370
     0
100
AcDbLine
 10
0.0
 20
0.0
 30
0.0
 11
0.0
 21
-2.5
 31
0.0
  0
LINE
  5
1DE
330
1D8
100
AcDbEntity
  8
0
  6
Continuous
 62
     0
370
     0
100
AcDbLine
 10
0.0
 20
0.0
 30
0.0
 11
2.5
 21
0.0
 31
0.0
  0
LINE
  5
1DF
330
1D8
100
AcDbEntity
  8
0
  6
Continuous
 62
     0
370
     0
100
AcDbLine
 10
0.0
 20
5.0
 30
0.0
 11
0.0
 21
6.35
 31
0.0
  0
LINE
  5
1E0
330
1D8
100
AcDbEntity
  8
0
  6
Continuous
 62
     0
370
     0
100
AcDbLine
 10
-5.0
 20
0.0
 30
0.0
 11
-6.35
 21
0.0
 31
0.0
  0
LINE
  5
1E1
330
1D8
100
AcDbEntity
  8
0
  6
Continuous
 62
     0
370
     0
100
AcDbLine
 10
0.0
 20
-5.0
 30
0.0
 11
0.0
 21
-6.35
 31
0.0
  0
LINE
  5
1E2
330
1D8
100
AcDbEntity
  8
0
  6
Continuous
 62
     0
370
     0
100
AcDbLine
 10
5.0
 20
0.0
 30
0.0
 11
6.35
 21
0.0
 31
0.0
  0
ENDBLK
  5
1DA
330
1D8
100
AcDbEntity
  8
0
100
AcDbBlockEnd
  0
BLOCK
  5
1E5
330
1E4
100
AcDbEntity
  8
0
100
AcDbBlockBegin
  2
SW_CENTERMARKSYMBOL_2
 70
     0
 10
0.0
 20
0.0
 30
0.0
  3
SW_CENTERMARKSYMBOL_2
  1

  0
LINE
  5
1E7
330
1E4
100
AcDbEntity
  8
0
  6
Continuous
 62
     0
370
     0
100
AcDbLine
 10
0.0
 20
0.0
 30
0.0
 11
0.0
 21
2.5
 31
0.0
  0
LINE
  5
1E8
330
1E4
100
AcDbEntity
  8
0
  6
Continuous
 62
     0
370
     0
100
AcDbLine
 10
0.0
 20
0.0
 30
0.0
 11
-2.5
 21
0.0
 31
0.0
  0
LINE
  5
1E9
330
1E4
100
AcDbEntity
  8
0
  6
Continuous
 62
     0
370
     0
100
AcDbLine
 10
0.0
 20
0.0
 30
0.0
 11
0.0
 21
-2.5
 31
0.0
  0
LINE
  5
1EA
330
1E4
100
AcDbEntity
  8
0
  6
Continuous
 62
     0
370
     0
100
AcDbLine
 10
0.0
 20
0.0
 30
0.0
 11
2.5
 21
0.0
 31
0.0
  0
LINE
  5
1EB
330
1E4
100
AcDbEntity
  8
0
  6
Continuous
 62
     0
370
     0
100
AcDbLine
 10
0.0
 20
5.0
 30
0.0
 11
0.0
 21
5.8
 31
0.0
  0
LINE
  5
1EC
330
1E4
100
AcDbEntity
  8
0
  6
Continuous
 62
     0
370
     0
100
AcDbLine
 10
-5.0
 20
0.0
 30
0.0
 11
-5.8
 21
0.0
 31
0.0
  0
LINE
  5
1ED
330
1E4
100
AcDbEntity
  8
0
  6
Continuous
 62
     0
370
     0
100
AcDbLine
 10
0.0
 20
-5.0
 30
0.0
 11
0.0
 21
-5.8
 31
0.0
  0
LINE
  5
1EE
330
1E4
100
AcDbEntity
  8
0
  6
Continuous
 62
     0
370
     0
100
AcDbLine
 10
5.0
 20
0.0
 30
0.0
 11
5.8
 21
0.0
 31
0.0
  0
ENDBLK
  5
1E6
330
1E4
100
AcDbEntity
  8
0
100
AcDbBlockEnd
  0
BLOCK
  5
1F1
330
1F0
100
AcDbEntity
  8
0
100
AcDbBlockBegin
  2
SW_CENTERMARKSYMBOL_3
 70
     0
 10
0.0
 20
0.0
 30
0.0
  3
SW_CENTERMARKSYMBOL_3
  1

  0
LINE
  5
1F3
330
1F0
100
AcDbEntity
  8
0
  6
Continuous
 62
     0
370
     0
100
AcDbLine
 10
0.0
 20
0.0
 30
0.0
 11
0.0
 21
2.5
 31
0.0
  0
LINE
  5
1F4
330
1F0
100
AcDbEntity
  8
0
  6
Continuous
 62
     0
370
     0
100
AcDbLine
 10
0.0
 20
0.0
 30
0.0
 11
-2.5
 21
0.0
 31
0.0
  0
LINE
  5
1F5
330
1F0
100
AcDbEntity
  8
0
  6
Continuous
 62
     0
370
     0
100
AcDbLine
 10
0.0
 20
0.0
 30
0.0
 11
0.0
 21
-2.5
 31
0.0
  0
LINE
  5
1F6
330
1F0
100
AcDbEntity
  8
0
  6
Continuous
 62
     0
370
     0
100
AcDbLine
 10
0.0
 20
0.0
 30
0.0
 11
2.5
 21
0.0
 31
0.0
  0
LINE
  5
1F7
330
1F0
100
AcDbEntity
  8
0
  6
Continuous
 62
     0
370
     0
100
AcDbLine
 10
0.0
 20
5.0
 30
0.0
 11
0.0
 21
6.35
 31
0.0
  0
LINE
  5
1F8
330
1F0
100
AcDbEntity
  8
0
  6
Continuous
 62
     0
370
     0
100
AcDbLine
 10
-5.0
 20
0.0
 30
0.0
 11
-6.35
 21
0.0
 31
0.0
  0
LINE
  5
1F9
330
1F0
100
AcDbEntity
  8
0
  6
Continuous
 62
     0
370
     0
100
AcDbLine
 10
0.0
 20
-5.0
 30
0.0
 11
0.0
 21
-6.35
 31
0.0
  0
LINE
  5
1FA
330
1F0
100
AcDbEntity
  8
0
  6
Continuous
 62
     0
370
     0
100
AcDbLine
 10
5.0
 20
0.0
 30
0.0
 11
6.35
 21
0.0
 31
0.0
  0
ENDBLK
  5
1F2
330
1F0
100
AcDbEntity
  8
0
100
AcDbBlockEnd
  0
BLOCK
  5
1FD
330
1FC
100
AcDbEntity
  8
0
100
AcDbBlockBegin
  2
SW_CENTERMARKSYMBOL_4
 70
     0
 10
0.0
 20
0.0
 30
0.0
  3
SW_CENTERMARKSYMBOL_4
  1

  0
LINE
  5
1FF
330
1FC
100
AcDbEntity
  8
0
  6
Continuous
 62
     0
370
     0
100
AcDbLine
 10
0.0
 20
0.0
 30
0.0
 11
0.0
 21
2.5
 31
0.0
  0
LINE
  5
200
330
1FC
100
AcDbEntity
  8
0
  6
Continuous
 62
     0
370
     0
100
AcDbLine
 10
0.0
 20
0.0
 30
0.0
 11
-2.5
 21
0.0
 31
0.0
  0
LINE
  5
201
330
1FC
100
AcDbEntity
  8
0
  6
Continuous
 62
     0
370
     0
100
AcDbLine
 10
0.0
 20
0.0
 30
0.0
 11
0.0
 21
-2.5
 31
0.0
  0
LINE
  5
202
330
1FC
100
AcDbEntity
  8
0
  6
Continuous
 62
     0
370
     0
100
AcDbLine
 10
0.0
 20
0.0
 30
0.0
 11
2.5
 21
0.0
 31
0.0
  0
LINE
  5
203
330
1FC
100
AcDbEntity
  8
0
  6
Continuous
 62
     0
370
     0
100
AcDbLine
 10
0.0
 20
5.0
 30
0.0
 11
0.0
 21
6.0
 31
0.0
  0
LINE
  5
204
330
1FC
100
AcDbEntity
  8
0
  6
Continuous
 62
     0
370
     0
100
AcDbLine
 10
-5.0
 20
0.0
 30
0.0
 11
-6.0
 21
0.0
 31
0.0
  0
LINE
  5
205
330
1FC
100
AcDbEntity
  8
0
  6
Continuous
 62
     0
370
     0
100
AcDbLine
 10
0.0
 20
-5.0
 30
0.0
 11
0.0
 21
-6.0
 31
0.0
  0
LINE
  5
206
330
1FC
100
AcDbEntity
  8
0
  6
Continuous
 62
     0
370
     0
100
AcDbLine
 10
5.0
 20
0.0
 30
0.0
 11
6.0
 21
0.0
 31
0.0
  0
ENDBLK
  5
1FE
330
1FC
100
AcDbEntity
  8
0
100
AcDbBlockEnd
  0
BLOCK
  5
209
330
208
100
AcDbEntity
  8
0
100
AcDbBlockBegin
  2
SW_CENTERMARKSYMBOL_5
 70
     0
 10
0.0
 20
0.0
 30
0.0
  3
SW_CENTERMARKSYMBOL_5
  1

  0
LINE
  5
20B
330
208
100
AcDbEntity
  8
0
  6
Continuous
 62
     0
370
     0
100
AcDbLine
 10
0.0
 20
0.0
 30
0.0
 11
0.0
 21
2.5
 31
0.0
  0
LINE
  5
20C
330
208
100
AcDbEntity
  8
0
  6
Continuous
 62
     0
370
     0
100
AcDbLine
 10
0.0
 20
0.0
 30
0.0
 11
-2.5
 21
0.0
 31
0.0
  0
LINE
  5
20D
330
208
100
AcDbEntity
  8
0
  6
Continuous
 62
     0
370
     0
100
AcDbLine
 10
0.0
 20
0.0
 30
0.0
 11
0.0
 21
-2.5
 31
0.0
  0
LINE
  5
20E
330
208
100
AcDbEntity
  8
0
  6
Continuous
 62
     0
370
     0
100
AcDbLine
 10
0.0
 20
0.0
 30
0.0
 11
2.5
 21
0.0
 31
0.0
  0
LINE
  5
20F
330
208
100
AcDbEntity
  8
0
  6
Continuous
 62
     0
370
     0
100
AcDbLine
 10
0.0
 20
5.0
 30
0.0
 11
0.0
 21
5.8
 31
0.0
  0
LINE
  5
210
330
208
100
AcDbEntity
  8
0
  6
Continuous
 62
     0
370
     0
100
AcDbLine
 10
-5.0
 20
0.0
 30
0.0
 11
-5.8
 21
0.0
 31
0.0
  0
LINE
  5
211
330
208
100
AcDbEntity
  8
0
  6
Continuous
 62
     0
370
     0
100
AcDbLine
 10
0.0
 20
-5.0
 30
0.0
 11
0.0
 21
-5.8
 31
0.0
  0
LINE
  5
212
330
208
100
AcDbEntity
  8
0
  6
Continuous
 62
     0
370
     0
100
AcDbLine
 10
5.0
 20
0.0
 30
0.0
 11
5.8
 21
0.0
 31
0.0
  0
ENDBLK
  5
20A
330
208
100
AcDbEntity
  8
0
100
AcDbBlockEnd
  0
BLOCK
  5
215
330
214
100
AcDbEntity
  8
0
100
AcDbBlockBegin
  2
SW_CENTERMARKSYMBOL_6
 70
     0
 10
0.0
 20
0.0
 30
0.0
  3
SW_CENTERMARKSYMBOL_6
  1

  0
LINE
  5
217
330
214
100
AcDbEntity
  8
0
  6
Continuous
 62
     0
370
     0
100
AcDbLine
 10
0.0
 20
0.0
 30
0.0
 11
0.0
 21
2.5
 31
0.0
  0
LINE
  5
218
330
214
100
AcDbEntity
  8
0
  6
Continuous
 62
     0
370
     0
100
AcDbLine
 10
0.0
 20
0.0
 30
0.0
 11
-2.5
 21
0.0
 31
0.0
  0
LINE
  5
219
330
214
100
AcDbEntity
  8
0
  6
Continuous
 62
     0
370
     0
100
AcDbLine
 10
0.0
 20
0.0
 30
0.0
 11
0.0
 21
-2.5
 31
0.0
  0
LINE
  5
21A
330
214
100
AcDbEntity
  8
0
  6
Continuous
 62
     0
370
     0
100
AcDbLine
 10
0.0
 20
0.0
 30
0.0
 11
2.5
 21
0.0
 31
0.0
  0
LINE
  5
21B
330
214
100
AcDbEntity
  8
0
  6
Continuous
 62
     0
370
     0
100
AcDbLine
 10
0.0
 20
5.0
 30
0.0
 11
0.0
 21
5.8
 31
0.0
  0
LINE
  5
21C
330
214
100
AcDbEntity
  8
0
  6
Continuous
 62
     0
370
     0
100
AcDbLine
 10
-5.0
 20
0.0
 30
0.0
 11
-5.8
 21
0.0
 31
0.0
  0
LINE
  5
21D
330
214
100
AcDbEntity
  8
0
  6
Continuous
 62
     0
370
     0
100
AcDbLine
 10
0.0
 20
-5.0
 30
0.0
 11
0.0
 21
-5.8
 31
0.0
  0
LINE
  5
21E
330
214
100
AcDbEntity
  8
0
  6
Continuous
 62
     0
370
     0
100
AcDbLine
 10
5.0
 20
0.0
 30
0.0
 11
5.8
 21
0.0
 31
0.0
  0
ENDBLK
  5
216
330
214
100
AcDbEntity
  8
0
100
AcDbBlockEnd
  0
BLOCK
  5
221
330
220
100
AcDbEntity
  8
0
100
AcDbBlockBegin
  2
SW_CENTERMARKSYMBOL_7
 70
     0
 10
0.0
 20
0.0
 30
0.0
  3
SW_CENTERMARKSYMBOL_7
  1

  0
LINE
  5
223
330
220
100
AcDbEntity
  8
0
  6
Continuous
 62
     0
370
     0
100
AcDbLine
 10
0.0
 20
0.0
 30
0.0
 11
0.0
 21
2.5
 31
0.0
  0
LINE
  5
224
330
220
100
AcDbEntity
  8
0
  6
Continuous
 62
     0
370
     0
100
AcDbLine
 10
0.0
 20
0.0
 30
0.0
 11
-2.5
 21
0.0
 31
0.0
  0
LINE
  5
225
330
220
100
AcDbEntity
  8
0
  6
Continuous
 62
     0
370
     0
100
AcDbLine
 10
0.0
 20
0.0
 30
0.0
 11
0.0
 21
-2.5
 31
0.0
  0
LINE
  5
226
330
220
100
AcDbEntity
  8
0
  6
Continuous
 62
     0
370
     0
100
AcDbLine
 10
0.0
 20
0.0
 30
0.0
 11
2.5
 21
0.0
 31
0.0
  0
LINE
  5
227
330
220
100
AcDbEntity
  8
0
  6
Continuous
 62
     0
370
     0
100
AcDbLine
 10
0.0
 20
5.0
 30
0.0
 11
0.0
 21
35.2269480502
 31
0.0
  0
LINE
  5
228
330
220
100
AcDbEntity
  8
0
  6
Continuous
 62
     0
370
     0
100
AcDbLine
 10
-5.0
 20
0.0
 30
0.0
 11
-8.1
 21
0.0
 31
0.0
  0
LINE
  5
229
330
220
100
AcDbEntity
  8
0
  6
Continuous
 62
     0
370
     0
100
AcDbLine
 10
0.0
 20
-5.0
 30
0.0
 11
0.0
 21
-8.1
 31
0.0
  0
LINE
  5
22A
330
220
100
AcDbEntity
  8
0
  6
Continuous
 62
     0
370
     0
100
AcDbLine
 10
5.0
 20
0.0
 30
0.0
 11
8.1
 21
0.0
 31
0.0
  0
ENDBLK
  5
222
330
220
100
AcDbEntity
  8
0
100
AcDbBlockEnd
  0
BLOCK
  5
339
330
338
100
AcDbEntity
  8
0
100
AcDbBlockBegin
  2
_D_7
 70
     0
 10
0.0
 20
0.0
 30
0.0
  3
_D_7
  1

  0
SOLID
  5
33B
330
338
100
AcDbEntity
  8
0
  6
Continuous
 62
     7
370
     0
100
AcDbTrace
 10
176.2918755837
 20
261.8239501185
 30
0.0
 11
174.2918755837
 21
262.5739501185
 31
0.0
 12
174.2918755837
 22
261.0739501185
 32
0.0
 13
174.2918755837
 23
261.0739501185
 33
0.0
  0
SOLID
  5
33C
330
338
100
AcDbEntity
  8
0
  6
Continuous
 62
     7
370
     0
100
AcDbTrace
 10
179.2918755837
 20
261.8239501185
 30
0.0
 11
181.2918755837
 21
261.0739501185
 31
0.0
 12
181.2918755837
 22
262.5739501185
 32
0.0
 13
181.2918755837
 23
262.5739501185
 33
0.0
  0
LINE
  5
33D
330
338
100
AcDbEntity
  8
0
  6
Continuous
 62
     7
370
     0
100
AcDbLine
 10
176.2918755837
 20
258.7819957711
 30
0.0
 11
176.2918755837
 21
262.8239501185
 31
0.0
  0
LINE
  5
33E
330
338
100
AcDbEntity
  8
0
  6
Continuous
 62
     7
370
     0
100
AcDbLine
 10
179.2918755837
 20
258.7819957711
 30
0.0
 11
179.2918755837
 21
262.8239501185
 31
0.0
  0
LINE
  5
33F
330
338
100
AcDbEntity
  8
0
  6
Continuous
 62
     7
370
     0
100
AcDbLine
 10
176.2918755837
 20
261.8239501185
 30
0.0
 11
118.2897064165
 21
261.8239501185
 31
0.0
  0
LINE
  5
340
330
338
100
AcDbEntity
  8
0
  6
Continuous
 62
     7
370
     0
100
AcDbLine
 10
176.2918755837
 20
261.8239501185
 30
0.0
 11
179.2918755837
 21
261.8239501185
 31
0.0
  0
LINE
  5
341
330
338
100
AcDbEntity
  8
0
  6
Continuous
 62
     7
370
     0
100
AcDbLine
 10
179.2918755837
 20
261.8239501185
 30
0.0
 11
184.2918755837
 21
261.8239501185
 31
0.0
  0
MTEXT
  5
342
330
338
100
AcDbEntity
  8
0
  6
Continuous
 62
     7
370
     0
100
AcDbMText
 10
118.2897064165
 20
266.335687033
 30
0.1
 40
3.5
 41
0.0
 71
     1
 72
     1
  1
Maxストローク
  7
SLDTEXTSTYLE0
 73
     1
 44
1.0
  0
MTEXT
  5
343
330
338
100
AcDbEntity
  8
0
  6
Continuous
 62
     7
370
     0
100
AcDbMText
 10
147.4806788639
 20
266.335687033
 30
0.1
 40
3.5
 41
0.0
 71
     1
 72
     1
  1
3
  7
SLDTEXTSTYLE0
 73
     1
 44
1.0
  0
ENDBLK
  5
33A
330
338
100
AcDbEntity
  8
0
100
AcDbBlockEnd
  0
BLOCK
  5
346
330
345
100
AcDbEntity
  8
0
100
AcDbBlockBegin
  2
_D_8
 70
     0
 10
0.0
 20
0.0
 30
0.0
  3
_D_8
  1

  0
ARC
  5
348
330
345
100
AcDbEntity
  8
0
  6
Continuous
 62
     7
370
     0
100
AcDbCircle
 10
143.8520723467
 20
160.5470832588
 30
0.0
 40
6.2120763399956
100
AcDbArc
 50
153.4349488229
 51
206.5650511771
  0
ARC
  5
349
330
345
100
AcDbEntity
  8
0
  6
Continuous
 62
     7
370
     0
100
AcDbCircle
 10
141.7909614255
 20
160.5470832588
 30
0.0
 40
6.2120763399956
100
AcDbArc
 50
333.4349488229
 51
26.5650511771
  0
SOLID
  5
34A
330
345
100
AcDbEntity
  8
0
  6
Continuous
 62
     7
370
     0
100
AcDbTrace
 10
98.4918755837
 20
157.7689582632
 30
0.0
 11
100.4918755837
 21
157.0189582632
 31
0.0
 12
100.4918755837
 22
158.5189582632
 32
0.0
 13
100.4918755837
 23
158.5189582632
 33
0.0
  0
SOLID
  5
34B
330
345
100
AcDbEntity
  8
0
  6
Continuous
 62
     7
370
     0
100
AcDbTrace
 10
188.7918755837
 20
157.7689582632
 30
0.0
 11
186.7918755837
 21
158.5189582632
 31
0.0
 12
186.7918755837
 22
157.0189582632
 32
0.0
 13
186.7918755837
 23
157.0189582632
 33
0.0
  0
LINE
  5
34C
330
345
100
AcDbEntity
  8
0
  6
Continuous
 62
     7
370
     0
100
AcDbLine
 10
98.4918755837
 20
187.9189582632
 30
0.0
 11
98.4918755837
 21
156.7689582632
 31
0.0
  0
LINE
  5
34D
330
345
100
AcDbEntity
  8
0
  6
Continuous
 62
     7
370
     0
100
AcDbLine
 10
188.7918755837
 20
185.2689582631
 30
0.0
 11
188.7918755837
 21
156.7689582632
 31
0.0
  0
LINE
  5
34E
330
345
100
AcDbEntity
  8
0
  6
Continuous
 62
     7
370
     0
100
AcDbLine
 10
98.4918755837
 20
157.7689582632
 30
0.0
 11
188.7918755837
 21
157.7689582632
 31
0.0
  0
MTEXT
  5
34F
330
345
100
AcDbEntity
  8
0
  6
Continuous
 62
     7
370
     0
100
AcDbMText
 10
138.2958223556
 20
162.2806951778
 30
0.1
 40
3.5
 41
0.0
 71
     1
 72
     1
  1
90.3
  7
SLDTEXTSTYLE0
 73
     1
 44
1.0
  0
ENDBLK
  5
347
330
345
100
AcDbEntity
  8
0
100
AcDbBlockEnd
  0
BLOCK
  5
352
330
351
100
AcDbEntity
  8
0
100
AcDbBlockBegin
  2
_D_9
 70
     0
 10
0.0
 20
0.0
 30
0.0
  3
_D_9
  1

  0
SOLID
  5
354
330
351
100
AcDbEntity
  8
0
  6
Continuous
 62
     7
370
     0
100
AcDbTrace
 10
113.0918755837
 20
166.0644839925
 30
0.0
 11
115.0918755837
 21
165.3144839925
 31
0.0
 12
115.0918755837
 22
166.8144839925
 32
0.0
 13
115.0918755837
 23
166.8144839925
 33
0.0
  0
SOLID
  5
355
330
351
100
AcDbEntity
  8
0
  6
Continuous
 62
     7
370
     0
100
AcDbTrace
 10
188.7918755837
 20
166.0644839925
 30
0.0
 11
186.7918755837
 21
166.8144839925
 31
0.0
 12
186.7918755837
 22
165.3144839925
 32
0.0
 13
186.7918755837
 23
165.3144839925
 33
0.0
  0
LINE
  5
356
330
351
100
AcDbEntity
  8
0
  6
Continuous
 62
     7
370
     0
100
AcDbLine
 10
113.0918755837
 20
177.2689582632
 30
0.0
 11
113.0918755837
 21
165.0644839925
 31
0.0
  0
LINE
  5
357
330
351
100
AcDbEntity
  8
0
  6
Continuous
 62
     7
370
     0
100
AcDbLine
 10
188.7918755837
 20
185.2689582631
 30
0.0
 11
188.7918755837
 21
165.0644839925
 31
0.0
  0
LINE
  5
358
330
351
100
AcDbEntity
  8
0
  6
Continuous
 62
     7
370
     0
100
AcDbLine
 10
113.0918755837
 20
166.0644839925
 30
0.0
 11
188.7918755837
 21
166.0644839925
 31
0.0
  0
MTEXT
  5
359
330
351
100
AcDbEntity
  8
0
  6
Continuous
 62
     7
370
     0
100
AcDbMText
 10
144.2248760394
 20
170.576220907
 30
0.1
 40
3.5
 41
0.0
 71
     1
 72
     1
  1
75.7
  7
SLDTEXTSTYLE0
 73
     1
 44
1.0
  0
ENDBLK
  5
353
330
351
100
AcDbEntity
  8
0
100
AcDbBlockEnd
  0
BLOCK
  5
35C
330
35B
100
AcDbEntity
  8
0
100
AcDbBlockBegin
  2
_D_10
 70
     0
 10
0.0
 20
0.0
 30
0.0
  3
_D_10
  1

  0
SOLID
  5
35E
330
35B
100
AcDbEntity
  8
0
  6
Continuous
 62
     7
370
     0
100
AcDbTrace
 10
195.3297579081
 20
257.9199582632
 30
0.0
 11
194.5797579081
 21
255.9199582632
 31
0.0
 12
196.0797579081
 22
255.9199582632
 32
0.0
 13
196.0797579081
 23
255.9199582632
 33
0.0
  0
SOLID
  5
35F
330
35B
100
AcDbEntity
  8
0
  6
Continuous
 62
     7
370
     0
100
AcDbTrace
 10
195.3297579081
 20
173.7689582632
 30
0.0
 11
196.0797579081
 21
175.7689582632
 31
0.0
 12
194.5797579081
 22
175.7689582632
 32
0.0
 13
194.5797579081
 23
175.7689582632
 33
0.0
  0
LINE
  5
360
330
35B
100
AcDbEntity
  8
0
  6
Continuous
 62
     7
370
     0
100
AcDbLine
 10
180.4886472166
 20
257.9199582632
 30
0.0
 11
196.3297579081
 21
257.9199582632
 31
0.0
  0
LINE
  5
361
330
35B
100
AcDbEntity
  8
0
  6
Continuous
 62
     7
370
     0
100
AcDbLine
 10
159.5918755837
 20
173.7689582632
 30
0.0
 11
196.3297579081
 21
173.7689582632
 31
0.0
  0
LINE
  5
362
330
35B
100
AcDbEntity
  8
0
  6
Continuous
 62
     7
370
     0
100
AcDbLine
 10
195.3297579081
 20
257.9199582632
 30
0.0
 11
195.3297579081
 21
173.7689582632
 31
0.0
  0
MTEXT
  5
363
330
35B
100
AcDbEntity
  8
0
  6
Continuous
 62
     7
370
     0
100
AcDbMText
 10
190.8180209936
 20
211.3187637328
 30
0.1
 40
3.5
 41
0.0
 71
     1
 72
     1
  1
84.2
  7
SLDTEXTSTYLE0
 11
-7.044195017643634E-15
 21
1.0
 31
0.0
 73
     1
 44
1.0
  0
ENDBLK
  5
35D
330
35B
100
AcDbEntity
  8
0
100
AcDbBlockEnd
  0
BLOCK
  5
366
330
365
100
AcDbEntity
  8
0
100
AcDbBlockBegin
  2
_D_11
 70
     0
 10
0.0
 20
0.0
 30
0.0
  3
_D_11
  1

  0
SOLID
  5
368
330
365
100
AcDbEntity
  8
0
  6
Continuous
 62
     7
370
     0
100
AcDbTrace
 10
179.2918755837
 20
272.9639910148
 30
0.0
 11
181.2918755837
 21
272.2139910148
 31
0.0
 12
181.2918755837
 22
273.7139910148
 32
0.0
 13
181.2918755837
 23
273.7139910148
 33
0.0
  0
SOLID
  5
369
330
365
100
AcDbEntity
  8
0
  6
Continuous
 62
     7
370
     0
100
AcDbTrace
 10
188.7918755837
 20
272.9639910148
 30
0.0
 11
186.7918755837
 21
273.7139910148
 31
0.0
 12
186.7918755837
 22
272.2139910148
 32
0.0
 13
186.7918755837
 23
272.2139910148
 33
0.0
  0
LINE
  5
36A
330
365
100
AcDbEntity
  8
0
  6
Continuous
 62
     7
370
     0
100
AcDbLine
 10
179.2918755837
 20
258.9199582632
 30
0.0
 11
179.2918755837
 21
273.9639910148
 31
0.0
  0
LINE
  5
36B
330
365
100
AcDbEntity
  8
0
  6
Continuous
 62
     7
370
     0
100
AcDbLine
 10
188.7918755837
 20
226.9689582335
 30
0.0
 11
188.7918755837
 21
273.9639910148
 31
0.0
  0
LINE
  5
36C
330
365
100
AcDbEntity
  8
0
  6
Continuous
 62
     7
370
     0
100
AcDbLine
 10
179.2918755837
 20
272.9639910148
 30
0.0
 11
188.7918755837
 21
272.9639910148
 31
0.0
  0
MTEXT
  5
36D
330
365
100
AcDbEntity
  8
0
  6
Continuous
 62
     7
370
     0
100
AcDbMText
 10
181.1371864703
 20
277.4757279293
 30
0.1
 40
3.5
 41
0.0
 71
     1
 72
     1
  1
9.5
  7
SLDTEXTSTYLE0
 73
     1
 44
1.0
  0
ENDBLK
  5
367
330
365
100
AcDbEntity
  8
0
100
AcDbBlockEnd
  0
BLOCK
  5
370
330
36F
100
AcDbEntity
  8
0
100
AcDbBlockBegin
  2
_D_12
 70
     0
 10
0.0
 20
0.0
 30
0.0
  3
_D_12
  1

  0
ARC
  5
372
330
36F
100
AcDbEntity
  8
0
  6
Continuous
 62
     7
370
     0
100
AcDbCircle
 10
166.6421244851
 20
275.7421160103
 30
0.0
 40
6.2120763399956
100
AcDbArc
 50
153.4349488229
 51
206.5650511771
  0
ARC
  5
373
330
36F
100
AcDbEntity
  8
0
  6
Continuous
 62
     7
370
     0
100
AcDbCircle
 10
164.5810135639
 20
275.7421160103
 30
0.0
 40
6.212076339995626
100
AcDbArc
 50
333.4349488229
 51
26.5650511771
  0
SOLID
  5
374
330
36F
100
AcDbEntity
  8
0
  6
Continuous
 62
     7
370
     0
100
AcDbTrace
 10
179.2918755837
 20
272.9639910147
 30
0.0
 11
177.2918755837
 21
273.7139910147
 31
0.0
 12
177.2918755837
 22
272.2139910147
 32
0.0
 13
177.2918755837
 23
272.2139910147
 33
0.0
  0
SOLID
  5
375
330
36F
100
AcDbEntity
  8
0
  6
Continuous
 62
     7
370
     0
100
AcDbTrace
 10
153.0918755837
 20
272.9639910147
 30
0.0
 11
155.0918755837
 21
272.2139910147
 31
0.0
 12
155.0918755837
 22
273.7139910147
 32
0.0
 13
155.0918755837
 23
273.7139910147
 33
0.0
  0
LINE
  5
376
330
36F
100
AcDbEntity
  8
0
  6
Continuous
 62
     7
370
     0
100
AcDbLine
 10
179.2918755837
 20
258.7819957711
 30
0.0
 11
179.2918755837
 21
273.9639910147
 31
0.0
  0
LINE
  5
377
330
36F
100
AcDbEntity
  8
0
  6
Continuous
 62
     7
370
     0
100
AcDbLine
 10
153.0918755837
 20
181.2689582632
 30
0.0
 11
153.0918755837
 21
273.9639910147
 31
0.0
  0
LINE
  5
378
330
36F
100
AcDbEntity
  8
0
  6
Continuous
 62
     7
370
     0
100
AcDbLine
 10
179.2918755837
 20
272.9639910147
 30
0.0
 11
153.0918755837
 21
272.9639910147
 31
0.0
  0
MTEXT
  5
379
330
36F
100
AcDbEntity
  8
0
  6
Continuous
 62
     7
370
     0
100
AcDbMText
 10
161.0858744941
 20
277.4757279293
 30
0.1
 40
3.5
 41
0.0
 71
     1
 72
     1
  1
26.2
  7
SLDTEXTSTYLE0
 73
     1
 44
1.0
  0
ENDBLK
  5
371
330
36F
100
AcDbEntity
  8
0
100
AcDbBlockEnd
  0
BLOCK
  5
37C
330
37B
100
AcDbEntity
  8
0
100
AcDbBlockBegin
  2
_D_13
 70
     0
 10
0.0
 20
0.0
 30
0.0
  3
_D_13
  1

  0
SOLID
  5
37E
330
37B
100
AcDbEntity
  8
0
  6
Continuous
 62
     7
370
     0
100
AcDbTrace
 10
90.9722297196
 20
208.7689258124
 30
0.0
 11
90.2222297196
 21
206.7689258124
 31
0.0
 12
91.7222297196
 22
206.7689258124
 32
0.0
 13
91.7222297196
 23
206.7689258124
 33
0.0
  0
SOLID
  5
37F
330
37B
100
AcDbEntity
  8
0
  6
Continuous
 62
     7
370
     0
100
AcDbTrace
 10
90.9722297196
 20
173.7689582632
 30
0.0
 11
91.7222297196
 21
175.7689582632
 31
0.0
 12
90.2222297196
 22
175.7689582632
 32
0.0
 13
90.2222297196
 23
175.7689582632
 33
0.0
  0
LINE
  5
380
330
37B
100
AcDbEntity
  8
0
  6
Continuous
 62
     7
370
     0
100
AcDbLine
 10
116.4918755837
 20
208.7689258124
 30
0.0
 11
89.9722297196
 21
208.7689258124
 31
0.0
  0
LINE
  5
381
330
37B
100
AcDbEntity
  8
0
  6
Continuous
 62
     7
370
     0
100
AcDbLine
 10
129.5918755837
 20
173.7689582632
 30
0.0
 11
89.9722297196
 21
173.7689582632
 31
0.0
  0
LINE
  5
382
330
37B
100
AcDbEntity
  8
0
  6
Continuous
 62
     7
370
     0
100
AcDbLine
 10
90.9722297196
 20
208.7689258124
 30
0.0
 11
90.9722297196
 21
173.7689582632
 31
0.0
  0
MTEXT
  5
383
330
37B
100
AcDbEntity
  8
0
  6
Continuous
 62
     7
370
     0
100
AcDbMText
 10
86.460492805
 20
188.6828308443
 30
0.1
 40
3.5
 41
0.0
 71
     1
 72
     1
  1
35
  7
SLDTEXTSTYLE0
 11
-7.044195017643634E-15
 21
1.0
 31
0.0
 73
     1
 44
1.0
  0
ENDBLK
  5
37D
330
37B
100
AcDbEntity
  8
0
100
AcDbBlockEnd
  0
BLOCK
  5
386
330
385
100
AcDbEntity
  8
0
100
AcDbBlockBegin
  2
_D_14
 70
     0
 10
0.0
 20
0.0
 30
0.0
  3
_D_14
  1

  0
SOLID
  5
388
330
385
100
AcDbEntity
  8
0
  6
Continuous
 62
     7
370
     0
100
AcDbTrace
 10
96.5732443469
 20
192.7689582632
 30
0.0
 11
95.8232443469
 21
190.7689582632
 31
0.0
 12
97.3232443469
 22
190.7689582632
 32
0.0
 13
97.3232443469
 23
190.7689582632
 33
0.0
  0
SOLID
  5
389
330
385
100
AcDbEntity
  8
0
  6
Continuous
 62
     7
370
     0
100
AcDbTrace
 10
96.5732443469
 20
173.7689582632
 30
0.0
 11
97.3232443469
 21
175.7689582632
 31
0.0
 12
95.8232443469
 22
175.7689582632
 32
0.0
 13
95.8232443469
 23
175.7689582632
 33
0.0
  0
LINE
  5
38A
330
385
100
AcDbEntity
  8
0
  6
Continuous
 62
     7
370
     0
100
AcDbLine
 10
129.5918755837
 20
173.7689582632
 30
0.0
 11
95.5732443469
 21
173.7689582632
 31
0.0
  0
LINE
  5
38B
330
385
100
AcDbEntity
  8
0
  6
Continuous
 62
     7
370
     0
100
AcDbLine
 10
96.5732443469
 20
192.7689582632
 30
0.0
 11
96.5732443469
 21
173.7689582632
 31
0.0
  0
MTEXT
  5
38C
330
385
100
AcDbEntity
  8
0
  6
Continuous
 62
     7
370
     0
100
AcDbMText
 10
92.0615074323
 20
180.6828470697
 30
0.1
 40
3.5
 41
0.0
 71
     1
 72
     1
  1
19
  7
SLDTEXTSTYLE0
 11
-7.044195017643634E-15
 21
1.0
 31
0.0
 73
     1
 44
1.0
  0
ENDBLK
  5
387
330
385
100
AcDbEntity
  8
0
100
AcDbBlockEnd
  0
BLOCK
  5
42E
330
42D
100
AcDbEntity
  8
0
100
AcDbBlockBegin
  2
_D_15
 70
     0
 10
0.0
 20
0.0
 30
0.0
  3
_D_15
  1

  0
SOLID
  5
430
330
42D
100
AcDbEntity
  8
0
  6
Continuous
 62
     7
370
     0
100
AcDbTrace
 10
113.0918755837
 20
130.718330501
 30
0.0
 11
115.0918755837
 21
129.968330501
 31
0.0
 12
115.0918755837
 22
131.468330501
 32
0.0
 13
115.0918755837
 23
131.468330501
 33
0.0
  0
SOLID
  5
431
330
42D
100
AcDbEntity
  8
0
  6
Continuous
 62
     7
370
     0
100
AcDbTrace
 10
153.0918755837
 20
130.718330501
 30
0.0
 11
151.0918755837
 21
131.468330501
 31
0.0
 12
151.0918755837
 22
129.968330501
 32
0.0
 13
151.0918755837
 23
129.968330501
 33
0.0
  0
LINE
  5
432
330
42D
100
AcDbEntity
  8
0
  6
Continuous
 62
     7
370
     0
100
AcDbLine
 10
113.0918755837
 20
108.718330501
 30
0.0
 11
113.0918755837
 21
131.718330501
 31
0.0
  0
LINE
  5
433
330
42D
100
AcDbEntity
  8
0
  6
Continuous
 62
     7
370
     0
100
AcDbLine
 10
153.0918755837
 20
115.368330501
 30
0.0
 11
153.0918755837
 21
131.718330501
 31
0.0
  0
LINE
  5
434
330
42D
100
AcDbEntity
  8
0
  6
Continuous
 62
     7
370
     0
100
AcDbLine
 10
113.0918755837
 20
130.718330501
 30
0.0
 11
153.0918755837
 21
130.718330501
 31
0.0
  0
MTEXT
  5
435
330
42D
100
AcDbEntity
  8
0
  6
Continuous
 62
     7
370
     0
100
AcDbMText
 10
131.5849175921
 20
135.2300674156
 30
18.6833481669
 40
3.5
 41
0.0
 71
     1
 72
     1
  1
40
  7
SLDTEXTSTYLE0
 73
     1
 44
1.0
  0
ENDBLK
  5
42F
330
42D
100
AcDbEntity
  8
0
100
AcDbBlockEnd
  0
BLOCK
  5
438
330
437
100
AcDbEntity
  8
0
100
AcDbBlockBegin
  2
_D_16
 70
     0
 10
0.0
 20
0.0
 30
0.0
  3
_D_16
  1

  0
ARC
  5
43A
330
437
100
AcDbEntity
  8
0
  6
Continuous
 62
     7
370
     0
100
AcDbCircle
 10
171.9724312189
 20
133.4964554966
 30
0.0
 40
6.2120763399956
100
AcDbArc
 50
153.4349488229
 51
206.5650511771
  0
ARC
  5
43B
330
437
100
AcDbEntity
  8
0
  6
Continuous
 62
     7
370
     0
100
AcDbCircle
 10
169.9113202977
 20
133.4964554966
 30
0.0
 40
6.2120763399956
100
AcDbArc
 50
333.4349488229
 51
26.5650511771
  0
SOLID
  5
43C
330
437
100
AcDbEntity
  8
0
  6
Continuous
 62
     7
370
     0
100
AcDbTrace
 10
188.7918755837
 20
130.718330501
 30
0.0
 11
186.7918755837
 21
131.468330501
 31
0.0
 12
186.7918755837
 22
129.968330501
 32
0.0
 13
186.7918755837
 23
129.968330501
 33
0.0
  0
SOLID
  5
43D
330
437
100
AcDbEntity
  8
0
  6
Continuous
 62
     7
370
     0
100
AcDbTrace
 10
153.0918755837
 20
130.718330501
 30
0.0
 11
155.0918755837
 21
129.968330501
 31
0.0
 12
155.0918755837
 22
131.468330501
 32
0.0
 13
155.0918755837
 23
131.468330501
 33
0.0
  0
LINE
  5
43E
330
437
100
AcDbEntity
  8
0
  6
Continuous
 62
     7
370
     0
100
AcDbLine
 10
188.7918755837
 20
104.218330501
 30
0.0
 11
188.7918755837
 21
131.718330501
 31
0.0
  0
LINE
  5
43F
330
437
100
AcDbEntity
  8
0
  6
Continuous
 62
     7
370
     0
100
AcDbLine
 10
153.0918755837
 20
115.368330501
 30
0.0
 11
153.0918755837
 21
131.718330501
 31
0.0
  0
LINE
  5
440
330
437
100
AcDbEntity
  8
0
  6
Continuous
 62
     7
370
     0
100
AcDbLine
 10
188.7918755837
 20
130.718330501
 30
0.0
 11
153.0918755837
 21
130.718330501
 31
0.0
  0
MTEXT
  5
441
330
437
100
AcDbEntity
  8
0
  6
Continuous
 62
     7
370
     0
100
AcDbMText
 10
166.4161812279
 20
135.2300674156
 30
18.6833481669
 40
3.5
 41
0.0
 71
     1
 72
     1
  1
35.7
  7
SLDTEXTSTYLE0
 73
     1
 44
1.0
  0
ENDBLK
  5
439
330
437
100
AcDbEntity
  8
0
100
AcDbBlockEnd
  0
BLOCK
  5
444
330
443
100
AcDbEntity
  8
0
100
AcDbBlockBegin
  2
_D_17
 70
     0
 10
0.0
 20
0.0
 30
0.0
  3
_D_17
  1

  0
SOLID
  5
446
330
443
100
AcDbEntity
  8
0
  6
Continuous
 62
     7
370
     0
100
AcDbTrace
 10
153.0918755837
 20
123.4477334311
 30
0.0
 11
155.0918755837
 21
122.6977334311
 31
0.0
 12
155.0918755837
 22
124.1977334311
 32
0.0
 13
155.0918755837
 23
124.1977334311
 33
0.0
  0
SOLID
  5
447
330
443
100
AcDbEntity
  8
0
  6
Continuous
 62
     7
370
     0
100
AcDbTrace
 10
151.0918755837
 20
123.4477334311
 30
0.0
 11
149.0918755837
 21
124.1977334311
 31
0.0
 12
149.0918755837
 22
122.6977334311
 32
0.0
 13
149.0918755837
 23
122.6977334311
 33
0.0
  0
LINE
  5
448
330
443
100
AcDbEntity
  8
0
  6
Continuous
 62
     7
370
     0
100
AcDbLine
 10
153.0918755837
 20
115.368330501
 30
0.0
 11
153.0918755837
 21
124.4477334311
 31
0.0
  0
LINE
  5
449
330
443
100
AcDbEntity
  8
0
  6
Continuous
 62
     7
370
     0
100
AcDbLine
 10
151.0918755837
 20
107.2072931803
 30
0.0
 11
151.0918755837
 21
124.4477334311
 31
0.0
  0
LINE
  5
44A
330
443
100
AcDbEntity
  8
0
  6
Continuous
 62
     7
370
     0
100
AcDbLine
 10
153.0918755837
 20
123.4477334311
 30
0.0
 11
158.0918755837
 21
123.4477334311
 31
0.0
  0
LINE
  5
44B
330
443
100
AcDbEntity
  8
0
  6
Continuous
 62
     7
370
     0
100
AcDbLine
 10
153.0918755837
 20
123.4477334311
 30
0.0
 11
151.0918755837
 21
123.4477334311
 31
0.0
  0
LINE
  5
44C
330
443
100
AcDbEntity
  8
0
  6
Continuous
 62
     7
370
     0
100
AcDbLine
 10
151.0918755837
 20
123.4477334311
 30
0.0
 11
143.4929494135
 21
123.4477334311
 31
0.0
  0
MTEXT
  5
44D
330
443
100
AcDbEntity
  8
0
  6
Continuous
 62
     7
370
     0
100
AcDbMText
 10
143.4929494135
 20
127.9594703457
 30
18.6833481669
 40
3.5
 41
0.0
 71
     1
 72
     1
  1
2
  7
SLDTEXTSTYLE0
 73
     1
 44
1.0
  0
ENDBLK
  5
445
330
443
100
AcDbEntity
  8
0
100
AcDbBlockEnd
  0
BLOCK
  5
450
330
44F
100
AcDbEntity
  8
0
100
AcDbBlockBegin
  2
_D_18
 70
     0
 10
0.0
 20
0.0
 30
0.0
  3
_D_18
  1

  0
SOLID
  5
452
330
44F
100
AcDbEntity
  8
0
  6
Continuous
 62
     7
370
     0
100
AcDbTrace
 10
91.5944092296
 20
102.0572931803
 30
0.0
 11
90.8444092296
 21
100.0572931803
 31
0.0
 12
92.3444092296
 22
100.0572931803
 32
0.0
 13
92.3444092296
 23
100.0572931803
 33
0.0
  0
SOLID
  5
453
330
44F
100
AcDbEntity
  8
0
  6
Continuous
 62
     7
370
     0
100
AcDbTrace
 10
91.5944092296
 20
82.0572931803
 30
0.0
 11
92.3444092296
 21
84.0572931803
 31
0.0
 12
90.8444092296
 22
84.0572931803
 32
0.0
 13
90.8444092296
 23
84.0572931803
 33
0.0
  0
LINE
  5
454
330
44F
100
AcDbEntity
  8
0
  6
Continuous
 62
     7
370
     0
100
AcDbLine
 10
145.9418755837
 20
102.0572931803
 30
0.0
 11
90.5944092296
 21
102.0572931803
 31
0.0
  0
LINE
  5
455
330
44F
100
AcDbEntity
  8
0
  6
Continuous
 62
     7
370
     0
100
AcDbLine
 10
145.9418755837
 20
82.0572931803
 30
0.0
 11
90.5944092296
 21
82.0572931803
 31
0.0
  0
LINE
  5
456
330
44F
100
AcDbEntity
  8
0
  6
Continuous
 62
     7
370
     0
100
AcDbLine
 10
91.5944092296
 20
102.0572931803
 30
0.0
 11
91.5944092296
 21
82.0572931803
 31
0.0
  0
MTEXT
  5
457
330
44F
100
AcDbEntity
  8
0
  6
Continuous
 62
     7
370
     0
100
AcDbMText
 10
87.082672315
 20
90.3086132063
 30
18.6833481669
 40
3.5
 41
0.0
 71
     1
 72
     1
  1
20
  7
SLDTEXTSTYLE0
 11
-7.044195017643634E-15
 21
1.0
 31
0.0
 73
     1
 44
1.0
  0
ENDBLK
  5
451
330
44F
100
AcDbEntity
  8
0
100
AcDbBlockEnd
  0
BLOCK
  5
45A
330
459
100
AcDbEntity
  8
0
100
AcDbBlockBegin
  2
_D_19
 70
     0
 10
0.0
 20
0.0
 30
0.0
  3
_D_19
  1

  0
SOLID
  5
45C
330
459
100
AcDbEntity
  8
0
  6
Continuous
 62
     7
370
     0
100
AcDbTrace
 10
82.4918755837
 20
110.218330501
 30
0.0
 11
81.7418755837
 21
108.218330501
 31
0.0
 12
83.2418755837
 22
108.218330501
 32
0.0
 13
83.2418755837
 23
108.218330501
 33
0.0
  0
SOLID
  5
45D
330
459
100
AcDbEntity
  8
0
  6
Continuous
 62
     7
370
     0
100
AcDbTrace
 10
82.4918755837
 20
74.218330501
 30
0.0
 11
83.2418755837
 21
76.218330501
 31
0.0
 12
81.7418755837
 22
76.218330501
 32
0.0
 13
81.7418755837
 23
76.218330501
 33
0.0
  0
LINE
  5
45E
330
459
100
AcDbEntity
  8
0
  6
Continuous
 62
     7
370
     0
100
AcDbLine
 10
147.9418755837
 20
110.218330501
 30
0.0
 11
81.4918755837
 21
110.218330501
 31
0.0
  0
LINE
  5
45F
330
459
100
AcDbEntity
  8
0
  6
Continuous
 62
     7
370
     0
100
AcDbLine
 10
147.9418755837
 20
74.218330501
 30
0.0
 11
81.4918755837
 21
74.218330501
 31
0.0
  0
LINE
  5
460
330
459
100
AcDbEntity
  8
0
  6
Continuous
 62
     7
370
     0
100
AcDbLine
 10
82.4918755837
 20
110.218330501
 30
0.0
 11
82.4918755837
 21
74.218330501
 31
0.0
  0
MTEXT
  5
461
330
459
100
AcDbEntity
  8
0
  6
Continuous
 62
     7
370
     0
100
AcDbMText
 10
77.9801386691
 20
90.3086132063
 30
18.6833481669
 40
3.5
 41
0.0
 71
     1
 72
     1
  1
36
  7
SLDTEXTSTYLE0
 11
-7.044195017643634E-15
 21
1.0
 31
0.0
 73
     1
 44
1.0
  0
ENDBLK
  5
45B
330
459
100
AcDbEntity
  8
0
100
AcDbBlockEnd
  0
BLOCK
  5
464
330
463
100
AcDbEntity
  8
0
100
AcDbBlockBegin
  2
_D_20
 70
     0
 10
0.0
 20
0.0
 30
0.0
  3
_D_20
  1

  0
SOLID
  5
466
330
463
100
AcDbEntity
  8
0
  6
Continuous
 62
     7
370
     0
100
AcDbTrace
 10
159.5918755837
 20
55.8591012688
 30
0.0
 11
161.5918755837
 21
55.1091012688
 31
0.0
 12
161.5918755837
 22
56.6091012688
 32
0.0
 13
161.5918755837
 23
56.6091012688
 33
0.0
  0
SOLID
  5
467
330
463
100
AcDbEntity
  8
0
  6
Continuous
 62
     7
370
     0
100
AcDbTrace
 10
188.7918755837
 20
55.8591012688
 30
0.0
 11
186.7918755837
 21
56.6091012688
 31
0.0
 12
186.7918755837
 22
55.1091012688
 32
0.0
 13
186.7918755837
 23
55.1091012688
 33
0.0
  0
LINE
  5
468
330
463
100
AcDbEntity
  8
0
  6
Continuous
 62
     7
370
     0
100
AcDbLine
 10
159.5918755837
 20
70.218330501
 30
0.0
 11
159.5918755837
 21
54.8591012688
 31
0.0
  0
LINE
  5
469
330
463
100
AcDbEntity
  8
0
  6
Continuous
 62
     7
370
     0
100
AcDbLine
 10
188.7918755837
 20
80.2183305015
 30
0.0
 11
188.7918755837
 21
54.8591012688
 31
0.0
  0
LINE
  5
46A
330
463
100
AcDbEntity
  8
0
  6
Continuous
 62
     7
370
     0
100
AcDbLine
 10
159.5918755837
 20
55.8591012688
 30
0.0
 11
188.7918755837
 21
55.8591012688
 31
0.0
  0
MTEXT
  5
46B
330
463
100
AcDbEntity
  8
0
  6
Continuous
 62
     7
370
     0
100
AcDbMText
 10
170.3560820224
 20
60.3708381834
 30
18.6833481669
 40
3.5
 41
0.0
 71
     1
 72
     1
  1
29.2
  7
SLDTEXTSTYLE0
 73
     1
 44
1.0
  0
ENDBLK
  5
465
330
463
100
AcDbEntity
  8
0
100
AcDbBlockEnd
  0
BLOCK
  5
46E
330
46D
100
AcDbEntity
  8
0
100
AcDbBlockBegin
  2
_D_21
 70
     0
 10
0.0
 20
0.0
 30
0.0
  3
_D_21
  1

  0
SOLID
  5
470
330
46D
100
AcDbEntity
  8
0
  6
Continuous
 62
     7
370
     0
100
AcDbTrace
 10
159.5918755837
 20
55.8591012688
 30
0.0
 11
157.5918755837
 21
56.6091012688
 31
0.0
 12
157.5918755837
 22
55.1091012688
 32
0.0
 13
157.5918755837
 23
55.1091012688
 33
0.0
  0
SOLID
  5
471
330
46D
100
AcDbEntity
  8
0
  6
Continuous
 62
     7
370
     0
100
AcDbTrace
 10
129.5918755837
 20
55.8591012688
 30
0.0
 11
131.5918755837
 21
55.1091012688
 31
0.0
 12
131.5918755837
 22
56.6091012688
 32
0.0
 13
131.5918755837
 23
56.6091012688
 33
0.0
  0
LINE
  5
472
330
46D
100
AcDbEntity
  8
0
  6
Continuous
 62
     7
370
     0
100
AcDbLine
 10
159.5918755837
 20
70.218330501
 30
0.0
 11
159.5918755837
 21
54.8591012688
 31
0.0
  0
LINE
  5
473
330
46D
100
AcDbEntity
  8
0
  6
Continuous
 62
     7
370
     0
100
AcDbLine
 10
129.5918755837
 20
70.218330501
 30
0.0
 11
129.5918755837
 21
54.8591012688
 31
0.0
  0
LINE
  5
474
330
46D
100
AcDbEntity
  8
0
  6
Continuous
 62
     7
370
     0
100
AcDbLine
 10
159.5918755837
 20
55.8591012688
 30
0.0
 11
129.5918755837
 21
55.8591012688
 31
0.0
  0
MTEXT
  5
475
330
46D
100
AcDbEntity
  8
0
  6
Continuous
 62
     7
370
     0
100
AcDbMText
 10
142.0057643902
 20
60.3708381834
 30
18.6833481669
 40
3.5
 41
0.0
 71
     1
 72
     1
  1
30
  7
SLDTEXTSTYLE0
 73
     1
 44
1.0
  0
ENDBLK
  5
46F
330
46D
100
AcDbEntity
  8
0
100
AcDbBlockEnd
  0
BLOCK
  5
478
330
477
100
AcDbEntity
  8
0
100
AcDbBlockBegin
  2
_D_22
 70
     0
 10
0.0
 20
0.0
 30
0.0
  3
_D_22
  1

  0
SOLID
  5
47A
330
477
100
AcDbEntity
  8
0
  6
Continuous
 62
     7
370
     0
100
AcDbTrace
 10
133.0918755837
 20
62.1941420675
 30
0.0
 11
135.0918755837
 21
61.4441420675
 31
0.0
 12
135.0918755837
 22
62.9441420675
 32
0.0
 13
135.0918755837
 23
62.9441420675
 33
0.0
  0
SOLID
  5
47B
330
477
100
AcDbEntity
  8
0
  6
Continuous
 62
     7
370
     0
100
AcDbTrace
 10
153.0918755837
 20
62.1941420675
 30
0.0
 11
151.0918755837
 21
62.9441420675
 31
0.0
 12
151.0918755837
 22
61.4441420675
 32
0.0
 13
151.0918755837
 23
61.4441420675
 33
0.0
  0
LINE
  5
47C
330
477
100
AcDbEntity
  8
0
  6
Continuous
 62
     7
370
     0
100
AcDbLine
 10
133.0918755837
 20
87.068330501
 30
0.0
 11
133.0918755837
 21
61.1941420675
 31
0.0
  0
LINE
  5
47D
330
477
100
AcDbEntity
  8
0
  6
Continuous
 62
     7
370
     0
100
AcDbLine
 10
153.0918755837
 20
69.068330501
 30
0.0
 11
153.0918755837
 21
61.1941420675
 31
0.0
  0
LINE
  5
47E
330
477
100
AcDbEntity
  8
0
  6
Continuous
 62
     7
370
     0
100
AcDbLine
 10
133.0918755837
 20
62.1941420675
 30
0.0
 11
153.0918755837
 21
62.1941420675
 31
0.0
  0
MTEXT
  5
47F
330
477
100
AcDbEntity
  8
0
  6
Continuous
 62
     7
370
     0
100
AcDbMText
 10
140.5057643902
 20
66.7058789821
 30
18.6833481669
 40
3.5
 41
0.0
 71
     1
 72
     1
  1
20
  7
SLDTEXTSTYLE0
 73
     1
 44
1.0
  0
ENDBLK
  5
479
330
477
100
AcDbEntity
  8
0
100
AcDbBlockEnd
  0
BLOCK
  5
485
330
484
100
AcDbEntity
  8
0
100
AcDbBlockBegin
  2
SW_CENTERMARKSYMBOL_8
 70
     0
 10
0.0
 20
0.0
 30
0.0
  3
SW_CENTERMARKSYMBOL_8
  1

  0
LINE
  5
487
330
484
100
AcDbEntity
  8
0
  6
Continuous
 62
     0
370
     0
100
AcDbLine
 10
0.0
 20
0.0
 30
0.0
 11
0.0
 21
2.5
 31
0.0
  0
LINE
  5
488
330
484
100
AcDbEntity
  8
0
  6
Continuous
 62
     0
370
     0
100
AcDbLine
 10
0.0
 20
0.0
 30
0.0
 11
-2.5
 21
0.0
 31
0.0
  0
LINE
  5
489
330
484
100
AcDbEntity
  8
0
  6
Continuous
 62
     0
370
     0
100
AcDbLine
 10
0.0
 20
0.0
 30
0.0
 11
0.0
 21
-2.5
 31
0.0
  0
LINE
  5
48A
330
484
100
AcDbEntity
  8
0
  6
Continuous
 62
     0
370
     0
100
AcDbLine
 10
0.0
 20
0.0
 30
0.0
 11
2.5
 21
0.0
 31
0.0
  0
LINE
  5
48B
330
484
100
AcDbEntity
  8
0
  6
Continuous
 62
     0
370
     0
100
AcDbLine
 10
0.0
 20
2.5
 30
0.0
 11
0.0
 21
4.15
 31
0.0
  0
LINE
  5
48C
330
484
100
AcDbEntity
  8
0
  6
Continuous
 62
     0
370
     0
100
AcDbLine
 10
-2.5
 20
0.0
 30
0.0
 11
-4.15
 21
0.0
 31
0.0
  0
LINE
  5
48D
330
484
100
AcDbEntity
  8
0
  6
Continuous
 62
     0
370
     0
100
AcDbLine
 10
0.0
 20
-2.5
 30
0.0
 11
0.0
 21
-4.15
 31
0.0
  0
LINE
  5
48E
330
484
100
AcDbEntity
  8
0
  6
Continuous
 62
     0
370
     0
100
AcDbLine
 10
2.5
 20
0.0
 30
0.0
 11
4.15
 21
0.0
 31
0.0
  0
ENDBLK
  5
486
330
484
100
AcDbEntity
  8
0
100
AcDbBlockEnd
  0
BLOCK
  5
491
330
490
100
AcDbEntity
  8
0
100
AcDbBlockBegin
  2
SW_CENTERMARKSYMBOL_9
 70
     0
 10
0.0
 20
0.0
 30
0.0
  3
SW_CENTERMARKSYMBOL_9
  1

  0
LINE
  5
493
330
490
100
AcDbEntity
  8
0
  6
Continuous
 62
     0
370
     0
100
AcDbLine
 10
0.0
 20
0.0
 30
0.0
 11
0.0
 21
2.5
 31
0.0
  0
LINE
  5
494
330
490
100
AcDbEntity
  8
0
  6
Continuous
 62
     0
370
     0
100
AcDbLine
 10
0.0
 20
0.0
 30
0.0
 11
-2.5
 21
0.0
 31
0.0
  0
LINE
  5
495
330
490
100
AcDbEntity
  8
0
  6
Continuous
 62
     0
370
     0
100
AcDbLine
 10
0.0
 20
0.0
 30
0.0
 11
0.0
 21
-2.5
 31
0.0
  0
LINE
  5
496
330
490
100
AcDbEntity
  8
0
  6
Continuous
 62
     0
370
     0
100
AcDbLine
 10
0.0
 20
0.0
 30
0.0
 11
2.5
 21
0.0
 31
0.0
  0
LINE
  5
497
330
490
100
AcDbEntity
  8
0
  6
Continuous
 62
     0
370
     0
100
AcDbLine
 10
0.0
 20
2.5
 30
0.0
 11
0.0
 21
4.15
 31
0.0
  0
LINE
  5
498
330
490
100
AcDbEntity
  8
0
  6
Continuous
 62
     0
370
     0
100
AcDbLine
 10
-2.5
 20
0.0
 30
0.0
 11
-4.15
 21
0.0
 31
0.0
  0
LINE
  5
499
330
490
100
AcDbEntity
  8
0
  6
Continuous
 62
     0
370
     0
100
AcDbLine
 10
0.0
 20
-2.5
 30
0.0
 11
0.0
 21
-4.15
 31
0.0
  0
LINE
  5
49A
330
490
100
AcDbEntity
  8
0
  6
Continuous
 62
     0
370
     0
100
AcDbLine
 10
2.5
 20
0.0
 30
0.0
 11
4.15
 21
0.0
 31
0.0
  0
ENDBLK
  5
492
330
490
100
AcDbEntity
  8
0
100
AcDbBlockEnd
  0
BLOCK
  5
49D
330
49C
100
AcDbEntity
  8
0
100
AcDbBlockBegin
  2
SW_CENTERMARKSYMBOL_10
 70
     0
 10
0.0
 20
0.0
 30
0.0
  3
SW_CENTERMARKSYMBOL_10
  1

  0
LINE
  5
49F
330
49C
100
AcDbEntity
  8
0
  6
Continuous
 62
     0
370
     0
100
AcDbLine
 10
0.0
 20
0.0
 30
0.0
 11
0.0
 21
2.5
 31
0.0
  0
LINE
  5
4A0
330
49C
100
AcDbEntity
  8
0
  6
Continuous
 62
     0
370
     0
100
AcDbLine
 10
0.0
 20
0.0
 30
0.0
 11
-2.5
 21
0.0
 31
0.0
  0
LINE
  5
4A1
330
49C
100
AcDbEntity
  8
0
  6
Continuous
 62
     0
370
     0
100
AcDbLine
 10
0.0
 20
0.0
 30
0.0
 11
0.0
 21
-2.5
 31
0.0
  0
LINE
  5
4A2
330
49C
100
AcDbEntity
  8
0
  6
Continuous
 62
     0
370
     0
100
AcDbLine
 10
0.0
 20
0.0
 30
0.0
 11
2.5
 21
0.0
 31
0.0
  0
LINE
  5
4A3
330
49C
100
AcDbEntity
  8
0
  6
Continuous
 62
     0
370
     0
100
AcDbLine
 10
0.0
 20
2.5
 30
0.0
 11
0.0
 21
4.15
 31
0.0
  0
LINE
  5
4A4
330
49C
100
AcDbEntity
  8
0
  6
Continuous
 62
     0
370
     0
100
AcDbLine
 10
-2.5
 20
0.0
 30
0.0
 11
-4.15
 21
0.0
 31
0.0
  0
LINE
  5
4A5
330
49C
100
AcDbEntity
  8
0
  6
Continuous
 62
     0
370
     0
100
AcDbLine
 10
0.0
 20
-2.5
 30
0.0
 11
0.0
 21
-4.15
 31
0.0
  0
LINE
  5
4A6
330
49C
100
AcDbEntity
  8
0
  6
Continuous
 62
     0
370
     0
100
AcDbLine
 10
2.5
 20
0.0
 30
0.0
 11
4.15
 21
0.0
 31
0.0
  0
ENDBLK
  5
49E
330
49C
100
AcDbEntity
  8
0
100
AcDbBlockEnd
  0
BLOCK
  5
4A9
330
4A8
100
AcDbEntity
  8
0
100
AcDbBlockBegin
  2
SW_CENTERMARKSYMBOL_11
 70
     0
 10
0.0
 20
0.0
 30
0.0
  3
SW_CENTERMARKSYMBOL_11
  1

  0
LINE
  5
4AB
330
4A8
100
AcDbEntity
  8
0
  6
Continuous
 62
     0
370
     0
100
AcDbLine
 10
0.0
 20
0.0
 30
0.0
 11
0.0
 21
2.5
 31
0.0
  0
LINE
  5
4AC
330
4A8
100
AcDbEntity
  8
0
  6
Continuous
 62
     0
370
     0
100
AcDbLine
 10
0.0
 20
0.0
 30
0.0
 11
-2.5
 21
0.0
 31
0.0
  0
LINE
  5
4AD
330
4A8
100
AcDbEntity
  8
0
  6
Continuous
 62
     0
370
     0
100
AcDbLine
 10
0.0
 20
0.0
 30
0.0
 11
0.0
 21
-2.5
 31
0.0
  0
LINE
  5
4AE
330
4A8
100
AcDbEntity
  8
0
  6
Continuous
 62
     0
370
     0
100
AcDbLine
 10
0.0
 20
0.0
 30
0.0
 11
2.5
 21
0.0
 31
0.0
  0
LINE
  5
4AF
330
4A8
100
AcDbEntity
  8
0
  6
Continuous
 62
     0
370
     0
100
AcDbLine
 10
0.0
 20
2.5
 30
0.0
 11
0.0
 21
4.15
 31
0.0
  0
LINE
  5
4B0
330
4A8
100
AcDbEntity
  8
0
  6
Continuous
 62
     0
370
     0
100
AcDbLine
 10
-2.5
 20
0.0
 30
0.0
 11
-4.15
 21
0.0
 31
0.0
  0
LINE
  5
4B1
330
4A8
100
AcDbEntity
  8
0
  6
Continuous
 62
     0
370
     0
100
AcDbLine
 10
0.0
 20
-2.5
 30
0.0
 11
0.0
 21
-4.15
 31
0.0
  0
LINE
  5
4B2
330
4A8
100
AcDbEntity
  8
0
  6
Continuous
 62
     0
370
     0
100
AcDbLine
 10
2.5
 20
0.0
 30
0.0
 11
4.15
 21
0.0
 31
0.0
  0
ENDBLK
  5
4AA
330
4A8
100
AcDbEntity
  8
0
100
AcDbBlockEnd
  0
BLOCK
  5
4B5
330
4B4
100
AcDbEntity
  8
0
100
AcDbBlockBegin
  2
SW_CENTERMARKSYMBOL_12
 70
     0
 10
0.0
 20
0.0
 30
0.0
  3
SW_CENTERMARKSYMBOL_12
  1

  0
LINE
  5
4B7
330
4B4
100
AcDbEntity
  8
0
  6
Continuous
 62
     0
370
     0
100
AcDbLine
 10
0.0
 20
0.0
 30
0.0
 11
0.0
 21
2.5
 31
0.0
  0
LINE
  5
4B8
330
4B4
100
AcDbEntity
  8
0
  6
Continuous
 62
     0
370
     0
100
AcDbLine
 10
0.0
 20
0.0
 30
0.0
 11
-2.5
 21
0.0
 31
0.0
  0
LINE
  5
4B9
330
4B4
100
AcDbEntity
  8
0
  6
Continuous
 62
     0
370
     0
100
AcDbLine
 10
0.0
 20
0.0
 30
0.0
 11
0.0
 21
-2.5
 31
0.0
  0
LINE
  5
4BA
330
4B4
100
AcDbEntity
  8
0
  6
Continuous
 62
     0
370
     0
100
AcDbLine
 10
0.0
 20
0.0
 30
0.0
 11
2.5
 21
0.0
 31
0.0
  0
LINE
  5
4BB
330
4B4
100
AcDbEntity
  8
0
  6
Continuous
 62
     0
370
     0
100
AcDbLine
 10
0.0
 20
2.5
 30
0.0
 11
0.0
 21
4.15
 31
0.0
  0
LINE
  5
4BC
330
4B4
100
AcDbEntity
  8
0
  6
Continuous
 62
     0
370
     0
100
AcDbLine
 10
-2.5
 20
0.0
 30
0.0
 11
-4.15
 21
0.0
 31
0.0
  0
LINE
  5
4BD
330
4B4
100
AcDbEntity
  8
0
  6
Continuous
 62
     0
370
     0
100
AcDbLine
 10
0.0
 20
-2.5
 30
0.0
 11
0.0
 21
-4.15
 31
0.0
  0
LINE
  5
4BE
330
4B4
100
AcDbEntity
  8
0
  6
Continuous
 62
     0
370
     0
100
AcDbLine
 10
2.5
 20
0.0
 30
0.0
 11
4.15
 21
0.0
 31
0.0
  0
ENDBLK
  5
4B6
330
4B4
100
AcDbEntity
  8
0
100
AcDbBlockEnd
  0
BLOCK
  5
4C1
330
4C0
100
AcDbEntity
  8
0
100
AcDbBlockBegin
  2
SW_CENTERMARKSYMBOL_13
 70
     0
 10
0.0
 20
0.0
 30
0.0
  3
SW_CENTERMARKSYMBOL_13
  1

  0
LINE
  5
4C3
330
4C0
100
AcDbEntity
  8
0
  6
Continuous
 62
     0
370
     0
100
AcDbLine
 10
0.0
 20
0.0
 30
0.0
 11
0.0
 21
2.5
 31
0.0
  0
LINE
  5
4C4
330
4C0
100
AcDbEntity
  8
0
  6
Continuous
 62
     0
370
     0
100
AcDbLine
 10
0.0
 20
0.0
 30
0.0
 11
-2.5
 21
0.0
 31
0.0
  0
LINE
  5
4C5
330
4C0
100
AcDbEntity
  8
0
  6
Continuous
 62
     0
370
     0
100
AcDbLine
 10
0.0
 20
0.0
 30
0.0
 11
0.0
 21
-2.5
 31
0.0
  0
LINE
  5
4C6
330
4C0
100
AcDbEntity
  8
0
  6
Continuous
 62
     0
370
     0
100
AcDbLine
 10
0.0
 20
0.0
 30
0.0
 11
2.5
 21
0.0
 31
0.0
  0
LINE
  5
4C7
330
4C0
100
AcDbEntity
  8
0
  6
Continuous
 62
     0
370
     0
100
AcDbLine
 10
0.0
 20
2.5
 30
0.0
 11
0.0
 21
4.15
 31
0.0
  0
LINE
  5
4C8
330
4C0
100
AcDbEntity
  8
0
  6
Continuous
 62
     0
370
     0
100
AcDbLine
 10
-2.5
 20
0.0
 30
0.0
 11
-4.15
 21
0.0
 31
0.0
  0
LINE
  5
4C9
330
4C0
100
AcDbEntity
  8
0
  6
Continuous
 62
     0
370
     0
100
AcDbLine
 10
0.0
 20
-2.5
 30
0.0
 11
0.0
 21
-4.15
 31
0.0
  0
LINE
  5
4CA
330
4C0
100
AcDbEntity
  8
0
  6
Continuous
 62
     0
370
     0
100
AcDbLine
 10
2.5
 20
0.0
 30
0.0
 11
4.15
 21
0.0
 31
0.0
  0
ENDBLK
  5
4C2
330
4C0
100
AcDbEntity
  8
0
100
AcDbBlockEnd
  0
BLOCK
  5
4CD
330
4CC
100
AcDbEntity
  8
0
100
AcDbBlockBegin
  2
SW_CENTERMARKSYMBOL_14
 70
     0
 10
0.0
 20
0.0
 30
0.0
  3
SW_CENTERMARKSYMBOL_14
  1

  0
LINE
  5
4CF
330
4CC
100
AcDbEntity
  8
0
  6
Continuous
 62
     0
370
     0
100
AcDbLine
 10
0.0
 20
0.0
 30
0.0
 11
0.0
 21
2.5
 31
0.0
  0
LINE
  5
4D0
330
4CC
100
AcDbEntity
  8
0
  6
Continuous
 62
     0
370
     0
100
AcDbLine
 10
0.0
 20
0.0
 30
0.0
 11
-2.5
 21
0.0
 31
0.0
  0
LINE
  5
4D1
330
4CC
100
AcDbEntity
  8
0
  6
Continuous
 62
     0
370
     0
100
AcDbLine
 10
0.0
 20
0.0
 30
0.0
 11
0.0
 21
-2.5
 31
0.0
  0
LINE
  5
4D2
330
4CC
100
AcDbEntity
  8
0
  6
Continuous
 62
     0
370
     0
100
AcDbLine
 10
0.0
 20
0.0
 30
0.0
 11
2.5
 21
0.0
 31
0.0
  0
LINE
  5
4D3
330
4CC
100
AcDbEntity
  8
0
  6
Continuous
 62
     0
370
     0
100
AcDbLine
 10
0.0
 20
2.5
 30
0.0
 11
0.0
 21
4.5
 31
0.0
  0
LINE
  5
4D4
330
4CC
100
AcDbEntity
  8
0
  6
Continuous
 62
     0
370
     0
100
AcDbLine
 10
-2.5
 20
0.0
 30
0.0
 11
-4.5
 21
0.0
 31
0.0
  0
LINE
  5
4D5
330
4CC
100
AcDbEntity
  8
0
  6
Continuous
 62
     0
370
     0
100
AcDbLine
 10
0.0
 20
-2.5
 30
0.0
 11
0.0
 21
-4.5
 31
0.0
  0
LINE
  5
4D6
330
4CC
100
AcDbEntity
  8
0
  6
Continuous
 62
     0
370
     0
100
AcDbLine
 10
2.5
 20
0.0
 30
0.0
 11
4.5
 21
0.0
 31
0.0
  0
ENDBLK
  5
4CE
330
4CC
100
AcDbEntity
  8
0
100
AcDbBlockEnd
  0
BLOCK
  5
4D9
330
4D8
100
AcDbEntity
  8
0
100
AcDbBlockBegin
  2
SW_CENTERMARKSYMBOL_15
 70
     0
 10
0.0
 20
0.0
 30
0.0
  3
SW_CENTERMARKSYMBOL_15
  1

  0
LINE
  5
4DB
330
4D8
100
AcDbEntity
  8
0
  6
Continuous
 62
     0
370
     0
100
AcDbLine
 10
0.0
 20
0.0
 30
0.0
 11
0.0
 21
2.5
 31
0.0
  0
LINE
  5
4DC
330
4D8
100
AcDbEntity
  8
0
  6
Continuous
 62
     0
370
     0
100
AcDbLine
 10
0.0
 20
0.0
 30
0.0
 11
-2.5
 21
0.0
 31
0.0
  0
LINE
  5
4DD
330
4D8
100
AcDbEntity
  8
0
  6
Continuous
 62
     0
370
     0
100
AcDbLine
 10
0.0
 20
0.0
 30
0.0
 11
0.0
 21
-2.5
 31
0.0
  0
LINE
  5
4DE
330
4D8
100
AcDbEntity
  8
0
  6
Continuous
 62
     0
370
     0
100
AcDbLine
 10
0.0
 20
0.0
 30
0.0
 11
2.5
 21
0.0
 31
0.0
  0
LINE
  5
4DF
330
4D8
100
AcDbEntity
  8
0
  6
Continuous
 62
     0
370
     0
100
AcDbLine
 10
0.0
 20
2.5
 30
0.0
 11
0.0
 21
4.5
 31
0.0
  0
LINE
  5
4E0
330
4D8
100
AcDbEntity
  8
0
  6
Continuous
 62
     0
370
     0
100
AcDbLine
 10
-2.5
 20
0.0
 30
0.0
 11
-4.5
 21
0.0
 31
0.0
  0
LINE
  5
4E1
330
4D8
100
AcDbEntity
  8
0
  6
Continuous
 62
     0
370
     0
100
AcDbLine
 10
0.0
 20
-2.5
 30
0.0
 11
0.0
 21
-4.5
 31
0.0
  0
LINE
  5
4E2
330
4D8
100
AcDbEntity
  8
0
  6
Continuous
 62
     0
370
     0
100
AcDbLine
 10
2.5
 20
0.0
 30
0.0
 11
4.5
 21
0.0
 31
0.0
  0
ENDBLK
  5
4DA
330
4D8
100
AcDbEntity
  8
0
100
AcDbBlockEnd
  0
ENDSEC
  0
SECTION
  2
ENTITIES
  0
LINE
  5
44
330
1F
100
AcDbEntity
  8
0
  6
Continuous
 62
     7
370
     0
100
AcDbLine
 10
20.2604743903
 20
285.0
 30
0.0
 11
196.7604743903
 21
285.0
 31
0.0
  0
LINE
  5
45
330
1F
100
AcDbEntity
  8
0
  6
Continuous
 62
     7
370
     0
100
AcDbLine
 10
20.2604743903
 20
285.0
 30
0.0
 11
20.2604743903
 21
10.0
 31
0.0
  0
LINE
  5
46
330
1F
100
AcDbEntity
  8
0
  6
Continuous
 62
     7
370
     0
100
AcDbLine
 10
20.2604743903
 20
10.0
 30
0.0
 11
196.7604743903
 21
10.0
 31
0.0
  0
LINE
  5
47
330
1F
100
AcDbEntity
  8
0
  6
Continuous
 62
     7
370
     0
100
AcDbLine
 10
196.7604743903
 20
285.0
 30
0.0
 11
196.7604743903
 21
10.0
 31
0.0
  0
LINE
  5
48
330
1F
100
AcDbEntity
  8
0
  6
Continuous
 62
     7
370
     0
100
AcDbLine
 10
127.0104743903
 20
50.75
 30
0.0
 11
196.7604743903
 21
50.75
 31
0.0
  0
LINE
  5
49
330
1F
100
AcDbEntity
  8
0
  6
Continuous
 62
     7
370
     0
100
AcDbLine
 10
127.0104743903
 20
50.75
 30
0.0
 11
127.0104743903
 21
10.0
 31
0.0
  0
LINE
  5
4A
330
1F
100
AcDbEntity
  8
0
  6
Continuous
 62
     7
370
     0
100
AcDbLine
 10
127.0104743903
 20
22.75
 30
0.0
 11
196.7604743903
 21
22.75
 31
0.0
  0
LINE
  5
4B
330
1F
100
AcDbEntity
  8
0
  6
Continuous
 62
     7
370
     0
100
AcDbLine
 10
127.0104743903
 20
36.75
 30
0.0
 11
196.7604743903
 21
36.75
 31
0.0
  0
MTEXT
  5
4D
330
1F
100
AcDbEntity
  8
0
  6
Continuous
 62
     7
370
     0
100
AcDbMText
 10
57.2734183571
 20
152.7686185487
 30
0.0
 40
3.5
 41
0.0
 71
     1
 72
     1
  1
KQ2S04-M5N
  7
SLDTEXTSTYLE0
 73
     1
 44
1.0
  0
MTEXT
  5
4E
330
1F
100
AcDbEntity
  8
0
  6
Continuous
 62
     7
370
     0
100
AcDbMText
 10
54.7158100286
 20
65.5847540592
 30
0.0
 40
3.5
 41
0.0
 71
     1
 72
     1
  1
ストッパーネジ
  7
SLDTEXTSTYLE0
 73
     1
 44
1.0
  0
MTEXT
  5
50
330
1F
100
AcDbEntity
  8
0
  6
Continuous
 62
     7
370
     0
100
AcDbMText
 10
161.4283293117
 20
30.4171582345
 30
0.0
 40
4.2333333333
 41
0.0
 71
     2
 72
     1
  1
NW2-35-V001S
  7
SLDTEXTSTYLE1
 73
     1
 44
1.0
  0
MTEXT
  5
51
330
1F
100
AcDbEntity
  8
0
  6
Continuous
 62
     7
370
     0
100
AcDbMText
 10
158.4460278248
 20
45.6424084502
 30
0.0
 40
3.96875
 41
0.0
 71
     2
 72
     1
  1
ミニエアニッパー・本体・長刃付
  7
SLDTEXTSTYLE1
 73
     1
 44
1.0
  0
MTEXT
  5
52
330
1F
100
AcDbEntity
  8
0
  6
Continuous
 62
     7
370
     0
100
AcDbMText
 10
162.6461516865
 20
16.8228189052
 30
0.0
 40
4.2333333333
 41
0.0
 71
     2
 72
     1
  1
131548
  7
SLDTEXTSTYLE1
 73
     1
 44
1.0
  0
LINE
  5
53
330
1F
100
AcDbEntity
  8
0
  6
Continuous
 62
     7
370
    15
100
AcDbLine
 10
72.8294184942
 20
178.7689580248
 30
0.0
 11
73.0294200171
 21
178.9689576851
 31
0.0
  0
LINE
  5
54
330
1F
100
AcDbEntity
  8
0
  6
Continuous
 62
     7
370
    15
100
AcDbLine
 10
73.0294200171
 20
178.9689576851
 30
0.0
 11
73.0294200171
 21
179.5689585285
 31
0.0
  0
LINE
  5
55
330
1F
100
AcDbEntity
  8
0
  6
Continuous
 62
     7
370
    15
100
AcDbLine
 10
73.0294200171
 20
179.5689585285
 30
0.0
 11
72.8294184942
 21
179.7689581887
 31
0.0
  0
LINE
  5
56
330
1F
100
AcDbEntity
  8
0
  6
Continuous
 62
     7
370
    15
100
AcDbLine
 10
69.0294193615
 20
178.2689588742
 30
0.0
 11
69.0294193615
 21
178.7689580248
 31
0.0
  0
LINE
  5
57
330
1F
100
AcDbEntity
  8
0
  6
Continuous
 62
     7
370
    15
100
AcDbLine
 10
30.0294185568
 20
178.9689576851
 30
0.0
 11
30.2294200797
 21
178.7689580248
 31
0.0
  0
LINE
  5
58
330
1F
100
AcDbEntity
  8
0
  6
Continuous
 62
     7
370
    15
100
AcDbLine
 10
30.2294200797
 20
179.7689581887
 30
0.0
 11
30.0294185568
 21
179.5689585285
 31
0.0
  0
LINE
  5
59
330
1F
100
AcDbEntity
  8
0
  6
Continuous
 62
     7
370
    15
100
AcDbLine
 10
30.0294185568
 20
179.5689585285
 30
0.0
 11
30.0294185568
 21
178.9689576851
 31
0.0
  0
LINE
  5
5A
330
1F
100
AcDbEntity
  8
0
  6
Continuous
 62
     7
370
    15
100
AcDbLine
 10
34.0294192125
 20
178.7689580248
 30
0.0
 11
34.0294192125
 21
178.2689588742
 31
0.0
  0
CIRCLE
  5
5B
330
1F
100
AcDbEntity
  8
0
  6
Continuous
 62
     7
370
    15
100
AcDbCircle
 10
51.529419287
 20
192.7689582632
 30
0.0
 40
4.000000000000004
  0
CIRCLE
  5
5C
330
1F
100
AcDbEntity
  8
0
  6
Continuous
 62
     7
370
    15
100
AcDbCircle
 10
51.4971946633
 20
208.7689258124
 30
0.0
 40
4.000000000000003
  0
LINE
  5
5D
330
1F
100
AcDbEntity
  8
0
  6
Continuous
 62
     7
370
    15
100
AcDbLine
 10
72.8294184942
 20
178.7689580248
 30
0.0
 11
67.0932164927
 21
178.7689580248
 31
0.0
  0
LINE
  5
5E
330
1F
100
AcDbEntity
  8
0
  6
Continuous
 62
     7
370
    15
100
AcDbLine
 10
67.0513526116
 20
178.9689576851
 30
0.0
 11
73.0294200171
 21
178.9689576851
 31
0.0
  0
LINE
  5
5F
330
1F
100
AcDbEntity
  8
0
  6
Continuous
 62
     7
370
    15
100
AcDbLine
 10
73.0294200171
 20
179.5689585285
 30
0.0
 11
67.0294190337
 21
179.5689585285
 31
0.0
  0
LINE
  5
60
330
1F
100
AcDbEntity
  8
0
  6
Continuous
 62
     7
370
    15
100
AcDbLine
 10
70.0294195254
 20
179.7689581887
 30
0.0
 11
72.8294184942
 21
179.7689581887
 31
0.0
  0
LINE
  5
61
330
1F
100
AcDbEntity
  8
0
  6
Continuous
 62
     7
370
    15
100
AcDbLine
 10
74.0294201811
 20
175.4689580427
 30
0.0
 11
74.0294201811
 21
174.2689582185
 31
0.0
  0
LINE
  5
62
330
1F
100
AcDbEntity
  8
0
  6
Continuous
 62
     7
370
    15
100
AcDbLine
 10
74.0294201811
 20
174.2689582185
 30
0.0
 11
73.5294191678
 21
174.2689582185
 31
0.0
  0
LINE
  5
63
330
1F
100
AcDbEntity
  8
0
  6
Continuous
 62
     7
370
    15
100
AcDbLine
 10
73.5294191678
 20
175.4689580427
 30
0.0
 11
74.0294201811
 21
175.4689580427
 31
0.0
  0
LINE
  5
64
330
1F
100
AcDbEntity
  8
0
  6
Continuous
 62
     7
370
    15
100
AcDbLine
 10
29.5294194062
 20
174.2689582185
 30
0.0
 11
29.0294183929
 21
174.2689582185
 31
0.0
  0
LINE
  5
65
330
1F
100
AcDbEntity
  8
0
  6
Continuous
 62
     7
370
    15
100
AcDbLine
 10
29.0294183929
 20
174.2689582185
 30
0.0
 11
29.0294183929
 21
175.4689580427
 31
0.0
  0
LINE
  5
66
330
1F
100
AcDbEntity
  8
0
  6
Continuous
 62
     7
370
    15
100
AcDbLine
 10
29.0294183929
 20
175.4689580427
 30
0.0
 11
29.5294194062
 21
175.4689580427
 31
0.0
  0
LINE
  5
67
330
1F
100
AcDbEntity
  8
0
  6
Continuous
 62
     7
370
    15
100
AcDbLine
 10
29.0294183929
 20
175.7689575331
 30
0.0
 11
29.0294183929
 21
175.4689580427
 31
0.0
  0
LINE
  5
68
330
1F
100
AcDbEntity
  8
0
  6
Continuous
 62
     7
370
    15
100
AcDbLine
 10
74.0294201811
 20
175.7689575331
 30
0.0
 11
74.0294201811
 21
175.4689580427
 31
0.0
  0
LINE
  5
69
330
1F
100
AcDbEntity
  8
0
  6
Continuous
 62
     7
370
    15
100
AcDbLine
 10
29.0294183929
 20
183.768957913
 30
0.0
 11
29.0294183929
 21
178.2689588742
 31
0.0
  0
LINE
  5
6A
330
1F
100
AcDbEntity
  8
0
  6
Continuous
 62
     7
370
    15
100
AcDbLine
 10
74.0294201811
 20
183.768957913
 30
0.0
 11
74.0294201811
 21
178.2689588742
 31
0.0
  0
CIRCLE
  5
6B
330
1F
100
AcDbEntity
  8
0
  6
Continuous
 62
     7
370
    15
100
AcDbCircle
 10
60.429419287
 20
192.7689582632
 30
0.0
 40
1.610000000000009
  0
CIRCLE
  5
6C
330
1F
100
AcDbEntity
  8
0
  6
Continuous
 62
     7
370
    15
100
AcDbCircle
 10
60.429419287
 20
192.7689582632
 30
0.0
 40
2.000000000000006
  0
LINE
  5
6D
330
1F
100
AcDbEntity
  8
0
  6
Continuous
 62
     7
370
    15
100
AcDbLine
 10
59.6726272766
 20
193.6410819778
 30
0.0
 11
60.8063048263
 21
193.8604207841
 31
0.0
  0
LINE
  5
6E
330
1F
100
AcDbEntity
  8
0
  6
Continuous
 62
     7
370
    15
100
AcDbLine
 10
60.8063048263
 20
193.8604207841
 30
0.0
 11
61.5630966191
 21
192.9882970305
 31
0.0
  0
LINE
  5
6F
330
1F
100
AcDbEntity
  8
0
  6
Continuous
 62
     7
370
    15
100
AcDbLine
 10
61.1862108622
 20
191.8968344705
 30
0.0
 11
61.5630966191
 21
192.9882970305
 31
0.0
  0
LINE
  5
70
330
1F
100
AcDbEntity
  8
0
  6
Continuous
 62
     7
370
    15
100
AcDbLine
 10
60.0525342439
 20
191.6774954313
 30
0.0
 11
61.1862108622
 21
191.8968344705
 31
0.0
  0
LINE
  5
71
330
1F
100
AcDbEntity
  8
0
  6
Continuous
 62
     7
370
    15
100
AcDbLine
 10
59.6726272766
 20
193.6410819778
 30
0.0
 11
59.2957419854
 21
192.5496194178
 31
0.0
  0
LINE
  5
72
330
1F
100
AcDbEntity
  8
0
  6
Continuous
 62
     7
370
    15
100
AcDbLine
 10
60.0525342439
 20
191.6774954313
 30
0.0
 11
59.2957419854
 21
192.5496194178
 31
0.0
  0
LINE
  5
73
330
1F
100
AcDbEntity
  8
0
  6
Continuous
 62
     7
370
    15
100
AcDbLine
 10
67.0294190337
 20
178.2689588742
 30
0.0
 11
67.0294190337
 21
175.7689575331
 31
0.0
  0
LINE
  5
74
330
1F
100
AcDbEntity
  8
0
  6
Continuous
 62
     7
370
    15
100
AcDbLine
 10
67.0294190337
 20
191.2689582111
 30
0.0
 11
67.0294190337
 21
178.2689588742
 31
0.0
  0
ARC
  5
75
330
1F
100
AcDbEntity
  8
0
  6
Continuous
 62
     7
370
    15
100
AcDbCircle
 10
55.029419287
 20
191.2689582632
 30
0.0
 40
12.0
100
AcDbArc
 50
0.0
 51
90.0
  0
LINE
  5
76
330
1F
100
AcDbEntity
  8
0
  6
Continuous
 62
     7
370
    15
100
AcDbLine
 10
36.0294195403
 20
178.2689588742
 30
0.0
 11
67.0294190337
 21
178.2689588742
 31
0.0
  0
LINE
  5
77
330
1F
100
AcDbEntity
  8
0
  6
Continuous
 62
     7
370
    15
100
AcDbLine
 10
36.0294195403
 20
178.2689588742
 30
0.0
 11
41.5022090588
 21
195.8842519104
 31
0.0
  0
ARC
  5
78
330
1F
100
AcDbEntity
  8
0
  6
Continuous
 62
     7
370
    15
100
AcDbCircle
 10
51.529419287
 20
192.7689582632
 30
0.0
 40
10.5
100
AcDbArc
 50
90.0
 51
162.7408168397
  0
LINE
  5
79
330
1F
100
AcDbEntity
  8
0
  6
Continuous
 62
     7
370
    15
100
AcDbLine
 10
51.529419287
 20
203.2689583154
 30
0.0
 11
55.029419395
 21
203.2689583154
 31
0.0
  0
LINE
  5
7A
330
1F
100
AcDbEntity
  8
0
  6
Continuous
 62
     7
370
    15
100
AcDbLine
 10
36.0294195403
 20
178.2689588742
 30
0.0
 11
36.0294195403
 21
175.7689575331
 31
0.0
  0
LINE
  5
7B
330
1F
100
AcDbEntity
  8
0
  6
Continuous
 62
     7
370
    15
100
AcDbLine
 10
36.0294195403
 20
175.7689575331
 30
0.0
 11
67.0294190337
 21
175.7689575331
 31
0.0
  0
LINE
  5
7C
330
1F
100
AcDbEntity
  8
0
  6
Continuous
 62
     7
370
    15
100
AcDbLine
 10
67.0294190337
 20
175.7689575331
 30
0.0
 11
74.0294201811
 21
175.7689575331
 31
0.0
  0
ELLIPSE
  5
7D
330
1F
100
AcDbEntity
  8
0
  6
Continuous
 62
     7
370
    15
100
AcDbEllipse
 10
67.5056097632
 20
179.2689582632
 30
0.0
 11
0.0
 21
1.0
 31
0.0
210
0.0
220
0.0
230
1.0
 40
0.4761904762
 41
1.570796326794897
 42
3.141592653589793
  0
LINE
  5
7E
330
1F
100
AcDbEntity
  8
0
  6
Continuous
 62
     7
370
    15
100
AcDbLine
 10
67.505609854
 20
178.2689588742
 30
0.0
 11
74.0294201811
 21
178.2689588742
 31
0.0
  0
LINE
  5
7F
330
1F
100
AcDbEntity
  8
0
  6
Continuous
 62
     7
370
    15
100
AcDbLine
 10
74.0294201811
 20
178.2689588742
 30
0.0
 11
74.0294201811
 21
175.7689575331
 31
0.0
  0
LINE
  5
80
330
1F
100
AcDbEntity
  8
0
  6
Continuous
 62
     7
370
    15
100
AcDbLine
 10
29.0294183929
 20
175.7689575331
 30
0.0
 11
36.0294195403
 21
175.7689575331
 31
0.0
  0
LINE
  5
81
330
1F
100
AcDbEntity
  8
0
  6
Continuous
 62
     7
370
    15
100
AcDbLine
 10
29.0294183929
 20
178.2689588742
 30
0.0
 11
36.0294195403
 21
178.2689588742
 31
0.0
  0
LINE
  5
82
330
1F
100
AcDbEntity
  8
0
  6
Continuous
 62
     7
370
    15
100
AcDbLine
 10
29.0294183929
 20
178.2689588742
 30
0.0
 11
29.0294183929
 21
175.7689575331
 31
0.0
  0
LINE
  5
83
330
1F
100
AcDbEntity
  8
0
  6
Continuous
 62
     7
370
    15
100
AcDbLine
 10
30.5294195701
 20
173.7689590679
 30
0.0
 11
29.5294194062
 21
173.7689590679
 31
0.0
  0
LINE
  5
84
330
1F
100
AcDbEntity
  8
0
  6
Continuous
 62
     7
370
    15
100
AcDbLine
 10
72.5294190039
 20
173.7689590679
 30
0.0
 11
30.5294195701
 21
173.7689590679
 31
0.0
  0
LINE
  5
85
330
1F
100
AcDbEntity
  8
0
  6
Continuous
 62
     7
370
    15
100
AcDbLine
 10
73.5294191678
 20
173.7689590679
 30
0.0
 11
72.5294190039
 21
173.7689590679
 31
0.0
  0
LINE
  5
86
330
1F
100
AcDbEntity
  8
0
  6
Continuous
 62
     7
370
    15
100
AcDbLine
 10
30.5294195701
 20
175.7689575331
 30
0.0
 11
30.5294195701
 21
173.7689590679
 31
0.0
  0
LINE
  5
87
330
1F
100
AcDbEntity
  8
0
  6
Continuous
 62
     7
370
    15
100
AcDbLine
 10
72.5294190039
 20
173.7689590679
 30
0.0
 11
72.5294190039
 21
175.7689575331
 31
0.0
  0
LINE
  5
88
330
1F
100
AcDbEntity
  8
0
  6
Continuous
 62
     7
370
    15
100
AcDbLine
 10
73.5294191678
 20
175.7689575331
 30
0.0
 11
73.5294191678
 21
173.7689590679
 31
0.0
  0
LINE
  5
89
330
1F
100
AcDbEntity
  8
0
  6
Continuous
 62
     7
370
    15
100
AcDbLine
 10
29.5294194062
 20
173.7689590679
 30
0.0
 11
29.5294194062
 21
175.7689575331
 31
0.0
  0
ARC
  5
8A
330
1F
100
AcDbEntity
  8
0
  6
Continuous
 62
     7
370
    15
100
AcDbCircle
 10
69.529419287
 20
184.2689582632
 30
0.0
 40
3.499999999999996
100
AcDbArc
 50
224.4153085972
 51
322.9901452219
  0
ARC
  5
8B
330
1F
100
AcDbEntity
  8
0
  6
Continuous
 62
     7
370
    15
100
AcDbCircle
 10
69.529419287
 20
184.2689582632
 30
0.0
 40
3.500000000000016
100
AcDbArc
 50
322.9901452219
 51
135.5846914028
  0
LINE
  5
8C
330
1F
100
AcDbEntity
  8
0
  6
Continuous
 62
     7
370
    15
100
AcDbLine
 10
70.5967067321
 20
185.6847899632
 30
0.0
 11
68.836916848
 21
185.9011715875
 31
0.0
  0
LINE
  5
8D
330
1F
100
AcDbEntity
  8
0
  6
Continuous
 62
     7
370
    15
100
AcDbLine
 10
68.836916848
 20
185.9011715875
 30
0.0
 11
67.7696304907
 21
184.4853405507
 31
0.0
  0
LINE
  5
8E
330
1F
100
AcDbEntity
  8
0
  6
Continuous
 62
     7
370
    15
100
AcDbLine
 10
68.4621321548
 20
182.8531269581
 30
0.0
 11
67.7696304907
 21
184.4853405507
 31
0.0
  0
LINE
  5
8F
330
1F
100
AcDbEntity
  8
0
  6
Continuous
 62
     7
370
    15
100
AcDbLine
 10
70.2219220389
 20
182.6367444025
 30
0.0
 11
68.4621321548
 21
182.8531269581
 31
0.0
  0
LINE
  5
90
330
1F
100
AcDbEntity
  8
0
  6
Continuous
 62
   144
370
     0
100
AcDbLine
 10
70.5967067321
 20
185.6847899632
 30
0.0
 11
71.2892083962
 21
184.0525763707
 31
0.0
  0
LINE
  5
91
330
1F
100
AcDbEntity
  8
0
  6
Continuous
 62
   144
370
     0
100
AcDbLine
 10
70.2219220389
 20
182.6367444025
 30
0.0
 11
71.2892083962
 21
184.0525763707
 31
0.0
  0
ARC
  5
92
330
1F
100
AcDbEntity
  8
0
  6
Continuous
 62
   144
370
     0
100
AcDbCircle
 10
69.529419287
 20
184.2689582632
 30
0.0
 40
1.535500000000016
100
AcDbArc
 50
322.9901452219
 51
22.9901452219
  0
ARC
  5
93
330
1F
100
AcDbEntity
  8
0
  6
Continuous
 62
   144
370
     0
100
AcDbCircle
 10
69.529419287
 20
184.2689582632
 30
0.0
 40
1.5355
100
AcDbArc
 50
22.9901452219
 51
82.9901452219
  0
ARC
  5
94
330
1F
100
AcDbEntity
  8
0
  6
Continuous
 62
   144
370
     0
100
AcDbCircle
 10
69.529419287
 20
184.2689582632
 30
0.0
 40
1.5355
100
AcDbArc
 50
82.9901452219
 51
142.9901452219
  0
ARC
  5
95
330
1F
100
AcDbEntity
  8
0
  6
Continuous
 62
   144
370
     0
100
AcDbCircle
 10
69.529419287
 20
184.2689582632
 30
0.0
 40
1.53550000000001
100
AcDbArc
 50
142.9901452219
 51
202.9901452219
  0
ARC
  5
96
330
1F
100
AcDbEntity
  8
0
  6
Continuous
 62
   144
370
     0
100
AcDbCircle
 10
69.529419287
 20
184.2689582632
 30
0.0
 40
1.53550000000001
100
AcDbArc
 50
202.9901452219
 51
262.9901452219
  0
ARC
  5
97
330
1F
100
AcDbEntity
  8
0
  6
Continuous
 62
   144
370
     0
100
AcDbCircle
 10
69.529419287
 20
184.2689582632
 30
0.0
 40
1.535500000000016
100
AcDbArc
 50
262.9901452219
 51
322.9901452219
  0
ARC
  5
98
330
1F
100
AcDbEntity
  8
0
  6
Continuous
 62
   144
370
     0
100
AcDbCircle
 10
60.029419287
 20
192.7689582632
 30
0.0
 40
1.049999999999997
100
AcDbArc
 50
0.0
 51
72.5945657079
  0
ARC
  5
99
330
1F
100
AcDbEntity
  8
0
  6
Continuous
 62
   144
370
     0
100
AcDbCircle
 10
60.029419287
 20
192.7689582632
 30
0.0
 40
1.050000000000011
100
AcDbArc
 50
269.2942020407
 51
0.0
  0
ARC
  5
9A
330
1F
100
AcDbEntity
  8
0
  6
Continuous
 62
     7
370
    15
100
AcDbCircle
 10
69.5185979984
 20
210.0309818595
 30
0.0
 40
4.500000000000014
100
AcDbArc
 50
180.0
 51
270.0
  0
ARC
  5
9B
330
1F
100
AcDbEntity
  8
0
  6
Continuous
 62
     7
370
    15
100
AcDbCircle
 10
72.029443633
 20
191.0168029823
 30
0.0
 40
2.016944985804785
100
AcDbArc
 50
265.1989950886
 51
352.5624835928
  0
LINE
  5
9C
330
1F
100
AcDbEntity
  8
0
  6
Continuous
 62
     7
370
    15
100
AcDbLine
 10
71.8606344004
 20
189.0069349335
 30
0.0
 11
69.5185984065
 21
189.0069349335
 31
0.0
  0
LINE
  5
9D
330
1F
100
AcDbEntity
  8
0
  6
Continuous
 62
     7
370
    15
100
AcDbLine
 10
69.5185984065
 20
205.530981593
 30
0.0
 11
71.8606344004
 21
205.530981593
 31
0.0
  0
LINE
  5
9E
330
1F
100
AcDbEntity
  8
0
  6
Continuous
 62
     7
370
    15
100
AcDbLine
 10
69.5294185121
 20
214.7689583377
 30
0.0
 11
63.2018089805
 21
214.7689583377
 31
0.0
  0
LINE
  5
9F
330
1F
100
AcDbEntity
  8
0
  6
Continuous
 62
     7
370
    15
100
AcDbLine
 10
63.2018089805
 20
214.7689583377
 30
0.0
 11
39.8570295934
 21
214.7689583377
 31
0.0
  0
LINE
  5
A0
330
1F
100
AcDbEntity
  8
0
  6
Continuous
 62
     7
370
    15
100
AcDbLine
 10
39.8570295934
 20
214.7689583377
 30
0.0
 11
33.5294200618
 21
214.7689583377
 31
0.0
  0
LINE
  5
A1
330
1F
100
AcDbEntity
  8
0
  6
Continuous
 62
     7
370
    15
100
AcDbLine
 10
74.0294201811
 20
184.268957995
 30
0.0
 11
74.0294201811
 21
190.7557198444
 31
0.0
  0
LINE
  5
A2
330
1F
100
AcDbEntity
  8
0
  6
Continuous
 62
     7
370
    15
100
AcDbLine
 10
74.0294201811
 20
190.7557198444
 30
0.0
 11
74.0294201811
 21
203.7821966821
 31
0.0
  0
LINE
  5
A3
330
1F
100
AcDbEntity
  8
0
  6
Continuous
 62
     7
370
    15
100
AcDbLine
 10
74.0294201811
 20
203.7821966821
 30
0.0
 11
74.0294201811
 21
210.2689585314
 31
0.0
  0
ARC
  5
A4
330
1F
100
AcDbEntity
  8
0
  6
Continuous
 62
     7
370
    15
100
AcDbCircle
 10
72.029443633
 20
203.5211135441
 30
0.0
 40
2.016944985804778
100
AcDbArc
 50
7.4375164072
 51
94.8010049114
  0
ARC
  5
A5
330
1F
100
AcDbEntity
  8
0
  6
Continuous
 62
     7
370
    15
100
AcDbCircle
 10
63.0185979984
 20
212.7773674696
 30
0.0
 40
2.000000000000008
100
AcDbArc
 50
0.0
 51
84.7440354767
  0
LINE
  5
A6
330
1F
100
AcDbEntity
  8
0
  6
Continuous
 62
     7
370
    15
100
AcDbLine
 10
65.0185976688
 20
212.7773678527
 30
0.0
 11
65.0185976688
 21
210.0309813992
 31
0.0
  0
ARC
  5
A7
330
1F
100
AcDbEntity
  8
0
  6
Continuous
 62
     7
370
    15
100
AcDbCircle
 10
69.5185979984
 20
184.5069346669
 30
0.0
 40
4.50000000000003
100
AcDbArc
 50
90.0
 51
123.5834424044
  0
ARC
  5
A8
330
1F
100
AcDbEntity
  8
0
  6
Continuous
 62
     7
370
    15
100
AcDbCircle
 10
33.5402405756
 20
184.5069346669
 30
0.0
 40
4.500000000000005
100
AcDbArc
 50
2.768557237
 51
90.0
  0
LINE
  5
A9
330
1F
100
AcDbEntity
  8
0
  6
Continuous
 62
     7
370
    15
100
AcDbLine
 10
33.5402401675
 20
189.0069349335
 30
0.0
 11
31.1982041736
 21
189.0069349335
 31
0.0
  0
ARC
  5
AA
330
1F
100
AcDbEntity
  8
0
  6
Continuous
 62
     7
370
    15
100
AcDbCircle
 10
31.0293949409
 20
191.0168029823
 30
0.0
 40
2.016944985804785
100
AcDbArc
 50
187.4375164072
 51
274.8010049114
  0
LINE
  5
AB
330
1F
100
AcDbEntity
  8
0
  6
Continuous
 62
     7
370
    15
100
AcDbLine
 10
29.0294183929
 20
203.7821966821
 30
0.0
 11
29.0294183929
 21
190.7557198444
 31
0.0
  0
ARC
  5
AC
330
1F
100
AcDbEntity
  8
0
  6
Continuous
 62
     7
370
    15
100
AcDbCircle
 10
31.0293949409
 20
203.5211135441
 30
0.0
 40
2.016944985804785
100
AcDbArc
 50
85.1989950886
 51
172.5624835928
  0
LINE
  5
AD
330
1F
100
AcDbEntity
  8
0
  6
Continuous
 62
     7
370
    15
100
AcDbLine
 10
31.1982041736
 20
205.530981593
 30
0.0
 11
33.5402401675
 21
205.530981593
 31
0.0
  0
ARC
  5
AE
330
1F
100
AcDbEntity
  8
0
  6
Continuous
 62
     7
370
    15
100
AcDbCircle
 10
33.5402405756
 20
210.0309818595
 30
0.0
 40
4.5
100
AcDbArc
 50
270.0
 51
0.0
  0
LINE
  5
AF
330
1F
100
AcDbEntity
  8
0
  6
Continuous
 62
     7
370
    15
100
AcDbLine
 10
38.0402409051
 20
210.0309813992
 30
0.0
 11
38.0402409051
 21
212.7773678527
 31
0.0
  0
ARC
  5
B0
330
1F
100
AcDbEntity
  8
0
  6
Continuous
 62
     7
370
    15
100
AcDbCircle
 10
40.0402405756
 20
212.7773674696
 30
0.0
 40
2.000000000000008
100
AcDbArc
 50
95.2559645233
 51
180.0
  0
LINE
  5
B1
330
1F
100
AcDbEntity
  8
0
  6
Continuous
 62
     7
370
    15
100
AcDbLine
 10
29.0294183929
 20
190.7557198444
 30
0.0
 11
29.0294183929
 21
184.268957995
 31
0.0
  0
LINE
  5
B2
330
1F
100
AcDbEntity
  8
0
  6
Continuous
 62
     7
370
    15
100
AcDbLine
 10
29.0294183929
 20
210.2689585314
 30
0.0
 11
29.0294183929
 21
203.7821966821
 31
0.0
  0
ARC
  5
B3
330
1F
100
AcDbEntity
  8
0
  6
Continuous
 62
     7
370
    15
100
AcDbCircle
 10
69.529419287
 20
210.2689582632
 30
0.0
 40
4.500000000000028
100
AcDbArc
 50
0.0
 51
90.0
  0
ARC
  5
B4
330
1F
100
AcDbEntity
  8
0
  6
Continuous
 62
     7
370
    15
100
AcDbCircle
 10
33.529419287
 20
210.2689582632
 30
0.0
 40
4.5
100
AcDbArc
 50
90.0
 51
180.0
  0
ARC
  5
B5
330
1F
100
AcDbEntity
  8
0
  6
Continuous
 62
     7
370
    15
100
AcDbCircle
 10
69.529419287
 20
184.2689582632
 30
0.0
 40
4.5
100
AcDbArc
 50
270.0
 51
0.0
  0
LINE
  5
B6
330
1F
100
AcDbEntity
  8
0
  6
Continuous
 62
   144
370
     0
100
AcDbLine
 10
67.0294190337
 20
179.7689581887
 30
0.0
 11
69.5294185121
 21
179.7689581887
 31
0.0
  0
ARC
  5
B7
330
1F
100
AcDbEntity
  8
0
  6
Continuous
 62
     7
370
    15
100
AcDbCircle
 10
33.529419287
 20
184.2689582632
 30
0.0
 40
4.5
100
AcDbArc
 50
180.0
 51
270.0
  0
LINE
  5
B8
330
1F
100
AcDbEntity
  8
0
  6
Continuous
 62
   144
370
     0
100
AcDbLine
 10
33.5294200618
 20
179.7689581887
 30
0.0
 11
36.4954449747
 21
179.7689581887
 31
0.0
  0
ARC
  5
B9
330
1F
100
AcDbEntity
  8
0
  6
Continuous
 62
     7
370
    15
100
AcDbCircle
 10
70.029419287
 20
210.7689582632
 30
0.0
 40
4.0
100
AcDbArc
 50
0.0
 51
90.0
  0
ARC
  5
BA
330
1F
100
AcDbEntity
  8
0
  6
Continuous
 62
     7
370
    15
100
AcDbCircle
 10
33.029419287
 20
183.7689582632
 30
0.0
 40
4.0
100
AcDbArc
 50
180.0
 51
270.0
  0
ARC
  5
BB
330
1F
100
AcDbEntity
  8
0
  6
Continuous
 62
     7
370
    15
100
AcDbCircle
 10
70.029419287
 20
183.7689582632
 30
0.0
 40
4.0
100
AcDbArc
 50
270.0
 51
0.0
  0
ARC
  5
BC
330
1F
100
AcDbEntity
  8
0
  6
Continuous
 62
     7
370
    15
100
AcDbCircle
 10
33.029419287
 20
210.7689582632
 30
0.0
 40
4.0
100
AcDbArc
 50
90.0
 51
180.0
  0
ARC
  5
BD
330
1F
100
AcDbEntity
  8
0
  6
Continuous
 62
   144
370
     0
100
AcDbCircle
 10
51.529419287
 20
208.2689582632
 30
0.0
 40
2.000000000000004
100
AcDbArc
 50
5.074750434
 51
182.3008665805
  0
LINE
  5
BE
330
1F
100
AcDbEntity
  8
0
  6
Continuous
 62
     7
370
    15
100
AcDbLine
 10
36.1847613518
 20
178.7689580248
 30
0.0
 11
30.2294200797
 21
178.7689580248
 31
0.0
  0
LINE
  5
BF
330
1F
100
AcDbEntity
  8
0
  6
Continuous
 62
     7
370
    15
100
AcDbLine
 10
30.0294185568
 20
178.9689576851
 30
0.0
 11
36.2468982626
 21
178.9689576851
 31
0.0
  0
LINE
  5
C0
330
1F
100
AcDbEntity
  8
0
  6
Continuous
 62
     7
370
    15
100
AcDbLine
 10
36.4333080639
 20
179.5689585285
 30
0.0
 11
30.0294185568
 21
179.5689585285
 31
0.0
  0
LINE
  5
C1
330
1F
100
AcDbEntity
  8
0
  6
Continuous
 62
     7
370
    15
100
AcDbLine
 10
30.2294200797
 20
179.7689581887
 30
0.0
 11
33.0294190486
 21
179.7689581887
 31
0.0
  0
SPLINE
  5
C2
330
1F
100
AcDbEntity
  8
0
  6
Continuous
 62
     7
370
    15
100
AcDbSpline
210
0.0
220
0.0
230
1.0
 70
    24
 71
     3
 72
     8
 73
     4
 74
     0
 42
0.00000001
 43
0.00000001
 12
1.0
 22
0.0
 32
0.0
 13
1.0
 23
0.0
 33
0.0
 40
0.0
 40
0.0
 40
0.0
 40
0.0
 40
1.0
 40
1.0
 40
1.0
 40
1.0
 10
64.46209441258301
 20
192.5027540845809
 30
0.0
 10
64.0945357520831
 20
191.9532186041146
 30
0.0
 10
63.72145832323366
 20
191.3954320352033
 30
0.0
 10
63.33865584053586
 20
190.8231055772525
 30
0.0
  0
ARC
  5
C3
330
1F
100
AcDbEntity
  8
0
  6
Continuous
 62
     7
370
    15
100
AcDbCircle
 10
60.429419287
 20
192.7689582632
 30
0.0
 40
3.500000000000012
100
AcDbArc
 50
326.2232813656
 51
26.2232813656
  0
SPLINE
  5
C4
330
1F
100
AcDbEntity
  8
0
  6
Continuous
 62
     7
370
    15
100
AcDbSpline
210
0.0
220
0.0
230
1.0
 70
    24
 71
     3
 72
    10
 73
     6
 74
     0
 42
0.00000001
 43
0.00000001
 12
1.0
 22
0.0
 32
0.0
 13
1.0
 23
0.0
 33
0.0
 40
0.0
 40
0.0
 40
0.0
 40
0.0
 40
0.5
 40
0.5
 40
1.0
 40
1.0
 40
1.0
 40
1.0
 10
64.46209441258293
 20
192.5027540845808
 30
0.0
 10
64.31687162567555
 20
192.7975832828888
 30
0.0
 10
64.16813500280533
 20
193.0995462200678
 30
0.0
 10
63.8699883597037
 20
193.7048392159938
 30
0.0
 10
63.72008066694266
 20
194.0091796423011
 30
0.0
 10
63.56919542183155
 20
194.315504681229
 30
0.0
  0
SPLINE
  5
C5
330
1F
100
AcDbEntity
  8
0
  6
Continuous
 62
     7
370
    15
100
AcDbSpline
210
0.0
220
0.0
230
1.0
 70
    24
 71
     3
 72
     8
 73
     4
 74
     0
 42
0.00000001
 43
0.00000001
 12
1.0
 22
0.0
 32
0.0
 13
1.0
 23
0.0
 33
0.0
 40
0.0
 40
0.0
 40
0.0
 40
0.0
 40
1.0
 40
1.0
 40
1.0
 40
1.0
 10
56.39674416138903
 20
193.0351624418605
 30
0.0
 10
56.76430282188894
 20
193.5846979223268
 30
0.0
 10
57.13738025073838
 20
194.1424844912382
 30
0.0
 10
57.52018273343619
 20
194.7148109491889
 30
0.0
  0
ARC
  5
C6
330
1F
100
AcDbEntity
  8
0
  6
Continuous
 62
     7
370
    15
100
AcDbCircle
 10
60.429419287
 20
192.7689582632
 30
0.0
 40
3.500000000000013
100
AcDbArc
 50
146.2232813656
 51
206.2232813656
  0
SPLINE
  5
C7
330
1F
100
AcDbEntity
  8
0
  6
Continuous
 62
     7
370
    15
100
AcDbSpline
210
0.0
220
0.0
230
1.0
 70
    24
 71
     3
 72
    10
 73
     6
 74
     0
 42
0.00000001
 43
0.00000001
 12
1.0
 22
0.0
 32
0.0
 13
1.0
 23
0.0
 33
0.0
 40
0.0
 40
0.0
 40
0.0
 40
0.0
 40
0.5
 40
0.5
 40
1.0
 40
1.0
 40
1.0
 40
1.0
 10
57.28964315214048
 20
191.2224118452123
 30
0.0
 10
57.13866826078412
 20
191.5289188826488
 30
0.0
 10
56.98564053322898
 20
191.8395935583989
 30
0.0
 10
56.68739155378422
 20
192.4450943160862
 30
0.0
 10
56.54112095022629
 20
192.7420507765797
 30
0.0
 10
56.39674416138911
 20
193.0351624418606
 30
0.0
  0
SPLINE
  5
C8
330
1F
100
AcDbEntity
  8
0
  6
Continuous
 62
     7
370
    15
100
AcDbSpline
210
0.0
220
0.0
230
1.0
 70
    24
 71
     3
 72
    10
 73
     6
 74
     0
 42
0.00000001
 43
0.00000001
 12
1.0
 22
0.0
 32
0.0
 13
1.0
 23
0.0
 33
0.0
 40
0.0
 40
0.0
 40
0.0
 40
0.0
 40
0.5
 40
0.5
 40
1.0
 40
1.0
 40
1.0
 40
1.0
 10
57.52018273343619
 20
194.7148109491889
 30
0.0
 10
57.71086877528574
 20
194.9999048862587
 30
0.0
 10
57.90130633818159
 20
195.2846273234404
 30
0.0
 10
58.27545029697296
 20
195.8440084569943
 30
0.0
 10
58.4603005390115
 20
196.1203773131513
 30
0.0
 10
58.64362130548332
 20
196.3944594565172
 30
0.0
  0
SPLINE
  5
C9
330
1F
100
AcDbEntity
  8
0
  6
Continuous
 62
     7
370
    15
100
AcDbSpline
210
0.0
220
0.0
230
1.0
 70
    24
 71
     3
 72
     8
 73
     4
 74
     0
 42
0.00000001
 43
0.00000001
 12
1.0
 22
0.0
 32
0.0
 13
1.0
 23
0.0
 33
0.0
 40
0.0
 40
0.0
 40
0.0
 40
0.0
 40
1.0
 40
1.0
 40
1.0
 40
1.0
 10
58.64362130548313
 20
196.3944594565172
 30
0.0
 10
59.30331232209779
 20
196.3509120593764
 30
0.0
 10
59.97290837508952
 20
196.3067108128699
 30
0.0
 10
60.65995886828173
 20
196.2613573671972
 30
0.0
  0
ARC
  5
CA
330
1F
100
AcDbEntity
  8
0
  6
Continuous
 62
     7
370
    15
100
AcDbCircle
 10
60.429419287
 20
192.7689582632
 30
0.0
 40
3.500000000000002
100
AcDbArc
 50
86.2232813656
 51
146.2232813656
  0
ARC
  5
CB
330
1F
100
AcDbEntity
  8
0
  6
Continuous
 62
     7
370
    15
100
AcDbCircle
 10
60.429419287
 20
192.7689582632
 30
0.0
 40
3.499999999999991
100
AcDbArc
 50
26.2232813656
 51
86.2232813656
  0
ARC
  5
CC
330
1F
100
AcDbEntity
  8
0
  6
Continuous
 62
     7
370
    15
100
AcDbCircle
 10
60.429419287
 20
192.7689582632
 30
0.0
 40
3.500000000000019
100
AcDbArc
 50
266.2232813656
 51
326.2232813656
  0
ARC
  5
CD
330
1F
100
AcDbEntity
  8
0
  6
Continuous
 62
     7
370
    15
100
AcDbCircle
 10
60.429419287
 20
192.7689582632
 30
0.0
 40
3.500000000000019
100
AcDbArc
 50
206.2232813656
 51
266.2232813656
  0
SPLINE
  5
CE
330
1F
100
AcDbEntity
  8
0
  6
Continuous
 62
     7
370
    15
100
AcDbSpline
210
0.0
220
0.0
230
1.0
 70
    24
 71
     3
 72
    10
 73
     6
 74
     0
 42
0.00000001
 43
0.00000001
 12
1.0
 22
0.0
 32
0.0
 13
1.0
 23
0.0
 33
0.0
 40
0.0
 40
0.0
 40
0.0
 40
0.0
 40
0.5
 40
0.5
 40
1.0
 40
1.0
 40
1.0
 40
1.0
 10
60.1988797056903
 20
189.2765591592442
 30
0.0
 10
59.8566380927982
 20
189.2991511470981
 30
0.0
 10
59.51484244772342
 20
189.3217136958098
 30
0.0
 10
58.84333219627237
 20
189.3660413020187
 30
0.0
 10
58.5115646250063
 20
189.3879418794413
 30
0.0
 10
58.18254214289178
 20
189.4096612485641
 30
0.0
  0
SPLINE
  5
CF
330
1F
100
AcDbEntity
  8
0
  6
Continuous
 62
     7
370
    15
100
AcDbSpline
210
0.0
220
0.0
230
1.0
 70
    24
 71
     3
 72
    10
 73
     6
 74
     0
 42
0.00000001
 43
0.00000001
 12
1.0
 22
0.0
 32
0.0
 13
1.0
 23
0.0
 33
0.0
 40
0.0
 40
0.0
 40
0.0
 40
0.0
 40
0.5
 40
0.5
 40
1.0
 40
1.0
 40
1.0
 40
1.0
 10
58.18254214289185
 20
189.4096612485641
 30
0.0
 10
58.03731935598448
 20
189.7044904468721
 30
0.0
 10
57.88858273311426
 20
190.0064533840511
 30
0.0
 10
57.59043609001262
 20
190.6117463799771
 30
0.0
 10
57.4405283972516
 20
190.9160868062845
 30
0.0
 10
57.28964315214048
 20
191.2224118452123
 30
0.0
  0
SPLINE
  5
D0
330
1F
100
AcDbEntity
  8
0
  6
Continuous
 62
     7
370
    15
100
AcDbSpline
210
0.0
220
0.0
230
1.0
 70
    24
 71
     3
 72
    10
 73
     6
 74
     0
 42
0.00000001
 43
0.00000001
 12
1.0
 22
0.0
 32
0.0
 13
1.0
 23
0.0
 33
0.0
 40
0.0
 40
0.0
 40
0.0
 40
0.0
 40
0.5
 40
0.5
 40
1.0
 40
1.0
 40
1.0
 40
1.0
 10
60.65995886828173
 20
196.2613573671972
 30
0.0
 10
61.00220048117384
 20
196.2387653793433
 30
0.0
 10
61.34399612624861
 20
196.2162028306316
 30
0.0
 10
62.01550637769966
 20
196.1718752244227
 30
0.0
 10
62.34727394896574
 20
196.1499746470001
 30
0.0
 10
62.67629643108026
 20
196.1282552778773
 30
0.0
  0
SPLINE
  5
D1
330
1F
100
AcDbEntity
  8
0
  6
Continuous
 62
     7
370
    15
100
AcDbSpline
210
0.0
220
0.0
230
1.0
 70
    24
 71
     3
 72
    10
 73
     6
 74
     0
 42
0.00000001
 43
0.00000001
 12
1.0
 22
0.0
 32
0.0
 13
1.0
 23
0.0
 33
0.0
 40
0.0
 40
0.0
 40
0.0
 40
0.0
 40
0.5
 40
0.5
 40
1.0
 40
1.0
 40
1.0
 40
1.0
 10
63.56919542183155
 20
194.315504681229
 30
0.0
 10
63.41822053047519
 20
194.6220117186654
 30
0.0
 10
63.26519280292003
 20
194.9326863944156
 30
0.0
 10
62.9669438234753
 20
195.5381871521029
 30
0.0
 10
62.82067321991735
 20
195.8351436125964
 30
0.0
 10
62.67629643108017
 20
196.1282552778773
 30
0.0
  0
SPLINE
  5
D2
330
1F
100
AcDbEntity
  8
0
  6
Continuous
 62
     7
370
    15
100
AcDbSpline
210
0.0
220
0.0
230
1.0
 70
    24
 71
     3
 72
    10
 73
     6
 74
     0
 42
0.00000001
 43
0.00000001
 12
1.0
 22
0.0
 32
0.0
 13
1.0
 23
0.0
 33
0.0
 40
0.0
 40
0.0
 40
0.0
 40
0.0
 40
0.5
 40
0.5
 40
1.0
 40
1.0
 40
1.0
 40
1.0
 10
63.33865584053586
 20
190.8231055772525
 30
0.0
 10
63.1479697986863
 20
190.5380116401828
 30
0.0
 10
62.95753223579044
 20
190.253289203001
 30
0.0
 10
62.58338827699908
 20
189.6939080694471
 30
0.0
 10
62.39853803496054
 20
189.4175392132901
 30
0.0
 10
62.21521726848871
 20
189.1434570699242
 30
0.0
  0
SPLINE
  5
D3
330
1F
100
AcDbEntity
  8
0
  6
Continuous
 62
     7
370
    15
100
AcDbSpline
210
0.0
220
0.0
230
1.0
 70
    24
 71
     3
 72
     8
 73
     4
 74
     0
 42
0.00000001
 43
0.00000001
 12
1.0
 22
0.0
 32
0.0
 13
1.0
 23
0.0
 33
0.0
 40
0.0
 40
0.0
 40
0.0
 40
0.0
 40
1.0
 40
1.0
 40
1.0
 40
1.0
 10
62.21521726848889
 20
189.1434570699242
 30
0.0
 10
61.55552625187424
 20
189.187004467065
 30
0.0
 10
60.88593019888251
 20
189.2312057135715
 30
0.0
 10
60.1988797056903
 20
189.2765591592442
 30
0.0
  0
ARC
  5
D4
330
1F
100
AcDbEntity
  8
0
  6
Continuous
 62
     7
370
    15
100
AcDbCircle
 10
59.947849287
 20
243.9514282632
 30
0.0
 40
19.99999999997896
100
AcDbArc
 50
136.250831722
 51
182.1229069864
  0
ARC
  5
D5
330
1F
100
AcDbEntity
  8
0
  6
Continuous
 62
     7
370
    15
100
AcDbCircle
 10
51.529419287
 20
221.7689582632
 30
0.0
 40
9.000000000045317
100
AcDbArc
 50
207.1794949363
 51
231.0575587309
  0
LINE
  5
D6
330
1F
100
AcDbEntity
  8
0
  6
Continuous
 62
     7
370
    15
100
AcDbLine
 10
43.5232004662
 20
217.6579414533
 30
0.0
 11
39.9615761404
 21
243.2105644272
 31
0.0
  0
LINE
  5
D7
330
1F
100
AcDbEntity
  8
0
  6
Continuous
 62
     7
370
    15
100
AcDbLine
 10
45.5003694211
 20
257.7814786361
 30
0.0
 11
46.4907890697
 21
257.9195267187
 31
0.0
  0
LINE
  5
D8
330
1F
100
AcDbEntity
  8
0
  6
Continuous
 62
     7
370
    15
100
AcDbLine
 10
46.4907890697
 20
257.9195267187
 30
0.0
 11
49.1622385149
 21
240.1472842918
 31
0.0
  0
SPLINE
  5
D9
330
1F
100
AcDbEntity
  8
0
  6
Continuous
 62
     7
370
    15
100
AcDbSpline
210
0.0
220
0.0
230
1.0
 70
     8
 71
     3
 72
    17
 73
    13
 74
     0
 42
0.00000001
 43
0.00000001
 12
1.0
 22
0.0
 32
0.0
 13
1.0
 23
0.0
 33
0.0
 40
0.0
 40
0.0
 40
0.0
 40
0.0
 40
0.062852513147248
 40
0.1251073410719939
 40
0.1873621689967684
 40
0.2502146821440945
 40
0.3749231139299896
 40
0.5001431214293985
 40
0.6248515532156793
 40
0.750071560714697
 40
0.8747799925013728
 40
1.0
 40
1.0
 40
1.0
 40
1.0
 10
48.57294443232257
 20
239.3586184794059
 30
0.0
 10
48.57042849032364
 20
239.3813459644751
 30
0.0
 10
48.56542053124583
 20
239.426584811482
 30
0.0
 10
48.56628092283265
 20
239.4948524257707
 30
0.0
 10
48.57342176613037
 20
239.5626807024789
 30
0.0
 10
48.59182672180403
 20
239.6517316774454
 30
0.0
 10
48.63068606432925
 20
239.7594389827952
 30
0.0
 10
48.70194317836416
 20
239.8764673290374
 30
0.0
 10
48.7940879627631
 20
239.978268099115
 30
0.0
 10
48.90456413571263
 20
240.059076452424
 30
0.0
 10
49.02824347178247
 20
240.1195518165711
 30
0.0
 10
49.11751245492569
 20
240.1380278483773
 30
0.0
 10
49.16223830833619
 20
240.1472847734713
 30
0.0
  0
LINE
  5
DA
330
1F
100
AcDbEntity
  8
0
  6
Continuous
 62
     7
370
    15
100
AcDbLine
 10
48.5729793132
 20
239.3584875987
 30
0.0
 11
49.5298992888
 21
232.492859535
 31
0.0
  0
ARC
  5
DB
330
1F
100
AcDbEntity
  8
0
  6
Continuous
 62
     7
370
    15
100
AcDbCircle
 10
51.5289366895
 20
232.7714806743
 30
0.0
 40
2.01836096489504
100
AcDbArc
 50
187.9346707104
 51
263.5100098937
  0
ARC
  5
DC
330
1F
100
AcDbEntity
  8
0
  6
Continuous
 62
     7
370
    15
100
AcDbCircle
 10
51.529419287
 20
221.7689582632
 30
0.0
 40
9.000000000004867
100
AcDbArc
 50
27.7355134542
 51
91.455578797
  0
LINE
  5
DD
330
1F
100
AcDbEntity
  8
0
  6
Continuous
 62
     7
370
    15
100
AcDbLine
 10
61.177026159
 20
214.7689583377
 30
0.0
 11
59.4953677197
 21
225.957474731
 31
0.0
  0
CIRCLE
  5
DE
330
1F
100
AcDbEntity
  8
0
  6
Continuous
 62
     7
370
    15
100
AcDbCircle
 10
51.529419287
 20
221.7689582632
 30
0.0
 40
5.599999999997351
  0
SPLINE
  5
DF
330
1F
100
AcDbEntity
  8
0
  6
Continuous
 62
     7
370
    15
100
AcDbSpline
210
0.0
220
0.0
230
1.0
 70
     8
 71
     3
 72
    16
 73
    12
 74
     0
 42
0.00000001
 43
0.00000001
 12
1.0
 22
0.0
 32
0.0
 13
1.0
 23
0.0
 33
0.0
 40
0.0
 40
0.0
 40
0.0
 40
0.0
 40
0.1016911583951288
 40
0.2008998048702698
 40
0.2992670257756848
 40
0.398475672250739
 40
0.5001668306456912
 40
0.6236853411117331
 40
0.7500834153228452
 40
0.8736019257888873
 40
0.9999999999999999
 40
0.9999999999999999
 40
0.9999999999999999
 40
0.9999999999999999
 10
54.08163453524283
 20
240.0920669673586
 30
0.0
 10
54.10881840719511
 20
240.0784141238185
 30
0.0
 10
54.16252253110341
 20
240.0514417336281
 30
0.0
 10
54.23540109580076
 20
239.9990298210843
 30
0.0
 10
54.30063292907757
 20
239.9386642735575
 30
0.0
 10
54.35769874628969
 20
239.86949421173
 30
0.0
 10
54.40983387995458
 20
239.7875224798994
 30
0.0
 10
54.4533233147703
 20
239.6913535021677
 30
0.0
 10
54.48199768564266
 20
239.5831435708714
 30
0.0
 10
54.49470297193379
 20
239.470720766882
 30
0.0
 10
54.48777629090495
 20
239.3962087608193
 30
0.0
 10
54.48427304543667
 20
239.3585234904156
 30
0.0
  0
LINE
  5
E0
330
1F
100
AcDbEntity
  8
0
  6
Continuous
 62
     7
370
    15
100
AcDbLine
 10
53.4629053714
 20
232.0257118569
 30
0.0
 11
54.4843020894
 21
239.3586254345
 31
0.0
  0
LINE
  5
E1
330
1F
100
AcDbEntity
  8
0
  6
Continuous
 62
     7
370
    15
100
AcDbLine
 10
60.5315609415
 20
224.8039926068
 30
0.0
 11
63.095326214
 21
243.2101844476
 31
0.0
  0
SPLINE
  5
E2
330
1F
100
AcDbEntity
  8
0
  6
Continuous
 62
     7
370
    15
100
AcDbSpline
210
0.0
220
0.0
230
1.0
 70
     8
 71
     3
 72
    14
 73
    10
 74
     0
 42
0.00000001
 43
0.00000001
 12
1.0
 22
0.0
 32
0.0
 13
1.0
 23
0.0
 33
0.0
 40
0.0
 40
0.0
 40
0.0
 40
0.0
 40
0.25
 40
0.25
 40
0.5
 40
0.5
 40
0.75
 40
0.75
 40
1.0
 40
1.0
 40
1.0
 40
1.0
 10
60.53156138990999
 20
224.8039932809573
 30
0.0
 10
60.29306351243412
 20
225.5113959210387
 30
0.0
 10
59.97081061327042
 20
226.1905204542811
 30
0.0
 10
59.17655611068247
 20
227.4547825774727
 30
0.0
 10
58.70459528537552
 20
228.0398552584677
 30
0.0
 10
57.63701915035821
 20
229.0836369056333
 30
0.0
 10
57.04145865147324
 20
229.5422922826203
 30
0.0
 10
55.75961779271706
 20
230.3078528248646
 30
0.0
 10
55.07340324431649
 20
230.6147186851921
 30
0.0
 10
54.36080532887043
 20
230.8372135023373
 30
0.0
  0
LINE
  5
E3
330
1F
100
AcDbEntity
  8
0
  6
Continuous
 62
     7
370
    15
100
AcDbLine
 10
54.0816345297
 20
240.092068039
 30
0.0
 11
56.5648494799
 21
257.9199588524
 31
0.0
  0
LINE
  5
E4
330
1F
100
AcDbEntity
  8
0
  6
Continuous
 62
     7
370
    15
100
AcDbLine
 10
56.5648494799
 20
257.9199588524
 30
0.0
 11
57.5553073127
 21
257.7819964514
 31
0.0
  0
SPLINE
  5
E5
330
1F
100
AcDbEntity
  8
0
  6
Continuous
 62
     7
370
    15
100
AcDbSpline
210
0.0
220
0.0
230
1.0
 70
     8
 71
     3
 72
    25
 73
    21
 74
     0
 42
0.00000001
 43
0.00000001
 12
1.0
 22
0.0
 32
0.0
 13
1.0
 23
0.0
 33
0.0
 40
0.0
 40
0.0
 40
0.0
 40
0.0
 40
0.0275648779638741
 40
0.0550830590420302
 40
0.0825678437685129
 40
0.1100325811966424
 40
0.1374906496184233
 40
0.1649554370714224
 40
0.1924403217745765
 40
0.2199586526356051
 40
0.2475237299714755
 40
0.3737474543670256
 40
0.5000054884768376
 40
0.6262292137800418
 40
0.7524872487898137
 40
0.8020570505063643
 40
0.8515152420663843
 40
0.9009397652256439
 40
0.9504087208808405
 40
1.0
 40
1.0
 40
1.0
 40
1.0
 10
63.09532624453003
 20
243.2101827192247
 30
0.0
 10
63.09984194857093
 20
243.3572245498914
 30
0.0
 10
63.10886570672533
 20
243.6510591117885
 30
0.0
 10
63.11014010634525
 20
244.091750192478
 30
0.0
 10
63.10241079348874
 20
244.5318146980762
 30
0.0
 10
63.08480320472365
 20
244.9712847842134
 30
0.0
 10
63.05755138136404
 20
245.4101512774803
 30
0.0
 10
63.02059234206911
 20
245.848416889727
 30
0.0
 10
62.97394428679016
 20
246.2860780629687
 30
0.0
 10
62.9175976598298
 20
246.7231444776146
 30
0.0
 10
62.77286339249312
 20
247.6798628142155
 30
0.0
 10
62.45886548626195
 20
249.1440176281136
 30
0.0
 10
61.83523401600466
 20
251.0699382762568
 30
0.0
 10
61.02180970066182
 20
252.9239369070732
 30
0.0
 10
60.22584573869091
 20
254.3291902754301
 30
0.0
 10
59.56163029511738
 20
255.3315908908957
 30
0.0
 10
59.09817352612605
 20
255.9744319414366
 30
0.0
 10
58.60943593567183
 20
256.5974776387901
 30
0.0
 10
58.09745212511979
 20
257.2027038953161
 30
0.0
 10
57.73617086888653
 20
257.5887395818144
 30
0.0
 10
57.55530717863591
 20
257.7819957710684
 30
0.0
  0
LINE
  5
E6
330
1F
100
AcDbEntity
  8
0
  6
Continuous
 62
   144
370
     0
100
AcDbLine
 10
54.3608052236
 20
230.8372138665
 30
0.0
 11
53.4629053714
 21
232.0257118569
 31
0.0
  0
LINE
  5
E7
330
1F
100
AcDbEntity
  8
0
  6
Continuous
 62
     7
370
    15
100
AcDbLine
 10
60.1165580143
 20
221.8245333658
 30
0.0
 11
60.5315609415
 21
224.8039926068
 31
0.0
  0
LINE
  5
E8
330
1F
100
AcDbEntity
  8
0
  6
Continuous
 62
     7
370
    15
100
AcDbLine
 10
42.49667251
 20
218.8262576835
 30
0.0
 11
41.8872196738
 21
214.7689583377
 31
0.0
  0
ARC
  5
E9
330
1F
100
AcDbEntity
  8
0
  6
Continuous
 62
     7
370
    15
100
AcDbCircle
 10
51.529419287
 20
221.7689582632
 30
0.0
 40
9.500000000007121
100
AcDbArc
 50
198.0446491366
 51
227.4631016371
  0
LINE
  5
EA
330
1F
100
AcDbEntity
  8
0
  6
Continuous
 62
     7
370
    15
100
AcDbLine
 10
42.9446600889
 20
221.8086338268
 30
0.0
 11
42.49667251
 21
218.8262576835
 31
0.0
  0
LINE
  5
EB
330
1F
100
AcDbEntity
  8
0
  6
Continuous
 62
     7
370
    15
100
AcDbLine
 10
39.089902914
 20
222.9689574466
 30
0.0
 11
40.7631440599
 21
222.9689574466
 31
0.0
  0
SPLINE
  5
EC
330
1F
100
AcDbEntity
  8
0
  6
Continuous
 62
     7
370
    15
100
AcDbSpline
210
0.0
220
0.0
230
1.0
 70
     8
 71
     3
 72
    26
 73
    22
 74
     0
 42
0.00000001
 43
0.00000001
 12
1.0
 22
0.0
 32
0.0
 13
1.0
 23
0.0
 33
0.0
 40
0.0
 40
0.0
 40
0.0
 40
0.0
 40
0.0234733631271024
 40
0.0473443452110844
 40
0.0716981398243122
 40
0.096614988566758
 40
0.1221698295699077
 40
0.1484321400128939
 40
0.1754659429257671
 40
0.228695222034393
 40
0.2877263286029718
 40
0.3493730070699223
 40
0.4223955223106041
 40
0.4977282280443395
 40
0.574385890682683
 40
0.656100005949178
 40
0.7283414790445063
 40
0.8019385097496821
 40
0.871678908367377
 40
0.937660779225203
 40
0.9999999999999999
 40
0.9999999999999999
 40
0.9999999999999999
 40
0.9999999999999999
 10
41.52941928698658
 20
225.9689582632291
 30
0.0
 10
41.52865254202491
 20
225.9684489438699
 30
0.0
 10
41.52710606408917
 20
225.9674216777113
 30
0.0
 10
41.5148063753101
 20
225.9590430943679
 30
0.0
 10
41.49524436532143
 20
225.9454370259901
 30
0.0
 10
41.46767438697916
 20
225.9259200444481
 30
0.0
 10
41.43230618373105
 20
225.9004569355442
 30
0.0
 10
41.38909658328322
 20
225.8688452775687
 30
0.0
 10
41.32206402827238
 20
225.8191106179896
 30
0.0
 10
41.21945354706612
 20
225.7412067796328
 30
0.0
 10
41.07343924295838
 20
225.6241518497754
 30
0.0
 10
40.89510912276026
 20
225.4730136801676
 30
0.0
 10
40.6907651203295
 20
225.2857969934132
 30
0.0
 10
40.46442182949284
 20
225.0599131497205
 30
0.0
 10
40.22729415237966
 20
224.7995335252058
 30
0.0
 10
39.99563074052254
 20
224.5170436226587
 30
0.0
 10
39.77407625050981
 20
224.2145066720412
 30
0.0
 10
39.57326298627427
 20
223.9076538797545
 30
0.0
 10
39.39026882760555
 20
223.591967191152
 30
0.0
 10
39.22814386898923
 20
223.2804578383798
 30
0.0
 10
39.13510259853437
 20
223.0708076756253
 30
0.0
 10
39.08990254430901
 20
222.9689582632244
 30
0.0
  0
LINE
  5
ED
330
1F
100
AcDbEntity
  8
0
  6
Continuous
 62
     7
370
    15
100
AcDbLine
 10
41.5294195105
 20
223.9993131385
 30
0.0
 11
41.5294195105
 21
225.9689579384
 31
0.0
  0
SPLINE
  5
EE
330
1F
100
AcDbEntity
  8
0
  6
Continuous
 62
     7
370
    15
100
AcDbSpline
210
0.0
220
0.0
230
1.0
 70
     8
 71
     3
 72
     8
 73
     4
 74
     0
 42
0.00000001
 43
0.00000001
 12
1.0
 22
0.0
 32
0.0
 13
1.0
 23
0.0
 33
0.0
 40
0.0
 40
0.0
 40
0.0
 40
0.0
 40
1.0
 40
1.0
 40
1.0
 40
1.0
 10
40.7631444439679
 20
222.9689582632246
 30
0.0
 10
40.98254506743945
 20
223.3499747699902
 30
0.0
 10
41.23871568273976
 20
223.6912757701995
 30
0.0
 10
41.52941928699718
 20
223.9993128343195
 30
0.0
  0
ARC
  5
EF
330
1F
100
AcDbEntity
  8
0
  6
Continuous
 62
     7
370
    15
100
AcDbCircle
 10
45.529419287
 20
220.2243956167
 30
0.0
 40
7.000000000003383
100
AcDbArc
 50
156.9159913186
 51
180.0
  0
ARC
  5
F0
330
1F
100
AcDbEntity
  8
0
  6
Continuous
 62
     7
370
    15
100
AcDbCircle
 10
45.529419287
 20
220.2243956167
 30
0.0
 40
5.499999999995659
100
AcDbArc
 50
150.0653843671
 51
179.9999999999
  0
LINE
  5
F1
330
1F
100
AcDbEntity
  8
0
  6
Continuous
 62
     7
370
    15
100
AcDbLine
 10
40.0294192646
 20
214.7689583377
 30
0.0
 11
40.0294192646
 21
220.2243963854
 31
0.0
  0
LINE
  5
F2
330
1F
100
AcDbEntity
  8
0
  6
Continuous
 62
     7
370
    15
100
AcDbLine
 10
38.5294190188
 20
220.2243963854
 30
0.0
 11
38.5294190188
 21
214.7689583377
 31
0.0
  0
ARC
  5
F3
330
1F
100
AcDbEntity
  8
0
  6
Continuous
 62
     7
370
    15
100
AcDbCircle
 10
57.529419287
 20
220.2243956167
 30
0.0
 40
5.499999999995675
100
AcDbArc
 50
0.0000000001
 51
29.9346156329
  0
LINE
  5
F4
330
1F
100
AcDbEntity
  8
0
  6
Continuous
 62
     7
370
    15
100
AcDbLine
 10
63.96893566
 20
222.9689574466
 30
0.0
 11
62.2956945141
 21
222.9689574466
 31
0.0
  0
ARC
  5
F5
330
1F
100
AcDbEntity
  8
0
  6
Continuous
 62
     7
370
    15
100
AcDbCircle
 10
57.529419287
 20
220.2243956167
 30
0.0
 40
7.000000000003389
100
AcDbArc
 50
0.0
 51
23.0840086814
  0
LINE
  5
F6
330
1F
100
AcDbEntity
  8
0
  6
Continuous
 62
     7
370
    15
100
AcDbLine
 10
64.5294195552
 20
214.7689583377
 30
0.0
 11
64.5294195552
 21
220.2243963854
 31
0.0
  0
LINE
  5
F7
330
1F
100
AcDbEntity
  8
0
  6
Continuous
 62
     7
370
    15
100
AcDbLine
 10
63.0294193093
 20
220.2243963854
 30
0.0
 11
63.0294193093
 21
214.7689583377
 31
0.0
  0
SPLINE
  5
F8
330
1F
100
AcDbEntity
  8
0
  6
Continuous
 62
     7
370
    15
100
AcDbSpline
210
0.0
220
0.0
230
1.0
 70
     8
 71
     3
 72
    27
 73
    23
 74
     0
 42
0.00000001
 43
0.00000001
 12
1.0
 22
0.0
 32
0.0
 13
1.0
 23
0.0
 33
0.0
 40
0.0
 40
0.0
 40
0.0
 40
0.0
 40
0.030731203565995
 40
0.0623572249079097
 40
0.0948944924252965
 40
0.1283580920916356
 40
0.1627618909538656
 40
0.1981186494658122
 40
0.2344401233559557
 40
0.2717371557971764
 40
0.3411342215347196
 40
0.425684475137273
 40
0.5023510983745636
 40
0.5777084062752929
 40
0.6507041988984433
 40
0.7123649903060323
 40
0.7713734056120674
 40
0.8246095575613069
 40
0.8713880778778297
 40
0.9159535088406494
 40
0.958682023522606
 40
1.0
 40
1.0
 40
1.0
 40
1.0
 10
63.96893602966307
 20
222.9689582632244
 30
0.0
 10
63.94703863057197
 20
223.0193144536192
 30
0.0
 10
63.90260623347795
 20
223.1214930839878
 30
0.0
 10
63.83032264693544
 20
223.2744972036985
 30
0.0
 10
63.75277682065285
 20
223.429538072911
 30
0.0
 10
63.66960060853397
 20
223.5859838638123
 30
0.0
 10
63.58089672427285
 20
223.7433618043849
 30
0.0
 10
63.48663678285733
 20
223.9010992965395
 30
0.0
 10
63.38682690706757
 20
224.0586011613085
 30
0.0
 10
63.25217734685506
 20
224.2587571710365
 30
0.0
 10
63.06556502899225
 20
224.5130948270476
 30
0.0
 10
62.83457527563458
 20
224.7964266736953
 30
0.0
 10
62.59436762305791
 20
225.0599121631856
 30
0.0
 10
62.36805623526501
 20
225.2858265428637
 30
0.0
 10
62.1636877714018
 20
225.4730470505581
 30
0.0
 10
61.98539503188803
 20
225.6241555652894
 30
0.0
 10
61.83936838337999
 20
225.741220951414
 30
0.0
 10
61.72226184250354
 20
225.8301226075225
 30
0.0
 10
61.63497546664849
 20
225.8944612560242
 30
0.0
 10
61.57471711095718
 20
225.9377374996988
 30
0.0
 10
61.53665374988515
 20
225.9641452720101
 30
0.0
 10
61.5318036417676
 20
225.967371983945
 30
0.0
 10
61.52941928698549
 20
225.9689582632291
 30
0.0
  0
SPLINE
  5
F9
330
1F
100
AcDbEntity
  8
0
  6
Continuous
 62
     7
370
    15
100
AcDbSpline
210
0.0
220
0.0
230
1.0
 70
     8
 71
     3
 72
    14
 73
    10
 74
     0
 42
0.00000001
 43
0.00000001
 12
1.0
 22
0.0
 32
0.0
 13
1.0
 23
0.0
 33
0.0
 40
0.0
 40
0.0
 40
0.0
 40
0.0
 40
0.1330729344490404
 40
0.269056161577633
 40
0.4081749469615489
 40
0.5506396820675359
 40
0.6966462937936289
 40
0.8463768047083615
 40
1.0
 40
1.0
 40
1.0
 40
1.0
 10
62.29569413000417
 20
222.9689582632246
 30
0.0
 10
62.26638317816999
 20
223.018802709671
 30
0.0
 10
62.20712024671557
 20
223.1195816959641
 30
0.0
 10
62.11128163088818
 20
223.2684783087165
 30
0.0
 10
62.00903229348838
 20
223.4172457668303
 30
0.0
 10
61.89977172190482
 20
223.5653034708464
 30
0.0
 10
61.78338076091896
 20
223.7122218277793
 30
0.0
 10
61.66001565637197
 20
223.858094294159
 30
0.0
 10
61.57332223151131
 20
223.9518390051097
 30
0.0
 10
61.52941928697695
 20
223.9993128343173
 30
0.0
  0
LINE
  5
FA
330
1F
100
AcDbEntity
  8
0
  6
Continuous
 62
     7
370
    15
100
AcDbLine
 10
61.5294190635
 20
225.9689579384
 30
0.0
 11
61.5294190635
 21
223.9993131385
 31
0.0
  0
SPLINE
  5
FB
330
1F
100
AcDbEntity
  8
0
  6
Continuous
 62
     7
370
    15
100
AcDbSpline
210
0.0
220
0.0
230
1.0
 70
     8
 71
     3
 72
    47
 73
    43
 74
     0
 42
0.00000001
 43
0.00000001
 12
1.0
 22
0.0
 32
0.0
 13
1.0
 23
0.0
 33
0.0
 40
0.0
 40
0.0
 40
0.0
 40
0.0
 40
0.0192343509572509
 40
0.0384687019145027
 40
0.0577030528717533
 40
0.0769374038290046
 40
0.0961717547862559
 40
0.1154061057435065
 40
0.1346404567007578
 40
0.1538748076580089
 40
0.1731091586152604
 40
0.1923435095725115
 40
0.2115778605297624
 40
0.2308122114870135
 40
0.2500465624442648
 40
0.2692809134015163
 40
0.2885152643587671
 40
0.3077496153160183
 40
0.3269839662732694
 40
0.3462183172305208
 40
0.3654526681877718
 40
0.384687019145023
 40
0.4039213701022739
 40
0.4231557210595253
 40
0.4423900720167764
 40
0.4616244229740274
 40
0.4808587739312786
 40
0.5000931248885296
 40
0.5358007588250632
 40
0.5715083927615967
 40
0.6072160266981307
 40
0.6429236606346636
 40
0.6786312945711982
 40
0.7143389285077312
 40
0.7500465624442652
 40
0.7857541963807987
 40
0.8214618303173322
 40
0.8571694642538663
 40
0.8928770981903994
 40
0.9285847321269327
 40
0.9642923660634661
 40
1.0
 40
1.0
 40
1.0
 40
1.0
 10
54.42941928698838
 20
221.768958263221
 30
0.0
 10
54.42840043458997
 20
221.8273596607903
 30
0.0
 10
54.42636272979315
 20
221.9441624559289
 30
0.0
 10
54.4099001592584
 20
222.118727347538
 30
0.0
 10
54.38368676441635
 20
222.2920159696897
 30
0.0
 10
54.34685488589669
 20
222.4633960109945
 30
0.0
 10
54.29979703715348
 20
222.632242124267
 30
0.0
 10
54.24261576468435
 20
222.7979382083508
 30
0.0
 10
54.17553824878453
 20
222.9598796562044
 30
0.0
 10
54.0988042823919
 20
223.1174755610463
 30
0.0
 10
54.0126951899684
 20
223.2701508725108
 30
0.0
 10
53.9175248177369
 20
223.4173484949432
 30
0.0
 10
53.81364052759319
 20
223.5585313201825
 30
0.0
 10
53.70142135644959
 20
223.6931841874101
 30
0.0
 10
53.58127678674945
 20
223.8208157629162
 30
0.0
 10
53.45364521116424
 20
223.9409603329233
 30
0.0
 10
53.3189923439508
 20
224.053179502923
 30
0.0
 10
53.17780951873813
 20
224.1570637973405
 30
0.0
 10
53.03061189618904
 20
224.2522341536264
 30
0.0
 10
52.8779365851683
 20
224.3383433055642
 30
0.0
 10
52.72034067867158
 20
224.4150770498512
 30
0.0
 10
52.55839923699632
 20
224.4821553946653
 30
0.0
 10
52.39270312985675
 20
224.5393335735891
 30
0.0
 10
52.22385710263101
 20
224.5864029676055
 30
0.0
 10
52.05247674019662
 20
224.6231917585843
 30
0.0
 10
51.87918931651824
 20
224.6495659583234
 30
0.0
 10
51.70461995214649
 20
224.6654283968175
 30
0.0
 10
51.4794192703831
 20
224.6722366792075
 30
0.0
 10
51.20402817715871
 20
224.6567771871409
 30
0.0
 10
50.88275647007006
 20
224.6021872308185
 30
0.0
 10
50.56959741369268
 20
224.5119691409576
 30
0.0
 10
50.26851391910927
 20
224.3872557321322
 30
0.0
 10
49.98328557119238
 20
224.2296158114381
 30
0.0
 10
49.71750138671887
 20
224.0410316681165
 30
0.0
 10
49.4745020515507
 20
223.823874890475
 30
0.0
 10
49.25734813638805
 20
223.5808763420708
 30
0.0
 10
49.06875332990333
 20
223.3150918730308
 30
0.0
 10
48.91115319937001
 20
223.0298638766247
 30
0.0
 10
48.78629129305097
 20
222.7287792605721
 30
0.0
 10
48.69662740298913
 20
222.415624338567
 30
0.0
 10
48.63996914494903
 20
222.0943372154628
 30
0.0
 10
48.63293590630547
 20
221.8774179139838
 30
0.0
 10
48.62941928698368
 20
221.7689582632443
 30
0.0
  0
SPLINE
  5
FC
330
1F
100
AcDbEntity
  8
0
  6
Continuous
 62
     7
370
    15
100
AcDbSpline
210
0.0
220
0.0
230
1.0
 70
     8
 71
     3
 72
    47
 73
    43
 74
     0
 42
0.00000001
 43
0.00000001
 12
1.0
 22
0.0
 32
0.0
 13
1.0
 23
0.0
 33
0.0
 40
0.0
 40
0.0
 40
0.0
 40
0.0
 40
0.0192343509572316
 40
0.0384687019144634
 40
0.0577030528716948
 40
0.0769374038289262
 40
0.0961717547861579
 40
0.1154061057433892
 40
0.1346404567006208
 40
0.1538748076578525
 40
0.1731091586150841
 40
0.1923435095723157
 40
0.2115778605295472
 40
0.2308122114867788
 40
0.2500465624440104
 40
0.2692809134012421
 40
0.2885152643584736
 40
0.3077496153157052
 40
0.3269839662729367
 40
0.3462183172301683
 40
0.3654526681874
 40
0.3846870191446314
 40
0.403921370101863
 40
0.4231557210590949
 40
0.4423900720163263
 40
0.4616244229735576
 40
0.4808587739307892
 40
0.5000931248880207
 40
0.5358007588245904
 40
0.5715083927611606
 40
0.6072160266977306
 40
0.6429236606343004
 40
0.6786312945708702
 40
0.7143389285074403
 40
0.7500465624440104
 40
0.7857541963805803
 40
0.8214618303171503
 40
0.8571694642537202
 40
0.8928770981902898
 40
0.92858473212686
 40
0.9642923660634303
 40
1.0
 40
1.0
 40
1.0
 40
1.0
 10
48.62941928698368
 20
221.7689582632256
 30
0.0
 10
48.63043813938238
 20
221.7105568656564
 30
0.0
 10
48.63247584417977
 20
221.5937540705179
 30
0.0
 10
48.64893841471532
 20
221.4191891789091
 30
0.0
 10
48.67515180955816
 20
221.2459005567577
 30
0.0
 10
48.71198368807857
 20
221.0745205154533
 30
0.0
 10
48.75904153682248
 20
220.9056744021811
 30
0.0
 10
48.8162228092923
 20
220.7399783180977
 30
0.0
 10
48.88330032519276
 20
220.5780368702447
 30
0.0
 10
48.96003429158601
 20
220.4204409654032
 30
0.0
 10
49.04614338401008
 20
220.2677656539393
 30
0.0
 10
49.14131375624211
 20
220.1205680315074
 30
0.0
 10
49.24519804638629
 20
219.9793852062687
 30
0.0
 10
49.35741721753033
 20
219.8447323390417
 30
0.0
 10
49.47756178723086
 20
219.7171007635362
 30
0.0
 10
49.60519336281642
 20
219.5969561935297
 30
0.0
 10
49.73984623003017
 20
219.4847370235306
 30
0.0
 10
49.8810290552431
 20
219.3808527291138
 30
0.0
 10
50.0282266777924
 20
219.2856823728286
 30
0.0
 10
50.1809019888133
 20
219.1995732208915
 30
0.0
 10
50.33849789531014
 20
219.1228394766051
 30
0.0
 10
50.50043933698547
 20
219.0557611317917
 30
0.0
 10
50.66613544412508
 20
218.9985829528684
 30
0.0
 10
50.83498147135082
 20
218.9515135588527
 30
0.0
 10
51.00636183378516
 20
218.9147247678746
 30
0.0
 10
51.17964925746345
 20
218.8883505681361
 30
0.0
 10
51.35421862183507
 20
218.8724881296426
 30
0.0
 10
51.57941930359848
 20
218.8656798472533
 30
0.0
 10
51.85481039682297
 20
218.8811393393208
 30
0.0
 10
52.17608210391177
 20
218.9357292956443
 30
0.0
 10
52.48924116028915
 20
219.0259473855064
 30
0.0
 10
52.79032465487242
 20
219.1506607943331
 30
0.0
 10
53.07555300278901
 20
219.3083007150284
 30
0.0
 10
53.34133718726208
 20
219.4968848583512
 30
0.0
 10
53.58433652242963
 20
219.7140416359939
 30
0.0
 10
53.8014904375915
 20
219.9570401843993
 30
0.0
 10
53.9900852440753
 20
220.2228246534403
 30
0.0
 10
54.14768537460758
 20
220.5080526498473
 30
0.0
 10
54.27254728092541
 20
220.8091372659009
 30
0.0
 10
54.36221117098593
 20
221.1222921879066
 30
0.0
 10
54.41886942902458
 20
221.4435793110114
 30
0.0
 10
54.42590266766712
 20
221.6604986124907
 30
0.0
 10
54.42941928698838
 20
221.7689582632303
 30
0.0
  0
SPLINE
  5
FD
330
1F
100
AcDbEntity
  8
0
  6
Continuous
 62
     7
370
    15
100
AcDbSpline
210
0.0
220
0.0
230
1.0
 70
     8
 71
     3
 72
    31
 73
    27
 74
     0
 42
0.00000001
 43
0.00000001
 12
1.0
 22
0.0
 32
0.0
 13
1.0
 23
0.0
 33
0.0
 40
0.0
 40
0.0
 40
0.0
 40
0.0
 40
0.0152925262381691
 40
0.0304813903233215
 40
0.0456008008413622
 40
0.0606854389010747
 40
0.075770225446985
 40
0.0908900803947848
 40
0.1060796818020964
 40
0.1213732332845734
 40
0.186567454439449
 40
0.2518048217360268
 40
0.3165189517223345
 40
0.3812758930454845
 40
0.4406240789724193
 40
0.5000166737894993
 40
0.559364858690728
 40
0.618757451229205
 40
0.683471621427286
 40
0.7482285992413592
 40
0.81342277247423
 40
0.8786600955932043
 40
0.9091183970352809
 40
0.939308712954113
 40
0.9695097699359442
 40
1.0
 40
1.0
 40
1.0
 40
1.0
 10
47.5294192869861
 20
221.7689582632256
 30
0.0
 10
47.53028161753845
 20
221.7049725318102
 30
0.0
 10
47.53200043323604
 20
221.5774348036401
 30
0.0
 10
47.54593780132192
 20
221.3870552775776
 30
0.0
 10
47.56821531210814
 20
221.1983971917572
 30
0.0
 10
47.59963195254453
 20
221.0114636794897
 30
0.0
 10
47.63997578116619
 20
220.8262565812023
 30
0.0
 10
47.68929829744799
 20
220.6427834666147
 30
0.0
 10
47.74759989519905
 20
220.4610295121769
 30
0.0
 10
47.88767236857468
 20
220.0860096088871
 30
0.0
 10
48.17150546684208
 20
219.5408044114237
 30
0.0
 10
48.69569140947567
 20
218.9076787601755
 30
0.0
 10
49.33275173891805
 20
218.3909795787332
 30
0.0
 10
50.04138799773045
 20
218.0294057225526
 30
0.0
 10
50.78289075930994
 20
217.8143157653016
 30
0.0
 10
51.52923384287647
 20
217.7462884124448
 30
0.0
 10
52.27575900460066
 20
217.8142801775218
 30
0.0
 10
53.01711067266601
 20
218.0292719028298
 30
0.0
 10
53.72593880651404
 20
218.3908745094846
 30
0.0
 10
54.36287466195709
 20
218.9074145172174
 30
0.0
 10
54.88728934437992
 20
219.5406978031246
 30
0.0
 10
55.20044696522708
 20
220.1424444026857
 30
0.0
 10
55.37378605621489
 20
220.6404402577446
 30
0.0
 10
55.46332574936192
 20
221.0103553996649
 30
0.0
 10
55.51920505640466
 20
221.3873275692229
 30
0.0
 10
55.52600374565455
 20
221.6413445973374
 30
0.0
 10
55.52941928698598
 20
221.7689582632256
 30
0.0
  0
SPLINE
  5
FE
330
1F
100
AcDbEntity
  8
0
  6
Continuous
 62
     7
370
    15
100
AcDbSpline
210
0.0
220
0.0
230
1.0
 70
     8
 71
     3
 72
    31
 73
    27
 74
     0
 42
0.00000001
 43
0.00000001
 12
1.0
 22
0.0
 32
0.0
 13
1.0
 23
0.0
 33
0.0
 40
0.0
 40
0.0
 40
0.0
 40
0.0
 40
0.0152925262380702
 40
0.0304813903231521
 40
0.0456008008411505
 40
0.0606854389008491
 40
0.0757702254467732
 40
0.0908900803946139
 40
0.1060796818019929
 40
0.1213732332845624
 40
0.186567454439528
 40
0.2518048217360377
 40
0.3165189517223675
 40
0.381275893045472
 40
0.440624078971625
 40
0.5000166737894778
 40
0.5593648586907349
 40
0.6187574512292205
 40
0.6834716214273601
 40
0.7482285992413332
 40
0.8134227724734185
 40
0.8786600955931837
 40
0.9091183970350646
 40
0.9393087129538297
 40
0.9695097699357306
 40
0.9999999999999999
 40
0.9999999999999999
 40
0.9999999999999999
 40
0.9999999999999999
 10
55.52941928698598
 20
221.7689582632257
 30
0.0
 10
55.52855695643362
 20
221.8329439946407
 30
0.0
 10
55.52683814073603
 20
221.9604817228101
 30
0.0
 10
55.51290077265014
 20
222.1508612488717
 30
0.0
 10
55.4906232618639
 20
222.3395193346915
 30
0.0
 10
55.45920662142752
 20
222.5264528469589
 30
0.0
 10
55.41886279280583
 20
222.7116599452465
 30
0.0
 10
55.36954027652405
 20
222.8951330598346
 30
0.0
 10
55.31123867877296
 20
223.0768870142733
 30
0.0
 10
55.1711662053979
 20
223.4519069175645
 30
0.0
 10
54.88733310713153
 20
223.997112115029
 30
0.0
 10
54.36314716449608
 20
224.6302377662763
 30
0.0
 10
53.72608683505262
 20
225.1469369477161
 30
0.0
 10
53.01745057624471
 20
225.508510803898
 30
0.0
 10
52.27594781466515
 20
225.7236007611483
 30
0.0
 10
51.52960473109888
 20
225.7916281140061
 30
0.0
 10
50.78307956937071
 20
225.7236363489333
 30
0.0
 10
50.04172790130565
 20
225.5086446236211
 30
0.0
 10
49.33289976745999
 20
225.1470420169632
 30
0.0
 10
48.69596391201678
 20
224.6305020092364
 30
0.0
 10
48.17154922959359
 20
223.9972187233297
 30
0.0
 10
47.85839160874724
 20
223.3954721237692
 30
0.0
 10
47.68505251775657
 20
222.8974762687089
 30
0.0
 10
47.59551282460965
 20
222.5275611267894
 30
0.0
 10
47.53963351756705
 20
222.1505889572306
 30
0.0
 10
47.53283482831741
 20
221.8965719291148
 30
0.0
 10
47.52941928698609
 20
221.7689582632257
 30
0.0
  0
SPLINE
  5
FF
330
1F
100
AcDbEntity
  8
0
  6
Continuous
 62
     7
370
    15
100
AcDbSpline
210
0.0
220
0.0
230
1.0
 70
     8
 71
     3
 72
    23
 73
    19
 74
     0
 42
0.00000001
 43
0.00000001
 12
1.0
 22
0.0
 32
0.0
 13
1.0
 23
0.0
 33
0.0
 40
0.0
 40
0.0
 40
0.0
 40
0.0
 40
0.0305095398588717
 40
0.0607418941476279
 40
0.0909746637866068
 40
0.1214854383590072
 40
0.1867116193317932
 40
0.252077075541098
 40
0.3168228945442589
 40
0.381706942972232
 40
0.5000675004760767
 40
0.6184280579799133
 40
0.6831705036074718
 40
0.7480579165325912
 40
0.8132806952971796
 40
0.8786495166461884
 40
0.9392539857574559
 40
0.9999999999999999
 40
0.9999999999999999
 40
0.9999999999999999
 40
0.9999999999999999
 10
52.72941928698608
 20
221.7689582632256
 30
0.0
 10
52.7283839421526
 20
221.8072192503736
 30
0.0
 10
52.72632265881065
 20
221.8833936155747
 30
0.0
 10
52.70954982193163
 20
221.9964600560976
 30
0.0
 10
52.68269034892232
 20
222.1074522092083
 30
0.0
 10
52.6308069140748
 20
222.2567993823389
 30
0.0
 10
52.53683305003823
 20
222.4373326055035
 30
0.0
 10
52.37963987676826
 20
222.6272717909396
 30
0.0
 10
52.18839928402138
 20
222.7822820207374
 30
0.0
 10
51.9099756851445
 20
222.9248023794289
 30
0.0
 10
51.52941791198621
 20
222.997479272768
 30
0.0
 10
51.149045813894
 20
222.92483639748
 30
0.0
 10
50.87058351182688
 20
222.782380309273
 30
0.0
 10
50.6794934102886
 20
222.62753102498
 30
0.0
 10
50.52195058941354
 20
222.4374529633148
 30
0.0
 10
50.41110485434219
 20
222.2233721431705
 30
0.0
 10
50.34170431278833
 20
221.9976372663417
 30
0.0
 10
50.33351747867122
 20
221.8452438489652
 30
0.0
 10
50.32941928698599
 20
221.7689582632257
 30
0.0
  0
SPLINE
  5
100
330
1F
100
AcDbEntity
  8
0
  6
Continuous
 62
     7
370
    15
100
AcDbSpline
210
0.0
220
0.0
230
1.0
 70
     8
 71
     3
 72
    23
 73
    19
 74
     0
 42
0.00000001
 43
0.00000001
 12
1.0
 22
0.0
 32
0.0
 13
1.0
 23
0.0
 33
0.0
 40
0.0
 40
0.0
 40
0.0
 40
0.0
 40
0.0305095398584306
 40
0.0607418941470465
 40
0.090974663786173
 40
0.121485438358995
 40
0.1867116193319702
 40
0.2520770755411638
 40
0.3168228945430787
 40
0.3817069429722024
 40
0.5000675004760637
 40
0.6184280579799224
 40
0.6831705036100856
 40
0.7480579165326021
 40
0.8132806952980066
 40
0.878649516646154
 40
0.9392539857571623
 40
0.9999999999999999
 40
0.9999999999999999
 40
0.9999999999999999
 40
0.9999999999999999
 10
50.32941928698599
 20
221.7689582632257
 30
0.0
 10
50.33045463181951
 20
221.7306972760783
 30
0.0
 10
50.33251591516154
 20
221.6545229108779
 30
0.0
 10
50.34928875204064
 20
221.5414564703557
 30
0.0
 10
50.37614822505001
 20
221.4304643172444
 30
0.0
 10
50.42803165989685
 20
221.2811171441126
 30
0.0
 10
50.52200552393256
 20
221.1005839209468
 30
0.0
 10
50.67919869720271
 20
220.9106447355123
 30
0.0
 10
50.87043928995129
 20
220.7556345057178
 30
0.0
 10
51.14886288882524
 20
220.613114147021
 30
0.0
 10
51.52942066198612
 20
220.540437253684
 30
0.0
 10
51.90979276008147
 20
220.6130801289716
 30
0.0
 10
52.18825506214771
 20
220.7555362171807
 30
0.0
 10
52.37934516368684
 20
220.9103855014741
 30
0.0
 10
52.53688798455761
 20
221.1004635631385
 30
0.0
 10
52.64773371963037
 20
221.3145443832814
 30
0.0
 10
52.71713426118389
 20
221.5402792601093
 30
0.0
 10
52.72532109530089
 20
221.6926726774858
 30
0.0
 10
52.72941928698608
 20
221.7689582632257
 30
0.0
  0
ARC
  5
101
330
1F
100
AcDbEntity
  8
0
  6
Continuous
 62
     7
370
    15
100
AcDbCircle
 10
51.5289366895
 20
232.7714806743
 30
0.0
 40
2.018360964876503
100
AcDbArc
 50
276.4950163713
 51
338.7934674562
  0
LINE
  5
102
330
1F
100
AcDbEntity
  8
0
  6
Continuous
 62
     7
370
    15
100
AcDbLine
 10
50.3980483905
 20
222.1689588056
 30
0.0
 11
48.6571380448
 21
222.1689588056
 31
0.0
  0
LINE
  5
103
330
1F
100
AcDbEntity
  8
0
  6
Continuous
 62
   144
370
     0
100
AcDbLine
 10
48.6571380448
 20
221.368958302
 30
0.0
 11
50.3980483905
 21
221.368958302
 31
0.0
  0
LINE
  5
104
330
1F
100
AcDbEntity
  8
0
  6
Continuous
 62
     7
370
    15
100
AcDbLine
 10
54.4017005291
 20
222.1689588056
 30
0.0
 11
52.6607901835
 21
222.1689588056
 31
0.0
  0
LINE
  5
105
330
1F
100
AcDbEntity
  8
0
  6
Continuous
 62
   144
370
     0
100
AcDbLine
 10
52.6607901835
 20
221.368958302
 30
0.0
 11
54.4017005291
 21
221.368958302
 31
0.0
  0
LINE
  5
106
330
1F
100
AcDbEntity
  8
0
  6
Continuous
 62
     7
370
    15
100
AcDbLine
 10
69.9365275492
 20
185.7659640388
 30
0.0
 11
69.9951300909
 21
185.7321309523
 31
0.0
  0
LINE
  5
107
330
1F
100
AcDbEntity
  8
0
  6
Continuous
 62
     7
370
    15
100
AcDbLine
 10
70.5637081106
 20
185.4038620965
 30
0.0
 11
70.7652686675
 21
185.2874905468
 31
0.0
  0
LINE
  5
108
330
1F
100
AcDbEntity
  8
0
  6
Continuous
 62
     7
370
    15
100
AcDbLine
 10
68.0294191976
 20
184.8299690188
 30
0.0
 11
68.0294191976
 21
184.5972268508
 31
0.0
  0
LINE
  5
109
330
1F
100
AcDbEntity
  8
0
  6
Continuous
 62
     7
370
    15
100
AcDbLine
 10
68.0294191976
 20
183.9406900705
 30
0.0
 11
68.0294191976
 21
183.8730220349
 31
0.0
  0
LINE
  5
10A
330
1F
100
AcDbEntity
  8
0
  6
Continuous
 62
     7
370
    15
100
AcDbLine
 10
70.6223106523
 20
209.1678884478
 30
0.0
 11
70.5637081106
 21
209.13405443
 31
0.0
  0
LINE
  5
10B
330
1F
100
AcDbEntity
  8
0
  6
Continuous
 62
     7
370
    15
100
AcDbLine
 10
69.9951300909
 20
208.8057855741
 30
0.0
 11
69.793569534
 21
208.6894149558
 31
0.0
  0
LINE
  5
10C
330
1F
100
AcDbEntity
  8
0
  6
Continuous
 62
     7
370
    15
100
AcDbLine
 10
33.1223110248
 20
208.7719524876
 30
0.0
 11
33.0637084831
 21
208.8057855741
 31
0.0
  0
LINE
  5
10D
330
1F
100
AcDbEntity
  8
0
  6
Continuous
 62
     7
370
    15
100
AcDbLine
 10
32.4951304634
 20
209.13405443
 30
0.0
 11
32.2935699065
 21
209.2504259796
 31
0.0
  0
LINE
  5
10E
330
1F
100
AcDbEntity
  8
0
  6
Continuous
 62
     7
370
    15
100
AcDbLine
 10
71.0294196893
 20
209.7079475076
 30
0.0
 11
71.0294196893
 21
209.9406896756
 31
0.0
  0
LINE
  5
10F
330
1F
100
AcDbEntity
  8
0
  6
Continuous
 62
     7
370
    15
100
AcDbLine
 10
71.0294196893
 20
210.5972264559
 30
0.0
 11
71.0294196893
 21
210.6648944916
 31
0.0
  0
LINE
  5
110
330
1F
100
AcDbEntity
  8
0
  6
Continuous
 62
     7
370
    15
100
AcDbLine
 10
32.4365279217
 20
185.3700280787
 30
0.0
 11
32.4951304634
 21
185.4038620965
 31
0.0
  0
LINE
  5
111
330
1F
100
AcDbEntity
  8
0
  6
Continuous
 62
     7
370
    15
100
AcDbLine
 10
33.0637084831
 20
185.7321309523
 30
0.0
 11
33.26526904
 21
185.8485015706
 31
0.0
  0
LINE
  5
112
330
1F
100
AcDbEntity
  8
0
  6
Continuous
 62
     7
370
    15
100
AcDbLine
 10
69.1223094751
 20
208.7719524876
 30
0.0
 11
69.063708796
 21
208.8057855741
 31
0.0
  0
LINE
  5
113
330
1F
100
AcDbEntity
  8
0
  6
Continuous
 62
     7
370
    15
100
AcDbLine
 10
68.4951307763
 20
209.13405443
 30
0.0
 11
68.2935702194
 21
209.2504259796
 31
0.0
  0
LINE
  5
114
330
1F
100
AcDbEntity
  8
0
  6
Continuous
 62
     7
370
    15
100
AcDbLine
 10
34.6223103394
 20
209.1678884478
 30
0.0
 11
34.5637077977
 21
209.13405443
 31
0.0
  0
LINE
  5
115
330
1F
100
AcDbEntity
  8
0
  6
Continuous
 62
     7
370
    15
100
AcDbLine
 10
33.9951297779
 20
208.8057855741
 30
0.0
 11
33.793569221
 21
208.6894149558
 31
0.0
  0
LINE
  5
116
330
1F
100
AcDbEntity
  8
0
  6
Continuous
 62
     7
370
    15
100
AcDbLine
 10
68.4365282346
 20
185.3700280787
 30
0.0
 11
68.4951307763
 21
185.4038620965
 31
0.0
  0
LINE
  5
117
330
1F
100
AcDbEntity
  8
0
  6
Continuous
 62
     7
370
    15
100
AcDbLine
 10
69.063708796
 20
185.7321309523
 30
0.0
 11
69.2652693529
 21
185.8485015706
 31
0.0
  0
LINE
  5
118
330
1F
100
AcDbEntity
  8
0
  6
Continuous
 62
     7
370
    15
100
AcDbLine
 10
32.0294188847
 20
184.8299690188
 30
0.0
 11
32.0294188847
 21
184.5972268508
 31
0.0
  0
LINE
  5
119
330
1F
100
AcDbEntity
  8
0
  6
Continuous
 62
     7
370
    15
100
AcDbLine
 10
32.0294188847
 20
183.9406900705
 30
0.0
 11
32.0294188847
 21
183.8730220349
 31
0.0
  0
LINE
  5
11A
330
1F
100
AcDbEntity
  8
0
  6
Continuous
 62
     7
370
    15
100
AcDbLine
 10
35.0294193764
 20
209.7079475076
 30
0.0
 11
35.0294193764
 21
209.9406896756
 31
0.0
  0
LINE
  5
11B
330
1F
100
AcDbEntity
  8
0
  6
Continuous
 62
     7
370
    15
100
AcDbLine
 10
35.0294193764
 20
210.5972264559
 30
0.0
 11
35.0294193764
 21
210.6648944916
 31
0.0
  0
LINE
  5
11C
330
1F
100
AcDbEntity
  8
0
  6
Continuous
 62
     7
370
    15
100
AcDbLine
 10
71.0294196893
 20
183.7079469712
 30
0.0
 11
71.0294196893
 21
183.9406900705
 31
0.0
  0
LINE
  5
11D
330
1F
100
AcDbEntity
  8
0
  6
Continuous
 62
     7
370
    15
100
AcDbLine
 10
71.0294196893
 20
184.5972268508
 30
0.0
 11
71.0294196893
 21
184.6648948864
 31
0.0
  0
LINE
  5
11E
330
1F
100
AcDbEntity
  8
0
  6
Continuous
 62
     7
370
    15
100
AcDbLine
 10
69.1223094751
 20
182.7719519512
 30
0.0
 11
69.063708796
 21
182.805785969
 31
0.0
  0
LINE
  5
11F
330
1F
100
AcDbEntity
  8
0
  6
Continuous
 62
     7
370
    15
100
AcDbLine
 10
68.4951307763
 20
183.1340548248
 30
0.0
 11
68.2935702194
 21
183.2504254432
 31
0.0
  0
LINE
  5
120
330
1F
100
AcDbEntity
  8
0
  6
Continuous
 62
     7
370
    15
100
AcDbLine
 10
35.0294193764
 20
183.7079469712
 30
0.0
 11
35.0294193764
 21
183.9406900705
 31
0.0
  0
LINE
  5
121
330
1F
100
AcDbEntity
  8
0
  6
Continuous
 62
     7
370
    15
100
AcDbLine
 10
35.0294193764
 20
184.5972268508
 30
0.0
 11
35.0294193764
 21
184.6648948864
 31
0.0
  0
LINE
  5
122
330
1F
100
AcDbEntity
  8
0
  6
Continuous
 62
     7
370
    15
100
AcDbLine
 10
33.1223110248
 20
182.7719519512
 30
0.0
 11
33.0637084831
 21
182.805785969
 31
0.0
  0
LINE
  5
123
330
1F
100
AcDbEntity
  8
0
  6
Continuous
 62
     7
370
    15
100
AcDbLine
 10
32.4951304634
 20
183.1340548248
 30
0.0
 11
32.2935699065
 21
183.2504254432
 31
0.0
  0
LINE
  5
124
330
1F
100
AcDbEntity
  8
0
  6
Continuous
 62
     7
370
    15
100
AcDbLine
 10
34.6223103394
 20
183.1678879113
 30
0.0
 11
34.5637077977
 21
183.1340548248
 31
0.0
  0
LINE
  5
125
330
1F
100
AcDbEntity
  8
0
  6
Continuous
 62
     7
370
    15
100
AcDbLine
 10
33.9951297779
 20
182.805785969
 30
0.0
 11
33.793569221
 21
182.6894144194
 31
0.0
  0
LINE
  5
126
330
1F
100
AcDbEntity
  8
0
  6
Continuous
 62
     7
370
    15
100
AcDbLine
 10
68.0294191976
 20
210.8299695553
 30
0.0
 11
68.0294191976
 21
210.5972264559
 31
0.0
  0
LINE
  5
127
330
1F
100
AcDbEntity
  8
0
  6
Continuous
 62
     7
370
    15
100
AcDbLine
 10
68.0294191976
 20
209.9406896756
 30
0.0
 11
68.0294191976
 21
209.87302164
 31
0.0
  0
LINE
  5
128
330
1F
100
AcDbEntity
  8
0
  6
Continuous
 62
     7
370
    15
100
AcDbLine
 10
69.9365275492
 20
211.7659645752
 30
0.0
 11
69.9951300909
 21
211.7321305574
 31
0.0
  0
LINE
  5
129
330
1F
100
AcDbEntity
  8
0
  6
Continuous
 62
     7
370
    15
100
AcDbLine
 10
70.5637081106
 20
211.4038617016
 30
0.0
 11
70.7652686675
 21
211.2874910833
 31
0.0
  0
LINE
  5
12A
330
1F
100
AcDbEntity
  8
0
  6
Continuous
 62
     7
370
    15
100
AcDbLine
 10
70.6223106523
 20
183.1678879113
 30
0.0
 11
70.5637081106
 21
183.1340548248
 31
0.0
  0
LINE
  5
12B
330
1F
100
AcDbEntity
  8
0
  6
Continuous
 62
     7
370
    15
100
AcDbLine
 10
69.9951300909
 20
182.805785969
 30
0.0
 11
69.793569534
 21
182.6894144194
 31
0.0
  0
LINE
  5
12C
330
1F
100
AcDbEntity
  8
0
  6
Continuous
 62
     7
370
    15
100
AcDbLine
 10
32.0294188847
 20
210.8299695553
 30
0.0
 11
32.0294188847
 21
210.5972264559
 31
0.0
  0
LINE
  5
12D
330
1F
100
AcDbEntity
  8
0
  6
Continuous
 62
     7
370
    15
100
AcDbLine
 10
32.0294188847
 20
209.9406896756
 30
0.0
 11
32.0294188847
 21
209.87302164
 31
0.0
  0
LINE
  5
12E
330
1F
100
AcDbEntity
  8
0
  6
Continuous
 62
     7
370
    15
100
AcDbLine
 10
32.4365279217
 20
211.3700286151
 30
0.0
 11
32.4951304634
 21
211.4038617016
 31
0.0
  0
LINE
  5
12F
330
1F
100
AcDbEntity
  8
0
  6
Continuous
 62
     7
370
    15
100
AcDbLine
 10
33.0637084831
 20
211.7321305574
 30
0.0
 11
33.26526904
 21
211.8485021071
 31
0.0
  0
LINE
  5
130
330
1F
100
AcDbEntity
  8
0
  6
Continuous
 62
     7
370
    15
100
AcDbLine
 10
42.364778607
 20
225.9689579384
 30
0.0
 11
41.5294195105
 21
225.9689579384
 31
0.0
  0
LINE
  5
131
330
1F
100
AcDbEntity
  8
0
  6
Continuous
 62
     7
370
    15
100
AcDbLine
 10
61.5294190635
 20
225.9689579384
 30
0.0
 11
60.6938271363
 21
225.9689579384
 31
0.0
  0
LINE
  5
132
330
1F
100
AcDbEntity
  8
0
  6
Continuous
 62
     7
370
    15
100
AcDbLine
 10
70.2219220389
 20
208.6367449389
 30
0.0
 11
71.2892083962
 21
210.0525759758
 31
0.0
  0
LINE
  5
133
330
1F
100
AcDbEntity
  8
0
  6
Continuous
 62
     7
370
    15
100
AcDbLine
 10
68.4621321548
 20
208.8531265633
 30
0.0
 11
67.7696304907
 21
210.4853401558
 31
0.0
  0
CIRCLE
  5
134
330
1F
100
AcDbEntity
  8
0
  6
Continuous
 62
     7
370
    15
100
AcDbCircle
 10
69.529419287
 20
210.2689582632
 30
0.0
 40
3.3
  0
CIRCLE
  5
135
330
1F
100
AcDbEntity
  8
0
  6
Continuous
 62
     7
370
    15
100
AcDbCircle
 10
69.529419287
 20
210.2689582632
 30
0.0
 40
3.5
  0
LINE
  5
136
330
1F
100
AcDbEntity
  8
0
  6
Continuous
 62
     7
370
    15
100
AcDbLine
 10
68.836916848
 20
211.901172124
 30
0.0
 11
67.7696304907
 21
210.4853401558
 31
0.0
  0
LINE
  5
137
330
1F
100
AcDbEntity
  8
0
  6
Continuous
 62
     7
370
    15
100
AcDbLine
 10
70.5967067321
 20
211.6847895683
 30
0.0
 11
68.836916848
 21
211.901172124
 31
0.0
  0
LINE
  5
138
330
1F
100
AcDbEntity
  8
0
  6
Continuous
 62
     7
370
    15
100
AcDbLine
 10
70.2219220389
 20
208.6367449389
 30
0.0
 11
68.4621321548
 21
208.8531265633
 31
0.0
  0
LINE
  5
139
330
1F
100
AcDbEntity
  8
0
  6
Continuous
 62
     7
370
    15
100
AcDbLine
 10
70.5967067321
 20
211.6847895683
 30
0.0
 11
71.2892083962
 21
210.0525759758
 31
0.0
  0
ARC
  5
13A
330
1F
100
AcDbEntity
  8
0
  6
Continuous
 62
     7
370
    15
100
AcDbCircle
 10
69.529419287
 20
210.2689582632
 30
0.0
 40
1.53550000000003
100
AcDbArc
 50
82.9901452219
 51
142.9901452219
  0
ARC
  5
13B
330
1F
100
AcDbEntity
  8
0
  6
Continuous
 62
   144
370
     0
100
AcDbCircle
 10
69.529419287
 20
210.2689582632
 30
0.0
 40
1.53550000000001
100
AcDbArc
 50
322.9901452219
 51
22.9901452219
  0
ARC
  5
13C
330
1F
100
AcDbEntity
  8
0
  6
Continuous
 62
   144
370
     0
100
AcDbCircle
 10
69.529419287
 20
210.2689582632
 30
0.0
 40
1.53550000000003
100
AcDbArc
 50
22.9901452219
 51
82.9901452219
  0
ARC
  5
13D
330
1F
100
AcDbEntity
  8
0
  6
Continuous
 62
   144
370
     0
100
AcDbCircle
 10
69.529419287
 20
210.2689582632
 30
0.0
 40
1.535499999999987
100
AcDbArc
 50
142.9901452219
 51
202.9901452219
  0
ARC
  5
13E
330
1F
100
AcDbEntity
  8
0
  6
Continuous
 62
   144
370
     0
100
AcDbCircle
 10
69.529419287
 20
210.2689582632
 30
0.0
 40
1.535499999999986
100
AcDbArc
 50
202.9901452219
 51
262.9901452219
  0
ARC
  5
13F
330
1F
100
AcDbEntity
  8
0
  6
Continuous
 62
   144
370
     0
100
AcDbCircle
 10
69.529419287
 20
210.2689582632
 30
0.0
 40
1.535499999999999
100
AcDbArc
 50
262.9901452219
 51
322.9901452219
  0
CIRCLE
  5
140
330
1F
100
AcDbEntity
  8
0
  6
Continuous
 62
     7
370
    15
100
AcDbCircle
 10
51.529419287
 20
192.7689582632
 30
0.0
 40
2.050000000000001
  0
CIRCLE
  5
141
330
1F
100
AcDbEntity
  8
0
  6
Continuous
 62
     7
370
    15
100
AcDbCircle
 10
51.529419287
 20
192.7689582632
 30
0.0
 40
3.850000000000002
  0
CIRCLE
  5
142
330
1F
100
AcDbEntity
  8
0
  6
Continuous
 62
     7
370
    15
100
AcDbCircle
 10
51.4971946633
 20
208.7689258124
 30
0.0
 40
3.850000000000006
  0
CIRCLE
  5
143
330
1F
100
AcDbEntity
  8
0
  6
Continuous
 62
     7
370
    15
100
AcDbCircle
 10
51.4971946633
 20
208.7689258124
 30
0.0
 40
2.049999999999989
  0
LINE
  5
144
330
1F
100
AcDbEntity
  8
0
  6
Continuous
 62
   144
370
     0
100
AcDbLine
 10
71.1794185032
 20
210.2689585314
 30
0.0
 11
71.1788392205
 21
210.3127157913
 31
0.0
  0
LWPOLYLINE
  5
145
330
1F
100
AcDbEntity
  8
0
  6
Continuous
 62
   144
370
     0
100
AcDbPolyline
 90
        3
 70
   128
 43
0.0
 10
70.7070759077
 20
211.4246497528
 10
70.4667257656
 20
211.6268817933
 10
70.3162352134
 20
211.7192764432
  0
ARC
  5
146
330
1F
100
AcDbEntity
  8
0
  6
Continuous
 62
   144
370
     0
100
AcDbCircle
 10
69.529419287
 20
210.2689582632
 30
0.0
 40
1.650000000000002
100
AcDbArc
 50
164.4606585761
 51
181.5196318676
  0
LWPOLYLINE
  5
147
330
1F
100
AcDbEntity
  8
0
  6
Continuous
 62
   144
370
     0
100
AcDbPolyline
 90
        3
 70
   128
 43
0.0
 10
68.3517629792
 20
209.1132663788
 10
68.5921131213
 20
208.9110352696
 10
68.7426036735
 20
208.8186406196
  0
LWPOLYLINE
  5
148
330
1F
100
AcDbEntity
  8
0
  6
Continuous
 62
   144
370
     0
100
AcDbPolyline
 90
        3
 70
   128
 43
0.0
 10
69.9414486577
 20
208.6712318139
 10
70.1145181943
 20
208.7261817084
 10
70.3920243819
 20
208.8623978795
  0
LWPOLYLINE
  5
149
330
1F
100
AcDbEntity
  8
0
  6
Continuous
 62
   144
370
     0
100
AcDbPolyline
 90
        3
 70
   128
 43
0.0
 10
71.1191060533
 20
209.8269230352
 10
71.131474017
 20
209.874087073
 10
71.1794185032
 20
210.2689585314
  0
LINE
  5
14A
330
1F
100
AcDbEntity
  8
0
  6
Continuous
 62
   144
370
     0
100
AcDbLine
 10
71.1794185032
 20
184.268957995
 30
0.0
 11
71.1788392205
 21
184.3127152548
 31
0.0
  0
LWPOLYLINE
  5
14B
330
1F
100
AcDbEntity
  8
0
  6
Continuous
 62
   144
370
     0
100
AcDbPolyline
 90
        3
 70
   128
 43
0.0
 10
70.7070759077
 20
185.4246501477
 10
70.4667257656
 20
185.6268812568
 10
70.3162352134
 20
185.7192759068
  0
LWPOLYLINE
  5
14C
330
1F
100
AcDbEntity
  8
0
  6
Continuous
 62
   144
370
     0
100
AcDbPolyline
 90
        3
 70
   128
 43
0.0
 10
69.1173883666
 20
185.8666847126
 10
68.9443206926
 20
185.811734818
 10
68.666814505
 20
185.675518647
  0
ARC
  5
14D
330
1F
100
AcDbEntity
  8
0
  6
Continuous
 62
   144
370
     0
100
AcDbCircle
 10
69.529419287
 20
184.2689582632
 30
0.0
 40
1.650000000000001
100
AcDbArc
 50
164.4606585761
 51
181.5196318676
  0
LWPOLYLINE
  5
14E
330
1F
100
AcDbEntity
  8
0
  6
Continuous
 62
   144
370
     0
100
AcDbPolyline
 90
        3
 70
   128
 43
0.0
 10
68.3517629792
 20
183.1132667736
 10
68.5921131213
 20
182.9110347332
 10
68.7426036735
 20
182.8186400832
  0
LWPOLYLINE
  5
14F
330
1F
100
AcDbEntity
  8
0
  6
Continuous
 62
   144
370
     0
100
AcDbPolyline
 90
        3
 70
   128
 43
0.0
 10
69.9414486577
 20
182.6712312774
 10
70.1145181943
 20
182.726181172
 10
70.3920243819
 20
182.862397343
  0
LWPOLYLINE
  5
150
330
1F
100
AcDbEntity
  8
0
  6
Continuous
 62
   144
370
     0
100
AcDbPolyline
 90
        3
 70
   128
 43
0.0
 10
71.1191060533
 20
183.8269234301
 10
71.131474017
 20
183.8740874679
 10
71.1794185032
 20
184.268957995
  0
LINE
  5
151
330
1F
100
AcDbEntity
  8
0
  6
Continuous
 62
   144
370
     0
100
AcDbLine
 10
35.1794200529
 20
184.268957995
 30
0.0
 11
35.1788389076
 21
184.3127152548
 31
0.0
  0
LWPOLYLINE
  5
152
330
1F
100
AcDbEntity
  8
0
  6
Continuous
 62
   144
370
     0
100
AcDbPolyline
 90
        3
 70
   128
 43
0.0
 10
33.1173899163
 20
185.8666847126
 10
32.9443203796
 20
185.811734818
 10
32.6668141921
 20
185.675518647
  0
ARC
  5
153
330
1F
100
AcDbEntity
  8
0
  6
Continuous
 62
   144
370
     0
100
AcDbCircle
 10
33.529419287
 20
184.2689582632
 30
0.0
 40
1.649999999999986
100
AcDbArc
 50
164.4606585761
 51
181.5196318676
  0
LWPOLYLINE
  5
154
330
1F
100
AcDbEntity
  8
0
  6
Continuous
 62
   144
370
     0
100
AcDbPolyline
 90
        3
 70
   128
 43
0.0
 10
32.3517626662
 20
183.1132667736
 10
32.5921128084
 20
182.9110347332
 10
32.7426033606
 20
182.8186400832
  0
LWPOLYLINE
  5
155
330
1F
100
AcDbEntity
  8
0
  6
Continuous
 62
   144
370
     0
100
AcDbPolyline
 90
        3
 70
   128
 43
0.0
 10
33.9414502074
 20
182.6712312774
 10
34.1145178814
 20
182.726181172
 10
34.392024069
 20
182.862397343
  0
LWPOLYLINE
  5
156
330
1F
100
AcDbEntity
  8
0
  6
Continuous
 62
   144
370
     0
100
AcDbPolyline
 90
        3
 70
   128
 43
0.0
 10
35.1191057403
 20
183.8269234301
 10
35.1314737041
 20
183.8740874679
 10
35.1794200529
 20
184.268957995
  0
LINE
  5
157
330
1F
100
AcDbEntity
  8
0
  6
Continuous
 62
   144
370
     0
100
AcDbLine
 10
35.1794200529
 20
210.2689585314
 30
0.0
 11
35.1788389076
 21
210.3127157913
 31
0.0
  0
LWPOLYLINE
  5
158
330
1F
100
AcDbEntity
  8
0
  6
Continuous
 62
   144
370
     0
100
AcDbPolyline
 90
        3
 70
   128
 43
0.0
 10
33.1173899163
 20
211.866685249
 10
32.9443203796
 20
211.8117353545
 10
32.6668141921
 20
211.6755191834
  0
ARC
  5
159
330
1F
100
AcDbEntity
  8
0
  6
Continuous
 62
   144
370
     0
100
AcDbCircle
 10
33.529419287
 20
210.2689582632
 30
0.0
 40
1.649999999999987
100
AcDbArc
 50
164.4606585761
 51
181.5196318676
  0
LWPOLYLINE
  5
15A
330
1F
100
AcDbEntity
  8
0
  6
Continuous
 62
   144
370
     0
100
AcDbPolyline
 90
        3
 70
   128
 43
0.0
 10
32.3517626662
 20
209.1132663788
 10
32.5921128084
 20
208.9110352696
 10
32.7426033606
 20
208.8186406196
  0
LWPOLYLINE
  5
15B
330
1F
100
AcDbEntity
  8
0
  6
Continuous
 62
   144
370
     0
100
AcDbPolyline
 90
        3
 70
   128
 43
0.0
 10
33.9414502074
 20
208.6712318139
 10
34.1145178814
 20
208.7261817084
 10
34.392024069
 20
208.8623978795
  0
LWPOLYLINE
  5
15C
330
1F
100
AcDbEntity
  8
0
  6
Continuous
 62
   144
370
     0
100
AcDbPolyline
 90
        3
 70
   128
 43
0.0
 10
35.1191057403
 20
209.8269230352
 10
35.1314737041
 20
209.874087073
 10
35.1794200529
 20
210.2689585314
  0
CIRCLE
  5
15D
330
1F
100
AcDbEntity
  8
0
  6
Continuous
 62
     7
370
    15
100
AcDbCircle
 10
33.529419287
 20
210.2689582632
 30
0.0
 40
3.3
  0
CIRCLE
  5
15E
330
1F
100
AcDbEntity
  8
0
  6
Continuous
 62
     7
370
    15
100
AcDbCircle
 10
33.529419287
 20
210.2689582632
 30
0.0
 40
3.499999999999994
  0
LINE
  5
15F
330
1F
100
AcDbEntity
  8
0
  6
Continuous
 62
     7
370
    15
100
AcDbLine
 10
34.5967064191
 20
211.6847895683
 30
0.0
 11
35.2892080833
 21
210.0525759758
 31
0.0
  0
LINE
  5
160
330
1F
100
AcDbEntity
  8
0
  6
Continuous
 62
     7
370
    15
100
AcDbLine
 10
34.221921726
 20
208.6367449389
 30
0.0
 11
32.4621318419
 21
208.8531265633
 31
0.0
  0
LINE
  5
161
330
1F
100
AcDbEntity
  8
0
  6
Continuous
 62
     7
370
    15
100
AcDbLine
 10
32.836916535
 20
211.901172124
 30
0.0
 11
31.7696301778
 21
210.4853401558
 31
0.0
  0
LINE
  5
162
330
1F
100
AcDbEntity
  8
0
  6
Continuous
 62
     7
370
    15
100
AcDbLine
 10
32.4621318419
 20
208.8531265633
 30
0.0
 11
31.7696301778
 21
210.4853401558
 31
0.0
  0
LINE
  5
163
330
1F
100
AcDbEntity
  8
0
  6
Continuous
 62
     7
370
    15
100
AcDbLine
 10
34.221921726
 20
208.6367449389
 30
0.0
 11
35.2892080833
 21
210.0525759758
 31
0.0
  0
LINE
  5
164
330
1F
100
AcDbEntity
  8
0
  6
Continuous
 62
     7
370
    15
100
AcDbLine
 10
34.5967064191
 20
211.6847895683
 30
0.0
 11
32.836916535
 21
211.901172124
 31
0.0
  0
ARC
  5
165
330
1F
100
AcDbEntity
  8
0
  6
Continuous
 62
     7
370
    15
100
AcDbCircle
 10
33.529419287
 20
210.2689582632
 30
0.0
 40
1.53550000000003
100
AcDbArc
 50
22.9901452219
 51
82.9901452219
  0
ARC
  5
166
330
1F
100
AcDbEntity
  8
0
  6
Continuous
 62
   144
370
     0
100
AcDbCircle
 10
33.529419287
 20
210.2689582632
 30
0.0
 40
1.535500000000004
100
AcDbArc
 50
322.9901452219
 51
22.9901452219
  0
ARC
  5
167
330
1F
100
AcDbEntity
  8
0
  6
Continuous
 62
   144
370
     0
100
AcDbCircle
 10
33.529419287
 20
210.2689582632
 30
0.0
 40
1.53550000000003
100
AcDbArc
 50
82.9901452219
 51
142.9901452219
  0
ARC
  5
168
330
1F
100
AcDbEntity
  8
0
  6
Continuous
 62
   144
370
     0
100
AcDbCircle
 10
33.529419287
 20
210.2689582632
 30
0.0
 40
1.53550000000001
100
AcDbArc
 50
142.9901452219
 51
202.9901452219
  0
ARC
  5
169
330
1F
100
AcDbEntity
  8
0
  6
Continuous
 62
   144
370
     0
100
AcDbCircle
 10
33.529419287
 20
210.2689582632
 30
0.0
 40
1.535499999999993
100
AcDbArc
 50
202.9901452219
 51
262.9901452219
  0
ARC
  5
16A
330
1F
100
AcDbEntity
  8
0
  6
Continuous
 62
   144
370
     0
100
AcDbCircle
 10
33.529419287
 20
210.2689582632
 30
0.0
 40
1.535499999999999
100
AcDbArc
 50
262.9901452219
 51
322.9901452219
  0
LINE
  5
16B
330
1F
100
AcDbEntity
  8
0
  6
Continuous
 62
     7
370
    15
100
AcDbLine
 10
34.221921726
 20
182.6367444025
 30
0.0
 11
32.4621318419
 21
182.8531269581
 31
0.0
  0
CIRCLE
  5
16C
330
1F
100
AcDbEntity
  8
0
  6
Continuous
 62
     7
370
    15
100
AcDbCircle
 10
33.529419287
 20
184.2689582632
 30
0.0
 40
3.300000000000006
  0
CIRCLE
  5
16D
330
1F
100
AcDbEntity
  8
0
  6
Continuous
 62
     7
370
    15
100
AcDbCircle
 10
33.529419287
 20
184.2689582632
 30
0.0
 40
3.5
  0
LINE
  5
16E
330
1F
100
AcDbEntity
  8
0
  6
Continuous
 62
     7
370
    15
100
AcDbLine
 10
34.221921726
 20
182.6367444025
 30
0.0
 11
35.2892080833
 21
184.0525763707
 31
0.0
  0
LINE
  5
16F
330
1F
100
AcDbEntity
  8
0
  6
Continuous
 62
     7
370
    15
100
AcDbLine
 10
34.5967064191
 20
185.6847899632
 30
0.0
 11
32.836916535
 21
185.9011715875
 31
0.0
  0
LINE
  5
170
330
1F
100
AcDbEntity
  8
0
  6
Continuous
 62
     7
370
    15
100
AcDbLine
 10
34.5967064191
 20
185.6847899632
 30
0.0
 11
35.2892080833
 21
184.0525763707
 31
0.0
  0
LINE
  5
171
330
1F
100
AcDbEntity
  8
0
  6
Continuous
 62
   144
370
     0
100
AcDbLine
 10
32.4621318419
 20
182.8531269581
 30
0.0
 11
31.7696301778
 21
184.4853405507
 31
0.0
  0
LINE
  5
172
330
1F
100
AcDbEntity
  8
0
  6
Continuous
 62
   144
370
     0
100
AcDbLine
 10
32.836916535
 20
185.9011715875
 30
0.0
 11
31.7696301778
 21
184.4853405507
 31
0.0
  0
ARC
  5
173
330
1F
100
AcDbEntity
  8
0
  6
Continuous
 62
     7
370
    15
100
AcDbCircle
 10
33.529419287
 20
184.2689582632
 30
0.0
 40
1.53550000000001
100
AcDbArc
 50
22.9901452219
 51
82.9901452219
  0
ARC
  5
174
330
1F
100
AcDbEntity
  8
0
  6
Continuous
 62
   144
370
     0
100
AcDbCircle
 10
33.529419287
 20
184.2689582632
 30
0.0
 40
1.53550000000001
100
AcDbArc
 50
322.9901452219
 51
22.9901452219
  0
ARC
  5
175
330
1F
100
AcDbEntity
  8
0
  6
Continuous
 62
   144
370
     0
100
AcDbCircle
 10
33.529419287
 20
184.2689582632
 30
0.0
 40
1.535500000000003
100
AcDbArc
 50
82.9901452219
 51
142.9901452219
  0
ARC
  5
176
330
1F
100
AcDbEntity
  8
0
  6
Continuous
 62
   144
370
     0
100
AcDbCircle
 10
33.529419287
 20
184.2689582632
 30
0.0
 40
1.535499999999993
100
AcDbArc
 50
142.9901452219
 51
202.9901452219
  0
ARC
  5
177
330
1F
100
AcDbEntity
  8
0
  6
Continuous
 62
   144
370
     0
100
AcDbCircle
 10
33.529419287
 20
184.2689582632
 30
0.0
 40
1.535499999999993
100
AcDbArc
 50
202.9901452219
 51
262.9901452219
  0
ARC
  5
178
330
1F
100
AcDbEntity
  8
0
  6
Continuous
 62
   144
370
     0
100
AcDbCircle
 10
33.529419287
 20
184.2689582632
 30
0.0
 40
1.535499999999999
100
AcDbArc
 50
262.9901452219
 51
322.9901452219
  0
ARC
  5
179
330
1F
100
AcDbEntity
  8
0
  6
Continuous
 62
     7
370
    15
100
AcDbCircle
 10
69.529419287
 20
184.2689582632
 30
0.0
 40
3.300000000000002
100
AcDbArc
 50
322.9901452219
 51
139.2509456225
  0
ARC
  5
17A
330
1F
100
AcDbEntity
  8
0
  6
Continuous
 62
     7
370
    15
100
AcDbCircle
 10
69.529419287
 20
184.2689582632
 30
0.0
 40
3.300000000000002
100
AcDbArc
 50
220.7490543775
 51
322.9901452219
  0
ARC
  5
17B
330
1F
100
AcDbEntity
  8
0
  6
Continuous
 62
     7
370
    15
100
AcDbCircle
 10
51.529419287
 20
192.7689582632
 30
0.0
 40
11.5
100
AcDbArc
 50
65.0020626767
 51
186.8114314622
  0
DIMENSION
  5
17C
330
1F
100
AcDbEntity
  8
0
  6
Continuous
 62
     7
370
     0
100
AcDbDimension
  2
_D
 10
85.4963516894
 20
225.9689582632
 30
0.0
 11
85.4963516894
 21
241.7976124659
 31
0.0
 70
   160
  1
(<>)
 71
     2
 42
-1.0
  3
SLDDIMSTYLE0
100
AcDbAlignedDimension
 13
56.5648492873
 23
257.9199582632
 33
0.0
 14
61.529419287
 24
225.9689582632
 34
0.0
 50
90.0
100
AcDbRotatedDimension
  0
DIMENSION
  5
189
330
1F
100
AcDbEntity
  8
0
  6
Continuous
 62
     7
370
     0
100
AcDbDimension
  2
_D_1
 10
85.4963516894
 20
173.7689582632
 30
0.0
 11
85.4963516894
 21
195.6555459518
 31
0.0
 70
   160
  1
<>
 71
     2
 42
-1.0
  3
SLDDIMSTYLE0
100
AcDbAlignedDimension
 13
61.529419287
 23
225.9689582632
 33
0.0
 14
72.529419287
 24
173.7689582632
 34
0.0
 50
90.0
100
AcDbRotatedDimension
  0
DIMENSION
  5
193
330
1F
100
AcDbEntity
  8
0
  6
Continuous
 62
     7
370
     0
100
AcDbDimension
  2
_D_2
 10
79.3224023466
 20
173.7689582632
 30
0.0
 11
79.3224023466
 21
193.9438853252
 31
0.0
 70
   160
  1
<>
 71
     2
 42
-1.0
  3
SLDDIMSTYLE1
100
AcDbAlignedDimension
 13
70.029419287
 23
214.7689582632
 33
0.0
 14
72.529419287
 24
173.7689582632
 34
0.0
 50
90.0
100
AcDbRotatedDimension
  0
DIMENSION
  5
19E
330
1F
100
AcDbEntity
  8
0
  6
Continuous
 62
     7
370
     0
100
AcDbDimension
  2
_D_3
 10
74.029419287
 20
166.8917421428
 30
0.0
 11
51.529419287
 21
166.8917421428
 31
0.0
 70
   160
  1
<>
 71
     2
 42
-1.0
  3
SLDDIMSTYLE1
100
AcDbAlignedDimension
 13
29.029419287
 23
174.2689582632
 33
0.0
 14
74.029419287
 24
174.2689582632
 34
0.0
100
AcDbRotatedDimension
  0
DIMENSION
  5
1A8
330
1F
100
AcDbEntity
  8
0
  6
Continuous
 62
     7
370
     0
100
AcDbDimension
  2
_D_4
 10
25.4985602245
 20
221.7689582632
 30
0.0
 11
25.4985602245
 21
197.7689582632
 31
0.0
 70
   160
  1
<>
 71
     2
 42
-1.0
  3
SLDDIMSTYLE0
100
AcDbAlignedDimension
 13
29.529419287
 23
173.7689582632
 33
0.0
 14
43.429419287
 24
221.7689582632
 34
0.0
 50
90.0
100
AcDbRotatedDimension
  0
DIMENSION
  5
1B2
330
1F
100
AcDbEntity
  8
0
  6
Continuous
 62
     7
370
     0
100
AcDbDimension
  2
_D_5
 10
46.4903275534
 20
268.7370448699
 30
0.0
 11
51.5273575536
 21
268.7372598699
 31
0.0
 70
   160
  1
<>
 71
     2
 42
-1.0
  3
SLDDIMSTYLE2
100
AcDbAlignedDimension
 13
56.5648492873
 23
257.9199582632
 33
0.0
 14
46.490789287
 24
257.9195282632
 34
0.0
 50
0.0024456061
100
AcDbRotatedDimension
  0
DIMENSION
  5
1BF
330
1F
100
AcDbEntity
  8
0
  6
Continuous
 62
     7
370
     0
100
AcDbDimension
  2
_D_6
 10
63.0958635911
 20
275.8583006091
 30
0.0
 11
51.5275291634
 21
275.8584910092
 31
0.0
 70
   160
  1
(<>)
 71
     2
 42
-1.0
  3
SLDDIMSTYLE3
100
AcDbAlignedDimension
 13
39.9615760136
 23
243.2105634714
 33
0.0
 14
63.0953262445
 24
243.2101827192
 34
0.0
 50
-0.0009430158
100
AcDbRotatedDimension
  0
INSERT
  5
1D7
330
1F
100
AcDbEntity
  8
0
  6
Continuous
 62
     7
370
     0
100
AcDbBlockReference
  2
SW_CENTERMARKSYMBOL_0
 10
33.529419287
 20
210.2689582632
 30
0.0
  0
INSERT
  5
1E3
330
1F
100
AcDbEntity
  8
0
  6
Continuous
 62
     7
370
     0
100
AcDbBlockReference
  2
SW_CENTERMARKSYMBOL_1
 10
51.4971946633
 20
208.7689258124
 30
0.0
  0
INSERT
  5
1EF
330
1F
100
AcDbEntity
  8
0
  6
Continuous
 62
     7
370
     0
100
AcDbBlockReference
  2
SW_CENTERMARKSYMBOL_2
 10
69.529419287
 20
210.2689582632
 30
0.0
  0
INSERT
  5
1FB
330
1F
100
AcDbEntity
  8
0
  6
Continuous
 62
     7
370
     0
100
AcDbBlockReference
  2
SW_CENTERMARKSYMBOL_3
 10
51.529419287
 20
192.7689582632
 30
0.0
  0
INSERT
  5
207
330
1F
100
AcDbEntity
  8
0
  6
Continuous
 62
     7
370
     0
100
AcDbBlockReference
  2
SW_CENTERMARKSYMBOL_4
 10
60.429419287
 20
192.7689582632
 30
0.0
  0
INSERT
  5
213
330
1F
100
AcDbEntity
  8
0
  6
Continuous
 62
     7
370
     0
100
AcDbBlockReference
  2
SW_CENTERMARKSYMBOL_5
 10
33.529419287
 20
184.2689582632
 30
0.0
  0
INSERT
  5
21F
330
1F
100
AcDbEntity
  8
0
  6
Continuous
 62
     7
370
     0
100
AcDbBlockReference
  2
SW_CENTERMARKSYMBOL_6
 10
69.529419287
 20
184.2689582632
 30
0.0
  0
INSERT
  5
22B
330
1F
100
AcDbEntity
  8
0
  6
Continuous
 62
     7
370
     0
100
AcDbBlockReference
  2
SW_CENTERMARKSYMBOL_7
 10
51.529419287
 20
221.7689582632
 30
0.0
  0
LINE
  5
22C
330
1F
100
AcDbEntity
  8
0
  6
Continuous
 62
     7
370
    15
100
AcDbLine
 10
100.8918755837
 20
188.7689582632
 30
0.0
 11
113.0918755837
 21
188.7689582632
 31
0.0
  0
LINE
  5
22D
330
1F
100
AcDbEntity
  8
0
  6
Continuous
 62
     7
370
    15
100
AcDbLine
 10
113.0918755837
 20
196.7689582632
 30
0.0
 11
100.8918755837
 21
196.7689582632
 31
0.0
  0
LINE
  5
22E
330
1F
100
AcDbEntity
  8
0
  6
Continuous
 62
     7
370
    15
100
AcDbLine
 10
121.8918755837
 20
204.7689258124
 30
0.0
 11
134.0918755837
 21
204.7689258124
 31
0.0
  0
LINE
  5
22F
330
1F
100
AcDbEntity
  8
0
  6
Continuous
 62
     7
370
    15
100
AcDbLine
 10
134.0918755837
 20
212.7689258124
 30
0.0
 11
121.8918755837
 21
212.7689258124
 31
0.0
  0
LINE
  5
230
330
1F
100
AcDbEntity
  8
0
  6
Continuous
 62
     7
370
    15
100
AcDbLine
 10
160.3918755837
 20
178.9689582632
 30
0.0
 11
160.5918755837
 21
178.7689582632
 31
0.0
  0
LINE
  5
231
330
1F
100
AcDbEntity
  8
0
  6
Continuous
 62
     7
370
    15
100
AcDbLine
 10
176.1918755837
 20
178.7689582632
 30
0.0
 11
176.3918755837
 21
178.9689582632
 31
0.0
  0
LINE
  5
232
330
1F
100
AcDbEntity
  8
0
  6
Continuous
 62
     7
370
    15
100
AcDbLine
 10
160.3918755837
 20
179.5689582632
 30
0.0
 11
160.3918755837
 21
178.9689582632
 31
0.0
  0
LINE
  5
233
330
1F
100
AcDbEntity
  8
0
  6
Continuous
 62
     7
370
    15
100
AcDbLine
 10
176.3918755837
 20
178.9689582632
 30
0.0
 11
176.3918755837
 21
179.5689582632
 31
0.0
  0
LINE
  5
234
330
1F
100
AcDbEntity
  8
0
  6
Continuous
 62
     7
370
    15
100
AcDbLine
 10
176.3918755837
 20
179.5689582632
 30
0.0
 11
176.1918755837
 21
179.7689582632
 31
0.0
  0
LINE
  5
235
330
1F
100
AcDbEntity
  8
0
  6
Continuous
 62
     7
370
    15
100
AcDbLine
 10
160.5918755837
 20
179.7689582632
 30
0.0
 11
160.3918755837
 21
179.5689582632
 31
0.0
  0
LINE
  5
236
330
1F
100
AcDbEntity
  8
0
  6
Continuous
 62
     7
370
    15
100
AcDbLine
 10
164.3918755837
 20
178.7689582632
 30
0.0
 11
164.3918755837
 21
178.2689582632
 31
0.0
  0
LINE
  5
237
330
1F
100
AcDbEntity
  8
0
  6
Continuous
 62
     7
370
    15
100
AcDbLine
 10
172.3918755837
 20
176.2689582632
 30
0.0
 11
172.3918755837
 21
178.7689582632
 31
0.0
  0
LINE
  5
238
330
1F
100
AcDbEntity
  8
0
  6
Continuous
 62
     7
370
    15
100
AcDbLine
 10
172.1918755837
 20
176.0689582632
 30
0.0
 11
172.3918755837
 21
176.2689582632
 31
0.0
  0
LINE
  5
239
330
1F
100
AcDbEntity
  8
0
  6
Continuous
 62
     7
370
    15
100
AcDbLine
 10
166.3918755837
 20
175.7689582632
 30
0.0
 11
166.3918755837
 21
175.4689582632
 31
0.0
  0
LINE
  5
23A
330
1F
100
AcDbEntity
  8
0
  6
Continuous
 62
     7
370
    15
100
AcDbLine
 10
166.3918755837
 20
174.2689582632
 30
0.0
 11
166.3918755837
 21
174.1689582632
 31
0.0
  0
LINE
  5
23B
330
1F
100
AcDbEntity
  8
0
  6
Continuous
 62
     7
370
    15
100
AcDbLine
 10
170.3918755837
 20
174.1689582632
 30
0.0
 11
170.3918755837
 21
174.2689582632
 31
0.0
  0
LINE
  5
23C
330
1F
100
AcDbEntity
  8
0
  6
Continuous
 62
     7
370
    15
100
AcDbLine
 10
170.3918755837
 20
175.4689582632
 30
0.0
 11
170.3918755837
 21
175.7689582632
 31
0.0
  0
LINE
  5
23D
330
1F
100
AcDbEntity
  8
0
  6
Continuous
 62
     7
370
    15
100
AcDbLine
 10
118.0418755837
 20
190.7689582632
 30
0.0
 11
118.7918755837
 21
191.5189582632
 31
0.0
  0
LINE
  5
23E
330
1F
100
AcDbEntity
  8
0
  6
Continuous
 62
     7
370
    15
100
AcDbLine
 10
118.7918755837
 20
194.0189582632
 30
0.0
 11
118.0418755837
 21
194.7689582632
 31
0.0
  0
LINE
  5
23F
330
1F
100
AcDbEntity
  8
0
  6
Continuous
 62
     7
370
    15
100
AcDbLine
 10
109.0170421887
 20
190.7689582632
 30
0.0
 11
109.8918755837
 21
190.7689582632
 31
0.0
  0
LINE
  5
240
330
1F
100
AcDbEntity
  8
0
  6
Continuous
 62
     7
370
    15
100
AcDbLine
 10
115.5918755837
 20
190.7689582632
 30
0.0
 11
118.0418755837
 21
190.7689582632
 31
0.0
  0
LINE
  5
241
330
1F
100
AcDbEntity
  8
0
  6
Continuous
 62
     7
370
    15
100
AcDbLine
 10
118.0418755837
 20
194.7689582632
 30
0.0
 11
115.5918755837
 21
194.7689582632
 31
0.0
  0
LINE
  5
242
330
1F
100
AcDbEntity
  8
0
  6
Continuous
 62
     7
370
    15
100
AcDbLine
 10
109.8918755837
 20
194.7689582632
 30
0.0
 11
109.0170421887
 21
194.7689582632
 31
0.0
  0
LINE
  5
243
330
1F
100
AcDbEntity
  8
0
  6
Continuous
 62
     7
370
    15
100
AcDbLine
 10
109.0170421887
 20
194.7689582632
 30
0.0
 11
108.7918755837
 21
194.3789582632
 31
0.0
  0
LINE
  5
244
330
1F
100
AcDbEntity
  8
0
  6
Continuous
 62
     7
370
    15
100
AcDbLine
 10
108.7918755837
 20
191.1589582632
 30
0.0
 11
109.0170421887
 21
190.7689582632
 31
0.0
  0
LINE
  5
245
330
1F
100
AcDbEntity
  8
0
  6
Continuous
 62
     7
370
    15
100
AcDbLine
 10
134.2918755837
 20
180.7689582632
 30
0.0
 11
138.0918755837
 21
180.7689582632
 31
0.0
  0
LINE
  5
246
330
1F
100
AcDbEntity
  8
0
  6
Continuous
 62
     7
370
    15
100
AcDbLine
 10
138.0918755837
 20
187.7689582632
 30
0.0
 11
134.2918755837
 21
187.7689582632
 31
0.0
  0
ARC
  5
247
330
1F
100
AcDbEntity
  8
0
  6
Continuous
 62
     7
370
    15
100
AcDbCircle
 10
134.2918755837
 20
180.9689582632
 30
0.0
 40
0.2000000000000171
100
AcDbArc
 50
180.0
 51
270.0
  0
ARC
  5
248
330
1F
100
AcDbEntity
  8
0
  6
Continuous
 62
     7
370
    15
100
AcDbCircle
 10
134.2918755837
 20
187.5689582632
 30
0.0
 40
0.1999999999999886
100
AcDbArc
 50
90.0
 51
180.0
  0
LINE
  5
249
330
1F
100
AcDbEntity
  8
0
  6
Continuous
 62
     7
370
    15
100
AcDbLine
 10
134.0918755837
 20
188.9998579965
 30
0.0
 11
138.0918755837
 21
188.9998579965
 31
0.0
  0
LINE
  5
24A
330
1F
100
AcDbEntity
  8
0
  6
Continuous
 62
     7
370
    15
100
AcDbLine
 10
138.0918755837
 20
205.5380585299
 30
0.0
 11
134.0918755837
 21
205.5380585299
 31
0.0
  0
ARC
  5
24B
330
1F
100
AcDbEntity
  8
0
  6
Continuous
 62
     7
370
    15
100
AcDbCircle
 10
133.0918755837
 20
181.2689582632
 30
0.0
 40
1.0
100
AcDbArc
 50
0.0
 51
90.0
  0
ARC
  5
24C
330
1F
100
AcDbEntity
  8
0
  6
Continuous
 62
     7
370
    15
100
AcDbCircle
 10
133.0918755837
 20
204.2689582632
 30
0.0
 40
1.0
100
AcDbArc
 50
270.0
 51
0.0
  0
LINE
  5
24D
330
1F
100
AcDbEntity
  8
0
  6
Continuous
 62
     7
370
    15
100
AcDbLine
 10
133.0918755837
 20
203.2689582632
 30
0.0
 11
119.5918755837
 21
203.2689582632
 31
0.0
  0
LINE
  5
24E
330
1F
100
AcDbEntity
  8
0
  6
Continuous
 62
     7
370
    15
100
AcDbLine
 10
119.5918755837
 20
182.2689582632
 30
0.0
 11
133.0918755837
 21
182.2689582632
 31
0.0
  0
ARC
  5
24F
330
1F
100
AcDbEntity
  8
0
  6
Continuous
 62
     7
370
    15
100
AcDbCircle
 10
180.1418755837
 20
180.7189582632
 30
0.0
 40
0.2500000000011937
100
AcDbArc
 50
269.9999999994
 51
0.0
  0
ARC
  5
250
330
1F
100
AcDbEntity
  8
0
  6
Continuous
 62
     7
370
    15
100
AcDbCircle
 10
180.1418755837
 20
187.8189582632
 30
0.0
 40
0.2499999999999432
100
AcDbArc
 50
0.0
 51
90.0000000006
  0
LINE
  5
251
330
1F
100
AcDbEntity
  8
0
  6
Continuous
 62
     7
370
    15
100
AcDbLine
 10
179.6418755837
 20
180.4689582632
 30
0.0
 11
180.1418755837
 21
180.4689582632
 31
0.0
  0
LINE
  5
252
330
1F
100
AcDbEntity
  8
0
  6
Continuous
 62
     7
370
    15
100
AcDbLine
 10
180.1418755837
 20
188.0689582632
 30
0.0
 11
179.6418755837
 21
188.0689582632
 31
0.0
  0
ARC
  5
253
330
1F
100
AcDbEntity
  8
0
  6
Continuous
 62
     7
370
    15
100
AcDbCircle
 10
180.1418755837
 20
206.7189582632
 30
0.0
 40
0.2500000000014495
100
AcDbArc
 50
269.9999999994
 51
0.0
  0
ARC
  5
254
330
1F
100
AcDbEntity
  8
0
  6
Continuous
 62
     7
370
    15
100
AcDbCircle
 10
180.1418755837
 20
213.8189582632
 30
0.0
 40
0.2500000000001421
100
AcDbArc
 50
0.0
 51
90.0000000006
  0
LINE
  5
255
330
1F
100
AcDbEntity
  8
0
  6
Continuous
 62
     7
370
    15
100
AcDbLine
 10
179.6418755837
 20
206.4689582632
 30
0.0
 11
180.1418755837
 21
206.4689582632
 31
0.0
  0
LINE
  5
256
330
1F
100
AcDbEntity
  8
0
  6
Continuous
 62
     7
370
    15
100
AcDbLine
 10
180.1418755837
 20
214.0689582632
 30
0.0
 11
179.6418755837
 21
214.0689582632
 31
0.0
  0
ARC
  5
257
330
1F
100
AcDbEntity
  8
0
  6
Continuous
 62
     7
370
    15
100
AcDbCircle
 10
179.6418755837
 20
180.7189582632
 30
0.0
 40
0.2499999999984368
100
AcDbArc
 50
180.0
 51
269.9999999998
  0
ARC
  5
258
330
1F
100
AcDbEntity
  8
0
  6
Continuous
 62
     7
370
    15
100
AcDbCircle
 10
179.6418755837
 20
187.8189582632
 30
0.0
 40
0.2499999999984368
100
AcDbArc
 50
90.0000000002
 51
180.0
  0
ARC
  5
259
330
1F
100
AcDbEntity
  8
0
  6
Continuous
 62
     7
370
    15
100
AcDbCircle
 10
179.6418755837
 20
206.7189582632
 30
0.0
 40
0.2499999999986926
100
AcDbArc
 50
180.0
 51
269.9999999997
  0
ARC
  5
25A
330
1F
100
AcDbEntity
  8
0
  6
Continuous
 62
     7
370
    15
100
AcDbCircle
 10
179.6418755837
 20
213.8189582632
 30
0.0
 40
0.2499999999986926
100
AcDbArc
 50
90.0000000003
 51
180.0
  0
LINE
  5
25B
330
1F
100
AcDbEntity
  8
0
  6
Continuous
 62
     7
370
    15
100
AcDbLine
 10
184.0918755837
 20
213.7689582632
 30
0.0
 11
180.3855404118
 21
213.7689582632
 31
0.0
  0
LINE
  5
25C
330
1F
100
AcDbEntity
  8
0
  6
Continuous
 62
     7
370
    15
100
AcDbLine
 10
180.3855404118
 20
206.7689582632
 30
0.0
 11
184.0918755837
 21
206.7689582632
 31
0.0
  0
LINE
  5
25D
330
1F
100
AcDbEntity
  8
0
  6
Continuous
 62
     7
370
    15
100
AcDbLine
 10
184.0918755837
 20
187.7689582632
 30
0.0
 11
180.3855404119
 21
187.7689582632
 31
0.0
  0
LINE
  5
25E
330
1F
100
AcDbEntity
  8
0
  6
Continuous
 62
     7
370
    15
100
AcDbLine
 10
180.3855404119
 20
180.7689582632
 30
0.0
 11
184.0918755837
 21
180.7689582632
 31
0.0
  0
LINE
  5
25F
330
1F
100
AcDbEntity
  8
0
  6
Continuous
 62
     7
370
    15
100
AcDbLine
 10
184.0918755837
 20
180.7689582632
 30
0.0
 11
184.3968765836
 21
181.2772932631
 31
0.0
  0
LINE
  5
260
330
1F
100
AcDbEntity
  8
0
  6
Continuous
 62
     7
370
    15
100
AcDbLine
 10
184.3968765836
 20
187.2606232634
 30
0.0
 11
184.0918755837
 21
187.7689582632
 31
0.0
  0
LINE
  5
261
330
1F
100
AcDbEntity
  8
0
  6
Continuous
 62
     7
370
    15
100
AcDbLine
 10
184.0918755837
 20
206.7689582632
 30
0.0
 11
184.3968765836
 21
207.2772932631
 31
0.0
  0
LINE
  5
262
330
1F
100
AcDbEntity
  8
0
  6
Continuous
 62
     7
370
    15
100
AcDbLine
 10
184.3968765836
 20
213.2606232634
 30
0.0
 11
184.0918755837
 21
213.7689582632
 31
0.0
  0
LINE
  5
263
330
1F
100
AcDbEntity
  8
0
  6
Continuous
 62
     7
370
    15
100
AcDbLine
 10
134.2918755837
 20
206.7689582632
 30
0.0
 11
138.0918755837
 21
206.7689582632
 31
0.0
  0
LINE
  5
264
330
1F
100
AcDbEntity
  8
0
  6
Continuous
 62
     7
370
    15
100
AcDbLine
 10
138.0918755837
 20
213.7689582632
 30
0.0
 11
134.2918755837
 21
213.7689582632
 31
0.0
  0
ARC
  5
265
330
1F
100
AcDbEntity
  8
0
  6
Continuous
 62
     7
370
    15
100
AcDbCircle
 10
134.2918755837
 20
206.9689582632
 30
0.0
 40
0.2000000000000171
100
AcDbArc
 50
180.0
 51
270.0
  0
ARC
  5
266
330
1F
100
AcDbEntity
  8
0
  6
Continuous
 62
     7
370
    15
100
AcDbCircle
 10
134.2918755837
 20
213.5689582632
 30
0.0
 40
0.1999999999999886
100
AcDbArc
 50
90.0
 51
180.0
  0
LINE
  5
267
330
1F
100
AcDbEntity
  8
0
  6
Continuous
 62
     7
370
    15
100
AcDbLine
 10
98.4918755837
 20
188.9189582632
 30
0.0
 11
99.9918755837
 21
188.9189582632
 31
0.0
  0
LINE
  5
268
330
1F
100
AcDbEntity
  8
0
  6
Continuous
 62
     7
370
    15
100
AcDbLine
 10
99.9918755837
 20
196.6189582632
 30
0.0
 11
98.4918755837
 21
196.6189582632
 31
0.0
  0
LINE
  5
269
330
1F
100
AcDbEntity
  8
0
  6
Continuous
 62
     7
370
    15
100
AcDbLine
 10
100.8918755837
 20
194.8189582632
 30
0.0
 11
99.9918755837
 21
194.8189582632
 31
0.0
  0
LINE
  5
26A
330
1F
100
AcDbEntity
  8
0
  6
Continuous
 62
     7
370
    15
100
AcDbLine
 10
99.9918755837
 20
190.7189582632
 30
0.0
 11
100.8918755837
 21
190.7189582632
 31
0.0
  0
LINE
  5
26B
330
1F
100
AcDbEntity
  8
0
  6
Continuous
 62
     7
370
    15
100
AcDbLine
 10
119.4918755837
 20
204.9189258124
 30
0.0
 11
120.9918755837
 21
204.9189258124
 31
0.0
  0
LINE
  5
26C
330
1F
100
AcDbEntity
  8
0
  6
Continuous
 62
     7
370
    15
100
AcDbLine
 10
120.9918755837
 20
212.6189258124
 30
0.0
 11
119.4918755837
 21
212.6189258124
 31
0.0
  0
LINE
  5
26D
330
1F
100
AcDbEntity
  8
0
  6
Continuous
 62
     7
370
    15
100
AcDbLine
 10
121.8918755837
 20
210.8189258124
 30
0.0
 11
120.9918755837
 21
210.8189258124
 31
0.0
  0
LINE
  5
26E
330
1F
100
AcDbEntity
  8
0
  6
Continuous
 62
     7
370
    15
100
AcDbLine
 10
120.9918755837
 20
206.7189258124
 30
0.0
 11
121.8918755837
 21
206.7189258124
 31
0.0
  0
LINE
  5
26F
330
1F
100
AcDbEntity
  8
0
  6
Continuous
 62
     7
370
    15
100
AcDbLine
 10
119.5918755837
 20
194.7689582632
 30
0.0
 11
118.7918755837
 21
194.7689582632
 31
0.0
  0
LINE
  5
270
330
1F
100
AcDbEntity
  8
0
  6
Continuous
 62
     7
370
    15
100
AcDbLine
 10
118.7918755837
 20
190.7689582632
 30
0.0
 11
119.5918755837
 21
190.7689582632
 31
0.0
  0
LINE
  5
271
330
1F
100
AcDbEntity
  8
0
  6
Continuous
 62
     7
370
    15
100
AcDbLine
 10
100.8918755837
 20
189.0019387778
 30
0.0
 11
100.8918755837
 21
196.7689582632
 31
0.0
  0
LINE
  5
272
330
1F
100
AcDbEntity
  8
0
  6
Continuous
 62
     7
370
    15
100
AcDbLine
 10
100.8918755837
 20
188.7689582632
 30
0.0
 11
100.8918755837
 21
189.0019387778
 31
0.0
  0
LINE
  5
273
330
1F
100
AcDbEntity
  8
0
  6
Continuous
 62
     7
370
    15
100
AcDbLine
 10
121.8918755837
 20
207.2367297801
 30
0.0
 11
121.8918755837
 21
212.7689258124
 31
0.0
  0
LINE
  5
274
330
1F
100
AcDbEntity
  8
0
  6
Continuous
 62
     7
370
    15
100
AcDbLine
 10
121.8918755837
 20
204.7689258124
 30
0.0
 11
121.8918755837
 21
207.2367297801
 31
0.0
  0
LINE
  5
275
330
1F
100
AcDbEntity
  8
0
  6
Continuous
 62
     7
370
    15
100
AcDbLine
 10
160.6913813005
 20
178.7689582632
 30
0.0
 11
160.5918755837
 21
178.7689582632
 31
0.0
  0
LINE
  5
276
330
1F
100
AcDbEntity
  8
0
  6
Continuous
 62
     7
370
    15
100
AcDbLine
 10
176.1918755837
 20
178.7689582632
 30
0.0
 11
160.6913813005
 21
178.7689582632
 31
0.0
  0
LINE
  5
277
330
1F
100
AcDbEntity
  8
0
  6
Continuous
 62
     7
370
    15
100
AcDbLine
 10
160.4939327291
 20
178.9689582632
 30
0.0
 11
176.3918755837
 21
178.9689582632
 31
0.0
  0
LINE
  5
278
330
1F
100
AcDbEntity
  8
0
  6
Continuous
 62
     7
370
    15
100
AcDbLine
 10
160.3918755837
 20
178.9689582632
 30
0.0
 11
160.4939327291
 21
178.9689582632
 31
0.0
  0
LINE
  5
279
330
1F
100
AcDbEntity
  8
0
  6
Continuous
 62
     7
370
    15
100
AcDbLine
 10
160.4939327291
 20
179.5689582632
 30
0.0
 11
160.3918755837
 21
179.5689582632
 31
0.0
  0
LINE
  5
27A
330
1F
100
AcDbEntity
  8
0
  6
Continuous
 62
     7
370
    15
100
AcDbLine
 10
176.3918755837
 20
179.5689582632
 30
0.0
 11
160.4939327291
 21
179.5689582632
 31
0.0
  0
LINE
  5
27B
330
1F
100
AcDbEntity
  8
0
  6
Continuous
 62
     7
370
    15
100
AcDbLine
 10
172.0918755837
 20
176.2689582632
 30
0.0
 11
172.3918755837
 21
176.2689582632
 31
0.0
  0
LINE
  5
27C
330
1F
100
AcDbEntity
  8
0
  6
Continuous
 62
     7
370
    15
100
AcDbLine
 10
172.1918755837
 20
176.0689582632
 30
0.0
 11
172.0918755837
 21
176.0689582632
 31
0.0
  0
LINE
  5
27D
330
1F
100
AcDbEntity
  8
0
  6
Continuous
 62
     7
370
    15
100
AcDbLine
 10
166.4173898701
 20
174.1689582632
 30
0.0
 11
166.3918755837
 21
174.1689582632
 31
0.0
  0
LINE
  5
27E
330
1F
100
AcDbEntity
  8
0
  6
Continuous
 62
     7
370
    15
100
AcDbLine
 10
170.3918755837
 20
174.1689582632
 30
0.0
 11
166.4173898701
 21
174.1689582632
 31
0.0
  0
LINE
  5
27F
330
1F
100
AcDbEntity
  8
0
  6
Continuous
 62
   144
370
     0
100
AcDbLine
 10
143.5918755837
 20
210.2689582632
 30
0.0
 11
143.0918755837
 21
210.2689582632
 31
0.0
  0
LINE
  5
280
330
1F
100
AcDbEntity
  8
0
  6
Continuous
 62
   144
370
     0
100
AcDbLine
 10
143.5918755837
 20
214.2689582632
 30
0.0
 11
143.0918755837
 21
214.2689582632
 31
0.0
  0
ARC
  5
281
330
1F
100
AcDbEntity
  8
0
  6
Continuous
 62
     7
370
    15
100
AcDbCircle
 10
175.5918755837
 20
176.4689582632
 30
0.0
 40
1.0
100
AcDbArc
 50
270.0
 51
0.0
  0
LINE
  5
282
330
1F
100
AcDbEntity
  8
0
  6
Continuous
 62
     7
370
    15
100
AcDbLine
 10
176.5918755837
 20
176.4689582632
 30
0.0
 11
177.7918755837
 21
176.4689582632
 31
0.0
  0
ARC
  5
283
330
1F
100
AcDbEntity
  8
0
  6
Continuous
 62
     7
370
    15
100
AcDbCircle
 10
175.5918755837
 20
176.4689582632
 30
0.0
 40
2.200000000000017
100
AcDbArc
 50
270.0
 51
0.0
  0
LINE
  5
284
330
1F
100
AcDbEntity
  8
0
  6
Continuous
 62
     7
370
    15
100
AcDbLine
 10
175.5918755837
 20
174.2689582632
 30
0.0
 11
175.5918755837
 21
175.4689582632
 31
0.0
  0
LINE
  5
285
330
1F
100
AcDbEntity
  8
0
  6
Continuous
 62
     7
370
    15
100
AcDbLine
 10
177.7918755837
 20
210.7689582632
 30
0.0
 11
177.7918755837
 21
176.4689582632
 31
0.0
  0
LINE
  5
286
330
1F
100
AcDbEntity
  8
0
  6
Continuous
 62
     7
370
    15
100
AcDbLine
 10
177.7918755837
 20
214.7689582632
 30
0.0
 11
177.7918755837
 21
210.7689582632
 31
0.0
  0
LINE
  5
287
330
1F
100
AcDbEntity
  8
0
  6
Continuous
 62
     7
370
    15
100
AcDbLine
 10
177.7918755837
 20
210.7689582632
 30
0.0
 11
176.5918755837
 21
210.7689582632
 31
0.0
  0
LINE
  5
288
330
1F
100
AcDbEntity
  8
0
  6
Continuous
 62
     7
370
    15
100
AcDbLine
 10
176.5918755837
 20
210.7689582632
 30
0.0
 11
176.5918755837
 21
214.7689582632
 31
0.0
  0
LINE
  5
289
330
1F
100
AcDbEntity
  8
0
  6
Continuous
 62
     7
370
    15
100
AcDbLine
 10
176.5918755837
 20
214.7689582632
 30
0.0
 11
177.7918755837
 21
214.7689582632
 31
0.0
  0
LINE
  5
28A
330
1F
100
AcDbEntity
  8
0
  6
Continuous
 62
     7
370
    15
100
AcDbLine
 10
176.5918755837
 20
210.7689582632
 30
0.0
 11
176.5918755837
 21
176.4689582632
 31
0.0
  0
LINE
  5
28B
330
1F
100
AcDbEntity
  8
0
  6
Continuous
 62
     7
370
    15
100
AcDbLine
 10
175.5918755837
 20
174.2689582632
 30
0.0
 11
165.5918755837
 21
174.2689582632
 31
0.0
  0
LINE
  5
28C
330
1F
100
AcDbEntity
  8
0
  6
Continuous
 62
     7
370
    15
100
AcDbLine
 10
165.5918755837
 20
175.4689582632
 30
0.0
 11
165.5918755837
 21
174.2689582632
 31
0.0
  0
LINE
  5
28D
330
1F
100
AcDbEntity
  8
0
  6
Continuous
 62
     7
370
    15
100
AcDbLine
 10
175.5918755837
 20
175.4689582632
 30
0.0
 11
165.5918755837
 21
175.4689582632
 31
0.0
  0
LINE
  5
28E
330
1F
100
AcDbEntity
  8
0
  6
Continuous
 62
     7
370
    15
100
AcDbLine
 10
165.5918755837
 20
174.2689582632
 30
0.0
 11
164.5918755837
 21
174.2689582632
 31
0.0
  0
LINE
  5
28F
330
1F
100
AcDbEntity
  8
0
  6
Continuous
 62
     7
370
    15
100
AcDbLine
 10
164.5918755837
 20
175.4689582632
 30
0.0
 11
165.5918755837
 21
175.4689582632
 31
0.0
  0
LINE
  5
290
330
1F
100
AcDbEntity
  8
0
  6
Continuous
 62
     7
370
    15
100
AcDbLine
 10
164.5918755837
 20
174.2689582632
 30
0.0
 11
164.5918755837
 21
175.4689582632
 31
0.0
  0
LINE
  5
291
330
1F
100
AcDbEntity
  8
0
  6
Continuous
 62
     7
370
    15
100
AcDbLine
 10
118.0418755837
 20
190.7689582632
 30
0.0
 11
118.0418755837
 21
194.7689582632
 31
0.0
  0
LINE
  5
292
330
1F
100
AcDbEntity
  8
0
  6
Continuous
 62
     7
370
    15
100
AcDbLine
 10
109.0170421887
 20
190.7689582632
 30
0.0
 11
109.0170421887
 21
194.7689582632
 31
0.0
  0
LINE
  5
293
330
1F
100
AcDbEntity
  8
0
  6
Continuous
 62
     7
370
    15
100
AcDbLine
 10
108.7918755837
 20
191.1589582632
 30
0.0
 11
108.7918755837
 21
194.3789582632
 31
0.0
  0
LINE
  5
294
330
1F
100
AcDbEntity
  8
0
  6
Continuous
 62
     7
370
    15
100
AcDbLine
 10
171.0918755837
 20
178.2689582632
 30
0.0
 11
172.0918755837
 21
178.2689582632
 31
0.0
  0
LINE
  5
295
330
1F
100
AcDbEntity
  8
0
  6
Continuous
 62
     7
370
    15
100
AcDbLine
 10
130.2918755837
 20
178.2689582632
 30
0.0
 11
171.0918755837
 21
178.2689582632
 31
0.0
  0
LINE
  5
296
330
1F
100
AcDbEntity
  8
0
  6
Continuous
 62
     7
370
    15
100
AcDbLine
 10
116.5918755837
 20
178.2689582632
 30
0.0
 11
130.2918755837
 21
178.2689582632
 31
0.0
  0
LINE
  5
297
330
1F
100
AcDbEntity
  8
0
  6
Continuous
 62
     7
370
    15
100
AcDbLine
 10
115.5918755837
 20
175.7689582632
 30
0.0
 11
130.2918755837
 21
175.7689582632
 31
0.0
  0
LINE
  5
298
330
1F
100
AcDbEntity
  8
0
  6
Continuous
 62
     7
370
    15
100
AcDbLine
 10
130.2918755837
 20
175.7689582632
 30
0.0
 11
171.0918755837
 21
175.7689582632
 31
0.0
  0
LINE
  5
299
330
1F
100
AcDbEntity
  8
0
  6
Continuous
 62
     7
370
    15
100
AcDbLine
 10
172.0918755837
 20
175.7689582632
 30
0.0
 11
171.0918755837
 21
175.7689582632
 31
0.0
  0
LINE
  5
29A
330
1F
100
AcDbEntity
  8
0
  6
Continuous
 62
     7
370
    15
100
AcDbLine
 10
130.2918755837
 20
178.2689582632
 30
0.0
 11
130.2918755837
 21
175.7689582632
 31
0.0
  0
LINE
  5
29B
330
1F
100
AcDbEntity
  8
0
  6
Continuous
 62
     7
370
    15
100
AcDbLine
 10
171.0918755837
 20
175.7689582632
 30
0.0
 11
171.0918755837
 21
178.2689582632
 31
0.0
  0
LINE
  5
29C
330
1F
100
AcDbEntity
  8
0
  6
Continuous
 62
     7
370
    15
100
AcDbLine
 10
172.0918755837
 20
178.2689582632
 30
0.0
 11
172.0918755837
 21
175.7689582632
 31
0.0
  0
LINE
  5
29D
330
1F
100
AcDbEntity
  8
0
  6
Continuous
 62
     7
370
    15
100
AcDbLine
 10
115.5918755837
 20
179.2689582632
 30
0.0
 11
115.5918755837
 21
175.7689582632
 31
0.0
  0
ARC
  5
29E
330
1F
100
AcDbEntity
  8
0
  6
Continuous
 62
     7
370
    15
100
AcDbCircle
 10
116.5918755837
 20
179.2689582632
 30
0.0
 40
1.0
100
AcDbArc
 50
180.0
 51
270.0
  0
LINE
  5
29F
330
1F
100
AcDbEntity
  8
0
  6
Continuous
 62
     7
370
    15
100
AcDbLine
 10
158.5918755837
 20
173.7689582632
 30
0.0
 11
158.5918755837
 21
175.7689582632
 31
0.0
  0
LINE
  5
2A0
330
1F
100
AcDbEntity
  8
0
  6
Continuous
 62
     7
370
    15
100
AcDbLine
 10
159.5918755837
 20
175.7689582632
 30
0.0
 11
159.5918755837
 21
173.7689582632
 31
0.0
  0
LINE
  5
2A1
330
1F
100
AcDbEntity
  8
0
  6
Continuous
 62
     7
370
    15
100
AcDbLine
 10
159.5918755837
 20
173.7689582632
 30
0.0
 11
158.5918755837
 21
173.7689582632
 31
0.0
  0
LINE
  5
2A2
330
1F
100
AcDbEntity
  8
0
  6
Continuous
 62
     7
370
    15
100
AcDbLine
 10
130.5918755837
 20
173.7689582632
 30
0.0
 11
129.5918755837
 21
173.7689582632
 31
0.0
  0
LINE
  5
2A3
330
1F
100
AcDbEntity
  8
0
  6
Continuous
 62
     7
370
    15
100
AcDbLine
 10
158.5918755837
 20
173.7689582632
 30
0.0
 11
130.5918755837
 21
173.7689582632
 31
0.0
  0
LINE
  5
2A4
330
1F
100
AcDbEntity
  8
0
  6
Continuous
 62
     7
370
    15
100
AcDbLine
 10
130.5918755837
 20
175.7689582632
 30
0.0
 11
130.5918755837
 21
173.7689582632
 31
0.0
  0
LINE
  5
2A5
330
1F
100
AcDbEntity
  8
0
  6
Continuous
 62
     7
370
    15
100
AcDbLine
 10
129.5918755837
 20
173.7689582632
 30
0.0
 11
129.5918755837
 21
175.7689582632
 31
0.0
  0
LINE
  5
2A6
330
1F
100
AcDbEntity
  8
0
  6
Continuous
 62
     7
370
    15
100
AcDbLine
 10
115.5918755837
 20
203.2689582632
 30
0.0
 11
115.5918755837
 21
191.2689582632
 31
0.0
  0
LINE
  5
2A7
330
1F
100
AcDbEntity
  8
0
  6
Continuous
 62
     7
370
    15
100
AcDbLine
 10
115.5918755837
 20
191.2689582632
 30
0.0
 11
115.5918755837
 21
179.2689582632
 31
0.0
  0
ARC
  5
2A8
330
1F
100
AcDbEntity
  8
0
  6
Continuous
 62
     7
370
    15
100
AcDbCircle
 10
115.5918755837
 20
178.2689582632
 30
0.0
 40
2.5
100
AcDbArc
 50
180.0
 51
270.0
  0
LINE
  5
2A9
330
1F
100
AcDbEntity
  8
0
  6
Continuous
 62
     7
370
    15
100
AcDbLine
 10
113.0918755837
 20
191.2689582632
 30
0.0
 11
113.0918755837
 21
178.2689582632
 31
0.0
  0
LINE
  5
2AA
330
1F
100
AcDbEntity
  8
0
  6
Continuous
 62
     7
370
    15
100
AcDbLine
 10
115.5918755837
 20
191.2689582632
 30
0.0
 11
113.0918755837
 21
191.2689582632
 31
0.0
  0
LINE
  5
2AB
330
1F
100
AcDbEntity
  8
0
  6
Continuous
 62
     7
370
    15
100
AcDbLine
 10
113.0918755837
 20
203.2689582632
 30
0.0
 11
113.0918755837
 21
191.2689582632
 31
0.0
  0
LINE
  5
2AC
330
1F
100
AcDbEntity
  8
0
  6
Continuous
 62
     7
370
    15
100
AcDbLine
 10
115.5918755837
 20
203.2689582632
 30
0.0
 11
113.0918755837
 21
203.2689582632
 31
0.0
  0
LINE
  5
2AD
330
1F
100
AcDbEntity
  8
0
  6
Continuous
 62
     7
370
    15
100
AcDbLine
 10
134.0918755837
 20
182.2825154151
 30
0.0
 11
134.0918755837
 21
187.5689582632
 31
0.0
  0
LINE
  5
2AE
330
1F
100
AcDbEntity
  8
0
  6
Continuous
 62
     7
370
    15
100
AcDbLine
 10
134.0918755837
 20
180.9689582632
 30
0.0
 11
134.0918755837
 21
182.2825154151
 31
0.0
  0
LINE
  5
2AF
330
1F
100
AcDbEntity
  8
0
  6
Continuous
 62
     7
370
    15
100
AcDbLine
 10
141.0918755837
 20
210.2689582632
 30
0.0
 11
138.0918755837
 21
210.2689582632
 31
0.0
  0
LINE
  5
2B0
330
1F
100
AcDbEntity
  8
0
  6
Continuous
 62
   144
370
     0
100
AcDbLine
 10
141.0918755837
 20
184.2689582632
 30
0.0
 11
141.0918755837
 21
210.2689582632
 31
0.0
  0
LINE
  5
2B1
330
1F
100
AcDbEntity
  8
0
  6
Continuous
 62
     7
370
    15
100
AcDbLine
 10
138.0918755837
 20
184.2689582632
 30
0.0
 11
141.0918755837
 21
184.2689582632
 31
0.0
  0
LINE
  5
2B2
330
1F
100
AcDbEntity
  8
0
  6
Continuous
 62
     7
370
    15
100
AcDbLine
 10
138.0918755837
 20
184.2689582632
 30
0.0
 11
138.0918755837
 21
190.75571974
 31
0.0
  0
LINE
  5
2B3
330
1F
100
AcDbEntity
  8
0
  6
Continuous
 62
     7
370
    15
100
AcDbLine
 10
138.0918755837
 20
190.75571974
 30
0.0
 11
134.0918755837
 21
190.75571974
 31
0.0
  0
LINE
  5
2B4
330
1F
100
AcDbEntity
  8
0
  6
Continuous
 62
     7
370
    15
100
AcDbLine
 10
134.0918755837
 20
190.75571974
 30
0.0
 11
134.0918755837
 21
203.7821967864
 31
0.0
  0
LINE
  5
2B5
330
1F
100
AcDbEntity
  8
0
  6
Continuous
 62
     7
370
    15
100
AcDbLine
 10
138.0918755837
 20
203.7821967864
 30
0.0
 11
134.0918755837
 21
203.7821967864
 31
0.0
  0
LINE
  5
2B6
330
1F
100
AcDbEntity
  8
0
  6
Continuous
 62
     7
370
    15
100
AcDbLine
 10
138.0918755837
 20
203.7821967864
 30
0.0
 11
138.0918755837
 21
210.2689582632
 31
0.0
  0
LINE
  5
2B7
330
1F
100
AcDbEntity
  8
0
  6
Continuous
 62
   144
370
     0
100
AcDbLine
 10
141.0918755837
 20
179.7689582632
 30
0.0
 11
138.0918755837
 21
179.7689582632
 31
0.0
  0
LINE
  5
2B8
330
1F
100
AcDbEntity
  8
0
  6
Continuous
 62
     7
370
    15
100
AcDbLine
 10
138.0918755837
 20
179.7689582632
 30
0.0
 11
138.0918755837
 21
184.2689582632
 31
0.0
  0
LINE
  5
2B9
330
1F
100
AcDbEntity
  8
0
  6
Continuous
 62
     7
370
    15
100
AcDbLine
 10
138.0918755837
 20
210.2689582632
 30
0.0
 11
138.0918755837
 21
214.7689582632
 31
0.0
  0
LINE
  5
2BA
330
1F
100
AcDbEntity
  8
0
  6
Continuous
 62
     7
370
    15
100
AcDbLine
 10
138.0918755837
 20
214.7689582632
 30
0.0
 11
141.0918755837
 21
214.7689582632
 31
0.0
  0
LINE
  5
2BB
330
1F
100
AcDbEntity
  8
0
  6
Continuous
 62
     7
370
    15
100
AcDbLine
 10
134.0918755837
 20
190.75571974
 30
0.0
 11
134.0918755837
 21
188.9998579965
 31
0.0
  0
LINE
  5
2BC
330
1F
100
AcDbEntity
  8
0
  6
Continuous
 62
     7
370
    15
100
AcDbLine
 10
134.0918755837
 20
214.7689582632
 30
0.0
 11
134.0918755837
 21
213.5689582632
 31
0.0
  0
LINE
  5
2BD
330
1F
100
AcDbEntity
  8
0
  6
Continuous
 62
     7
370
    15
100
AcDbLine
 10
134.0918755837
 20
206.9689582632
 30
0.0
 11
134.0918755837
 21
205.5380585299
 31
0.0
  0
LINE
  5
2BE
330
1F
100
AcDbEntity
  8
0
  6
Continuous
 62
     7
370
    15
100
AcDbLine
 10
134.0918755837
 20
205.5380585299
 30
0.0
 11
134.0918755837
 21
203.7821967864
 31
0.0
  0
LINE
  5
2BF
330
1F
100
AcDbEntity
  8
0
  6
Continuous
 62
     7
370
    15
100
AcDbLine
 10
134.0918755837
 20
188.9998579965
 30
0.0
 11
134.0918755837
 21
187.5689582632
 31
0.0
  0
LINE
  5
2C0
330
1F
100
AcDbEntity
  8
0
  6
Continuous
 62
     7
370
    15
100
AcDbLine
 10
134.0918755837
 20
180.9689582632
 30
0.0
 11
134.0918755837
 21
179.7689582632
 31
0.0
  0
LINE
  5
2C1
330
1F
100
AcDbEntity
  8
0
  6
Continuous
 62
     7
370
    15
100
AcDbLine
 10
138.0918755837
 20
214.7689582632
 30
0.0
 11
134.0918755837
 21
214.7689582632
 31
0.0
  0
LINE
  5
2C2
330
1F
100
AcDbEntity
  8
0
  6
Continuous
 62
   144
370
     0
100
AcDbLine
 10
138.0918755837
 20
179.7689582632
 30
0.0
 11
134.0918755837
 21
179.7689582632
 31
0.0
  0
LINE
  5
2C3
330
1F
100
AcDbEntity
  8
0
  6
Continuous
 62
     7
370
    15
100
AcDbLine
 10
119.5918755837
 20
192.7689582632
 30
0.0
 11
119.5918755837
 21
203.2689582632
 31
0.0
  0
LINE
  5
2C4
330
1F
100
AcDbEntity
  8
0
  6
Continuous
 62
     7
370
    15
100
AcDbLine
 10
119.5918755837
 20
182.2689582632
 30
0.0
 11
119.5918755837
 21
192.7689582632
 31
0.0
  0
LINE
  5
2C5
330
1F
100
AcDbEntity
  8
0
  6
Continuous
 62
     7
370
    15
100
AcDbLine
 10
143.0918755837
 20
183.7689582632
 30
0.0
 11
143.0918755837
 21
179.7689582632
 31
0.0
  0
LINE
  5
2C6
330
1F
100
AcDbEntity
  8
0
  6
Continuous
 62
     7
370
    15
100
AcDbLine
 10
143.0918755837
 20
210.7689582632
 30
0.0
 11
143.0918755837
 21
183.7689582632
 31
0.0
  0
LINE
  5
2C7
330
1F
100
AcDbEntity
  8
0
  6
Continuous
 62
     7
370
    15
100
AcDbLine
 10
143.0918755837
 20
214.7689582632
 30
0.0
 11
143.0918755837
 21
210.7689582632
 31
0.0
  0
LINE
  5
2C8
330
1F
100
AcDbEntity
  8
0
  6
Continuous
 62
     7
370
    15
100
AcDbLine
 10
143.0918755837
 20
210.7689582632
 30
0.0
 11
141.0918755837
 21
210.7689582632
 31
0.0
  0
LINE
  5
2C9
330
1F
100
AcDbEntity
  8
0
  6
Continuous
 62
     7
370
    15
100
AcDbLine
 10
143.0918755837
 20
183.7689582632
 30
0.0
 11
141.0918755837
 21
183.7689582632
 31
0.0
  0
LINE
  5
2CA
330
1F
100
AcDbEntity
  8
0
  6
Continuous
 62
     7
370
    15
100
AcDbLine
 10
141.0918755837
 20
210.7689582632
 30
0.0
 11
141.0918755837
 21
183.7689582632
 31
0.0
  0
LINE
  5
2CB
330
1F
100
AcDbEntity
  8
0
  6
Continuous
 62
     7
370
    15
100
AcDbLine
 10
143.0918755837
 20
214.7689582632
 30
0.0
 11
141.0918755837
 21
214.7689582632
 31
0.0
  0
LINE
  5
2CC
330
1F
100
AcDbEntity
  8
0
  6
Continuous
 62
     7
370
    15
100
AcDbLine
 10
141.0918755837
 20
214.7689582632
 30
0.0
 11
141.0918755837
 21
210.7689582632
 31
0.0
  0
LINE
  5
2CD
330
1F
100
AcDbEntity
  8
0
  6
Continuous
 62
     7
370
    15
100
AcDbLine
 10
141.0918755837
 20
183.7689582632
 30
0.0
 11
141.0918755837
 21
179.7689582632
 31
0.0
  0
LINE
  5
2CE
330
1F
100
AcDbEntity
  8
0
  6
Continuous
 62
   144
370
     0
100
AcDbLine
 10
143.0918755837
 20
179.7689582632
 30
0.0
 11
141.0918755837
 21
179.7689582632
 31
0.0
  0
SPLINE
  5
2CF
330
1F
100
AcDbEntity
  8
0
  6
Continuous
 62
     7
370
    15
100
AcDbSpline
210
0.0
220
0.0
230
1.0
 70
     8
 71
     3
 72
    10
 73
     6
 74
     0
 42
0.00000001
 43
0.00000001
 12
1.0
 22
0.0
 32
0.0
 13
1.0
 23
0.0
 33
0.0
 40
0.0
 40
0.0
 40
0.0
 40
0.0
 40
0.5
 40
0.5
 40
1.0
 40
1.0
 40
1.0
 40
1.0
 10
109.8918755837239
 20
194.315504681229
 30
0.0
 10
109.8918755837239
 20
194.6220117186654
 30
0.0
 10
109.922038826648
 20
194.9326863944156
 30
0.0
 10
110.0316100787077
 20
195.5381871521029
 30
0.0
 10
110.1101612270131
 20
195.8351436125964
 30
0.0
 10
110.2044829748935
 20
196.1282552778773
 30
0.0
  0
LINE
  5
2D0
330
1F
100
AcDbEntity
  8
0
  6
Continuous
 62
     7
370
    15
100
AcDbLine
 10
113.0918755837
 20
196.1282552779
 30
0.0
 11
110.2044829749
 21
196.1282552779
 31
0.0
  0
LINE
  5
2D1
330
1F
100
AcDbEntity
  8
0
  6
Continuous
 62
     7
370
    15
100
AcDbLine
 10
113.0918755837
 20
192.5027540846
 30
0.0
 11
110.2044829749
 21
192.5027540846
 31
0.0
  0
SPLINE
  5
2D2
330
1F
100
AcDbEntity
  8
0
  6
Continuous
 62
     7
370
    15
100
AcDbSpline
210
0.0
220
0.0
230
1.0
 70
     8
 71
     3
 72
    10
 73
     6
 74
     0
 42
0.00000001
 43
0.00000001
 12
1.0
 22
0.0
 32
0.0
 13
1.0
 23
0.0
 33
0.0
 40
0.0
 40
0.0
 40
0.0
 40
0.0
 40
0.5
 40
0.5
 40
1.0
 40
1.0
 40
1.0
 40
1.0
 10
110.2044829748935
 20
192.5027540845808
 30
0.0
 10
110.1096085341784
 20
192.7975832828888
 30
0.0
 10
110.0300340049953
 20
193.0995462200678
 30
0.0
 10
109.9212268909203
 20
193.7048392159938
 30
0.0
 10
109.8918755837239
 20
194.0091796423011
 30
0.0
 10
109.8918755837239
 20
194.315504681229
 30
0.0
  0
LINE
  5
2D3
330
1F
100
AcDbEntity
  8
0
  6
Continuous
 62
     7
370
    15
100
AcDbLine
 10
113.0918755837
 20
189.1434570699
 30
0.0
 11
110.2044829749
 21
189.1434570699
 31
0.0
  0
SPLINE
  5
2D4
330
1F
100
AcDbEntity
  8
0
  6
Continuous
 62
     7
370
    15
100
AcDbSpline
210
0.0
220
0.0
230
1.0
 70
     8
 71
     3
 72
    10
 73
     6
 74
     0
 42
0.00000001
 43
0.00000001
 12
1.0
 22
0.0
 32
0.0
 13
1.0
 23
0.0
 33
0.0
 40
0.0
 40
0.0
 40
0.0
 40
0.0
 40
0.5
 40
0.5
 40
1.0
 40
1.0
 40
1.0
 40
1.0
 10
109.8918755837239
 20
190.8231055772525
 30
0.0
 10
109.8918755837239
 20
190.5380116401828
 30
0.0
 10
109.921809594121
 20
190.253289203001
 30
0.0
 10
110.0307166448285
 20
189.6939080694471
 30
0.0
 10
110.1092956487356
 20
189.4175392132901
 30
0.0
 10
110.204482974893
 20
189.1434570699242
 30
0.0
  0
SPLINE
  5
2D5
330
1F
100
AcDbEntity
  8
0
  6
Continuous
 62
     7
370
    15
100
AcDbSpline
210
0.0
220
0.0
230
1.0
 70
     8
 71
     3
 72
     8
 73
     4
 74
     0
 42
0.00000001
 43
0.00000001
 12
1.0
 22
0.0
 32
0.0
 13
1.0
 23
0.0
 33
0.0
 40
0.0
 40
0.0
 40
0.0
 40
0.0
 40
1.0
 40
1.0
 40
1.0
 40
1.0
 10
110.2044829748925
 20
192.5027540845809
 30
0.0
 10
110.013632114009
 20
191.9532186041146
 30
0.0
 10
109.8918755837239
 20
191.3954320352033
 30
0.0
 10
109.8918755837239
 20
190.8231055772525
 30
0.0
  0
LINE
  5
2D6
330
1F
100
AcDbEntity
  8
0
  6
Continuous
 62
     7
370
    15
100
AcDbLine
 10
109.8918755837
 20
194.3155046812
 30
0.0
 11
109.8918755837
 21
190.8231055773
 31
0.0
  0
LINE
  5
2D7
330
1F
100
AcDbEntity
  8
0
  6
Continuous
 62
     7
370
    15
100
AcDbLine
 10
109.8918755837
 20
194.3155046812
 30
0.0
 11
109.8918755837
 21
196.2613573672
 31
0.0
  0
LINE
  5
2D8
330
1F
100
AcDbEntity
  8
0
  6
Continuous
 62
     7
370
    15
100
AcDbLine
 10
109.8918755837
 20
190.8231055773
 30
0.0
 11
109.8918755837
 21
189.276345664
 31
0.0
  0
SPLINE
  5
2D9
330
1F
100
AcDbEntity
  8
0
  6
Continuous
 62
     7
370
    15
100
AcDbSpline
210
0.0
220
0.0
230
1.0
 70
     8
 71
     3
 72
    10
 73
     6
 74
     0
 42
0.00000001
 43
0.00000001
 12
1.0
 22
0.0
 32
0.0
 13
1.0
 23
0.0
 33
0.0
 40
0.0
 40
0.0
 40
0.0
 40
0.0
 40
0.5
 40
0.5
 40
1.0
 40
1.0
 40
1.0
 40
1.0
 10
109.8918755837239
 20
196.2613573671972
 30
0.0
 10
109.8918755837239
 20
196.2387653793433
 30
0.0
 10
109.921809594121
 20
196.2162028306316
 30
0.0
 10
110.0307166448285
 20
196.1718752244227
 30
0.0
 10
110.1092956487356
 20
196.1499746470001
 30
0.0
 10
110.204482974893
 20
196.1282552778773
 30
0.0
  0
SPLINE
  5
2DA
330
1F
100
AcDbEntity
  8
0
  6
Continuous
 62
     7
370
    15
100
AcDbSpline
210
0.0
220
0.0
230
1.0
 70
     8
 71
     3
 72
     8
 73
     4
 74
     0
 42
0.00000001
 43
0.00000001
 12
1.0
 22
0.0
 32
0.0
 13
1.0
 23
0.0
 33
0.0
 40
0.0
 40
0.0
 40
0.0
 40
0.0
 40
1.0
 40
1.0
 40
1.0
 40
1.0
 10
110.2044829748925
 20
189.1434570699242
 30
0.0
 10
110.013632114009
 20
189.187004467065
 30
0.0
 10
109.8918755837239
 20
189.2312057135715
 30
0.0
 10
109.8918755837239
 20
189.2765591592442
 30
0.0
  0
SPLINE
  5
2DB
330
1F
100
AcDbEntity
  8
0
  6
Continuous
 62
     7
370
    15
100
AcDbSpline
210
0.0
220
0.0
230
1.0
 70
     8
 71
     3
 72
     8
 73
     4
 74
     0
 42
0.00000001
 43
0.00000001
 12
1.0
 22
0.0
 32
0.0
 13
1.0
 23
0.0
 33
0.0
 40
0.0
 40
0.0
 40
0.0
 40
0.0
 40
1.0
 40
1.0
 40
1.0
 40
1.0
 10
110.2044829748925
 20
196.3944594565172
 30
0.0
 10
110.013632114009
 20
196.3509120593764
 30
0.0
 10
109.8918755837239
 20
196.3067108128699
 30
0.0
 10
109.8918755837239
 20
196.2613573671972
 30
0.0
  0
LINE
  5
2DC
330
1F
100
AcDbEntity
  8
0
  6
Continuous
 62
     7
370
    15
100
AcDbLine
 10
113.0918755837
 20
196.3944594565
 30
0.0
 11
110.2044829749
 21
196.3944594565
 31
0.0
  0
LINE
  5
2DD
330
1F
100
AcDbEntity
  8
0
  6
Continuous
 62
     7
370
    15
100
AcDbLine
 10
179.3918755837
 20
210.7689582632
 30
0.0
 11
179.3918755837
 21
183.4689582632
 31
0.0
  0
LINE
  5
2DE
330
1F
100
AcDbEntity
  8
0
  6
Continuous
 62
     7
370
    15
100
AcDbLine
 10
177.7918755837
 20
183.4689582632
 30
0.0
 11
179.3918755837
 21
183.4689582632
 31
0.0
  0
LINE
  5
2DF
330
1F
100
AcDbEntity
  8
0
  6
Continuous
 62
     7
370
    15
100
AcDbLine
 10
177.7918755837
 20
210.7689582632
 30
0.0
 11
179.3918755837
 21
210.7689582632
 31
0.0
  0
LINE
  5
2E0
330
1F
100
AcDbEntity
  8
0
  6
Continuous
 62
   144
370
     0
100
AcDbLine
 10
177.7918755837
 20
210.7689582632
 30
0.0
 11
177.7918755837
 21
183.4689582632
 31
0.0
  0
LINE
  5
2E1
330
1F
100
AcDbEntity
  8
0
  6
Continuous
 62
     7
370
    15
100
AcDbLine
 10
179.3918755837
 20
179.4689582632
 30
0.0
 11
179.3918755837
 21
183.4689582632
 31
0.0
  0
LINE
  5
2E2
330
1F
100
AcDbEntity
  8
0
  6
Continuous
 62
     7
370
    15
100
AcDbLine
 10
179.3918755837
 20
214.7689582632
 30
0.0
 11
179.3918755837
 21
210.7689582632
 31
0.0
  0
LINE
  5
2E3
330
1F
100
AcDbEntity
  8
0
  6
Continuous
 62
     7
370
    15
100
AcDbLine
 10
177.7918755837
 20
214.7689582632
 30
0.0
 11
179.3918755837
 21
214.7689582632
 31
0.0
  0
LINE
  5
2E4
330
1F
100
AcDbEntity
  8
0
  6
Continuous
 62
   144
370
     0
100
AcDbLine
 10
177.7918755837
 20
214.7689582632
 30
0.0
 11
177.7918755837
 21
210.7689582632
 31
0.0
  0
LINE
  5
2E5
330
1F
100
AcDbEntity
  8
0
  6
Continuous
 62
     7
370
    15
100
AcDbLine
 10
179.3918755837
 20
179.4689582632
 30
0.0
 11
177.7918755837
 21
179.4689582632
 31
0.0
  0
SPLINE
  5
2E6
330
1F
100
AcDbEntity
  8
0
  6
Continuous
 62
     7
370
    15
100
AcDbSpline
210
0.0
220
0.0
230
1.0
 70
    24
 71
     3
 72
    22
 73
    18
 74
     0
 42
0.00000001
 43
0.00000001
 12
1.0
 22
0.0
 32
0.0
 13
1.0
 23
0.0
 33
0.0
 40
0.0
 40
0.0
 40
0.0
 40
0.0
 40
0.0315000813618663
 40
0.062899822174712
 40
0.0942763403161742
 40
0.125706924599703
 40
0.1572684666450744
 40
0.2311652223849169
 40
0.3051303082075512
 40
0.3801893538702819
 40
0.455340856672254
 40
0.5824469014215434
 40
0.6856963669650467
 40
0.7894717410925062
 40
0.859759310041361
 40
0.9296490038962812
 40
1.0
 40
1.0
 40
1.0
 40
1.0
 10
180.3918755837239
 20
187.8190134620964
 30
0.0
 10
180.3918755837238
 20
187.8181994675081
 30
0.0
 10
180.3918755837238
 20
187.8165740712347
 30
0.0
 10
180.3918755837239
 20
187.8031816461586
 30
0.0
 10
180.3918755837239
 20
187.7817590730991
 30
0.0
 10
180.3918755837239
 20
187.7515183955132
 30
0.0
 10
180.3918755837239
 20
187.6954518450919
 30
0.0
 10
180.3918755837239
 20
187.5952987636985
 30
0.0
 10
180.3918755837238
 20
187.4252935855977
 30
0.0
 10
180.3918755837239
 20
187.2113339237916
 30
0.0
 10
180.3918755837239
 20
186.8955656856471
 30
0.0
 10
180.3918755837239
 20
186.4807299459096
 30
0.0
 10
180.3918755837239
 20
185.9583597096585
 30
0.0
 10
180.3918755837239
 20
185.4836071803982
 30
0.0
 10
180.3918755837239
 20
185.0468969312429
 30
0.0
 10
180.3918755837239
 20
184.6603298321743
 30
0.0
 10
180.3918755837239
 20
184.399701220068
 30
0.0
 10
180.3918755837239
 20
184.2689582632256
 30
0.0
  0
SPLINE
  5
2E7
330
1F
100
AcDbEntity
  8
0
  6
Continuous
 62
     7
370
    15
100
AcDbSpline
210
0.0
220
0.0
230
1.0
 70
    24
 71
     3
 72
    20
 73
    16
 74
     0
 42
0.00000001
 43
0.00000001
 12
1.0
 22
0.0
 32
0.0
 13
1.0
 23
0.0
 33
0.0
 40
0.0
 40
0.0
 40
0.0
 40
0.0
 40
0.0606382149972507
 40
0.1210191047639484
 40
0.1816923794960146
 40
0.2975014697333321
 40
0.4125323102498718
 40
0.4647697143921665
 40
0.5183243362155637
 40
0.5921323575812298
 40
0.6655214712078333
 40
0.7542004946043603
 40
0.8430839247465605
 40
0.9999585226912922
 40
1.0
 40
1.0
 40
1.0
 40
1.0
 10
180.3918755837239
 20
184.2689582632256
 30
0.0
 10
180.3918755837239
 20
184.1563200923806
 30
0.0
 10
180.3918755837239
 20
183.9315217437067
 30
0.0
 10
180.3918755837239
 20
183.5970265729983
 30
0.0
 10
180.3918755837239
 20
183.1691226837883
 30
0.0
 10
180.3918755837238
 20
182.6620327201276
 30
0.0
 10
180.3918755837239
 20
182.2136165230191
 30
0.0
 10
180.3918755837239
 20
181.8978561085132
 30
0.0
 10
180.3918755837239
 20
181.6593135510753
 30
0.0
 10
180.3918755837239
 20
181.4180582493979
 30
0.0
 10
180.3918755837239
 20
181.1762209409968
 30
0.0
 10
180.3918755837239
 20
180.968719292481
 30
0.0
 10
180.3918755837239
 20
180.7806659311261
 30
0.0
 10
180.3918755837238
 20
180.7010253965944
 30
0.0
 10
180.3918755837239
 20
180.7189125156737
 30
0.0
 10
180.3918755837239
 20
180.7189172437397
 30
0.0
  0
SPLINE
  5
2E8
330
1F
100
AcDbEntity
  8
0
  6
Continuous
 62
     7
370
    15
100
AcDbSpline
210
0.0
220
0.0
230
1.0
 70
    24
 71
     3
 72
    22
 73
    18
 74
     0
 42
0.00000001
 43
0.00000001
 12
1.0
 22
0.0
 32
0.0
 13
1.0
 23
0.0
 33
0.0
 40
0.0
 40
0.0
 40
0.0
 40
0.0
 40
0.0315000812462301
 40
0.0628998219445706
 40
0.0942763399716453
 40
0.1257069241398933
 40
0.1572684660680796
 40
0.2311652217518718
 40
0.305130307523324
 40
0.3801893532581708
 40
0.4553408561342241
 40
0.5824469006231474
 40
0.6856963649563902
 40
0.7894717378365299
 40
0.8597593078767715
 40
0.9296490028040287
 40
1.0
 40
1.0
 40
1.0
 40
1.0
 10
180.3918755837239
 20
213.8190134621013
 30
0.0
 10
180.3918755837239
 20
213.8181994674297
 30
0.0
 10
180.3918755837238
 20
213.8165740709901
 30
0.0
 10
180.3918755837239
 20
213.8031816457679
 30
0.0
 10
180.3918755837238
 20
213.7817590726387
 30
0.0
 10
180.3918755837238
 20
213.7515183950671
 30
0.0
 10
180.3918755837239
 20
213.6954518446938
 30
0.0
 10
180.3918755837238
 20
213.5952987634264
 30
0.0
 10
180.3918755837238
 20
213.4252935854833
 30
0.0
 10
180.3918755837239
 20
213.2113339237972
 30
0.0
 10
180.3918755837239
 20
212.8955656860842
 30
0.0
 10
180.3918755837238
 20
212.4807299487927
 30
0.0
 10
180.3918755837239
 20
211.9583597178923
 30
0.0
 10
180.3918755837239
 20
211.4836071922979
 30
0.0
 10
180.3918755837238
 20
211.0468969423951
 30
0.0
 10
180.3918755837239
 20
210.6603298378539
 30
0.0
 10
180.3918755837239
 20
210.3997012219733
 30
0.0
 10
180.3918755837239
 20
210.2689582632256
 30
0.0
  0
SPLINE
  5
2E9
330
1F
100
AcDbEntity
  8
0
  6
Continuous
 62
     7
370
    15
100
AcDbSpline
210
0.0
220
0.0
230
1.0
 70
    24
 71
     3
 72
    20
 73
    16
 74
     0
 42
0.00000001
 43
0.00000001
 12
1.0
 22
0.0
 32
0.0
 13
1.0
 23
0.0
 33
0.0
 40
0.0
 40
0.0
 40
0.0
 40
0.0
 40
0.0606382149773185
 40
0.1210191047375126
 40
0.1816923794778243
 40
0.2975014697454885
 40
0.4125323102087008
 40
0.4647697141759443
 40
0.5183243358740707
 40
0.5921323564264823
 40
0.6655214692254953
 40
0.7542004904328069
 40
0.8430839183483028
 40
0.9999584980696727
 40
1.0
 40
1.0
 40
1.0
 40
1.0
 10
180.3918755837239
 20
210.2689582632256
 30
0.0
 10
180.3918755837239
 20
210.1563200924047
 30
0.0
 10
180.3918755837238
 20
209.931521743754
 30
0.0
 10
180.3918755837239
 20
209.5970265730417
 30
0.0
 10
180.3918755837239
 20
209.1691226837436
 30
0.0
 10
180.3918755837239
 20
208.6620327200602
 30
0.0
 10
180.3918755837238
 20
208.2136165231749
 30
0.0
 10
180.3918755837239
 20
207.897856109143
 30
0.0
 10
180.3918755837239
 20
207.6593135530954
 30
0.0
 10
180.3918755837238
 20
207.4180582532218
 30
0.0
 10
180.3918755837241
 20
207.176220947819
 30
0.0
 10
180.3918755837229
 20
206.9687193019483
 30
0.0
 10
180.3918755837286
 20
206.7806659471796
 30
0.0
 10
180.3918755837052
 20
206.7010254070505
 30
0.0
 10
180.3918755837239
 20
206.7189125212654
 30
0.0
 10
180.3918755837239
 20
206.7189172521366
 30
0.0
  0
LINE
  5
2EA
330
1F
100
AcDbEntity
  8
0
  6
Continuous
 62
     7
370
    15
100
AcDbLine
 10
184.0918755837
 20
210.2689582632
 30
0.0
 11
184.0918755837
 21
206.7689582632
 31
0.0
  0
LINE
  5
2EB
330
1F
100
AcDbEntity
  8
0
  6
Continuous
 62
     7
370
    15
100
AcDbLine
 10
184.0918755837
 20
213.7689582632
 30
0.0
 11
184.0918755837
 21
210.2689582632
 31
0.0
  0
LINE
  5
2EC
330
1F
100
AcDbEntity
  8
0
  6
Continuous
 62
     7
370
    15
100
AcDbLine
 10
184.0918755837
 20
184.2689582632
 30
0.0
 11
184.0918755837
 21
180.7689582632
 31
0.0
  0
LINE
  5
2ED
330
1F
100
AcDbEntity
  8
0
  6
Continuous
 62
     7
370
    15
100
AcDbLine
 10
184.0918755837
 20
187.7689582632
 30
0.0
 11
184.0918755837
 21
184.2689582632
 31
0.0
  0
SPLINE
  5
2EE
330
1F
100
AcDbEntity
  8
0
  6
Continuous
 62
     7
370
    15
100
AcDbSpline
210
0.0
220
0.0
230
1.0
 70
    24
 71
     3
 72
    18
 73
    14
 74
     0
 42
0.00000001
 43
0.00000001
 12
1.0
 22
0.0
 32
0.0
 13
1.0
 23
0.0
 33
0.0
 40
0.0
 40
0.0
 40
0.0
 40
0.0
 40
0.1053145617745117
 40
0.2106277483370131
 40
0.323838960522174
 40
0.4371626225989841
 40
0.5648647566495294
 40
0.6924513771004532
 40
0.7380099164883805
 40
0.7838703408620078
 40
0.8302699640977038
 40
0.915659813937428
 40
1.0
 40
1.0
 40
1.0
 40
1.0
 10
184.3918755837238
 20
184.2689582632256
 30
0.0
 10
184.3918755837238
 20
184.1035209877303
 30
0.0
 10
184.3918755837238
 20
183.7726485970425
 30
0.0
 10
184.3918755837239
 20
183.2781315723524
 30
0.0
 10
184.3918755837238
 20
182.7996854462368
 30
0.0
 10
184.3918755837238
 20
182.3385904907751
 30
0.0
 10
184.3918755837239
 20
181.9263340555634
 30
0.0
 10
184.3918755837238
 20
181.6655817384404
 30
0.0
 10
184.3918755837238
 20
181.5173805005787
 30
0.0
 10
184.3918755837238
 20
181.4385335953407
 30
0.0
 10
184.3918755837239
 20
181.3561568295539
 30
0.0
 10
184.3918755837238
 20
181.2847231513467
 30
0.0
 10
184.3918755837238
 20
181.2742659121776
 30
0.0
 10
184.3918755837238
 20
181.2690696280164
 30
0.0
  0
SPLINE
  5
2EF
330
1F
100
AcDbEntity
  8
0
  6
Continuous
 62
     7
370
    15
100
AcDbSpline
210
0.0
220
0.0
230
1.0
 70
    24
 71
     3
 72
    17
 73
    13
 74
     0
 42
0.00000001
 43
0.00000001
 12
1.0
 22
0.0
 32
0.0
 13
1.0
 23
0.0
 33
0.0
 40
0.0
 40
0.0
 40
0.0
 40
0.0
 40
0.0000585332883278
 40
0.1513680434010439
 40
0.3064051112664162
 40
0.3819126422261988
 40
0.4575372927385024
 40
0.5192599684044215
 40
0.5809069635739563
 40
0.6910498636603288
 40
0.8013060855251132
 40
1.0
 40
1.0
 40
1.0
 40
1.0
 10
184.3918755837239
 20
187.2688468984651
 30
0.0
 10
184.3918755837239
 20
187.2688531097477
 30
0.0
 10
184.3918755837199
 20
187.2849155880729
 30
0.0
 10
184.3918755837258
 20
187.2019224727204
 30
0.0
 10
184.3918755837236
 20
186.9984406038779
 30
0.0
 10
184.3918755837239
 20
186.7505960013928
 30
0.0
 10
184.3918755837239
 20
186.5456035331305
 30
0.0
 10
184.3918755837238
 20
186.32871699089
 30
0.0
 10
184.3918755837238
 20
186.0500602811221
 30
0.0
 10
184.3918755837238
 20
185.6766772535626
 30
0.0
 10
184.3918755837238
 20
185.0685322309146
 30
0.0
 10
184.3918755837238
 20
184.5819147162707
 30
0.0
 10
184.3918755837239
 20
184.2689582632256
 30
0.0
  0
SPLINE
  5
2F0
330
1F
100
AcDbEntity
  8
0
  6
Continuous
 62
     7
370
    15
100
AcDbSpline
210
0.0
220
0.0
230
1.0
 70
    24
 71
     3
 72
    18
 73
    14
 74
     0
 42
0.00000001
 43
0.00000001
 12
1.0
 22
0.0
 32
0.0
 13
1.0
 23
0.0
 33
0.0
 40
0.0
 40
0.0
 40
0.0
 40
0.0
 40
0.105314561773833
 40
0.2106277483397085
 40
0.3238389605255198
 40
0.4371626226065742
 40
0.564864756649642
 40
0.6924513771100209
 40
0.7380099165432722
 40
0.7838703409530926
 40
0.8302699642163814
 40
0.915659813988294
 40
1.0
 40
1.0
 40
1.0
 40
1.0
 10
184.3918755837238
 20
210.2689582632257
 30
0.0
 10
184.3918755837239
 20
210.1035209877315
 30
0.0
 10
184.3918755837238
 20
209.7726485970395
 30
0.0
 10
184.3918755837238
 20
209.2781315723404
 30
0.0
 10
184.3918755837238
 20
208.7996854462122
 30
0.0
 10
184.3918755837239
 20
208.3385904907622
 30
0.0
 10
184.3918755837238
 20
207.9263340555674
 30
0.0
 10
184.3918755837238
 20
207.6655817384271
 30
0.0
 10
184.3918755837239
 20
207.5173805005086
 30
0.0
 10
184.3918755837238
 20
207.4385335952172
 30
0.0
 10
184.3918755837239
 20
207.3561568294636
 30
0.0
 10
184.3918755837238
 20
207.284723151334
 30
0.0
 10
184.3918755837238
 20
207.2742659121701
 30
0.0
 10
184.3918755837238
 20
207.2690696280111
 30
0.0
  0
SPLINE
  5
2F1
330
1F
100
AcDbEntity
  8
0
  6
Continuous
 62
     7
370
    15
100
AcDbSpline
210
0.0
220
0.0
230
1.0
 70
    24
 71
     3
 72
    22
 73
    18
 74
     0
 42
0.00000001
 43
0.00000001
 12
1.0
 22
0.0
 32
0.0
 13
1.0
 23
0.0
 33
0.0
 40
0.0
 40
0.0
 40
0.0
 40
0.0
 40
0.0341783877686615
 40
0.0681224178568306
 40
0.1019286811031808
 40
0.1356949506396812
 40
0.1695193464187125
 40
0.2034994848659974
 40
0.2377316500860314
 40
0.3671080394792957
 40
0.4966002277430293
 40
0.626936399731417
 40
0.7573892294567274
 40
0.8182782513314427
 40
0.8786382783021239
 40
0.9390266679321045
 40
1.0
 40
1.0
 40
1.0
 40
1.0
 10
184.3918755837238
 20
213.2689582632257
 30
0.0
 10
184.3918755837238
 20
213.2681627481437
 30
0.0
 10
184.3918755837238
 20
213.2665771727447
 30
0.0
 10
184.3918755837239
 20
213.2534925929181
 30
0.0
 10
184.3918755837238
 20
213.2325459998309
 30
0.0
 10
184.3918755837238
 20
213.202983474541
 30
0.0
 10
184.3918755837239
 20
213.1650108376966
 30
0.0
 10
184.3918755837238
 20
213.1185599283249
 30
0.0
 10
184.3918755837239
 20
213.0131209099697
 30
0.0
 10
184.3918755837238
 20
212.8024949952496
 30
0.0
 10
184.3918755837238
 20
212.4151590006956
 30
0.0
 10
184.3918755837238
 20
211.940174795597
 30
0.0
 10
184.3918755837239
 20
211.4888794833795
 30
0.0
 10
184.3918755837238
 20
211.115384590825
 30
0.0
 10
184.3918755837238
 20
210.8379630530766
 30
0.0
 10
184.3918755837238
 20
210.5552183363533
 30
0.0
 10
184.3918755837238
 20
210.3646844010998
 30
0.0
 10
184.3918755837238
 20
210.2689582632214
 30
0.0
  0
LINE
  5
2F2
330
1F
100
AcDbEntity
  8
0
  6
Continuous
 62
     7
370
    15
100
AcDbLine
 10
187.7918755837
 20
220.2243956167
 30
0.0
 11
188.7918755837
 21
220.2243956167
 31
0.0
  0
LINE
  5
2F3
330
1F
100
AcDbEntity
  8
0
  6
Continuous
 62
     7
370
    15
100
AcDbLine
 10
188.7918755837
 20
220.2243956167
 30
0.0
 11
188.7918755837
 21
186.2689582631
 31
0.0
  0
LINE
  5
2F4
330
1F
100
AcDbEntity
  8
0
  6
Continuous
 62
     7
370
    15
100
AcDbLine
 10
187.7918755837
 20
186.2689582629
 30
0.0
 11
188.7918755837
 21
186.2689582631
 31
0.0
  0
LINE
  5
2F5
330
1F
100
AcDbEntity
  8
0
  6
Continuous
 62
     7
370
    15
100
AcDbLine
 10
187.7918755837
 20
220.2243956167
 30
0.0
 11
187.7918755837
 21
186.2689582632
 31
0.0
  0
SPLINE
  5
2F6
330
1F
100
AcDbEntity
  8
0
  6
Continuous
 62
     7
370
    15
100
AcDbSpline
210
0.0
220
0.0
230
1.0
 70
    24
 71
     3
 72
    17
 73
    13
 74
     0
 42
0.00000001
 43
0.00000001
 12
1.0
 22
0.0
 32
0.0
 13
1.0
 23
0.0
 33
0.0
 40
0.0
 40
0.0
 40
0.0
 40
0.0
 40
0.0603181230342539
 40
0.1201003821780017
 40
0.1798838664196154
 40
0.2402056320236332
 40
0.3699933677374501
 40
0.5001298971722635
 40
0.6299177897373678
 40
0.7600544764353286
 40
0.8798593414720134
 40
1.0
 40
1.0
 40
1.0
 40
1.0
 10
188.7918755837239
 20
186.2689582630589
 30
0.0
 10
188.7918755837239
 20
186.2374036086545
 30
0.0
 10
188.7918755837239
 20
186.1745746301846
 30
0.0
 10
188.7918755837239
 20
186.0812969383132
 30
0.0
 10
188.7918755837239
 20
185.9896933619094
 30
0.0
 10
188.7918755837239
 20
185.8659567574557
 30
0.0
 10
188.7918755837239
 20
185.7159207100239
 30
0.0
 10
188.7918755837239
 20
185.5572395145806
 30
0.0
 10
188.7918755837239
 20
185.4268768112519
 30
0.0
 10
188.7918755837239
 20
185.335795456925
 30
0.0
 10
188.7918755837239
 20
185.2789951499231
 30
0.0
 10
188.7918755837239
 20
185.2723071170942
 30
0.0
 10
188.7918755837239
 20
185.2689584208719
 30
0.0
  0
ARC
  5
2F7
330
1F
100
AcDbEntity
  8
0
  6
Continuous
 62
     7
370
    15
100
AcDbCircle
 10
187.7918755837
 20
185.2689582632
 30
0.0
 40
0.999999999997101
100
AcDbArc
 50
270.0000000002
 51
0.0000000004
  0
LINE
  5
2F8
330
1F
100
AcDbEntity
  8
0
  6
Continuous
 62
     7
370
    15
100
AcDbLine
 10
187.7918755837
 20
186.2689582632
 30
0.0
 11
187.7918755837
 21
184.2689582632
 31
0.0
  0
LINE
  5
2F9
330
1F
100
AcDbEntity
  8
0
  6
Continuous
 62
     7
370
    15
100
AcDbLine
 10
179.3918755837
 20
220.2243956167
 30
0.0
 11
187.7918755837
 21
220.2243956167
 31
0.0
  0
LINE
  5
2FA
330
1F
100
AcDbEntity
  8
0
  6
Continuous
 62
     7
370
    15
100
AcDbLine
 10
179.3918755837
 20
214.7689582632
 30
0.0
 11
179.3918755837
 21
220.2243956167
 31
0.0
  0
LINE
  5
2FB
330
1F
100
AcDbEntity
  8
0
  6
Continuous
 62
     7
370
    15
100
AcDbLine
 10
184.3918755837
 20
184.2689582632
 30
0.0
 11
187.7918755837
 21
184.2689582632
 31
0.0
  0
SPLINE
  5
2FC
330
1F
100
AcDbEntity
  8
0
  6
Continuous
 62
     7
370
    15
100
AcDbSpline
210
0.0
220
0.0
230
1.0
 70
    24
 71
     3
 72
    19
 73
    15
 74
     0
 42
0.00000001
 43
0.00000001
 12
1.0
 22
0.0
 32
0.0
 13
1.0
 23
0.0
 33
0.0
 40
0.0
 40
0.0
 40
0.0
 40
0.0
 40
0.0260097360368058
 40
0.0519966975346698
 40
0.0783349445207028
 40
0.1053839672003094
 40
0.1334759818800134
 40
0.2206094854580104
 40
0.3189053533392233
 40
0.4488344443019051
 40
0.5983551609962329
 40
0.7959947789560119
 40
0.8919804953273851
 40
1.0
 40
1.0
 40
1.0
 40
1.0
 10
187.7918755837245
 20
225.9689582632257
 30
0.0
 10
187.815321962867
 20
225.9689582632257
 30
0.0
 10
187.862194191129
 20
225.9689582632257
 30
0.0
 10
187.9317760421604
 20
225.9689582632256
 30
0.0
 10
188.0002220260821
 20
225.9689582632256
 30
0.0
 10
188.0675021862468
 20
225.9689582632257
 30
0.0
 10
188.1787179607182
 20
225.9689582632256
 30
0.0
 10
188.3248249910929
 20
225.9689582632257
 30
0.0
 10
188.4876564839948
 20
225.9689582632256
 30
0.0
 10
188.6237230673081
 20
225.9689582632256
 30
0.0
 10
188.7280155388057
 20
225.9689582632256
 30
0.0
 10
188.7728806360059
 20
225.9689582632257
 30
0.0
 10
188.7898564198872
 20
225.9689582632256
 30
0.0
 10
188.7911765715622
 20
225.9689582632256
 30
0.0
 10
188.7918755837213
 20
225.9689582632257
 30
0.0
  0
SPLINE
  5
2FD
330
1F
100
AcDbEntity
  8
0
  6
Continuous
 62
     7
370
    15
100
AcDbSpline
210
0.0
220
0.0
230
1.0
 70
    24
 71
     3
 72
    14
 73
    10
 74
     0
 42
0.00000001
 43
0.00000001
 12
1.0
 22
0.0
 32
0.0
 13
1.0
 23
0.0
 33
0.0
 40
0.0
 40
0.0
 40
0.0
 40
0.0
 40
0.25
 40
0.25
 40
0.5
 40
0.5
 40
0.75
 40
0.75
 40
1.0
 40
1.0
 40
1.0
 40
1.0
 10
188.7918755837217
 20
220.2243956166857
 30
0.0
 10
188.7918755837217
 20
220.8633723727875
 30
0.0
 10
188.7918755837217
 20
221.5022387102249
 30
0.0
 10
188.7918755837217
 20
222.7155229606576
 30
0.0
 10
188.7918755837217
 20
223.2897312115246
 30
0.0
 10
188.7918755837217
 20
224.3155526931535
 30
0.0
 10
188.7918755837217
 20
224.7669886563748
 30
0.0
 10
188.7918755837217
 20
225.5015265067154
 30
0.0
 10
188.7918755837217
 20
225.7845014616925
 30
0.0
 10
188.7918755837217
 20
225.9689581889857
 30
0.0
  0
LINE
  5
2FE
330
1F
100
AcDbEntity
  8
0
  6
Continuous
 62
     7
370
    15
100
AcDbLine
 10
187.7918755837
 20
225.9689582632
 30
0.0
 11
187.7918755837
 21
220.2243956167
 31
0.0
  0
LINE
  5
2FF
330
1F
100
AcDbEntity
  8
0
  6
Continuous
 62
     7
370
    15
100
AcDbLine
 10
187.7918755837
 20
225.9689582632
 30
0.0
 11
187.2918755837
 21
225.9689582632
 31
0.0
  0
LINE
  5
300
330
1F
100
AcDbEntity
  8
0
  6
Continuous
 62
     7
370
    15
100
AcDbLine
 10
179.3918755837
 20
222.9689582632
 30
0.0
 11
179.3918755837
 21
220.2243956167
 31
0.0
  0
SPLINE
  5
301
330
1F
100
AcDbEntity
  8
0
  6
Continuous
 62
     7
370
    15
100
AcDbSpline
210
0.0
220
0.0
230
1.0
 70
     8
 71
     3
 72
    27
 73
    23
 74
     0
 42
0.00000001
 43
0.00000001
 12
1.0
 22
0.0
 32
0.0
 13
1.0
 23
0.0
 33
0.0
 40
0.0
 40
0.0
 40
0.0
 40
0.0
 40
0.030731203565995
 40
0.0623572249079097
 40
0.0948944924252965
 40
0.1283580920916356
 40
0.1627618909538656
 40
0.1981186494658122
 40
0.2344401233559557
 40
0.2717371557971764
 40
0.3411342215347196
 40
0.425684475137273
 40
0.5023510983745636
 40
0.5777084062752929
 40
0.6507041988984433
 40
0.7123649903060323
 40
0.7713734056120674
 40
0.8246095575613069
 40
0.8713880778778297
 40
0.9159535088406494
 40
0.958682023522606
 40
1.0
 40
1.0
 40
1.0
 40
1.0
 10
179.3918755837248
 20
222.9689582632244
 30
0.0
 10
179.3926138559098
 20
223.0193144536192
 30
0.0
 10
179.3941118969672
 20
223.1214930839878
 30
0.0
 10
179.4062362758058
 20
223.2744972036985
 30
0.0
 10
179.4260167546159
 20
223.429538072911
 30
0.0
 10
179.4545627941459
 20
223.5859838638123
 30
0.0
 10
179.4920165152518
 20
223.7433618043849
 30
0.0
 10
179.5387580229028
 20
223.9010992965395
 30
0.0
 10
179.5950631981459
 20
224.0586011613085
 30
0.0
 10
179.6795806423624
 20
224.2587571710365
 30
0.0
 10
179.8120976867438
 20
224.5130948270476
 30
0.0
 10
180.0038205958005
 20
224.7964266736953
 30
0.0
 10
180.2318972445728
 20
225.0599121631856
 30
0.0
 10
180.4764985767696
 20
225.2858265428637
 30
0.0
 10
180.7302819203789
 20
225.4730470505581
 30
0.0
 10
180.9860533562734
 20
225.6241555652894
 30
0.0
 10
181.2347297400772
 20
225.741220951414
 30
0.0
 10
181.4784571639468
 20
225.8301226075225
 30
0.0
 10
181.7135579663752
 20
225.8944612560242
 30
0.0
 10
181.9417394910473
 20
225.9377374996988
 30
0.0
 10
182.1677579470859
 20
225.9641452720101
 30
0.0
 10
182.3180102579793
 20
225.967371983945
 30
0.0
 10
182.3918755837238
 20
225.9689582632291
 30
0.0
  0
LINE
  5
302
330
1F
100
AcDbEntity
  8
0
  6
Continuous
 62
     7
370
    15
100
AcDbLine
 10
187.2918755837
 20
225.9689582632
 30
0.0
 11
182.391875362
 21
225.9689582632
 31
0.0
  0
SPLINE
  5
303
330
1F
100
AcDbEntity
  8
0
  6
Continuous
 62
     7
370
    15
100
AcDbSpline
210
0.0
220
0.0
230
1.0
 70
     8
 71
     3
 72
    25
 73
    21
 74
     0
 42
0.00000001
 43
0.00000001
 12
1.0
 22
0.0
 32
0.0
 13
1.0
 23
0.0
 33
0.0
 40
0.0
 40
0.0
 40
0.0
 40
0.0
 40
0.0297076311800846
 40
0.059352451263613
 40
0.0889478419129389
 40
0.1185072519151456
 40
0.1480441791994536
 40
0.1775721525209868
 40
0.2071047129338605
 40
0.2366553951799086
 40
0.2662377091207083
 40
0.3941133516018801
 40
0.5209371492092243
 40
0.6428090653386136
 40
0.7637460331280415
 40
0.8111753880896914
 40
0.8584460046454412
 40
0.905627173953438
 40
0.9527885814303496
 40
1.0
 40
1.0
 40
1.0
 40
1.0
 10
180.488102554793
 20
257.7821766856644
 30
0.0
 10
180.532418990188
 20
257.6692744754531
 30
0.0
 10
180.6209581623628
 20
257.4437087651314
 30
0.0
 10
180.7527313307898
 20
257.0962256649443
 30
0.0
 10
180.8833292406587
 20
256.7425417085527
 30
0.0
 10
181.0125345610503
 20
256.3819487171274
 30
0.0
 10
181.1401894071647
 20
256.01460553139
 30
0.0
 10
181.2661161911699
 20
255.6404410259977
 30
0.0
 10
181.3901375360532
 20
255.2594529047288
 30
0.0
 10
181.5120756965429
 20
254.8716082084512
 30
0.0
 10
181.7641851184833
 20
254.040092615107
 30
0.0
 10
182.1252865933546
 20
252.7215160956609
 30
0.0
 10
182.5390359974691
 20
250.8727673256241
 30
0.0
 10
182.868885029325
 20
248.9771911669073
 30
0.0
 10
183.0607009754591
 20
247.4401369554217
 30
0.0
 10
183.1650866905512
 20
246.2829666066762
 30
0.0
 10
183.219481700119
 20
245.5169082266029
 30
0.0
 10
183.2589081858023
 20
244.7491257153131
 30
0.0
 10
183.2846545598084
 20
243.9797841464587
 30
0.0
 10
183.2892979778819
 20
243.4668071424542
 30
0.0
 10
183.2916209172644
 20
243.2101827192255
 30
0.0
  0
LINE
  5
304
330
1F
100
AcDbEntity
  8
0
  6
Continuous
 62
     7
370
    15
100
AcDbLine
 10
183.2918655835
 20
243.0703958882
 30
0.0
 11
183.2916209173
 21
243.2101827192
 31
0.0
  0
LINE
  5
305
330
1F
100
AcDbEntity
  8
0
  6
Continuous
 62
     7
370
    15
100
AcDbLine
 10
179.2918755837
 20
257.7819957711
 30
0.0
 11
180.4882119128
 21
257.7820293646
 31
0.0
  0
LINE
  5
306
330
1F
100
AcDbEntity
  8
0
  6
Continuous
 62
     7
370
    15
100
AcDbLine
 10
179.2918755837
 20
243.2101827192
 30
0.0
 11
183.2916209173
 21
243.2101827192
 31
0.0
  0
SPLINE
  5
307
330
1F
100
AcDbEntity
  8
0
  6
Continuous
 62
     7
370
    15
100
AcDbSpline
210
0.0
220
0.0
230
1.0
 70
    24
 71
     3
 72
    25
 73
    21
 74
     0
 42
0.00000001
 43
0.00000001
 12
1.0
 22
0.0
 32
0.0
 13
1.0
 23
0.0
 33
0.0
 40
0.0
 40
0.0
 40
0.0
 40
0.0
 40
0.0275648779638741
 40
0.0550830590420302
 40
0.0825678437685129
 40
0.1100325811966424
 40
0.1374906496184233
 40
0.1649554370714224
 40
0.1924403217745765
 40
0.2199586526356051
 40
0.2475237299714755
 40
0.3737474543670256
 40
0.5000054884768376
 40
0.6262292137800418
 40
0.7524872487898137
 40
0.8020570505063643
 40
0.8515152420663843
 40
0.9009397652256439
 40
0.9504087208808405
 40
1.0
 40
1.0
 40
1.0
 40
1.0
 10
179.2918755837239
 20
243.2101827192247
 30
0.0
 10
179.2918755837239
 20
243.3572245498914
 30
0.0
 10
179.2918755837239
 20
243.6510591117885
 30
0.0
 10
179.2918755837239
 20
244.091750192478
 30
0.0
 10
179.2918755837239
 20
244.5318146980762
 30
0.0
 10
179.2918755837239
 20
244.9712847842134
 30
0.0
 10
179.2918755837239
 20
245.4101512774803
 30
0.0
 10
179.2918755837239
 20
245.848416889727
 30
0.0
 10
179.2918755837239
 20
246.2860780629687
 30
0.0
 10
179.2918755837239
 20
246.7231444776146
 30
0.0
 10
179.2918755837239
 20
247.6798628142155
 30
0.0
 10
179.2918755837238
 20
249.1440176281136
 30
0.0
 10
179.2918755837239
 20
251.0699382762568
 30
0.0
 10
179.2918755837239
 20
252.9239369070732
 30
0.0
 10
179.2918755837239
 20
254.3291902754301
 30
0.0
 10
179.2918755837239
 20
255.3315908908957
 30
0.0
 10
179.2918755837239
 20
255.9744319414366
 30
0.0
 10
179.2918755837239
 20
256.5974776387901
 30
0.0
 10
179.2918755837239
 20
257.2027038953161
 30
0.0
 10
179.2918755837239
 20
257.5887395818144
 30
0.0
 10
179.2918755837239
 20
257.7819957710684
 30
0.0
  0
LINE
  5
308
330
1F
100
AcDbEntity
  8
0
  6
Continuous
 62
     7
370
    15
100
AcDbLine
 10
179.2918755837
 20
224.803993281
 30
0.0
 11
179.2918755837
 21
243.2101827192
 31
0.0
  0
LINE
  5
309
330
1F
100
AcDbEntity
  8
0
  6
Continuous
 62
     7
370
    15
100
AcDbLine
 10
179.2918755837
 20
257.9199582632
 30
0.0
 11
179.2918755837
 21
257.7819957711
 31
0.0
  0
LINE
  5
30A
330
1F
100
AcDbEntity
  8
0
  6
Continuous
 62
     7
370
    15
100
AcDbLine
 10
187.2918755837
 20
231.7689582632
 30
0.0
 11
187.2918755837
 21
225.9689582632
 31
0.0
  0
LINE
  5
30B
330
1F
100
AcDbEntity
  8
0
  6
Continuous
 62
     7
370
    15
100
AcDbLine
 10
179.7918755837
 20
224.4511660189
 30
0.0
 11
179.7918755837
 21
224.803993281
 31
0.0
  0
LINE
  5
30C
330
1F
100
AcDbEntity
  8
0
  6
Continuous
 62
     7
370
    15
100
AcDbLine
 10
179.2918755837
 20
224.803993281
 30
0.0
 11
179.7918755837
 21
224.803993281
 31
0.0
  0
LINE
  5
30D
330
1F
100
AcDbEntity
  8
0
  6
Continuous
 62
     7
370
    15
100
AcDbLine
 10
183.2918655836
 20
243.0703566798
 30
0.0
 11
183.2918739067
 21
237.409553706
 31
0.0
  0
ARC
  5
30E
330
1F
100
AcDbEntity
  8
0
  6
Continuous
 62
     7
370
    15
100
AcDbCircle
 10
186.2918739067
 20
237.4095581169
 30
0.0
 40
2.999999999979524
100
AcDbArc
 50
180.0000842423
 51
221.6335393368
  0
LINE
  5
30F
330
1F
100
AcDbEntity
  8
0
  6
Continuous
 62
     7
370
    15
100
AcDbLine
 10
184.0496459506
 20
235.4164666004
 30
0.0
 11
187.2918755837
 21
231.7689582632
 31
0.0
  0
LINE
  5
310
330
1F
100
AcDbEntity
  8
0
  6
Continuous
 62
     7
370
    15
100
AcDbLine
 10
179.2918755837
 20
214.7689582632
 30
0.0
 11
179.2918755837
 21
224.803993281
 31
0.0
  0
LINE
  5
311
330
1F
100
AcDbEntity
  8
0
  6
Continuous
 62
     7
370
    15
100
AcDbLine
 10
180.4882679668
 20
257.7820426332
 30
0.0
 11
179.4886472164
 21
257.9199582632
 31
0.0
  0
LINE
  5
312
330
1F
100
AcDbEntity
  8
0
  6
Continuous
 62
     7
370
    15
100
AcDbLine
 10
179.2918755837
 20
257.9199582632
 30
0.0
 11
179.4886472164
 21
257.9199582632
 31
0.0
  0
LINE
  5
313
330
1F
100
AcDbEntity
  8
0
  6
Continuous
 62
     7
370
    15
100
AcDbLine
 10
134.0918755837
 20
208.2825154151
 30
0.0
 11
134.0918755837
 21
213.5689582632
 31
0.0
  0
LINE
  5
314
330
1F
100
AcDbEntity
  8
0
  6
Continuous
 62
     7
370
    15
100
AcDbLine
 10
134.0918755837
 20
206.9689582632
 30
0.0
 11
134.0918755837
 21
208.2825154151
 31
0.0
  0
LINE
  5
315
330
1F
100
AcDbEntity
  8
0
  6
Continuous
 62
     7
370
    15
100
AcDbLine
 10
99.9918755837
 20
188.9189582632
 30
0.0
 11
99.9918755837
 21
196.6189582632
 31
0.0
  0
LINE
  5
316
330
1F
100
AcDbEntity
  8
0
  6
Continuous
 62
     7
370
    15
100
AcDbLine
 10
98.4918755837
 20
188.9189582632
 30
0.0
 11
98.4918755837
 21
196.6189582632
 31
0.0
  0
LINE
  5
317
330
1F
100
AcDbEntity
  8
0
  6
Continuous
 62
     7
370
    15
100
AcDbLine
 10
120.9918755837
 20
204.9189258124
 30
0.0
 11
120.9918755837
 21
212.6189258124
 31
0.0
  0
LINE
  5
318
330
1F
100
AcDbEntity
  8
0
  6
Continuous
 62
     7
370
    15
100
AcDbLine
 10
119.4918755837
 20
204.9189258124
 30
0.0
 11
119.4918755837
 21
212.6189258124
 31
0.0
  0
LINE
  5
319
330
1F
100
AcDbEntity
  8
0
  6
Continuous
 62
     7
370
    15
100
AcDbLine
 10
176.5918755837
 20
214.7689582632
 30
0.0
 11
143.5918755837
 21
214.7689582632
 31
0.0
  0
LINE
  5
31A
330
1F
100
AcDbEntity
  8
0
  6
Continuous
 62
     7
370
    15
100
AcDbLine
 10
176.5918755837
 20
210.7689582632
 30
0.0
 11
143.5918755837
 21
210.7689582632
 31
0.0
  0
LINE
  5
31B
330
1F
100
AcDbEntity
  8
0
  6
Continuous
 62
     7
370
    15
100
AcDbLine
 10
143.5918755837
 20
214.7689582632
 30
0.0
 11
143.5918755837
 21
210.7689582632
 31
0.0
  0
LINE
  5
31C
330
1F
100
AcDbEntity
  8
0
  6
Continuous
 62
     7
370
    15
100
AcDbLine
 10
176.5918755837
 20
210.7689582632
 30
0.0
 11
176.5918755837
 21
183.7689582632
 31
0.0
  0
LINE
  5
31D
330
1F
100
AcDbEntity
  8
0
  6
Continuous
 62
     7
370
    15
100
AcDbLine
 10
176.5918755837
 20
183.7689582632
 30
0.0
 11
143.5918755837
 21
183.7689582632
 31
0.0
  0
LINE
  5
31E
330
1F
100
AcDbEntity
  8
0
  6
Continuous
 62
     7
370
    15
100
AcDbLine
 10
143.5918755837
 20
210.7689582632
 30
0.0
 11
143.5918755837
 21
183.7689582632
 31
0.0
  0
LINE
  5
31F
330
1F
100
AcDbEntity
  8
0
  6
Continuous
 62
     7
370
    15
100
AcDbLine
 10
176.5918755837
 20
179.7689582632
 30
0.0
 11
174.3785274026
 21
179.7689582632
 31
0.0
  0
LINE
  5
320
330
1F
100
AcDbEntity
  8
0
  6
Continuous
 62
     7
370
    15
100
AcDbLine
 10
162.4052237649
 20
179.7689582632
 30
0.0
 11
143.5918755837
 21
179.7689582632
 31
0.0
  0
LINE
  5
321
330
1F
100
AcDbEntity
  8
0
  6
Continuous
 62
     7
370
    15
100
AcDbLine
 10
143.5918755837
 20
183.7689582632
 30
0.0
 11
143.5918755837
 21
179.7689582632
 31
0.0
  0
LINE
  5
322
330
1F
100
AcDbEntity
  8
0
  6
Continuous
 62
   144
370
     0
100
AcDbLine
 10
118.7918755837
 20
192.6082521536
 30
0.0
 11
118.7918755837
 21
194.7689582632
 31
0.0
  0
LINE
  5
323
330
1F
100
AcDbEntity
  8
0
  6
Continuous
 62
   144
370
     0
100
AcDbLine
 10
118.7918755837
 20
190.7689582632
 30
0.0
 11
118.7918755837
 21
192.6082521536
 31
0.0
  0
LINE
  5
324
330
1F
100
AcDbEntity
  8
0
  6
Continuous
 62
     7
370
    15
100
AcDbLine
 10
134.2918755837
 20
182.1621249395
 30
0.0
 11
134.2918755837
 21
180.7689582632
 31
0.0
  0
LINE
  5
325
330
1F
100
AcDbEntity
  8
0
  6
Continuous
 62
     7
370
    15
100
AcDbLine
 10
134.2918755837
 20
187.7689582632
 30
0.0
 11
134.2918755837
 21
182.1621249395
 31
0.0
  0
LINE
  5
326
330
1F
100
AcDbEntity
  8
0
  6
Continuous
 62
     7
370
    15
100
AcDbLine
 10
133.0918755837
 20
192.7689582632
 30
0.0
 11
133.0918755837
 21
203.2689582632
 31
0.0
  0
LINE
  5
327
330
1F
100
AcDbEntity
  8
0
  6
Continuous
 62
     7
370
    15
100
AcDbLine
 10
133.0918755837
 20
182.2689582632
 30
0.0
 11
133.0918755837
 21
192.7689582632
 31
0.0
  0
LINE
  5
328
330
1F
100
AcDbEntity
  8
0
  6
Continuous
 62
     7
370
    15
100
AcDbLine
 10
180.1418755837
 20
184.2689582632
 30
0.0
 11
180.1418755837
 21
180.4689582632
 31
0.0
  0
LINE
  5
329
330
1F
100
AcDbEntity
  8
0
  6
Continuous
 62
     7
370
    15
100
AcDbLine
 10
180.1418755837
 20
188.0689582632
 30
0.0
 11
180.1418755837
 21
184.2689582632
 31
0.0
  0
LINE
  5
32A
330
1F
100
AcDbEntity
  8
0
  6
Continuous
 62
     7
370
    15
100
AcDbLine
 10
179.6418755837
 20
184.2689582632
 30
0.0
 11
179.6418755837
 21
180.4689582632
 31
0.0
  0
LINE
  5
32B
330
1F
100
AcDbEntity
  8
0
  6
Continuous
 62
     7
370
    15
100
AcDbLine
 10
179.6418755837
 20
188.0689582632
 30
0.0
 11
179.6418755837
 21
184.2689582632
 31
0.0
  0
LINE
  5
32C
330
1F
100
AcDbEntity
  8
0
  6
Continuous
 62
     7
370
    15
100
AcDbLine
 10
180.1418755837
 20
210.2689582632
 30
0.0
 11
180.1418755837
 21
206.4689582632
 31
0.0
  0
LINE
  5
32D
330
1F
100
AcDbEntity
  8
0
  6
Continuous
 62
     7
370
    15
100
AcDbLine
 10
180.1418755837
 20
214.0689582632
 30
0.0
 11
180.1418755837
 21
210.2689582632
 31
0.0
  0
LINE
  5
32E
330
1F
100
AcDbEntity
  8
0
  6
Continuous
 62
     7
370
    15
100
AcDbLine
 10
179.6418755837
 20
210.2689582632
 30
0.0
 11
179.6418755837
 21
206.4689582632
 31
0.0
  0
LINE
  5
32F
330
1F
100
AcDbEntity
  8
0
  6
Continuous
 62
     7
370
    15
100
AcDbLine
 10
179.6418755837
 20
214.0689582632
 30
0.0
 11
179.6418755837
 21
210.2689582632
 31
0.0
  0
LINE
  5
330
330
1F
100
AcDbEntity
  8
0
  6
Continuous
 62
     7
370
    15
100
AcDbLine
 10
184.3918755837
 20
186.2689582632
 30
0.0
 11
187.7918755837
 21
186.2689582632
 31
0.0
  0
LINE
  5
331
330
1F
100
AcDbEntity
  8
0
  6
Continuous
 62
     7
370
    15
100
AcDbLine
 10
134.2918755837
 20
208.1621249395
 30
0.0
 11
134.2918755837
 21
206.7689582632
 31
0.0
  0
LINE
  5
332
330
1F
100
AcDbEntity
  8
0
  6
Continuous
 62
     7
370
    15
100
AcDbLine
 10
134.2918755837
 20
213.7689582632
 30
0.0
 11
134.2918755837
 21
208.1621249395
 31
0.0
  0
LINE
  5
333
330
1F
100
AcDbEntity
  8
0
  6
CENTER
 62
     7
370
     0
100
AcDbLine
 10
176.2918755837
 20
225.0506969083
 30
0.0
 11
176.2918755837
 21
257.7819957711
 31
0.0
  0
ARC
  5
334
330
1F
100
AcDbEntity
  8
0
  6
CENTER
 62
     7
370
     0
100
AcDbCircle
 10
140.4365088477
 20
243.3563159309
 30
0.0
 40
40.0000000000355
100
AcDbArc
 50
13.7398481778
 51
21.1393438278
  0
SPLINE
  5
335
330
1F
100
AcDbEntity
  8
0
  6
CENTER
 62
     7
370
     0
100
AcDbSpline
210
0.0
220
0.0
230
1.0
 70
    24
 71
     1
 72
     4
 73
     2
 74
     0
 42
0.00000001
 43
0.00000001
 12
1.0
 22
0.0
 32
0.0
 13
1.0
 23
0.0
 33
0.0
 40
-2.507672157806525
 40
-2.507672157806525
 40
-1.293225136490942
 40
-1.293225136490942
 10
176.2918755837238
 20
257.781995771067
 30
0.0
 10
177.7447533484877
 20
257.7818104553057
 30
0.0
  0
DIMENSION
  5
336
330
1F
100
AcDbEntity
  8
0
  6
Continuous
 62
     7
370
     0
100
AcDbDimension
  2
_D_7
 10
179.2918755837
 20
261.8239501185
 30
0.0
 11
134.1782464907
 21
261.8239501185
 31
0.0
 70
   160
  1
Maxストローク <>
 71
     2
 42
-1.0
  3
SLDDIMSTYLE4
100
AcDbAlignedDimension
 13
176.2918755837
 23
257.7819957711
 33
0.0
 14
179.2918755837
 24
257.7819957711
 34
0.0
100
AcDbRotatedDimension
  0
DIMENSION
  5
344
330
1F
100
AcDbEntity
  8
0
  6
Continuous
 62
     7
370
     0
100
AcDbDimension
  2
_D_8
 10
188.7918755837
 20
157.7689582632
 30
0.0
 11
142.8215167114
 21
157.7689582632
 31
0.0
 70
   160
  1
(<>)
 71
     2
 42
-1.0
  3
SLDDIMSTYLE3
100
AcDbAlignedDimension
 13
98.4918755837
 23
188.9189582632
 33
0.0
 14
188.7918755837
 24
186.2689582631
 34
0.0
100
AcDbRotatedDimension
  0
DIMENSION
  5
350
330
1F
100
AcDbEntity
  8
0
  6
Continuous
 62
     7
370
     0
100
AcDbDimension
  2
_D_9
 10
188.7918755837
 20
166.0644839925
 30
0.0
 11
148.7505705699
 21
166.0644839925
 31
0.0
 70
   160
  1
<>
 71
     2
 42
-1.0
  3
SLDDIMSTYLE0
100
AcDbAlignedDimension
 13
113.0918755837
 23
178.2689582632
 33
0.0
 14
188.7918755837
 24
186.2689582631
 34
0.0
100
AcDbRotatedDimension
  0
DIMENSION
  5
35A
330
1F
100
AcDbEntity
  8
0
  6
Continuous
 62
     7
370
     0
100
AcDbDimension
  2
_D_10
 10
195.3297579081
 20
173.7689582632
 30
0.0
 11
195.3297579081
 21
215.8444582632
 31
0.0
 70
   160
  1
<>
 71
     2
 42
-1.0
  3
SLDDIMSTYLE0
100
AcDbAlignedDimension
 13
179.4886472166
 23
257.9199582632
 33
0.0
 14
158.5918755837
 24
173.7689582632
 34
0.0
 50
90.0
100
AcDbRotatedDimension
  0
DIMENSION
  5
364
330
1F
100
AcDbEntity
  8
0
  6
Continuous
 62
     7
370
     0
100
AcDbDimension
  2
_D_11
 10
188.7918755837
 20
272.9639910147
 30
0.0
 11
184.3698252876
 21
272.9639910147
 31
0.0
 70
   160
  1
<>
 71
     2
 42
-1.0
  3
SLDDIMSTYLE0
100
AcDbAlignedDimension
 13
179.2918755837
 23
257.9199582632
 33
0.0
 14
188.7918755837
 24
225.9689582335
 34
0.0
 50
0.0
100
AcDbRotatedDimension
  0
DIMENSION
  5
36E
330
1F
100
AcDbEntity
  8
0
  6
Continuous
 62
     7
370
     0
100
AcDbDimension
  2
_D_12
 10
153.0918755837
 20
272.9639910147
 30
0.0
 11
165.6115688499
 21
272.9639910147
 31
0.0
 70
   160
  1
(<>)
 71
     2
 42
-1.0
  3
SLDDIMSTYLE0
100
AcDbAlignedDimension
 13
179.2918755837
 23
257.7819957711
 33
0.0
 14
153.0918755837
 24
180.2689582632
 34
0.0
100
AcDbRotatedDimension
  0
DIMENSION
  5
37A
330
1F
100
AcDbEntity
  8
0
  6
Continuous
 62
     7
370
     0
100
AcDbDimension
  2
_D_13
 10
90.9722297196
 20
173.7689582632
 30
0.0
 11
90.9722297196
 21
191.2689420378
 31
0.0
 70
   160
  1
<>
 71
     2
 42
-1.0
  3
SLDDIMSTYLE0
100
AcDbAlignedDimension
 13
117.4918755837
 23
208.7689258124
 33
0.0
 14
130.5918755837
 24
173.7689582632
 34
0.0
 50
90.0
100
AcDbRotatedDimension
  0
DIMENSION
  5
384
330
1F
100
AcDbEntity
  8
0
  6
Continuous
 62
     7
370
     0
100
AcDbDimension
  2
_D_14
 10
96.5732443469
 20
173.7689582632
 30
0.0
 11
96.5732443469
 21
183.2689582632
 31
0.0
 70
   160
  1
<>
 71
     2
 42
-1.0
  3
SLDDIMSTYLE1
100
AcDbAlignedDimension
 13
96.4918755837
 23
192.7689582632
 33
0.0
 14
130.5918755837
 24
173.7689582632
 34
0.0
 50
90.0
100
AcDbRotatedDimension
  0
MTEXT
  5
38D
330
1F
100
AcDbEntity
  8
0
  6
Continuous
 62
     7
370
     0
100
AcDbMText
 10
94.7329109693
 20
239.959896561
 30
0.0
 40
3.5
 41
0.0
 71
     1
 72
     1
  1
カット配管
  7
SLDTEXTSTYLE0
 73
     1
 44
1.0
  0
LEADER
  5
38F
330
1F
100
AcDbEntity
  8
0
  6
Continuous
 62
     7
370
     0
100
AcDbLeader
  3
SLDDIMSTYLE5
 76
     3
 10
132.0996799831
 20
212.7689258124
 30
0.0
 10
122.5349563046
 20
235.3308364544
 30
0.0
 10
94.6941323346
 20
235.3308364544
 30
0.0
  0
MTEXT
  5
390
330
1F
100
AcDbEntity
  8
0
  6
Continuous
 62
     7
370
     0
100
AcDbMText
 10
94.1728095066
 20
233.7201360283
 30
0.0
 40
3.5
 41
0.0
 71
     1
 72
     1
  1
KQ2S04-M5N
  7
SLDTEXTSTYLE0
 73
     1
 44
1.0
  0
MTEXT
  5
391
330
1F
100
AcDbEntity
  8
0
  6
Continuous
 62
     7
370
     0
100
AcDbMText
 10
57.7954151419
 20
159.2458649652
 30
0.0
 40
3.5
 41
0.0
 71
     1
 72
     1
  1
プル配管
  7
SLDTEXTSTYLE0
 73
     1
 44
1.0
  0
LEADER
  5
392
330
1F
100
AcDbEntity
  8
0
  6
Continuous
 62
     7
370
     0
100
AcDbLeader
  3
SLDDIMSTYLE5
 76
     3
 10
107.5542109543
 20
188.7689582632
 30
0.0
 10
83.4588014981
 20
154.6816479401
 30
0.0
 10
57.7403245943
 20
154.6816479401
 30
0.0
  0
LINE
  5
393
330
1F
100
AcDbEntity
  8
0
  6
CENTERX2
 62
     7
370
     0
100
AcDbLine
 10
164.0918755837
 20
180.2689582632
 30
0.0
 11
164.0918755837
 21
173.7689582632
 31
0.0
  0
LINE
  5
394
330
1F
100
AcDbEntity
  8
0
  6
CENTERX2
 62
     7
370
     0
100
AcDbLine
 10
153.0918755837
 20
180.2689582632
 30
0.0
 11
153.0918755837
 21
171.7689582632
 31
0.0
  0
LINE
  5
395
330
1F
100
AcDbEntity
  8
0
  6
CENTERX2
 62
     7
370
     0
100
AcDbLine
 10
151.0918755837
 20
180.2689582632
 30
0.0
 11
151.0918755837
 21
171.7689582632
 31
0.0
  0
LINE
  5
396
330
1F
100
AcDbEntity
  8
0
  6
CENTERX2
 62
     7
370
     0
100
AcDbLine
 10
133.0918755837
 20
180.2689582632
 30
0.0
 11
133.0918755837
 21
171.7689582632
 31
0.0
  0
LINE
  5
397
330
1F
100
AcDbEntity
  8
0
  6
CENTERX2
 62
     7
370
     0
100
AcDbLine
 10
117.4918755837
 20
208.7689258124
 30
0.0
 11
136.0918755837
 21
208.7689258124
 31
0.0
  0
LINE
  5
398
330
1F
100
AcDbEntity
  8
0
  6
CENTERX2
 62
     7
370
     0
100
AcDbLine
 10
174.5918755837
 20
210.7689582632
 30
0.0
 11
177.7918755837
 21
210.7689582632
 31
0.0
  0
LINE
  5
399
330
1F
100
AcDbEntity
  8
0
  6
CENTERX2
 62
     7
370
     0
100
AcDbLine
 10
177.7918755837
 20
210.7689582632
 30
0.0
 11
181.3918755837
 21
210.7689582632
 31
0.0
  0
LINE
  5
39A
330
1F
100
AcDbEntity
  8
0
  6
CENTERX2
 62
     7
370
     0
100
AcDbLine
 10
187.7918755837
 20
222.2243956167
 30
0.0
 11
187.7918755837
 21
184.2689582631
 31
0.0
  0
LINE
  5
39B
330
1F
100
AcDbEntity
  8
0
  6
CENTERX2
 62
     7
370
     0
100
AcDbLine
 10
116.7102255071
 20
192.7689582632
 30
0.0
 11
96.4918755837
 21
192.7689582632
 31
0.0
  0
LINE
  5
39C
330
1F
100
AcDbEntity
  8
0
  6
Continuous
 62
     7
370
    15
100
AcDbLine
 10
100.8918754764
 20
88.218330311
 30
0.0
 11
113.091875241
 21
88.218330311
 31
0.0
  0
LINE
  5
39D
330
1F
100
AcDbEntity
  8
0
  6
Continuous
 62
     7
370
    15
100
AcDbLine
 10
113.091875241
 20
96.218330691
 30
0.0
 11
100.8918754764
 21
96.218330691
 31
0.0
  0
LINE
  5
39E
330
1F
100
AcDbEntity
  8
0
  6
Continuous
 62
     7
370
    15
100
AcDbLine
 10
109.0170428165
 20
103.1183306113
 30
0.0
 11
108.791875095
 21
102.7283309013
 31
0.0
  0
LINE
  5
39F
330
1F
100
AcDbEntity
  8
0
  6
Continuous
 62
     7
370
    15
100
AcDbLine
 10
108.791875095
 20
99.508330597
 30
0.0
 11
109.0170428165
 21
99.1183304213
 31
0.0
  0
LINE
  5
3A0
330
1F
100
AcDbEntity
  8
0
  6
Continuous
 62
     7
370
    15
100
AcDbLine
 10
109.0170428165
 20
99.1183304213
 30
0.0
 11
109.891875089
 21
99.1183304213
 31
0.0
  0
LINE
  5
3A1
330
1F
100
AcDbEntity
  8
0
  6
Continuous
 62
     7
370
    15
100
AcDbLine
 10
109.891875089
 20
103.1183306113
 30
0.0
 11
109.0170428165
 21
103.1183306113
 31
0.0
  0
LINE
  5
3A2
330
1F
100
AcDbEntity
  8
0
  6
Continuous
 62
     7
370
    15
100
AcDbLine
 10
110.1238526412
 20
105.020123905
 30
0.0
 11
109.891875089
 21
104.6183308572
 31
0.0
  0
LINE
  5
3A3
330
1F
100
AcDbEntity
  8
0
  6
Continuous
 62
     7
370
    15
100
AcDbLine
 10
109.891875089
 20
97.6183306411
 30
0.0
 11
110.1256817587
 21
97.2133659743
 31
0.0
  0
ARC
  5
3A4
330
1F
100
AcDbEntity
  8
0
  6
Continuous
 62
     7
370
    15
100
AcDbCircle
 10
180.1418755837
 20
70.668330501
 30
0.0
 40
0.2499999999999432
100
AcDbArc
 50
269.9999999994
 51
0.0
  0
ARC
  5
3A5
330
1F
100
AcDbEntity
  8
0
  6
Continuous
 62
     7
370
    15
100
AcDbCircle
 10
180.1418755837
 20
77.768330501
 30
0.0
 40
0.2500000000019469
100
AcDbArc
 50
0.0
 51
90.0000000006
  0
LINE
  5
3A6
330
1F
100
AcDbEntity
  8
0
  6
Continuous
 62
     7
370
    15
100
AcDbLine
 10
179.6418748804
 20
70.4183302805
 30
0.0
 11
180.1418758937
 21
70.4183302805
 31
0.0
  0
LINE
  5
3A7
330
1F
100
AcDbEntity
  8
0
  6
Continuous
 62
     7
370
    15
100
AcDbLine
 10
180.1418758937
 20
78.0183304086
 30
0.0
 11
179.6418748804
 21
78.0183304086
 31
0.0
  0
LINE
  5
3A8
330
1F
100
AcDbEntity
  8
0
  6
Continuous
 62
     7
370
    15
100
AcDbLine
 10
179.6418748804
 20
106.4183305934
 30
0.0
 11
180.1418758937
 21
106.4183305934
 31
0.0
  0
LINE
  5
3A9
330
1F
100
AcDbEntity
  8
0
  6
Continuous
 62
     7
370
    15
100
AcDbLine
 10
180.1418758937
 20
114.0183307216
 30
0.0
 11
179.6418748804
 21
114.0183307216
 31
0.0
  0
ARC
  5
3AA
330
1F
100
AcDbEntity
  8
0
  6
Continuous
 62
     7
370
    15
100
AcDbCircle
 10
180.1418755837
 20
106.668330501
 30
0.0
 40
0.2499999999999432
100
AcDbArc
 50
269.9999999994
 51
0.0
  0
ARC
  5
3AB
330
1F
100
AcDbEntity
  8
0
  6
Continuous
 62
     7
370
    15
100
AcDbCircle
 10
180.1418755837
 20
113.768330501
 30
0.0
 40
0.2500000000019327
100
AcDbArc
 50
0.0
 51
90.0000000006
  0
ARC
  5
3AC
330
1F
100
AcDbEntity
  8
0
  6
Continuous
 62
     7
370
    15
100
AcDbCircle
 10
179.6418755837
 20
70.668330501
 30
0.0
 40
0.2499999999976978
100
AcDbArc
 50
179.9999999989
 51
269.9999999998
  0
ARC
  5
3AD
330
1F
100
AcDbEntity
  8
0
  6
Continuous
 62
     7
370
    15
100
AcDbCircle
 10
179.6418755837
 20
77.768330501
 30
0.0
 40
0.2499999999976978
100
AcDbArc
 50
90.0000000002
 51
180.0000000011
  0
ARC
  5
3AE
330
1F
100
AcDbEntity
  8
0
  6
Continuous
 62
     7
370
    15
100
AcDbCircle
 10
179.6418755837
 20
106.668330501
 30
0.0
 40
0.2499999999984368
100
AcDbArc
 50
180.0
 51
269.9999999998
  0
ARC
  5
3AF
330
1F
100
AcDbEntity
  8
0
  6
Continuous
 62
     7
370
    15
100
AcDbCircle
 10
179.6418755837
 20
113.768330501
 30
0.0
 40
0.2499999999984368
100
AcDbArc
 50
90.0000000002
 51
180.0
  0
LINE
  5
3B0
330
1F
100
AcDbEntity
  8
0
  6
Continuous
 62
     7
370
    15
100
AcDbLine
 10
184.0918757029
 20
77.7183309183
 30
0.0
 11
180.3855396815
 21
77.7183309183
 31
0.0
  0
LINE
  5
3B1
330
1F
100
AcDbEntity
  8
0
  6
Continuous
 62
     7
370
    15
100
AcDbLine
 10
180.3855396815
 20
70.7183297709
 30
0.0
 11
184.0918757029
 21
70.7183297709
 31
0.0
  0
LINE
  5
3B2
330
1F
100
AcDbEntity
  8
0
  6
Continuous
 62
     7
370
    15
100
AcDbLine
 10
184.0918757029
 20
113.7183312312
 30
0.0
 11
180.3855396815
 21
113.7183312312
 31
0.0
  0
LINE
  5
3B3
330
1F
100
AcDbEntity
  8
0
  6
Continuous
 62
     7
370
    15
100
AcDbLine
 10
180.3855396815
 20
106.7183300838
 30
0.0
 11
184.0918757029
 21
106.7183300838
 31
0.0
  0
LINE
  5
3B4
330
1F
100
AcDbEntity
  8
0
  6
Continuous
 62
     7
370
    15
100
AcDbLine
 10
184.0918757029
 20
70.7183297709
 30
0.0
 11
184.3968763955
 21
71.2266661212
 31
0.0
  0
LINE
  5
3B5
330
1F
100
AcDbEntity
  8
0
  6
Continuous
 62
     7
370
    15
100
AcDbLine
 10
184.3968763955
 20
77.2099954993
 30
0.0
 11
184.0918757029
 21
77.7183309183
 31
0.0
  0
LINE
  5
3B6
330
1F
100
AcDbEntity
  8
0
  6
Continuous
 62
     7
370
    15
100
AcDbLine
 10
184.0918757029
 20
106.7183300838
 30
0.0
 11
184.3968763955
 21
107.2266655028
 31
0.0
  0
LINE
  5
3B7
330
1F
100
AcDbEntity
  8
0
  6
Continuous
 62
     7
370
    15
100
AcDbLine
 10
184.3968763955
 20
113.2099948809
 30
0.0
 11
184.0918757029
 21
113.7183312312
 31
0.0
  0
LINE
  5
3B8
330
1F
100
AcDbEntity
  8
0
  6
Continuous
 62
     7
370
    15
100
AcDbLine
 10
98.4918758281
 20
88.3683305219
 30
0.0
 11
99.9918751426
 21
88.3683305219
 31
0.0
  0
LINE
  5
3B9
330
1F
100
AcDbEntity
  8
0
  6
Continuous
 62
     7
370
    15
100
AcDbLine
 10
99.9918751426
 20
96.0683304802
 30
0.0
 11
98.4918758281
 21
96.0683304802
 31
0.0
  0
LINE
  5
3BA
330
1F
100
AcDbEntity
  8
0
  6
Continuous
 62
     7
370
    15
100
AcDbLine
 10
100.8918754764
 20
94.2683305111
 30
0.0
 11
99.9918751426
 21
94.2683305111
 31
0.0
  0
LINE
  5
3BB
330
1F
100
AcDbEntity
  8
0
  6
Continuous
 62
     7
370
    15
100
AcDbLine
 10
99.9918751426
 20
90.168330491
 30
0.0
 11
100.8918754764
 21
90.168330491
 31
0.0
  0
LINE
  5
3BC
330
1F
100
AcDbEntity
  8
0
  6
Continuous
 62
     7
370
    15
100
AcDbLine
 10
100.8918754764
 20
93.5635309652
 30
0.0
 11
100.8918754764
 21
96.218330691
 31
0.0
  0
LINE
  5
3BD
330
1F
100
AcDbEntity
  8
0
  6
Continuous
 62
     7
370
    15
100
AcDbLine
 10
100.8918754764
 20
88.218330311
 30
0.0
 11
100.8918754764
 21
93.5635309652
 31
0.0
  0
CIRCLE
  5
3BE
330
1F
100
AcDbEntity
  8
0
  6
Continuous
 62
     7
370
    15
100
AcDbCircle
 10
168.3918755837
 20
105.718330501
 30
0.0
 40
1.999999999999998
  0
CIRCLE
  5
3BF
330
1F
100
AcDbEntity
  8
0
  6
Continuous
 62
     7
370
    15
100
AcDbCircle
 10
168.3918755837
 20
105.718330501
 30
0.0
 40
1.588675134594821
  0
CIRCLE
  5
3C0
330
1F
100
AcDbEntity
  8
0
  6
Continuous
 62
     7
370
    15
100
AcDbCircle
 10
168.3918755837
 20
105.718330501
 30
0.0
 40
1.299999999999995
  0
LWPOLYLINE
  5
3C1
330
1F
100
AcDbEntity
  8
0
  6
Continuous
 62
     7
370
    15
100
AcDbPolyline
 90
        3
 70
   128
 43
0.0
 10
164.4429046669
 20
106.3552176565
 10
164.5864047118
 20
106.9505609557
 10
164.5918753006
 20
106.96733035
  0
ARC
  5
3C2
330
1F
100
AcDbEntity
  8
0
  6
Continuous
 62
     7
370
    15
100
AcDbCircle
 10
168.3918755837
 20
105.718330501
 30
0.0
 40
4.000000000000025
100
AcDbArc
 50
170.8382776719
 51
198.1948723388
  0
ARC
  5
3C3
330
1F
100
AcDbEntity
  8
0
  6
Continuous
 62
     7
370
    15
100
AcDbCircle
 10
168.3918755837
 20
105.718330501
 30
0.0
 40
7.800000000000024
100
AcDbArc
 50
170.8382776719
 51
199.2486825368
  0
LWPOLYLINE
  5
3C4
330
1F
100
AcDbEntity
  8
0
  6
Continuous
 62
     7
370
    15
100
AcDbPolyline
 90
        3
 70
   128
 43
0.0
 10
161.027921737
 20
108.2897488013
 10
160.8707983055
 20
107.7855493859
 10
160.6913808741
 20
106.960259749
  0
LINE
  5
3C5
330
1F
100
AcDbEntity
  8
0
  6
Continuous
 62
     7
370
    15
100
AcDbLine
 10
160.4939330377
 20
106.9921035305
 30
0.0
 11
160.6604795911
 21
107.7739385873
 31
0.0
  0
ARC
  5
3C6
330
1F
100
AcDbEntity
  8
0
  6
Continuous
 62
     7
370
    15
100
AcDbCircle
 10
168.3918755837
 20
105.718330501
 30
0.0
 40
8.000000000000046
100
AcDbArc
 50
170.8382776719
 51
194.8892249603
  0
ARC
  5
3C7
330
1F
100
AcDbEntity
  8
0
  6
Continuous
 62
     7
370
    15
100
AcDbCircle
 10
165.5918755837
 20
70.718330501
 30
0.0
 40
1.0
100
AcDbArc
 50
180.0
 51
270.0
  0
ARC
  5
3C8
330
1F
100
AcDbEntity
  8
0
  6
Continuous
 62
     7
370
    15
100
AcDbCircle
 10
165.5918755837
 20
113.718330501
 30
0.0
 40
1.0
100
AcDbArc
 50
90.0
 51
180.0
  0
LINE
  5
3C9
330
1F
100
AcDbEntity
  8
0
  6
Continuous
 62
     7
370
    15
100
AcDbLine
 10
175.5918771036
 20
114.7183313951
 30
0.0
 11
165.5918754645
 21
114.7183313951
 31
0.0
  0
LINE
  5
3CA
330
1F
100
AcDbEntity
  8
0
  6
Continuous
 62
     7
370
    15
100
AcDbLine
 10
175.5918771036
 20
69.718329607
 30
0.0
 11
175.5918771036
 21
114.7183313951
 31
0.0
  0
LINE
  5
3CB
330
1F
100
AcDbEntity
  8
0
  6
Continuous
 62
     7
370
    15
100
AcDbLine
 10
175.5918771036
 20
69.718329607
 30
0.0
 11
165.5918754645
 21
69.718329607
 31
0.0
  0
LINE
  5
3CC
330
1F
100
AcDbEntity
  8
0
  6
Continuous
 62
     7
370
    15
100
AcDbLine
 10
164.5918753006
 20
70.7183297709
 30
0.0
 11
164.5918753006
 21
113.7183312312
 31
0.0
  0
CIRCLE
  5
3CD
330
1F
100
AcDbEntity
  8
0
  6
Continuous
 62
     7
370
    15
100
AcDbCircle
 10
168.3918755837
 20
105.718330501
 30
0.0
 40
2.050000000000011
  0
CIRCLE
  5
3CE
330
1F
100
AcDbEntity
  8
0
  6
Continuous
 62
   144
370
     0
100
AcDbCircle
 10
168.3918755837
 20
78.718330501
 30
0.0
 40
2.050000000000011
  0
LINE
  5
3CF
330
1F
100
AcDbEntity
  8
0
  6
Continuous
 62
     7
370
    15
100
AcDbLine
 10
177.7918770917
 20
69.718329607
 30
0.0
 11
175.5918771036
 21
69.718329607
 31
0.0
  0
LINE
  5
3D0
330
1F
100
AcDbEntity
  8
0
  6
Continuous
 62
     7
370
    15
100
AcDbLine
 10
177.7918770917
 20
69.718329607
 30
0.0
 11
177.7918770917
 21
114.7183313951
 31
0.0
  0
LINE
  5
3D1
330
1F
100
AcDbEntity
  8
0
  6
Continuous
 62
     7
370
    15
100
AcDbLine
 10
177.7918770917
 20
114.7183313951
 30
0.0
 11
175.5918771036
 21
114.7183313951
 31
0.0
  0
LINE
  5
3D2
330
1F
100
AcDbEntity
  8
0
  6
Continuous
 62
     7
370
    15
100
AcDbLine
 10
108.791875095
 20
99.508330597
 30
0.0
 11
108.791875095
 21
102.7283309013
 31
0.0
  0
LINE
  5
3D3
330
1F
100
AcDbEntity
  8
0
  6
Continuous
 62
     7
370
    15
100
AcDbLine
 10
109.0170428165
 20
99.1183304213
 30
0.0
 11
109.0170428165
 21
103.1183306113
 31
0.0
  0
LINE
  5
3D4
330
1F
100
AcDbEntity
  8
0
  6
Continuous
 62
     7
370
    15
100
AcDbLine
 10
129.5918751516
 20
71.2183307842
 30
0.0
 11
130.5918753155
 21
70.2183306202
 31
0.0
  0
LINE
  5
3D5
330
1F
100
AcDbEntity
  8
0
  6
Continuous
 62
     7
370
    15
100
AcDbLine
 10
129.5918751516
 20
113.2183302179
 30
0.0
 11
129.5918751516
 21
71.2183307842
 31
0.0
  0
LINE
  5
3D6
330
1F
100
AcDbEntity
  8
0
  6
Continuous
 62
     7
370
    15
100
AcDbLine
 10
130.5918753155
 20
114.2183303818
 30
0.0
 11
129.5918751516
 21
113.2183302179
 31
0.0
  0
LINE
  5
3D7
330
1F
100
AcDbEntity
  8
0
  6
Continuous
 62
     7
370
    15
100
AcDbLine
 10
158.5918752484
 20
114.2183303818
 30
0.0
 11
130.5918753155
 21
114.2183303818
 31
0.0
  0
LINE
  5
3D8
330
1F
100
AcDbEntity
  8
0
  6
Continuous
 62
     7
370
    15
100
AcDbLine
 10
159.5918763437
 20
113.2183302179
 30
0.0
 11
158.5918752484
 21
114.2183303818
 31
0.0
  0
LINE
  5
3D9
330
1F
100
AcDbEntity
  8
0
  6
Continuous
 62
     7
370
    15
100
AcDbLine
 10
159.5918763437
 20
71.2183307842
 30
0.0
 11
159.5918763437
 21
113.2183302179
 31
0.0
  0
LINE
  5
3DA
330
1F
100
AcDbEntity
  8
0
  6
Continuous
 62
     7
370
    15
100
AcDbLine
 10
158.5918752484
 20
70.2183306202
 30
0.0
 11
159.5918763437
 21
71.2183307842
 31
0.0
  0
LINE
  5
3DB
330
1F
100
AcDbEntity
  8
0
  6
Continuous
 62
     7
370
    15
100
AcDbLine
 10
130.5918753155
 20
70.2183306202
 30
0.0
 11
158.5918752484
 21
70.2183306202
 31
0.0
  0
CIRCLE
  5
3DC
330
1F
100
AcDbEntity
  8
0
  6
Continuous
 62
     7
370
    15
100
AcDbCircle
 10
153.0918755837
 20
110.218330501
 30
0.0
 40
1.649999999999991
  0
CIRCLE
  5
3DD
330
1F
100
AcDbEntity
  8
0
  6
Continuous
 62
     7
370
    15
100
AcDbCircle
 10
151.0918755837
 20
102.0572931803
 30
0.0
 40
1.649999999999977
  0
CIRCLE
  5
3DE
330
1F
100
AcDbEntity
  8
0
  6
Continuous
 62
     7
370
    15
100
AcDbCircle
 10
151.0918755837
 20
82.0572931803
 30
0.0
 40
1.649999999999991
  0
CIRCLE
  5
3DF
330
1F
100
AcDbEntity
  8
0
  6
Continuous
 62
     7
370
    15
100
AcDbCircle
 10
153.0918755837
 20
74.218330501
 30
0.0
 40
1.649999999999991
  0
CIRCLE
  5
3E0
330
1F
100
AcDbEntity
  8
0
  6
Continuous
 62
     7
370
    15
100
AcDbCircle
 10
153.0918755837
 20
92.218330501
 30
0.0
 40
1.649999999999991
  0
CIRCLE
  5
3E1
330
1F
100
AcDbEntity
  8
0
  6
Continuous
 62
     7
370
    15
100
AcDbCircle
 10
133.0918755837
 20
92.218330501
 30
0.0
 40
1.649999999999977
  0
LINE
  5
3E2
330
1F
100
AcDbEntity
  8
0
  6
Continuous
 62
     7
370
    15
100
AcDbLine
 10
164.5918753006
 20
109.7183305755
 30
0.0
 11
164.09187615
 21
109.7183305755
 31
0.0
  0
ARC
  5
3E3
330
1F
100
AcDbEntity
  8
0
  6
Continuous
 62
     7
370
    15
100
AcDbCircle
 10
164.0918755837
 20
105.718330501
 30
0.0
 40
4.000000000000014
100
AcDbArc
 50
90.0
 51
270.0
  0
LINE
  5
3E4
330
1F
100
AcDbEntity
  8
0
  6
Continuous
 62
     7
370
    15
100
AcDbLine
 10
164.09187615
 20
101.7183301956
 30
0.0
 11
164.5918753006
 21
101.7183301956
 31
0.0
  0
LINE
  5
3E5
330
1F
100
AcDbEntity
  8
0
  6
Continuous
 62
     7
370
    15
100
AcDbLine
 10
164.5918753006
 20
82.7183308065
 30
0.0
 11
164.09187615
 21
82.7183308065
 31
0.0
  0
ARC
  5
3E6
330
1F
100
AcDbEntity
  8
0
  6
Continuous
 62
     7
370
    15
100
AcDbCircle
 10
164.0918755837
 20
78.718330501
 30
0.0
 40
4.0
100
AcDbArc
 50
90.0
 51
270.0
  0
LINE
  5
3E7
330
1F
100
AcDbEntity
  8
0
  6
Continuous
 62
     7
370
    15
100
AcDbLine
 10
164.09187615
 20
74.7183304265
 30
0.0
 11
164.5918753006
 21
74.7183304265
 31
0.0
  0
LINE
  5
3E8
330
1F
100
AcDbEntity
  8
0
  6
Continuous
 62
     7
370
    15
100
AcDbLine
 10
130.2918758251
 20
69.718329607
 30
0.0
 11
165.5918754645
 21
69.718329607
 31
0.0
  0
LINE
  5
3E9
330
1F
100
AcDbEntity
  8
0
  6
Continuous
 62
     7
370
    15
100
AcDbLine
 10
130.2918758251
 20
69.718329607
 30
0.0
 11
115.5918747195
 21
76.7183307544
 31
0.0
  0
LINE
  5
3EA
330
1F
100
AcDbEntity
  8
0
  6
Continuous
 62
     7
370
    15
100
AcDbLine
 10
115.5918747195
 20
76.7183307544
 30
0.0
 11
115.5918747195
 21
107.7183302477
 31
0.0
  0
LINE
  5
3EB
330
1F
100
AcDbEntity
  8
0
  6
Continuous
 62
     7
370
    15
100
AcDbLine
 10
115.5918747195
 20
107.7183302477
 30
0.0
 11
130.2918758251
 21
114.7183313951
 31
0.0
  0
LINE
  5
3EC
330
1F
100
AcDbEntity
  8
0
  6
Continuous
 62
     7
370
    15
100
AcDbLine
 10
130.2918758251
 20
114.7183313951
 30
0.0
 11
165.5918754645
 21
114.7183313951
 31
0.0
  0
LINE
  5
3ED
330
1F
100
AcDbEntity
  8
0
  6
Continuous
 62
     7
370
    15
100
AcDbLine
 10
113.091875241
 20
76.7183307544
 30
0.0
 11
113.091875241
 21
107.7183302477
 31
0.0
  0
LINE
  5
3EE
330
1F
100
AcDbEntity
  8
0
  6
Continuous
 62
     7
370
    15
100
AcDbLine
 10
113.091875241
 20
107.7183302477
 30
0.0
 11
115.5918747195
 21
107.7183302477
 31
0.0
  0
LINE
  5
3EF
330
1F
100
AcDbEntity
  8
0
  6
Continuous
 62
     7
370
    15
100
AcDbLine
 10
113.091875241
 20
76.7183307544
 30
0.0
 11
115.5918747195
 21
76.7183307544
 31
0.0
  0
LINE
  5
3F0
330
1F
100
AcDbEntity
  8
0
  6
Continuous
 62
   144
370
     0
100
AcDbLine
 10
134.0918758892
 20
90.905890007
 30
0.0
 11
134.0918758892
 21
93.5307709951
 31
0.0
  0
CIRCLE
  5
3F1
330
1F
100
AcDbEntity
  8
0
  6
Continuous
 62
     7
370
    15
100
AcDbCircle
 10
168.3918755837
 20
78.718330501
 30
0.0
 40
2.000000000000003
  0
CIRCLE
  5
3F2
330
1F
100
AcDbEntity
  8
0
  6
Continuous
 62
     7
370
    15
100
AcDbCircle
 10
168.3918755837
 20
78.718330501
 30
0.0
 40
1.58867513459481
  0
CIRCLE
  5
3F3
330
1F
100
AcDbEntity
  8
0
  6
Continuous
 62
     7
370
    15
100
AcDbCircle
 10
168.3918755837
 20
78.718330501
 30
0.0
 40
1.3
  0
ARC
  5
3F4
330
1F
100
AcDbEntity
  8
0
  6
Continuous
 62
     7
370
    15
100
AcDbCircle
 10
168.3918755837
 20
78.718330501
 30
0.0
 40
4.000000000000014
100
AcDbArc
 50
161.8051276612
 51
198.1948723388
  0
ARC
  5
3F5
330
1F
100
AcDbEntity
  8
0
  6
Continuous
 62
     7
370
    15
100
AcDbCircle
 10
168.3918755837
 20
78.718330501
 30
0.0
 40
7.800000000000001
100
AcDbArc
 50
160.7513174632
 51
199.2486825368
  0
ARC
  5
3F6
330
1F
100
AcDbEntity
  8
0
  6
Continuous
 62
     7
370
    15
100
AcDbCircle
 10
168.3918755837
 20
78.718330501
 30
0.0
 40
8.00000000000002
100
AcDbArc
 50
165.1107750397
 51
194.8892249603
  0
LINE
  5
3F7
330
1F
100
AcDbEntity
  8
0
  6
Continuous
 62
     7
370
    15
100
AcDbLine
 10
113.091875241
 20
98.8714535706
 30
0.0
 11
110.2044828244
 21
98.8714535706
 31
0.0
  0
SPLINE
  5
3F8
330
1F
100
AcDbEntity
  8
0
  6
Continuous
 62
     7
370
    15
100
AcDbSpline
210
0.0
220
0.0
230
1.0
 70
     8
 71
     3
 72
    10
 73
     6
 74
     0
 42
0.00000001
 43
0.00000001
 12
1.0
 22
0.0
 32
0.0
 13
1.0
 23
0.0
 33
0.0
 40
0.0
 40
0.0
 40
0.0
 40
0.0
 40
0.5
 40
0.5
 40
1.0
 40
1.0
 40
1.0
 40
1.0
 10
109.8918755837239
 20
100.8877909197393
 30
0.0
 10
109.8918755837239
 20
100.5455493068472
 30
0.0
 10
109.921809594121
 20
100.2037536617724
 30
0.0
 10
110.0307166448285
 20
99.53224341032137
 30
0.0
 10
110.1092956487356
 20
99.2004758390553
 30
0.0
 10
110.204482974893
 20
98.87145335694076
 30
0.0
  0
SPLINE
  5
3F9
330
1F
100
AcDbEntity
  8
0
  6
Continuous
 62
     7
370
    15
100
AcDbSpline
210
0.0
220
0.0
230
1.0
 70
     8
 71
     3
 72
     8
 73
     4
 74
     0
 42
0.00000001
 43
0.00000001
 12
1.0
 22
0.0
 32
0.0
 13
1.0
 23
0.0
 33
0.0
 40
0.0
 40
0.0
 40
0.0
 40
0.0
 40
1.0
 40
1.0
 40
1.0
 40
1.0
 10
110.2044829748925
 20
102.9041284825379
 30
0.0
 10
110.013632114009
 20
102.2444374659232
 30
0.0
 10
109.8918755837239
 20
101.5748414129315
 30
0.0
 10
109.8918755837239
 20
100.8877909197393
 30
0.0
  0
LINE
  5
3FA
330
1F
100
AcDbEntity
  8
0
  6
Continuous
 62
     7
370
    15
100
AcDbLine
 10
113.091875241
 20
102.9041282818
 30
0.0
 11
110.2044828244
 21
102.9041282818
 31
0.0
  0
SPLINE
  5
3FB
330
1F
100
AcDbEntity
  8
0
  6
Continuous
 62
     7
370
    15
100
AcDbSpline
210
0.0
220
0.0
230
1.0
 70
     8
 71
     3
 72
    10
 73
     6
 74
     0
 42
0.00000001
 43
0.00000001
 12
1.0
 22
0.0
 32
0.0
 13
1.0
 23
0.0
 33
0.0
 40
0.0
 40
0.0
 40
0.0
 40
0.0
 40
0.5
 40
0.5
 40
1.0
 40
1.0
 40
1.0
 40
1.0
 10
109.8918755837239
 20
104.0275670545848
 30
0.0
 10
109.8918755837239
 20
103.8368810127353
 30
0.0
 10
109.921809594121
 20
103.6464434498394
 30
0.0
 10
110.0307166448285
 20
103.2722994910481
 30
0.0
 10
110.1092956487356
 20
103.0874492490095
 30
0.0
 10
110.204482974893
 20
102.9041284825377
 30
0.0
  0
LINE
  5
3FC
330
1F
100
AcDbEntity
  8
0
  6
Continuous
 62
     7
370
    15
100
AcDbLine
 10
109.891875089
 20
104.0275668711
 30
0.0
 11
109.891875089
 21
100.8877906934
 31
0.0
  0
SPLINE
  5
3FD
330
1F
100
AcDbEntity
  8
0
  6
Continuous
 62
     7
370
    15
100
AcDbSpline
210
0.0
220
0.0
230
1.0
 70
     8
 71
     3
 72
    10
 73
     6
 74
     0
 42
0.00000001
 43
0.00000001
 12
1.0
 22
0.0
 32
0.0
 13
1.0
 23
0.0
 33
0.0
 40
0.0
 40
0.0
 40
0.0
 40
0.0
 40
0.5
 40
0.5
 40
1.0
 40
1.0
 40
1.0
 40
1.0
 10
110.2044829748935
 20
98.87145335694085
 30
0.0
 10
110.1096085341784
 20
98.72623057003348
 30
0.0
 10
110.0300340049953
 20
98.57749394716325
 30
0.0
 10
109.9212268909204
 20
98.27934730406162
 30
0.0
 10
109.8918755837239
 20
98.12943961130058
 30
0.0
 10
109.8918755837239
 20
97.97855436618947
 30
0.0
  0
LINE
  5
3FE
330
1F
100
AcDbEntity
  8
0
  6
Continuous
 62
     7
370
    15
100
AcDbLine
 10
109.891875089
 20
100.8877906934
 30
0.0
 11
109.891875089
 21
97.9785545714
 31
0.0
  0
SPLINE
  5
3FF
330
1F
100
AcDbEntity
  8
0
  6
Continuous
 62
     7
370
    15
100
AcDbSpline
210
0.0
220
0.0
230
1.0
 70
     8
 71
     3
 72
     8
 73
     4
 74
     0
 42
0.00000001
 43
0.00000001
 12
1.0
 22
0.0
 32
0.0
 13
1.0
 23
0.0
 33
0.0
 40
0.0
 40
0.0
 40
0.0
 40
0.0
 40
1.0
 40
1.0
 40
1.0
 40
1.0
 10
110.2044829748925
 20
105.151005626632
 30
0.0
 10
110.013632114009
 20
104.7834469661321
 30
0.0
 10
109.8918755837239
 20
104.4103695372826
 30
0.0
 10
109.8918755837239
 20
104.0275670545848
 30
0.0
  0
LINE
  5
400
330
1F
100
AcDbEntity
  8
0
  6
Continuous
 62
     7
370
    15
100
AcDbLine
 10
113.091875241
 20
105.1510054603
 30
0.0
 11
110.2044828244
 21
105.1510054603
 31
0.0
  0
LINE
  5
401
330
1F
100
AcDbEntity
  8
0
  6
Continuous
 62
     7
370
    15
100
AcDbLine
 10
109.891875089
 20
104.6183308572
 30
0.0
 11
109.891875089
 21
104.0275668711
 31
0.0
  0
LINE
  5
402
330
1F
100
AcDbEntity
  8
0
  6
Continuous
 62
     7
370
    15
100
AcDbLine
 10
109.891875089
 20
97.9785545714
 30
0.0
 11
109.891875089
 21
97.6183306411
 31
0.0
  0
LINE
  5
403
330
1F
100
AcDbEntity
  8
0
  6
Continuous
 62
     7
370
    15
100
AcDbLine
 10
113.091875241
 20
97.0856555723
 30
0.0
 11
110.2044828244
 21
97.0856555723
 31
0.0
  0
SPLINE
  5
404
330
1F
100
AcDbEntity
  8
0
  6
Continuous
 62
     7
370
    15
100
AcDbSpline
210
0.0
220
0.0
230
1.0
 70
     8
 71
     3
 72
    10
 73
     6
 74
     0
 42
0.00000001
 43
0.00000001
 12
1.0
 22
0.0
 32
0.0
 13
1.0
 23
0.0
 33
0.0
 40
0.0
 40
0.0
 40
0.0
 40
0.0
 40
0.5
 40
0.5
 40
1.0
 40
1.0
 40
1.0
 40
1.0
 10
109.8918755837239
 20
97.97855436618947
 30
0.0
 10
109.8918755837239
 20
97.82757947483312
 30
0.0
 10
109.922038826648
 20
97.67455174727796
 30
0.0
 10
110.0316100787077
 20
97.37630276783321
 30
0.0
 10
110.1101612270131
 20
97.23003216427529
 30
0.0
 10
110.2044829748935
 20
97.08565537543811
 30
0.0
  0
SPLINE
  5
405
330
1F
100
AcDbEntity
  8
0
  6
Continuous
 62
     7
370
    15
100
AcDbSpline
210
0.0
220
0.0
230
1.0
 70
     8
 71
     3
 72
     9
 73
     5
 74
     0
 42
0.00000001
 43
0.00000001
 12
1.0
 22
0.0
 32
0.0
 13
1.0
 23
0.0
 33
0.0
 40
0.0
 40
0.0
 40
0.0
 40
0.0
 40
0.8578298124252973
 40
1.0
 40
1.0
 40
1.0
 40
1.0
 10
110.2044828244007
 20
105.151005460337
 30
0.0
 10
110.1801801434939
 20
105.1136692680483
 30
0.0
 10
110.1518497211247
 20
105.0701452592671
 30
0.0
 10
110.1276963170951
 20
105.0261406925598
 30
0.0
 10
110.1242624231136
 20
105.0198845550569
 30
0.0
  0
LINE
  5
406
330
1F
100
AcDbEntity
  8
0
  6
Continuous
 62
     7
370
    15
100
AcDbLine
 10
179.3918743737
 20
69.718329607
 30
0.0
 11
179.3918743737
 21
73.7183302626
 31
0.0
  0
LINE
  5
407
330
1F
100
AcDbEntity
  8
0
  6
Continuous
 62
     7
370
    15
100
AcDbLine
 10
179.3918743737
 20
73.7183302626
 30
0.0
 11
179.3918743737
 21
110.7183307395
 31
0.0
  0
LINE
  5
408
330
1F
100
AcDbEntity
  8
0
  6
Continuous
 62
     7
370
    15
100
AcDbLine
 10
179.3918743737
 20
110.7183307395
 30
0.0
 11
179.3918743737
 21
114.7183313951
 31
0.0
  0
LINE
  5
409
330
1F
100
AcDbEntity
  8
0
  6
Continuous
 62
     7
370
    15
100
AcDbLine
 10
179.3918743737
 20
73.7183302626
 30
0.0
 11
177.7918770917
 21
73.7183302626
 31
0.0
  0
LINE
  5
40A
330
1F
100
AcDbEntity
  8
0
  6
Continuous
 62
     7
370
    15
100
AcDbLine
 10
179.3918743737
 20
69.718329607
 30
0.0
 11
177.7918770917
 21
69.718329607
 31
0.0
  0
LINE
  5
40B
330
1F
100
AcDbEntity
  8
0
  6
Continuous
 62
     7
370
    15
100
AcDbLine
 10
179.3918743737
 20
110.7183307395
 30
0.0
 11
177.7918770917
 21
110.7183307395
 31
0.0
  0
LINE
  5
40C
330
1F
100
AcDbEntity
  8
0
  6
Continuous
 62
     7
370
    15
100
AcDbLine
 10
177.7918770917
 20
114.7183313951
 30
0.0
 11
179.3918743737
 21
114.7183313951
 31
0.0
  0
SPLINE
  5
40D
330
1F
100
AcDbEntity
  8
0
  6
Continuous
 62
     7
370
    15
100
AcDbSpline
210
0.0
220
0.0
230
1.0
 70
    24
 71
     3
 72
    28
 73
    24
 74
     0
 42
0.00000001
 43
0.00000001
 12
1.0
 22
0.0
 32
0.0
 13
1.0
 23
0.0
 33
0.0
 40
0.0
 40
0.0
 40
0.0
 40
0.0
 40
0.0152071105861389
 40
0.0303478088887048
 40
0.0454562927128705
 40
0.0605669785843431
 40
0.0757142680188607
 40
0.0909323142990264
 40
0.1488754328689644
 40
0.2064291673371433
 40
0.2593161959992102
 40
0.3328404229694724
 40
0.4214619309364591
 40
0.4999514784635241
 40
0.5784712733144547
 40
0.6523499466204833
 40
0.7273979146802859
 40
0.791014532974766
 40
0.8426909251981229
 40
0.8946305348400451
 40
0.9298094869953398
 40
0.9647893025300128
 40
1.0
 40
1.0
 40
1.0
 40
1.0
 10
180.3918755837238
 20
77.76833031681501
 30
0.0
 10
180.3918755837238
 20
77.76755897263436
 30
0.0
 10
180.3918755837238
 20
77.76601965287672
 30
0.0
 10
180.3918755837238
 20
77.7536115775093
 30
0.0
 10
180.3918755837239
 20
77.73379526132774
 30
0.0
 10
180.3918755837238
 20
77.7058554664176
 30
0.0
 10
180.3918755837239
 20
77.66998415705554
 30
0.0
 10
180.3918755837238
 20
77.58522180226757
 30
0.0
 10
180.3918755837239
 20
77.40757227564865
 30
0.0
 10
180.3918755837238
 20
77.07418319967266
 30
0.0
 10
180.3918755837238
 20
76.61429218536009
 30
0.0
 10
180.3918755837239
 20
75.97103072488679
 30
0.0
 10
180.3918755837238
 20
75.13202948744194
 30
0.0
 10
180.3918755837239
 20
74.21853718521447
 30
0.0
 10
180.3918755837238
 20
73.35933727027135
 30
0.0
 10
180.3918755837239
 20
72.56312086323366
 30
0.0
 10
180.3918755837238
 20
71.90560593804476
 30
0.0
 10
180.3918755837238
 20
71.41695182049406
 30
0.0
 10
180.3918755837238
 20
71.07681752853848
 30
0.0
 10
180.3918755837239
 20
70.8704492932724
 30
0.0
 10
180.3918755837238
 20
70.74728662840022
 30
0.0
 10
180.3918755837238
 20
70.68052856028987
 30
0.0
 10
180.3918755837238
 20
70.67240555010424
 30
0.0
 10
180.3918755837238
 20
70.66833068525501
 30
0.0
  0
SPLINE
  5
40E
330
1F
100
AcDbEntity
  8
0
  6
Continuous
 62
     7
370
    15
100
AcDbSpline
210
0.0
220
0.0
230
1.0
 70
    24
 71
     3
 72
    28
 73
    24
 74
     0
 42
0.00000001
 43
0.00000001
 12
1.0
 22
0.0
 32
0.0
 13
1.0
 23
0.0
 33
0.0
 40
0.0
 40
0.0
 40
0.0
 40
0.0
 40
0.0152071105880525
 40
0.0303478088918209
 40
0.0454562927164243
 40
0.0605669785875201
 40
0.075714268020804
 40
0.0909323142988413
 40
0.1488754328568171
 40
0.2064291673366835
 40
0.2593161959951849
 40
0.3328404232076671
 40
0.4214619319328392
 40
0.4999514823543081
 40
0.5784712743111303
 40
0.6523499466192003
 40
0.7273979146791587
 40
0.7910145331480856
 40
0.8426909249775423
 40
0.8946305342333173
 40
0.9298094865924721
 40
0.9647893023269323
 40
0.9999999999999999
 40
0.9999999999999999
 40
0.9999999999999999
 40
0.9999999999999999
 10
180.3918755837239
 20
113.768330316815
 30
0.0
 10
180.3918755837239
 20
113.7675589726289
 30
0.0
 10
180.3918755837239
 20
113.7660196528604
 30
0.0
 10
180.3918755837239
 20
113.753611577485
 30
0.0
 10
180.3918755837238
 20
113.7337952613016
 30
0.0
 10
180.3918755837239
 20
113.7058554663966
 30
0.0
 10
180.3918755837238
 20
113.6699841570456
 30
0.0
 10
180.3918755837239
 20
113.5852218022996
 30
0.0
 10
180.3918755837239
 20
113.407572275677
 30
0.0
 10
180.3918755837239
 20
113.0741831996819
 30
0.0
 10
180.3918755837238
 20
112.6142921847995
 30
0.0
 10
180.3918755837239
 20
111.9710307210969
 30
0.0
 10
180.3918755837239
 20
111.132029469304
 30
0.0
 10
180.3918755837239
 20
110.218537162537
 30
0.0
 10
180.3918755837239
 20
109.3593372529389
 30
0.0
 10
180.3918755837238
 20
108.5631208601476
 30
0.0
 10
180.3918755837238
 20
107.9056059375045
 30
0.0
 10
180.3918755837238
 20
107.4169518206483
 30
0.0
 10
180.3918755837239
 20
107.0768175299002
 30
0.0
 10
180.3918755837238
 20
106.8704492948986
 30
0.0
 10
180.3918755837239
 20
106.7472866293157
 30
0.0
 10
180.3918755837239
 20
106.680528560436
 30
0.0
 10
180.3918755837238
 20
106.6724055501531
 30
0.0
 10
180.3918755837238
 20
106.668330685255
 30
0.0
  0
LINE
  5
40F
330
1F
100
AcDbEntity
  8
0
  6
Continuous
 62
     7
370
    15
100
AcDbLine
 10
184.0918757029
 20
77.7183309183
 30
0.0
 11
184.0918757029
 21
70.7183297709
 31
0.0
  0
LINE
  5
410
330
1F
100
AcDbEntity
  8
0
  6
Continuous
 62
     7
370
    15
100
AcDbLine
 10
184.0918757029
 20
113.7183312312
 30
0.0
 11
184.0918757029
 21
106.7183300838
 31
0.0
  0
SPLINE
  5
411
330
1F
100
AcDbEntity
  8
0
  6
Continuous
 62
     7
370
    15
100
AcDbSpline
210
0.0
220
0.0
230
1.0
 70
    24
 71
     3
 72
    28
 73
    24
 74
     0
 42
0.00000001
 43
0.00000001
 12
1.0
 22
0.0
 32
0.0
 13
1.0
 23
0.0
 33
0.0
 40
0.0
 40
0.0
 40
0.0
 40
0.0
 40
0.0176676888836556
 40
0.0352278705059953
 40
0.0527340125846109
 40
0.0702400779932335
 40
0.0878000303124305
 40
0.1054673393480801
 40
0.1620979537903981
 40
0.2187848180190977
 40
0.2826640944328072
 40
0.3464855885383487
 40
0.4153066168641192
 40
0.5000480839462923
 40
0.5756763223803884
 40
0.6531676865844047
 40
0.7285702590355355
 40
0.7901618662893203
 40
0.8452140125632691
 40
0.900322799866143
 40
0.9335851172101357
 40
0.9666891647793925
 40
1.0
 40
1.0
 40
1.0
 40
1.0
 10
184.3918755837239
 20
77.21833050103457
 30
0.0
 10
184.3918755837238
 20
77.21745873168544
 30
0.0
 10
184.3918755837239
 20
77.21572049767276
 30
0.0
 10
184.3918755837238
 20
77.20164756273233
 30
0.0
 10
184.3918755837238
 20
77.17915623044985
 30
0.0
 10
184.3918755837238
 20
77.14744231170484
 30
0.0
 10
184.3918755837238
 20
77.10670994127386
 30
0.0
 10
184.3918755837239
 20
77.02055980854358
 30
0.0
 10
184.3918755837239
 20
76.85293779498448
 30
0.0
 10
184.3918755837238
 20
76.53763423329654
 30
0.0
 10
184.3918755837239
 20
76.12644567653962
 30
0.0
 10
184.3918755837238
 20
75.60753057141964
 30
0.0
 10
184.3918755837238
 20
74.96783770010063
 30
0.0
 10
184.3918755837238
 20
74.2468321848913
 30
0.0
 10
184.3918755837238
 20
73.49947798507259
 30
0.0
 10
184.3918755837239
 20
72.82164287762579
 30
0.0
 10
184.3918755837238
 20
72.26077266125091
 30
0.0
 10
184.3918755837239
 20
71.84565903136054
 30
0.0
 10
184.3918755837238
 20
71.55172323505627
 30
0.0
 10
184.3918755837238
 20
71.37641425559795
 30
0.0
 10
184.3918755837238
 20
71.27818396750311
 30
0.0
 10
184.3918755837238
 20
71.22759914207867
 30
0.0
 10
184.3918755837238
 20
71.2214264544231
 30
0.0
 10
184.3918755837238
 20
71.21833050103545
 30
0.0
  0
SPLINE
  5
412
330
1F
100
AcDbEntity
  8
0
  6
Continuous
 62
     7
370
    15
100
AcDbSpline
210
0.0
220
0.0
230
1.0
 70
    24
 71
     3
 72
    28
 73
    24
 74
     0
 42
0.00000001
 43
0.00000001
 12
1.0
 22
0.0
 32
0.0
 13
1.0
 23
0.0
 33
0.0
 40
0.0
 40
0.0
 40
0.0
 40
0.0
 40
0.0176676888838605
 40
0.0352278705064059
 40
0.0527340125852072
 40
0.0702400779939754
 40
0.0878000303132577
 40
0.1054673393489135
 40
0.1620979537914766
 40
0.2187848180200386
 40
0.282664094439065
 40
0.3464855885413333
 40
0.4153066167967562
 40
0.5000480839102236
 40
0.5756763223877218
 40
0.6531676865933307
 40
0.7285702590555279
 40
0.7901618686820926
 40
0.8452140163249654
 40
0.9003228049958008
 40
0.9335851206223141
 40
0.9666891665006129
 40
1.0
 40
1.0
 40
1.0
 40
1.0
 10
184.3918755837238
 20
113.2183305010346
 30
0.0
 10
184.3918755837238
 20
113.2174587316808
 30
0.0
 10
184.3918755837239
 20
113.215720497659
 30
0.0
 10
184.3918755837238
 20
113.2016475627073
 30
0.0
 10
184.3918755837238
 20
113.1791562304153
 30
0.0
 10
184.3918755837238
 20
113.1474423116628
 30
0.0
 10
184.3918755837238
 20
113.1067099412264
 30
0.0
 10
184.3918755837239
 20
113.0205598084895
 30
0.0
 10
184.3918755837238
 20
112.8529377949314
 30
0.0
 10
184.3918755837239
 20
112.5376342332514
 30
0.0
 10
184.3918755837238
 20
112.1264456765245
 30
0.0
 10
184.3918755837238
 20
111.607530571611
 30
0.0
 10
184.3918755837239
 20
110.9678377004489
 30
0.0
 10
184.3918755837239
 20
110.2468321852559
 30
0.0
 10
184.3918755837238
 20
109.499477985195
 30
0.0
 10
184.3918755837239
 20
108.8216428775904
 30
0.0
 10
184.3918755837238
 20
108.2607726550155
 30
0.0
 10
184.3918755837238
 20
107.8456590184813
 30
0.0
 10
184.3918755837238
 20
107.5517232177288
 30
0.0
 10
184.3918755837239
 20
107.3764142428399
 30
0.0
 10
184.3918755837238
 20
107.2781839613786
 30
0.0
 10
184.3918755837239
 20
107.2275991411476
 30
0.0
 10
184.3918755837239
 20
107.2214264541115
 30
0.0
 10
184.3918755837238
 20
107.2183305010355
 30
0.0
  0
LINE
  5
413
330
1F
100
AcDbEntity
  8
0
  6
Continuous
 62
     7
370
    15
100
AcDbLine
 10
187.7918750056
 20
81.2183305606
 30
0.0
 11
188.7918770321
 21
81.2183305606
 31
0.0
  0
SPLINE
  5
414
330
1F
100
AcDbEntity
  8
0
  6
Continuous
 62
     7
370
    15
100
AcDbSpline
210
0.0
220
0.0
230
1.0
 70
    24
 71
     3
 72
    17
 73
    13
 74
     0
 42
0.00000001
 43
0.00000001
 12
1.0
 22
0.0
 32
0.0
 13
1.0
 23
0.0
 33
0.0
 40
0.0
 40
0.0
 40
0.0
 40
0.0
 40
0.060318123033142
 40
0.1201003821748315
 40
0.1798838664137514
 40
0.2402056320147746
 40
0.3699933677331209
 40
0.5001298971702229
 40
0.6299177897397719
 40
0.760054476441233
 40
0.879859341474865
 40
1.0
 40
1.0
 40
1.0
 40
1.0
 10
188.7918755837239
 20
81.21833050145138
 30
0.0
 10
188.7918755837239
 20
81.18677584703545
 30
0.0
 10
188.7918755837239
 20
81.1239468685431
 30
0.0
 10
188.7918755837239
 20
81.03066917663314
 30
0.0
 10
188.7918755837239
 20
80.93906560018861
 30
0.0
 10
188.7918755837239
 20
80.81532899566996
 30
0.0
 10
188.7918755837239
 20
80.66529294814781
 30
0.0
 10
188.7918755837239
 20
80.50661175259785
 30
0.0
 10
188.7918755837239
 20
80.37624904917664
 30
0.0
 10
188.7918755837239
 20
80.28516769478482
 30
0.0
 10
188.7918755837239
 20
80.2283673877431
 30
0.0
 10
188.7918755837239
 20
80.22167935490994
 30
0.0
 10
188.7918755837239
 20
80.21833065868549
 30
0.0
  0
ARC
  5
415
330
1F
100
AcDbEntity
  8
0
  6
Continuous
 62
     7
370
    15
100
AcDbCircle
 10
187.7918755837
 20
80.218330501
 30
0.0
 40
0.9999999999948272
100
AcDbArc
 50
269.9999999999
 51
0.0000000001
  0
LINE
  5
416
330
1F
100
AcDbEntity
  8
0
  6
Continuous
 62
     7
370
    15
100
AcDbLine
 10
187.7918750056
 20
81.2183305606
 30
0.0
 11
187.7918750056
 21
79.2183302328
 31
0.0
  0
LINE
  5
417
330
1F
100
AcDbEntity
  8
0
  6
Continuous
 62
     7
370
    15
100
AcDbLine
 10
179.3918743737
 20
81.2183305606
 30
0.0
 11
187.7918750056
 21
81.2183305606
 31
0.0
  0
LINE
  5
418
330
1F
100
AcDbEntity
  8
0
  6
Continuous
 62
     7
370
    15
100
AcDbLine
 10
179.3918743737
 20
79.2183302328
 30
0.0
 11
187.7918750056
 21
79.2183302328
 31
0.0
  0
LINE
  5
419
330
1F
100
AcDbEntity
  8
0
  6
Continuous
 62
     7
370
    15
100
AcDbLine
 10
187.7918750056
 20
103.2183304414
 30
0.0
 11
188.7918770321
 21
103.2183304414
 31
0.0
  0
LINE
  5
41A
330
1F
100
AcDbEntity
  8
0
  6
Continuous
 62
     7
370
    15
100
AcDbLine
 10
188.7918770321
 20
103.2183304414
 30
0.0
 11
188.7918770321
 21
81.2183305606
 31
0.0
  0
LINE
  5
41B
330
1F
100
AcDbEntity
  8
0
  6
Continuous
 62
     7
370
    15
100
AcDbLine
 10
187.7918750056
 20
103.2183304414
 30
0.0
 11
187.7918750056
 21
81.2183305606
 31
0.0
  0
LINE
  5
41C
330
1F
100
AcDbEntity
  8
0
  6
Continuous
 62
     7
370
    15
100
AcDbLine
 10
179.3918743737
 20
103.2183304414
 30
0.0
 11
187.7918750056
 21
103.2183304414
 31
0.0
  0
ARC
  5
41D
330
1F
100
AcDbEntity
  8
0
  6
Continuous
 62
     7
370
    15
100
AcDbCircle
 10
187.7918755837
 20
104.218330501
 30
0.0
 40
0.9999999999984794
100
AcDbArc
 50
359.9999954835
 51
89.9999999996
  0
SPLINE
  5
41E
330
1F
100
AcDbEntity
  8
0
  6
Continuous
 62
     7
370
    15
100
AcDbSpline
210
0.0
220
0.0
230
1.0
 70
    24
 71
     3
 72
    17
 73
    13
 74
     0
 42
0.00000001
 43
0.00000001
 12
1.0
 22
0.0
 32
0.0
 13
1.0
 23
0.0
 33
0.0
 40
0.0
 40
0.0
 40
0.0
 40
0.0
 40
0.0603181230342539
 40
0.1201003821780017
 40
0.1798838664196154
 40
0.2402056320236332
 40
0.3699933677374501
 40
0.5001298971722635
 40
0.6299177897373678
 40
0.7600544764353286
 40
0.8798593414720134
 40
1.0
 40
1.0
 40
1.0
 40
1.0
 10
188.7918755837239
 20
104.2183303433851
 30
0.0
 10
188.7918755837239
 20
104.217482355479
 30
0.0
 10
188.7918755837239
 20
104.2157939131589
 30
0.0
 10
188.7918755837239
 20
104.202096185132
 30
0.0
 10
188.7918755837239
 20
104.1801671322291
 30
0.0
 10
188.7918755837239
 20
104.1376694140934
 30
0.0
 10
188.7918755837239
 20
104.0603785578732
 30
0.0
 10
188.7918755837239
 20
103.9303496125086
 30
0.0
 10
188.7918755837239
 20
103.7714917296529
 30
0.0
 10
188.7918755837239
 20
103.5937412588777
 30
0.0
 10
188.7918755837239
 20
103.4069623957264
 30
0.0
 10
188.7918755837239
 20
103.2812664346382
 30
0.0
 10
188.7918755837239
 20
103.218330501035
 30
0.0
  0
LINE
  5
41F
330
1F
100
AcDbEntity
  8
0
  6
Continuous
 62
     7
370
    15
100
AcDbLine
 10
187.7918750056
 20
105.2183307693
 30
0.0
 11
187.7918750056
 21
103.2183304414
 31
0.0
  0
LINE
  5
420
330
1F
100
AcDbEntity
  8
0
  6
Continuous
 62
     7
370
    15
100
AcDbLine
 10
179.3918743737
 20
105.2183307693
 30
0.0
 11
187.7918750056
 21
105.2183307693
 31
0.0
  0
LINE
  5
421
330
1F
100
AcDbEntity
  8
0
  6
Continuous
 62
     7
370
    15
100
AcDbLine
 10
98.4918758281
 20
88.5925741386
 30
0.0
 11
98.4918758281
 21
96.0683304802
 31
0.0
  0
LINE
  5
422
330
1F
100
AcDbEntity
  8
0
  6
Continuous
 62
     7
370
    15
100
AcDbLine
 10
98.4918758281
 20
88.3683305219
 30
0.0
 11
98.4918758281
 21
88.5925741386
 31
0.0
  0
LINE
  5
423
330
1F
100
AcDbEntity
  8
0
  6
Continuous
 62
     7
370
    15
100
AcDbLine
 10
99.9918751426
 20
88.5925741386
 30
0.0
 11
99.9918751426
 21
96.0683304802
 31
0.0
  0
LINE
  5
424
330
1F
100
AcDbEntity
  8
0
  6
Continuous
 62
     7
370
    15
100
AcDbLine
 10
99.9918751426
 20
88.3683305219
 30
0.0
 11
99.9918751426
 21
88.5925741386
 31
0.0
  0
LINE
  5
425
330
1F
100
AcDbEntity
  8
0
  6
Continuous
 62
     7
370
    15
100
AcDbLine
 10
133.0918757253
 20
90.56833051
 30
0.0
 11
133.0918757253
 21
93.8683304921
 31
0.0
  0
LINE
  5
426
330
1F
100
AcDbEntity
  8
0
  6
Continuous
 62
     7
370
    15
100
AcDbLine
 10
180.1418758937
 20
78.0183304086
 30
0.0
 11
180.1418758937
 21
70.4183302805
 31
0.0
  0
LINE
  5
427
330
1F
100
AcDbEntity
  8
0
  6
Continuous
 62
     7
370
    15
100
AcDbLine
 10
179.6418748804
 20
78.0183304086
 30
0.0
 11
179.6418748804
 21
70.4183302805
 31
0.0
  0
LINE
  5
428
330
1F
100
AcDbEntity
  8
0
  6
Continuous
 62
     7
370
    15
100
AcDbLine
 10
180.1418758937
 20
114.0183307216
 30
0.0
 11
180.1418758937
 21
106.4183305934
 31
0.0
  0
LINE
  5
429
330
1F
100
AcDbEntity
  8
0
  6
Continuous
 62
     7
370
    15
100
AcDbLine
 10
179.6418748804
 20
114.0183307216
 30
0.0
 11
179.6418748804
 21
106.4183305934
 31
0.0
  0
LINE
  5
42A
330
1F
100
AcDbEntity
  8
0
  6
Continuous
 62
     7
370
    15
100
AcDbLine
 10
154.6642942362
 20
73.7183302626
 30
0.0
 11
151.5194572516
 21
73.7183302626
 31
0.0
  0
LINE
  5
42B
330
1F
100
AcDbEntity
  8
0
  6
Continuous
 62
     7
370
    15
100
AcDbLine
 10
154.6642942362
 20
110.7183307395
 30
0.0
 11
151.5194572516
 21
110.7183307395
 31
0.0
  0
DIMENSION
  5
42C
330
1F
100
AcDbEntity
  8
0
  6
Continuous
 62
     7
370
     0
100
AcDbDimension
  2
_D_15
 10
153.0918755837
 20
130.718330501
 30
0.0
 11
134.1710287857
 21
130.718330501
 31
0.0
 70
   160
  1
<>
 71
     2
 42
-1.0
  3
SLDDIMSTYLE1
100
AcDbAlignedDimension
 13
113.0918755837
 23
107.718330501
 33
0.0
 14
153.0918755837
 24
114.368330501
 34
0.0
 50
0.0
100
AcDbRotatedDimension
  0
DIMENSION
  5
436
330
1F
100
AcDbEntity
  8
0
  6
Continuous
 62
     7
370
     0
100
AcDbDimension
  2
_D_16
 10
153.0918755837
 20
130.718330501
 30
0.0
 11
170.9418755837
 21
130.718330501
 31
0.0
 70
   160
  1
(<>)
 71
     2
 42
-1.0
  3
SLDDIMSTYLE3
100
AcDbAlignedDimension
 13
188.7918755837
 23
103.218330501
 33
0.0
 14
153.0918755837
 24
114.368330501
 34
0.0
 50
0.0
100
AcDbRotatedDimension
  0
DIMENSION
  5
442
330
1F
100
AcDbEntity
  8
0
  6
Continuous
 62
     7
370
     0
100
AcDbDimension
  2
_D_17
 10
151.0918755837
 20
123.4477334311
 30
0.0
 11
144.7860050102
 21
123.4477334311
 31
0.0
 70
   160
  1
<>
 71
     2
 42
-1.0
  3
SLDDIMSTYLE4
100
AcDbAlignedDimension
 13
153.0918755837
 23
114.368330501
 33
0.0
 14
151.0918755837
 24
106.2072931803
 34
0.0
100
AcDbRotatedDimension
  0
DIMENSION
  5
44E
330
1F
100
AcDbEntity
  8
0
  6
Continuous
 62
     7
370
     0
100
AcDbDimension
  2
_D_18
 10
91.5944092296
 20
82.0572931803
 30
0.0
 11
91.5944092296
 21
92.8947243999
 31
0.0
 70
   160
  1
<>
 71
     2
 42
-1.0
  3
SLDDIMSTYLE1
100
AcDbAlignedDimension
 13
146.9418755837
 23
102.0572931803
 33
0.0
 14
146.9418755837
 24
82.0572931803
 34
0.0
 50
90.0
100
AcDbRotatedDimension
  0
DIMENSION
  5
458
330
1F
100
AcDbEntity
  8
0
  6
Continuous
 62
     7
370
     0
100
AcDbDimension
  2
_D_19
 10
82.4918755837
 20
74.218330501
 30
0.0
 11
82.4918755837
 21
92.8947243999
 31
0.0
 70
   160
  1
<>
 71
     2
 42
-1.0
  3
SLDDIMSTYLE1
100
AcDbAlignedDimension
 13
148.9418755837
 23
110.218330501
 33
0.0
 14
148.9418755837
 24
74.218330501
 34
0.0
 50
90.0
100
AcDbRotatedDimension
  0
DIMENSION
  5
462
330
1F
100
AcDbEntity
  8
0
  6
Continuous
 62
     7
370
     0
100
AcDbDimension
  2
_D_20
 10
188.7918755837
 20
55.8591012688
 30
0.0
 11
174.8817765529
 21
55.8591012688
 31
0.0
 70
   160
  1
<>
 71
     2
 42
-1.0
  3
SLDDIMSTYLE3
100
AcDbAlignedDimension
 13
159.5918755837
 23
71.218330501
 33
0.0
 14
188.7918755837
 24
81.2183305015
 34
0.0
 50
0.0
100
AcDbRotatedDimension
  0
DIMENSION
  5
46C
330
1F
100
AcDbEntity
  8
0
  6
Continuous
 62
     7
370
     0
100
AcDbDimension
  2
_D_21
 10
129.5918755837
 20
55.8591012688
 30
0.0
 11
144.5918755837
 21
55.8591012688
 31
0.0
 70
   160
  1
<>
 71
     2
 42
-1.0
  3
SLDDIMSTYLE1
100
AcDbAlignedDimension
 13
159.5918755837
 23
71.218330501
 33
0.0
 14
129.5918755837
 24
71.218330501
 34
0.0
 50
0.0
100
AcDbRotatedDimension
  0
DIMENSION
  5
476
330
1F
100
AcDbEntity
  8
0
  6
Continuous
 62
     7
370
     0
100
AcDbDimension
  2
_D_22
 10
153.0918755837
 20
62.1941420675
 30
0.0
 11
143.0918755837
 21
62.1941420675
 31
0.0
 70
   160
  1
<>
 71
     2
 42
-1.0
  3
SLDDIMSTYLE1
100
AcDbAlignedDimension
 13
133.0918755837
 23
88.068330501
 33
0.0
 14
153.0918755837
 24
70.068330501
 34
0.0
100
AcDbRotatedDimension
  0
MTEXT
  5
480
330
1F
100
AcDbEntity
  8
0
  6
Continuous
 62
     7
370
     0
100
AcDbMText
 10
54.7517880551
 20
71.6688700502
 30
0.0
 40
3.5
 41
0.0
 71
     1
 72
     1
  1
ストローク調整
  7
SLDTEXTSTYLE0
 73
     1
 44
1.0
  0
LEADER
  5
481
330
1F
100
AcDbEntity
  8
0
  6
Continuous
 62
     7
370
     0
100
AcDbLeader
  3
SLDDIMSTYLE5
 76
     3
 10
108.7511005814
 20
101.4332222616
 30
0.0
 10
83.209113608
 20
67.1660424469
 30
0.0
 10
54.7440699126
 20
67.1660424469
 30
0.0
  0
MTEXT
  5
482
330
1F
100
AcDbEntity
  8
0
  6
Continuous
 62
     7
370
     0
100
AcDbMText
 10
67.6445568868
 20
128.2043731678
 30
0.0
 40
3.5
 41
0.0
 71
     1
 72
     1
  1
６－Ｍ４　取付用
  7
SLDTEXTSTYLE0
 73
     1
 44
1.0
  0
LEADER
  5
483
330
1F
100
AcDbEntity
  8
0
  6
Continuous
 62
     7
370
     0
100
AcDbLeader
  3
SLDDIMSTYLE5
 76
     3
 10
149.662074246
 20
102.8808028249
 30
0.0
 10
102.3102372035
 20
123.595505618
 30
0.0
 10
67.6029962547
 20
123.595505618
 30
0.0
  0
INSERT
  5
48F
330
1F
100
AcDbEntity
  8
0
  6
Continuous
 62
     7
370
     0
100
AcDbBlockReference
  2
SW_CENTERMARKSYMBOL_8
 10
153.0918755837
 20
110.218330501
 30
0.0
  0
INSERT
  5
49B
330
1F
100
AcDbEntity
  8
0
  6
Continuous
 62
     7
370
     0
100
AcDbBlockReference
  2
SW_CENTERMARKSYMBOL_9
 10
151.0918755837
 20
102.0572931803
 30
0.0
  0
INSERT
  5
4A7
330
1F
100
AcDbEntity
  8
0
  6
Continuous
 62
     7
370
     0
100
AcDbBlockReference
  2
SW_CENTERMARKSYMBOL_10
 10
153.0918755837
 20
92.218330501
 30
0.0
  0
INSERT
  5
4B3
330
1F
100
AcDbEntity
  8
0
  6
Continuous
 62
     7
370
     0
100
AcDbBlockReference
  2
SW_CENTERMARKSYMBOL_11
 10
133.0918755837
 20
92.218330501
 30
0.0
  0
INSERT
  5
4BF
330
1F
100
AcDbEntity
  8
0
  6
Continuous
 62
     7
370
     0
100
AcDbBlockReference
  2
SW_CENTERMARKSYMBOL_12
 10
151.0918755837
 20
82.0572931803
 30
0.0
  0
INSERT
  5
4CB
330
1F
100
AcDbEntity
  8
0
  6
Continuous
 62
     7
370
     0
100
AcDbBlockReference
  2
SW_CENTERMARKSYMBOL_13
 10
153.0918755837
 20
74.218330501
 30
0.0
  0
INSERT
  5
4D7
330
1F
100
AcDbEntity
  8
0
  6
Continuous
 62
     7
370
     0
100
AcDbBlockReference
  2
SW_CENTERMARKSYMBOL_14
 10
168.3918755837
 20
78.718330501
 30
0.0
  0
INSERT
  5
4E3
330
1F
100
AcDbEntity
  8
0
  6
Continuous
 62
     7
370
     0
100
AcDbBlockReference
  2
SW_CENTERMARKSYMBOL_15
 10
168.3918755837
 20
105.718330501
 30
0.0
  0
LINE
  5
4E4
330
1F
100
AcDbEntity
  8
0
  6
CENTERX2
 62
     7
370
     0
100
AcDbLine
 10
115.0918755837
 20
92.218330501
 30
0.0
 11
98.8918755837
 21
92.218330501
 31
0.0
  0
LINE
  5
4E5
330
1F
100
AcDbEntity
  8
0
  6
CENTERX2
 62
     7
370
     0
100
AcDbLine
 10
100.8918755837
 20
92.218330501
 30
0.0
 11
113.0918755837
 21
92.218330501
 31
0.0
  0
ENDSEC
  0
SECTION
  2
OBJECTS
  0
DICTIONARY
  5
C
330
0
100
AcDbDictionary
281
     1
  3
ACAD_GROUP
350
D
  3
ACAD_LAYOUT
350
1A
  3
ACAD_MLINESTYLE
350
17
  3
ACAD_PLOTSETTINGS
350
19
  3
ACAD_PLOTSTYLENAME
350
E
  0
DICTIONARY
  5
D
102
{ACAD_REACTORS
330
C
102
}
330
C
100
AcDbDictionary
281
     1
  0
DICTIONARY
  5
1A
102
{ACAD_REACTORS
330
C
102
}
330
C
100
AcDbDictionary
281
     1
  3
Layout1
350
1E
  3
Layout2
350
26
  3
Model
350
22
  0
DICTIONARY
  5
17
102
{ACAD_REACTORS
330
C
102
}
330
C
100
AcDbDictionary
281
     1
  3
Standard
350
18
  0
DICTIONARY
  5
19
102
{ACAD_REACTORS
330
C
102
}
330
C
100
AcDbDictionary
281
     1
  0
ACDBDICTIONARYWDFLT
  5
E
102
{ACAD_REACTORS
330
C
102
}
330
C
100
AcDbDictionary
281
     1
  3
Normal
350
F
100
AcDbDictionaryWithDefault
340
F
  0
LAYOUT
  5
1E
102
{ACAD_REACTORS
330
1A
102
}
330
1A
100
AcDbPlotSettings
  1

  2
none_device
  4

  6

 40
0.0
 41
0.0
 42
0.0
 43
0.0
 44
0.0
 45
0.0
 46
0.0
 47
0.0
 48
0.0
 49
0.0
140
0.0
141
0.0
142
1.0
143
1.0
 70
   688
 72
     0
 73
     0
 74
     5
  7

 75
    16
147
1.0
148
0.0
149
0.0
100
AcDbLayout
  1
Layout1
 70
     1
 71
     1
 10
0.0
 20
0.0
 11
420.0
 21
297.0
 12
0.0
 22
0.0
 32
0.0
 14
1.0000000000E+20
 24
1.0000000000E+20
 34
1.0000000000E+20
 15
-1.0000000000E+20
 25
-1.0000000000E+20
 35
-1.0000000000E+20
146
0.0
 13
0.0
 23
0.0
 33
0.0
 16
1.0
 26
0.0
 36
0.0
 17
0.0
 27
1.0
 37
0.0
 76
     0
330
1B
  0
LAYOUT
  5
26
102
{ACAD_REACTORS
330
1A
102
}
330
1A
100
AcDbPlotSettings
  1

  2
none_device
  4

  6

 40
0.0
 41
0.0
 42
0.0
 43
0.0
 44
0.0
 45
0.0
 46
0.0
 47
0.0
 48
0.0
 49
0.0
140
0.0
141
0.0
142
1.0
143
1.0
 70
   688
 72
     0
 73
     0
 74
     5
  7

 75
    16
147
1.0
148
0.0
149
0.0
100
AcDbLayout
  1
Layout2
 70
     1
 71
     2
 10
0.0
 20
0.0
 11
0.0
 21
0.0
 12
0.0
 22
0.0
 32
0.0
 14
0.0
 24
0.0
 34
0.0
 15
0.0
 25
0.0
 35
0.0
146
0.0
 13
0.0
 23
0.0
 33
0.0
 16
1.0
 26
0.0
 36
0.0
 17
0.0
 27
1.0
 37
0.0
 76
     0
330
23
  0
LAYOUT
  5
22
102
{ACAD_REACTORS
330
1A
102
}
330
1A
100
AcDbPlotSettings
  1

  2
none_device
  4

  6

 40
0.0
 41
0.0
 42
0.0
 43
0.0
 44
0.0
 45
0.0
 46
0.0
 47
0.0
 48
0.0
 49
0.0
140
0.0
141
0.0
142
1.0
143
1.0
 70
  1712
 72
     0
 73
     0
 74
     0
  7

 75
     0
147
1.0
148
0.0
149
0.0
100
AcDbLayout
  1
Model
 70
     1
 71
     0
 10
0.0
 20
0.0
 11
210.0
 21
297.0
 12
0.0
 22
0.0
 32
0.0
 14
0.0
 24
0.0
 34
0.0
 15
210.0
 25
297.0
 35
0.0
146
0.0
 13
0.0
 23
0.0
 33
0.0
 16
1.0
 26
0.0
 36
0.0
 17
0.0
 27
1.0
 37
0.0
 76
     0
330
1F
331
29
  0
MLINESTYLE
  5
18
102
{ACAD_REACTORS
330
17
102
}
330
17
100
AcDbMlineStyle
  2
Standard
 70
     0
  3

 62
   256
 51
90.0
 52
90.0
 71
     2
 49
0.5
 62
   256
  6
BYLAYER
 49
-0.5
 62
   256
  6
BYLAYER
  0
ACDBPLACEHOLDER
  5
F
102
{ACAD_REACTORS
330
E
102
}
330
E
  0
ENDSEC
  0
EOF
