  0
SECTION
  2
HEADER
  9
$ACADVER
  1
AC1015
  9
$ACADMAINTVER
 70
     6
  9
$DWGCODEPAGE
  3
DOS932
  9
$INSBASE
 10
0.0
 20
0.0
 30
0.0
  9
$EXTMIN
 10
0.0
 20
0.0
 30
0.0
  9
$EXTMAX
 10
210.0
 20
297.0
 30
0.0
  9
$LIMMIN
 10
0.0
 20
0.0
  9
$LIMMAX
 10
210.0
 20
297.0
  9
$ORTHOMODE
 70
     0
  9
$REGENMODE
 70
     1
  9
$FILLMODE
 70
     1
  9
$QTEXTMODE
 70
     0
  9
$MIRRTEXT
 70
     1
  9
$LTSCALE
 40
1.0
  9
$ATTMODE
 70
     1
  9
$TEXTSIZE
 40
3.5
  9
$TRACEWID
 40
1.0
  9
$TEXTSTYLE
  7
Standard
  9
$CLAYER
  8
0
  9
$CELTYPE
  6
ByLayer
  9
$CECOLOR
 62
   256
  9
$CELTSCALE
 40
1.0
  9
$DISPSILH
 70
     0
  9
$DIMSCALE
 40
1.0
  9
$DIMASZ
 40
2.0
  9
$DIMEXO
 40
1.0
  9
$DIMDLI
 40
3.75
  9
$DIMRND
 40
0.0
  9
$DIMDLE
 40
0.0
  9
$DIMEXE
 40
1.0
  9
$DIMTP
 40
0.0
  9
$DIMTM
 40
0.0
  9
$DIMTXT
 40
3.5
  9
$DIMCEN
 40
2.5
  9
$DIMTSZ
 40
0.0
  9
$DIMTOL
 70
     0
  9
$DIMLIM
 70
     0
  9
$DIMTIH
 70
     1
  9
$DIMTOH
 70
     1
  9
$DIMSE1
 70
     0
  9
$DIMSE2
 70
     0
  9
$DIMTAD
 70
     1
  9
$DIMZIN
 70
     0
  9
$DIMBLK
  1

  9
$DIMASO
 70
     1
  9
$DIMSHO
 70
     1
  9
$DIMPOST
  1

  9
$DIMAPOST
  1

  9
$DIMALT
 70
     0
  9
$DIMALTD
 70
     3
  9
$DIMALTF
 40
0.0393700787
  9
$DIMLFAC
 40
1.0
  9
$DIMTOFL
 70
     1
  9
$DIMTVP
 40
0.0
  9
$DIMTIX
 70
     0
  9
$DIMSOXD
 70
     0
  9
$DIMSAH
 70
     0
  9
$DIMBLK1
  1

  9
$DIMBLK2
  1

  9
$DIMSTYLE
  2
ISO-25
  9
$DIMCLRD
 70
     0
  9
$DIMCLRE
 70
     0
  9
$DIMCLRT
 70
     0
  9
$DIMTFAC
 40
1.0
  9
$DIMGAP
 40
1.524
  9
$DIMJUST
 70
     0
  9
$DIMSD1
 70
     0
  9
$DIMSD2
 70
     0
  9
$DIMTOLJ
 70
     0
  9
$DIMTZIN
 70
     0
  9
$DIMALTZ
 70
     0
  9
$DIMALTTZ
 70
     0
  9
$DIMUPT
 70
     0
  9
$DIMDEC
 70
     2
  9
$DIMTDEC
 70
     2
  9
$DIMALTU
 70
     2
  9
$DIMALTTD
 70
     3
  9
$DIMTXSTY
  7
Standard
  9
$DIMAUNIT
 70
     0
  9
$DIMADEC
 70
     2
  9
$DIMALTRND
 40
0.0
  9
$DIMAZIN
 70
     0
  9
$DIMDSEP
 70
    44
  9
$DIMATFIT
 70
     3
  9
$DIMFRAC
 70
     0
  9
$DIMLDRBLK
  1

  9
$DIMLUNIT
 70
     2
  9
$DIMLWD
 70
    -2
  9
$DIMLWE
 70
    -2
  9
$DIMTMOVE
 70
     0
  9
$LUNITS
 70
     2
  9
$LUPREC
 70
     2
  9
$SKETCHINC
 40
1.0
  9
$FILLETRAD
 40
10.0
  9
$AUNITS
 70
     0
  9
$AUPREC
 70
     2
  9
$MENU
  1
.
  9
$ELEVATION
 40
0.0
  9
$PELEVATION
 40
0.0
  9
$THICKNESS
 40
0.0
  9
$LIMCHECK
 70
     0
  9
$CHAMFERA
 40
10.0
  9
$CHAMFERB
 40
10.0
  9
$CHAMFERC
 40
20.0
  9
$CHAMFERD
 40
0.0
  9
$SKPOLY
 70
     0
  9
$TDCREATE
 40
2457745.748116123
  9
$TDUCREATE
 40
2457745.373116123
  9
$TDUPDATE
 40
2457745.748125509
  9
$TDUUPDATE
 40
2457745.373125509
  9
$TDINDWG
 40
0.0000000116
  9
$TDUSRTIMER
 40
0.0000000116
  9
$USRTIMER
 70
     1
  9
$ANGBASE
 50
0.0
  9
$ANGDIR
 70
     0
  9
$PDMODE
 70
     0
  9
$PDSIZE
 40
-1.0
  9
$PLINEWID
 40
0.0
  9
$SPLFRAME
 70
     0
  9
$SPLINETYPE
 70
     6
  9
$SPLINESEGS
 70
     8
  9
$HANDSEED
  5
4A1
  9
$SURFTAB1
 70
     6
  9
$SURFTAB2
 70
     6
  9
$SURFTYPE
 70
     6
  9
$SURFU
 70
     6
  9
$SURFV
 70
     6
  9
$UCSBASE
  2

  9
$UCSNAME
  2

  9
$UCSORG
 10
0.0
 20
0.0
 30
0.0
  9
$UCSXDIR
 10
1.0
 20
0.0
 30
0.0
  9
$UCSYDIR
 10
0.0
 20
1.0
 30
0.0
  9
$UCSORTHOREF
  2

  9
$UCSORTHOVIEW
 70
     0
  9
$UCSORGTOP
 10
0.0
 20
0.0
 30
0.0
  9
$UCSORGBOTTOM
 10
0.0
 20
0.0
 30
0.0
  9
$UCSORGLEFT
 10
0.0
 20
0.0
 30
0.0
  9
$UCSORGRIGHT
 10
0.0
 20
0.0
 30
0.0
  9
$UCSORGFRONT
 10
0.0
 20
0.0
 30
0.0
  9
$UCSORGBACK
 10
0.0
 20
0.0
 30
0.0
  9
$PUCSBASE
  2

  9
$PUCSNAME
  2

  9
$PUCSORG
 10
0.0
 20
0.0
 30
0.0
  9
$PUCSXDIR
 10
1.0
 20
0.0
 30
0.0
  9
$PUCSYDIR
 10
0.0
 20
1.0
 30
0.0
  9
$PUCSORTHOREF
  2

  9
$PUCSORTHOVIEW
 70
     0
  9
$PUCSORGTOP
 10
0.0
 20
0.0
 30
0.0
  9
$PUCSORGBOTTOM
 10
0.0
 20
0.0
 30
0.0
  9
$PUCSORGLEFT
 10
0.0
 20
0.0
 30
0.0
  9
$PUCSORGRIGHT
 10
0.0
 20
0.0
 30
0.0
  9
$PUCSORGFRONT
 10
0.0
 20
0.0
 30
0.0
  9
$PUCSORGBACK
 10
0.0
 20
0.0
 30
0.0
  9
$USERI1
 70
     0
  9
$USERI2
 70
     0
  9
$USERI3
 70
     0
  9
$USERI4
 70
     0
  9
$USERI5
 70
     0
  9
$USERR1
 40
0.0
  9
$USERR2
 40
0.0
  9
$USERR3
 40
0.0
  9
$USERR4
 40
0.0
  9
$USERR5
 40
0.0
  9
$WORLDVIEW
 70
     1
  9
$SHADEDGE
 70
     3
  9
$SHADEDIF
 70
    70
  9
$TILEMODE
 70
     1
  9
$MAXACTVP
 70
    64
  9
$PINSBASE
 10
0.0
 20
0.0
 30
0.0
  9
$PLIMCHECK
 70
     0
  9
$PEXTMIN
 10
1.0000000000E+20
 20
1.0000000000E+20
 30
1.0000000000E+20
  9
$PEXTMAX
 10
-1.0000000000E+20
 20
-1.0000000000E+20
 30
-1.0000000000E+20
  9
$PLIMMIN
 10
0.0
 20
0.0
  9
$PLIMMAX
 10
420.0
 20
297.0
  9
$UNITMODE
 70
     0
  9
$VISRETAIN
 70
     1
  9
$PLINEGEN
 70
     0
  9
$PSLTSCALE
 70
     1
  9
$TREEDEPTH
 70
  3020
  9
$CMLSTYLE
  2
Standard
  9
$CMLJUST
 70
     0
  9
$CMLSCALE
 40
20.0
  9
$PROXYGRAPHICS
 70
     1
  9
$MEASUREMENT
 70
     1
  9
$CELWEIGHT
370
    -1
  9
$ENDCAPS
280
     0
  9
$JOINSTYLE
280
     0
  9
$LWDISPLAY
290
     1
  9
$INSUNITS
 70
     4
  9
$HYPERLINKBASE
  1

  9
$STYLESHEET
  1

  9
$XEDIT
290
     1
  9
$CEPSNTYPE
380
     0
  9
$PSTYLEMODE
290
     1
  9
$FINGERPRINTGUID
  2
{617DD8E7-9A53-428A-BEC2-99D46DA53927}
  9
$VERSIONGUID
  2
{FAEB1C32-E019-11D5-929B-00C0DF256EC4}
  9
$EXTNAMES
290
     1
  9
$PSVPSCALE
 40
0.0
  9
$OLESTARTUP
290
     0
  0
ENDSEC
  0
SECTION
  2
CLASSES
  0
CLASS
  1
ACDBDICTIONARYWDFLT
  2
AcDbDictionaryWithDefault
  3
ObjectDBX Classes
 90
        0
280
     0
281
     0
  0
CLASS
  1
VISUALSTYLE
  2
AcDbVisualStyle
  3
ObjectDBX Classes
 90
     4095
280
     0
281
     0
  0
CLASS
  1
MATERIAL
  2
AcDbMaterial
  3
ObjectDBX Classes
 90
     1153
280
     0
281
     0
  0
CLASS
  1
ACDBPLACEHOLDER
  2
AcDbPlaceHolder
  3
ObjectDBX Classes
 90
        0
280
     0
281
     0
  0
CLASS
  1
LAYOUT
  2
AcDbLayout
  3
ObjectDBX Classes
 90
        0
280
     0
281
     0
  0
ENDSEC
  0
SECTION
  2
TABLES
  0
TABLE
  2
VPORT
  5
8
330
0
100
AcDbSymbolTable
 70
     1
  0
VPORT
  5
29
330
8
100
AcDbSymbolTableRecord
100
AcDbViewportTableRecord
  2
*Active
 70
     0
 10
0.0
 20
0.0
 11
1.0
 21
1.0
 12
105.0
 22
148.5
 13
0.0
 23
0.0
 14
10.0
 24
10.0
 15
10.0
 25
10.0
 16
0.0
 26
0.0
 36
1.0
 17
0.0
 27
0.0
 37
0.0
 40
297.0
 41
0.7070707071
 42
50.0
 43
0.0
 44
0.0
 50
0.0
 51
0.0
 71
     0
 72
  2000
 73
     1
 74
     3
 75
     0
 76
     0
 77
     0
 78
     0
281
     0
 65
     1
110
0.0
120
0.0
130
0.0
111
1.0
121
0.0
131
0.0
112
0.0
122
1.0
132
0.0
 79
     0
146
0.0
  0
ENDTAB
  0
TABLE
  2
LTYPE
  5
5
330
0
100
AcDbSymbolTable
 70
     6
  0
LTYPE
  5
14
330
5
100
AcDbSymbolTableRecord
100
AcDbLinetypeTableRecord
  2
ByBlock
 70
     0
  3

 72
    65
 73
     0
 40
0.0
  0
LTYPE
  5
15
330
5
100
AcDbSymbolTableRecord
100
AcDbLinetypeTableRecord
  2
ByLayer
 70
     0
  3

 72
    65
 73
     0
 40
0.0
  0
LTYPE
  5
16
330
5
100
AcDbSymbolTableRecord
100
AcDbLinetypeTableRecord
  2
Continuous
 70
     0
  3
Solid line
 72
    65
 73
     0
 40
0.0
  0
LTYPE
  5
3F
330
5
100
AcDbSymbolTableRecord
100
AcDbLinetypeTableRecord
  2
HIDDEN
 70
     0
  3
Hidden __ __ __ __ __ __ __ __ __ __ __ __ __ __
 72
    65
 73
     2
 40
1.905
 49
1.27
 74
     0
 49
-0.635
 74
     0
  0
LTYPE
  5
40
330
5
100
AcDbSymbolTableRecord
100
AcDbLinetypeTableRecord
  2
PHANTOM
 70
     0
  3
Phantom ______  __  __  ______  __  __  ______
 72
    65
 73
     6
 40
12.7
 49
6.35
 74
     0
 49
-1.27
 74
     0
 49
1.27
 74
     0
 49
-1.27
 74
     0
 49
1.27
 74
     0
 49
-1.27
 74
     0
  0
LTYPE
  5
41
330
5
100
AcDbSymbolTableRecord
100
AcDbLinetypeTableRecord
  2
CENTER
 70
     0
  3
Center ____ _ ____ _ ____ _ ____ _ ____ _ ____
 72
    65
 73
     4
 40
10.16
 49
6.35
 74
     0
 49
-1.27
 74
     0
 49
1.27
 74
     0
 49
-1.27
 74
     0
  0
LTYPE
  5
42
330
5
100
AcDbSymbolTableRecord
100
AcDbLinetypeTableRecord
  2
CENTERX2
 70
     0
  3
Center (2x) ________  __  ________  __  _____
 72
    65
 73
     4
 40
20.32
 49
12.7
 74
     0
 49
-2.54
 74
     0
 49
2.54
 74
     0
 49
-2.54
 74
     0
  0
LTYPE
  5
43
330
5
100
AcDbSymbolTableRecord
100
AcDbLinetypeTableRecord
  2
DOT2
 70
     0
  3
Dot (.5x) ........................................
 72
    65
 73
     2
 40
0.635
 49
0.0
 74
     0
 49
-0.635
 74
     0
  0
ENDTAB
  0
TABLE
  2
LAYER
  5
2
330
0
100
AcDbSymbolTable
 70
     1
  0
LAYER
  5
10
330
2
100
AcDbSymbolTableRecord
100
AcDbLayerTableRecord
  2
0
 70
     0
 62
     7
  6
Continuous
370
    -3
390
F
  0
ENDTAB
  0
TABLE
  2
STYLE
  5
3
330
0
100
AcDbSymbolTable
 70
     3
  0
STYLE
  5
11
330
3
100
AcDbSymbolTableRecord
100
AcDbTextStyleTableRecord
  2
Standard
 70
     0
 40
0.0
 41
1.0
 50
0.0
 71
     0
 42
3.5
  3
txt
  4
bigfont
  0
STYLE
  5
4C
330
3
100
AcDbSymbolTableRecord
100
AcDbTextStyleTableRecord
  2
SLDTEXTSTYLE0
 70
     0
 40
0.0
 41
0.75
 50
0.0
 71
     0
 42
0.2
  3
TXT
  4
bigfont
  0
STYLE
  5
4F
330
3
100
AcDbSymbolTableRecord
100
AcDbTextStyleTableRecord
  2
SLDTEXTSTYLE1
 70
     0
 40
0.0
 41
0.7
 50
0.0
 71
     0
 42
0.2
  3
TXT
  4
bigfont
  0
ENDTAB
  0
TABLE
  2
VIEW
  5
6
330
0
100
AcDbSymbolTable
 70
     0
  0
ENDTAB
  0
TABLE
  2
UCS
  5
7
330
0
100
AcDbSymbolTable
 70
     0
  0
ENDTAB
  0
TABLE
  2
APPID
  5
9
330
0
100
AcDbSymbolTable
 70
     1
  0
APPID
  5
12
330
9
100
AcDbSymbolTableRecord
100
AcDbRegAppTableRecord
  2
ACAD
 70
     0
  0
ENDTAB
  0
TABLE
  2
DIMSTYLE
  5
A
330
0
100
AcDbSymbolTable
 70
     6
100
AcDbDimStyleTable
  0
DIMSTYLE
105
27
330
A
100
AcDbSymbolTableRecord
100
AcDbDimStyleTableRecord
  2
ISO-25
 70
     0
 41
2.5
 42
0.625
 43
3.75
 44
1.25
 73
     0
 74
     0
 77
     1
 78
     8
140
2.5
141
2.5
143
0.0393700787
147
0.625
171
     3
172
     1
178
     0
271
     2
272
     2
274
     3
278
    44
283
     0
284
     8
340
11
  0
DIMSTYLE
105
15B
102
{ACAD_REACTORS
330
15A
330
30A
330
416
102
}
330
A
100
AcDbSymbolTableRecord
100
AcDbDimStyleTableRecord
  2
SLDDIMSTYLE0
 70
     0
 41
2.0
 44
0.0
 45
0.000000001
 73
     0
 74
     0
 77
     3
 78
    12
 79
     3
140
3.5
147
0.875
172
     1
173
     1
178
     0
271
     2
272
     2
276
     2
284
    12
289
     0
340
4C
  0
DIMSTYLE
105
168
102
{ACAD_REACTORS
330
167
330
193
330
19D
330
32B
330
342
330
34E
330
358
330
402
330
440
102
}
330
A
100
AcDbSymbolTableRecord
100
AcDbDimStyleTableRecord
  2
SLDDIMSTYLE1
 70
     0
 41
2.0
 44
0.0
 45
0.000000001
 73
     0
 74
     0
 77
     3
 78
    12
 79
     3
140
3.5
147
0.875
173
     1
178
     0
271
     1
272
     1
276
     2
284
    12
340
4C
  0
DIMSTYLE
105
175
102
{ACAD_REACTORS
330
174
330
17F
330
189
330
317
330
321
330
40C
330
422
330
42C
330
436
330
44A
102
}
330
A
100
AcDbSymbolTableRecord
100
AcDbDimStyleTableRecord
  2
SLDDIMSTYLE2
 70
     0
 41
2.0
 44
0.0
 45
0.000000001
 73
     0
 74
     0
 77
     3
 78
    12
 79
     3
140
3.5
147
0.875
173
     1
178
     0
271
     2
272
     2
276
     2
284
    12
340
4C
  0
DIMSTYLE
105
336
102
{ACAD_REACTORS
330
335
102
}
330
A
100
AcDbSymbolTableRecord
100
AcDbDimStyleTableRecord
  2
SLDDIMSTYLE3
 70
     0
 41
2.0
 44
0.0
 45
0.000000001
 73
     0
 74
     0
 77
     3
 78
    12
 79
     3
140
3.5
147
0.875
172
     1
173
     1
178
     0
271
     1
272
     1
276
     2
284
    12
289
     0
340
4C
  0
DIMSTYLE
105
365
330
A
100
AcDbSymbolTableRecord
100
AcDbDimStyleTableRecord
  2
SLDDIMSTYLE4
 70
     0
 41
2.0
 44
0.0
 45
0.000000001
140
0.0
146
2.0
147
0.0
173
     1
178
     0
271
     0
272
     0
276
     2
340
11
  0
ENDTAB
  0
TABLE
  2
BLOCK_RECORD
  5
1
330
0
100
AcDbSymbolTable
 70
    38
  0
BLOCK_RECORD
  5
1F
330
1
100
AcDbSymbolTableRecord
100
AcDbBlockTableRecord
  2
*Model_Space
340
22
  0
BLOCK_RECORD
  5
1B
330
1
100
AcDbSymbolTableRecord
100
AcDbBlockTableRecord
  2
*Paper_Space
340
1E
  0
BLOCK_RECORD
  5
23
330
1
100
AcDbSymbolTableRecord
100
AcDbBlockTableRecord
  2
*Paper_Space0
340
26
  0
BLOCK_RECORD
  5
15C
330
1
100
AcDbSymbolTableRecord
100
AcDbBlockTableRecord
  2
_D
340
0
  0
BLOCK_RECORD
  5
169
330
1
100
AcDbSymbolTableRecord
100
AcDbBlockTableRecord
  2
_D_1
340
0
  0
BLOCK_RECORD
  5
176
330
1
100
AcDbSymbolTableRecord
100
AcDbBlockTableRecord
  2
_D_2
340
0
  0
BLOCK_RECORD
  5
180
330
1
100
AcDbSymbolTableRecord
100
AcDbBlockTableRecord
  2
_D_3
340
0
  0
BLOCK_RECORD
  5
18A
330
1
100
AcDbSymbolTableRecord
100
AcDbBlockTableRecord
  2
_D_4
340
0
  0
BLOCK_RECORD
  5
194
330
1
100
AcDbSymbolTableRecord
100
AcDbBlockTableRecord
  2
_D_5
340
0
  0
BLOCK_RECORD
  5
19E
330
1
100
AcDbSymbolTableRecord
100
AcDbBlockTableRecord
  2
_D_6
340
0
  0
BLOCK_RECORD
  5
1A9
330
1
100
AcDbSymbolTableRecord
100
AcDbBlockTableRecord
  2
SW_CENTERMARKSYMBOL_0
340
0
102
{BLKREFS
331
1B4
102
}
  0
BLOCK_RECORD
  5
1B5
330
1
100
AcDbSymbolTableRecord
100
AcDbBlockTableRecord
  2
SW_CENTERMARKSYMBOL_1
340
0
102
{BLKREFS
331
1C0
102
}
  0
BLOCK_RECORD
  5
1C1
330
1
100
AcDbSymbolTableRecord
100
AcDbBlockTableRecord
  2
SW_CENTERMARKSYMBOL_2
340
0
102
{BLKREFS
331
1CC
102
}
  0
BLOCK_RECORD
  5
1CD
330
1
100
AcDbSymbolTableRecord
100
AcDbBlockTableRecord
  2
SW_CENTERMARKSYMBOL_3
340
0
102
{BLKREFS
331
1D8
102
}
  0
BLOCK_RECORD
  5
1D9
330
1
100
AcDbSymbolTableRecord
100
AcDbBlockTableRecord
  2
SW_CENTERMARKSYMBOL_4
340
0
102
{BLKREFS
331
1E4
102
}
  0
BLOCK_RECORD
  5
1E5
330
1
100
AcDbSymbolTableRecord
100
AcDbBlockTableRecord
  2
SW_CENTERMARKSYMBOL_5
340
0
102
{BLKREFS
331
1F0
102
}
  0
BLOCK_RECORD
  5
1F1
330
1
100
AcDbSymbolTableRecord
100
AcDbBlockTableRecord
  2
SW_CENTERMARKSYMBOL_6
340
0
102
{BLKREFS
331
1FC
102
}
  0
BLOCK_RECORD
  5
1FD
330
1
100
AcDbSymbolTableRecord
100
AcDbBlockTableRecord
  2
SW_CENTERMARKSYMBOL_7
340
0
102
{BLKREFS
331
208
102
}
  0
BLOCK_RECORD
  5
30B
330
1
100
AcDbSymbolTableRecord
100
AcDbBlockTableRecord
  2
_D_7
340
0
  0
BLOCK_RECORD
  5
318
330
1
100
AcDbSymbolTableRecord
100
AcDbBlockTableRecord
  2
_D_8
340
0
  0
BLOCK_RECORD
  5
322
330
1
100
AcDbSymbolTableRecord
100
AcDbBlockTableRecord
  2
_D_9
340
0
  0
BLOCK_RECORD
  5
32C
330
1
100
AcDbSymbolTableRecord
100
AcDbBlockTableRecord
  2
_D_10
340
0
  0
BLOCK_RECORD
  5
337
330
1
100
AcDbSymbolTableRecord
100
AcDbBlockTableRecord
  2
_D_11
340
0
  0
BLOCK_RECORD
  5
343
330
1
100
AcDbSymbolTableRecord
100
AcDbBlockTableRecord
  2
_D_12
340
0
  0
BLOCK_RECORD
  5
34F
330
1
100
AcDbSymbolTableRecord
100
AcDbBlockTableRecord
  2
_D_13
340
0
  0
BLOCK_RECORD
  5
359
330
1
100
AcDbSymbolTableRecord
100
AcDbBlockTableRecord
  2
_D_14
340
0
  0
BLOCK_RECORD
  5
403
330
1
100
AcDbSymbolTableRecord
100
AcDbBlockTableRecord
  2
_D_15
340
0
  0
BLOCK_RECORD
  5
40D
330
1
100
AcDbSymbolTableRecord
100
AcDbBlockTableRecord
  2
_D_16
340
0
  0
BLOCK_RECORD
  5
417
330
1
100
AcDbSymbolTableRecord
100
AcDbBlockTableRecord
  2
_D_17
340
0
  0
BLOCK_RECORD
  5
423
330
1
100
AcDbSymbolTableRecord
100
AcDbBlockTableRecord
  2
_D_18
340
0
  0
BLOCK_RECORD
  5
42D
330
1
100
AcDbSymbolTableRecord
100
AcDbBlockTableRecord
  2
_D_19
340
0
  0
BLOCK_RECORD
  5
437
330
1
100
AcDbSymbolTableRecord
100
AcDbBlockTableRecord
  2
_D_20
340
0
  0
BLOCK_RECORD
  5
441
330
1
100
AcDbSymbolTableRecord
100
AcDbBlockTableRecord
  2
_D_21
340
0
  0
BLOCK_RECORD
  5
44B
330
1
100
AcDbSymbolTableRecord
100
AcDbBlockTableRecord
  2
_D_22
340
0
  0
BLOCK_RECORD
  5
458
330
1
100
AcDbSymbolTableRecord
100
AcDbBlockTableRecord
  2
SW_CENTERMARKSYMBOL_8
340
0
102
{BLKREFS
331
463
102
}
  0
BLOCK_RECORD
  5
464
330
1
100
AcDbSymbolTableRecord
100
AcDbBlockTableRecord
  2
SW_CENTERMARKSYMBOL_9
340
0
102
{BLKREFS
331
46F
102
}
  0
BLOCK_RECORD
  5
470
330
1
100
AcDbSymbolTableRecord
100
AcDbBlockTableRecord
  2
SW_CENTERMARKSYMBOL_10
340
0
102
{BLKREFS
331
47B
102
}
  0
BLOCK_RECORD
  5
47C
330
1
100
AcDbSymbolTableRecord
100
AcDbBlockTableRecord
  2
SW_CENTERMARKSYMBOL_11
340
0
102
{BLKREFS
331
487
102
}
  0
BLOCK_RECORD
  5
488
330
1
100
AcDbSymbolTableRecord
100
AcDbBlockTableRecord
  2
SW_CENTERMARKSYMBOL_12
340
0
102
{BLKREFS
331
493
102
}
  0
BLOCK_RECORD
  5
494
330
1
100
AcDbSymbolTableRecord
100
AcDbBlockTableRecord
  2
SW_CENTERMARKSYMBOL_13
340
0
102
{BLKREFS
331
49F
102
}
  0
ENDTAB
  0
ENDSEC
  0
SECTION
  2
BLOCKS
  0
BLOCK
  5
20
330
1F
100
AcDbEntity
  8
0
100
AcDbBlockBegin
  2
*Model_Space
 70
     0
 10
0.0
 20
0.0
 30
0.0
  3
*Model_Space
  1

  0
ENDBLK
  5
21
330
1F
100
AcDbEntity
  8
0
100
AcDbBlockEnd
  0
BLOCK
  5
1C
330
1B
100
AcDbEntity
 67
     1
  8
0
100
AcDbBlockBegin
  2
*Paper_Space
 70
     0
 10
0.0
 20
0.0
 30
0.0
  3
*Paper_Space
  1

  0
ENDBLK
  5
1D
330
1B
100
AcDbEntity
 67
     1
  8
0
100
AcDbBlockEnd
  0
BLOCK
  5
24
330
23
100
AcDbEntity
  8
0
100
AcDbBlockBegin
  2
*Paper_Space0
 70
     0
 10
0.0
 20
0.0
 30
0.0
  3
*Paper_Space0
  1

  0
ENDBLK
  5
25
330
23
100
AcDbEntity
  8
0
100
AcDbBlockEnd
  0
BLOCK
  5
15D
330
15C
100
AcDbEntity
  8
0
100
AcDbBlockBegin
  2
_D
 70
     0
 10
0.0
 20
0.0
 30
0.0
  3
_D
  1

  0
SOLID
  5
15F
330
15C
100
AcDbEntity
  8
0
  6
Continuous
 62
     7
370
     0
100
AcDbTrace
 10
46.6895764709
 20
227.3047478591
 30
0.0
 11
44.6895764709
 21
228.0547478591
 31
0.0
 12
44.6895764709
 22
226.5547478591
 32
0.0
 13
44.6895764709
 23
226.5547478591
 33
0.0
  0
SOLID
  5
160
330
15C
100
AcDbEntity
  8
0
  6
Continuous
 62
     7
370
     0
100
AcDbTrace
 10
54.6895764741
 20
227.3047478591
 30
0.0
 11
56.6895764741
 21
226.5547478591
 31
0.0
 12
56.6895764741
 22
228.0547478591
 32
0.0
 13
56.6895764741
 23
228.0547478591
 33
0.0
  0
LINE
  5
161
330
15C
100
AcDbEntity
  8
0
  6
Continuous
 62
     7
370
     0
100
AcDbLine
 10
46.6895764709
 20
223.6153995885
 30
0.0
 11
46.6895764709
 21
228.3047478591
 31
0.0
  0
LINE
  5
162
330
15C
100
AcDbEntity
  8
0
  6
Continuous
 62
     7
370
     0
100
AcDbLine
 10
54.6895764741
 20
223.6153995927
 30
0.0
 11
54.6895764741
 21
228.3047478591
 31
0.0
  0
LINE
  5
163
330
15C
100
AcDbEntity
  8
0
  6
Continuous
 62
     7
370
     0
100
AcDbLine
 10
46.6895764709
 20
227.3047478591
 30
0.0
 11
41.6895764709
 21
227.3047478591
 31
0.0
  0
LINE
  5
164
330
15C
100
AcDbEntity
  8
0
  6
Continuous
 62
     7
370
     0
100
AcDbLine
 10
46.6895764709
 20
227.3047478591
 30
0.0
 11
54.6895764741
 21
227.3047478591
 31
0.0
  0
LINE
  5
165
330
15C
100
AcDbEntity
  8
0
  6
Continuous
 62
     7
370
     0
100
AcDbLine
 10
54.6895764741
 20
227.3047478591
 30
0.0
 11
59.6895764741
 21
227.3047478591
 31
0.0
  0
MTEXT
  5
166
330
15C
100
AcDbEntity
  8
0
  6
Continuous
 62
     7
370
     0
100
AcDbMText
 10
49.4254006762
 20
231.8164847737
 30
-32.844824248
 40
3.5
 41
0.0
 71
     1
 72
     1
  1
8
  7
SLDTEXTSTYLE0
 73
     1
 44
1.0
  0
ENDBLK
  5
15E
330
15C
100
AcDbEntity
  8
0
100
AcDbBlockEnd
  0
BLOCK
  5
16A
330
169
100
AcDbEntity
  8
0
100
AcDbBlockBegin
  2
_D_1
 70
     0
 10
0.0
 20
0.0
 30
0.0
  3
_D_1
  1

  0
ARC
  5
16C
330
169
100
AcDbEntity
  8
0
  6
Continuous
 62
     7
370
     0
100
AcDbCircle
 10
51.7490119082
 20
237.5884104584
 30
0.0
 40
6.2120763399956
100
AcDbArc
 50
153.4349488229
 51
206.5650511771
  0
ARC
  5
16D
330
169
100
AcDbEntity
  8
0
  6
Continuous
 62
     7
370
     0
100
AcDbCircle
 10
49.687900987
 20
237.5884104584
 30
0.0
 40
6.212076339995607
100
AcDbArc
 50
333.4349488229
 51
26.5650511771
  0
SOLID
  5
16E
330
169
100
AcDbEntity
  8
0
  6
Continuous
 62
     7
370
     0
100
AcDbTrace
 10
39.7329031802
 20
234.8102854629
 30
0.0
 11
41.7329031802
 21
234.0602854629
 31
0.0
 12
41.7329031802
 22
235.5602854629
 32
0.0
 13
41.7329031802
 23
235.5602854629
 33
0.0
  0
SOLID
  5
16F
330
169
100
AcDbEntity
  8
0
  6
Continuous
 62
     7
370
     0
100
AcDbTrace
 10
61.646249768
 20
234.8102854629
 30
0.0
 11
59.646249768
 21
235.5602854629
 31
0.0
 12
59.646249768
 22
234.0602854629
 32
0.0
 13
59.646249768
 23
234.0602854629
 33
0.0
  0
LINE
  5
170
330
169
100
AcDbEntity
  8
0
  6
Continuous
 62
     7
370
     0
100
AcDbLine
 10
39.7329031802
 20
212.6203255867
 30
0.0
 11
39.7329031802
 21
235.8102854629
 31
0.0
  0
LINE
  5
171
330
169
100
AcDbEntity
  8
0
  6
Continuous
 62
     7
370
     0
100
AcDbLine
 10
61.646249768
 20
212.6203255867
 30
0.0
 11
61.646249768
 21
235.8102854629
 31
0.0
  0
LINE
  5
172
330
169
100
AcDbEntity
  8
0
  6
Continuous
 62
     7
370
     0
100
AcDbLine
 10
39.7329031802
 20
234.8102854629
 30
0.0
 11
61.646249768
 21
234.8102854629
 31
0.0
  0
MTEXT
  5
173
330
169
100
AcDbEntity
  8
0
  6
Continuous
 62
     7
370
     0
100
AcDbMText
 10
46.1927619171
 20
239.3220223775
 30
-32.844824248
 40
3.5
 41
0.0
 71
     1
 72
     1
  1
21.9
  7
SLDTEXTSTYLE0
 73
     1
 44
1.0
  0
ENDBLK
  5
16B
330
169
100
AcDbEntity
  8
0
100
AcDbBlockEnd
  0
BLOCK
  5
177
330
176
100
AcDbEntity
  8
0
100
AcDbBlockBegin
  2
_D_2
 70
     0
 10
0.0
 20
0.0
 30
0.0
  3
_D_2
  1

  0
SOLID
  5
179
330
176
100
AcDbEntity
  8
0
  6
Continuous
 62
     7
370
     0
100
AcDbTrace
 10
24.9879987468
 20
192.9153995927
 30
0.0
 11
24.2379987468
 21
190.9153995927
 31
0.0
 12
25.7379987468
 22
190.9153995927
 32
0.0
 13
25.7379987468
 23
190.9153995927
 33
0.0
  0
SOLID
  5
17A
330
176
100
AcDbEntity
  8
0
  6
Continuous
 62
     7
370
     0
100
AcDbTrace
 10
24.9879987468
 20
144.9153995927
 30
0.0
 11
25.7379987468
 21
146.9153995927
 31
0.0
 12
24.2379987468
 22
146.9153995927
 32
0.0
 13
24.2379987468
 23
146.9153995927
 33
0.0
  0
LINE
  5
17B
330
176
100
AcDbEntity
  8
0
  6
Continuous
 62
     7
370
     0
100
AcDbLine
 10
41.5895764741
 20
192.9153995927
 30
0.0
 11
23.9879987468
 21
192.9153995927
 31
0.0
  0
LINE
  5
17C
330
176
100
AcDbEntity
  8
0
  6
Continuous
 62
     7
370
     0
100
AcDbLine
 10
28.6895764741
 20
144.9153995927
 30
0.0
 11
23.9879987468
 21
144.9153995927
 31
0.0
  0
LINE
  5
17D
330
176
100
AcDbEntity
  8
0
  6
Continuous
 62
     7
370
     0
100
AcDbLine
 10
24.9879987468
 20
192.9153995927
 30
0.0
 11
24.9879987468
 21
144.9153995927
 31
0.0
  0
MTEXT
  5
17E
330
176
100
AcDbEntity
  8
0
  6
Continuous
 62
     7
370
     0
100
AcDbMText
 10
20.4762618322
 20
166.3292883992
 30
-32.844824248
 40
3.5
 41
0.0
 71
     1
 72
     1
  1
48
  7
SLDTEXTSTYLE0
 11
-1.770233605404514E-14
 21
1.0
 31
0.0
 73
     1
 44
1.0
  0
ENDBLK
  5
178
330
176
100
AcDbEntity
  8
0
100
AcDbBlockEnd
  0
BLOCK
  5
181
330
180
100
AcDbEntity
  8
0
100
AcDbBlockBegin
  2
_D_3
 70
     0
 10
0.0
 20
0.0
 30
0.0
  3
_D_3
  1

  0
SOLID
  5
183
330
180
100
AcDbEntity
  8
0
  6
Continuous
 62
     7
370
     0
100
AcDbTrace
 10
28.1895764741
 20
136.5563547228
 30
0.0
 11
30.1895764741
 21
135.8063547228
 31
0.0
 12
30.1895764741
 22
137.3063547228
 32
0.0
 13
30.1895764741
 23
137.3063547228
 33
0.0
  0
SOLID
  5
184
330
180
100
AcDbEntity
  8
0
  6
Continuous
 62
     7
370
     0
100
AcDbTrace
 10
73.1895764741
 20
136.5563547228
 30
0.0
 11
71.1895764741
 21
137.3063547228
 31
0.0
 12
71.1895764741
 22
135.8063547228
 32
0.0
 13
71.1895764741
 23
135.8063547228
 33
0.0
  0
LINE
  5
185
330
180
100
AcDbEntity
  8
0
  6
Continuous
 62
     7
370
     0
100
AcDbLine
 10
28.1895764741
 20
144.4153995927
 30
0.0
 11
28.1895764741
 21
135.5563547228
 31
0.0
  0
LINE
  5
186
330
180
100
AcDbEntity
  8
0
  6
Continuous
 62
     7
370
     0
100
AcDbLine
 10
73.1895764741
 20
144.4153995927
 30
0.0
 11
73.1895764741
 21
135.5563547228
 31
0.0
  0
LINE
  5
187
330
180
100
AcDbEntity
  8
0
  6
Continuous
 62
     7
370
     0
100
AcDbLine
 10
28.1895764741
 20
136.5563547228
 30
0.0
 11
73.1895764741
 21
136.5563547228
 31
0.0
  0
MTEXT
  5
188
330
180
100
AcDbEntity
  8
0
  6
Continuous
 62
     7
370
     0
100
AcDbMText
 10
48.1034652805
 20
141.0680916374
 30
-32.844824248
 40
3.5
 41
0.0
 71
     1
 72
     1
  1
45
  7
SLDTEXTSTYLE0
 73
     1
 44
1.0
  0
ENDBLK
  5
182
330
180
100
AcDbEntity
  8
0
100
AcDbBlockEnd
  0
BLOCK
  5
18B
330
18A
100
AcDbEntity
  8
0
100
AcDbBlockBegin
  2
_D_4
 70
     0
 10
0.0
 20
0.0
 30
0.0
  3
_D_4
  1

  0
SOLID
  5
18D
330
18A
100
AcDbEntity
  8
0
  6
Continuous
 62
     7
370
     0
100
AcDbTrace
 10
79.0203507964
 20
144.9153995927
 30
0.0
 11
79.7703507964
 21
146.9153995927
 31
0.0
 12
78.2703507964
 22
146.9153995927
 32
0.0
 13
78.2703507964
 23
146.9153995927
 33
0.0
  0
SOLID
  5
18E
330
18A
100
AcDbEntity
  8
0
  6
Continuous
 62
     7
370
     0
100
AcDbTrace
 10
79.0203507964
 20
185.9153995927
 30
0.0
 11
78.2703507964
 21
183.9153995927
 31
0.0
 12
79.7703507964
 22
183.9153995927
 32
0.0
 13
79.7703507964
 23
183.9153995927
 33
0.0
  0
LINE
  5
18F
330
18A
100
AcDbEntity
  8
0
  6
Continuous
 62
     7
370
     0
100
AcDbLine
 10
73.6895764741
 20
144.9153995927
 30
0.0
 11
80.0203507964
 21
144.9153995927
 31
0.0
  0
LINE
  5
190
330
18A
100
AcDbEntity
  8
0
  6
Continuous
 62
     7
370
     0
100
AcDbLine
 10
69.6895764741
 20
185.9153995927
 30
0.0
 11
80.0203507964
 21
185.9153995927
 31
0.0
  0
LINE
  5
191
330
18A
100
AcDbEntity
  8
0
  6
Continuous
 62
     7
370
     0
100
AcDbLine
 10
79.0203507964
 20
144.9153995927
 30
0.0
 11
79.0203507964
 21
185.9153995927
 31
0.0
  0
MTEXT
  5
192
330
18A
100
AcDbEntity
  8
0
  6
Continuous
 62
     7
370
     0
100
AcDbMText
 10
74.5086138819
 20
162.8292883992
 30
-32.844824248
 40
3.5
 41
0.0
 71
     1
 72
     1
  1
41
  7
SLDTEXTSTYLE0
 11
-1.037486409151910E-14
 21
1.0
 31
0.0
 73
     1
 44
1.0
  0
ENDBLK
  5
18C
330
18A
100
AcDbEntity
  8
0
100
AcDbBlockEnd
  0
BLOCK
  5
195
330
194
100
AcDbEntity
  8
0
100
AcDbBlockBegin
  2
_D_5
 70
     0
 10
0.0
 20
0.0
 30
0.0
  3
_D_5
  1

  0
SOLID
  5
197
330
194
100
AcDbEntity
  8
0
  6
Continuous
 62
     7
370
     0
100
AcDbTrace
 10
85.4333378728
 20
144.9153995927
 30
0.0
 11
86.1833378728
 21
146.9153995927
 31
0.0
 12
84.6833378728
 22
146.9153995927
 32
0.0
 13
84.6833378728
 23
146.9153995927
 33
0.0
  0
SOLID
  5
198
330
194
100
AcDbEntity
  8
0
  6
Continuous
 62
     7
370
     0
100
AcDbTrace
 10
85.4333378728
 20
197.1153995927
 30
0.0
 11
84.6833378728
 21
195.1153995927
 31
0.0
 12
86.1833378728
 22
195.1153995927
 32
0.0
 13
86.1833378728
 23
195.1153995927
 33
0.0
  0
LINE
  5
199
330
194
100
AcDbEntity
  8
0
  6
Continuous
 62
     7
370
     0
100
AcDbLine
 10
72.6895764741
 20
144.9153995927
 30
0.0
 11
86.4333378728
 21
144.9153995927
 31
0.0
  0
LINE
  5
19A
330
194
100
AcDbEntity
  8
0
  6
Continuous
 62
     7
370
     0
100
AcDbLine
 10
61.6895764741
 20
197.1153995927
 30
0.0
 11
86.4333378728
 21
197.1153995927
 31
0.0
  0
LINE
  5
19B
330
194
100
AcDbEntity
  8
0
  6
Continuous
 62
     7
370
     0
100
AcDbLine
 10
85.4333378728
 20
144.9153995927
 30
0.0
 11
85.4333378728
 21
197.1153995927
 31
0.0
  0
MTEXT
  5
19C
330
194
100
AcDbEntity
  8
0
  6
Continuous
 62
     7
370
     0
100
AcDbMText
 10
80.9216009582
 20
166.4897050622
 30
-32.844824248
 40
3.5
 41
0.0
 71
     1
 72
     1
  1
52.2
  7
SLDTEXTSTYLE0
 11
-1.037486409151910E-14
 21
1.0
 31
0.0
 73
     1
 44
1.0
  0
ENDBLK
  5
196
330
194
100
AcDbEntity
  8
0
100
AcDbBlockEnd
  0
BLOCK
  5
19F
330
19E
100
AcDbEntity
  8
0
100
AcDbBlockBegin
  2
_D_6
 70
     0
 10
0.0
 20
0.0
 30
0.0
  3
_D_6
  1

  0
ARC
  5
1A1
330
19E
100
AcDbEntity
  8
0
  6
Continuous
 62
     7
370
     0
100
AcDbCircle
 10
82.6552128773
 20
212.7223104483
 30
0.0
 40
6.2120763399956
100
AcDbArc
 50
243.4349488229
 51
296.5650511771
  0
ARC
  5
1A2
330
19E
100
AcDbEntity
  8
0
  6
Continuous
 62
     7
370
     0
100
AcDbCircle
 10
82.6552128773
 20
210.6611995271
 30
0.0
 40
6.2120763399956
100
AcDbArc
 50
63.4349488229
 51
116.5650511771
  0
SOLID
  5
1A3
330
19E
100
AcDbEntity
  8
0
  6
Continuous
 62
     7
370
     0
100
AcDbTrace
 10
85.4333378728
 20
197.1153995927
 30
0.0
 11
86.1833378728
 21
199.1153995927
 31
0.0
 12
84.6833378728
 22
199.1153995927
 32
0.0
 13
84.6833378728
 23
199.1153995927
 33
0.0
  0
SOLID
  5
1A4
330
19E
100
AcDbEntity
  8
0
  6
Continuous
 62
     7
370
     0
100
AcDbTrace
 10
85.4333378728
 20
222.6153995927
 30
0.0
 11
84.6833378728
 21
220.6153995927
 31
0.0
 12
86.1833378728
 22
220.6153995927
 32
0.0
 13
86.1833378728
 23
220.6153995927
 33
0.0
  0
LINE
  5
1A5
330
19E
100
AcDbEntity
  8
0
  6
Continuous
 62
     7
370
     0
100
AcDbLine
 10
61.6895764741
 20
197.1153995927
 30
0.0
 11
86.4333378728
 21
197.1153995927
 31
0.0
  0
LINE
  5
1A6
330
19E
100
AcDbEntity
  8
0
  6
Continuous
 62
     7
370
     0
100
AcDbLine
 10
55.6895764741
 20
222.6153995927
 30
0.0
 11
86.4333378728
 21
222.6153995927
 31
0.0
  0
LINE
  5
1A7
330
19E
100
AcDbEntity
  8
0
  6
Continuous
 62
     7
370
     0
100
AcDbLine
 10
85.4333378728
 20
197.1153995927
 30
0.0
 11
85.4333378728
 21
222.6153995927
 31
0.0
  0
MTEXT
  5
1A8
330
19E
100
AcDbEntity
  8
0
  6
Continuous
 62
     7
370
     0
100
AcDbMText
 10
80.9216009582
 20
207.1660604572
 30
-32.844824248
 40
3.5
 41
0.0
 71
     1
 72
     1
  1
25.5
  7
SLDTEXTSTYLE0
 11
-1.037486409151910E-14
 21
1.0
 31
0.0
 73
     1
 44
1.0
  0
ENDBLK
  5
1A0
330
19E
100
AcDbEntity
  8
0
100
AcDbBlockEnd
  0
BLOCK
  5
1AA
330
1A9
100
AcDbEntity
  8
0
100
AcDbBlockBegin
  2
SW_CENTERMARKSYMBOL_0
 70
     0
 10
0.0
 20
0.0
 30
0.0
  3
SW_CENTERMARKSYMBOL_0
  1

  0
LINE
  5
1AC
330
1A9
100
AcDbEntity
  8
0
  6
Continuous
 62
     0
370
     0
100
AcDbLine
 10
0.0
 20
0.0
 30
0.0
 11
0.0
 21
2.5
 31
0.0
  0
LINE
  5
1AD
330
1A9
100
AcDbEntity
  8
0
  6
Continuous
 62
     0
370
     0
100
AcDbLine
 10
0.0
 20
0.0
 30
0.0
 11
-2.5
 21
0.0
 31
0.0
  0
LINE
  5
1AE
330
1A9
100
AcDbEntity
  8
0
  6
Continuous
 62
     0
370
     0
100
AcDbLine
 10
0.0
 20
0.0
 30
0.0
 11
0.0
 21
-2.5
 31
0.0
  0
LINE
  5
1AF
330
1A9
100
AcDbEntity
  8
0
  6
Continuous
 62
     0
370
     0
100
AcDbLine
 10
0.0
 20
0.0
 30
0.0
 11
2.5
 21
0.0
 31
0.0
  0
LINE
  5
1B0
330
1A9
100
AcDbEntity
  8
0
  6
Continuous
 62
     0
370
     0
100
AcDbLine
 10
0.0
 20
5.0
 30
0.0
 11
0.0
 21
5.8000000002
 31
0.0
  0
LINE
  5
1B1
330
1A9
100
AcDbEntity
  8
0
  6
Continuous
 62
     0
370
     0
100
AcDbLine
 10
-5.0
 20
0.0
 30
0.0
 11
-5.8000000002
 21
0.0
 31
0.0
  0
LINE
  5
1B2
330
1A9
100
AcDbEntity
  8
0
  6
Continuous
 62
     0
370
     0
100
AcDbLine
 10
0.0
 20
-5.0
 30
0.0
 11
0.0
 21
-5.8000000002
 31
0.0
  0
LINE
  5
1B3
330
1A9
100
AcDbEntity
  8
0
  6
Continuous
 62
     0
370
     0
100
AcDbLine
 10
5.0
 20
0.0
 30
0.0
 11
5.8000000002
 21
0.0
 31
0.0
  0
ENDBLK
  5
1AB
330
1A9
100
AcDbEntity
  8
0
100
AcDbBlockEnd
  0
BLOCK
  5
1B6
330
1B5
100
AcDbEntity
  8
0
100
AcDbBlockBegin
  2
SW_CENTERMARKSYMBOL_1
 70
     0
 10
0.0
 20
0.0
 30
0.0
  3
SW_CENTERMARKSYMBOL_1
  1

  0
LINE
  5
1B8
330
1B5
100
AcDbEntity
  8
0
  6
Continuous
 62
     0
370
     0
100
AcDbLine
 10
0.0
 20
0.0
 30
0.0
 11
0.0
 21
2.5
 31
0.0
  0
LINE
  5
1B9
330
1B5
100
AcDbEntity
  8
0
  6
Continuous
 62
     0
370
     0
100
AcDbLine
 10
0.0
 20
0.0
 30
0.0
 11
-2.5
 21
0.0
 31
0.0
  0
LINE
  5
1BA
330
1B5
100
AcDbEntity
  8
0
  6
Continuous
 62
     0
370
     0
100
AcDbLine
 10
0.0
 20
0.0
 30
0.0
 11
0.0
 21
-2.5
 31
0.0
  0
LINE
  5
1BB
330
1B5
100
AcDbEntity
  8
0
  6
Continuous
 62
     0
370
     0
100
AcDbLine
 10
0.0
 20
0.0
 30
0.0
 11
2.5
 21
0.0
 31
0.0
  0
LINE
  5
1BC
330
1B5
100
AcDbEntity
  8
0
  6
Continuous
 62
     0
370
     0
100
AcDbLine
 10
0.0
 20
5.0
 30
0.0
 11
0.0
 21
6.35
 31
0.0
  0
LINE
  5
1BD
330
1B5
100
AcDbEntity
  8
0
  6
Continuous
 62
     0
370
     0
100
AcDbLine
 10
-5.0
 20
0.0
 30
0.0
 11
-6.35
 21
0.0
 31
0.0
  0
LINE
  5
1BE
330
1B5
100
AcDbEntity
  8
0
  6
Continuous
 62
     0
370
     0
100
AcDbLine
 10
0.0
 20
-5.0
 30
0.0
 11
0.0
 21
-6.35
 31
0.0
  0
LINE
  5
1BF
330
1B5
100
AcDbEntity
  8
0
  6
Continuous
 62
     0
370
     0
100
AcDbLine
 10
5.0
 20
0.0
 30
0.0
 11
6.35
 21
0.0
 31
0.0
  0
ENDBLK
  5
1B7
330
1B5
100
AcDbEntity
  8
0
100
AcDbBlockEnd
  0
BLOCK
  5
1C2
330
1C1
100
AcDbEntity
  8
0
100
AcDbBlockBegin
  2
SW_CENTERMARKSYMBOL_2
 70
     0
 10
0.0
 20
0.0
 30
0.0
  3
SW_CENTERMARKSYMBOL_2
  1

  0
LINE
  5
1C4
330
1C1
100
AcDbEntity
  8
0
  6
Continuous
 62
     0
370
     0
100
AcDbLine
 10
0.0
 20
0.0
 30
0.0
 11
0.0
 21
2.5
 31
0.0
  0
LINE
  5
1C5
330
1C1
100
AcDbEntity
  8
0
  6
Continuous
 62
     0
370
     0
100
AcDbLine
 10
0.0
 20
0.0
 30
0.0
 11
-2.5
 21
0.0
 31
0.0
  0
LINE
  5
1C6
330
1C1
100
AcDbEntity
  8
0
  6
Continuous
 62
     0
370
     0
100
AcDbLine
 10
0.0
 20
0.0
 30
0.0
 11
0.0
 21
-2.5
 31
0.0
  0
LINE
  5
1C7
330
1C1
100
AcDbEntity
  8
0
  6
Continuous
 62
     0
370
     0
100
AcDbLine
 10
0.0
 20
0.0
 30
0.0
 11
2.5
 21
0.0
 31
0.0
  0
LINE
  5
1C8
330
1C1
100
AcDbEntity
  8
0
  6
Continuous
 62
     0
370
     0
100
AcDbLine
 10
0.0
 20
5.0
 30
0.0
 11
0.0
 21
5.8000000002
 31
0.0
  0
LINE
  5
1C9
330
1C1
100
AcDbEntity
  8
0
  6
Continuous
 62
     0
370
     0
100
AcDbLine
 10
-5.0
 20
0.0
 30
0.0
 11
-5.8000000002
 21
0.0
 31
0.0
  0
LINE
  5
1CA
330
1C1
100
AcDbEntity
  8
0
  6
Continuous
 62
     0
370
     0
100
AcDbLine
 10
0.0
 20
-5.0
 30
0.0
 11
0.0
 21
-5.8000000002
 31
0.0
  0
LINE
  5
1CB
330
1C1
100
AcDbEntity
  8
0
  6
Continuous
 62
     0
370
     0
100
AcDbLine
 10
5.0
 20
0.0
 30
0.0
 11
5.8000000002
 21
0.0
 31
0.0
  0
ENDBLK
  5
1C3
330
1C1
100
AcDbEntity
  8
0
100
AcDbBlockEnd
  0
BLOCK
  5
1CE
330
1CD
100
AcDbEntity
  8
0
100
AcDbBlockBegin
  2
SW_CENTERMARKSYMBOL_3
 70
     0
 10
0.0
 20
0.0
 30
0.0
  3
SW_CENTERMARKSYMBOL_3
  1

  0
LINE
  5
1D0
330
1CD
100
AcDbEntity
  8
0
  6
Continuous
 62
     0
370
     0
100
AcDbLine
 10
0.0
 20
0.0
 30
0.0
 11
0.0
 21
2.5
 31
0.0
  0
LINE
  5
1D1
330
1CD
100
AcDbEntity
  8
0
  6
Continuous
 62
     0
370
     0
100
AcDbLine
 10
0.0
 20
0.0
 30
0.0
 11
-2.5
 21
0.0
 31
0.0
  0
LINE
  5
1D2
330
1CD
100
AcDbEntity
  8
0
  6
Continuous
 62
     0
370
     0
100
AcDbLine
 10
0.0
 20
0.0
 30
0.0
 11
0.0
 21
-2.5
 31
0.0
  0
LINE
  5
1D3
330
1CD
100
AcDbEntity
  8
0
  6
Continuous
 62
     0
370
     0
100
AcDbLine
 10
0.0
 20
0.0
 30
0.0
 11
2.5
 21
0.0
 31
0.0
  0
LINE
  5
1D4
330
1CD
100
AcDbEntity
  8
0
  6
Continuous
 62
     0
370
     0
100
AcDbLine
 10
0.0
 20
5.0
 30
0.0
 11
0.0
 21
6.35
 31
0.0
  0
LINE
  5
1D5
330
1CD
100
AcDbEntity
  8
0
  6
Continuous
 62
     0
370
     0
100
AcDbLine
 10
-5.0
 20
0.0
 30
0.0
 11
-6.35
 21
0.0
 31
0.0
  0
LINE
  5
1D6
330
1CD
100
AcDbEntity
  8
0
  6
Continuous
 62
     0
370
     0
100
AcDbLine
 10
0.0
 20
-5.0
 30
0.0
 11
0.0
 21
-6.35
 31
0.0
  0
LINE
  5
1D7
330
1CD
100
AcDbEntity
  8
0
  6
Continuous
 62
     0
370
     0
100
AcDbLine
 10
5.0
 20
0.0
 30
0.0
 11
6.35
 21
0.0
 31
0.0
  0
ENDBLK
  5
1CF
330
1CD
100
AcDbEntity
  8
0
100
AcDbBlockEnd
  0
BLOCK
  5
1DA
330
1D9
100
AcDbEntity
  8
0
100
AcDbBlockBegin
  2
SW_CENTERMARKSYMBOL_4
 70
     0
 10
0.0
 20
0.0
 30
0.0
  3
SW_CENTERMARKSYMBOL_4
  1

  0
LINE
  5
1DC
330
1D9
100
AcDbEntity
  8
0
  6
Continuous
 62
     0
370
     0
100
AcDbLine
 10
0.0
 20
0.0
 30
0.0
 11
0.0
 21
2.5
 31
0.0
  0
LINE
  5
1DD
330
1D9
100
AcDbEntity
  8
0
  6
Continuous
 62
     0
370
     0
100
AcDbLine
 10
0.0
 20
0.0
 30
0.0
 11
-2.5
 21
0.0
 31
0.0
  0
LINE
  5
1DE
330
1D9
100
AcDbEntity
  8
0
  6
Continuous
 62
     0
370
     0
100
AcDbLine
 10
0.0
 20
0.0
 30
0.0
 11
0.0
 21
-2.5
 31
0.0
  0
LINE
  5
1DF
330
1D9
100
AcDbEntity
  8
0
  6
Continuous
 62
     0
370
     0
100
AcDbLine
 10
0.0
 20
0.0
 30
0.0
 11
2.5
 21
0.0
 31
0.0
  0
LINE
  5
1E0
330
1D9
100
AcDbEntity
  8
0
  6
Continuous
 62
     0
370
     0
100
AcDbLine
 10
0.0
 20
5.0
 30
0.0
 11
0.0
 21
6.0000000001
 31
0.0
  0
LINE
  5
1E1
330
1D9
100
AcDbEntity
  8
0
  6
Continuous
 62
     0
370
     0
100
AcDbLine
 10
-5.0
 20
0.0
 30
0.0
 11
-6.0000000001
 21
0.0
 31
0.0
  0
LINE
  5
1E2
330
1D9
100
AcDbEntity
  8
0
  6
Continuous
 62
     0
370
     0
100
AcDbLine
 10
0.0
 20
-5.0
 30
0.0
 11
0.0
 21
-6.0000000001
 31
0.0
  0
LINE
  5
1E3
330
1D9
100
AcDbEntity
  8
0
  6
Continuous
 62
     0
370
     0
100
AcDbLine
 10
5.0
 20
0.0
 30
0.0
 11
6.0000000001
 21
0.0
 31
0.0
  0
ENDBLK
  5
1DB
330
1D9
100
AcDbEntity
  8
0
100
AcDbBlockEnd
  0
BLOCK
  5
1E6
330
1E5
100
AcDbEntity
  8
0
100
AcDbBlockBegin
  2
SW_CENTERMARKSYMBOL_5
 70
     0
 10
0.0
 20
0.0
 30
0.0
  3
SW_CENTERMARKSYMBOL_5
  1

  0
LINE
  5
1E8
330
1E5
100
AcDbEntity
  8
0
  6
Continuous
 62
     0
370
     0
100
AcDbLine
 10
0.0
 20
0.0
 30
0.0
 11
0.0
 21
2.5
 31
0.0
  0
LINE
  5
1E9
330
1E5
100
AcDbEntity
  8
0
  6
Continuous
 62
     0
370
     0
100
AcDbLine
 10
0.0
 20
0.0
 30
0.0
 11
-2.5
 21
0.0
 31
0.0
  0
LINE
  5
1EA
330
1E5
100
AcDbEntity
  8
0
  6
Continuous
 62
     0
370
     0
100
AcDbLine
 10
0.0
 20
0.0
 30
0.0
 11
0.0
 21
-2.5
 31
0.0
  0
LINE
  5
1EB
330
1E5
100
AcDbEntity
  8
0
  6
Continuous
 62
     0
370
     0
100
AcDbLine
 10
0.0
 20
0.0
 30
0.0
 11
2.5
 21
0.0
 31
0.0
  0
LINE
  5
1EC
330
1E5
100
AcDbEntity
  8
0
  6
Continuous
 62
     0
370
     0
100
AcDbLine
 10
0.0
 20
5.0
 30
0.0
 11
0.0
 21
6.0000000002
 31
0.0
  0
LINE
  5
1ED
330
1E5
100
AcDbEntity
  8
0
  6
Continuous
 62
     0
370
     0
100
AcDbLine
 10
-5.0
 20
0.0
 30
0.0
 11
-6.0000000002
 21
0.0
 31
0.0
  0
LINE
  5
1EE
330
1E5
100
AcDbEntity
  8
0
  6
Continuous
 62
     0
370
     0
100
AcDbLine
 10
0.0
 20
-5.0
 30
0.0
 11
0.0
 21
-6.0000000002
 31
0.0
  0
LINE
  5
1EF
330
1E5
100
AcDbEntity
  8
0
  6
Continuous
 62
     0
370
     0
100
AcDbLine
 10
5.0
 20
0.0
 30
0.0
 11
6.0000000002
 21
0.0
 31
0.0
  0
ENDBLK
  5
1E7
330
1E5
100
AcDbEntity
  8
0
100
AcDbBlockEnd
  0
BLOCK
  5
1F2
330
1F1
100
AcDbEntity
  8
0
100
AcDbBlockBegin
  2
SW_CENTERMARKSYMBOL_6
 70
     0
 10
0.0
 20
0.0
 30
0.0
  3
SW_CENTERMARKSYMBOL_6
  1

  0
LINE
  5
1F4
330
1F1
100
AcDbEntity
  8
0
  6
Continuous
 62
     0
370
     0
100
AcDbLine
 10
0.0
 20
0.0
 30
0.0
 11
0.0
 21
2.5
 31
0.0
  0
LINE
  5
1F5
330
1F1
100
AcDbEntity
  8
0
  6
Continuous
 62
     0
370
     0
100
AcDbLine
 10
0.0
 20
0.0
 30
0.0
 11
-2.5
 21
0.0
 31
0.0
  0
LINE
  5
1F6
330
1F1
100
AcDbEntity
  8
0
  6
Continuous
 62
     0
370
     0
100
AcDbLine
 10
0.0
 20
0.0
 30
0.0
 11
0.0
 21
-2.5
 31
0.0
  0
LINE
  5
1F7
330
1F1
100
AcDbEntity
  8
0
  6
Continuous
 62
     0
370
     0
100
AcDbLine
 10
0.0
 20
0.0
 30
0.0
 11
2.5
 21
0.0
 31
0.0
  0
LINE
  5
1F8
330
1F1
100
AcDbEntity
  8
0
  6
Continuous
 62
     0
370
     0
100
AcDbLine
 10
0.0
 20
5.0
 30
0.0
 11
0.0
 21
5.8000000002
 31
0.0
  0
LINE
  5
1F9
330
1F1
100
AcDbEntity
  8
0
  6
Continuous
 62
     0
370
     0
100
AcDbLine
 10
-5.0
 20
0.0
 30
0.0
 11
-5.8000000002
 21
0.0
 31
0.0
  0
LINE
  5
1FA
330
1F1
100
AcDbEntity
  8
0
  6
Continuous
 62
     0
370
     0
100
AcDbLine
 10
0.0
 20
-5.0
 30
0.0
 11
0.0
 21
-5.8000000002
 31
0.0
  0
LINE
  5
1FB
330
1F1
100
AcDbEntity
  8
0
  6
Continuous
 62
     0
370
     0
100
AcDbLine
 10
5.0
 20
0.0
 30
0.0
 11
5.8000000002
 21
0.0
 31
0.0
  0
ENDBLK
  5
1F3
330
1F1
100
AcDbEntity
  8
0
100
AcDbBlockEnd
  0
BLOCK
  5
1FE
330
1FD
100
AcDbEntity
  8
0
100
AcDbBlockBegin
  2
SW_CENTERMARKSYMBOL_7
 70
     0
 10
0.0
 20
0.0
 30
0.0
  3
SW_CENTERMARKSYMBOL_7
  1

  0
LINE
  5
200
330
1FD
100
AcDbEntity
  8
0
  6
Continuous
 62
     0
370
     0
100
AcDbLine
 10
0.0
 20
0.0
 30
0.0
 11
0.0
 21
2.5
 31
0.0
  0
LINE
  5
201
330
1FD
100
AcDbEntity
  8
0
  6
Continuous
 62
     0
370
     0
100
AcDbLine
 10
0.0
 20
0.0
 30
0.0
 11
-2.5
 21
0.0
 31
0.0
  0
LINE
  5
202
330
1FD
100
AcDbEntity
  8
0
  6
Continuous
 62
     0
370
     0
100
AcDbLine
 10
0.0
 20
0.0
 30
0.0
 11
0.0
 21
-2.5
 31
0.0
  0
LINE
  5
203
330
1FD
100
AcDbEntity
  8
0
  6
Continuous
 62
     0
370
     0
100
AcDbLine
 10
0.0
 20
0.0
 30
0.0
 11
2.5
 21
0.0
 31
0.0
  0
LINE
  5
204
330
1FD
100
AcDbEntity
  8
0
  6
Continuous
 62
     0
370
     0
100
AcDbLine
 10
0.0
 20
5.0
 30
0.0
 11
0.0
 21
30.2404786567
 31
0.0
  0
LINE
  5
205
330
1FD
100
AcDbEntity
  8
0
  6
Continuous
 62
     0
370
     0
100
AcDbLine
 10
-5.0
 20
0.0
 30
0.0
 11
-8.1
 21
0.0
 31
0.0
  0
LINE
  5
206
330
1FD
100
AcDbEntity
  8
0
  6
Continuous
 62
     0
370
     0
100
AcDbLine
 10
0.0
 20
-5.0
 30
0.0
 11
0.0
 21
-8.1
 31
0.0
  0
LINE
  5
207
330
1FD
100
AcDbEntity
  8
0
  6
Continuous
 62
     0
370
     0
100
AcDbLine
 10
5.0
 20
0.0
 30
0.0
 11
8.1
 21
0.0
 31
0.0
  0
ENDBLK
  5
1FF
330
1FD
100
AcDbEntity
  8
0
100
AcDbBlockEnd
  0
BLOCK
  5
30C
330
30B
100
AcDbEntity
  8
0
100
AcDbBlockBegin
  2
_D_7
 70
     0
 10
0.0
 20
0.0
 30
0.0
  3
_D_7
  1

  0
SOLID
  5
30E
330
30B
100
AcDbEntity
  8
0
  6
Continuous
 62
     7
370
     0
100
AcDbTrace
 10
178.1936315413
 20
230.6925256592
 30
0.0
 11
180.1936315413
 21
229.9425256592
 31
0.0
 12
180.1936315413
 22
231.4425256592
 32
0.0
 13
180.1936315413
 23
231.4425256592
 33
0.0
  0
SOLID
  5
30F
330
30B
100
AcDbEntity
  8
0
  6
Continuous
 62
     7
370
     0
100
AcDbTrace
 10
175.1936315413
 20
230.6925256592
 30
0.0
 11
173.1936315413
 21
231.4425256592
 31
0.0
 12
173.1936315413
 22
229.9425256592
 32
0.0
 13
173.1936315413
 23
229.9425256592
 33
0.0
  0
LINE
  5
310
330
30B
100
AcDbEntity
  8
0
  6
Continuous
 62
     7
370
     0
100
AcDbLine
 10
178.1936315413
 20
223.2813928586
 30
0.0
 11
178.1936315413
 21
231.6925256592
 31
0.0
  0
LINE
  5
311
330
30B
100
AcDbEntity
  8
0
  6
Continuous
 62
     7
370
     0
100
AcDbLine
 10
175.1936315413
 20
223.6153995927
 30
0.0
 11
175.1936315413
 21
231.6925256592
 31
0.0
  0
LINE
  5
312
330
30B
100
AcDbEntity
  8
0
  6
Continuous
 62
     7
370
     0
100
AcDbLine
 10
178.1936315413
 20
230.6925256592
 30
0.0
 11
183.1936315413
 21
230.6925256592
 31
0.0
  0
LINE
  5
313
330
30B
100
AcDbEntity
  8
0
  6
Continuous
 62
     7
370
     0
100
AcDbLine
 10
178.1936315413
 20
230.6925256592
 30
0.0
 11
175.1936315413
 21
230.6925256592
 31
0.0
  0
LINE
  5
314
330
30B
100
AcDbEntity
  8
0
  6
Continuous
 62
     7
370
     0
100
AcDbLine
 10
175.1936315413
 20
230.6925256592
 30
0.0
 11
118.707328625
 21
230.6925256592
 31
0.0
  0
MTEXT
  5
315
330
30B
100
AcDbEntity
  8
0
  6
Continuous
 62
     7
370
     0
100
AcDbMText
 10
118.707328625
 20
235.2042625738
 30
0.1
 40
3.5
 41
0.0
 71
     1
 72
     1
  1
Maxストローク　
  7
SLDTEXTSTYLE0
 73
     1
 44
1.0
  0
MTEXT
  5
316
330
30B
100
AcDbEntity
  8
0
  6
Continuous
 62
     7
370
     0
100
AcDbMText
 10
149.8670499399
 20
235.2042625738
 30
0.1
 40
3.5
 41
0.0
 71
     1
 72
     1
  1
3
  7
SLDTEXTSTYLE0
 73
     1
 44
1.0
  0
ENDBLK
  5
30D
330
30B
100
AcDbEntity
  8
0
100
AcDbBlockEnd
  0
BLOCK
  5
319
330
318
100
AcDbEntity
  8
0
100
AcDbBlockBegin
  2
_D_8
 70
     0
 10
0.0
 20
0.0
 30
0.0
  3
_D_8
  1

  0
SOLID
  5
31B
330
318
100
AcDbEntity
  8
0
  6
Continuous
 62
     7
370
     0
100
AcDbTrace
 10
92.1773434054
 20
179.9153671417
 30
0.0
 11
91.4273434054
 21
177.9153671417
 31
0.0
 12
92.9273434054
 22
177.9153671417
 32
0.0
 13
92.9273434054
 23
177.9153671417
 33
0.0
  0
SOLID
  5
31C
330
318
100
AcDbEntity
  8
0
  6
Continuous
 62
     7
370
     0
100
AcDbTrace
 10
92.1773434054
 20
144.9153995927
 30
0.0
 11
92.9273434054
 21
146.9153995927
 31
0.0
 12
91.4273434054
 22
146.9153995927
 32
0.0
 13
91.4273434054
 23
146.9153995927
 33
0.0
  0
LINE
  5
31D
330
318
100
AcDbEntity
  8
0
  6
Continuous
 62
     7
370
     0
100
AcDbLine
 10
116.4828957264
 20
179.9153671417
 30
0.0
 11
91.1773434054
 21
179.9153671417
 31
0.0
  0
LINE
  5
31E
330
318
100
AcDbEntity
  8
0
  6
Continuous
 62
     7
370
     0
100
AcDbLine
 10
130.4936315413
 20
144.9153995927
 30
0.0
 11
91.1773434054
 21
144.9153995927
 31
0.0
  0
LINE
  5
31F
330
318
100
AcDbEntity
  8
0
  6
Continuous
 62
     7
370
     0
100
AcDbLine
 10
92.1773434054
 20
179.9153671417
 30
0.0
 11
92.1773434054
 21
144.9153995927
 31
0.0
  0
MTEXT
  5
320
330
318
100
AcDbEntity
  8
0
  6
Continuous
 62
     7
370
     0
100
AcDbMText
 10
87.6656064908
 20
159.8292721737
 30
-6.603357641
 40
3.5
 41
0.0
 71
     1
 72
     1
  1
35
  7
SLDTEXTSTYLE0
 11
-7.044195017643634E-15
 21
1.0
 31
0.0
 73
     1
 44
1.0
  0
ENDBLK
  5
31A
330
318
100
AcDbEntity
  8
0
100
AcDbBlockEnd
  0
BLOCK
  5
323
330
322
100
AcDbEntity
  8
0
100
AcDbBlockBegin
  2
_D_9
 70
     0
 10
0.0
 20
0.0
 30
0.0
  3
_D_9
  1

  0
SOLID
  5
325
330
322
100
AcDbEntity
  8
0
  6
Continuous
 62
     7
370
     0
100
AcDbTrace
 10
97.1246351521
 20
163.9153995927
 30
0.0
 11
96.3746351521
 21
161.9153995927
 31
0.0
 12
97.8746351521
 22
161.9153995927
 32
0.0
 13
97.8746351521
 23
161.9153995927
 33
0.0
  0
SOLID
  5
326
330
322
100
AcDbEntity
  8
0
  6
Continuous
 62
     7
370
     0
100
AcDbTrace
 10
97.1246351521
 20
144.9153995927
 30
0.0
 11
97.8746351521
 21
146.9153995927
 31
0.0
 12
96.3746351521
 22
146.9153995927
 32
0.0
 13
96.3746351521
 23
146.9153995927
 33
0.0
  0
LINE
  5
327
330
322
100
AcDbEntity
  8
0
  6
Continuous
 62
     7
370
     0
100
AcDbLine
 10
96.8123229388
 20
163.9153995927
 30
0.0
 11
96.1246351521
 21
163.9153995927
 31
0.0
  0
LINE
  5
328
330
322
100
AcDbEntity
  8
0
  6
Continuous
 62
     7
370
     0
100
AcDbLine
 10
130.4936315413
 20
144.9153995927
 30
0.0
 11
96.1246351521
 21
144.9153995927
 31
0.0
  0
LINE
  5
329
330
322
100
AcDbEntity
  8
0
  6
Continuous
 62
     7
370
     0
100
AcDbLine
 10
97.1246351521
 20
163.9153995927
 30
0.0
 11
97.1246351521
 21
144.9153995927
 31
0.0
  0
MTEXT
  5
32A
330
322
100
AcDbEntity
  8
0
  6
Continuous
 62
     7
370
     0
100
AcDbMText
 10
92.6128982375
 20
152.8215058663
 30
-6.603357641
 40
3.5
 41
0.0
 71
     1
 72
     1
  1
19
  7
SLDTEXTSTYLE0
 11
-7.044195017643634E-15
 21
1.0
 31
0.0
 73
     1
 44
1.0
  0
ENDBLK
  5
324
330
322
100
AcDbEntity
  8
0
100
AcDbBlockEnd
  0
BLOCK
  5
32D
330
32C
100
AcDbEntity
  8
0
100
AcDbBlockBegin
  2
_D_10
 70
     0
 10
0.0
 20
0.0
 30
0.0
  3
_D_10
  1

  0
SOLID
  5
32F
330
32C
100
AcDbEntity
  8
0
  6
Continuous
 62
     7
370
     0
100
AcDbTrace
 10
195.386728565
 20
222.6153995927
 30
0.0
 11
194.636728565
 21
220.6153995927
 31
0.0
 12
196.136728565
 22
220.6153995927
 32
0.0
 13
196.136728565
 23
220.6153995927
 33
0.0
  0
SOLID
  5
330
330
32C
100
AcDbEntity
  8
0
  6
Continuous
 62
     7
370
     0
100
AcDbTrace
 10
195.386728565
 20
144.9153995927
 30
0.0
 11
196.136728565
 21
146.9153995927
 31
0.0
 12
194.636728565
 22
146.9153995927
 32
0.0
 13
194.636728565
 23
146.9153995927
 33
0.0
  0
LINE
  5
331
330
32C
100
AcDbEntity
  8
0
  6
Continuous
 62
     7
370
     0
100
AcDbLine
 10
189.1936315413
 20
222.6153995927
 30
0.0
 11
196.386728565
 21
222.6153995927
 31
0.0
  0
LINE
  5
332
330
32C
100
AcDbEntity
  8
0
  6
Continuous
 62
     7
370
     0
100
AcDbLine
 10
161.4936315413
 20
144.9153995927
 30
0.0
 11
196.386728565
 21
144.9153995927
 31
0.0
  0
LINE
  5
333
330
32C
100
AcDbEntity
  8
0
  6
Continuous
 62
     7
370
     0
100
AcDbLine
 10
195.386728565
 20
222.6153995927
 30
0.0
 11
195.386728565
 21
144.9153995927
 31
0.0
  0
MTEXT
  5
334
330
32C
100
AcDbEntity
  8
0
  6
Continuous
 62
     7
370
     0
100
AcDbMText
 10
190.8749916505
 20
180.764591084
 30
-6.603357641
 40
3.5
 41
0.0
 71
     1
 72
     1
  1
77.7
  7
SLDTEXTSTYLE0
 11
-7.044195017643634E-15
 21
1.0
 31
0.0
 73
     1
 44
1.0
  0
ENDBLK
  5
32E
330
32C
100
AcDbEntity
  8
0
100
AcDbBlockEnd
  0
BLOCK
  5
338
330
337
100
AcDbEntity
  8
0
100
AcDbBlockBegin
  2
_D_11
 70
     0
 10
0.0
 20
0.0
 30
0.0
  3
_D_11
  1

  0
SOLID
  5
33A
330
337
100
AcDbEntity
  8
0
  6
Continuous
 62
     7
370
     0
100
AcDbTrace
 10
178.1936315413
 20
240.2058239889
 30
0.0
 11
176.1936315413
 21
240.9558239889
 31
0.0
 12
176.1936315413
 22
239.4558239889
 32
0.0
 13
176.1936315413
 23
239.4558239889
 33
0.0
  0
SOLID
  5
33B
330
337
100
AcDbEntity
  8
0
  6
Continuous
 62
     7
370
     0
100
AcDbTrace
 10
189.6936315416
 20
240.2058239889
 30
0.0
 11
191.6936315416
 21
239.4558239889
 31
0.0
 12
191.6936315416
 22
240.9558239889
 32
0.0
 13
191.6936315416
 23
240.9558239889
 33
0.0
  0
LINE
  5
33C
330
337
100
AcDbEntity
  8
0
  6
Continuous
 62
     7
370
     0
100
AcDbLine
 10
178.1936315413
 20
223.2813928586
 30
0.0
 11
178.1936315413
 21
241.2058239889
 31
0.0
  0
LINE
  5
33D
330
337
100
AcDbEntity
  8
0
  6
Continuous
 62
     7
370
     0
100
AcDbLine
 10
189.6936315416
 20
198.1153995576
 30
0.0
 11
189.6936315416
 21
241.2058239889
 31
0.0
  0
LINE
  5
33E
330
337
100
AcDbEntity
  8
0
  6
Continuous
 62
     7
370
     0
100
AcDbLine
 10
178.1936315413
 20
240.2058239889
 30
0.0
 11
173.1936315413
 21
240.2058239889
 31
0.0
  0
LINE
  5
33F
330
337
100
AcDbEntity
  8
0
  6
Continuous
 62
     7
370
     0
100
AcDbLine
 10
178.1936315413
 20
240.2058239889
 30
0.0
 11
189.6936315416
 21
240.2058239889
 31
0.0
  0
LINE
  5
340
330
337
100
AcDbEntity
  8
0
  6
Continuous
 62
     7
370
     0
100
AcDbLine
 10
189.6936315416
 20
240.2058239889
 30
0.0
 11
194.6936315416
 21
240.2058239889
 31
0.0
  0
MTEXT
  5
341
330
337
100
AcDbEntity
  8
0
  6
Continuous
 62
     7
370
     0
100
AcDbMText
 10
179.4179370109
 20
244.7175609035
 30
-6.603357641
 40
3.5
 41
0.0
 71
     1
 72
     1
  1
11.5
  7
SLDTEXTSTYLE0
 73
     1
 44
1.0
  0
ENDBLK
  5
339
330
337
100
AcDbEntity
  8
0
100
AcDbBlockEnd
  0
BLOCK
  5
344
330
343
100
AcDbEntity
  8
0
100
AcDbBlockBegin
  2
_D_12
 70
     0
 10
0.0
 20
0.0
 30
0.0
  3
_D_12
  1

  0
ARC
  5
346
330
343
100
AcDbEntity
  8
0
  6
Continuous
 62
     7
370
     0
100
AcDbCircle
 10
167.1241871766
 20
242.9839489845
 30
0.0
 40
6.2120763399956
100
AcDbArc
 50
153.4349488229
 51
206.5650511771
  0
ARC
  5
347
330
343
100
AcDbEntity
  8
0
  6
Continuous
 62
     7
370
     0
100
AcDbCircle
 10
165.0630762554
 20
242.9839489845
 30
0.0
 40
6.2120763399956
100
AcDbArc
 50
333.4349488229
 51
26.5650511771
  0
SOLID
  5
348
330
343
100
AcDbEntity
  8
0
  6
Continuous
 62
     7
370
     0
100
AcDbTrace
 10
153.9936315413
 20
240.2058239889
 30
0.0
 11
155.9936315413
 21
239.4558239889
 31
0.0
 12
155.9936315413
 22
240.9558239889
 32
0.0
 13
155.9936315413
 23
240.9558239889
 33
0.0
  0
SOLID
  5
349
330
343
100
AcDbEntity
  8
0
  6
Continuous
 62
     7
370
     0
100
AcDbTrace
 10
178.1936315413
 20
240.2058239889
 30
0.0
 11
176.1936315413
 21
240.9558239889
 31
0.0
 12
176.1936315413
 22
239.4558239889
 32
0.0
 13
176.1936315413
 23
239.4558239889
 33
0.0
  0
LINE
  5
34A
330
343
100
AcDbEntity
  8
0
  6
Continuous
 62
     7
370
     0
100
AcDbLine
 10
153.9936315413
 20
152.4153995927
 30
0.0
 11
153.9936315413
 21
241.2058239889
 31
0.0
  0
LINE
  5
34B
330
343
100
AcDbEntity
  8
0
  6
Continuous
 62
     7
370
     0
100
AcDbLine
 10
178.1936315413
 20
223.2813928586
 30
0.0
 11
178.1936315413
 21
241.2058239889
 31
0.0
  0
LINE
  5
34C
330
343
100
AcDbEntity
  8
0
  6
Continuous
 62
     7
370
     0
100
AcDbLine
 10
153.9936315413
 20
240.2058239889
 30
0.0
 11
178.1936315413
 21
240.2058239889
 31
0.0
  0
MTEXT
  5
34D
330
343
100
AcDbEntity
  8
0
  6
Continuous
 62
     7
370
     0
100
AcDbMText
 10
161.5679371855
 20
244.7175609035
 30
-6.603357641
 40
3.5
 41
0.0
 71
     1
 72
     1
  1
24.2
  7
SLDTEXTSTYLE0
 73
     1
 44
1.0
  0
ENDBLK
  5
345
330
343
100
AcDbEntity
  8
0
100
AcDbBlockEnd
  0
BLOCK
  5
350
330
34F
100
AcDbEntity
  8
0
100
AcDbBlockBegin
  2
_D_13
 70
     0
 10
0.0
 20
0.0
 30
0.0
  3
_D_13
  1

  0
SOLID
  5
352
330
34F
100
AcDbEntity
  8
0
  6
Continuous
 62
     7
370
     0
100
AcDbTrace
 10
113.9936315413
 20
137.7920889987
 30
0.0
 11
115.9936315413
 21
137.0420889987
 31
0.0
 12
115.9936315413
 22
138.5420889987
 32
0.0
 13
115.9936315413
 23
138.5420889987
 33
0.0
  0
SOLID
  5
353
330
34F
100
AcDbEntity
  8
0
  6
Continuous
 62
     7
370
     0
100
AcDbTrace
 10
189.6936315413
 20
137.7920889987
 30
0.0
 11
187.6936315413
 21
138.5420889987
 31
0.0
 12
187.6936315413
 22
137.0420889987
 32
0.0
 13
187.6936315413
 23
137.0420889987
 33
0.0
  0
LINE
  5
354
330
34F
100
AcDbEntity
  8
0
  6
Continuous
 62
     7
370
     0
100
AcDbLine
 10
113.9936315413
 20
148.4153995927
 30
0.0
 11
113.9936315413
 21
136.7920889987
 31
0.0
  0
LINE
  5
355
330
34F
100
AcDbEntity
  8
0
  6
Continuous
 62
     7
370
     0
100
AcDbLine
 10
189.6936315413
 20
156.4153995927
 30
0.0
 11
189.6936315413
 21
136.7920889987
 31
0.0
  0
LINE
  5
356
330
34F
100
AcDbEntity
  8
0
  6
Continuous
 62
     7
370
     0
100
AcDbLine
 10
113.9936315413
 20
137.7920889987
 30
0.0
 11
189.6936315413
 21
137.7920889987
 31
0.0
  0
MTEXT
  5
357
330
34F
100
AcDbEntity
  8
0
  6
Continuous
 62
     7
370
     0
100
AcDbMText
 10
147.3179370109
 20
142.3038259133
 30
-6.603357641
 40
3.5
 41
0.0
 71
     1
 72
     1
  1
75.7
  7
SLDTEXTSTYLE0
 73
     1
 44
1.0
  0
ENDBLK
  5
351
330
34F
100
AcDbEntity
  8
0
100
AcDbBlockEnd
  0
BLOCK
  5
35A
330
359
100
AcDbEntity
  8
0
100
AcDbBlockBegin
  2
_D_14
 70
     0
 10
0.0
 20
0.0
 30
0.0
  3
_D_14
  1

  0
ARC
  5
35C
330
359
100
AcDbEntity
  8
0
  6
Continuous
 62
     7
370
     0
100
AcDbCircle
 10
145.5741871766
 20
133.6322392998
 30
0.0
 40
6.212076339995614
100
AcDbArc
 50
153.4349488229
 51
206.5650511771
  0
ARC
  5
35D
330
359
100
AcDbEntity
  8
0
  6
Continuous
 62
     7
370
     0
100
AcDbCircle
 10
143.5130762554
 20
133.6322392998
 30
0.0
 40
6.212076339995588
100
AcDbArc
 50
333.4349488229
 51
26.5650511771
  0
SOLID
  5
35E
330
359
100
AcDbEntity
  8
0
  6
Continuous
 62
     7
370
     0
100
AcDbTrace
 10
99.3936315413
 20
130.8541143043
 30
0.0
 11
101.3936315413
 21
130.1041143043
 31
0.0
 12
101.3936315413
 22
131.6041143043
 32
0.0
 13
101.3936315413
 23
131.6041143043
 33
0.0
  0
SOLID
  5
35F
330
359
100
AcDbEntity
  8
0
  6
Continuous
 62
     7
370
     0
100
AcDbTrace
 10
189.6936315413
 20
130.8541143043
 30
0.0
 11
187.6936315413
 21
131.6041143043
 31
0.0
 12
187.6936315413
 22
130.1041143043
 32
0.0
 13
187.6936315413
 23
130.1041143043
 33
0.0
  0
LINE
  5
360
330
359
100
AcDbEntity
  8
0
  6
Continuous
 62
     7
370
     0
100
AcDbLine
 10
99.3936315413
 20
159.0653995927
 30
0.0
 11
99.3936315413
 21
129.8541143043
 31
0.0
  0
LINE
  5
361
330
359
100
AcDbEntity
  8
0
  6
Continuous
 62
     7
370
     0
100
AcDbLine
 10
189.6936315413
 20
156.4153995927
 30
0.0
 11
189.6936315413
 21
129.8541143043
 31
0.0
  0
LINE
  5
362
330
359
100
AcDbEntity
  8
0
  6
Continuous
 62
     7
370
     0
100
AcDbLine
 10
99.3936315413
 20
130.8541143043
 30
0.0
 11
189.6936315413
 21
130.8541143043
 31
0.0
  0
MTEXT
  5
363
330
359
100
AcDbEntity
  8
0
  6
Continuous
 62
     7
370
     0
100
AcDbMText
 10
140.0179371855
 20
135.3658512189
 30
-6.603357641
 40
3.5
 41
0.0
 71
     1
 72
     1
  1
90.3
  7
SLDTEXTSTYLE0
 73
     1
 44
1.0
  0
ENDBLK
  5
35B
330
359
100
AcDbEntity
  8
0
100
AcDbBlockEnd
  0
BLOCK
  5
404
330
403
100
AcDbEntity
  8
0
100
AcDbBlockBegin
  2
_D_15
 70
     0
 10
0.0
 20
0.0
 30
0.0
  3
_D_15
  1

  0
SOLID
  5
406
330
403
100
AcDbEntity
  8
0
  6
Continuous
 62
     7
370
     0
100
AcDbTrace
 10
153.9936315413
 20
122.7861623543
 30
0.0
 11
155.9936315413
 21
122.0361623543
 31
0.0
 12
155.9936315413
 22
123.5361623543
 32
0.0
 13
155.9936315413
 23
123.5361623543
 33
0.0
  0
SOLID
  5
407
330
403
100
AcDbEntity
  8
0
  6
Continuous
 62
     7
370
     0
100
AcDbTrace
 10
189.6936315413
 20
122.7861623543
 30
0.0
 11
187.6936315413
 21
123.5361623543
 31
0.0
 12
187.6936315413
 22
122.0361623543
 32
0.0
 13
187.6936315413
 23
122.0361623543
 33
0.0
  0
LINE
  5
408
330
403
100
AcDbEntity
  8
0
  6
Continuous
 62
     7
370
     0
100
AcDbLine
 10
153.9936315413
 20
111.9493514852
 30
0.0
 11
153.9936315413
 21
123.7861623543
 31
0.0
  0
LINE
  5
409
330
403
100
AcDbEntity
  8
0
  6
Continuous
 62
     7
370
     0
100
AcDbLine
 10
189.6936315413
 20
101.7993514462
 30
0.0
 11
189.6936315413
 21
123.7861623543
 31
0.0
  0
LINE
  5
40A
330
403
100
AcDbEntity
  8
0
  6
Continuous
 62
     7
370
     0
100
AcDbLine
 10
153.9936315413
 20
122.7861623543
 30
0.0
 11
189.6936315413
 21
122.7861623543
 31
0.0
  0
MTEXT
  5
40B
330
403
100
AcDbEntity
  8
0
  6
Continuous
 62
     7
370
     0
100
AcDbMText
 10
167.1660832256
 20
127.2978992688
 30
32.950051565
 40
3.5
 41
0.0
 71
     1
 72
     1
  1
35.7
  7
SLDTEXTSTYLE0
 73
     1
 44
1.0
  0
ENDBLK
  5
405
330
403
100
AcDbEntity
  8
0
100
AcDbBlockEnd
  0
BLOCK
  5
40E
330
40D
100
AcDbEntity
  8
0
100
AcDbBlockBegin
  2
_D_16
 70
     0
 10
0.0
 20
0.0
 30
0.0
  3
_D_16
  1

  0
SOLID
  5
410
330
40D
100
AcDbEntity
  8
0
  6
Continuous
 62
     7
370
     0
100
AcDbTrace
 10
113.9936315413
 20
122.7861623543
 30
0.0
 11
115.9936315413
 21
122.0361623543
 31
0.0
 12
115.9936315413
 22
123.5361623543
 32
0.0
 13
115.9936315413
 23
123.5361623543
 33
0.0
  0
SOLID
  5
411
330
40D
100
AcDbEntity
  8
0
  6
Continuous
 62
     7
370
     0
100
AcDbTrace
 10
153.9936315413
 20
122.7861623543
 30
0.0
 11
151.9936315413
 21
123.5361623543
 31
0.0
 12
151.9936315413
 22
122.0361623543
 32
0.0
 13
151.9936315413
 23
122.0361623543
 33
0.0
  0
LINE
  5
412
330
40D
100
AcDbEntity
  8
0
  6
Continuous
 62
     7
370
     0
100
AcDbLine
 10
113.9936315413
 20
105.2993514852
 30
0.0
 11
113.9936315413
 21
123.7861623543
 31
0.0
  0
LINE
  5
413
330
40D
100
AcDbEntity
  8
0
  6
Continuous
 62
     7
370
     0
100
AcDbLine
 10
153.9936315413
 20
111.9493514852
 30
0.0
 11
153.9936315413
 21
123.7861623543
 31
0.0
  0
LINE
  5
414
330
40D
100
AcDbEntity
  8
0
  6
Continuous
 62
     7
370
     0
100
AcDbLine
 10
113.9936315413
 20
122.7861623543
 30
0.0
 11
153.9936315413
 21
122.7861623543
 31
0.0
  0
MTEXT
  5
415
330
40D
100
AcDbEntity
  8
0
  6
Continuous
 62
     7
370
     0
100
AcDbMText
 10
133.6361692664
 20
127.2978992688
 30
32.950051565
 40
3.5
 41
0.0
 71
     1
 72
     1
  1
40
  7
SLDTEXTSTYLE0
 73
     1
 44
1.0
  0
ENDBLK
  5
40F
330
40D
100
AcDbEntity
  8
0
100
AcDbBlockEnd
  0
BLOCK
  5
418
330
417
100
AcDbEntity
  8
0
100
AcDbBlockBegin
  2
_D_17
 70
     0
 10
0.0
 20
0.0
 30
0.0
  3
_D_17
  1

  0
SOLID
  5
41A
330
417
100
AcDbEntity
  8
0
  6
Continuous
 62
     7
370
     0
100
AcDbTrace
 10
153.9936315413
 20
115.7613593183
 30
0.0
 11
155.9936315413
 21
115.0113593183
 31
0.0
 12
155.9936315413
 22
116.5113593183
 32
0.0
 13
155.9936315413
 23
116.5113593183
 33
0.0
  0
SOLID
  5
41B
330
417
100
AcDbEntity
  8
0
  6
Continuous
 62
     7
370
     0
100
AcDbTrace
 10
151.9936315413
 20
115.7613593183
 30
0.0
 11
149.9936315413
 21
116.5113593183
 31
0.0
 12
149.9936315413
 22
115.0113593183
 32
0.0
 13
149.9936315413
 23
115.0113593183
 33
0.0
  0
LINE
  5
41C
330
417
100
AcDbEntity
  8
0
  6
Continuous
 62
     7
370
     0
100
AcDbLine
 10
153.9936315413
 20
111.9493514852
 30
0.0
 11
153.9936315413
 21
116.7613593183
 31
0.0
  0
LINE
  5
41D
330
417
100
AcDbEntity
  8
0
  6
Continuous
 62
     7
370
     0
100
AcDbLine
 10
151.9936315413
 20
103.7883141642
 30
0.0
 11
151.9936315413
 21
116.7613593183
 31
0.0
  0
LINE
  5
41E
330
417
100
AcDbEntity
  8
0
  6
Continuous
 62
     7
370
     0
100
AcDbLine
 10
153.9936315413
 20
115.7613593183
 30
0.0
 11
158.9936315413
 21
115.7613593183
 31
0.0
  0
LINE
  5
41F
330
417
100
AcDbEntity
  8
0
  6
Continuous
 62
     7
370
     0
100
AcDbLine
 10
153.9936315413
 20
115.7613593183
 30
0.0
 11
151.9936315413
 21
115.7613593183
 31
0.0
  0
LINE
  5
420
330
417
100
AcDbEntity
  8
0
  6
Continuous
 62
     7
370
     0
100
AcDbLine
 10
151.9936315413
 20
115.7613593183
 30
0.0
 11
144.8330455368
 21
115.7613593183
 31
0.0
  0
MTEXT
  5
421
330
417
100
AcDbEntity
  8
0
  6
Continuous
 62
     7
370
     0
100
AcDbMText
 10
144.8330455368
 20
120.2730962329
 30
32.950051565
 40
3.5
 41
0.0
 71
     1
 72
     1
  1
2
  7
SLDTEXTSTYLE0
 73
     1
 44
1.0
  0
ENDBLK
  5
419
330
417
100
AcDbEntity
  8
0
100
AcDbBlockEnd
  0
BLOCK
  5
424
330
423
100
AcDbEntity
  8
0
100
AcDbBlockBegin
  2
_D_18
 70
     0
 10
0.0
 20
0.0
 30
0.0
  3
_D_18
  1

  0
SOLID
  5
426
330
423
100
AcDbEntity
  8
0
  6
Continuous
 62
     7
370
     0
100
AcDbTrace
 10
94.0922639923
 20
98.6383141642
 30
0.0
 11
93.3422639923
 21
96.6383141642
 31
0.0
 12
94.8422639923
 22
96.6383141642
 32
0.0
 13
94.8422639923
 23
96.6383141642
 33
0.0
  0
SOLID
  5
427
330
423
100
AcDbEntity
  8
0
  6
Continuous
 62
     7
370
     0
100
AcDbTrace
 10
94.0922639923
 20
78.6383141642
 30
0.0
 11
94.8422639923
 21
80.6383141642
 31
0.0
 12
93.3422639923
 22
80.6383141642
 32
0.0
 13
93.3422639923
 23
80.6383141642
 33
0.0
  0
LINE
  5
428
330
423
100
AcDbEntity
  8
0
  6
Continuous
 62
     7
370
     0
100
AcDbLine
 10
146.8436315413
 20
98.6383141642
 30
0.0
 11
93.0922639923
 21
98.6383141642
 31
0.0
  0
LINE
  5
429
330
423
100
AcDbEntity
  8
0
  6
Continuous
 62
     7
370
     0
100
AcDbLine
 10
146.8436315413
 20
78.6383141642
 30
0.0
 11
93.0922639923
 21
78.6383141642
 31
0.0
  0
LINE
  5
42A
330
423
100
AcDbEntity
  8
0
  6
Continuous
 62
     7
370
     0
100
AcDbLine
 10
94.0922639923
 20
98.6383141642
 30
0.0
 11
94.0922639923
 21
78.6383141642
 31
0.0
  0
MTEXT
  5
42B
330
423
100
AcDbEntity
  8
0
  6
Continuous
 62
     7
370
     0
100
AcDbMText
 10
89.5805270777
 20
87.0087418202
 30
32.950051565
 40
3.5
 41
0.0
 71
     1
 72
     1
  1
20
  7
SLDTEXTSTYLE0
 11
-7.044195017643634E-15
 21
1.0
 31
0.0
 73
     1
 44
1.0
  0
ENDBLK
  5
425
330
423
100
AcDbEntity
  8
0
100
AcDbBlockEnd
  0
BLOCK
  5
42E
330
42D
100
AcDbEntity
  8
0
100
AcDbBlockBegin
  2
_D_19
 70
     0
 10
0.0
 20
0.0
 30
0.0
  3
_D_19
  1

  0
SOLID
  5
430
330
42D
100
AcDbEntity
  8
0
  6
Continuous
 62
     7
370
     0
100
AcDbTrace
 10
87.4306064337
 20
106.7993514852
 30
0.0
 11
86.6806064337
 21
104.7993514852
 31
0.0
 12
88.1806064337
 22
104.7993514852
 32
0.0
 13
88.1806064337
 23
104.7993514852
 33
0.0
  0
SOLID
  5
431
330
42D
100
AcDbEntity
  8
0
  6
Continuous
 62
     7
370
     0
100
AcDbTrace
 10
87.4306064337
 20
70.7993514852
 30
0.0
 11
88.1806064337
 21
72.7993514852
 31
0.0
 12
86.6806064337
 22
72.7993514852
 32
0.0
 13
86.6806064337
 23
72.7993514852
 33
0.0
  0
LINE
  5
432
330
42D
100
AcDbEntity
  8
0
  6
Continuous
 62
     7
370
     0
100
AcDbLine
 10
148.8436315413
 20
106.7993514852
 30
0.0
 11
86.4306064337
 21
106.7993514852
 31
0.0
  0
LINE
  5
433
330
42D
100
AcDbEntity
  8
0
  6
Continuous
 62
     7
370
     0
100
AcDbLine
 10
148.8436315413
 20
70.7993514852
 30
0.0
 11
86.4306064337
 21
70.7993514852
 31
0.0
  0
LINE
  5
434
330
42D
100
AcDbEntity
  8
0
  6
Continuous
 62
     7
370
     0
100
AcDbLine
 10
87.4306064337
 20
106.7993514852
 30
0.0
 11
87.4306064337
 21
70.7993514852
 31
0.0
  0
MTEXT
  5
435
330
42D
100
AcDbEntity
  8
0
  6
Continuous
 62
     7
370
     0
100
AcDbMText
 10
82.9188695191
 20
87.0087418202
 30
32.950051565
 40
3.5
 41
0.0
 71
     1
 72
     1
  1
36
  7
SLDTEXTSTYLE0
 11
-7.044195017643634E-15
 21
1.0
 31
0.0
 73
     1
 44
1.0
  0
ENDBLK
  5
42F
330
42D
100
AcDbEntity
  8
0
100
AcDbBlockEnd
  0
BLOCK
  5
438
330
437
100
AcDbEntity
  8
0
100
AcDbBlockBegin
  2
_D_20
 70
     0
 10
0.0
 20
0.0
 30
0.0
  3
_D_20
  1

  0
SOLID
  5
43A
330
437
100
AcDbEntity
  8
0
  6
Continuous
 62
     7
370
     0
100
AcDbTrace
 10
130.4936315413
 20
53.2389306234
 30
0.0
 11
132.4936315413
 21
52.4889306234
 31
0.0
 12
132.4936315413
 22
53.9889306234
 32
0.0
 13
132.4936315413
 23
53.9889306234
 33
0.0
  0
SOLID
  5
43B
330
437
100
AcDbEntity
  8
0
  6
Continuous
 62
     7
370
     0
100
AcDbTrace
 10
160.4936315413
 20
53.2389306234
 30
0.0
 11
158.4936315413
 21
53.9889306234
 31
0.0
 12
158.4936315413
 22
52.4889306234
 32
0.0
 13
158.4936315413
 23
52.4889306234
 33
0.0
  0
LINE
  5
43C
330
437
100
AcDbEntity
  8
0
  6
Continuous
 62
     7
370
     0
100
AcDbLine
 10
130.4936315413
 20
66.7993514852
 30
0.0
 11
130.4936315413
 21
52.2389306234
 31
0.0
  0
LINE
  5
43D
330
437
100
AcDbEntity
  8
0
  6
Continuous
 62
     7
370
     0
100
AcDbLine
 10
160.4936315413
 20
66.7993514852
 30
0.0
 11
160.4936315413
 21
52.2389306234
 31
0.0
  0
LINE
  5
43E
330
437
100
AcDbEntity
  8
0
  6
Continuous
 62
     7
370
     0
100
AcDbLine
 10
130.4936315413
 20
53.2389306234
 30
0.0
 11
160.4936315413
 21
53.2389306234
 31
0.0
  0
MTEXT
  5
43F
330
437
100
AcDbEntity
  8
0
  6
Continuous
 62
     7
370
     0
100
AcDbMText
 10
142.9075203478
 20
57.7506675379
 30
32.950051565
 40
3.5
 41
0.0
 71
     1
 72
     1
  1
30
  7
SLDTEXTSTYLE0
 73
     1
 44
1.0
  0
ENDBLK
  5
439
330
437
100
AcDbEntity
  8
0
100
AcDbBlockEnd
  0
BLOCK
  5
442
330
441
100
AcDbEntity
  8
0
100
AcDbBlockBegin
  2
_D_21
 70
     0
 10
0.0
 20
0.0
 30
0.0
  3
_D_21
  1

  0
SOLID
  5
444
330
441
100
AcDbEntity
  8
0
  6
Continuous
 62
     7
370
     0
100
AcDbTrace
 10
160.4936315413
 20
53.2389306234
 30
0.0
 11
162.4936315413
 21
52.4889306234
 31
0.0
 12
162.4936315413
 22
53.9889306234
 32
0.0
 13
162.4936315413
 23
53.9889306234
 33
0.0
  0
SOLID
  5
445
330
441
100
AcDbEntity
  8
0
  6
Continuous
 62
     7
370
     0
100
AcDbTrace
 10
189.6936315413
 20
53.2389306234
 30
0.0
 11
187.6936315413
 21
53.9889306234
 31
0.0
 12
187.6936315413
 22
52.4889306234
 32
0.0
 13
187.6936315413
 23
52.4889306234
 33
0.0
  0
LINE
  5
446
330
441
100
AcDbEntity
  8
0
  6
Continuous
 62
     7
370
     0
100
AcDbLine
 10
160.4936315413
 20
66.7993514852
 30
0.0
 11
160.4936315413
 21
52.2389306234
 31
0.0
  0
LINE
  5
447
330
441
100
AcDbEntity
  8
0
  6
Continuous
 62
     7
370
     0
100
AcDbLine
 10
189.6936315413
 20
76.7993514861
 30
0.0
 11
189.6936315413
 21
52.2389306234
 31
0.0
  0
LINE
  5
448
330
441
100
AcDbEntity
  8
0
  6
Continuous
 62
     7
370
     0
100
AcDbLine
 10
160.4936315413
 20
53.2389306234
 30
0.0
 11
189.6936315413
 21
53.2389306234
 31
0.0
  0
MTEXT
  5
449
330
441
100
AcDbEntity
  8
0
  6
Continuous
 62
     7
370
     0
100
AcDbMText
 10
170.5679370109
 20
57.7506675379
 30
32.950051565
 40
3.5
 41
0.0
 71
     1
 72
     1
  1
29.2
  7
SLDTEXTSTYLE0
 73
     1
 44
1.0
  0
ENDBLK
  5
443
330
441
100
AcDbEntity
  8
0
100
AcDbBlockEnd
  0
BLOCK
  5
44C
330
44B
100
AcDbEntity
  8
0
100
AcDbBlockBegin
  2
_D_22
 70
     0
 10
0.0
 20
0.0
 30
0.0
  3
_D_22
  1

  0
SOLID
  5
44E
330
44B
100
AcDbEntity
  8
0
  6
Continuous
 62
     7
370
     0
100
AcDbTrace
 10
153.9936315413
 20
59.8635753604
 30
0.0
 11
151.9936315413
 21
60.6135753604
 31
0.0
 12
151.9936315413
 22
59.1135753604
 32
0.0
 13
151.9936315413
 23
59.1135753604
 33
0.0
  0
SOLID
  5
44F
330
44B
100
AcDbEntity
  8
0
  6
Continuous
 62
     7
370
     0
100
AcDbTrace
 10
133.9936315413
 20
59.8635753604
 30
0.0
 11
135.9936315413
 21
59.1135753604
 31
0.0
 12
135.9936315413
 22
60.6135753604
 32
0.0
 13
135.9936315413
 23
60.6135753604
 33
0.0
  0
LINE
  5
450
330
44B
100
AcDbEntity
  8
0
  6
Continuous
 62
     7
370
     0
100
AcDbLine
 10
153.9936315413
 20
65.6493514852
 30
0.0
 11
153.9936315413
 21
58.8635753604
 31
0.0
  0
LINE
  5
451
330
44B
100
AcDbEntity
  8
0
  6
Continuous
 62
     7
370
     0
100
AcDbLine
 10
133.9936315413
 20
83.6493514852
 30
0.0
 11
133.9936315413
 21
58.8635753604
 31
0.0
  0
LINE
  5
452
330
44B
100
AcDbEntity
  8
0
  6
Continuous
 62
     7
370
     0
100
AcDbLine
 10
153.9936315413
 20
59.8635753604
 30
0.0
 11
133.9936315413
 21
59.8635753604
 31
0.0
  0
MTEXT
  5
453
330
44B
100
AcDbEntity
  8
0
  6
Continuous
 62
     7
370
     0
100
AcDbMText
 10
141.4075203478
 20
64.3753122749
 30
32.950051565
 40
3.5
 41
0.0
 71
     1
 72
     1
  1
20
  7
SLDTEXTSTYLE0
 73
     1
 44
1.0
  0
ENDBLK
  5
44D
330
44B
100
AcDbEntity
  8
0
100
AcDbBlockEnd
  0
BLOCK
  5
459
330
458
100
AcDbEntity
  8
0
100
AcDbBlockBegin
  2
SW_CENTERMARKSYMBOL_8
 70
     0
 10
0.0
 20
0.0
 30
0.0
  3
SW_CENTERMARKSYMBOL_8
  1

  0
LINE
  5
45B
330
458
100
AcDbEntity
  8
0
  6
Continuous
 62
     0
370
     0
100
AcDbLine
 10
0.0
 20
0.0
 30
0.0
 11
0.0
 21
2.5
 31
0.0
  0
LINE
  5
45C
330
458
100
AcDbEntity
  8
0
  6
Continuous
 62
     0
370
     0
100
AcDbLine
 10
0.0
 20
0.0
 30
0.0
 11
-2.5
 21
0.0
 31
0.0
  0
LINE
  5
45D
330
458
100
AcDbEntity
  8
0
  6
Continuous
 62
     0
370
     0
100
AcDbLine
 10
0.0
 20
0.0
 30
0.0
 11
0.0
 21
-2.5
 31
0.0
  0
LINE
  5
45E
330
458
100
AcDbEntity
  8
0
  6
Continuous
 62
     0
370
     0
100
AcDbLine
 10
0.0
 20
0.0
 30
0.0
 11
2.5
 21
0.0
 31
0.0
  0
LINE
  5
45F
330
458
100
AcDbEntity
  8
0
  6
Continuous
 62
     0
370
     0
100
AcDbLine
 10
0.0
 20
2.5
 30
0.0
 11
0.0
 21
4.15
 31
0.0
  0
LINE
  5
460
330
458
100
AcDbEntity
  8
0
  6
Continuous
 62
     0
370
     0
100
AcDbLine
 10
-2.5
 20
0.0
 30
0.0
 11
-4.15
 21
0.0
 31
0.0
  0
LINE
  5
461
330
458
100
AcDbEntity
  8
0
  6
Continuous
 62
     0
370
     0
100
AcDbLine
 10
0.0
 20
-2.5
 30
0.0
 11
0.0
 21
-4.15
 31
0.0
  0
LINE
  5
462
330
458
100
AcDbEntity
  8
0
  6
Continuous
 62
     0
370
     0
100
AcDbLine
 10
2.5
 20
0.0
 30
0.0
 11
4.15
 21
0.0
 31
0.0
  0
ENDBLK
  5
45A
330
458
100
AcDbEntity
  8
0
100
AcDbBlockEnd
  0
BLOCK
  5
465
330
464
100
AcDbEntity
  8
0
100
AcDbBlockBegin
  2
SW_CENTERMARKSYMBOL_9
 70
     0
 10
0.0
 20
0.0
 30
0.0
  3
SW_CENTERMARKSYMBOL_9
  1

  0
LINE
  5
467
330
464
100
AcDbEntity
  8
0
  6
Continuous
 62
     0
370
     0
100
AcDbLine
 10
0.0
 20
0.0
 30
0.0
 11
0.0
 21
2.5
 31
0.0
  0
LINE
  5
468
330
464
100
AcDbEntity
  8
0
  6
Continuous
 62
     0
370
     0
100
AcDbLine
 10
0.0
 20
0.0
 30
0.0
 11
-2.5
 21
0.0
 31
0.0
  0
LINE
  5
469
330
464
100
AcDbEntity
  8
0
  6
Continuous
 62
     0
370
     0
100
AcDbLine
 10
0.0
 20
0.0
 30
0.0
 11
0.0
 21
-2.5
 31
0.0
  0
LINE
  5
46A
330
464
100
AcDbEntity
  8
0
  6
Continuous
 62
     0
370
     0
100
AcDbLine
 10
0.0
 20
0.0
 30
0.0
 11
2.5
 21
0.0
 31
0.0
  0
LINE
  5
46B
330
464
100
AcDbEntity
  8
0
  6
Continuous
 62
     0
370
     0
100
AcDbLine
 10
0.0
 20
2.5
 30
0.0
 11
0.0
 21
4.15
 31
0.0
  0
LINE
  5
46C
330
464
100
AcDbEntity
  8
0
  6
Continuous
 62
     0
370
     0
100
AcDbLine
 10
-2.5
 20
0.0
 30
0.0
 11
-4.15
 21
0.0
 31
0.0
  0
LINE
  5
46D
330
464
100
AcDbEntity
  8
0
  6
Continuous
 62
     0
370
     0
100
AcDbLine
 10
0.0
 20
-2.5
 30
0.0
 11
0.0
 21
-4.15
 31
0.0
  0
LINE
  5
46E
330
464
100
AcDbEntity
  8
0
  6
Continuous
 62
     0
370
     0
100
AcDbLine
 10
2.5
 20
0.0
 30
0.0
 11
4.15
 21
0.0
 31
0.0
  0
ENDBLK
  5
466
330
464
100
AcDbEntity
  8
0
100
AcDbBlockEnd
  0
BLOCK
  5
471
330
470
100
AcDbEntity
  8
0
100
AcDbBlockBegin
  2
SW_CENTERMARKSYMBOL_10
 70
     0
 10
0.0
 20
0.0
 30
0.0
  3
SW_CENTERMARKSYMBOL_10
  1

  0
LINE
  5
473
330
470
100
AcDbEntity
  8
0
  6
Continuous
 62
     0
370
     0
100
AcDbLine
 10
0.0
 20
0.0
 30
0.0
 11
0.0
 21
2.5
 31
0.0
  0
LINE
  5
474
330
470
100
AcDbEntity
  8
0
  6
Continuous
 62
     0
370
     0
100
AcDbLine
 10
0.0
 20
0.0
 30
0.0
 11
-2.5
 21
0.0
 31
0.0
  0
LINE
  5
475
330
470
100
AcDbEntity
  8
0
  6
Continuous
 62
     0
370
     0
100
AcDbLine
 10
0.0
 20
0.0
 30
0.0
 11
0.0
 21
-2.5
 31
0.0
  0
LINE
  5
476
330
470
100
AcDbEntity
  8
0
  6
Continuous
 62
     0
370
     0
100
AcDbLine
 10
0.0
 20
0.0
 30
0.0
 11
2.5
 21
0.0
 31
0.0
  0
LINE
  5
477
330
470
100
AcDbEntity
  8
0
  6
Continuous
 62
     0
370
     0
100
AcDbLine
 10
0.0
 20
2.5
 30
0.0
 11
0.0
 21
4.15
 31
0.0
  0
LINE
  5
478
330
470
100
AcDbEntity
  8
0
  6
Continuous
 62
     0
370
     0
100
AcDbLine
 10
-2.5
 20
0.0
 30
0.0
 11
-4.15
 21
0.0
 31
0.0
  0
LINE
  5
479
330
470
100
AcDbEntity
  8
0
  6
Continuous
 62
     0
370
     0
100
AcDbLine
 10
0.0
 20
-2.5
 30
0.0
 11
0.0
 21
-4.15
 31
0.0
  0
LINE
  5
47A
330
470
100
AcDbEntity
  8
0
  6
Continuous
 62
     0
370
     0
100
AcDbLine
 10
2.5
 20
0.0
 30
0.0
 11
4.15
 21
0.0
 31
0.0
  0
ENDBLK
  5
472
330
470
100
AcDbEntity
  8
0
100
AcDbBlockEnd
  0
BLOCK
  5
47D
330
47C
100
AcDbEntity
  8
0
100
AcDbBlockBegin
  2
SW_CENTERMARKSYMBOL_11
 70
     0
 10
0.0
 20
0.0
 30
0.0
  3
SW_CENTERMARKSYMBOL_11
  1

  0
LINE
  5
47F
330
47C
100
AcDbEntity
  8
0
  6
Continuous
 62
     0
370
     0
100
AcDbLine
 10
0.0
 20
0.0
 30
0.0
 11
0.0
 21
2.5
 31
0.0
  0
LINE
  5
480
330
47C
100
AcDbEntity
  8
0
  6
Continuous
 62
     0
370
     0
100
AcDbLine
 10
0.0
 20
0.0
 30
0.0
 11
-2.5
 21
0.0
 31
0.0
  0
LINE
  5
481
330
47C
100
AcDbEntity
  8
0
  6
Continuous
 62
     0
370
     0
100
AcDbLine
 10
0.0
 20
0.0
 30
0.0
 11
0.0
 21
-2.5
 31
0.0
  0
LINE
  5
482
330
47C
100
AcDbEntity
  8
0
  6
Continuous
 62
     0
370
     0
100
AcDbLine
 10
0.0
 20
0.0
 30
0.0
 11
2.5
 21
0.0
 31
0.0
  0
LINE
  5
483
330
47C
100
AcDbEntity
  8
0
  6
Continuous
 62
     0
370
     0
100
AcDbLine
 10
0.0
 20
2.5
 30
0.0
 11
0.0
 21
4.15
 31
0.0
  0
LINE
  5
484
330
47C
100
AcDbEntity
  8
0
  6
Continuous
 62
     0
370
     0
100
AcDbLine
 10
-2.5
 20
0.0
 30
0.0
 11
-4.15
 21
0.0
 31
0.0
  0
LINE
  5
485
330
47C
100
AcDbEntity
  8
0
  6
Continuous
 62
     0
370
     0
100
AcDbLine
 10
0.0
 20
-2.5
 30
0.0
 11
0.0
 21
-4.15
 31
0.0
  0
LINE
  5
486
330
47C
100
AcDbEntity
  8
0
  6
Continuous
 62
     0
370
     0
100
AcDbLine
 10
2.5
 20
0.0
 30
0.0
 11
4.15
 21
0.0
 31
0.0
  0
ENDBLK
  5
47E
330
47C
100
AcDbEntity
  8
0
100
AcDbBlockEnd
  0
BLOCK
  5
489
330
488
100
AcDbEntity
  8
0
100
AcDbBlockBegin
  2
SW_CENTERMARKSYMBOL_12
 70
     0
 10
0.0
 20
0.0
 30
0.0
  3
SW_CENTERMARKSYMBOL_12
  1

  0
LINE
  5
48B
330
488
100
AcDbEntity
  8
0
  6
Continuous
 62
     0
370
     0
100
AcDbLine
 10
0.0
 20
0.0
 30
0.0
 11
0.0
 21
2.5
 31
0.0
  0
LINE
  5
48C
330
488
100
AcDbEntity
  8
0
  6
Continuous
 62
     0
370
     0
100
AcDbLine
 10
0.0
 20
0.0
 30
0.0
 11
-2.5
 21
0.0
 31
0.0
  0
LINE
  5
48D
330
488
100
AcDbEntity
  8
0
  6
Continuous
 62
     0
370
     0
100
AcDbLine
 10
0.0
 20
0.0
 30
0.0
 11
0.0
 21
-2.5
 31
0.0
  0
LINE
  5
48E
330
488
100
AcDbEntity
  8
0
  6
Continuous
 62
     0
370
     0
100
AcDbLine
 10
0.0
 20
0.0
 30
0.0
 11
2.5
 21
0.0
 31
0.0
  0
LINE
  5
48F
330
488
100
AcDbEntity
  8
0
  6
Continuous
 62
     0
370
     0
100
AcDbLine
 10
0.0
 20
2.5
 30
0.0
 11
0.0
 21
4.15
 31
0.0
  0
LINE
  5
490
330
488
100
AcDbEntity
  8
0
  6
Continuous
 62
     0
370
     0
100
AcDbLine
 10
-2.5
 20
0.0
 30
0.0
 11
-4.15
 21
0.0
 31
0.0
  0
LINE
  5
491
330
488
100
AcDbEntity
  8
0
  6
Continuous
 62
     0
370
     0
100
AcDbLine
 10
0.0
 20
-2.5
 30
0.0
 11
0.0
 21
-4.15
 31
0.0
  0
LINE
  5
492
330
488
100
AcDbEntity
  8
0
  6
Continuous
 62
     0
370
     0
100
AcDbLine
 10
2.5
 20
0.0
 30
0.0
 11
4.15
 21
0.0
 31
0.0
  0
ENDBLK
  5
48A
330
488
100
AcDbEntity
  8
0
100
AcDbBlockEnd
  0
BLOCK
  5
495
330
494
100
AcDbEntity
  8
0
100
AcDbBlockBegin
  2
SW_CENTERMARKSYMBOL_13
 70
     0
 10
0.0
 20
0.0
 30
0.0
  3
SW_CENTERMARKSYMBOL_13
  1

  0
LINE
  5
497
330
494
100
AcDbEntity
  8
0
  6
Continuous
 62
     0
370
     0
100
AcDbLine
 10
0.0
 20
0.0
 30
0.0
 11
0.0
 21
2.5
 31
0.0
  0
LINE
  5
498
330
494
100
AcDbEntity
  8
0
  6
Continuous
 62
     0
370
     0
100
AcDbLine
 10
0.0
 20
0.0
 30
0.0
 11
-2.5
 21
0.0
 31
0.0
  0
LINE
  5
499
330
494
100
AcDbEntity
  8
0
  6
Continuous
 62
     0
370
     0
100
AcDbLine
 10
0.0
 20
0.0
 30
0.0
 11
0.0
 21
-2.5
 31
0.0
  0
LINE
  5
49A
330
494
100
AcDbEntity
  8
0
  6
Continuous
 62
     0
370
     0
100
AcDbLine
 10
0.0
 20
0.0
 30
0.0
 11
2.5
 21
0.0
 31
0.0
  0
LINE
  5
49B
330
494
100
AcDbEntity
  8
0
  6
Continuous
 62
     0
370
     0
100
AcDbLine
 10
0.0
 20
2.5
 30
0.0
 11
0.0
 21
4.15
 31
0.0
  0
LINE
  5
49C
330
494
100
AcDbEntity
  8
0
  6
Continuous
 62
     0
370
     0
100
AcDbLine
 10
-2.5
 20
0.0
 30
0.0
 11
-4.15
 21
0.0
 31
0.0
  0
LINE
  5
49D
330
494
100
AcDbEntity
  8
0
  6
Continuous
 62
     0
370
     0
100
AcDbLine
 10
0.0
 20
-2.5
 30
0.0
 11
0.0
 21
-4.15
 31
0.0
  0
LINE
  5
49E
330
494
100
AcDbEntity
  8
0
  6
Continuous
 62
     0
370
     0
100
AcDbLine
 10
2.5
 20
0.0
 30
0.0
 11
4.15
 21
0.0
 31
0.0
  0
ENDBLK
  5
496
330
494
100
AcDbEntity
  8
0
100
AcDbBlockEnd
  0
ENDSEC
  0
SECTION
  2
ENTITIES
  0
LINE
  5
44
330
1F
100
AcDbEntity
  8
0
  6
Continuous
 62
     7
370
     0
100
AcDbLine
 10
20.2604743903
 20
285.0
 30
0.0
 11
196.7604743903
 21
285.0
 31
0.0
  0
LINE
  5
45
330
1F
100
AcDbEntity
  8
0
  6
Continuous
 62
     7
370
     0
100
AcDbLine
 10
20.2604743903
 20
285.0
 30
0.0
 11
20.2604743903
 21
10.0
 31
0.0
  0
LINE
  5
46
330
1F
100
AcDbEntity
  8
0
  6
Continuous
 62
     7
370
     0
100
AcDbLine
 10
20.2604743903
 20
10.0
 30
0.0
 11
196.7604743903
 21
10.0
 31
0.0
  0
LINE
  5
47
330
1F
100
AcDbEntity
  8
0
  6
Continuous
 62
     7
370
     0
100
AcDbLine
 10
196.7604743903
 20
285.0
 30
0.0
 11
196.7604743903
 21
10.0
 31
0.0
  0
LINE
  5
48
330
1F
100
AcDbEntity
  8
0
  6
Continuous
 62
     7
370
     0
100
AcDbLine
 10
127.0104743903
 20
50.75
 30
0.0
 11
196.7604743903
 21
50.75
 31
0.0
  0
LINE
  5
49
330
1F
100
AcDbEntity
  8
0
  6
Continuous
 62
     7
370
     0
100
AcDbLine
 10
127.0104743903
 20
50.75
 30
0.0
 11
127.0104743903
 21
10.0
 31
0.0
  0
LINE
  5
4A
330
1F
100
AcDbEntity
  8
0
  6
Continuous
 62
     7
370
     0
100
AcDbLine
 10
127.0104743903
 20
22.75
 30
0.0
 11
196.7604743903
 21
22.75
 31
0.0
  0
LINE
  5
4B
330
1F
100
AcDbEntity
  8
0
  6
Continuous
 62
     7
370
     0
100
AcDbLine
 10
127.0104743903
 20
36.75
 30
0.0
 11
196.7604743903
 21
36.75
 31
0.0
  0
MTEXT
  5
4D
330
1F
100
AcDbEntity
  8
0
  6
Continuous
 62
     7
370
     0
100
AcDbMText
 10
51.8355785073
 20
124.477618982
 30
0.0
 40
3.175
 41
0.0
 71
     1
 72
     1
  1
ＫＱ２Ｓ０４－Ｍ５Ｎ
  7
SLDTEXTSTYLE0
 73
     1
 44
1.0
  0
MTEXT
  5
4E
330
1F
100
AcDbEntity
  8
0
  6
Continuous
 62
     7
370
     0
100
AcDbMText
 10
53.4942849013
 20
59.7700937245
 30
0.0
 40
3.175
 41
0.0
 71
     1
 72
     1
  1
ストッパーネジ
  7
SLDTEXTSTYLE0
 73
     1
 44
1.0
  0
MTEXT
  5
50
330
1F
100
AcDbEntity
  8
0
  6
Continuous
 62
     7
370
     0
100
AcDbMText
 10
161.8237346802
 20
30.4171582345
 30
0.0
 40
4.2333333333
 41
0.0
 71
     2
 72
     1
  1
NW2-35-01C
  7
SLDTEXTSTYLE1
 73
     1
 44
1.0
  0
MTEXT
  5
51
330
1F
100
AcDbEntity
  8
0
  6
Continuous
 62
     7
370
     0
100
AcDbMText
 10
158.5234930711
 20
45.1098430785
 30
0.0
 40
3.175
 41
0.0
 71
     2
 72
     1
  1
ミニエアニッパー・本体・クイキリ刃付
  7
SLDTEXTSTYLE1
 73
     1
 44
1.0
  0
MTEXT
  5
52
330
1F
100
AcDbEntity
  8
0
  6
Continuous
 62
     7
370
     0
100
AcDbMText
 10
162.6500706919
 20
16.8228189052
 30
0.0
 40
4.2333333333
 41
0.0
 71
     2
 72
     1
  1
131550
  7
SLDTEXTSTYLE1
 73
     1
 44
1.0
  0
LINE
  5
53
330
1F
100
AcDbEntity
  8
0
  6
Continuous
 62
     7
370
    15
100
AcDbLine
 10
72.1895764744
 20
150.1153995927
 30
0.0
 11
72.1895764744
 21
150.7153995929
 31
0.0
  0
LINE
  5
54
330
1F
100
AcDbEntity
  8
0
  6
Continuous
 62
     7
370
    15
100
AcDbLine
 10
71.9895764739
 20
149.9153995928
 30
0.0
 11
72.1895764744
 21
150.1153995927
 31
0.0
  0
LINE
  5
55
330
1F
100
AcDbEntity
  8
0
  6
Continuous
 62
     7
370
    15
100
AcDbLine
 10
72.1895764743
 20
150.7153995929
 30
0.0
 11
71.989576474
 21
150.9153995926
 31
0.0
  0
LINE
  5
56
330
1F
100
AcDbEntity
  8
0
  6
Continuous
 62
     7
370
    15
100
AcDbLine
 10
68.1895764737
 20
149.4153995927
 30
0.0
 11
68.1895764737
 21
149.9153995927
 31
0.0
  0
LINE
  5
57
330
1F
100
AcDbEntity
  8
0
  6
Continuous
 62
     7
370
    15
100
AcDbLine
 10
29.3895764739
 20
150.9153995927
 30
0.0
 11
29.1895764742
 21
150.7153995926
 31
0.0
  0
LINE
  5
58
330
1F
100
AcDbEntity
  8
0
  6
Continuous
 62
     7
370
    15
100
AcDbLine
 10
29.1895764743
 20
150.7153995926
 30
0.0
 11
29.1895764743
 21
150.1153995927
 31
0.0
  0
LINE
  5
59
330
1F
100
AcDbEntity
  8
0
  6
Continuous
 62
     7
370
    15
100
AcDbLine
 10
29.1895764743
 20
150.1153995927
 30
0.0
 11
29.389576474
 21
149.9153995925
 31
0.0
  0
LINE
  5
5A
330
1F
100
AcDbEntity
  8
0
  6
Continuous
 62
     7
370
    15
100
AcDbLine
 10
33.1895764746
 20
149.9153995927
 30
0.0
 11
33.1895764746
 21
149.4153995927
 31
0.0
  0
CIRCLE
  5
5B
330
1F
100
AcDbEntity
  8
0
  6
Continuous
 62
     7
370
    15
100
AcDbCircle
 10
50.6573518501
 20
179.9153671417
 30
0.0
 40
2.050000000000004
  0
CIRCLE
  5
5C
330
1F
100
AcDbEntity
  8
0
  6
Continuous
 62
     7
370
    15
100
AcDbCircle
 10
50.6573518501
 20
179.9153671417
 30
0.0
 40
3.849999999999994
  0
CIRCLE
  5
5D
330
1F
100
AcDbEntity
  8
0
  6
Continuous
 62
     7
370
    15
100
AcDbCircle
 10
50.6573518501
 20
179.9153671417
 30
0.0
 40
4.0
  0
CIRCLE
  5
5E
330
1F
100
AcDbEntity
  8
0
  6
Continuous
 62
     7
370
    15
100
AcDbCircle
 10
50.6895764741
 20
163.9153995927
 30
0.0
 40
3.850000000000023
  0
CIRCLE
  5
5F
330
1F
100
AcDbEntity
  8
0
  6
Continuous
 62
     7
370
    15
100
AcDbCircle
 10
50.6895764741
 20
163.9153995927
 30
0.0
 40
2.049999999999983
  0
CIRCLE
  5
60
330
1F
100
AcDbEntity
  8
0
  6
Continuous
 62
     7
370
    15
100
AcDbCircle
 10
50.6895764741
 20
163.9153995927
 30
0.0
 40
4.0
  0
LINE
  5
61
330
1F
100
AcDbEntity
  8
0
  6
Continuous
 62
     7
370
    15
100
AcDbLine
 10
35.1895764741
 20
149.4153995927
 30
0.0
 11
35.1895764741
 21
146.9153995927
 31
0.0
  0
LINE
  5
62
330
1F
100
AcDbEntity
  8
0
  6
Continuous
 62
     7
370
    15
100
AcDbLine
 10
40.6623662371
 20
167.0306932949
 30
0.0
 11
35.1895764741
 21
149.4153995927
 31
0.0
  0
ARC
  5
63
330
1F
100
AcDbEntity
  8
0
  6
Continuous
 62
     7
370
    15
100
AcDbCircle
 10
50.6895764741
 20
163.9153995927
 30
0.0
 40
10.5
100
AcDbArc
 50
90.0
 51
162.7408168388
  0
LINE
  5
64
330
1F
100
AcDbEntity
  8
0
  6
Continuous
 62
     7
370
    15
100
AcDbLine
 10
54.1895764741
 20
174.4153995927
 30
0.0
 11
50.6895764741
 21
174.4153995927
 31
0.0
  0
ARC
  5
65
330
1F
100
AcDbEntity
  8
0
  6
Continuous
 62
     7
370
    15
100
AcDbCircle
 10
54.1895764741
 20
162.4153995927
 30
0.0
 40
12.0
100
AcDbArc
 50
0.0
 51
90.0
  0
LINE
  5
66
330
1F
100
AcDbEntity
  8
0
  6
Continuous
 62
     7
370
    15
100
AcDbLine
 10
66.1895764741
 20
149.4153995927
 30
0.0
 11
66.1895764741
 21
162.4153995927
 31
0.0
  0
LINE
  5
67
330
1F
100
AcDbEntity
  8
0
  6
Continuous
 62
     7
370
    15
100
AcDbLine
 10
66.1895764741
 20
149.4153995927
 30
0.0
 11
35.1895764741
 21
149.4153995927
 31
0.0
  0
LINE
  5
68
330
1F
100
AcDbEntity
  8
0
  6
Continuous
 62
     7
370
    15
100
AcDbLine
 10
66.1895764741
 20
146.9153995927
 30
0.0
 11
66.1895764741
 21
149.4153995927
 31
0.0
  0
LINE
  5
69
330
1F
100
AcDbEntity
  8
0
  6
Continuous
 62
     7
370
    15
100
AcDbLine
 10
66.1895764741
 20
146.9153995927
 30
0.0
 11
35.1895764741
 21
146.9153995927
 31
0.0
  0
LINE
  5
6A
330
1F
100
AcDbEntity
  8
0
  6
Continuous
 62
     7
370
    15
100
AcDbLine
 10
73.1895764741
 20
149.4153995927
 30
0.0
 11
66.6657669503
 21
149.4153995927
 31
0.0
  0
LINE
  5
6B
330
1F
100
AcDbEntity
  8
0
  6
Continuous
 62
     7
370
    15
100
AcDbLine
 10
35.1895764741
 20
149.4153995927
 30
0.0
 11
28.1895764741
 21
149.4153995927
 31
0.0
  0
LINE
  5
6C
330
1F
100
AcDbEntity
  8
0
  6
Continuous
 62
     7
370
    15
100
AcDbLine
 10
35.1895764741
 20
146.9153995927
 30
0.0
 11
28.1895764741
 21
146.9153995927
 31
0.0
  0
LINE
  5
6D
330
1F
100
AcDbEntity
  8
0
  6
Continuous
 62
     7
370
    15
100
AcDbLine
 10
28.1895764741
 20
146.9153995927
 30
0.0
 11
28.1895764741
 21
149.4153995927
 31
0.0
  0
LINE
  5
6E
330
1F
100
AcDbEntity
  8
0
  6
Continuous
 62
     7
370
    15
100
AcDbLine
 10
73.1895764741
 20
146.9153995927
 30
0.0
 11
66.1895764741
 21
146.9153995927
 31
0.0
  0
ELLIPSE
  5
6F
330
1F
100
AcDbEntity
  8
0
  6
Continuous
 62
     7
370
    15
100
AcDbEllipse
 10
66.6657669503
 20
150.4153995927
 30
0.0
 11
-1.421085471520200E-14
 21
1.0
 31
0.0
210
0.0
220
0.0
230
1.0
 40
0.4761904762
 41
1.57079632679489
 42
3.141592653589793
  0
LINE
  5
70
330
1F
100
AcDbEntity
  8
0
  6
Continuous
 62
     7
370
    15
100
AcDbLine
 10
73.1895764741
 20
146.9153995927
 30
0.0
 11
73.1895764741
 21
149.4153995927
 31
0.0
  0
LINE
  5
71
330
1F
100
AcDbEntity
  8
0
  6
Continuous
 62
     7
370
    15
100
AcDbLine
 10
29.6895764741
 20
146.9153995927
 30
0.0
 11
29.6895764741
 21
144.9153995927
 31
0.0
  0
LINE
  5
72
330
1F
100
AcDbEntity
  8
0
  6
Continuous
 62
     7
370
    15
100
AcDbLine
 10
28.6895764741
 20
144.9153995927
 30
0.0
 11
29.6895764741
 21
144.9153995927
 31
0.0
  0
LINE
  5
73
330
1F
100
AcDbEntity
  8
0
  6
Continuous
 62
     7
370
    15
100
AcDbLine
 10
28.6895764741
 20
146.9153995927
 30
0.0
 11
28.6895764741
 21
144.9153995927
 31
0.0
  0
LINE
  5
74
330
1F
100
AcDbEntity
  8
0
  6
Continuous
 62
     7
370
    15
100
AcDbLine
 10
72.6895764741
 20
144.9153995927
 30
0.0
 11
72.6895764741
 21
146.9153995927
 31
0.0
  0
LINE
  5
75
330
1F
100
AcDbEntity
  8
0
  6
Continuous
 62
     7
370
    15
100
AcDbLine
 10
72.6895764741
 20
144.9153995927
 30
0.0
 11
71.6895764741
 21
144.9153995927
 31
0.0
  0
LINE
  5
76
330
1F
100
AcDbEntity
  8
0
  6
Continuous
 62
     7
370
    15
100
AcDbLine
 10
71.6895764741
 20
146.9153995927
 30
0.0
 11
71.6895764741
 21
144.9153995927
 31
0.0
  0
LINE
  5
77
330
1F
100
AcDbEntity
  8
0
  6
Continuous
 62
     7
370
    15
100
AcDbLine
 10
29.6895764741
 20
144.9153995927
 30
0.0
 11
71.6895764741
 21
144.9153995927
 31
0.0
  0
ARC
  5
78
330
1F
100
AcDbEntity
  8
0
  6
Continuous
 62
     7
370
    15
100
AcDbCircle
 10
59.5895764741
 20
163.9153995927
 30
0.0
 40
3.500000000070124
100
AcDbArc
 50
138.7459549516
 51
198.7459549549
  0
SPLINE
  5
79
330
1F
100
AcDbEntity
  8
0
  6
Continuous
 62
     7
370
    15
100
AcDbSpline
210
0.0
220
0.0
230
1.0
 70
    24
 71
     3
 72
     8
 73
     4
 74
     0
 42
0.00000001
 43
0.00000001
 12
1.0
 22
0.0
 32
0.0
 13
1.0
 23
0.0
 33
0.0
 40
0.0
 40
0.0
 40
0.0
 40
0.0
 40
1.0
 40
1.0
 40
1.0
 40
1.0
 10
56.27524160198654
 20
162.790595451426
 30
0.0
 10
56.05359236055187
 20
163.4437045421443
 30
0.0
 10
55.8380095637428
 20
164.078938317307
 30
0.0
 10
55.62583562812609
 20
164.7041275815148
 30
0.0
  0
SPLINE
  5
7A
330
1F
100
AcDbEntity
  8
0
  6
Continuous
 62
     7
370
    15
100
AcDbSpline
210
0.0
220
0.0
230
1.0
 70
    24
 71
     3
 72
     8
 73
     4
 74
     0
 42
0.00000001
 43
0.00000001
 12
1.0
 22
0.0
 32
0.0
 13
1.0
 23
0.0
 33
0.0
 40
0.0
 40
0.0
 40
0.0
 40
0.0
 40
1.0
 40
1.0
 40
1.0
 40
1.0
 10
55.62583562808158
 20
164.7041275819019
 30
0.0
 10
56.06117844542152
 20
165.2004702322349
 30
0.0
 10
56.50351563393502
 20
165.7047872983536
 30
0.0
 10
56.95830007740429
 20
166.223295717491
 30
0.0
  0
SPLINE
  5
7B
330
1F
100
AcDbEntity
  8
0
  6
Continuous
 62
     7
370
    15
100
AcDbSpline
210
0.0
220
0.0
230
1.0
 70
    24
 71
     3
 72
     8
 73
     4
 74
     0
 42
0.00000001
 43
0.00000001
 12
1.0
 22
0.0
 32
0.0
 13
1.0
 23
0.0
 33
0.0
 40
0.0
 40
0.0
 40
0.0
 40
0.0
 40
1.0
 40
1.0
 40
1.0
 40
1.0
 10
56.95830007739387
 20
166.2232957174975
 30
0.0
 10
57.41308452091729
 20
166.7418041366966
 30
0.0
 10
57.8554217095978
 20
167.2461212031962
 30
0.0
 10
58.29076452699233
 20
167.7424638535915
 30
0.0
  0
SPLINE
  5
7C
330
1F
100
AcDbEntity
  8
0
  6
Continuous
 62
     7
370
    15
100
AcDbSpline
210
0.0
220
0.0
230
1.0
 70
    24
 71
     3
 72
     8
 73
     4
 74
     0
 42
0.00000001
 43
0.00000001
 12
1.0
 22
0.0
 32
0.0
 13
1.0
 23
0.0
 33
0.0
 40
0.0
 40
0.0
 40
0.0
 40
0.0
 40
1.0
 40
1.0
 40
1.0
 40
1.0
 10
60.27263494931141
 20
167.3480998592315
 30
0.0
 10
59.59620126475736
 20
167.4827005308125
 30
0.0
 10
58.93828127982717
 20
167.6136172397824
 30
0.0
 10
58.29076452718552
 20
167.742463853657
 30
0.0
  0
ARC
  5
7D
330
1F
100
AcDbEntity
  8
0
  6
Continuous
 62
     7
370
    15
100
AcDbCircle
 10
59.5895764741
 20
163.9153995927
 30
0.0
 40
3.500000000127187
100
AcDbArc
 50
78.7459549534
 51
138.7459549516
  0
SPLINE
  5
7E
330
1F
100
AcDbEntity
  8
0
  6
Continuous
 62
     7
370
    15
100
AcDbSpline
210
0.0
220
0.0
230
1.0
 70
    24
 71
     3
 72
     8
 73
     4
 74
     0
 42
0.00000001
 43
0.00000001
 12
1.0
 22
0.0
 32
0.0
 13
1.0
 23
0.0
 33
0.0
 40
0.0
 40
0.0
 40
0.0
 40
0.0
 40
1.0
 40
1.0
 40
1.0
 40
1.0
 10
60.88838842227204
 20
160.0883353317174
 30
0.0
 10
61.3237312395085
 20
160.5846779821186
 30
0.0
 10
61.76606842770573
 20
161.0889950484677
 30
0.0
 10
62.22085287105251
 20
161.60750346766
 30
0.0
  0
SPLINE
  5
7F
330
1F
100
AcDbEntity
  8
0
  6
Continuous
 62
     7
370
    15
100
AcDbSpline
210
0.0
220
0.0
230
1.0
 70
    24
 71
     3
 72
     8
 73
     4
 74
     0
 42
0.00000001
 43
0.00000001
 12
1.0
 22
0.0
 32
0.0
 13
1.0
 23
0.0
 33
0.0
 40
0.0
 40
0.0
 40
0.0
 40
0.0
 40
1.0
 40
1.0
 40
1.0
 40
1.0
 10
60.88838842188709
 20
160.0883353315867
 30
0.0
 10
60.24087166896806
 20
160.217181945484
 30
0.0
 10
59.58295168380344
 20
160.3480986545973
 30
0.0
 10
58.90651799894885
 20
160.4826993262041
 30
0.0
  0
ARC
  5
80
330
1F
100
AcDbEntity
  8
0
  6
Continuous
 62
     7
370
    15
100
AcDbCircle
 10
59.5895764741
 20
163.9153995927
 30
0.0
 40
3.500000000171332
100
AcDbArc
 50
258.745954956
 51
318.7459549576
  0
ARC
  5
81
330
1F
100
AcDbEntity
  8
0
  6
Continuous
 62
     7
370
    15
100
AcDbCircle
 10
59.5895764741
 20
163.9153995927
 30
0.0
 40
3.500000000070124
100
AcDbArc
 50
198.7459549549
 51
258.745954956
  0
SPLINE
  5
82
330
1F
100
AcDbEntity
  8
0
  6
Continuous
 62
     7
370
    15
100
AcDbSpline
210
0.0
220
0.0
230
1.0
 70
    24
 71
     3
 72
     8
 73
     4
 74
     0
 42
0.00000001
 43
0.00000001
 12
1.0
 22
0.0
 32
0.0
 13
1.0
 23
0.0
 33
0.0
 40
0.0
 40
0.0
 40
0.0
 40
0.0
 40
1.0
 40
1.0
 40
1.0
 40
1.0
 10
56.92464757619031
 20
160.8770633205391
 30
0.0
 10
57.5721643290391
 20
160.7482167066557
 30
0.0
 10
58.23008431417188
 20
160.6172999977956
 30
0.0
 10
58.90651799894884
 20
160.4826993262041
 30
0.0
  0
SPLINE
  5
83
330
1F
100
AcDbEntity
  8
0
  6
Continuous
 62
     7
370
    15
100
AcDbSpline
210
0.0
220
0.0
230
1.0
 70
    24
 71
     3
 72
     8
 73
     4
 74
     0
 42
0.00000001
 43
0.00000001
 12
1.0
 22
0.0
 32
0.0
 13
1.0
 23
0.0
 33
0.0
 40
0.0
 40
0.0
 40
0.0
 40
0.0
 40
1.0
 40
1.0
 40
1.0
 40
1.0
 10
56.27524160198654
 20
162.790595451426
 30
0.0
 10
56.49689084345522
 20
162.1374863606075
 30
0.0
 10
56.71247364037205
 20
161.5022525851273
 30
0.0
 10
56.92464757602332
 20
160.8770633208177
 30
0.0
  0
ARC
  5
84
330
1F
100
AcDbEntity
  8
0
  6
Continuous
 62
     7
370
    15
100
AcDbCircle
 10
59.5895764741
 20
163.9153995927
 30
0.0
 40
3.500000000127187
100
AcDbArc
 50
18.7459549513
 51
78.7459549534
  0
ARC
  5
85
330
1F
100
AcDbEntity
  8
0
  6
Continuous
 62
     7
370
    15
100
AcDbCircle
 10
59.5895764741
 20
163.9153995927
 30
0.0
 40
3.500000000171332
100
AcDbArc
 50
318.7459549576
 51
18.7459549513
  0
SPLINE
  5
86
330
1F
100
AcDbEntity
  8
0
  6
Continuous
 62
   144
370
     0
100
AcDbSpline
210
0.0
220
0.0
230
1.0
 70
     8
 71
     3
 72
     9
 73
     5
 74
     0
 42
0.00000001
 43
0.00000001
 12
1.0
 22
0.0
 32
0.0
 13
1.0
 23
0.0
 33
0.0
 40
0.0
 40
0.0
 40
0.0
 40
0.0
 40
0.4027887985368484
 40
0.9999999999999999
 40
0.9999999999999999
 40
0.9999999999999999
 40
0.9999999999999999
 10
61.29537547476004
 20
162.9065119773802
 30
0.0
 10
61.23325364180874
 20
162.7985754483275
 30
0.0
 10
61.0790243455201
 20
162.5306024325814
 30
0.0
 10
60.82711811713418
 20
162.3483019875621
 30
0.0
 10
60.67667689582379
 20
162.2394301197649
 30
0.0
  0
SPLINE
  5
87
330
1F
100
AcDbEntity
  8
0
  6
Continuous
 62
     7
370
    15
100
AcDbSpline
210
0.0
220
0.0
230
1.0
 70
    24
 71
     3
 72
     8
 73
     4
 74
     0
 42
0.00000001
 43
0.00000001
 12
1.0
 22
0.0
 32
0.0
 13
1.0
 23
0.0
 33
0.0
 40
0.0
 40
0.0
 40
0.0
 40
0.0
 40
1.0
 40
1.0
 40
1.0
 40
1.0
 10
63.55331732014434
 20
163.1266716038895
 30
0.0
 10
63.34114338454008
 20
163.7518608680606
 30
0.0
 10
63.12556058761039
 20
164.3870946431503
 30
0.0
 10
62.90391134619185
 20
165.040203733821
 30
0.0
  0
SPLINE
  5
88
330
1F
100
AcDbEntity
  8
0
  6
Continuous
 62
     7
370
    15
100
AcDbSpline
210
0.0
220
0.0
230
1.0
 70
    24
 71
     3
 72
     8
 73
     4
 74
     0
 42
0.00000001
 43
0.00000001
 12
1.0
 22
0.0
 32
0.0
 13
1.0
 23
0.0
 33
0.0
 40
0.0
 40
0.0
 40
0.0
 40
0.0
 40
1.0
 40
1.0
 40
1.0
 40
1.0
 10
63.5533173200585
 20
163.1266716034581
 30
0.0
 10
63.11797450282001
 20
162.6303289530545
 30
0.0
 10
62.67563731440348
 20
162.1260118868571
 30
0.0
 10
62.22085287105251
 20
161.60750346766
 30
0.0
  0
SPLINE
  5
89
330
1F
100
AcDbEntity
  8
0
  6
Continuous
 62
     7
370
    15
100
AcDbSpline
210
0.0
220
0.0
230
1.0
 70
    24
 71
     3
 72
     8
 73
     4
 74
     0
 42
0.00000001
 43
0.00000001
 12
1.0
 22
0.0
 32
0.0
 13
1.0
 23
0.0
 33
0.0
 40
0.0
 40
0.0
 40
0.0
 40
0.0
 40
1.0
 40
1.0
 40
1.0
 40
1.0
 10
62.25450537194975
 20
166.953735864821
 30
0.0
 10
61.60698861915404
 20
167.0825824787263
 30
0.0
 10
60.9490686340279
 20
167.2134991876181
 30
0.0
 10
60.27263494931141
 20
167.3480998592315
 30
0.0
  0
SPLINE
  5
8A
330
1F
100
AcDbEntity
  8
0
  6
Continuous
 62
     7
370
    15
100
AcDbSpline
210
0.0
220
0.0
230
1.0
 70
    24
 71
     3
 72
     8
 73
     4
 74
     0
 42
0.00000001
 43
0.00000001
 12
1.0
 22
0.0
 32
0.0
 13
1.0
 23
0.0
 33
0.0
 40
0.0
 40
0.0
 40
0.0
 40
0.0
 40
1.0
 40
1.0
 40
1.0
 40
1.0
 10
62.90391134619185
 20
165.040203733821
 30
0.0
 10
62.68226210470018
 20
165.6933128247073
 30
0.0
 10
62.46667930778992
 20
166.3285466001681
 30
0.0
 10
62.25450537211674
 20
166.9537358645423
 30
0.0
  0
CIRCLE
  5
8B
330
1F
100
AcDbEntity
  8
0
  6
Continuous
 62
     7
370
    15
100
AcDbCircle
 10
59.5895764741
 20
163.9153995927
 30
0.0
 40
1.610000000388681
  0
LINE
  5
8C
330
1F
100
AcDbEntity
  8
0
  6
Continuous
 62
     7
370
    15
100
AcDbLine
 10
60.1052932951
 20
164.9485353507
 30
0.0
 11
60.7421566961
 21
163.9853436037
 31
0.0
  0
LINE
  5
8D
330
1F
100
AcDbEntity
  8
0
  6
Continuous
 62
     7
370
    15
100
AcDbLine
 10
60.1052932951
 20
164.9485353507
 30
0.0
 11
58.9527130726
 21
164.8785913388
 31
0.0
  0
LINE
  5
8E
330
1F
100
AcDbEntity
  8
0
  6
Continuous
 62
     7
370
    15
100
AcDbLine
 10
58.9527130726
 20
164.8785913388
 30
0.0
 11
58.4369962521
 21
163.8454555817
 31
0.0
  0
LINE
  5
8F
330
1F
100
AcDbEntity
  8
0
  6
Continuous
 62
     7
370
    15
100
AcDbLine
 10
58.4369962521
 20
163.8454555817
 30
0.0
 11
59.0738596531
 21
162.8822638347
 31
0.0
  0
LINE
  5
90
330
1F
100
AcDbEntity
  8
0
  6
Continuous
 62
     7
370
    15
100
AcDbLine
 10
60.2264398761
 20
162.9522078457
 30
0.0
 11
59.0738596531
 21
162.8822638347
 31
0.0
  0
LINE
  5
91
330
1F
100
AcDbEntity
  8
0
  6
Continuous
 62
     7
370
    15
100
AcDbLine
 10
60.2264398761
 20
162.9522078457
 30
0.0
 11
60.7421566961
 21
163.9853436037
 31
0.0
  0
CIRCLE
  5
92
330
1F
100
AcDbEntity
  8
0
  6
Continuous
 62
     7
370
    15
100
AcDbCircle
 10
59.5895764741
 20
163.9153995927
 30
0.0
 40
2.000000000114912
  0
LINE
  5
93
330
1F
100
AcDbEntity
  8
0
  6
Continuous
 62
     7
370
    15
100
AcDbLine
 10
66.2115101877
 20
150.1153995927
 30
0.0
 11
72.1895764744
 21
150.1153995927
 31
0.0
  0
LINE
  5
94
330
1F
100
AcDbEntity
  8
0
  6
Continuous
 62
     7
370
    15
100
AcDbLine
 10
66.1895764741
 20
150.7153995929
 30
0.0
 11
72.1895764744
 21
150.7153995929
 31
0.0
  0
LINE
  5
95
330
1F
100
AcDbEntity
  8
0
  6
Continuous
 62
     7
370
    15
100
AcDbLine
 10
66.2533739008
 20
149.9153995928
 30
0.0
 11
71.9895764739
 21
149.9153995928
 31
0.0
  0
LINE
  5
96
330
1F
100
AcDbEntity
  8
0
  6
Continuous
 62
     7
370
    15
100
AcDbLine
 10
69.1895764741
 20
150.9153995926
 30
0.0
 11
71.989576474
 21
150.9153995926
 31
0.0
  0
LINE
  5
97
330
1F
100
AcDbEntity
  8
0
  6
Continuous
 62
     7
370
    15
100
AcDbLine
 10
29.3895764739
 20
150.9153995927
 30
0.0
 11
32.1895764741
 21
150.9153995927
 31
0.0
  0
LINE
  5
98
330
1F
100
AcDbEntity
  8
0
  6
Continuous
 62
     7
370
    15
100
AcDbLine
 10
29.1895764742
 20
150.7153995926
 30
0.0
 11
35.5934656633
 21
150.7153995926
 31
0.0
  0
LINE
  5
99
330
1F
100
AcDbEntity
  8
0
  6
Continuous
 62
     7
370
    15
100
AcDbLine
 10
29.2938532991
 20
150.1153995927
 30
0.0
 11
35.4070552683
 21
150.1153995927
 31
0.0
  0
LINE
  5
9A
330
1F
100
AcDbEntity
  8
0
  6
Continuous
 62
     7
370
    15
100
AcDbLine
 10
29.1895764743
 20
150.1153995927
 30
0.0
 11
29.2938532991
 21
150.1153995927
 31
0.0
  0
LINE
  5
9B
330
1F
100
AcDbEntity
  8
0
  6
Continuous
 62
     7
370
    15
100
AcDbLine
 10
29.389576474
 20
149.9153995925
 30
0.0
 11
35.3449184699
 21
149.9153995925
 31
0.0
  0
SPLINE
  5
9C
330
1F
100
AcDbEntity
  8
0
  6
Continuous
 62
     7
370
    15
100
AcDbSpline
210
0.0
220
0.0
230
1.0
 70
    11
 71
     3
 72
    22
 73
    18
 74
     0
 42
0.00000001
 43
0.00000001
 12
1.0
 22
0.0
 32
0.0
 13
1.0
 23
0.0
 33
0.0
 40
0.0
 40
0.0
 40
0.0
 40
0.0
 40
0.125
 40
0.125
 40
0.25
 40
0.25
 40
0.375
 40
0.375
 40
0.5
 40
0.5
 40
0.625
 40
0.625
 40
0.75
 40
0.75
 40
0.875
 40
0.875
 40
1.0
 40
1.0
 40
1.0
 40
1.0
 10
31.86403727481994
 20
152.2203276010491
 30
0.0
 10
31.01667547811271
 20
152.4392680133344
 30
0.0
 10
30.29093605885112
 20
152.9858973641708
 30
0.0
 10
29.40221401411638
 20
154.4938764097164
 30
0.0
 10
29.27556407015414
 20
155.3935769952227
 30
0.0
 10
29.71344489472477
 20
157.0883005886371
 30
0.0
 10
30.26007424556117
 20
157.8140400078987
 30
0.0
 10
31.76805329110681
 20
158.7027620526335
 30
0.0
 10
32.66775387661308
 20
158.8294119965957
 30
0.0
 10
34.36247747002753
 20
158.3915311720251
 30
0.0
 10
35.08821688928911
 20
157.8449018211887
 30
0.0
 10
35.97693893402386
 20
156.336922775643
 30
0.0
 10
36.10358887798609
 20
155.4372221901368
 30
0.0
 10
35.66570805341547
 20
153.7424985967223
 30
0.0
 10
35.11907870257907
 20
153.0167591774608
 30
0.0
 10
33.61109965703344
 20
152.128037132726
 30
0.0
 10
32.71139907152716
 20
152.0013871887638
 30
0.0
 10
31.86403727481994
 20
152.2203276010491
 30
0.0
  0
LINE
  5
9D
330
1F
100
AcDbEntity
  8
0
  6
Continuous
 62
   144
370
     0
100
AcDbLine
 10
30.9729101121
 20
155.8589499657
 30
0.0
 11
32.2153691841
 21
157.1238514587
 31
0.0
  0
LINE
  5
9E
330
1F
100
AcDbEntity
  8
0
  6
Continuous
 62
   144
370
     0
100
AcDbLine
 10
31.4471174021
 20
154.1504980997
 30
0.0
 11
30.9729101121
 21
155.8589499657
 31
0.0
  0
LINE
  5
9F
330
1F
100
AcDbEntity
  8
0
  6
Continuous
 62
     7
370
    15
100
AcDbLine
 10
33.1637837641
 20
153.7069477267
 30
0.0
 11
31.4471174021
 21
154.1504980997
 31
0.0
  0
LINE
  5
A0
330
1F
100
AcDbEntity
  8
0
  6
Continuous
 62
     7
370
    15
100
AcDbLine
 10
34.4062428361
 20
154.9718492197
 30
0.0
 11
33.1637837641
 21
153.7069477267
 31
0.0
  0
LINE
  5
A1
330
1F
100
AcDbEntity
  8
0
  6
Continuous
 62
     7
370
    15
100
AcDbLine
 10
33.9320355461
 20
156.6803010857
 30
0.0
 11
34.4062428361
 21
154.9718492197
 31
0.0
  0
LINE
  5
A2
330
1F
100
AcDbEntity
  8
0
  6
Continuous
 62
     7
370
    15
100
AcDbLine
 10
32.2153691841
 20
157.1238514587
 30
0.0
 11
33.9320355461
 21
156.6803010857
 31
0.0
  0
CIRCLE
  5
A3
330
1F
100
AcDbEntity
  8
0
  6
Continuous
 62
     7
370
    15
100
AcDbCircle
 10
32.6895764741
 20
155.4153995927
 30
0.0
 40
3.499999999811354
  0
ARC
  5
A4
330
1F
100
AcDbEntity
  8
0
  6
Continuous
 62
     7
370
    15
100
AcDbCircle
 10
32.6895764741
 20
155.4153995927
 30
0.0
 40
1.535499999864706
100
AcDbArc
 50
315.5128188037
 51
15.5128188103
  0
ARC
  5
A5
330
1F
100
AcDbEntity
  8
0
  6
Continuous
 62
     7
370
    15
100
AcDbCircle
 10
32.6895764741
 20
155.4153995927
 30
0.0
 40
1.535500000081093
100
AcDbArc
 50
255.5128188136
 51
315.5128188037
  0
ARC
  5
A6
330
1F
100
AcDbEntity
  8
0
  6
Continuous
 62
   144
370
     0
100
AcDbCircle
 10
32.6895764741
 20
155.4153995927
 30
0.0
 40
1.535500000323152
100
AcDbArc
 50
105.5128188062
 51
225.5128188131
  0
SPLINE
  5
A7
330
1F
100
AcDbEntity
  8
0
  6
Continuous
 62
     7
370
    15
100
AcDbSpline
210
0.0
220
0.0
230
1.0
 70
    11
 71
     3
 72
    22
 73
    18
 74
     0
 42
0.00000001
 43
0.00000001
 12
1.0
 22
0.0
 32
0.0
 13
1.0
 23
0.0
 33
0.0
 40
0.0
 40
0.0
 40
0.0
 40
0.0
 40
0.125
 40
0.125
 40
0.25
 40
0.25
 40
0.375
 40
0.375
 40
0.5
 40
0.5
 40
0.625
 40
0.625
 40
0.75
 40
0.75
 40
0.875
 40
0.875
 40
1.0
 40
1.0
 40
1.0
 40
1.0
 10
31.86403727193411
 20
178.2203276017946
 30
0.0
 10
31.0166754754246
 20
178.4392680148452
 30
0.0
 10
30.29093605665667
 20
178.985897366337
 30
0.0
 10
29.40221401328381
 20
180.4938764126853
 30
0.0
 10
29.2755640701341
 20
181.393576998306
 30
0.0
 10
29.71344489623529
 20
183.088300591325
 30
0.0
 10
30.26007424772713
 20
183.8140400100929
 30
0.0
 10
31.76805329407542
 20
184.7027620534658
 30
0.0
 10
32.66775387969609
 20
184.8294119966154
 30
0.0
 10
34.36247747271511
 20
184.3915311705143
 30
0.0
 10
35.08821689148302
 20
183.8449018190225
 30
0.0
 10
35.97693893485589
 20
182.3369227726742
 30
0.0
 10
36.10358887800559
 20
181.4372221870535
 30
0.0
 10
35.6657080519044
 20
179.7424985940345
 30
0.0
 10
35.11907870041256
 20
179.0167591752665
 30
0.0
 10
33.61109965406428
 20
178.1280371318937
 30
0.0
 10
32.7113990684436
 20
178.001387188744
 30
0.0
 10
31.8640372719341
 20
178.2203276017946
 30
0.0
  0
LINE
  5
A8
330
1F
100
AcDbEntity
  8
0
  6
Continuous
 62
     7
370
    15
100
AcDbLine
 10
31.4471174021
 20
180.1504980997
 30
0.0
 11
30.9729101121
 21
181.8589499657
 31
0.0
  0
LINE
  5
A9
330
1F
100
AcDbEntity
  8
0
  6
Continuous
 62
     7
370
    15
100
AcDbLine
 10
33.1637837641
 20
179.7069477267
 30
0.0
 11
31.4471174021
 21
180.1504980997
 31
0.0
  0
LINE
  5
AA
330
1F
100
AcDbEntity
  8
0
  6
Continuous
 62
     7
370
    15
100
AcDbLine
 10
34.4062428361
 20
180.9718492197
 30
0.0
 11
33.1637837641
 21
179.7069477267
 31
0.0
  0
LINE
  5
AB
330
1F
100
AcDbEntity
  8
0
  6
Continuous
 62
     7
370
    15
100
AcDbLine
 10
33.9320355461
 20
182.6803010857
 30
0.0
 11
34.4062428361
 21
180.9718492197
 31
0.0
  0
LINE
  5
AC
330
1F
100
AcDbEntity
  8
0
  6
Continuous
 62
     7
370
    15
100
AcDbLine
 10
32.2153691841
 20
183.1238514587
 30
0.0
 11
33.9320355461
 21
182.6803010857
 31
0.0
  0
LINE
  5
AD
330
1F
100
AcDbEntity
  8
0
  6
Continuous
 62
   144
370
     0
100
AcDbLine
 10
30.9729101121
 20
181.8589499657
 30
0.0
 11
32.2153691841
 21
183.1238514587
 31
0.0
  0
CIRCLE
  5
AE
330
1F
100
AcDbEntity
  8
0
  6
Continuous
 62
     7
370
    15
100
AcDbCircle
 10
32.6895764741
 20
181.4153995927
 30
0.0
 40
3.499999999811301
  0
ARC
  5
AF
330
1F
100
AcDbEntity
  8
0
  6
Continuous
 62
     7
370
    15
100
AcDbCircle
 10
32.6895764741
 20
181.4153995927
 30
0.0
 40
1.535499999864681
100
AcDbArc
 50
315.5128188037
 51
15.5128188103
  0
ARC
  5
B0
330
1F
100
AcDbEntity
  8
0
  6
Continuous
 62
     7
370
    15
100
AcDbCircle
 10
32.6895764741
 20
181.4153995927
 30
0.0
 40
1.53549999996658
100
AcDbArc
 50
255.5128188136
 51
315.5128188037
  0
SPLINE
  5
B1
330
1F
100
AcDbEntity
  8
0
  6
Continuous
 62
     7
370
    15
100
AcDbSpline
210
0.0
220
0.0
230
1.0
 70
    11
 71
     3
 72
    22
 73
    18
 74
     0
 42
0.00000001
 43
0.00000001
 12
1.0
 22
0.0
 32
0.0
 13
1.0
 23
0.0
 33
0.0
 40
0.0
 40
0.0
 40
0.0
 40
0.0
 40
0.125
 40
0.125
 40
0.25
 40
0.25
 40
0.375
 40
0.375
 40
0.5
 40
0.5
 40
0.625
 40
0.625
 40
0.75
 40
0.75
 40
0.875
 40
0.875
 40
1.0
 40
1.0
 40
1.0
 40
1.0
 10
67.86403727481958
 20
178.2203276010494
 30
0.0
 10
67.01667547811236
 20
178.4392680133348
 30
0.0
 10
66.29093605885078
 20
178.9858973641712
 30
0.0
 10
65.40221401411607
 20
180.4938764097169
 30
0.0
 10
65.27556407015385
 20
181.3935769952231
 30
0.0
 10
65.71344489472453
 20
183.0883005886376
 30
0.0
 10
66.26007424556093
 20
183.8140400078992
 30
0.0
 10
67.76805329110661
 20
184.7027620526339
 30
0.0
 10
68.66775387661289
 20
184.8294119965961
 30
0.0
 10
70.36247747002734
 20
184.3915311720255
 30
0.0
 10
71.08821688928893
 20
183.844901821189
 30
0.0
 10
71.97693893402362
 20
182.3369227756433
 30
0.0
 10
72.10358887798584
 20
181.4372221901371
 30
0.0
 10
71.66570805341519
 20
179.7424985967226
 30
0.0
 10
71.11907870257878
 20
179.016759177461
 30
0.0
 10
69.61109965703311
 20
178.1280371327263
 30
0.0
 10
68.71139907152681
 20
178.0013871887641
 30
0.0
 10
67.8640372748196
 20
178.2203276010494
 30
0.0
  0
LINE
  5
B2
330
1F
100
AcDbEntity
  8
0
  6
Continuous
 62
     7
370
    15
100
AcDbLine
 10
66.9729101121
 20
181.8589499657
 30
0.0
 11
68.2153691841
 21
183.1238514587
 31
0.0
  0
LINE
  5
B3
330
1F
100
AcDbEntity
  8
0
  6
Continuous
 62
     7
370
    15
100
AcDbLine
 10
67.4471174021
 20
180.1504980997
 30
0.0
 11
66.9729101121
 21
181.8589499657
 31
0.0
  0
LINE
  5
B4
330
1F
100
AcDbEntity
  8
0
  6
Continuous
 62
     7
370
    15
100
AcDbLine
 10
69.1637837641
 20
179.7069477267
 30
0.0
 11
67.4471174021
 21
180.1504980997
 31
0.0
  0
LINE
  5
B5
330
1F
100
AcDbEntity
  8
0
  6
Continuous
 62
     7
370
    15
100
AcDbLine
 10
70.4062428361
 20
180.9718492197
 30
0.0
 11
69.1637837641
 21
179.7069477267
 31
0.0
  0
LINE
  5
B6
330
1F
100
AcDbEntity
  8
0
  6
Continuous
 62
     7
370
    15
100
AcDbLine
 10
69.9320355461
 20
182.6803010857
 30
0.0
 11
70.4062428361
 21
180.9718492197
 31
0.0
  0
LINE
  5
B7
330
1F
100
AcDbEntity
  8
0
  6
Continuous
 62
     7
370
    15
100
AcDbLine
 10
68.2153691841
 20
183.1238514587
 30
0.0
 11
69.9320355461
 21
182.6803010857
 31
0.0
  0
CIRCLE
  5
B8
330
1F
100
AcDbEntity
  8
0
  6
Continuous
 62
     7
370
    15
100
AcDbCircle
 10
68.6895764741
 20
181.4153995927
 30
0.0
 40
3.499999999811329
  0
ARC
  5
B9
330
1F
100
AcDbEntity
  8
0
  6
Continuous
 62
     7
370
    15
100
AcDbCircle
 10
68.6895764741
 20
181.4153995927
 30
0.0
 40
1.535499999896537
100
AcDbArc
 50
135.5128188037
 51
195.5128188103
  0
ARC
  5
BA
330
1F
100
AcDbEntity
  8
0
  6
Continuous
 62
     7
370
    15
100
AcDbCircle
 10
68.6895764741
 20
181.4153995927
 30
0.0
 40
1.535499999839026
100
AcDbArc
 50
75.5128188127
 51
135.5128188037
  0
ARC
  5
BB
330
1F
100
AcDbEntity
  8
0
  6
Continuous
 62
     7
370
    15
100
AcDbCircle
 10
68.6895764741
 20
181.4153995927
 30
0.0
 40
1.535499999986078
100
AcDbArc
 50
315.5128188037
 51
15.5128188062
  0
ARC
  5
BC
330
1F
100
AcDbEntity
  8
0
  6
Continuous
 62
     7
370
    15
100
AcDbCircle
 10
68.6895764741
 20
181.4153995927
 30
0.0
 40
1.535500000081063
100
AcDbArc
 50
255.5128188127
 51
315.5128188037
  0
ARC
  5
BD
330
1F
100
AcDbEntity
  8
0
  6
Continuous
 62
     7
370
    15
100
AcDbCircle
 10
68.6895764741
 20
181.4153995927
 30
0.0
 40
1.535500000081063
100
AcDbArc
 50
195.5128188103
 51
255.5128188127
  0
LINE
  5
BE
330
1F
100
AcDbEntity
  8
0
  6
Continuous
 62
     7
370
    15
100
AcDbLine
 10
68.2153691841
 20
157.1238514587
 30
0.0
 11
66.9729101121
 21
155.8589499657
 31
0.0
  0
LINE
  5
BF
330
1F
100
AcDbEntity
  8
0
  6
Continuous
 62
     7
370
    15
100
AcDbLine
 10
66.9729101121
 20
155.8589499657
 30
0.0
 11
67.4471174021
 21
154.1504980997
 31
0.0
  0
LINE
  5
C0
330
1F
100
AcDbEntity
  8
0
  6
Continuous
 62
     7
370
    15
100
AcDbLine
 10
67.4471174021
 20
154.1504980997
 30
0.0
 11
69.1637837641
 21
153.7069477267
 31
0.0
  0
LINE
  5
C1
330
1F
100
AcDbEntity
  8
0
  6
Continuous
 62
   144
370
     0
100
AcDbLine
 10
70.4062428361
 20
154.9718492197
 30
0.0
 11
69.1637837641
 21
153.7069477267
 31
0.0
  0
LINE
  5
C2
330
1F
100
AcDbEntity
  8
0
  6
Continuous
 62
   144
370
     0
100
AcDbLine
 10
69.9320355461
 20
156.6803010857
 30
0.0
 11
70.4062428361
 21
154.9718492197
 31
0.0
  0
LINE
  5
C3
330
1F
100
AcDbEntity
  8
0
  6
Continuous
 62
     7
370
    15
100
AcDbLine
 10
68.2153691841
 20
157.1238514587
 30
0.0
 11
69.9320355461
 21
156.6803010857
 31
0.0
  0
ARC
  5
C4
330
1F
100
AcDbEntity
  8
0
  6
Continuous
 62
     7
370
    15
100
AcDbCircle
 10
68.6895764741
 20
155.4153995927
 30
0.0
 40
3.500000000182029
100
AcDbArc
 50
255.5128188095
 51
135.5846913998
  0
ARC
  5
C5
330
1F
100
AcDbEntity
  8
0
  6
Continuous
 62
     7
370
    15
100
AcDbCircle
 10
68.6895764741
 20
155.4153995927
 30
0.0
 40
3.500000000182009
100
AcDbArc
 50
224.4153086002
 51
255.5128188095
  0
ARC
  5
C6
330
1F
100
AcDbEntity
  8
0
  6
Continuous
 62
     7
370
    15
100
AcDbCircle
 10
68.6895764741
 20
155.4153995927
 30
0.0
 40
1.535499999839029
100
AcDbArc
 50
75.5128188117
 51
135.5128188037
  0
ARC
  5
C7
330
1F
100
AcDbEntity
  8
0
  6
Continuous
 62
     7
370
    15
100
AcDbCircle
 10
68.6895764741
 20
155.4153995927
 30
0.0
 40
1.535499999719838
100
AcDbArc
 50
195.5128188103
 51
255.5128188162
  0
ARC
  5
C8
330
1F
100
AcDbEntity
  8
0
  6
Continuous
 62
   144
370
     0
100
AcDbCircle
 10
68.6895764741
 20
155.4153995927
 30
0.0
 40
1.53550000032315
100
AcDbArc
 50
285.5128188062
 51
45.5128188131
  0
SPLINE
  5
C9
330
1F
100
AcDbEntity
  8
0
  6
Continuous
 62
   144
370
     0
100
AcDbSpline
210
0.0
220
0.0
230
1.0
 70
     8
 71
     3
 72
    12
 73
     8
 74
     0
 42
0.00000001
 43
0.00000001
 12
1.0
 22
0.0
 32
0.0
 13
1.0
 23
0.0
 33
0.0
 40
0.0
 40
0.0
 40
0.0
 40
0.0
 40
0.2184135292448704
 40
0.4946872189287092
 40
0.6630352698158645
 40
0.8317798223854652
 40
1.0
 40
1.0
 40
1.0
 40
1.0
 10
60.23957647407003
 20
163.91539959268
 30
0.0
 10
60.23132414173124
 20
163.8161447412662
 30
0.0
 10
60.21263334291272
 20
163.5913413301367
 30
0.0
 10
60.06902649048908
 20
163.3159180247887
 30
0.0
 10
59.87874382527215
 20
163.1122695112966
 30
0.0
 10
59.68859015408037
 20
162.9789050839328
 30
0.0
 10
59.5430508798234
 20
162.9304948770503
 30
0.0
 10
59.47039448474009
 20
162.9063274409043
 30
0.0
  0
SPLINE
  5
CA
330
1F
100
AcDbEntity
  8
0
  6
Continuous
 62
   144
370
     0
100
AcDbSpline
210
0.0
220
0.0
230
1.0
 70
     8
 71
     3
 72
    12
 73
     8
 74
     0
 42
0.00000001
 43
0.00000001
 12
1.0
 22
0.0
 32
0.0
 13
1.0
 23
0.0
 33
0.0
 40
0.0
 40
0.0
 40
0.0
 40
0.0
 40
0.1465550866416016
 40
0.3192922614633897
 40
0.4924277568211354
 40
0.7758974949473892
 40
1.0
 40
1.0
 40
1.0
 40
1.0
 10
59.50256425478348
 20
164.9119589060915
 30
0.0
 10
59.56416354633839
 20
164.8912406805166
 30
0.0
 10
59.69836685211112
 20
164.8461029152646
 30
0.0
 10
59.87849065571868
 20
164.7184096528323
 30
0.0
 10
60.06899613517077
 20
164.5151545936795
 30
0.0
 10
60.2126209058388
 20
164.239432696511
 30
0.0
 10
60.23132033241646
 20
164.0146467383059
 30
0.0
 10
60.23957647407003
 20
163.91539959268
 30
0.0
  0
LINE
  5
CB
330
1F
100
AcDbEntity
  8
0
  6
Continuous
 62
     7
370
    15
100
AcDbLine
 10
64.1787551861
 20
181.1774231887
 30
0.0
 11
64.1787551861
 21
183.9238087987
 31
0.0
  0
ARC
  5
CC
330
1F
100
AcDbEntity
  8
0
  6
Continuous
 62
     7
370
    15
100
AcDbCircle
 10
68.6787551861
 20
181.1774231887
 30
0.0
 40
4.5
100
AcDbArc
 50
180.0
 51
270.0
  0
LINE
  5
CD
330
1F
100
AcDbEntity
  8
0
  6
Continuous
 62
     7
370
    15
100
AcDbLine
 10
71.020791959
 20
176.677423189
 30
0.0
 11
68.6787551861
 21
176.6774231887
 31
0.0
  0
ARC
  5
CE
330
1F
100
AcDbEntity
  8
0
  6
Continuous
 62
     7
370
    15
100
AcDbCircle
 10
71.1896008201
 20
174.6675548737
 30
0.0
 40
2.016944986000003
100
AcDbArc
 50
7.4375164174
 51
94.8010050071
  0
LINE
  5
CF
330
1F
100
AcDbEntity
  8
0
  6
Continuous
 62
     7
370
    15
100
AcDbLine
 10
73.1895764741
 20
174.9286381164
 30
0.0
 11
73.1895764741
 21
161.902161069
 31
0.0
  0
ARC
  5
D0
330
1F
100
AcDbEntity
  8
0
  6
Continuous
 62
     7
370
    15
100
AcDbCircle
 10
71.1896008201
 20
162.1632443117
 30
0.0
 40
2.016944985912658
100
AcDbArc
 50
265.1989949929
 51
352.5624835826
  0
LINE
  5
D1
330
1F
100
AcDbEntity
  8
0
  6
Continuous
 62
     7
370
    15
100
AcDbLine
 10
71.0207919591
 20
160.1533759967
 30
0.0
 11
68.6787551861
 21
160.1533759967
 31
0.0
  0
ARC
  5
D2
330
1F
100
AcDbEntity
  8
0
  6
Continuous
 62
     7
370
    15
100
AcDbCircle
 10
68.6787551861
 20
155.6533759967
 30
0.0
 40
4.500000000000028
100
AcDbArc
 50
90.0
 51
123.5834424132
  0
ARC
  5
D3
330
1F
100
AcDbEntity
  8
0
  6
Continuous
 62
     7
370
    15
100
AcDbCircle
 10
32.7003977631
 20
155.6533759967
 30
0.0
 40
4.500000000000001
100
AcDbArc
 50
2.7685572402
 51
90.0
  0
LINE
  5
D4
330
1F
100
AcDbEntity
  8
0
  6
Continuous
 62
     7
370
    15
100
AcDbLine
 10
30.3583609896
 20
160.1533759967
 30
0.0
 11
32.7003977631
 21
160.1533759967
 31
0.0
  0
ARC
  5
D5
330
1F
100
AcDbEntity
  8
0
  6
Continuous
 62
     7
370
    15
100
AcDbCircle
 10
30.1895521281
 20
162.1632443117
 30
0.0
 40
2.016944985999999
100
AcDbArc
 50
187.4375164174
 51
274.8010050213
  0
LINE
  5
D6
330
1F
100
AcDbEntity
  8
0
  6
Continuous
 62
     7
370
    15
100
AcDbLine
 10
28.1895764741
 20
174.9286381164
 30
0.0
 11
28.189576474
 21
161.902161069
 31
0.0
  0
ARC
  5
D7
330
1F
100
AcDbEntity
  8
0
  6
Continuous
 62
     7
370
    15
100
AcDbCircle
 10
30.1895521281
 20
174.6675548737
 30
0.0
 40
2.016944986000007
100
AcDbArc
 50
85.1989949787
 51
172.5624835826
  0
LINE
  5
D8
330
1F
100
AcDbEntity
  8
0
  6
Continuous
 62
     7
370
    15
100
AcDbLine
 10
32.7003977631
 20
176.6774231887
 30
0.0
 11
30.3583609896
 21
176.677423189
 31
0.0
  0
ARC
  5
D9
330
1F
100
AcDbEntity
  8
0
  6
Continuous
 62
     7
370
    15
100
AcDbCircle
 10
32.7003977631
 20
181.1774231887
 30
0.0
 40
4.5
100
AcDbArc
 50
270.0
 51
0.0
  0
LINE
  5
DA
330
1F
100
AcDbEntity
  8
0
  6
Continuous
 62
     7
370
    15
100
AcDbLine
 10
37.2003977631
 20
183.9238087987
 30
0.0
 11
37.2003977631
 21
181.1774231887
 31
0.0
  0
ARC
  5
DB
330
1F
100
AcDbEntity
  8
0
  6
Continuous
 62
     7
370
    15
100
AcDbCircle
 10
39.2003977631
 20
183.9238087987
 30
0.0
 40
2.000000000188336
100
AcDbArc
 50
95.2559644621
 51
180.0
  0
LINE
  5
DC
330
1F
100
AcDbEntity
  8
0
  6
Continuous
 62
     7
370
    15
100
AcDbLine
 10
62.361965748
 20
185.9153995927
 30
0.0
 11
39.0171872011
 21
185.9153995927
 31
0.0
  0
ARC
  5
DD
330
1F
100
AcDbEntity
  8
0
  6
Continuous
 62
     7
370
    15
100
AcDbCircle
 10
62.1787551861
 20
183.9238087987
 30
0.0
 40
2.00000000018836
100
AcDbArc
 50
0.0
 51
84.744035538
  0
LINE
  5
DE
330
1F
100
AcDbEntity
  8
0
  6
Continuous
 62
     7
370
    15
100
AcDbLine
 10
28.1895764741
 20
174.9286381164
 30
0.0
 11
28.1895764741
 21
181.4153995927
 31
0.0
  0
LINE
  5
DF
330
1F
100
AcDbEntity
  8
0
  6
Continuous
 62
     7
370
    15
100
AcDbLine
 10
28.1895764741
 20
155.4153995927
 30
0.0
 11
28.189576474
 21
161.902161069
 31
0.0
  0
LINE
  5
E0
330
1F
100
AcDbEntity
  8
0
  6
Continuous
 62
     7
370
    15
100
AcDbLine
 10
73.1895764741
 20
155.4153995927
 30
0.0
 11
73.1895764741
 21
161.902161069
 31
0.0
  0
LINE
  5
E1
330
1F
100
AcDbEntity
  8
0
  6
Continuous
 62
     7
370
    15
100
AcDbLine
 10
73.1895764741
 20
181.4153995927
 30
0.0
 11
73.1895764741
 21
174.9286381164
 31
0.0
  0
LINE
  5
E2
330
1F
100
AcDbEntity
  8
0
  6
Continuous
 62
     7
370
    15
100
AcDbLine
 10
68.6895764741
 20
185.9153995927
 30
0.0
 11
62.361965748
 21
185.9153995927
 31
0.0
  0
LINE
  5
E3
330
1F
100
AcDbEntity
  8
0
  6
Continuous
 62
     7
370
    15
100
AcDbLine
 10
32.6895764741
 20
185.9153995927
 30
0.0
 11
39.0171872011
 21
185.9153995927
 31
0.0
  0
ARC
  5
E4
330
1F
100
AcDbEntity
  8
0
  6
Continuous
 62
     7
370
    15
100
AcDbCircle
 10
68.6895764741
 20
181.4153995927
 30
0.0
 40
4.5
100
AcDbArc
 50
0.0
 51
90.0
  0
ARC
  5
E5
330
1F
100
AcDbEntity
  8
0
  6
Continuous
 62
     7
370
    15
100
AcDbCircle
 10
68.6895764741
 20
155.4153995927
 30
0.0
 40
4.5
100
AcDbArc
 50
270.0
 51
0.0
  0
ARC
  5
E6
330
1F
100
AcDbEntity
  8
0
  6
Continuous
 62
     7
370
    15
100
AcDbCircle
 10
32.6895764741
 20
155.4153995927
 30
0.0
 40
4.500000000000004
100
AcDbArc
 50
180.0
 51
270.0
  0
ARC
  5
E7
330
1F
100
AcDbEntity
  8
0
  6
Continuous
 62
     7
370
    15
100
AcDbCircle
 10
32.6895764741
 20
181.4153995927
 30
0.0
 40
4.500000000000028
100
AcDbArc
 50
90.0
 51
180.0
  0
LINE
  5
E8
330
1F
100
AcDbEntity
  8
0
  6
Continuous
 62
   144
370
     0
100
AcDbLine
 10
32.6895764741
 20
150.9153995927
 30
0.0
 11
35.6556024617
 21
150.9153995928
 31
0.0
  0
LINE
  5
E9
330
1F
100
AcDbEntity
  8
0
  6
Continuous
 62
   144
370
     0
100
AcDbLine
 10
66.1895764741
 20
150.9153995928
 30
0.0
 11
68.6895764741
 21
150.9153995927
 31
0.0
  0
ARC
  5
EA
330
1F
100
AcDbEntity
  8
0
  6
Continuous
 62
     7
370
    15
100
AcDbCircle
 10
69.1895764741
 20
181.9153995927
 30
0.0
 40
4.0
100
AcDbArc
 50
0.0
 51
90.0
  0
ARC
  5
EB
330
1F
100
AcDbEntity
  8
0
  6
Continuous
 62
     7
370
    15
100
AcDbCircle
 10
32.1895764741
 20
181.9153995927
 30
0.0
 40
4.000000000000028
100
AcDbArc
 50
90.0
 51
180.0
  0
ARC
  5
EC
330
1F
100
AcDbEntity
  8
0
  6
Continuous
 62
     7
370
    15
100
AcDbCircle
 10
32.1895764741
 20
154.9153995927
 30
0.0
 40
4.000000000000028
100
AcDbArc
 50
180.0
 51
270.0
  0
ARC
  5
ED
330
1F
100
AcDbEntity
  8
0
  6
Continuous
 62
     7
370
    15
100
AcDbCircle
 10
69.1895764741
 20
154.9153995927
 30
0.0
 40
4.0
100
AcDbArc
 50
270.0
 51
0.0
  0
SPLINE
  5
EE
330
1F
100
AcDbEntity
  8
0
  6
Continuous
 62
   144
370
     0
100
AcDbSpline
210
0.0
220
0.0
230
1.0
 70
     8
 71
     3
 72
    19
 73
    15
 74
     0
 42
0.00000001
 43
0.00000001
 12
1.0
 22
0.0
 32
0.0
 13
1.0
 23
0.0
 33
0.0
 40
0.0
 40
0.0
 40
0.0
 40
0.0
 40
0.093984144442555
 40
0.2128657285948462
 40
0.2854331593654066
 40
0.3579180280249336
 40
0.4378864353913633
 40
0.5203159829624157
 40
0.6027455305334681
 40
0.682713937899899
 40
0.7552799550571789
 40
0.8277661884419941
 40
0.9466477725942842
 40
1.0
 40
1.0
 40
1.0
 40
1.0
 10
48.68957647418147
 20
179.4153995925683
 30
0.0
 10
48.70528178541646
 20
179.6045026304896
 30
0.0
 10
48.74085291859721
 20
180.0328041933263
 30
0.0
 10
49.01474732531024
 20
180.5568402072501
 30
0.0
 10
49.37665681691007
 20
180.9467643866988
 30
0.0
 10
49.75360515916471
 20
181.2025328042908
 30
0.0
 10
50.19703855539102
 20
181.3746318903932
 30
0.0
 10
50.68956581713242
 20
181.4360904105098
 30
0.0
 10
51.18215638478247
 20
181.3746395751645
 30
0.0
 10
51.62556434223559
 20
181.2024448161693
 30
0.0
 10
52.00307967060854
 20
180.9467526437331
 30
0.0
 10
52.36231964195884
 20
180.5562124559763
 30
0.0
 10
52.60989110048202
 20
180.1097530809034
 30
0.0
 10
52.64432410241252
 20
179.7644623423252
 30
0.0
 10
52.65499028539157
 20
179.6575029140975
 30
0.0
  0
SPLINE
  5
EF
330
1F
100
AcDbEntity
  8
0
  6
Continuous
 62
   144
370
     0
100
AcDbSpline
210
0.0
220
0.0
230
1.0
 70
     8
 71
     3
 72
    10
 73
     6
 74
     0
 42
0.00000001
 43
0.00000001
 12
1.0
 22
0.0
 32
0.0
 13
1.0
 23
0.0
 33
0.0
 40
0.0
 40
0.0
 40
0.0
 40
0.0
 40
0.2881372868987901
 40
0.9426815093600178
 40
1.0
 40
1.0
 40
1.0
 40
1.0
 10
31.74620907624111
 20
180.0732191207361
 30
0.0
 10
31.70222385969448
 20
180.1020652963783
 30
0.0
 10
31.55832006032867
 20
180.1964396020655
 30
0.0
 10
31.41727540687343
 20
180.326782588419
 30
0.0
 10
31.36008674177818
 20
180.4441391707865
 30
0.0
 10
31.35548196630019
 20
180.4535886082191
 30
0.0
  0
SPLINE
  5
F0
330
1F
100
AcDbEntity
  8
0
  6
Continuous
 62
   144
370
     0
100
AcDbSpline
210
0.0
220
0.0
230
1.0
 70
     8
 71
     3
 72
     9
 73
     5
 74
     0
 42
0.00000001
 43
0.00000001
 12
1.0
 22
0.0
 32
0.0
 13
1.0
 23
0.0
 33
0.0
 40
0.0
 40
0.0
 40
0.0
 40
0.0
 40
0.5549025458156636
 40
1.0
 40
1.0
 40
1.0
 40
1.0
 10
31.05875714477795
 20
181.5496642876364
 30
0.0
 10
31.06500086613779
 20
181.6618340833572
 30
0.0
 10
31.07625279029442
 20
181.8639773183568
 30
0.0
 10
31.17872468681858
 20
182.0376255796768
 30
0.0
 10
31.22433466708692
 20
182.1149159787139
 30
0.0
  0
SPLINE
  5
F1
330
1F
100
AcDbEntity
  8
0
  6
Continuous
 62
   144
370
     0
100
AcDbSpline
210
0.0
220
0.0
230
1.0
 70
     8
 71
     3
 72
     9
 73
     5
 74
     0
 42
0.00000001
 43
0.00000001
 12
1.0
 22
0.0
 32
0.0
 13
1.0
 23
0.0
 33
0.0
 40
0.0
 40
0.0
 40
0.0
 40
0.0
 40
0.7642072010016062
 40
1.0
 40
1.0
 40
1.0
 40
1.0
 10
32.00050481026037
 20
182.9051060099571
 30
0.0
 10
32.09444686137881
 20
182.9518781896608
 30
0.0
 10
32.21737432266853
 20
183.0130817214286
 30
0.0
 10
32.35249439760612
 20
183.025498844198
 30
0.0
 10
32.38435473827653
 20
183.0284267123313
 30
0.0
  0
SPLINE
  5
F2
330
1F
100
AcDbEntity
  8
0
  6
Continuous
 62
   144
370
     0
100
AcDbSpline
210
0.0
220
0.0
230
1.0
 70
     8
 71
     3
 72
    10
 73
     6
 74
     0
 42
0.00000001
 43
0.00000001
 12
1.0
 22
0.0
 32
0.0
 13
1.0
 23
0.0
 33
0.0
 40
0.0
 40
0.0
 40
0.0
 40
0.0
 40
0.2881372874137899
 40
0.9426815098030491
 40
1.0
 40
1.0
 40
1.0
 40
1.0
 10
33.63294387184153
 20
182.7575800646381
 30
0.0
 10
33.6769290884469
 20
182.7287338889507
 30
0.0
 10
33.82083288781535
 20
182.63435958324
 30
0.0
 10
33.96187754124342
 20
182.5040165969593
 30
0.0
 10
34.01906620628403
 20
182.3866600147243
 30
0.0
 10
34.02367098172535
 20
182.3772105773687
 30
0.0
  0
SPLINE
  5
F3
330
1F
100
AcDbEntity
  8
0
  6
Continuous
 62
   144
370
     0
100
AcDbSpline
210
0.0
220
0.0
230
1.0
 70
     8
 71
     3
 72
    10
 73
     6
 74
     0
 42
0.00000001
 43
0.00000001
 12
1.0
 22
0.0
 32
0.0
 13
1.0
 23
0.0
 33
0.0
 40
0.0
 40
0.0
 40
0.0
 40
0.0
 40
0.2881372872670771
 40
0.9426815098015736
 40
1.0
 40
1.0
 40
1.0
 40
1.0
 10
31.74620907628389
 20
154.0732191207251
 30
0.0
 10
31.7022238597015
 20
154.1020652963964
 30
0.0
 10
31.55832006033519
 20
154.1964396021023
 30
0.0
 10
31.41727540690705
 20
154.326782588379
 30
0.0
 10
31.36008674185594
 20
154.4441391706351
 30
0.0
 10
31.3554819664146
 20
154.4535886079908
 30
0.0
  0
SPLINE
  5
F4
330
1F
100
AcDbEntity
  8
0
  6
Continuous
 62
   144
370
     0
100
AcDbSpline
210
0.0
220
0.0
230
1.0
 70
     8
 71
     3
 72
     9
 73
     5
 74
     0
 42
0.00000001
 43
0.00000001
 12
1.0
 22
0.0
 32
0.0
 13
1.0
 23
0.0
 33
0.0
 40
0.0
 40
0.0
 40
0.0
 40
0.0
 40
0.554902545815664
 40
1.0
 40
1.0
 40
1.0
 40
1.0
 10
31.05875714477822
 20
155.5496642876365
 30
0.0
 10
31.06500086613806
 20
155.6618340833571
 30
0.0
 10
31.0762527902947
 20
155.8639773183568
 30
0.0
 10
31.17872468681885
 20
156.0376255796768
 30
0.0
 10
31.22433466708719
 20
156.1149159787139
 30
0.0
  0
SPLINE
  5
F5
330
1F
100
AcDbEntity
  8
0
  6
Continuous
 62
   144
370
     0
100
AcDbSpline
210
0.0
220
0.0
230
1.0
 70
     8
 71
     3
 72
     9
 73
     5
 74
     0
 42
0.00000001
 43
0.00000001
 12
1.0
 22
0.0
 32
0.0
 13
1.0
 23
0.0
 33
0.0
 40
0.0
 40
0.0
 40
0.0
 40
0.0
 40
0.7642072010260071
 40
1.0
 40
1.0
 40
1.0
 40
1.0
 10
32.00050481026004
 20
156.9051060099565
 30
0.0
 10
32.09444686139602
 20
156.95187818967
 30
0.0
 10
32.21737432270474
 20
157.0130817214486
 30
0.0
 10
32.3524943976637
 20
157.0254988442156
 30
0.0
 10
32.38435473833586
 20
157.0284267123481
 30
0.0
  0
SPLINE
  5
F6
330
1F
100
AcDbEntity
  8
0
  6
Continuous
 62
   144
370
     0
100
AcDbSpline
210
0.0
220
0.0
230
1.0
 70
     8
 71
     3
 72
    10
 73
     6
 74
     0
 42
0.00000001
 43
0.00000001
 12
1.0
 22
0.0
 32
0.0
 13
1.0
 23
0.0
 33
0.0
 40
0.0
 40
0.0
 40
0.0
 40
0.0
 40
0.2881372871104531
 40
0.9426815093630075
 40
1.0
 40
1.0
 40
1.0
 40
1.0
 10
33.63294387186732
 20
156.7575800646315
 30
0.0
 10
33.67692908844691
 20
156.7287338889644
 30
0.0
 10
33.82083288781534
 20
156.6343595832649
 30
0.0
 10
33.96187754128093
 20
156.504016596912
 30
0.0
 10
34.01906620636182
 20
156.3866600145729
 30
0.0
 10
34.02367098183978
 20
156.3772105771404
 30
0.0
  0
SPLINE
  5
F7
330
1F
100
AcDbEntity
  8
0
  6
Continuous
 62
   144
370
     0
100
AcDbSpline
210
0.0
220
0.0
230
1.0
 70
     8
 71
     3
 72
     9
 73
     5
 74
     0
 42
0.00000001
 43
0.00000001
 12
1.0
 22
0.0
 32
0.0
 13
1.0
 23
0.0
 33
0.0
 40
0.0
 40
0.0
 40
0.0
 40
0.0
 40
0.554902545815668
 40
1.0
 40
1.0
 40
1.0
 40
1.0
 10
70.32039580336202
 20
155.2811348977234
 30
0.0
 10
70.31415208200217
 20
155.1689651020027
 30
0.0
 10
70.30290015784554
 20
154.966821867003
 30
0.0
 10
70.2004282613214
 20
154.7931736056831
 30
0.0
 10
70.15481828105307
 20
154.715883206646
 30
0.0
  0
SPLINE
  5
F8
330
1F
100
AcDbEntity
  8
0
  6
Continuous
 62
   144
370
     0
100
AcDbSpline
210
0.0
220
0.0
230
1.0
 70
     8
 71
     3
 72
     9
 73
     5
 74
     0
 42
0.00000001
 43
0.00000001
 12
1.0
 22
0.0
 32
0.0
 13
1.0
 23
0.0
 33
0.0
 40
0.0
 40
0.0
 40
0.0
 40
0.0
 40
0.5827007210368658
 40
1.0
 40
1.0
 40
1.0
 40
1.0
 10
69.37864813787792
 20
153.925693175401
 30
0.0
 10
69.28414234678856
 20
153.881176693185
 30
0.0
 10
69.12195653222287
 20
153.804779872984
 30
0.0
 10
68.94378020517765
 20
153.7923660267789
 30
0.0
 10
68.86942735237338
 20
153.7871857377083
 30
0.0
  0
SPLINE
  5
F9
330
1F
100
AcDbEntity
  8
0
  6
Continuous
 62
   144
370
     0
100
AcDbSpline
210
0.0
220
0.0
230
1.0
 70
     8
 71
     3
 72
     9
 73
     5
 74
     0
 42
0.00000001
 43
0.00000001
 12
1.0
 22
0.0
 32
0.0
 13
1.0
 23
0.0
 33
0.0
 40
0.0
 40
0.0
 40
0.0
 40
0.0
 40
0.554902545815668
 40
1.0
 40
1.0
 40
1.0
 40
1.0
 10
67.05875714477823
 20
155.5496642876368
 30
0.0
 10
67.06500086613806
 20
155.6618340833575
 30
0.0
 10
67.07625279029472
 20
155.8639773183572
 30
0.0
 10
67.17872468681888
 20
156.0376255796772
 30
0.0
 10
67.2243346670872
 20
156.1149159787143
 30
0.0
  0
SPLINE
  5
FA
330
1F
100
AcDbEntity
  8
0
  6
Continuous
 62
   144
370
     0
100
AcDbSpline
210
0.0
220
0.0
230
1.0
 70
     8
 71
     3
 72
    10
 73
     6
 74
     0
 42
0.00000001
 43
0.00000001
 12
1.0
 22
0.0
 32
0.0
 13
1.0
 23
0.0
 33
0.0
 40
0.0
 40
0.0
 40
0.0
 40
0.0
 40
0.2881372871939027
 40
0.9426815093644855
 40
1.0
 40
1.0
 40
1.0
 40
1.0
 10
69.63294387185115
 20
156.757580064636
 30
0.0
 10
69.67692908844367
 20
156.7287338889586
 30
0.0
 10
69.82083288781297
 20
156.6343595832523
 30
0.0
 10
69.96187754128627
 20
156.5040165969019
 30
0.0
 10
70.01906620636186
 20
156.3866600145733
 30
0.0
 10
70.02367098183979
 20
156.3772105771408
 30
0.0
  0
SPLINE
  5
FB
330
1F
100
AcDbEntity
  8
0
  6
Continuous
 62
   144
370
     0
100
AcDbSpline
210
0.0
220
0.0
230
1.0
 70
     8
 71
     3
 72
    10
 73
     6
 74
     0
 42
0.00000001
 43
0.00000001
 12
1.0
 22
0.0
 32
0.0
 13
1.0
 23
0.0
 33
0.0
 40
0.0
 40
0.0
 40
0.0
 40
0.0
 40
0.2881372873278157
 40
0.9426815098045818
 40
1.0
 40
1.0
 40
1.0
 40
1.0
 10
69.63294387182165
 20
182.7575800646436
 30
0.0
 10
69.67692908841303
 20
182.7287338889613
 30
0.0
 10
69.82083288777899
 20
182.634359583239
 30
0.0
 10
69.96187754123525
 20
182.5040165969774
 30
0.0
 10
70.01906620628408
 20
182.3866600147248
 30
0.0
 10
70.02367098172536
 20
182.3772105773691
 30
0.0
  0
LINE
  5
FC
330
1F
100
AcDbEntity
  8
0
  6
Continuous
 62
     7
370
    15
100
AcDbLine
 10
28.1895764741
 20
146.6153995927
 30
0.0
 11
28.6895764741
 21
146.6153995927
 31
0.0
  0
LINE
  5
FD
330
1F
100
AcDbEntity
  8
0
  6
Continuous
 62
     7
370
    15
100
AcDbLine
 10
72.6895764741
 20
146.6153995927
 30
0.0
 11
73.1895764741
 21
146.6153995927
 31
0.0
  0
LINE
  5
FE
330
1F
100
AcDbEntity
  8
0
  6
Continuous
 62
     7
370
    15
100
AcDbLine
 10
72.6895764741
 20
145.4153995927
 30
0.0
 11
73.1895764741
 21
145.4153995927
 31
0.0
  0
LINE
  5
FF
330
1F
100
AcDbEntity
  8
0
  6
Continuous
 62
     7
370
    15
100
AcDbLine
 10
28.1895764741
 20
145.4153995927
 30
0.0
 11
28.6895764741
 21
145.4153995927
 31
0.0
  0
LINE
  5
100
330
1F
100
AcDbEntity
  8
0
  6
Continuous
 62
     7
370
    15
100
AcDbLine
 10
28.1895764741
 20
146.6153995927
 30
0.0
 11
28.1895764741
 21
145.4153995927
 31
0.0
  0
LINE
  5
101
330
1F
100
AcDbEntity
  8
0
  6
Continuous
 62
     7
370
    15
100
AcDbLine
 10
73.1895764741
 20
146.6153995927
 30
0.0
 11
73.1895764741
 21
145.4153995927
 31
0.0
  0
SPLINE
  5
102
330
1F
100
AcDbEntity
  8
0
  6
Continuous
 62
     7
370
    15
100
AcDbSpline
210
0.0
220
0.0
230
1.0
 70
    24
 71
     3
 72
     9
 73
     5
 74
     0
 42
0.00000001
 43
0.00000001
 12
1.0
 22
0.0
 32
0.0
 13
1.0
 23
0.0
 33
0.0
 40
0.0
 40
0.0
 40
0.0
 40
0.0
 40
0.4542101576516838
 40
1.0
 40
1.0
 40
1.0
 40
1.0
 10
73.18957647407021
 20
146.871919873273
 30
0.0
 10
73.18957647407022
 20
146.8029255810762
 30
0.0
 10
73.18957647407022
 20
146.6510260891019
 30
0.0
 10
73.18957647407022
 20
146.6279786505396
 30
0.0
 10
73.18957647407022
 20
146.6153995926801
 30
0.0
  0
LINE
  5
103
330
1F
100
AcDbEntity
  8
0
  6
Continuous
 62
     7
370
    15
100
AcDbLine
 10
73.1895764741
 20
149.4153995927
 30
0.0
 11
73.1895764741
 21
154.9153995927
 31
0.0
  0
SPLINE
  5
104
330
1F
100
AcDbEntity
  8
0
  6
Continuous
 62
     7
370
    15
100
AcDbSpline
210
0.0
220
0.0
230
1.0
 70
    24
 71
     3
 72
     9
 73
     5
 74
     0
 42
0.00000001
 43
0.00000001
 12
1.0
 22
0.0
 32
0.0
 13
1.0
 23
0.0
 33
0.0
 40
0.0
 40
0.0
 40
0.0
 40
0.0
 40
0.5457898423483161
 40
0.9999999999999999
 40
0.9999999999999999
 40
0.9999999999999999
 40
0.9999999999999999
 10
28.18957647407021
 20
146.6153995926797
 30
0.0
 10
28.18957647407021
 20
146.6279786505391
 30
0.0
 10
28.18957647407021
 20
146.6510260891014
 30
0.0
 10
28.18957647407021
 20
146.8029255810757
 30
0.0
 10
28.18957647407021
 20
146.8719198732726
 30
0.0
  0
LINE
  5
105
330
1F
100
AcDbEntity
  8
0
  6
Continuous
 62
     7
370
    15
100
AcDbLine
 10
28.1895764741
 20
154.9153995927
 30
0.0
 11
28.1895764741
 21
149.4153995927
 31
0.0
  0
LINE
  5
106
330
1F
100
AcDbEntity
  8
0
  6
Continuous
 62
     7
370
    15
100
AcDbLine
 10
56.3301067331
 20
212.3363044467
 30
0.0
 11
61.6462497681
 21
211.6203255867
 31
0.0
  0
SPLINE
  5
107
330
1F
100
AcDbEntity
  8
0
  6
Continuous
 62
     7
370
    15
100
AcDbSpline
210
0.0
220
0.0
230
1.0
 70
     8
 71
     3
 72
    23
 73
    19
 74
     0
 42
0.00000001
 43
0.00000001
 12
1.0
 22
0.0
 32
0.0
 13
1.0
 23
0.0
 33
0.0
 40
0.0
 40
0.0
 40
0.0
 40
0.0
 40
0.0313286242887715
 40
0.0625984042896216
 40
0.093828408138745
 40
0.1250377768790962
 40
0.1562456895226286
 40
0.1874713277643315
 40
0.2187338406716017
 40
0.2500523096730217
 40
0.3750076002423398
 40
0.5000094066870403
 40
0.6249646972545181
 40
0.7499665037010751
 40
0.8125254382128488
 40
0.8749483905687669
 40
0.9373888056632488
 40
0.9999999999999999
 40
0.9999999999999999
 40
0.9999999999999999
 40
0.9999999999999999
 10
57.16957647391149
 20
222.2813928585196
 30
0.0
 10
57.2572713705803
 20
222.1938157299771
 30
0.0
 10
57.43249644734111
 20
222.018825968266
 30
0.0
 10
57.68684900775131
 20
221.7484340871021
 30
0.0
 10
57.9345875098244
 20
221.4726405487385
 30
0.0
 10
58.17513121396149
 20
221.1908563040028
 30
0.0
 10
58.40863527172439
 20
220.9032386753128
 30
0.0
 10
58.63505719937319
 20
220.6097483445482
 30
0.0
 10
58.85441037156416
 20
220.310387359931
 30
0.0
 10
59.27802275065537
 20
219.7013304496653
 30
0.0
 10
59.85717115181295
 20
218.7488392555384
 30
0.0
 10
60.4987795008162
 20
217.4091327807485
 30
0.0
 10
61.00611056934839
 20
216.0127837431112
 30
0.0
 10
61.31096111805836
 20
214.8124561027246
 30
0.0
 10
61.48355335124169
 20
213.8383884585645
 30
0.0
 10
61.57594237846106
 20
213.102507097003
 30
0.0
 10
61.63429899653357
 20
212.3627378483782
 30
0.0
 10
61.6422625522301
 20
211.8680215469972
 30
0.0
 10
61.64624976787326
 20
211.6203255866797
 30
0.0
  0
LINE
  5
108
330
1F
100
AcDbEntity
  8
0
  6
Continuous
 62
     7
370
    15
100
AcDbLine
 10
54.6895764741
 20
222.6153995927
 30
0.0
 11
57.1695764741
 21
222.2813928587
 31
0.0
  0
LINE
  5
109
330
1F
100
AcDbEntity
  8
0
  6
Continuous
 62
     7
370
    15
100
AcDbLine
 10
56.5069316961
 20
220.2323306827
 30
0.0
 11
54.6895764741
 21
222.6153995927
 31
0.0
  0
SPLINE
  5
10A
330
1F
100
AcDbEntity
  8
0
  6
Continuous
 62
     7
370
    15
100
AcDbSpline
210
0.0
220
0.0
230
1.0
 70
     8
 71
     3
 72
    18
 73
    14
 74
     0
 42
0.00000001
 43
0.00000001
 12
1.0
 22
0.0
 32
0.0
 13
1.0
 23
0.0
 33
0.0
 40
0.0
 40
0.0
 40
0.0
 40
0.0
 40
0.0720332918876299
 40
0.1434915075947555
 40
0.2145985606214652
 40
0.2855816877325097
 40
0.3566693141171526
 40
0.428088862293863
 40
0.5000646085195743
 40
0.6255259893714639
 40
0.7498552130802701
 40
0.8742736322303247
 40
1.0
 40
1.0
 40
1.0
 40
1.0
 10
57.09460576212266
 20
218.0127097396729
 30
0.0
 10
57.1012574803806
 20
218.0688965364266
 30
0.0
 10
57.11450781305199
 20
218.1808215638942
 30
0.0
 10
57.12253945131242
 20
218.3492776235659
 30
0.0
 10
57.12171950712292
 20
218.5170367250284
 30
0.0
 10
57.11122668060149
 20
218.6842050218121
 30
0.0
 10
57.09127990365003
 20
218.850745640306
 30
0.0
 10
57.06182174575586
 20
219.0166698158148
 30
0.0
 10
57.01337331610292
 20
219.2222430470153
 30
0.0
 10
56.9371460433572
 20
219.4636265831794
 30
0.0
 10
56.82075946225756
 20
219.7338547863805
 30
0.0
 10
56.67947877029196
 20
219.9925742810592
 30
0.0
 10
56.56464752929628
 20
220.1521337822954
 30
0.0
 10
56.50693169593973
 20
220.232330682581
 30
0.0
  0
LINE
  5
10B
330
1F
100
AcDbEntity
  8
0
  6
Continuous
 62
     7
370
    15
100
AcDbLine
 10
56.3301067329
 20
212.3363044467
 30
0.0
 11
57.0946057621
 21
218.0127097397
 31
0.0
  0
LINE
  5
10C
330
1F
100
AcDbEntity
  8
0
  6
Continuous
 62
     7
370
    15
100
AcDbLine
 10
56.1966316925
 20
211.3452522718
 30
0.0
 11
55.6627329991
 21
207.3810544717
 31
0.0
  0
SPLINE
  5
10D
330
1F
100
AcDbEntity
  8
0
  6
Continuous
 62
     7
370
    15
100
AcDbSpline
210
0.0
220
0.0
230
1.0
 70
    24
 71
     3
 72
    10
 73
     6
 74
     0
 42
0.00000001
 43
0.00000001
 12
1.0
 22
0.0
 32
0.0
 13
1.0
 23
0.0
 33
0.0
 40
0.0
 40
0.0
 40
0.0
 40
0.0
 40
0.5
 40
0.5
 40
1.0
 40
1.0
 40
1.0
 40
1.0
 10
56.19663169282351
 20
211.3452522717131
 30
0.0
 10
56.23157537668928
 20
211.6047091244166
 30
0.0
 10
56.26630388318808
 20
211.8625682851706
 30
0.0
 10
56.31572171481737
 20
212.2294956850184
 30
0.0
 10
56.33010673320793
 20
212.3363044465684
 30
0.0
 10
56.33010673320793
 20
212.3363044465684
 30
0.0
  0
SPLINE
  5
10E
330
1F
100
AcDbEntity
  8
0
  6
Continuous
 62
     7
370
    15
100
AcDbSpline
210
0.0
220
0.0
230
1.0
 70
     8
 71
     3
 72
    17
 73
    13
 74
     0
 42
0.00000001
 43
0.00000001
 12
1.0
 22
0.0
 32
0.0
 13
1.0
 23
0.0
 33
0.0
 40
0.0
 40
0.0
 40
0.0
 40
0.0
 40
0.0676007561011574
 40
0.1405368980884532
 40
0.2188160083710927
 40
0.3024439763709899
 40
0.3914253884244717
 40
0.4857638079114578
 40
0.65460487317794
 40
0.823456802841448
 40
0.9008413917711475
 40
1.0
 40
1.0
 40
1.0
 40
1.0
 10
61.64627625115601
 20
211.5921387963221
 30
0.0
 10
61.64629548814269
 20
211.5842326602274
 30
0.0
 10
61.64633548039413
 20
211.5677963966898
 30
0.0
 10
61.64641178772334
 20
211.531165281782
 30
0.0
 10
61.64622431514012
 20
211.482894164384
 30
0.0
 10
61.6456118325525
 20
211.4207006530926
 30
0.0
 10
61.64436536173227
 20
211.343628228637
 30
0.0
 10
61.64210170680743
 20
211.2281302297693
 30
0.0
 10
61.63693885554845
 20
211.064880593987
 30
0.0
 10
61.63002698371079
 20
210.8895250879144
 30
0.0
 10
61.62234979251536
 20
210.7382384906056
 30
0.0
 10
61.61729350152285
 20
210.6596947662305
 30
0.0
 10
61.6144535462842
 20
210.615579294666
 30
0.0
  0
SPLINE
  5
10F
330
1F
100
AcDbEntity
  8
0
  6
Continuous
 62
     7
370
    15
100
AcDbSpline
210
0.0
220
0.0
230
1.0
 70
     8
 71
     3
 72
     8
 73
     4
 74
     0
 42
0.00000001
 43
0.00000001
 12
1.0
 22
0.0
 32
0.0
 13
1.0
 23
0.0
 33
0.0
 40
0.0
 40
0.0
 40
0.0
 40
0.0
 40
1.0
 40
1.0
 40
1.0
 40
1.0
 10
61.51205887620326
 20
209.590013189662
 30
0.0
 10
61.55792392264665
 20
209.9305611595146
 30
0.0
 10
61.59208234902559
 20
210.2726856496547
 30
0.0
 10
61.6144535462842
 20
210.615579294666
 30
0.0
  0
SPLINE
  5
110
330
1F
100
AcDbEntity
  8
0
  6
Continuous
 62
     7
370
    15
100
AcDbSpline
210
0.0
220
0.0
230
1.0
 70
     8
 71
     3
 72
    10
 73
     6
 74
     0
 42
0.00000001
 43
0.00000001
 12
1.0
 22
0.0
 32
0.0
 13
1.0
 23
0.0
 33
0.0
 40
0.0
 40
0.0
 40
0.0
 40
0.0
 40
0.5
 40
0.5
 40
1.0
 40
1.0
 40
1.0
 40
1.0
 10
44.25770371106946
 20
218.4131348606799
 30
0.0
 10
44.25770371106946
 20
218.7388966551368
 30
0.0
 10
44.31122835445999
 20
219.0645976145046
 30
0.0
 10
44.51973584488024
 20
219.6818557560872
 30
0.0
 10
44.6746797537288
 20
219.9732976670985
 30
0.0
 10
44.87222125219917
 20
220.2323306825809
 30
0.0
  0
SPLINE
  5
111
330
1F
100
AcDbEntity
  8
0
  6
Continuous
 62
     7
370
    15
100
AcDbSpline
210
0.0
220
0.0
230
1.0
 70
     8
 71
     3
 72
     8
 73
     4
 74
     0
 42
0.00000001
 43
0.00000001
 12
1.0
 22
0.0
 32
0.0
 13
1.0
 23
0.0
 33
0.0
 40
0.0
 40
0.0
 40
0.0
 40
0.0
 40
1.0
 40
1.0
 40
1.0
 40
1.0
 10
44.28454718601627
 20
218.0127097396727
 30
0.0
 10
44.26667827179116
 20
218.1453864278644
 30
0.0
 10
44.25770371106946
 20
218.2792602862263
 30
0.0
 10
44.25770371106946
 20
218.4131348606799
 30
0.0
  0
LINE
  5
112
330
1F
100
AcDbEntity
  8
0
  6
Continuous
 62
     7
370
    15
100
AcDbLine
 10
46.6895764741
 20
222.6153995927
 30
0.0
 11
44.2095764741
 21
222.2813928587
 31
0.0
  0
SPLINE
  5
113
330
1F
100
AcDbEntity
  8
0
  6
Continuous
 62
     7
370
    15
100
AcDbSpline
210
0.0
220
0.0
230
1.0
 70
     8
 71
     3
 72
    23
 73
    19
 74
     0
 42
0.00000001
 43
0.00000001
 12
1.0
 22
0.0
 32
0.0
 13
1.0
 23
0.0
 33
0.0
 40
0.0
 40
0.0
 40
0.0
 40
0.0
 40
0.0313286242886672
 40
0.0625984042894425
 40
0.0938284081385217
 40
0.1250377768788583
 40
0.1562456895224056
 40
0.187471327764152
 40
0.2187338406714958
 40
0.2500523096730181
 40
0.3750076002441914
 40
0.5000094066870603
 40
0.6249646972555221
 40
0.7499665037010633
 40
0.8125254382120325
 40
0.8749483905676801
 40
0.9373888056624332
 40
1.0
 40
1.0
 40
1.0
 40
1.0
 10
39.73290318026581
 20
211.6203255866795
 30
0.0
 10
39.73402236017288
 20
211.7442565988666
 30
0.0
 10
39.73625861784094
 20
211.9918858446774
 30
0.0
 10
39.75119959645524
 20
212.3628086958796
 30
0.0
 10
39.77462825144726
 20
212.7327918567632
 30
0.0
 10
39.80737176646507
 20
213.1018331774922
 30
0.0
 10
39.84920918454519
 20
213.4699332668341
 30
0.0
 10
39.90019832389752
 20
213.8370893252629
 30
0.0
 10
39.96032835711836
 20
214.2033094672086
 30
0.0
 10
40.09853588014273
 20
214.9322103166066
 30
0.0
 10
40.37302446164817
 20
216.0126307736867
 30
0.0
 10
40.88022392178964
 20
217.4087766900398
 30
0.0
 10
41.52188513207191
 20
218.7487193526956
 30
0.0
 10
42.16537950139361
 20
219.8068475575779
 30
0.0
 10
42.73994816484218
 20
220.6121218619744
 30
0.0
 10
43.20062687597407
 20
221.1933552365748
 30
0.0
 10
43.68791121769582
 20
221.7530140669361
 30
0.0
 10
44.03552981127808
 20
222.1051063140413
 30
0.0
 10
44.20957647422735
 20
222.2813928585194
 30
0.0
  0
LINE
  5
114
330
1F
100
AcDbEntity
  8
0
  6
Continuous
 62
     7
370
    15
100
AcDbLine
 10
45.0490462151
 20
212.3363044467
 30
0.0
 11
39.7329031801
 21
211.6203255867
 31
0.0
  0
LINE
  5
115
330
1F
100
AcDbEntity
  8
0
  6
Continuous
 62
     7
370
    15
100
AcDbLine
 10
44.2845471861
 20
218.0127097397
 30
0.0
 11
45.0490462152
 21
212.3363044467
 31
0.0
  0
LINE
  5
116
330
1F
100
AcDbEntity
  8
0
  6
Continuous
 62
     7
370
    15
100
AcDbLine
 10
44.8722212521
 20
220.2323306827
 30
0.0
 11
46.6895764741
 21
222.6153995927
 31
0.0
  0
SPLINE
  5
117
330
1F
100
AcDbEntity
  8
0
  6
Continuous
 62
     7
370
    15
100
AcDbSpline
210
0.0
220
0.0
230
1.0
 70
     8
 71
     3
 72
    10
 73
     6
 74
     0
 42
0.00000001
 43
0.00000001
 12
1.0
 22
0.0
 32
0.0
 13
1.0
 23
0.0
 33
0.0
 40
0.0
 40
0.0
 40
0.0
 40
0.0
 40
0.3333623776335805
 40
0.6666376223664233
 40
1.0
 40
1.0
 40
1.0
 40
1.0
 10
39.86709407193585
 20
209.5900131896618
 30
0.0
 10
39.85259074253769
 20
209.7036428278043
 30
0.0
 10
39.82358787456252
 20
209.9308724040373
 30
0.0
 10
39.78944442142421
 20
210.2728469249645
 30
0.0
 10
39.77294846041311
 20
210.5013252170102
 30
0.0
 10
39.7646994018549
 20
210.6155792946658
 30
0.0
  0
SPLINE
  5
118
330
1F
100
AcDbEntity
  8
0
  6
Continuous
 62
     7
370
    15
100
AcDbSpline
210
0.0
220
0.0
230
1.0
 70
     8
 71
     3
 72
    12
 73
     8
 74
     0
 42
0.00000001
 43
0.00000001
 12
1.0
 22
0.0
 32
0.0
 13
1.0
 23
0.0
 33
0.0
 40
0.0
 40
0.0
 40
0.0
 40
0.0
 40
0.2499999999999998
 40
0.2499999999999998
 40
0.4999999999999997
 40
0.4999999999999997
 40
1.0
 40
1.0
 40
1.0
 40
1.0
 10
39.73290318024428
 20
211.6203255867001
 30
0.0
 10
39.73290318024428
 20
211.6203255867002
 30
0.0
 10
39.73279108193208
 20
211.593930665673
 30
0.0
 10
39.73312185391569
 20
211.4925078891578
 30
0.0
 10
39.73360623148812
 20
211.4175212701229
 30
0.0
 10
39.73856687479448
 20
211.1392634560966
 30
0.0
 10
39.74746384191747
 20
210.8797566608762
 30
0.0
 10
39.7646994018549
 20
210.6155792946658
 30
0.0
  0
LINE
  5
119
330
1F
100
AcDbEntity
  8
0
  6
Continuous
 62
     7
370
    15
100
AcDbLine
 10
45.182521256
 20
211.3452522679
 30
0.0
 11
45.0490462152
 21
212.3363044467
 31
0.0
  0
LINE
  5
11A
330
1F
100
AcDbEntity
  8
0
  6
Continuous
 62
     7
370
    15
100
AcDbLine
 10
45.7164199491
 20
207.3810544716
 30
0.0
 11
45.182521256
 21
211.3452522679
 31
0.0
  0
LINE
  5
11B
330
1F
100
AcDbEntity
  8
0
  6
Continuous
 62
     7
370
    15
100
AcDbLine
 10
45.182521256
 20
211.3452522679
 30
0.0
 11
39.764699403
 21
210.6155792879
 31
0.0
  0
SPLINE
  5
11C
330
1F
100
AcDbEntity
  8
0
  6
Continuous
 62
     7
370
    15
100
AcDbSpline
210
0.0
220
0.0
230
1.0
 70
     8
 71
     3
 72
    28
 73
    24
 74
     0
 42
0.00000001
 43
0.00000001
 12
1.0
 22
0.0
 32
0.0
 13
1.0
 23
0.0
 33
0.0
 40
0.0
 40
0.0
 40
0.0
 40
0.0
 40
0.0209853136030899
 40
0.0418194975116721
 40
0.0625756784566223
 40
0.0833278077899882
 40
0.1041498800327862
 40
0.1251151491525984
 40
0.1875641355926576
 40
0.2500856713887175
 40
0.3125346578284306
 40
0.3750561936248115
 40
0.4375051800638038
 40
0.5000267158609177
 40
0.562475702300428
 40
0.6249972380970519
 40
0.6874462245369959
 40
0.7499677603331559
 40
0.8124167467728054
 40
0.8749382825692659
 40
0.9166760080665924
 40
0.9581657880189296
 40
1.0
 40
1.0
 40
1.0
 40
1.0
 10
53.35978245864305
 20
192.5153995927438
 30
0.0
 10
53.3509269168704
 20
192.4624565441316
 30
0.0
 10
53.33327960817967
 20
192.3569517262587
 30
0.0
 10
53.29519040072699
 20
192.2013892309505
 30
0.0
 10
53.24871718292284
 20
192.04881382403
 30
0.0
 10
53.19304006711425
 20
191.8993577534739
 30
0.0
 10
53.12836465198509
 20
191.7529833026936
 30
0.0
 10
53.00642190402764
 20
191.5158630380791
 30
0.0
 10
52.79726781196798
 20
191.2040947065252
 30
0.0
 10
52.46091551213357
 20
190.8592597051555
 30
0.0
 10
52.06983893037058
 20
190.5775067494585
 30
0.0
 10
51.63442139231001
 20
190.3712583279769
 30
0.0
 10
51.1697462216139
 20
190.2432672815546
 30
0.0
 10
50.68976151023084
 20
190.2014741883538
 30
0.0
 10
50.20959557890061
 20
190.2432335412401
 30
0.0
 10
49.74507803511302
 20
190.3711288394348
 30
0.0
 10
49.30948104488507
 20
190.5774117141839
 30
0.0
 10
48.91851068557592
 20
190.8590090798243
 30
0.0
 10
48.58203278207471
 20
191.2039797477957
 30
0.0
 10
48.34295378643073
 20
191.5599647327116
 30
0.0
 10
48.1822950741041
 20
191.8969105327633
 30
0.0
 10
48.07745508987455
 20
192.2002851493495
 30
0.0
 10
48.0387853053925
 20
192.4100723826756
 30
0.0
 10
48.01937048951837
 20
192.5153995925973
 30
0.0
  0
SPLINE
  5
11D
330
1F
100
AcDbEntity
  8
0
  6
Continuous
 62
     7
370
    15
100
AcDbSpline
210
0.0
220
0.0
230
1.0
 70
     8
 71
     3
 72
    12
 73
     8
 74
     0
 42
0.00000001
 43
0.00000001
 12
1.0
 22
0.0
 32
0.0
 13
1.0
 23
0.0
 33
0.0
 40
0.0
 40
0.0
 40
0.0
 40
0.0
 40
0.20069633119186
 40
0.4003485302697741
 40
0.5996514697302257
 40
0.7993036688081399
 40
1.0
 40
1.0
 40
1.0
 40
1.0
 10
48.01937048951837
 20
192.5153995925973
 30
0.0
 10
48.01239161957732
 20
192.5686652390696
 30
0.0
 10
47.99847018759474
 20
192.6749194149802
 30
0.0
 10
47.98944240275837
 20
192.8352797001166
 30
0.0
 10
47.98944240275836
 20
192.9955194852432
 30
0.0
 10
47.99847018759473
 20
193.1558797703796
 30
0.0
 10
48.01239161957732
 20
193.2621339462902
 30
0.0
 10
48.01937048951836
 20
193.3153995927625
 30
0.0
  0
SPLINE
  5
11E
330
1F
100
AcDbEntity
  8
0
  6
Continuous
 62
     7
370
    15
100
AcDbSpline
210
0.0
220
0.0
230
1.0
 70
     8
 71
     3
 72
    28
 73
    24
 74
     0
 42
0.00000001
 43
0.00000001
 12
1.0
 22
0.0
 32
0.0
 13
1.0
 23
0.0
 33
0.0
 40
0.0
 40
0.0
 40
0.0
 40
0.0
 40
0.0209853136030265
 40
0.0418194975115713
 40
0.0625756784565087
 40
0.0833278077898874
 40
0.1041498800327221
 40
0.1251151491525944
 40
0.1875641355921768
 40
0.2500856713887057
 40
0.3125346578280739
 40
0.375056193624812
 40
0.4375051800639885
 40
0.5000267158609234
 40
0.5624757023005627
 40
0.624997238097051
 40
0.6874462245372563
 40
0.7499677603331664
 40
0.8124167467733293
 40
0.8749382825692741
 40
0.9166760080667927
 40
0.95816578801913
 40
1.0
 40
1.0
 40
1.0
 40
1.0
 10
48.01937048951836
 20
193.3153995927625
 30
0.0
 10
48.02822603129389
 20
193.3683426413741
 30
0.0
 10
48.04587333999038
 20
193.4738474592458
 30
0.0
 10
48.08396254745156
 20
193.6294099545516
 30
0.0
 10
48.13043576526407
 20
193.7819853614694
 30
0.0
 10
48.18611288108087
 20
193.9314414320226
 30
0.0
 10
48.25078829621813
 20
194.0778158827996
 30
0.0
 10
48.37273104418779
 20
194.3149361474068
 30
0.0
 10
48.58188513626509
 20
194.626704478949
 30
0.0
 10
48.9182374361171
 20
194.9715394803001
 30
0.0
 10
49.30931401789593
 20
195.2532924359774
 30
0.0
 10
49.74473155596871
 20
195.4595408574345
 30
0.0
 10
50.20940672667255
 20
195.587531903832
 30
0.0
 10
50.68939143805834
 20
195.6293249970061
 30
0.0
 10
51.16955736938574
 20
195.5875656440929
 30
0.0
 10
51.63407491316693
 20
195.4596703458728
 30
0.0
 10
52.06967190338362
 20
195.2533874711006
 30
0.0
 10
52.46064226267782
 20
194.9717901054371
 30
0.0
 10
52.79712016615932
 20
194.6268194374474
 30
0.0
 10
53.03619916178415
 20
194.2708344525179
 30
0.0
 10
53.19685787409115
 20
193.9338886524578
 30
0.0
 10
53.30169785830424
 20
193.630514035866
 30
0.0
 10
53.34036764277475
 20
193.4207268025383
 30
0.0
 10
53.35978245864304
 20
193.315399592616
 30
0.0
  0
SPLINE
  5
11F
330
1F
100
AcDbEntity
  8
0
  6
Continuous
 62
     7
370
    15
100
AcDbSpline
210
0.0
220
0.0
230
1.0
 70
     8
 71
     3
 72
     8
 73
     4
 74
     0
 42
0.00000001
 43
0.00000001
 12
1.0
 22
0.0
 32
0.0
 13
1.0
 23
0.0
 33
0.0
 40
0.0
 40
0.0
 40
0.0
 40
0.0
 40
1.0
 40
1.0
 40
1.0
 40
1.0
 10
53.38957647406973
 20
192.91539959268
 30
0.0
 10
53.38957647406973
 20
193.0492255374992
 30
0.0
 10
53.37960852453902
 20
193.1830503930799
 30
0.0
 10
53.35978245864304
 20
193.315399592616
 30
0.0
  0
SPLINE
  5
120
330
1F
100
AcDbEntity
  8
0
  6
Continuous
 62
     7
370
    15
100
AcDbSpline
210
0.0
220
0.0
230
1.0
 70
     8
 71
     3
 72
     8
 73
     4
 74
     0
 42
0.00000001
 43
0.00000001
 12
1.0
 22
0.0
 32
0.0
 13
1.0
 23
0.0
 33
0.0
 40
0.0
 40
0.0
 40
0.0
 40
0.0
 40
1.0
 40
1.0
 40
1.0
 40
1.0
 10
53.35978245864305
 20
192.5153995927438
 30
0.0
 10
53.37960852453902
 20
192.64774879228
 30
0.0
 10
53.38957647406973
 20
192.7815736478607
 30
0.0
 10
53.38957647406973
 20
192.91539959268
 30
0.0
  0
SPLINE
  5
121
330
1F
100
AcDbEntity
  8
0
  6
Continuous
 62
     7
370
    15
100
AcDbSpline
210
0.0
220
0.0
230
1.0
 70
     8
 71
     3
 72
    14
 73
    10
 74
     0
 42
0.00000001
 43
0.00000001
 12
1.0
 22
0.0
 32
0.0
 13
1.0
 23
0.0
 33
0.0
 40
0.0
 40
0.0
 40
0.0
 40
0.0
 40
0.25
 40
0.25
 40
0.5
 40
0.5
 40
0.75
 40
0.75
 40
1.0
 40
1.0
 40
1.0
 40
1.0
 10
49.55820562415997
 20
193.315399592648
 30
0.0
 10
49.64026958531135
 20
193.5475115263535
 30
0.0
 10
49.79574131992185
 20
193.7530565395847
 30
0.0
 10
50.19777098213486
 20
194.0373344399821
 30
0.0
 10
50.44338459059592
 20
194.1153995926799
 30
0.0
 10
50.93576835754352
 20
194.1153995926799
 30
0.0
 10
51.18138196600458
 20
194.0373344399822
 30
0.0
 10
51.5834116282176
 20
193.7530565395847
 30
0.0
 10
51.73888336282809
 20
193.5475115263536
 30
0.0
 10
51.82094732397948
 20
193.315399592648
 30
0.0
  0
LINE
  5
122
330
1F
100
AcDbEntity
  8
0
  6
Continuous
 62
     7
370
    15
100
AcDbLine
 10
51.8209473241
 20
193.3153995927
 30
0.0
 11
53.3597824591
 21
193.3153995927
 31
0.0
  0
LINE
  5
123
330
1F
100
AcDbEntity
  8
0
  6
Continuous
 62
     7
370
    15
100
AcDbLine
 10
48.0193704901
 20
193.3153995927
 30
0.0
 11
49.5582056241
 21
193.3153995927
 31
0.0
  0
SPLINE
  5
124
330
1F
100
AcDbEntity
  8
0
  6
Continuous
 62
     7
370
    15
100
AcDbSpline
210
0.0
220
0.0
230
1.0
 70
     8
 71
     3
 72
     8
 73
     4
 74
     0
 42
0.00000001
 43
0.00000001
 12
1.0
 22
0.0
 32
0.0
 13
1.0
 23
0.0
 33
0.0
 40
0.0
 40
0.0
 40
0.0
 40
0.0
 40
1.0
 40
1.0
 40
1.0
 40
1.0
 10
49.55820562415997
 20
192.5153995927118
 30
0.0
 10
49.46758244832029
 20
192.7717206414104
 30
0.0
 10
49.46758244832029
 20
193.0590785439494
 30
0.0
 10
49.55820562415997
 20
193.315399592648
 30
0.0
  0
SPLINE
  5
125
330
1F
100
AcDbEntity
  8
0
  6
Continuous
 62
     7
370
    15
100
AcDbSpline
210
0.0
220
0.0
230
1.0
 70
     8
 71
     3
 72
     8
 73
     4
 74
     0
 42
0.00000001
 43
0.00000001
 12
1.0
 22
0.0
 32
0.0
 13
1.0
 23
0.0
 33
0.0
 40
0.0
 40
0.0
 40
0.0
 40
0.0
 40
1.0
 40
1.0
 40
1.0
 40
1.0
 10
51.82094732397948
 20
193.315399592648
 30
0.0
 10
51.86625891189932
 20
193.1872390682987
 30
0.0
 10
51.88957647406973
 20
193.0513343564503
 30
0.0
 10
51.88957647406973
 20
192.9153995926799
 30
0.0
  0
SPLINE
  5
126
330
1F
100
AcDbEntity
  8
0
  6
Continuous
 62
     7
370
    15
100
AcDbSpline
210
0.0
220
0.0
230
1.0
 70
     8
 71
     3
 72
     8
 73
     4
 74
     0
 42
0.00000001
 43
0.00000001
 12
1.0
 22
0.0
 32
0.0
 13
1.0
 23
0.0
 33
0.0
 40
0.0
 40
0.0
 40
0.0
 40
0.0
 40
1.0
 40
1.0
 40
1.0
 40
1.0
 10
51.88957647406973
 20
192.9153995926799
 30
0.0
 10
51.88957647406973
 20
192.7794648289096
 30
0.0
 10
51.86625891189933
 20
192.6435601170611
 30
0.0
 10
51.8209473239795
 20
192.5153995927118
 30
0.0
  0
SPLINE
  5
127
330
1F
100
AcDbEntity
  8
0
  6
Continuous
 62
     7
370
    15
100
AcDbSpline
210
0.0
220
0.0
230
1.0
 70
     8
 71
     3
 72
    14
 73
    10
 74
     0
 42
0.00000001
 43
0.00000001
 12
1.0
 22
0.0
 32
0.0
 13
1.0
 23
0.0
 33
0.0
 40
0.0
 40
0.0
 40
0.0
 40
0.0
 40
0.25
 40
0.25
 40
0.5
 40
0.5
 40
0.75
 40
0.75
 40
1.0
 40
1.0
 40
1.0
 40
1.0
 10
51.8209473239795
 20
192.5153995927118
 30
0.0
 10
51.7388833628281
 20
192.2832876590063
 30
0.0
 10
51.58341162821761
 20
192.0777426457751
 30
0.0
 10
51.18138196600459
 20
191.7934647453777
 30
0.0
 10
50.93576835754354
 20
191.7153995926799
 30
0.0
 10
50.44338459059594
 20
191.7153995926799
 30
0.0
 10
50.19777098213488
 20
191.7934647453777
 30
0.0
 10
49.79574131992187
 20
192.0777426457751
 30
0.0
 10
49.64026958531137
 20
192.2832876590063
 30
0.0
 10
49.55820562415997
 20
192.5153995927118
 30
0.0
  0
LINE
  5
128
330
1F
100
AcDbEntity
  8
0
  6
Continuous
 62
     7
370
    15
100
AcDbLine
 10
61.6144535461
 20
210.6155792948
 30
0.0
 11
56.1966316977
 21
211.345252271
 31
0.0
  0
ARC
  5
129
330
1F
100
AcDbEntity
  8
0
  6
Continuous
 62
     7
370
    15
100
AcDbCircle
 10
50.6895764741
 20
192.9153995927
 30
0.0
 40
9.00000000011753
100
AcDbArc
 50
26.8500182224
 51
89.9705548915
  0
ARC
  5
12A
330
1F
100
AcDbEntity
  8
0
  6
Continuous
 62
     7
370
    15
100
AcDbCircle
 10
50.8242264741
 20
203.9145795927
 30
0.0
 40
2.000000000000002
100
AcDbArc
 50
187.6625366644
 51
266.190786466
  0
ARC
  5
12B
330
1F
100
AcDbEntity
  8
0
  6
Continuous
 62
     7
370
    15
100
AcDbCircle
 10
50.6895764741
 20
192.9153995927
 30
0.0
 40
9.000000000000002
100
AcDbArc
 50
206.8585845643
 51
231.0575587322
  0
LINE
  5
12C
330
1F
100
AcDbEntity
  8
0
  6
Continuous
 62
     7
370
    15
100
AcDbLine
 10
60.2079178191
 20
185.9153995927
 30
0.0
 11
58.7193033051
 21
196.9803088193
 31
0.0
  0
LINE
  5
12D
330
1F
100
AcDbEntity
  8
0
  6
Continuous
 62
     7
370
    15
100
AcDbLine
 10
48.6895964741
 20
204.7814795927
 30
0.0
 11
48.8421069411
 21
203.6479061187
 31
0.0
  0
ARC
  5
12E
330
1F
100
AcDbEntity
  8
0
  6
Continuous
 62
     7
370
    15
100
AcDbCircle
 10
48.6895764741
 20
207.7814795927
 30
0.0
 40
2.999999999999989
100
AcDbArc
 50
187.6704481013
 51
270.0003819718
  0
LINE
  5
12F
330
1F
100
AcDbEntity
  8
0
  6
Continuous
 62
     7
370
    15
100
AcDbLine
 10
39.8670940721
 20
209.5900131897
 30
0.0
 11
42.6604574811
 21
188.8492898802
 31
0.0
  0
CIRCLE
  5
130
330
1F
100
AcDbEntity
  8
0
  6
Continuous
 62
     7
370
    15
100
AcDbCircle
 10
50.6895764741
 20
192.9153995927
 30
0.0
 40
5.599999999999994
  0
LINE
  5
131
330
1F
100
AcDbEntity
  8
0
  6
Continuous
 62
     7
370
    15
100
AcDbLine
 10
61.5120588761
 20
209.5900131897
 30
0.0
 11
59.6798068163
 21
195.9855416467
 31
0.0
  0
SPLINE
  5
132
330
1F
100
AcDbEntity
  8
0
  6
Continuous
 62
     7
370
    15
100
AcDbSpline
210
0.0
220
0.0
230
1.0
 70
     8
 71
     3
 72
    14
 73
    10
 74
     0
 42
0.00000001
 43
0.00000001
 12
1.0
 22
0.0
 32
0.0
 13
1.0
 23
0.0
 33
0.0
 40
0.0
 40
0.0
 40
0.0
 40
0.0
 40
0.25
 40
0.25
 40
0.5
 40
0.5
 40
0.75
 40
0.75
 40
1.0
 40
1.0
 40
1.0
 40
1.0
 10
55.66273299912277
 20
207.3810544716728
 30
0.0
 10
55.61478470190951
 20
207.0250383646758
 30
0.0
 10
55.50222489385209
 20
206.6778241327007
 30
0.0
 10
55.16213190436797
 20
206.0449554345558
 30
0.0
 10
54.93469253726335
 20
205.7594755446038
 30
0.0
 10
54.39382102671699
 20
205.2865653632086
 30
0.0
 10
54.08053808215806
 20
205.0992655235813
 30
0.0
 10
53.40793825687155
 20
204.8466878016569
 30
0.0
 10
53.04880691215494
 20
204.7814795926799
 30
0.0
 10
52.6895764740696
 20
204.7814795926799
 30
0.0
  0
LINE
  5
133
330
1F
100
AcDbEntity
  8
0
  6
Continuous
 62
     7
370
    15
100
AcDbLine
 10
52.6895764741
 20
204.7814795927
 30
0.0
 11
52.4458395431
 21
202.9696986787
 31
0.0
  0
LINE
  5
134
330
1F
100
AcDbEntity
  8
0
  6
Continuous
 62
     7
370
    15
100
AcDbLine
 10
53.1072964741
 20
202.1025995927
 30
0.0
 11
52.4458395431
 21
202.9696986787
 31
0.0
  0
SPLINE
  5
135
330
1F
100
AcDbEntity
  8
0
  6
Continuous
 62
     7
370
    15
100
AcDbSpline
210
0.0
220
0.0
230
1.0
 70
     8
 71
     3
 72
    23
 73
    19
 74
     0
 42
0.00000001
 43
0.00000001
 12
1.0
 22
0.0
 32
0.0
 13
1.0
 23
0.0
 33
0.0
 40
0.0
 40
0.0
 40
0.0
 40
0.0
 40
0.031370381111571
 40
0.0626500260852698
 40
0.0938684165681779
 40
0.1250552079240242
 40
0.156240145664383
 40
0.1874529806002589
 40
0.2187233839181805
 40
0.2500808633874227
 40
0.3750180946567571
 40
0.5000144946614522
 40
0.6249517259303979
 40
0.7499481259354538
 40
0.8125467766389931
 40
0.8749297392029022
 40
0.9373349269339057
 40
1.0
 40
1.0
 40
1.0
 40
1.0
 10
59.67980681600393
 20
195.9855416465541
 30
0.0
 10
59.64739236136114
 20
196.0777735009279
 30
0.0
 10
59.58265720810662
 20
196.2619704369444
 30
0.0
 10
59.4750235235599
 20
196.5340290666079
 30
0.0
 10
59.3598901882899
 20
196.8023409445999
 30
0.0
 10
59.23649413376209
 20
197.0666444356888
 30
0.0
 10
59.10503897675684
 20
197.3270090044043
 30
0.0
 10
58.96547327731372
 20
197.5834133882519
 30
0.0
 10
58.81780169182638
 20
197.8358691035436
 30
0.0
 10
58.50737467397306
 20
198.3311403311452
 30
0.0
 10
57.98524106402014
 20
199.0383548103849
 30
0.0
 10
57.17811955439922
 20
199.8867672497759
 30
0.0
 10
56.27387409471616
 20
200.6311932393442
 30
0.0
 10
55.44861791706509
 20
201.1533289298752
 30
0.0
 10
54.7548911668246
 20
201.5085702437378
 30
0.0
 10
54.21917962942376
 20
201.7416849611242
 30
0.0
 10
53.67050933513429
 20
201.9437186647108
 30
0.0
 10
53.29529398286774
 20
202.0495659692493
 30
0.0
 10
53.10729647398392
 20
202.1025995923542
 30
0.0
  0
LINE
  5
136
330
1F
100
AcDbEntity
  8
0
  6
Continuous
 62
     7
370
    15
100
AcDbLine
 10
59.2662471702
 20
192.9148612747
 30
0.0
 11
59.6798068163
 21
195.9855416467
 31
0.0
  0
LINE
  5
137
330
1F
100
AcDbEntity
  8
0
  6
Continuous
 62
     7
370
    15
100
AcDbLine
 10
41.1712751291
 20
185.9153995927
 30
0.0
 11
41.6997978475
 21
189.8439351055
 31
0.0
  0
LINE
  5
138
330
1F
100
AcDbEntity
  8
0
  6
Continuous
 62
     7
370
    15
100
AcDbLine
 10
41.6997978475
 20
189.8439351055
 30
0.0
 11
42.1129242521
 21
192.9147241027
 31
0.0
  0
ARC
  5
139
330
1F
100
AcDbEntity
  8
0
  6
Continuous
 62
     7
370
    15
100
AcDbCircle
 10
50.6895764741
 20
192.9153995927
 30
0.0
 40
9.500000729000003
100
AcDbArc
 50
198.8633409461
 51
227.4630968465
  0
ARC
  5
13A
330
1F
100
AcDbEntity
  8
0
  6
Continuous
 62
     7
370
    15
100
AcDbCircle
 10
56.6895764741
 20
191.3708369457
 30
0.0
 40
5.5
100
AcDbArc
 50
0.0
 51
29.9346156375
  0
LINE
  5
13B
330
1F
100
AcDbEntity
  8
0
  6
Continuous
 62
     7
370
    15
100
AcDbLine
 10
62.1895764741
 20
185.9153995927
 30
0.0
 11
62.1895764741
 21
191.3708369457
 31
0.0
  0
LINE
  5
13C
330
1F
100
AcDbEntity
  8
0
  6
Continuous
 62
     7
370
    15
100
AcDbLine
 10
63.6895764741
 20
191.3708369457
 30
0.0
 11
63.6895764741
 21
185.9153995927
 31
0.0
  0
ARC
  5
13D
330
1F
100
AcDbEntity
  8
0
  6
Continuous
 62
     7
370
    15
100
AcDbCircle
 10
56.6895764741
 20
191.3708369457
 30
0.0
 40
7.000000000000007
100
AcDbArc
 50
0.0
 51
23.0840086847
  0
LINE
  5
13E
330
1F
100
AcDbEntity
  8
0
  6
Continuous
 62
     7
370
    15
100
AcDbLine
 10
63.1290932166
 20
194.1153995926
 30
0.0
 11
61.4558513171
 21
194.1153995927
 31
0.0
  0
SPLINE
  5
13F
330
1F
100
AcDbEntity
  8
0
  6
Continuous
 62
     7
370
    15
100
AcDbSpline
210
0.0
220
0.0
230
1.0
 70
     8
 71
     3
 72
    14
 73
    10
 74
     0
 42
0.00000001
 43
0.00000001
 12
1.0
 22
0.0
 32
0.0
 13
1.0
 23
0.0
 33
0.0
 40
0.0
 40
0.0
 40
0.0
 40
0.0
 40
0.1361292210364712
 40
0.2742916418874225
 40
0.4146188867874681
 40
0.5572365862645731
 40
0.7022644186647781
 40
0.8498161979406604
 40
1.0
 40
1.0
 40
1.0
 40
1.0
 10
61.45585131688676
 20
194.11539959268
 30
0.0
 10
61.42585315402242
 20
194.1663817573057
 30
0.0
 10
61.36540878151359
 20
194.2691075463442
 30
0.0
 10
61.26788472391959
 20
194.4202370552424
 30
0.0
 10
61.16456698721395
 20
194.5700986631666
 30
0.0
 10
61.05500961251873
 20
194.7180893096046
 30
0.0
 10
60.93925626829673
 20
194.8638031641182
 30
0.0
 10
60.81759924422343
 20
195.0073702345817
 30
0.0
 10
60.73250148921854
 20
195.0993551342345
 30
0.0
 10
60.68957647388769
 20
195.1457541635341
 30
0.0
  0
SPLINE
  5
140
330
1F
100
AcDbEntity
  8
0
  6
Continuous
 62
     7
370
    15
100
AcDbSpline
210
0.0
220
0.0
230
1.0
 70
     8
 71
     3
 72
    18
 73
    14
 74
     0
 42
0.00000001
 43
0.00000001
 12
1.0
 22
0.0
 32
0.0
 13
1.0
 23
0.0
 33
0.0
 40
0.0
 40
0.0
 40
0.0
 40
0.0
 40
0.1250000000000006
 40
0.1250000000000006
 40
0.2500000000000012
 40
0.2500000000000012
 40
0.3750000000000018
 40
0.3750000000000018
 40
0.5000000000000023
 40
0.5000000000000023
 40
0.7500000000000011
 40
0.7500000000000011
 40
1.0
 40
1.0
 40
1.0
 40
1.0
 10
60.68957647342034
 20
197.115399592725
 30
0.0
 10
60.68957648788501
 20
197.1153995826531
 30
0.0
 10
60.72694773684618
 20
197.0897671336747
 30
0.0
 10
60.8578856748172
 20
196.9950460114611
 30
0.0
 10
60.94767477932628
 20
196.9283671176743
 30
0.0
 10
61.15486321259105
 20
196.7633092110367
 30
0.0
 10
61.27099749112043
 20
196.6658166301108
 30
0.0
 10
61.51097345028204
 20
196.44827326648
 30
0.0
 10
61.63586854856695
 20
196.3274656513995
 30
0.0
 10
62.01685883534696
 20
195.9267074765018
 30
0.0
 10
62.26863986177334
 20
195.6199226340264
 30
0.0
 10
62.74178726079581
 20
194.9136355659746
 30
0.0
 10
62.95207123751234
 20
194.5307429987167
 30
0.0
 10
63.12909321662161
 20
194.1153995925136
 30
0.0
  0
SPLINE
  5
141
330
1F
100
AcDbEntity
  8
0
  6
Continuous
 62
     7
370
    15
100
AcDbSpline
210
0.0
220
0.0
230
1.0
 70
    24
 71
     3
 72
    14
 73
    10
 74
     0
 42
0.00000001
 43
0.00000001
 12
1.0
 22
0.0
 32
0.0
 13
1.0
 23
0.0
 33
0.0
 40
0.0
 40
0.0
 40
0.0
 40
0.0
 40
0.2500000000000002
 40
0.2500000000000002
 40
0.5000000000000003
 40
0.5000000000000003
 40
0.7500000000000001
 40
0.7500000000000001
 40
1.0
 40
1.0
 40
1.0
 40
1.0
 10
60.68957647417328
 20
195.1457541637268
 30
0.0
 10
60.68957647417328
 20
195.4322496862628
 30
0.0
 10
60.68957647417327
 20
195.7026010667604
 30
0.0
 10
60.68957647417326
 20
196.1862038882209
 30
0.0
 10
60.68957647417326
 20
196.3993858417411
 30
0.0
 10
60.68957647417326
 20
196.7489459363724
 30
0.0
 10
60.68957647417326
 20
196.8852738502392
 30
0.0
 10
60.68957647417326
 20
197.0685138373524
 30
0.0
 10
60.68957647417326
 20
197.1153995813931
 30
0.0
 10
60.68957647417326
 20
197.11539959268
 30
0.0
  0
ARC
  5
142
330
1F
100
AcDbEntity
  8
0
  6
Continuous
 62
     7
370
    15
100
AcDbCircle
 10
44.6895764741
 20
191.3708369457
 30
0.0
 40
7.0
100
AcDbArc
 50
156.9159913145
 51
179.9999999959
  0
LINE
  5
143
330
1F
100
AcDbEntity
  8
0
  6
Continuous
 62
     7
370
    15
100
AcDbLine
 10
37.6895764741
 20
185.9153995927
 30
0.0
 11
37.6895764741
 21
191.3708369462
 31
0.0
  0
LINE
  5
144
330
1F
100
AcDbEntity
  8
0
  6
Continuous
 62
     7
370
    15
100
AcDbLine
 10
39.1895764741
 20
191.3708369457
 30
0.0
 11
39.1895764741
 21
185.9153995927
 31
0.0
  0
ARC
  5
145
330
1F
100
AcDbEntity
  8
0
  6
Continuous
 62
     7
370
    15
100
AcDbCircle
 10
44.6895764741
 20
191.3708369457
 30
0.0
 40
5.500000000000005
100
AcDbArc
 50
150.0653843624
 51
180.0
  0
LINE
  5
146
330
1F
100
AcDbEntity
  8
0
  6
Continuous
 62
     7
370
    15
100
AcDbLine
 10
39.9233016313
 20
194.1153995926
 30
0.0
 11
38.2500597316
 21
194.1153995927
 31
0.0
  0
SPLINE
  5
147
330
1F
100
AcDbEntity
  8
0
  6
Continuous
 62
     7
370
    15
100
AcDbSpline
210
0.0
220
0.0
230
1.0
 70
     8
 71
     3
 72
    22
 73
    18
 74
     0
 42
0.00000001
 43
0.00000001
 12
1.0
 22
0.0
 32
0.0
 13
1.0
 23
0.0
 33
0.0
 40
0.0
 40
0.0
 40
0.0
 40
0.0
 40
0.125
 40
0.125
 40
0.25
 40
0.25
 40
0.375
 40
0.375
 40
0.5
 40
0.5
 40
0.625
 40
0.625
 40
0.75
 40
0.75
 40
0.875
 40
0.875
 40
1.0
 40
1.0
 40
1.0
 40
1.0
 10
38.2500597315019
 20
194.1153995926803
 30
0.0
 10
38.33845044306752
 20
194.3227890897415
 30
0.0
 10
38.43512409128448
 20
194.521952469035
 30
0.0
 10
38.64373906296917
 20
194.9057419866385
 30
0.0
 10
38.75659355534618
 20
195.0916617037147
 30
0.0
 10
38.9923050066194
 20
195.4434185618107
 30
0.0
 10
39.11401924646719
 20
195.6078779309115
 30
0.0
 10
39.36293117083575
 20
195.9168466819584
 30
0.0
 10
39.49111544514065
 20
196.0622603417839
 30
0.0
 10
39.74319453713294
 20
196.3273232298082
 30
0.0
 10
39.86752716183195
 20
196.4476476654937
 30
0.0
 10
40.10718654433072
 20
196.6649723034409
 30
0.0
 10
40.22378991714573
 20
196.7628900251952
 30
0.0
 10
40.43062222263124
 20
196.9277060883238
 30
0.0
 10
40.52164986505451
 20
196.9953228300742
 30
0.0
 10
40.65182833395813
 20
197.0894944488806
 30
0.0
 10
40.68957647473434
 20
197.1153995926807
 30
0.0
 10
40.68957647473315
 20
197.1153995926798
 30
0.0
  0
SPLINE
  5
148
330
1F
100
AcDbEntity
  8
0
  6
Continuous
 62
     7
370
    15
100
AcDbSpline
210
0.0
220
0.0
230
1.0
 70
     8
 71
     3
 72
     8
 73
     4
 74
     0
 42
0.00000001
 43
0.00000001
 12
1.0
 22
0.0
 32
0.0
 13
1.0
 23
0.0
 33
0.0
 40
0.0
 40
0.0
 40
0.0
 40
0.0
 40
1.0
 40
1.0
 40
1.0
 40
1.0
 10
40.68957647425597
 20
195.1457541635565
 30
0.0
 10
40.39887287002023
 20
194.83771709949
 30
0.0
 10
40.14270225471738
 20
194.4964160992665
 30
0.0
 10
39.92330163125382
 20
194.1153995925764
 30
0.0
  0
LINE
  5
149
330
1F
100
AcDbEntity
  8
0
  6
Continuous
 62
     7
370
    15
100
AcDbLine
 10
40.6895764745
 20
197.1153995925
 30
0.0
 11
40.6895764742
 21
195.1457541636
 31
0.0
  0
SPLINE
  5
14A
330
1F
100
AcDbEntity
  8
0
  6
Continuous
 62
     7
370
    15
100
AcDbSpline
210
0.0
220
0.0
230
1.0
 70
     8
 71
     3
 72
    39
 73
    35
 74
     0
 42
0.00000001
 43
0.00000001
 12
1.0
 22
0.0
 32
0.0
 13
1.0
 23
0.0
 33
0.0
 40
-0.093755824607536
 40
-0.0624945009584014
 40
-0.0312472504792005
 40
0.0
 40
0.0312554404200754
 40
0.0624997512668579
 40
0.0937388381730811
 40
0.1250001618221982
 40
0.1562392487284493
 40
0.1875005723775364
 40
0.2187396592837758
 40
0.250000982932875
 40
0.2812400698391945
 40
0.3125013934882167
 40
0.343740480394511
 40
0.3750018040435515
 40
0.4062408909497649
 40
0.4375022145988907
 40
0.4687413015050932
 40
0.5000026251542284
 40
0.5312417120604219
 40
0.5625030357095678
 40
0.5937421226158056
 40
0.6250034462649077
 40
0.656242533171134
 40
0.6875038568202448
 40
0.7187429437264604
 40
0.7500042673755847
 40
0.7812433542817797
 40
0.8125046779309215
 40
0.8437437648371309
 40
0.8750050884862625
 40
0.9062441753924639
 40
0.9375054990415985
 40
0.9687527495207994
 40
0.9999999999999999
 40
1.031255440420075
 40
1.062499751266858
 40
1.093738838173081
 10
54.63817932601681
 20
193.7008290579153
 30
0.0
 10
54.71501673019385
 20
192.9153738831624
 30
0.0
 10
54.63922191660376
 20
192.129685844696
 30
0.0
 10
54.40830873453574
 20
191.3751168439395
 30
0.0
 10
54.03816761902694
 20
190.6780493336886
 30
0.0
 10
53.53585620482448
 20
190.0693862081285
 30
0.0
 10
52.92708800400349
 20
189.5668995204956
 30
0.0
 10
52.23007025237172
 20
189.1968040180883
 30
0.0
 10
51.47535305478534
 20
188.9655297729217
 30
0.0
 10
50.68976196653097
 20
188.8903439512949
 30
0.0
 10
49.90398970412547
 20
188.9654919919235
 30
0.0
 10
49.14942571969788
 20
189.1966620939964
 30
0.0
 10
48.45222474315278
 20
189.5667918437586
 30
0.0
 10
47.84356348371688
 20
190.06912430866
 30
0.0
 10
47.3410762962059
 20
190.6778868706349
 30
0.0
 10
46.97098092778076
 20
191.3749061336385
 30
0.0
 10
46.73970664672353
 20
192.1296229263741
 30
0.0
 10
46.66452083471997
 20
192.9152141231401
 30
0.0
 10
46.73966887275635
 20
193.7009863564748
 30
0.0
 10
46.97083897557803
 20
194.455550348708
 30
0.0
 10
47.34096872493468
 20
195.1527513231111
 30
0.0
 10
47.84330119070779
 20
195.7614125833176
 30
0.0
 10
48.45206374960622
 20
196.2638997698888
 30
0.0
 10
49.14908302405021
 20
196.6339951413037
 30
0.0
 10
49.90379977411462
 20
196.8652694113471
 30
0.0
 10
50.68939113017479
 20
196.9404552644303
 30
0.0
 10
51.47516276919288
 20
196.8653070731363
 30
0.0
 10
52.22972898010244
 20
196.6341375424456
 30
0.0
 10
52.92692167674665
 20
196.264005658503
 30
0.0
 10
53.53561383913244
 20
195.7616811614762
 30
0.0
 10
54.03798573138195
 20
195.1528888716264
 30
0.0
 10
54.40854378298078
 20
194.4559198952544
 30
0.0
 10
54.63817932601681
 20
193.7008290579153
 30
0.0
 10
54.71501673019385
 20
192.9153738831624
 30
0.0
 10
54.63922191660376
 20
192.129685844696
 30
0.0
  0
SPLINE
  5
14B
330
1F
100
AcDbEntity
  8
0
  6
Continuous
 62
     7
370
    15
100
AcDbSpline
210
0.0
220
0.0
230
1.0
 70
     8
 71
     3
 72
    38
 73
    34
 74
     0
 42
0.00000001
 43
0.00000001
 12
1.0
 22
0.0
 32
0.0
 13
1.0
 23
0.0
 33
0.0
 40
-0.0625
 40
-0.0625
 40
0.0
 40
0.0
 40
0.0625
 40
0.0625
 40
0.125
 40
0.125
 40
0.1875
 40
0.1875
 40
0.25
 40
0.25
 40
0.3125
 40
0.3125
 40
0.375
 40
0.375
 40
0.4375
 40
0.4375
 40
0.5
 40
0.5
 40
0.5625
 40
0.5625
 40
0.625
 40
0.625
 40
0.6875
 40
0.6875
 40
0.75
 40
0.75
 40
0.8125
 40
0.8125
 40
0.875
 40
0.875
 40
0.9375
 40
0.9375
 40
1.0
 40
1.0
 40
1.0625
 40
1.0625
 10
53.58957647406973
 20
193.2950087049887
 30
0.0
 10
53.58957647406974
 20
192.5357904803712
 30
0.0
 10
53.51409723640786
 20
192.156330728038
 30
0.0
 10
53.22355700029708
 20
191.4549045496044
 30
0.0
 10
53.00861031702447
 20
191.1332141047527
 30
0.0
 10
52.47176196199701
 20
190.5963657497252
 30
0.0
 10
52.15007151714537
 20
190.3814190664526
 30
0.0
 10
51.44864533871167
 20
190.0908788303418
 30
0.0
 10
51.06918558637852
 20
190.0153995926799
 30
0.0
 10
50.309967361761
 20
190.0153995926799
 30
0.0
 10
49.93050760942785
 20
190.0908788303418
 30
0.0
 10
49.22908143099415
 20
190.3814190664525
 30
0.0
 10
48.9073909861425
 20
190.5963657497252
 30
0.0
 10
48.37054263111502
 20
191.1332141047527
 30
0.0
 10
48.1555959478424
 20
191.4549045496043
 30
0.0
 10
47.86505571173162
 20
192.156330728038
 30
0.0
 10
47.78957647406973
 20
192.5357904803711
 30
0.0
 10
47.78957647406973
 20
193.2950087049887
 30
0.0
 10
47.86505571173161
 20
193.6744684573218
 30
0.0
 10
48.15559594784237
 20
194.3758946357555
 30
0.0
 10
48.37054263111499
 20
194.6975850806071
 30
0.0
 10
48.90739098614245
 20
195.2344334356346
 30
0.0
 10
49.22908143099409
 20
195.4493801189072
 30
0.0
 10
49.93050760942779
 20
195.739920355018
 30
0.0
 10
50.30996736176093
 20
195.8153995926799
 30
0.0
 10
51.06918558637846
 20
195.8153995926799
 30
0.0
 10
51.44864533871161
 20
195.739920355018
 30
0.0
 10
52.15007151714532
 20
195.4493801189073
 30
0.0
 10
52.47176196199696
 20
195.2344334356347
 30
0.0
 10
53.00861031702443
 20
194.6975850806072
 30
0.0
 10
53.22355700029706
 20
194.3758946357555
 30
0.0
 10
53.51409723640784
 20
193.6744684573219
 30
0.0
 10
53.58957647406973
 20
193.2950087049887
 30
0.0
 10
53.58957647406974
 20
192.5357904803712
 30
0.0
  0
SPLINE
  5
14C
330
1F
100
AcDbEntity
  8
0
  6
Continuous
 62
     7
370
    15
100
AcDbSpline
210
0.0
220
0.0
230
1.0
 70
     8
 71
     3
 72
    14
 73
    10
 74
     0
 42
0.00000001
 43
0.00000001
 12
1.0
 22
0.0
 32
0.0
 13
1.0
 23
0.0
 33
0.0
 40
0.0
 40
0.0
 40
0.0
 40
0.0
 40
0.25
 40
0.25
 40
0.5
 40
0.5
 40
0.75
 40
0.75
 40
1.0
 40
1.0
 40
1.0
 40
1.0
 10
52.53708045041589
 20
203.6479239026334
 30
0.0
 10
52.50664399626635
 20
203.4216792114239
 30
0.0
 10
52.43710457564081
 20
203.2007474867408
 30
0.0
 10
52.22783268139548
 20
202.794967464505
 30
0.0
 10
52.08814789386722
 20
202.6102116306984
 30
0.0
 10
51.75477621981941
 20
202.2982573406025
 30
0.0
 10
51.56116529759606
 20
202.1711299683012
 30
0.0
 10
51.14240265870345
 20
201.9892233866875
 30
0.0
 10
50.91734636408594
 20
201.9344856278237
 30
0.0
 10
50.68958147405915
 20
201.9191170588352
 30
0.0
  0
LINE
  5
14D
330
1F
100
AcDbEntity
  8
0
  6
Continuous
 62
     7
370
    15
100
AcDbLine
 10
53.3597824591
 20
192.5153995927
 30
0.0
 11
51.8209473241
 21
192.5153995927
 31
0.0
  0
LINE
  5
14E
330
1F
100
AcDbEntity
  8
0
  6
Continuous
 62
     7
370
    15
100
AcDbLine
 10
49.5582056241
 20
192.5153995927
 30
0.0
 11
48.0193704901
 21
192.5153995927
 31
0.0
  0
LINE
  5
14F
330
1F
100
AcDbEntity
  8
0
  6
Continuous
 62
     7
370
    15
100
AcDbLine
 10
32.5096639643
 20
183.0435778647
 30
0.0
 11
32.0527227764
 21
182.7797627468
 31
0.0
  0
LINE
  5
150
330
1F
100
AcDbEntity
  8
0
  6
Continuous
 62
     7
370
    15
100
AcDbLine
 10
69.1476868804
 20
182.8829602342
 30
0.0
 11
70.0236709817
 21
182.3772105774
 31
0.0
  0
LINE
  5
151
330
1F
100
AcDbEntity
  8
0
  6
Continuous
 62
     7
370
    15
100
AcDbLine
 10
68.8694889839
 20
153.7872213207
 30
0.0
 11
69.3264301717
 21
154.0510364385
 31
0.0
  0
LINE
  5
152
330
1F
100
AcDbEntity
  8
0
  6
Continuous
 62
     7
370
    15
100
AcDbLine
 10
33.1476868804
 20
182.8829602342
 30
0.0
 11
34.0236709817
 21
182.3772105774
 31
0.0
  0
LINE
  5
153
330
1F
100
AcDbEntity
  8
0
  6
Continuous
 62
     7
370
    15
100
AcDbLine
 10
32.2314660677
 20
153.9478389512
 30
0.0
 11
31.3554819664
 21
154.453588608
 31
0.0
  0
LINE
  5
154
330
1F
100
AcDbEntity
  8
0
  6
Continuous
 62
     7
370
    15
100
AcDbLine
 10
32.509663965
 20
157.0435778651
 30
0.0
 11
32.0527227806
 21
156.7797627492
 31
0.0
  0
LINE
  5
155
330
1F
100
AcDbEntity
  8
0
  6
Continuous
 62
     7
370
    15
100
AcDbLine
 10
59.8319762369
 20
197.1153995927
 30
0.0
 11
60.6895764741
 21
197.1153995927
 31
0.0
  0
LINE
  5
156
330
1F
100
AcDbEntity
  8
0
  6
Continuous
 62
     7
370
    15
100
AcDbLine
 10
40.6895764741
 20
197.1153995927
 30
0.0
 11
41.5471767113
 21
197.1153995927
 31
0.0
  0
SPLINE
  5
157
330
1F
100
AcDbEntity
  8
0
  6
Continuous
 62
     7
370
    15
100
AcDbSpline
210
0.0
220
0.0
230
1.0
 70
     8
 71
     3
 72
    29
 73
    25
 74
     0
 42
0.00000001
 43
0.00000001
 12
1.0
 22
0.0
 32
0.0
 13
1.0
 23
0.0
 33
0.0
 40
0.0
 40
0.0
 40
0.0
 40
0.0
 40
0.0461150189746491
 40
0.0922101303579813
 40
0.1382959016358962
 40
0.1844214395213239
 40
0.2305072107993829
 40
0.2766327486846703
 40
0.3227185199625837
 40
0.368844057848002
 40
0.4149298291258874
 40
0.4610553670113521
 40
0.5071411382895228
 40
0.5532666761746969
 40
0.5993524474528502
 40
0.6454779853380351
 40
0.6915637566159941
 40
0.7376892945013722
 40
0.7837750657792191
 40
0.8299006036647137
 40
0.8759863749426225
 40
0.9221119128280579
 40
0.9681976841058954
 40
1.0
 40
1.0
 40
1.0
 40
1.0
 10
67.86403727481985
 20
152.2203276010495
 30
0.0
 10
68.07626421998394
 20
152.1778692883874
 30
0.0
 10
68.50062649314737
 20
152.0929709920752
 30
0.0
 10
69.15278662662944
 20
152.1285569179129
 30
0.0
 10
69.78548426210068
 20
152.2785022748111
 30
0.0
 10
70.3754512868079
 20
152.5545962669081
 30
0.0
 10
70.90244285104147
 20
152.9370282580695
 30
0.0
 10
71.34191955130936
 20
153.417422409964
 30
0.0
 10
71.68242583866784
 20
153.9725360564688
 30
0.0
 10
71.90461585758732
 20
154.5845102339441
 30
0.0
 10
72.00676841107301
 20
155.2276832178481
 30
0.0
 10
71.97785323374056
 20
155.8780997288965
 30
0.0
 10
71.82609812060868
 20
156.5114068182222
 30
0.0
 10
71.5504804523577
 20
157.1012477298183
 30
0.0
 10
71.16792061951999
 20
157.6282733007345
 30
0.0
 10
70.6875616943273
 20
158.0677400384735
 30
0.0
 10
70.13243503331395
 20
158.40825215495
 30
0.0
 10
69.52047770588923
 20
158.6304288115442
 30
0.0
 10
68.87725036050485
 20
158.7326289660086
 30
0.0
 10
68.22703452350379
 20
158.7035366786304
 30
0.0
 10
67.59297938783882
 20
158.5524421502035
 30
0.0
 10
67.00593106328604
 20
158.2743583032238
 30
0.0
 10
66.52413346020884
 20
157.9396562004089
 30
0.0
 10
66.28657390192491
 20
157.6621503276021
 30
0.0
 10
66.18957647407011
 20
157.5488425067285
 30
0.0
  0
SPLINE
  5
158
330
1F
100
AcDbEntity
  8
0
  6
Continuous
 62
     7
370
    15
100
AcDbSpline
210
0.0
220
0.0
230
1.0
 70
     8
 71
     3
 72
    11
 73
     7
 74
     0
 42
0.00000001
 43
0.00000001
 12
1.0
 22
0.0
 32
0.0
 13
1.0
 23
0.0
 33
0.0
 40
0.0
 40
0.0
 40
0.0
 40
0.0
 40
0.0320488971099303
 40
0.3547892585056339
 40
0.6774641062365931
 40
1.0
 40
1.0
 40
1.0
 40
1.0
 10
66.18957647407015
 20
153.2691802016953
 30
0.0
 10
66.20205929649994
 20
153.2517523069397
 30
0.0
 10
66.3402472440831
 20
153.0588211793431
 30
0.0
 10
66.69862255516964
 20
152.7695841423568
 30
0.0
 10
67.24376778002677
 20
152.4157156355498
 30
0.0
 10
67.6573104637016
 20
152.2854475942814
 30
0.0
 10
67.86403727481985
 20
152.2203276010495
 30
0.0
  0
SPLINE
  5
159
330
1F
100
AcDbEntity
  8
0
  6
Continuous
 62
     7
370
    15
100
AcDbSpline
210
0.0
220
0.0
230
1.0
 70
     8
 71
     3
 72
    24
 73
    20
 74
     0
 42
0.00000001
 43
0.00000001
 12
1.0
 22
0.0
 32
0.0
 13
1.0
 23
0.0
 33
0.0
 40
0.0
 40
0.0
 40
0.0
 40
0.0
 40
0.054957109822269
 40
0.1163791755336715
 40
0.1778776948470673
 40
0.239319818914836
 40
0.300741884626902
 40
0.3622404039397912
 40
0.4236825280073988
 40
0.4851045937188173
 40
0.5466031130323106
 40
0.6080452370999666
 40
0.6694673028120138
 40
0.7309658221248659
 40
0.792407946192529
 40
0.8538300119040263
 40
0.9153285312171112
 40
0.9767706552850932
 40
1.0
 40
1.0
 40
1.0
 40
1.0
 10
39.27744099439302
 20
162.5730280158118
 30
0.0
 10
39.23640737396298
 20
163.0201606751021
 30
0.0
 10
39.14951308621291
 20
163.9670250646356
 30
0.0
 10
39.2582136515022
 20
165.4209163360078
 30
0.0
 10
39.54864503537977
 20
166.9001366265687
 30
0.0
 10
40.03481781245596
 20
168.3286821736986
 30
0.0
 10
40.70154356210099
 20
169.6817539715805
 30
0.0
 10
41.53970202195621
 20
170.9361606419728
 30
0.0
 10
42.53454029955103
 20
172.0702010639359
 30
0.0
 10
43.66858301643099
 20
173.065055556117
 30
0.0
 10
44.92290707105374
 20
173.9032440667512
 30
0.0
 10
46.27602189856645
 20
174.570259812314
 30
0.0
 10
47.70442659599545
 20
175.0553604011401
 30
0.0
 10
49.18412018925422
 20
175.3499126051038
 30
0.0
 10
50.68916624690159
 20
175.4476823326431
 30
0.0
 10
52.19569123865129
 20
175.3516852349092
 30
0.0
 10
53.67094652907566
 20
175.0483910282506
 30
0.0
 10
54.81641360005189
 20
174.6904810957025
 30
0.0
 10
55.43164463623102
 20
174.3750991903519
 30
0.0
 10
55.60043128921043
 20
174.2885751805345
 30
0.0
  0
DIMENSION
  5
15A
330
1F
100
AcDbEntity
  8
0
  6
Continuous
 62
     7
370
     0
100
AcDbDimension
  2
_D
 10
54.6895764741
 20
227.3047478591
 30
0.0
 11
50.7184562729
 21
227.3047478591
 31
0.0
 70
   160
  1
<>
 71
     2
 42
-1.0
  3
SLDDIMSTYLE0
100
AcDbAlignedDimension
 13
46.6895764709
 23
222.6153995885
 33
0.0
 14
54.6895764741
 24
222.6153995927
 34
0.0
100
AcDbRotatedDimension
  0
DIMENSION
  5
167
330
1F
100
AcDbEntity
  8
0
  6
Continuous
 62
     7
370
     0
100
AcDbDimension
  2
_D_1
 10
61.646249768
 20
234.8102854629
 30
0.0
 11
50.7184562729
 21
234.8102854629
 31
0.0
 70
   160
  1
(<>)
 71
     2
 42
-1.0
  3
SLDDIMSTYLE1
100
AcDbAlignedDimension
 13
39.7329031802
 23
211.6203255867
 33
0.0
 14
61.646249768
 24
211.6203255867
 34
0.0
 50
0.0
100
AcDbRotatedDimension
  0
DIMENSION
  5
174
330
1F
100
AcDbEntity
  8
0
  6
Continuous
 62
     7
370
     0
100
AcDbDimension
  2
_D_2
 10
24.9879987468
 20
144.9153995927
 30
0.0
 11
24.9879987468
 21
168.9153995927
 31
0.0
 70
   160
  1
<>
 71
     2
 42
-1.0
  3
SLDDIMSTYLE2
100
AcDbAlignedDimension
 13
42.5895764741
 23
192.9153995927
 33
0.0
 14
29.6895764741
 24
144.9153995927
 34
0.0
 50
90.0
100
AcDbRotatedDimension
  0
DIMENSION
  5
17F
330
1F
100
AcDbEntity
  8
0
  6
Continuous
 62
     7
370
     0
100
AcDbDimension
  2
_D_3
 10
73.1895764741
 20
136.5563547228
 30
0.0
 11
50.6895764741
 21
136.5563547228
 31
0.0
 70
   160
  1
<>
 71
     2
 42
-1.0
  3
SLDDIMSTYLE2
100
AcDbAlignedDimension
 13
28.1895764741
 23
145.4153995927
 33
0.0
 14
73.1895764741
 24
145.4153995927
 34
0.0
 50
0.0
100
AcDbRotatedDimension
  0
DIMENSION
  5
189
330
1F
100
AcDbEntity
  8
0
  6
Continuous
 62
     7
370
     0
100
AcDbDimension
  2
_D_4
 10
79.0203507964
 20
185.9153995927
 30
0.0
 11
79.0203507964
 21
165.4153995927
 31
0.0
 70
   160
  1
<>
 71
     2
 42
-1.0
  3
SLDDIMSTYLE2
100
AcDbAlignedDimension
 13
72.6895764741
 23
144.9153995927
 33
0.0
 14
68.6895764741
 24
185.9153995927
 34
0.0
 50
90.0
100
AcDbRotatedDimension
  0
DIMENSION
  5
193
330
1F
100
AcDbEntity
  8
0
  6
Continuous
 62
     7
370
     0
100
AcDbDimension
  2
_D_5
 10
85.4333378728
 20
197.1153995927
 30
0.0
 11
85.4333378728
 21
171.0153995927
 31
0.0
 70
   160
  1
<>
 71
     2
 42
-1.0
  3
SLDDIMSTYLE1
100
AcDbAlignedDimension
 13
71.6895764741
 23
144.9153995927
 33
0.0
 14
60.6895764741
 24
197.1153995927
 34
0.0
 50
90.0
100
AcDbRotatedDimension
  0
DIMENSION
  5
19D
330
1F
100
AcDbEntity
  8
0
  6
Continuous
 62
     7
370
     0
100
AcDbDimension
  2
_D_6
 10
85.4333378728
 20
222.6153995927
 30
0.0
 11
85.4333378728
 21
211.691754813
 31
0.0
 70
   160
  1
(<>)
 71
     2
 42
-1.0
  3
SLDDIMSTYLE1
100
AcDbAlignedDimension
 13
60.6895764741
 23
197.1153995927
 33
0.0
 14
54.6895764741
 24
222.6153995927
 34
0.0
 50
90.0
100
AcDbRotatedDimension
  0
INSERT
  5
1B4
330
1F
100
AcDbEntity
  8
0
  6
Continuous
 62
     7
370
     0
100
AcDbBlockReference
  2
SW_CENTERMARKSYMBOL_0
 10
32.6895764741
 20
181.4153995927
 30
0.0
  0
INSERT
  5
1C0
330
1F
100
AcDbEntity
  8
0
  6
Continuous
 62
     7
370
     0
100
AcDbBlockReference
  2
SW_CENTERMARKSYMBOL_1
 10
50.6573518501
 20
179.9153671417
 30
0.0
  0
INSERT
  5
1CC
330
1F
100
AcDbEntity
  8
0
  6
Continuous
 62
     7
370
     0
100
AcDbBlockReference
  2
SW_CENTERMARKSYMBOL_2
 10
68.6895764741
 20
181.4153995927
 30
0.0
  0
INSERT
  5
1D8
330
1F
100
AcDbEntity
  8
0
  6
Continuous
 62
     7
370
     0
100
AcDbBlockReference
  2
SW_CENTERMARKSYMBOL_3
 10
50.6895764741
 20
163.9153995927
 30
0.0
  0
INSERT
  5
1E4
330
1F
100
AcDbEntity
  8
0
  6
Continuous
 62
     7
370
     0
100
AcDbBlockReference
  2
SW_CENTERMARKSYMBOL_4
 10
59.5895764741
 20
163.9153995927
 30
0.0
  0
INSERT
  5
1F0
330
1F
100
AcDbEntity
  8
0
  6
Continuous
 62
     7
370
     0
100
AcDbBlockReference
  2
SW_CENTERMARKSYMBOL_5
 10
68.6895764741
 20
155.4153995927
 30
0.0
  0
INSERT
  5
1FC
330
1F
100
AcDbEntity
  8
0
  6
Continuous
 62
     7
370
     0
100
AcDbBlockReference
  2
SW_CENTERMARKSYMBOL_6
 10
32.6895764741
 20
155.4153995927
 30
0.0
  0
INSERT
  5
208
330
1F
100
AcDbEntity
  8
0
  6
Continuous
 62
     7
370
     0
100
AcDbBlockReference
  2
SW_CENTERMARKSYMBOL_7
 10
50.6895764741
 20
192.9153995927
 30
0.0
  0
LINE
  5
209
330
1F
100
AcDbEntity
  8
0
  6
Continuous
 62
     7
370
    15
100
AcDbLine
 10
120.4936315413
 20
165.9153995931
 30
0.0
 11
119.6936315413
 21
165.9153995931
 31
0.0
  0
LINE
  5
20A
330
1F
100
AcDbEntity
  8
0
  6
Continuous
 62
     7
370
    15
100
AcDbLine
 10
119.6936315413
 20
161.9153995923
 30
0.0
 11
120.4936315413
 21
161.9153995923
 31
0.0
  0
LINE
  5
20B
330
1F
100
AcDbEntity
  8
0
  6
Continuous
 62
     7
370
    15
100
AcDbLine
 10
120.3936315413
 20
176.0653671417
 30
0.0
 11
121.8936315413
 21
176.0653671417
 31
0.0
  0
LINE
  5
20C
330
1F
100
AcDbEntity
  8
0
  6
Continuous
 62
     7
370
    15
100
AcDbLine
 10
121.8936315413
 20
183.7653671417
 30
0.0
 11
120.3936315413
 21
183.7653671417
 31
0.0
  0
LINE
  5
20D
330
1F
100
AcDbEntity
  8
0
  6
Continuous
 62
     7
370
    15
100
AcDbLine
 10
122.7936315413
 20
181.9653671417
 30
0.0
 11
121.8936315413
 21
181.9653671417
 31
0.0
  0
LINE
  5
20E
330
1F
100
AcDbEntity
  8
0
  6
Continuous
 62
     7
370
    15
100
AcDbLine
 10
121.8936315413
 20
177.8653671417
 30
0.0
 11
122.7936315413
 21
177.8653671417
 31
0.0
  0
LINE
  5
20F
330
1F
100
AcDbEntity
  8
0
  6
Continuous
 62
     7
370
    15
100
AcDbLine
 10
122.7936315413
 20
175.9153671417
 30
0.0
 11
134.9936315413
 21
175.9153671417
 31
0.0
  0
LINE
  5
210
330
1F
100
AcDbEntity
  8
0
  6
Continuous
 62
     7
370
    15
100
AcDbLine
 10
134.9936315413
 20
183.9153671417
 30
0.0
 11
122.7936315413
 21
183.9153671417
 31
0.0
  0
LINE
  5
211
330
1F
100
AcDbEntity
  8
0
  6
Continuous
 62
     7
370
    15
100
AcDbLine
 10
99.3936315413
 20
160.0653995927
 30
0.0
 11
100.8936315413
 21
160.0653995927
 31
0.0
  0
LINE
  5
212
330
1F
100
AcDbEntity
  8
0
  6
Continuous
 62
     7
370
    15
100
AcDbLine
 10
100.8936315413
 20
167.7653995927
 30
0.0
 11
99.3936315413
 21
167.7653995927
 31
0.0
  0
LINE
  5
213
330
1F
100
AcDbEntity
  8
0
  6
Continuous
 62
     7
370
    15
100
AcDbLine
 10
101.7936315413
 20
165.9653995927
 30
0.0
 11
100.8936315413
 21
165.9653995927
 31
0.0
  0
LINE
  5
214
330
1F
100
AcDbEntity
  8
0
  6
Continuous
 62
     7
370
    15
100
AcDbLine
 10
100.8936315413
 20
161.8653995927
 30
0.0
 11
101.7936315413
 21
161.8653995927
 31
0.0
  0
LINE
  5
215
330
1F
100
AcDbEntity
  8
0
  6
Continuous
 62
     7
370
    15
100
AcDbLine
 10
101.7936315413
 20
159.9153995927
 30
0.0
 11
113.9936315413
 21
159.9153995927
 31
0.0
  0
LINE
  5
216
330
1F
100
AcDbEntity
  8
0
  6
Continuous
 62
     7
370
    15
100
AcDbLine
 10
113.9936315413
 20
167.9153995927
 30
0.0
 11
101.7936315413
 21
167.9153995927
 31
0.0
  0
LINE
  5
217
330
1F
100
AcDbEntity
  8
0
  6
Continuous
 62
     7
370
    15
100
AcDbLine
 10
110.7936315413
 20
160.4153995926
 30
0.0
 11
110.8343880742
 21
160.344807207
 31
0.0
  0
LINE
  5
218
330
1F
100
AcDbEntity
  8
0
  6
Continuous
 62
     7
370
    15
100
AcDbLine
 10
110.8344038352
 20
167.4860192773
 30
0.0
 11
110.7936315413
 21
167.4153995929
 31
0.0
  0
LINE
  5
219
330
1F
100
AcDbEntity
  8
0
  6
Continuous
 62
     7
370
    15
100
AcDbLine
 10
109.9187981463
 20
161.9153995926
 30
0.0
 11
110.7936315413
 21
161.9153995926
 31
0.0
  0
LINE
  5
21A
330
1F
100
AcDbEntity
  8
0
  6
Continuous
 62
     7
370
    15
100
AcDbLine
 10
116.4936315413
 20
161.9153995926
 30
0.0
 11
118.9436315413
 21
161.9153995926
 31
0.0
  0
LINE
  5
21B
330
1F
100
AcDbEntity
  8
0
  6
Continuous
 62
     7
370
    15
100
AcDbLine
 10
118.9436315413
 20
165.9153995928
 30
0.0
 11
116.4936315413
 21
165.9153995928
 31
0.0
  0
LINE
  5
21C
330
1F
100
AcDbEntity
  8
0
  6
Continuous
 62
     7
370
    15
100
AcDbLine
 10
110.7936315413
 20
165.9153995928
 30
0.0
 11
109.9187981463
 21
165.9153995928
 31
0.0
  0
LINE
  5
21D
330
1F
100
AcDbEntity
  8
0
  6
Continuous
 62
     7
370
    15
100
AcDbLine
 10
118.9436315413
 20
161.9153995926
 30
0.0
 11
119.6936315413
 21
162.6653995928
 31
0.0
  0
LINE
  5
21E
330
1F
100
AcDbEntity
  8
0
  6
Continuous
 62
     7
370
    15
100
AcDbLine
 10
119.6936315413
 20
165.1653995925
 30
0.0
 11
118.9436315413
 21
165.9153995928
 31
0.0
  0
LINE
  5
21F
330
1F
100
AcDbEntity
  8
0
  6
Continuous
 62
     7
370
    15
100
AcDbLine
 10
109.9187981463
 20
165.9153995928
 30
0.0
 11
109.6936315413
 21
165.5253995931
 31
0.0
  0
LINE
  5
220
330
1F
100
AcDbEntity
  8
0
  6
Continuous
 62
     7
370
    15
100
AcDbLine
 10
109.6936315413
 20
162.3053995923
 30
0.0
 11
109.9187981463
 21
161.9153995926
 31
0.0
  0
LINE
  5
221
330
1F
100
AcDbEntity
  8
0
  6
Continuous
 62
     7
370
    15
100
AcDbLine
 10
161.293631541
 20
150.1153995927
 30
0.0
 11
161.4936315415
 21
149.9153995928
 31
0.0
  0
LINE
  5
222
330
1F
100
AcDbEntity
  8
0
  6
Continuous
 62
     7
370
    15
100
AcDbLine
 10
177.0936315412
 20
149.9153995928
 30
0.0
 11
177.2936315417
 21
150.1153995927
 31
0.0
  0
LINE
  5
223
330
1F
100
AcDbEntity
  8
0
  6
Continuous
 62
     7
370
    15
100
AcDbLine
 10
161.293631541
 20
150.7153995929
 30
0.0
 11
161.293631541
 21
150.1153995927
 31
0.0
  0
LINE
  5
224
330
1F
100
AcDbEntity
  8
0
  6
Continuous
 62
     7
370
    15
100
AcDbLine
 10
177.2936315417
 20
150.1153995927
 30
0.0
 11
177.2936315417
 21
150.7153995929
 31
0.0
  0
LINE
  5
225
330
1F
100
AcDbEntity
  8
0
  6
Continuous
 62
     7
370
    15
100
AcDbLine
 10
177.2936315416
 20
150.7153995929
 30
0.0
 11
177.0936315413
 21
150.9153995926
 31
0.0
  0
LINE
  5
226
330
1F
100
AcDbEntity
  8
0
  6
Continuous
 62
     7
370
    15
100
AcDbLine
 10
161.4936315414
 20
150.9153995926
 30
0.0
 11
161.2936315411
 21
150.7153995929
 31
0.0
  0
LINE
  5
227
330
1F
100
AcDbEntity
  8
0
  6
Continuous
 62
     7
370
    15
100
AcDbLine
 10
165.2936315417
 20
149.9153995927
 30
0.0
 11
165.2936315417
 21
149.4153995927
 31
0.0
  0
LINE
  5
228
330
1F
100
AcDbEntity
  8
0
  6
Continuous
 62
     7
370
    15
100
AcDbLine
 10
173.293631541
 20
147.4153995927
 30
0.0
 11
173.293631541
 21
149.9153995927
 31
0.0
  0
LINE
  5
229
330
1F
100
AcDbEntity
  8
0
  6
Continuous
 62
     7
370
    15
100
AcDbLine
 10
173.0936315413
 20
147.2153995927
 30
0.0
 11
173.293631541
 21
147.4153995927
 31
0.0
  0
LINE
  5
22A
330
1F
100
AcDbEntity
  8
0
  6
Continuous
 62
     7
370
    15
100
AcDbLine
 10
167.293631541
 20
146.9153995927
 30
0.0
 11
167.293631541
 21
146.6153995927
 31
0.0
  0
LINE
  5
22B
330
1F
100
AcDbEntity
  8
0
  6
Continuous
 62
     7
370
    15
100
AcDbLine
 10
167.293631541
 20
145.4153995927
 30
0.0
 11
167.293631541
 21
145.3153995927
 31
0.0
  0
LINE
  5
22C
330
1F
100
AcDbEntity
  8
0
  6
Continuous
 62
     7
370
    15
100
AcDbLine
 10
171.2936315417
 20
145.3153995927
 30
0.0
 11
171.2936315417
 21
145.4153995927
 31
0.0
  0
LINE
  5
22D
330
1F
100
AcDbEntity
  8
0
  6
Continuous
 62
     7
370
    15
100
AcDbLine
 10
171.2936315417
 20
146.6153995927
 30
0.0
 11
171.2936315417
 21
146.9153995927
 31
0.0
  0
ARC
  5
22E
330
1F
100
AcDbEntity
  8
0
  6
Continuous
 62
     7
370
    15
100
AcDbCircle
 10
135.1936315418
 20
178.1153995925
 30
0.0
 40
0.1999999999999886
100
AcDbArc
 50
180.0
 51
269.9999998749
  0
ARC
  5
22F
330
1F
100
AcDbEntity
  8
0
  6
Continuous
 62
     7
370
    15
100
AcDbCircle
 10
135.1936315418
 20
184.7153995929
 30
0.0
 40
0.1999999999999886
100
AcDbArc
 50
90.0000001251
 51
180.0
  0
LINE
  5
230
330
1F
100
AcDbEntity
  8
0
  6
Continuous
 62
     7
370
    15
100
AcDbLine
 10
135.1936315413
 20
177.9153995929
 30
0.0
 11
138.9936315413
 21
177.9153995929
 31
0.0
  0
LINE
  5
231
330
1F
100
AcDbEntity
  8
0
  6
Continuous
 62
     7
370
    15
100
AcDbLine
 10
138.9936315413
 20
184.9153995925
 30
0.0
 11
135.1936315413
 21
184.9153995925
 31
0.0
  0
ARC
  5
232
330
1F
100
AcDbEntity
  8
0
  6
Continuous
 62
     7
370
    15
100
AcDbCircle
 10
135.1936315418
 20
152.1153995925
 30
0.0
 40
0.1999999999999886
100
AcDbArc
 50
180.0
 51
269.9999998748
  0
ARC
  5
233
330
1F
100
AcDbEntity
  8
0
  6
Continuous
 62
     7
370
    15
100
AcDbCircle
 10
135.1936315418
 20
158.7153995929
 30
0.0
 40
0.2000000000000171
100
AcDbArc
 50
90.0000001252
 51
180.0
  0
LINE
  5
234
330
1F
100
AcDbEntity
  8
0
  6
Continuous
 62
     7
370
    15
100
AcDbLine
 10
135.1936315413
 20
151.9153995929
 30
0.0
 11
138.9936315413
 21
151.9153995929
 31
0.0
  0
LINE
  5
235
330
1F
100
AcDbEntity
  8
0
  6
Continuous
 62
     7
370
    15
100
AcDbLine
 10
138.9936315413
 20
158.9153995925
 30
0.0
 11
135.1936315413
 21
158.9153995925
 31
0.0
  0
LINE
  5
236
330
1F
100
AcDbEntity
  8
0
  6
Continuous
 62
     7
370
    15
100
AcDbLine
 10
134.9936315413
 20
160.1462993257
 30
0.0
 11
138.9936315413
 21
160.1462993257
 31
0.0
  0
LINE
  5
237
330
1F
100
AcDbEntity
  8
0
  6
Continuous
 62
     7
370
    15
100
AcDbLine
 10
138.9936315413
 20
176.6844998597
 30
0.0
 11
134.9936315413
 21
176.6844998597
 31
0.0
  0
ARC
  5
238
330
1F
100
AcDbEntity
  8
0
  6
Continuous
 62
     7
370
    15
100
AcDbCircle
 10
133.9936315412
 20
152.4153995926
 30
0.0
 40
1.0
100
AcDbArc
 50
0.0
 51
90.0
  0
ARC
  5
239
330
1F
100
AcDbEntity
  8
0
  6
Continuous
 62
     7
370
    15
100
AcDbCircle
 10
133.9936315412
 20
175.4153995928
 30
0.0
 40
1.0
100
AcDbArc
 50
270.0
 51
0.0
  0
LINE
  5
23A
330
1F
100
AcDbEntity
  8
0
  6
Continuous
 62
     7
370
    15
100
AcDbLine
 10
133.9936315412
 20
174.4153995927
 30
0.0
 11
120.4936315413
 21
174.4153995927
 31
0.0
  0
LINE
  5
23B
330
1F
100
AcDbEntity
  8
0
  6
Continuous
 62
     7
370
    15
100
AcDbLine
 10
120.4936315413
 20
153.4153995927
 30
0.0
 11
133.9936315412
 21
153.4153995927
 31
0.0
  0
ARC
  5
23C
330
1F
100
AcDbEntity
  8
0
  6
Continuous
 62
     7
370
    15
100
AcDbCircle
 10
181.0436315412
 20
177.8653995926
 30
0.0
 40
0.25
100
AcDbArc
 50
270.0000000223
 51
0.0
  0
ARC
  5
23D
330
1F
100
AcDbEntity
  8
0
  6
Continuous
 62
     7
370
    15
100
AcDbCircle
 10
181.0436315412
 20
184.9653995928
 30
0.0
 40
0.25
100
AcDbArc
 50
0.0
 51
89.9999999777
  0
ARC
  5
23E
330
1F
100
AcDbEntity
  8
0
  6
Continuous
 62
     7
370
    15
100
AcDbCircle
 10
181.0436315412
 20
151.8653995926
 30
0.0
 40
0.25
100
AcDbArc
 50
270.0000000224
 51
0.0
  0
ARC
  5
23F
330
1F
100
AcDbEntity
  8
0
  6
Continuous
 62
     7
370
    15
100
AcDbCircle
 10
181.0436315412
 20
158.9653995928
 30
0.0
 40
0.25
100
AcDbArc
 50
0.0
 51
89.9999999776
  0
ARC
  5
240
330
1F
100
AcDbEntity
  8
0
  6
Continuous
 62
     7
370
    15
100
AcDbCircle
 10
180.5436315413
 20
151.8653995927
 30
0.0
 40
0.2500000000000284
100
AcDbArc
 50
180.0
 51
270.0000000011
  0
ARC
  5
241
330
1F
100
AcDbEntity
  8
0
  6
Continuous
 62
     7
370
    15
100
AcDbCircle
 10
180.5436315413
 20
158.9653995927
 30
0.0
 40
0.2500000000000284
100
AcDbArc
 50
89.9999999989
 51
180.0
  0
ARC
  5
242
330
1F
100
AcDbEntity
  8
0
  6
Continuous
 62
     7
370
    15
100
AcDbCircle
 10
180.5436315413
 20
177.8653995927
 30
0.0
 40
0.25
100
AcDbArc
 50
180.0
 51
270.0000000006
  0
ARC
  5
243
330
1F
100
AcDbEntity
  8
0
  6
Continuous
 62
     7
370
    15
100
AcDbCircle
 10
180.5436315413
 20
184.9653995927
 30
0.0
 40
0.25
100
AcDbArc
 50
89.9999999994
 51
180.0
  0
LINE
  5
244
330
1F
100
AcDbEntity
  8
0
  6
Continuous
 62
     7
370
    15
100
AcDbLine
 10
180.5436315413
 20
151.6153995927
 30
0.0
 11
181.0436315413
 21
151.6153995927
 31
0.0
  0
LINE
  5
245
330
1F
100
AcDbEntity
  8
0
  6
Continuous
 62
     7
370
    15
100
AcDbLine
 10
181.0436315413
 20
159.2153995927
 30
0.0
 11
180.5436315413
 21
159.2153995927
 31
0.0
  0
LINE
  5
246
330
1F
100
AcDbEntity
  8
0
  6
Continuous
 62
     7
370
    15
100
AcDbLine
 10
180.5436315413
 20
177.6153995927
 30
0.0
 11
181.0436315413
 21
177.6153995927
 31
0.0
  0
LINE
  5
247
330
1F
100
AcDbEntity
  8
0
  6
Continuous
 62
     7
370
    15
100
AcDbLine
 10
181.0436315413
 20
185.2153995927
 30
0.0
 11
180.5436315413
 21
185.2153995927
 31
0.0
  0
LINE
  5
248
330
1F
100
AcDbEntity
  8
0
  6
Continuous
 62
     7
370
    15
100
AcDbLine
 10
184.9936315413
 20
158.9153995927
 30
0.0
 11
181.2936315413
 21
158.9153995927
 31
0.0
  0
LINE
  5
249
330
1F
100
AcDbEntity
  8
0
  6
Continuous
 62
     7
370
    15
100
AcDbLine
 10
181.2936315413
 20
151.9153995927
 30
0.0
 11
184.9936315413
 21
151.9153995927
 31
0.0
  0
LINE
  5
24A
330
1F
100
AcDbEntity
  8
0
  6
Continuous
 62
     7
370
    15
100
AcDbLine
 10
184.9936315413
 20
184.9153995927
 30
0.0
 11
181.2936315413
 21
184.9153995927
 31
0.0
  0
LINE
  5
24B
330
1F
100
AcDbEntity
  8
0
  6
Continuous
 62
     7
370
    15
100
AcDbLine
 10
181.2936315413
 20
177.9153995927
 30
0.0
 11
184.9936315413
 21
177.9153995927
 31
0.0
  0
LINE
  5
24C
330
1F
100
AcDbEntity
  8
0
  6
Continuous
 62
     7
370
    15
100
AcDbLine
 10
184.9936315413
 20
151.9153995927
 30
0.0
 11
185.2986325412
 21
152.4237345925
 31
0.0
  0
LINE
  5
24D
330
1F
100
AcDbEntity
  8
0
  6
Continuous
 62
     7
370
    15
100
AcDbLine
 10
185.2986325412
 20
158.4070645929
 30
0.0
 11
184.9936315413
 21
158.9153995927
 31
0.0
  0
LINE
  5
24E
330
1F
100
AcDbEntity
  8
0
  6
Continuous
 62
     7
370
    15
100
AcDbLine
 10
184.9936315413
 20
177.9153995927
 30
0.0
 11
185.2986325412
 21
178.4237345925
 31
0.0
  0
LINE
  5
24F
330
1F
100
AcDbEntity
  8
0
  6
Continuous
 62
     7
370
    15
100
AcDbLine
 10
185.2986325412
 20
184.4070645929
 30
0.0
 11
184.9936315413
 21
184.9153995927
 31
0.0
  0
LINE
  5
250
330
1F
100
AcDbEntity
  8
0
  6
Continuous
 62
   144
370
     0
100
AcDbLine
 10
119.6936315413
 20
165.9153995931
 30
0.0
 11
119.6936315413
 21
161.9153995923
 31
0.0
  0
LINE
  5
251
330
1F
100
AcDbEntity
  8
0
  6
Continuous
 62
   144
370
     0
100
AcDbLine
 10
143.9936315413
 20
181.4153995927
 30
0.0
 11
144.4936315413
 21
181.4153995927
 31
0.0
  0
LINE
  5
252
330
1F
100
AcDbEntity
  8
0
  6
Continuous
 62
   144
370
     0
100
AcDbLine
 10
144.4936315413
 20
185.4153995927
 30
0.0
 11
143.9936315413
 21
185.4153995927
 31
0.0
  0
LINE
  5
253
330
1F
100
AcDbEntity
  8
0
  6
Continuous
 62
     7
370
    15
100
AcDbLine
 10
121.8936315413
 20
183.7653671417
 30
0.0
 11
121.8936315413
 21
176.0653671417
 31
0.0
  0
LINE
  5
254
330
1F
100
AcDbEntity
  8
0
  6
Continuous
 62
     7
370
    15
100
AcDbLine
 10
120.3936315413
 20
183.7653671417
 30
0.0
 11
120.3936315413
 21
176.0653671417
 31
0.0
  0
LINE
  5
255
330
1F
100
AcDbEntity
  8
0
  6
Continuous
 62
     7
370
    15
100
AcDbLine
 10
122.7936315413
 20
175.9153671417
 30
0.0
 11
122.7936315413
 21
183.9153671417
 31
0.0
  0
LINE
  5
256
330
1F
100
AcDbEntity
  8
0
  6
Continuous
 62
     7
370
    15
100
AcDbLine
 10
100.8936315413
 20
167.7653995927
 30
0.0
 11
100.8936315413
 21
160.0653995927
 31
0.0
  0
LINE
  5
257
330
1F
100
AcDbEntity
  8
0
  6
Continuous
 62
     7
370
    15
100
AcDbLine
 10
99.3936315413
 20
167.7653995927
 30
0.0
 11
99.3936315413
 21
160.0653995927
 31
0.0
  0
LINE
  5
258
330
1F
100
AcDbEntity
  8
0
  6
Continuous
 62
     7
370
    15
100
AcDbLine
 10
101.7936315413
 20
159.9153995927
 30
0.0
 11
101.7936315413
 21
167.9153995927
 31
0.0
  0
LINE
  5
259
330
1F
100
AcDbEntity
  8
0
  6
Continuous
 62
     7
370
    15
100
AcDbLine
 10
172.9936315413
 20
149.4153995927
 30
0.0
 11
172.9936315413
 21
146.9153995927
 31
0.0
  0
LINE
  5
25A
330
1F
100
AcDbEntity
  8
0
  6
Continuous
 62
     7
370
    15
100
AcDbLine
 10
171.9936315413
 20
146.9153995927
 30
0.0
 11
172.9936315413
 21
146.9153995927
 31
0.0
  0
LINE
  5
25B
330
1F
100
AcDbEntity
  8
0
  6
Continuous
 62
     7
370
    15
100
AcDbLine
 10
171.9936315413
 20
146.9153995927
 30
0.0
 11
171.9936315413
 21
149.4153995927
 31
0.0
  0
LINE
  5
25C
330
1F
100
AcDbEntity
  8
0
  6
Continuous
 62
     7
370
    15
100
AcDbLine
 10
171.9936315413
 20
149.4153995927
 30
0.0
 11
172.9936315413
 21
149.4153995927
 31
0.0
  0
LINE
  5
25D
330
1F
100
AcDbEntity
  8
0
  6
Continuous
 62
     7
370
    15
100
AcDbLine
 10
131.1936315413
 20
146.9153995927
 30
0.0
 11
116.4936315413
 21
146.9153995927
 31
0.0
  0
LINE
  5
25E
330
1F
100
AcDbEntity
  8
0
  6
Continuous
 62
     7
370
    15
100
AcDbLine
 10
171.9936315413
 20
146.9153995927
 30
0.0
 11
131.1936315413
 21
146.9153995927
 31
0.0
  0
LINE
  5
25F
330
1F
100
AcDbEntity
  8
0
  6
Continuous
 62
     7
370
    15
100
AcDbLine
 10
131.1936315413
 20
146.9153995927
 30
0.0
 11
131.1936315413
 21
149.4153995927
 31
0.0
  0
LINE
  5
260
330
1F
100
AcDbEntity
  8
0
  6
Continuous
 62
     7
370
    15
100
AcDbLine
 10
171.9936315413
 20
149.4153995927
 30
0.0
 11
131.1936315413
 21
149.4153995927
 31
0.0
  0
LINE
  5
261
330
1F
100
AcDbEntity
  8
0
  6
Continuous
 62
     7
370
    15
100
AcDbLine
 10
131.1936315413
 20
149.4153995927
 30
0.0
 11
117.4936315413
 21
149.4153995927
 31
0.0
  0
ARC
  5
262
330
1F
100
AcDbEntity
  8
0
  6
Continuous
 62
     7
370
    15
100
AcDbCircle
 10
117.4936315413
 20
150.4153995927
 30
0.0
 40
1.0
100
AcDbArc
 50
180.0
 51
270.0
  0
LINE
  5
263
330
1F
100
AcDbEntity
  8
0
  6
Continuous
 62
     7
370
    15
100
AcDbLine
 10
116.4936315413
 20
150.4153995927
 30
0.0
 11
116.4936315413
 21
146.9153995927
 31
0.0
  0
LINE
  5
264
330
1F
100
AcDbEntity
  8
0
  6
Continuous
 62
     7
370
    15
100
AcDbLine
 10
160.4936315413
 20
144.9153995927
 30
0.0
 11
160.4936315413
 21
146.9153995927
 31
0.0
  0
LINE
  5
265
330
1F
100
AcDbEntity
  8
0
  6
Continuous
 62
     7
370
    15
100
AcDbLine
 10
160.4936315413
 20
144.9153995927
 30
0.0
 11
159.4936315413
 21
144.9153995927
 31
0.0
  0
LINE
  5
266
330
1F
100
AcDbEntity
  8
0
  6
Continuous
 62
     7
370
    15
100
AcDbLine
 10
159.4936315413
 20
144.9153995927
 30
0.0
 11
159.4936315413
 21
146.9153995927
 31
0.0
  0
LINE
  5
267
330
1F
100
AcDbEntity
  8
0
  6
Continuous
 62
     7
370
    15
100
AcDbLine
 10
131.4936315413
 20
144.9153995927
 30
0.0
 11
130.4936315413
 21
144.9153995927
 31
0.0
  0
LINE
  5
268
330
1F
100
AcDbEntity
  8
0
  6
Continuous
 62
     7
370
    15
100
AcDbLine
 10
131.4936315413
 20
144.9153995927
 30
0.0
 11
159.4936315413
 21
144.9153995927
 31
0.0
  0
LINE
  5
269
330
1F
100
AcDbEntity
  8
0
  6
Continuous
 62
     7
370
    15
100
AcDbLine
 10
131.4936315413
 20
144.9153995927
 30
0.0
 11
131.4936315413
 21
146.9153995927
 31
0.0
  0
LINE
  5
26A
330
1F
100
AcDbEntity
  8
0
  6
Continuous
 62
     7
370
    15
100
AcDbLine
 10
130.4936315413
 20
146.9153995927
 30
0.0
 11
130.4936315413
 21
144.9153995927
 31
0.0
  0
ARC
  5
26B
330
1F
100
AcDbEntity
  8
0
  6
Continuous
 62
     7
370
    15
100
AcDbCircle
 10
116.4936315413
 20
149.4153995927
 30
0.0
 40
2.5
100
AcDbArc
 50
180.0
 51
270.0
  0
LINE
  5
26C
330
1F
100
AcDbEntity
  8
0
  6
Continuous
 62
     7
370
    15
100
AcDbLine
 10
113.9936315413
 20
149.4153995927
 30
0.0
 11
113.9936315413
 21
162.4153995927
 31
0.0
  0
LINE
  5
26D
330
1F
100
AcDbEntity
  8
0
  6
Continuous
 62
     7
370
    15
100
AcDbLine
 10
116.4936315413
 20
162.4153995927
 30
0.0
 11
113.9936315413
 21
162.4153995927
 31
0.0
  0
LINE
  5
26E
330
1F
100
AcDbEntity
  8
0
  6
Continuous
 62
     7
370
    15
100
AcDbLine
 10
116.4936315413
 20
150.4153995927
 30
0.0
 11
116.4936315413
 21
162.4153995927
 31
0.0
  0
LINE
  5
26F
330
1F
100
AcDbEntity
  8
0
  6
Continuous
 62
     7
370
    15
100
AcDbLine
 10
113.9936315413
 20
162.4153995927
 30
0.0
 11
113.9936315413
 21
174.4153995927
 31
0.0
  0
LINE
  5
270
330
1F
100
AcDbEntity
  8
0
  6
Continuous
 62
     7
370
    15
100
AcDbLine
 10
116.4936315413
 20
162.4153995927
 30
0.0
 11
116.4936315413
 21
174.4153995927
 31
0.0
  0
LINE
  5
271
330
1F
100
AcDbEntity
  8
0
  6
Continuous
 62
     7
370
    15
100
AcDbLine
 10
113.9936315413
 20
174.4153995927
 30
0.0
 11
116.4936315413
 21
174.4153995927
 31
0.0
  0
LINE
  5
272
330
1F
100
AcDbEntity
  8
0
  6
Continuous
 62
     7
370
    15
100
AcDbLine
 10
113.9936315413
 20
160.0883353317
 30
0.0
 11
111.106238933
 21
160.0883353318
 31
0.0
  0
SPLINE
  5
273
330
1F
100
AcDbEntity
  8
0
  6
Continuous
 62
     7
370
    15
100
AcDbSpline
210
0.0
220
0.0
230
1.0
 70
     8
 71
     3
 72
     8
 73
     4
 74
     0
 42
0.00000001
 43
0.00000001
 12
1.0
 22
0.0
 32
0.0
 13
1.0
 23
0.0
 33
0.0
 40
0.0
 40
0.0
 40
0.0
 40
0.0
 40
1.0
 40
1.0
 40
1.0
 40
1.0
 10
111.106238932893
 20
160.0883353317174
 30
0.0
 10
110.915652251705
 20
160.5846779821186
 30
0.0
 10
110.7936315413263
 20
161.0889950484677
 30
0.0
 10
110.7936315413344
 20
161.60750346766
 30
0.0
  0
SPLINE
  5
274
330
1F
100
AcDbEntity
  8
0
  6
Continuous
 62
     7
370
    15
100
AcDbSpline
210
0.0
220
0.0
230
1.0
 70
     8
 71
     3
 72
     8
 73
     4
 74
     0
 42
0.00000001
 43
0.00000001
 12
1.0
 22
0.0
 32
0.0
 13
1.0
 23
0.0
 33
0.0
 40
0.0
 40
0.0
 40
0.0
 40
0.0
 40
1.0
 40
1.0
 40
1.0
 40
1.0
 10
111.1062389329388
 20
163.1266716034581
 30
0.0
 10
110.9156522517374
 20
162.6303289530545
 30
0.0
 10
110.7936315413425
 20
162.1260118868571
 30
0.0
 10
110.7936315413344
 20
161.60750346766
 30
0.0
  0
LINE
  5
275
330
1F
100
AcDbEntity
  8
0
  6
Continuous
 62
     7
370
    15
100
AcDbLine
 10
113.9936315413
 20
163.1266716037
 30
0.0
 11
111.106238933
 21
163.1266716037
 31
0.0
  0
SPLINE
  5
276
330
1F
100
AcDbEntity
  8
0
  6
Continuous
 62
     7
370
    15
100
AcDbSpline
210
0.0
220
0.0
230
1.0
 70
     8
 71
     3
 72
     8
 73
     4
 74
     0
 42
0.00000001
 43
0.00000001
 12
1.0
 22
0.0
 32
0.0
 13
1.0
 23
0.0
 33
0.0
 40
0.0
 40
0.0
 40
0.0
 40
0.0
 40
1.0
 40
1.0
 40
1.0
 40
1.0
 10
111.1062389329388
 20
163.1266716038895
 30
0.0
 10
110.9156522517528
 20
163.7518608680606
 30
0.0
 10
110.7936315413435
 20
164.3870946431503
 30
0.0
 10
110.7936315412759
 20
165.040203733821
 30
0.0
  0
SPLINE
  5
277
330
1F
100
AcDbEntity
  8
0
  6
Continuous
 62
     7
370
    15
100
AcDbSpline
210
0.0
220
0.0
230
1.0
 70
     8
 71
     3
 72
     8
 73
     4
 74
     0
 42
0.00000001
 43
0.00000001
 12
1.0
 22
0.0
 32
0.0
 13
1.0
 23
0.0
 33
0.0
 40
0.0
 40
0.0
 40
0.0
 40
0.0
 40
1.0
 40
1.0
 40
1.0
 40
1.0
 10
110.7936315412759
 20
165.040203733821
 30
0.0
 10
110.7936315412084
 20
165.6933128247073
 30
0.0
 10
110.9156522516882
 20
166.3285466001681
 30
0.0
 10
111.1062389329134
 20
166.9537358645423
 30
0.0
  0
LINE
  5
278
330
1F
100
AcDbEntity
  8
0
  6
Continuous
 62
     7
370
    15
100
AcDbLine
 10
113.9936315413
 20
166.9537358647
 30
0.0
 11
111.1062389329
 21
166.9537358647
 31
0.0
  0
LINE
  5
279
330
1F
100
AcDbEntity
  8
0
  6
Continuous
 62
     7
370
    15
100
AcDbLine
 10
110.7936315413
 20
161.6075034677
 30
0.0
 11
110.7936315413
 21
165.040203734
 31
0.0
  0
LINE
  5
27A
330
1F
100
AcDbEntity
  8
0
  6
Continuous
 62
     7
370
    15
100
AcDbLine
 10
110.7936315413
 20
160.4153995926
 30
0.0
 11
110.7936315413
 21
161.6075034677
 31
0.0
  0
LINE
  5
27B
330
1F
100
AcDbEntity
  8
0
  6
Continuous
 62
     7
370
    15
100
AcDbLine
 10
110.7936315413
 20
167.3480998593
 30
0.0
 11
110.7936315413
 21
167.4153995929
 31
0.0
  0
LINE
  5
27C
330
1F
100
AcDbEntity
  8
0
  6
Continuous
 62
     7
370
    15
100
AcDbLine
 10
110.7936315413
 20
165.040203734
 30
0.0
 11
110.7936315413
 21
167.3480998593
 31
0.0
  0
SPLINE
  5
27D
330
1F
100
AcDbEntity
  8
0
  6
Continuous
 62
     7
370
    15
100
AcDbSpline
210
0.0
220
0.0
230
1.0
 70
     8
 71
     3
 72
     8
 73
     4
 74
     0
 42
0.00000001
 43
0.00000001
 12
1.0
 22
0.0
 32
0.0
 13
1.0
 23
0.0
 33
0.0
 40
0.0
 40
0.0
 40
0.0
 40
0.0
 40
1.0
 40
1.0
 40
1.0
 40
1.0
 10
111.1062389328382
 20
166.953735864821
 30
0.0
 10
110.915652251664
 20
167.0825824787263
 30
0.0
 10
110.7936315412767
 20
167.2134991876181
 30
0.0
 10
110.7936315412834
 20
167.3480998592315
 30
0.0
  0
SPLINE
  5
27E
330
1F
100
AcDbEntity
  8
0
  6
Continuous
 62
     7
370
    15
100
AcDbSpline
210
0.0
220
0.0
230
1.0
 70
     8
 71
     3
 72
     8
 73
     4
 74
     0
 42
0.00000001
 43
0.00000001
 12
1.0
 22
0.0
 32
0.0
 13
1.0
 23
0.0
 33
0.0
 40
0.0
 40
0.0
 40
0.0
 40
0.0
 40
1.0
 40
1.0
 40
1.0
 40
1.0
 10
110.7936315412834
 20
167.3480998592315
 30
0.0
 10
110.7936315412902
 20
167.4827005308125
 30
0.0
 10
110.9156522516967
 20
167.6136172397824
 30
0.0
 10
111.1062389328033
 20
167.742463853657
 30
0.0
  0
LINE
  5
27F
330
1F
100
AcDbEntity
  8
0
  6
Continuous
 62
     7
370
    15
100
AcDbLine
 10
111.1062389328
 20
167.7424638537
 30
0.0
 11
113.9936315413
 21
167.7424638537
 31
0.0
  0
SPLINE
  5
280
330
1F
100
AcDbEntity
  8
0
  6
Continuous
 62
     7
370
    15
100
AcDbSpline
210
0.0
220
0.0
230
1.0
 70
     8
 71
     3
 72
    10
 73
     6
 74
     0
 42
0.00000001
 43
0.00000001
 12
1.0
 22
0.0
 32
0.0
 13
1.0
 23
0.0
 33
0.0
 40
0.0
 40
0.0
 40
0.0
 40
0.0
 40
0.3748778133796544
 40
0.7510069009605096
 40
1.0
 40
1.0
 40
1.0
 40
1.0
 10
111.1062389329699
 20
160.0883353317669
 30
0.0
 10
111.0618939184416
 20
160.1201749885775
 30
0.0
 10
110.9730558737631
 20
160.1839605772029
 30
0.0
 10
110.8817520760603
 20
160.2703077557007
 30
0.0
 10
110.8503341223307
 20
160.3250029353978
 30
0.0
 10
110.8378200029601
 20
160.3467886319972
 30
0.0
  0
LINE
  5
281
330
1F
100
AcDbEntity
  8
0
  6
Continuous
 62
     7
370
    15
100
AcDbLine
 10
118.9436315413
 20
161.9153995926
 30
0.0
 11
118.9436315413
 21
165.9153995928
 31
0.0
  0
LINE
  5
282
330
1F
100
AcDbEntity
  8
0
  6
Continuous
 62
     7
370
    15
100
AcDbLine
 10
109.9187981463
 20
162.2471025497
 30
0.0
 11
109.9187981463
 21
165.9153995928
 31
0.0
  0
LINE
  5
283
330
1F
100
AcDbEntity
  8
0
  6
Continuous
 62
     7
370
    15
100
AcDbLine
 10
109.9187981463
 20
161.9153995926
 30
0.0
 11
109.9187981463
 21
162.2471025497
 31
0.0
  0
LINE
  5
284
330
1F
100
AcDbEntity
  8
0
  6
Continuous
 62
     7
370
    15
100
AcDbLine
 10
109.6936315413
 20
162.3053995923
 30
0.0
 11
109.6936315413
 21
165.5253995931
 31
0.0
  0
LINE
  5
285
330
1F
100
AcDbEntity
  8
0
  6
Continuous
 62
     7
370
    15
100
AcDbLine
 10
161.4936315415
 20
149.9153995928
 30
0.0
 11
177.0936315412
 21
149.9153995928
 31
0.0
  0
LINE
  5
286
330
1F
100
AcDbEntity
  8
0
  6
Continuous
 62
     7
370
    15
100
AcDbLine
 10
161.293631541
 20
150.1153995927
 30
0.0
 11
177.2936315417
 21
150.1153995927
 31
0.0
  0
LINE
  5
287
330
1F
100
AcDbEntity
  8
0
  6
Continuous
 62
     7
370
    15
100
AcDbLine
 10
161.3956886866
 20
150.7153995929
 30
0.0
 11
177.2936315417
 21
150.7153995929
 31
0.0
  0
LINE
  5
288
330
1F
100
AcDbEntity
  8
0
  6
Continuous
 62
     7
370
    15
100
AcDbLine
 10
161.293631541
 20
150.7153995929
 30
0.0
 11
161.3956886866
 21
150.7153995929
 31
0.0
  0
LINE
  5
289
330
1F
100
AcDbEntity
  8
0
  6
Continuous
 62
     7
370
    15
100
AcDbLine
 10
172.9936315413
 20
147.4153995927
 30
0.0
 11
173.293631541
 21
147.4153995927
 31
0.0
  0
LINE
  5
28A
330
1F
100
AcDbEntity
  8
0
  6
Continuous
 62
     7
370
    15
100
AcDbLine
 10
172.9936315413
 20
147.2153995927
 30
0.0
 11
173.0936315413
 21
147.2153995927
 31
0.0
  0
LINE
  5
28B
330
1F
100
AcDbEntity
  8
0
  6
Continuous
 62
     7
370
    15
100
AcDbLine
 10
167.293631541
 20
145.3153995927
 30
0.0
 11
171.2936315417
 21
145.3153995927
 31
0.0
  0
SPLINE
  5
28C
330
1F
100
AcDbEntity
  8
0
  6
Continuous
 62
     7
370
    15
100
AcDbSpline
210
0.0
220
0.0
230
1.0
 70
    24
 71
     3
 72
    24
 73
    20
 74
     0
 42
0.00000001
 43
0.00000001
 12
1.0
 22
0.0
 32
0.0
 13
1.0
 23
0.0
 33
0.0
 40
0.0
 40
0.0
 40
0.0
 40
0.0
 40
0.0179968880451554
 40
0.0804699394906086
 40
0.1429968978417951
 40
0.2054699492878088
 40
0.2679969076386292
 40
0.3304699590850342
 40
0.3929969174360602
 40
0.4554699688822582
 40
0.5179969272334073
 40
0.5804699786794795
 40
0.6429969370307164
 40
0.705469988476702
 40
0.7679969468279142
 40
0.8304699982739195
 40
0.8929969566250452
 40
0.9554700080711395
 40
1.0
 40
1.0
 40
1.0
 40
1.0
 10
134.9936315413344
 20
184.702806582612
 30
0.0
 10
134.9936315413344
 20
184.7066722731784
 30
0.0
 10
134.9936315413344
 20
184.7239570329207
 30
0.0
 10
134.9936315413344
 20
184.6244453796235
 30
0.0
 10
134.9936315413344
 20
184.4098544133252
 30
0.0
 10
134.9936315413344
 20
184.0673104458153
 30
0.0
 10
134.9936315413344
 20
183.6283883438331
 30
0.0
 10
134.9936315413344
 20
183.1012168635564
 30
0.0
 10
134.9936315413344
 20
182.5114151634688
 30
0.0
 10
134.9936315413344
 20
181.878097193814
 30
0.0
 10
134.9936315413344
 20
181.2276850082231
 30
0.0
 10
134.9936315413344
 20
180.5845056090354
 30
0.0
 10
134.9936315413344
 20
179.9725527764628
 30
0.0
 10
134.9936315413344
 20
179.4173601962981
 30
0.0
 10
134.9936315413344
 20
178.9372605476517
 30
0.0
 10
134.9936315413344
 20
178.553729900354
 30
0.0
 10
134.9936315413343
 20
178.2817376094818
 30
0.0
 10
134.9936315413344
 20
178.1323189928393
 30
0.0
 10
134.9936315413344
 20
178.1292849026509
 30
0.0
 10
134.9936315413344
 20
178.1280222468671
 30
0.0
  0
SPLINE
  5
28D
330
1F
100
AcDbEntity
  8
0
  6
Continuous
 62
     7
370
    15
100
AcDbSpline
210
0.0
220
0.0
230
1.0
 70
    24
 71
     3
 72
    24
 73
    20
 74
     0
 42
0.00000001
 43
0.00000001
 12
1.0
 22
0.0
 32
0.0
 13
1.0
 23
0.0
 33
0.0
 40
0.0
 40
0.0
 40
0.0
 40
0.0
 40
0.044529991928858
 40
0.1070030433747203
 40
0.1695300017260782
 40
0.2320030531721358
 40
0.2945300115233035
 40
0.3570030629691638
 40
0.419530021320509
 40
0.4820030727663312
 40
0.5445300311177393
 40
0.6070030825639483
 40
0.6695300409149625
 40
0.7320030923611478
 40
0.7945300507121767
 40
0.8570031021580987
 40
0.9195300605093895
 40
0.9820031119551594
 40
1.0
 40
1.0
 40
1.0
 40
1.0
 10
134.9936315413344
 20
152.1280222468674
 30
0.0
 10
134.9936315413344
 20
152.1292849026511
 30
0.0
 10
134.9936315413344
 20
152.1323189928392
 30
0.0
 10
134.9936315413344
 20
152.2817376094813
 30
0.0
 10
134.9936315413344
 20
152.5537299003538
 30
0.0
 10
134.9936315413344
 20
152.9372605476513
 30
0.0
 10
134.9936315413344
 20
153.4173601962979
 30
0.0
 10
134.9936315413344
 20
153.9725527764629
 30
0.0
 10
134.9936315413344
 20
154.5845056090342
 30
0.0
 10
134.9936315413344
 20
155.2276850082222
 30
0.0
 10
134.9936315413344
 20
155.8780971938131
 30
0.0
 10
134.9936315413344
 20
156.5114151634688
 30
0.0
 10
134.9936315413344
 20
157.1012168635559
 30
0.0
 10
134.9936315413344
 20
157.628388343832
 30
0.0
 10
134.9936315413344
 20
158.0673104458146
 30
0.0
 10
134.9936315413344
 20
158.4098544133262
 30
0.0
 10
134.9936315413344
 20
158.6244453796234
 30
0.0
 10
134.9936315413344
 20
158.723957032921
 30
0.0
 10
134.9936315413344
 20
158.7066722731787
 30
0.0
 10
134.9936315413344
 20
158.7028065826123
 30
0.0
  0
LINE
  5
28E
330
1F
100
AcDbEntity
  8
0
  6
Continuous
 62
     7
370
    15
100
AcDbLine
 10
138.9936315413
 20
155.4153995927
 30
0.0
 11
138.9936315413
 21
150.9153995927
 31
0.0
  0
LINE
  5
28F
330
1F
100
AcDbEntity
  8
0
  6
Continuous
 62
     7
370
    15
100
AcDbLine
 10
141.9936315413
 20
155.4153995927
 30
0.0
 11
138.9936315413
 21
155.4153995927
 31
0.0
  0
LINE
  5
290
330
1F
100
AcDbEntity
  8
0
  6
Continuous
 62
   144
370
     0
100
AcDbLine
 10
138.9936315413
 20
150.9153995927
 30
0.0
 11
141.9936315413
 21
150.9153995927
 31
0.0
  0
LINE
  5
291
330
1F
100
AcDbEntity
  8
0
  6
Continuous
 62
     7
370
    15
100
AcDbLine
 10
141.9936315413
 20
154.9153995927
 30
0.0
 11
141.9936315413
 21
155.4153995927
 31
0.0
  0
LINE
  5
292
330
1F
100
AcDbEntity
  8
0
  6
Continuous
 62
     7
370
    15
100
AcDbLine
 10
141.9936315413
 20
181.4153995927
 30
0.0
 11
141.9936315413
 21
181.9153995927
 31
0.0
  0
LINE
  5
293
330
1F
100
AcDbEntity
  8
0
  6
Continuous
 62
     7
370
    15
100
AcDbLine
 10
141.9936315413
 20
185.9153995927
 30
0.0
 11
141.9936315413
 21
181.9153995927
 31
0.0
  0
LINE
  5
294
330
1F
100
AcDbEntity
  8
0
  6
Continuous
 62
     7
370
    15
100
AcDbLine
 10
141.9936315413
 20
154.9153995927
 30
0.0
 11
141.9936315413
 21
150.9153995927
 31
0.0
  0
LINE
  5
295
330
1F
100
AcDbEntity
  8
0
  6
Continuous
 62
   144
370
     0
100
AcDbLine
 10
141.9936315413
 20
155.4153995927
 30
0.0
 11
141.9936315413
 21
181.4153995927
 31
0.0
  0
LINE
  5
296
330
1F
100
AcDbEntity
  8
0
  6
Continuous
 62
     7
370
    15
100
AcDbLine
 10
143.9936315413
 20
181.9153995927
 30
0.0
 11
141.9936315413
 21
181.9153995927
 31
0.0
  0
LINE
  5
297
330
1F
100
AcDbEntity
  8
0
  6
Continuous
 62
     7
370
    15
100
AcDbLine
 10
141.9936315413
 20
154.9153995927
 30
0.0
 11
143.9936315413
 21
154.9153995927
 31
0.0
  0
LINE
  5
298
330
1F
100
AcDbEntity
  8
0
  6
Continuous
 62
     7
370
    15
100
AcDbLine
 10
143.9936315413
 20
154.9153995927
 30
0.0
 11
143.9936315413
 21
181.9153995927
 31
0.0
  0
LINE
  5
299
330
1F
100
AcDbEntity
  8
0
  6
Continuous
 62
     7
370
    15
100
AcDbLine
 10
138.9936315413
 20
155.4153995927
 30
0.0
 11
138.9936315413
 21
161.902161069
 31
0.0
  0
LINE
  5
29A
330
1F
100
AcDbEntity
  8
0
  6
Continuous
 62
     7
370
    15
100
AcDbLine
 10
134.9936315413
 20
161.902161069
 30
0.0
 11
138.9936315413
 21
161.902161069
 31
0.0
  0
LINE
  5
29B
330
1F
100
AcDbEntity
  8
0
  6
Continuous
 62
     7
370
    15
100
AcDbLine
 10
134.9936315413
 20
174.9286381164
 30
0.0
 11
134.9936315413
 21
161.902161069
 31
0.0
  0
LINE
  5
29C
330
1F
100
AcDbEntity
  8
0
  6
Continuous
 62
     7
370
    15
100
AcDbLine
 10
138.9936315413
 20
174.9286381164
 30
0.0
 11
134.9936315413
 21
174.9286381164
 31
0.0
  0
LINE
  5
29D
330
1F
100
AcDbEntity
  8
0
  6
Continuous
 62
     7
370
    15
100
AcDbLine
 10
138.9936315413
 20
181.4153995927
 30
0.0
 11
138.9936315413
 21
174.9286381164
 31
0.0
  0
LINE
  5
29E
330
1F
100
AcDbEntity
  8
0
  6
Continuous
 62
     7
370
    15
100
AcDbLine
 10
141.9936315413
 20
181.4153995927
 30
0.0
 11
138.9936315413
 21
181.4153995927
 31
0.0
  0
LINE
  5
29F
330
1F
100
AcDbEntity
  8
0
  6
Continuous
 62
     7
370
    15
100
AcDbLine
 10
143.9936315413
 20
154.9153995927
 30
0.0
 11
143.9936315413
 21
150.9153995927
 31
0.0
  0
LINE
  5
2A0
330
1F
100
AcDbEntity
  8
0
  6
Continuous
 62
   144
370
     0
100
AcDbLine
 10
141.9936315413
 20
150.9153995927
 30
0.0
 11
143.9936315413
 21
150.9153995927
 31
0.0
  0
LINE
  5
2A1
330
1F
100
AcDbEntity
  8
0
  6
Continuous
 62
     7
370
    15
100
AcDbLine
 10
138.9936315413
 20
185.9153995927
 30
0.0
 11
138.9936315413
 21
181.4153995927
 31
0.0
  0
LINE
  5
2A2
330
1F
100
AcDbEntity
  8
0
  6
Continuous
 62
     7
370
    15
100
AcDbLine
 10
141.9936315413
 20
185.9153995927
 30
0.0
 11
138.9936315413
 21
185.9153995927
 31
0.0
  0
LINE
  5
2A3
330
1F
100
AcDbEntity
  8
0
  6
Continuous
 62
     7
370
    15
100
AcDbLine
 10
143.9936315413
 20
181.9153995927
 30
0.0
 11
143.9936315413
 21
185.9153995927
 31
0.0
  0
LINE
  5
2A4
330
1F
100
AcDbEntity
  8
0
  6
Continuous
 62
     7
370
    15
100
AcDbLine
 10
134.9936315413
 20
176.6844998597
 30
0.0
 11
134.9936315413
 21
178.0251773788
 31
0.0
  0
LINE
  5
2A5
330
1F
100
AcDbEntity
  8
0
  6
Continuous
 62
     7
370
    15
100
AcDbLine
 10
134.9936315413
 20
174.9286381164
 30
0.0
 11
134.9936315413
 21
176.6844998597
 31
0.0
  0
LINE
  5
2A6
330
1F
100
AcDbEntity
  8
0
  6
Continuous
 62
     7
370
    15
100
AcDbLine
 10
134.9936315413
 20
161.902161069
 30
0.0
 11
134.9936315413
 21
160.1462993257
 31
0.0
  0
LINE
  5
2A7
330
1F
100
AcDbEntity
  8
0
  6
Continuous
 62
     7
370
    15
100
AcDbLine
 10
134.9936315413
 20
160.1462993257
 30
0.0
 11
134.9936315413
 21
158.8056549307
 31
0.0
  0
LINE
  5
2A8
330
1F
100
AcDbEntity
  8
0
  6
Continuous
 62
     7
370
    15
100
AcDbLine
 10
134.9936315413
 20
152.0353684311
 30
0.0
 11
134.9936315413
 21
150.9153995929
 31
0.0
  0
LINE
  5
2A9
330
1F
100
AcDbEntity
  8
0
  6
Continuous
 62
     7
370
    15
100
AcDbLine
 10
134.9936315413
 20
184.8041665683
 30
0.0
 11
134.9936315413
 21
185.9153995927
 31
0.0
  0
LINE
  5
2AA
330
1F
100
AcDbEntity
  8
0
  6
Continuous
 62
     7
370
    15
100
AcDbLine
 10
143.9936315413
 20
185.9153995927
 30
0.0
 11
141.9936315413
 21
185.9153995927
 31
0.0
  0
LINE
  5
2AB
330
1F
100
AcDbEntity
  8
0
  6
Continuous
 62
     7
370
    15
100
AcDbLine
 10
134.9936315413
 20
185.9153995927
 30
0.0
 11
138.9936315413
 21
185.9153995927
 31
0.0
  0
LINE
  5
2AC
330
1F
100
AcDbEntity
  8
0
  6
Continuous
 62
   144
370
     0
100
AcDbLine
 10
134.9936315413
 20
150.9153995929
 30
0.0
 11
138.9936315413
 21
150.9153995929
 31
0.0
  0
LINE
  5
2AD
330
1F
100
AcDbEntity
  8
0
  6
Continuous
 62
     7
370
    15
100
AcDbLine
 10
120.4936315413
 20
174.4153995927
 30
0.0
 11
120.4936315413
 21
153.4153995927
 31
0.0
  0
SPLINE
  5
2AE
330
1F
100
AcDbEntity
  8
0
  6
Continuous
 62
     7
370
    15
100
AcDbSpline
210
0.0
220
0.0
230
1.0
 70
     8
 71
     3
 72
    10
 73
     6
 74
     0
 42
0.00000001
 43
0.00000001
 12
1.0
 22
0.0
 32
0.0
 13
1.0
 23
0.0
 33
0.0
 40
0.0
 40
0.0
 40
0.0
 40
0.0
 40
0.4999999999999998
 40
0.4999999999999998
 40
1.0
 40
1.0
 40
1.0
 40
1.0
 10
177.4936315413344
 20
147.6153995926802
 30
0.0
 10
177.4936315413344
 20
147.353600204881
 30
0.0
 10
177.3858584449442
 20
147.0934129339169
 30
0.0
 10
177.0156182000976
 20
146.7231726890703
 30
0.0
 10
176.7554309291336
 20
146.6153995926801
 30
0.0
 10
176.4936315413344
 20
146.6153995926801
 30
0.0
  0
LINE
  5
2AF
330
1F
100
AcDbEntity
  8
0
  6
Continuous
 62
     7
370
    15
100
AcDbLine
 10
166.4936315413
 20
146.6153995927
 30
0.0
 11
176.4936315413
 21
146.6153995927
 31
0.0
  0
LINE
  5
2B0
330
1F
100
AcDbEntity
  8
0
  6
Continuous
 62
     7
370
    15
100
AcDbLine
 10
166.4936315413
 20
146.6153995927
 30
0.0
 11
166.4936315413
 21
145.4153995927
 31
0.0
  0
LINE
  5
2B1
330
1F
100
AcDbEntity
  8
0
  6
Continuous
 62
     7
370
    15
100
AcDbLine
 10
166.4936315413
 20
145.4153995927
 30
0.0
 11
176.4936315413
 21
145.4153995927
 31
0.0
  0
ARC
  5
2B2
330
1F
100
AcDbEntity
  8
0
  6
Continuous
 62
     7
370
    15
100
AcDbCircle
 10
176.4936315413
 20
147.6153995927
 30
0.0
 40
2.200000000000017
100
AcDbArc
 50
270.0
 51
0.0
  0
LINE
  5
2B3
330
1F
100
AcDbEntity
  8
0
  6
Continuous
 62
     7
370
    15
100
AcDbLine
 10
178.6936315413
 20
147.6153995927
 30
0.0
 11
178.6936315413
 21
181.9153995927
 31
0.0
  0
LINE
  5
2B4
330
1F
100
AcDbEntity
  8
0
  6
Continuous
 62
     7
370
    15
100
AcDbLine
 10
178.6936315413
 20
181.9153995927
 30
0.0
 11
177.4936315413
 21
181.9153995927
 31
0.0
  0
LINE
  5
2B5
330
1F
100
AcDbEntity
  8
0
  6
Continuous
 62
     7
370
    15
100
AcDbLine
 10
177.4936315413
 20
147.6153995927
 30
0.0
 11
177.4936315413
 21
181.9153995927
 31
0.0
  0
LINE
  5
2B6
330
1F
100
AcDbEntity
  8
0
  6
Continuous
 62
     7
370
    15
100
AcDbLine
 10
165.4936315413
 20
146.6153995927
 30
0.0
 11
166.4936315413
 21
146.6153995927
 31
0.0
  0
LINE
  5
2B7
330
1F
100
AcDbEntity
  8
0
  6
Continuous
 62
     7
370
    15
100
AcDbLine
 10
180.2936315413
 20
150.6153995927
 30
0.0
 11
178.6936315413
 21
150.6153995927
 31
0.0
  0
LINE
  5
2B8
330
1F
100
AcDbEntity
  8
0
  6
Continuous
 62
     7
370
    15
100
AcDbLine
 10
180.2936315413
 20
154.6153995927
 30
0.0
 11
180.2936315413
 21
150.6153995927
 31
0.0
  0
LINE
  5
2B9
330
1F
100
AcDbEntity
  8
0
  6
Continuous
 62
     7
370
    15
100
AcDbLine
 10
180.2936315413
 20
154.6153995927
 30
0.0
 11
178.6936315413
 21
154.6153995927
 31
0.0
  0
LINE
  5
2BA
330
1F
100
AcDbEntity
  8
0
  6
Continuous
 62
     7
370
    15
100
AcDbLine
 10
180.2936315413
 20
181.9153995927
 30
0.0
 11
178.6936315413
 21
181.9153995927
 31
0.0
  0
LINE
  5
2BB
330
1F
100
AcDbEntity
  8
0
  6
Continuous
 62
     7
370
    15
100
AcDbLine
 10
180.2936315413
 20
181.9153995927
 30
0.0
 11
180.2936315413
 21
154.6153995927
 31
0.0
  0
LINE
  5
2BC
330
1F
100
AcDbEntity
  8
0
  6
Continuous
 62
   144
370
     0
100
AcDbLine
 10
178.6936315413
 20
181.9153995927
 30
0.0
 11
178.6936315413
 21
154.6153995927
 31
0.0
  0
LINE
  5
2BD
330
1F
100
AcDbEntity
  8
0
  6
Continuous
 62
     7
370
    15
100
AcDbLine
 10
165.4936315413
 20
145.4153995927
 30
0.0
 11
166.4936315413
 21
145.4153995927
 31
0.0
  0
SPLINE
  5
2BE
330
1F
100
AcDbEntity
  8
0
  6
Continuous
 62
   144
370
     0
100
AcDbSpline
210
0.0
220
0.0
230
1.0
 70
    24
 71
     3
 72
    27
 73
    23
 74
     0
 42
0.00000001
 43
0.00000001
 12
1.0
 22
0.0
 32
0.0
 13
1.0
 23
0.0
 33
0.0
 40
0.0
 40
0.0
 40
0.0
 40
0.0
 40
0.0302515152980578
 40
0.0602990339646325
 40
0.0902087467262527
 40
0.1200477613919896
 40
0.1498836628235908
 40
0.1797840569936588
 40
0.209816114333931
 40
0.2400461276307929
 40
0.3043213048489715
 40
0.368670816587332
 40
0.4343123058261215
 40
0.5000324163473855
 40
0.5656734609783828
 40
0.6313940204660169
 40
0.6956669951996335
 40
0.7600187309673295
 40
0.820237107261111
 40
0.8799471932890234
 40
0.9396885754096338
 40
0.9999999999999999
 40
0.9999999999999999
 40
0.9999999999999999
 40
0.9999999999999999
 10
178.6936315413344
 20
181.9153995926641
 30
0.0
 10
178.6936315413344
 20
181.9787450737789
 30
0.0
 10
178.6936315413344
 20
182.1050088750997
 30
0.0
 10
178.6936315413344
 20
182.2934945328174
 30
0.0
 10
178.6936315413344
 20
182.4802905716495
 30
0.0
 10
178.6936315413344
 20
182.6653942343502
 30
0.0
 10
178.6936315413344
 20
182.8488026142358
 30
0.0
 10
178.6936315413344
 20
183.0305129683064
 30
0.0
 10
178.6936315413344
 20
183.2105226303972
 30
0.0
 10
178.6936315413344
 20
183.4552019470948
 30
0.0
 10
178.6936315413344
 20
183.758520884827
 30
0.0
 10
178.6936315413344
 20
184.1102741411177
 30
0.0
 10
178.6936315413344
 20
184.44193504391
 30
0.0
 10
178.6936315413344
 20
184.7486926593578
 30
0.0
 10
178.6936315413344
 20
185.0256689883701
 30
0.0
 10
178.6936315413344
 20
185.2674921840938
 30
0.0
 10
178.6936315413344
 20
185.4732122279688
 30
0.0
 10
178.6936315413344
 20
185.6371417061311
 30
0.0
 10
178.6936315413344
 20
185.762869213578
 30
0.0
 10
178.6936315413344
 20
185.8505801614952
 30
0.0
 10
178.6936315413344
 20
185.9053438273684
 30
0.0
 10
178.6936315413344
 20
185.9120370771363
 30
0.0
 10
178.6936315413344
 20
185.9153995926801
 30
0.0
  0
LINE
  5
2BF
330
1F
100
AcDbEntity
  8
0
  6
Continuous
 62
     7
370
    15
100
AcDbLine
 10
165.4936315413
 20
146.6153995927
 30
0.0
 11
165.4936315413
 21
145.4153995927
 31
0.0
  0
LINE
  5
2C0
330
1F
100
AcDbEntity
  8
0
  6
Continuous
 62
     7
370
    15
100
AcDbLine
 10
180.2936315413
 20
181.9153995927
 30
0.0
 11
180.2936315413
 21
185.9153995927
 31
0.0
  0
LINE
  5
2C1
330
1F
100
AcDbEntity
  8
0
  6
Continuous
 62
     7
370
    15
100
AcDbLine
 10
177.4936315413
 20
154.9153995927
 30
0.0
 11
177.4936315413
 21
181.9153995927
 31
0.0
  0
LINE
  5
2C2
330
1F
100
AcDbEntity
  8
0
  6
Continuous
 62
     7
370
    15
100
AcDbLine
 10
144.4936315413
 20
154.9153995927
 30
0.0
 11
177.4936315413
 21
154.9153995927
 31
0.0
  0
LINE
  5
2C3
330
1F
100
AcDbEntity
  8
0
  6
Continuous
 62
     7
370
    15
100
AcDbLine
 10
144.4936315413
 20
150.9153995927
 30
0.0
 11
144.4936315413
 21
154.9153995927
 31
0.0
  0
LINE
  5
2C4
330
1F
100
AcDbEntity
  8
0
  6
Continuous
 62
     7
370
    15
100
AcDbLine
 10
144.4936315413
 20
150.9153995927
 30
0.0
 11
163.3069797227
 21
150.9153995927
 31
0.0
  0
LINE
  5
2C5
330
1F
100
AcDbEntity
  8
0
  6
Continuous
 62
     7
370
    15
100
AcDbLine
 10
175.28028336
 20
150.9153995927
 30
0.0
 11
177.4936315413
 21
150.9153995927
 31
0.0
  0
LINE
  5
2C6
330
1F
100
AcDbEntity
  8
0
  6
Continuous
 62
     7
370
    15
100
AcDbLine
 10
144.4936315413
 20
181.9153995927
 30
0.0
 11
177.4936315413
 21
181.9153995927
 31
0.0
  0
LINE
  5
2C7
330
1F
100
AcDbEntity
  8
0
  6
Continuous
 62
     7
370
    15
100
AcDbLine
 10
144.4936315413
 20
154.9153995927
 30
0.0
 11
144.4936315413
 21
181.9153995927
 31
0.0
  0
LINE
  5
2C8
330
1F
100
AcDbEntity
  8
0
  6
Continuous
 62
     7
370
    15
100
AcDbLine
 10
144.4936315413
 20
185.9153995927
 30
0.0
 11
144.4936315413
 21
181.9153995927
 31
0.0
  0
LINE
  5
2C9
330
1F
100
AcDbEntity
  8
0
  6
Continuous
 62
     7
370
    15
100
AcDbLine
 10
178.6936315413
 20
185.9153995927
 30
0.0
 11
180.2936315413
 21
185.9153995927
 31
0.0
  0
LINE
  5
2CA
330
1F
100
AcDbEntity
  8
0
  6
Continuous
 62
     7
370
    15
100
AcDbLine
 10
177.4936315413
 20
185.9153995927
 30
0.0
 11
178.6936315413
 21
185.9153995927
 31
0.0
  0
LINE
  5
2CB
330
1F
100
AcDbEntity
  8
0
  6
Continuous
 62
     7
370
    15
100
AcDbLine
 10
144.4936315413
 20
185.9153995927
 30
0.0
 11
177.4936315413
 21
185.9153995927
 31
0.0
  0
SPLINE
  5
2CC
330
1F
100
AcDbEntity
  8
0
  6
Continuous
 62
     7
370
    15
100
AcDbSpline
210
0.0
220
0.0
230
1.0
 70
    24
 71
     3
 72
    22
 73
    18
 74
     0
 42
0.00000001
 43
0.00000001
 12
1.0
 22
0.0
 32
0.0
 13
1.0
 23
0.0
 33
0.0
 40
0.0
 40
0.0
 40
0.0
 40
0.0
 40
0.0360385894923927
 40
0.0717900573062145
 40
0.1073664976976314
 40
0.1428816622452558
 40
0.1784498904356693
 40
0.2141850124055932
 40
0.2501992758250362
 40
0.3750655351337111
 40
0.5000319486429512
 40
0.6248982079509574
 40
0.7498646214608183
 40
0.812666643570171
 40
0.8748824152162621
 40
0.9371233178897741
 40
1.0
 40
1.0
 40
1.0
 40
1.0
 10
181.2936315413344
 20
181.4153995926915
 30
0.0
 10
181.2936315413344
 20
181.4823393278313
 30
0.0
 10
181.2936315413344
 20
181.6156854850876
 30
0.0
 10
181.2936315413344
 20
181.8145030131415
 30
0.0
 10
181.2936315413344
 20
182.0111085713036
 30
0.0
 10
181.2936315413344
 20
182.2054975430697
 30
0.0
 10
181.2936315413344
 20
182.3976591365635
 30
0.0
 10
181.2936315413344
 20
182.5876053746251
 30
0.0
 10
181.2936315413344
 20
182.9287611901421
 30
0.0
 10
181.2936315413344
 20
183.4011785449464
 30
0.0
 10
181.2936315413344
 20
183.9411818279707
 30
0.0
 10
181.2936315413344
 20
184.3872073386245
 30
0.0
 10
181.2936315413344
 20
184.6612100811856
 30
0.0
 10
181.2936315413344
 20
184.8186237638721
 30
0.0
 10
181.2936315413344
 20
184.9030777628541
 30
0.0
 10
181.2936315413344
 20
184.955771637722
 30
0.0
 10
181.2936315413344
 20
184.9621794208099
 30
0.0
 10
181.2936315413344
 20
184.9653995927861
 30
0.0
  0
LINE
  5
2CD
330
1F
100
AcDbEntity
  8
0
  6
Continuous
 62
     7
370
    15
100
AcDbLine
 10
181.2936315413
 20
177.8653995926
 30
0.0
 11
181.2936315413
 21
181.4153995927
 31
0.0
  0
SPLINE
  5
2CE
330
1F
100
AcDbEntity
  8
0
  6
Continuous
 62
     7
370
    15
100
AcDbSpline
210
0.0
220
0.0
230
1.0
 70
    24
 71
     3
 72
    22
 73
    18
 74
     0
 42
0.00000001
 43
0.00000001
 12
1.0
 22
0.0
 32
0.0
 13
1.0
 23
0.0
 33
0.0
 40
0.0
 40
0.0
 40
0.0
 40
0.0
 40
0.0360385894923206
 40
0.0717900573060945
 40
0.107366497697486
 40
0.1428816622451083
 40
0.1784498904355421
 40
0.2141850124055087
 40
0.2501992758250154
 40
0.3750655351332776
 40
0.5000319486429124
 40
0.6248982079510418
 40
0.7498646214607921
 40
0.8126666435713414
 40
0.8748824152178285
 40
0.9371233178909408
 40
1.0
 40
1.0
 40
1.0
 40
1.0
 10
181.2936315413344
 20
155.4153995926875
 30
0.0
 10
181.2936315413344
 20
155.4823393278271
 30
0.0
 10
181.2936315413344
 20
155.615685485083
 30
0.0
 10
181.2936315413344
 20
155.8145030131366
 30
0.0
 10
181.2936315413344
 20
156.0111085712984
 30
0.0
 10
181.2936315413344
 20
156.2054975430645
 30
0.0
 10
181.2936315413344
 20
156.3976591365583
 30
0.0
 10
181.2936315413344
 20
156.5876053746202
 30
0.0
 10
181.2936315413344
 20
156.9287611901366
 30
0.0
 10
181.2936315413344
 20
157.401178544941
 30
0.0
 10
181.2936315413344
 20
157.9411818279657
 30
0.0
 10
181.2936315413344
 20
158.3872073386214
 30
0.0
 10
181.2936315413344
 20
158.6612100811829
 30
0.0
 10
181.2936315413344
 20
158.8186237638701
 30
0.0
 10
181.2936315413344
 20
158.9030777628535
 30
0.0
 10
181.2936315413344
 20
158.9557716377214
 30
0.0
 10
181.2936315413344
 20
158.9621794208082
 30
0.0
 10
181.2936315413344
 20
158.9653995927838
 30
0.0
  0
LINE
  5
2CF
330
1F
100
AcDbEntity
  8
0
  6
Continuous
 62
     7
370
    15
100
AcDbLine
 10
181.2936315413
 20
151.8653995926
 30
0.0
 11
181.2936315413
 21
155.4153995927
 31
0.0
  0
LINE
  5
2D0
330
1F
100
AcDbEntity
  8
0
  6
Continuous
 62
     7
370
    15
100
AcDbLine
 10
184.9936315413
 20
151.9153995927
 30
0.0
 11
184.9936315413
 21
158.9153995927
 31
0.0
  0
LINE
  5
2D1
330
1F
100
AcDbEntity
  8
0
  6
Continuous
 62
     7
370
    15
100
AcDbLine
 10
184.9936315413
 20
177.9153995927
 30
0.0
 11
184.9936315413
 21
184.9153995927
 31
0.0
  0
SPLINE
  5
2D2
330
1F
100
AcDbEntity
  8
0
  6
Continuous
 62
     7
370
    15
100
AcDbSpline
210
0.0
220
0.0
230
1.0
 70
    24
 71
     3
 72
    22
 73
    18
 74
     0
 42
0.00000001
 43
0.00000001
 12
1.0
 22
0.0
 32
0.0
 13
1.0
 23
0.0
 33
0.0
 40
0.0
 40
0.0
 40
0.0
 40
0.0
 40
0.0360406216210779
 40
0.0717935137425919
 40
0.1073707076423314
 40
0.1428858973365306
 40
0.1784533714492411
 40
0.2141869169353791
 40
0.250198746571898
 40
0.3750559132138669
 40
0.500031595746024
 40
0.6248887623880792
 40
0.7498644449201477
 40
0.8126596674128614
 40
0.874873179394729
 40
0.9371164297791755
 40
1.0
 40
1.0
 40
1.0
 40
1.0
 10
185.2936315413344
 20
155.4153995926801
 30
0.0
 10
185.2936315413344
 20
155.4719714767854
 30
0.0
 10
185.2936315413344
 20
155.5846636046199
 30
0.0
 10
185.2936315413344
 20
155.7526843928272
 30
0.0
 10
185.2936315413344
 20
155.9188328953154
 30
0.0
 10
185.2936315413344
 20
156.0831051591851
 30
0.0
 10
185.2936315413344
 20
156.2454921185639
 30
0.0
 10
185.2936315413344
 20
156.4060037878997
 30
0.0
 10
185.2936315413344
 20
156.6942886302108
 30
0.0
 10
185.2936315413344
 20
157.0935095170582
 30
0.0
 10
185.2936315413344
 20
157.5498430894154
 30
0.0
 10
185.2936315413344
 20
157.9267789393962
 30
0.0
 10
185.2936315413344
 20
158.1583253684221
 30
0.0
 10
185.2936315413344
 20
158.2913604133696
 30
0.0
 10
185.2936315413344
 20
158.3627261280488
 30
0.0
 10
185.2936315413344
 20
158.4072569323454
 30
0.0
 10
185.2936315413344
 20
158.4126761286141
 30
0.0
 10
185.2936315413344
 20
158.4153995927559
 30
0.0
  0
LINE
  5
2D3
330
1F
100
AcDbEntity
  8
0
  6
Continuous
 62
     7
370
    15
100
AcDbLine
 10
185.2936315413
 20
152.4153995926
 30
0.0
 11
185.2936315413
 21
155.4153995927
 31
0.0
  0
SPLINE
  5
2D4
330
1F
100
AcDbEntity
  8
0
  6
Continuous
 62
     7
370
    15
100
AcDbSpline
210
0.0
220
0.0
230
1.0
 70
    24
 71
     3
 72
    22
 73
    18
 74
     0
 42
0.00000001
 43
0.00000001
 12
1.0
 22
0.0
 32
0.0
 13
1.0
 23
0.0
 33
0.0
 40
0.0
 40
0.0
 40
0.0
 40
0.0
 40
0.0360406216210044
 40
0.071793513742469
 40
0.1073707076421844
 40
0.1428858973363831
 40
0.1784533714491168
 40
0.214186916935302
 40
0.2501987465718884
 40
0.3750559132138044
 40
0.5000315957460217
 40
0.6248887623884831
 40
0.7498644449201525
 40
0.8126596674132871
 40
0.8748731793952967
 40
0.9371164297796006
 40
1.0
 40
1.0
 40
1.0
 40
1.0
 10
185.2936315413344
 20
181.4153995926801
 30
0.0
 10
185.2936315413344
 20
181.4719714767853
 30
0.0
 10
185.2936315413344
 20
181.5846636046197
 30
0.0
 10
185.2936315413344
 20
181.752684392827
 30
0.0
 10
185.2936315413344
 20
181.9188328953154
 30
0.0
 10
185.2936315413344
 20
182.0831051591852
 30
0.0
 10
185.2936315413344
 20
182.2454921185643
 30
0.0
 10
185.2936315413344
 20
182.4060037879005
 30
0.0
 10
185.2936315413344
 20
182.6942886302121
 30
0.0
 10
185.2936315413344
 20
183.0935095170603
 30
0.0
 10
185.2936315413344
 20
183.5498430894182
 30
0.0
 10
185.2936315413344
 20
183.9267789393997
 30
0.0
 10
185.2936315413344
 20
184.158325368426
 30
0.0
 10
185.2936315413344
 20
184.2913604133731
 30
0.0
 10
185.2936315413344
 20
184.3627261280527
 30
0.0
 10
185.2936315413344
 20
184.4072569323492
 30
0.0
 10
185.2936315413344
 20
184.4126761286177
 30
0.0
 10
185.2936315413344
 20
184.4153995927594
 30
0.0
  0
LINE
  5
2D5
330
1F
100
AcDbEntity
  8
0
  6
Continuous
 62
     7
370
    15
100
AcDbLine
 10
185.2936315413
 20
178.4153995926
 30
0.0
 11
185.2936315413
 21
181.4153995927
 31
0.0
  0
SPLINE
  5
2D6
330
1F
100
AcDbEntity
  8
0
  6
Continuous
 62
     7
370
    15
100
AcDbSpline
210
0.0
220
0.0
230
1.0
 70
    24
 71
     3
 72
    19
 73
    15
 74
     0
 42
0.00000001
 43
0.00000001
 12
1.0
 22
0.0
 32
0.0
 13
1.0
 23
0.0
 33
0.0
 40
0.0
 40
0.0
 40
0.0
 40
0.0
 40
0.1195237193809706
 40
0.2287195486761817
 40
0.3277954683797144
 40
0.417030246821513
 40
0.5633673049075851
 40
0.6947806286479914
 40
0.7841691655431335
 40
0.8665710635779643
 40
0.9037182345262895
 40
0.9377795322295639
 40
0.9678603921843711
 40
1.0
 40
1.0
 40
1.0
 40
1.0
 10
189.6936315418061
 20
197.11539959268
 30
0.0
 10
189.6926447784245
 20
197.11539959268
 30
0.0
 10
189.6907565166096
 20
197.11539959268
 30
0.0
 10
189.6739611947306
 20
197.11539959268
 30
0.0
 10
189.6466173147669
 20
197.11539959268
 30
0.0
 10
189.5985340333253
 20
197.11539959268
 30
0.0
 10
189.5126664137756
 20
197.11539959268
 30
0.0
 10
189.3753206998202
 20
197.11539959268
 30
0.0
 10
189.215134721633
 20
197.11539959268
 30
0.0
 10
189.0700015548719
 20
197.11539959268
 30
0.0
 10
188.9492499355292
 20
197.11539959268
 30
0.0
 10
188.8639976908981
 20
197.11539959268
 30
0.0
 10
188.7787413526466
 20
197.11539959268
 30
0.0
 10
188.7226204536455
 20
197.11539959268
 30
0.0
 10
188.6936315413344
 20
197.11539959268
 30
0.0
  0
LINE
  5
2D7
330
1F
100
AcDbEntity
  8
0
  6
Continuous
 62
     7
370
    15
100
AcDbLine
 10
188.6936315413
 20
191.3708369461
 30
0.0
 11
188.6936315413
 21
197.1153995924
 31
0.0
  0
LINE
  5
2D8
330
1F
100
AcDbEntity
  8
0
  6
Continuous
 62
     7
370
    15
100
AcDbLine
 10
189.6936315413
 20
191.3708369461
 30
0.0
 11
188.6936315413
 21
191.3708369461
 31
0.0
  0
SPLINE
  5
2D9
330
1F
100
AcDbEntity
  8
0
  6
Continuous
 62
     7
370
    15
100
AcDbSpline
210
0.0
220
0.0
230
1.0
 70
    24
 71
     3
 72
    23
 73
    19
 74
     0
 42
0.00000001
 43
0.00000001
 12
1.0
 22
0.0
 32
0.0
 13
1.0
 23
0.0
 33
0.0
 40
0.0
 40
0.0
 40
0.0
 40
0.0
 40
0.0314503707291917
 40
0.0627483597792794
 40
0.0939435911163272
 40
0.1250861799262031
 40
0.156226495554128
 40
0.187414918358899
 40
0.218701596301887
 40
0.2501362071056469
 40
0.3750440350225161
 40
0.5000243242570258
 40
0.624932152173247
 40
0.7499124414083673
 40
0.8125948495730007
 40
0.8749019898098819
 40
0.9372363765458985
 40
1.0
 40
1.0
 40
1.0
 40
1.0
 10
189.6936315413344
 20
191.3708369461426
 30
0.0
 10
189.6936315413344
 20
191.4511801636622
 30
0.0
 10
189.6936315413344
 20
191.6114773239773
 30
0.0
 10
189.6936315413344
 20
191.8510905295978
 30
0.0
 10
189.6936315413344
 20
192.0891604877855
 30
0.0
 10
189.6936315413344
 20
192.3256851250214
 30
0.0
 10
189.6936315413344
 20
192.5606635273337
 30
0.0
 10
189.6936315413344
 20
192.7940902653285
 30
0.0
 10
189.6936315413344
 20
193.0259771415967
 30
0.0
 10
189.6936315413344
 20
193.483938947373
 30
0.0
 10
189.6936315413344
 20
194.1497100178118
 30
0.0
 10
189.6936315413344
 20
194.9638672590979
 30
0.0
 10
189.6936315413344
 20
195.6885769157948
 30
0.0
 10
189.6936315413344
 20
196.1994578121416
 30
0.0
 10
189.6936315413344
 20
196.5462103800015
 30
0.0
 10
189.6936315413344
 20
196.7723854664672
 30
0.0
 10
189.6936315413344
 20
196.9663925203795
 30
0.0
 10
189.6936315413344
 20
197.0656170321408
 30
0.0
 10
189.6936315413344
 20
197.1153995177626
 30
0.0
  0
LINE
  5
2DA
330
1F
100
AcDbEntity
  8
0
  6
Continuous
 62
     7
370
    15
100
AcDbLine
 10
188.6936315413
 20
157.4153995927
 30
0.0
 11
189.6936315413
 21
157.4153995927
 31
0.0
  0
LINE
  5
2DB
330
1F
100
AcDbEntity
  8
0
  6
Continuous
 62
     7
370
    15
100
AcDbLine
 10
188.6936315413
 20
155.4153995927
 30
0.0
 11
188.6936315413
 21
157.4153995927
 31
0.0
  0
ARC
  5
2DC
330
1F
100
AcDbEntity
  8
0
  6
Continuous
 62
     7
370
    15
100
AcDbCircle
 10
188.6936315413
 20
156.4153995929
 30
0.0
 40
1.000000000000001
100
AcDbArc
 50
270.000000001
 51
0.000002224
  0
SPLINE
  5
2DD
330
1F
100
AcDbEntity
  8
0
  6
Continuous
 62
     7
370
    15
100
AcDbSpline
210
0.0
220
0.0
230
1.0
 70
    24
 71
     3
 72
    17
 73
    13
 74
     0
 42
0.00000001
 43
0.00000001
 12
1.0
 22
0.0
 32
0.0
 13
1.0
 23
0.0
 33
0.0
 40
0.0
 40
0.0
 40
0.0
 40
0.0
 40
0.0629241150151567
 40
0.1251980532390706
 40
0.187427187778592
 40
0.2502181876217803
 40
0.3750045706186914
 40
0.5001466373309956
 40
0.6249330203279161
 40
0.7500750870402275
 40
0.8747704222973712
 40
1.0
 40
1.0
 40
1.0
 40
1.0
 10
189.6936315413344
 20
156.4153996317703
 30
0.0
 10
189.6936315413344
 20
156.4163334393527
 30
0.0
 10
189.6936315413344
 20
156.4181914057524
 30
0.0
 10
189.6936315413344
 20
156.4330525371718
 30
0.0
 10
189.6936315413344
 20
156.4568215642321
 30
0.0
 10
189.6936315413344
 20
156.5010186442516
 30
0.0
 10
189.6936315413344
 20
156.5782170786337
 30
0.0
 10
189.6936315413344
 20
156.7037296226528
 30
0.0
 10
189.6936315413344
 20
156.8559626563077
 30
0.0
 10
189.6936315413344
 20
157.0301022208541
 30
0.0
 10
189.6936315413344
 20
157.2188460186622
 30
0.0
 10
189.6936315413344
 20
157.3497884333883
 30
0.0
 10
189.6936315413344
 20
157.4153995927773
 30
0.0
  0
LINE
  5
2DE
330
1F
100
AcDbEntity
  8
0
  6
Continuous
 62
     7
370
    15
100
AcDbLine
 10
188.6936315413
 20
157.4153995927
 30
0.0
 11
188.6936315413
 21
191.3708369459
 31
0.0
  0
LINE
  5
2DF
330
1F
100
AcDbEntity
  8
0
  6
Continuous
 62
     7
370
    15
100
AcDbLine
 10
189.6936315413
 20
157.4153995927
 30
0.0
 11
189.6936315413
 21
191.3708369461
 31
0.0
  0
LINE
  5
2E0
330
1F
100
AcDbEntity
  8
0
  6
Continuous
 62
     7
370
    15
100
AcDbLine
 10
188.6936315413
 20
191.3708369457
 30
0.0
 11
180.2936315413
 21
191.3708369457
 31
0.0
  0
LINE
  5
2E1
330
1F
100
AcDbEntity
  8
0
  6
Continuous
 62
     7
370
    15
100
AcDbLine
 10
180.2936315413
 20
191.3708369457
 30
0.0
 11
180.2936315413
 21
185.9153995927
 31
0.0
  0
LINE
  5
2E2
330
1F
100
AcDbEntity
  8
0
  6
Continuous
 62
     7
370
    15
100
AcDbLine
 10
188.1936315413
 20
197.1153995927
 30
0.0
 11
188.6936315413
 21
197.1153995927
 31
0.0
  0
LINE
  5
2E3
330
1F
100
AcDbEntity
  8
0
  6
Continuous
 62
     7
370
    15
100
AcDbLine
 10
188.1936315413
 20
197.1153995924
 30
0.0
 11
183.2936314303
 21
197.1153995924
 31
0.0
  0
SPLINE
  5
2E4
330
1F
100
AcDbEntity
  8
0
  6
Continuous
 62
     7
370
    15
100
AcDbSpline
210
0.0
220
0.0
230
1.0
 70
     8
 71
     3
 72
    18
 73
    14
 74
     0
 42
0.00000001
 43
0.00000001
 12
1.0
 22
0.0
 32
0.0
 13
1.0
 23
0.0
 33
0.0
 40
0.0
 40
0.0
 40
0.0
 40
0.0
 40
0.1250000000000006
 40
0.1250000000000006
 40
0.2500000000000012
 40
0.2500000000000012
 40
0.3750000000000018
 40
0.3750000000000018
 40
0.5000000000000023
 40
0.5000000000000023
 40
0.7500000000000011
 40
0.7500000000000011
 40
1.0
 40
1.0
 40
1.0
 40
1.0
 10
183.2936314081551
 20
197.115399592725
 30
0.0
 10
183.0667513638911
 20
197.1153995826531
 30
0.0
 10
182.8466423821289
 20
197.0897671336747
 30
0.0
 10
182.4251281848807
 20
196.9950460114611
 30
0.0
 10
182.2320774130941
 20
196.9283671176743
 30
0.0
 10
181.8694622687862
 20
196.7633092110367
 30
0.0
 10
181.7029026009505
 20
196.6658166301108
 30
0.0
 10
181.3981774931752
 20
196.44827326648
 30
0.0
 10
181.2586666542783
 20
196.3274656513995
 30
0.0
 10
180.8736238742469
 20
195.9267074765018
 30
0.0
 10
180.6701484686334
 20
195.6199226340264
 30
0.0
 10
180.3766001144161
 20
194.9136355659746
 30
0.0
 10
180.2936315413113
 20
194.5307429987167
 30
0.0
 10
180.2936315413344
 20
194.1153995925136
 30
0.0
  0
LINE
  5
2E5
330
1F
100
AcDbEntity
  8
0
  6
Continuous
 62
     7
370
    15
100
AcDbLine
 10
180.2936315413
 20
194.1153995926
 30
0.0
 11
180.2936315413
 21
191.3708369457
 31
0.0
  0
LINE
  5
2E6
330
1F
100
AcDbEntity
  8
0
  6
Continuous
 62
     7
370
    15
100
AcDbLine
 10
185.2936315413
 20
155.4153995927
 30
0.0
 11
188.6936315413
 21
155.4153995927
 31
0.0
  0
LINE
  5
2E7
330
1F
100
AcDbEntity
  8
0
  6
Continuous
 62
     7
370
    15
100
AcDbLine
 10
188.1936315413
 20
209.5900131897
 30
0.0
 11
180.1936315413
 21
209.5900131897
 31
0.0
  0
SPLINE
  5
2E8
330
1F
100
AcDbEntity
  8
0
  6
Continuous
 62
     7
370
    15
100
AcDbSpline
210
0.0
220
0.0
230
1.0
 70
    24
 71
     3
 72
     8
 73
     4
 74
     0
 42
0.00000001
 43
0.00000001
 12
1.0
 22
0.0
 32
0.0
 13
1.0
 23
0.0
 33
0.0
 40
0.0
 40
0.0
 40
0.0
 40
0.0
 40
1.0
 40
1.0
 40
1.0
 40
1.0
 10
188.1936315413344
 20
211.59213879568
 30
0.0
 10
188.1936315413344
 20
210.9227659230821
 30
0.0
 10
188.1936315413344
 20
210.2533966309422
 30
0.0
 10
188.1936315413344
 20
209.590013189662
 30
0.0
  0
SPLINE
  5
2E9
330
1F
100
AcDbEntity
  8
0
  6
Continuous
 62
     7
370
    15
100
AcDbSpline
210
0.0
220
0.0
230
1.0
 70
    24
 71
     3
 72
    10
 73
     6
 74
     0
 42
0.00000001
 43
0.00000001
 12
1.0
 22
0.0
 32
0.0
 13
1.0
 23
0.0
 33
0.0
 40
0.0
 40
0.0
 40
0.0
 40
0.0
 40
0.5
 40
0.5
 40
1.0
 40
1.0
 40
1.0
 40
1.0
 10
188.1936315413344
 20
222.2813928585196
 30
0.0
 10
188.1936315413344
 20
220.8901750671058
 30
0.0
 10
188.1936315413344
 20
219.2156741083828
 30
0.0
 10
188.1936315413344
 20
215.5574340242675
 30
0.0
 10
188.1936315413344
 20
213.5751922512785
 30
0.0
 10
188.1936315413344
 20
211.59213879568
 30
0.0
  0
LINE
  5
2EA
330
1F
100
AcDbEntity
  8
0
  6
Continuous
 62
     7
370
    15
100
AcDbLine
 10
188.1936315413
 20
222.2813928585
 30
0.0
 11
178.1936315413
 21
222.2813928585
 31
0.0
  0
SPLINE
  5
2EB
330
1F
100
AcDbEntity
  8
0
  6
Continuous
 62
     7
370
    15
100
AcDbSpline
210
0.0
220
0.0
230
1.0
 70
    24
 71
     3
 72
    23
 73
    19
 74
     0
 42
0.00000001
 43
0.00000001
 12
1.0
 22
0.0
 32
0.0
 13
1.0
 23
0.0
 33
0.0
 40
0.0
 40
0.0
 40
0.0
 40
0.0
 40
0.0313286242887715
 40
0.0625984042896216
 40
0.093828408138745
 40
0.1250377768790962
 40
0.1562456895226286
 40
0.1874713277643315
 40
0.2187338406716017
 40
0.2500523096730217
 40
0.3750076002423398
 40
0.5000094066870403
 40
0.6249646972545181
 40
0.7499665037010751
 40
0.8125254382128488
 40
0.8749483905687669
 40
0.9373888056632488
 40
0.9999999999999999
 40
0.9999999999999999
 40
0.9999999999999999
 40
0.9999999999999999
 10
178.1936315413344
 20
222.2813928585196
 30
0.0
 10
178.1936315413344
 20
222.1938157299771
 30
0.0
 10
178.1936315413344
 20
222.018825968266
 30
0.0
 10
178.1936315413344
 20
221.7484340871021
 30
0.0
 10
178.1936315413344
 20
221.4726405487385
 30
0.0
 10
178.1936315413344
 20
221.1908563040028
 30
0.0
 10
178.1936315413344
 20
220.9032386753128
 30
0.0
 10
178.1936315413344
 20
220.6097483445482
 30
0.0
 10
178.1936315413344
 20
220.310387359931
 30
0.0
 10
178.1936315413344
 20
219.7013304496653
 30
0.0
 10
178.1936315413344
 20
218.7488392555384
 30
0.0
 10
178.1936315413344
 20
217.4091327807485
 30
0.0
 10
178.1936315413344
 20
216.0127837431112
 30
0.0
 10
178.1936315413344
 20
214.8124561027246
 30
0.0
 10
178.1936315413344
 20
213.8383884585645
 30
0.0
 10
178.1936315413344
 20
213.102507097003
 30
0.0
 10
178.1936315413344
 20
212.3627378483782
 30
0.0
 10
178.1936315413344
 20
211.8680215469972
 30
0.0
 10
178.1936315413344
 20
211.6203255866797
 30
0.0
  0
LINE
  5
2EC
330
1F
100
AcDbEntity
  8
0
  6
Continuous
 62
     7
370
    15
100
AcDbLine
 10
179.1936315413
 20
211.6203255867
 30
0.0
 11
178.1936315413
 21
211.6203255867
 31
0.0
  0
SPLINE
  5
2ED
330
1F
100
AcDbEntity
  8
0
  6
Continuous
 62
     7
370
    15
100
AcDbSpline
210
0.0
220
0.0
230
1.0
 70
     8
 71
     3
 72
     9
 73
     5
 74
     0
 42
0.00000001
 43
0.00000001
 12
1.0
 22
0.0
 32
0.0
 13
1.0
 23
0.0
 33
0.0
 40
0.0
 40
0.0
 40
0.0
 40
0.0
 40
0.4970752085894827
 40
0.9999999999999999
 40
0.9999999999999999
 40
0.9999999999999999
 40
0.9999999999999999
 10
179.1936315413344
 20
211.6203255866815
 30
0.0
 10
179.2329372545283
 20
211.6191512056065
 30
0.0
 10
179.3120112306887
 20
211.6167886233359
 30
0.0
 10
179.3894041551164
 20
211.6003873854598
 30
0.0
 10
179.4283269754908
 20
211.5921387963221
 30
0.0
  0
SPLINE
  5
2EE
330
1F
100
AcDbEntity
  8
0
  6
Continuous
 62
     7
370
    15
100
AcDbSpline
210
0.0
220
0.0
230
1.0
 70
     8
 71
     3
 72
    17
 73
    13
 74
     0
 42
0.00000001
 43
0.00000001
 12
1.0
 22
0.0
 32
0.0
 13
1.0
 23
0.0
 33
0.0
 40
0.0
 40
0.0
 40
0.0
 40
0.0
 40
0.0676007561011574
 40
0.1405368980884532
 40
0.2188160083710927
 40
0.3024439763709899
 40
0.3914253884244717
 40
0.4857638079114578
 40
0.65460487317794
 40
0.823456802841448
 40
0.9008413917711475
 40
1.0
 40
1.0
 40
1.0
 40
1.0
 10
179.4283269754908
 20
211.5921387963221
 30
0.0
 10
179.4574028988971
 20
211.5842326602274
 30
0.0
 10
179.5178495613348
 20
211.5677963966898
 30
0.0
 10
179.6084178310336
 20
211.531165281782
 30
0.0
 10
179.7013937680978
 20
211.482894164384
 30
0.0
 10
179.7945327427237
 20
211.4207006530926
 30
0.0
 10
179.8854427309142
 20
211.343628228637
 30
0.0
 10
179.9920766755844
 20
211.2281302297693
 30
0.0
 10
180.0971566636362
 20
211.064880593987
 30
0.0
 10
180.1600330232023
 20
210.8895250879144
 30
0.0
 10
180.1889991445107
 20
210.7382384906056
 30
0.0
 10
180.191965458822
 20
210.6596947662305
 30
0.0
 10
180.1936315417038
 20
210.615579294666
 30
0.0
  0
SPLINE
  5
2EF
330
1F
100
AcDbEntity
  8
0
  6
Continuous
 62
     7
370
    15
100
AcDbSpline
210
0.0
220
0.0
230
1.0
 70
    24
 71
     3
 72
     8
 73
     4
 74
     0
 42
0.00000001
 43
0.00000001
 12
1.0
 22
0.0
 32
0.0
 13
1.0
 23
0.0
 33
0.0
 40
0.0
 40
0.0
 40
0.0
 40
0.0
 40
1.0
 40
1.0
 40
1.0
 40
1.0
 10
180.1936315413344
 20
209.590013189662
 30
0.0
 10
180.1936315413344
 20
209.9305611595146
 30
0.0
 10
180.1936315413344
 20
210.2726856496547
 30
0.0
 10
180.1936315413344
 20
210.615579294666
 30
0.0
  0
LINE
  5
2F0
330
1F
100
AcDbEntity
  8
0
  6
Continuous
 62
     7
370
    15
100
AcDbLine
 10
188.1936315413
 20
197.1153995927
 30
0.0
 11
188.1936315413
 21
209.5900131897
 31
0.0
  0
LINE
  5
2F1
330
1F
100
AcDbEntity
  8
0
  6
Continuous
 62
     7
370
    15
100
AcDbLine
 10
188.1936315413
 20
222.6153995927
 30
0.0
 11
188.1936315413
 21
222.2813928587
 31
0.0
  0
LINE
  5
2F2
330
1F
100
AcDbEntity
  8
0
  6
Continuous
 62
     7
370
    15
100
AcDbLine
 10
178.1936315413
 20
222.6153995927
 30
0.0
 11
178.1936315413
 21
222.2813928587
 31
0.0
  0
LINE
  5
2F3
330
1F
100
AcDbEntity
  8
0
  6
Continuous
 62
     7
370
    15
100
AcDbLine
 10
180.1936315413
 20
209.5900131897
 30
0.0
 11
180.1936315413
 21
195.9855416467
 31
0.0
  0
LINE
  5
2F4
330
1F
100
AcDbEntity
  8
0
  6
Continuous
 62
     7
370
    15
100
AcDbLine
 10
180.1936315413
 20
195.9855416467
 30
0.0
 11
180.6936315413
 21
195.9855416467
 31
0.0
  0
LINE
  5
2F5
330
1F
100
AcDbEntity
  8
0
  6
Continuous
 62
     7
370
    15
100
AcDbLine
 10
180.6936315413
 20
195.5966933343
 30
0.0
 11
180.6936315413
 21
195.9855416467
 31
0.0
  0
LINE
  5
2F6
330
1F
100
AcDbEntity
  8
0
  6
Continuous
 62
     7
370
    15
100
AcDbLine
 10
180.1936315413
 20
185.9153995927
 30
0.0
 11
180.1936315413
 21
195.9420719271
 31
0.0
  0
LINE
  5
2F7
330
1F
100
AcDbEntity
  8
0
  6
Continuous
 62
     7
370
    15
100
AcDbLine
 10
188.1936315413
 20
222.6153995927
 30
0.0
 11
178.1936315413
 21
222.6153995927
 31
0.0
  0
LINE
  5
2F8
330
1F
100
AcDbEntity
  8
0
  6
Continuous
 62
     7
370
    15
100
AcDbLine
 10
135.1936315413
 20
184.9153995927
 30
0.0
 11
135.1936315413
 21
177.9153995927
 31
0.0
  0
LINE
  5
2F9
330
1F
100
AcDbEntity
  8
0
  6
Continuous
 62
     7
370
    15
100
AcDbLine
 10
135.1936315413
 20
151.9153995925
 30
0.0
 11
135.1936315413
 21
158.9153995929
 31
0.0
  0
LINE
  5
2FA
330
1F
100
AcDbEntity
  8
0
  6
Continuous
 62
     7
370
    15
100
AcDbLine
 10
133.9936315412
 20
163.9153995927
 30
0.0
 11
133.9936315412
 21
153.4153995926
 31
0.0
  0
LINE
  5
2FB
330
1F
100
AcDbEntity
  8
0
  6
Continuous
 62
     7
370
    15
100
AcDbLine
 10
133.9936315412
 20
174.4153995928
 30
0.0
 11
133.9936315412
 21
163.9153995927
 31
0.0
  0
LINE
  5
2FC
330
1F
100
AcDbEntity
  8
0
  6
Continuous
 62
     7
370
    15
100
AcDbLine
 10
181.0436315413
 20
181.4153995927
 30
0.0
 11
181.0436315413
 21
185.2153995927
 31
0.0
  0
LINE
  5
2FD
330
1F
100
AcDbEntity
  8
0
  6
Continuous
 62
     7
370
    15
100
AcDbLine
 10
181.0436315413
 20
177.6153995926
 30
0.0
 11
181.0436315413
 21
181.4153995927
 31
0.0
  0
LINE
  5
2FE
330
1F
100
AcDbEntity
  8
0
  6
Continuous
 62
     7
370
    15
100
AcDbLine
 10
181.0436315413
 20
155.4153995927
 30
0.0
 11
181.0436315413
 21
159.2153995927
 31
0.0
  0
LINE
  5
2FF
330
1F
100
AcDbEntity
  8
0
  6
Continuous
 62
     7
370
    15
100
AcDbLine
 10
181.0436315413
 20
151.6153995926
 30
0.0
 11
181.0436315413
 21
155.4153995927
 31
0.0
  0
LINE
  5
300
330
1F
100
AcDbEntity
  8
0
  6
Continuous
 62
     7
370
    15
100
AcDbLine
 10
180.5436315413
 20
155.4153995927
 30
0.0
 11
180.5436315413
 21
159.2153995927
 31
0.0
  0
LINE
  5
301
330
1F
100
AcDbEntity
  8
0
  6
Continuous
 62
     7
370
    15
100
AcDbLine
 10
180.5436315413
 20
151.6153995927
 30
0.0
 11
180.5436315413
 21
155.4153995927
 31
0.0
  0
LINE
  5
302
330
1F
100
AcDbEntity
  8
0
  6
Continuous
 62
     7
370
    15
100
AcDbLine
 10
180.5436315413
 20
181.4153995927
 30
0.0
 11
180.5436315413
 21
185.2153995927
 31
0.0
  0
LINE
  5
303
330
1F
100
AcDbEntity
  8
0
  6
Continuous
 62
     7
370
    15
100
AcDbLine
 10
180.5436315413
 20
177.6153995927
 30
0.0
 11
180.5436315413
 21
181.4153995927
 31
0.0
  0
LINE
  5
304
330
1F
100
AcDbEntity
  8
0
  6
Continuous
 62
     7
370
    15
100
AcDbLine
 10
185.2936315413
 20
157.4153995927
 30
0.0
 11
188.6936315413
 21
157.4153995927
 31
0.0
  0
LINE
  5
305
330
1F
100
AcDbEntity
  8
0
  6
CENTERX2
 62
     7
370
     0
100
AcDbLine
 10
175.1936315413
 20
211.5921387957
 30
0.0
 11
176.516984369
 21
211.5921387957
 31
0.0
  0
LINE
  5
306
330
1F
100
AcDbEntity
  8
0
  6
CENTERX2
 62
     7
370
     0
100
AcDbLine
 10
177.2421239048
 20
210.8669992599
 30
0.0
 11
177.2421239048
 21
197.0018057376
 31
0.0
  0
LINE
  5
307
330
1F
100
AcDbEntity
  8
0
  6
CENTERX2
 62
     7
370
     0
100
AcDbLine
 10
178.1936315413
 20
222.6153995927
 30
0.0
 11
175.1936315413
 21
222.6153995927
 31
0.0
  0
LINE
  5
308
330
1F
100
AcDbEntity
  8
0
  6
CENTERX2
 62
     7
370
     0
100
AcDbLine
 10
175.1936315413
 20
222.6153995927
 30
0.0
 11
175.1936315413
 21
211.6203255867
 31
0.0
  0
ARC
  5
309
330
1F
100
AcDbEntity
  8
0
  6
CENTERX2
 62
     7
370
     0
100
AcDbCircle
 10
176.516984369
 20
210.8669992599
 30
0.0
 40
0.7251395357413912
100
AcDbArc
 50
0.0
 51
90.0
  0
DIMENSION
  5
30A
330
1F
100
AcDbEntity
  8
0
  6
Continuous
 62
     7
370
     0
100
AcDbDimension
  2
_D_7
 10
175.1936315413
 20
230.6925256592
 30
0.0
 11
135.5802449956
 21
230.6925256592
 31
0.0
 70
   160
  1
Maxストローク　<>
 71
     2
 42
-1.0
  3
SLDDIMSTYLE0
100
AcDbAlignedDimension
 13
178.1936315413
 23
222.2813928586
 33
0.0
 14
175.1936315413
 24
222.6153995927
 34
0.0
100
AcDbRotatedDimension
  0
DIMENSION
  5
317
330
1F
100
AcDbEntity
  8
0
  6
Continuous
 62
     7
370
     0
100
AcDbDimension
  2
_D_8
 10
92.1773434054
 20
144.9153995927
 30
0.0
 11
92.1773434054
 21
162.4153833672
 31
0.0
 70
   160
  1
<>
 71
     2
 42
-1.0
  3
SLDDIMSTYLE2
100
AcDbAlignedDimension
 13
117.4828957264
 23
179.9153671417
 33
0.0
 14
131.4936315413
 24
144.9153995927
 34
0.0
 50
90.0
100
AcDbRotatedDimension
  0
DIMENSION
  5
321
330
1F
100
AcDbEntity
  8
0
  6
Continuous
 62
     7
370
     0
100
AcDbDimension
  2
_D_9
 10
97.1246351521
 20
144.9153995927
 30
0.0
 11
97.1246351521
 21
155.4076170599
 31
0.0
 70
   160
  1
<>
 71
     2
 42
-1.0
  3
SLDDIMSTYLE2
100
AcDbAlignedDimension
 13
97.8123229388
 23
163.9153995927
 33
0.0
 14
131.4936315413
 24
144.9153995927
 34
0.0
 50
90.0
100
AcDbRotatedDimension
  0
DIMENSION
  5
32B
330
1F
100
AcDbEntity
  8
0
  6
Continuous
 62
     7
370
     0
100
AcDbDimension
  2
_D_10
 10
195.386728565
 20
144.9153995927
 30
0.0
 11
195.386728565
 21
185.2902856144
 31
0.0
 70
   160
  1
<>
 71
     2
 42
-1.0
  3
SLDDIMSTYLE1
100
AcDbAlignedDimension
 13
188.1936315413
 23
222.6153995927
 33
0.0
 14
160.4936315413
 24
144.9153995927
 34
0.0
 50
90.0
100
AcDbRotatedDimension
  0
DIMENSION
  5
335
330
1F
100
AcDbEntity
  8
0
  6
Continuous
 62
     7
370
     0
100
AcDbDimension
  2
_D_11
 10
189.6936315416
 20
240.2058239889
 30
0.0
 11
183.9436315414
 21
240.2058239889
 31
0.0
 70
   160
  1
<>
 71
     2
 42
-1.0
  3
SLDDIMSTYLE3
100
AcDbAlignedDimension
 13
178.1936315413
 23
222.2813928586
 33
0.0
 14
189.6936315416
 24
197.1153995576
 34
0.0
100
AcDbRotatedDimension
  0
DIMENSION
  5
342
330
1F
100
AcDbEntity
  8
0
  6
Continuous
 62
     7
370
     0
100
AcDbDimension
  2
_D_12
 10
178.1936315413
 20
240.2058239889
 30
0.0
 11
166.0936315413
 21
240.2058239889
 31
0.0
 70
   160
  1
(<>)
 71
     2
 42
-1.0
  3
SLDDIMSTYLE1
100
AcDbAlignedDimension
 13
153.9936315413
 23
151.4153995927
 33
0.0
 14
178.1936315413
 24
222.2813928586
 34
0.0
 50
0.0
100
AcDbRotatedDimension
  0
DIMENSION
  5
34E
330
1F
100
AcDbEntity
  8
0
  6
Continuous
 62
     7
370
     0
100
AcDbDimension
  2
_D_13
 10
189.6936315413
 20
137.7920889987
 30
0.0
 11
151.8436315413
 21
137.7920889987
 31
0.0
 70
   160
  1
<>
 71
     2
 42
-1.0
  3
SLDDIMSTYLE1
100
AcDbAlignedDimension
 13
113.9936315413
 23
149.4153995927
 33
0.0
 14
189.6936315413
 24
157.4153995927
 34
0.0
100
AcDbRotatedDimension
  0
DIMENSION
  5
358
330
1F
100
AcDbEntity
  8
0
  6
Continuous
 62
     7
370
     0
100
AcDbDimension
  2
_D_14
 10
189.6936315413
 20
130.8541143043
 30
0.0
 11
144.5436315413
 21
130.8541143043
 31
0.0
 70
   160
  1
(<>)
 71
     2
 42
-1.0
  3
SLDDIMSTYLE1
100
AcDbAlignedDimension
 13
99.3936315413
 23
160.0653995927
 33
0.0
 14
189.6936315413
 24
157.4153995927
 34
0.0
100
AcDbRotatedDimension
  0
MTEXT
  5
364
330
1F
100
AcDbEntity
  8
0
  6
Continuous
 62
     7
370
     0
100
AcDbMText
 10
92.0696345653
 20
205.5948370736
 30
0.0
 40
3.5
 41
0.0
 71
     1
 72
     1
  1
カット配管　　　
  7
SLDTEXTSTYLE0
 73
     1
 44
1.0
  0
LEADER
  5
366
330
1F
100
AcDbEntity
  8
0
  6
Continuous
 62
     7
370
     0
100
AcDbLeader
  3
SLDDIMSTYLE4
 76
     3
 10
131.6069970118
 20
183.9153671417
 30
0.0
 10
121.9107365793
 20
200.9987515605
 30
0.0
 10
91.9475655431
 20
200.9987515605
 30
0.0
  0
MTEXT
  5
367
330
1F
100
AcDbEntity
  8
0
  6
Continuous
 62
     7
370
     0
100
AcDbMText
 10
87.5411260912
 20
199.7205290125
 30
0.0
 40
3.175
 41
0.0
 71
     1
 72
     1
  1
ＫＱ２Ｓ０４－Ｍ５Ｎ
  7
SLDTEXTSTYLE0
 73
     1
 44
1.0
  0
MTEXT
  5
368
330
1F
100
AcDbEntity
  8
0
  6
Continuous
 62
     7
370
     0
100
AcDbMText
 10
52.8806189244
 20
130.3878890872
 30
0.0
 40
3.5
 41
0.0
 71
     1
 72
     1
  1
プッシュ配管　　　
  7
SLDTEXTSTYLE0
 73
     1
 44
1.0
  0
LEADER
  5
369
330
1F
100
AcDbEntity
  8
0
  6
Continuous
 62
     7
370
     0
100
AcDbLeader
  3
SLDDIMSTYLE4
 76
     3
 10
105.8293333903
 20
159.9153995927
 30
0.0
 10
86.7047440699
 20
125.8426966292
 30
0.0
 10
52.8714107366
 20
125.8426966292
 30
0.0
  0
LINE
  5
36A
330
1F
100
AcDbEntity
  8
0
  6
CENTERX2
 62
     7
370
     0
100
AcDbLine
 10
136.9936315413
 20
179.9153671417
 30
0.0
 11
117.4828957264
 21
179.9153671417
 31
0.0
  0
LINE
  5
36B
330
1F
100
AcDbEntity
  8
0
  6
CENTERX2
 62
     7
370
     0
100
AcDbLine
 10
122.7936315413
 20
179.9153671417
 30
0.0
 11
134.9936315413
 21
179.9153671417
 31
0.0
  0
LINE
  5
36C
330
1F
100
AcDbEntity
  8
0
  6
CENTERX2
 62
     7
370
     0
100
AcDbLine
 10
97.8123229388
 20
163.9153995927
 30
0.0
 11
122.4557933412
 21
163.9153995927
 31
0.0
  0
LINE
  5
36D
330
1F
100
AcDbEntity
  8
0
  6
CENTERX2
 62
     7
370
     0
100
AcDbLine
 10
164.9936315413
 20
151.4153995927
 30
0.0
 11
164.9936315413
 21
144.9153995927
 31
0.0
  0
LINE
  5
36E
330
1F
100
AcDbEntity
  8
0
  6
CENTERX2
 62
     7
370
     0
100
AcDbLine
 10
153.9936315413
 20
151.4153995927
 30
0.0
 11
153.9936315413
 21
142.9153995927
 31
0.0
  0
LINE
  5
36F
330
1F
100
AcDbEntity
  8
0
  6
CENTERX2
 62
     7
370
     0
100
AcDbLine
 10
151.9936315413
 20
151.4153995927
 30
0.0
 11
151.9936315413
 21
142.9153995927
 31
0.0
  0
LINE
  5
370
330
1F
100
AcDbEntity
  8
0
  6
CENTERX2
 62
     7
370
     0
100
AcDbLine
 10
133.9936315413
 20
151.4153995927
 30
0.0
 11
133.9936315413
 21
142.9153995927
 31
0.0
  0
LINE
  5
371
330
1F
100
AcDbEntity
  8
0
  6
CENTERX2
 62
     7
370
     0
100
AcDbLine
 10
118.4936315413
 20
163.9153995927
 30
0.0
 11
111.9936315413
 21
163.9153995927
 31
0.0
  0
LINE
  5
372
330
1F
100
AcDbEntity
  8
0
  6
Continuous
 62
     7
370
    15
100
AcDbLine
 10
99.3936315413
 20
84.9493514852
 30
0.0
 11
100.8936315413
 21
84.9493514852
 31
0.0
  0
LINE
  5
373
330
1F
100
AcDbEntity
  8
0
  6
Continuous
 62
     7
370
    15
100
AcDbLine
 10
100.8936315413
 20
92.6493514852
 30
0.0
 11
99.3936315413
 21
92.6493514852
 31
0.0
  0
LINE
  5
374
330
1F
100
AcDbEntity
  8
0
  6
Continuous
 62
     7
370
    15
100
AcDbLine
 10
101.7936315413
 20
90.8493514852
 30
0.0
 11
100.8936315413
 21
90.8493514852
 31
0.0
  0
LINE
  5
375
330
1F
100
AcDbEntity
  8
0
  6
Continuous
 62
     7
370
    15
100
AcDbLine
 10
100.8936315413
 20
86.7493514852
 30
0.0
 11
101.7936315413
 21
86.7493514852
 31
0.0
  0
LINE
  5
376
330
1F
100
AcDbEntity
  8
0
  6
Continuous
 62
     7
370
    15
100
AcDbLine
 10
101.7936315413
 20
84.7993514852
 30
0.0
 11
113.9936315413
 21
84.7993514852
 31
0.0
  0
LINE
  5
377
330
1F
100
AcDbEntity
  8
0
  6
Continuous
 62
     7
370
    15
100
AcDbLine
 10
113.9936315413
 20
92.7993514852
 30
0.0
 11
101.7936315413
 21
92.7993514852
 31
0.0
  0
LINE
  5
378
330
1F
100
AcDbEntity
  8
0
  6
Continuous
 62
     7
370
    15
100
AcDbLine
 10
110.9077482461
 20
101.3970074157
 30
0.0
 11
110.7936315413
 21
101.1993514854
 31
0.0
  0
LINE
  5
379
330
1F
100
AcDbEntity
  8
0
  6
Continuous
 62
     7
370
    15
100
AcDbLine
 10
110.7936315412
 20
94.1993514852
 30
0.0
 11
110.9078355059
 21
94.0015444164
 31
0.0
  0
LINE
  5
37A
330
1F
100
AcDbEntity
  8
0
  6
Continuous
 62
     7
370
    15
100
AcDbLine
 10
109.9187981463
 20
95.6993514851
 30
0.0
 11
110.7936315413
 21
95.6993514851
 31
0.0
  0
LINE
  5
37B
330
1F
100
AcDbEntity
  8
0
  6
Continuous
 62
     7
370
    15
100
AcDbLine
 10
110.7936315413
 20
99.6993514853
 30
0.0
 11
109.9187981463
 21
99.6993514853
 31
0.0
  0
LINE
  5
37C
330
1F
100
AcDbEntity
  8
0
  6
Continuous
 62
     7
370
    15
100
AcDbLine
 10
109.9187981463
 20
99.6993514853
 30
0.0
 11
109.6936315413
 21
99.3093514856
 31
0.0
  0
LINE
  5
37D
330
1F
100
AcDbEntity
  8
0
  6
Continuous
 62
     7
370
    15
100
AcDbLine
 10
109.6936315413
 20
96.0893514848
 30
0.0
 11
109.9187981463
 21
95.6993514851
 31
0.0
  0
ARC
  5
37E
330
1F
100
AcDbEntity
  8
0
  6
Continuous
 62
     7
370
    15
100
AcDbCircle
 10
181.0436315412
 20
67.2493514851
 30
0.0
 40
0.2499999999999716
100
AcDbArc
 50
270.0000000224
 51
0.0
  0
ARC
  5
37F
330
1F
100
AcDbEntity
  8
0
  6
Continuous
 62
     7
370
    15
100
AcDbCircle
 10
181.0436315412
 20
74.3493514853
 30
0.0
 40
0.2499999999999716
100
AcDbArc
 50
0.0
 51
89.9999999776
  0
ARC
  5
380
330
1F
100
AcDbEntity
  8
0
  6
Continuous
 62
     7
370
    15
100
AcDbCircle
 10
181.0436315412
 20
103.2493514851
 30
0.0
 40
0.25
100
AcDbArc
 50
270.0000000224
 51
0.0
  0
ARC
  5
381
330
1F
100
AcDbEntity
  8
0
  6
Continuous
 62
     7
370
    15
100
AcDbCircle
 10
181.0436315412
 20
110.3493514853
 30
0.0
 40
0.25
100
AcDbArc
 50
0.0
 51
89.9999999776
  0
ARC
  5
382
330
1F
100
AcDbEntity
  8
0
  6
Continuous
 62
     7
370
    15
100
AcDbCircle
 10
180.5436315413
 20
67.2493514852
 30
0.0
 40
0.2500000000000284
100
AcDbArc
 50
180.0
 51
270.0000000011
  0
ARC
  5
383
330
1F
100
AcDbEntity
  8
0
  6
Continuous
 62
     7
370
    15
100
AcDbCircle
 10
180.5436315413
 20
74.3493514852
 30
0.0
 40
0.2500000000000284
100
AcDbArc
 50
89.9999999989
 51
180.0
  0
ARC
  5
384
330
1F
100
AcDbEntity
  8
0
  6
Continuous
 62
     7
370
    15
100
AcDbCircle
 10
180.5436315413
 20
103.2493514852
 30
0.0
 40
0.2500000000000284
100
AcDbArc
 50
180.0
 51
270.0000000011
  0
ARC
  5
385
330
1F
100
AcDbEntity
  8
0
  6
Continuous
 62
     7
370
    15
100
AcDbCircle
 10
180.5436315413
 20
110.3493514852
 30
0.0
 40
0.2500000000000284
100
AcDbArc
 50
89.9999999989
 51
180.0
  0
LINE
  5
386
330
1F
100
AcDbEntity
  8
0
  6
Continuous
 62
     7
370
    15
100
AcDbLine
 10
180.5436315413
 20
66.9993514852
 30
0.0
 11
181.0436315413
 21
66.9993514852
 31
0.0
  0
LINE
  5
387
330
1F
100
AcDbEntity
  8
0
  6
Continuous
 62
     7
370
    15
100
AcDbLine
 10
181.0436315413
 20
74.5993514852
 30
0.0
 11
180.5436315413
 21
74.5993514852
 31
0.0
  0
LINE
  5
388
330
1F
100
AcDbEntity
  8
0
  6
Continuous
 62
     7
370
    15
100
AcDbLine
 10
180.5436315413
 20
102.9993514852
 30
0.0
 11
181.0436315413
 21
102.9993514852
 31
0.0
  0
LINE
  5
389
330
1F
100
AcDbEntity
  8
0
  6
Continuous
 62
     7
370
    15
100
AcDbLine
 10
181.0436315413
 20
110.5993514852
 30
0.0
 11
180.5436315413
 21
110.5993514852
 31
0.0
  0
LINE
  5
38A
330
1F
100
AcDbEntity
  8
0
  6
Continuous
 62
     7
370
    15
100
AcDbLine
 10
184.9936315413
 20
74.2993514852
 30
0.0
 11
181.2936315413
 21
74.2993514852
 31
0.0
  0
LINE
  5
38B
330
1F
100
AcDbEntity
  8
0
  6
Continuous
 62
     7
370
    15
100
AcDbLine
 10
181.2936315413
 20
67.2993514852
 30
0.0
 11
184.9936315413
 21
67.2993514852
 31
0.0
  0
LINE
  5
38C
330
1F
100
AcDbEntity
  8
0
  6
Continuous
 62
     7
370
    15
100
AcDbLine
 10
184.9936315413
 20
110.2993514852
 30
0.0
 11
181.2936315413
 21
110.2993514852
 31
0.0
  0
LINE
  5
38D
330
1F
100
AcDbEntity
  8
0
  6
Continuous
 62
     7
370
    15
100
AcDbLine
 10
181.2936315413
 20
103.2993514852
 30
0.0
 11
184.9936315413
 21
103.2993514852
 31
0.0
  0
LINE
  5
38E
330
1F
100
AcDbEntity
  8
0
  6
Continuous
 62
     7
370
    15
100
AcDbLine
 10
184.9936315413
 20
67.2993514852
 30
0.0
 11
185.2986325412
 21
67.807686485
 31
0.0
  0
LINE
  5
38F
330
1F
100
AcDbEntity
  8
0
  6
Continuous
 62
     7
370
    15
100
AcDbLine
 10
185.2986325412
 20
73.7910164854
 30
0.0
 11
184.9936315413
 21
74.2993514852
 31
0.0
  0
LINE
  5
390
330
1F
100
AcDbEntity
  8
0
  6
Continuous
 62
     7
370
    15
100
AcDbLine
 10
184.9936315413
 20
103.2993514852
 30
0.0
 11
185.2986325412
 21
103.807686485
 31
0.0
  0
LINE
  5
391
330
1F
100
AcDbEntity
  8
0
  6
Continuous
 62
     7
370
    15
100
AcDbLine
 10
185.2986325412
 20
109.7910164854
 30
0.0
 11
184.9936315413
 21
110.2993514852
 31
0.0
  0
LINE
  5
392
330
1F
100
AcDbEntity
  8
0
  6
Continuous
 62
     7
370
    15
100
AcDbLine
 10
99.3936315413
 20
88.7993514852
 30
0.0
 11
99.3936315413
 21
84.9493514852
 31
0.0
  0
LINE
  5
393
330
1F
100
AcDbEntity
  8
0
  6
Continuous
 62
     7
370
    15
100
AcDbLine
 10
99.3936315413
 20
92.6493514852
 30
0.0
 11
99.3936315413
 21
88.7993514852
 31
0.0
  0
LINE
  5
394
330
1F
100
AcDbEntity
  8
0
  6
Continuous
 62
     7
370
    15
100
AcDbLine
 10
100.8936315413
 20
88.7993514852
 30
0.0
 11
100.8936315413
 21
84.9493514852
 31
0.0
  0
LINE
  5
395
330
1F
100
AcDbEntity
  8
0
  6
Continuous
 62
     7
370
    15
100
AcDbLine
 10
100.8936315413
 20
92.6493514852
 30
0.0
 11
100.8936315413
 21
88.7993514852
 31
0.0
  0
LINE
  5
396
330
1F
100
AcDbEntity
  8
0
  6
Continuous
 62
     7
370
    15
100
AcDbLine
 10
101.7936315413
 20
88.7993514852
 30
0.0
 11
101.7936315413
 21
92.7993514852
 31
0.0
  0
LINE
  5
397
330
1F
100
AcDbEntity
  8
0
  6
Continuous
 62
     7
370
    15
100
AcDbLine
 10
101.7936315413
 20
84.7993514852
 30
0.0
 11
101.7936315413
 21
88.7993514852
 31
0.0
  0
LINE
  5
398
330
1F
100
AcDbEntity
  8
0
  6
Continuous
 62
     7
370
    15
100
AcDbLine
 10
131.4936315413
 20
66.7993514852
 30
0.0
 11
159.4936315413
 21
66.7993514852
 31
0.0
  0
LINE
  5
399
330
1F
100
AcDbEntity
  8
0
  6
Continuous
 62
     7
370
    15
100
AcDbLine
 10
131.4936315413
 20
110.7993514852
 30
0.0
 11
130.4936315413
 21
109.7993514852
 31
0.0
  0
LINE
  5
39A
330
1F
100
AcDbEntity
  8
0
  6
Continuous
 62
     7
370
    15
100
AcDbLine
 10
131.4936315413
 20
110.7993514852
 30
0.0
 11
159.4936315413
 21
110.7993514852
 31
0.0
  0
LINE
  5
39B
330
1F
100
AcDbEntity
  8
0
  6
Continuous
 62
     7
370
    15
100
AcDbLine
 10
160.4936315413
 20
109.7993514852
 30
0.0
 11
159.4936315413
 21
110.7993514852
 31
0.0
  0
LINE
  5
39C
330
1F
100
AcDbEntity
  8
0
  6
Continuous
 62
     7
370
    15
100
AcDbLine
 10
160.4936315413
 20
67.7993514852
 30
0.0
 11
160.4936315413
 21
109.7993514852
 31
0.0
  0
LINE
  5
39D
330
1F
100
AcDbEntity
  8
0
  6
Continuous
 62
     7
370
    15
100
AcDbLine
 10
160.4936315413
 20
67.7993514852
 30
0.0
 11
159.4936315413
 21
66.7993514852
 31
0.0
  0
LINE
  5
39E
330
1F
100
AcDbEntity
  8
0
  6
Continuous
 62
     7
370
    15
100
AcDbLine
 10
131.4936315413
 20
66.7993514852
 30
0.0
 11
130.4936315413
 21
67.7993514852
 31
0.0
  0
LINE
  5
39F
330
1F
100
AcDbEntity
  8
0
  6
Continuous
 62
     7
370
    15
100
AcDbLine
 10
130.4936315413
 20
67.7993514852
 30
0.0
 11
130.4936315413
 21
109.7993514852
 31
0.0
  0
CIRCLE
  5
3A0
330
1F
100
AcDbEntity
  8
0
  6
Continuous
 62
     7
370
    15
100
AcDbCircle
 10
133.9936315413
 20
88.7993514852
 30
0.0
 40
1.650000000000006
  0
CIRCLE
  5
3A1
330
1F
100
AcDbEntity
  8
0
  6
Continuous
 62
     7
370
    15
100
AcDbCircle
 10
153.9936315413
 20
88.7993514852
 30
0.0
 40
1.649999999999977
  0
CIRCLE
  5
3A2
330
1F
100
AcDbEntity
  8
0
  6
Continuous
 62
     7
370
    15
100
AcDbCircle
 10
153.9936315413
 20
70.7993514852
 30
0.0
 40
1.649999999999977
  0
CIRCLE
  5
3A3
330
1F
100
AcDbEntity
  8
0
  6
Continuous
 62
     7
370
    15
100
AcDbCircle
 10
151.9936315413
 20
78.6383141642
 30
0.0
 40
1.649999999999977
  0
CIRCLE
  5
3A4
330
1F
100
AcDbEntity
  8
0
  6
Continuous
 62
     7
370
    15
100
AcDbCircle
 10
151.9936315413
 20
98.6383141642
 30
0.0
 40
1.649999999999977
  0
CIRCLE
  5
3A5
330
1F
100
AcDbEntity
  8
0
  6
Continuous
 62
     7
370
    15
100
AcDbCircle
 10
153.9936315413
 20
106.7993514852
 30
0.0
 40
1.649999999999977
  0
ARC
  5
3A6
330
1F
100
AcDbEntity
  8
0
  6
Continuous
 62
     7
370
    15
100
AcDbCircle
 10
164.9936315413
 20
102.2993514852
 30
0.0
 40
4.0
100
AcDbArc
 50
90.0
 51
270.0
  0
LINE
  5
3A7
330
1F
100
AcDbEntity
  8
0
  6
Continuous
 62
     7
370
    15
100
AcDbLine
 10
165.4936315413
 20
98.2993514852
 30
0.0
 11
164.9936315413
 21
98.2993514852
 31
0.0
  0
LINE
  5
3A8
330
1F
100
AcDbEntity
  8
0
  6
Continuous
 62
     7
370
    15
100
AcDbLine
 10
164.9936315413
 20
79.2993514852
 30
0.0
 11
165.4936315413
 21
79.2993514852
 31
0.0
  0
ARC
  5
3A9
330
1F
100
AcDbEntity
  8
0
  6
Continuous
 62
     7
370
    15
100
AcDbCircle
 10
164.9936315413
 20
75.2993514852
 30
0.0
 40
4.0
100
AcDbArc
 50
90.0
 51
270.0
  0
LINE
  5
3AA
330
1F
100
AcDbEntity
  8
0
  6
Continuous
 62
     7
370
    15
100
AcDbLine
 10
165.4936315413
 20
71.2993514852
 30
0.0
 11
164.9936315413
 21
71.2993514852
 31
0.0
  0
LINE
  5
3AB
330
1F
100
AcDbEntity
  8
0
  6
Continuous
 62
     7
370
    15
100
AcDbLine
 10
131.1936315413
 20
66.2993514852
 30
0.0
 11
166.4936315413
 21
66.2993514852
 31
0.0
  0
LINE
  5
3AC
330
1F
100
AcDbEntity
  8
0
  6
Continuous
 62
     7
370
    15
100
AcDbLine
 10
116.4936315413
 20
73.2993514852
 30
0.0
 11
131.1936315413
 21
66.2993514852
 31
0.0
  0
LINE
  5
3AD
330
1F
100
AcDbEntity
  8
0
  6
Continuous
 62
     7
370
    15
100
AcDbLine
 10
116.4936315413
 20
104.2993514852
 30
0.0
 11
116.4936315413
 21
73.2993514852
 31
0.0
  0
LINE
  5
3AE
330
1F
100
AcDbEntity
  8
0
  6
Continuous
 62
     7
370
    15
100
AcDbLine
 10
131.1936315413
 20
111.2993514852
 30
0.0
 11
116.4936315413
 21
104.2993514852
 31
0.0
  0
LINE
  5
3AF
330
1F
100
AcDbEntity
  8
0
  6
Continuous
 62
     7
370
    15
100
AcDbLine
 10
166.4936315413
 20
111.2993514852
 30
0.0
 11
131.1936315413
 21
111.2993514852
 31
0.0
  0
LINE
  5
3B0
330
1F
100
AcDbEntity
  8
0
  6
Continuous
 62
     7
370
    15
100
AcDbLine
 10
164.9936315413
 20
106.2993514852
 30
0.0
 11
165.4936315413
 21
106.2993514852
 31
0.0
  0
LINE
  5
3B1
330
1F
100
AcDbEntity
  8
0
  6
Continuous
 62
     7
370
    15
100
AcDbLine
 10
113.9936315413
 20
73.2993514852
 30
0.0
 11
116.4936315413
 21
73.2993514852
 31
0.0
  0
LINE
  5
3B2
330
1F
100
AcDbEntity
  8
0
  6
Continuous
 62
     7
370
    15
100
AcDbLine
 10
113.9936315413
 20
104.2993514852
 30
0.0
 11
113.9936315413
 21
73.2993514852
 31
0.0
  0
LINE
  5
3B3
330
1F
100
AcDbEntity
  8
0
  6
Continuous
 62
     7
370
    15
100
AcDbLine
 10
116.4936315413
 20
104.2993514852
 30
0.0
 11
113.9936315413
 21
104.2993514852
 31
0.0
  0
SPLINE
  5
3B4
330
1F
100
AcDbEntity
  8
0
  6
Continuous
 62
     7
370
    15
100
AcDbSpline
210
0.0
220
0.0
230
1.0
 70
     8
 71
     3
 72
     8
 73
     4
 74
     0
 42
0.00000001
 43
0.00000001
 12
1.0
 22
0.0
 32
0.0
 13
1.0
 23
0.0
 33
0.0
 40
0.0
 40
0.0
 40
0.0
 40
0.0
 40
1.0
 40
1.0
 40
1.0
 40
1.0
 10
111.1062389328382
 20
95.03442258731307
 30
0.0
 10
110.9156522516343
 20
95.68193934016186
 30
0.0
 10
110.7936315412278
 20
96.33985932529465
 30
0.0
 10
110.7936315412271
 20
97.0162930100716
 30
0.0
  0
SPLINE
  5
3B5
330
1F
100
AcDbEntity
  8
0
  6
Continuous
 62
     7
370
    15
100
AcDbSpline
210
0.0
220
0.0
230
1.0
 70
     8
 71
     3
 72
     8
 73
     4
 74
     0
 42
0.00000001
 43
0.00000001
 12
1.0
 22
0.0
 32
0.0
 13
1.0
 23
0.0
 33
0.0
 40
0.0
 40
0.0
 40
0.0
 40
0.0
 40
1.0
 40
1.0
 40
1.0
 40
1.0
 10
111.106238932893
 20
98.99816343300986
 30
0.0
 10
110.9156522516534
 20
98.35064668009083
 30
0.0
 10
110.7936315412263
 20
97.69272669492621
 30
0.0
 10
110.7936315412271
 20
97.01629301007162
 30
0.0
  0
LINE
  5
3B6
330
1F
100
AcDbEntity
  8
0
  6
Continuous
 62
     7
370
    15
100
AcDbLine
 10
113.9936315413
 20
98.9981634332
 30
0.0
 11
111.106238933
 21
98.9981634332
 31
0.0
  0
LINE
  5
3B7
330
1F
100
AcDbEntity
  8
0
  6
Continuous
 62
     7
370
    15
100
AcDbLine
 10
111.1062389329
 20
95.0344225873
 30
0.0
 11
113.9936315413
 21
95.0344225872
 31
0.0
  0
SPLINE
  5
3B8
330
1F
100
AcDbEntity
  8
0
  6
Continuous
 62
     7
370
    15
100
AcDbSpline
210
0.0
220
0.0
230
1.0
 70
     8
 71
     3
 72
     8
 73
     4
 74
     0
 42
0.00000001
 43
0.00000001
 12
1.0
 22
0.0
 32
0.0
 13
1.0
 23
0.0
 33
0.0
 40
0.0
 40
0.0
 40
0.0
 40
0.0
 40
1.0
 40
1.0
 40
1.0
 40
1.0
 10
111.106238932893
 20
98.99816343339482
 30
0.0
 10
110.915652251705
 20
99.43350625063127
 30
0.0
 10
110.7936315413263
 20
99.8758434388285
 30
0.0
 10
110.7936315413344
 20
100.3306278821753
 30
0.0
  0
LINE
  5
3B9
330
1F
100
AcDbEntity
  8
0
  6
Continuous
 62
     7
370
    15
100
AcDbLine
 10
110.7936315413
 20
97.0162930101
 30
0.0
 11
110.7936315413
 21
100.3306278822
 31
0.0
  0
SPLINE
  5
3BA
330
1F
100
AcDbEntity
  8
0
  6
Continuous
 62
     7
370
    15
100
AcDbSpline
210
0.0
220
0.0
230
1.0
 70
     8
 71
     3
 72
     8
 73
     4
 74
     0
 42
0.00000001
 43
0.00000001
 12
1.0
 22
0.0
 32
0.0
 13
1.0
 23
0.0
 33
0.0
 40
0.0
 40
0.0
 40
0.0
 40
0.0
 40
1.0
 40
1.0
 40
1.0
 40
1.0
 10
111.1062389329388
 20
101.6630923311813
 30
0.0
 10
110.9156522517374
 20
101.2277495139428
 30
0.0
 10
110.7936315413425
 20
100.7854123255263
 30
0.0
 10
110.7936315413344
 20
100.3306278821753
 30
0.0
  0
LINE
  5
3BB
330
1F
100
AcDbEntity
  8
0
  6
Continuous
 62
     7
370
    15
100
AcDbLine
 10
113.9936315413
 20
101.6630923312
 30
0.0
 11
111.106238933
 21
101.6630923311
 31
0.0
  0
LINE
  5
3BC
330
1F
100
AcDbEntity
  8
0
  6
Continuous
 62
     7
370
    15
100
AcDbLine
 10
110.7936315413
 20
97.0162930101
 30
0.0
 11
110.7936315412
 21
94.3850166132
 31
0.0
  0
SPLINE
  5
3BD
330
1F
100
AcDbEntity
  8
0
  6
Continuous
 62
     7
370
    15
100
AcDbSpline
210
0.0
220
0.0
230
1.0
 70
     8
 71
     3
 72
     8
 73
     4
 74
     0
 42
0.00000001
 43
0.00000001
 12
1.0
 22
0.0
 32
0.0
 13
1.0
 23
0.0
 33
0.0
 40
0.0
 40
0.0
 40
0.0
 40
0.0
 40
1.0
 40
1.0
 40
1.0
 40
1.0
 10
110.7936315412759
 20
94.3850166131093
 30
0.0
 10
110.793631541222
 20
94.60666585457798
 30
0.0
 10
110.9156522517079
 20
94.82224865149482
 30
0.0
 10
111.1062389329134
 20
95.03442258714608
 30
0.0
  0
LINE
  5
3BE
330
1F
100
AcDbEntity
  8
0
  6
Continuous
 62
     7
370
    15
100
AcDbLine
 10
110.7936315412
 20
94.1993514852
 30
0.0
 11
110.7936315412
 21
94.3850166132
 31
0.0
  0
LINE
  5
3BF
330
1F
100
AcDbEntity
  8
0
  6
Continuous
 62
     7
370
    15
100
AcDbLine
 10
110.7936315413
 20
100.3306278822
 30
0.0
 11
110.7936315413
 21
101.1993514854
 31
0.0
  0
SPLINE
  5
3C0
330
1F
100
AcDbEntity
  8
0
  6
Continuous
 62
     7
370
    15
100
AcDbSpline
210
0.0
220
0.0
230
1.0
 70
     8
 71
     3
 72
     8
 73
     4
 74
     0
 42
0.00000001
 43
0.00000001
 12
1.0
 22
0.0
 32
0.0
 13
1.0
 23
0.0
 33
0.0
 40
0.0
 40
0.0
 40
0.0
 40
0.0
 40
1.0
 40
1.0
 40
1.0
 40
1.0
 10
110.7936315412759
 20
94.3850166131093
 30
0.0
 10
110.7936315413299
 20
94.16336737167464
 30
0.0
 10
110.9156522518261
 20
93.94778457486555
 30
0.0
 10
111.1062389330289
 20
93.73561063924885
 30
0.0
  0
LINE
  5
3C1
330
1F
100
AcDbEntity
  8
0
  6
Continuous
 62
     7
370
    15
100
AcDbLine
 10
111.1062389331
 20
93.7356106393
 30
0.0
 11
113.9936315413
 21
93.7356106392
 31
0.0
  0
SPLINE
  5
3C2
330
1F
100
AcDbEntity
  8
0
  6
Continuous
 62
     7
370
    15
100
AcDbSpline
210
0.0
220
0.0
230
1.0
 70
     8
 71
     3
 72
     9
 73
     5
 74
     0
 42
0.00000001
 43
0.00000001
 12
1.0
 22
0.0
 32
0.0
 13
1.0
 23
0.0
 33
0.0
 40
0.0
 40
0.0
 40
0.0
 40
0.0
 40
0.5925321483905369
 40
1.0
 40
1.0
 40
1.0
 40
1.0
 10
111.1062389330219
 20
101.6630923310955
 30
0.0
 10
111.0606647672324
 20
101.6107306914577
 30
0.0
 10
110.9837505172405
 20
101.5223614109385
 30
0.0
 10
110.93172316395
 20
101.4321594227398
 30
0.0
 10
110.9105236900798
 20
101.3954050123976
 30
0.0
  0
LINE
  5
3C3
330
1F
100
AcDbEntity
  8
0
  6
Continuous
 62
     7
370
    15
100
AcDbLine
 10
109.9187981463
 20
98.8024312542
 30
0.0
 11
109.9187981463
 21
99.6993514853
 31
0.0
  0
LINE
  5
3C4
330
1F
100
AcDbEntity
  8
0
  6
Continuous
 62
     7
370
    15
100
AcDbLine
 10
109.9187981463
 20
95.6993514851
 30
0.0
 11
109.9187981463
 21
98.8024312542
 31
0.0
  0
LINE
  5
3C5
330
1F
100
AcDbEntity
  8
0
  6
Continuous
 62
     7
370
    15
100
AcDbLine
 10
109.6936315413
 20
96.0893514848
 30
0.0
 11
109.6936315413
 21
99.3093514856
 31
0.0
  0
CIRCLE
  5
3C6
330
1F
100
AcDbEntity
  8
0
  6
Continuous
 62
     7
370
    15
100
AcDbCircle
 10
169.2936315413
 20
102.2993514852
 30
0.0
 40
2.0000000003281
  0
CIRCLE
  5
3C7
330
1F
100
AcDbEntity
  8
0
  6
Continuous
 62
     7
370
    15
100
AcDbCircle
 10
169.2936315413
 20
102.2993514852
 30
0.0
 40
1.588675134342495
  0
CIRCLE
  5
3C8
330
1F
100
AcDbEntity
  8
0
  6
Continuous
 62
     7
370
    15
100
AcDbCircle
 10
169.2936315413
 20
102.2993514852
 30
0.0
 40
1.300000000109409
  0
ARC
  5
3C9
330
1F
100
AcDbEntity
  8
0
  6
Continuous
 62
     7
370
    15
100
AcDbCircle
 10
169.2936315413
 20
102.2993514852
 30
0.0
 40
3.99999999966898
100
AcDbArc
 50
161.8051276757
 51
198.1948723243
  0
ARC
  5
3CA
330
1F
100
AcDbEntity
  8
0
  6
Continuous
 62
     7
370
    15
100
AcDbCircle
 10
169.2936315413
 20
102.2993514852
 30
0.0
 40
7.799999999825656
100
AcDbArc
 50
160.7513174598
 51
180.0
  0
ARC
  5
3CB
330
1F
100
AcDbEntity
  8
0
  6
Continuous
 62
     7
370
    15
100
AcDbCircle
 10
169.2936315413
 20
102.2993514852
 30
0.0
 40
7.799999999825654
100
AcDbArc
 50
180.0
 51
199.2486825402
  0
ARC
  5
3CC
330
1F
100
AcDbEntity
  8
0
  6
Continuous
 62
     7
370
    15
100
AcDbCircle
 10
169.2936315413
 20
102.2993514852
 30
0.0
 40
8.000000000325187
100
AcDbArc
 50
165.1107750478
 51
194.8892249522
  0
CIRCLE
  5
3CD
330
1F
100
AcDbEntity
  8
0
  6
Continuous
 62
     7
370
    15
100
AcDbCircle
 10
169.2936315413
 20
75.2993514852
 30
0.0
 40
2.00000000015865
  0
CIRCLE
  5
3CE
330
1F
100
AcDbEntity
  8
0
  6
Continuous
 62
     7
370
    15
100
AcDbCircle
 10
169.2936315413
 20
75.2993514852
 30
0.0
 40
1.588675134944765
  0
CIRCLE
  5
3CF
330
1F
100
AcDbEntity
  8
0
  6
Continuous
 62
     7
370
    15
100
AcDbCircle
 10
169.2936315413
 20
75.2993514852
 30
0.0
 40
1.300000000117083
  0
ARC
  5
3D0
330
1F
100
AcDbEntity
  8
0
  6
Continuous
 62
     7
370
    15
100
AcDbCircle
 10
169.2936315413
 20
75.2993514852
 30
0.0
 40
3.999999999491265
100
AcDbArc
 50
161.8051276834
 51
198.1948723166
  0
ARC
  5
3D1
330
1F
100
AcDbEntity
  8
0
  6
Continuous
 62
     7
370
    15
100
AcDbCircle
 10
169.2936315413
 20
75.2993514852
 30
0.0
 40
7.80000000005067
100
AcDbArc
 50
160.7513174642
 51
180.0
  0
ARC
  5
3D2
330
1F
100
AcDbEntity
  8
0
  6
Continuous
 62
     7
370
    15
100
AcDbCircle
 10
169.2936315413
 20
75.2993514852
 30
0.0
 40
7.800000000050667
100
AcDbArc
 50
180.0
 51
199.2486825358
  0
ARC
  5
3D3
330
1F
100
AcDbEntity
  8
0
  6
Continuous
 62
     7
370
    15
100
AcDbCircle
 10
169.2936315413
 20
75.2993514852
 30
0.0
 40
7.999999999808564
100
AcDbArc
 50
165.1107750349
 51
194.8892249651
  0
LINE
  5
3D4
330
1F
100
AcDbEntity
  8
0
  6
Continuous
 62
   144
370
     0
100
AcDbLine
 10
134.9936315413
 20
87.4869110104
 30
0.0
 11
134.9936315413
 21
90.11179196
 31
0.0
  0
ARC
  5
3D5
330
1F
100
AcDbEntity
  8
0
  6
Continuous
 62
     7
370
    15
100
AcDbCircle
 10
166.4936315413
 20
110.2993514852
 30
0.0
 40
1.0
100
AcDbArc
 50
90.0
 51
180.0
  0
LINE
  5
3D6
330
1F
100
AcDbEntity
  8
0
  6
Continuous
 62
     7
370
    15
100
AcDbLine
 10
165.4936315413
 20
67.2993514852
 30
0.0
 11
165.4936315413
 21
110.2993514852
 31
0.0
  0
ARC
  5
3D7
330
1F
100
AcDbEntity
  8
0
  6
Continuous
 62
     7
370
    15
100
AcDbCircle
 10
166.4936315413
 20
67.2993514852
 30
0.0
 40
1.0
100
AcDbArc
 50
180.0
 51
270.0
  0
LINE
  5
3D8
330
1F
100
AcDbEntity
  8
0
  6
Continuous
 62
     7
370
    15
100
AcDbLine
 10
176.4936315413
 20
66.2993514852
 30
0.0
 11
166.4936315413
 21
66.2993514852
 31
0.0
  0
LINE
  5
3D9
330
1F
100
AcDbEntity
  8
0
  6
Continuous
 62
     7
370
    15
100
AcDbLine
 10
176.4936315413
 20
111.2993514852
 30
0.0
 11
176.4936315413
 21
66.2993514852
 31
0.0
  0
LINE
  5
3DA
330
1F
100
AcDbEntity
  8
0
  6
Continuous
 62
     7
370
    15
100
AcDbLine
 10
166.4936315413
 20
111.2993514852
 30
0.0
 11
176.4936315413
 21
111.2993514852
 31
0.0
  0
CIRCLE
  5
3DB
330
1F
100
AcDbEntity
  8
0
  6
Continuous
 62
     7
370
    15
100
AcDbCircle
 10
169.2936315413
 20
102.2993514852
 30
0.0
 40
2.050000000000011
  0
CIRCLE
  5
3DC
330
1F
100
AcDbEntity
  8
0
  6
Continuous
 62
   144
370
     0
100
AcDbCircle
 10
169.2936315413
 20
75.2993514854
 30
0.0
 40
2.050000000000011
  0
LINE
  5
3DD
330
1F
100
AcDbEntity
  8
0
  6
Continuous
 62
     7
370
    15
100
AcDbLine
 10
176.4936315413
 20
66.2993514852
 30
0.0
 11
178.6936315413
 21
66.2993514852
 31
0.0
  0
LINE
  5
3DE
330
1F
100
AcDbEntity
  8
0
  6
Continuous
 62
     7
370
    15
100
AcDbLine
 10
178.6936315413
 20
111.2993514852
 30
0.0
 11
178.6936315413
 21
66.2993514852
 31
0.0
  0
LINE
  5
3DF
330
1F
100
AcDbEntity
  8
0
  6
Continuous
 62
     7
370
    15
100
AcDbLine
 10
178.6936315413
 20
111.2993514852
 30
0.0
 11
176.4936315413
 21
111.2993514852
 31
0.0
  0
LINE
  5
3E0
330
1F
100
AcDbEntity
  8
0
  6
Continuous
 62
     7
370
    15
100
AcDbLine
 10
180.2936315413
 20
66.2993514852
 30
0.0
 11
178.6936315413
 21
66.2993514852
 31
0.0
  0
LINE
  5
3E1
330
1F
100
AcDbEntity
  8
0
  6
Continuous
 62
     7
370
    15
100
AcDbLine
 10
180.2936315413
 20
70.2993514852
 30
0.0
 11
180.2936315413
 21
66.2993514852
 31
0.0
  0
LINE
  5
3E2
330
1F
100
AcDbEntity
  8
0
  6
Continuous
 62
     7
370
    15
100
AcDbLine
 10
180.2936315413
 20
70.2993514852
 30
0.0
 11
178.6936315413
 21
70.2993514852
 31
0.0
  0
LINE
  5
3E3
330
1F
100
AcDbEntity
  8
0
  6
Continuous
 62
     7
370
    15
100
AcDbLine
 10
180.2936315413
 20
107.2993514852
 30
0.0
 11
180.2936315413
 21
70.2993514852
 31
0.0
  0
LINE
  5
3E4
330
1F
100
AcDbEntity
  8
0
  6
Continuous
 62
     7
370
    15
100
AcDbLine
 10
180.2936315413
 20
107.2993514852
 30
0.0
 11
178.6936315413
 21
107.2993514852
 31
0.0
  0
LINE
  5
3E5
330
1F
100
AcDbEntity
  8
0
  6
Continuous
 62
     7
370
    15
100
AcDbLine
 10
180.2936315413
 20
111.2993514852
 30
0.0
 11
180.2936315413
 21
107.2993514852
 31
0.0
  0
LINE
  5
3E6
330
1F
100
AcDbEntity
  8
0
  6
Continuous
 62
     7
370
    15
100
AcDbLine
 10
180.2936315413
 20
111.2993514852
 30
0.0
 11
178.6936315413
 21
111.2993514852
 31
0.0
  0
LINE
  5
3E7
330
1F
100
AcDbEntity
  8
0
  6
Continuous
 62
     7
370
    15
100
AcDbLine
 10
181.2936315413
 20
67.2493514851
 30
0.0
 11
181.2936315413
 21
74.3493514853
 31
0.0
  0
LINE
  5
3E8
330
1F
100
AcDbEntity
  8
0
  6
Continuous
 62
     7
370
    15
100
AcDbLine
 10
181.2936315413
 20
103.2493514851
 30
0.0
 11
181.2936315413
 21
110.3493514853
 31
0.0
  0
LINE
  5
3E9
330
1F
100
AcDbEntity
  8
0
  6
Continuous
 62
     7
370
    15
100
AcDbLine
 10
184.9936315413
 20
67.2993514852
 30
0.0
 11
184.9936315413
 21
74.2993514852
 31
0.0
  0
LINE
  5
3EA
330
1F
100
AcDbEntity
  8
0
  6
Continuous
 62
     7
370
    15
100
AcDbLine
 10
184.9936315413
 20
103.2993514852
 30
0.0
 11
184.9936315413
 21
110.2993514852
 31
0.0
  0
LINE
  5
3EB
330
1F
100
AcDbEntity
  8
0
  6
Continuous
 62
     7
370
    15
100
AcDbLine
 10
185.2936315413
 20
67.7993514851
 30
0.0
 11
185.2936315413
 21
73.7993514853
 31
0.0
  0
LINE
  5
3EC
330
1F
100
AcDbEntity
  8
0
  6
Continuous
 62
     7
370
    15
100
AcDbLine
 10
185.2936315413
 20
103.7993514851
 30
0.0
 11
185.2936315413
 21
109.7993514853
 31
0.0
  0
LINE
  5
3ED
330
1F
100
AcDbEntity
  8
0
  6
Continuous
 62
     7
370
    15
100
AcDbLine
 10
188.6936315413
 20
77.7993514861
 30
0.0
 11
189.6936315413
 21
77.7993514861
 31
0.0
  0
LINE
  5
3EE
330
1F
100
AcDbEntity
  8
0
  6
Continuous
 62
     7
370
    15
100
AcDbLine
 10
188.6936315413
 20
75.7993514852
 30
0.0
 11
188.6936315413
 21
77.7993514852
 31
0.0
  0
ARC
  5
3EF
330
1F
100
AcDbEntity
  8
0
  6
Continuous
 62
     7
370
    15
100
AcDbCircle
 10
188.6936315412
 20
76.7993514851
 30
0.0
 40
1.0
100
AcDbArc
 50
270.0000000076
 51
0.0000011269
  0
SPLINE
  5
3F0
330
1F
100
AcDbEntity
  8
0
  6
Continuous
 62
     7
370
    15
100
AcDbSpline
210
0.0
220
0.0
230
1.0
 70
    24
 71
     3
 72
    17
 73
    13
 74
     0
 42
0.00000001
 43
0.00000001
 12
1.0
 22
0.0
 32
0.0
 13
1.0
 23
0.0
 33
0.0
 40
0.0
 40
0.0
 40
0.0
 40
0.0
 40
0.0629241150153187
 40
0.1251980532390405
 40
0.187427187778422
 40
0.250218187621923
 40
0.3750045706189838
 40
0.5001466373311028
 40
0.6249330203280228
 40
0.750075087040269
 40
0.8747704222972249
 40
1.0
 40
1.0
 40
1.0
 40
1.0
 10
189.6936315413344
 20
76.7993515244052
 30
0.0
 10
189.6936315413344
 20
76.8002853319848
 30
0.0
 10
189.6936315413344
 20
76.80214329837868
 30
0.0
 10
189.6936315413344
 20
76.81700442979614
 30
0.0
 10
189.6936315413344
 20
76.8407734568593
 30
0.0
 10
189.6936315413344
 20
76.88497053688958
 30
0.0
 10
189.6936315413344
 20
76.96216897129615
 30
0.0
 10
189.6936315413344
 20
77.0876815153611
 30
0.0
 10
189.6936315413344
 20
77.23991454907139
 30
0.0
 10
189.6936315413344
 20
77.4140541136777
 30
0.0
 10
189.6936315413344
 20
77.60279791154453
 30
0.0
 10
189.6936315413344
 20
77.73374032630073
 30
0.0
 10
189.6936315413344
 20
77.799351485705
 30
0.0
  0
ARC
  5
3F1
330
1F
100
AcDbEntity
  8
0
  6
Continuous
 62
     7
370
    15
100
AcDbCircle
 10
188.6936315413
 20
100.7993514852
 30
0.0
 40
1.000000000000001
100
AcDbArc
 50
359.9999977655
 51
90.0
  0
LINE
  5
3F2
330
1F
100
AcDbEntity
  8
0
  6
Continuous
 62
     7
370
    15
100
AcDbLine
 10
188.6936315413
 20
99.7993514852
 30
0.0
 11
188.6936315413
 21
101.7993514852
 31
0.0
  0
LINE
  5
3F3
330
1F
100
AcDbEntity
  8
0
  6
Continuous
 62
     7
370
    15
100
AcDbLine
 10
188.6936315413
 20
99.7993514853
 30
0.0
 11
189.6936315413
 21
99.7993514853
 31
0.0
  0
SPLINE
  5
3F4
330
1F
100
AcDbEntity
  8
0
  6
Continuous
 62
     7
370
    15
100
AcDbSpline
210
0.0
220
0.0
230
1.0
 70
    24
 71
     3
 72
    17
 73
    13
 74
     0
 42
0.00000001
 43
0.00000001
 12
1.0
 22
0.0
 32
0.0
 13
1.0
 23
0.0
 33
0.0
 40
0.0
 40
0.0
 40
0.0
 40
0.0
 40
0.0629241150151567
 40
0.1251980532390706
 40
0.187427187778592
 40
0.2502181876217803
 40
0.3750045706186914
 40
0.5001466373309956
 40
0.6249330203279161
 40
0.7500750870402275
 40
0.8747704222973712
 40
1.0
 40
1.0
 40
1.0
 40
1.0
 10
189.6936315413344
 20
99.7993514852928
 30
0.0
 10
189.6936315413344
 20
99.83227098463837
 30
0.0
 10
189.6936315413344
 20
99.89776983560638
 30
0.0
 10
189.6936315413344
 20
99.99489203064707
 30
0.0
 10
189.6936315413344
 20
100.0900511291586
 30
0.0
 10
189.6936315413344
 20
100.2131699617318
 30
0.0
 10
189.6936315413344
 20
100.358663500313
 30
0.0
 10
189.6936315413344
 20
100.5107178923993
 30
0.0
 10
189.6936315413344
 20
100.6365552542023
 30
0.0
 10
189.6936315413344
 20
100.7284853180323
 30
0.0
 10
189.6936315413344
 20
100.7884285558879
 30
0.0
 10
189.6936315413344
 20
100.795705297748
 30
0.0
 10
189.6936315413344
 20
100.7993514461026
 30
0.0
  0
LINE
  5
3F5
330
1F
100
AcDbEntity
  8
0
  6
Continuous
 62
     7
370
    15
100
AcDbLine
 10
180.2936315413
 20
77.7993514852
 30
0.0
 11
188.6936315413
 21
77.7993514852
 31
0.0
  0
LINE
  5
3F6
330
1F
100
AcDbEntity
  8
0
  6
Continuous
 62
     7
370
    15
100
AcDbLine
 10
180.2936315413
 20
75.7993514852
 30
0.0
 11
188.6936315413
 21
75.7993514852
 31
0.0
  0
LINE
  5
3F7
330
1F
100
AcDbEntity
  8
0
  6
Continuous
 62
     7
370
    15
100
AcDbLine
 10
188.6936315413
 20
77.7993514852
 30
0.0
 11
188.6936315413
 21
99.7993514852
 31
0.0
  0
LINE
  5
3F8
330
1F
100
AcDbEntity
  8
0
  6
Continuous
 62
     7
370
    15
100
AcDbLine
 10
189.6936315413
 20
77.7993514861
 30
0.0
 11
189.6936315413
 21
99.7993514852
 31
0.0
  0
LINE
  5
3F9
330
1F
100
AcDbEntity
  8
0
  6
Continuous
 62
     7
370
    15
100
AcDbLine
 10
180.2936315413
 20
99.7993514852
 30
0.0
 11
188.6936315413
 21
99.7993514852
 31
0.0
  0
LINE
  5
3FA
330
1F
100
AcDbEntity
  8
0
  6
Continuous
 62
     7
370
    15
100
AcDbLine
 10
180.2936315413
 20
101.7993514852
 30
0.0
 11
188.6936315413
 21
101.7993514852
 31
0.0
  0
LINE
  5
3FB
330
1F
100
AcDbEntity
  8
0
  6
Continuous
 62
     7
370
    15
100
AcDbLine
 10
133.9936315412
 20
90.4493514852
 30
0.0
 11
133.9936315412
 21
87.1493514852
 31
0.0
  0
LINE
  5
3FC
330
1F
100
AcDbEntity
  8
0
  6
Continuous
 62
     7
370
    15
100
AcDbLine
 10
152.421213022
 20
70.2993514852
 30
0.0
 11
155.5660500607
 21
70.2993514852
 31
0.0
  0
LINE
  5
3FD
330
1F
100
AcDbEntity
  8
0
  6
Continuous
 62
     7
370
    15
100
AcDbLine
 10
152.421213022
 20
107.2993514852
 30
0.0
 11
155.5660500607
 21
107.2993514852
 31
0.0
  0
LINE
  5
3FE
330
1F
100
AcDbEntity
  8
0
  6
Continuous
 62
     7
370
    15
100
AcDbLine
 10
181.0436315413
 20
66.9993514851
 30
0.0
 11
181.0436315413
 21
74.5993514852
 31
0.0
  0
LINE
  5
3FF
330
1F
100
AcDbEntity
  8
0
  6
Continuous
 62
     7
370
    15
100
AcDbLine
 10
181.0436315413
 20
102.9993514851
 30
0.0
 11
181.0436315413
 21
110.5993514852
 31
0.0
  0
LINE
  5
400
330
1F
100
AcDbEntity
  8
0
  6
Continuous
 62
     7
370
    15
100
AcDbLine
 10
180.5436315413
 20
66.9993514852
 30
0.0
 11
180.5436315413
 21
74.5993514852
 31
0.0
  0
LINE
  5
401
330
1F
100
AcDbEntity
  8
0
  6
Continuous
 62
     7
370
    15
100
AcDbLine
 10
180.5436315413
 20
102.9993514852
 30
0.0
 11
180.5436315413
 21
110.5993514852
 31
0.0
  0
DIMENSION
  5
402
330
1F
100
AcDbEntity
  8
0
  6
Continuous
 62
     7
370
     0
100
AcDbDimension
  2
_D_15
 10
189.6936315413
 20
122.7861623543
 30
0.0
 11
171.691777756
 21
122.7861623543
 31
0.0
 70
   160
  1
<>
 71
     2
 42
-1.0
  3
SLDDIMSTYLE1
100
AcDbAlignedDimension
 13
153.9936315413
 23
110.9493514852
 33
0.0
 14
189.6936315413
 24
100.7993514462
 34
0.0
100
AcDbRotatedDimension
  0
DIMENSION
  5
40C
330
1F
100
AcDbEntity
  8
0
  6
Continuous
 62
     7
370
     0
100
AcDbDimension
  2
_D_16
 10
153.9936315413
 20
122.7861623543
 30
0.0
 11
136.2222804599
 21
122.7861623543
 31
0.0
 70
   160
  1
<>
 71
     2
 42
-1.0
  3
SLDDIMSTYLE2
100
AcDbAlignedDimension
 13
113.9936315413
 23
104.2993514852
 33
0.0
 14
153.9936315413
 24
110.9493514852
 34
0.0
 50
0.0
100
AcDbRotatedDimension
  0
DIMENSION
  5
416
330
1F
100
AcDbEntity
  8
0
  6
Continuous
 62
     7
370
     0
100
AcDbDimension
  2
_D_17
 10
151.9936315413
 20
115.7613593183
 30
0.0
 11
146.1261011335
 21
115.7613593183
 31
0.0
 70
   160
  1
<>
 71
     2
 42
-1.0
  3
SLDDIMSTYLE0
100
AcDbAlignedDimension
 13
153.9936315413
 23
110.9493514852
 33
0.0
 14
151.9936315413
 24
102.7883141642
 34
0.0
100
AcDbRotatedDimension
  0
DIMENSION
  5
422
330
1F
100
AcDbEntity
  8
0
  6
Continuous
 62
     7
370
     0
100
AcDbDimension
  2
_D_18
 10
94.0922639923
 20
78.6383141642
 30
0.0
 11
94.0922639923
 21
89.5948530137
 31
0.0
 70
   160
  1
<>
 71
     2
 42
-1.0
  3
SLDDIMSTYLE2
100
AcDbAlignedDimension
 13
147.8436315413
 23
98.6383141642
 33
0.0
 14
147.8436315413
 24
78.6383141642
 34
0.0
 50
90.0
100
AcDbRotatedDimension
  0
DIMENSION
  5
42C
330
1F
100
AcDbEntity
  8
0
  6
Continuous
 62
     7
370
     0
100
AcDbDimension
  2
_D_19
 10
87.4306064337
 20
70.7993514852
 30
0.0
 11
87.4306064337
 21
89.5948530137
 31
0.0
 70
   160
  1
<>
 71
     2
 42
-1.0
  3
SLDDIMSTYLE2
100
AcDbAlignedDimension
 13
149.8436315413
 23
106.7993514852
 33
0.0
 14
149.8436315413
 24
70.7993514852
 34
0.0
 50
90.0
100
AcDbRotatedDimension
  0
DIMENSION
  5
436
330
1F
100
AcDbEntity
  8
0
  6
Continuous
 62
     7
370
     0
100
AcDbDimension
  2
_D_20
 10
160.4936315413
 20
53.2389306234
 30
0.0
 11
145.4936315413
 21
53.2389306234
 31
0.0
 70
   160
  1
<>
 71
     2
 42
-1.0
  3
SLDDIMSTYLE2
100
AcDbAlignedDimension
 13
130.4936315413
 23
67.7993514852
 33
0.0
 14
160.4936315413
 24
67.7993514852
 34
0.0
 50
0.0
100
AcDbRotatedDimension
  0
DIMENSION
  5
440
330
1F
100
AcDbEntity
  8
0
  6
Continuous
 62
     7
370
     0
100
AcDbDimension
  2
_D_21
 10
189.6936315413
 20
53.2389306234
 30
0.0
 11
175.0936315413
 21
53.2389306234
 31
0.0
 70
   160
  1
<>
 71
     2
 42
-1.0
  3
SLDDIMSTYLE1
100
AcDbAlignedDimension
 13
160.4936315413
 23
67.7993514852
 33
0.0
 14
189.6936315413
 24
77.7993514861
 34
0.0
 50
0.0
100
AcDbRotatedDimension
  0
DIMENSION
  5
44A
330
1F
100
AcDbEntity
  8
0
  6
Continuous
 62
     7
370
     0
100
AcDbDimension
  2
_D_22
 10
133.9936315413
 20
59.8635753604
 30
0.0
 11
143.9936315413
 21
59.8635753604
 31
0.0
 70
   160
  1
<>
 71
     2
 42
-1.0
  3
SLDDIMSTYLE2
100
AcDbAlignedDimension
 13
153.9936315413
 23
66.6493514852
 33
0.0
 14
133.9936315413
 24
84.6493514852
 34
0.0
100
AcDbRotatedDimension
  0
MTEXT
  5
454
330
1F
100
AcDbEntity
  8
0
  6
Continuous
 62
     7
370
     0
100
AcDbMText
 10
52.8455614092
 20
66.147232108
 30
0.0
 40
3.5
 41
0.0
 71
     1
 72
     1
  1
ストローク調整
  7
SLDTEXTSTYLE0
 73
     1
 44
1.0
  0
LEADER
  5
455
330
1F
100
AcDbEntity
  8
0
  6
Continuous
 62
     7
370
     0
100
AcDbLeader
  3
SLDDIMSTYLE4
 76
     3
 10
109.5870150802
 20
97.9887097509
 30
0.0
 10
81.336454432
 20
61.6729088639
 30
0.0
 10
52.7465667915
 20
61.6729088639
 30
0.0
  0
MTEXT
  5
456
330
1F
100
AcDbEntity
  8
0
  6
Continuous
 62
     7
370
     0
100
AcDbMText
 10
75.8464977685
 20
117.4214423617
 30
0.0
 40
3.5
 41
0.0
 71
     1
 72
     1
  1
6-Ｍ4　取付用
  7
SLDTEXTSTYLE0
 73
     1
 44
1.0
  0
LEADER
  5
457
330
1F
100
AcDbEntity
  8
0
  6
Continuous
 62
     7
370
     0
100
AcDbLeader
  3
SLDDIMSTYLE4
 76
     3
 10
150.5975920854
 20
99.5178446284
 30
0.0
 10
105.5561797753
 20
112.8589263421
 30
0.0
 10
75.8426966292
 20
112.8589263421
 30
0.0
  0
INSERT
  5
463
330
1F
100
AcDbEntity
  8
0
  6
Continuous
 62
     7
370
     0
100
AcDbBlockReference
  2
SW_CENTERMARKSYMBOL_8
 10
133.9936315413
 20
88.7993514852
 30
0.0
  0
INSERT
  5
46F
330
1F
100
AcDbEntity
  8
0
  6
Continuous
 62
     7
370
     0
100
AcDbBlockReference
  2
SW_CENTERMARKSYMBOL_9
 10
153.9936315413
 20
106.7993514852
 30
0.0
  0
INSERT
  5
47B
330
1F
100
AcDbEntity
  8
0
  6
Continuous
 62
     7
370
     0
100
AcDbBlockReference
  2
SW_CENTERMARKSYMBOL_10
 10
151.9936315413
 20
98.6383141642
 30
0.0
  0
INSERT
  5
487
330
1F
100
AcDbEntity
  8
0
  6
Continuous
 62
     7
370
     0
100
AcDbBlockReference
  2
SW_CENTERMARKSYMBOL_11
 10
153.9936315413
 20
88.7993514852
 30
0.0
  0
INSERT
  5
493
330
1F
100
AcDbEntity
  8
0
  6
Continuous
 62
     7
370
     0
100
AcDbBlockReference
  2
SW_CENTERMARKSYMBOL_12
 10
151.9936315413
 20
78.6383141642
 30
0.0
  0
INSERT
  5
49F
330
1F
100
AcDbEntity
  8
0
  6
Continuous
 62
     7
370
     0
100
AcDbBlockReference
  2
SW_CENTERMARKSYMBOL_13
 10
153.9936315413
 20
70.7993514852
 30
0.0
  0
LINE
  5
4A0
330
1F
100
AcDbEntity
  8
0
  6
CENTERX2
 62
     7
370
     0
100
AcDbLine
 10
115.9936315413
 20
88.7993514852
 30
0.0
 11
99.7936315413
 21
88.7993514852
 31
0.0
  0
ENDSEC
  0
SECTION
  2
OBJECTS
  0
DICTIONARY
  5
C
330
0
100
AcDbDictionary
281
     1
  3
ACAD_GROUP
350
D
  3
ACAD_LAYOUT
350
1A
  3
ACAD_MLINESTYLE
350
17
  3
ACAD_PLOTSETTINGS
350
19
  3
ACAD_PLOTSTYLENAME
350
E
  0
DICTIONARY
  5
D
102
{ACAD_REACTORS
330
C
102
}
330
C
100
AcDbDictionary
281
     1
  0
DICTIONARY
  5
1A
102
{ACAD_REACTORS
330
C
102
}
330
C
100
AcDbDictionary
281
     1
  3
Layout1
350
1E
  3
Layout2
350
26
  3
Model
350
22
  0
DICTIONARY
  5
17
102
{ACAD_REACTORS
330
C
102
}
330
C
100
AcDbDictionary
281
     1
  3
Standard
350
18
  0
DICTIONARY
  5
19
102
{ACAD_REACTORS
330
C
102
}
330
C
100
AcDbDictionary
281
     1
  0
ACDBDICTIONARYWDFLT
  5
E
102
{ACAD_REACTORS
330
C
102
}
330
C
100
AcDbDictionary
281
     1
  3
Normal
350
F
100
AcDbDictionaryWithDefault
340
F
  0
LAYOUT
  5
1E
102
{ACAD_REACTORS
330
1A
102
}
330
1A
100
AcDbPlotSettings
  1

  2
none_device
  4

  6

 40
0.0
 41
0.0
 42
0.0
 43
0.0
 44
0.0
 45
0.0
 46
0.0
 47
0.0
 48
0.0
 49
0.0
140
0.0
141
0.0
142
1.0
143
1.0
 70
   688
 72
     0
 73
     0
 74
     5
  7

 75
    16
147
1.0
148
0.0
149
0.0
100
AcDbLayout
  1
Layout1
 70
     1
 71
     1
 10
0.0
 20
0.0
 11
420.0
 21
297.0
 12
0.0
 22
0.0
 32
0.0
 14
1.0000000000E+20
 24
1.0000000000E+20
 34
1.0000000000E+20
 15
-1.0000000000E+20
 25
-1.0000000000E+20
 35
-1.0000000000E+20
146
0.0
 13
0.0
 23
0.0
 33
0.0
 16
1.0
 26
0.0
 36
0.0
 17
0.0
 27
1.0
 37
0.0
 76
     0
330
1B
  0
LAYOUT
  5
26
102
{ACAD_REACTORS
330
1A
102
}
330
1A
100
AcDbPlotSettings
  1

  2
none_device
  4

  6

 40
0.0
 41
0.0
 42
0.0
 43
0.0
 44
0.0
 45
0.0
 46
0.0
 47
0.0
 48
0.0
 49
0.0
140
0.0
141
0.0
142
1.0
143
1.0
 70
   688
 72
     0
 73
     0
 74
     5
  7

 75
    16
147
1.0
148
0.0
149
0.0
100
AcDbLayout
  1
Layout2
 70
     1
 71
     2
 10
0.0
 20
0.0
 11
0.0
 21
0.0
 12
0.0
 22
0.0
 32
0.0
 14
0.0
 24
0.0
 34
0.0
 15
0.0
 25
0.0
 35
0.0
146
0.0
 13
0.0
 23
0.0
 33
0.0
 16
1.0
 26
0.0
 36
0.0
 17
0.0
 27
1.0
 37
0.0
 76
     0
330
23
  0
LAYOUT
  5
22
102
{ACAD_REACTORS
330
1A
102
}
330
1A
100
AcDbPlotSettings
  1

  2
none_device
  4

  6

 40
0.0
 41
0.0
 42
0.0
 43
0.0
 44
0.0
 45
0.0
 46
0.0
 47
0.0
 48
0.0
 49
0.0
140
0.0
141
0.0
142
1.0
143
1.0
 70
  1712
 72
     0
 73
     0
 74
     0
  7

 75
     0
147
1.0
148
0.0
149
0.0
100
AcDbLayout
  1
Model
 70
     1
 71
     0
 10
0.0
 20
0.0
 11
210.0
 21
297.0
 12
0.0
 22
0.0
 32
0.0
 14
0.0
 24
0.0
 34
0.0
 15
210.0
 25
297.0
 35
0.0
146
0.0
 13
0.0
 23
0.0
 33
0.0
 16
1.0
 26
0.0
 36
0.0
 17
0.0
 27
1.0
 37
0.0
 76
     0
330
1F
331
29
  0
MLINESTYLE
  5
18
102
{ACAD_REACTORS
330
17
102
}
330
17
100
AcDbMlineStyle
  2
Standard
 70
     0
  3

 62
   256
 51
90.0
 52
90.0
 71
     2
 49
0.5
 62
   256
  6
BYLAYER
 49
-0.5
 62
   256
  6
BYLAYER
  0
ACDBPLACEHOLDER
  5
F
102
{ACAD_REACTORS
330
E
102
}
330
E
  0
ENDSEC
  0
EOF
