  0
SECTION
  2
HEADER
  9
$ACADVER
  1
AC1021
  9
$ACADMAINTVER
 70
    25
  9
$DWGCODEPAGE
  3
ANSI_1252
  9
$LASTSAVEDBY
  1
ftodaro
  9
$INSBASE
 10
0.0
 20
0.0
 30
0.0
  9
$EXTMIN
 10
20.2604743903
 20
10.0
 30
0.0
  9
$EXTMAX
 10
196.7604743903
 20
285.0
 30
0.0
  9
$LIMMIN
 10
0.0
 20
0.0
  9
$LIMMAX
 10
0.0
 20
0.0
  9
$ORTHOMODE
 70
     0
  9
$REGENMODE
 70
     1
  9
$FILLMODE
 70
     1
  9
$QTEXTMODE
 70
     0
  9
$MIRRTEXT
 70
     1
  9
$LTSCALE
 40
1.0
  9
$ATTMODE
 70
     1
  9
$TEXTSIZE
 40
2.5
  9
$TRACEWID
 40
1.0
  9
$TEXTSTYLE
  7
Standard
  9
$CLAYER
  8
0
  9
$CELTYPE
  6
ByLayer
  9
$CECOLOR
 62
   256
  9
$CELTSCALE
 40
1.0
  9
$DISPSILH
 70
     0
  9
$DIMSCALE
 40
1.0
  9
$DIMASZ
 40
3.0
  9
$DIMEXO
 40
1.0
  9
$DIMDLI
 40
3.75
  9
$DIMRND
 40
0.0
  9
$DIMDLE
 40
0.0
  9
$DIMEXE
 40
1.0
  9
$DIMTP
 40
0.0
  9
$DIMTM
 40
0.0
  9
$DIMTXT
 40
3.5
  9
$DIMCEN
 40
2.5
  9
$DIMTSZ
 40
0.0
  9
$DIMTOL
 70
     0
  9
$DIMLIM
 70
     0
  9
$DIMTIH
 70
     1
  9
$DIMTOH
 70
     1
  9
$DIMSE1
 70
     0
  9
$DIMSE2
 70
     0
  9
$DIMTAD
 70
     1
  9
$DIMZIN
 70
     0
  9
$DIMBLK
  1

  9
$DIMASO
 70
     1
  9
$DIMSHO
 70
     1
  9
$DIMPOST
  1

  9
$DIMAPOST
  1

  9
$DIMALT
 70
     0
  9
$DIMALTD
 70
     3
  9
$DIMALTF
 40
0.0393700787
  9
$DIMLFAC
 40
1.0
  9
$DIMTOFL
 70
     1
  9
$DIMTVP
 40
0.0
  9
$DIMTIX
 70
     0
  9
$DIMSOXD
 70
     0
  9
$DIMSAH
 70
     0
  9
$DIMBLK1
  1

  9
$DIMBLK2
  1

  9
$DIMSTYLE
  2
ISO-25
  9
$DIMCLRD
 70
     0
  9
$DIMCLRE
 70
     0
  9
$DIMCLRT
 70
     0
  9
$DIMTFAC
 40
1.0
  9
$DIMGAP
 40
1.524
  9
$DIMJUST
 70
     0
  9
$DIMSD1
 70
     0
  9
$DIMSD2
 70
     0
  9
$DIMTOLJ
 70
     0
  9
$DIMTZIN
 70
     0
  9
$DIMALTZ
 70
     0
  9
$DIMALTTZ
 70
     0
  9
$DIMUPT
 70
     0
  9
$DIMDEC
 70
     2
  9
$DIMTDEC
 70
     2
  9
$DIMALTU
 70
     2
  9
$DIMALTTD
 70
     3
  9
$DIMTXSTY
  7
Standard
  9
$DIMAUNIT
 70
     0
  9
$DIMADEC
 70
     0
  9
$DIMALTRND
 40
0.0
  9
$DIMAZIN
 70
     0
  9
$DIMDSEP
 70
    44
  9
$DIMATFIT
 70
     3
  9
$DIMFRAC
 70
     0
  9
$DIMLDRBLK
  1

  9
$DIMLUNIT
 70
     2
  9
$DIMLWD
 70
    -2
  9
$DIMLWE
 70
    -2
  9
$DIMTMOVE
 70
     0
  9
$DIMFXL
 40
1.0
  9
$DIMFXLON
 70
     0
  9
$DIMJOGANG
 40
0.7853981633974483
  9
$DIMTFILL
 70
     0
  9
$DIMTFILLCLR
 70
     0
  9
$DIMARCSYM
 70
     0
  9
$DIMLTYPE
  6

  9
$DIMLTEX1
  6

  9
$DIMLTEX2
  6

  9
$LUNITS
 70
     2
  9
$LUPREC
 70
     1
  9
$SKETCHINC
 40
1.0
  9
$FILLETRAD
 40
10.0
  9
$AUNITS
 70
     0
  9
$AUPREC
 70
     0
  9
$MENU
  1
.
  9
$ELEVATION
 40
0.0
  9
$PELEVATION
 40
0.0
  9
$THICKNESS
 40
0.0
  9
$LIMCHECK
 70
     0
  9
$CHAMFERA
 40
10.0
  9
$CHAMFERB
 40
10.0
  9
$CHAMFERC
 40
20.0
  9
$CHAMFERD
 40
0.0
  9
$SKPOLY
 70
     0
  9
$TDCREATE
 40
2454391.132061088
  9
$TDUCREATE
 40
2454391.090394421
  9
$TDUPDATE
 40
2458512.422267812
  9
$TDUUPDATE
 40
2458512.380601146
  9
$TDINDWG
 40
0.0087529745
  9
$TDUSRTIMER
 40
0.0024431713
  9
$USRTIMER
 70
     1
  9
$ANGBASE
 50
0.0
  9
$ANGDIR
 70
     0
  9
$PDMODE
 70
     0
  9
$PDSIZE
 40
-1.0
  9
$PLINEWID
 40
0.0
  9
$SPLFRAME
 70
     0
  9
$SPLINETYPE
 70
     6
  9
$SPLINESEGS
 70
     8
  9
$HANDSEED
  5
863
  9
$SURFTAB1
 70
     6
  9
$SURFTAB2
 70
     6
  9
$SURFTYPE
 70
     6
  9
$SURFU
 70
     6
  9
$SURFV
 70
     6
  9
$UCSBASE
  2

  9
$UCSNAME
  2

  9
$UCSORG
 10
0.0
 20
0.0
 30
0.0
  9
$UCSXDIR
 10
1.0
 20
0.0
 30
0.0
  9
$UCSYDIR
 10
0.0
 20
1.0
 30
0.0
  9
$UCSORTHOREF
  2

  9
$UCSORTHOVIEW
 70
     0
  9
$UCSORGTOP
 10
0.0
 20
0.0
 30
0.0
  9
$UCSORGBOTTOM
 10
0.0
 20
0.0
 30
0.0
  9
$UCSORGLEFT
 10
0.0
 20
0.0
 30
0.0
  9
$UCSORGRIGHT
 10
0.0
 20
0.0
 30
0.0
  9
$UCSORGFRONT
 10
0.0
 20
0.0
 30
0.0
  9
$UCSORGBACK
 10
0.0
 20
0.0
 30
0.0
  9
$PUCSBASE
  2

  9
$PUCSNAME
  2

  9
$PUCSORG
 10
0.0
 20
0.0
 30
0.0
  9
$PUCSXDIR
 10
1.0
 20
0.0
 30
0.0
  9
$PUCSYDIR
 10
0.0
 20
1.0
 30
0.0
  9
$PUCSORTHOREF
  2

  9
$PUCSORTHOVIEW
 70
     0
  9
$PUCSORGTOP
 10
0.0
 20
0.0
 30
0.0
  9
$PUCSORGBOTTOM
 10
0.0
 20
0.0
 30
0.0
  9
$PUCSORGLEFT
 10
0.0
 20
0.0
 30
0.0
  9
$PUCSORGRIGHT
 10
0.0
 20
0.0
 30
0.0
  9
$PUCSORGFRONT
 10
0.0
 20
0.0
 30
0.0
  9
$PUCSORGBACK
 10
0.0
 20
0.0
 30
0.0
  9
$USERI1
 70
     0
  9
$USERI2
 70
     0
  9
$USERI3
 70
     0
  9
$USERI4
 70
     0
  9
$USERI5
 70
     0
  9
$USERR1
 40
0.0
  9
$USERR2
 40
0.0
  9
$USERR3
 40
0.0
  9
$USERR4
 40
0.0
  9
$USERR5
 40
0.0
  9
$WORLDVIEW
 70
     1
  9
$SHADEDGE
 70
     3
  9
$SHADEDIF
 70
    70
  9
$TILEMODE
 70
     1
  9
$MAXACTVP
 70
    64
  9
$PINSBASE
 10
0.0
 20
0.0
 30
0.0
  9
$PLIMCHECK
 70
     0
  9
$PEXTMIN
 10
1.000000000000000E+20
 20
1.000000000000000E+20
 30
1.000000000000000E+20
  9
$PEXTMAX
 10
-1.000000000000000E+20
 20
-1.000000000000000E+20
 30
-1.000000000000000E+20
  9
$PLIMMIN
 10
0.0
 20
0.0
  9
$PLIMMAX
 10
0.0
 20
0.0
  9
$UNITMODE
 70
     0
  9
$VISRETAIN
 70
     1
  9
$PLINEGEN
 70
     0
  9
$PSLTSCALE
 70
     1
  9
$TREEDEPTH
 70
  3020
  9
$CMLSTYLE
  2
Standard
  9
$CMLJUST
 70
     0
  9
$CMLSCALE
 40
20.0
  9
$PROXYGRAPHICS
 70
     1
  9
$MEASUREMENT
 70
     1
  9
$CELWEIGHT
370
    -1
  9
$ENDCAPS
280
     0
  9
$JOINSTYLE
280
     0
  9
$LWDISPLAY
290
     1
  9
$INSUNITS
 70
     4
  9
$HYPERLINKBASE
  1

  9
$STYLESHEET
  1

  9
$XEDIT
290
     1
  9
$CEPSNTYPE
380
     0
  9
$PSTYLEMODE
290
     1
  9
$FINGERPRINTGUID
  2
{39B9B4BB-C186-4847-9305-3FEF578747F8}
  9
$VERSIONGUID
  2
{FAEB1C32-E019-11D5-929B-00C0DF256EC4}
  9
$EXTNAMES
290
     1
  9
$PSVPSCALE
 40
0.0
  9
$OLESTARTUP
290
     0
  9
$SORTENTS
280
   127
  9
$INDEXCTL
280
     0
  9
$HIDETEXT
280
     1
  9
$XCLIPFRAME
290
     0
  9
$HALOGAP
280
     0
  9
$OBSCOLOR
 70
   257
  9
$OBSLTYPE
280
     0
  9
$INTERSECTIONDISPLAY
280
     0
  9
$INTERSECTIONCOLOR
 70
   257
  9
$DIMASSOC
280
     2
  9
$PROJECTNAME
  1

  9
$CAMERADISPLAY
290
     0
  9
$LENSLENGTH
 40
50.0
  9
$CAMERAHEIGHT
 40
0.0
  9
$STEPSPERSEC
 40
2.0
  9
$STEPSIZE
 40
6.0
  9
$3DDWFPREC
 40
2.0
  9
$PSOLWIDTH
 40
0.25
  9
$PSOLHEIGHT
 40
4.0
  9
$LOFTANG1
 40
1.570796326794897
  9
$LOFTANG2
 40
1.570796326794897
  9
$LOFTMAG1
 40
0.0
  9
$LOFTMAG2
 40
0.0
  9
$LOFTPARAM
 70
     7
  9
$LOFTNORMALS
280
     1
  9
$LATITUDE
 40
37.795
  9
$LONGITUDE
 40
-122.394
  9
$NORTHDIRECTION
 40
0.0
  9
$TIMEZONE
 70
 -8000
  9
$LIGHTGLYPHDISPLAY
280
     1
  9
$TILEMODELIGHTSYNCH
280
     1
  9
$SOLIDHIST
280
     0
  9
$SHOWHIST
280
     1
  9
$DWFFRAME
280
     2
  9
$DGNFRAME
280
     2
  9
$REALWORLDSCALE
290
     1
  9
$INTERFERECOLOR
 62
   256
  9
$CSHADOW
280
     0
  9
$SHADOWPLANELOCATION
 40
0.0
  0
ENDSEC
  0
SECTION
  2
CLASSES
  0
CLASS
  1
ACDBDICTIONARYWDFLT
  2
AcDbDictionaryWithDefault
  3
ObjectDBX Classes
 90
        0
 91
        5
280
     0
281
     0
  0
CLASS
  1
ACDBPLACEHOLDER
  2
AcDbPlaceHolder
  3
ObjectDBX Classes
 90
        0
 91
        1
280
     0
281
     0
  0
CLASS
  1
LAYOUT
  2
AcDbLayout
  3
ObjectDBX Classes
 90
        0
 91
        1
280
     0
281
     0
  0
CLASS
  1
SCALE
  2
AcDbScale
  3
ObjectDBX Classes
 90
     1153
 91
        5
280
     0
281
     0
  0
CLASS
  1
VISUALSTYLE
  2
AcDbVisualStyle
  3
ObjectDBX Classes
 90
     4095
 91
        5
280
     0
281
     0
  0
CLASS
  1
MATERIAL
  2
AcDbMaterial
  3
ObjectDBX Classes
 90
     1153
 91
        5
280
     0
281
     0
  0
CLASS
  1
TABLESTYLE
  2
AcDbTableStyle
  3
ObjectDBX Classes
 90
     4095
 91
        5
280
     0
281
     0
  0
CLASS
  1
MLEADERSTYLE
  2
AcDbMLeaderStyle
  3
ACDB_MLEADERSTYLE_CLASS
 90
     4095
 91
        5
280
     0
281
     0
  0
CLASS
  1
DICTIONARYVAR
  2
AcDbDictionaryVar
  3
ObjectDBX Classes
 90
        0
 91
        4
280
     0
281
     0
  0
CLASS
  1
CELLSTYLEMAP
  2
AcDbCellStyleMap
  3
ObjectDBX Classes
 90
     1152
 91
        4
280
     0
281
     0
  0
CLASS
  1
SUN
  2
AcDbSun
  3
SCENEOE
 90
     1153
 91
        5
280
     0
281
     0
  0
ENDSEC
  0
SECTION
  2
TABLES
  0
TABLE
  2
VPORT
  5
8
330
0
100
AcDbSymbolTable
 70
     1
  0
VPORT
  5
29
330
8
100
AcDbSymbolTableRecord
100
AcDbViewportTableRecord
  2
*Active
 70
     0
 10
0.0
 20
0.0
 11
1.0
 21
1.0
 12
75.72375434733522
 22
130.9699030075189
 13
0.0
 23
0.0
 14
10.0
 24
10.0
 15
10.0
 25
10.0
 16
0.0
 26
0.0
 36
1.0
 17
0.0
 27
0.0
 37
0.0
 40
350.625
 41
2.687432867883996
 42
50.0
 43
0.0
 44
0.0
 50
0.0
 51
0.0
 71
    16
 72
  2000
 73
     1
 74
     3
 75
     0
 76
     0
 77
     0
 78
     0
281
     0
 65
     1
110
0.0
120
0.0
130
0.0
111
1.0
121
0.0
131
0.0
112
0.0
122
1.0
132
0.0
 79
     0
146
0.0
348
256
 60
     3
 61
     5
292
     1
282
     1
141
0.0
142
0.0
 63
   250
361
544
  0
ENDTAB
  0
TABLE
  2
LTYPE
  5
5
330
0
100
AcDbSymbolTable
 70
     6
  0
LTYPE
  5
14
330
5
100
AcDbSymbolTableRecord
100
AcDbLinetypeTableRecord
  2
ByBlock
 70
     0
  3

 72
    65
 73
     0
 40
0.0
  0
LTYPE
  5
15
330
5
100
AcDbSymbolTableRecord
100
AcDbLinetypeTableRecord
  2
ByLayer
 70
     0
  3

 72
    65
 73
     0
 40
0.0
  0
LTYPE
  5
16
330
5
100
AcDbSymbolTableRecord
100
AcDbLinetypeTableRecord
  2
Continuous
 70
     0
  3
Solid line
 72
    65
 73
     0
 40
0.0
  0
LTYPE
  5
2A
330
5
100
AcDbSymbolTableRecord
100
AcDbLinetypeTableRecord
  2
HIDDEN
 70
     0
  3
Hidden __ __ __ __ __ __ __ __ __ __ __ __ __ __
 72
    65
 73
     2
 40
1.905
 49
1.27
 74
     0
 49
-0.635
 74
     0
  0
LTYPE
  5
2B
330
5
100
AcDbSymbolTableRecord
100
AcDbLinetypeTableRecord
  2
PHANTOM
 70
     0
  3
Phantom ______  __  __  ______  __  __  ______
 72
    65
 73
     6
 40
12.7
 49
6.35
 74
     0
 49
-1.27
 74
     0
 49
1.27
 74
     0
 49
-1.27
 74
     0
 49
1.27
 74
     0
 49
-1.27
 74
     0
  0
LTYPE
  5
2C
330
5
100
AcDbSymbolTableRecord
100
AcDbLinetypeTableRecord
  2
CENTER
 70
     0
  3
Center ____ _ ____ _ ____ _ ____ _ ____ _ ____
 72
    65
 73
     4
 40
10.16
 49
6.35
 74
     0
 49
-1.27
 74
     0
 49
1.27
 74
     0
 49
-1.27
 74
     0
  0
LTYPE
  5
2D
330
5
100
AcDbSymbolTableRecord
100
AcDbLinetypeTableRecord
  2
CENTERX2
 70
     0
  3
Center (2x) ________  __  ________  __  _____
 72
    65
 73
     4
 40
20.32
 49
12.7
 74
     0
 49
-2.54
 74
     0
 49
2.54
 74
     0
 49
-2.54
 74
     0
  0
LTYPE
  5
2E
330
5
100
AcDbSymbolTableRecord
100
AcDbLinetypeTableRecord
  2
DOT2
 70
     0
  3
Dot (.5x) ........................................
 72
    65
 73
     2
 40
0.635
 49
0.0
 74
     0
 49
-0.635
 74
     0
  0
ENDTAB
  0
TABLE
  2
LAYER
  5
2
102
{ACAD_XDICTIONARY
360
3DD
102
}
330
0
100
AcDbSymbolTable
 70
     3
  0
LAYER
  5
10
330
2
100
AcDbSymbolTableRecord
100
AcDbLayerTableRecord
  2
0
 70
     0
 62
     7
  6
Continuous
370
    -3
390
F
347
26D
  0
LAYER
  5
53
330
2
100
AcDbSymbolTableRecord
100
AcDbLayerTableRecord
  2
Defpoints
 70
     0
 62
     7
  6
Continuous
290
     0
370
    -3
390
F
347
26D
  0
LAYER
  5
27B
330
2
100
AcDbSymbolTableRecord
100
AcDbLayerTableRecord
  2
LIVELLO1
 70
     0
 62
     7
  6
Continuous
370
     9
390
F
347
26D
  0
ENDTAB
  0
TABLE
  2
STYLE
  5
3
330
0
100
AcDbSymbolTable
 70
     3
  0
STYLE
  5
11
330
3
100
AcDbSymbolTableRecord
100
AcDbTextStyleTableRecord
  2
Standard
 70
     0
 40
0.0
 41
1.0
 50
0.0
 71
     0
 42
2.5
  3
txt
  4
bigfont
  0
STYLE
  5
37
330
3
100
AcDbSymbolTableRecord
100
AcDbTextStyleTableRecord
  2
SLDTEXTSTYLE0
 70
     0
 40
0.0
 41
0.7
 50
0.0
 71
     0
 42
0.2
  3
TXT
  4
bigfont
  0
STYLE
  5
285
330
3
100
AcDbSymbolTableRecord
100
AcDbTextStyleTableRecord
  2
SLDTEXTSTYLE1
 70
     0
 40
0.0
 41
1.0
 50
0.0
 71
     0
 42
2.5
  3
C:\PROGRAM FILES\SOLIDWORKS CORP\SOLIDWORKS VISUALIZE\PLUGINS\SP.X\RESOURCES\FONTS\EXTRAFILES\TRUETYPE\SWISSCL.TTF
  4

1001
ACAD
1000
Swis721 LtCn BT
1071
      290
  0
ENDTAB
  0
TABLE
  2
VIEW
  5
6
330
0
100
AcDbSymbolTable
 70
     0
  0
ENDTAB
  0
TABLE
  2
UCS
  5
7
330
0
100
AcDbSymbolTable
 70
     0
  0
ENDTAB
  0
TABLE
  2
APPID
  5
9
330
0
100
AcDbSymbolTable
 70
     3
  0
APPID
  5
12
330
9
100
AcDbSymbolTableRecord
100
AcDbRegAppTableRecord
  2
ACAD
 70
     0
  0
APPID
  5
53A
330
9
100
AcDbSymbolTableRecord
100
AcDbRegAppTableRecord
  2
PE_URL
 70
     0
  0
APPID
  5
542
330
9
100
AcDbSymbolTableRecord
100
AcDbRegAppTableRecord
  2
ACAD_MLEADERVER
 70
     0
  0
ENDTAB
  0
TABLE
  2
DIMSTYLE
  5
A
330
0
100
AcDbSymbolTable
 70
     6
100
AcDbDimStyleTable
  0
DIMSTYLE
105
27
330
A
100
AcDbSymbolTableRecord
100
AcDbDimStyleTableRecord
  2
ISO-25
 70
     0
 41
2.5
 42
0.625
 43
3.75
 44
1.25
 73
     0
 74
     0
 77
     1
 78
     8
140
2.5
141
2.5
143
0.0393700787
147
0.625
171
     3
172
     1
178
     0
271
     2
272
     2
274
     3
278
    44
283
     0
284
     8
340
11
  0
DIMSTYLE
105
61
102
{ACAD_REACTORS
330
58A
330
594
330
5A8
330
5B2
330
5BC
330
60B
330
615
330
65D
330
667
330
752
330
753
330
755
330
756
330
757
330
77C
330
77D
330
7A6
330
7A7
330
7A5
330
7A9
330
7A8
330
754
330
758
330
77E
102
}
330
A
100
AcDbSymbolTableRecord
100
AcDbDimStyleTableRecord
  2
SLDDIMSTYLE0
 70
     0
 41
3.0
 44
0.0
 73
     0
 74
     0
 77
     3
 78
    12
140
3.5
147
0.875
173
     1
178
     0
271
     1
272
     3
284
    12
340
37
341
62
343
62
344
62
  0
DIMSTYLE
105
92
102
{ACAD_REACTORS
330
59E
330
5C6
330
67A
102
}
330
A
100
AcDbSymbolTableRecord
100
AcDbDimStyleTableRecord
  2
SLDDIMSTYLE1
 70
     0
 41
3.0
 44
0.0
 73
     0
 74
     0
 77
     3
 78
    12
140
3.5
147
0.875
173
     1
178
     0
271
     1
272
     3
284
    12
340
37
341
93
343
93
344
62
  0
DIMSTYLE
105
AD
102
{ACAD_REACTORS
330
61F
330
651
102
}
330
A
100
AcDbSymbolTableRecord
100
AcDbDimStyleTableRecord
  2
SLDDIMSTYLE2
 70
     0
 41
3.0
 44
0.0
 73
     0
 74
     0
 77
     3
 78
    12
140
3.5
147
0.875
173
     1
178
     0
271
     2
272
     3
284
    12
340
37
341
62
343
62
344
62
  0
DIMSTYLE
105
181
102
{ACAD_REACTORS
330
671
102
}
330
A
100
AcDbSymbolTableRecord
100
AcDbDimStyleTableRecord
  2
SLDDIMSTYLE3
 70
     0
 41
3.0
 44
0.0
 78
    12
140
3.5
147
0.875
173
     1
178
     0
271
     1
272
     3
284
    12
340
37
341
62
343
62
344
62
  0
DIMSTYLE
105
214
330
A
100
AcDbSymbolTableRecord
100
AcDbDimStyleTableRecord
  2
SLDDIMSTYLE4
 70
     0
 41
3.0
 44
0.0
 73
     0
 74
     0
 77
     3
 78
     8
140
3.5
147
0.875
173
     1
178
     0
271
     1
272
     3
284
    12
340
37
341
62
343
62
344
62
  0
ENDTAB
  0
TABLE
  2
BLOCK_RECORD
  5
1
330
0
100
AcDbSymbolTable
 70
    84
  0
BLOCK_RECORD
  5
1F
330
1
100
AcDbSymbolTableRecord
100
AcDbBlockTableRecord
  2
*Model_Space
340
22
 70
     0
280
     1
281
     0
  0
BLOCK_RECORD
  5
1B
330
1
100
AcDbSymbolTableRecord
100
AcDbBlockTableRecord
  2
*Paper_Space
340
1E
 70
     0
280
     1
281
     0
  0
BLOCK_RECORD
  5
23
330
1
100
AcDbSymbolTableRecord
100
AcDbBlockTableRecord
  2
*Paper_Space0
340
26
 70
     0
280
     1
281
     0
  0
BLOCK_RECORD
  5
54
330
1
100
AcDbSymbolTableRecord
100
AcDbBlockTableRecord
  2
*D1
340
0
 70
     0
280
     1
281
     0
  0
BLOCK_RECORD
  5
62
330
1
100
AcDbSymbolTableRecord
100
AcDbBlockTableRecord
  2
_Open30
340
0
102
{BLKREFS
331
69
331
6A
331
7E
331
7F
331
97
331
AE
331
AF
331
C4
331
C5
331
D7
331
D8
331
EA
331
EB
331
FD
331
FE
331
157
331
158
331
16C
331
16D
331
182
331
194
331
195
331
1D6
331
1E8
331
1E9
331
1FD
331
1FE
331
215
331
216
331
2C5
331
2C6
331
2CF
331
2D0
331
2D9
331
2E3
331
2E4
331
2EE
331
2F9
331
2FA
331
303
331
304
331
34E
331
34F
331
358
331
359
331
362
331
363
331
36C
331
36D
331
3A9
331
3B6
331
3B7
331
3C0
331
3C1
331
3CA
331
3CB
331
491
331
492
331
49D
331
49E
331
4AA
331
4AB
331
4B4
331
4B5
331
4C1
331
4C2
331
4CC
331
4CD
331
4D8
331
4D9
331
4E4
331
4E5
331
4F0
331
4F1
331
4FD
331
4FE
331
508
331
509
331
513
331
51C
331
51D
331
529
331
52A
331
534
331
535
331
692
331
693
331
69E
331
69F
331
6AA
331
6B5
331
6B6
331
6C1
331
6C2
331
6CD
331
6CE
331
6DA
331
6E5
331
6E6
331
6F1
331
6F2
331
6FC
331
704
331
70D
331
70E
331
719
331
71A
331
725
331
731
331
7B4
331
7B5
331
7C0
331
7C1
331
0
331
7D7
331
7D8
331
7E3
331
7E4
331
7EF
331
7F0
331
7FC
331
807
331
808
331
813
331
814
331
81E
331
826
331
82F
331
830
331
83B
331
83C
331
0
331
853
331
854
331
846
331
7CE
331
7CD
331
7FD
102
}
 70
     0
280
     1
281
     0
  0
BLOCK_RECORD
  5
72
330
1
100
AcDbSymbolTableRecord
100
AcDbBlockTableRecord
  2
*D3
340
0
 70
     0
280
     1
281
     0
  0
BLOCK_RECORD
  5
85
330
1
100
AcDbSymbolTableRecord
100
AcDbBlockTableRecord
  2
*D4
340
0
 70
     0
280
     1
281
     0
  0
BLOCK_RECORD
  5
93
330
1
100
AcDbSymbolTableRecord
100
AcDbBlockTableRecord
  2
_None
340
0
 70
     0
280
     1
281
     0
  0
BLOCK_RECORD
  5
9F
330
1
100
AcDbSymbolTableRecord
100
AcDbBlockTableRecord
  2
*D6
340
0
 70
     0
280
     1
281
     0
  0
BLOCK_RECORD
  5
B7
330
1
100
AcDbSymbolTableRecord
100
AcDbBlockTableRecord
  2
*D7
340
0
 70
     0
280
     1
281
     0
  0
BLOCK_RECORD
  5
CB
330
1
100
AcDbSymbolTableRecord
100
AcDbBlockTableRecord
  2
*D8
340
0
 70
     0
280
     1
281
     0
  0
BLOCK_RECORD
  5
DE
330
1
100
AcDbSymbolTableRecord
100
AcDbBlockTableRecord
  2
*D9
340
0
 70
     0
280
     1
281
     0
  0
BLOCK_RECORD
  5
F1
330
1
100
AcDbSymbolTableRecord
100
AcDbBlockTableRecord
  2
*D10
340
0
 70
     0
280
     1
281
     0
  0
BLOCK_RECORD
  5
103
330
1
100
AcDbSymbolTableRecord
100
AcDbBlockTableRecord
  2
SW_CENTERMARKSYMBOL_0
340
0
102
{BLKREFS
331
0
331
5D2
331
759
102
}
 70
     0
280
     1
281
     0
1001
PE_URL
1000

  0
BLOCK_RECORD
  5
10F
330
1
100
AcDbSymbolTableRecord
100
AcDbBlockTableRecord
  2
SW_CENTERMARKSYMBOL_1
340
0
102
{BLKREFS
331
0
331
5DE
331
75A
102
}
 70
     0
280
     1
281
     0
1001
PE_URL
1000

  0
BLOCK_RECORD
  5
14A
330
1
100
AcDbSymbolTableRecord
100
AcDbBlockTableRecord
  2
*D13
340
0
 70
     0
280
     1
281
     0
  0
BLOCK_RECORD
  5
15E
330
1
100
AcDbSymbolTableRecord
100
AcDbBlockTableRecord
  2
*D14
340
0
 70
     0
280
     1
281
     0
  0
BLOCK_RECORD
  5
175
330
1
100
AcDbSymbolTableRecord
100
AcDbBlockTableRecord
  2
*D15
340
0
 70
     0
280
     1
281
     0
  0
BLOCK_RECORD
  5
188
330
1
100
AcDbSymbolTableRecord
100
AcDbBlockTableRecord
  2
*D16
340
0
 70
     0
280
     1
281
     0
  0
BLOCK_RECORD
  5
19A
330
1
100
AcDbSymbolTableRecord
100
AcDbBlockTableRecord
  2
SW_CENTERMARKSYMBOL_2
340
0
102
{BLKREFS
331
0
102
}
 70
     0
280
     1
281
     0
1001
PE_URL
1000

  0
BLOCK_RECORD
  5
1CA
330
1
100
AcDbSymbolTableRecord
100
AcDbBlockTableRecord
  2
*D18
340
0
 70
     0
280
     1
281
     0
  0
BLOCK_RECORD
  5
1DC
330
1
100
AcDbSymbolTableRecord
100
AcDbBlockTableRecord
  2
*D19
340
0
 70
     0
280
     1
281
     0
  0
BLOCK_RECORD
  5
1EF
330
1
100
AcDbSymbolTableRecord
100
AcDbBlockTableRecord
  2
*D20
340
0
 70
     0
280
     1
281
     0
  0
BLOCK_RECORD
  5
206
330
1
100
AcDbSymbolTableRecord
100
AcDbBlockTableRecord
  2
*D21
340
0
 70
     0
280
     1
281
     0
  0
BLOCK_RECORD
  5
21D
330
1
100
AcDbSymbolTableRecord
100
AcDbBlockTableRecord
  2
SW_CENTERMARKSYMBOL_3
340
0
102
{BLKREFS
331
0
102
}
 70
     0
280
     1
281
     0
1001
PE_URL
1000

  0
BLOCK_RECORD
  5
2C0
330
1
100
AcDbSymbolTableRecord
100
AcDbBlockTableRecord
  2
_D
340
0
 70
     0
280
     1
281
     0
  0
BLOCK_RECORD
  5
2CA
330
1
100
AcDbSymbolTableRecord
100
AcDbBlockTableRecord
  2
_D_1
340
0
 70
     0
280
     1
281
     0
  0
BLOCK_RECORD
  5
2D4
330
1
100
AcDbSymbolTableRecord
100
AcDbBlockTableRecord
  2
_D_2
340
0
 70
     0
280
     1
281
     0
  0
BLOCK_RECORD
  5
2DE
330
1
100
AcDbSymbolTableRecord
100
AcDbBlockTableRecord
  2
_D_3
340
0
 70
     0
280
     1
281
     0
  0
BLOCK_RECORD
  5
2E8
330
1
100
AcDbSymbolTableRecord
100
AcDbBlockTableRecord
  2
_D_4
340
0
 70
     0
280
     1
281
     0
  0
BLOCK_RECORD
  5
2F4
330
1
100
AcDbSymbolTableRecord
100
AcDbBlockTableRecord
  2
_D_5
340
0
 70
     0
280
     1
281
     0
  0
BLOCK_RECORD
  5
2FE
330
1
100
AcDbSymbolTableRecord
100
AcDbBlockTableRecord
  2
_D_6
340
0
 70
     0
280
     1
281
     0
  0
BLOCK_RECORD
  5
349
330
1
100
AcDbSymbolTableRecord
100
AcDbBlockTableRecord
  2
_D_7
340
0
 70
     0
280
     1
281
     0
  0
BLOCK_RECORD
  5
353
330
1
100
AcDbSymbolTableRecord
100
AcDbBlockTableRecord
  2
_D_8
340
0
 70
     0
280
     1
281
     0
  0
BLOCK_RECORD
  5
35D
330
1
100
AcDbSymbolTableRecord
100
AcDbBlockTableRecord
  2
_D_9
340
0
 70
     0
280
     1
281
     0
  0
BLOCK_RECORD
  5
367
330
1
100
AcDbSymbolTableRecord
100
AcDbBlockTableRecord
  2
_D_10
340
0
 70
     0
280
     1
281
     0
  0
BLOCK_RECORD
  5
3A5
330
1
100
AcDbSymbolTableRecord
100
AcDbBlockTableRecord
  2
_D_11
340
0
 70
     0
280
     1
281
     0
  0
BLOCK_RECORD
  5
3B1
330
1
100
AcDbSymbolTableRecord
100
AcDbBlockTableRecord
  2
_D_12
340
0
 70
     0
280
     1
281
     0
  0
BLOCK_RECORD
  5
3BB
330
1
100
AcDbSymbolTableRecord
100
AcDbBlockTableRecord
  2
_D_13
340
0
 70
     0
280
     1
281
     0
  0
BLOCK_RECORD
  5
3C5
330
1
100
AcDbSymbolTableRecord
100
AcDbBlockTableRecord
  2
_D_14
340
0
 70
     0
280
     1
281
     0
  0
BLOCK_RECORD
  5
48B
330
1
100
AcDbSymbolTableRecord
100
AcDbBlockTableRecord
  2
*D38
340
0
 70
     0
280
     1
281
     0
  0
BLOCK_RECORD
  5
497
330
1
100
AcDbSymbolTableRecord
100
AcDbBlockTableRecord
  2
*D39
340
0
 70
     0
280
     1
281
     0
  0
BLOCK_RECORD
  5
4A3
330
1
100
AcDbSymbolTableRecord
100
AcDbBlockTableRecord
  2
*D40
340
0
 70
     0
280
     1
281
     0
  0
BLOCK_RECORD
  5
4AE
330
1
100
AcDbSymbolTableRecord
100
AcDbBlockTableRecord
  2
*D41
340
0
 70
     0
280
     1
281
     0
  0
BLOCK_RECORD
  5
4BA
330
1
100
AcDbSymbolTableRecord
100
AcDbBlockTableRecord
  2
*D42
340
0
 70
     0
280
     1
281
     0
  0
BLOCK_RECORD
  5
4C6
330
1
100
AcDbSymbolTableRecord
100
AcDbBlockTableRecord
  2
*D43
340
0
 70
     0
280
     1
281
     0
  0
BLOCK_RECORD
  5
4D2
330
1
100
AcDbSymbolTableRecord
100
AcDbBlockTableRecord
  2
*D44
340
0
 70
     0
280
     1
281
     0
  0
BLOCK_RECORD
  5
4DE
330
1
100
AcDbSymbolTableRecord
100
AcDbBlockTableRecord
  2
*D45
340
0
 70
     0
280
     1
281
     0
  0
BLOCK_RECORD
  5
4EA
330
1
100
AcDbSymbolTableRecord
100
AcDbBlockTableRecord
  2
*D46
340
0
 70
     0
280
     1
281
     0
  0
BLOCK_RECORD
  5
4F6
330
1
100
AcDbSymbolTableRecord
100
AcDbBlockTableRecord
  2
*D47
340
0
 70
     0
280
     1
281
     0
  0
BLOCK_RECORD
  5
502
330
1
100
AcDbSymbolTableRecord
100
AcDbBlockTableRecord
  2
*D48
340
0
 70
     0
280
     1
281
     0
  0
BLOCK_RECORD
  5
50E
330
1
100
AcDbSymbolTableRecord
100
AcDbBlockTableRecord
  2
*D49
340
0
 70
     0
280
     1
281
     0
  0
BLOCK_RECORD
  5
516
330
1
100
AcDbSymbolTableRecord
100
AcDbBlockTableRecord
  2
*D50
340
0
 70
     0
280
     1
281
     0
  0
BLOCK_RECORD
  5
522
330
1
100
AcDbSymbolTableRecord
100
AcDbBlockTableRecord
  2
*D51
340
0
 70
     0
280
     1
281
     0
  0
BLOCK_RECORD
  5
52E
330
1
100
AcDbSymbolTableRecord
100
AcDbBlockTableRecord
  2
*D52
340
0
 70
     0
280
     1
281
     0
  0
BLOCK_RECORD
  5
68C
330
1
100
AcDbSymbolTableRecord
100
AcDbBlockTableRecord
  2
*D54
340
0
 70
     0
280
     1
281
     0
  0
BLOCK_RECORD
  5
698
330
1
100
AcDbSymbolTableRecord
100
AcDbBlockTableRecord
  2
*D55
340
0
 70
     0
280
     1
281
     0
  0
BLOCK_RECORD
  5
6A4
330
1
100
AcDbSymbolTableRecord
100
AcDbBlockTableRecord
  2
*D56
340
0
 70
     0
280
     1
281
     0
  0
BLOCK_RECORD
  5
6AF
330
1
100
AcDbSymbolTableRecord
100
AcDbBlockTableRecord
  2
*D57
340
0
 70
     0
280
     1
281
     0
  0
BLOCK_RECORD
  5
6BB
330
1
100
AcDbSymbolTableRecord
100
AcDbBlockTableRecord
  2
*D58
340
0
 70
     0
280
     1
281
     0
  0
BLOCK_RECORD
  5
6C7
330
1
100
AcDbSymbolTableRecord
100
AcDbBlockTableRecord
  2
*D59
340
0
 70
     0
280
     1
281
     0
  0
BLOCK_RECORD
  5
6D3
330
1
100
AcDbSymbolTableRecord
100
AcDbBlockTableRecord
  2
*D60
340
0
 70
     0
280
     1
281
     0
  0
BLOCK_RECORD
  5
6DF
330
1
100
AcDbSymbolTableRecord
100
AcDbBlockTableRecord
  2
*D61
340
0
 70
     0
280
     1
281
     0
  0
BLOCK_RECORD
  5
6EB
330
1
100
AcDbSymbolTableRecord
100
AcDbBlockTableRecord
  2
*D62
340
0
 70
     0
280
     1
281
     0
  0
BLOCK_RECORD
  5
6F7
330
1
100
AcDbSymbolTableRecord
100
AcDbBlockTableRecord
  2
*D63
340
0
 70
     0
280
     1
281
     0
  0
BLOCK_RECORD
  5
6FF
330
1
100
AcDbSymbolTableRecord
100
AcDbBlockTableRecord
  2
*D64
340
0
 70
     0
280
     1
281
     0
  0
BLOCK_RECORD
  5
707
330
1
100
AcDbSymbolTableRecord
100
AcDbBlockTableRecord
  2
*D65
340
0
 70
     0
280
     1
281
     0
  0
BLOCK_RECORD
  5
713
330
1
100
AcDbSymbolTableRecord
100
AcDbBlockTableRecord
  2
*D66
340
0
 70
     0
280
     1
281
     0
  0
BLOCK_RECORD
  5
71F
330
1
100
AcDbSymbolTableRecord
100
AcDbBlockTableRecord
  2
*D67
340
0
 70
     0
280
     1
281
     0
  0
BLOCK_RECORD
  5
72A
330
1
100
AcDbSymbolTableRecord
100
AcDbBlockTableRecord
  2
*D68
340
0
 70
     0
280
     1
281
     0
  0
BLOCK_RECORD
  5
7AE
330
1
100
AcDbSymbolTableRecord
100
AcDbBlockTableRecord
  2
*D69
340
0
 70
     0
280
     1
281
     0
  0
BLOCK_RECORD
  5
7BA
330
1
100
AcDbSymbolTableRecord
100
AcDbBlockTableRecord
  2
*D70
340
0
 70
     0
280
     1
281
     0
  0
BLOCK_RECORD
  5
7C6
330
1
100
AcDbSymbolTableRecord
100
AcDbBlockTableRecord
  2
*D71
340
0
 70
     0
280
     1
281
     0
  0
BLOCK_RECORD
  5
7D1
330
1
100
AcDbSymbolTableRecord
100
AcDbBlockTableRecord
  2
*D72
340
0
 70
     0
280
     1
281
     0
  0
BLOCK_RECORD
  5
7DD
330
1
100
AcDbSymbolTableRecord
100
AcDbBlockTableRecord
  2
*D73
340
0
 70
     0
280
     1
281
     0
  0
BLOCK_RECORD
  5
7E9
330
1
100
AcDbSymbolTableRecord
100
AcDbBlockTableRecord
  2
*D74
340
0
 70
     0
280
     1
281
     0
  0
BLOCK_RECORD
  5
7F5
330
1
100
AcDbSymbolTableRecord
100
AcDbBlockTableRecord
  2
*D75
340
0
 70
     0
280
     1
281
     0
  0
BLOCK_RECORD
  5
801
330
1
100
AcDbSymbolTableRecord
100
AcDbBlockTableRecord
  2
*D76
340
0
 70
     0
280
     1
281
     0
  0
BLOCK_RECORD
  5
80D
330
1
100
AcDbSymbolTableRecord
100
AcDbBlockTableRecord
  2
*D77
340
0
 70
     0
280
     1
281
     0
  0
BLOCK_RECORD
  5
819
330
1
100
AcDbSymbolTableRecord
100
AcDbBlockTableRecord
  2
*D78
340
0
 70
     0
280
     1
281
     0
  0
BLOCK_RECORD
  5
821
330
1
100
AcDbSymbolTableRecord
100
AcDbBlockTableRecord
  2
*D79
340
0
 70
     0
280
     1
281
     0
  0
BLOCK_RECORD
  5
829
330
1
100
AcDbSymbolTableRecord
100
AcDbBlockTableRecord
  2
*D80
340
0
 70
     0
280
     1
281
     0
  0
BLOCK_RECORD
  5
835
330
1
100
AcDbSymbolTableRecord
100
AcDbBlockTableRecord
  2
*D81
340
0
 70
     0
280
     1
281
     0
  0
BLOCK_RECORD
  5
841
330
1
100
AcDbSymbolTableRecord
100
AcDbBlockTableRecord
  2
*D82
340
0
 70
     0
280
     1
281
     0
  0
BLOCK_RECORD
  5
84C
330
1
100
AcDbSymbolTableRecord
100
AcDbBlockTableRecord
  2
*D83
340
0
 70
     0
280
     1
281
     0
  0
ENDTAB
  0
ENDSEC
  0
SECTION
  2
BLOCKS
  0
BLOCK
  5
20
330
1F
100
AcDbEntity
  8
0
100
AcDbBlockBegin
  2
*Model_Space
 70
     0
 10
0.0
 20
0.0
 30
0.0
  3
*Model_Space
  1

  0
ENDBLK
  5
21
330
1F
100
AcDbEntity
  8
0
100
AcDbBlockEnd
  0
BLOCK
  5
1C
330
1B
100
AcDbEntity
 67
     1
  8
0
100
AcDbBlockBegin
  2
*Paper_Space
 70
     0
 10
0.0
 20
0.0
 30
0.0
  3
*Paper_Space
  1

  0
ENDBLK
  5
1D
330
1B
100
AcDbEntity
 67
     1
  8
0
100
AcDbBlockEnd
  0
BLOCK
  5
24
330
23
100
AcDbEntity
  8
0
100
AcDbBlockBegin
  2
*Paper_Space0
 70
     0
 10
0.0
 20
0.0
 30
0.0
  3
*Paper_Space0
  1

  0
ENDBLK
  5
25
330
23
100
AcDbEntity
  8
0
100
AcDbBlockEnd
  0
BLOCK
  5
5F
330
54
100
AcDbEntity
  8
0
100
AcDbBlockBegin
  2
*D1
 70
     1
 10
0.0
 20
0.0
 30
0.0
  3
*D1
  1

  0
INSERT
  5
69
330
54
100
AcDbEntity
  8
0
  6
Continuous
 62
     7
370
     0
100
AcDbBlockReference
  2
_Open30
 10
51.7524877781
 20
167.6572547076
 30
0.1
 41
3.0
 42
3.0
 50
270.0
  0
INSERT
  5
6A
330
54
100
AcDbEntity
  8
0
  6
Continuous
 62
     7
370
     0
100
AcDbBlockReference
  2
_Open30
 10
51.7524877781
 20
159.6572547076
 30
0.1
 41
3.0
 42
3.0
 50
90.0
  0
LINE
  5
6B
330
54
100
AcDbEntity
  8
0
  6
Continuous
 62
     7
370
     0
100
AcDbLine
 10
73.5401288404
 20
167.6572547076
 30
0.0
 11
50.7524877781
 21
167.6572547076
 31
0.0
  0
LINE
  5
6C
330
54
100
AcDbEntity
  8
0
  6
Continuous
 62
     7
370
     0
100
AcDbLine
 10
80.5401288404
 20
159.6572547076
 30
0.0
 11
50.7524877781
 21
159.6572547076
 31
0.0
  0
LINE
  5
6D
330
54
100
AcDbEntity
  8
0
  6
Continuous
 62
     7
370
     0
100
AcDbLine
 10
51.7524877781
 20
167.6572547076
 30
0.0
 11
51.7524877781
 21
172.6572547076
 31
0.0
  0
LINE
  5
6E
330
54
100
AcDbEntity
  8
0
  6
Continuous
 62
     7
370
     0
100
AcDbLine
 10
51.7524877781
 20
167.6572547076
 30
0.0
 11
51.7524877781
 21
159.6572547076
 31
0.0
  0
LINE
  5
6F
330
54
100
AcDbEntity
  8
0
  6
Continuous
 62
     7
370
     0
100
AcDbLine
 10
51.7524877781
 20
159.6572547076
 30
0.0
 11
51.7524877781
 21
154.6572547076
 31
0.0
  0
MTEXT
  5
70
330
54
100
AcDbEntity
  8
0
  6
Continuous
 62
     7
370
     0
100
AcDbMText
 10
47.6797607382
 20
162.6399191524
 30
0.0
 40
3.5
 41
0.0
 46
0.0
 71
     1
 72
     1
  1
8
  7
SLDTEXTSTYLE0
 11
-7.044197039909883E-15
 21
1.0
 31
0.0
 73
     1
 44
1.0
  0
ENDBLK
  5
60
330
54
100
AcDbEntity
  8
0
100
AcDbBlockEnd
  0
BLOCK
  5
63
330
62
100
AcDbEntity
  8
0
100
AcDbBlockBegin
  2
_Open30
 70
     0
 10
0.0
 20
0.0
 30
0.0
  3
_Open30
  1

  0
LINE
  5
65
330
62
100
AcDbEntity
  8
0
  6
ByBlock
 62
     0
370
    -2
100
AcDbLine
 10
-1.0
 20
0.267949
 30
0.0
 11
0.0
 21
0.0
 31
0.0
  0
LINE
  5
66
330
62
100
AcDbEntity
  8
0
  6
ByBlock
 62
     0
370
    -2
100
AcDbLine
 10
0.0
 20
0.0
 30
0.0
 11
-1.0
 21
-0.267949
 31
0.0
  0
LINE
  5
67
330
62
100
AcDbEntity
  8
0
  6
ByBlock
 62
     0
370
    -2
100
AcDbLine
 10
0.0
 20
0.0
 30
0.0
 11
-1.0
 21
0.0
 31
0.0
  0
ENDBLK
  5
64
330
62
100
AcDbEntity
  8
0
100
AcDbBlockEnd
  0
BLOCK
  5
7C
330
72
100
AcDbEntity
  8
0
100
AcDbBlockBegin
  2
*D3
 70
     1
 10
0.0
 20
0.0
 30
0.0
  3
*D3
  1

  0
INSERT
  5
7E
330
72
100
AcDbEntity
  8
0
  6
Continuous
 62
     7
370
     0
100
AcDbBlockReference
  2
_Open30
 10
93.5401288404
 20
178.7566181916
 30
0.1
 41
3.0
 42
3.0
 50
180.0
  0
INSERT
  5
7F
330
72
100
AcDbEntity
  8
0
  6
Continuous
 62
     7
370
     0
100
AcDbBlockReference
  2
_Open30
 10
105.5401288404
 20
178.7566181916
 30
0.1
 41
3.0
 42
3.0
  0
LINE
  5
80
330
72
100
AcDbEntity
  8
0
  6
Continuous
 62
     7
370
     0
100
AcDbLine
 10
93.5401288404
 20
164.4072547076
 30
0.0
 11
93.5401288404
 21
179.7566181916
 31
0.0
  0
LINE
  5
81
330
72
100
AcDbEntity
  8
0
  6
Continuous
 62
     7
370
     0
100
AcDbLine
 10
105.5401288404
 20
164.4072547076
 30
0.0
 11
105.5401288404
 21
179.7566181916
 31
0.0
  0
LINE
  5
82
330
72
100
AcDbEntity
  8
0
  6
Continuous
 62
     7
370
     0
100
AcDbLine
 10
93.5401288404
 20
178.7566181916
 30
0.0
 11
105.5401288404
 21
178.7566181916
 31
0.0
  0
MTEXT
  5
83
330
72
100
AcDbEntity
  8
0
  6
Continuous
 62
     7
370
     0
100
AcDbMText
 10
97.5043754581
 20
182.8293452315
 30
0.0
 40
3.5
 41
0.0
 46
0.0
 71
     1
 72
     1
  1
12
  7
SLDTEXTSTYLE0
 73
     1
 44
1.0
  0
ENDBLK
  5
7D
330
72
100
AcDbEntity
  8
0
100
AcDbBlockEnd
  0
BLOCK
  5
90
330
85
100
AcDbEntity
  8
0
100
AcDbBlockBegin
  2
*D4
 70
     1
 10
0.0
 20
0.0
 30
0.0
  3
*D4
  1

  0
INSERT
  5
97
330
85
100
AcDbEntity
  8
0
  6
Continuous
 62
     7
370
     0
100
AcDbBlockReference
  2
_Open30
 10
110.5401288404
 20
178.7566181916
 30
0.1
 41
3.0
 42
3.0
 50
180.0
  0
LINE
  5
98
330
85
100
AcDbEntity
  8
0
  6
Continuous
 62
     7
370
     0
100
AcDbLine
 10
105.5401288404
 20
164.4072547076
 30
0.0
 11
105.5401288404
 21
179.7566181916
 31
0.0
  0
LINE
  5
99
330
85
100
AcDbEntity
  8
0
  6
Continuous
 62
     7
370
     0
100
AcDbLine
 10
110.5401288404
 20
168.6572547076
 30
0.0
 11
110.5401288404
 21
179.7566181916
 31
0.0
  0
LINE
  5
9A
330
85
100
AcDbEntity
  8
0
  6
Continuous
 62
     7
370
     0
100
AcDbLine
 10
105.5401288404
 20
178.7566181916
 30
0.0
 11
100.5401288404
 21
178.7566181916
 31
0.0
  0
LINE
  5
9B
330
85
100
AcDbEntity
  8
0
  6
Continuous
 62
     7
370
     0
100
AcDbLine
 10
105.5401288404
 20
178.7566181916
 30
0.0
 11
110.5401288404
 21
178.7566181916
 31
0.0
  0
LINE
  5
9C
330
85
100
AcDbEntity
  8
0
  6
Continuous
 62
     7
370
     0
100
AcDbLine
 10
110.5401288404
 20
178.7566181916
 30
0.0
 11
115.5401288404
 21
178.7566181916
 31
0.0
  0
MTEXT
  5
9D
330
85
100
AcDbEntity
  8
0
  6
Continuous
 62
     7
370
     0
100
AcDbMText
 10
107.0227932852
 20
182.8293452315
 30
0.0
 40
3.5
 41
0.0
 46
0.0
 71
     1
 72
     1
  1
5
  7
SLDTEXTSTYLE0
 73
     1
 44
1.0
  0
ENDBLK
  5
91
330
85
100
AcDbEntity
  8
0
100
AcDbBlockEnd
  0
BLOCK
  5
94
330
93
100
AcDbEntity
  8
0
100
AcDbBlockBegin
  2
_None
 70
     0
 10
0.0
 20
0.0
 30
0.0
  3
_None
  1

  0
ENDBLK
  5
95
330
93
100
AcDbEntity
  8
0
100
AcDbBlockEnd
  0
BLOCK
  5
AB
330
9F
100
AcDbEntity
  8
0
100
AcDbBlockBegin
  2
*D6
 70
     1
 10
0.0
 20
0.0
 30
0.0
  3
*D6
  1

  0
INSERT
  5
AE
330
9F
100
AcDbEntity
  8
0
  6
Continuous
 62
     7
370
     0
100
AcDbBlockReference
  2
_Open30
 10
119.0988060281
 20
163.4072547076
 30
0.1
 41
3.0
 42
3.0
 50
90.0
  0
INSERT
  5
AF
330
9F
100
AcDbEntity
  8
0
  6
Continuous
 62
     7
370
     0
100
AcDbBlockReference
  2
_Open30
 10
119.0988060281
 20
167.6572547076
 30
0.1
 41
3.0
 42
3.0
 50
270.0
  0
LINE
  5
B0
330
9F
100
AcDbEntity
  8
0
  6
Continuous
 62
     7
370
     0
100
AcDbLine
 10
106.5401288404
 20
163.4072547076
 30
0.0
 11
120.0988060281
 21
163.4072547076
 31
0.0
  0
LINE
  5
B1
330
9F
100
AcDbEntity
  8
0
  6
Continuous
 62
     7
370
     0
100
AcDbLine
 10
111.5401288404
 20
167.6572547076
 30
0.0
 11
120.0988060281
 21
167.6572547076
 31
0.0
  0
LINE
  5
B2
330
9F
100
AcDbEntity
  8
0
  6
Continuous
 62
     7
370
     0
100
AcDbLine
 10
119.0988060281
 20
163.4072547076
 30
0.0
 11
119.0988060281
 21
158.4072547076
 31
0.0
  0
LINE
  5
B3
330
9F
100
AcDbEntity
  8
0
  6
Continuous
 62
     7
370
     0
100
AcDbLine
 10
119.0988060281
 20
163.4072547076
 30
0.0
 11
119.0988060281
 21
167.6572547076
 31
0.0
  0
LINE
  5
B4
330
9F
100
AcDbEntity
  8
0
  6
Continuous
 62
     7
370
     0
100
AcDbLine
 10
119.0988060281
 20
167.6572547076
 30
0.0
 11
119.0988060281
 21
179.8868040623
 31
0.0
  0
MTEXT
  5
B5
330
9F
100
AcDbEntity
  8
0
  6
Continuous
 62
     7
370
     0
100
AcDbMText
 10
115.0260789882
 20
170.1541259892
 30
0.0
 40
3.5
 41
0.0
 46
0.0
 71
     1
 72
     1
  1
4.25
  7
SLDTEXTSTYLE0
 11
-1.608142872339125E-16
 21
1.0
 31
0.0
 73
     1
 44
1.0
  0
ENDBLK
  5
AC
330
9F
100
AcDbEntity
  8
0
100
AcDbBlockEnd
  0
BLOCK
  5
C2
330
B7
100
AcDbEntity
  8
0
100
AcDbBlockBegin
  2
*D7
 70
     1
 10
0.0
 20
0.0
 30
0.0
  3
*D7
  1

  0
INSERT
  5
C4
330
B7
100
AcDbEntity
  8
0
  6
Continuous
 62
     7
370
     0
100
AcDbBlockReference
  2
_Open30
 10
125.2294216686
 20
167.6572547076
 30
0.1
 41
3.0
 42
3.0
 50
90.0
  0
INSERT
  5
C5
330
B7
100
AcDbEntity
  8
0
  6
Continuous
 62
     7
370
     0
100
AcDbBlockReference
  2
_Open30
 10
125.2294216686
 20
147.6572547076
 30
0.1
 41
3.0
 42
3.0
 50
270.0
  0
LINE
  5
C6
330
B7
100
AcDbEntity
  8
0
  6
Continuous
 62
     7
370
     0
100
AcDbLine
 10
111.5401288404
 20
167.6572547076
 30
0.0
 11
126.2294216686
 21
167.6572547076
 31
0.0
  0
LINE
  5
C7
330
B7
100
AcDbEntity
  8
0
  6
Continuous
 62
     7
370
     0
100
AcDbLine
 10
111.5401288404
 20
147.6572547076
 30
0.0
 11
126.2294216686
 21
147.6572547076
 31
0.0
  0
LINE
  5
C8
330
B7
100
AcDbEntity
  8
0
  6
Continuous
 62
     7
370
     0
100
AcDbLine
 10
125.2294216686
 20
167.6572547076
 30
0.0
 11
125.2294216686
 21
147.6572547076
 31
0.0
  0
MTEXT
  5
C9
330
B7
100
AcDbEntity
  8
0
  6
Continuous
 62
     7
370
     0
100
AcDbMText
 10
121.1566946287
 20
155.6215013253
 30
0.0
 40
3.5
 41
0.0
 46
0.0
 71
     1
 72
     1
  1
20
  7
SLDTEXTSTYLE0
 11
-7.932375459610008E-15
 21
1.0
 31
0.0
 73
     1
 44
1.0
  0
ENDBLK
  5
C3
330
B7
100
AcDbEntity
  8
0
100
AcDbBlockEnd
  0
BLOCK
  5
D5
330
CB
100
AcDbEntity
  8
0
100
AcDbBlockBegin
  2
*D8
 70
     1
 10
0.0
 20
0.0
 30
0.0
  3
*D8
  1

  0
INSERT
  5
D7
330
CB
100
AcDbEntity
  8
0
  6
Continuous
 62
     7
370
     0
100
AcDbBlockReference
  2
_Open30
 10
94.5401288404
 20
139.2437855944
 30
0.1
 41
3.0
 42
3.0
 50
180.0
  0
INSERT
  5
D8
330
CB
100
AcDbEntity
  8
0
  6
Continuous
 62
     7
370
     0
100
AcDbBlockReference
  2
_Open30
 10
110.5401288404
 20
139.2437855944
 30
0.1
 41
3.0
 42
3.0
  0
LINE
  5
D9
330
CB
100
AcDbEntity
  8
0
  6
Continuous
 62
     7
370
     0
100
AcDbLine
 10
94.5401288404
 20
149.6685205726
 30
0.0
 11
94.5401288404
 21
138.2437855944
 31
0.0
  0
LINE
  5
DA
330
CB
100
AcDbEntity
  8
0
  6
Continuous
 62
     7
370
     0
100
AcDbLine
 10
110.5401288404
 20
146.6572547076
 30
0.0
 11
110.5401288404
 21
138.2437855944
 31
0.0
  0
LINE
  5
DB
330
CB
100
AcDbEntity
  8
0
  6
Continuous
 62
     7
370
     0
100
AcDbLine
 10
94.5401288404
 20
139.2437855944
 30
0.0
 11
110.5401288404
 21
139.2437855944
 31
0.0
  0
MTEXT
  5
DC
330
CB
100
AcDbEntity
  8
0
  6
Continuous
 62
     7
370
     0
100
AcDbMText
 10
100.5043754581
 20
143.3165126343
 30
0.0
 40
3.5
 41
0.0
 46
0.0
 71
     1
 72
     1
  1
16
  7
SLDTEXTSTYLE0
 73
     1
 44
1.0
  0
ENDBLK
  5
D6
330
CB
100
AcDbEntity
  8
0
100
AcDbBlockEnd
  0
BLOCK
  5
E8
330
DE
100
AcDbEntity
  8
0
100
AcDbBlockBegin
  2
*D9
 70
     1
 10
0.0
 20
0.0
 30
0.0
  3
*D9
  1

  0
INSERT
  5
EA
330
DE
100
AcDbEntity
  8
0
  6
Continuous
 62
     7
370
     0
100
AcDbBlockReference
  2
_Open30
 10
90.5401288404
 20
132.662480722
 30
0.1
 41
3.0
 42
3.0
 50
180.0
  0
INSERT
  5
EB
330
DE
100
AcDbEntity
  8
0
  6
Continuous
 62
     7
370
     0
100
AcDbBlockReference
  2
_Open30
 10
110.5401288404
 20
132.662480722
 30
0.1
 41
3.0
 42
3.0
  0
LINE
  5
EC
330
DE
100
AcDbEntity
  8
0
  6
Continuous
 62
     7
370
     0
100
AcDbLine
 10
90.5401288404
 20
146.6572547076
 30
0.0
 11
90.5401288404
 21
131.662480722
 31
0.0
  0
LINE
  5
ED
330
DE
100
AcDbEntity
  8
0
  6
Continuous
 62
     7
370
     0
100
AcDbLine
 10
110.5401288404
 20
146.6572547076
 30
0.0
 11
110.5401288404
 21
131.662480722
 31
0.0
  0
LINE
  5
EE
330
DE
100
AcDbEntity
  8
0
  6
Continuous
 62
     7
370
     0
100
AcDbLine
 10
90.5401288404
 20
132.662480722
 30
0.0
 11
110.5401288404
 21
132.662480722
 31
0.0
  0
MTEXT
  5
EF
330
DE
100
AcDbEntity
  8
0
  6
Continuous
 62
     7
370
     0
100
AcDbMText
 10
98.5043754581
 20
136.7352077619
 30
0.0
 40
3.5
 41
0.0
 46
0.0
 71
     1
 72
     1
  1
20
  7
SLDTEXTSTYLE0
 73
     1
 44
1.0
  0
ENDBLK
  5
E9
330
DE
100
AcDbEntity
  8
0
100
AcDbBlockEnd
  0
BLOCK
  5
FB
330
F1
100
AcDbEntity
  8
0
100
AcDbBlockBegin
  2
*D10
 70
     1
 10
0.0
 20
0.0
 30
0.0
  3
*D10
  1

  0
INSERT
  5
FD
330
F1
100
AcDbEntity
  8
0
  6
Continuous
 62
     7
370
     0
100
AcDbBlockReference
  2
_Open30
 10
74.5401288404
 20
232.282018313
 30
0.1
 41
3.0
 42
3.0
 50
180.0
  0
INSERT
  5
FE
330
F1
100
AcDbEntity
  8
0
  6
Continuous
 62
     7
370
     0
100
AcDbBlockReference
  2
_Open30
 10
110.5401288404
 20
232.282018313
 30
0.1
 41
3.0
 42
3.0
  0
LINE
  5
FF
330
F1
100
AcDbEntity
  8
0
  6
Continuous
 62
     7
370
     0
100
AcDbLine
 10
74.5401288404
 20
206.0969156009
 30
0.0
 11
74.5401288404
 21
233.282018313
 31
0.0
  0
LINE
  5
100
330
F1
100
AcDbEntity
  8
0
  6
Continuous
 62
     7
370
     0
100
AcDbLine
 10
110.5401288404
 20
213.0097827169
 30
0.0
 11
110.5401288404
 21
233.282018313
 31
0.0
  0
LINE
  5
101
330
F1
100
AcDbEntity
  8
0
  6
Continuous
 62
     7
370
     0
100
AcDbLine
 10
74.5401288404
 20
232.282018313
 30
0.0
 11
110.5401288404
 21
232.282018313
 31
0.0
  0
MTEXT
  5
102
330
F1
100
AcDbEntity
  8
0
  6
Continuous
 62
     7
370
     0
100
AcDbMText
 10
90.5043754581
 20
236.3547453529
 30
0.0
 40
3.5
 41
0.0
 46
0.0
 71
     1
 72
     1
  1
36
  7
SLDTEXTSTYLE0
 73
     1
 44
1.0
  0
ENDBLK
  5
FC
330
F1
100
AcDbEntity
  8
0
100
AcDbBlockEnd
  0
BLOCK
  5
104
330
103
100
AcDbEntity
  8
0
100
AcDbBlockBegin
  2
SW_CENTERMARKSYMBOL_0
 70
     0
 10
0.0
 20
0.0
 30
0.0
  3
SW_CENTERMARKSYMBOL_0
  1

  0
LINE
  5
106
330
103
100
AcDbEntity
  8
0
  6
Continuous
 62
     7
370
     0
100
AcDbLine
 10
0.0
 20
0.0
 30
0.0
 11
0.0
 21
2.5
 31
0.0
  0
LINE
  5
107
330
103
100
AcDbEntity
  8
0
  6
Continuous
 62
     7
370
     0
100
AcDbLine
 10
0.0
 20
0.0
 30
0.0
 11
-2.5
 21
0.0
 31
0.0
  0
LINE
  5
108
330
103
100
AcDbEntity
  8
0
  6
Continuous
 62
     7
370
     0
100
AcDbLine
 10
0.0
 20
0.0
 30
0.0
 11
0.0
 21
-2.5
 31
0.0
  0
LINE
  5
109
330
103
100
AcDbEntity
  8
0
  6
Continuous
 62
     7
370
     0
100
AcDbLine
 10
0.0
 20
0.0
 30
0.0
 11
2.5
 21
0.0
 31
0.0
  0
LINE
  5
10A
330
103
100
AcDbEntity
  8
0
  6
Continuous
 62
     7
370
     0
100
AcDbLine
 10
0.0
 20
5.0
 30
0.0
 11
0.0
 21
6.5
 31
0.0
  0
LINE
  5
10B
330
103
100
AcDbEntity
  8
0
  6
Continuous
 62
     7
370
     0
100
AcDbLine
 10
-5.0
 20
0.0
 30
0.0
 11
-6.5
 21
0.0
 31
0.0
  0
LINE
  5
10C
330
103
100
AcDbEntity
  8
0
  6
Continuous
 62
     7
370
     0
100
AcDbLine
 10
0.0
 20
-5.0
 30
0.0
 11
0.0
 21
-6.5
 31
0.0
  0
LINE
  5
10D
330
103
100
AcDbEntity
  8
0
  6
Continuous
 62
     7
370
     0
100
AcDbLine
 10
5.0
 20
0.0
 30
0.0
 11
6.5
 21
0.0
 31
0.0
  0
ENDBLK
  5
105
330
103
100
AcDbEntity
  8
0
100
AcDbBlockEnd
  0
BLOCK
  5
110
330
10F
100
AcDbEntity
  8
0
100
AcDbBlockBegin
  2
SW_CENTERMARKSYMBOL_1
 70
     0
 10
0.0
 20
0.0
 30
0.0
  3
SW_CENTERMARKSYMBOL_1
  1

  0
LINE
  5
112
330
10F
100
AcDbEntity
  8
0
  6
Continuous
 62
     7
370
     0
100
AcDbLine
 10
0.0
 20
0.0
 30
0.0
 11
0.0
 21
2.5
 31
0.0
  0
LINE
  5
113
330
10F
100
AcDbEntity
  8
0
  6
Continuous
 62
     7
370
     0
100
AcDbLine
 10
0.0
 20
0.0
 30
0.0
 11
-2.5
 21
0.0
 31
0.0
  0
LINE
  5
114
330
10F
100
AcDbEntity
  8
0
  6
Continuous
 62
     7
370
     0
100
AcDbLine
 10
0.0
 20
0.0
 30
0.0
 11
0.0
 21
-2.5
 31
0.0
  0
LINE
  5
115
330
10F
100
AcDbEntity
  8
0
  6
Continuous
 62
     7
370
     0
100
AcDbLine
 10
0.0
 20
0.0
 30
0.0
 11
2.5
 21
0.0
 31
0.0
  0
LINE
  5
116
330
10F
100
AcDbEntity
  8
0
  6
Continuous
 62
     7
370
     0
100
AcDbLine
 10
0.0
 20
5.0
 30
0.0
 11
0.0
 21
6.5
 31
0.0
  0
LINE
  5
117
330
10F
100
AcDbEntity
  8
0
  6
Continuous
 62
     7
370
     0
100
AcDbLine
 10
-5.0
 20
0.0
 30
0.0
 11
-6.5
 21
0.0
 31
0.0
  0
LINE
  5
118
330
10F
100
AcDbEntity
  8
0
  6
Continuous
 62
     7
370
     0
100
AcDbLine
 10
0.0
 20
-5.0
 30
0.0
 11
0.0
 21
-6.5
 31
0.0
  0
LINE
  5
119
330
10F
100
AcDbEntity
  8
0
  6
Continuous
 62
     7
370
     0
100
AcDbLine
 10
5.0
 20
0.0
 30
0.0
 11
6.5
 21
0.0
 31
0.0
  0
ENDBLK
  5
111
330
10F
100
AcDbEntity
  8
0
100
AcDbBlockEnd
  0
BLOCK
  5
155
330
14A
100
AcDbEntity
  8
0
100
AcDbBlockBegin
  2
*D13
 70
     1
 10
0.0
 20
0.0
 30
0.0
  3
*D13
  1

  0
INSERT
  5
157
330
14A
100
AcDbEntity
  8
0
  6
Continuous
 62
     7
370
     0
100
AcDbBlockReference
  2
_Open30
 10
185.3123494506
 20
167.6572547076
 30
0.1
 41
3.0
 42
3.0
 50
90.0
  0
INSERT
  5
158
330
14A
100
AcDbEntity
  8
0
  6
Continuous
 62
     7
370
     0
100
AcDbBlockReference
  2
_Open30
 10
185.3123494506
 20
154.6572547076
 30
0.1
 41
3.0
 42
3.0
 50
270.0
  0
LINE
  5
159
330
14A
100
AcDbEntity
  8
0
  6
Continuous
 62
     7
370
     0
100
AcDbLine
 10
179.4343552372
 20
167.6572547076
 30
0.0
 11
186.3123494506
 21
167.6572547076
 31
0.0
  0
LINE
  5
15A
330
14A
100
AcDbEntity
  8
0
  6
Continuous
 62
     7
370
     0
100
AcDbLine
 10
172.9343552372
 20
154.6572547076
 30
0.0
 11
186.3123494506
 21
154.6572547076
 31
0.0
  0
LINE
  5
15B
330
14A
100
AcDbEntity
  8
0
  6
Continuous
 62
     7
370
     0
100
AcDbLine
 10
185.3123494506
 20
167.6572547076
 30
0.0
 11
185.3123494506
 21
154.6572547076
 31
0.0
  0
MTEXT
  5
15C
330
14A
100
AcDbEntity
  8
0
  6
Continuous
 62
     7
370
     0
100
AcDbMText
 10
181.2396224107
 20
159.1215013253
 30
0.0
 40
3.5
 41
0.0
 46
0.0
 71
     1
 72
     1
  1
13
  7
SLDTEXTSTYLE0
 11
-7.044197039909883E-15
 21
1.0
 31
0.0
 73
     1
 44
1.0
  0
ENDBLK
  5
156
330
14A
100
AcDbEntity
  8
0
100
AcDbBlockEnd
  0
BLOCK
  5
169
330
15E
100
AcDbEntity
  8
0
100
AcDbBlockBegin
  2
*D14
 70
     1
 10
0.0
 20
0.0
 30
0.0
  3
*D14
  1

  0
INSERT
  5
16C
330
15E
100
AcDbEntity
  8
0
  6
Continuous
 62
     7
370
     0
100
AcDbBlockReference
  2
_Open30
 10
171.9343552372
 20
176.0880102328
 30
0.1
 41
3.0
 42
3.0
  0
INSERT
  5
16D
330
15E
100
AcDbEntity
  8
0
  6
Continuous
 62
     7
370
     0
100
AcDbBlockReference
  2
_Open30
 10
178.9343552372
 20
176.0880102328
 30
0.1
 41
3.0
 42
3.0
 50
180.0
  0
LINE
  5
16E
330
15E
100
AcDbEntity
  8
0
  6
Continuous
 62
     7
370
     0
100
AcDbLine
 10
171.9343552372
 20
172.2359957624
 30
0.0
 11
171.9343552372
 21
177.0880102328
 31
0.0
  0
LINE
  5
16F
330
15E
100
AcDbEntity
  8
0
  6
Continuous
 62
     7
370
     0
100
AcDbLine
 10
178.9343552372
 20
168.6572547076
 30
0.0
 11
178.9343552372
 21
177.0880102328
 31
0.0
  0
LINE
  5
170
330
15E
100
AcDbEntity
  8
0
  6
Continuous
 62
     7
370
     0
100
AcDbLine
 10
171.9343552372
 20
176.0880102328
 30
0.0
 11
166.9343552372
 21
176.0880102328
 31
0.0
  0
LINE
  5
171
330
15E
100
AcDbEntity
  8
0
  6
Continuous
 62
     7
370
     0
100
AcDbLine
 10
171.9343552372
 20
176.0880102328
 30
0.0
 11
178.9343552372
 21
176.0880102328
 31
0.0
  0
LINE
  5
172
330
15E
100
AcDbEntity
  8
0
  6
Continuous
 62
     7
370
     0
100
AcDbLine
 10
178.9343552372
 20
176.0880102328
 30
0.0
 11
183.9343552372
 21
176.0880102328
 31
0.0
  0
MTEXT
  5
173
330
15E
100
AcDbEntity
  8
0
  6
Continuous
 62
     7
370
     0
100
AcDbMText
 10
174.4170196819
 20
180.1607372727
 30
0.0
 40
3.5
 41
0.0
 46
0.0
 71
     1
 72
     1
  1
7
  7
SLDTEXTSTYLE0
 73
     1
 44
1.0
  0
ENDBLK
  5
16A
330
15E
100
AcDbEntity
  8
0
100
AcDbBlockEnd
  0
BLOCK
  5
17F
330
175
100
AcDbEntity
  8
0
100
AcDbBlockBegin
  2
*D15
 70
     1
 10
0.0
 20
0.0
 30
0.0
  3
*D15
  1

  0
INSERT
  5
182
330
175
100
AcDbEntity
  8
0
  6
Continuous
 62
     7
370
     0
100
AcDbBlockReference
  2
_Open30
 10
170.0271339503
 20
151.1412190191
 30
0.1
 41
3.0
 42
3.0
 50
61.5230404332
  0
LINE
  5
183
330
175
100
AcDbEntity
  8
0
  6
Continuous
 62
     7
370
     0
100
AcDbLine
 10
170.0271339503
 20
151.1412190191
 30
0.0
 11
162.5840172862
 21
137.4195475983
 31
0.0
  0
LINE
  5
184
330
175
100
AcDbEntity
  8
0
  6
Continuous
 62
     7
370
     0
100
AcDbLine
 10
162.5840172862
 20
137.4195475983
 30
0.0
 11
151.9188065221
 21
137.4195475983
 31
0.0
  0
MTEXT
  5
185
330
175
100
AcDbEntity
  8
0
  6
Continuous
 62
     7
370
     0
100
AcDbMText
 10
153.5063065221
 20
141.4922746382
 30
0.0
 40
3.5
 41
0.0
 46
0.0
 71
     1
 72
     1
  1
%%c
  7
SLDTEXTSTYLE0
 73
     1
 44
1.0
  0
MTEXT
  5
186
330
175
100
AcDbEntity
  8
0
  6
Continuous
 62
     7
370
     0
100
AcDbMText
 10
157.3743461757
 20
141.4922746382
 30
0.0
 40
3.5
 41
0.0
 46
0.0
 71
     1
 72
     1
  1
8
  7
SLDTEXTSTYLE0
 73
     1
 44
1.0
  0
ENDBLK
  5
180
330
175
100
AcDbEntity
  8
0
100
AcDbBlockEnd
  0
BLOCK
  5
192
330
188
100
AcDbEntity
  8
0
100
AcDbBlockBegin
  2
*D16
 70
     1
 10
0.0
 20
0.0
 30
0.0
  3
*D16
  1

  0
INSERT
  5
194
330
188
100
AcDbEntity
  8
0
  6
Continuous
 62
     7
370
     0
100
AcDbBlockReference
  2
_Open30
 10
178.9343552372
 20
182.3683066183
 30
0.1
 41
3.0
 42
3.0
  0
INSERT
  5
195
330
188
100
AcDbEntity
  8
0
  6
Continuous
 62
     7
370
     0
100
AcDbBlockReference
  2
_Open30
 10
164.9343552372
 20
182.3683066183
 30
0.1
 41
3.0
 42
3.0
 50
180.0
  0
LINE
  5
196
330
188
100
AcDbEntity
  8
0
  6
Continuous
 62
     7
370
     0
100
AcDbLine
 10
178.9343552372
 20
168.6572547076
 30
0.0
 11
178.9343552372
 21
183.3683066183
 31
0.0
  0
LINE
  5
197
330
188
100
AcDbEntity
  8
0
  6
Continuous
 62
     7
370
     0
100
AcDbLine
 10
164.9343552372
 20
168.6572547076
 30
0.0
 11
164.9343552372
 21
183.3683066183
 31
0.0
  0
LINE
  5
198
330
188
100
AcDbEntity
  8
0
  6
Continuous
 62
     7
370
     0
100
AcDbLine
 10
178.9343552372
 20
182.3683066183
 30
0.0
 11
164.9343552372
 21
182.3683066183
 31
0.0
  0
MTEXT
  5
199
330
188
100
AcDbEntity
  8
0
  6
Continuous
 62
     7
370
     0
100
AcDbMText
 10
169.8986018548
 20
186.4410336582
 30
0.0
 40
3.5
 41
0.0
 46
0.0
 71
     1
 72
     1
  1
14
  7
SLDTEXTSTYLE0
 73
     1
 44
1.0
  0
ENDBLK
  5
193
330
188
100
AcDbEntity
  8
0
100
AcDbBlockEnd
  0
BLOCK
  5
19B
330
19A
100
AcDbEntity
  8
0
100
AcDbBlockBegin
  2
SW_CENTERMARKSYMBOL_2
 70
     0
 10
0.0
 20
0.0
 30
0.0
  3
SW_CENTERMARKSYMBOL_2
  1

  0
LINE
  5
19D
330
19A
100
AcDbEntity
  8
0
  6
Continuous
 62
     7
370
     0
100
AcDbLine
 10
0.0
 20
0.0
 30
0.0
 11
0.0
 21
2.5
 31
0.0
  0
LINE
  5
19E
330
19A
100
AcDbEntity
  8
0
  6
Continuous
 62
     7
370
     0
100
AcDbLine
 10
0.0
 20
0.0
 30
0.0
 11
-2.5
 21
0.0
 31
0.0
  0
LINE
  5
19F
330
19A
100
AcDbEntity
  8
0
  6
Continuous
 62
     7
370
     0
100
AcDbLine
 10
0.0
 20
0.0
 30
0.0
 11
0.0
 21
-2.5
 31
0.0
  0
LINE
  5
1A0
330
19A
100
AcDbEntity
  8
0
  6
Continuous
 62
     7
370
     0
100
AcDbLine
 10
0.0
 20
0.0
 30
0.0
 11
2.5
 21
0.0
 31
0.0
  0
LINE
  5
1A1
330
19A
100
AcDbEntity
  8
0
  6
Continuous
 62
     7
370
     0
100
AcDbLine
 10
0.0
 20
5.0
 30
0.0
 11
0.0
 21
16.5787410547
 31
0.0
  0
LINE
  5
1A2
330
19A
100
AcDbEntity
  8
0
  6
Continuous
 62
     7
370
     0
100
AcDbLine
 10
-5.0
 20
0.0
 30
0.0
 11
-6.5
 21
0.0
 31
0.0
  0
LINE
  5
1A3
330
19A
100
AcDbEntity
  8
0
  6
Continuous
 62
     7
370
     0
100
AcDbLine
 10
0.0
 20
-5.0
 30
0.0
 11
0.0
 21
-13.3824483005
 31
0.0
  0
LINE
  5
1A4
330
19A
100
AcDbEntity
  8
0
  6
Continuous
 62
     7
370
     0
100
AcDbLine
 10
5.0
 20
0.0
 30
0.0
 11
6.5
 21
0.0
 31
0.0
  0
ENDBLK
  5
19C
330
19A
100
AcDbEntity
  8
0
100
AcDbBlockEnd
  0
BLOCK
  5
1D4
330
1CA
100
AcDbEntity
  8
0
100
AcDbBlockBegin
  2
*D18
 70
     1
 10
0.0
 20
0.0
 30
0.0
  3
*D18
  1

  0
INSERT
  5
1D6
330
1CA
100
AcDbEntity
  8
0
  6
Continuous
 62
     7
370
     0
100
AcDbBlockReference
  2
_Open30
 10
78.8334038686
 20
209.8413680273
 30
0.1
 41
3.0
 42
3.0
 50
312.5848448487
  0
LINE
  5
1D7
330
1CA
100
AcDbEntity
  8
0
  6
Continuous
 62
     7
370
     0
100
AcDbLine
 10
78.8334038686
 20
209.8413680273
 30
0.0
 11
73.0413883804
 21
216.1434823819
 31
0.0
  0
LINE
  5
1D8
330
1CA
100
AcDbEntity
  8
0
  6
Continuous
 62
     7
370
     0
100
AcDbLine
 10
73.0413883804
 20
216.1434823819
 30
0.0
 11
62.3761776163
 21
216.1434823819
 31
0.0
  0
MTEXT
  5
1D9
330
1CA
100
AcDbEntity
  8
0
  6
Continuous
 62
     7
370
     0
100
AcDbMText
 10
63.9636776163
 20
220.2162094218
 30
0.0
 40
3.5
 41
0.0
 46
0.0
 71
     1
 72
     1
  1
%%c
  7
SLDTEXTSTYLE0
 73
     1
 44
1.0
  0
MTEXT
  5
1DA
330
1CA
100
AcDbEntity
  8
0
  6
Continuous
 62
     7
370
     0
100
AcDbMText
 10
67.8317172699
 20
220.2162094218
 30
0.0
 40
3.5
 41
0.0
 46
0.0
 71
     1
 72
     1
  1
8
  7
SLDTEXTSTYLE0
 73
     1
 44
1.0
  0
ENDBLK
  5
1D5
330
1CA
100
AcDbEntity
  8
0
100
AcDbBlockEnd
  0
BLOCK
  5
1E6
330
1DC
100
AcDbEntity
  8
0
100
AcDbBlockBegin
  2
*D19
 70
     1
 10
0.0
 20
0.0
 30
0.0
  3
*D19
  1

  0
INSERT
  5
1E8
330
1DC
100
AcDbEntity
  8
0
  6
Continuous
 62
     7
370
     0
100
AcDbBlockReference
  2
_Open30
 10
81.5401288404
 20
222.7886495112
 30
0.1
 41
3.0
 42
3.0
 50
180.0
  0
INSERT
  5
1E9
330
1DC
100
AcDbEntity
  8
0
  6
Continuous
 62
     7
370
     0
100
AcDbBlockReference
  2
_Open30
 10
110.5401288404
 20
222.7886495112
 30
0.1
 41
3.0
 42
3.0
  0
LINE
  5
1EA
330
1DC
100
AcDbEntity
  8
0
  6
Continuous
 62
     7
370
     0
100
AcDbLine
 10
81.5401288404
 20
214.3962636274
 30
0.0
 11
81.5401288404
 21
223.7886495112
 31
0.0
  0
LINE
  5
1EB
330
1DC
100
AcDbEntity
  8
0
  6
Continuous
 62
     7
370
     0
100
AcDbLine
 10
110.5401288404
 20
211.8962636274
 30
0.0
 11
110.5401288404
 21
223.7886495112
 31
0.0
  0
LINE
  5
1EC
330
1DC
100
AcDbEntity
  8
0
  6
Continuous
 62
     7
370
     0
100
AcDbLine
 10
81.5401288404
 20
222.7886495112
 30
0.0
 11
110.5401288404
 21
222.7886495112
 31
0.0
  0
MTEXT
  5
1ED
330
1DC
100
AcDbEntity
  8
0
  6
Continuous
 62
     7
370
     0
100
AcDbMText
 10
94.0043754581
 20
226.8613765511
 30
0.0
 40
3.5
 41
0.0
 46
0.0
 71
     1
 72
     1
  1
29
  7
SLDTEXTSTYLE0
 73
     1
 44
1.0
  0
ENDBLK
  5
1E7
330
1DC
100
AcDbEntity
  8
0
100
AcDbBlockEnd
  0
BLOCK
  5
1FA
330
1EF
100
AcDbEntity
  8
0
100
AcDbBlockBegin
  2
*D20
 70
     1
 10
0.0
 20
0.0
 30
0.0
  3
*D20
  1

  0
INSERT
  5
1FD
330
1EF
100
AcDbEntity
  8
0
  6
Continuous
 62
     7
370
     0
100
AcDbBlockReference
  2
_Open30
 10
122.1029548053
 20
213.8962636274
 30
0.1
 41
3.0
 42
3.0
 50
270.0
  0
INSERT
  5
1FE
330
1EF
100
AcDbEntity
  8
0
  6
Continuous
 62
     7
370
     0
100
AcDbBlockReference
  2
_Open30
 10
122.1029548053
 20
206.8962636274
 30
0.1
 41
3.0
 42
3.0
 50
90.0
  0
LINE
  5
1FF
330
1EF
100
AcDbEntity
  8
0
  6
Continuous
 62
     7
370
     0
100
AcDbLine
 10
111.0401288404
 20
213.8962636274
 30
0.0
 11
123.1029548053
 21
213.8962636274
 31
0.0
  0
LINE
  5
200
330
1EF
100
AcDbEntity
  8
0
  6
Continuous
 62
     7
370
     0
100
AcDbLine
 10
117.2998109213
 20
206.8962636274
 30
0.0
 11
123.1029548053
 21
206.8962636274
 31
0.0
  0
LINE
  5
201
330
1EF
100
AcDbEntity
  8
0
  6
Continuous
 62
     7
370
     0
100
AcDbLine
 10
122.1029548053
 20
213.8962636274
 30
0.0
 11
122.1029548053
 21
218.8962636274
 31
0.0
  0
LINE
  5
202
330
1EF
100
AcDbEntity
  8
0
  6
Continuous
 62
     7
370
     0
100
AcDbLine
 10
122.1029548053
 20
213.8962636274
 30
0.0
 11
122.1029548053
 21
206.8962636274
 31
0.0
  0
LINE
  5
203
330
1EF
100
AcDbEntity
  8
0
  6
Continuous
 62
     7
370
     0
100
AcDbLine
 10
122.1029548053
 20
206.8962636274
 30
0.0
 11
122.1029548053
 21
201.8962636274
 31
0.0
  0
MTEXT
  5
204
330
1EF
100
AcDbEntity
  8
0
  6
Continuous
 62
     7
370
     0
100
AcDbMText
 10
118.0302277654
 20
209.3789280721
 30
0.0
 40
3.5
 41
0.0
 46
0.0
 71
     1
 72
     1
  1
7
  7
SLDTEXTSTYLE0
 11
-7.044197039909883E-15
 21
1.0
 31
0.0
 73
     1
 44
1.0
  0
ENDBLK
  5
1FB
330
1EF
100
AcDbEntity
  8
0
100
AcDbBlockEnd
  0
BLOCK
  5
212
330
206
100
AcDbEntity
  8
0
100
AcDbBlockBegin
  2
*D21
 70
     1
 10
0.0
 20
0.0
 30
0.0
  3
*D21
  1

  0
INSERT
  5
215
330
206
100
AcDbEntity
  8
0
  6
Continuous
 62
     7
370
     0
100
AcDbBlockReference
  2
_Open30
 10
115.9901682267
 20
207.1962636274
 30
0.1
 41
3.0
 42
3.0
 50
270.0
  0
INSERT
  5
216
330
206
100
AcDbEntity
  8
0
  6
Continuous
 62
     7
370
     0
100
AcDbBlockReference
  2
_Open30
 10
115.9901682267
 20
206.5962636274
 30
0.1
 41
3.0
 42
3.0
 50
90.0
  0
LINE
  5
217
330
206
100
AcDbEntity
  8
0
  6
Continuous
 62
     7
370
     0
100
AcDbLine
 10
111.5401288404
 20
207.1962636274
 30
0.0
 11
116.9901682267
 21
207.1962636274
 31
0.0
  0
LINE
  5
218
330
206
100
AcDbEntity
  8
0
  6
Continuous
 62
     7
370
     0
100
AcDbLine
 10
111.5401288404
 20
206.5962636274
 30
0.0
 11
116.9901682267
 21
206.5962636274
 31
0.0
  0
LINE
  5
219
330
206
100
AcDbEntity
  8
0
  6
Continuous
 62
     7
370
     0
100
AcDbLine
 10
115.9901682267
 20
207.1962636274
 30
0.0
 11
115.9901682267
 21
212.1962636274
 31
0.0
  0
LINE
  5
21A
330
206
100
AcDbEntity
  8
0
  6
Continuous
 62
     7
370
     0
100
AcDbLine
 10
115.9901682267
 20
207.1962636274
 30
0.0
 11
115.9901682267
 21
206.5962636274
 31
0.0
  0
LINE
  5
21B
330
206
100
AcDbEntity
  8
0
  6
Continuous
 62
     7
370
     0
100
AcDbLine
 10
115.9901682267
 20
206.5962636274
 30
0.0
 11
115.9901682267
 21
197.0166286147
 31
0.0
  0
MTEXT
  5
21C
330
206
100
AcDbEntity
  8
0
  6
Continuous
 62
     7
370
     0
100
AcDbMText
 10
111.9174411868
 20
198.6041286147
 30
0.0
 40
3.5
 41
0.0
 46
0.0
 71
     1
 72
     1
  1
0.6
  7
SLDTEXTSTYLE0
 11
-7.044197039909883E-15
 21
1.0
 31
0.0
 73
     1
 44
1.0
  0
ENDBLK
  5
213
330
206
100
AcDbEntity
  8
0
100
AcDbBlockEnd
  0
BLOCK
  5
21E
330
21D
100
AcDbEntity
  8
0
100
AcDbBlockBegin
  2
SW_CENTERMARKSYMBOL_3
 70
     0
 10
0.0
 20
0.0
 30
0.0
  3
SW_CENTERMARKSYMBOL_3
  1

  0
LINE
  5
220
330
21D
100
AcDbEntity
  8
0
  6
Continuous
 62
     7
370
     0
100
AcDbLine
 10
0.0
 20
0.0
 30
0.0
 11
0.0
 21
2.5
 31
0.0
  0
LINE
  5
221
330
21D
100
AcDbEntity
  8
0
  6
Continuous
 62
     7
370
     0
100
AcDbLine
 10
0.0
 20
0.0
 30
0.0
 11
-2.5
 21
0.0
 31
0.0
  0
LINE
  5
222
330
21D
100
AcDbEntity
  8
0
  6
Continuous
 62
     7
370
     0
100
AcDbLine
 10
0.0
 20
0.0
 30
0.0
 11
0.0
 21
-2.5
 31
0.0
  0
LINE
  5
223
330
21D
100
AcDbEntity
  8
0
  6
Continuous
 62
     7
370
     0
100
AcDbLine
 10
0.0
 20
0.0
 30
0.0
 11
2.5
 21
0.0
 31
0.0
  0
LINE
  5
224
330
21D
100
AcDbEntity
  8
0
  6
Continuous
 62
     7
370
     0
100
AcDbLine
 10
0.0
 20
5.0
 30
0.0
 11
0.0
 21
6.5
 31
0.0
  0
LINE
  5
225
330
21D
100
AcDbEntity
  8
0
  6
Continuous
 62
     7
370
     0
100
AcDbLine
 10
-5.0
 20
0.0
 30
0.0
 11
-10.3347320658
 21
0.0
 31
0.0
  0
LINE
  5
226
330
21D
100
AcDbEntity
  8
0
  6
Continuous
 62
     7
370
     0
100
AcDbLine
 10
0.0
 20
-5.0
 30
0.0
 11
0.0
 21
-6.5
 31
0.0
  0
LINE
  5
227
330
21D
100
AcDbEntity
  8
0
  6
Continuous
 62
     7
370
     0
100
AcDbLine
 10
5.0
 20
0.0
 30
0.0
 11
34.7596820808
 21
0.0
 31
0.0
  0
ENDBLK
  5
21F
330
21D
100
AcDbEntity
  8
0
100
AcDbBlockEnd
  0
BLOCK
  5
2C1
330
2C0
100
AcDbEntity
  8
0
100
AcDbBlockBegin
  2
_D
 70
     0
 10
0.0
 20
0.0
 30
0.0
  3
_D
  1

  0
LINE
  5
2C2
330
2C0
100
AcDbEntity
  8
LIVELLO1
 62
     0
370
    -2
100
AcDbLine
 10
30.95177053660346
 20
8.437499999999993
 30
0.0
 11
30.95177053660346
 21
0.5000000000000071
 31
0.0
  0
LINE
  5
2C3
330
2C0
100
AcDbEntity
  8
LIVELLO1
 62
     0
370
    -2
100
AcDbLine
 10
44.95177053660345
 20
8.437499999999993
 30
0.0
 11
44.95177053660345
 21
0.5000000000000071
 31
0.0
  0
LINE
  5
2C4
330
2C0
100
AcDbEntity
  8
LIVELLO1
 62
     0
370
    -2
100
AcDbLine
 10
33.95177053660346
 20
0.5000000000000071
 30
0.0
 11
41.95177053660345
 21
0.5000000000000071
 31
0.0
  0
INSERT
  5
2C5
330
2C0
100
AcDbEntity
  8
LIVELLO1
 62
     0
370
    -2
100
AcDbBlockReference
  2
_Open30
 10
30.95177053660346
 20
0.5000000000000071
 30
0.0
 41
3.0
 42
3.0
 43
3.0
 50
180.0
  0
INSERT
  5
2C6
330
2C0
100
AcDbEntity
  8
LIVELLO1
 62
     0
370
    -2
100
AcDbBlockReference
  2
_Open30
 10
44.95177053660345
 20
0.5000000000000071
 30
0.0
 41
3.0
 42
3.0
 43
3.0
  0
MTEXT
  5
2C7
330
2C0
100
AcDbEntity
  8
LIVELLO1
 62
     0
100
AcDbMText
 10
37.95177053660345
 20
4.875000000000007
 30
0.0
 40
3.5
 41
0.0
 46
0.0
 71
     2
 72
     1
  1
\A1;14
  7
SLDTEXTSTYLE0
 73
     1
 44
1.0
  0
POINT
  5
3E1
330
2C0
100
AcDbEntity
  8
Defpoints
 62
     0
100
AcDbPoint
 10
30.95177053660346
 20
8.499999999999993
 30
0.0
  0
POINT
  5
3E2
330
2C0
100
AcDbEntity
  8
Defpoints
 62
     0
100
AcDbPoint
 10
44.95177053660345
 20
8.499999999999993
 30
0.0
  0
POINT
  5
3E3
330
2C0
100
AcDbEntity
  8
Defpoints
 62
     0
100
AcDbPoint
 10
44.95177053660345
 20
0.5000000000000071
 30
0.0
  0
ENDBLK
  5
2C8
330
2C0
100
AcDbEntity
  8
0
100
AcDbBlockEnd
  0
BLOCK
  5
2CB
330
2CA
100
AcDbEntity
  8
0
100
AcDbBlockBegin
  2
_D_1
 70
     0
 10
0.0
 20
0.0
 30
0.0
  3
_D_1
  1

  0
LINE
  5
2CC
330
2CA
100
AcDbEntity
  8
LIVELLO1
 62
     0
370
    -2
100
AcDbLine
 10
32.95177053660346
 20
11.4355
 30
0.0
 11
32.95177053660346
 21
3.500000000000014
 31
0.0
  0
LINE
  5
2CD
330
2CA
100
AcDbEntity
  8
LIVELLO1
 62
     0
370
    -2
100
AcDbLine
 10
44.95177053660345
 20
11.4355
 30
0.0
 11
44.95177053660345
 21
3.500000000000014
 31
0.0
  0
LINE
  5
2CE
330
2CA
100
AcDbEntity
  8
LIVELLO1
 62
     0
370
    -2
100
AcDbLine
 10
35.95177053660346
 20
3.500000000000014
 30
0.0
 11
41.95177053660345
 21
3.500000000000014
 31
0.0
  0
INSERT
  5
2CF
330
2CA
100
AcDbEntity
  8
LIVELLO1
 62
     0
370
    -2
100
AcDbBlockReference
  2
_Open30
 10
32.95177053660346
 20
3.500000000000014
 30
0.0
 41
3.0
 42
3.0
 43
3.0
 50
180.0
  0
INSERT
  5
2D0
330
2CA
100
AcDbEntity
  8
LIVELLO1
 62
     0
370
    -2
100
AcDbBlockReference
  2
_Open30
 10
44.95177053660345
 20
3.500000000000014
 30
0.0
 41
3.0
 42
3.0
 43
3.0
  0
MTEXT
  5
2D1
330
2CA
100
AcDbEntity
  8
LIVELLO1
 62
     0
100
AcDbMText
 10
38.95177053660346
 20
7.875000000000014
 30
0.0
 40
3.5
 41
0.0
 46
0.0
 71
     2
 72
     1
  1
\A1;12
  7
SLDTEXTSTYLE0
 73
     1
 44
1.0
  0
POINT
  5
3E4
330
2CA
100
AcDbEntity
  8
Defpoints
 62
     0
100
AcDbPoint
 10
32.95177053660346
 20
11.498
 30
0.0
  0
POINT
  5
3E5
330
2CA
100
AcDbEntity
  8
Defpoints
 62
     0
100
AcDbPoint
 10
44.95177053660345
 20
11.498
 30
0.0
  0
POINT
  5
3E6
330
2CA
100
AcDbEntity
  8
Defpoints
 62
     0
100
AcDbPoint
 10
44.95177053660345
 20
3.500000000000014
 30
0.0
  0
ENDBLK
  5
2D2
330
2CA
100
AcDbEntity
  8
0
100
AcDbBlockEnd
  0
BLOCK
  5
2D5
330
2D4
100
AcDbEntity
  8
0
100
AcDbBlockBegin
  2
_D_2
 70
     0
 10
0.0
 20
0.0
 30
0.0
  3
_D_2
  1

  0
LINE
  5
2D6
330
2D4
100
AcDbEntity
  8
LIVELLO1
 62
     0
370
    -2
100
AcDbLine
 10
44.95177053660345
 20
33.5625
 30
0.0
 11
44.95177053660345
 21
38.5
 31
0.0
  0
LINE
  5
2D7
330
2D4
100
AcDbEntity
  8
LIVELLO1
 62
     0
370
    -2
100
AcDbLine
 10
39.95177053660346
 20
29.3125
 30
0.0
 11
39.95177053660346
 21
38.5
 31
0.0
  0
LINE
  5
2D8
330
2D4
100
AcDbEntity
  8
LIVELLO1
 62
     0
370
    -2
100
AcDbLine
 10
44.95177053660345
 20
38.5
 30
0.0
 11
42.95177053660346
 21
38.5
 31
0.0
  0
INSERT
  5
2D9
330
2D4
100
AcDbEntity
  8
LIVELLO1
 62
     0
370
    -2
100
AcDbBlockReference
  2
_Open30
 10
39.95177053660346
 20
38.5
 30
0.0
 41
3.0
 42
3.0
 43
3.0
 50
180.0
  0
MTEXT
  5
2DA
330
2D4
100
AcDbEntity
  8
LIVELLO1
 62
     0
100
AcDbMText
 10
42.45177053660345
 20
42.875
 30
0.0
 40
3.5
 41
0.0
 46
0.0
 71
     2
 72
     1
  1
\A1;5
  7
SLDTEXTSTYLE0
 73
     1
 44
1.0
  0
POINT
  5
2DB
330
2D4
100
AcDbEntity
  8
Defpoints
 62
     0
100
AcDbPoint
 10
44.95177053660345
 20
33.5
 30
0.0
  0
POINT
  5
3E7
330
2D4
100
AcDbEntity
  8
Defpoints
 62
     0
100
AcDbPoint
 10
39.95177053660346
 20
29.25
 30
0.0
  0
POINT
  5
3E8
330
2D4
100
AcDbEntity
  8
Defpoints
 62
     0
100
AcDbPoint
 10
39.95177053660346
 20
38.5
 30
0.0
  0
ENDBLK
  5
2DC
330
2D4
100
AcDbEntity
  8
0
100
AcDbBlockEnd
  0
BLOCK
  5
2DF
330
2DE
100
AcDbEntity
  8
0
100
AcDbBlockBegin
  2
_D_3
 70
     0
 10
0.0
 20
0.0
 30
0.0
  3
_D_3
  1

  0
LINE
  5
2E0
330
2DE
100
AcDbEntity
  8
LIVELLO1
 62
     0
370
    -2
100
AcDbLine
 10
39.95177053660346
 20
29.3125
 30
0.0
 11
39.95177053660346
 21
38.5
 31
0.0
  0
LINE
  5
2E1
330
2DE
100
AcDbEntity
  8
LIVELLO1
 62
     0
370
    -2
100
AcDbLine
 10
24.95177053660345
 20
29.3125
 30
0.0
 11
24.95177053660345
 21
38.5
 31
0.0
  0
LINE
  5
2E2
330
2DE
100
AcDbEntity
  8
LIVELLO1
 62
     0
370
    -2
100
AcDbLine
 10
36.95177053660346
 20
38.5
 30
0.0
 11
27.95177053660345
 21
38.5
 31
0.0
  0
INSERT
  5
2E3
330
2DE
100
AcDbEntity
  8
LIVELLO1
 62
     0
370
    -2
100
AcDbBlockReference
  2
_Open30
 10
39.95177053660346
 20
38.5
 30
0.0
 41
3.0
 42
3.0
 43
3.0
  0
INSERT
  5
2E4
330
2DE
100
AcDbEntity
  8
LIVELLO1
 62
     0
370
    -2
100
AcDbBlockReference
  2
_Open30
 10
24.95177053660345
 20
38.5
 30
0.0
 41
3.0
 42
3.0
 43
3.0
 50
180.0
  0
MTEXT
  5
2E5
330
2DE
100
AcDbEntity
  8
LIVELLO1
 62
     0
100
AcDbMText
 10
32.45177053660346
 20
42.875
 30
0.0
 40
3.5
 41
0.0
 46
0.0
 71
     2
 72
     1
  1
\A1;15
  7
SLDTEXTSTYLE0
 73
     1
 44
1.0
  0
POINT
  5
3E9
330
2DE
100
AcDbEntity
  8
Defpoints
 62
     0
100
AcDbPoint
 10
39.95177053660346
 20
29.25
 30
0.0
  0
POINT
  5
3EA
330
2DE
100
AcDbEntity
  8
Defpoints
 62
     0
100
AcDbPoint
 10
24.95177053660345
 20
29.25
 30
0.0
  0
POINT
  5
3EB
330
2DE
100
AcDbEntity
  8
Defpoints
 62
     0
100
AcDbPoint
 10
24.95177053660345
 20
38.5
 30
0.0
  0
ENDBLK
  5
2E6
330
2DE
100
AcDbEntity
  8
0
100
AcDbBlockEnd
  0
BLOCK
  5
2E9
330
2E8
100
AcDbEntity
  8
0
100
AcDbBlockBegin
  2
_D_4
 70
     0
 10
0.0
 20
0.0
 30
0.0
  3
_D_4
  1

  0
LINE
  5
2EA
330
2E8
100
AcDbEntity
  8
LIVELLO1
 62
     0
370
    -2
100
AcDbLine
 10
25.01427053660345
 20
29.25
 30
0.0
 11
49.95177053660345
 21
29.25000000000009
 31
0.0
  0
LINE
  5
2EB
330
2E8
100
AcDbEntity
  8
LIVELLO1
 62
     0
370
    -2
100
AcDbLine
 10
45.01427053660345
 20
33.5
 30
0.0
 11
49.95177053660344
 21
33.50000000000002
 31
0.0
  0
LINE
  5
2EC
330
2E8
100
AcDbEntity
  8
LIVELLO1
 62
     0
370
    -2
100
AcDbLine
 10
49.95177053660345
 20
29.25000000000009
 30
0.0
 11
49.95177053660346
 21
26.25000000000009
 31
0.0
  0
LINE
  5
2ED
330
2E8
100
AcDbEntity
  8
LIVELLO1
 62
     0
370
    -2
100
AcDbLine
 10
49.95177053660343
 20
36.50000000000002
 30
0.0
 11
49.95177053660343
 21
39.50000000000002
 31
0.0
  0
INSERT
  5
2EE
330
2E8
100
AcDbEntity
  8
LIVELLO1
 62
     0
370
    -2
100
AcDbBlockReference
  2
_Open30
 10
49.95177053660344
 20
33.50000000000002
 30
0.0
 41
3.0
 42
3.0
 43
3.0
 50
270.0000000000002
  0
MTEXT
  5
2EF
330
2E8
100
AcDbEntity
  8
LIVELLO1
 62
     0
100
AcDbMText
 10
45.57677053660345
 20
31.37499999999999
 30
0.0
 40
3.5
 41
0.0
 46
0.0
 71
     2
 72
     1
  1
\A1;4.3
  7
SLDTEXTSTYLE0
 11
-3.343730521224057E-15
 21
1.0
 31
0.0
 73
     1
 44
1.0
  0
POINT
  5
2F0
330
2E8
100
AcDbEntity
  8
Defpoints
 62
     0
100
AcDbPoint
 10
24.95177053660345
 20
29.25
 30
0.0
  0
POINT
  5
2F1
330
2E8
100
AcDbEntity
  8
Defpoints
 62
     0
100
AcDbPoint
 10
44.95177053660345
 20
33.5
 30
0.0
  0
POINT
  5
3EC
330
2E8
100
AcDbEntity
  8
Defpoints
 62
     0
100
AcDbPoint
 10
49.95177053660345
 20
33.50000000000002
 30
0.0
  0
ENDBLK
  5
2F2
330
2E8
100
AcDbEntity
  8
0
100
AcDbBlockEnd
  0
BLOCK
  5
2F5
330
2F4
100
AcDbEntity
  8
0
100
AcDbBlockBegin
  2
_D_5
 70
     0
 10
0.0
 20
0.0
 30
0.0
  3
_D_5
  1

  0
LINE
  5
2F6
330
2F4
100
AcDbEntity
  8
LIVELLO1
 62
     0
370
    -2
100
AcDbLine
 10
45.01427053660345
 20
33.5
 30
0.0
 11
52.95177053660341
 21
33.50000000000003
 31
0.0
  0
LINE
  5
2F7
330
2F4
100
AcDbEntity
  8
LIVELLO1
 62
     0
370
    -2
100
AcDbLine
 10
45.01427053660345
 20
8.499999999999993
 30
0.0
 11
52.95177053660349
 21
8.500000000000021
 31
0.0
  0
LINE
  5
2F8
330
2F4
100
AcDbEntity
  8
LIVELLO1
 62
     0
370
    -2
100
AcDbLine
 10
52.95177053660341
 20
30.50000000000003
 30
0.0
 11
52.95177053660348
 21
11.50000000000002
 31
0.0
  0
INSERT
  5
2F9
330
2F4
100
AcDbEntity
  8
LIVELLO1
 62
     0
370
    -2
100
AcDbBlockReference
  2
_Open30
 10
52.95177053660341
 20
33.50000000000003
 30
0.0
 41
3.0
 42
3.0
 43
3.0
 50
90.0000000000002
  0
INSERT
  5
2FA
330
2F4
100
AcDbEntity
  8
LIVELLO1
 62
     0
370
    -2
100
AcDbBlockReference
  2
_Open30
 10
52.95177053660349
 20
8.500000000000021
 30
0.0
 41
3.0
 42
3.0
 43
3.0
 50
270.0000000000002
  0
MTEXT
  5
2FB
330
2F4
100
AcDbEntity
  8
LIVELLO1
 62
     0
100
AcDbMText
 10
48.57677053660345
 20
20.99999999999998
 30
0.0
 40
3.5
 41
0.0
 46
0.0
 71
     2
 72
     1
  1
\A1;25
  7
SLDTEXTSTYLE0
 11
-3.410605131648480E-15
 21
1.0
 31
0.0
 73
     1
 44
1.0
  0
POINT
  5
3ED
330
2F4
100
AcDbEntity
  8
Defpoints
 62
     0
100
AcDbPoint
 10
44.95177053660345
 20
33.5
 30
0.0
  0
POINT
  5
3EE
330
2F4
100
AcDbEntity
  8
Defpoints
 62
     0
100
AcDbPoint
 10
44.95177053660345
 20
8.499999999999993
 30
0.0
  0
POINT
  5
3EF
330
2F4
100
AcDbEntity
  8
Defpoints
 62
     0
100
AcDbPoint
 10
52.95177053660345
 20
8.500000000000023
 30
0.0
  0
ENDBLK
  5
2FC
330
2F4
100
AcDbEntity
  8
0
100
AcDbBlockEnd
  0
BLOCK
  5
2FF
330
2FE
100
AcDbEntity
  8
0
100
AcDbBlockBegin
  2
_D_6
 70
     0
 10
0.0
 20
0.0
 30
0.0
  3
_D_6
  1

  0
LINE
  5
300
330
2FE
100
AcDbEntity
  8
LIVELLO1
 62
     0
370
    -2
100
AcDbLine
 10
6.889270536603458
 20
22.49999999999999
 30
0.0
 11
1.951770536603465
 21
22.49999999999997
 31
0.0
  0
LINE
  5
301
330
2FE
100
AcDbEntity
  8
LIVELLO1
 62
     0
370
    -2
100
AcDbLine
 10
6.889270536603458
 20
33.5
 30
0.0
 11
1.951770536603427
 21
33.49999999999998
 31
0.0
  0
LINE
  5
302
330
2FE
100
AcDbEntity
  8
LIVELLO1
 62
     0
370
    -2
100
AcDbLine
 10
1.951770536603455
 20
25.49999999999997
 30
0.0
 11
1.951770536603437
 21
30.49999999999998
 31
0.0
  0
INSERT
  5
303
330
2FE
100
AcDbEntity
  8
LIVELLO1
 62
     0
370
    -2
100
AcDbBlockReference
  2
_Open30
 10
1.951770536603465
 20
22.49999999999997
 30
0.0
 41
3.0
 42
3.0
 43
3.0
 50
270.0000000000002
  0
INSERT
  5
304
330
2FE
100
AcDbEntity
  8
LIVELLO1
 62
     0
370
    -2
100
AcDbBlockReference
  2
_Open30
 10
1.951770536603427
 20
33.49999999999998
 30
0.0
 41
3.0
 42
3.0
 43
3.0
 50
90.0000000000002
  0
MTEXT
  5
305
330
2FE
100
AcDbEntity
  8
LIVELLO1
 62
     0
100
AcDbMText
 10
-2.423229463396554
 20
27.99999999999997
 30
0.0
 40
3.5
 41
0.0
 46
0.0
 71
     2
 72
     1
  1
\A1;11
  7
SLDTEXTSTYLE0
 11
-3.492156059275490E-15
 21
1.0
 31
0.0
 73
     1
 44
1.0
  0
POINT
  5
3F0
330
2FE
100
AcDbEntity
  8
Defpoints
 62
     0
100
AcDbPoint
 10
6.951770536603458
 20
22.49999999999999
 30
0.0
  0
POINT
  5
3F1
330
2FE
100
AcDbEntity
  8
Defpoints
 62
     0
100
AcDbPoint
 10
6.951770536603458
 20
33.5
 30
0.0
  0
POINT
  5
3F2
330
2FE
100
AcDbEntity
  8
Defpoints
 62
     0
100
AcDbPoint
 10
1.951770536603446
 20
33.49999999999998
 30
0.0
  0
ENDBLK
  5
306
330
2FE
100
AcDbEntity
  8
0
100
AcDbBlockEnd
  0
BLOCK
  5
34A
330
349
100
AcDbEntity
  8
0
100
AcDbBlockBegin
  2
_D_7
 70
     0
 10
0.0
 20
0.0
 30
0.0
  3
_D_7
  1

  0
LINE
  5
34B
330
349
100
AcDbEntity
  8
LIVELLO1
 62
     0
370
    -2
100
AcDbLine
 10
44.95177053660345
 20
70.39448186780933
 30
0.0
 11
44.95177053660346
 21
81.83198186780953
 31
0.0
  0
LINE
  5
34C
330
349
100
AcDbEntity
  8
LIVELLO1
 62
     0
370
    -2
100
AcDbLine
 10
6.951770536603458
 20
61.89448186780936
 30
0.0
 11
6.951770536603469
 21
81.83198186780953
 31
0.0
  0
LINE
  5
34D
330
349
100
AcDbEntity
  8
LIVELLO1
 62
     0
370
    -2
100
AcDbLine
 10
41.95177053660346
 20
81.83198186780953
 30
0.0
 11
9.951770536603469
 21
81.83198186780953
 31
0.0
  0
INSERT
  5
34E
330
349
100
AcDbEntity
  8
LIVELLO1
 62
     0
370
    -2
100
AcDbBlockReference
  2
_Open30
 10
44.95177053660346
 20
81.83198186780953
 30
0.0
 41
3.0
 42
3.0
 43
3.0
  0
INSERT
  5
34F
330
349
100
AcDbEntity
  8
LIVELLO1
 62
     0
370
    -2
100
AcDbBlockReference
  2
_Open30
 10
6.951770536603469
 20
81.83198186780953
 30
0.0
 41
3.0
 42
3.0
 43
3.0
 50
180.0
  0
MTEXT
  5
350
330
349
100
AcDbEntity
  8
LIVELLO1
 62
     0
100
AcDbMText
 10
25.95177053660345
 20
86.20698186780953
 30
0.0
 40
3.5
 41
0.0
 46
0.0
 71
     2
 72
     1
  1
\A1;38
  7
SLDTEXTSTYLE0
 73
     1
 44
1.0
  0
POINT
  5
3F3
330
349
100
AcDbEntity
  8
Defpoints
 62
     0
100
AcDbPoint
 10
44.95177053660345
 20
70.33198186780933
 30
0.0
  0
POINT
  5
3F4
330
349
100
AcDbEntity
  8
Defpoints
 62
     0
100
AcDbPoint
 10
6.951770536603458
 20
61.83198186780936
 30
0.0
  0
POINT
  5
3F5
330
349
100
AcDbEntity
  8
Defpoints
 62
     0
100
AcDbPoint
 10
6.951770536603458
 20
81.83198186780953
 30
0.0
  0
ENDBLK
  5
351
330
349
100
AcDbEntity
  8
0
100
AcDbBlockEnd
  0
BLOCK
  5
354
330
353
100
AcDbEntity
  8
0
100
AcDbBlockBegin
  2
_D_8
 70
     0
 10
0.0
 20
0.0
 30
0.0
  3
_D_8
  1

  0
LINE
  5
355
330
353
100
AcDbEntity
  8
LIVELLO1
 62
     0
370
    -2
100
AcDbLine
 10
44.95177053660345
 20
70.39448186780933
 30
0.0
 11
44.95177053660345
 21
78.83198186780945
 31
0.0
  0
LINE
  5
356
330
353
100
AcDbEntity
  8
LIVELLO1
 62
     0
370
    -2
100
AcDbLine
 10
15.95177053660346
 20
70.89448186780935
 30
0.0
 11
15.95177053660346
 21
78.83198186780945
 31
0.0
  0
LINE
  5
357
330
353
100
AcDbEntity
  8
LIVELLO1
 62
     0
370
    -2
100
AcDbLine
 10
41.95177053660345
 20
78.83198186780945
 30
0.0
 11
18.95177053660346
 21
78.83198186780945
 31
0.0
  0
INSERT
  5
358
330
353
100
AcDbEntity
  8
LIVELLO1
 62
     0
370
    -2
100
AcDbBlockReference
  2
_Open30
 10
44.95177053660345
 20
78.83198186780945
 30
0.0
 41
3.0
 42
3.0
 43
3.0
  0
INSERT
  5
359
330
353
100
AcDbEntity
  8
LIVELLO1
 62
     0
370
    -2
100
AcDbBlockReference
  2
_Open30
 10
15.95177053660346
 20
78.83198186780945
 30
0.0
 41
3.0
 42
3.0
 43
3.0
 50
180.0
  0
MTEXT
  5
35A
330
353
100
AcDbEntity
  8
LIVELLO1
 62
     0
100
AcDbMText
 10
30.45177053660345
 20
83.20698186780945
 30
0.0
 40
3.5
 41
0.0
 46
0.0
 71
     2
 72
     1
  1
\A1;29
  7
SLDTEXTSTYLE0
 73
     1
 44
1.0
  0
POINT
  5
3F6
330
353
100
AcDbEntity
  8
Defpoints
 62
     0
100
AcDbPoint
 10
44.95177053660345
 20
70.33198186780933
 30
0.0
  0
POINT
  5
3F7
330
353
100
AcDbEntity
  8
Defpoints
 62
     0
100
AcDbPoint
 10
15.95177053660346
 20
70.83198186780935
 30
0.0
  0
POINT
  5
3F8
330
353
100
AcDbEntity
  8
Defpoints
 62
     0
100
AcDbPoint
 10
15.95177053660346
 20
78.83198186780945
 30
0.0
  0
ENDBLK
  5
35B
330
353
100
AcDbEntity
  8
0
100
AcDbBlockEnd
  0
BLOCK
  5
35E
330
35D
100
AcDbEntity
  8
0
100
AcDbBlockBegin
  2
_D_9
 70
     0
 10
0.0
 20
0.0
 30
0.0
  3
_D_9
  1

  0
LINE
  5
35F
330
35D
100
AcDbEntity
  8
LIVELLO1
 62
     0
370
    -2
100
AcDbLine
 10
46.51427053660345
 20
61.83198186780936
 30
0.0
 11
49.95177053660348
 21
61.83198186780938
 31
0.0
  0
LINE
  5
360
330
35D
100
AcDbEntity
  8
LIVELLO1
 62
     0
370
    -2
100
AcDbLine
 10
44.51427053660344
 20
70.83198186780935
 30
0.0
 11
49.95177053660345
 21
70.83198186780938
 31
0.0
  0
LINE
  5
361
330
35D
100
AcDbEntity
  8
LIVELLO1
 62
     0
370
    -2
100
AcDbLine
 10
49.95177053660347
 20
64.83198186780938
 30
0.0
 11
49.95177053660345
 21
67.83198186780938
 31
0.0
  0
INSERT
  5
362
330
35D
100
AcDbEntity
  8
LIVELLO1
 62
     0
370
    -2
100
AcDbBlockReference
  2
_Open30
 10
49.95177053660348
 20
61.83198186780938
 30
0.0
 41
3.0
 42
3.0
 43
3.0
 50
270.0000000000002
  0
INSERT
  5
363
330
35D
100
AcDbEntity
  8
LIVELLO1
 62
     0
370
    -2
100
AcDbBlockReference
  2
_Open30
 10
49.95177053660345
 20
70.83198186780938
 30
0.0
 41
3.0
 42
3.0
 43
3.0
 50
90.00000000000018
  0
MTEXT
  5
364
330
35D
100
AcDbEntity
  8
LIVELLO1
 62
     0
100
AcDbMText
 10
45.57677053660346
 20
66.33198186780935
 30
0.0
 40
3.5
 41
0.0
 46
0.0
 71
     2
 72
     1
  1
\A1;9
  7
SLDTEXTSTYLE0
 11
-3.157967714489339E-15
 21
1.0
 31
0.0
 73
     1
 44
1.0
  0
POINT
  5
3F9
330
35D
100
AcDbEntity
  8
Defpoints
 62
     0
100
AcDbPoint
 10
46.45177053660345
 20
61.83198186780936
 30
0.0
  0
POINT
  5
3FA
330
35D
100
AcDbEntity
  8
Defpoints
 62
     0
100
AcDbPoint
 10
44.45177053660344
 20
70.83198186780935
 30
0.0
  0
POINT
  5
3FB
330
35D
100
AcDbEntity
  8
Defpoints
 62
     0
100
AcDbPoint
 10
49.95177053660346
 20
70.83198186780936
 30
0.0
  0
ENDBLK
  5
365
330
35D
100
AcDbEntity
  8
0
100
AcDbBlockEnd
  0
BLOCK
  5
368
330
367
100
AcDbEntity
  8
0
100
AcDbBlockBegin
  2
_D_10
 70
     0
 10
0.0
 20
0.0
 30
0.0
  3
_D_10
  1

  0
LINE
  5
369
330
367
100
AcDbEntity
  8
LIVELLO1
 62
     0
370
    -2
100
AcDbLine
 10
29.75177053660346
 20
72.39448186780935
 30
0.0
 11
29.75177053660346
 21
75.83198186780943
 31
0.0
  0
LINE
  5
36A
330
367
100
AcDbEntity
  8
LIVELLO1
 62
     0
370
    -2
100
AcDbLine
 10
44.95177053660345
 20
70.39448186780933
 30
0.0
 11
44.95177053660345
 21
75.83198186780943
 31
0.0
  0
LINE
  5
36B
330
367
100
AcDbEntity
  8
LIVELLO1
 62
     0
370
    -2
100
AcDbLine
 10
32.75177053660346
 20
75.83198186780943
 30
0.0
 11
41.95177053660345
 21
75.83198186780943
 31
0.0
  0
INSERT
  5
36C
330
367
100
AcDbEntity
  8
LIVELLO1
 62
     0
370
    -2
100
AcDbBlockReference
  2
_Open30
 10
29.75177053660346
 20
75.83198186780943
 30
0.0
 41
3.0
 42
3.0
 43
3.0
 50
180.0
  0
INSERT
  5
36D
330
367
100
AcDbEntity
  8
LIVELLO1
 62
     0
370
    -2
100
AcDbBlockReference
  2
_Open30
 10
44.95177053660345
 20
75.83198186780943
 30
0.0
 41
3.0
 42
3.0
 43
3.0
  0
MTEXT
  5
36E
330
367
100
AcDbEntity
  8
LIVELLO1
 62
     0
100
AcDbMText
 10
37.35177053660346
 20
80.20698186780943
 30
0.0
 40
3.5
 41
0.0
 46
0.0
 71
     2
 72
     1
  1
\A1;15.2
  7
SLDTEXTSTYLE0
 73
     1
 44
1.0
  0
POINT
  5
3FC
330
367
100
AcDbEntity
  8
Defpoints
 62
     0
100
AcDbPoint
 10
29.75177053660346
 20
72.33198186780935
 30
0.0
  0
POINT
  5
3FD
330
367
100
AcDbEntity
  8
Defpoints
 62
     0
100
AcDbPoint
 10
44.95177053660345
 20
70.33198186780933
 30
0.0
  0
POINT
  5
3FE
330
367
100
AcDbEntity
  8
Defpoints
 62
     0
100
AcDbPoint
 10
44.95177053660345
 20
75.83198186780943
 30
0.0
  0
ENDBLK
  5
36F
330
367
100
AcDbEntity
  8
0
100
AcDbBlockEnd
  0
BLOCK
  5
3A6
330
3A5
100
AcDbEntity
  8
0
100
AcDbBlockBegin
  2
_D_11
 70
     0
 10
0.0
 20
0.0
 30
0.0
  3
_D_11
  1

  0
LINE
  5
3A7
330
3A5
100
AcDbEntity
  8
LIVELLO1
 62
     0
370
    -2
100
AcDbLine
 10
78.65268610959545
 20
21.42582716030342
 30
0.0
 11
54.5009963464259
 21
0.5415311503097815
 31
0.0
  0
MTEXT
  5
3A8
330
3A5
100
AcDbEntity
  8
LIVELLO1
 62
     0
100
AcDbMText
 10
52.30123520816141
 20
4.423193285862196
 30
0.0
 40
3.5
 41
0.0
 46
0.0
 71
     1
 72
     1
  1
\A1;%%c12
  7
SLDTEXTSTYLE0
 11
0.7564197599779157
 21
0.6540864978846088
 31
0.0
 73
     1
 44
1.0
  0
INSERT
  5
3A9
330
3A5
100
AcDbEntity
  8
LIVELLO1
 62
     0
370
    -2
100
AcDbBlockReference
  2
_Open30
 10
78.65268610959545
 20
21.42582716030342
 30
0.0
 41
3.0
 42
3.0
 43
3.0
 50
40.85041962970428
  0
POINT
  5
3AA
330
3A5
100
AcDbEntity
  8
Defpoints
 62
     0
100
AcDbPoint
 10
78.65268610959545
 20
21.42582716030342
 30
0.0
  0
POINT
  5
3AB
330
3A5
100
AcDbEntity
  8
Defpoints
 62
     0
100
AcDbPoint
 10
69.57262331082055
 20
13.57417283969657
 30
0.0
  0
ENDBLK
  5
3AF
330
3A5
100
AcDbEntity
  8
0
100
AcDbBlockEnd
  0
BLOCK
  5
3B2
330
3B1
100
AcDbEntity
  8
0
100
AcDbBlockBegin
  2
_D_12
 70
     0
 10
0.0
 20
0.0
 30
0.0
  3
_D_12
  1

  0
LINE
  5
3B3
330
3B1
100
AcDbEntity
  8
LIVELLO1
 62
     0
370
    -2
100
AcDbLine
 10
74.175154710208
 20
17.5
 30
0.0
 11
88.11265471020818
 21
17.50000000000005
 31
0.0
  0
LINE
  5
3B4
330
3B1
100
AcDbEntity
  8
LIVELLO1
 62
     0
370
    -2
100
AcDbLine
 10
83.17515471020799
 20
33.5
 30
0.0
 11
88.11265471020812
 21
33.50000000000001
 31
0.0
  0
LINE
  5
3B5
330
3B1
100
AcDbEntity
  8
LIVELLO1
 62
     0
370
    -2
100
AcDbLine
 10
88.11265471020816
 20
20.50000000000005
 30
0.0
 11
88.11265471020813
 21
30.50000000000001
 31
0.0
  0
INSERT
  5
3B6
330
3B1
100
AcDbEntity
  8
LIVELLO1
 62
     0
370
    -2
100
AcDbBlockReference
  2
_Open30
 10
88.11265471020818
 20
17.50000000000005
 30
0.0
 41
3.0
 42
3.0
 43
3.0
 50
270.0000000000002
  0
INSERT
  5
3B7
330
3B1
100
AcDbEntity
  8
LIVELLO1
 62
     0
370
    -2
100
AcDbBlockReference
  2
_Open30
 10
88.11265471020812
 20
33.50000000000001
 30
0.0
 41
3.0
 42
3.0
 43
3.0
 50
90.0000000000002
  0
MTEXT
  5
3B8
330
3B1
100
AcDbEntity
  8
LIVELLO1
 62
     0
100
AcDbMText
 10
83.73765471020815
 20
25.49999999999999
 30
0.0
 40
3.5
 41
0.0
 46
0.0
 71
     2
 72
     1
  1
\A1;16
  7
SLDTEXTSTYLE0
 11
-3.552713678800507E-15
 21
1.0
 31
0.0
 73
     1
 44
1.0
  0
POINT
  5
3FF
330
3B1
100
AcDbEntity
  8
Defpoints
 62
     0
100
AcDbPoint
 10
74.112654710208
 20
17.5
 30
0.0
  0
POINT
  5
400
330
3B1
100
AcDbEntity
  8
Defpoints
 62
     0
100
AcDbPoint
 10
83.11265471020799
 20
33.5
 30
0.0
  0
POINT
  5
401
330
3B1
100
AcDbEntity
  8
Defpoints
 62
     0
100
AcDbPoint
 10
88.11265471020815
 20
33.50000000000002
 30
0.0
  0
ENDBLK
  5
3B9
330
3B1
100
AcDbEntity
  8
0
100
AcDbBlockEnd
  0
BLOCK
  5
3BC
330
3BB
100
AcDbEntity
  8
0
100
AcDbBlockBegin
  2
_D_13
 70
     0
 10
0.0
 20
0.0
 30
0.0
  3
_D_13
  1

  0
LINE
  5
3BD
330
3BB
100
AcDbEntity
  8
LIVELLO1
 62
     0
370
    -2
100
AcDbLine
 10
74.11265471020815
 20
33.5625
 30
0.0
 11
74.11265471020815
 21
38.5
 31
0.0
  0
LINE
  5
3BE
330
3BB
100
AcDbEntity
  8
LIVELLO1
 62
     0
370
    -2
100
AcDbLine
 10
83.11265471020799
 20
33.5625
 30
0.0
 11
83.11265471020799
 21
38.5
 31
0.0
  0
LINE
  5
3BF
330
3BB
100
AcDbEntity
  8
LIVELLO1
 62
     0
370
    -2
100
AcDbLine
 10
77.11265471020815
 20
38.5
 30
0.0
 11
80.11265471020799
 21
38.5
 31
0.0
  0
INSERT
  5
3C0
330
3BB
100
AcDbEntity
  8
LIVELLO1
 62
     0
370
    -2
100
AcDbBlockReference
  2
_Open30
 10
74.11265471020815
 20
38.5
 30
0.0
 41
3.0
 42
3.0
 43
3.0
 50
180.0
  0
INSERT
  5
3C1
330
3BB
100
AcDbEntity
  8
LIVELLO1
 62
     0
370
    -2
100
AcDbBlockReference
  2
_Open30
 10
83.11265471020799
 20
38.5
 30
0.0
 41
3.0
 42
3.0
 43
3.0
  0
MTEXT
  5
3C2
330
3BB
100
AcDbEntity
  8
LIVELLO1
 62
     0
100
AcDbMText
 10
78.61265471020808
 20
42.875
 30
0.0
 40
3.5
 41
0.0
 46
0.0
 71
     2
 72
     1
  1
\A1;9
  7
SLDTEXTSTYLE0
 73
     1
 44
1.0
  0
POINT
  5
402
330
3BB
100
AcDbEntity
  8
Defpoints
 62
     0
100
AcDbPoint
 10
74.11265471020815
 20
33.5
 30
0.0
  0
POINT
  5
403
330
3BB
100
AcDbEntity
  8
Defpoints
 62
     0
100
AcDbPoint
 10
83.11265471020799
 20
33.5
 30
0.0
  0
POINT
  5
404
330
3BB
100
AcDbEntity
  8
Defpoints
 62
     0
100
AcDbPoint
 10
83.11265471020799
 20
38.5
 30
0.0
  0
ENDBLK
  5
3C3
330
3BB
100
AcDbEntity
  8
0
100
AcDbBlockEnd
  0
BLOCK
  5
3C6
330
3C5
100
AcDbEntity
  8
0
100
AcDbBlockBegin
  2
_D_14
 70
     0
 10
0.0
 20
0.0
 30
0.0
  3
_D_14
  1

  0
LINE
  5
3C7
330
3C5
100
AcDbEntity
  8
LIVELLO1
 62
     0
370
    -2
100
AcDbLine
 10
83.11265471020799
 20
33.5625
 30
0.0
 11
83.11265471020799
 21
41.5
 31
0.0
  0
LINE
  5
3C8
330
3C5
100
AcDbEntity
  8
LIVELLO1
 62
     0
370
    -2
100
AcDbLine
 10
65.112654710208
 20
33.5625
 30
0.0
 11
65.112654710208
 21
41.5
 31
0.0
  0
LINE
  5
3C9
330
3C5
100
AcDbEntity
  8
LIVELLO1
 62
     0
370
    -2
100
AcDbLine
 10
80.11265471020799
 20
41.5
 30
0.0
 11
68.112654710208
 21
41.5
 31
0.0
  0
INSERT
  5
3CA
330
3C5
100
AcDbEntity
  8
LIVELLO1
 62
     0
370
    -2
100
AcDbBlockReference
  2
_Open30
 10
83.11265471020799
 20
41.5
 30
0.0
 41
3.0
 42
3.0
 43
3.0
  0
INSERT
  5
3CB
330
3C5
100
AcDbEntity
  8
LIVELLO1
 62
     0
370
    -2
100
AcDbBlockReference
  2
_Open30
 10
65.112654710208
 20
41.5
 30
0.0
 41
3.0
 42
3.0
 43
3.0
 50
180.0
  0
MTEXT
  5
3CC
330
3C5
100
AcDbEntity
  8
LIVELLO1
 62
     0
100
AcDbMText
 10
74.112654710208
 20
45.875
 30
0.0
 40
3.5
 41
0.0
 46
0.0
 71
     2
 72
     1
  1
\A1;18
  7
SLDTEXTSTYLE0
 73
     1
 44
1.0
  0
POINT
  5
405
330
3C5
100
AcDbEntity
  8
Defpoints
 62
     0
100
AcDbPoint
 10
83.11265471020799
 20
33.5
 30
0.0
  0
POINT
  5
406
330
3C5
100
AcDbEntity
  8
Defpoints
 62
     0
100
AcDbPoint
 10
65.112654710208
 20
33.5
 30
0.0
  0
POINT
  5
407
330
3C5
100
AcDbEntity
  8
Defpoints
 62
     0
100
AcDbPoint
 10
65.112654710208
 20
41.5
 30
0.0
  0
ENDBLK
  5
3CD
330
3C5
100
AcDbEntity
  8
0
100
AcDbBlockEnd
  0
BLOCK
  5
48C
330
48B
100
AcDbEntity
  8
0
100
AcDbBlockBegin
  2
*D38
 70
     1
 10
0.0
 20
0.0
 30
0.0
  3
*D38
  1

  0
LINE
  5
48E
330
48B
100
AcDbEntity
  8
0
  6
Continuous
 62
     0
370
    -2
100
AcDbLine
 10
90.07815361971046
 20
159.8175427626753
 30
0.0
 11
90.07815361971046
 21
145.2356131344141
 31
0.0
  0
LINE
  5
48F
330
48B
100
AcDbEntity
  8
0
  6
Continuous
 62
     0
370
    -2
100
AcDbLine
 10
104.0781536197105
 20
159.8175427626753
 30
0.0
 11
104.0781536197105
 21
145.2356131344141
 31
0.0
  0
LINE
  5
490
330
48B
100
AcDbEntity
  8
0
  6
Continuous
 62
     0
370
    -2
100
AcDbLine
 10
93.07815361971046
 20
146.2356131344141
 30
0.0
 11
101.0781536197105
 21
146.2356131344141
 31
0.0
  0
INSERT
  5
491
330
48B
100
AcDbEntity
  8
0
 62
     0
370
    -2
100
AcDbBlockReference
  2
_Open30
 10
90.07815361971046
 20
146.2356131344141
 30
0.0
 41
3.0
 42
3.0
 43
3.0
 50
180.0
  0
INSERT
  5
492
330
48B
100
AcDbEntity
  8
0
 62
     0
370
    -2
100
AcDbBlockReference
  2
_Open30
 10
104.0781536197105
 20
146.2356131344141
 30
0.0
 41
3.0
 42
3.0
 43
3.0
  0
MTEXT
  5
493
330
48B
100
AcDbEntity
  8
0
 62
     0
370
     0
100
AcDbMText
 10
97.07815361971046
 20
151.2596131344141
 30
0.0
 40
3.5
 41
0.0
 46
0.0
 71
     2
 72
     1
  1
\A1;14
  7
SLDTEXTSTYLE0
 73
     1
 44
1.0
  0
POINT
  5
494
330
48B
100
AcDbEntity
  8
Defpoints
 62
     0
100
AcDbPoint
 10
90.07815361971046
 20
160.8175427626753
 30
0.0
  0
POINT
  5
495
330
48B
100
AcDbEntity
  8
Defpoints
 62
     0
100
AcDbPoint
 10
104.0781536197105
 20
160.8175427626753
 30
0.0
  0
POINT
  5
496
330
48B
100
AcDbEntity
  8
Defpoints
 62
     0
100
AcDbPoint
 10
104.0781536197105
 20
146.2356131344141
 30
0.0
  0
ENDBLK
  5
48D
330
48B
100
AcDbEntity
  8
0
100
AcDbBlockEnd
  0
BLOCK
  5
498
330
497
100
AcDbEntity
  8
0
100
AcDbBlockBegin
  2
*D39
 70
     1
 10
0.0
 20
0.0
 30
0.0
  3
*D39
  1

  0
LINE
  5
49A
330
497
100
AcDbEntity
  8
0
  6
Continuous
 62
     0
370
    -2
100
AcDbLine
 10
92.07815361971046
 20
162.8155427626753
 30
0.0
 11
92.07815361971046
 21
151.7101576689982
 31
0.0
  0
LINE
  5
49B
330
497
100
AcDbEntity
  8
0
  6
Continuous
 62
     0
370
    -2
100
AcDbLine
 10
104.0781536197105
 20
162.8155427626753
 30
0.0
 11
104.0781536197105
 21
151.7101576689982
 31
0.0
  0
LINE
  5
49C
330
497
100
AcDbEntity
  8
0
  6
Continuous
 62
     0
370
    -2
100
AcDbLine
 10
95.07815361971046
 20
152.7101576689982
 30
0.0
 11
101.0781536197105
 21
152.7101576689982
 31
0.0
  0
INSERT
  5
49D
330
497
100
AcDbEntity
  8
0
 62
     0
370
    -2
100
AcDbBlockReference
  2
_Open30
 10
92.07815361971046
 20
152.7101576689982
 30
0.0
 41
3.0
 42
3.0
 43
3.0
 50
180.0
  0
INSERT
  5
49E
330
497
100
AcDbEntity
  8
0
 62
     0
370
    -2
100
AcDbBlockReference
  2
_Open30
 10
104.0781536197105
 20
152.7101576689982
 30
0.0
 41
3.0
 42
3.0
 43
3.0
  0
MTEXT
  5
49F
330
497
100
AcDbEntity
  8
0
 62
     0
370
     0
100
AcDbMText
 10
98.07815361971046
 20
157.7341576689982
 30
0.0
 40
3.5
 41
0.0
 46
0.0
 71
     2
 72
     1
  1
\A1;12
  7
SLDTEXTSTYLE0
 73
     1
 44
1.0
  0
POINT
  5
4A0
330
497
100
AcDbEntity
  8
Defpoints
 62
     0
100
AcDbPoint
 10
92.07815361971046
 20
163.8155427626753
 30
0.0
  0
POINT
  5
4A1
330
497
100
AcDbEntity
  8
Defpoints
 62
     0
100
AcDbPoint
 10
104.0781536197105
 20
163.8155427626753
 30
0.0
  0
POINT
  5
4A2
330
497
100
AcDbEntity
  8
Defpoints
 62
     0
100
AcDbPoint
 10
104.0781536197105
 20
152.7101576689982
 30
0.0
  0
ENDBLK
  5
499
330
497
100
AcDbEntity
  8
0
100
AcDbBlockEnd
  0
BLOCK
  5
4A4
330
4A3
100
AcDbEntity
  8
0
100
AcDbBlockBegin
  2
*D40
 70
     1
 10
0.0
 20
0.0
 30
0.0
  3
*D40
  1

  0
LINE
  5
4A6
330
4A3
100
AcDbEntity
  8
0
  6
Continuous
 62
     0
370
    -2
100
AcDbLine
 10
104.0781536197105
 20
186.8175427626753
 30
0.0
 11
104.0781536197105
 21
191.8175427626753
 31
0.0
  0
LINE
  5
4A7
330
4A3
100
AcDbEntity
  8
0
  6
Continuous
 62
     0
370
    -2
100
AcDbLine
 10
99.07815361971046
 20
182.5675427626753
 30
0.0
 11
99.07815361971046
 21
191.8175427626753
 31
0.0
  0
LINE
  5
4A8
330
4A3
100
AcDbEntity
  8
0
  6
Continuous
 62
     0
370
    -2
100
AcDbLine
 10
107.0781536197105
 20
190.8175427626753
 30
0.0
 11
110.0781536197105
 21
190.8175427626753
 31
0.0
  0
LINE
  5
4A9
330
4A3
100
AcDbEntity
  8
0
  6
Continuous
 62
     0
370
    -2
100
AcDbLine
 10
96.07815361971046
 20
190.8175427626753
 30
0.0
 11
93.07815361971046
 21
190.8175427626753
 31
0.0
  0
INSERT
  5
4AA
330
4A3
100
AcDbEntity
  8
0
 62
     0
370
    -2
100
AcDbBlockReference
  2
_Open30
 10
104.0781536197105
 20
190.8175427626753
 30
0.0
 41
3.0
 42
3.0
 43
3.0
 50
180.0
  0
INSERT
  5
4AB
330
4A3
100
AcDbEntity
  8
0
 62
     0
370
    -2
100
AcDbBlockReference
  2
_Open30
 10
99.07815361971046
 20
190.8175427626753
 30
0.0
 41
3.0
 42
3.0
 43
3.0
  0
MTEXT
  5
4AC
330
4A3
100
AcDbEntity
  8
0
 62
     0
370
     0
100
AcDbMText
 10
101.5781536197105
 20
195.8415427626753
 30
0.0
 40
3.5
 41
0.0
 46
0.0
 71
     2
 72
     1
  1
\A1;5
  7
SLDTEXTSTYLE0
 73
     1
 44
1.0
  0
POINT
  5
4AD
330
4A3
100
AcDbEntity
  8
Defpoints
 62
     0
100
AcDbPoint
 10
104.0781536197105
 20
185.8175427626753
 30
0.0
  0
POINT
  5
53B
330
4A3
100
AcDbEntity
  8
Defpoints
 62
     0
100
AcDbPoint
 10
99.07815361971046
 20
181.5675427626753
 30
0.0
  0
POINT
  5
53C
330
4A3
100
AcDbEntity
  8
Defpoints
 62
     0
100
AcDbPoint
 10
99.07815361971046
 20
190.8175427626753
 30
0.0
  0
ENDBLK
  5
4A5
330
4A3
100
AcDbEntity
  8
0
100
AcDbBlockEnd
  0
BLOCK
  5
4AF
330
4AE
100
AcDbEntity
  8
0
100
AcDbBlockBegin
  2
*D41
 70
     1
 10
0.0
 20
0.0
 30
0.0
  3
*D41
  1

  0
LINE
  5
4B1
330
4AE
100
AcDbEntity
  8
0
  6
Continuous
 62
     0
370
    -2
100
AcDbLine
 10
99.07815361971046
 20
182.5675427626753
 30
0.0
 11
99.07815361971046
 21
191.8175427626753
 31
0.0
  0
LINE
  5
4B2
330
4AE
100
AcDbEntity
  8
0
  6
Continuous
 62
     0
370
    -2
100
AcDbLine
 10
84.07815361971046
 20
182.5675427626753
 30
0.0
 11
84.07815361971046
 21
191.8175427626753
 31
0.0
  0
LINE
  5
4B3
330
4AE
100
AcDbEntity
  8
0
  6
Continuous
 62
     0
370
    -2
100
AcDbLine
 10
96.07815361971046
 20
190.8175427626753
 30
0.0
 11
87.07815361971046
 21
190.8175427626753
 31
0.0
  0
INSERT
  5
4B4
330
4AE
100
AcDbEntity
  8
0
 62
     0
370
    -2
100
AcDbBlockReference
  2
_Open30
 10
99.07815361971046
 20
190.8175427626753
 30
0.0
 41
3.0
 42
3.0
 43
3.0
  0
INSERT
  5
4B5
330
4AE
100
AcDbEntity
  8
0
 62
     0
370
    -2
100
AcDbBlockReference
  2
_Open30
 10
84.07815361971046
 20
190.8175427626753
 30
0.0
 41
3.0
 42
3.0
 43
3.0
 50
180.0
  0
MTEXT
  5
4B6
330
4AE
100
AcDbEntity
  8
0
 62
     0
370
     0
100
AcDbMText
 10
91.57815361971046
 20
195.8415427626753
 30
0.0
 40
3.5
 41
0.0
 46
0.0
 71
     2
 72
     1
  1
\A1;15
  7
SLDTEXTSTYLE0
 73
     1
 44
1.0
  0
POINT
  5
4B7
330
4AE
100
AcDbEntity
  8
Defpoints
 62
     0
100
AcDbPoint
 10
99.07815361971046
 20
181.5675427626753
 30
0.0
  0
POINT
  5
4B8
330
4AE
100
AcDbEntity
  8
Defpoints
 62
     0
100
AcDbPoint
 10
84.07815361971046
 20
181.5675427626753
 30
0.0
  0
POINT
  5
4B9
330
4AE
100
AcDbEntity
  8
Defpoints
 62
     0
100
AcDbPoint
 10
84.07815361971046
 20
190.8175427626753
 30
0.0
  0
ENDBLK
  5
4B0
330
4AE
100
AcDbEntity
  8
0
100
AcDbBlockEnd
  0
BLOCK
  5
4BB
330
4BA
100
AcDbEntity
  8
0
100
AcDbBlockBegin
  2
*D42
 70
     1
 10
0.0
 20
0.0
 30
0.0
  3
*D42
  1

  0
LINE
  5
4BD
330
4BA
100
AcDbEntity
  8
0
  6
Continuous
 62
     0
370
    -2
100
AcDbLine
 10
85.07815361971046
 20
181.5675427626753
 30
0.0
 11
113.9822172160495
 21
181.5675427626754
 31
0.0
  0
LINE
  5
4BE
330
4BA
100
AcDbEntity
  8
0
  6
Continuous
 62
     0
370
    -2
100
AcDbLine
 10
105.0781536197105
 20
185.8175427626753
 30
0.0
 11
113.9822172160495
 21
185.8175427626753
 31
0.0
  0
LINE
  5
4BF
330
4BA
100
AcDbEntity
  8
0
  6
Continuous
 62
     0
370
    -2
100
AcDbLine
 10
112.9822172160495
 20
178.5675427626754
 30
0.0
 11
112.9822172160495
 21
175.5675427626754
 31
0.0
  0
LINE
  5
4C0
330
4BA
100
AcDbEntity
  8
0
  6
Continuous
 62
     0
370
    -2
100
AcDbLine
 10
112.9822172160495
 20
188.8175427626753
 30
0.0
 11
112.9822172160494
 21
191.8175427626753
 31
0.0
  0
INSERT
  5
4C1
330
4BA
100
AcDbEntity
  8
0
 62
     0
370
    -2
100
AcDbBlockReference
  2
_Open30
 10
112.9822172160495
 20
181.5675427626754
 30
0.0
 41
3.0
 42
3.0
 43
3.0
 50
90.0000000000002
  0
INSERT
  5
4C2
330
4BA
100
AcDbEntity
  8
0
 62
     0
370
    -2
100
AcDbBlockReference
  2
_Open30
 10
112.9822172160495
 20
185.8175427626753
 30
0.0
 41
3.0
 42
3.0
 43
3.0
 50
270.0000000000002
  0
MTEXT
  5
4C3
330
4BA
100
AcDbEntity
  8
0
 62
     0
370
     0
100
AcDbMText
 10
107.9582172160495
 20
183.6925427626753
 30
0.0
 40
3.5
 41
0.0
 46
0.0
 71
     2
 72
     1
  1
\A1;4.3
  7
SLDTEXTSTYLE0
 11
-3.343730521224068E-15
 21
1.0
 31
0.0
 73
     1
 44
1.0
  0
POINT
  5
4C4
330
4BA
100
AcDbEntity
  8
Defpoints
 62
     0
100
AcDbPoint
 10
84.07815361971046
 20
181.5675427626753
 30
0.0
  0
POINT
  5
4C5
330
4BA
100
AcDbEntity
  8
Defpoints
 62
     0
100
AcDbPoint
 10
104.0781536197105
 20
185.8175427626753
 30
0.0
  0
POINT
  5
53D
330
4BA
100
AcDbEntity
  8
Defpoints
 62
     0
100
AcDbPoint
 10
112.9822172160495
 20
185.8175427626753
 30
0.0
  0
ENDBLK
  5
4BC
330
4BA
100
AcDbEntity
  8
0
100
AcDbBlockEnd
  0
BLOCK
  5
4C7
330
4C6
100
AcDbEntity
  8
0
100
AcDbBlockBegin
  2
*D43
 70
     1
 10
0.0
 20
0.0
 30
0.0
  3
*D43
  1

  0
LINE
  5
4C9
330
4C6
100
AcDbEntity
  8
0
  6
Continuous
 62
     0
370
    -2
100
AcDbLine
 10
105.0781536197105
 20
185.8175427626753
 30
0.0
 11
118.3849074995666
 21
185.8175427626754
 31
0.0
  0
LINE
  5
4CA
330
4C6
100
AcDbEntity
  8
0
  6
Continuous
 62
     0
370
    -2
100
AcDbLine
 10
105.0781536197105
 20
160.8175427626753
 30
0.0
 11
118.3849074995667
 21
160.8175427626754
 31
0.0
  0
LINE
  5
4CB
330
4C6
100
AcDbEntity
  8
0
  6
Continuous
 62
     0
370
    -2
100
AcDbLine
 10
117.3849074995667
 20
182.8175427626754
 30
0.0
 11
117.3849074995667
 21
163.8175427626754
 31
0.0
  0
INSERT
  5
4CC
330
4C6
100
AcDbEntity
  8
0
 62
     0
370
    -2
100
AcDbBlockReference
  2
_Open30
 10
117.3849074995666
 20
185.8175427626754
 30
0.0
 41
3.0
 42
3.0
 43
3.0
 50
90.0000000000002
  0
INSERT
  5
4CD
330
4C6
100
AcDbEntity
  8
0
 62
     0
370
    -2
100
AcDbBlockReference
  2
_Open30
 10
117.3849074995667
 20
160.8175427626754
 30
0.0
 41
3.0
 42
3.0
 43
3.0
 50
270.0000000000002
  0
MTEXT
  5
4CE
330
4C6
100
AcDbEntity
  8
0
 62
     0
370
     0
100
AcDbMText
 10
112.3609074995667
 20
173.946663742434
 30
0.0
 40
3.5
 41
0.0
 46
0.0
 71
     2
 72
     1
  1
\A1;25
  7
SLDTEXTSTYLE0
 11
-3.410605131648481E-15
 21
1.0
 31
0.0
 73
     1
 44
1.0
  0
POINT
  5
4CF
330
4C6
100
AcDbEntity
  8
Defpoints
 62
     0
100
AcDbPoint
 10
104.0781536197105
 20
185.8175427626753
 30
0.0
  0
POINT
  5
4D0
330
4C6
100
AcDbEntity
  8
Defpoints
 62
     0
100
AcDbPoint
 10
104.0781536197105
 20
160.8175427626753
 30
0.0
  0
POINT
  5
4D1
330
4C6
100
AcDbEntity
  8
Defpoints
 62
     0
100
AcDbPoint
 10
117.3849074995667
 20
160.8175427626754
 30
0.0
  0
ENDBLK
  5
4C8
330
4C6
100
AcDbEntity
  8
0
100
AcDbBlockEnd
  0
BLOCK
  5
4D3
330
4D2
100
AcDbEntity
  8
0
100
AcDbBlockBegin
  2
*D44
 70
     1
 10
0.0
 20
0.0
 30
0.0
  3
*D44
  1

  0
LINE
  5
4D5
330
4D2
100
AcDbEntity
  8
0
  6
Continuous
 62
     0
370
    -2
100
AcDbLine
 10
65.07815361971046
 20
174.8175427626753
 30
0.0
 11
60.07815361971046
 21
174.8175427626753
 31
0.0
  0
LINE
  5
4D6
330
4D2
100
AcDbEntity
  8
0
  6
Continuous
 62
     0
370
    -2
100
AcDbLine
 10
65.07815361971046
 20
185.8175427626753
 30
0.0
 11
60.07815361971042
 21
185.8175427626753
 31
0.0
  0
LINE
  5
4D7
330
4D2
100
AcDbEntity
  8
0
  6
Continuous
 62
     0
370
    -2
100
AcDbLine
 10
61.07815361971045
 20
177.8175427626753
 30
0.0
 11
61.07815361971043
 21
182.8175427626753
 31
0.0
  0
INSERT
  5
4D8
330
4D2
100
AcDbEntity
  8
0
 62
     0
370
    -2
100
AcDbBlockReference
  2
_Open30
 10
61.07815361971046
 20
174.8175427626753
 30
0.0
 41
3.0
 42
3.0
 43
3.0
 50
270.0000000000002
  0
INSERT
  5
4D9
330
4D2
100
AcDbEntity
  8
0
 62
     0
370
    -2
100
AcDbBlockReference
  2
_Open30
 10
61.07815361971042
 20
185.8175427626753
 30
0.0
 41
3.0
 42
3.0
 43
3.0
 50
90.0000000000002
  0
MTEXT
  5
4DA
330
4D2
100
AcDbEntity
  8
0
 62
     0
370
     0
100
AcDbMText
 10
56.05415361971043
 20
180.3175427626753
 30
0.0
 40
3.5
 41
0.0
 46
0.0
 71
     2
 72
     1
  1
\A1;11
  7
SLDTEXTSTYLE0
 11
-3.229739708000455E-15
 21
1.0
 31
0.0
 73
     1
 44
1.0
  0
POINT
  5
4DB
330
4D2
100
AcDbEntity
  8
Defpoints
 62
     0
100
AcDbPoint
 10
66.07815361971046
 20
174.8175427626753
 30
0.0
  0
POINT
  5
4DC
330
4D2
100
AcDbEntity
  8
Defpoints
 62
     0
100
AcDbPoint
 10
66.07815361971046
 20
185.8175427626753
 30
0.0
  0
POINT
  5
4DD
330
4D2
100
AcDbEntity
  8
Defpoints
 62
     0
100
AcDbPoint
 10
61.07815361971043
 20
185.8175427626753
 30
0.0
  0
ENDBLK
  5
4D4
330
4D2
100
AcDbEntity
  8
0
100
AcDbBlockEnd
  0
BLOCK
  5
4DF
330
4DE
100
AcDbEntity
  8
0
100
AcDbBlockBegin
  2
*D45
 70
     1
 10
0.0
 20
0.0
 30
0.0
  3
*D45
  1

  0
LINE
  5
4E1
330
4DE
100
AcDbEntity
  8
0
  6
Continuous
 62
     0
370
    -2
100
AcDbLine
 10
104.0781536197105
 20
223.6495246304846
 30
0.0
 11
104.0781536197105
 21
241.9797814904947
 31
0.0
  0
LINE
  5
4E2
330
4DE
100
AcDbEntity
  8
0
  6
Continuous
 62
     0
370
    -2
100
AcDbLine
 10
66.07815361971046
 20
215.1495246304847
 30
0.0
 11
66.07815361971046
 21
241.9797814904947
 31
0.0
  0
LINE
  5
4E3
330
4DE
100
AcDbEntity
  8
0
  6
Continuous
 62
     0
370
    -2
100
AcDbLine
 10
101.0781536197105
 20
240.9797814904947
 30
0.0
 11
69.07815361971046
 21
240.9797814904947
 31
0.0
  0
INSERT
  5
4E4
330
4DE
100
AcDbEntity
  8
0
 62
     0
370
    -2
100
AcDbBlockReference
  2
_Open30
 10
104.0781536197105
 20
240.9797814904947
 30
0.0
 41
3.0
 42
3.0
 43
3.0
  0
INSERT
  5
4E5
330
4DE
100
AcDbEntity
  8
0
 62
     0
370
    -2
100
AcDbBlockReference
  2
_Open30
 10
66.07815361971046
 20
240.9797814904947
 30
0.0
 41
3.0
 42
3.0
 43
3.0
 50
180.0
  0
MTEXT
  5
4E6
330
4DE
100
AcDbEntity
  8
0
 62
     0
370
     0
100
AcDbMText
 10
85.07815361971046
 20
246.0037814904947
 30
0.0
 40
3.5
 41
0.0
 46
0.0
 71
     2
 72
     1
  1
\A1;38
  7
SLDTEXTSTYLE0
 73
     1
 44
1.0
  0
POINT
  5
4E7
330
4DE
100
AcDbEntity
  8
Defpoints
 62
     0
100
AcDbPoint
 10
104.0781536197105
 20
222.6495246304846
 30
0.0
  0
POINT
  5
4E8
330
4DE
100
AcDbEntity
  8
Defpoints
 62
     0
100
AcDbPoint
 10
66.07815361971046
 20
214.1495246304847
 30
0.0
  0
POINT
  5
4E9
330
4DE
100
AcDbEntity
  8
Defpoints
 62
     0
100
AcDbPoint
 10
66.07815361971046
 20
240.9797814904947
 30
0.0
  0
ENDBLK
  5
4E0
330
4DE
100
AcDbEntity
  8
0
100
AcDbBlockEnd
  0
BLOCK
  5
4EB
330
4EA
100
AcDbEntity
  8
0
100
AcDbBlockBegin
  2
*D46
 70
     1
 10
0.0
 20
0.0
 30
0.0
  3
*D46
  1

  0
LINE
  5
4ED
330
4EA
100
AcDbEntity
  8
0
  6
Continuous
 62
     0
370
    -2
100
AcDbLine
 10
104.0781536197105
 20
223.6495246304846
 30
0.0
 11
104.0781536197105
 21
235.9098959893221
 31
0.0
  0
LINE
  5
4EE
330
4EA
100
AcDbEntity
  8
0
  6
Continuous
 62
     0
370
    -2
100
AcDbLine
 10
75.07815361971046
 20
224.1495246304847
 30
0.0
 11
75.07815361971046
 21
235.9098959893221
 31
0.0
  0
LINE
  5
4EF
330
4EA
100
AcDbEntity
  8
0
  6
Continuous
 62
     0
370
    -2
100
AcDbLine
 10
101.0781536197105
 20
234.9098959893221
 30
0.0
 11
78.07815361971046
 21
234.9098959893221
 31
0.0
  0
INSERT
  5
4F0
330
4EA
100
AcDbEntity
  8
0
 62
     0
370
    -2
100
AcDbBlockReference
  2
_Open30
 10
104.0781536197105
 20
234.9098959893221
 30
0.0
 41
3.0
 42
3.0
 43
3.0
  0
INSERT
  5
4F1
330
4EA
100
AcDbEntity
  8
0
 62
     0
370
    -2
100
AcDbBlockReference
  2
_Open30
 10
75.07815361971046
 20
234.9098959893221
 30
0.0
 41
3.0
 42
3.0
 43
3.0
 50
180.0
  0
MTEXT
  5
4F2
330
4EA
100
AcDbEntity
  8
0
 62
     0
370
     0
100
AcDbMText
 10
89.57815361971046
 20
239.9338959893221
 30
0.0
 40
3.5
 41
0.0
 46
0.0
 71
     2
 72
     1
  1
\A1;29
  7
SLDTEXTSTYLE0
 73
     1
 44
1.0
  0
POINT
  5
4F3
330
4EA
100
AcDbEntity
  8
Defpoints
 62
     0
100
AcDbPoint
 10
104.0781536197105
 20
222.6495246304846
 30
0.0
  0
POINT
  5
4F4
330
4EA
100
AcDbEntity
  8
Defpoints
 62
     0
100
AcDbPoint
 10
75.07815361971046
 20
223.1495246304847
 30
0.0
  0
POINT
  5
4F5
330
4EA
100
AcDbEntity
  8
Defpoints
 62
     0
100
AcDbPoint
 10
75.07815361971046
 20
234.9098959893221
 30
0.0
  0
ENDBLK
  5
4EC
330
4EA
100
AcDbEntity
  8
0
100
AcDbBlockEnd
  0
BLOCK
  5
4F7
330
4F6
100
AcDbEntity
  8
0
100
AcDbBlockBegin
  2
*D47
 70
     1
 10
0.0
 20
0.0
 30
0.0
  3
*D47
  1

  0
LINE
  5
4F9
330
4F6
100
AcDbEntity
  8
0
  6
Continuous
 62
     0
370
    -2
100
AcDbLine
 10
106.5781536197105
 20
214.1495246304847
 30
0.0
 11
113.0488037123137
 21
214.1495246304847
 31
0.0
  0
LINE
  5
4FA
330
4F6
100
AcDbEntity
  8
0
  6
Continuous
 62
     0
370
    -2
100
AcDbLine
 10
104.5781536197104
 20
223.1495246304847
 30
0.0
 11
113.0488037123136
 21
223.1495246304847
 31
0.0
  0
LINE
  5
4FB
330
4F6
100
AcDbEntity
  8
0
  6
Continuous
 62
     0
370
    -2
100
AcDbLine
 10
112.0488037123137
 20
211.1495246304847
 30
0.0
 11
112.0488037123137
 21
208.1495246304847
 31
0.0
  0
LINE
  5
4FC
330
4F6
100
AcDbEntity
  8
0
  6
Continuous
 62
     0
370
    -2
100
AcDbLine
 10
112.0488037123136
 20
226.1495246304847
 30
0.0
 11
112.0488037123136
 21
229.1495246304847
 31
0.0
  0
INSERT
  5
4FD
330
4F6
100
AcDbEntity
  8
0
 62
     0
370
    -2
100
AcDbBlockReference
  2
_Open30
 10
112.0488037123137
 20
214.1495246304847
 30
0.0
 41
3.0
 42
3.0
 43
3.0
 50
90.00000000000018
  0
INSERT
  5
4FE
330
4F6
100
AcDbEntity
  8
0
 62
     0
370
    -2
100
AcDbBlockReference
  2
_Open30
 10
112.0488037123136
 20
223.1495246304847
 30
0.0
 41
3.0
 42
3.0
 43
3.0
 50
270.0000000000002
  0
MTEXT
  5
4FF
330
4F6
100
AcDbEntity
  8
0
 62
     0
370
     0
100
AcDbMText
 10
107.0248037123137
 20
218.6495246304847
 30
0.0
 40
3.5
 41
0.0
 46
0.0
 71
     2
 72
     1
  1
\A1;9
  7
SLDTEXTSTYLE0
 11
-3.157967714489334E-15
 21
1.0
 31
0.0
 73
     1
 44
1.0
  0
POINT
  5
500
330
4F6
100
AcDbEntity
  8
Defpoints
 62
     0
100
AcDbPoint
 10
105.5781536197105
 20
214.1495246304847
 30
0.0
  0
POINT
  5
501
330
4F6
100
AcDbEntity
  8
Defpoints
 62
     0
100
AcDbPoint
 10
103.5781536197104
 20
223.1495246304847
 30
0.0
  0
POINT
  5
53E
330
4F6
100
AcDbEntity
  8
Defpoints
 62
     0
100
AcDbPoint
 10
112.0488037123136
 20
223.1495246304847
 30
0.0
  0
ENDBLK
  5
4F8
330
4F6
100
AcDbEntity
  8
0
100
AcDbBlockEnd
  0
BLOCK
  5
503
330
502
100
AcDbEntity
  8
0
100
AcDbBlockBegin
  2
*D48
 70
     1
 10
0.0
 20
0.0
 30
0.0
  3
*D48
  1

  0
LINE
  5
505
330
502
100
AcDbEntity
  8
0
  6
Continuous
 62
     0
370
    -2
100
AcDbLine
 10
88.87815361971047
 20
225.6495246304847
 30
0.0
 11
88.87815361971047
 21
229.1495246304847
 31
0.0
  0
LINE
  5
506
330
502
100
AcDbEntity
  8
0
  6
Continuous
 62
     0
370
    -2
100
AcDbLine
 10
104.0781536197105
 20
223.6495246304846
 30
0.0
 11
104.0781536197105
 21
229.1495246304847
 31
0.0
  0
LINE
  5
507
330
502
100
AcDbEntity
  8
0
  6
Continuous
 62
     0
370
    -2
100
AcDbLine
 10
91.87815361971047
 20
228.1495246304847
 30
0.0
 11
101.0781536197105
 21
228.1495246304847
 31
0.0
  0
INSERT
  5
508
330
502
100
AcDbEntity
  8
0
 62
     0
370
    -2
100
AcDbBlockReference
  2
_Open30
 10
88.87815361971047
 20
228.1495246304847
 30
0.0
 41
3.0
 42
3.0
 43
3.0
 50
180.0
  0
INSERT
  5
509
330
502
100
AcDbEntity
  8
0
 62
     0
370
    -2
100
AcDbBlockReference
  2
_Open30
 10
104.0781536197105
 20
228.1495246304847
 30
0.0
 41
3.0
 42
3.0
 43
3.0
  0
MTEXT
  5
50A
330
502
100
AcDbEntity
  8
0
 62
     0
370
     0
100
AcDbMText
 10
96.47815361971044
 20
233.1735246304847
 30
0.0
 40
3.5
 41
0.0
 46
0.0
 71
     2
 72
     1
  1
\A1;15.2
  7
SLDTEXTSTYLE0
 73
     1
 44
1.0
  0
POINT
  5
50B
330
502
100
AcDbEntity
  8
Defpoints
 62
     0
100
AcDbPoint
 10
88.87815361971047
 20
224.6495246304847
 30
0.0
  0
POINT
  5
50C
330
502
100
AcDbEntity
  8
Defpoints
 62
     0
100
AcDbPoint
 10
104.0781536197105
 20
222.6495246304846
 30
0.0
  0
POINT
  5
50D
330
502
100
AcDbEntity
  8
Defpoints
 62
     0
100
AcDbPoint
 10
104.0781536197105
 20
228.1495246304847
 30
0.0
  0
ENDBLK
  5
504
330
502
100
AcDbEntity
  8
0
100
AcDbBlockEnd
  0
BLOCK
  5
50F
330
50E
100
AcDbEntity
  8
0
100
AcDbBlockBegin
  2
*D49
 70
     1
 10
0.0
 20
0.0
 30
0.0
  3
*D49
  1

  0
LINE
  5
511
330
50E
100
AcDbEntity
  8
0
  6
Continuous
 62
     0
370
    -2
100
AcDbLine
 10
137.7790691927024
 20
173.7433699229787
 30
0.0
 11
113.1364630053073
 21
152.434571775858
 31
0.0
  0
MTEXT
  5
512
330
50E
100
AcDbEntity
  8
0
 62
     0
370
     0
100
AcDbMText
 10
111.0031161541413
 20
157.2316524727632
 30
0.0
 40
3.5
 41
0.0
 46
0.0
 71
     1
 72
     1
  1
\A1;%%c12
  7
SLDTEXTSTYLE0
 11
0.7564197599779149
 21
0.6540864978846095
 31
0.0
 73
     1
 44
1.0
  0
INSERT
  5
513
330
50E
100
AcDbEntity
  8
0
 62
     0
370
    -2
100
AcDbBlockReference
  2
_Open30
 10
137.7790691927024
 20
173.7433699229787
 30
0.0
 41
3.0
 42
3.0
 43
3.0
 50
40.85041962970433
  0
POINT
  5
514
330
50E
100
AcDbEntity
  8
Defpoints
 62
     0
100
AcDbPoint
 10
137.7790691927024
 20
173.7433699229787
 30
0.0
  0
POINT
  5
515
330
50E
100
AcDbEntity
  8
Defpoints
 62
     0
100
AcDbPoint
 10
128.6990063939276
 20
165.8917156023719
 30
0.0
  0
ENDBLK
  5
510
330
50E
100
AcDbEntity
  8
0
100
AcDbBlockEnd
  0
BLOCK
  5
517
330
516
100
AcDbEntity
  8
0
100
AcDbBlockBegin
  2
*D50
 70
     1
 10
0.0
 20
0.0
 30
0.0
  3
*D50
  1

  0
LINE
  5
519
330
516
100
AcDbEntity
  8
0
  6
Continuous
 62
     0
370
    -2
100
AcDbLine
 10
134.239037793315
 20
169.8175427626753
 30
0.0
 11
148.2390377933151
 21
169.8175427626754
 31
0.0
  0
LINE
  5
51A
330
516
100
AcDbEntity
  8
0
  6
Continuous
 62
     0
370
    -2
100
AcDbLine
 10
143.239037793315
 20
185.8175427626753
 30
0.0
 11
148.2390377933151
 21
185.8175427626753
 31
0.0
  0
LINE
  5
51B
330
516
100
AcDbEntity
  8
0
  6
Continuous
 62
     0
370
    -2
100
AcDbLine
 10
147.2390377933151
 20
172.8175427626754
 30
0.0
 11
147.2390377933151
 21
182.8175427626753
 31
0.0
  0
INSERT
  5
51C
330
516
100
AcDbEntity
  8
0
 62
     0
370
    -2
100
AcDbBlockReference
  2
_Open30
 10
147.2390377933151
 20
169.8175427626754
 30
0.0
 41
3.0
 42
3.0
 43
3.0
 50
270.0000000000002
  0
INSERT
  5
51D
330
516
100
AcDbEntity
  8
0
 62
     0
370
    -2
100
AcDbBlockReference
  2
_Open30
 10
147.2390377933151
 20
185.8175427626753
 30
0.0
 41
3.0
 42
3.0
 43
3.0
 50
90.0000000000002
  0
MTEXT
  5
51E
330
516
100
AcDbEntity
  8
0
 62
     0
370
     0
100
AcDbMText
 10
142.2150377933151
 20
177.8175427626753
 30
0.0
 40
3.5
 41
0.0
 46
0.0
 71
     2
 72
     1
  1
\A1;16
  7
SLDTEXTSTYLE0
 11
-3.552713678800507E-15
 21
1.0
 31
0.0
 73
     1
 44
1.0
  0
POINT
  5
51F
330
516
100
AcDbEntity
  8
Defpoints
 62
     0
100
AcDbPoint
 10
133.239037793315
 20
169.8175427626753
 30
0.0
  0
POINT
  5
520
330
516
100
AcDbEntity
  8
Defpoints
 62
     0
100
AcDbPoint
 10
142.239037793315
 20
185.8175427626753
 30
0.0
  0
POINT
  5
521
330
516
100
AcDbEntity
  8
Defpoints
 62
     0
100
AcDbPoint
 10
147.239037793315
 20
185.8175427626753
 30
0.0
  0
ENDBLK
  5
518
330
516
100
AcDbEntity
  8
0
100
AcDbBlockEnd
  0
BLOCK
  5
523
330
522
100
AcDbEntity
  8
0
100
AcDbBlockBegin
  2
*D51
 70
     1
 10
0.0
 20
0.0
 30
0.0
  3
*D51
  1

  0
LINE
  5
525
330
522
100
AcDbEntity
  8
0
  6
Continuous
 62
     0
370
    -2
100
AcDbLine
 10
133.2390377933151
 20
186.8175427626753
 30
0.0
 11
133.2390377933151
 21
191.8175427626753
 31
0.0
  0
LINE
  5
526
330
522
100
AcDbEntity
  8
0
  6
Continuous
 62
     0
370
    -2
100
AcDbLine
 10
142.239037793315
 20
186.8175427626753
 30
0.0
 11
142.239037793315
 21
191.8175427626753
 31
0.0
  0
LINE
  5
527
330
522
100
AcDbEntity
  8
0
  6
Continuous
 62
     0
370
    -2
100
AcDbLine
 10
130.2390377933151
 20
190.8175427626753
 30
0.0
 11
127.2390377933151
 21
190.8175427626753
 31
0.0
  0
LINE
  5
528
330
522
100
AcDbEntity
  8
0
  6
Continuous
 62
     0
370
    -2
100
AcDbLine
 10
145.239037793315
 20
190.8175427626753
 30
0.0
 11
148.239037793315
 21
190.8175427626753
 31
0.0
  0
INSERT
  5
529
330
522
100
AcDbEntity
  8
0
 62
     0
370
    -2
100
AcDbBlockReference
  2
_Open30
 10
133.2390377933151
 20
190.8175427626753
 30
0.0
 41
3.0
 42
3.0
 43
3.0
  0
INSERT
  5
52A
330
522
100
AcDbEntity
  8
0
 62
     0
370
    -2
100
AcDbBlockReference
  2
_Open30
 10
142.239037793315
 20
190.8175427626753
 30
0.0
 41
3.0
 42
3.0
 43
3.0
 50
180.0
  0
MTEXT
  5
52B
330
522
100
AcDbEntity
  8
0
 62
     0
370
     0
100
AcDbMText
 10
137.739037793315
 20
195.8415427626753
 30
0.0
 40
3.5
 41
0.0
 46
0.0
 71
     2
 72
     1
  1
\A1;9
  7
SLDTEXTSTYLE0
 73
     1
 44
1.0
  0
POINT
  5
52C
330
522
100
AcDbEntity
  8
Defpoints
 62
     0
100
AcDbPoint
 10
133.2390377933151
 20
185.8175427626753
 30
0.0
  0
POINT
  5
52D
330
522
100
AcDbEntity
  8
Defpoints
 62
     0
100
AcDbPoint
 10
142.239037793315
 20
185.8175427626753
 30
0.0
  0
POINT
  5
53F
330
522
100
AcDbEntity
  8
Defpoints
 62
     0
100
AcDbPoint
 10
142.239037793315
 20
190.8175427626753
 30
0.0
  0
ENDBLK
  5
524
330
522
100
AcDbEntity
  8
0
100
AcDbBlockEnd
  0
BLOCK
  5
52F
330
52E
100
AcDbEntity
  8
0
100
AcDbBlockBegin
  2
*D52
 70
     1
 10
0.0
 20
0.0
 30
0.0
  3
*D52
  1

  0
LINE
  5
531
330
52E
100
AcDbEntity
  8
0
  6
Continuous
 62
     0
370
    -2
100
AcDbLine
 10
142.239037793315
 20
186.8175427626753
 30
0.0
 11
142.239037793315
 21
198.848523982607
 31
0.0
  0
LINE
  5
532
330
52E
100
AcDbEntity
  8
0
  6
Continuous
 62
     0
370
    -2
100
AcDbLine
 10
124.239037793315
 20
186.8175427626753
 30
0.0
 11
124.239037793315
 21
198.848523982607
 31
0.0
  0
LINE
  5
533
330
52E
100
AcDbEntity
  8
0
  6
Continuous
 62
     0
370
    -2
100
AcDbLine
 10
139.239037793315
 20
197.848523982607
 30
0.0
 11
127.239037793315
 21
197.848523982607
 31
0.0
  0
INSERT
  5
534
330
52E
100
AcDbEntity
  8
0
 62
     0
370
    -2
100
AcDbBlockReference
  2
_Open30
 10
142.239037793315
 20
197.848523982607
 30
0.0
 41
3.0
 42
3.0
 43
3.0
  0
INSERT
  5
535
330
52E
100
AcDbEntity
  8
0
 62
     0
370
    -2
100
AcDbBlockReference
  2
_Open30
 10
124.239037793315
 20
197.848523982607
 30
0.0
 41
3.0
 42
3.0
 43
3.0
 50
180.0
  0
MTEXT
  5
536
330
52E
100
AcDbEntity
  8
0
 62
     0
370
     0
100
AcDbMText
 10
133.239037793315
 20
202.872523982607
 30
0.0
 40
3.5
 41
0.0
 46
0.0
 71
     2
 72
     1
  1
\A1;18
  7
SLDTEXTSTYLE0
 73
     1
 44
1.0
  0
POINT
  5
537
330
52E
100
AcDbEntity
  8
Defpoints
 62
     0
100
AcDbPoint
 10
142.239037793315
 20
185.8175427626753
 30
0.0
  0
POINT
  5
538
330
52E
100
AcDbEntity
  8
Defpoints
 62
     0
100
AcDbPoint
 10
124.239037793315
 20
185.8175427626753
 30
0.0
  0
POINT
  5
539
330
52E
100
AcDbEntity
  8
Defpoints
 62
     0
100
AcDbPoint
 10
124.239037793315
 20
197.848523982607
 30
0.0
  0
ENDBLK
  5
530
330
52E
100
AcDbEntity
  8
0
100
AcDbBlockEnd
  0
BLOCK
  5
68D
330
68C
100
AcDbEntity
  8
0
100
AcDbBlockBegin
  2
*D54
 70
     1
 10
0.0
 20
0.0
 30
0.0
  3
*D54
  1

  0
LINE
  5
68F
330
68C
100
AcDbEntity
  8
LIVELLO1
 62
     0
370
    -2
100
AcDbLine
 10
7.955364655700006
 20
20.0
 30
0.0
 11
3.017864655700005
 21
20.0
 31
0.0
  0
LINE
  5
690
330
68C
100
AcDbEntity
  8
LIVELLO1
 62
     0
370
    -2
100
AcDbLine
 10
7.955364655700006
 20
31.0
 30
0.0
 11
3.017864655700006
 21
31.0
 31
0.0
  0
LINE
  5
691
330
68C
100
AcDbEntity
  8
LIVELLO1
 62
     0
370
    -2
100
AcDbLine
 10
3.017864655700006
 20
23.0
 30
0.0
 11
3.017864655700006
 21
28.0
 31
0.0
  0
INSERT
  5
692
330
68C
100
AcDbEntity
  8
LIVELLO1
 62
     0
370
    -2
100
AcDbBlockReference
  2
_Open30
 10
3.017864655700005
 20
20.0
 30
0.0
 41
3.0
 42
3.0
 43
3.0
 50
270.0
  0
INSERT
  5
693
330
68C
100
AcDbEntity
  8
LIVELLO1
 62
     0
370
    -2
100
AcDbBlockReference
  2
_Open30
 10
3.017864655700006
 20
31.0
 30
0.0
 41
3.0
 42
3.0
 43
3.0
 50
90.0
  0
MTEXT
  5
694
330
68C
100
AcDbEntity
  8
LIVELLO1
 62
     0
100
AcDbMText
 10
-1.357135344299994
 20
25.5
 30
0.0
 40
3.5
 41
0.0
 46
0.0
 71
     2
 72
     1
  1
\A1;11
  7
SLDTEXTSTYLE0
 11
8.074349270001139E-17
 21
1.0
 31
0.0
 73
     1
 44
1.0
  0
POINT
  5
695
330
68C
100
AcDbEntity
  8
Defpoints
 62
     0
100
AcDbPoint
 10
8.017864655700006
 20
20.0
 30
0.0
  0
POINT
  5
696
330
68C
100
AcDbEntity
  8
Defpoints
 62
     0
100
AcDbPoint
 10
8.017864655700006
 20
31.0
 30
0.0
  0
POINT
  5
697
330
68C
100
AcDbEntity
  8
Defpoints
 62
     0
100
AcDbPoint
 10
3.017864655700006
 20
31.0
 30
0.0
  0
ENDBLK
  5
68E
330
68C
100
AcDbEntity
  8
0
100
AcDbBlockEnd
  0
BLOCK
  5
699
330
698
100
AcDbEntity
  8
0
100
AcDbBlockBegin
  2
*D55
 70
     1
 10
0.0
 20
0.0
 30
0.0
  3
*D55
  1

  0
LINE
  5
69B
330
698
100
AcDbEntity
  8
LIVELLO1
 62
     0
370
    -2
100
AcDbLine
 10
44.08036465570001
 20
31.0
 30
0.0
 11
52.01786465570001
 21
31.0
 31
0.0
  0
LINE
  5
69C
330
698
100
AcDbEntity
  8
LIVELLO1
 62
     0
370
    -2
100
AcDbLine
 10
44.08036465570001
 20
8.5
 30
0.0
 11
52.01786465570001
 21
8.5
 31
0.0
  0
LINE
  5
69D
330
698
100
AcDbEntity
  8
LIVELLO1
 62
     0
370
    -2
100
AcDbLine
 10
52.01786465570001
 20
28.0
 30
0.0
 11
52.01786465570001
 21
11.5
 31
0.0
  0
INSERT
  5
69E
330
698
100
AcDbEntity
  8
LIVELLO1
 62
     0
370
    -2
100
AcDbBlockReference
  2
_Open30
 10
52.01786465570001
 20
31.0
 30
0.0
 41
3.0
 42
3.0
 43
3.0
 50
90.0
  0
INSERT
  5
69F
330
698
100
AcDbEntity
  8
LIVELLO1
 62
     0
370
    -2
100
AcDbBlockReference
  2
_Open30
 10
52.01786465570001
 20
8.5
 30
0.0
 41
3.0
 42
3.0
 43
3.0
 50
270.0
  0
MTEXT
  5
6A0
330
698
100
AcDbEntity
  8
LIVELLO1
 62
     0
100
AcDbMText
 10
47.64286465570001
 20
19.75
 30
0.0
 40
3.5
 41
0.0
 46
0.0
 71
     2
 72
     1
  1
\A1;22.5
  7
SLDTEXTSTYLE0
 11
0.0
 21
1.0
 31
0.0
 73
     1
 44
1.0
  0
POINT
  5
6A1
330
698
100
AcDbEntity
  8
Defpoints
 62
     0
100
AcDbPoint
 10
44.01786465570001
 20
31.0
 30
0.0
  0
POINT
  5
6A2
330
698
100
AcDbEntity
  8
Defpoints
 62
     0
100
AcDbPoint
 10
44.01786465570001
 20
8.5
 30
0.0
  0
POINT
  5
6A3
330
698
100
AcDbEntity
  8
Defpoints
 62
     0
100
AcDbPoint
 10
52.01786465570001
 20
8.5
 30
0.0
  0
ENDBLK
  5
69A
330
698
100
AcDbEntity
  8
0
100
AcDbBlockEnd
  0
BLOCK
  5
6A5
330
6A4
100
AcDbEntity
  8
0
100
AcDbBlockBegin
  2
*D56
 70
     1
 10
0.0
 20
0.0
 30
0.0
  3
*D56
  1

  0
LINE
  5
6A7
330
6A4
100
AcDbEntity
  8
LIVELLO1
 62
     0
370
    -2
100
AcDbLine
 10
39.01786465570001
 20
26.8125
 30
0.0
 11
39.01786465570001
 21
36.0
 31
0.0
  0
LINE
  5
6A8
330
6A4
100
AcDbEntity
  8
LIVELLO1
 62
     0
370
    -2
100
AcDbLine
 10
44.01786465570001
 20
31.0625
 30
0.0
 11
44.01786465570001
 21
36.0
 31
0.0
  0
LINE
  5
6A9
330
6A4
100
AcDbEntity
  8
LIVELLO1
 62
     0
370
    -2
100
AcDbLine
 10
39.01786465570001
 20
36.0
 30
0.0
 11
41.01786465570001
 21
36.0
 31
0.0
  0
INSERT
  5
6AA
330
6A4
100
AcDbEntity
  8
LIVELLO1
 62
     0
370
    -2
100
AcDbBlockReference
  2
_Open30
 10
44.01786465570001
 20
36.0
 30
0.0
 41
3.0
 42
3.0
 43
3.0
  0
MTEXT
  5
6AB
330
6A4
100
AcDbEntity
  8
LIVELLO1
 62
     0
100
AcDbMText
 10
41.51786465570001
 20
40.375
 30
0.0
 40
3.5
 41
0.0
 46
0.0
 71
     2
 72
     1
  1
\A1;5
  7
SLDTEXTSTYLE0
 73
     1
 44
1.0
  0
POINT
  5
6AC
330
6A4
100
AcDbEntity
  8
Defpoints
 62
     0
100
AcDbPoint
 10
39.01786465570001
 20
26.75
 30
0.0
  0
POINT
  5
6AD
330
6A4
100
AcDbEntity
  8
Defpoints
 62
     0
100
AcDbPoint
 10
44.01786465570001
 20
31.0
 30
0.0
  0
POINT
  5
6AE
330
6A4
100
AcDbEntity
  8
Defpoints
 62
     0
100
AcDbPoint
 10
44.01786465570001
 20
36.0
 30
0.0
  0
ENDBLK
  5
6A6
330
6A4
100
AcDbEntity
  8
0
100
AcDbBlockEnd
  0
BLOCK
  5
6B0
330
6AF
100
AcDbEntity
  8
0
100
AcDbBlockBegin
  2
*D57
 70
     1
 10
0.0
 20
0.0
 30
0.0
  3
*D57
  1

  0
LINE
  5
6B2
330
6AF
100
AcDbEntity
  8
LIVELLO1
 62
     0
370
    -2
100
AcDbLine
 10
39.01786465570001
 20
26.8125
 30
0.0
 11
39.01786465570001
 21
36.0
 31
0.0
  0
LINE
  5
6B3
330
6AF
100
AcDbEntity
  8
LIVELLO1
 62
     0
370
    -2
100
AcDbLine
 10
24.01786465570001
 20
26.8125
 30
0.0
 11
24.01786465570001
 21
36.0
 31
0.0
  0
LINE
  5
6B4
330
6AF
100
AcDbEntity
  8
LIVELLO1
 62
     0
370
    -2
100
AcDbLine
 10
36.01786465570001
 20
36.0
 30
0.0
 11
27.01786465570001
 21
36.0
 31
0.0
  0
INSERT
  5
6B5
330
6AF
100
AcDbEntity
  8
LIVELLO1
 62
     0
370
    -2
100
AcDbBlockReference
  2
_Open30
 10
39.01786465570001
 20
36.0
 30
0.0
 41
3.0
 42
3.0
 43
3.0
  0
INSERT
  5
6B6
330
6AF
100
AcDbEntity
  8
LIVELLO1
 62
     0
370
    -2
100
AcDbBlockReference
  2
_Open30
 10
24.01786465570001
 20
36.0
 30
0.0
 41
3.0
 42
3.0
 43
3.0
 50
180.0
  0
MTEXT
  5
6B7
330
6AF
100
AcDbEntity
  8
LIVELLO1
 62
     0
100
AcDbMText
 10
31.51786465570001
 20
40.375
 30
0.0
 40
3.5
 41
0.0
 46
0.0
 71
     2
 72
     1
  1
\A1;15
  7
SLDTEXTSTYLE0
 73
     1
 44
1.0
  0
POINT
  5
6B8
330
6AF
100
AcDbEntity
  8
Defpoints
 62
     0
100
AcDbPoint
 10
39.01786465570001
 20
26.75
 30
0.0
  0
POINT
  5
6B9
330
6AF
100
AcDbEntity
  8
Defpoints
 62
     0
100
AcDbPoint
 10
24.01786465570001
 20
26.75
 30
0.0
  0
POINT
  5
6BA
330
6AF
100
AcDbEntity
  8
Defpoints
 62
     0
100
AcDbPoint
 10
24.01786465570001
 20
36.0
 30
0.0
  0
ENDBLK
  5
6B1
330
6AF
100
AcDbEntity
  8
0
100
AcDbBlockEnd
  0
BLOCK
  5
6BC
330
6BB
100
AcDbEntity
  8
0
100
AcDbBlockBegin
  2
*D58
 70
     1
 10
0.0
 20
0.0
 30
0.0
  3
*D58
  1

  0
LINE
  5
6BE
330
6BB
100
AcDbEntity
  8
LIVELLO1
 62
     0
370
    -2
100
AcDbLine
 10
30.01786465570001
 20
8.4375
 30
0.0
 11
30.01786465570001
 21
0.5
 31
0.0
  0
LINE
  5
6BF
330
6BB
100
AcDbEntity
  8
LIVELLO1
 62
     0
370
    -2
100
AcDbLine
 10
44.01786465570001
 20
8.4375
 30
0.0
 11
44.01786465570001
 21
0.5
 31
0.0
  0
LINE
  5
6C0
330
6BB
100
AcDbEntity
  8
LIVELLO1
 62
     0
370
    -2
100
AcDbLine
 10
33.01786465570001
 20
0.5
 30
0.0
 11
41.01786465570001
 21
0.5
 31
0.0
  0
INSERT
  5
6C1
330
6BB
100
AcDbEntity
  8
LIVELLO1
 62
     0
370
    -2
100
AcDbBlockReference
  2
_Open30
 10
30.01786465570001
 20
0.5
 30
0.0
 41
3.0
 42
3.0
 43
3.0
 50
180.0
  0
INSERT
  5
6C2
330
6BB
100
AcDbEntity
  8
LIVELLO1
 62
     0
370
    -2
100
AcDbBlockReference
  2
_Open30
 10
44.01786465570001
 20
0.5
 30
0.0
 41
3.0
 42
3.0
 43
3.0
  0
MTEXT
  5
6C3
330
6BB
100
AcDbEntity
  8
LIVELLO1
 62
     0
100
AcDbMText
 10
37.01786465570001
 20
4.875
 30
0.0
 40
3.5
 41
0.0
 46
0.0
 71
     2
 72
     1
  1
\A1;14
  7
SLDTEXTSTYLE0
 73
     1
 44
1.0
  0
POINT
  5
6C4
330
6BB
100
AcDbEntity
  8
Defpoints
 62
     0
100
AcDbPoint
 10
30.01786465570001
 20
8.5
 30
0.0
  0
POINT
  5
6C5
330
6BB
100
AcDbEntity
  8
Defpoints
 62
     0
100
AcDbPoint
 10
44.01786465570001
 20
8.5
 30
0.0
  0
POINT
  5
6C6
330
6BB
100
AcDbEntity
  8
Defpoints
 62
     0
100
AcDbPoint
 10
44.01786465570001
 20
0.5
 30
0.0
  0
ENDBLK
  5
6BD
330
6BB
100
AcDbEntity
  8
0
100
AcDbBlockEnd
  0
BLOCK
  5
6C8
330
6C7
100
AcDbEntity
  8
0
100
AcDbBlockBegin
  2
*D59
 70
     1
 10
0.0
 20
0.0
 30
0.0
  3
*D59
  1

  0
LINE
  5
6CA
330
6C7
100
AcDbEntity
  8
LIVELLO1
 62
     0
370
    -2
100
AcDbLine
 10
44.01786465570001
 20
8.4375
 30
0.0
 11
44.01786465570001
 21
3.5
 31
0.0
  0
LINE
  5
6CB
330
6C7
100
AcDbEntity
  8
LIVELLO1
 62
     0
370
    -2
100
AcDbLine
 10
32.01786465570001
 20
11.4688730334
 30
0.0
 11
32.01786465570001
 21
3.5
 31
0.0
  0
LINE
  5
6CC
330
6C7
100
AcDbEntity
  8
LIVELLO1
 62
     0
370
    -2
100
AcDbLine
 10
41.01786465570001
 20
3.5
 30
0.0
 11
35.01786465570001
 21
3.5
 31
0.0
  0
INSERT
  5
6CD
330
6C7
100
AcDbEntity
  8
LIVELLO1
 62
     0
370
    -2
100
AcDbBlockReference
  2
_Open30
 10
44.01786465570001
 20
3.5
 30
0.0
 41
3.0
 42
3.0
 43
3.0
  0
INSERT
  5
6CE
330
6C7
100
AcDbEntity
  8
LIVELLO1
 62
     0
370
    -2
100
AcDbBlockReference
  2
_Open30
 10
32.01786465570001
 20
3.5
 30
0.0
 41
3.0
 42
3.0
 43
3.0
 50
180.0
  0
MTEXT
  5
6CF
330
6C7
100
AcDbEntity
  8
LIVELLO1
 62
     0
100
AcDbMText
 10
38.01786465570001
 20
7.875
 30
0.0
 40
3.5
 41
0.0
 46
0.0
 71
     2
 72
     1
  1
\A1;12
  7
SLDTEXTSTYLE0
 73
     1
 44
1.0
  0
POINT
  5
6D0
330
6C7
100
AcDbEntity
  8
Defpoints
 62
     0
100
AcDbPoint
 10
44.01786465570001
 20
8.5
 30
0.0
  0
POINT
  5
6D1
330
6C7
100
AcDbEntity
  8
Defpoints
 62
     0
100
AcDbPoint
 10
32.01786465570001
 20
11.5313730334
 30
0.0
  0
POINT
  5
6D2
330
6C7
100
AcDbEntity
  8
Defpoints
 62
     0
100
AcDbPoint
 10
32.01786465570001
 20
3.5
 30
0.0
  0
ENDBLK
  5
6C9
330
6C7
100
AcDbEntity
  8
0
100
AcDbBlockEnd
  0
BLOCK
  5
6D4
330
6D3
100
AcDbEntity
  8
0
100
AcDbBlockBegin
  2
*D60
 70
     1
 10
0.0
 20
0.0
 30
0.0
  3
*D60
  1

  0
LINE
  5
6D6
330
6D3
100
AcDbEntity
  8
LIVELLO1
 62
     0
370
    -2
100
AcDbLine
 10
39.08036465570001
 20
26.75
 30
0.0
 11
49.01786465570001
 21
26.75
 31
0.0
  0
LINE
  5
6D7
330
6D3
100
AcDbEntity
  8
LIVELLO1
 62
     0
370
    -2
100
AcDbLine
 10
44.08036465570001
 20
31.0
 30
0.0
 11
49.01786465570001
 21
31.0
 31
0.0
  0
LINE
  5
6D8
330
6D3
100
AcDbEntity
  8
LIVELLO1
 62
     0
370
    -2
100
AcDbLine
 10
49.01786465570001
 20
26.75
 30
0.0
 11
49.01786465570001
 21
23.75
 31
0.0
  0
LINE
  5
6D9
330
6D3
100
AcDbEntity
  8
LIVELLO1
 62
     0
370
    -2
100
AcDbLine
 10
49.01786465570001
 20
34.0
 30
0.0
 11
49.01786465570001
 21
37.0
 31
0.0
  0
INSERT
  5
6DA
330
6D3
100
AcDbEntity
  8
LIVELLO1
 62
     0
370
    -2
100
AcDbBlockReference
  2
_Open30
 10
49.01786465570001
 20
31.0
 30
0.0
 41
3.0
 42
3.0
 43
3.0
 50
270.0
  0
MTEXT
  5
6DB
330
6D3
100
AcDbEntity
  8
LIVELLO1
 62
     0
100
AcDbMText
 10
44.64286465570001
 20
28.875
 30
0.0
 40
3.5
 41
0.0
 46
0.0
 71
     2
 72
     1
  1
\A1;4.3
  7
SLDTEXTSTYLE0
 11
0.0
 21
1.0
 31
0.0
 73
     1
 44
1.0
  0
POINT
  5
6DC
330
6D3
100
AcDbEntity
  8
Defpoints
 62
     0
100
AcDbPoint
 10
39.01786465570001
 20
26.75
 30
0.0
  0
POINT
  5
6DD
330
6D3
100
AcDbEntity
  8
Defpoints
 62
     0
100
AcDbPoint
 10
44.01786465570001
 20
31.0
 30
0.0
  0
POINT
  5
6DE
330
6D3
100
AcDbEntity
  8
Defpoints
 62
     0
100
AcDbPoint
 10
49.01786465570001
 20
31.0
 30
0.0
  0
ENDBLK
  5
6D5
330
6D3
100
AcDbEntity
  8
0
100
AcDbBlockEnd
  0
BLOCK
  5
6E0
330
6DF
100
AcDbEntity
  8
0
100
AcDbBlockBegin
  2
*D61
 70
     1
 10
0.0
 20
0.0
 30
0.0
  3
*D61
  1

  0
LINE
  5
6E2
330
6DF
100
AcDbEntity
  8
LIVELLO1
 62
     0
370
    -2
100
AcDbLine
 10
71.732451991
 20
11.5
 30
0.0
 11
86.669951991
 21
11.5
 31
0.0
  0
LINE
  5
6E3
330
6DF
100
AcDbEntity
  8
LIVELLO1
 62
     0
370
    -2
100
AcDbLine
 10
78.232451991
 20
31.0
 30
0.0
 11
86.669951991
 21
31.0
 31
0.0
  0
LINE
  5
6E4
330
6DF
100
AcDbEntity
  8
LIVELLO1
 62
     0
370
    -2
100
AcDbLine
 10
86.669951991
 20
14.5
 30
0.0
 11
86.669951991
 21
28.0
 31
0.0
  0
INSERT
  5
6E5
330
6DF
100
AcDbEntity
  8
LIVELLO1
 62
     0
370
    -2
100
AcDbBlockReference
  2
_Open30
 10
86.669951991
 20
11.5
 30
0.0
 41
3.0
 42
3.0
 43
3.0
 50
270.0
  0
INSERT
  5
6E6
330
6DF
100
AcDbEntity
  8
LIVELLO1
 62
     0
370
    -2
100
AcDbBlockReference
  2
_Open30
 10
86.669951991
 20
31.0
 30
0.0
 41
3.0
 42
3.0
 43
3.0
 50
90.0
  0
MTEXT
  5
6E7
330
6DF
100
AcDbEntity
  8
LIVELLO1
 62
     0
100
AcDbMText
 10
82.294951991
 20
21.25
 30
0.0
 40
3.5
 41
0.0
 46
0.0
 71
     2
 72
     1
  1
\A1;19.5
  7
SLDTEXTSTYLE0
 11
0.0
 21
1.0
 31
0.0
 73
     1
 44
1.0
  0
POINT
  5
6E8
330
6DF
100
AcDbEntity
  8
Defpoints
 62
     0
100
AcDbPoint
 10
71.669951991
 20
11.5
 30
0.0
  0
POINT
  5
6E9
330
6DF
100
AcDbEntity
  8
Defpoints
 62
     0
100
AcDbPoint
 10
78.169951991
 20
31.0
 30
0.0
  0
POINT
  5
6EA
330
6DF
100
AcDbEntity
  8
Defpoints
 62
     0
100
AcDbPoint
 10
86.669951991
 20
31.0
 30
0.0
  0
ENDBLK
  5
6E1
330
6DF
100
AcDbEntity
  8
0
100
AcDbBlockEnd
  0
BLOCK
  5
6EC
330
6EB
100
AcDbEntity
  8
0
100
AcDbBlockBegin
  2
*D62
 70
     1
 10
0.0
 20
0.0
 30
0.0
  3
*D62
  1

  0
LINE
  5
6EE
330
6EB
100
AcDbEntity
  8
LIVELLO1
 62
     0
370
    -2
100
AcDbLine
 10
71.732451991
 20
15.5
 30
0.0
 11
83.669951991
 21
15.5
 31
0.0
  0
LINE
  5
6EF
330
6EB
100
AcDbEntity
  8
LIVELLO1
 62
     0
370
    -2
100
AcDbLine
 10
78.732451991
 20
31.0
 30
0.0
 11
83.669951991
 21
31.0
 31
0.0
  0
LINE
  5
6F0
330
6EB
100
AcDbEntity
  8
LIVELLO1
 62
     0
370
    -2
100
AcDbLine
 10
83.669951991
 20
18.5
 30
0.0
 11
83.669951991
 21
28.0
 31
0.0
  0
INSERT
  5
6F1
330
6EB
100
AcDbEntity
  8
LIVELLO1
 62
     0
370
    -2
100
AcDbBlockReference
  2
_Open30
 10
83.669951991
 20
15.5
 30
0.0
 41
3.0
 42
3.0
 43
3.0
 50
270.0
  0
INSERT
  5
6F2
330
6EB
100
AcDbEntity
  8
LIVELLO1
 62
     0
370
    -2
100
AcDbBlockReference
  2
_Open30
 10
83.669951991
 20
31.0
 30
0.0
 41
3.0
 42
3.0
 43
3.0
 50
90.0
  0
MTEXT
  5
6F3
330
6EB
100
AcDbEntity
  8
LIVELLO1
 62
     0
100
AcDbMText
 10
79.294951991
 20
23.25
 30
0.0
 40
3.5
 41
0.0
 46
0.0
 71
     2
 72
     1
  1
\A1;15.5
  7
SLDTEXTSTYLE0
 11
0.0
 21
1.0
 31
0.0
 73
     1
 44
1.0
  0
POINT
  5
6F4
330
6EB
100
AcDbEntity
  8
Defpoints
 62
     0
100
AcDbPoint
 10
71.669951991
 20
15.5
 30
0.0
  0
POINT
  5
6F5
330
6EB
100
AcDbEntity
  8
Defpoints
 62
     0
100
AcDbPoint
 10
78.669951991
 20
31.0
 30
0.0
  0
POINT
  5
6F6
330
6EB
100
AcDbEntity
  8
Defpoints
 62
     0
100
AcDbPoint
 10
83.669951991
 20
31.0
 30
0.0
  0
ENDBLK
  5
6ED
330
6EB
100
AcDbEntity
  8
0
100
AcDbBlockEnd
  0
BLOCK
  5
6F8
330
6F7
100
AcDbEntity
  8
0
100
AcDbBlockBegin
  2
*D63
 70
     1
 10
0.0
 20
0.0
 30
0.0
  3
*D63
  1

  0
LINE
  5
6FA
330
6F7
100
AcDbEntity
  8
LIVELLO1
 62
     0
370
    -2
100
AcDbLine
 10
69.204650646
 20
18.64996655190001
 30
0.0
 11
83.26453943019843
 21
0.6853556595710915
 31
0.0
  0
MTEXT
  5
6FB
330
6F7
100
AcDbEntity
  8
LIVELLO1
 62
     0
100
AcDbMText
 10
83.6538688875517
 20
7.286425044002792
 30
0.0
 40
3.5
 41
0.0
 46
0.0
 71
     1
 72
     1
  1
\A1;%%c8
  7
SLDTEXTSTYLE0
 11
0.6163253362410438
 21
-0.7874916379920261
 31
0.0
 73
     1
 44
1.0
  0
INSERT
  5
6FC
330
6F7
100
AcDbEntity
  8
LIVELLO1
 62
     0
370
    -2
100
AcDbBlockReference
  2
_Open30
 10
69.204650646
 20
18.64996655190001
 30
0.0
 41
3.0
 42
3.0
 43
3.0
 50
128.0482848221456
  0
POINT
  5
6FD
330
6F7
100
AcDbEntity
  8
Defpoints
 62
     0
100
AcDbPoint
 10
69.204650646
 20
18.64996655190001
 30
0.0
  0
POINT
  5
6FE
330
6F7
100
AcDbEntity
  8
Defpoints
 62
     0
100
AcDbPoint
 10
74.13525333590002
 20
12.350033448
 30
0.0
  0
ENDBLK
  5
6F9
330
6F7
100
AcDbEntity
  8
0
100
AcDbBlockEnd
  0
BLOCK
  5
700
330
6FF
100
AcDbEntity
  8
0
100
AcDbBlockBegin
  2
*D64
 70
     1
 10
0.0
 20
0.0
 30
0.0
  3
*D64
  1

  0
LINE
  5
702
330
6FF
100
AcDbEntity
  8
LIVELLO1
 62
     0
370
    -2
100
AcDbLine
 10
17.76220257920001
 20
61.40738209760001
 30
0.0
 11
0.1136671623042069
 21
80.12183493015202
 31
0.0
  0
MTEXT
  5
703
330
6FF
100
AcDbEntity
  8
LIVELLO1
 62
     0
100
AcDbMText
 10
3.896899305749586
 20
82.48687288942492
 30
0.0
 40
3.5
 41
0.0
 46
0.0
 71
     1
 72
     1
  1
\A1;%%c8
  7
SLDTEXTSTYLE0
 11
0.6860844808707623
 21
-0.7275218794705054
 31
0.0
 73
     1
 44
1.0
  0
INSERT
  5
704
330
6FF
100
AcDbEntity
  8
LIVELLO1
 62
     0
370
    -2
100
AcDbBlockReference
  2
_Open30
 10
17.76220257920001
 20
61.40738209760001
 30
0.0
 41
3.0
 42
3.0
 43
3.0
 50
313.3209552174625
  0
POINT
  5
705
330
6FF
100
AcDbEntity
  8
Defpoints
 62
     0
100
AcDbPoint
 10
17.76220257920001
 20
61.40738209760001
 30
0.0
  0
POINT
  5
706
330
6FF
100
AcDbEntity
  8
Defpoints
 62
     0
100
AcDbPoint
 10
12.27352673220001
 20
67.2275571334
 30
0.0
  0
ENDBLK
  5
701
330
6FF
100
AcDbEntity
  8
0
100
AcDbBlockEnd
  0
BLOCK
  5
708
330
707
100
AcDbEntity
  8
0
100
AcDbBlockBegin
  2
*D65
 70
     1
 10
0.0
 20
0.0
 30
0.0
  3
*D65
  1

  0
LINE
  5
70A
330
707
100
AcDbEntity
  8
LIVELLO1
 62
     0
370
    -2
100
AcDbLine
 10
44.01786465570001
 20
63.8799696155
 30
0.0
 11
44.01786465570001
 21
82.3174696155
 31
0.0
  0
LINE
  5
70B
330
707
100
AcDbEntity
  8
LIVELLO1
 62
     0
370
    -2
100
AcDbLine
 10
8.017864655700006
 20
64.3799696155
 30
0.0
 11
8.017864655700006
 21
82.3174696155
 31
0.0
  0
LINE
  5
70C
330
707
100
AcDbEntity
  8
LIVELLO1
 62
     0
370
    -2
100
AcDbLine
 10
41.01786465570001
 20
82.3174696155
 30
0.0
 11
11.01786465570001
 21
82.3174696155
 31
0.0
  0
INSERT
  5
70D
330
707
100
AcDbEntity
  8
LIVELLO1
 62
     0
370
    -2
100
AcDbBlockReference
  2
_Open30
 10
44.01786465570001
 20
82.3174696155
 30
0.0
 41
3.0
 42
3.0
 43
3.0
  0
INSERT
  5
70E
330
707
100
AcDbEntity
  8
LIVELLO1
 62
     0
370
    -2
100
AcDbBlockReference
  2
_Open30
 10
8.017864655700006
 20
82.3174696155
 30
0.0
 41
3.0
 42
3.0
 43
3.0
 50
180.0
  0
MTEXT
  5
70F
330
707
100
AcDbEntity
  8
LIVELLO1
 62
     0
100
AcDbMText
 10
26.01786465570001
 20
86.6924696155
 30
0.0
 40
3.5
 41
0.0
 46
0.0
 71
     2
 72
     1
  1
\A1;36
  7
SLDTEXTSTYLE0
 73
     1
 44
1.0
  0
POINT
  5
710
330
707
100
AcDbEntity
  8
Defpoints
 62
     0
100
AcDbPoint
 10
44.01786465570001
 20
63.8174696155
 30
0.0
  0
POINT
  5
711
330
707
100
AcDbEntity
  8
Defpoints
 62
     0
100
AcDbPoint
 10
8.017864655700006
 20
64.3174696155
 30
0.0
  0
POINT
  5
712
330
707
100
AcDbEntity
  8
Defpoints
 62
     0
100
AcDbPoint
 10
8.017864655700006
 20
82.3174696155
 30
0.0
  0
ENDBLK
  5
709
330
707
100
AcDbEntity
  8
0
100
AcDbBlockEnd
  0
BLOCK
  5
714
330
713
100
AcDbEntity
  8
0
100
AcDbBlockBegin
  2
*D66
 70
     1
 10
0.0
 20
0.0
 30
0.0
  3
*D66
  1

  0
LINE
  5
716
330
713
100
AcDbEntity
  8
LIVELLO1
 62
     0
370
    -2
100
AcDbLine
 10
15.01786465570001
 20
64.3799696155
 30
0.0
 11
15.01786465570001
 21
79.3174696155
 31
0.0
  0
LINE
  5
717
330
713
100
AcDbEntity
  8
LIVELLO1
 62
     0
370
    -2
100
AcDbLine
 10
44.01786465570001
 20
70.8799696155
 30
0.0
 11
44.01786465570001
 21
79.3174696155
 31
0.0
  0
LINE
  5
718
330
713
100
AcDbEntity
  8
LIVELLO1
 62
     0
370
    -2
100
AcDbLine
 10
18.01786465570001
 20
79.3174696155
 30
0.0
 11
41.01786465570001
 21
79.3174696155
 31
0.0
  0
INSERT
  5
719
330
713
100
AcDbEntity
  8
LIVELLO1
 62
     0
370
    -2
100
AcDbBlockReference
  2
_Open30
 10
15.01786465570001
 20
79.3174696155
 30
0.0
 41
3.0
 42
3.0
 43
3.0
 50
180.0
  0
INSERT
  5
71A
330
713
100
AcDbEntity
  8
LIVELLO1
 62
     0
370
    -2
100
AcDbBlockReference
  2
_Open30
 10
44.01786465570001
 20
79.3174696155
 30
0.0
 41
3.0
 42
3.0
 43
3.0
  0
MTEXT
  5
71B
330
713
100
AcDbEntity
  8
LIVELLO1
 62
     0
100
AcDbMText
 10
29.51786465570001
 20
83.6924696155
 30
0.0
 40
3.5
 41
0.0
 46
0.0
 71
     2
 72
     1
  1
\A1;29
  7
SLDTEXTSTYLE0
 73
     1
 44
1.0
  0
POINT
  5
71C
330
713
100
AcDbEntity
  8
Defpoints
 62
     0
100
AcDbPoint
 10
15.01786465570001
 20
64.3174696155
 30
0.0
  0
POINT
  5
71D
330
713
100
AcDbEntity
  8
Defpoints
 62
     0
100
AcDbPoint
 10
44.01786465570001
 20
70.8174696155
 30
0.0
  0
POINT
  5
71E
330
713
100
AcDbEntity
  8
Defpoints
 62
     0
100
AcDbPoint
 10
44.01786465570001
 20
79.3174696155
 30
0.0
  0
ENDBLK
  5
715
330
713
100
AcDbEntity
  8
0
100
AcDbBlockEnd
  0
BLOCK
  5
720
330
71F
100
AcDbEntity
  8
0
100
AcDbBlockBegin
  2
*D67
 70
     1
 10
0.0
 20
0.0
 30
0.0
  3
*D67
  1

  0
LINE
  5
722
330
71F
100
AcDbEntity
  8
LIVELLO1
 62
     0
370
    -2
100
AcDbLine
 10
1.292369862591629
 20
53.5018446408
 30
0.0
 11
4.292369862591629
 21
53.5018446408
 31
0.0
  0
LINE
  5
723
330
71F
100
AcDbEntity
  8
LIVELLO1
 62
     0
370
    -2
100
AcDbLine
 10
4.292369862591629
 20
53.5018446408
 30
0.0
 11
7.976444528562507
 21
57.21687790821969
 31
0.0
  0
MTEXT
  5
724
330
71F
100
AcDbEntity
  8
LIVELLO1
 62
     0
100
AcDbMText
 10
-3.665963470741705
 20
55.2518446408
 30
0.0
 40
3.5
 41
0.0
 46
0.0
 71
     1
 72
     1
  1
\A1;R7
  7
SLDTEXTSTYLE0
 73
     1
 44
1.0
  0
INSERT
  5
725
330
71F
100
AcDbEntity
  8
LIVELLO1
 62
     0
370
    -2
100
AcDbBlockReference
  2
_Open30
 10
10.08887056670001
 20
59.3470554204
 30
0.0
 41
3.0
 42
3.0
 43
3.0
 50
45.23972982521913
  0
LINE
  5
726
330
71F
100
AcDbEntity
  8
LIVELLO1
 62
     0
100
AcDbLine
 10
14.97286465570001
 20
64.3174696155
 30
0.0
 11
15.06286465570001
 21
64.3174696155
 31
0.0
  0
LINE
  5
727
330
71F
100
AcDbEntity
  8
LIVELLO1
 62
     0
100
AcDbLine
 10
15.01786465570001
 20
64.2724696155
 30
0.0
 11
15.01786465570001
 21
64.3624696155
 31
0.0
  0
POINT
  5
728
330
71F
100
AcDbEntity
  8
Defpoints
 62
     0
100
AcDbPoint
 10
10.08887056670001
 20
59.3470554204
 30
0.0
  0
POINT
  5
729
330
71F
100
AcDbEntity
  8
Defpoints
 62
     0
100
AcDbPoint
 10
15.01786465570001
 20
64.3174696155
 30
0.0
  0
ENDBLK
  5
721
330
71F
100
AcDbEntity
  8
0
100
AcDbBlockEnd
  0
BLOCK
  5
72B
330
72A
100
AcDbEntity
  8
0
100
AcDbBlockBegin
  2
*D68
 70
     1
 10
0.0
 20
0.0
 30
0.0
  3
*D68
  1

  0
LINE
  5
72D
330
72A
100
AcDbEntity
  8
LIVELLO1
 62
     0
370
    -2
100
AcDbLine
 10
41.01786465570001
 20
71.3799696155
 30
0.0
 11
41.01786465570001
 21
76.3174696155
 31
0.0
  0
LINE
  5
72E
330
72A
100
AcDbEntity
  8
LIVELLO1
 62
     0
370
    -2
100
AcDbLine
 10
37.01786465570001
 20
71.3799696155
 30
0.0
 11
37.01786465570001
 21
76.3174696155
 31
0.0
  0
LINE
  5
72F
330
72A
100
AcDbEntity
  8
LIVELLO1
 62
     0
370
    -2
100
AcDbLine
 10
41.01786465570001
 20
76.3174696155
 30
0.0
 11
44.01786465570001
 21
76.3174696155
 31
0.0
  0
LINE
  5
730
330
72A
100
AcDbEntity
  8
LIVELLO1
 62
     0
370
    -2
100
AcDbLine
 10
34.01786465570001
 20
76.3174696155
 30
0.0
 11
31.01786465570001
 21
76.3174696155
 31
0.0
  0
INSERT
  5
731
330
72A
100
AcDbEntity
  8
LIVELLO1
 62
     0
370
    -2
100
AcDbBlockReference
  2
_Open30
 10
37.01786465570001
 20
76.3174696155
 30
0.0
 41
3.0
 42
3.0
 43
3.0
  0
MTEXT
  5
732
330
72A
100
AcDbEntity
  8
LIVELLO1
 62
     0
100
AcDbMText
 10
39.58563552100001
 20
80.6924696155
 30
0.0
 40
3.5
 41
0.0
 46
0.0
 71
     2
 72
     1
  1
\A1;2xM4
  7
SLDTEXTSTYLE0
 73
     1
 44
1.0
  0
POINT
  5
733
330
72A
100
AcDbEntity
  8
Defpoints
 62
     0
100
AcDbPoint
 10
41.01786465570001
 20
71.3174696155
 30
0.0
  0
POINT
  5
734
330
72A
100
AcDbEntity
  8
Defpoints
 62
     0
100
AcDbPoint
 10
37.01786465570001
 20
71.3174696155
 30
0.0
  0
POINT
  5
735
330
72A
100
AcDbEntity
  8
Defpoints
 62
     0
100
AcDbPoint
 10
37.01786465570001
 20
76.3174696155
 30
0.0
  0
ENDBLK
  5
72C
330
72A
100
AcDbEntity
  8
0
100
AcDbBlockEnd
  0
BLOCK
  5
7AF
330
7AE
100
AcDbEntity
  8
0
100
AcDbBlockBegin
  2
*D69
 70
     1
 10
0.0
 20
0.0
 30
0.0
  3
*D69
  1

  0
LINE
  5
7B1
330
7AE
100
AcDbEntity
  8
0
  6
Continuous
 62
     0
370
    -2
100
AcDbLine
 10
72.03335903047187
 20
173.6764232008593
 30
0.0
 11
67.03335903047187
 21
173.6764232008593
 31
0.0
  0
LINE
  5
7B2
330
7AE
100
AcDbEntity
  8
0
  6
Continuous
 62
     0
370
    -2
100
AcDbLine
 10
72.03335903047187
 20
184.6764232008593
 30
0.0
 11
67.03335903047187
 21
184.6764232008593
 31
0.0
  0
LINE
  5
7B3
330
7AE
100
AcDbEntity
  8
0
  6
Continuous
 62
     0
370
    -2
100
AcDbLine
 10
68.03335903047187
 20
176.6764232008593
 30
0.0
 11
68.03335903047187
 21
181.6764232008593
 31
0.0
  0
INSERT
  5
7B4
330
7AE
100
AcDbEntity
  8
0
 62
     0
370
    -2
100
AcDbBlockReference
  2
_Open30
 10
68.03335903047187
 20
173.6764232008593
 30
0.0
 41
3.0
 42
3.0
 43
3.0
 50
270.0
  0
INSERT
  5
7B5
330
7AE
100
AcDbEntity
  8
0
 62
     0
370
    -2
100
AcDbBlockReference
  2
_Open30
 10
68.03335903047187
 20
184.6764232008593
 30
0.0
 41
3.0
 42
3.0
 43
3.0
 50
90.0
  0
MTEXT
  5
7B6
330
7AE
100
AcDbEntity
  8
0
 62
     0
370
     0
100
AcDbMText
 10
63.00935903047187
 20
179.1764232008593
 30
0.0
 40
3.5
 41
0.0
 46
0.0
 71
     2
 72
     1
  1
\A1;11
  7
SLDTEXTSTYLE0
 11
0.0
 21
1.0
 31
0.0
 73
     1
 44
1.0
  0
POINT
  5
7B7
330
7AE
100
AcDbEntity
  8
Defpoints
 62
     0
100
AcDbPoint
 10
73.03335903047187
 20
173.6764232008593
 30
0.0
  0
POINT
  5
7B8
330
7AE
100
AcDbEntity
  8
Defpoints
 62
     0
100
AcDbPoint
 10
73.03335903047187
 20
184.6764232008593
 30
0.0
  0
POINT
  5
7B9
330
7AE
100
AcDbEntity
  8
Defpoints
 62
     0
100
AcDbPoint
 10
68.03335903047187
 20
184.6764232008593
 30
0.0
  0
ENDBLK
  5
7B0
330
7AE
100
AcDbEntity
  8
0
100
AcDbBlockEnd
  0
BLOCK
  5
7BB
330
7BA
100
AcDbEntity
  8
0
100
AcDbBlockBegin
  2
*D70
 70
     1
 10
0.0
 20
0.0
 30
0.0
  3
*D70
  1

  0
LINE
  5
7BD
330
7BA
100
AcDbEntity
  8
0
  6
Continuous
 62
     0
370
    -2
100
AcDbLine
 10
110.0333590304719
 20
184.6764232008593
 30
0.0
 11
124.8497208349831
 21
184.6764232008593
 31
0.0
  0
LINE
  5
7BE
330
7BA
100
AcDbEntity
  8
0
  6
Continuous
 62
     0
370
    -2
100
AcDbLine
 10
110.0333590304719
 20
162.1764232008593
 30
0.0
 11
124.8497208349831
 21
162.1764232008593
 31
0.0
  0
LINE
  5
7BF
330
7BA
100
AcDbEntity
  8
0
  6
Continuous
 62
     0
370
    -2
100
AcDbLine
 10
123.8497208349831
 20
181.6764232008593
 30
0.0
 11
123.8497208349831
 21
165.1764232008593
 31
0.0
  0
INSERT
  5
7C0
330
7BA
100
AcDbEntity
  8
0
 62
     0
370
    -2
100
AcDbBlockReference
  2
_Open30
 10
123.8497208349831
 20
184.6764232008593
 30
0.0
 41
3.0
 42
3.0
 43
3.0
 50
90.0
  0
INSERT
  5
7C1
330
7BA
100
AcDbEntity
  8
0
 62
     0
370
    -2
100
AcDbBlockReference
  2
_Open30
 10
123.8497208349831
 20
162.1764232008593
 30
0.0
 41
3.0
 42
3.0
 43
3.0
 50
270.0
  0
MTEXT
  5
7C2
330
7BA
100
AcDbEntity
  8
0
 62
     0
370
     0
100
AcDbMText
 10
118.8257208349831
 20
173.4264232008593
 30
0.0
 40
3.5
 41
0.0
 46
0.0
 71
     2
 72
     1
  1
\A1;22.5
  7
SLDTEXTSTYLE0
 11
0.0
 21
1.0
 31
0.0
 73
     1
 44
1.0
  0
POINT
  5
7C3
330
7BA
100
AcDbEntity
  8
Defpoints
 62
     0
100
AcDbPoint
 10
109.0333590304719
 20
184.6764232008593
 30
0.0
  0
POINT
  5
7C4
330
7BA
100
AcDbEntity
  8
Defpoints
 62
     0
100
AcDbPoint
 10
109.0333590304719
 20
162.1764232008593
 30
0.0
  0
POINT
  5
7C5
330
7BA
100
AcDbEntity
  8
Defpoints
 62
     0
100
AcDbPoint
 10
123.8497208349831
 20
162.1764232008593
 30
0.0
  0
ENDBLK
  5
7BC
330
7BA
100
AcDbEntity
  8
0
100
AcDbBlockEnd
  0
BLOCK
  5
7C7
330
7C6
100
AcDbEntity
  8
0
100
AcDbBlockBegin
  2
*D71
 70
     1
 10
0.0
 20
0.0
 30
0.0
  3
*D71
  1

  0
LINE
  5
7C9
330
7C6
100
AcDbEntity
  8
0
  6
Continuous
 62
     0
370
    -2
100
AcDbLine
 10
104.0333590304719
 20
181.4264232008593
 30
0.0
 11
104.0333590304719
 21
190.6764232008593
 31
0.0
  0
LINE
  5
7CA
330
7C6
100
AcDbEntity
  8
0
  6
Continuous
 62
     0
370
    -2
100
AcDbLine
 10
109.0333590304719
 20
185.6764232008593
 30
0.0
 11
109.0333590304719
 21
190.6764232008593
 31
0.0
  0
LINE
  5
7CB
330
7C6
100
AcDbEntity
  8
0
  6
Continuous
 62
     0
370
    -2
100
AcDbLine
 10
101.0333590304719
 20
189.6764232008593
 30
0.0
 11
98.03335903047187
 21
189.6764232008593
 31
0.0
  0
LINE
  5
7CC
330
7C6
100
AcDbEntity
  8
0
  6
Continuous
 62
     0
370
    -2
100
AcDbLine
 10
112.0333590304719
 20
189.6764232008593
 30
0.0
 11
115.0333590304719
 21
189.6764232008593
 31
0.0
  0
INSERT
  5
7CD
330
7C6
100
AcDbEntity
  8
0
 62
     0
370
    -2
100
AcDbBlockReference
  2
_Open30
 10
104.0333590304719
 20
189.6764232008593
 30
0.0
 41
3.0
 42
3.0
 43
3.0
  0
INSERT
  5
7CE
330
7C6
100
AcDbEntity
  8
0
 62
     0
370
    -2
100
AcDbBlockReference
  2
_Open30
 10
109.0333590304719
 20
189.6764232008593
 30
0.0
 41
3.0
 42
3.0
 43
3.0
 50
180.0
  0
MTEXT
  5
7CF
330
7C6
100
AcDbEntity
  8
0
 62
     0
370
     0
100
AcDbMText
 10
106.5333590304719
 20
194.7004232008593
 30
0.0
 40
3.5
 41
0.0
 46
0.0
 71
     2
 72
     1
  1
\A1;5
  7
SLDTEXTSTYLE0
 73
     1
 44
1.0
  0
POINT
  5
7D0
330
7C6
100
AcDbEntity
  8
Defpoints
 62
     0
100
AcDbPoint
 10
104.0333590304719
 20
180.4264232008593
 30
0.0
  0
POINT
  5
859
330
7C6
100
AcDbEntity
  8
Defpoints
 62
     0
100
AcDbPoint
 10
109.0333590304719
 20
184.6764232008593
 30
0.0
  0
POINT
  5
85A
330
7C6
100
AcDbEntity
  8
Defpoints
 62
     0
100
AcDbPoint
 10
109.0333590304719
 20
189.6764232008593
 30
0.0
  0
ENDBLK
  5
7C8
330
7C6
100
AcDbEntity
  8
0
100
AcDbBlockEnd
  0
BLOCK
  5
7D2
330
7D1
100
AcDbEntity
  8
0
100
AcDbBlockBegin
  2
*D72
 70
     1
 10
0.0
 20
0.0
 30
0.0
  3
*D72
  1

  0
LINE
  5
7D4
330
7D1
100
AcDbEntity
  8
0
  6
Continuous
 62
     0
370
    -2
100
AcDbLine
 10
104.0333590304719
 20
181.4264232008593
 30
0.0
 11
104.0333590304719
 21
190.6764232008593
 31
0.0
  0
LINE
  5
7D5
330
7D1
100
AcDbEntity
  8
0
  6
Continuous
 62
     0
370
    -2
100
AcDbLine
 10
89.03335903047187
 20
181.4264232008593
 30
0.0
 11
89.03335903047187
 21
190.6764232008593
 31
0.0
  0
LINE
  5
7D6
330
7D1
100
AcDbEntity
  8
0
  6
Continuous
 62
     0
370
    -2
100
AcDbLine
 10
101.0333590304719
 20
189.6764232008593
 30
0.0
 11
92.03335903047187
 21
189.6764232008593
 31
0.0
  0
INSERT
  5
7D7
330
7D1
100
AcDbEntity
  8
0
 62
     0
370
    -2
100
AcDbBlockReference
  2
_Open30
 10
104.0333590304719
 20
189.6764232008593
 30
0.0
 41
3.0
 42
3.0
 43
3.0
  0
INSERT
  5
7D8
330
7D1
100
AcDbEntity
  8
0
 62
     0
370
    -2
100
AcDbBlockReference
  2
_Open30
 10
89.03335903047187
 20
189.6764232008593
 30
0.0
 41
3.0
 42
3.0
 43
3.0
 50
180.0
  0
MTEXT
  5
7D9
330
7D1
100
AcDbEntity
  8
0
 62
     0
370
     0
100
AcDbMText
 10
96.53335903047187
 20
194.7004232008593
 30
0.0
 40
3.5
 41
0.0
 46
0.0
 71
     2
 72
     1
  1
\A1;15
  7
SLDTEXTSTYLE0
 73
     1
 44
1.0
  0
POINT
  5
7DA
330
7D1
100
AcDbEntity
  8
Defpoints
 62
     0
100
AcDbPoint
 10
104.0333590304719
 20
180.4264232008593
 30
0.0
  0
POINT
  5
7DB
330
7D1
100
AcDbEntity
  8
Defpoints
 62
     0
100
AcDbPoint
 10
89.03335903047187
 20
180.4264232008593
 30
0.0
  0
POINT
  5
7DC
330
7D1
100
AcDbEntity
  8
Defpoints
 62
     0
100
AcDbPoint
 10
89.03335903047187
 20
189.6764232008593
 30
0.0
  0
ENDBLK
  5
7D3
330
7D1
100
AcDbEntity
  8
0
100
AcDbBlockEnd
  0
BLOCK
  5
7DE
330
7DD
100
AcDbEntity
  8
0
100
AcDbBlockBegin
  2
*D73
 70
     1
 10
0.0
 20
0.0
 30
0.0
  3
*D73
  1

  0
LINE
  5
7E0
330
7DD
100
AcDbEntity
  8
0
  6
Continuous
 62
     0
370
    -2
100
AcDbLine
 10
95.03335903047187
 20
161.1764232008593
 30
0.0
 11
95.03335903047187
 21
141.7960360902257
 31
0.0
  0
LINE
  5
7E1
330
7DD
100
AcDbEntity
  8
0
  6
Continuous
 62
     0
370
    -2
100
AcDbLine
 10
109.0333590304719
 20
161.1764232008593
 30
0.0
 11
109.0333590304719
 21
141.7960360902257
 31
0.0
  0
LINE
  5
7E2
330
7DD
100
AcDbEntity
  8
0
  6
Continuous
 62
     0
370
    -2
100
AcDbLine
 10
98.03335903047187
 20
142.7960360902257
 30
0.0
 11
106.0333590304719
 21
142.7960360902257
 31
0.0
  0
INSERT
  5
7E3
330
7DD
100
AcDbEntity
  8
0
 62
     0
370
    -2
100
AcDbBlockReference
  2
_Open30
 10
95.03335903047187
 20
142.7960360902257
 30
0.0
 41
3.0
 42
3.0
 43
3.0
 50
180.0
  0
INSERT
  5
7E4
330
7DD
100
AcDbEntity
  8
0
 62
     0
370
    -2
100
AcDbBlockReference
  2
_Open30
 10
109.0333590304719
 20
142.7960360902257
 30
0.0
 41
3.0
 42
3.0
 43
3.0
  0
MTEXT
  5
7E5
330
7DD
100
AcDbEntity
  8
0
 62
     0
370
     0
100
AcDbMText
 10
102.0333590304719
 20
147.8200360902257
 30
0.0
 40
3.5
 41
0.0
 46
0.0
 71
     2
 72
     1
  1
\A1;14
  7
SLDTEXTSTYLE0
 73
     1
 44
1.0
  0
POINT
  5
7E6
330
7DD
100
AcDbEntity
  8
Defpoints
 62
     0
100
AcDbPoint
 10
95.03335903047187
 20
162.1764232008593
 30
0.0
  0
POINT
  5
7E7
330
7DD
100
AcDbEntity
  8
Defpoints
 62
     0
100
AcDbPoint
 10
109.0333590304719
 20
162.1764232008593
 30
0.0
  0
POINT
  5
7E8
330
7DD
100
AcDbEntity
  8
Defpoints
 62
     0
100
AcDbPoint
 10
109.0333590304719
 20
142.7960360902257
 30
0.0
  0
ENDBLK
  5
7DF
330
7DD
100
AcDbEntity
  8
0
100
AcDbBlockEnd
  0
BLOCK
  5
7EA
330
7E9
100
AcDbEntity
  8
0
100
AcDbBlockBegin
  2
*D74
 70
     1
 10
0.0
 20
0.0
 30
0.0
  3
*D74
  1

  0
LINE
  5
7EC
330
7E9
100
AcDbEntity
  8
0
  6
Continuous
 62
     0
370
    -2
100
AcDbLine
 10
109.0333590304719
 20
161.1764232008593
 30
0.0
 11
109.0333590304719
 21
152.2857117078412
 31
0.0
  0
LINE
  5
7ED
330
7E9
100
AcDbEntity
  8
0
  6
Continuous
 62
     0
370
    -2
100
AcDbLine
 10
97.03335903047187
 20
164.2077962342593
 30
0.0
 11
97.03335903047187
 21
152.2857117078412
 31
0.0
  0
LINE
  5
7EE
330
7E9
100
AcDbEntity
  8
0
  6
Continuous
 62
     0
370
    -2
100
AcDbLine
 10
106.0333590304719
 20
153.2857117078412
 30
0.0
 11
100.0333590304719
 21
153.2857117078412
 31
0.0
  0
INSERT
  5
7EF
330
7E9
100
AcDbEntity
  8
0
 62
     0
370
    -2
100
AcDbBlockReference
  2
_Open30
 10
109.0333590304719
 20
153.2857117078412
 30
0.0
 41
3.0
 42
3.0
 43
3.0
  0
INSERT
  5
7F0
330
7E9
100
AcDbEntity
  8
0
 62
     0
370
    -2
100
AcDbBlockReference
  2
_Open30
 10
97.03335903047187
 20
153.2857117078412
 30
0.0
 41
3.0
 42
3.0
 43
3.0
 50
180.0
  0
MTEXT
  5
7F1
330
7E9
100
AcDbEntity
  8
0
 62
     0
370
     0
100
AcDbMText
 10
103.0333590304719
 20
158.3097117078412
 30
0.0
 40
3.5
 41
0.0
 46
0.0
 71
     2
 72
     1
  1
\A1;12
  7
SLDTEXTSTYLE0
 73
     1
 44
1.0
  0
POINT
  5
7F2
330
7E9
100
AcDbEntity
  8
Defpoints
 62
     0
100
AcDbPoint
 10
109.0333590304719
 20
162.1764232008593
 30
0.0
  0
POINT
  5
7F3
330
7E9
100
AcDbEntity
  8
Defpoints
 62
     0
100
AcDbPoint
 10
97.03335903047187
 20
165.2077962342593
 30
0.0
  0
POINT
  5
7F4
330
7E9
100
AcDbEntity
  8
Defpoints
 62
     0
100
AcDbPoint
 10
97.03335903047187
 20
153.2857117078412
 30
0.0
  0
ENDBLK
  5
7EB
330
7E9
100
AcDbEntity
  8
0
100
AcDbBlockEnd
  0
BLOCK
  5
7F6
330
7F5
100
AcDbEntity
  8
0
100
AcDbBlockBegin
  2
*D75
 70
     1
 10
0.0
 20
0.0
 30
0.0
  3
*D75
  1

  0
LINE
  5
7F8
330
7F5
100
AcDbEntity
  8
0
  6
Continuous
 62
     0
370
    -2
100
AcDbLine
 10
105.0333590304719
 20
180.4264232008593
 30
0.0
 11
117.6920598253161
 21
180.4264232008593
 31
0.0
  0
LINE
  5
7F9
330
7F5
100
AcDbEntity
  8
0
  6
Continuous
 62
     0
370
    -2
100
AcDbLine
 10
110.0333590304719
 20
184.6764232008593
 30
0.0
 11
117.6920598253161
 21
184.6764232008593
 31
0.0
  0
LINE
  5
7FA
330
7F5
100
AcDbEntity
  8
0
  6
Continuous
 62
     0
370
    -2
100
AcDbLine
 10
116.6920598253161
 20
177.4264232008593
 30
0.0
 11
116.6920598253161
 21
174.4264232008593
 31
0.0
  0
LINE
  5
7FB
330
7F5
100
AcDbEntity
  8
0
  6
Continuous
 62
     0
370
    -2
100
AcDbLine
 10
116.6920598253161
 20
187.6764232008593
 30
0.0
 11
116.6920598253161
 21
190.6764232008593
 31
0.0
  0
INSERT
  5
7FC
330
7F5
100
AcDbEntity
  8
0
 62
     0
370
    -2
100
AcDbBlockReference
  2
_Open30
 10
116.6920598253161
 20
180.4264232008593
 30
0.0
 41
3.0
 42
3.0
 43
3.0
 50
90.0
  0
INSERT
  5
7FD
330
7F5
100
AcDbEntity
  8
0
 62
     0
370
    -2
100
AcDbBlockReference
  2
_Open30
 10
116.6920598253161
 20
184.6764232008593
 30
0.0
 41
3.0
 42
3.0
 43
3.0
 50
270.0
  0
MTEXT
  5
7FE
330
7F5
100
AcDbEntity
  8
0
 62
     0
370
     0
100
AcDbMText
 10
111.6680598253161
 20
182.5514232008593
 30
0.0
 40
3.5
 41
0.0
 46
0.0
 71
     2
 72
     1
  1
\A1;4.3
  7
SLDTEXTSTYLE0
 11
0.0
 21
1.0
 31
0.0
 73
     1
 44
1.0
  0
POINT
  5
7FF
330
7F5
100
AcDbEntity
  8
Defpoints
 62
     0
100
AcDbPoint
 10
104.0333590304719
 20
180.4264232008593
 30
0.0
  0
POINT
  5
800
330
7F5
100
AcDbEntity
  8
Defpoints
 62
     0
100
AcDbPoint
 10
109.0333590304719
 20
184.6764232008593
 30
0.0
  0
POINT
  5
85B
330
7F5
100
AcDbEntity
  8
Defpoints
 62
     0
100
AcDbPoint
 10
116.6920598253161
 20
184.6764232008593
 30
0.0
  0
ENDBLK
  5
7F7
330
7F5
100
AcDbEntity
  8
0
100
AcDbBlockEnd
  0
BLOCK
  5
802
330
801
100
AcDbEntity
  8
0
100
AcDbBlockBegin
  2
*D76
 70
     1
 10
0.0
 20
0.0
 30
0.0
  3
*D76
  1

  0
LINE
  5
804
330
801
100
AcDbEntity
  8
0
  6
Continuous
 62
     0
370
    -2
100
AcDbLine
 10
137.6854463657719
 20
165.1764232008593
 30
0.0
 11
158.9103146051227
 21
165.1764232008593
 31
0.0
  0
LINE
  5
805
330
801
100
AcDbEntity
  8
0
  6
Continuous
 62
     0
370
    -2
100
AcDbLine
 10
144.1854463657719
 20
184.6764232008593
 30
0.0
 11
158.9103146051227
 21
184.6764232008593
 31
0.0
  0
LINE
  5
806
330
801
100
AcDbEntity
  8
0
  6
Continuous
 62
     0
370
    -2
100
AcDbLine
 10
157.9103146051227
 20
168.1764232008593
 30
0.0
 11
157.9103146051227
 21
181.6764232008593
 31
0.0
  0
INSERT
  5
807
330
801
100
AcDbEntity
  8
0
 62
     0
370
    -2
100
AcDbBlockReference
  2
_Open30
 10
157.9103146051227
 20
165.1764232008593
 30
0.0
 41
3.0
 42
3.0
 43
3.0
 50
270.0
  0
INSERT
  5
808
330
801
100
AcDbEntity
  8
0
 62
     0
370
    -2
100
AcDbBlockReference
  2
_Open30
 10
157.9103146051227
 20
184.6764232008593
 30
0.0
 41
3.0
 42
3.0
 43
3.0
 50
90.0
  0
MTEXT
  5
809
330
801
100
AcDbEntity
  8
0
 62
     0
370
     0
100
AcDbMText
 10
152.8863146051227
 20
174.9264232008593
 30
0.0
 40
3.5
 41
0.0
 46
0.0
 71
     2
 72
     1
  1
\A1;19.5
  7
SLDTEXTSTYLE0
 11
0.0
 21
1.0
 31
0.0
 73
     1
 44
1.0
  0
POINT
  5
80A
330
801
100
AcDbEntity
  8
Defpoints
 62
     0
100
AcDbPoint
 10
136.6854463657719
 20
165.1764232008593
 30
0.0
  0
POINT
  5
80B
330
801
100
AcDbEntity
  8
Defpoints
 62
     0
100
AcDbPoint
 10
143.1854463657719
 20
184.6764232008593
 30
0.0
  0
POINT
  5
80C
330
801
100
AcDbEntity
  8
Defpoints
 62
     0
100
AcDbPoint
 10
157.9103146051227
 20
184.6764232008593
 30
0.0
  0
ENDBLK
  5
803
330
801
100
AcDbEntity
  8
0
100
AcDbBlockEnd
  0
BLOCK
  5
80E
330
80D
100
AcDbEntity
  8
0
100
AcDbBlockBegin
  2
*D77
 70
     1
 10
0.0
 20
0.0
 30
0.0
  3
*D77
  1

  0
LINE
  5
810
330
80D
100
AcDbEntity
  8
0
  6
Continuous
 62
     0
370
    -2
100
AcDbLine
 10
137.6854463657719
 20
169.1764232008593
 30
0.0
 11
151.9994694923408
 21
169.1764232008593
 31
0.0
  0
LINE
  5
811
330
80D
100
AcDbEntity
  8
0
  6
Continuous
 62
     0
370
    -2
100
AcDbLine
 10
144.6854463657719
 20
184.6764232008593
 30
0.0
 11
151.9994694923408
 21
184.6764232008593
 31
0.0
  0
LINE
  5
812
330
80D
100
AcDbEntity
  8
0
  6
Continuous
 62
     0
370
    -2
100
AcDbLine
 10
150.9994694923408
 20
172.1764232008593
 30
0.0
 11
150.9994694923408
 21
181.6764232008593
 31
0.0
  0
INSERT
  5
813
330
80D
100
AcDbEntity
  8
0
 62
     0
370
    -2
100
AcDbBlockReference
  2
_Open30
 10
150.9994694923408
 20
169.1764232008593
 30
0.0
 41
3.0
 42
3.0
 43
3.0
 50
270.0
  0
INSERT
  5
814
330
80D
100
AcDbEntity
  8
0
 62
     0
370
    -2
100
AcDbBlockReference
  2
_Open30
 10
150.9994694923408
 20
184.6764232008593
 30
0.0
 41
3.0
 42
3.0
 43
3.0
 50
90.0
  0
MTEXT
  5
815
330
80D
100
AcDbEntity
  8
0
 62
     0
370
     0
100
AcDbMText
 10
145.9754694923408
 20
176.9264232008593
 30
0.0
 40
3.5
 41
0.0
 46
0.0
 71
     2
 72
     1
  1
\A1;15.5
  7
SLDTEXTSTYLE0
 11
0.0
 21
1.0
 31
0.0
 73
     1
 44
1.0
  0
POINT
  5
816
330
80D
100
AcDbEntity
  8
Defpoints
 62
     0
100
AcDbPoint
 10
136.6854463657719
 20
169.1764232008593
 30
0.0
  0
POINT
  5
817
330
80D
100
AcDbEntity
  8
Defpoints
 62
     0
100
AcDbPoint
 10
143.6854463657719
 20
184.6764232008593
 30
0.0
  0
POINT
  5
818
330
80D
100
AcDbEntity
  8
Defpoints
 62
     0
100
AcDbPoint
 10
150.9994694923408
 20
184.6764232008593
 30
0.0
  0
ENDBLK
  5
80F
330
80D
100
AcDbEntity
  8
0
100
AcDbBlockEnd
  0
BLOCK
  5
81A
330
819
100
AcDbEntity
  8
0
100
AcDbBlockBegin
  2
*D78
 70
     1
 10
0.0
 20
0.0
 30
0.0
  3
*D78
  1

  0
LINE
  5
81C
330
819
100
AcDbEntity
  8
0
  6
Continuous
 62
     0
370
    -2
100
AcDbLine
 10
134.2201450207719
 20
172.3263897527593
 30
0.0
 11
148.6800289481907
 21
153.8506967873736
 31
0.0
  0
MTEXT
  5
81D
330
819
100
AcDbEntity
  8
0
 62
     0
370
     0
100
AcDbMText
 10
149.1804453353804
 20
161.3628433880826
 30
0.0
 40
3.5
 41
0.0
 46
0.0
 71
     1
 72
     1
  1
\A1;%%c8
  7
SLDTEXTSTYLE0
 11
0.6163253362410438
 21
-0.7874916379920261
 31
0.0
 73
     1
 44
1.0
  0
INSERT
  5
81E
330
819
100
AcDbEntity
  8
0
 62
     0
370
    -2
100
AcDbBlockReference
  2
_Open30
 10
134.2201450207719
 20
172.3263897527593
 30
0.0
 41
3.0
 42
3.0
 43
3.0
 50
128.0482848221456
  0
POINT
  5
81F
330
819
100
AcDbEntity
  8
Defpoints
 62
     0
100
AcDbPoint
 10
134.2201450207719
 20
172.3263897527593
 30
0.0
  0
POINT
  5
820
330
819
100
AcDbEntity
  8
Defpoints
 62
     0
100
AcDbPoint
 10
139.1507477106719
 20
166.0264566488593
 30
0.0
  0
ENDBLK
  5
81B
330
819
100
AcDbEntity
  8
0
100
AcDbBlockEnd
  0
BLOCK
  5
822
330
821
100
AcDbEntity
  8
0
100
AcDbBlockBegin
  2
*D79
 70
     1
 10
0.0
 20
0.0
 30
0.0
  3
*D79
  1

  0
LINE
  5
824
330
821
100
AcDbEntity
  8
0
  6
Continuous
 62
     0
370
    -2
100
AcDbLine
 10
82.77769695397187
 20
215.0838052984593
 30
0.0
 11
64.68389270899094
 21
234.2704198307877
 31
0.0
  0
MTEXT
  5
825
330
821
100
AcDbEntity
  8
0
 62
     0
370
     0
100
AcDbMText
 10
69.3845553802978
 20
236.6085649183694
 30
0.0
 40
3.5
 41
0.0
 46
0.0
 71
     1
 72
     1
  1
\A1;%%c8
  7
SLDTEXTSTYLE0
 11
0.6860844808707621
 21
-0.7275218794705056
 31
0.0
 73
     1
 44
1.0
  0
INSERT
  5
826
330
821
100
AcDbEntity
  8
0
 62
     0
370
    -2
100
AcDbBlockReference
  2
_Open30
 10
82.77769695397187
 20
215.0838052984593
 30
0.0
 41
3.0
 42
3.0
 43
3.0
 50
313.3209552174625
  0
POINT
  5
827
330
821
100
AcDbEntity
  8
Defpoints
 62
     0
100
AcDbPoint
 10
82.77769695397187
 20
215.0838052984593
 30
0.0
  0
POINT
  5
828
330
821
100
AcDbEntity
  8
Defpoints
 62
     0
100
AcDbPoint
 10
77.28902110697187
 20
220.9039803342593
 30
0.0
  0
ENDBLK
  5
823
330
821
100
AcDbEntity
  8
0
100
AcDbBlockEnd
  0
BLOCK
  5
82A
330
829
100
AcDbEntity
  8
0
100
AcDbBlockBegin
  2
*D80
 70
     1
 10
0.0
 20
0.0
 30
0.0
  3
*D80
  1

  0
LINE
  5
82C
330
829
100
AcDbEntity
  8
0
  6
Continuous
 62
     0
370
    -2
100
AcDbLine
 10
109.0333590304719
 20
218.4938928163593
 30
0.0
 11
109.0333590304719
 21
247.606802320086
 31
0.0
  0
LINE
  5
82D
330
829
100
AcDbEntity
  8
0
  6
Continuous
 62
     0
370
    -2
100
AcDbLine
 10
73.03335903047187
 20
218.9938928163593
 30
0.0
 11
73.03335903047187
 21
247.606802320086
 31
0.0
  0
LINE
  5
82E
330
829
100
AcDbEntity
  8
0
  6
Continuous
 62
     0
370
    -2
100
AcDbLine
 10
106.0333590304719
 20
246.606802320086
 30
0.0
 11
76.03335903047187
 21
246.606802320086
 31
0.0
  0
INSERT
  5
82F
330
829
100
AcDbEntity
  8
0
 62
     0
370
    -2
100
AcDbBlockReference
  2
_Open30
 10
109.0333590304719
 20
246.606802320086
 30
0.0
 41
3.0
 42
3.0
 43
3.0
  0
INSERT
  5
830
330
829
100
AcDbEntity
  8
0
 62
     0
370
    -2
100
AcDbBlockReference
  2
_Open30
 10
73.03335903047187
 20
246.606802320086
 30
0.0
 41
3.0
 42
3.0
 43
3.0
 50
180.0
  0
MTEXT
  5
831
330
829
100
AcDbEntity
  8
0
 62
     0
370
     0
100
AcDbMText
 10
91.03335903047187
 20
251.630802320086
 30
0.0
 40
3.5
 41
0.0
 46
0.0
 71
     2
 72
     1
  1
\A1;36
  7
SLDTEXTSTYLE0
 73
     1
 44
1.0
  0
POINT
  5
832
330
829
100
AcDbEntity
  8
Defpoints
 62
     0
100
AcDbPoint
 10
109.0333590304719
 20
217.4938928163593
 30
0.0
  0
POINT
  5
833
330
829
100
AcDbEntity
  8
Defpoints
 62
     0
100
AcDbPoint
 10
73.03335903047187
 20
217.9938928163593
 30
0.0
  0
POINT
  5
834
330
829
100
AcDbEntity
  8
Defpoints
 62
     0
100
AcDbPoint
 10
73.03335903047187
 20
246.606802320086
 30
0.0
  0
ENDBLK
  5
82B
330
829
100
AcDbEntity
  8
0
100
AcDbBlockEnd
  0
BLOCK
  5
836
330
835
100
AcDbEntity
  8
0
100
AcDbBlockBegin
  2
*D81
 70
     1
 10
0.0
 20
0.0
 30
0.0
  3
*D81
  1

  0
LINE
  5
838
330
835
100
AcDbEntity
  8
0
  6
Continuous
 62
     0
370
    -2
100
AcDbLine
 10
80.03335903047187
 20
218.9938928163593
 30
0.0
 11
80.03335903047187
 21
240.399778131042
 31
0.0
  0
LINE
  5
839
330
835
100
AcDbEntity
  8
0
  6
Continuous
 62
     0
370
    -2
100
AcDbLine
 10
109.0333590304719
 20
225.4938928163593
 30
0.0
 11
109.0333590304719
 21
240.399778131042
 31
0.0
  0
LINE
  5
83A
330
835
100
AcDbEntity
  8
0
  6
Continuous
 62
     0
370
    -2
100
AcDbLine
 10
83.03335903047187
 20
239.399778131042
 30
0.0
 11
106.0333590304719
 21
239.399778131042
 31
0.0
  0
INSERT
  5
83B
330
835
100
AcDbEntity
  8
0
 62
     0
370
    -2
100
AcDbBlockReference
  2
_Open30
 10
80.03335903047187
 20
239.399778131042
 30
0.0
 41
3.0
 42
3.0
 43
3.0
 50
180.0
  0
INSERT
  5
83C
330
835
100
AcDbEntity
  8
0
 62
     0
370
    -2
100
AcDbBlockReference
  2
_Open30
 10
109.0333590304719
 20
239.399778131042
 30
0.0
 41
3.0
 42
3.0
 43
3.0
  0
MTEXT
  5
83D
330
835
100
AcDbEntity
  8
0
 62
     0
370
     0
100
AcDbMText
 10
93.91095254282418
 20
244.423778131042
 30
0.0
 40
3.5
 41
0.0
 46
0.0
 71
     2
 72
     1
  1
\A1;29
  7
SLDTEXTSTYLE0
 73
     1
 44
1.0
  0
POINT
  5
83E
330
835
100
AcDbEntity
  8
Defpoints
 62
     0
100
AcDbPoint
 10
80.03335903047187
 20
217.9938928163593
 30
0.0
  0
POINT
  5
83F
330
835
100
AcDbEntity
  8
Defpoints
 62
     0
100
AcDbPoint
 10
109.0333590304719
 20
224.4938928163593
 30
0.0
  0
POINT
  5
840
330
835
100
AcDbEntity
  8
Defpoints
 62
     0
100
AcDbPoint
 10
109.0333590304719
 20
239.399778131042
 30
0.0
  0
ENDBLK
  5
837
330
835
100
AcDbEntity
  8
0
100
AcDbBlockEnd
  0
BLOCK
  5
842
330
841
100
AcDbEntity
  8
0
100
AcDbBlockBegin
  2
*D82
 70
     1
 10
0.0
 20
0.0
 30
0.0
  3
*D82
  1

  0
LINE
  5
844
330
841
100
AcDbEntity
  8
0
  6
Continuous
 62
     0
370
    -2
100
AcDbLine
 10
72.99193890333437
 20
210.893301109079
 30
0.0
 11
63.86355068747305
 21
201.6882037713165
 31
0.0
  0
MTEXT
  5
845
330
841
100
AcDbEntity
  8
0
 62
     0
370
     0
100
AcDbMText
 10
61.36932584111559
 20
206.3079434193717
 30
0.0
 40
3.5
 41
0.0
 46
0.0
 71
     1
 72
     1
  1
\A1;R7
  7
SLDTEXTSTYLE0
 11
0.7041420127124978
 21
0.7100591707267733
 31
0.0
 73
     1
 44
1.0
  0
INSERT
  5
846
330
841
100
AcDbEntity
  8
0
 62
     0
370
    -2
100
AcDbBlockReference
  2
_Open30
 10
75.10436494147187
 20
213.0234786212593
 30
0.0
 41
3.0
 42
3.0
 43
3.0
 50
45.23972982521929
  0
LINE
  5
847
330
841
100
AcDbEntity
  8
0
  6
Continuous
 62
     0
370
     0
100
AcDbLine
 10
79.98835903047187
 20
217.9938928163593
 30
0.0
 11
80.07835903047187
 21
217.9938928163593
 31
0.0
  0
LINE
  5
848
330
841
100
AcDbEntity
  8
0
  6
Continuous
 62
     0
370
     0
100
AcDbLine
 10
80.03335903047187
 20
217.9488928163593
 30
0.0
 11
80.03335903047187
 21
218.0388928163593
 31
0.0
  0
POINT
  5
849
330
841
100
AcDbEntity
  8
Defpoints
 62
     0
100
AcDbPoint
 10
75.10436494147187
 20
213.0234786212593
 30
0.0
  0
POINT
  5
84A
330
841
100
AcDbEntity
  8
Defpoints
 62
     0
100
AcDbPoint
 10
80.03335903047187
 20
217.9938928163593
 30
0.0
  0
ENDBLK
  5
843
330
841
100
AcDbEntity
  8
0
100
AcDbBlockEnd
  0
BLOCK
  5
84D
330
84C
100
AcDbEntity
  8
0
100
AcDbBlockBegin
  2
*D83
 70
     1
 10
0.0
 20
0.0
 30
0.0
  3
*D83
  1

  0
LINE
  5
84F
330
84C
100
AcDbEntity
  8
0
  6
Continuous
 62
     0
370
    -2
100
AcDbLine
 10
106.0333590304719
 20
225.9938928163593
 30
0.0
 11
106.0333590304719
 21
230.9938928163593
 31
0.0
  0
LINE
  5
850
330
84C
100
AcDbEntity
  8
0
  6
Continuous
 62
     0
370
    -2
100
AcDbLine
 10
102.0333590304719
 20
225.9938928163593
 30
0.0
 11
102.0333590304719
 21
230.9938928163593
 31
0.0
  0
LINE
  5
851
330
84C
100
AcDbEntity
  8
0
  6
Continuous
 62
     0
370
    -2
100
AcDbLine
 10
109.0333590304719
 20
229.9938928163593
 30
0.0
 11
112.0333590304719
 21
229.9938928163593
 31
0.0
  0
LINE
  5
852
330
84C
100
AcDbEntity
  8
0
  6
Continuous
 62
     0
370
    -2
100
AcDbLine
 10
99.03335903047187
 20
229.9938928163593
 30
0.0
 11
96.03335903047187
 21
229.9938928163593
 31
0.0
  0
INSERT
  5
853
330
84C
100
AcDbEntity
  8
0
 62
     0
370
    -2
100
AcDbBlockReference
  2
_Open30
 10
106.0333590304719
 20
229.9938928163593
 30
0.0
 41
3.0
 42
3.0
 43
3.0
 50
180.0
  0
INSERT
  5
854
330
84C
100
AcDbEntity
  8
0
 62
     0
370
    -2
100
AcDbBlockReference
  2
_Open30
 10
102.0333590304719
 20
229.9938928163593
 30
0.0
 41
3.0
 42
3.0
 43
3.0
  0
MTEXT
  5
855
330
84C
100
AcDbEntity
  8
0
 62
     0
370
     0
100
AcDbMText
 10
104.6011298957719
 20
235.0178928163593
 30
0.0
 40
3.5
 41
0.0
 46
0.0
 71
     2
 72
     1
  1
\A1;2xM4
  7
SLDTEXTSTYLE0
 73
     1
 44
1.0
  0
POINT
  5
856
330
84C
100
AcDbEntity
  8
Defpoints
 62
     0
100
AcDbPoint
 10
106.0333590304719
 20
224.9938928163593
 30
0.0
  0
POINT
  5
857
330
84C
100
AcDbEntity
  8
Defpoints
 62
     0
100
AcDbPoint
 10
102.0333590304719
 20
224.9938928163593
 30
0.0
  0
POINT
  5
858
330
84C
100
AcDbEntity
  8
Defpoints
 62
     0
100
AcDbPoint
 10
102.0333590304719
 20
229.9938928163593
 30
0.0
  0
ENDBLK
  5
84E
330
84C
100
AcDbEntity
  8
0
100
AcDbBlockEnd
  0
ENDSEC
  0
SECTION
  2
ENTITIES
  0
LINE
  5
2F
330
1F
100
AcDbEntity
  8
0
  6
Continuous
 62
     7
370
     0
100
AcDbLine
 10
20.2604743903
 20
285.0
 30
0.0
 11
196.7604743903
 21
285.0
 31
0.0
  0
LINE
  5
30
330
1F
100
AcDbEntity
  8
0
  6
Continuous
 62
     7
370
     0
100
AcDbLine
 10
20.2604743903
 20
285.0
 30
0.0
 11
20.2604743903
 21
10.0
 31
0.0
  0
LINE
  5
31
330
1F
100
AcDbEntity
  8
0
  6
Continuous
 62
     7
370
     0
100
AcDbLine
 10
20.2604743903
 20
10.0
 30
0.0
 11
196.7604743903
 21
10.0
 31
0.0
  0
LINE
  5
32
330
1F
100
AcDbEntity
  8
0
  6
Continuous
 62
     7
370
     0
100
AcDbLine
 10
196.7604743903
 20
285.0
 30
0.0
 11
196.7604743903
 21
10.0
 31
0.0
  0
LINE
  5
33
330
1F
100
AcDbEntity
  8
0
  6
Continuous
 62
     7
370
     0
100
AcDbLine
 10
127.0104743903
 20
50.75
 30
0.0
 11
196.7604743903
 21
50.75
 31
0.0
  0
LINE
  5
34
330
1F
100
AcDbEntity
  8
0
  6
Continuous
 62
     7
370
     0
100
AcDbLine
 10
127.0104743903
 20
50.75
 30
0.0
 11
127.0104743903
 21
10.0
 31
0.0
  0
LINE
  5
35
330
1F
100
AcDbEntity
  8
0
  6
Continuous
 62
     7
370
     0
100
AcDbLine
 10
127.0104743903
 20
22.75
 30
0.0
 11
196.7604743903
 21
22.75
 31
0.0
  0
LINE
  5
36
330
1F
100
AcDbEntity
  8
0
  6
Continuous
 62
     7
370
     0
100
AcDbLine
 10
127.0104743903
 20
36.75
 30
0.0
 11
196.7604743903
 21
36.75
 31
0.0
  0
MTEXT
  5
38
330
1F
100
AcDbEntity
  8
0
  6
Continuous
 62
     7
370
     0
100
AcDbMText
 10
150.0164591242
 20
29.8861652342
 30
0.0
 40
4.2333333333
 41
0.0
 46
4.2333333333
 71
     1
 72
     1
  1
{N01864-103A}
  7
SLDTEXTSTYLE0
 73
     1
 44
1.0
1001
ACAD
1000
ACAD_MTEXT_DEFINED_HEIGHT_BEGIN
1070
    46
1040
4.2333333333
1000
ACAD_MTEXT_DEFINED_HEIGHT_END
  0
MTEXT
  5
39
330
1F
100
AcDbEntity
  8
0
  6
Continuous
 62
     7
370
     0
100
AcDbMText
 10
130.5214177379395
 20
45.34599313304724
 30
0.0
 40
4.2333333333
 41
0.0
 46
4.2333333333
 71
     1
 72
     1
  1
{Rotation Bracket Phi.8-8B}
  7
SLDTEXTSTYLE0
 73
     1
 44
1.0
1001
ACAD
1000
ACAD_MTEXT_DEFINED_HEIGHT_BEGIN
1070
    46
1040
4.2333333333
1000
ACAD_MTEXT_DEFINED_HEIGHT_END
  0
MTEXT
  5
3A
330
1F
100
AcDbEntity
  8
0
  6
Continuous
 62
     7
370
     0
100
AcDbMText
 10
153.2907681068
 20
18.8372252597
 30
0.0
 40
4.2333333333
 41
0.0
 46
4.2333333333
 71
     1
 72
     1
  1
{131606}
  7
SLDTEXTSTYLE0
 73
     1
 44
1.0
1001
ACAD
1000
ACAD_MTEXT_DEFINED_HEIGHT_BEGIN
1070
    46
1040
4.2333333333
1000
ACAD_MTEXT_DEFINED_HEIGHT_END
  0
LINE
  5
737
330
1F
100
AcDbEntity
  8
0
  6
Continuous
 62
     7
370
    35
100
AcDbLine
 10
108.5333590304719
 20
162.1764232008593
 30
0.0
 11
108.5333590304719
 21
184.6764232008593
 31
0.0
  0
LINE
  5
738
330
1F
100
AcDbEntity
  8
0
  6
Continuous
 62
     7
370
    35
100
AcDbLine
 10
95.03335903047187
 20
162.1764232008593
 30
0.0
 11
108.5333590304719
 21
162.1764232008593
 31
0.0
  0
LINE
  5
739
330
1F
100
AcDbEntity
  8
0
  6
Continuous
 62
     7
370
    35
100
AcDbLine
 10
80.03335903047187
 20
173.6764232008593
 30
0.0
 11
95.03335903047187
 21
173.6764232008593
 31
0.0
  0
LINE
  5
73A
330
1F
100
AcDbEntity
  8
0
  6
Continuous
 62
     7
370
    35
100
AcDbLine
 10
95.03335903047187
 20
173.6764232008593
 30
0.0
 11
95.03335903047187
 21
162.1764232008593
 31
0.0
  0
LINE
  5
73B
330
1F
100
AcDbEntity
  8
0
  6
Continuous
 62
     7
370
    35
100
AcDbLine
 10
108.5333590304719
 20
184.6764232008593
 30
0.0
 11
80.03335903047187
 21
184.6764232008593
 31
0.0
  0
CIRCLE
  5
73C
330
1F
100
AcDbEntity
  8
0
  6
Continuous
 62
     7
370
    35
100
AcDbCircle
 10
104.0333590304719
 20
180.4264232008593
 30
0.0
 40
3.999999999999993
  0
CIRCLE
  5
73D
330
1F
100
AcDbEntity
  8
0
  6
Continuous
 62
     7
370
    35
100
AcDbCircle
 10
89.03335903047187
 20
180.4264232008593
 30
0.0
 40
3.999999999999993
  0
LINE
  5
73E
330
1F
100
AcDbEntity
  8
0
  6
Continuous
 62
     7
370
    35
100
AcDbLine
 10
73.03335903047187
 20
173.6764232008593
 30
0.0
 11
73.03335903047187
 21
184.6764232008593
 31
0.0
  0
LINE
  5
73F
330
1F
100
AcDbEntity
  8
0
  6
Continuous
 62
     7
370
    35
100
AcDbLine
 10
80.03335903047187
 20
173.6764232008593
 30
0.0
 11
73.03335903047187
 21
173.6764232008593
 31
0.0
  0
LINE
  5
740
330
1F
100
AcDbEntity
  8
0
  6
Continuous
 62
     7
370
    35
100
AcDbLine
 10
73.03335903047187
 20
184.6764232008593
 30
0.0
 11
80.03335903047187
 21
184.6764232008593
 31
0.0
  0
LINE
  5
741
330
1F
100
AcDbEntity
  8
0
  6
Continuous
 62
     7
370
    35
100
AcDbLine
 10
109.0333590304719
 20
184.6764232008593
 30
0.0
 11
109.0333590304719
 21
162.1764232008593
 31
0.0
  0
LINE
  5
742
330
1F
100
AcDbEntity
  8
0
  6
Continuous
 62
     7
370
    35
100
AcDbLine
 10
109.0333590304719
 20
162.1764232008593
 30
0.0
 11
108.5333590304719
 21
162.1764232008593
 31
0.0
  0
LINE
  5
743
330
1F
100
AcDbEntity
  8
0
  6
Continuous
 62
     7
370
    35
100
AcDbLine
 10
108.5333590304719
 20
184.6764232008593
 30
0.0
 11
109.0333590304719
 21
184.6764232008593
 31
0.0
  0
CIRCLE
  5
744
330
1F
100
AcDbEntity
  8
0
  6
Continuous
 62
     7
370
    35
100
AcDbCircle
 10
104.0333590304719
 20
180.4264232008593
 30
0.0
 40
2.25
  0
CIRCLE
  5
745
330
1F
100
AcDbEntity
  8
0
  6
Continuous
 62
     7
370
    35
100
AcDbCircle
 10
89.03335903047187
 20
180.4264232008593
 30
0.0
 40
2.25
  0
CIRCLE
  5
746
330
1F
100
AcDbEntity
  8
0
  6
Continuous
 62
     7
370
    35
100
AcDbCircle
 10
89.03335903047187
 20
180.4264232008593
 30
0.0
 40
1.649999999999991
  0
CIRCLE
  5
747
330
1F
100
AcDbEntity
  8
0
  6
Continuous
 62
     7
370
    35
100
AcDbCircle
 10
104.0333590304719
 20
180.4264232008593
 30
0.0
 40
1.649999999999991
  0
LINE
  5
748
330
1F
100
AcDbEntity
  8
0
  6
Continuous
 62
     7
370
    18
100
AcDbLine
 10
80.03335903047187
 20
184.6764232008593
 30
0.0
 11
80.03335903047187
 21
173.6764232008593
 31
0.0
  0
LINE
  5
749
330
1F
100
AcDbEntity
  8
0
  6
HIDDEN
 62
     7
370
    25
100
AcDbLine
 10
109.0333590304719
 20
173.1450501674593
 30
0.0
 11
97.03335903047187
 21
173.1450501674593
 31
0.0
  0
LINE
  5
74A
330
1F
100
AcDbEntity
  8
0
  6
HIDDEN
 62
     7
370
    25
100
AcDbLine
 10
95.03335903047187
 20
165.2077962342593
 30
0.0
 11
97.03335903047187
 21
165.2077962342593
 31
0.0
  0
LINE
  5
74B
330
1F
100
AcDbEntity
  8
0
  6
HIDDEN
 62
     7
370
    25
100
AcDbLine
 10
97.03335903047187
 20
173.1450501674593
 30
0.0
 11
97.03335903047187
 21
165.2077962342593
 31
0.0
  0
LINE
  5
74C
330
1F
100
AcDbEntity
  8
0
  6
HIDDEN
 62
     7
370
    25
100
AcDbLine
 10
84.00198599707187
 20
173.6764232008593
 30
0.0
 11
84.00198599707187
 21
184.6764232008593
 31
0.0
  0
LINE
  5
74D
330
1F
100
AcDbEntity
  8
0
  6
HIDDEN
 62
     7
370
    25
100
AcDbLine
 10
94.03335903047187
 20
173.6764232008593
 30
0.0
 11
94.03335903047187
 21
184.6764232008593
 31
0.0
  0
LINE
  5
74E
330
1F
100
AcDbEntity
  8
0
  6
HIDDEN
 62
     7
370
    25
100
AcDbLine
 10
95.03335903047187
 20
184.6764232008593
 30
0.0
 11
95.03335903047187
 21
173.6764232008593
 31
0.0
  0
LINE
  5
74F
330
1F
100
AcDbEntity
  8
0
  6
HIDDEN
 62
     7
370
    25
100
AcDbLine
 10
95.03335903047187
 20
165.1764232008593
 30
0.0
 11
109.0333590304719
 21
165.1764232008593
 31
0.0
  0
LINE
  5
750
330
1F
100
AcDbEntity
  8
0
  6
HIDDEN
 62
     7
370
    25
100
AcDbLine
 10
76.03335903047187
 20
184.6764232008593
 30
0.0
 11
76.03335903047187
 21
173.6764232008593
 31
0.0
  0
LINE
  5
751
330
1F
100
AcDbEntity
  8
0
  6
HIDDEN
 62
     7
370
    18
100
AcDbLine
 10
80.03335903047187
 20
173.6764232008593
 30
0.0
 11
80.03335903047187
 21
184.6764232008593
 31
0.0
  0
DIMENSION
  5
752
330
1F
100
AcDbEntity
  8
0
  6
Continuous
 62
     7
370
     0
100
AcDbDimension
  2
*D69
 10
68.03335903047187
 20
184.6764232008593
 30
0.0
 11
68.03335903047187
 21
179.1764232008593
 31
0.0
 70
   160
  1
<>
 71
     2
 42
11.0
 73
     0
 74
     0
 75
     0
  3
SLDDIMSTYLE0
100
AcDbAlignedDimension
 13
73.03335903047187
 23
173.6764232008593
 33
0.0
 14
73.03335903047187
 24
184.6764232008593
 34
0.0
 50
90.0
100
AcDbRotatedDimension
1001
PE_URL
1000

1001
ACAD
1000
DSTYLE
1002
{
1070
   143
1040
0.0393700787
1070
    44
1040
1.0
1070
    42
1040
1.0
1070
   147
1040
1.524
1002
}
  0
DIMENSION
  5
753
330
1F
100
AcDbEntity
  8
0
  6
Continuous
 62
     7
370
     0
100
AcDbDimension
  2
*D70
 10
123.8497208349831
 20
162.1764232008593
 30
0.0
 11
123.8497208349831
 21
173.4264232008593
 31
0.0
 70
   160
  1
<>
 71
     2
 42
22.5
 73
     0
 74
     0
 75
     0
  3
SLDDIMSTYLE0
100
AcDbAlignedDimension
 13
109.0333590304719
 23
184.6764232008593
 33
0.0
 14
109.0333590304719
 24
162.1764232008593
 34
0.0
 50
90.0
100
AcDbRotatedDimension
1001
PE_URL
1000

1001
ACAD
1000
DSTYLE
1002
{
1070
   143
1040
0.0393700787
1070
    44
1040
1.0
1070
    42
1040
1.0
1070
   147
1040
1.524
1002
}
  0
DIMENSION
  5
754
330
1F
100
AcDbEntity
  8
0
  6
Continuous
 62
     7
370
     0
100
AcDbDimension
  2
*D71
 10
109.0333590304719
 20
189.6764232008593
 30
0.0
 11
106.5333590304719
 21
189.6764232008593
 31
0.0
 70
   160
  1
<>
 71
     2
 42
5.0
 73
     0
 74
     0
 75
     0
  3
SLDDIMSTYLE0
100
AcDbAlignedDimension
 13
104.0333590304719
 23
180.4264232008593
 33
0.0
 14
109.0333590304719
 24
184.6764232008593
 34
0.0
100
AcDbRotatedDimension
1001
PE_URL
1000

1001
ACAD
1000
DSTYLE
1002
{
1070
   143
1040
0.0393700787
1070
    44
1040
1.0
1070
    42
1040
1.0
1070
   147
1040
1.524
1002
}
  0
DIMENSION
  5
755
330
1F
100
AcDbEntity
  8
0
  6
Continuous
 62
     7
370
     0
100
AcDbDimension
  2
*D72
 10
89.03335903047187
 20
189.6764232008593
 30
0.0
 11
96.53335903047187
 21
189.6764232008593
 31
0.0
 70
   160
  1
<>
 71
     2
 42
15.0
 73
     0
 74
     0
 75
     0
  3
SLDDIMSTYLE0
100
AcDbAlignedDimension
 13
104.0333590304719
 23
180.4264232008593
 33
0.0
 14
89.03335903047187
 24
180.4264232008593
 34
0.0
100
AcDbRotatedDimension
1001
PE_URL
1000

1001
ACAD
1000
DSTYLE
1002
{
1070
   143
1040
0.0393700787
1070
    44
1040
1.0
1070
    42
1040
1.0
1070
   147
1040
1.524
1002
}
  0
DIMENSION
  5
756
330
1F
100
AcDbEntity
  8
0
  6
Continuous
 62
     7
370
     0
100
AcDbDimension
  2
*D73
 10
109.0333590304719
 20
142.7960360902257
 30
0.0
 11
102.0333590304719
 21
142.7960360902257
 31
0.0
 70
   160
  1
<>
 71
     2
 42
14.0
 73
     0
 74
     0
 75
     0
  3
SLDDIMSTYLE0
100
AcDbAlignedDimension
 13
95.03335903047187
 23
162.1764232008593
 33
0.0
 14
109.0333590304719
 24
162.1764232008593
 34
0.0
100
AcDbRotatedDimension
1001
PE_URL
1000

1001
ACAD
1000
DSTYLE
1002
{
1070
   143
1040
0.0393700787
1070
    44
1040
1.0
1070
    42
1040
1.0
1070
   147
1040
1.524
1002
}
  0
DIMENSION
  5
757
330
1F
100
AcDbEntity
  8
0
  6
Continuous
 62
     7
370
     0
100
AcDbDimension
  2
*D74
 10
97.03335903047187
 20
153.2857117078412
 30
0.0
 11
103.0333590304719
 21
153.2857117078412
 31
0.0
 70
   160
  1
<>
 71
     2
 42
12.0
 73
     0
 74
     0
 75
     0
  3
SLDDIMSTYLE0
100
AcDbAlignedDimension
 13
109.0333590304719
 23
162.1764232008593
 33
0.0
 14
97.03335903047187
 24
165.2077962342593
 34
0.0
100
AcDbRotatedDimension
1001
PE_URL
1000

1001
ACAD
1000
DSTYLE
1002
{
1070
   143
1040
0.0393700787
1070
    44
1040
1.0
1070
    42
1040
1.0
1070
   147
1040
1.524
1002
}
  0
DIMENSION
  5
758
330
1F
100
AcDbEntity
  8
0
  6
Continuous
 62
     7
370
     0
100
AcDbDimension
  2
*D75
 10
116.6920598253161
 20
184.6764232008593
 30
0.0
 11
116.6920598253161
 21
182.5514232008593
 31
0.0
 70
   160
  1
<>
 71
     2
 42
4.25
 73
     0
 74
     0
 75
     0
  3
SLDDIMSTYLE0
100
AcDbAlignedDimension
 13
104.0333590304719
 23
180.4264232008593
 33
0.0
 14
109.0333590304719
 24
184.6764232008593
 34
0.0
 50
90.0
100
AcDbRotatedDimension
1001
PE_URL
1000

1001
ACAD
1000
DSTYLE
1002
{
1070
   143
1040
0.0393700787
1070
    44
1040
1.0
1070
    42
1040
1.0
1070
   147
1040
1.524
1002
}
  0
INSERT
  5
759
330
1F
100
AcDbEntity
  8
LIVELLO1
 62
    18
100
AcDbBlockReference
  2
SW_CENTERMARKSYMBOL_0
 10
104.0333590304719
 20
180.4264232008593
 30
0.0
  0
INSERT
  5
75A
330
1F
100
AcDbEntity
  8
LIVELLO1
 62
    18
100
AcDbBlockReference
  2
SW_CENTERMARKSYMBOL_1
 10
89.03335903047187
 20
180.4264232008593
 30
0.0
  0
ARC
  5
75B
330
1F
100
AcDbEntity
  8
0
  6
Continuous
 62
     7
370
    18
100
AcDbCircle
 10
104.0333590304719
 20
180.4264232008593
 30
0.0
 40
1.999999973922997
100
AcDbArc
 50
255.0000000000002
 51
194.9999999999997
  0
ARC
  5
75C
330
1F
100
AcDbEntity
  8
0
  6
Continuous
 62
     7
370
    18
100
AcDbCircle
 10
89.03335903047187
 20
180.4264232008593
 30
0.0
 40
2.000000774860409
100
AcDbArc
 50
254.9999999999998
 51
194.9999999999997
  0
LINE
  5
75D
330
1F
100
AcDbEntity
  8
0
  6
Continuous
 62
     7
370
    35
100
AcDbLine
 10
143.1854463657719
 20
162.1764232008593
 30
0.0
 11
143.1854463657719
 21
184.6764232008593
 31
0.0
  0
LINE
  5
75E
330
1F
100
AcDbEntity
  8
0
  6
Continuous
 62
     7
370
    35
100
AcDbLine
 10
143.1854463657719
 20
184.6764232008593
 30
0.0
 11
143.6854463657719
 21
184.6764232008593
 31
0.0
  0
LINE
  5
75F
330
1F
100
AcDbEntity
  8
0
  6
Continuous
 62
     7
370
    35
100
AcDbLine
 10
143.6854463657719
 20
184.6764232008593
 30
0.0
 11
143.6854463657719
 21
162.1764232008593
 31
0.0
  0
LINE
  5
760
330
1F
100
AcDbEntity
  8
0
  6
Continuous
 62
     7
370
    35
100
AcDbLine
 10
143.6854463657719
 20
162.1764232008593
 30
0.0
 11
143.1854463657719
 21
162.1764232008593
 31
0.0
  0
LINE
  5
761
330
1F
100
AcDbEntity
  8
0
  6
Continuous
 62
     7
370
    35
100
AcDbLine
 10
130.1854463657719
 20
184.6764232008593
 30
0.0
 11
130.1854463657719
 21
162.1764232008593
 31
0.0
  0
LINE
  5
762
330
1F
100
AcDbEntity
  8
0
  6
Continuous
 62
     7
370
    35
100
AcDbLine
 10
130.1854463657719
 20
184.6764232008593
 30
0.0
 11
136.1854463657719
 21
184.6764232008593
 31
0.0
  0
LINE
  5
763
330
1F
100
AcDbEntity
  8
0
  6
Continuous
 62
     7
370
    35
100
AcDbLine
 10
136.1854463657719
 20
184.6764232008593
 30
0.0
 11
136.1854463657719
 21
173.1450501674593
 31
0.0
  0
ARC
  5
764
330
1F
100
AcDbEntity
  8
0
  6
Continuous
 62
     7
370
    35
100
AcDbCircle
 10
136.6854463657719
 20
169.1764232008593
 30
0.0
 40
4.000000000000001
100
AcDbArc
 50
97.18075578149971
 51
82.81924421849988
  0
LINE
  5
765
330
1F
100
AcDbEntity
  8
0
  6
Continuous
 62
     7
370
    35
100
AcDbLine
 10
137.1854463657719
 20
173.1450501674593
 30
0.0
 11
137.1854463657719
 21
184.6764232008593
 31
0.0
  0
LINE
  5
766
330
1F
100
AcDbEntity
  8
0
  6
Continuous
 62
     7
370
    35
100
AcDbLine
 10
137.1854463657719
 20
184.6764232008593
 30
0.0
 11
143.1854463657719
 21
184.6764232008593
 31
0.0
  0
LINE
  5
767
330
1F
100
AcDbEntity
  8
0
  6
Continuous
 62
     7
370
    35
100
AcDbLine
 10
130.1854463657719
 20
162.1764232008593
 30
0.0
 11
143.1854463657719
 21
162.1764232008593
 31
0.0
  0
LINE
  5
768
330
1F
100
AcDbEntity
  8
0
  6
Continuous
 62
     7
370
    35
100
AcDbLine
 10
129.6854463657719
 20
162.1764232008593
 30
0.0
 11
129.6854463657719
 21
184.6764232008593
 31
0.0
  0
LINE
  5
769
330
1F
100
AcDbEntity
  8
0
  6
Continuous
 62
     7
370
    35
100
AcDbLine
 10
129.6854463657719
 20
184.6764232008593
 30
0.0
 11
130.1854463657719
 21
184.6764232008593
 31
0.0
  0
LINE
  5
76A
330
1F
100
AcDbEntity
  8
0
  6
Continuous
 62
     7
370
    35
100
AcDbLine
 10
130.1854463657719
 20
162.1764232008593
 30
0.0
 11
129.6854463657719
 21
162.1764232008593
 31
0.0
  0
LINE
  5
76B
330
1F
100
AcDbEntity
  8
0
  6
Continuous
 62
     7
370
    35
100
AcDbLine
 10
137.1854463657719
 20
173.1450501674593
 30
0.0
 11
137.1854463657719
 21
165.2077962342593
 31
0.0
  0
LINE
  5
76C
330
1F
100
AcDbEntity
  8
0
  6
Continuous
 62
     7
370
    35
100
AcDbLine
 10
136.1854463657719
 20
165.2077962342593
 30
0.0
 11
136.1854463657719
 21
173.1450501674593
 31
0.0
  0
LINE
  5
76D
330
1F
100
AcDbEntity
  8
0
  6
Continuous
 62
     7
370
    35
100
AcDbLine
 10
136.1854463657719
 20
173.6764232008593
 30
0.0
 11
137.1854463657719
 21
173.6764232008593
 31
0.0
  0
LINE
  5
76E
330
1F
100
AcDbEntity
  8
0
  6
Continuous
 62
     7
370
    35
100
AcDbLine
 10
136.1854463657719
 20
184.6764232008593
 30
0.0
 11
137.1854463657719
 21
184.6764232008593
 31
0.0
  0
LINE
  5
76F
330
1F
100
AcDbEntity
  8
0
  6
HIDDEN
 62
     7
370
    25
100
AcDbLine
 10
133.1854463657719
 20
180.4264232008593
 30
0.0
 11
133.1854463657719
 21
184.4264232008593
 31
0.0
  0
LINE
  5
770
330
1F
100
AcDbEntity
  8
0
  6
HIDDEN
 62
     7
370
    25
100
AcDbLine
 10
133.1854463657719
 20
176.4264232008593
 30
0.0
 11
133.1854463657719
 21
180.4264232008593
 31
0.0
  0
LINE
  5
771
330
1F
100
AcDbEntity
  8
0
  6
HIDDEN
 62
     7
370
    25
100
AcDbLine
 10
129.6854463657719
 20
173.6764232008593
 30
0.0
 11
136.1854463657719
 21
173.6764232008593
 31
0.0
  0
LINE
  5
772
330
1F
100
AcDbEntity
  8
0
  6
HIDDEN
 62
     7
370
    25
100
AcDbLine
 10
143.6854463657719
 20
173.6764232008593
 30
0.0
 11
137.1854463657719
 21
173.6764232008593
 31
0.0
  0
LINE
  5
773
330
1F
100
AcDbEntity
  8
0
  6
HIDDEN
 62
     7
370
    25
100
AcDbLine
 10
129.6854463657719
 20
176.4264232008593
 30
0.0
 11
133.1854463657719
 21
176.4264232008593
 31
0.0
  0
LINE
  5
774
330
1F
100
AcDbEntity
  8
0
  6
HIDDEN
 62
     7
370
    25
100
AcDbLine
 10
133.1854463657719
 20
184.4264232008593
 30
0.0
 11
129.6854463657719
 21
184.4264232008593
 31
0.0
  0
LINE
  5
775
330
1F
100
AcDbEntity
  8
0
  6
HIDDEN
 62
     7
370
    25
100
AcDbLine
 10
133.1854463657719
 20
178.1764232008593
 30
0.0
 11
136.1854463657719
 21
178.1764232008593
 31
0.0
  0
LINE
  5
776
330
1F
100
AcDbEntity
  8
0
  6
HIDDEN
 62
     7
370
    25
100
AcDbLine
 10
136.1854463657719
 20
182.6764232008593
 30
0.0
 11
133.1854463657719
 21
182.6764232008593
 31
0.0
  0
LINE
  5
777
330
1F
100
AcDbEntity
  8
0
  6
HIDDEN
 62
     7
370
    25
100
AcDbLine
 10
137.1854463657719
 20
178.7764232008593
 30
0.0
 11
143.6854463657719
 21
178.7764232008593
 31
0.0
  0
LINE
  5
778
330
1F
100
AcDbEntity
  8
0
  6
HIDDEN
 62
     7
370
    25
100
AcDbLine
 10
143.6854463657719
 20
182.0764232008593
 30
0.0
 11
137.1854463657719
 21
182.0764232008593
 31
0.0
  0
LINE
  5
779
330
1F
100
AcDbEntity
  8
0
  6
HIDDEN
 62
     7
370
    25
100
AcDbLine
 10
140.6854463657719
 20
173.6764232008593
 30
0.0
 11
140.6854463657719
 21
184.6764232008593
 31
0.0
  0
LINE
  5
77A
330
1F
100
AcDbEntity
  8
0
  6
HIDDEN
 62
     7
370
    25
100
AcDbLine
 10
132.6854463657719
 20
184.6764232008593
 30
0.0
 11
132.6854463657719
 21
173.6764232008593
 31
0.0
  0
LINE
  5
77B
330
1F
100
AcDbEntity
  8
0
  6
HIDDEN
 62
     7
370
    18
100
AcDbLine
 10
136.6854463657719
 20
173.6764232008593
 30
0.0
 11
136.6854463657719
 21
184.6764232008593
 31
0.0
  0
DIMENSION
  5
77C
330
1F
100
AcDbEntity
  8
0
  6
Continuous
 62
     7
370
     0
100
AcDbDimension
  2
*D76
 10
157.9103146051227
 20
184.6764232008593
 30
0.0
 11
157.9103146051227
 21
174.9264232008593
 31
0.0
 70
   160
  1
<>
 71
     2
 42
19.5
 73
     0
 74
     0
 75
     0
  3
SLDDIMSTYLE0
100
AcDbAlignedDimension
 13
136.6854463657719
 23
165.1764232008593
 33
0.0
 14
143.1854463657719
 24
184.6764232008593
 34
0.0
 50
90.0
100
AcDbRotatedDimension
1001
PE_URL
1000

1001
ACAD
1000
DSTYLE
1002
{
1070
   143
1040
0.0393700787
1070
    44
1040
1.0
1070
    42
1040
1.0
1070
   147
1040
1.524
1002
}
  0
DIMENSION
  5
77D
330
1F
100
AcDbEntity
  8
0
  6
Continuous
 62
     7
370
     0
100
AcDbDimension
  2
*D77
 10
150.9994694923408
 20
184.6764232008593
 30
0.0
 11
150.9994694923408
 21
176.9264232008593
 31
0.0
 70
   160
  1
<>
 71
     2
 42
15.5
 73
     0
 74
     0
 75
     0
  3
SLDDIMSTYLE0
100
AcDbAlignedDimension
 13
136.6854463657719
 23
169.1764232008593
 33
0.0
 14
143.6854463657719
 24
184.6764232008593
 34
0.0
 50
90.0
100
AcDbRotatedDimension
1001
PE_URL
1000

1001
ACAD
1000
DSTYLE
1002
{
1070
   143
1040
0.0393700787
1070
    44
1040
1.0
1070
    42
1040
1.0
1070
   147
1040
1.524
1002
}
  0
DIMENSION
  5
77E
330
1F
100
AcDbEntity
  8
0
  6
Continuous
 62
     7
370
     0
100
AcDbDimension
  2
*D78
 10
139.1507477106719
 20
166.0264566488593
 30
0.0
 11
146.4824182409339
 21
156.6586294712405
 31
0.0
 70
   163
  1
<>
 71
     1
 42
7.999999999954023
 73
     0
 74
     0
 75
     0
  3
SLDDIMSTYLE0
100
AcDbDiametricDimension
 15
134.2201450207719
 25
172.3263897527593
 35
0.0
 40
0.0
1001
PE_URL
1000

1001
ACAD
1000
DSTYLE
1002
{
1070
   143
1040
0.0393700787
1070
    44
1040
1.0
1070
    42
1040
1.0
1070
   147
1040
1.524
1002
}
  0
LINE
  5
77F
330
1F
100
AcDbEntity
  8
0
  6
HIDDEN
 62
     7
370
    18
100
AcDbLine
 10
143.6854465817719
 20
182.4264232976593
 30
0.0
 11
137.1854463894719
 21
182.4264232976593
 31
0.0
  0
LINE
  5
780
330
1F
100
AcDbEntity
  8
0
  6
HIDDEN
 62
     7
370
    18
100
AcDbLine
 10
137.1854463894719
 20
178.4264231076593
 30
0.0
 11
143.6854465817719
 21
178.4264231076593
 31
0.0
  0
LINE
  5
781
330
1F
100
AcDbEntity
  8
0
  6
Continuous
 62
     7
370
    35
100
AcDbLine
 10
109.0333590304719
 20
224.4938928163593
 30
0.0
 11
108.5333590304719
 21
224.9938928163593
 31
0.0
  0
LINE
  5
782
330
1F
100
AcDbEntity
  8
0
  6
Continuous
 62
     7
370
    35
100
AcDbLine
 10
109.0333590304719
 20
218.4938928163593
 30
0.0
 11
109.0333590304719
 21
224.4938928163593
 31
0.0
  0
LINE
  5
783
330
1F
100
AcDbEntity
  8
0
  6
Continuous
 62
     7
370
    35
100
AcDbLine
 10
95.03335903047187
 20
218.4938928163593
 30
0.0
 11
109.0333590304719
 21
218.4938928163593
 31
0.0
  0
LINE
  5
784
330
1F
100
AcDbEntity
  8
0
  6
Continuous
 62
     7
370
    35
100
AcDbLine
 10
95.03335903047187
 20
218.4938928163593
 30
0.0
 11
95.03335903047187
 21
224.9938928163593
 31
0.0
  0
LINE
  5
785
330
1F
100
AcDbEntity
  8
0
  6
Continuous
 62
     7
370
    35
100
AcDbLine
 10
108.5333590304719
 20
224.9938928163593
 30
0.0
 11
95.03335903047187
 21
224.9938928163593
 31
0.0
  0
ARC
  5
786
330
1F
100
AcDbEntity
  8
0
  6
Continuous
 62
     7
370
    35
100
AcDbCircle
 10
80.03335903047187
 20
217.9938928163593
 30
0.0
 40
4.000000000000001
100
AcDbArc
 50
7.180755781499712
 51
352.8192442184999
  0
LINE
  5
787
330
1F
100
AcDbEntity
  8
0
  6
Continuous
 62
     7
370
    35
100
AcDbLine
 10
84.00198599707187
 20
217.4938928163593
 30
0.0
 11
109.0333590304719
 21
217.4938928163593
 31
0.0
  0
LINE
  5
788
330
1F
100
AcDbEntity
  8
0
  6
Continuous
 62
     7
370
    35
100
AcDbLine
 10
109.0333590304719
 20
211.4938928163593
 30
0.0
 11
109.0333590304719
 21
217.4938928163593
 31
0.0
  0
LINE
  5
789
330
1F
100
AcDbEntity
  8
0
  6
Continuous
 62
     7
370
    35
100
AcDbLine
 10
108.5333590304719
 20
210.9938928163593
 30
0.0
 11
109.0333590304719
 21
211.4938928163593
 31
0.0
  0
LINE
  5
78A
330
1F
100
AcDbEntity
  8
0
  6
Continuous
 62
     7
370
    35
100
AcDbLine
 10
108.5333590304719
 20
210.9938928163593
 30
0.0
 11
80.03335903047187
 21
210.9938928163593
 31
0.0
  0
ARC
  5
78B
330
1F
100
AcDbEntity
  8
0
  6
Continuous
 62
     7
370
    35
100
AcDbCircle
 10
80.03335903047187
 20
217.9938928163593
 30
0.0
 40
6.999999999999996
100
AcDbArc
 50
180.0
 51
270.0
  0
ARC
  5
78C
330
1F
100
AcDbEntity
  8
0
  6
Continuous
 62
     7
370
    35
100
AcDbCircle
 10
80.03335903047187
 20
217.9938928163593
 30
0.0
 40
7.0
100
AcDbArc
 50
90.0
 51
180.0
  0
LINE
  5
78D
330
1F
100
AcDbEntity
  8
0
  6
Continuous
 62
     7
370
    35
100
AcDbLine
 10
94.03335903047187
 20
224.9938928163593
 30
0.0
 11
80.03335903047187
 21
224.9938928163593
 31
0.0
  0
LINE
  5
78E
330
1F
100
AcDbEntity
  8
0
  6
Continuous
 62
     7
370
    35
100
AcDbLine
 10
94.03335903047187
 20
224.9938928163593
 30
0.0
 11
94.03335903047187
 21
218.4938928163593
 31
0.0
  0
LINE
  5
78F
330
1F
100
AcDbEntity
  8
0
  6
Continuous
 62
     7
370
    35
100
AcDbLine
 10
84.00198599707187
 20
218.4938928163593
 30
0.0
 11
94.03335903047187
 21
218.4938928163593
 31
0.0
  0
LINE
  5
790
330
1F
100
AcDbEntity
  8
0
  6
Continuous
 62
     7
370
    35
100
AcDbLine
 10
95.03335903047187
 20
218.4938928163593
 30
0.0
 11
95.03335903047187
 21
217.4938928163593
 31
0.0
  0
LINE
  5
791
330
1F
100
AcDbEntity
  8
0
  6
Continuous
 62
     7
370
    35
100
AcDbLine
 10
109.0333590304719
 20
217.4938928163593
 30
0.0
 11
109.0333590304719
 21
218.4938928163593
 31
0.0
  0
LINE
  5
792
330
1F
100
AcDbEntity
  8
0
  6
HIDDEN
 62
     7
370
    25
100
AcDbLine
 10
93.03335903047187
 20
214.4938928163593
 30
0.0
 11
85.03335903047187
 21
214.4938928163593
 31
0.0
  0
LINE
  5
793
330
1F
100
AcDbEntity
  8
0
  6
HIDDEN
 62
     7
370
    25
100
AcDbLine
 10
108.0333590304719
 20
214.4938928163593
 30
0.0
 11
100.0333590304719
 21
214.4938928163593
 31
0.0
  0
LINE
  5
794
330
1F
100
AcDbEntity
  8
0
  6
HIDDEN
 62
     7
370
    25
100
AcDbLine
 10
95.03335903047187
 20
210.9938928163593
 30
0.0
 11
95.03335903047187
 21
217.4938928163593
 31
0.0
  0
LINE
  5
795
330
1F
100
AcDbEntity
  8
0
  6
HIDDEN
 62
     7
370
    25
100
AcDbLine
 10
97.03335903047187
 20
217.4938928163593
 30
0.0
 11
97.03335903047187
 21
213.9938928163593
 31
0.0
  0
LINE
  5
796
330
1F
100
AcDbEntity
  8
0
  6
HIDDEN
 62
     7
370
    25
100
AcDbLine
 10
97.03335903047187
 20
221.9938928163593
 30
0.0
 11
97.03335903047187
 21
218.4938928163593
 31
0.0
  0
LINE
  5
797
330
1F
100
AcDbEntity
  8
0
  6
HIDDEN
 62
     7
370
    25
100
AcDbLine
 10
93.03335903047187
 20
210.9938928163593
 30
0.0
 11
93.03335903047187
 21
214.4938928163593
 31
0.0
  0
LINE
  5
798
330
1F
100
AcDbEntity
  8
0
  6
HIDDEN
 62
     7
370
    25
100
AcDbLine
 10
85.03335903047187
 20
214.4938928163593
 30
0.0
 11
85.03335903047187
 21
210.9938928163593
 31
0.0
  0
LINE
  5
799
330
1F
100
AcDbEntity
  8
0
  6
HIDDEN
 62
     7
370
    25
100
AcDbLine
 10
108.0333590304719
 20
210.9938928163593
 30
0.0
 11
108.0333590304719
 21
214.4938928163593
 31
0.0
  0
LINE
  5
79A
330
1F
100
AcDbEntity
  8
0
  6
HIDDEN
 62
     7
370
    25
100
AcDbLine
 10
100.0333590304719
 20
214.4938928163593
 30
0.0
 11
100.0333590304719
 21
210.9938928163593
 31
0.0
  0
LINE
  5
79B
330
1F
100
AcDbEntity
  8
0
  6
HIDDEN
 62
     7
370
    25
100
AcDbLine
 10
106.2833590304719
 20
214.4938928163593
 30
0.0
 11
106.2833590304719
 21
217.4938928163593
 31
0.0
  0
LINE
  5
79C
330
1F
100
AcDbEntity
  8
0
  6
HIDDEN
 62
     7
370
    25
100
AcDbLine
 10
101.7833590304719
 20
217.4938928163593
 30
0.0
 11
101.7833590304719
 21
214.4938928163593
 31
0.0
  0
LINE
  5
79D
330
1F
100
AcDbEntity
  8
0
  6
HIDDEN
 62
     7
370
    25
100
AcDbLine
 10
91.28335903047187
 20
214.4938928163593
 30
0.0
 11
91.28335903047187
 21
217.4938928163593
 31
0.0
  0
LINE
  5
79E
330
1F
100
AcDbEntity
  8
0
  6
HIDDEN
 62
     7
370
    25
100
AcDbLine
 10
86.78335903047187
 20
217.4938928163593
 30
0.0
 11
86.78335903047187
 21
214.4938928163593
 31
0.0
  0
LINE
  5
79F
330
1F
100
AcDbEntity
  8
0
  6
HIDDEN
 62
     7
370
    25
100
AcDbLine
 10
90.68335903047188
 20
218.4938928163593
 30
0.0
 11
90.68335903047188
 21
224.9938928163593
 31
0.0
  0
LINE
  5
7A0
330
1F
100
AcDbEntity
  8
0
  6
HIDDEN
 62
     7
370
    25
100
AcDbLine
 10
87.38335903047187
 20
224.9938928163593
 30
0.0
 11
87.38335903047187
 21
218.4938928163593
 31
0.0
  0
LINE
  5
7A1
330
1F
100
AcDbEntity
  8
0
  6
HIDDEN
 62
     7
370
    25
100
AcDbLine
 10
105.6833590304719
 20
218.4938928163593
 30
0.0
 11
105.6833590304719
 21
224.9938928163593
 31
0.0
  0
LINE
  5
7A2
330
1F
100
AcDbEntity
  8
0
  6
HIDDEN
 62
     7
370
    25
100
AcDbLine
 10
102.3833590304719
 20
224.9938928163593
 30
0.0
 11
102.3833590304719
 21
218.4938928163593
 31
0.0
  0
LINE
  5
7A3
330
1F
100
AcDbEntity
  8
0
  6
HIDDEN
 62
     7
370
    25
100
AcDbLine
 10
109.0333590304719
 20
221.9938928163593
 30
0.0
 11
97.03335903047187
 21
221.9938928163593
 31
0.0
  0
LINE
  5
7A4
330
1F
100
AcDbEntity
  8
0
  6
HIDDEN
 62
     7
370
    25
100
AcDbLine
 10
97.03335903047187
 20
213.9938928163593
 30
0.0
 11
109.0333590304719
 21
213.9938928163593
 31
0.0
  0
DIMENSION
  5
7A5
330
1F
100
AcDbEntity
  8
0
  6
Continuous
 62
     7
370
     0
100
AcDbDimension
  2
*D79
 10
77.28902110697187
 20
220.9039803342593
 30
0.0
 11
67.13024127294912
 21
231.676319315889
 31
0.0
 70
   163
  1
<>
 71
     1
 42
8.00000000004941
 73
     0
 74
     0
 75
     0
  3
SLDDIMSTYLE0
100
AcDbDiametricDimension
 15
82.77769695397187
 25
215.0838052984593
 35
0.0
 40
0.0
1001
PE_URL
1000

1001
ACAD
1000
DSTYLE
1002
{
1070
   143
1040
0.0393700787
1070
    44
1040
1.0
1070
    42
1040
1.0
1070
   147
1040
1.524
1002
}
  0
DIMENSION
  5
7A6
330
1F
100
AcDbEntity
  8
0
  6
Continuous
 62
     7
370
     0
100
AcDbDimension
  2
*D80
 10
73.03335903047187
 20
246.606802320086
 30
0.0
 11
91.03335903047187
 21
246.606802320086
 31
0.0
 70
   160
  1
<>
 71
     2
 42
36.0
 73
     0
 74
     0
 75
     0
  3
SLDDIMSTYLE0
100
AcDbAlignedDimension
 13
109.0333590304719
 23
217.4938928163593
 33
0.0
 14
73.03335903047187
 24
217.9938928163593
 34
0.0
100
AcDbRotatedDimension
1001
PE_URL
1000

1001
ACAD
1000
DSTYLE
1002
{
1070
   143
1040
0.0393700787
1070
    44
1040
1.0
1070
    42
1040
1.0
1070
   147
1040
1.524
1002
}
  0
DIMENSION
  5
7A7
330
1F
100
AcDbEntity
  8
0
  6
Continuous
 62
     7
370
     0
100
AcDbDimension
  2
*D81
 10
109.0333590304719
 20
239.399778131042
 30
0.0
 11
93.91095254282418
 21
239.399778131042
 31
0.0
 70
   160
  1
<>
 71
     2
 42
29.0
 73
     0
 74
     0
 75
     0
  3
SLDDIMSTYLE0
100
AcDbAlignedDimension
 13
80.03335903047187
 23
217.9938928163593
 33
0.0
 14
109.0333590304719
 24
224.4938928163593
 34
0.0
100
AcDbRotatedDimension
1001
PE_URL
1000

1001
ACAD
1000
DSTYLE
1002
{
1070
   143
1040
0.0393700787
1070
    44
1040
1.0
1070
    42
1040
1.0
1070
   147
1040
1.524
1002
}
  0
DIMENSION
  5
7A8
330
1F
100
AcDbEntity
  8
0
  6
Continuous
 62
     7
370
     0
100
AcDbDimension
  2
*D82
 10
80.03335903047187
 20
217.9938928163593
 30
0.0
 11
66.37428639080159
 21
204.2200380877379
 31
0.0
 70
   164
  1
<>
 71
     1
 42
7.000000000017776
 73
     0
 74
     0
 75
     0
  3
SLDDIMSTYLE0
100
AcDbRadialDimension
 15
75.10436494147187
 25
213.0234786212593
 35
0.0
 40
0.0
1001
PE_URL
1000

1001
ACAD
1000
DSTYLE
1002
{
1070
   143
1040
0.0393700787
1070
    44
1040
1.0
1070
    42
1040
1.0
1070
   147
1040
1.524
1002
}
  0
DIMENSION
  5
7A9
330
1F
100
AcDbEntity
  8
0
  6
Continuous
 62
     7
370
     0
100
AcDbDimension
  2
*D83
 10
102.0333590304719
 20
229.9938928163593
 30
0.0
 11
104.6011298957719
 21
229.9938928163593
 31
0.0
 70
   160
  1
2xM4
 71
     2
 42
4.0
 73
     0
 74
     0
 75
     0
  3
SLDDIMSTYLE0
100
AcDbAlignedDimension
 13
106.0333590304719
 23
224.9938928163593
 33
0.0
 14
102.0333590304719
 24
224.9938928163593
 34
0.0
100
AcDbRotatedDimension
1001
PE_URL
1000

1001
ACAD
1000
DSTYLE
1002
{
1070
   143
1040
0.0393700787
1070
    44
1040
1.0
1070
    42
1040
1.0
1070
   147
1040
1.524
1002
}
  0
LINE
  5
7AA
330
1F
100
AcDbEntity
  8
0
  6
HIDDEN
 62
     7
370
    18
100
AcDbLine
 10
102.0333588143719
 20
224.9938930324593
 30
0.0
 11
102.0333588143719
 21
218.4938928401593
 31
0.0
  0
LINE
  5
7AB
330
1F
100
AcDbEntity
  8
0
  6
HIDDEN
 62
     7
370
    18
100
AcDbLine
 10
106.0333590043719
 20
218.4938928401593
 30
0.0
 11
106.0333590043719
 21
224.9938930324593
 31
0.0
  0
LINE
  5
7AC
330
1F
100
AcDbEntity
  8
0
  6
HIDDEN
 62
     7
370
    18
100
AcDbLine
 10
87.03335914967187
 20
224.9938930324593
 30
0.0
 11
87.03335914967187
 21
218.4938928401593
 31
0.0
  0
LINE
  5
7AD
330
1F
100
AcDbEntity
  8
0
  6
HIDDEN
 62
     7
370
    18
100
AcDbLine
 10
91.03335980527187
 20
218.4938928401593
 30
0.0
 11
91.03335980527187
 21
224.9938930324593
 31
0.0
  0
ENDSEC
  0
SECTION
  2
OBJECTS
  0
DICTIONARY
  5
C
330
0
100
AcDbDictionary
281
     1
  3
ACAD_DETAILVIEWSTYLE
350
278
  3
ACAD_GROUP
350
D
  3
ACAD_LAYOUT
350
1A
  3
ACAD_MATERIAL
350
26A
  3
ACAD_MLEADERSTYLE
350
270
  3
ACAD_MLINESTYLE
350
17
  3
ACAD_PLOTSETTINGS
350
19
  3
ACAD_PLOTSTYLENAME
350
E
  3
ACAD_SCALELIST
350
22F
  3
ACAD_SECTIONVIEWSTYLE
350
279
  3
ACAD_TABLESTYLE
350
26E
  3
ACAD_VISUALSTYLE
350
251
  3
ACDB_RECOMPOSE_DATA
350
862
  3
AcDbVariableDictionary
350
273
  3
APPDATA
350
272
  0
SUN
  5
544
330
29
100
AcDbSun
 90
        1
290
     0
 63
     7
421
 16777215
 40
1.0
291
     1
 91
  2455826
 92
 54000000
292
     0
 70
     2
 71
   256
280
     1
  0
DICTIONARY
  5
3DD
330
2
100
AcDbDictionary
280
     1
281
     1
  3
ACAD_LAYERSTATES
360
3DE
  0
DICTIONARY
  5
278
102
{ACAD_REACTORS
330
C
102
}
330
C
100
AcDbDictionary
281
     1
  0
DICTIONARY
  5
D
102
{ACAD_REACTORS
330
C
102
}
330
C
100
AcDbDictionary
281
     1
  0
DICTIONARY
  5
1A
102
{ACAD_REACTORS
330
C
102
}
330
C
100
AcDbDictionary
281
     1
  3
Layout1
350
1E
  3
Layout2
350
26
  3
Model
350
22
  0
DICTIONARY
  5
26A
102
{ACAD_REACTORS
330
C
102
}
330
C
100
AcDbDictionary
281
     1
  3
ByBlock
350
26C
  3
ByLayer
350
26B
  3
Global
350
26D
  0
DICTIONARY
  5
270
102
{ACAD_REACTORS
330
C
102
}
330
C
100
AcDbDictionary
281
     1
  3
Standard
350
271
  0
DICTIONARY
  5
17
102
{ACAD_REACTORS
330
C
102
}
330
C
100
AcDbDictionary
281
     1
  3
Standard
350
18
  0
DICTIONARY
  5
19
102
{ACAD_REACTORS
330
C
102
}
330
C
100
AcDbDictionary
281
     1
  0
ACDBDICTIONARYWDFLT
  5
E
102
{ACAD_REACTORS
330
C
102
}
330
C
100
AcDbDictionary
281
     1
  3
Normal
350
F
100
AcDbDictionaryWithDefault
340
F
  0
DICTIONARY
  5
22F
102
{ACAD_REACTORS
330
C
102
}
330
C
100
AcDbDictionary
281
     1
  3
A0
350
230
  3
A1
350
231
  3
A2
350
232
  3
A3
350
233
  3
A4
350
234
  3
A5
350
235
  3
A6
350
236
  3
A7
350
237
  3
A8
350
238
  3
A9
350
239
  3
B0
350
23A
  3
B1
350
23B
  3
B2
350
23C
  3
B3
350
23D
  3
B4
350
23E
  3
B5
350
23F
  3
B6
350
240
  3
B7
350
241
  3
B8
350
242
  3
B9
350
243
  3
C0
350
244
  3
C1
350
245
  3
C2
350
246
  3
C3
350
247
  3
C4
350
248
  3
C5
350
249
  3
C6
350
24A
  3
C7
350
24B
  3
C8
350
24C
  3
C9
350
24D
  3
D0
350
24E
  3
D1
350
24F
  3
D2
350
250
  0
DICTIONARY
  5
279
102
{ACAD_REACTORS
330
C
102
}
330
C
100
AcDbDictionary
281
     1
  0
DICTIONARY
  5
26E
102
{ACAD_REACTORS
330
C
102
}
330
C
100
AcDbDictionary
281
     1
  3
Standard
350
26F
  0
DICTIONARY
  5
251
102
{ACAD_REACTORS
330
C
102
}
330
C
100
AcDbDictionary
281
     1
  3
2dWireframe
350
256
  3
Basic
350
259
  3
Brighten
350
25D
  3
ColorChange
350
261
  3
Conceptual
350
25B
  3
Dim
350
25C
  3
EdgeColorOff
350
264
  3
Facepattern
350
260
  3
Flat
350
252
  3
FlatWithEdges
350
253
  3
Gouraud
350
254
  3
GouraudWithEdges
350
255
  3
Hidden
350
258
  3
JitterOff
350
262
  3
Linepattern
350
25F
  3
OverhangOff
350
263
  3
Realistic
350
25A
  3
Shaded
350
269
  3
Shaded with edges
350
268
  3
Shades of Gray
350
265
  3
Sketchy
350
266
  3
Thicken
350
25E
  3
Wireframe
350
257
  3
X-Ray
350
267
  0
XRECORD
  5
862
102
{ACAD_REACTORS
330
C
102
}
330
C
100
AcDbXrecord
280
     1
 90
        1
330
26F
  0
DICTIONARY
  5
273
102
{ACAD_REACTORS
330
C
102
}
330
C
100
AcDbDictionary
281
     1
  3
CANNOSCALE
350
274
  3
CMLEADERSTYLE
350
276
  3
CTABLESTYLE
350
275
  3
MSLTSCALE
350
277
  3
XCLIPFRAME
350
85F
  0
DICTIONARY
  5
272
102
{ACAD_REACTORS
330
C
102
}
330
C
100
AcDbDictionary
281
     1
  0
DICTIONARY
  5
3DE
102
{ACAD_REACTORS
330
3DD
102
}
330
3DD
100
AcDbDictionary
281
     1
  0
LAYOUT
  5
1E
102
{ACAD_REACTORS
330
1A
102
}
330
1A
100
AcDbPlotSettings
  1

  2

  4

  6

 40
0.0
 41
0.0
 42
0.0
 43
0.0
 44
0.0
 45
0.0
 46
0.0
 47
0.0
 48
0.0
 49
0.0
140
0.0
141
0.0
142
1.0
143
1.0
 70
   688
 72
     0
 73
     0
 74
     5
  7

 75
    16
 76
     0
 77
     2
 78
   300
147
1.0
148
0.0
149
0.0
100
AcDbLayout
  1
Layout1
 70
     1
 71
     1
 10
0.0
 20
0.0
 11
0.0
 21
0.0
 12
0.0
 22
0.0
 32
0.0
 14
0.0
 24
0.0
 34
0.0
 15
0.0
 25
0.0
 35
0.0
146
0.0
 13
0.0
 23
0.0
 33
0.0
 16
1.0
 26
0.0
 36
0.0
 17
0.0
 27
1.0
 37
0.0
 76
     0
330
1B
  0
LAYOUT
  5
26
102
{ACAD_REACTORS
330
1A
102
}
330
1A
100
AcDbPlotSettings
  1

  2

  4

  6

 40
0.0
 41
0.0
 42
0.0
 43
0.0
 44
0.0
 45
0.0
 46
0.0
 47
0.0
 48
0.0
 49
0.0
140
0.0
141
0.0
142
1.0
143
1.0
 70
   688
 72
     0
 73
     0
 74
     5
  7

 75
    16
 76
     0
 77
     2
 78
   300
147
1.0
148
0.0
149
0.0
100
AcDbLayout
  1
Layout2
 70
     1
 71
     2
 10
0.0
 20
0.0
 11
0.0
 21
0.0
 12
0.0
 22
0.0
 32
0.0
 14
0.0
 24
0.0
 34
0.0
 15
0.0
 25
0.0
 35
0.0
146
0.0
 13
0.0
 23
0.0
 33
0.0
 16
1.0
 26
0.0
 36
0.0
 17
0.0
 27
1.0
 37
0.0
 76
     0
330
23
  0
LAYOUT
  5
22
102
{ACAD_REACTORS
330
1A
102
}
330
1A
100
AcDbPlotSettings
  1

  2

  4

  6

 40
0.0
 41
0.0
 42
0.0
 43
0.0
 44
0.0
 45
0.0
 46
0.0
 47
0.0
 48
0.0
 49
0.0
140
0.0
141
0.0
142
1.0
143
1.0
 70
  1712
 72
     0
 73
     0
 74
     0
  7

 75
     0
 76
     0
 77
     2
 78
   300
147
1.0
148
0.0
149
0.0
100
AcDbLayout
  1
Model
 70
     1
 71
     0
 10
0.0
 20
0.0
 11
0.0
 21
0.0
 12
0.0
 22
0.0
 32
0.0
 14
20.2604743903
 24
10.0
 34
0.0
 15
196.7604743903
 25
285.0
 35
0.0
146
0.0
 13
0.0
 23
0.0
 33
0.0
 16
1.0
 26
0.0
 36
0.0
 17
0.0
 27
1.0
 37
0.0
 76
     0
330
1F
331
29
  0
MATERIAL
  5
26C
102
{ACAD_REACTORS
330
26A
102
}
330
26A
100
AcDbMaterial
  1
ByBlock
 72
     1
 94
      127
  0
MATERIAL
  5
26B
102
{ACAD_REACTORS
330
26A
102
}
330
26A
100
AcDbMaterial
  1
ByLayer
 72
     1
 94
      127
  0
MATERIAL
  5
26D
102
{ACAD_REACTORS
330
26A
102
}
330
26A
100
AcDbMaterial
  1
Global
 72
     1
 94
      127
  0
MLEADERSTYLE
  5
271
102
{ACAD_REACTORS
330
270
102
}
330
270
100
AcDbMLeaderStyle
170
     2
171
     1
172
     0
 90
        2
 40
0.0
 41
0.0
173
     1
 91
-1056964608
340
14
 92
       -2
290
     1
 42
2.0
291
     1
 43
8.0
  3
Standard
341
0
 44
4.0
300

342
11
174
     1
178
     1
175
     1
176
     0
 93
-1056964608
 45
4.0
292
     0
297
     0
 46
4.0
343
0
 94
-1056964608
 47
1.0
 49
1.0
140
1.0
293
     1
141
0.0
294
     1
177
     0
142
1.0
295
     0
296
     0
143
3.75
1001
ACAD_MLEADERVER
1070
     2
  0
MLINESTYLE
  5
18
102
{ACAD_REACTORS
330
17
102
}
330
17
100
AcDbMlineStyle
  2
Standard
 70
     0
  3

 62
   256
 51
90.0
 52
90.0
 71
     2
 49
0.5
 62
   256
  6
BYLAYER
 49
-0.5
 62
   256
  6
BYLAYER
  0
ACDBPLACEHOLDER
  5
F
102
{ACAD_REACTORS
330
E
102
}
330
E
  0
SCALE
  5
230
102
{ACAD_REACTORS
330
22F
102
}
330
22F
100
AcDbScale
 70
     0
300
1:1
140
1.0
141
1.0
290
     1
  0
SCALE
  5
231
102
{ACAD_REACTORS
330
22F
102
}
330
22F
100
AcDbScale
 70
     0
300
1:2
140
1.0
141
2.0
290
     0
  0
SCALE
  5
232
102
{ACAD_REACTORS
330
22F
102
}
330
22F
100
AcDbScale
 70
     0
300
1:4
140
1.0
141
4.0
290
     0
  0
SCALE
  5
233
102
{ACAD_REACTORS
330
22F
102
}
330
22F
100
AcDbScale
 70
     0
300
1:5
140
1.0
141
5.0
290
     0
  0
SCALE
  5
234
102
{ACAD_REACTORS
330
22F
102
}
330
22F
100
AcDbScale
 70
     0
300
1:8
140
1.0
141
8.0
290
     0
  0
SCALE
  5
235
102
{ACAD_REACTORS
330
22F
102
}
330
22F
100
AcDbScale
 70
     0
300
1:10
140
1.0
141
10.0
290
     0
  0
SCALE
  5
236
102
{ACAD_REACTORS
330
22F
102
}
330
22F
100
AcDbScale
 70
     0
300
1:16
140
1.0
141
16.0
290
     0
  0
SCALE
  5
237
102
{ACAD_REACTORS
330
22F
102
}
330
22F
100
AcDbScale
 70
     0
300
1:20
140
1.0
141
20.0
290
     0
  0
SCALE
  5
238
102
{ACAD_REACTORS
330
22F
102
}
330
22F
100
AcDbScale
 70
     0
300
1:30
140
1.0
141
30.0
290
     0
  0
SCALE
  5
239
102
{ACAD_REACTORS
330
22F
102
}
330
22F
100
AcDbScale
 70
     0
300
1:40
140
1.0
141
40.0
290
     0
  0
SCALE
  5
23A
102
{ACAD_REACTORS
330
22F
102
}
330
22F
100
AcDbScale
 70
     0
300
1:50
140
1.0
141
50.0
290
     0
  0
SCALE
  5
23B
102
{ACAD_REACTORS
330
22F
102
}
330
22F
100
AcDbScale
 70
     0
300
1:100
140
1.0
141
100.0
290
     0
  0
SCALE
  5
23C
102
{ACAD_REACTORS
330
22F
102
}
330
22F
100
AcDbScale
 70
     0
300
2:1
140
2.0
141
1.0
290
     0
  0
SCALE
  5
23D
102
{ACAD_REACTORS
330
22F
102
}
330
22F
100
AcDbScale
 70
     0
300
4:1
140
4.0
141
1.0
290
     0
  0
SCALE
  5
23E
102
{ACAD_REACTORS
330
22F
102
}
330
22F
100
AcDbScale
 70
     0
300
8:1
140
8.0
141
1.0
290
     0
  0
SCALE
  5
23F
102
{ACAD_REACTORS
330
22F
102
}
330
22F
100
AcDbScale
 70
     0
300
10:1
140
10.0
141
1.0
290
     0
  0
SCALE
  5
240
102
{ACAD_REACTORS
330
22F
102
}
330
22F
100
AcDbScale
 70
     0
300
100:1
140
100.0
141
1.0
290
     0
  0
SCALE
  5
241
102
{ACAD_REACTORS
330
22F
102
}
330
22F
100
AcDbScale
 70
     0
300
1/128" = 1'-0"
140
0.0078125
141
12.0
290
     0
  0
SCALE
  5
242
102
{ACAD_REACTORS
330
22F
102
}
330
22F
100
AcDbScale
 70
     0
300
1/64" = 1'-0"
140
0.015625
141
12.0
290
     0
  0
SCALE
  5
243
102
{ACAD_REACTORS
330
22F
102
}
330
22F
100
AcDbScale
 70
     0
300
1/32" = 1'-0"
140
0.03125
141
12.0
290
     0
  0
SCALE
  5
244
102
{ACAD_REACTORS
330
22F
102
}
330
22F
100
AcDbScale
 70
     0
300
1/16" = 1'-0"
140
0.0625
141
12.0
290
     0
  0
SCALE
  5
245
102
{ACAD_REACTORS
330
22F
102
}
330
22F
100
AcDbScale
 70
     0
300
3/32" = 1'-0"
140
0.09375
141
12.0
290
     0
  0
SCALE
  5
246
102
{ACAD_REACTORS
330
22F
102
}
330
22F
100
AcDbScale
 70
     0
300
1/8" = 1'-0"
140
0.125
141
12.0
290
     0
  0
SCALE
  5
247
102
{ACAD_REACTORS
330
22F
102
}
330
22F
100
AcDbScale
 70
     0
300
3/16" = 1'-0"
140
0.1875
141
12.0
290
     0
  0
SCALE
  5
248
102
{ACAD_REACTORS
330
22F
102
}
330
22F
100
AcDbScale
 70
     0
300
1/4" = 1'-0"
140
0.25
141
12.0
290
     0
  0
SCALE
  5
249
102
{ACAD_REACTORS
330
22F
102
}
330
22F
100
AcDbScale
 70
     0
300
3/8" = 1'-0"
140
0.375
141
12.0
290
     0
  0
SCALE
  5
24A
102
{ACAD_REACTORS
330
22F
102
}
330
22F
100
AcDbScale
 70
     0
300
1/2" = 1'-0"
140
0.5
141
12.0
290
     0
  0
SCALE
  5
24B
102
{ACAD_REACTORS
330
22F
102
}
330
22F
100
AcDbScale
 70
     0
300
3/4" = 1'-0"
140
0.75
141
12.0
290
     0
  0
SCALE
  5
24C
102
{ACAD_REACTORS
330
22F
102
}
330
22F
100
AcDbScale
 70
     0
300
1" = 1'-0"
140
1.0
141
12.0
290
     0
  0
SCALE
  5
24D
102
{ACAD_REACTORS
330
22F
102
}
330
22F
100
AcDbScale
 70
     0
300
1-1/2" = 1'-0"
140
1.5
141
12.0
290
     0
  0
SCALE
  5
24E
102
{ACAD_REACTORS
330
22F
102
}
330
22F
100
AcDbScale
 70
     0
300
3" = 1'-0"
140
3.0
141
12.0
290
     0
  0
SCALE
  5
24F
102
{ACAD_REACTORS
330
22F
102
}
330
22F
100
AcDbScale
 70
     0
300
6" = 1'-0"
140
6.0
141
12.0
290
     0
  0
SCALE
  5
250
102
{ACAD_REACTORS
330
22F
102
}
330
22F
100
AcDbScale
 70
     0
300
1'-0" = 1'-0"
140
12.0
141
12.0
290
     0
  0
TABLESTYLE
  5
26F
102
{ACAD_REACTORS
330
26E
102
}
102
{ACAD_XDICTIONARY
360
860
102
}
330
26E
100
AcDbTableStyle
  3
Standard
 70
     0
 71
     0
 40
0.06
 41
0.06
280
     0
281
     0
  7
Standard
140
4.5
170
     2
 62
     0
 63
   257
283
     0
 90
        4
 91
        0
  1

274
    -2
284
     1
 64
     0
275
    -2
285
     1
 65
     0
276
    -2
286
     1
 66
     0
277
    -2
287
     1
 67
     0
278
    -2
288
     1
 68
     0
279
    -2
289
     1
 69
     0
  7
Standard
140
6.0
170
     5
 62
     0
 63
   257
283
     0
 90
        4
 91
        0
  1

274
    -2
284
     1
 64
     0
275
    -2
285
     1
 65
     0
276
    -2
286
     1
 66
     0
277
    -2
287
     1
 67
     0
278
    -2
288
     1
 68
     0
279
    -2
289
     1
 69
     0
  7
Standard
140
4.5
170
     5
 62
     0
 63
   257
283
     0
 90
        4
 91
        0
  1

274
    -2
284
     1
 64
     0
275
    -2
285
     1
 65
     0
276
    -2
286
     1
 66
     0
277
    -2
287
     1
 67
     0
278
    -2
288
     1
 68
     0
279
    -2
289
     1
 69
     0
  0
VISUALSTYLE
  5
256
102
{ACAD_REACTORS
330
251
102
}
330
251
100
AcDbVisualStyle
  2
2dWireframe
 70
     4
 71
     0
 72
     2
 73
     0
 90
        0
 40
0.6
 41
30.0
 62
     5
 63
     7
421
 16777215
 74
     1
 91
        4
 64
     7
 65
   257
 75
     1
175
     1
 42
1.0
 92
        0
 66
   257
 43
1.0
 76
     1
 77
     6
 78
     2
 67
     7
 79
     5
170
     0
171
     0
290
     0
174
     0
 93
        1
 44
0.0
173
     0
291
     0
 45
0.0
  0
VISUALSTYLE
  5
259
102
{ACAD_REACTORS
330
251
102
}
330
251
100
AcDbVisualStyle
  2
Basic
 70
     7
 71
     1
 72
     0
 73
     1
 90
        0
 40
0.6
 41
30.0
 62
     5
 63
     7
421
 16777215
 74
     0
 91
        4
 64
     7
 65
   257
 75
     1
175
     1
 42
1.0
 92
        8
 66
     7
 43
1.0
 76
     1
 77
     6
 78
     2
 67
     7
 79
     5
170
     0
171
     0
290
     0
174
     0
 93
        1
 44
0.0
173
     0
291
     1
 45
0.0
  0
VISUALSTYLE
  5
25D
102
{ACAD_REACTORS
330
251
102
}
330
251
100
AcDbVisualStyle
  2
Brighten
 70
    12
 71
     2
 72
     2
 73
     0
 90
        0
 40
0.6
 41
30.0
 62
     5
 63
     7
421
 16777215
 74
     1
 91
        4
 64
     7
 65
   257
 75
     1
175
     1
 42
1.0
 92
        8
 66
     7
 43
1.0
 76
     1
 77
     6
 78
     2
 67
     7
 79
     5
170
     0
171
     0
290
     0
174
     0
 93
        1
 44
50.0
173
     0
291
     1
 45
0.0
  0
VISUALSTYLE
  5
261
102
{ACAD_REACTORS
330
251
102
}
330
251
100
AcDbVisualStyle
  2
ColorChange
 70
    16
 71
     2
 72
     2
 73
     3
 90
        0
 40
0.6
 41
30.0
 62
     5
 63
     8
421
  8421504
 74
     1
 91
        4
 64
     7
 65
   257
 75
     1
175
     1
 42
1.0
 92
        8
 66
     8
424
  8421504
 43
1.0
 76
     1
 77
     6
 78
     2
 67
     7
 79
     5
170
     0
171
     0
290
     0
174
     0
 93
        1
 44
0.0
173
     0
291
     1
 45
0.0
  0
VISUALSTYLE
  5
25B
102
{ACAD_REACTORS
330
251
102
}
330
251
100
AcDbVisualStyle
  2
Conceptual
 70
     9
 71
     3
 72
     2
 73
     0
 90
        0
 40
0.6
 41
30.0
 62
     5
 63
     7
421
 16777215
 74
     2
 91
        2
 64
     7
 65
   257
 75
     1
175
     1
 42
179.0
 92
        8
 66
     7
 43
1.0
 76
     1
 77
     6
 78
     2
 67
     7
 79
     3
170
     0
171
     0
290
     0
174
     0
 93
        1
 44
0.0
173
     0
291
     0
 45
0.0
  0
VISUALSTYLE
  5
25C
102
{ACAD_REACTORS
330
251
102
}
330
251
100
AcDbVisualStyle
  2
Dim
 70
    11
 71
     2
 72
     2
 73
     0
 90
        0
 40
0.6
 41
30.0
 62
     5
 63
     7
421
 16777215
 74
     1
 91
        4
 64
     7
 65
   257
 75
     1
175
     1
 42
1.0
 92
        8
 66
     7
 43
1.0
 76
     1
 77
     6
 78
     2
 67
     7
 79
     5
170
     0
171
     0
290
     0
174
     0
 93
        1
 44
-50.0
173
     0
291
     1
 45
0.0
  0
VISUALSTYLE
  5
264
102
{ACAD_REACTORS
330
251
102
}
330
251
100
AcDbVisualStyle
  2
EdgeColorOff
 70
    22
 71
     2
 72
     2
 73
     0
 90
        0
 40
0.6
 41
30.0
 62
     5
 63
     7
421
 16777215
 74
     1
 91
        4
 64
     7
 65
   257
 75
     1
175
     1
 42
1.0
 92
        8
 66
     7
 43
1.0
 76
     1
 77
     6
 78
     2
 67
     7
 79
     5
170
     0
171
     0
290
     0
174
     0
 93
        1
 44
0.0
173
     0
291
     1
 45
0.0
  0
VISUALSTYLE
  5
260
102
{ACAD_REACTORS
330
251
102
}
330
251
100
AcDbVisualStyle
  2
Facepattern
 70
    15
 71
     2
 72
     2
 73
     0
 90
        0
 40
0.6
 41
30.0
 62
     5
 63
     7
421
 16777215
 74
     1
 91
        4
 64
     7
 65
   257
 75
     1
175
     1
 42
1.0
 92
        8
 66
     7
 43
1.0
 76
     1
 77
     6
 78
     2
 67
     7
 79
     5
170
     0
171
     0
290
     0
174
     0
 93
        1
 44
0.0
173
     0
291
     1
 45
0.0
  0
VISUALSTYLE
  5
252
102
{ACAD_REACTORS
330
251
102
}
330
251
100
AcDbVisualStyle
  2
Flat
 70
     0
 71
     2
 72
     1
 73
     1
 90
        2
 40
0.6
 41
30.0
 62
     5
 63
     7
421
 16777215
 74
     0
 91
        0
 64
     7
 65
   257
 75
     1
175
     1
 42
1.0
 92
        8
 66
     7
 43
1.0
 76
     1
 77
     6
 78
     2
 67
     7
 79
     5
170
     0
171
     0
290
     0
174
     0
 93
       13
 44
0.0
173
     0
291
     1
 45
0.0
  0
VISUALSTYLE
  5
253
102
{ACAD_REACTORS
330
251
102
}
330
251
100
AcDbVisualStyle
  2
FlatWithEdges
 70
     1
 71
     2
 72
     1
 73
     1
 90
        2
 40
0.6
 41
30.0
 62
     5
 63
     7
421
 16777215
 74
     1
 91
        0
 64
     7
 65
   257
 75
     1
175
     1
 42
1.0
 92
        0
 66
   257
 43
1.0
 76
     1
 77
     6
 78
     2
 67
     7
 79
     5
170
     0
171
     0
290
     0
174
     0
 93
       13
 44
0.0
173
     0
291
     1
 45
0.0
  0
VISUALSTYLE
  5
254
102
{ACAD_REACTORS
330
251
102
}
330
251
100
AcDbVisualStyle
  2
Gouraud
 70
     2
 71
     2
 72
     2
 73
     1
 90
        2
 40
0.6
 41
30.0
 62
     5
 63
     7
421
 16777215
 74
     0
 91
        0
 64
     7
 65
   257
 75
     1
175
     1
 42
1.0
 92
        0
 66
     7
 43
1.0
 76
     1
 77
     6
 78
     2
 67
     7
 79
     5
170
     0
171
     0
290
     0
174
     0
 93
       13
 44
0.0
173
     0
291
     1
 45
0.0
  0
VISUALSTYLE
  5
255
102
{ACAD_REACTORS
330
251
102
}
330
251
100
AcDbVisualStyle
  2
GouraudWithEdges
 70
     3
 71
     2
 72
     2
 73
     1
 90
        2
 40
0.6
 41
30.0
 62
     5
 63
     7
421
 16777215
 74
     1
 91
        0
 64
     7
 65
   257
 75
     1
175
     1
 42
1.0
 92
        0
 66
   257
 43
1.0
 76
     1
 77
     6
 78
     2
 67
     7
 79
     5
170
     0
171
     0
290
     0
174
     0
 93
       13
 44
0.0
173
     0
291
     1
 45
0.0
  0
VISUALSTYLE
  5
258
102
{ACAD_REACTORS
330
251
102
}
330
251
100
AcDbVisualStyle
  2
Hidden
 70
     6
 71
     1
 72
     2
 73
     2
 90
        0
 40
0.6
 41
30.0
 62
     5
 63
     7
421
 16777215
 74
     2
 91
        2
 64
     7
 65
   257
 75
     2
175
     1
 42
40.0
 92
        0
 66
   257
 43
1.0
 76
     1
 77
     6
 78
     2
 67
     7
 79
     3
170
     0
171
     0
290
     0
174
     0
 93
        1
 44
0.0
173
     0
291
     0
 45
0.0
  0
VISUALSTYLE
  5
262
102
{ACAD_REACTORS
330
251
102
}
330
251
100
AcDbVisualStyle
  2
JitterOff
 70
    20
 71
     2
 72
     2
 73
     0
 90
        0
 40
0.6
 41
30.0
 62
     5
 63
     7
421
 16777215
 74
     1
 91
        4
 64
     7
 65
   257
 75
     1
175
     1
 42
1.0
 92
       10
 66
     7
 43
1.0
 76
     1
 77
     6
 78
     2
 67
     7
 79
     5
170
     0
171
     0
290
     0
174
     0
 93
        1
 44
0.0
173
     0
291
     1
 45
0.0
  0
VISUALSTYLE
  5
25F
102
{ACAD_REACTORS
330
251
102
}
330
251
100
AcDbVisualStyle
  2
Linepattern
 70
    14
 71
     2
 72
     2
 73
     0
 90
        0
 40
0.6
 41
30.0
 62
     5
 63
     7
421
 16777215
 74
     1
 91
        4
 64
     7
 65
   257
 75
     7
175
     7
 42
1.0
 92
        8
 66
     7
 43
1.0
 76
     1
 77
     6
 78
     2
 67
     7
 79
     5
170
     0
171
     0
290
     0
174
     0
 93
        1
 44
0.0
173
     0
291
     1
 45
0.0
  0
VISUALSTYLE
  5
263
102
{ACAD_REACTORS
330
251
102
}
330
251
100
AcDbVisualStyle
  2
OverhangOff
 70
    21
 71
     2
 72
     2
 73
     0
 90
        0
 40
0.6
 41
30.0
 62
     5
 63
     7
421
 16777215
 74
     1
 91
        4
 64
     7
 65
   257
 75
     1
175
     1
 42
1.0
 92
        9
 66
     7
 43
1.0
 76
     1
 77
     6
 78
     2
 67
     7
 79
     5
170
     0
171
     0
290
     0
174
     0
 93
        1
 44
0.0
173
     0
291
     1
 45
0.0
  0
VISUALSTYLE
  5
25A
102
{ACAD_REACTORS
330
251
102
}
330
251
100
AcDbVisualStyle
  2
Realistic
 70
     8
 71
     2
 72
     3
 73
     0
 90
        2
 40
0.6
 41
30.0
 62
     5
 63
     7
421
 16777215
 74
     0
 91
        0
 64
     7
 65
   257
 75
     1
175
     1
 42
1.0
 92
        8
 66
   257
 43
1.0
 76
     1
 77
     6
 78
     2
 67
     7
 79
     3
170
     0
171
     0
290
     0
174
     0
 93
       13
 44
0.0
173
     0
291
     0
 45
0.0
  0
VISUALSTYLE
  5
269
102
{ACAD_REACTORS
330
251
102
}
330
251
100
AcDbVisualStyle
  2
Shaded
 70
    27
 71
     2
 72
     2
 73
     1
 90
        2
 40
0.6
 41
30.0
 62
     5
 63
     7
421
 16777215
 74
     0
 91
        4
 64
     7
 65
   257
 75
     1
175
     1
 42
1.0
 92
        8
 66
   257
 43
1.0
 76
     1
 77
     6
 78
     2
 67
     8
425
  7895160
 79
     3
170
     0
171
     0
290
     0
174
     0
 93
        5
 44
0.0
173
     0
291
     0
 45
0.0
  0
VISUALSTYLE
  5
268
102
{ACAD_REACTORS
330
251
102
}
330
251
100
AcDbVisualStyle
  2
Shaded with edges
 70
    26
 71
     2
 72
     2
 73
     1
 90
        2
 40
0.6
 41
30.0
 62
     5
 63
     7
421
 16777215
 74
     1
 91
       10
 64
     7
 65
   257
 75
     2
175
     1
 42
1.0
 92
        8
 66
   257
 43
1.0
 76
     1
 77
     6
 78
     2
 67
     7
 79
     3
170
     0
171
     0
290
     0
174
     0
 93
        5
 44
0.0
173
     0
291
     0
 45
0.0
  0
VISUALSTYLE
  5
265
102
{ACAD_REACTORS
330
251
102
}
330
251
100
AcDbVisualStyle
  2
Shades of Gray
 70
    23
 71
     2
 72
     2
 73
     3
 90
        0
 40
0.6
 41
30.0
 62
     5
 63
     7
421
 16777215
 74
     2
 91
        2
 64
     7
 65
     7
 75
     1
175
     1
 42
40.0
 92
        8
 66
     7
 43
1.0
 76
     1
 77
     6
 78
     2
 67
     7
 79
     3
170
     0
171
     0
290
     0
174
     0
 93
        1
 44
0.0
173
     0
291
     0
 45
0.0
  0
VISUALSTYLE
  5
266
102
{ACAD_REACTORS
330
251
102
}
330
251
100
AcDbVisualStyle
  2
Sketchy
 70
    24
 71
     1
 72
     2
 73
     2
 90
        0
 40
0.6
 41
30.0
 62
     5
 63
     7
421
 16777215
 74
     2
 91
        2
 64
     7
 65
     7
 75
     1
175
     1
 42
40.0
 92
       11
 66
     7
 43
1.0
 76
     1
 77
     6
 78
     2
 67
     7
 79
     6
170
     0
171
     0
290
     0
174
     0
 93
        1
 44
0.0
173
     0
291
     0
 45
0.0
  0
VISUALSTYLE
  5
25E
102
{ACAD_REACTORS
330
251
102
}
330
251
100
AcDbVisualStyle
  2
Thicken
 70
    13
 71
     2
 72
     2
 73
     0
 90
        0
 40
0.6
 41
30.0
 62
     5
 63
     7
421
 16777215
 74
     1
 91
        4
 64
     7
 65
   257
 75
     1
175
     1
 42
1.0
 92
       12
 66
     7
 43
1.0
 76
     1
 77
     6
 78
     2
 67
     7
 79
     5
170
     0
171
     0
290
     0
174
     0
 93
        1
 44
0.0
173
     0
291
     1
 45
0.0
  0
VISUALSTYLE
  5
257
102
{ACAD_REACTORS
330
251
102
}
330
251
100
AcDbVisualStyle
  2
Wireframe
 70
     5
 71
     0
 72
     2
 73
     0
 90
        0
 40
0.6
 41
30.0
 62
     5
 63
     7
421
 16777215
 74
     1
 91
        4
 64
     7
 65
   257
 75
     1
175
     1
 42
1.0
 92
        0
 66
   257
 43
1.0
 76
     1
 77
     6
 78
     2
 67
     7
 79
     3
170
     0
171
     0
290
     0
174
     0
 93
        1
 44
0.0
173
     0
291
     0
 45
0.0
  0
VISUALSTYLE
  5
267
102
{ACAD_REACTORS
330
251
102
}
330
251
100
AcDbVisualStyle
  2
X-Ray
 70
    25
 71
     2
 72
     2
 73
     1
 90
        1
 40
0.5
 41
30.0
 62
     5
 63
     7
421
 16777215
 74
     1
 91
        0
 64
     7
 65
   257
 75
     1
175
     1
 42
1.0
 92
        8
 66
     7
 43
1.0
 76
     1
 77
     6
 78
     2
 67
     7
 79
     3
170
     0
171
     0
290
     0
174
     0
 93
       13
 44
0.0
173
     0
291
     0
 45
0.0
  0
DICTIONARYVAR
  5
274
102
{ACAD_REACTORS
330
273
102
}
330
273
100
DictionaryVariables
280
     0
  1
1:1
  0
DICTIONARYVAR
  5
276
102
{ACAD_REACTORS
330
273
102
}
330
273
100
DictionaryVariables
280
     0
  1
Standard
  0
DICTIONARYVAR
  5
275
102
{ACAD_REACTORS
330
273
102
}
330
273
100
DictionaryVariables
280
     0
  1
Standard
  0
DICTIONARYVAR
  5
277
102
{ACAD_REACTORS
330
273
102
}
330
273
100
DictionaryVariables
280
     0
  1
0
  0
DICTIONARYVAR
  5
85F
102
{ACAD_REACTORS
330
273
102
}
330
273
100
DictionaryVariables
280
     0
  1
0
  0
DICTIONARY
  5
860
330
26F
100
AcDbDictionary
280
     1
281
     1
  3
ACAD_ROUNDTRIP_2008_TABLESTYLE_CELLSTYLEMAP
360
861
  0
CELLSTYLEMAP
  5
861
102
{ACAD_REACTORS
330
860
102
}
330
860
100
AcDbCellStyleMap
 90
        3
300
CELLSTYLE
  1
TABLEFORMAT_BEGIN
 90
        5
170
     1
 91
        0
 92
    32768
 62
   257
 93
        1
300
CONTENTFORMAT
  1
CONTENTFORMAT_BEGIN
 90
        0
 91
        0
 92
        4
 93
        0
300

 40
0.0
140
1.0
 94
        5
 62
     0
340
11
144
6.0
309
CONTENTFORMAT_END
171
     1
301
MARGIN
  1
CELLMARGIN_BEGIN
 40
1.5
 40
1.5
 40
1.5
 40
1.5
 40
1.5
 40
1.5
309
CELLMARGIN_END
 94
        6
 95
        1
302
GRIDFORMAT
  1
GRIDFORMAT_BEGIN
 90
        0
 91
        1
 62
     0
 92
       -2
340
14
 93
        0
 40
0.045
309
GRIDFORMAT_END
 95
        2
302
GRIDFORMAT
  1
GRIDFORMAT_BEGIN
 90
        0
 91
        1
 62
     0
 92
       -2
340
14
 93
        0
 40
0.045
309
GRIDFORMAT_END
 95
        4
302
GRIDFORMAT
  1
GRIDFORMAT_BEGIN
 90
        0
 91
        1
 62
     0
 92
       -2
340
14
 93
        0
 40
0.045
309
GRIDFORMAT_END
 95
        8
302
GRIDFORMAT
  1
GRIDFORMAT_BEGIN
 90
        0
 91
        1
 62
     0
 92
       -2
340
14
 93
        0
 40
0.045
309
GRIDFORMAT_END
 95
       16
302
GRIDFORMAT
  1
GRIDFORMAT_BEGIN
 90
        0
 91
        1
 62
     0
 92
       -2
340
14
 93
        0
 40
0.045
309
GRIDFORMAT_END
 95
       32
302
GRIDFORMAT
  1
GRIDFORMAT_BEGIN
 90
        0
 91
        1
 62
     0
 92
       -2
340
14
 93
        0
 40
0.045
309
GRIDFORMAT_END
309
TABLEFORMAT_END
  1
CELLSTYLE_BEGIN
 90
        1
 91
        1
300
_TITLE
309
CELLSTYLE_END
300
CELLSTYLE
  1
TABLEFORMAT_BEGIN
 90
        5
170
     1
 91
        0
 92
        0
 62
   257
 93
        1
300
CONTENTFORMAT
  1
CONTENTFORMAT_BEGIN
 90
        0
 91
        0
 92
        4
 93
        0
300

 40
0.0
140
1.0
 94
        5
 62
     0
340
11
144
4.5
309
CONTENTFORMAT_END
171
     1
301
MARGIN
  1
CELLMARGIN_BEGIN
 40
1.5
 40
1.5
 40
1.5
 40
1.5
 40
1.5
 40
1.5
309
CELLMARGIN_END
 94
        6
 95
        1
302
GRIDFORMAT
  1
GRIDFORMAT_BEGIN
 90
        0
 91
        1
 62
     0
 92
       -2
340
14
 93
        0
 40
0.045
309
GRIDFORMAT_END
 95
        2
302
GRIDFORMAT
  1
GRIDFORMAT_BEGIN
 90
        0
 91
        1
 62
     0
 92
       -2
340
14
 93
        0
 40
0.045
309
GRIDFORMAT_END
 95
        4
302
GRIDFORMAT
  1
GRIDFORMAT_BEGIN
 90
        0
 91
        1
 62
     0
 92
       -2
340
14
 93
        0
 40
0.045
309
GRIDFORMAT_END
 95
        8
302
GRIDFORMAT
  1
GRIDFORMAT_BEGIN
 90
        0
 91
        1
 62
     0
 92
       -2
340
14
 93
        0
 40
0.045
309
GRIDFORMAT_END
 95
       16
302
GRIDFORMAT
  1
GRIDFORMAT_BEGIN
 90
        0
 91
        1
 62
     0
 92
       -2
340
14
 93
        0
 40
0.045
309
GRIDFORMAT_END
 95
       32
302
GRIDFORMAT
  1
GRIDFORMAT_BEGIN
 90
        0
 91
        1
 62
     0
 92
       -2
340
14
 93
        0
 40
0.045
309
GRIDFORMAT_END
309
TABLEFORMAT_END
  1
CELLSTYLE_BEGIN
 90
        2
 91
        1
300
_HEADER
309
CELLSTYLE_END
300
CELLSTYLE
  1
TABLEFORMAT_BEGIN
 90
        5
170
     1
 91
        0
 92
        0
 62
   257
 93
        1
300
CONTENTFORMAT
  1
CONTENTFORMAT_BEGIN
 90
        0
 91
        0
 92
        4
 93
        0
300

 40
0.0
140
1.0
 94
        2
 62
     0
340
11
144
4.5
309
CONTENTFORMAT_END
171
     1
301
MARGIN
  1
CELLMARGIN_BEGIN
 40
1.5
 40
1.5
 40
1.5
 40
1.5
 40
1.5
 40
1.5
309
CELLMARGIN_END
 94
        6
 95
        1
302
GRIDFORMAT
  1
GRIDFORMAT_BEGIN
 90
        0
 91
        1
 62
     0
 92
       -2
340
14
 93
        0
 40
0.045
309
GRIDFORMAT_END
 95
        2
302
GRIDFORMAT
  1
GRIDFORMAT_BEGIN
 90
        0
 91
        1
 62
     0
 92
       -2
340
14
 93
        0
 40
0.045
309
GRIDFORMAT_END
 95
        4
302
GRIDFORMAT
  1
GRIDFORMAT_BEGIN
 90
        0
 91
        1
 62
     0
 92
       -2
340
14
 93
        0
 40
0.045
309
GRIDFORMAT_END
 95
        8
302
GRIDFORMAT
  1
GRIDFORMAT_BEGIN
 90
        0
 91
        1
 62
     0
 92
       -2
340
14
 93
        0
 40
0.045
309
GRIDFORMAT_END
 95
       16
302
GRIDFORMAT
  1
GRIDFORMAT_BEGIN
 90
        0
 91
        1
 62
     0
 92
       -2
340
14
 93
        0
 40
0.045
309
GRIDFORMAT_END
 95
       32
302
GRIDFORMAT
  1
GRIDFORMAT_BEGIN
 90
        0
 91
        1
 62
     0
 92
       -2
340
14
 93
        0
 40
0.045
309
GRIDFORMAT_END
309
TABLEFORMAT_END
  1
CELLSTYLE_BEGIN
 90
        3
 91
        2
300
_DATA
309
CELLSTYLE_END
  0
ENDSEC
  0
EOF
