  0
SECTION
  2
HEADER
  9
$ACADVER
  1
AC1015
  9
$ACADMAINTVER
 70
     6
  9
$DWGCODEPAGE
  3
DOS932
  9
$INSBASE
 10
0.0
 20
0.0
 30
0.0
  9
$EXTMIN
 10
0.0
 20
0.0
 30
0.0
  9
$EXTMAX
 10
210.0
 20
297.0
 30
0.0
  9
$LIMMIN
 10
0.0
 20
0.0
  9
$LIMMAX
 10
210.0
 20
297.0
  9
$ORTHOMODE
 70
     0
  9
$REGENMODE
 70
     1
  9
$FILLMODE
 70
     1
  9
$QTEXTMODE
 70
     0
  9
$MIRRTEXT
 70
     1
  9
$LTSCALE
 40
1.0
  9
$ATTMODE
 70
     1
  9
$TEXTSIZE
 40
3.5
  9
$TRACEWID
 40
1.0
  9
$TEXTSTYLE
  7
Standard
  9
$CLAYER
  8
0
  9
$CELTYPE
  6
ByLayer
  9
$CECOLOR
 62
   256
  9
$CELTSCALE
 40
1.0
  9
$DISPSILH
 70
     0
  9
$DIMSCALE
 40
1.0
  9
$DIMASZ
 40
3.0
  9
$DIMEXO
 40
1.0
  9
$DIMDLI
 40
3.75
  9
$DIMRND
 40
0.0
  9
$DIMDLE
 40
0.0
  9
$DIMEXE
 40
1.0
  9
$DIMTP
 40
0.0
  9
$DIMTM
 40
0.0
  9
$DIMTXT
 40
3.5
  9
$DIMCEN
 40
2.5
  9
$DIMTSZ
 40
0.0
  9
$DIMTOL
 70
     0
  9
$DIMLIM
 70
     0
  9
$DIMTIH
 70
     1
  9
$DIMTOH
 70
     1
  9
$DIMSE1
 70
     0
  9
$DIMSE2
 70
     0
  9
$DIMTAD
 70
     1
  9
$DIMZIN
 70
     0
  9
$DIMBLK
  1

  9
$DIMASO
 70
     1
  9
$DIMSHO
 70
     1
  9
$DIMPOST
  1

  9
$DIMAPOST
  1

  9
$DIMALT
 70
     0
  9
$DIMALTD
 70
     3
  9
$DIMALTF
 40
0.0393700787
  9
$DIMLFAC
 40
1.0
  9
$DIMTOFL
 70
     1
  9
$DIMTVP
 40
0.0
  9
$DIMTIX
 70
     0
  9
$DIMSOXD
 70
     0
  9
$DIMSAH
 70
     0
  9
$DIMBLK1
  1

  9
$DIMBLK2
  1

  9
$DIMSTYLE
  2
ISO-25
  9
$DIMCLRD
 70
     0
  9
$DIMCLRE
 70
     0
  9
$DIMCLRT
 70
     0
  9
$DIMTFAC
 40
1.0
  9
$DIMGAP
 40
1.524
  9
$DIMJUST
 70
     0
  9
$DIMSD1
 70
     0
  9
$DIMSD2
 70
     0
  9
$DIMTOLJ
 70
     0
  9
$DIMTZIN
 70
     0
  9
$DIMALTZ
 70
     0
  9
$DIMALTTZ
 70
     0
  9
$DIMUPT
 70
     0
  9
$DIMDEC
 70
     1
  9
$DIMTDEC
 70
     3
  9
$DIMALTU
 70
     2
  9
$DIMALTTD
 70
     3
  9
$DIMTXSTY
  7
Standard
  9
$DIMAUNIT
 70
     0
  9
$DIMADEC
 70
     2
  9
$DIMALTRND
 40
0.0
  9
$DIMAZIN
 70
     0
  9
$DIMDSEP
 70
    44
  9
$DIMATFIT
 70
     3
  9
$DIMFRAC
 70
     0
  9
$DIMLDRBLK
  1

  9
$DIMLUNIT
 70
     2
  9
$DIMLWD
 70
    -2
  9
$DIMLWE
 70
    -2
  9
$DIMTMOVE
 70
     0
  9
$LUNITS
 70
     2
  9
$LUPREC
 70
     1
  9
$SKETCHINC
 40
1.0
  9
$FILLETRAD
 40
10.0
  9
$AUNITS
 70
     0
  9
$AUPREC
 70
     2
  9
$MENU
  1
.
  9
$ELEVATION
 40
0.0
  9
$PELEVATION
 40
0.0
  9
$THICKNESS
 40
0.0
  9
$LIMCHECK
 70
     0
  9
$CHAMFERA
 40
0.0
  9
$CHAMFERB
 40
0.0
  9
$CHAMFERC
 40
0.0
  9
$CHAMFERD
 40
0.0
  9
$SKPOLY
 70
     0
  9
$TDCREATE
 40
2458491.689146806
  9
$TDUCREATE
 40
2458491.314146806
  9
$TDUPDATE
 40
2458491.689149699
  9
$TDUUPDATE
 40
2458491.314149699
  9
$TDINDWG
 40
0.0000000116
  9
$TDUSRTIMER
 40
0.0000000116
  9
$USRTIMER
 70
     1
  9
$ANGBASE
 50
0.0
  9
$ANGDIR
 70
     0
  9
$PDMODE
 70
     0
  9
$PDSIZE
 40
-1.0
  9
$PLINEWID
 40
0.0
  9
$SPLFRAME
 70
     0
  9
$SPLINETYPE
 70
     6
  9
$SPLINESEGS
 70
     8
  9
$HANDSEED
  5
3FE
  9
$SURFTAB1
 70
     6
  9
$SURFTAB2
 70
     6
  9
$SURFTYPE
 70
     6
  9
$SURFU
 70
     6
  9
$SURFV
 70
     6
  9
$UCSBASE
  2

  9
$UCSNAME
  2

  9
$UCSORG
 10
0.0
 20
0.0
 30
0.0
  9
$UCSXDIR
 10
1.0
 20
0.0
 30
0.0
  9
$UCSYDIR
 10
0.0
 20
1.0
 30
0.0
  9
$UCSORTHOREF
  2

  9
$UCSORTHOVIEW
 70
     0
  9
$UCSORGTOP
 10
0.0
 20
0.0
 30
0.0
  9
$UCSORGBOTTOM
 10
0.0
 20
0.0
 30
0.0
  9
$UCSORGLEFT
 10
0.0
 20
0.0
 30
0.0
  9
$UCSORGRIGHT
 10
0.0
 20
0.0
 30
0.0
  9
$UCSORGFRONT
 10
0.0
 20
0.0
 30
0.0
  9
$UCSORGBACK
 10
0.0
 20
0.0
 30
0.0
  9
$PUCSBASE
  2

  9
$PUCSNAME
  2

  9
$PUCSORG
 10
0.0
 20
0.0
 30
0.0
  9
$PUCSXDIR
 10
1.0
 20
0.0
 30
0.0
  9
$PUCSYDIR
 10
0.0
 20
1.0
 30
0.0
  9
$PUCSORTHOREF
  2

  9
$PUCSORTHOVIEW
 70
     0
  9
$PUCSORGTOP
 10
0.0
 20
0.0
 30
0.0
  9
$PUCSORGBOTTOM
 10
0.0
 20
0.0
 30
0.0
  9
$PUCSORGLEFT
 10
0.0
 20
0.0
 30
0.0
  9
$PUCSORGRIGHT
 10
0.0
 20
0.0
 30
0.0
  9
$PUCSORGFRONT
 10
0.0
 20
0.0
 30
0.0
  9
$PUCSORGBACK
 10
0.0
 20
0.0
 30
0.0
  9
$USERI1
 70
     0
  9
$USERI2
 70
     0
  9
$USERI3
 70
     0
  9
$USERI4
 70
     0
  9
$USERI5
 70
     0
  9
$USERR1
 40
0.0
  9
$USERR2
 40
0.0
  9
$USERR3
 40
0.0
  9
$USERR4
 40
0.0
  9
$USERR5
 40
0.0
  9
$WORLDVIEW
 70
     1
  9
$SHADEDGE
 70
     3
  9
$SHADEDIF
 70
    70
  9
$TILEMODE
 70
     1
  9
$MAXACTVP
 70
    64
  9
$PINSBASE
 10
0.0
 20
0.0
 30
0.0
  9
$PLIMCHECK
 70
     0
  9
$PEXTMIN
 10
1.0000000000E+20
 20
1.0000000000E+20
 30
1.0000000000E+20
  9
$PEXTMAX
 10
-1.0000000000E+20
 20
-1.0000000000E+20
 30
-1.0000000000E+20
  9
$PLIMMIN
 10
0.0
 20
0.0
  9
$PLIMMAX
 10
420.0
 20
297.0
  9
$UNITMODE
 70
     0
  9
$VISRETAIN
 70
     1
  9
$PLINEGEN
 70
     0
  9
$PSLTSCALE
 70
     1
  9
$TREEDEPTH
 70
  3020
  9
$CMLSTYLE
  2
Standard
  9
$CMLJUST
 70
     0
  9
$CMLSCALE
 40
20.0
  9
$PROXYGRAPHICS
 70
     1
  9
$MEASUREMENT
 70
     1
  9
$CELWEIGHT
370
    -1
  9
$ENDCAPS
280
     0
  9
$JOINSTYLE
280
     0
  9
$LWDISPLAY
290
     1
  9
$INSUNITS
 70
     4
  9
$HYPERLINKBASE
  1

  9
$STYLESHEET
  1

  9
$XEDIT
290
     1
  9
$CEPSNTYPE
380
     0
  9
$PSTYLEMODE
290
     1
  9
$FINGERPRINTGUID
  2
{B7F714D9-7124-46BB-9A86-44FF42EEFE3F}
  9
$VERSIONGUID
  2
{FAEB1C32-E019-11D5-929B-00C0DF256EC4}
  9
$EXTNAMES
290
     1
  9
$PSVPSCALE
 40
0.0
  9
$OLESTARTUP
290
     0
  0
ENDSEC
  0
SECTION
  2
CLASSES
  0
CLASS
  1
ACDBDICTIONARYWDFLT
  2
AcDbDictionaryWithDefault
  3
ObjectDBX Classes
 90
        0
280
     0
281
     0
  0
CLASS
  1
VISUALSTYLE
  2
AcDbVisualStyle
  3
ObjectDBX Classes
 90
     4095
280
     0
281
     0
  0
CLASS
  1
MATERIAL
  2
AcDbMaterial
  3
ObjectDBX Classes
 90
     1153
280
     0
281
     0
  0
CLASS
  1
SCALE
  2
AcDbScale
  3
ObjectDBX Classes
 90
     1153
280
     0
281
     0
  0
CLASS
  1
TABLESTYLE
  2
AcDbTableStyle
  3
ObjectDBX Classes
 90
     4095
280
     0
281
     0
  0
CLASS
  1
MLEADERSTYLE
  2
AcDbMLeaderStyle
  3
ACDB_MLEADERSTYLE_CLASS
 90
     4095
280
     0
281
     0
  0
CLASS
  1
SUN
  2
AcDbSun
  3
SCENEOE
 90
     1153
280
     0
281
     0
  0
CLASS
  1
ACDBPLACEHOLDER
  2
AcDbPlaceHolder
  3
ObjectDBX Classes
 90
        0
280
     0
281
     0
  0
CLASS
  1
LAYOUT
  2
AcDbLayout
  3
ObjectDBX Classes
 90
        0
280
     0
281
     0
  0
ENDSEC
  0
SECTION
  2
TABLES
  0
TABLE
  2
VPORT
  5
8
330
0
100
AcDbSymbolTable
 70
     1
  0
VPORT
  5
29
330
8
100
AcDbSymbolTableRecord
100
AcDbViewportTableRecord
  2
*Active
 70
     0
 10
0.0
 20
0.0
 11
1.0
 21
1.0
 12
105.0
 22
148.5
 13
0.0
 23
0.0
 14
10.0
 24
10.0
 15
10.0
 25
10.0
 16
0.0
 26
0.0
 36
1.0
 17
0.0
 27
0.0
 37
0.0
 40
297.0
 41
0.7070707071
 42
50.0
 43
0.0
 44
0.0
 50
0.0
 51
0.0
 71
     0
 72
  2000
 73
     1
 74
     3
 75
     0
 76
     0
 77
     0
 78
     0
281
     0
 65
     1
110
0.0
120
0.0
130
0.0
111
1.0
121
0.0
131
0.0
112
0.0
122
1.0
132
0.0
 79
     0
146
0.0
  0
ENDTAB
  0
TABLE
  2
LTYPE
  5
5
330
0
100
AcDbSymbolTable
 70
     6
  0
LTYPE
  5
14
330
5
100
AcDbSymbolTableRecord
100
AcDbLinetypeTableRecord
  2
ByBlock
 70
     0
  3

 72
    65
 73
     0
 40
0.0
  0
LTYPE
  5
15
330
5
100
AcDbSymbolTableRecord
100
AcDbLinetypeTableRecord
  2
ByLayer
 70
     0
  3

 72
    65
 73
     0
 40
0.0
  0
LTYPE
  5
16
330
5
100
AcDbSymbolTableRecord
100
AcDbLinetypeTableRecord
  2
Continuous
 70
     0
  3
Solid line
 72
    65
 73
     0
 40
0.0
  0
LTYPE
  5
6E
330
5
100
AcDbSymbolTableRecord
100
AcDbLinetypeTableRecord
  2
HIDDEN
 70
     0
  3
Hidden __ __ __ __ __ __ __ __ __ __ __ __ __ __
 72
    65
 73
     2
 40
1.905
 49
1.27
 74
     0
 49
-0.635
 74
     0
  0
LTYPE
  5
6F
330
5
100
AcDbSymbolTableRecord
100
AcDbLinetypeTableRecord
  2
PHANTOM
 70
     0
  3
Phantom ______  __  __  ______  __  __  ______
 72
    65
 73
     6
 40
12.7
 49
6.35
 74
     0
 49
-1.27
 74
     0
 49
1.27
 74
     0
 49
-1.27
 74
     0
 49
1.27
 74
     0
 49
-1.27
 74
     0
  0
LTYPE
  5
70
330
5
100
AcDbSymbolTableRecord
100
AcDbLinetypeTableRecord
  2
CENTER
 70
     0
  3
Center ____ _ ____ _ ____ _ ____ _ ____ _ ____
 72
    65
 73
     4
 40
10.16
 49
6.35
 74
     0
 49
-1.27
 74
     0
 49
1.27
 74
     0
 49
-1.27
 74
     0
  0
LTYPE
  5
71
330
5
100
AcDbSymbolTableRecord
100
AcDbLinetypeTableRecord
  2
CENTERX2
 70
     0
  3
Center (2x) ________  __  ________  __  _____
 72
    65
 73
     4
 40
20.32
 49
12.7
 74
     0
 49
-2.54
 74
     0
 49
2.54
 74
     0
 49
-2.54
 74
     0
  0
LTYPE
  5
72
330
5
100
AcDbSymbolTableRecord
100
AcDbLinetypeTableRecord
  2
DOT2
 70
     0
  3
Dot (.5x) ........................................
 72
    65
 73
     2
 40
0.635
 49
0.0
 74
     0
 49
-0.635
 74
     0
  0
ENDTAB
  0
TABLE
  2
LAYER
  5
2
330
0
100
AcDbSymbolTable
 70
     1
  0
LAYER
  5
10
330
2
100
AcDbSymbolTableRecord
100
AcDbLayerTableRecord
  2
0
 70
     0
 62
     7
  6
Continuous
370
    -3
390
F
  0
ENDTAB
  0
TABLE
  2
STYLE
  5
3
330
0
100
AcDbSymbolTable
 70
     2
  0
STYLE
  5
11
330
3
100
AcDbSymbolTableRecord
100
AcDbTextStyleTableRecord
  2
Standard
 70
     0
 40
0.0
 41
1.0
 50
0.0
 71
     0
 42
3.5
  3
txt
  4
bigfont
  0
STYLE
  5
7B
330
3
100
AcDbSymbolTableRecord
100
AcDbTextStyleTableRecord
  2
SLDTEXTSTYLE0
 70
     0
 40
0.0
 41
0.7
 50
0.0
 71
     0
 42
3.5
  3
TXT
  4
bigfont
  0
ENDTAB
  0
TABLE
  2
VIEW
  5
6
330
0
100
AcDbSymbolTable
 70
     0
  0
ENDTAB
  0
TABLE
  2
UCS
  5
7
330
0
100
AcDbSymbolTable
 70
     0
  0
ENDTAB
  0
TABLE
  2
APPID
  5
9
330
0
100
AcDbSymbolTable
 70
     1
  0
APPID
  5
12
330
9
100
AcDbSymbolTableRecord
100
AcDbRegAppTableRecord
  2
ACAD
 70
     0
  0
ENDTAB
  0
TABLE
  2
DIMSTYLE
  5
A
330
0
100
AcDbSymbolTable
 70
     4
100
AcDbDimStyleTable
  0
DIMSTYLE
105
27
330
A
100
AcDbSymbolTableRecord
100
AcDbDimStyleTableRecord
  2
ISO-25
 70
     0
 41
2.5
 42
0.625
 43
3.75
 44
1.25
 73
     0
 74
     0
 77
     1
 78
     8
140
2.5
141
2.5
143
0.0393700787
147
0.625
171
     3
172
     1
178
     0
271
     2
272
     2
274
     3
278
    44
283
     0
284
     8
340
11
  0
DIMSTYLE
105
216
102
{ACAD_REACTORS
330
215
330
22E
330
238
330
39C
330
3A6
330
3B0
102
}
330
A
100
AcDbSymbolTableRecord
100
AcDbDimStyleTableRecord
  2
SLDDIMSTYLE0
 70
     0
 41
3.0
 44
0.0
 45
0.000000001
 73
     0
 74
     0
 77
     3
 78
    12
 79
     3
140
3.5
147
0.875
173
     1
178
     0
271
     1
272
     3
276
     2
284
    12
340
7B
  0
DIMSTYLE
105
222
102
{ACAD_REACTORS
330
221
102
}
330
A
100
AcDbSymbolTableRecord
100
AcDbDimStyleTableRecord
  2
SLDDIMSTYLE1
 70
     0
 41
3.0
 44
0.0
 45
0.000000001
 73
     0
 74
     0
 77
     3
 78
    12
 79
     3
140
3.5
147
0.875
172
     1
173
     1
178
     0
271
     1
272
     3
276
     2
284
    12
289
     0
340
7B
  0
DIMSTYLE
105
3C0
330
A
100
AcDbSymbolTableRecord
100
AcDbDimStyleTableRecord
  2
SLDDIMSTYLE2
 70
     0
 41
3.0
 44
0.0
 45
0.000000001
146
3.0
147
0.0
173
     1
178
     0
271
     0
272
     0
276
     2
340
11
  0
ENDTAB
  0
TABLE
  2
BLOCK_RECORD
  5
1
330
0
100
AcDbSymbolTable
 70
    14
  0
BLOCK_RECORD
  5
1F
330
1
100
AcDbSymbolTableRecord
100
AcDbBlockTableRecord
  2
*Model_Space
340
22
  0
BLOCK_RECORD
  5
1B
330
1
100
AcDbSymbolTableRecord
100
AcDbBlockTableRecord
  2
*Paper_Space
340
1E
  0
BLOCK_RECORD
  5
23
330
1
100
AcDbSymbolTableRecord
100
AcDbBlockTableRecord
  2
*Paper_Space0
340
26
  0
BLOCK_RECORD
  5
217
330
1
100
AcDbSymbolTableRecord
100
AcDbBlockTableRecord
  2
_D
340
0
  0
BLOCK_RECORD
  5
223
330
1
100
AcDbSymbolTableRecord
100
AcDbBlockTableRecord
  2
_D_1
340
0
  0
BLOCK_RECORD
  5
22F
330
1
100
AcDbSymbolTableRecord
100
AcDbBlockTableRecord
  2
_D_2
340
0
  0
BLOCK_RECORD
  5
239
330
1
100
AcDbSymbolTableRecord
100
AcDbBlockTableRecord
  2
_D_3
340
0
  0
BLOCK_RECORD
  5
39D
330
1
100
AcDbSymbolTableRecord
100
AcDbBlockTableRecord
  2
_D_4
340
0
  0
BLOCK_RECORD
  5
3A7
330
1
100
AcDbSymbolTableRecord
100
AcDbBlockTableRecord
  2
_D_5
340
0
  0
BLOCK_RECORD
  5
3B1
330
1
100
AcDbSymbolTableRecord
100
AcDbBlockTableRecord
  2
_D_6
340
0
  0
BLOCK_RECORD
  5
3BA
330
1
100
AcDbSymbolTableRecord
100
AcDbBlockTableRecord
  2
SW_NOTE_0
340
0
102
{BLKREFS
331
3BF
102
}
  0
BLOCK_RECORD
  5
3C2
330
1
100
AcDbSymbolTableRecord
100
AcDbBlockTableRecord
  2
SW_CENTERMARKSYMBOL_0
340
0
102
{BLKREFS
331
3CD
102
}
  0
BLOCK_RECORD
  5
3CE
330
1
100
AcDbSymbolTableRecord
100
AcDbBlockTableRecord
  2
SW_CENTERMARKSYMBOL_1
340
0
102
{BLKREFS
331
3D9
102
}
  0
BLOCK_RECORD
  5
3DA
330
1
100
AcDbSymbolTableRecord
100
AcDbBlockTableRecord
  2
SW_CENTERMARKSYMBOL_2
340
0
102
{BLKREFS
331
3E5
102
}
  0
BLOCK_RECORD
  5
3E6
330
1
100
AcDbSymbolTableRecord
100
AcDbBlockTableRecord
  2
SW_CENTERMARKSYMBOL_3
340
0
102
{BLKREFS
331
3F1
102
}
  0
BLOCK_RECORD
  5
3F2
330
1
100
AcDbSymbolTableRecord
100
AcDbBlockTableRecord
  2
SW_CENTERMARKSYMBOL_4
340
0
102
{BLKREFS
331
3FD
102
}
  0
ENDTAB
  0
ENDSEC
  0
SECTION
  2
BLOCKS
  0
BLOCK
  5
20
330
1F
100
AcDbEntity
  8
0
100
AcDbBlockBegin
  2
*Model_Space
 70
     0
 10
0.0
 20
0.0
 30
0.0
  3
*Model_Space
  1

  0
ENDBLK
  5
21
330
1F
100
AcDbEntity
  8
0
100
AcDbBlockEnd
  0
BLOCK
  5
1C
330
1B
100
AcDbEntity
 67
     1
  8
0
100
AcDbBlockBegin
  2
*Paper_Space
 70
     0
 10
0.0
 20
0.0
 30
0.0
  3
*Paper_Space
  1

  0
ENDBLK
  5
1D
330
1B
100
AcDbEntity
 67
     1
  8
0
100
AcDbBlockEnd
  0
BLOCK
  5
24
330
23
100
AcDbEntity
  8
0
100
AcDbBlockBegin
  2
*Paper_Space0
 70
     0
 10
0.0
 20
0.0
 30
0.0
  3
*Paper_Space0
  1

  0
ENDBLK
  5
25
330
23
100
AcDbEntity
  8
0
100
AcDbBlockEnd
  0
BLOCK
  5
218
330
217
100
AcDbEntity
  8
0
100
AcDbBlockBegin
  2
_D
 70
     0
 10
0.0
 20
0.0
 30
0.0
  3
_D
  1

  0
SOLID
  5
21A
330
217
100
AcDbEntity
  8
0
  6
Continuous
 62
     7
370
     0
100
AcDbTrace
 10
120.5097638038
 20
183.9323441397
 30
0.0
 11
119.7597638038
 21
180.9323441397
 31
0.0
 12
121.2597638038
 22
180.9323441397
 32
0.0
 13
121.2597638038
 23
180.9323441397
 33
0.0
  0
SOLID
  5
21B
330
217
100
AcDbEntity
  8
0
  6
Continuous
 62
     7
370
     0
100
AcDbTrace
 10
120.5097638038
 20
128.9323441397
 30
0.0
 11
121.2597638038
 21
131.9323441397
 31
0.0
 12
119.7597638038
 22
131.9323441397
 32
0.0
 13
119.7597638038
 23
131.9323441397
 33
0.0
  0
LINE
  5
21C
330
217
100
AcDbEntity
  8
0
  6
Continuous
 62
     7
370
     0
100
AcDbLine
 10
131.2989608623
 20
183.9323441397
 30
0.0
 11
119.5097638038
 21
183.9323441397
 31
0.0
  0
LINE
  5
21D
330
217
100
AcDbEntity
  8
0
  6
Continuous
 62
     7
370
     0
100
AcDbLine
 10
131.2989608623
 20
128.9323441397
 30
0.0
 11
119.5097638038
 21
128.9323441397
 31
0.0
  0
LINE
  5
21E
330
217
100
AcDbEntity
  8
0
  6
Continuous
 62
     7
370
     0
100
AcDbLine
 10
120.5097638038
 20
183.9323441397
 30
0.0
 11
120.5097638038
 21
128.9323441397
 31
0.0
  0
MTEXT
  5
21F
330
217
100
AcDbEntity
  8
0
  6
Continuous
 62
     7
370
     0
100
AcDbMText
 10
115.9980264818
 20
152.4605732682
 30
0.0
 40
3.5
 41
0.0
 71
     1
 72
     1
  1
%%c
  7
SLDTEXTSTYLE0
 11
-1.059690869644414E-14
 21
1.0
 31
0.0
 73
     1
 44
1.0
  0
MTEXT
  5
220
330
217
100
AcDbEntity
  8
0
  6
Continuous
 62
     7
370
     0
100
AcDbMText
 10
115.9980264818
 20
156.3305037833
 30
0.0
 40
3.5
 41
0.0
 71
     1
 72
     1
  1
55
  7
SLDTEXTSTYLE0
 11
-1.059690869644414E-14
 21
1.0
 31
0.0
 73
     1
 44
1.0
  0
ENDBLK
  5
219
330
217
100
AcDbEntity
  8
0
100
AcDbBlockEnd
  0
BLOCK
  5
224
330
223
100
AcDbEntity
  8
0
100
AcDbBlockBegin
  2
_D_1
 70
     0
 10
0.0
 20
0.0
 30
0.0
  3
_D_1
  1

  0
SOLID
  5
226
330
223
100
AcDbEntity
  8
0
  6
Continuous
 62
     7
370
     0
100
AcDbTrace
 10
132.2989608623
 20
118.9323441397
 30
0.0
 11
129.2989608623
 21
119.6823441397
 31
0.0
 12
129.2989608623
 22
118.1823441397
 32
0.0
 13
129.2989608623
 23
118.1823441397
 33
0.0
  0
SOLID
  5
227
330
223
100
AcDbEntity
  8
0
  6
Continuous
 62
     7
370
     0
100
AcDbTrace
 10
138.2989608623
 20
118.9323441397
 30
0.0
 11
141.2989608623
 21
118.1823441397
 31
0.0
 12
141.2989608623
 22
119.6823441397
 32
0.0
 13
141.2989608623
 23
119.6823441397
 33
0.0
  0
LINE
  5
228
330
223
100
AcDbEntity
  8
0
  6
Continuous
 62
     7
370
     0
100
AcDbLine
 10
132.2989608623
 20
127.9323441397
 30
0.0
 11
132.2989608623
 21
117.9323441397
 31
0.0
  0
LINE
  5
229
330
223
100
AcDbEntity
  8
0
  6
Continuous
 62
     7
370
     0
100
AcDbLine
 10
138.2989608623
 20
127.9323441397
 30
0.0
 11
138.2989608623
 21
117.9323441397
 31
0.0
  0
LINE
  5
22A
330
223
100
AcDbEntity
  8
0
  6
Continuous
 62
     7
370
     0
100
AcDbLine
 10
132.2989608623
 20
118.9323441397
 30
0.0
 11
127.2989608623
 21
118.9323441397
 31
0.0
  0
LINE
  5
22B
330
223
100
AcDbEntity
  8
0
  6
Continuous
 62
     7
370
     0
100
AcDbLine
 10
132.2989608623
 20
118.9323441397
 30
0.0
 11
138.2989608623
 21
118.9323441397
 31
0.0
  0
LINE
  5
22C
330
223
100
AcDbEntity
  8
0
  6
Continuous
 62
     7
370
     0
100
AcDbLine
 10
138.2989608623
 20
118.9323441397
 30
0.0
 11
143.2989608623
 21
118.9323441397
 31
0.0
  0
MTEXT
  5
22D
330
223
100
AcDbEntity
  8
0
  6
Continuous
 62
     7
370
     0
100
AcDbMText
 10
134.2805581135
 20
123.444080996
 30
0.0
 40
3.5
 41
0.0
 71
     1
 72
     1
  1
6
  7
SLDTEXTSTYLE0
 73
     1
 44
1.0
  0
ENDBLK
  5
225
330
223
100
AcDbEntity
  8
0
100
AcDbBlockEnd
  0
BLOCK
  5
230
330
22F
100
AcDbEntity
  8
0
100
AcDbBlockBegin
  2
_D_2
 70
     0
 10
0.0
 20
0.0
 30
0.0
  3
_D_2
  1

  0
SOLID
  5
232
330
22F
100
AcDbEntity
  8
0
  6
Continuous
 62
     7
370
     0
100
AcDbTrace
 10
132.2989608623
 20
100.9323441397
 30
0.0
 11
135.2989608623
 21
100.1823441397
 31
0.0
 12
135.2989608623
 22
101.6823441397
 32
0.0
 13
135.2989608623
 23
101.6823441397
 33
0.0
  0
SOLID
  5
233
330
22F
100
AcDbEntity
  8
0
  6
Continuous
 62
     7
370
     0
100
AcDbTrace
 10
176.2989608623
 20
100.9323441397
 30
0.0
 11
173.2989608623
 21
101.6823441397
 31
0.0
 12
173.2989608623
 22
100.1823441397
 32
0.0
 13
173.2989608623
 23
100.1823441397
 33
0.0
  0
LINE
  5
234
330
22F
100
AcDbEntity
  8
0
  6
Continuous
 62
     7
370
     0
100
AcDbLine
 10
132.2989608623
 20
127.9323441397
 30
0.0
 11
132.2989608623
 21
99.9323441397
 31
0.0
  0
LINE
  5
235
330
22F
100
AcDbEntity
  8
0
  6
Continuous
 62
     7
370
     0
100
AcDbLine
 10
176.2989608623
 20
148.9323441397
 30
0.0
 11
176.2989608623
 21
99.9323441397
 31
0.0
  0
LINE
  5
236
330
22F
100
AcDbEntity
  8
0
  6
Continuous
 62
     7
370
     0
100
AcDbLine
 10
132.2989608623
 20
100.9323441397
 30
0.0
 11
176.2989608623
 21
100.9323441397
 31
0.0
  0
MTEXT
  5
237
330
22F
100
AcDbEntity
  8
0
  6
Continuous
 62
     7
370
     0
100
AcDbMText
 10
152.2621553648
 20
105.444080996
 30
0.0
 40
3.5
 41
0.0
 71
     1
 72
     1
  1
44
  7
SLDTEXTSTYLE0
 73
     1
 44
1.0
  0
ENDBLK
  5
231
330
22F
100
AcDbEntity
  8
0
100
AcDbBlockEnd
  0
BLOCK
  5
23A
330
239
100
AcDbEntity
  8
0
100
AcDbBlockBegin
  2
_D_3
 70
     0
 10
0.0
 20
0.0
 30
0.0
  3
_D_3
  1

  0
SOLID
  5
23C
330
239
100
AcDbEntity
  8
0
  6
Continuous
 62
     7
370
     0
100
AcDbTrace
 10
132.2989608623
 20
110.110723214
 30
0.0
 11
135.2989608623
 21
109.360723214
 31
0.0
 12
135.2989608623
 22
110.860723214
 32
0.0
 13
135.2989608623
 23
110.860723214
 33
0.0
  0
SOLID
  5
23D
330
239
100
AcDbEntity
  8
0
  6
Continuous
 62
     7
370
     0
100
AcDbTrace
 10
152.2989608623
 20
110.110723214
 30
0.0
 11
149.2989608623
 21
110.860723214
 31
0.0
 12
149.2989608623
 22
109.360723214
 32
0.0
 13
149.2989608623
 23
109.360723214
 33
0.0
  0
LINE
  5
23E
330
239
100
AcDbEntity
  8
0
  6
Continuous
 62
     7
370
     0
100
AcDbLine
 10
132.2989608623
 20
127.9323441397
 30
0.0
 11
132.2989608623
 21
109.110723214
 31
0.0
  0
LINE
  5
23F
330
239
100
AcDbEntity
  8
0
  6
Continuous
 62
     7
370
     0
100
AcDbLine
 10
152.2989608623
 20
146.9323441397
 30
0.0
 11
152.2989608623
 21
109.110723214
 31
0.0
  0
LINE
  5
240
330
239
100
AcDbEntity
  8
0
  6
Continuous
 62
     7
370
     0
100
AcDbLine
 10
132.2989608623
 20
110.110723214
 30
0.0
 11
152.2989608623
 21
110.110723214
 31
0.0
  0
MTEXT
  5
241
330
239
100
AcDbEntity
  8
0
  6
Continuous
 62
     7
370
     0
100
AcDbMText
 10
140.2621553648
 20
114.6224600704
 30
0.0
 40
3.5
 41
0.0
 71
     1
 72
     1
  1
20
  7
SLDTEXTSTYLE0
 73
     1
 44
1.0
  0
ENDBLK
  5
23B
330
239
100
AcDbEntity
  8
0
100
AcDbBlockEnd
  0
BLOCK
  5
39E
330
39D
100
AcDbEntity
  8
0
100
AcDbBlockBegin
  2
_D_4
 70
     0
 10
0.0
 20
0.0
 30
0.0
  3
_D_4
  1

  0
SOLID
  5
3A0
330
39D
100
AcDbEntity
  8
0
  6
Continuous
 62
     7
370
     0
100
AcDbTrace
 10
50.0521539714
 20
191.6567938166
 30
0.0
 11
53.0521539714
 21
190.9067938166
 31
0.0
 12
53.0521539714
 22
192.4067938166
 32
0.0
 13
53.0521539714
 23
192.4067938166
 33
0.0
  0
SOLID
  5
3A1
330
39D
100
AcDbEntity
  8
0
  6
Continuous
 62
     7
370
     0
100
AcDbTrace
 10
80.0521539714
 20
191.6567938166
 30
0.0
 11
77.0521539714
 21
192.4067938166
 31
0.0
 12
77.0521539714
 22
190.9067938166
 32
0.0
 13
77.0521539714
 23
190.9067938166
 33
0.0
  0
LINE
  5
3A2
330
39D
100
AcDbEntity
  8
0
  6
Continuous
 62
     7
370
     0
100
AcDbLine
 10
50.0521539714
 20
180.4323441397
 30
0.0
 11
50.0521539714
 21
192.6567938166
 31
0.0
  0
LINE
  5
3A3
330
39D
100
AcDbEntity
  8
0
  6
Continuous
 62
     7
370
     0
100
AcDbLine
 10
80.0521539714
 20
180.4323441397
 30
0.0
 11
80.0521539714
 21
192.6567938166
 31
0.0
  0
LINE
  5
3A4
330
39D
100
AcDbEntity
  8
0
  6
Continuous
 62
     7
370
     0
100
AcDbLine
 10
50.0521539714
 20
191.6567938166
 30
0.0
 11
80.0521539714
 21
191.6567938166
 31
0.0
  0
MTEXT
  5
3A5
330
39D
100
AcDbEntity
  8
0
  6
Continuous
 62
     7
370
     0
100
AcDbMText
 10
63.0153484739
 20
196.168530673
 30
0.0
 40
3.5
 41
0.0
 71
     1
 72
     1
  1
30
  7
SLDTEXTSTYLE0
 73
     1
 44
1.0
  0
ENDBLK
  5
39F
330
39D
100
AcDbEntity
  8
0
100
AcDbBlockEnd
  0
BLOCK
  5
3A8
330
3A7
100
AcDbEntity
  8
0
100
AcDbBlockBegin
  2
_D_5
 70
     0
 10
0.0
 20
0.0
 30
0.0
  3
_D_5
  1

  0
SOLID
  5
3AA
330
3A7
100
AcDbEntity
  8
0
  6
Continuous
 62
     7
370
     0
100
AcDbTrace
 10
32.6232801862
 20
171.4323441397
 30
0.0
 11
31.8732801862
 21
168.4323441397
 31
0.0
 12
33.3732801862
 22
168.4323441397
 32
0.0
 13
33.3732801862
 23
168.4323441397
 33
0.0
  0
SOLID
  5
3AB
330
3A7
100
AcDbEntity
  8
0
  6
Continuous
 62
     7
370
     0
100
AcDbTrace
 10
32.6232801862
 20
141.4323441397
 30
0.0
 11
33.3732801862
 21
144.4323441397
 31
0.0
 12
31.8732801862
 22
144.4323441397
 32
0.0
 13
31.8732801862
 23
144.4323441397
 33
0.0
  0
LINE
  5
3AC
330
3A7
100
AcDbEntity
  8
0
  6
Continuous
 62
     7
370
     0
100
AcDbLine
 10
41.0521539714
 20
171.4323441397
 30
0.0
 11
31.6232801862
 21
171.4323441397
 31
0.0
  0
LINE
  5
3AD
330
3A7
100
AcDbEntity
  8
0
  6
Continuous
 62
     7
370
     0
100
AcDbLine
 10
41.0521539714
 20
141.4323441397
 30
0.0
 11
31.6232801862
 21
141.4323441397
 31
0.0
  0
LINE
  5
3AE
330
3A7
100
AcDbEntity
  8
0
  6
Continuous
 62
     7
370
     0
100
AcDbLine
 10
32.6232801862
 20
171.4323441397
 30
0.0
 11
32.6232801862
 21
141.4323441397
 31
0.0
  0
MTEXT
  5
3AF
330
3A7
100
AcDbEntity
  8
0
  6
Continuous
 62
     7
370
     0
100
AcDbMText
 10
28.1115433298
 20
154.3955386422
 30
0.0
 40
3.5
 41
0.0
 71
     1
 72
     1
  1
30
  7
SLDTEXTSTYLE0
 11
-7.044195017643634E-15
 21
1.0
 31
0.0
 73
     1
 44
1.0
  0
ENDBLK
  5
3A9
330
3A7
100
AcDbEntity
  8
0
100
AcDbBlockEnd
  0
BLOCK
  5
3B2
330
3B1
100
AcDbEntity
  8
0
100
AcDbBlockBegin
  2
_D_6
 70
     0
 10
0.0
 20
0.0
 30
0.0
  3
_D_6
  1

  0
SOLID
  5
3B4
330
3B1
100
AcDbEntity
  8
0
  6
Continuous
 62
     7
370
     0
100
AcDbTrace
 10
44.0521539714
 20
118.9323441397
 30
0.0
 11
47.0521539714
 21
118.1823441397
 31
0.0
 12
47.0521539714
 22
119.6823441397
 32
0.0
 13
47.0521539714
 23
119.6823441397
 33
0.0
  0
SOLID
  5
3B5
330
3B1
100
AcDbEntity
  8
0
  6
Continuous
 62
     7
370
     0
100
AcDbTrace
 10
86.0521539714
 20
118.9323441397
 30
0.0
 11
83.0521539714
 21
119.6823441397
 31
0.0
 12
83.0521539714
 22
118.1823441397
 32
0.0
 13
83.0521539714
 23
118.1823441397
 33
0.0
  0
LINE
  5
3B6
330
3B1
100
AcDbEntity
  8
0
  6
Continuous
 62
     7
370
     0
100
AcDbLine
 10
44.0521539714
 20
137.6770632351
 30
0.0
 11
44.0521539714
 21
117.9323441397
 31
0.0
  0
LINE
  5
3B7
330
3B1
100
AcDbEntity
  8
0
  6
Continuous
 62
     7
370
     0
100
AcDbLine
 10
86.0521539714
 20
137.6770632351
 30
0.0
 11
86.0521539714
 21
117.9323441397
 31
0.0
  0
LINE
  5
3B8
330
3B1
100
AcDbEntity
  8
0
  6
Continuous
 62
     7
370
     0
100
AcDbLine
 10
44.0521539714
 20
118.9323441397
 30
0.0
 11
86.0521539714
 21
118.9323441397
 31
0.0
  0
MTEXT
  5
3B9
330
3B1
100
AcDbEntity
  8
0
  6
Continuous
 62
     7
370
     0
100
AcDbMText
 10
63.0153484739
 20
123.444080996
 30
0.0
 40
3.5
 41
0.0
 71
     1
 72
     1
  1
42
  7
SLDTEXTSTYLE0
 73
     1
 44
1.0
  0
ENDBLK
  5
3B3
330
3B1
100
AcDbEntity
  8
0
100
AcDbBlockEnd
  0
BLOCK
  5
3BB
330
3BA
100
AcDbEntity
  8
0
100
AcDbBlockBegin
  2
SW_NOTE_0
 70
     0
 10
0.0
 20
0.0
 30
0.0
  3
SW_NOTE_0
  1

  0
LINE
  5
3BD
330
3BA
100
AcDbEntity
  8
0
  6
Continuous
 62
     0
370
     0
100
AcDbLine
 10
22.2801705632
 20
0.0
 30
0.0
 11
0.0
 21
0.0
 31
0.0
  0
MTEXT
  5
3BE
330
3BA
100
AcDbEntity
  8
0
  6
Continuous
 62
     0
370
     0
100
AcDbMText
 10
0.4360807174
 20
4.5836976472
 30
0.0
 40
3.5
 41
0.0
 71
     1
 72
     1
  1
4-Φ6.6キリ
  7
SLDTEXTSTYLE0
 73
     1
 44
1.0
  0
ENDBLK
  5
3BC
330
3BA
100
AcDbEntity
  8
0
100
AcDbBlockEnd
  0
BLOCK
  5
3C3
330
3C2
100
AcDbEntity
  8
0
100
AcDbBlockBegin
  2
SW_CENTERMARKSYMBOL_0
 70
     0
 10
0.0
 20
0.0
 30
0.0
  3
SW_CENTERMARKSYMBOL_0
  1

  0
LINE
  5
3C5
330
3C2
100
AcDbEntity
  8
0
  6
Continuous
 62
     0
370
     0
100
AcDbLine
 10
0.0
 20
0.0
 30
0.0
 11
0.0
 21
2.5
 31
0.0
  0
LINE
  5
3C6
330
3C2
100
AcDbEntity
  8
0
  6
Continuous
 62
     0
370
     0
100
AcDbLine
 10
0.0
 20
0.0
 30
0.0
 11
-2.5
 21
0.0
 31
0.0
  0
LINE
  5
3C7
330
3C2
100
AcDbEntity
  8
0
  6
Continuous
 62
     0
370
     0
100
AcDbLine
 10
0.0
 20
0.0
 30
0.0
 11
0.0
 21
-2.5
 31
0.0
  0
LINE
  5
3C8
330
3C2
100
AcDbEntity
  8
0
  6
Continuous
 62
     0
370
     0
100
AcDbLine
 10
0.0
 20
0.0
 30
0.0
 11
2.5
 21
0.0
 31
0.0
  0
LINE
  5
3C9
330
3C2
100
AcDbEntity
  8
0
  6
Continuous
 62
     0
370
     0
100
AcDbLine
 10
0.0
 20
5.0
 30
0.0
 11
0.0
 21
8.0
 31
0.0
  0
LINE
  5
3CA
330
3C2
100
AcDbEntity
  8
0
  6
Continuous
 62
     0
370
     0
100
AcDbLine
 10
-5.0
 20
0.0
 30
0.0
 11
-8.0
 21
0.0
 31
0.0
  0
LINE
  5
3CB
330
3C2
100
AcDbEntity
  8
0
  6
Continuous
 62
     0
370
     0
100
AcDbLine
 10
0.0
 20
-5.0
 30
0.0
 11
0.0
 21
-8.0
 31
0.0
  0
LINE
  5
3CC
330
3C2
100
AcDbEntity
  8
0
  6
Continuous
 62
     0
370
     0
100
AcDbLine
 10
5.0
 20
0.0
 30
0.0
 11
8.0
 21
0.0
 31
0.0
  0
ENDBLK
  5
3C4
330
3C2
100
AcDbEntity
  8
0
100
AcDbBlockEnd
  0
BLOCK
  5
3CF
330
3CE
100
AcDbEntity
  8
0
100
AcDbBlockBegin
  2
SW_CENTERMARKSYMBOL_1
 70
     0
 10
0.0
 20
0.0
 30
0.0
  3
SW_CENTERMARKSYMBOL_1
  1

  0
LINE
  5
3D1
330
3CE
100
AcDbEntity
  8
0
  6
Continuous
 62
     0
370
     0
100
AcDbLine
 10
0.0
 20
0.0
 30
0.0
 11
0.0
 21
2.5
 31
0.0
  0
LINE
  5
3D2
330
3CE
100
AcDbEntity
  8
0
  6
Continuous
 62
     0
370
     0
100
AcDbLine
 10
0.0
 20
0.0
 30
0.0
 11
-2.5
 21
0.0
 31
0.0
  0
LINE
  5
3D3
330
3CE
100
AcDbEntity
  8
0
  6
Continuous
 62
     0
370
     0
100
AcDbLine
 10
0.0
 20
0.0
 30
0.0
 11
0.0
 21
-2.5
 31
0.0
  0
LINE
  5
3D4
330
3CE
100
AcDbEntity
  8
0
  6
Continuous
 62
     0
370
     0
100
AcDbLine
 10
0.0
 20
0.0
 30
0.0
 11
2.5
 21
0.0
 31
0.0
  0
LINE
  5
3D5
330
3CE
100
AcDbEntity
  8
0
  6
Continuous
 62
     0
370
     0
100
AcDbLine
 10
0.0
 20
5.0
 30
0.0
 11
0.0
 21
8.0
 31
0.0
  0
LINE
  5
3D6
330
3CE
100
AcDbEntity
  8
0
  6
Continuous
 62
     0
370
     0
100
AcDbLine
 10
-5.0
 20
0.0
 30
0.0
 11
-8.0
 21
0.0
 31
0.0
  0
LINE
  5
3D7
330
3CE
100
AcDbEntity
  8
0
  6
Continuous
 62
     0
370
     0
100
AcDbLine
 10
0.0
 20
-5.0
 30
0.0
 11
0.0
 21
-8.0
 31
0.0
  0
LINE
  5
3D8
330
3CE
100
AcDbEntity
  8
0
  6
Continuous
 62
     0
370
     0
100
AcDbLine
 10
5.0
 20
0.0
 30
0.0
 11
8.0
 21
0.0
 31
0.0
  0
ENDBLK
  5
3D0
330
3CE
100
AcDbEntity
  8
0
100
AcDbBlockEnd
  0
BLOCK
  5
3DB
330
3DA
100
AcDbEntity
  8
0
100
AcDbBlockBegin
  2
SW_CENTERMARKSYMBOL_2
 70
     0
 10
0.0
 20
0.0
 30
0.0
  3
SW_CENTERMARKSYMBOL_2
  1

  0
LINE
  5
3DD
330
3DA
100
AcDbEntity
  8
0
  6
Continuous
 62
     0
370
     0
100
AcDbLine
 10
0.0
 20
0.0
 30
0.0
 11
0.0
 21
2.5
 31
0.0
  0
LINE
  5
3DE
330
3DA
100
AcDbEntity
  8
0
  6
Continuous
 62
     0
370
     0
100
AcDbLine
 10
0.0
 20
0.0
 30
0.0
 11
-2.5
 21
0.0
 31
0.0
  0
LINE
  5
3DF
330
3DA
100
AcDbEntity
  8
0
  6
Continuous
 62
     0
370
     0
100
AcDbLine
 10
0.0
 20
0.0
 30
0.0
 11
0.0
 21
-2.5
 31
0.0
  0
LINE
  5
3E0
330
3DA
100
AcDbEntity
  8
0
  6
Continuous
 62
     0
370
     0
100
AcDbLine
 10
0.0
 20
0.0
 30
0.0
 11
2.5
 21
0.0
 31
0.0
  0
LINE
  5
3E1
330
3DA
100
AcDbEntity
  8
0
  6
Continuous
 62
     0
370
     0
100
AcDbLine
 10
0.0
 20
5.0
 30
0.0
 11
0.0
 21
8.0
 31
0.0
  0
LINE
  5
3E2
330
3DA
100
AcDbEntity
  8
0
  6
Continuous
 62
     0
370
     0
100
AcDbLine
 10
-5.0
 20
0.0
 30
0.0
 11
-8.0
 21
0.0
 31
0.0
  0
LINE
  5
3E3
330
3DA
100
AcDbEntity
  8
0
  6
Continuous
 62
     0
370
     0
100
AcDbLine
 10
0.0
 20
-5.0
 30
0.0
 11
0.0
 21
-8.0
 31
0.0
  0
LINE
  5
3E4
330
3DA
100
AcDbEntity
  8
0
  6
Continuous
 62
     0
370
     0
100
AcDbLine
 10
5.0
 20
0.0
 30
0.0
 11
8.0
 21
0.0
 31
0.0
  0
ENDBLK
  5
3DC
330
3DA
100
AcDbEntity
  8
0
100
AcDbBlockEnd
  0
BLOCK
  5
3E7
330
3E6
100
AcDbEntity
  8
0
100
AcDbBlockBegin
  2
SW_CENTERMARKSYMBOL_3
 70
     0
 10
0.0
 20
0.0
 30
0.0
  3
SW_CENTERMARKSYMBOL_3
  1

  0
LINE
  5
3E9
330
3E6
100
AcDbEntity
  8
0
  6
Continuous
 62
     0
370
     0
100
AcDbLine
 10
0.0
 20
0.0
 30
0.0
 11
0.0
 21
2.5
 31
0.0
  0
LINE
  5
3EA
330
3E6
100
AcDbEntity
  8
0
  6
Continuous
 62
     0
370
     0
100
AcDbLine
 10
0.0
 20
0.0
 30
0.0
 11
-2.5
 21
0.0
 31
0.0
  0
LINE
  5
3EB
330
3E6
100
AcDbEntity
  8
0
  6
Continuous
 62
     0
370
     0
100
AcDbLine
 10
0.0
 20
0.0
 30
0.0
 11
0.0
 21
-2.5
 31
0.0
  0
LINE
  5
3EC
330
3E6
100
AcDbEntity
  8
0
  6
Continuous
 62
     0
370
     0
100
AcDbLine
 10
0.0
 20
0.0
 30
0.0
 11
2.5
 21
0.0
 31
0.0
  0
LINE
  5
3ED
330
3E6
100
AcDbEntity
  8
0
  6
Continuous
 62
     0
370
     0
100
AcDbLine
 10
0.0
 20
5.0
 30
0.0
 11
0.0
 21
8.0
 31
0.0
  0
LINE
  5
3EE
330
3E6
100
AcDbEntity
  8
0
  6
Continuous
 62
     0
370
     0
100
AcDbLine
 10
-5.0
 20
0.0
 30
0.0
 11
-8.0
 21
0.0
 31
0.0
  0
LINE
  5
3EF
330
3E6
100
AcDbEntity
  8
0
  6
Continuous
 62
     0
370
     0
100
AcDbLine
 10
0.0
 20
-5.0
 30
0.0
 11
0.0
 21
-8.0
 31
0.0
  0
LINE
  5
3F0
330
3E6
100
AcDbEntity
  8
0
  6
Continuous
 62
     0
370
     0
100
AcDbLine
 10
5.0
 20
0.0
 30
0.0
 11
8.0
 21
0.0
 31
0.0
  0
ENDBLK
  5
3E8
330
3E6
100
AcDbEntity
  8
0
100
AcDbBlockEnd
  0
BLOCK
  5
3F3
330
3F2
100
AcDbEntity
  8
0
100
AcDbBlockBegin
  2
SW_CENTERMARKSYMBOL_4
 70
     0
 10
0.0
 20
0.0
 30
0.0
  3
SW_CENTERMARKSYMBOL_4
  1

  0
LINE
  5
3F5
330
3F2
100
AcDbEntity
  8
0
  6
Continuous
 62
     0
370
     0
100
AcDbLine
 10
0.0
 20
0.0
 30
0.0
 11
0.0
 21
2.5
 31
0.0
  0
LINE
  5
3F6
330
3F2
100
AcDbEntity
  8
0
  6
Continuous
 62
     0
370
     0
100
AcDbLine
 10
0.0
 20
0.0
 30
0.0
 11
-2.5
 21
0.0
 31
0.0
  0
LINE
  5
3F7
330
3F2
100
AcDbEntity
  8
0
  6
Continuous
 62
     0
370
     0
100
AcDbLine
 10
0.0
 20
0.0
 30
0.0
 11
0.0
 21
-2.5
 31
0.0
  0
LINE
  5
3F8
330
3F2
100
AcDbEntity
  8
0
  6
Continuous
 62
     0
370
     0
100
AcDbLine
 10
0.0
 20
0.0
 30
0.0
 11
2.5
 21
0.0
 31
0.0
  0
LINE
  5
3F9
330
3F2
100
AcDbEntity
  8
0
  6
Continuous
 62
     0
370
     0
100
AcDbLine
 10
0.0
 20
5.0
 30
0.0
 11
0.0
 21
29.1076488967
 31
0.0
  0
LINE
  5
3FA
330
3F2
100
AcDbEntity
  8
0
  6
Continuous
 62
     0
370
     0
100
AcDbLine
 10
-5.0
 20
0.0
 30
0.0
 11
-24.0734830842
 21
0.0
 31
0.0
  0
LINE
  5
3FB
330
3F2
100
AcDbEntity
  8
0
  6
Continuous
 62
     0
370
     0
100
AcDbLine
 10
0.0
 20
-5.0
 30
0.0
 11
0.0
 21
-29.9370300286
 31
0.0
  0
LINE
  5
3FC
330
3F2
100
AcDbEntity
  8
0
  6
Continuous
 62
     0
370
     0
100
AcDbLine
 10
5.0
 20
0.0
 30
0.0
 11
28.1360545615
 21
0.0
 31
0.0
  0
ENDBLK
  5
3F4
330
3F2
100
AcDbEntity
  8
0
100
AcDbBlockEnd
  0
ENDSEC
  0
SECTION
  2
ENTITIES
  0
LINE
  5
73
330
1F
100
AcDbEntity
  8
0
  6
Continuous
 62
     7
370
     0
100
AcDbLine
 10
20.2604743903
 20
285.0
 30
0.0
 11
196.7604743903
 21
285.0
 31
0.0
  0
LINE
  5
74
330
1F
100
AcDbEntity
  8
0
  6
Continuous
 62
     7
370
     0
100
AcDbLine
 10
20.2604743903
 20
285.0
 30
0.0
 11
20.2604743903
 21
10.0
 31
0.0
  0
LINE
  5
75
330
1F
100
AcDbEntity
  8
0
  6
Continuous
 62
     7
370
     0
100
AcDbLine
 10
20.2604743903
 20
10.0
 30
0.0
 11
196.7604743903
 21
10.0
 31
0.0
  0
LINE
  5
76
330
1F
100
AcDbEntity
  8
0
  6
Continuous
 62
     7
370
     0
100
AcDbLine
 10
196.7604743903
 20
285.0
 30
0.0
 11
196.7604743903
 21
10.0
 31
0.0
  0
LINE
  5
77
330
1F
100
AcDbEntity
  8
0
  6
Continuous
 62
     7
370
     0
100
AcDbLine
 10
127.0104743903
 20
50.75
 30
0.0
 11
196.7604743903
 21
50.75
 31
0.0
  0
LINE
  5
78
330
1F
100
AcDbEntity
  8
0
  6
Continuous
 62
     7
370
     0
100
AcDbLine
 10
127.0104743903
 20
50.75
 30
0.0
 11
127.0104743903
 21
10.0
 31
0.0
  0
LINE
  5
79
330
1F
100
AcDbEntity
  8
0
  6
Continuous
 62
     7
370
     0
100
AcDbLine
 10
127.0104743903
 20
22.75
 30
0.0
 11
196.7604743903
 21
22.75
 31
0.0
  0
LINE
  5
7A
330
1F
100
AcDbEntity
  8
0
  6
Continuous
 62
     7
370
     0
100
AcDbLine
 10
127.0104743903
 20
36.75
 30
0.0
 11
196.7604743903
 21
36.75
 31
0.0
  0
MTEXT
  5
7C
330
1F
100
AcDbEntity
  8
0
  6
Continuous
 62
     7
370
     0
100
AcDbMText
 10
162.0652900848
 20
30.4171582345
 30
0.0
 40
4.2333333333
 41
0.0
 71
     2
 72
     1
  1
NW-50ヨウ
  7
SLDTEXTSTYLE0
 73
     1
 44
1.0
  0
MTEXT
  5
7D
330
1F
100
AcDbEntity
  8
0
  6
Continuous
 62
     7
370
     0
100
AcDbMText
 10
156.8236001832
 20
45.6505956538
 30
0.0
 40
3.7041666667
 41
0.0
 71
     2
 72
     1
  1
吸着金具・ミニエアーニッパー用
  7
SLDTEXTSTYLE0
 73
     1
 44
1.0
  0
MTEXT
  5
7E
330
1F
100
AcDbEntity
  8
0
  6
Continuous
 62
     7
370
     0
100
AcDbMText
 10
162.731404955
 20
16.8228189052
 30
0.0
 40
4.2333333333
 41
0.0
 71
     2
 72
     1
  1
131621
  7
SLDTEXTSTYLE0
 73
     1
 44
1.0
  0
LINE
  5
7F
330
1F
100
AcDbEntity
  8
0
  6
Continuous
 62
     7
370
     0
100
AcDbLine
 10
152.2989610523
 20
152.4323435773
 30
0.0
 11
158.2989606388
 21
152.4323435773
 31
0.0
  0
LINE
  5
80
330
1F
100
AcDbEntity
  8
0
  6
Continuous
 62
     7
370
     0
100
AcDbLine
 10
158.2989606388
 20
160.4323439573
 30
0.0
 11
152.2989610523
 21
160.4323439573
 31
0.0
  0
LINE
  5
81
330
1F
100
AcDbEntity
  8
0
  6
Continuous
 62
     7
370
     0
100
AcDbLine
 10
158.7989607207
 20
170.4323441994
 30
0.0
 11
158.2989606388
 21
169.9323441175
 31
0.0
  0
LINE
  5
82
330
1F
100
AcDbEntity
  8
0
  6
Continuous
 62
     7
370
     0
100
AcDbLine
 10
158.2989606388
 20
142.9323448141
 30
0.0
 11
158.7989607207
 21
142.4323438008
 31
0.0
  0
LINE
  5
83
330
1F
100
AcDbEntity
  8
0
  6
Continuous
 62
     7
370
     0
100
AcDbLine
 10
158.7989607207
 20
142.4323438008
 30
0.0
 11
161.2989611305
 21
142.4323438008
 31
0.0
  0
LINE
  5
84
330
1F
100
AcDbEntity
  8
0
  6
Continuous
 62
     7
370
     0
100
AcDbLine
 10
161.2989611305
 20
170.4323441994
 30
0.0
 11
158.7989607207
 21
170.4323441994
 31
0.0
  0
LINE
  5
85
330
1F
100
AcDbEntity
  8
0
  6
Continuous
 62
     7
370
     0
100
AcDbLine
 10
138.2989610858
 20
183.932344084
 30
0.0
 11
132.2989601023
 21
183.932344084
 31
0.0
  0
LINE
  5
86
330
1F
100
AcDbEntity
  8
0
  6
Continuous
 62
     7
370
     0
100
AcDbLine
 10
132.2989601023
 20
128.932344382
 30
0.0
 11
138.2989610858
 21
128.932344382
 31
0.0
  0
SPLINE
  5
87
330
1F
100
AcDbEntity
  8
0
  6
Continuous
 62
     7
370
     0
100
AcDbSpline
210
0.0
220
0.0
230
1.0
 70
     8
 71
     3
 72
     8
 73
     4
 74
     0
 42
0.000000001
 43
0.00000001
 40
0.0000003464001047
 40
0.0000003464001047
 40
0.0000003464001047
 40
0.0000003464001047
 40
0.0008709068364084
 40
0.0008709068364084
 40
0.0008709068364084
 40
0.0008709068364084
 10
161.2991225277107
 20
156.4323441396507
 30
0.0
 10
161.4666619617926
 20
156.5998835737326
 30
0.0
 10
161.6360141283989
 20
156.7665222777593
 30
0.0
 10
161.8069369359912
 20
156.9323441396507
 30
0.0
  0
LINE
  5
88
330
1F
100
AcDbEntity
  8
0
  6
Continuous
 62
     7
370
     0
100
AcDbLine
 10
161.806937059
 20
156.9323433836
 30
0.0
 11
167.7909854181
 21
156.9323433836
 31
0.0
  0
SPLINE
  5
89
330
1F
100
AcDbEntity
  8
0
  6
Continuous
 62
     7
370
     0
100
AcDbSpline
210
0.0
220
0.0
230
1.0
 70
     8
 71
     3
 72
     8
 73
     4
 74
     0
 42
0.000000001
 43
0.00000001
 40
0.0000003464001047
 40
0.0000003464001047
 40
0.0000003464001047
 40
0.0000003464001047
 40
0.0008709068364084
 40
0.0008709068364084
 40
0.0008709068364084
 40
0.0008709068364084
 10
168.2987991968442
 20
156.4323441396507
 30
0.0
 10
168.1312597627622
 20
156.5998835737326
 30
0.0
 10
167.9619075961559
 20
156.7665222777593
 30
0.0
 10
167.7909847885636
 20
156.9323441396507
 30
0.0
  0
LINE
  5
8A
330
1F
100
AcDbEntity
  8
0
  6
Continuous
 62
     7
370
     0
100
AcDbLine
 10
161.2991222493
 20
156.432344233
 30
0.0
 11
168.2987983651
 21
156.432344233
 31
0.0
  0
LINE
  5
8B
330
1F
100
AcDbEntity
  8
0
  6
Continuous
 62
     7
370
     0
100
AcDbLine
 10
161.806937059
 20
156.9374880095
 30
0.0
 11
167.7909854181
 21
156.9374880095
 31
0.0
  0
LINE
  5
8C
330
1F
100
AcDbEntity
  8
0
  6
Continuous
 62
     7
370
     0
100
AcDbLine
 10
167.7909854181
 20
156.9323433836
 30
0.0
 11
167.7909854181
 21
156.9374880095
 31
0.0
  0
LINE
  5
8D
330
1F
100
AcDbEntity
  8
0
  6
Continuous
 62
     7
370
     0
100
AcDbLine
 10
161.806937059
 20
156.9323433836
 30
0.0
 11
161.806937059
 21
156.9374880095
 31
0.0
  0
LINE
  5
8E
330
1F
100
AcDbEntity
  8
0
  6
Continuous
 62
     7
370
     0
100
AcDbLine
 10
161.806937059
 20
155.9323432197
 30
0.0
 11
167.7909854181
 21
155.9323432197
 31
0.0
  0
SPLINE
  5
8F
330
1F
100
AcDbEntity
  8
0
  6
Continuous
 62
     7
370
     0
100
AcDbSpline
210
0.0
220
0.0
230
1.0
 70
     8
 71
     3
 72
     8
 73
     4
 74
     0
 42
0.000000001
 43
0.00000001
 40
0.0000003499903057
 40
0.0000003499903057
 40
0.0000003499903057
 40
0.0000003499903057
 40
0.0008709104266094
 40
0.0008709104266094
 40
0.0008709104266094
 40
0.0008709104266094
 10
167.7909847885636
 20
155.9323441396507
 30
0.0
 10
167.9619075961559
 20
156.098166001542
 30
0.0
 10
168.1312597627622
 20
156.2648047055687
 30
0.0
 10
168.2987991968442
 20
156.4323441396506
 30
0.0
  0
SPLINE
  5
90
330
1F
100
AcDbEntity
  8
0
  6
Continuous
 62
     7
370
     0
100
AcDbSpline
210
0.0
220
0.0
230
1.0
 70
     8
 71
     3
 72
     8
 73
     4
 74
     0
 42
0.000000001
 43
0.00000001
 40
0.0000003499903057
 40
0.0000003499903057
 40
0.0000003499903057
 40
0.0000003499903057
 40
0.0008709104266094
 40
0.0008709104266094
 40
0.0008709104266094
 40
0.0008709104266094
 10
161.8069369359912
 20
155.9323441396507
 30
0.0
 10
161.6360141283989
 20
156.098166001542
 30
0.0
 10
161.4666619617926
 20
156.2648047055687
 30
0.0
 10
161.2991225277107
 20
156.4323441396507
 30
0.0
  0
LINE
  5
91
330
1F
100
AcDbEntity
  8
0
  6
Continuous
 62
     7
370
     0
100
AcDbLine
 10
161.806937059
 20
155.9272004564
 30
0.0
 11
167.7909854181
 21
155.9272004564
 31
0.0
  0
LINE
  5
92
330
1F
100
AcDbEntity
  8
0
  6
Continuous
 62
     7
370
     0
100
AcDbLine
 10
167.7909854181
 20
155.9272004564
 30
0.0
 11
167.7909854181
 21
155.9323432197
 31
0.0
  0
LINE
  5
93
330
1F
100
AcDbEntity
  8
0
  6
Continuous
 62
     7
370
     0
100
AcDbLine
 10
161.806937059
 20
155.9272004564
 30
0.0
 11
161.806937059
 21
155.9323432197
 31
0.0
  0
LINE
  5
94
330
1F
100
AcDbEntity
  8
0
  6
Continuous
 62
     7
370
     0
100
AcDbLine
 10
161.2991222493
 20
157.4051069369
 30
0.0
 11
168.2987983651
 21
157.4051069369
 31
0.0
  0
SPLINE
  5
95
330
1F
100
AcDbEntity
  8
0
  6
Continuous
 62
     7
370
     0
100
AcDbSpline
210
0.0
220
0.0
230
1.0
 70
     8
 71
     3
 72
     8
 73
     4
 74
     0
 42
0.000000001
 43
0.00000001
 40
0.0000003299251282
 40
0.0000003299251282
 40
0.0000003299251282
 40
0.0000003299251282
 40
0.0008708903614319
 40
0.0008708903614319
 40
0.0008708903614319
 40
0.0008708903614319
 10
167.7909847885636
 20
156.9374884171498
 30
0.0
 10
167.9619075961559
 20
157.0925710266176
 30
0.0
 10
168.1312597627622
 20
157.2484175764274
 30
0.0
 10
168.2987991968442
 20
157.4051065215992
 30
0.0
  0
SPLINE
  5
96
330
1F
100
AcDbEntity
  8
0
  6
Continuous
 62
     7
370
     0
100
AcDbSpline
210
0.0
220
0.0
230
1.0
 70
     8
 71
     3
 72
     8
 73
     4
 74
     0
 42
0.000000001
 43
0.00000001
 40
0.0000003299251282
 40
0.0000003299251282
 40
0.0000003299251282
 40
0.0000003299251282
 40
0.0008708903614319
 40
0.0008708903614319
 40
0.0008708903614319
 40
0.0008708903614319
 10
161.8069369359912
 20
156.9374884171498
 30
0.0
 10
161.6360141283989
 20
157.0925710266176
 30
0.0
 10
161.4666619617926
 20
157.2484175764274
 30
0.0
 10
161.2991225277107
 20
157.4051065215992
 30
0.0
  0
LINE
  5
97
330
1F
100
AcDbEntity
  8
0
  6
Continuous
 62
     7
370
     0
100
AcDbLine
 10
161.2991222493
 20
155.4595815291
 30
0.0
 11
168.2987983651
 21
155.4595815291
 31
0.0
  0
SPLINE
  5
98
330
1F
100
AcDbEntity
  8
0
  6
Continuous
 62
     7
370
     0
100
AcDbSpline
210
0.0
220
0.0
230
1.0
 70
     8
 71
     3
 72
     8
 73
     4
 74
     0
 42
0.000000001
 43
0.00000001
 40
0.0000003265408331
 40
0.0000003265408331
 40
0.0000003265408331
 40
0.0000003265408331
 40
0.0008708869771367
 40
0.0008708869771367
 40
0.0008708869771367
 40
0.0008708869771367
 10
168.2987991968442
 20
155.459581757702
 30
0.0
 10
168.1312597627622
 20
155.6162707028739
 30
0.0
 10
167.961907596156
 20
155.7721172526837
 30
0.0
 10
167.7909847885636
 20
155.9271998621515
 30
0.0
  0
SPLINE
  5
99
330
1F
100
AcDbEntity
  8
0
  6
Continuous
 62
     7
370
     0
100
AcDbSpline
210
0.0
220
0.0
230
1.0
 70
     8
 71
     3
 72
     8
 73
     4
 74
     0
 42
0.000000001
 43
0.00000001
 40
0.0000003265408331
 40
0.0000003265408331
 40
0.0000003265408331
 40
0.0000003265408331
 40
0.0008708869771367
 40
0.0008708869771367
 40
0.0008708869771367
 40
0.0008708869771367
 10
161.2991225277107
 20
155.459581757702
 30
0.0
 10
161.4666619617926
 20
155.6162707028739
 30
0.0
 10
161.6360141283989
 20
155.7721172526837
 30
0.0
 10
161.8069369359912
 20
155.9271998621515
 30
0.0
  0
LINE
  5
9A
330
1F
100
AcDbEntity
  8
0
  6
Continuous
 62
     7
370
     0
100
AcDbLine
 10
161.806937059
 20
157.9355147009
 30
0.0
 11
167.7909854181
 21
157.9355147009
 31
0.0
  0
SPLINE
  5
9B
330
1F
100
AcDbEntity
  8
0
  6
Continuous
 62
     7
370
     0
100
AcDbSpline
210
0.0
220
0.0
230
1.0
 70
     8
 71
     3
 72
     8
 73
     4
 74
     0
 42
0.000000001
 43
0.00000001
 40
0.0000003265408331
 40
0.0000003265408331
 40
0.0000003265408331
 40
0.0000003265408331
 40
0.0008708869771367
 40
0.0008708869771367
 40
0.0008708869771367
 40
0.0008708869771367
 10
168.2987991968442
 20
157.4051065215993
 30
0.0
 10
168.1312597627622
 20
157.5828352429864
 30
0.0
 10
167.9619075961559
 20
157.7596084543952
 30
0.0
 10
167.7909847885636
 20
157.9355151455781
 30
0.0
  0
SPLINE
  5
9C
330
1F
100
AcDbEntity
  8
0
  6
Continuous
 62
     7
370
     0
100
AcDbSpline
210
0.0
220
0.0
230
1.0
 70
     8
 71
     3
 72
     8
 73
     4
 74
     0
 42
0.000000001
 43
0.00000001
 40
0.000000326540833
 40
0.000000326540833
 40
0.000000326540833
 40
0.000000326540833
 40
0.0008708869771368
 40
0.0008708869771368
 40
0.0008708869771368
 40
0.0008708869771368
 10
161.2991225277107
 20
157.4051065215993
 30
0.0
 10
161.4666619617926
 20
157.5828352429864
 30
0.0
 10
161.6360141283989
 20
157.7596084543952
 30
0.0
 10
161.8069369359912
 20
157.9355151455781
 30
0.0
  0
LINE
  5
9D
330
1F
100
AcDbEntity
  8
0
  6
Continuous
 62
     7
370
     0
100
AcDbLine
 10
161.806937059
 20
157.9406388377
 30
0.0
 11
167.7909854181
 21
157.9406388377
 31
0.0
  0
LINE
  5
9E
330
1F
100
AcDbEntity
  8
0
  6
Continuous
 62
     7
370
     0
100
AcDbLine
 10
167.7909854181
 20
157.9355147009
 30
0.0
 11
167.7909854181
 21
157.9406388377
 31
0.0
  0
LINE
  5
9F
330
1F
100
AcDbEntity
  8
0
  6
Continuous
 62
     7
370
     0
100
AcDbLine
 10
161.806937059
 20
157.9355147009
 30
0.0
 11
161.806937059
 21
157.9406388377
 31
0.0
  0
LINE
  5
A0
330
1F
100
AcDbEntity
  8
0
  6
Continuous
 62
     7
370
     0
100
AcDbLine
 10
161.806937059
 20
154.9291728337
 30
0.0
 11
167.7909854181
 21
154.9291728337
 31
0.0
  0
LINE
  5
A1
330
1F
100
AcDbEntity
  8
0
  6
Continuous
 62
     7
370
     0
100
AcDbLine
 10
161.806937059
 20
154.9240486969
 30
0.0
 11
167.7909854181
 21
154.9240486969
 31
0.0
  0
LINE
  5
A2
330
1F
100
AcDbEntity
  8
0
  6
Continuous
 62
     7
370
     0
100
AcDbLine
 10
167.7909854181
 20
154.9240486969
 30
0.0
 11
167.7909854181
 21
154.9291728337
 31
0.0
  0
LINE
  5
A3
330
1F
100
AcDbEntity
  8
0
  6
Continuous
 62
     7
370
     0
100
AcDbLine
 10
161.806937059
 20
154.9240486969
 30
0.0
 11
161.806937059
 21
154.9291728337
 31
0.0
  0
SPLINE
  5
A4
330
1F
100
AcDbEntity
  8
0
  6
Continuous
 62
     7
370
     0
100
AcDbSpline
210
0.0
220
0.0
230
1.0
 70
     8
 71
     3
 72
     8
 73
     4
 74
     0
 42
0.000000001
 43
0.00000001
 40
0.0000003299251282
 40
0.0000003299251282
 40
0.0000003299251282
 40
0.0000003299251282
 40
0.0008708903614319
 40
0.0008708903614319
 40
0.0008708903614319
 40
0.0008708903614319
 10
167.7909847885636
 20
154.9291731337232
 30
0.0
 10
167.9619075961559
 20
155.105079824906
 30
0.0
 10
168.1312597627622
 20
155.2818530363149
 30
0.0
 10
168.2987991968442
 20
155.459581757702
 30
0.0
  0
SPLINE
  5
A5
330
1F
100
AcDbEntity
  8
0
  6
Continuous
 62
     7
370
     0
100
AcDbSpline
210
0.0
220
0.0
230
1.0
 70
     8
 71
     3
 72
     8
 73
     4
 74
     0
 42
0.000000001
 43
0.00000001
 40
0.0000003299251282
 40
0.0000003299251282
 40
0.0000003299251282
 40
0.0000003299251282
 40
0.0008708903614319
 40
0.0008708903614319
 40
0.0008708903614319
 40
0.0008708903614319
 10
161.8069369359912
 20
154.9291731337233
 30
0.0
 10
161.6360141283989
 20
155.105079824906
 30
0.0
 10
161.4666619617926
 20
155.2818530363149
 30
0.0
 10
161.2991225277107
 20
155.459581757702
 30
0.0
  0
LINE
  5
A6
330
1F
100
AcDbEntity
  8
0
  6
Continuous
 62
     7
370
     0
100
AcDbLine
 10
161.2991222493
 20
158.3740297978
 30
0.0
 11
168.2987983651
 21
158.3740297978
 31
0.0
  0
SPLINE
  5
A7
330
1F
100
AcDbEntity
  8
0
  6
Continuous
 62
     7
370
     0
100
AcDbSpline
210
0.0
220
0.0
230
1.0
 70
     8
 71
     3
 72
     8
 73
     4
 74
     0
 42
0.000000001
 43
0.00000001
 40
0.0000003132049584
 40
0.0000003132049584
 40
0.0000003132049584
 40
0.0000003132049584
 40
0.000870873641262
 40
0.000870873641262
 40
0.000870873641262
 40
0.000870873641262
 10
167.7909847885636
 20
157.9406391209641
 30
0.0
 10
167.9619075961559
 20
158.0843704377994
 30
0.0
 10
168.1312597627622
 20
158.2288097782596
 30
0.0
 10
168.2987991968442
 20
158.3740298548392
 30
0.0
  0
SPLINE
  5
A8
330
1F
100
AcDbEntity
  8
0
  6
Continuous
 62
     7
370
     0
100
AcDbSpline
210
0.0
220
0.0
230
1.0
 70
     8
 71
     3
 72
     8
 73
     4
 74
     0
 42
0.000000001
 43
0.00000001
 40
0.0000003132049583
 40
0.0000003132049583
 40
0.0000003132049583
 40
0.0000003132049583
 40
0.000870873641262
 40
0.000870873641262
 40
0.000870873641262
 40
0.000870873641262
 10
161.8069369359912
 20
157.9406391209641
 30
0.0
 10
161.6360141283989
 20
158.0843704377994
 30
0.0
 10
161.4666619617926
 20
158.2288097782596
 30
0.0
 10
161.2991225277107
 20
158.3740298548392
 30
0.0
  0
LINE
  5
A9
330
1F
100
AcDbEntity
  8
0
  6
Continuous
 62
     7
370
     0
100
AcDbLine
 10
161.2991222493
 20
154.4906577368
 30
0.0
 11
168.2987983651
 21
154.4906577368
 31
0.0
  0
SPLINE
  5
AA
330
1F
100
AcDbEntity
  8
0
  6
Continuous
 62
     7
370
     0
100
AcDbSpline
210
0.0
220
0.0
230
1.0
 70
     8
 71
     3
 72
     8
 73
     4
 74
     0
 42
0.000000001
 43
0.00000001
 40
0.0000003099922359
 40
0.0000003099922359
 40
0.0000003099922359
 40
0.0000003099922359
 40
0.0008708704285396
 40
0.0008708704285396
 40
0.0008708704285396
 40
0.0008708704285396
 10
168.2987991968442
 20
154.4906584244621
 30
0.0
 10
168.1312597627622
 20
154.6358785010417
 30
0.0
 10
167.9619075961559
 20
154.7803178415019
 30
0.0
 10
167.7909847885636
 20
154.9240491583372
 30
0.0
  0
SPLINE
  5
AB
330
1F
100
AcDbEntity
  8
0
  6
Continuous
 62
     7
370
     0
100
AcDbSpline
210
0.0
220
0.0
230
1.0
 70
     8
 71
     3
 72
     8
 73
     4
 74
     0
 42
0.000000001
 43
0.00000001
 40
0.0000003099922359
 40
0.0000003099922359
 40
0.0000003099922359
 40
0.0000003099922359
 40
0.0008708704285396
 40
0.0008708704285396
 40
0.0008708704285396
 40
0.0008708704285396
 10
161.2991225277107
 20
154.4906584244621
 30
0.0
 10
161.4666619617926
 20
154.6358785010416
 30
0.0
 10
161.6360141283989
 20
154.7803178415019
 30
0.0
 10
161.8069369359912
 20
154.9240491583372
 30
0.0
  0
LINE
  5
AC
330
1F
100
AcDbEntity
  8
0
  6
Continuous
 62
     7
370
     0
100
AcDbLine
 10
161.806937059
 20
158.9378375833
 30
0.0
 11
167.7909854181
 21
158.9378375833
 31
0.0
  0
LINE
  5
AD
330
1F
100
AcDbEntity
  8
0
  6
Continuous
 62
     7
370
     0
100
AcDbLine
 10
161.806937059
 20
158.9327534934
 30
0.0
 11
167.7909854181
 21
158.9327534934
 31
0.0
  0
LINE
  5
AE
330
1F
100
AcDbEntity
  8
0
  6
Continuous
 62
     7
370
     0
100
AcDbLine
 10
167.7909854181
 20
158.9327534934
 30
0.0
 11
167.7909854181
 21
158.9378375833
 31
0.0
  0
LINE
  5
AF
330
1F
100
AcDbEntity
  8
0
  6
Continuous
 62
     7
370
     0
100
AcDbLine
 10
161.806937059
 20
158.9327534934
 30
0.0
 11
161.806937059
 21
158.9378375833
 31
0.0
  0
SPLINE
  5
B0
330
1F
100
AcDbEntity
  8
0
  6
Continuous
 62
     7
370
     0
100
AcDbSpline
210
0.0
220
0.0
230
1.0
 70
     8
 71
     3
 72
     8
 73
     4
 74
     0
 42
0.000000001
 43
0.00000001
 40
0.0000003099922359
 40
0.0000003099922359
 40
0.0000003099922359
 40
0.0000003099922359
 40
0.0008708704285396
 40
0.0008708704285396
 40
0.0008708704285396
 40
0.0008708704285396
 10
168.2987991968442
 20
158.3740298548392
 30
0.0
 10
168.1312597627622
 20
158.5612464494648
 30
0.0
 10
167.9619075961559
 20
158.7474565251503
 30
0.0
 10
167.7909847885636
 20
158.9327538222786
 30
0.0
  0
SPLINE
  5
B1
330
1F
100
AcDbEntity
  8
0
  6
Continuous
 62
     7
370
     0
100
AcDbSpline
210
0.0
220
0.0
230
1.0
 70
     8
 71
     3
 72
     8
 73
     4
 74
     0
 42
0.000000001
 43
0.00000001
 40
0.0000003099922359
 40
0.0000003099922359
 40
0.0000003099922359
 40
0.0000003099922359
 40
0.0008708704285396
 40
0.0008708704285396
 40
0.0008708704285396
 40
0.0008708704285396
 10
161.2991225277107
 20
158.3740298548392
 30
0.0
 10
161.4666619617926
 20
158.5612464494648
 30
0.0
 10
161.6360141283989
 20
158.7474565251503
 30
0.0
 10
161.8069369359912
 20
158.9327538222786
 30
0.0
  0
LINE
  5
B2
330
1F
100
AcDbEntity
  8
0
  6
Continuous
 62
     7
370
     0
100
AcDbLine
 10
161.806937059
 20
153.9319349726
 30
0.0
 11
167.7909854181
 21
153.9319349726
 31
0.0
  0
LINE
  5
B3
330
1F
100
AcDbEntity
  8
0
  6
Continuous
 62
     7
370
     0
100
AcDbLine
 10
161.806937059
 20
153.926851814
 30
0.0
 11
167.7909854181
 21
153.926851814
 31
0.0
  0
LINE
  5
B4
330
1F
100
AcDbEntity
  8
0
  6
Continuous
 62
     7
370
     0
100
AcDbLine
 10
167.7909854181
 20
153.926851814
 30
0.0
 11
167.7909854181
 21
153.9319349726
 31
0.0
  0
LINE
  5
B5
330
1F
100
AcDbEntity
  8
0
  6
Continuous
 62
     7
370
     0
100
AcDbLine
 10
161.806937059
 20
153.926851814
 30
0.0
 11
161.806937059
 21
153.9319349726
 31
0.0
  0
SPLINE
  5
B6
330
1F
100
AcDbEntity
  8
0
  6
Continuous
 62
     7
370
     0
100
AcDbSpline
210
0.0
220
0.0
230
1.0
 70
     8
 71
     3
 72
     8
 73
     4
 74
     0
 42
0.000000001
 43
0.00000001
 40
0.0000003132049584
 40
0.0000003132049584
 40
0.0000003132049584
 40
0.0000003132049584
 40
0.000870873641262
 40
0.000870873641262
 40
0.000870873641262
 40
0.000870873641262
 10
167.7909847885636
 20
153.9319344570227
 30
0.0
 10
167.961907596156
 20
154.117231754151
 30
0.0
 10
168.1312597627622
 20
154.3034418298365
 30
0.0
 10
168.2987991968442
 20
154.4906584244621
 30
0.0
  0
SPLINE
  5
B7
330
1F
100
AcDbEntity
  8
0
  6
Continuous
 62
     7
370
     0
100
AcDbSpline
210
0.0
220
0.0
230
1.0
 70
     8
 71
     3
 72
     8
 73
     4
 74
     0
 42
0.000000001
 43
0.00000001
 40
0.0000003132049584
 40
0.0000003132049584
 40
0.0000003132049584
 40
0.0000003132049584
 40
0.000870873641262
 40
0.000870873641262
 40
0.000870873641262
 40
0.000870873641262
 10
161.8069369359912
 20
153.9319344570227
 30
0.0
 10
161.6360141283989
 20
154.117231754151
 30
0.0
 10
161.4666619617926
 20
154.3034418298365
 30
0.0
 10
161.2991225277107
 20
154.4906584244621
 30
0.0
  0
LINE
  5
B8
330
1F
100
AcDbEntity
  8
0
  6
Continuous
 62
     7
370
     0
100
AcDbLine
 10
161.2991222493
 20
159.3352906679
 30
0.0
 11
168.2987983651
 21
159.3352906679
 31
0.0
  0
SPLINE
  5
B9
330
1F
100
AcDbEntity
  8
0
  6
Continuous
 62
     7
370
     0
100
AcDbSpline
210
0.0
220
0.0
230
1.0
 70
     8
 71
     3
 72
     8
 73
     4
 74
     0
 42
0.000000001
 43
0.00000001
 40
0.0000002992216915
 40
0.0000002992216915
 40
0.0000002992216915
 40
0.0000002992216915
 40
0.0008708596579952
 40
0.0008708596579952
 40
0.0008708596579952
 40
0.0008708596579952
 10
167.7909847885636
 20
158.9378372735616
 30
0.0
 10
167.9619075961559
 20
159.0696500559213
 30
0.0
 10
168.1312597627622
 20
159.2021121509433
 30
0.0
 10
168.2987991968441
 20
159.3352902416331
 30
0.0
  0
SPLINE
  5
BA
330
1F
100
AcDbEntity
  8
0
  6
Continuous
 62
     7
370
     0
100
AcDbSpline
210
0.0
220
0.0
230
1.0
 70
     8
 71
     3
 72
     8
 73
     4
 74
     0
 42
0.000000001
 43
0.00000001
 40
0.0000002992216915
 40
0.0000002992216915
 40
0.0000002992216915
 40
0.0000002992216915
 40
0.0008708596579952
 40
0.0008708596579952
 40
0.0008708596579952
 40
0.0008708596579952
 10
161.8069369359912
 20
158.9378372735616
 30
0.0
 10
161.6360141283989
 20
159.0696500559213
 30
0.0
 10
161.4666619617926
 20
159.2021121509433
 30
0.0
 10
161.2991225277107
 20
159.3352902416331
 30
0.0
  0
LINE
  5
BB
330
1F
100
AcDbEntity
  8
0
  6
Continuous
 62
     7
370
     0
100
AcDbLine
 10
161.2991222493
 20
153.5293987294
 30
0.0
 11
168.2987983651
 21
153.5293987294
 31
0.0
  0
SPLINE
  5
BC
330
1F
100
AcDbEntity
  8
0
  6
Continuous
 62
     7
370
     0
100
AcDbSpline
210
0.0
220
0.0
230
1.0
 70
     8
 71
     3
 72
     8
 73
     4
 74
     0
 42
0.000000001
 43
0.00000001
 40
0.0000002961524522
 40
0.0000002961524522
 40
0.0000002961524522
 40
0.0000002961524522
 40
0.0008708565887559
 40
0.0008708565887559
 40
0.0008708565887559
 40
0.0008708565887559
 10
168.2987991968441
 20
153.5293980376682
 30
0.0
 10
168.1312597627622
 20
153.662576128358
 30
0.0
 10
167.9619075961559
 20
153.7950382233799
 30
0.0
 10
167.7909847885636
 20
153.9268510057397
 30
0.0
  0
SPLINE
  5
BD
330
1F
100
AcDbEntity
  8
0
  6
Continuous
 62
     7
370
     0
100
AcDbSpline
210
0.0
220
0.0
230
1.0
 70
     8
 71
     3
 72
     8
 73
     4
 74
     0
 42
0.000000001
 43
0.00000001
 40
0.0000002961524522
 40
0.0000002961524522
 40
0.0000002961524522
 40
0.0000002961524522
 40
0.0008708565887559
 40
0.0008708565887559
 40
0.0008708565887559
 40
0.0008708565887559
 10
161.2991225277107
 20
153.5293980376682
 30
0.0
 10
161.4666619617926
 20
153.662576128358
 30
0.0
 10
161.6360141283989
 20
153.7950382233799
 30
0.0
 10
161.8069369359912
 20
153.9268510057397
 30
0.0
  0
LINE
  5
BE
330
1F
100
AcDbEntity
  8
0
  6
Continuous
 62
     7
370
     0
100
AcDbLine
 10
161.806937059
 20
159.9201249232
 30
0.0
 11
167.7909854181
 21
159.9201249232
 31
0.0
  0
SPLINE
  5
BF
330
1F
100
AcDbEntity
  8
0
  6
Continuous
 62
     7
370
     0
100
AcDbSpline
210
0.0
220
0.0
230
1.0
 70
     8
 71
     3
 72
     8
 73
     4
 74
     0
 42
0.000000001
 43
0.00000001
 40
0.0000002961524522
 40
0.0000002961524522
 40
0.0000002961524522
 40
0.0000002961524522
 40
0.0008708565887559
 40
0.0008708565887559
 40
0.0008708565887559
 40
0.0008708565887559
 10
168.2987991968442
 20
159.3352902416331
 30
0.0
 10
168.1312597627622
 20
159.5312558511293
 30
0.0
 10
167.9619075961559
 20
159.726167904994
 30
0.0
 10
167.7909847885636
 20
159.9201245242903
 30
0.0
  0
SPLINE
  5
C0
330
1F
100
AcDbEntity
  8
0
  6
Continuous
 62
     7
370
     0
100
AcDbSpline
210
0.0
220
0.0
230
1.0
 70
     8
 71
     3
 72
     8
 73
     4
 74
     0
 42
0.000000001
 43
0.00000001
 40
0.0000002961524522
 40
0.0000002961524522
 40
0.0000002961524522
 40
0.0000002961524522
 40
0.0008708565887559
 40
0.0008708565887559
 40
0.0008708565887559
 40
0.0008708565887559
 10
161.2991225277107
 20
159.3352902416331
 30
0.0
 10
161.4666619617926
 20
159.5312558511293
 30
0.0
 10
161.6360141283989
 20
159.726167904994
 30
0.0
 10
161.8069369359912
 20
159.9201245242903
 30
0.0
  0
LINE
  5
C1
330
1F
100
AcDbEntity
  8
0
  6
Continuous
 62
     7
370
     0
100
AcDbLine
 10
161.806937059
 20
159.9251475458
 30
0.0
 11
167.7909854181
 21
159.9251475458
 31
0.0
  0
LINE
  5
C2
330
1F
100
AcDbEntity
  8
0
  6
Continuous
 62
     7
370
     0
100
AcDbLine
 10
167.7909854181
 20
159.9201249232
 30
0.0
 11
167.7909854181
 21
159.9251475458
 31
0.0
  0
LINE
  5
C3
330
1F
100
AcDbEntity
  8
0
  6
Continuous
 62
     7
370
     0
100
AcDbLine
 10
161.806937059
 20
159.9201249232
 30
0.0
 11
161.806937059
 21
159.9251475458
 31
0.0
  0
LINE
  5
C4
330
1F
100
AcDbEntity
  8
0
  6
Continuous
 62
     7
370
     0
100
AcDbLine
 10
161.806937059
 20
152.9445635428
 30
0.0
 11
167.7909854181
 21
152.9445635428
 31
0.0
  0
LINE
  5
C5
330
1F
100
AcDbEntity
  8
0
  6
Continuous
 62
     7
370
     0
100
AcDbLine
 10
161.806937059
 20
152.9395399888
 30
0.0
 11
167.7909854181
 21
152.9395399888
 31
0.0
  0
LINE
  5
C6
330
1F
100
AcDbEntity
  8
0
  6
Continuous
 62
     7
370
     0
100
AcDbLine
 10
167.7909854181
 20
152.9395399888
 30
0.0
 11
167.7909854181
 21
152.9445635428
 31
0.0
  0
LINE
  5
C7
330
1F
100
AcDbEntity
  8
0
  6
Continuous
 62
     7
370
     0
100
AcDbLine
 10
161.806937059
 20
152.9395399888
 30
0.0
 11
161.806937059
 21
152.9445635428
 31
0.0
  0
SPLINE
  5
C8
330
1F
100
AcDbEntity
  8
0
  6
Continuous
 62
     7
370
     0
100
AcDbSpline
210
0.0
220
0.0
230
1.0
 70
     8
 71
     3
 72
     8
 73
     4
 74
     0
 42
0.000000001
 43
0.00000001
 40
0.0000002992216915
 40
0.0000002992216915
 40
0.0000002992216915
 40
0.0000002992216915
 40
0.0008708596579952
 40
0.0008708596579952
 40
0.0008708596579952
 40
0.0008708596579952
 10
167.7909847885636
 20
152.944563755011
 30
0.0
 10
167.961907596156
 20
153.1385203743073
 30
0.0
 10
168.1312597627622
 20
153.333432428172
 30
0.0
 10
168.2987991968442
 20
153.5293980376682
 30
0.0
  0
SPLINE
  5
C9
330
1F
100
AcDbEntity
  8
0
  6
Continuous
 62
     7
370
     0
100
AcDbSpline
210
0.0
220
0.0
230
1.0
 70
     8
 71
     3
 72
     8
 73
     4
 74
     0
 42
0.000000001
 43
0.00000001
 40
0.0000002992216915
 40
0.0000002992216915
 40
0.0000002992216915
 40
0.0000002992216915
 40
0.0008708596579952
 40
0.0008708596579952
 40
0.0008708596579952
 40
0.0008708596579952
 10
161.8069369359912
 20
152.944563755011
 30
0.0
 10
161.6360141283989
 20
153.1385203743072
 30
0.0
 10
161.4666619617926
 20
153.333432428172
 30
0.0
 10
161.2991225277107
 20
153.5293980376682
 30
0.0
  0
LINE
  5
CA
330
1F
100
AcDbEntity
  8
0
  6
Continuous
 62
     7
370
     0
100
AcDbLine
 10
161.2991222493
 20
160.2850944077
 30
0.0
 11
168.2987983651
 21
160.2850944077
 31
0.0
  0
SPLINE
  5
CB
330
1F
100
AcDbEntity
  8
0
  6
Continuous
 62
     7
370
     0
100
AcDbSpline
210
0.0
220
0.0
230
1.0
 70
     8
 71
     3
 72
     8
 73
     4
 74
     0
 42
0.000000001
 43
0.00000001
 40
0.000000287519866
 40
0.000000287519866
 40
0.000000287519866
 40
0.000000287519866
 40
0.0008708479561697
 40
0.0008708479561697
 40
0.0008708479561697
 40
0.0008708479561697
 10
167.7909847885636
 20
159.9251473894105
 30
0.0
 10
167.9619075961559
 20
160.0445214324622
 30
0.0
 10
168.1312597627622
 20
160.1644835146731
 30
0.0
 10
168.2987991968442
 20
160.2850940263924
 30
0.0
  0
SPLINE
  5
CC
330
1F
100
AcDbEntity
  8
0
  6
Continuous
 62
     7
370
     0
100
AcDbSpline
210
0.0
220
0.0
230
1.0
 70
     8
 71
     3
 72
     8
 73
     4
 74
     0
 42
0.000000001
 43
0.00000001
 40
0.000000287519866
 40
0.000000287519866
 40
0.000000287519866
 40
0.000000287519866
 40
0.0008708479561697
 40
0.0008708479561697
 40
0.0008708479561697
 40
0.0008708479561697
 10
161.8069369359912
 20
159.9251473894105
 30
0.0
 10
161.6360141283989
 20
160.0445214324622
 30
0.0
 10
161.4666619617926
 20
160.1644835146731
 30
0.0
 10
161.2991225277107
 20
160.2850940263924
 30
0.0
  0
LINE
  5
CD
330
1F
100
AcDbEntity
  8
0
  6
Continuous
 62
     7
370
     0
100
AcDbLine
 10
161.2991222493
 20
152.5795949896
 30
0.0
 11
168.2987983651
 21
152.5795949896
 31
0.0
  0
SPLINE
  5
CE
330
1F
100
AcDbEntity
  8
0
  6
Continuous
 62
     7
370
     0
100
AcDbSpline
210
0.0
220
0.0
230
1.0
 70
     8
 71
     3
 72
     8
 73
     4
 74
     0
 42
0.000000001
 43
0.00000001
 40
0.0000002845706964
 40
0.0000002845706964
 40
0.0000002845706964
 40
0.0000002845706964
 40
0.0008708450070001
 40
0.0008708450070001
 40
0.0008708450070001
 40
0.0008708450070001
 10
168.2987991968442
 20
152.5795942529089
 30
0.0
 10
168.1312597627622
 20
152.7002047646282
 30
0.0
 10
167.9619075961559
 20
152.8201668468391
 30
0.0
 10
167.7909847885636
 20
152.9395408898908
 30
0.0
  0
SPLINE
  5
CF
330
1F
100
AcDbEntity
  8
0
  6
Continuous
 62
     7
370
     0
100
AcDbSpline
210
0.0
220
0.0
230
1.0
 70
     8
 71
     3
 72
     8
 73
     4
 74
     0
 42
0.000000001
 43
0.00000001
 40
0.0000002845706964
 40
0.0000002845706964
 40
0.0000002845706964
 40
0.0000002845706964
 40
0.0008708450070001
 40
0.0008708450070001
 40
0.0008708450070001
 40
0.0008708450070001
 10
161.2991225277107
 20
152.5795942529089
 30
0.0
 10
161.4666619617926
 20
152.7002047646282
 30
0.0
 10
161.6360141283989
 20
152.8201668468391
 30
0.0
 10
161.8069369359912
 20
152.9395408898908
 30
0.0
  0
LINE
  5
D0
330
1F
100
AcDbEntity
  8
0
  6
Continuous
 62
     7
370
     0
100
AcDbLine
 10
161.806937059
 20
160.893730474
 30
0.0
 11
167.7909854181
 21
160.893730474
 31
0.0
  0
SPLINE
  5
D1
330
1F
100
AcDbEntity
  8
0
  6
Continuous
 62
     7
370
     0
100
AcDbSpline
210
0.0
220
0.0
230
1.0
 70
     8
 71
     3
 72
     8
 73
     4
 74
     0
 42
0.000000001
 43
0.00000001
 40
0.0000002845706964
 40
0.0000002845706964
 40
0.0000002845706964
 40
0.0000002845706964
 40
0.0008708450070001
 40
0.0008708450070001
 40
0.0008708450070001
 40
0.0008708450070001
 10
168.2987991968442
 20
160.2850940263924
 30
0.0
 10
168.1312597627622
 20
160.4890352640266
 30
0.0
 10
167.9619075961559
 20
160.6918800672409
 30
0.0
 10
167.7909847885636
 20
160.8937305505391
 30
0.0
  0
SPLINE
  5
D2
330
1F
100
AcDbEntity
  8
0
  6
Continuous
 62
     7
370
     0
100
AcDbSpline
210
0.0
220
0.0
230
1.0
 70
     8
 71
     3
 72
     8
 73
     4
 74
     0
 42
0.000000001
 43
0.00000001
 40
0.0000002845706964
 40
0.0000002845706964
 40
0.0000002845706964
 40
0.0000002845706964
 40
0.0008708450070001
 40
0.0008708450070001
 40
0.0008708450070001
 40
0.0008708450070001
 10
161.2991225277107
 20
160.2850940263924
 30
0.0
 10
161.4666619617926
 20
160.4890352640266
 30
0.0
 10
161.6360141283989
 20
160.6918800672409
 30
0.0
 10
161.8069369359912
 20
160.8937305505391
 30
0.0
  0
LINE
  5
D3
330
1F
100
AcDbEntity
  8
0
  6
Continuous
 62
     7
370
     0
100
AcDbLine
 10
161.806937059
 20
160.8986730029
 30
0.0
 11
167.7909854181
 21
160.8986730029
 31
0.0
  0
LINE
  5
D4
330
1F
100
AcDbEntity
  8
0
  6
Continuous
 62
     7
370
     0
100
AcDbLine
 10
167.7909854181
 20
160.893730474
 30
0.0
 11
167.7909854181
 21
160.8986730029
 31
0.0
  0
LINE
  5
D5
330
1F
100
AcDbEntity
  8
0
  6
Continuous
 62
     7
370
     0
100
AcDbLine
 10
161.806937059
 20
160.893730474
 30
0.0
 11
161.806937059
 21
160.8986730029
 31
0.0
  0
LINE
  5
D6
330
1F
100
AcDbEntity
  8
0
  6
Continuous
 62
     7
370
     0
100
AcDbLine
 10
161.806937059
 20
151.9709570606
 30
0.0
 11
167.7909854181
 21
151.9709570606
 31
0.0
  0
SPLINE
  5
D7
330
1F
100
AcDbEntity
  8
0
  6
Continuous
 62
     7
370
     0
100
AcDbSpline
210
0.0
220
0.0
230
1.0
 70
     8
 71
     3
 72
     8
 73
     4
 74
     0
 42
0.000000001
 43
0.00000001
 40
0.000000287519866
 40
0.000000287519866
 40
0.000000287519866
 40
0.000000287519866
 40
0.0008708479561697
 40
0.0008708479561697
 40
0.0008708479561697
 40
0.0008708479561697
 10
167.7909847885636
 20
151.9709577287622
 30
0.0
 10
167.9619075961559
 20
152.1728082120604
 30
0.0
 10
168.1312597627622
 20
152.3756530152747
 30
0.0
 10
168.2987991968442
 20
152.5795942529089
 30
0.0
  0
SPLINE
  5
D8
330
1F
100
AcDbEntity
  8
0
  6
Continuous
 62
     7
370
     0
100
AcDbSpline
210
0.0
220
0.0
230
1.0
 70
     8
 71
     3
 72
     8
 73
     4
 74
     0
 42
0.000000001
 43
0.00000001
 40
0.000000287519866
 40
0.000000287519866
 40
0.000000287519866
 40
0.000000287519866
 40
0.0008708479561697
 40
0.0008708479561697
 40
0.0008708479561697
 40
0.0008708479561697
 10
161.8069369359912
 20
151.9709577287622
 30
0.0
 10
161.6360141283989
 20
152.1728082120604
 30
0.0
 10
161.4666619617926
 20
152.3756530152747
 30
0.0
 10
161.2991225277107
 20
152.5795942529089
 30
0.0
  0
LINE
  5
D9
330
1F
100
AcDbEntity
  8
0
  6
Continuous
 62
     7
370
     0
100
AcDbLine
 10
161.806937059
 20
151.966015463
 30
0.0
 11
167.7909854181
 21
151.966015463
 31
0.0
  0
LINE
  5
DA
330
1F
100
AcDbEntity
  8
0
  6
Continuous
 62
     7
370
     0
100
AcDbLine
 10
167.7909854181
 20
151.966015463
 30
0.0
 11
167.7909854181
 21
151.9709570606
 31
0.0
  0
LINE
  5
DB
330
1F
100
AcDbEntity
  8
0
  6
Continuous
 62
     7
370
     0
100
AcDbLine
 10
161.806937059
 20
151.966015463
 30
0.0
 11
161.806937059
 21
151.9709570606
 31
0.0
  0
LINE
  5
DC
330
1F
100
AcDbEntity
  8
0
  6
Continuous
 62
     7
370
     0
100
AcDbLine
 10
161.2991222493
 20
161.2196924438
 30
0.0
 11
168.2987983651
 21
161.2196924438
 31
0.0
  0
SPLINE
  5
DD
330
1F
100
AcDbEntity
  8
0
  6
Continuous
 62
     7
370
     0
100
AcDbSpline
210
0.0
220
0.0
230
1.0
 70
     8
 71
     3
 72
     8
 73
     4
 74
     0
 42
0.000000001
 43
0.00000001
 40
0.0000002777537673
 40
0.0000002777537673
 40
0.0000002777537673
 40
0.0000002777537673
 40
0.000870838190071
 40
0.000870838190071
 40
0.000870838190071
 40
0.000870838190071
 10
167.7909847885636
 20
160.8986730065426
 30
0.0
 10
167.9619075961559
 20
161.0051371954752
 30
0.0
 10
168.1312597627622
 20
161.1121258293419
 30
0.0
 10
168.2987991968442
 20
161.2196927675027
 30
0.0
  0
SPLINE
  5
DE
330
1F
100
AcDbEntity
  8
0
  6
Continuous
 62
     7
370
     0
100
AcDbSpline
210
0.0
220
0.0
230
1.0
 70
     8
 71
     3
 72
     8
 73
     4
 74
     0
 42
0.000000001
 43
0.00000001
 40
0.0000002777537673
 40
0.0000002777537673
 40
0.0000002777537673
 40
0.0000002777537673
 40
0.000870838190071
 40
0.000870838190071
 40
0.000870838190071
 40
0.000870838190071
 10
161.8069369359912
 20
160.8986730065426
 30
0.0
 10
161.6360141283989
 20
161.0051371954752
 30
0.0
 10
161.4666619617926
 20
161.1121258293419
 30
0.0
 10
161.2991225277107
 20
161.2196927675027
 30
0.0
  0
LINE
  5
DF
330
1F
100
AcDbEntity
  8
0
  6
Continuous
 62
     7
370
     0
100
AcDbLine
 10
161.2991222493
 20
151.6449960222
 30
0.0
 11
168.2987983651
 21
151.6449960222
 31
0.0
  0
SPLINE
  5
E0
330
1F
100
AcDbEntity
  8
0
  6
Continuous
 62
     7
370
     0
100
AcDbSpline
210
0.0
220
0.0
230
1.0
 70
     8
 71
     3
 72
     8
 73
     4
 74
     0
 42
0.000000001
 43
0.00000001
 40
0.0000002749048029
 40
0.0000002749048029
 40
0.0000002749048029
 40
0.0000002749048029
 40
0.0008708353411066
 40
0.0008708353411066
 40
0.0008708353411066
 40
0.0008708353411066
 10
168.2987991968441
 20
151.6449955117986
 30
0.0
 10
168.1312597627622
 20
151.7525624499594
 30
0.0
 10
167.9619075961559
 20
151.859551083826
 30
0.0
 10
167.7909847885636
 20
151.9660152727587
 30
0.0
  0
SPLINE
  5
E1
330
1F
100
AcDbEntity
  8
0
  6
Continuous
 62
     7
370
     0
100
AcDbSpline
210
0.0
220
0.0
230
1.0
 70
     8
 71
     3
 72
     8
 73
     4
 74
     0
 42
0.000000001
 43
0.00000001
 40
0.0000002749048029
 40
0.0000002749048029
 40
0.0000002749048029
 40
0.0000002749048029
 40
0.0008708353411066
 40
0.0008708353411066
 40
0.0008708353411066
 40
0.0008708353411066
 10
161.2991225277107
 20
151.6449955117986
 30
0.0
 10
161.4666619617926
 20
151.7525624499593
 30
0.0
 10
161.6360141283989
 20
151.859551083826
 30
0.0
 10
161.8069369359912
 20
151.9660152727587
 30
0.0
  0
LINE
  5
E2
330
1F
100
AcDbEntity
  8
0
  6
Continuous
 62
     7
370
     0
100
AcDbLine
 10
161.806937059
 20
161.8497293715
 30
0.0
 11
167.7909854181
 21
161.8497293715
 31
0.0
  0
SPLINE
  5
E3
330
1F
100
AcDbEntity
  8
0
  6
Continuous
 62
     7
370
     0
100
AcDbSpline
210
0.0
220
0.0
230
1.0
 70
     8
 71
     3
 72
     8
 73
     4
 74
     0
 42
0.000000001
 43
0.00000001
 40
0.0000002749048029
 40
0.0000002749048029
 40
0.0000002749048029
 40
0.0000002749048029
 40
0.0008708353411066
 40
0.0008708353411066
 40
0.0008708353411066
 40
0.0008708353411066
 10
168.2987991968442
 20
161.2196927675027
 30
0.0
 10
168.1312597627622
 20
161.430804770382
 30
0.0
 10
167.9619075961559
 20
161.6407817871784
 30
0.0
 10
167.7909847885636
 20
161.8497295228377
 30
0.0
  0
SPLINE
  5
E4
330
1F
100
AcDbEntity
  8
0
  6
Continuous
 62
     7
370
     0
100
AcDbSpline
210
0.0
220
0.0
230
1.0
 70
     8
 71
     3
 72
     8
 73
     4
 74
     0
 42
0.000000001
 43
0.00000001
 40
0.0000002749048029
 40
0.0000002749048029
 40
0.0000002749048029
 40
0.0000002749048029
 40
0.0008708353411066
 40
0.0008708353411066
 40
0.0008708353411066
 40
0.0008708353411066
 10
161.2991225277107
 20
161.2196927675027
 30
0.0
 10
161.4666619617926
 20
161.430804770382
 30
0.0
 10
161.6360141283989
 20
161.6407817871784
 30
0.0
 10
161.8069369359912
 20
161.8497295228377
 30
0.0
  0
LINE
  5
E5
330
1F
100
AcDbEntity
  8
0
  6
Continuous
 62
     7
370
     0
100
AcDbLine
 10
161.806937059
 20
161.8545722489
 30
0.0
 11
167.7909854181
 21
161.8545722489
 31
0.0
  0
LINE
  5
E6
330
1F
100
AcDbEntity
  8
0
  6
Continuous
 62
     7
370
     0
100
AcDbLine
 10
167.7909854181
 20
161.8497293715
 30
0.0
 11
167.7909854181
 21
161.8545722489
 31
0.0
  0
LINE
  5
E7
330
1F
100
AcDbEntity
  8
0
  6
Continuous
 62
     7
370
     0
100
AcDbLine
 10
161.806937059
 20
161.8497293715
 30
0.0
 11
161.806937059
 21
161.8545722489
 31
0.0
  0
LINE
  5
E8
330
1F
100
AcDbEntity
  8
0
  6
Continuous
 62
     7
370
     0
100
AcDbLine
 10
161.806937059
 20
151.0149581631
 30
0.0
 11
167.7909854181
 21
151.0149581631
 31
0.0
  0
SPLINE
  5
E9
330
1F
100
AcDbEntity
  8
0
  6
Continuous
 62
     7
370
     0
100
AcDbSpline
210
0.0
220
0.0
230
1.0
 70
     8
 71
     3
 72
     8
 73
     4
 74
     0
 42
0.000000001
 43
0.00000001
 40
0.0000002777537673
 40
0.0000002777537673
 40
0.0000002777537673
 40
0.0000002777537673
 40
0.000870838190071
 40
0.000870838190071
 40
0.000870838190071
 40
0.000870838190071
 10
167.7909847885636
 20
151.0149587564635
 30
0.0
 10
167.9619075961559
 20
151.2239064921229
 30
0.0
 10
168.1312597627622
 20
151.4338835089193
 30
0.0
 10
168.2987991968442
 20
151.6449955117986
 30
0.0
  0
SPLINE
  5
EA
330
1F
100
AcDbEntity
  8
0
  6
Continuous
 62
     7
370
     0
100
AcDbSpline
210
0.0
220
0.0
230
1.0
 70
     8
 71
     3
 72
     8
 73
     4
 74
     0
 42
0.000000001
 43
0.00000001
 40
0.0000002777537673
 40
0.0000002777537673
 40
0.0000002777537673
 40
0.0000002777537673
 40
0.000870838190071
 40
0.000870838190071
 40
0.000870838190071
 40
0.000870838190071
 10
161.8069369359912
 20
151.0149587564635
 30
0.0
 10
161.6360141283989
 20
151.2239064921229
 30
0.0
 10
161.4666619617926
 20
151.4338835089193
 30
0.0
 10
161.2991225277107
 20
151.6449955117986
 30
0.0
  0
LINE
  5
EB
330
1F
100
AcDbEntity
  8
0
  6
Continuous
 62
     7
370
     0
100
AcDbLine
 10
161.806937059
 20
151.0101152857
 30
0.0
 11
167.7909854181
 21
151.0101152857
 31
0.0
  0
LINE
  5
EC
330
1F
100
AcDbEntity
  8
0
  6
Continuous
 62
     7
370
     0
100
AcDbLine
 10
167.7909854181
 20
151.0101152857
 30
0.0
 11
167.7909854181
 21
151.0149581631
 31
0.0
  0
LINE
  5
ED
330
1F
100
AcDbEntity
  8
0
  6
Continuous
 62
     7
370
     0
100
AcDbLine
 10
161.806937059
 20
151.0101152857
 30
0.0
 11
161.806937059
 21
151.0149581631
 31
0.0
  0
LINE
  5
EE
330
1F
100
AcDbEntity
  8
0
  6
Continuous
 62
     7
370
     0
100
AcDbLine
 10
161.2991222493
 20
162.1353976701
 30
0.0
 11
168.2987983651
 21
162.1353976701
 31
0.0
  0
SPLINE
  5
EF
330
1F
100
AcDbEntity
  8
0
  6
Continuous
 62
     7
370
     0
100
AcDbSpline
210
0.0
220
0.0
230
1.0
 70
     8
 71
     3
 72
     8
 73
     4
 74
     0
 42
0.000000001
 43
0.00000001
 40
0.0000002696585783
 40
0.0000002696585783
 40
0.0000002696585783
 40
0.0000002696585783
 40
0.000870830094882
 40
0.000870830094882
 40
0.000870830094882
 40
0.000870830094882
 10
167.7909847885636
 20
161.8545720641086
 30
0.0
 10
167.9619075961559
 20
161.9477062334073
 30
0.0
 10
168.1312597627622
 20
162.0412991836705
 30
0.0
 10
168.2987991968441
 20
162.1353980307104
 30
0.0
  0
SPLINE
  5
F0
330
1F
100
AcDbEntity
  8
0
  6
Continuous
 62
     7
370
     0
100
AcDbSpline
210
0.0
220
0.0
230
1.0
 70
     8
 71
     3
 72
     8
 73
     4
 74
     0
 42
0.000000001
 43
0.00000001
 40
0.0000002696585783
 40
0.0000002696585783
 40
0.0000002696585783
 40
0.0000002696585783
 40
0.000870830094882
 40
0.000870830094882
 40
0.000870830094882
 40
0.000870830094882
 10
161.8069369359912
 20
161.8545720641086
 30
0.0
 10
161.6360141283989
 20
161.9477062334073
 30
0.0
 10
161.4666619617926
 20
162.0412991836705
 30
0.0
 10
161.2991225277107
 20
162.1353980307104
 30
0.0
  0
LINE
  5
F1
330
1F
100
AcDbEntity
  8
0
  6
Continuous
 62
     7
370
     0
100
AcDbLine
 10
161.2991222493
 20
150.7292898645
 30
0.0
 11
168.2987983651
 21
150.7292898645
 31
0.0
  0
SPLINE
  5
F2
330
1F
100
AcDbEntity
  8
0
  6
Continuous
 62
     7
370
     0
100
AcDbSpline
210
0.0
220
0.0
230
1.0
 70
     8
 71
     3
 72
     8
 73
     4
 74
     0
 42
0.000000001
 43
0.00000001
 40
0.000000266892673
 40
0.000000266892673
 40
0.000000266892673
 40
0.000000266892673
 40
0.0008708273289767
 40
0.0008708273289767
 40
0.0008708273289767
 40
0.0008708273289767
 10
168.2987991968442
 20
150.7292902485909
 30
0.0
 10
168.1312597627622
 20
150.8233890956308
 30
0.0
 10
167.961907596156
 20
150.916982045894
 30
0.0
 10
167.7909847885636
 20
151.0101162151927
 30
0.0
  0
SPLINE
  5
F3
330
1F
100
AcDbEntity
  8
0
  6
Continuous
 62
     7
370
     0
100
AcDbSpline
210
0.0
220
0.0
230
1.0
 70
     8
 71
     3
 72
     8
 73
     4
 74
     0
 42
0.000000001
 43
0.00000001
 40
0.000000266892673
 40
0.000000266892673
 40
0.000000266892673
 40
0.000000266892673
 40
0.0008708273289767
 40
0.0008708273289767
 40
0.0008708273289767
 40
0.0008708273289767
 10
161.2991225277107
 20
150.7292902485909
 30
0.0
 10
161.4666619617926
 20
150.8233890956308
 30
0.0
 10
161.6360141283989
 20
150.916982045894
 30
0.0
 10
161.8069369359912
 20
151.0101162151927
 30
0.0
  0
LINE
  5
F4
330
1F
100
AcDbEntity
  8
0
  6
Continuous
 62
     7
370
     0
100
AcDbLine
 10
161.806937059
 20
162.7843488281
 30
0.0
 11
167.7909854181
 21
162.7843488281
 31
0.0
  0
SPLINE
  5
F5
330
1F
100
AcDbEntity
  8
0
  6
Continuous
 62
     7
370
     0
100
AcDbSpline
210
0.0
220
0.0
230
1.0
 70
     8
 71
     3
 72
     8
 73
     4
 74
     0
 42
0.000000001
 43
0.00000001
 40
0.000000266892673
 40
0.000000266892673
 40
0.000000266892673
 40
0.000000266892673
 40
0.0008708273289767
 40
0.0008708273289767
 40
0.0008708273289767
 40
0.0008708273289767
 10
168.2987991968442
 20
162.1353980307104
 30
0.0
 10
168.1312597627622
 20
162.3528476362073
 30
0.0
 10
167.9619075961559
 20
162.56912818323
 30
0.0
 10
167.7909847885636
 20
162.7843485499969
 30
0.0
  0
SPLINE
  5
F6
330
1F
100
AcDbEntity
  8
0
  6
Continuous
 62
     7
370
     0
100
AcDbSpline
210
0.0
220
0.0
230
1.0
 70
     8
 71
     3
 72
     8
 73
     4
 74
     0
 42
0.000000001
 43
0.00000001
 40
0.000000266892673
 40
0.000000266892673
 40
0.000000266892673
 40
0.000000266892673
 40
0.0008708273289767
 40
0.0008708273289767
 40
0.0008708273289767
 40
0.0008708273289767
 10
161.2991225277107
 20
162.1353980307104
 30
0.0
 10
161.4666619617926
 20
162.3528476362073
 30
0.0
 10
161.6360141283989
 20
162.56912818323
 30
0.0
 10
161.8069369359912
 20
162.7843485499969
 30
0.0
  0
LINE
  5
F7
330
1F
100
AcDbEntity
  8
0
  6
Continuous
 62
     7
370
     0
100
AcDbLine
 10
161.806937059
 20
162.7890724962
 30
0.0
 11
167.7909854181
 21
162.7890724962
 31
0.0
  0
LINE
  5
F8
330
1F
100
AcDbEntity
  8
0
  6
Continuous
 62
     7
370
     0
100
AcDbLine
 10
167.7909854181
 20
162.7843488281
 30
0.0
 11
167.7909854181
 21
162.7890724962
 31
0.0
  0
LINE
  5
F9
330
1F
100
AcDbEntity
  8
0
  6
Continuous
 62
     7
370
     0
100
AcDbLine
 10
161.806937059
 20
162.7843488281
 30
0.0
 11
161.806937059
 21
162.7890724962
 31
0.0
  0
LINE
  5
FA
330
1F
100
AcDbEntity
  8
0
  6
Continuous
 62
     7
370
     0
100
AcDbLine
 10
161.806937059
 20
150.0803405692
 30
0.0
 11
167.7909854181
 21
150.0803405692
 31
0.0
  0
SPLINE
  5
FB
330
1F
100
AcDbEntity
  8
0
  6
Continuous
 62
     7
370
     0
100
AcDbSpline
210
0.0
220
0.0
230
1.0
 70
     8
 71
     3
 72
     8
 73
     4
 74
     0
 42
0.000000001
 43
0.00000001
 40
0.0000002696585783
 40
0.0000002696585783
 40
0.0000002696585783
 40
0.0000002696585783
 40
0.000870830094882
 40
0.000870830094882
 40
0.000870830094882
 40
0.000870830094882
 10
167.7909847885636
 20
150.0803397293044
 30
0.0
 10
167.961907596156
 20
150.2955600960713
 30
0.0
 10
168.1312597627622
 20
150.511840643094
 30
0.0
 10
168.2987991968442
 20
150.7292902485909
 30
0.0
  0
SPLINE
  5
FC
330
1F
100
AcDbEntity
  8
0
  6
Continuous
 62
     7
370
     0
100
AcDbSpline
210
0.0
220
0.0
230
1.0
 70
     8
 71
     3
 72
     8
 73
     4
 74
     0
 42
0.000000001
 43
0.00000001
 40
0.0000002696585783
 40
0.0000002696585783
 40
0.0000002696585783
 40
0.0000002696585783
 40
0.0008708300948821
 40
0.0008708300948821
 40
0.0008708300948821
 40
0.0008708300948821
 10
161.8069369359912
 20
150.0803397293044
 30
0.0
 10
161.6360141283989
 20
150.2955600960713
 30
0.0
 10
161.4666619617926
 20
150.511840643094
 30
0.0
 10
161.2991225277107
 20
150.7292902485909
 30
0.0
  0
LINE
  5
FD
330
1F
100
AcDbEntity
  8
0
  6
Continuous
 62
     7
370
     0
100
AcDbLine
 10
161.806937059
 20
150.0756169011
 30
0.0
 11
167.7909854181
 21
150.0756169011
 31
0.0
  0
LINE
  5
FE
330
1F
100
AcDbEntity
  8
0
  6
Continuous
 62
     7
370
     0
100
AcDbLine
 10
167.7909854181
 20
150.0756169011
 30
0.0
 11
167.7909854181
 21
150.0803405692
 31
0.0
  0
LINE
  5
FF
330
1F
100
AcDbEntity
  8
0
  6
Continuous
 62
     7
370
     0
100
AcDbLine
 10
161.806937059
 20
150.0756169011
 30
0.0
 11
161.806937059
 21
150.0803405692
 31
0.0
  0
LINE
  5
100
330
1F
100
AcDbEntity
  8
0
  6
Continuous
 62
     7
370
     0
100
AcDbLine
 10
161.2991222493
 20
163.0285956238
 30
0.0
 11
168.2987983651
 21
163.0285956238
 31
0.0
  0
SPLINE
  5
101
330
1F
100
AcDbEntity
  8
0
  6
Continuous
 62
     7
370
     0
100
AcDbSpline
210
0.0
220
0.0
230
1.0
 70
     8
 71
     3
 72
     8
 73
     4
 74
     0
 42
0.000000001
 43
0.00000001
 40
0.0000002630305631
 40
0.0000002630305631
 40
0.0000002630305631
 40
0.0000002630305631
 40
0.0008708234668668
 40
0.0008708234668668
 40
0.0008708234668668
 40
0.0008708234668668
 10
167.7909847885636
 20
162.7890720652371
 30
0.0
 10
167.9619075961559
 20
162.8685086568846
 30
0.0
 10
168.1312597627622
 20
162.948336554928
 30
0.0
 10
168.2987991968442
 20
163.0285959456876
 30
0.0
  0
SPLINE
  5
102
330
1F
100
AcDbEntity
  8
0
  6
Continuous
 62
     7
370
     0
100
AcDbSpline
210
0.0
220
0.0
230
1.0
 70
     8
 71
     3
 72
     8
 73
     4
 74
     0
 42
0.000000001
 43
0.00000001
 40
0.0000002630305631
 40
0.0000002630305631
 40
0.0000002630305631
 40
0.0000002630305631
 40
0.0008708234668668
 40
0.0008708234668668
 40
0.0008708234668668
 40
0.0008708234668668
 10
161.8069369359912
 20
162.7890720652371
 30
0.0
 10
161.6360141283989
 20
162.8685086568846
 30
0.0
 10
161.4666619617926
 20
162.948336554928
 30
0.0
 10
161.2991225277107
 20
163.0285959456876
 30
0.0
  0
LINE
  5
103
330
1F
100
AcDbEntity
  8
0
  6
Continuous
 62
     7
370
     0
100
AcDbLine
 10
161.2991222493
 20
149.8360919108
 30
0.0
 11
168.2987983651
 21
149.8360919108
 31
0.0
  0
SPLINE
  5
104
330
1F
100
AcDbEntity
  8
0
  6
Continuous
 62
     7
370
     0
100
AcDbSpline
210
0.0
220
0.0
230
1.0
 70
     8
 71
     3
 72
     8
 73
     4
 74
     0
 42
0.000000001
 43
0.00000001
 40
0.0000002603326621
 40
0.0000002603326621
 40
0.0000002603326621
 40
0.0000002603326621
 40
0.0008708207689658
 40
0.0008708207689658
 40
0.0008708207689658
 40
0.0008708207689658
 10
168.2987991968442
 20
149.8360923336137
 30
0.0
 10
168.1312597627622
 20
149.9163517243733
 30
0.0
 10
167.961907596156
 20
149.9961796224167
 30
0.0
 10
167.7909847885636
 20
150.0756162140642
 30
0.0
  0
SPLINE
  5
105
330
1F
100
AcDbEntity
  8
0
  6
Continuous
 62
     7
370
     0
100
AcDbSpline
210
0.0
220
0.0
230
1.0
 70
     8
 71
     3
 72
     8
 73
     4
 74
     0
 42
0.000000001
 43
0.00000001
 40
0.0000002603326621
 40
0.0000002603326621
 40
0.0000002603326621
 40
0.0000002603326621
 40
0.0008708207689658
 40
0.0008708207689658
 40
0.0008708207689658
 40
0.0008708207689658
 10
161.2991225277107
 20
149.8360923336137
 30
0.0
 10
161.4666619617926
 20
149.9163517243733
 30
0.0
 10
161.6360141283989
 20
149.9961796224167
 30
0.0
 10
161.8069369359912
 20
150.0756162140642
 30
0.0
  0
LINE
  5
106
330
1F
100
AcDbEntity
  8
0
  6
Continuous
 62
     7
370
     0
100
AcDbLine
 10
161.806937059
 20
163.6984847759
 30
0.0
 11
167.7909854181
 21
163.6984847759
 31
0.0
  0
LINE
  5
107
330
1F
100
AcDbEntity
  8
0
  6
Continuous
 62
     7
370
     0
100
AcDbLine
 10
161.806937059
 20
163.6938989435
 30
0.0
 11
167.7909854181
 21
163.6938989435
 31
0.0
  0
LINE
  5
108
330
1F
100
AcDbEntity
  8
0
  6
Continuous
 62
     7
370
     0
100
AcDbLine
 10
167.7909854181
 20
163.6938989435
 30
0.0
 11
167.7909854181
 21
163.6984847759
 31
0.0
  0
LINE
  5
109
330
1F
100
AcDbEntity
  8
0
  6
Continuous
 62
     7
370
     0
100
AcDbLine
 10
161.806937059
 20
163.6938989435
 30
0.0
 11
161.806937059
 21
163.6984847759
 31
0.0
  0
SPLINE
  5
10A
330
1F
100
AcDbEntity
  8
0
  6
Continuous
 62
     7
370
     0
100
AcDbSpline
210
0.0
220
0.0
230
1.0
 70
     8
 71
     3
 72
     8
 73
     4
 74
     0
 42
0.000000001
 43
0.00000001
 40
0.0000002603326621
 40
0.0000002603326621
 40
0.0000002603326621
 40
0.0000002603326621
 40
0.0008708207689658
 40
0.0008708207689658
 40
0.0008708207689658
 40
0.0008708207689658
 10
168.2987991968442
 20
163.0285959456876
 30
0.0
 10
168.1312597627622
 20
163.2515249795524
 30
0.0
 10
167.9619075961559
 20
163.4732554962915
 30
0.0
 10
167.7909847885636
 20
163.6938991177032
 30
0.0
  0
SPLINE
  5
10B
330
1F
100
AcDbEntity
  8
0
  6
Continuous
 62
     7
370
     0
100
AcDbSpline
210
0.0
220
0.0
230
1.0
 70
     8
 71
     3
 72
     8
 73
     4
 74
     0
 42
0.000000001
 43
0.00000001
 40
0.0000002603326621
 40
0.0000002603326621
 40
0.0000002603326621
 40
0.0000002603326621
 40
0.0008708207689658
 40
0.0008708207689658
 40
0.0008708207689658
 40
0.0008708207689658
 10
161.2991225277107
 20
163.0285959456876
 30
0.0
 10
161.4666619617926
 20
163.2515249795524
 30
0.0
 10
161.6360141283989
 20
163.4732554962915
 30
0.0
 10
161.8069369359912
 20
163.6938991177032
 30
0.0
  0
LINE
  5
10C
330
1F
100
AcDbEntity
  8
0
  6
Continuous
 62
     7
370
     0
100
AcDbLine
 10
161.806937059
 20
149.1707885911
 30
0.0
 11
167.7909854181
 21
149.1707885911
 31
0.0
  0
SPLINE
  5
10D
330
1F
100
AcDbEntity
  8
0
  6
Continuous
 62
     7
370
     0
100
AcDbSpline
210
0.0
220
0.0
230
1.0
 70
     8
 71
     3
 72
     8
 73
     4
 74
     0
 42
0.000000001
 43
0.00000001
 40
0.0000002630305631
 40
0.0000002630305631
 40
0.0000002630305631
 40
0.0000002630305631
 40
0.0008708234668668
 40
0.0008708234668668
 40
0.0008708234668668
 40
0.0008708234668668
 10
167.7909847885636
 20
149.1707891615982
 30
0.0
 10
167.9619075961559
 20
149.3914327830098
 30
0.0
 10
168.1312597627622
 20
149.6131632997489
 30
0.0
 10
168.2987991968442
 20
149.8360923336137
 30
0.0
  0
SPLINE
  5
10E
330
1F
100
AcDbEntity
  8
0
  6
Continuous
 62
     7
370
     0
100
AcDbSpline
210
0.0
220
0.0
230
1.0
 70
     8
 71
     3
 72
     8
 73
     4
 74
     0
 42
0.000000001
 43
0.00000001
 40
0.0000002630305631
 40
0.0000002630305631
 40
0.0000002630305631
 40
0.0000002630305631
 40
0.0008708234668668
 40
0.0008708234668668
 40
0.0008708234668668
 40
0.0008708234668668
 10
161.8069369359912
 20
149.1707891615982
 30
0.0
 10
161.6360141283989
 20
149.3914327830098
 30
0.0
 10
161.4666619617926
 20
149.6131632997489
 30
0.0
 10
161.2991225277107
 20
149.8360923336137
 30
0.0
  0
LINE
  5
10F
330
1F
100
AcDbEntity
  8
0
  6
Continuous
 62
     7
370
     0
100
AcDbLine
 10
161.806937059
 20
149.1662027587
 30
0.0
 11
167.7909854181
 21
149.1662027587
 31
0.0
  0
LINE
  5
110
330
1F
100
AcDbEntity
  8
0
  6
Continuous
 62
     7
370
     0
100
AcDbLine
 10
167.7909854181
 20
149.1662027587
 30
0.0
 11
167.7909854181
 21
149.1707885911
 31
0.0
  0
LINE
  5
111
330
1F
100
AcDbEntity
  8
0
  6
Continuous
 62
     7
370
     0
100
AcDbLine
 10
161.806937059
 20
149.1662027587
 30
0.0
 11
161.806937059
 21
149.1707885911
 31
0.0
  0
LINE
  5
112
330
1F
100
AcDbEntity
  8
0
  6
Continuous
 62
     7
370
     0
100
AcDbLine
 10
161.2991222493
 20
163.8957612489
 30
0.0
 11
168.2987983651
 21
163.8957612489
 31
0.0
  0
SPLINE
  5
113
330
1F
100
AcDbEntity
  8
0
  6
Continuous
 62
     7
370
     0
100
AcDbSpline
210
0.0
220
0.0
230
1.0
 70
     8
 71
     3
 72
     8
 73
     4
 74
     0
 42
0.000000001
 43
0.00000001
 40
0.0000002577132338
 40
0.0000002577132338
 40
0.0000002577132338
 40
0.0000002577132338
 40
0.0008708181495375
 40
0.0008708181495375
 40
0.0008708181495375
 40
0.0008708181495375
 10
167.7909847885636
 20
163.6984849653561
 30
0.0
 10
167.9619075961559
 20
163.7639104794163
 30
0.0
 10
168.1312597627622
 20
163.8296582809963
 30
0.0
 10
168.2987991968441
 20
163.8957614683272
 30
0.0
  0
SPLINE
  5
114
330
1F
100
AcDbEntity
  8
0
  6
Continuous
 62
     7
370
     0
100
AcDbSpline
210
0.0
220
0.0
230
1.0
 70
     8
 71
     3
 72
     8
 73
     4
 74
     0
 42
0.000000001
 43
0.00000001
 40
0.0000002577132338
 40
0.0000002577132338
 40
0.0000002577132338
 40
0.0000002577132338
 40
0.0008708181495375
 40
0.0008708181495375
 40
0.0008708181495375
 40
0.0008708181495375
 10
161.8069369359912
 20
163.6984849653561
 30
0.0
 10
161.6360141283989
 20
163.7639104794163
 30
0.0
 10
161.4666619617926
 20
163.8296582809963
 30
0.0
 10
161.2991225277107
 20
163.8957614683272
 30
0.0
  0
LINE
  5
115
330
1F
100
AcDbEntity
  8
0
  6
Continuous
 62
     7
370
     0
100
AcDbLine
 10
161.2991222493
 20
148.9689262857
 30
0.0
 11
168.2987983651
 21
148.9689262857
 31
0.0
  0
SPLINE
  5
116
330
1F
100
AcDbEntity
  8
0
  6
Continuous
 62
     7
370
     0
100
AcDbSpline
210
0.0
220
0.0
230
1.0
 70
     8
 71
     3
 72
     8
 73
     4
 74
     0
 42
0.000000001
 43
0.00000001
 40
0.0000002550698886
 40
0.0000002550698886
 40
0.0000002550698886
 40
0.0000002550698886
 40
0.0008708155061922
 40
0.0008708155061922
 40
0.0008708155061922
 40
0.0008708155061922
 10
168.2987991968442
 20
148.9689268109742
 30
0.0
 10
168.1312597627622
 20
149.035029998305
 30
0.0
 10
167.961907596156
 20
149.1007777998851
 30
0.0
 10
167.7909847885636
 20
149.1662033139452
 30
0.0
  0
SPLINE
  5
117
330
1F
100
AcDbEntity
  8
0
  6
Continuous
 62
     7
370
     0
100
AcDbSpline
210
0.0
220
0.0
230
1.0
 70
     8
 71
     3
 72
     8
 73
     4
 74
     0
 42
0.000000001
 43
0.00000001
 40
0.0000002550698886
 40
0.0000002550698886
 40
0.0000002550698886
 40
0.0000002550698886
 40
0.0008708155061923
 40
0.0008708155061923
 40
0.0008708155061923
 40
0.0008708155061923
 10
161.2991225277107
 20
148.9689268109742
 30
0.0
 10
161.4666619617926
 20
149.035029998305
 30
0.0
 10
161.6360141283989
 20
149.1007777998851
 30
0.0
 10
161.8069369359912
 20
149.1662033139452
 30
0.0
  0
LINE
  5
118
330
1F
100
AcDbEntity
  8
0
  6
Continuous
 62
     7
370
     0
100
AcDbLine
 10
158.7989607207
 20
156.432344233
 30
0.0
 11
158.7989607207
 21
142.4323438008
 31
0.0
  0
LINE
  5
119
330
1F
100
AcDbEntity
  8
0
  6
Continuous
 62
     7
370
     0
100
AcDbLine
 10
158.7989607207
 20
170.4323441994
 30
0.0
 11
158.7989607207
 21
156.432344233
 31
0.0
  0
LINE
  5
11A
330
1F
100
AcDbEntity
  8
0
  6
Continuous
 62
     7
370
     0
100
AcDbLine
 10
158.2989606388
 20
156.432344233
 30
0.0
 11
158.2989606388
 21
169.9323441175
 31
0.0
  0
LINE
  5
11B
330
1F
100
AcDbEntity
  8
0
  6
Continuous
 62
     7
370
     0
100
AcDbLine
 10
158.2989606388
 20
142.9323448141
 30
0.0
 11
158.2989606388
 21
156.432344233
 31
0.0
  0
LINE
  5
11C
330
1F
100
AcDbEntity
  8
0
  6
Continuous
 62
     7
370
     0
100
AcDbLine
 10
161.806937059
 20
164.5792216335
 30
0.0
 11
167.7909854181
 21
164.5792216335
 31
0.0
  0
LINE
  5
11D
330
1F
100
AcDbEntity
  8
0
  6
Continuous
 62
     7
370
     0
100
AcDbLine
 10
161.806937059
 20
164.5747913321
 30
0.0
 11
167.7909854181
 21
164.5747913321
 31
0.0
  0
LINE
  5
11E
330
1F
100
AcDbEntity
  8
0
  6
Continuous
 62
     7
370
     0
100
AcDbLine
 10
167.7909854181
 20
164.5747913321
 30
0.0
 11
167.7909854181
 21
164.5792216335
 31
0.0
  0
LINE
  5
11F
330
1F
100
AcDbEntity
  8
0
  6
Continuous
 62
     7
370
     0
100
AcDbLine
 10
161.806937059
 20
164.5747913321
 30
0.0
 11
161.806937059
 21
164.5792216335
 31
0.0
  0
SPLINE
  5
120
330
1F
100
AcDbEntity
  8
0
  6
Continuous
 62
     7
370
     0
100
AcDbSpline
210
0.0
220
0.0
230
1.0
 70
     8
 71
     3
 72
     8
 73
     4
 74
     0
 42
0.000000001
 43
0.00000001
 40
0.0000002550698886
 40
0.0000002550698886
 40
0.0000002550698886
 40
0.0000002550698886
 40
0.0008708155061922
 40
0.0008708155061922
 40
0.0008708155061922
 40
0.0008708155061922
 10
168.2987991968442
 20
163.8957614683272
 30
0.0
 10
168.1312597627622
 20
164.1232901315098
 30
0.0
 10
167.9619075961559
 20
164.3495955489147
 30
0.0
 10
167.7909847885636
 20
164.5747916454
 30
0.0
  0
SPLINE
  5
121
330
1F
100
AcDbEntity
  8
0
  6
Continuous
 62
     7
370
     0
100
AcDbSpline
210
0.0
220
0.0
230
1.0
 70
     8
 71
     3
 72
     8
 73
     4
 74
     0
 42
0.000000001
 43
0.00000001
 40
0.0000002550698886
 40
0.0000002550698886
 40
0.0000002550698886
 40
0.0000002550698886
 40
0.0008708155061922
 40
0.0008708155061922
 40
0.0008708155061922
 40
0.0008708155061922
 10
161.2991225277107
 20
163.8957614683272
 30
0.0
 10
161.4666619617926
 20
164.1232901315098
 30
0.0
 10
161.6360141283989
 20
164.3495955489147
 30
0.0
 10
161.8069369359912
 20
164.5747916454
 30
0.0
  0
LINE
  5
122
330
1F
100
AcDbEntity
  8
0
  6
Continuous
 62
     7
370
     0
100
AcDbLine
 10
161.806937059
 20
148.2898971339
 30
0.0
 11
167.7909854181
 21
148.2898971339
 31
0.0
  0
SPLINE
  5
123
330
1F
100
AcDbEntity
  8
0
  6
Continuous
 62
     7
370
     0
100
AcDbSpline
210
0.0
220
0.0
230
1.0
 70
     8
 71
     3
 72
     8
 73
     4
 74
     0
 42
0.000000001
 43
0.00000001
 40
0.0000002577132338
 40
0.0000002577132338
 40
0.0000002577132338
 40
0.0000002577132338
 40
0.0008708181495375
 40
0.0008708181495375
 40
0.0008708181495375
 40
0.0008708181495375
 10
167.7909847885636
 20
148.2898966339013
 30
0.0
 10
167.961907596156
 20
148.5150927303866
 30
0.0
 10
168.1312597627622
 20
148.7413981477915
 30
0.0
 10
168.2987991968442
 20
148.9689268109741
 30
0.0
  0
SPLINE
  5
124
330
1F
100
AcDbEntity
  8
0
  6
Continuous
 62
     7
370
     0
100
AcDbSpline
210
0.0
220
0.0
230
1.0
 70
     8
 71
     3
 72
     8
 73
     4
 74
     0
 42
0.000000001
 43
0.00000001
 40
0.0000002577132338
 40
0.0000002577132338
 40
0.0000002577132338
 40
0.0000002577132338
 40
0.0008708181495375
 40
0.0008708181495375
 40
0.0008708181495375
 40
0.0008708181495375
 10
161.8069369359912
 20
148.2898966339013
 30
0.0
 10
161.6360141283989
 20
148.5150927303866
 30
0.0
 10
161.4666619617926
 20
148.7413981477915
 30
0.0
 10
161.2991225277107
 20
148.9689268109741
 30
0.0
  0
LINE
  5
125
330
1F
100
AcDbEntity
  8
0
  6
Continuous
 62
     7
370
     0
100
AcDbLine
 10
161.806937059
 20
148.2854659011
 30
0.0
 11
167.7909854181
 21
148.2854659011
 31
0.0
  0
LINE
  5
126
330
1F
100
AcDbEntity
  8
0
  6
Continuous
 62
     7
370
     0
100
AcDbLine
 10
167.7909854181
 20
148.2854659011
 30
0.0
 11
167.7909854181
 21
148.2898971339
 31
0.0
  0
LINE
  5
127
330
1F
100
AcDbEntity
  8
0
  6
Continuous
 62
     7
370
     0
100
AcDbLine
 10
161.806937059
 20
148.2854659011
 30
0.0
 11
161.806937059
 21
148.2898971339
 31
0.0
  0
LINE
  5
128
330
1F
100
AcDbEntity
  8
0
  6
Continuous
 62
     7
370
     0
100
AcDbLine
 10
161.2991222493
 20
164.733471935
 30
0.0
 11
168.2987983651
 21
164.733471935
 31
0.0
  0
SPLINE
  5
129
330
1F
100
AcDbEntity
  8
0
  6
Continuous
 62
     7
370
     0
100
AcDbSpline
210
0.0
220
0.0
230
1.0
 70
     8
 71
     3
 72
     8
 73
     4
 74
     0
 42
0.000000001
 43
0.00000001
 40
0.0000002535875959
 40
0.0000002535875959
 40
0.0000002535875959
 40
0.0000002535875959
 40
0.0008708140238996
 40
0.0008708140238996
 40
0.0008708140238996
 40
0.0008708140238996
 10
167.7909847885636
 20
164.57922172722
 30
0.0
 10
167.9619075961559
 20
164.6303779590789
 30
0.0
 10
168.1312597627622
 20
164.68178618766
 30
0.0
 10
168.2987991968441
 20
164.7334722924815
 30
0.0
  0
SPLINE
  5
12A
330
1F
100
AcDbEntity
  8
0
  6
Continuous
 62
     7
370
     0
100
AcDbSpline
210
0.0
220
0.0
230
1.0
 70
     8
 71
     3
 72
     8
 73
     4
 74
     0
 42
0.000000001
 43
0.00000001
 40
0.0000002535875959
 40
0.0000002535875959
 40
0.0000002535875959
 40
0.0000002535875959
 40
0.0008708140238996
 40
0.0008708140238996
 40
0.0008708140238996
 40
0.0008708140238996
 10
161.8069369359912
 20
164.57922172722
 30
0.0
 10
161.6360141283989
 20
164.6303779590789
 30
0.0
 10
161.4666619617926
 20
164.68178618766
 30
0.0
 10
161.2991225277107
 20
164.7334722924815
 30
0.0
  0
LINE
  5
12B
330
1F
100
AcDbEntity
  8
0
  6
Continuous
 62
     7
370
     0
100
AcDbLine
 10
161.2991222493
 20
148.131216531
 30
0.0
 11
168.2987983651
 21
148.131216531
 31
0.0
  0
SPLINE
  5
12C
330
1F
100
AcDbEntity
  8
0
  6
Continuous
 62
     7
370
     0
100
AcDbSpline
210
0.0
220
0.0
230
1.0
 70
     8
 71
     3
 72
     8
 73
     4
 74
     0
 42
0.000000001
 43
0.00000001
 40
0.0000002509865792
 40
0.0000002509865792
 40
0.0000002509865792
 40
0.0000002509865792
 40
0.0008708114228829
 40
0.0008708114228829
 40
0.0008708114228829
 40
0.0008708114228829
 10
168.2987991968442
 20
148.1312159868198
 30
0.0
 10
168.1312597627622
 20
148.1829020916413
 30
0.0
 10
167.9619075961559
 20
148.2343103202224
 30
0.0
 10
167.7909847885636
 20
148.2854665520813
 30
0.0
  0
SPLINE
  5
12D
330
1F
100
AcDbEntity
  8
0
  6
Continuous
 62
     7
370
     0
100
AcDbSpline
210
0.0
220
0.0
230
1.0
 70
     8
 71
     3
 72
     8
 73
     4
 74
     0
 42
0.000000001
 43
0.00000001
 40
0.0000002509865792
 40
0.0000002509865792
 40
0.0000002509865792
 40
0.0000002509865792
 40
0.0008708114228829
 40
0.0008708114228829
 40
0.0008708114228829
 40
0.0008708114228829
 10
161.2991225277107
 20
148.1312159868198
 30
0.0
 10
161.4666619617926
 20
148.1829020916413
 30
0.0
 10
161.6360141283989
 20
148.2343103202224
 30
0.0
 10
161.8069369359912
 20
148.2854665520813
 30
0.0
  0
LINE
  5
12E
330
1F
100
AcDbEntity
  8
0
  6
Continuous
 62
     7
370
     0
100
AcDbLine
 10
161.806937059
 20
165.4235493665
 30
0.0
 11
167.7909854181
 21
165.4235493665
 31
0.0
  0
SPLINE
  5
12F
330
1F
100
AcDbEntity
  8
0
  6
Continuous
 62
     7
370
     0
100
AcDbSpline
210
0.0
220
0.0
230
1.0
 70
     8
 71
     3
 72
     8
 73
     4
 74
     0
 42
0.000000001
 43
0.00000001
 40
0.0000002509865792
 40
0.0000002509865792
 40
0.0000002509865792
 40
0.0000002509865792
 40
0.0008708114228829
 40
0.0008708114228829
 40
0.0008708114228829
 40
0.0008708114228829
 10
168.2987991968441
 20
164.7334722924815
 30
0.0
 10
168.1312597627622
 20
164.9647026332964
 30
0.0
 10
167.9619075961559
 20
165.1946898272737
 30
0.0
 10
167.7909847885636
 20
165.423549652722
 30
0.0
  0
SPLINE
  5
130
330
1F
100
AcDbEntity
  8
0
  6
Continuous
 62
     7
370
     0
100
AcDbSpline
210
0.0
220
0.0
230
1.0
 70
     8
 71
     3
 72
     8
 73
     4
 74
     0
 42
0.000000001
 43
0.00000001
 40
0.0000002509865792
 40
0.0000002509865792
 40
0.0000002509865792
 40
0.0000002509865792
 40
0.0008708114228829
 40
0.0008708114228829
 40
0.0008708114228829
 40
0.0008708114228829
 10
161.2991225277107
 20
164.7334722924815
 30
0.0
 10
161.4666619617926
 20
164.9647026332964
 30
0.0
 10
161.6360141283989
 20
165.1946898272737
 30
0.0
 10
161.8069369359912
 20
165.423549652722
 30
0.0
  0
LINE
  5
131
330
1F
100
AcDbEntity
  8
0
  6
Continuous
 62
     7
370
     0
100
AcDbLine
 10
161.806937059
 20
165.427806442
 30
0.0
 11
167.7909854181
 21
165.427806442
 31
0.0
  0
LINE
  5
132
330
1F
100
AcDbEntity
  8
0
  6
Continuous
 62
     7
370
     0
100
AcDbLine
 10
167.7909854181
 20
165.4235493665
 30
0.0
 11
167.7909854181
 21
165.427806442
 31
0.0
  0
LINE
  5
133
330
1F
100
AcDbEntity
  8
0
  6
Continuous
 62
     7
370
     0
100
AcDbLine
 10
161.806937059
 20
165.4235493665
 30
0.0
 11
161.806937059
 21
165.427806442
 31
0.0
  0
LINE
  5
134
330
1F
100
AcDbEntity
  8
0
  6
Continuous
 62
     7
370
     0
100
AcDbLine
 10
161.806937059
 20
147.4411381681
 30
0.0
 11
167.7909854181
 21
147.4411381681
 31
0.0
  0
SPLINE
  5
135
330
1F
100
AcDbEntity
  8
0
  6
Continuous
 62
     7
370
     0
100
AcDbSpline
210
0.0
220
0.0
230
1.0
 70
     8
 71
     3
 72
     8
 73
     4
 74
     0
 42
0.000000001
 43
0.00000001
 40
0.0000002535875959
 40
0.0000002535875959
 40
0.0000002535875959
 40
0.0000002535875959
 40
0.0008708140238996
 40
0.0008708140238996
 40
0.0008708140238996
 40
0.0008708140238996
 10
167.7909847885636
 20
147.4411386265793
 30
0.0
 10
167.9619075961559
 20
147.6699984520276
 30
0.0
 10
168.1312597627622
 20
147.8999856460049
 30
0.0
 10
168.2987991968442
 20
148.1312159868198
 30
0.0
  0
SPLINE
  5
136
330
1F
100
AcDbEntity
  8
0
  6
Continuous
 62
     7
370
     0
100
AcDbSpline
210
0.0
220
0.0
230
1.0
 70
     8
 71
     3
 72
     8
 73
     4
 74
     0
 42
0.000000001
 43
0.00000001
 40
0.0000002535875959
 40
0.0000002535875959
 40
0.0000002535875959
 40
0.0000002535875959
 40
0.0008708140238996
 40
0.0008708140238996
 40
0.0008708140238996
 40
0.0008708140238996
 10
161.8069369359912
 20
147.4411386265793
 30
0.0
 10
161.6360141283989
 20
147.6699984520276
 30
0.0
 10
161.4666619617926
 20
147.8999856460049
 30
0.0
 10
161.2991225277107
 20
148.1312159868198
 30
0.0
  0
LINE
  5
137
330
1F
100
AcDbEntity
  8
0
  6
Continuous
 62
     7
370
     0
100
AcDbLine
 10
161.806937059
 20
147.436882024
 30
0.0
 11
167.7909854181
 21
147.436882024
 31
0.0
  0
LINE
  5
138
330
1F
100
AcDbEntity
  8
0
  6
Continuous
 62
     7
370
     0
100
AcDbLine
 10
167.7909854181
 20
147.436882024
 30
0.0
 11
167.7909854181
 21
147.4411381681
 31
0.0
  0
LINE
  5
139
330
1F
100
AcDbEntity
  8
0
  6
Continuous
 62
     7
370
     0
100
AcDbLine
 10
161.806937059
 20
147.436882024
 30
0.0
 11
161.806937059
 21
147.4411381681
 31
0.0
  0
LINE
  5
13A
330
1F
100
AcDbEntity
  8
0
  6
Continuous
 62
     7
370
     0
100
AcDbLine
 10
161.2991222493
 20
165.5384224181
 30
0.0
 11
168.2987983651
 21
165.5384224181
 31
0.0
  0
SPLINE
  5
13B
330
1F
100
AcDbEntity
  8
0
  6
Continuous
 62
     7
370
     0
100
AcDbSpline
210
0.0
220
0.0
230
1.0
 70
     8
 71
     3
 72
     8
 73
     4
 74
     0
 42
0.000000001
 43
0.00000001
 40
0.0000002505652554
 40
0.0000002505652554
 40
0.0000002505652554
 40
0.0000002505652554
 40
0.000870811001559
 40
0.000870811001559
 40
0.000870811001559
 40
0.000870811001559
 10
167.7909847885636
 20
165.4278064852001
 30
0.0
 10
167.9619075961559
 20
165.4644915445817
 30
0.0
 10
168.1312597627622
 20
165.5013573153719
 30
0.0
 10
168.2987991968441
 20
165.5384223562413
 30
0.0
  0
SPLINE
  5
13C
330
1F
100
AcDbEntity
  8
0
  6
Continuous
 62
     7
370
     0
100
AcDbSpline
210
0.0
220
0.0
230
1.0
 70
     8
 71
     3
 72
     8
 73
     4
 74
     0
 42
0.000000001
 43
0.00000001
 40
0.0000002505652553
 40
0.0000002505652553
 40
0.0000002505652553
 40
0.0000002505652553
 40
0.000870811001559
 40
0.000870811001559
 40
0.000870811001559
 40
0.000870811001559
 10
161.8069369359912
 20
165.4278064852001
 30
0.0
 10
161.6360141283989
 20
165.4644915445817
 30
0.0
 10
161.4666619617926
 20
165.5013573153719
 30
0.0
 10
161.2991225277107
 20
165.5384223562413
 30
0.0
  0
LINE
  5
13D
330
1F
100
AcDbEntity
  8
0
  6
Continuous
 62
     7
370
     0
100
AcDbLine
 10
161.2991222493
 20
147.3262651165
 30
0.0
 11
168.2987983651
 21
147.3262651165
 31
0.0
  0
SPLINE
  5
13E
330
1F
100
AcDbEntity
  8
0
  6
Continuous
 62
     7
370
     0
100
AcDbSpline
210
0.0
220
0.0
230
1.0
 70
     8
 71
     3
 72
     8
 73
     4
 74
     0
 42
0.000000001
 43
0.00000001
 40
0.0000002479952473
 40
0.0000002479952473
 40
0.0000002479952473
 40
0.0000002479952473
 40
0.000870808431551
 40
0.000870808431551
 40
0.000870808431551
 40
0.000870808431551
 10
168.2987991968442
 20
147.32626592306
 30
0.0
 10
168.1312597627622
 20
147.3633309639295
 30
0.0
 10
167.9619075961559
 20
147.4001967347197
 30
0.0
 10
167.7909847885636
 20
147.4368817941012
 30
0.0
  0
SPLINE
  5
13F
330
1F
100
AcDbEntity
  8
0
  6
Continuous
 62
     7
370
     0
100
AcDbSpline
210
0.0
220
0.0
230
1.0
 70
     8
 71
     3
 72
     8
 73
     4
 74
     0
 42
0.000000001
 43
0.00000001
 40
0.0000002479952473
 40
0.0000002479952473
 40
0.0000002479952473
 40
0.0000002479952473
 40
0.000870808431551
 40
0.000870808431551
 40
0.000870808431551
 40
0.000870808431551
 10
161.2991225277107
 20
147.32626592306
 30
0.0
 10
161.4666619617926
 20
147.3633309639295
 30
0.0
 10
161.6360141283989
 20
147.4001967347197
 30
0.0
 10
161.8069369359912
 20
147.4368817941012
 30
0.0
  0
LINE
  5
140
330
1F
100
AcDbEntity
  8
0
  6
Continuous
 62
     7
370
     0
100
AcDbLine
 10
161.806937059
 20
166.2408901651
 30
0.0
 11
167.7909854181
 21
166.2408901651
 31
0.0
  0
LINE
  5
141
330
1F
100
AcDbEntity
  8
0
  6
Continuous
 62
     7
370
     0
100
AcDbLine
 10
161.806937059
 20
166.2368235451
 30
0.0
 11
167.7909854181
 21
166.2368235451
 31
0.0
  0
LINE
  5
142
330
1F
100
AcDbEntity
  8
0
  6
Continuous
 62
     7
370
     0
100
AcDbLine
 10
167.7909854181
 20
166.2368235451
 30
0.0
 11
167.7909854181
 21
166.2408901651
 31
0.0
  0
LINE
  5
143
330
1F
100
AcDbEntity
  8
0
  6
Continuous
 62
     7
370
     0
100
AcDbLine
 10
161.806937059
 20
166.2368235451
 30
0.0
 11
161.806937059
 21
166.2408901651
 31
0.0
  0
SPLINE
  5
144
330
1F
100
AcDbEntity
  8
0
  6
Continuous
 62
     7
370
     0
100
AcDbSpline
210
0.0
220
0.0
230
1.0
 70
     8
 71
     3
 72
     8
 73
     4
 74
     0
 42
0.000000001
 43
0.00000001
 40
0.0000002479952473
 40
0.0000002479952473
 40
0.0000002479952473
 40
0.0000002479952473
 40
0.000870808431551
 40
0.000870808431551
 40
0.000870808431551
 40
0.000870808431551
 10
168.2987991968441
 20
165.5384223562413
 30
0.0
 10
168.1312597627622
 20
165.7724418141724
 30
0.0
 10
167.9619075961559
 20
166.0052031303386
 30
0.0
 10
167.7909847885636
 20
166.2368234795751
 30
0.0
  0
SPLINE
  5
145
330
1F
100
AcDbEntity
  8
0
  6
Continuous
 62
     7
370
     0
100
AcDbSpline
210
0.0
220
0.0
230
1.0
 70
     8
 71
     3
 72
     8
 73
     4
 74
     0
 42
0.000000001
 43
0.00000001
 40
0.0000002479952473
 40
0.0000002479952473
 40
0.0000002479952473
 40
0.0000002479952473
 40
0.000870808431551
 40
0.000870808431551
 40
0.000870808431551
 40
0.000870808431551
 10
161.2991225277107
 20
165.5384223562413
 30
0.0
 10
161.4666619617926
 20
165.7724418141724
 30
0.0
 10
161.6360141283989
 20
166.0052031303386
 30
0.0
 10
161.8069369359912
 20
166.2368234795751
 30
0.0
  0
LINE
  5
146
330
1F
100
AcDbEntity
  8
0
  6
Continuous
 62
     7
370
     0
100
AcDbLine
 10
161.806937059
 20
146.6278644552
 30
0.0
 11
167.7909854181
 21
146.6278644552
 31
0.0
  0
SPLINE
  5
147
330
1F
100
AcDbEntity
  8
0
  6
Continuous
 62
     7
370
     0
100
AcDbSpline
210
0.0
220
0.0
230
1.0
 70
     8
 71
     3
 72
     8
 73
     4
 74
     0
 42
0.000000001
 43
0.00000001
 40
0.0000002505652553
 40
0.0000002505652553
 40
0.0000002505652553
 40
0.0000002505652553
 40
0.000870811001559
 40
0.000870811001559
 40
0.000870811001559
 40
0.000870811001559
 10
167.7909847885636
 20
146.6278647997263
 30
0.0
 10
167.961907596156
 20
146.8594851489627
 30
0.0
 10
168.1312597627622
 20
147.092246465129
 30
0.0
 10
168.2987991968442
 20
147.32626592306
 30
0.0
  0
SPLINE
  5
148
330
1F
100
AcDbEntity
  8
0
  6
Continuous
 62
     7
370
     0
100
AcDbSpline
210
0.0
220
0.0
230
1.0
 70
     8
 71
     3
 72
     8
 73
     4
 74
     0
 42
0.000000001
 43
0.00000001
 40
0.0000002505652553
 40
0.0000002505652553
 40
0.0000002505652553
 40
0.0000002505652553
 40
0.000870811001559
 40
0.000870811001559
 40
0.000870811001559
 40
0.000870811001559
 10
161.8069369359912
 20
146.6278647997263
 30
0.0
 10
161.6360141283989
 20
146.8594851489627
 30
0.0
 10
161.4666619617926
 20
147.092246465129
 30
0.0
 10
161.2991225277107
 20
147.32626592306
 30
0.0
  0
LINE
  5
149
330
1F
100
AcDbEntity
  8
0
  6
Continuous
 62
     7
370
     0
100
AcDbLine
 10
161.806937059
 20
146.6237983008
 30
0.0
 11
167.7909854181
 21
146.6237983008
 31
0.0
  0
LINE
  5
14A
330
1F
100
AcDbEntity
  8
0
  6
Continuous
 62
     7
370
     0
100
AcDbLine
 10
167.7909854181
 20
146.6237983008
 30
0.0
 11
167.7909854181
 21
146.6278644552
 31
0.0
  0
LINE
  5
14B
330
1F
100
AcDbEntity
  8
0
  6
Continuous
 62
     7
370
     0
100
AcDbLine
 10
161.806937059
 20
146.6237983008
 30
0.0
 11
161.806937059
 21
146.6278644552
 31
0.0
  0
LINE
  5
14C
330
1F
100
AcDbEntity
  8
0
  6
Continuous
 62
     7
370
     0
100
AcDbLine
 10
161.2991222493
 20
166.3074350257
 30
0.0
 11
168.2987983651
 21
166.3074350257
 31
0.0
  0
SPLINE
  5
14D
330
1F
100
AcDbEntity
  8
0
  6
Continuous
 62
     7
370
     0
100
AcDbSpline
210
0.0
220
0.0
230
1.0
 70
     8
 71
     3
 72
     8
 73
     4
 74
     0
 42
0.000000001
 43
0.00000001
 40
0.0000002485836013
 40
0.0000002485836013
 40
0.0000002485836013
 40
0.0000002485836013
 40
0.000870809019905
 40
0.000870809019905
 40
0.000870809019905
 40
0.000870809019905
 10
167.7909847885636
 20
166.2408902629381
 30
0.0
 10
167.9619075961559
 20
166.2629593706728
 30
0.0
 10
168.1312597627622
 20
166.2851371913171
 30
0.0
 10
168.2987991968442
 20
166.3074348894517
 30
0.0
  0
SPLINE
  5
14E
330
1F
100
AcDbEntity
  8
0
  6
Continuous
 62
     7
370
     0
100
AcDbSpline
210
0.0
220
0.0
230
1.0
 70
     8
 71
     3
 72
     8
 73
     4
 74
     0
 42
0.000000001
 43
0.00000001
 40
0.0000002485836013
 40
0.0000002485836013
 40
0.0000002485836013
 40
0.0000002485836013
 40
0.000870809019905
 40
0.000870809019905
 40
0.000870809019905
 40
0.000870809019905
 10
161.8069369359912
 20
166.2408902629381
 30
0.0
 10
161.6360141283989
 20
166.2629593706728
 30
0.0
 10
161.4666619617926
 20
166.2851371913171
 30
0.0
 10
161.2991225277107
 20
166.3074348894517
 30
0.0
  0
LINE
  5
14F
330
1F
100
AcDbEntity
  8
0
  6
Continuous
 62
     7
370
     0
100
AcDbLine
 10
161.2991222493
 20
146.5572534402
 30
0.0
 11
168.2987983651
 21
146.5572534402
 31
0.0
  0
SPLINE
  5
150
330
1F
100
AcDbEntity
  8
0
  6
Continuous
 62
     7
370
     0
100
AcDbSpline
210
0.0
220
0.0
230
1.0
 70
     8
 71
     3
 72
     8
 73
     4
 74
     0
 42
0.000000001
 43
0.00000001
 40
0.0000002460339245
 40
0.0000002460339245
 40
0.0000002460339245
 40
0.0000002460339245
 40
0.0008708064702282
 40
0.0008708064702282
 40
0.0008708064702282
 40
0.0008708064702282
 10
168.2987991968442
 20
146.5572533898497
 30
0.0
 10
168.1312597627623
 20
146.5795510879843
 30
0.0
 10
167.961907596156
 20
146.6017289086286
 30
0.0
 10
167.7909847885636
 20
146.6237980163633
 30
0.0
  0
SPLINE
  5
151
330
1F
100
AcDbEntity
  8
0
  6
Continuous
 62
     7
370
     0
100
AcDbSpline
210
0.0
220
0.0
230
1.0
 70
     8
 71
     3
 72
     8
 73
     4
 74
     0
 42
0.000000001
 43
0.00000001
 40
0.0000002460339245
 40
0.0000002460339245
 40
0.0000002460339245
 40
0.0000002460339245
 40
0.0008708064702282
 40
0.0008708064702282
 40
0.0008708064702282
 40
0.0008708064702282
 10
161.2991225277107
 20
146.5572533898497
 30
0.0
 10
161.4666619617926
 20
146.5795510879842
 30
0.0
 10
161.6360141283989
 20
146.6017289086286
 30
0.0
 10
161.8069369359912
 20
146.6237980163633
 30
0.0
  0
LINE
  5
152
330
1F
100
AcDbEntity
  8
0
  6
Continuous
 62
     7
370
     0
100
AcDbLine
 10
161.806937059
 20
167.0114035991
 30
0.0
 11
167.7909854181
 21
167.0114035991
 31
0.0
  0
SPLINE
  5
153
330
1F
100
AcDbEntity
  8
0
  6
Continuous
 62
     7
370
     0
100
AcDbSpline
210
0.0
220
0.0
230
1.0
 70
     8
 71
     3
 72
     8
 73
     4
 74
     0
 42
0.000000001
 43
0.00000001
 40
0.0000002460339245
 40
0.0000002460339245
 40
0.0000002460339245
 40
0.0000002460339245
 40
0.0008708064702282
 40
0.0008708064702282
 40
0.0008708064702282
 40
0.0008708064702282
 10
168.2987991968441
 20
166.3074348894517
 30
0.0
 10
168.1312597627622
 20
166.5433198966117
 30
0.0
 10
167.9619075961559
 20
166.7779367323905
 30
0.0
 10
167.7909847885636
 20
167.0114035057139
 30
0.0
  0
SPLINE
  5
154
330
1F
100
AcDbEntity
  8
0
  6
Continuous
 62
     7
370
     0
100
AcDbSpline
210
0.0
220
0.0
230
1.0
 70
     8
 71
     3
 72
     8
 73
     4
 74
     0
 42
0.000000001
 43
0.00000001
 40
0.0000002460339245
 40
0.0000002460339245
 40
0.0000002460339245
 40
0.0000002460339245
 40
0.0008708064702282
 40
0.0008708064702282
 40
0.0008708064702282
 40
0.0008708064702282
 10
161.2991225277107
 20
166.3074348894517
 30
0.0
 10
161.4666619617926
 20
166.5433198966117
 30
0.0
 10
161.6360141283989
 20
166.7779367323905
 30
0.0
 10
161.8069369359912
 20
167.0114035057139
 30
0.0
  0
LINE
  5
155
330
1F
100
AcDbEntity
  8
0
  6
Continuous
 62
     7
370
     0
100
AcDbLine
 10
161.806937059
 20
167.0152643968
 30
0.0
 11
167.7909854181
 21
167.0152643968
 31
0.0
  0
LINE
  5
156
330
1F
100
AcDbEntity
  8
0
  6
Continuous
 62
     7
370
     0
100
AcDbLine
 10
167.7909854181
 20
167.0114035991
 30
0.0
 11
167.7909854181
 21
167.0152643968
 31
0.0
  0
LINE
  5
157
330
1F
100
AcDbEntity
  8
0
  6
Continuous
 62
     7
370
     0
100
AcDbLine
 10
161.806937059
 20
167.0114035991
 30
0.0
 11
161.806937059
 21
167.0152643968
 31
0.0
  0
LINE
  5
158
330
1F
100
AcDbEntity
  8
0
  6
Continuous
 62
     7
370
     0
100
AcDbLine
 10
161.806937059
 20
145.8532853325
 30
0.0
 11
167.7909854181
 21
145.8532853325
 31
0.0
  0
LINE
  5
159
330
1F
100
AcDbEntity
  8
0
  6
Continuous
 62
     7
370
     0
100
AcDbLine
 10
161.806937059
 20
145.8494240691
 30
0.0
 11
167.7909854181
 21
145.8494240691
 31
0.0
  0
LINE
  5
15A
330
1F
100
AcDbEntity
  8
0
  6
Continuous
 62
     7
370
     0
100
AcDbLine
 10
167.7909854181
 20
145.8494240691
 30
0.0
 11
167.7909854181
 21
145.8532853325
 31
0.0
  0
LINE
  5
15B
330
1F
100
AcDbEntity
  8
0
  6
Continuous
 62
     7
370
     0
100
AcDbLine
 10
161.806937059
 20
145.8494240691
 30
0.0
 11
161.806937059
 21
145.8532853325
 31
0.0
  0
SPLINE
  5
15C
330
1F
100
AcDbEntity
  8
0
  6
Continuous
 62
     7
370
     0
100
AcDbSpline
210
0.0
220
0.0
230
1.0
 70
     8
 71
     3
 72
     8
 73
     4
 74
     0
 42
0.000000001
 43
0.00000001
 40
0.0000002485836013
 40
0.0000002485836013
 40
0.0000002485836013
 40
0.0000002485836013
 40
0.000870809019905
 40
0.000870809019905
 40
0.000870809019905
 40
0.000870809019905
 10
167.7909847885636
 20
145.8532847735874
 30
0.0
 10
167.961907596156
 20
146.0867515469108
 30
0.0
 10
168.1312597627622
 20
146.3213683826896
 30
0.0
 10
168.2987991968442
 20
146.5572533898497
 30
0.0
  0
SPLINE
  5
15D
330
1F
100
AcDbEntity
  8
0
  6
Continuous
 62
     7
370
     0
100
AcDbSpline
210
0.0
220
0.0
230
1.0
 70
     8
 71
     3
 72
     8
 73
     4
 74
     0
 42
0.000000001
 43
0.00000001
 40
0.0000002485836013
 40
0.0000002485836013
 40
0.0000002485836013
 40
0.0000002485836013
 40
0.0008708090199051
 40
0.0008708090199051
 40
0.0008708090199051
 40
0.0008708090199051
 10
161.8069369359912
 20
145.8532847735874
 30
0.0
 10
161.6360141283989
 20
146.0867515469108
 30
0.0
 10
161.4666619617926
 20
146.3213683826897
 30
0.0
 10
161.2991225277107
 20
146.5572533898497
 30
0.0
  0
LINE
  5
15E
330
1F
100
AcDbEntity
  8
0
  6
Continuous
 62
     7
370
     0
100
AcDbLine
 10
161.2991222493
 20
167.0374750433
 30
0.0
 11
168.2987983651
 21
167.0374750433
 31
0.0
  0
SPLINE
  5
15F
330
1F
100
AcDbEntity
  8
0
  6
Continuous
 62
     7
370
     0
100
AcDbSpline
210
0.0
220
0.0
230
1.0
 70
     8
 71
     3
 72
     8
 73
     4
 74
     0
 42
0.000000001
 43
0.00000001
 40
0.0000002476025541
 40
0.0000002476025541
 40
0.0000002476025541
 40
0.0000002476025541
 40
0.0008708080388578
 40
0.0008708080388578
 40
0.0008708080388578
 40
0.0008708080388578
 10
167.7909847885636
 20
167.015264190226
 30
0.0
 10
167.9619075961559
 20
167.022630249628
 30
0.0
 10
168.1312597627622
 20
167.0300325944005
 30
0.0
 10
168.2987991968441
 20
167.0374749509724
 30
0.0
  0
SPLINE
  5
160
330
1F
100
AcDbEntity
  8
0
  6
Continuous
 62
     7
370
     0
100
AcDbSpline
210
0.0
220
0.0
230
1.0
 70
     8
 71
     3
 72
     8
 73
     4
 74
     0
 42
0.000000001
 43
0.00000001
 40
0.0000002476025541
 40
0.0000002476025541
 40
0.0000002476025541
 40
0.0000002476025541
 40
0.0008708080388578
 40
0.0008708080388578
 40
0.0008708080388578
 40
0.0008708080388578
 10
161.8069369359912
 20
167.015264190226
 30
0.0
 10
161.6360141283989
 20
167.022630249628
 30
0.0
 10
161.4666619617926
 20
167.0300325944005
 30
0.0
 10
161.2991225277107
 20
167.0374749509724
 30
0.0
  0
LINE
  5
161
330
1F
100
AcDbEntity
  8
0
  6
Continuous
 62
     7
370
     0
100
AcDbLine
 10
161.2991222493
 20
145.8272138883
 30
0.0
 11
168.2987983651
 21
145.8272138883
 31
0.0
  0
SPLINE
  5
162
330
1F
100
AcDbEntity
  8
0
  6
Continuous
 62
     7
370
     0
100
AcDbSpline
210
0.0
220
0.0
230
1.0
 70
     8
 71
     3
 72
     8
 73
     4
 74
     0
 42
0.000000001
 43
0.00000001
 40
0.0000002450629426
 40
0.0000002450629426
 40
0.0000002450629426
 40
0.0000002450629426
 40
0.0008708054992462
 40
0.0008708054992462
 40
0.0008708054992462
 40
0.0008708054992462
 10
168.2987991968442
 20
145.827213328329
 30
0.0
 10
168.1312597627622
 20
145.8346556849009
 30
0.0
 10
167.9619075961559
 20
145.8420580296734
 30
0.0
 10
167.7909847885636
 20
145.8494240890753
 30
0.0
  0
SPLINE
  5
163
330
1F
100
AcDbEntity
  8
0
  6
Continuous
 62
     7
370
     0
100
AcDbSpline
210
0.0
220
0.0
230
1.0
 70
     8
 71
     3
 72
     8
 73
     4
 74
     0
 42
0.000000001
 43
0.00000001
 40
0.0000002450629425
 40
0.0000002450629425
 40
0.0000002450629425
 40
0.0000002450629425
 40
0.0008708054992462
 40
0.0008708054992462
 40
0.0008708054992462
 40
0.0008708054992462
 10
161.2991225277107
 20
145.827213328329
 30
0.0
 10
161.4666619617927
 20
145.8346556849009
 30
0.0
 10
161.6360141283989
 20
145.8420580296734
 30
0.0
 10
161.8069369359912
 20
145.8494240890753
 30
0.0
  0
LINE
  5
164
330
1F
100
AcDbEntity
  8
0
  6
Continuous
 62
     7
370
     0
100
AcDbLine
 10
161.806937059
 20
167.7442329277
 30
0.0
 11
167.7909854181
 21
167.7442329277
 31
0.0
  0
SPLINE
  5
165
330
1F
100
AcDbEntity
  8
0
  6
Continuous
 62
     7
370
     0
100
AcDbSpline
210
0.0
220
0.0
230
1.0
 70
     8
 71
     3
 72
     8
 73
     4
 74
     0
 42
0.000000001
 43
0.00000001
 40
0.0000002450629425
 40
0.0000002450629425
 40
0.0000002450629425
 40
0.0000002450629425
 40
0.0008708054992462
 40
0.0008708054992462
 40
0.0008708054992462
 40
0.0008708054992462
 10
168.2987991968441
 20
167.0374749509724
 30
0.0
 10
168.1312597627622
 20
167.2742945770038
 30
0.0
 10
167.9619075961559
 20
167.5098410069306
 30
0.0
 10
167.7909847885636
 20
167.7442328176474
 30
0.0
  0
SPLINE
  5
166
330
1F
100
AcDbEntity
  8
0
  6
Continuous
 62
     7
370
     0
100
AcDbSpline
210
0.0
220
0.0
230
1.0
 70
     8
 71
     3
 72
     8
 73
     4
 74
     0
 42
0.000000001
 43
0.00000001
 40
0.0000002450629425
 40
0.0000002450629425
 40
0.0000002450629425
 40
0.0000002450629425
 40
0.0008708054992462
 40
0.0008708054992462
 40
0.0008708054992462
 40
0.0008708054992462
 10
161.2991225277107
 20
167.0374749509724
 30
0.0
 10
161.4666619617926
 20
167.2742945770038
 30
0.0
 10
161.6360141283989
 20
167.5098410069306
 30
0.0
 10
161.8069369359912
 20
167.7442328176474
 30
0.0
  0
LINE
  5
167
330
1F
100
AcDbEntity
  8
0
  6
Continuous
 62
     7
370
     0
100
AcDbLine
 10
161.806937059
 20
167.7478720707
 30
0.0
 11
167.7909854181
 21
167.7478720707
 31
0.0
  0
LINE
  5
168
330
1F
100
AcDbEntity
  8
0
  6
Continuous
 62
     7
370
     0
100
AcDbLine
 10
167.7909854181
 20
167.7442329277
 30
0.0
 11
167.7909854181
 21
167.7478720707
 31
0.0
  0
LINE
  5
169
330
1F
100
AcDbEntity
  8
0
  6
Continuous
 62
     7
370
     0
100
AcDbLine
 10
161.806937059
 20
167.7442329277
 30
0.0
 11
161.806937059
 21
167.7478720707
 31
0.0
  0
LINE
  5
16A
330
1F
100
AcDbEntity
  8
0
  6
Continuous
 62
     7
370
     0
100
AcDbLine
 10
161.806937059
 20
145.1204555382
 30
0.0
 11
167.7909854181
 21
145.1204555382
 31
0.0
  0
SPLINE
  5
16B
330
1F
100
AcDbEntity
  8
0
  6
Continuous
 62
     7
370
     0
100
AcDbSpline
210
0.0
220
0.0
230
1.0
 70
     8
 71
     3
 72
     8
 73
     4
 74
     0
 42
0.000000001
 43
0.00000001
 40
0.0000002476025541
 40
0.0000002476025541
 40
0.0000002476025541
 40
0.0000002476025541
 40
0.0008708080388578
 40
0.0008708080388578
 40
0.0008708080388578
 40
0.0008708080388578
 10
167.7909847885636
 20
145.1204554616539
 30
0.0
 10
167.9619075961559
 20
145.3548472723708
 30
0.0
 10
168.1312597627622
 20
145.5903937022976
 30
0.0
 10
168.2987991968442
 20
145.827213328329
 30
0.0
  0
SPLINE
  5
16C
330
1F
100
AcDbEntity
  8
0
  6
Continuous
 62
     7
370
     0
100
AcDbSpline
210
0.0
220
0.0
230
1.0
 70
     8
 71
     3
 72
     8
 73
     4
 74
     0
 42
0.000000001
 43
0.00000001
 40
0.0000002476025541
 40
0.0000002476025541
 40
0.0000002476025541
 40
0.0000002476025541
 40
0.0008708080388578
 40
0.0008708080388578
 40
0.0008708080388578
 40
0.0008708080388578
 10
161.8069369359912
 20
145.1204554616539
 30
0.0
 10
161.6360141283989
 20
145.3548472723708
 30
0.0
 10
161.4666619617926
 20
145.5903937022976
 30
0.0
 10
161.2991225277107
 20
145.827213328329
 30
0.0
  0
LINE
  5
16D
330
1F
100
AcDbEntity
  8
0
  6
Continuous
 62
     7
370
     0
100
AcDbLine
 10
161.806937059
 20
145.1168159296
 30
0.0
 11
167.7909854181
 21
145.1168159296
 31
0.0
  0
LINE
  5
16E
330
1F
100
AcDbEntity
  8
0
  6
Continuous
 62
     7
370
     0
100
AcDbLine
 10
167.7909854181
 20
145.1168159296
 30
0.0
 11
167.7909854181
 21
145.1204555382
 31
0.0
  0
LINE
  5
16F
330
1F
100
AcDbEntity
  8
0
  6
Continuous
 62
     7
370
     0
100
AcDbLine
 10
161.806937059
 20
145.1168159296
 30
0.0
 11
161.806937059
 21
145.1204555382
 31
0.0
  0
LINE
  5
170
330
1F
100
AcDbEntity
  8
0
  6
Continuous
 62
     7
370
     0
100
AcDbLine
 10
161.806937059
 20
168.4324193087
 30
0.0
 11
167.7909854181
 21
168.4324193087
 31
0.0
  0
SPLINE
  5
171
330
1F
100
AcDbEntity
  8
0
  6
Continuous
 62
     7
370
     0
100
AcDbSpline
210
0.0
220
0.0
230
1.0
 70
     8
 71
     3
 72
     8
 73
     4
 74
     0
 42
0.000000001
 43
0.00000001
 40
0.0000002450629425
 40
0.0000002450629425
 40
0.0000002450629425
 40
0.0000002450629425
 40
0.0008708054992462
 40
0.0008708054992462
 40
0.0008708054992462
 40
0.0008708054992462
 10
168.2987991968441
 20
167.7256614062042
 30
0.0
 10
168.1312597627622
 20
167.9624810322356
 30
0.0
 10
167.9619075961559
 20
168.1980274621624
 30
0.0
 10
167.7909847885636
 20
168.4324192728793
 30
0.0
  0
SPLINE
  5
172
330
1F
100
AcDbEntity
  8
0
  6
Continuous
 62
     7
370
     0
100
AcDbSpline
210
0.0
220
0.0
230
1.0
 70
     8
 71
     3
 72
     8
 73
     4
 74
     0
 42
0.000000001
 43
0.00000001
 40
0.0000002450629425
 40
0.0000002450629425
 40
0.0000002450629425
 40
0.0000002450629425
 40
0.0008708054992462
 40
0.0008708054992462
 40
0.0008708054992462
 40
0.0008708054992462
 10
161.2991225277107
 20
167.7256614062042
 30
0.0
 10
161.4666619617926
 20
167.9624810322356
 30
0.0
 10
161.6360141283989
 20
168.1980274621624
 30
0.0
 10
161.8069369359912
 20
168.4324192728793
 30
0.0
  0
LINE
  5
173
330
1F
100
AcDbEntity
  8
0
  6
Continuous
 62
     7
370
     0
100
AcDbLine
 10
161.806937059
 20
144.4322696229
 30
0.0
 11
167.7909854181
 21
144.4322696229
 31
0.0
  0
SPLINE
  5
174
330
1F
100
AcDbEntity
  8
0
  6
Continuous
 62
     7
370
     0
100
AcDbSpline
210
0.0
220
0.0
230
1.0
 70
     8
 71
     3
 72
     8
 73
     4
 74
     0
 42
0.000000001
 43
0.00000001
 40
0.0000002476025541
 40
0.0000002476025541
 40
0.0000002476025541
 40
0.0000002476025541
 40
0.0008708080388578
 40
0.0008708080388578
 40
0.0008708080388578
 40
0.0008708080388578
 10
167.7909847885636
 20
144.4322690064221
 30
0.0
 10
167.9619075961559
 20
144.6666608171389
 30
0.0
 10
168.1312597627622
 20
144.9022072470658
 30
0.0
 10
168.2987991968442
 20
145.1390268730971
 30
0.0
  0
SPLINE
  5
175
330
1F
100
AcDbEntity
  8
0
  6
Continuous
 62
     7
370
     0
100
AcDbSpline
210
0.0
220
0.0
230
1.0
 70
     8
 71
     3
 72
     8
 73
     4
 74
     0
 42
0.000000001
 43
0.00000001
 40
0.0000002476025541
 40
0.0000002476025541
 40
0.0000002476025541
 40
0.0000002476025541
 40
0.0008708080388578
 40
0.0008708080388578
 40
0.0008708080388578
 40
0.0008708080388578
 10
161.8069369359912
 20
144.4322690064221
 30
0.0
 10
161.6360141283989
 20
144.6666608171389
 30
0.0
 10
161.4666619617926
 20
144.9022072470658
 30
0.0
 10
161.2991225277107
 20
145.1390268730972
 30
0.0
  0
LINE
  5
176
330
1F
100
AcDbEntity
  8
0
  6
Continuous
 62
     7
370
     0
100
AcDbLine
 10
161.806937059
 20
168.4358228271
 30
0.0
 11
167.7909854181
 21
168.4358228271
 31
0.0
  0
LINE
  5
177
330
1F
100
AcDbEntity
  8
0
  6
Continuous
 62
     7
370
     0
100
AcDbLine
 10
167.7909854181
 20
168.4324193087
 30
0.0
 11
167.7909854181
 21
168.4358228271
 31
0.0
  0
LINE
  5
178
330
1F
100
AcDbEntity
  8
0
  6
Continuous
 62
     7
370
     0
100
AcDbLine
 10
161.806937059
 20
168.4324193087
 30
0.0
 11
161.806937059
 21
168.4358228271
 31
0.0
  0
LINE
  5
179
330
1F
100
AcDbEntity
  8
0
  6
Continuous
 62
     7
370
     0
100
AcDbLine
 10
161.806937059
 20
144.4288647075
 30
0.0
 11
167.7909854181
 21
144.4288647075
 31
0.0
  0
LINE
  5
17A
330
1F
100
AcDbEntity
  8
0
  6
Continuous
 62
     7
370
     0
100
AcDbLine
 10
167.7909854181
 20
144.4288647075
 30
0.0
 11
167.7909854181
 21
144.4322696229
 31
0.0
  0
LINE
  5
17B
330
1F
100
AcDbEntity
  8
0
  6
Continuous
 62
     7
370
     0
100
AcDbLine
 10
161.806937059
 20
144.4288647075
 30
0.0
 11
161.806937059
 21
144.4322696229
 31
0.0
  0
LINE
  5
17C
330
1F
100
AcDbEntity
  8
0
  6
Continuous
 62
     7
370
     0
100
AcDbLine
 10
161.806937059
 20
169.0732470055
 30
0.0
 11
167.7909854181
 21
169.0732470055
 31
0.0
  0
SPLINE
  5
17D
330
1F
100
AcDbEntity
  8
0
  6
Continuous
 62
     7
370
     0
100
AcDbSpline
210
0.0
220
0.0
230
1.0
 70
     8
 71
     3
 72
     8
 73
     4
 74
     0
 42
0.000000001
 43
0.00000001
 40
0.0000002460339245
 40
0.0000002460339245
 40
0.0000002460339245
 40
0.0000002460339245
 40
0.0008708064702282
 40
0.0008708064702282
 40
0.0008708064702282
 40
0.0008708064702282
 10
168.2987991968441
 20
168.3692782976109
 30
0.0
 10
168.1312597627622
 20
168.6051633047709
 30
0.0
 10
167.9619075961559
 20
168.8397801405497
 30
0.0
 10
167.7909847885636
 20
169.0732469138731
 30
0.0
  0
SPLINE
  5
17E
330
1F
100
AcDbEntity
  8
0
  6
Continuous
 62
     7
370
     0
100
AcDbSpline
210
0.0
220
0.0
230
1.0
 70
     8
 71
     3
 72
     8
 73
     4
 74
     0
 42
0.000000001
 43
0.00000001
 40
0.0000002460339245
 40
0.0000002460339245
 40
0.0000002460339245
 40
0.0000002460339245
 40
0.0008708064702282
 40
0.0008708064702282
 40
0.0008708064702282
 40
0.0008708064702282
 10
161.2991225277107
 20
168.3692782976108
 30
0.0
 10
161.4666619617926
 20
168.6051633047709
 30
0.0
 10
161.6360141283989
 20
168.8397801405497
 30
0.0
 10
161.8069369359912
 20
169.0732469138731
 30
0.0
  0
LINE
  5
17F
330
1F
100
AcDbEntity
  8
0
  6
Continuous
 62
     7
370
     0
100
AcDbLine
 10
161.806937059
 20
143.7914414604
 30
0.0
 11
167.7909854181
 21
143.7914414604
 31
0.0
  0
SPLINE
  5
180
330
1F
100
AcDbEntity
  8
0
  6
Continuous
 62
     7
370
     0
100
AcDbSpline
210
0.0
220
0.0
230
1.0
 70
     8
 71
     3
 72
     8
 73
     4
 74
     0
 42
0.000000001
 43
0.00000001
 40
0.0000002485836013
 40
0.0000002485836013
 40
0.0000002485836013
 40
0.0000002485836013
 40
0.000870809019905
 40
0.000870809019905
 40
0.000870809019905
 40
0.000870809019905
 10
167.7909847885636
 20
143.7914413654283
 30
0.0
 10
167.9619075961559
 20
144.0249081387517
 30
0.0
 10
168.1312597627622
 20
144.2595249745305
 30
0.0
 10
168.2987991968442
 20
144.4954099816905
 30
0.0
  0
SPLINE
  5
181
330
1F
100
AcDbEntity
  8
0
  6
Continuous
 62
     7
370
     0
100
AcDbSpline
210
0.0
220
0.0
230
1.0
 70
     8
 71
     3
 72
     8
 73
     4
 74
     0
 42
0.000000001
 43
0.00000001
 40
0.0000002485836013
 40
0.0000002485836013
 40
0.0000002485836013
 40
0.0000002485836013
 40
0.0008708090199051
 40
0.0008708090199051
 40
0.0008708090199051
 40
0.0008708090199051
 10
161.8069369359912
 20
143.7914413654283
 30
0.0
 10
161.6360141283989
 20
144.0249081387517
 30
0.0
 10
161.4666619617926
 20
144.2595249745305
 30
0.0
 10
161.2991225277107
 20
144.4954099816905
 30
0.0
  0
LINE
  5
182
330
1F
100
AcDbEntity
  8
0
  6
Continuous
 62
     7
370
     0
100
AcDbLine
 10
161.806937059
 20
169.0764013951
 30
0.0
 11
167.7909854181
 21
169.0764013951
 31
0.0
  0
LINE
  5
183
330
1F
100
AcDbEntity
  8
0
  6
Continuous
 62
     7
370
     0
100
AcDbLine
 10
167.7909854181
 20
169.0732470055
 30
0.0
 11
167.7909854181
 21
169.0764013951
 31
0.0
  0
LINE
  5
184
330
1F
100
AcDbEntity
  8
0
  6
Continuous
 62
     7
370
     0
100
AcDbLine
 10
161.806937059
 20
169.0732470055
 30
0.0
 11
161.806937059
 21
169.0764013951
 31
0.0
  0
LINE
  5
185
330
1F
100
AcDbEntity
  8
0
  6
Continuous
 62
     7
370
     0
100
AcDbLine
 10
161.806937059
 20
143.7882861395
 30
0.0
 11
167.7909854181
 21
143.7882861395
 31
0.0
  0
LINE
  5
186
330
1F
100
AcDbEntity
  8
0
  6
Continuous
 62
     7
370
     0
100
AcDbLine
 10
167.7909854181
 20
143.7882861395
 30
0.0
 11
167.7909854181
 21
143.7914414604
 31
0.0
  0
LINE
  5
187
330
1F
100
AcDbEntity
  8
0
  6
Continuous
 62
     7
370
     0
100
AcDbLine
 10
161.806937059
 20
143.7882861395
 30
0.0
 11
161.806937059
 21
143.7914414604
 31
0.0
  0
LINE
  5
188
330
1F
100
AcDbEntity
  8
0
  6
Continuous
 62
     7
370
     0
100
AcDbLine
 10
161.806937059
 20
169.6641867788
 30
0.0
 11
167.7909854181
 21
169.6641867788
 31
0.0
  0
SPLINE
  5
189
330
1F
100
AcDbEntity
  8
0
  6
Continuous
 62
     7
370
     0
100
AcDbSpline
210
0.0
220
0.0
230
1.0
 70
     8
 71
     3
 72
     8
 73
     4
 74
     0
 42
0.000000001
 43
0.00000001
 40
0.0000002479952473
 40
0.0000002479952473
 40
0.0000002479952473
 40
0.0000002479952473
 40
0.000870808431551
 40
0.000870808431551
 40
0.000870808431551
 40
0.000870808431551
 10
168.2987991968441
 20
168.9657855633625
 30
0.0
 10
168.1312597627622
 20
169.1998050212935
 30
0.0
 10
167.9619075961559
 20
169.4325663374598
 30
0.0
 10
167.7909847885636
 20
169.6641866866962
 30
0.0
  0
SPLINE
  5
18A
330
1F
100
AcDbEntity
  8
0
  6
Continuous
 62
     7
370
     0
100
AcDbSpline
210
0.0
220
0.0
230
1.0
 70
     8
 71
     3
 72
     8
 73
     4
 74
     0
 42
0.000000001
 43
0.00000001
 40
0.0000002479952473
 40
0.0000002479952473
 40
0.0000002479952473
 40
0.0000002479952473
 40
0.000870808431551
 40
0.000870808431551
 40
0.000870808431551
 40
0.000870808431551
 10
161.2991225277107
 20
168.9657855633625
 30
0.0
 10
161.4666619617926
 20
169.1998050212935
 30
0.0
 10
161.6360141283989
 20
169.4325663374598
 30
0.0
 10
161.8069369359912
 20
169.6641866866962
 30
0.0
  0
LINE
  5
18B
330
1F
100
AcDbEntity
  8
0
  6
Continuous
 62
     7
370
     0
100
AcDbLine
 10
161.806937059
 20
143.2005023857
 30
0.0
 11
167.7909854181
 21
143.2005023857
 31
0.0
  0
SPLINE
  5
18C
330
1F
100
AcDbEntity
  8
0
  6
Continuous
 62
     7
370
     0
100
AcDbSpline
210
0.0
220
0.0
230
1.0
 70
     8
 71
     3
 72
     8
 73
     4
 74
     0
 42
0.000000001
 43
0.00000001
 40
0.0000002505652553
 40
0.0000002505652553
 40
0.0000002505652553
 40
0.0000002505652553
 40
0.000870811001559
 40
0.000870811001559
 40
0.000870811001559
 40
0.000870811001559
 10
167.7909847885636
 20
143.2005015926052
 30
0.0
 10
167.961907596156
 20
143.4321219418416
 30
0.0
 10
168.1312597627622
 20
143.6648832580079
 30
0.0
 10
168.2987991968442
 20
143.8989027159389
 30
0.0
  0
SPLINE
  5
18D
330
1F
100
AcDbEntity
  8
0
  6
Continuous
 62
     7
370
     0
100
AcDbSpline
210
0.0
220
0.0
230
1.0
 70
     8
 71
     3
 72
     8
 73
     4
 74
     0
 42
0.000000001
 43
0.00000001
 40
0.0000002505652553
 40
0.0000002505652553
 40
0.0000002505652553
 40
0.0000002505652553
 40
0.000870811001559
 40
0.000870811001559
 40
0.000870811001559
 40
0.000870811001559
 10
161.8069369359912
 20
143.2005015926052
 30
0.0
 10
161.6360141283989
 20
143.4321219418416
 30
0.0
 10
161.4666619617926
 20
143.6648832580079
 30
0.0
 10
161.2991225277107
 20
143.8989027159389
 30
0.0
  0
LINE
  5
18E
330
1F
100
AcDbEntity
  8
0
  6
Continuous
 62
     7
370
     0
100
AcDbLine
 10
161.806937059
 20
169.6670796995
 30
0.0
 11
167.7909854181
 21
169.6670796995
 31
0.0
  0
LINE
  5
18F
330
1F
100
AcDbEntity
  8
0
  6
Continuous
 62
     7
370
     0
100
AcDbLine
 10
167.7909854181
 20
169.6641867788
 30
0.0
 11
167.7909854181
 21
169.6670796995
 31
0.0
  0
LINE
  5
190
330
1F
100
AcDbEntity
  8
0
  6
Continuous
 62
     7
370
     0
100
AcDbLine
 10
161.806937059
 20
169.6641867788
 30
0.0
 11
161.806937059
 21
169.6670796995
 31
0.0
  0
LINE
  5
191
330
1F
100
AcDbEntity
  8
0
  6
Continuous
 62
     7
370
     0
100
AcDbLine
 10
161.806937059
 20
143.1976078351
 30
0.0
 11
167.7909854181
 21
143.1976078351
 31
0.0
  0
LINE
  5
192
330
1F
100
AcDbEntity
  8
0
  6
Continuous
 62
     7
370
     0
100
AcDbLine
 10
167.7909854181
 20
143.1976078351
 30
0.0
 11
167.7909854181
 21
143.2005023857
 31
0.0
  0
LINE
  5
193
330
1F
100
AcDbEntity
  8
0
  6
Continuous
 62
     7
370
     0
100
AcDbLine
 10
161.806937059
 20
143.1976078351
 30
0.0
 11
161.806937059
 21
143.2005023857
 31
0.0
  0
LINE
  5
194
330
1F
100
AcDbEntity
  8
0
  6
Continuous
 62
     7
370
     0
100
AcDbLine
 10
161.806937059
 20
170.2029063639
 30
0.0
 11
167.7909854181
 21
170.2029063639
 31
0.0
  0
SPLINE
  5
195
330
1F
100
AcDbEntity
  8
0
  6
Continuous
 62
     7
370
     0
100
AcDbSpline
210
0.0
220
0.0
230
1.0
 70
     8
 71
     3
 72
     8
 73
     4
 74
     0
 42
0.000000001
 43
0.00000001
 40
0.0000002509865792
 40
0.0000002509865792
 40
0.0000002509865792
 40
0.0000002509865792
 40
0.0008708114228829
 40
0.0008708114228829
 40
0.0008708114228829
 40
0.0008708114228829
 10
168.2987991968441
 20
169.5128290617995
 30
0.0
 10
168.1312597627622
 20
169.7440594026143
 30
0.0
 10
167.9619075961559
 20
169.9740465965916
 30
0.0
 10
167.7909847885636
 20
170.2029064220399
 30
0.0
  0
SPLINE
  5
196
330
1F
100
AcDbEntity
  8
0
  6
Continuous
 62
     7
370
     0
100
AcDbSpline
210
0.0
220
0.0
230
1.0
 70
     8
 71
     3
 72
     8
 73
     4
 74
     0
 42
0.000000001
 43
0.00000001
 40
0.0000002509865792
 40
0.0000002509865792
 40
0.0000002509865792
 40
0.0000002509865792
 40
0.0008708114228829
 40
0.0008708114228829
 40
0.0008708114228829
 40
0.0008708114228829
 10
161.2991225277107
 20
169.5128290617995
 30
0.0
 10
161.4666619617926
 20
169.7440594026143
 30
0.0
 10
161.6360141283989
 20
169.9740465965916
 30
0.0
 10
161.8069369359912
 20
170.2029064220399
 30
0.0
  0
LINE
  5
197
330
1F
100
AcDbEntity
  8
0
  6
Continuous
 62
     7
370
     0
100
AcDbLine
 10
161.806937059
 20
142.6617825677
 30
0.0
 11
167.7909854181
 21
142.6617825677
 31
0.0
  0
SPLINE
  5
198
330
1F
100
AcDbEntity
  8
0
  6
Continuous
 62
     7
370
     0
100
AcDbSpline
210
0.0
220
0.0
230
1.0
 70
     8
 71
     3
 72
     8
 73
     4
 74
     0
 42
0.000000001
 43
0.00000001
 40
0.0000002535875959
 40
0.0000002535875959
 40
0.0000002535875959
 40
0.0000002535875959
 40
0.0008708140238996
 40
0.0008708140238996
 40
0.0008708140238996
 40
0.0008708140238996
 10
167.7909847885636
 20
142.6617818572615
 30
0.0
 10
167.961907596156
 20
142.8906416827098
 30
0.0
 10
168.1312597627622
 20
143.1206288766871
 30
0.0
 10
168.2987991968442
 20
143.351859217502
 30
0.0
  0
SPLINE
  5
199
330
1F
100
AcDbEntity
  8
0
  6
Continuous
 62
     7
370
     0
100
AcDbSpline
210
0.0
220
0.0
230
1.0
 70
     8
 71
     3
 72
     8
 73
     4
 74
     0
 42
0.000000001
 43
0.00000001
 40
0.0000002535875959
 40
0.0000002535875959
 40
0.0000002535875959
 40
0.0000002535875959
 40
0.0008708140238996
 40
0.0008708140238996
 40
0.0008708140238996
 40
0.0008708140238996
 10
161.8069369359912
 20
142.6617818572615
 30
0.0
 10
161.6360141283989
 20
142.8906416827098
 30
0.0
 10
161.4666619617926
 20
143.1206288766871
 30
0.0
 10
161.2991225277107
 20
143.351859217502
 30
0.0
  0
LINE
  5
19A
330
1F
100
AcDbEntity
  8
0
  6
Continuous
 62
     7
370
     0
100
AcDbLine
 10
161.806937059
 20
170.2055264072
 30
0.0
 11
167.7909854181
 21
170.2055264072
 31
0.0
  0
LINE
  5
19B
330
1F
100
AcDbEntity
  8
0
  6
Continuous
 62
     7
370
     0
100
AcDbLine
 10
167.7909854181
 20
170.2029063639
 30
0.0
 11
167.7909854181
 21
170.2055264072
 31
0.0
  0
LINE
  5
19C
330
1F
100
AcDbEntity
  8
0
  6
Continuous
 62
     7
370
     0
100
AcDbLine
 10
161.806937059
 20
170.2029063639
 30
0.0
 11
161.806937059
 21
170.2055264072
 31
0.0
  0
LINE
  5
19D
330
1F
100
AcDbEntity
  8
0
  6
Continuous
 62
     7
370
     0
100
AcDbLine
 10
161.806937059
 20
142.6591618259
 30
0.0
 11
167.7909854181
 21
142.6591618259
 31
0.0
  0
LINE
  5
19E
330
1F
100
AcDbEntity
  8
0
  6
Continuous
 62
     7
370
     0
100
AcDbLine
 10
167.7909854181
 20
142.6591618259
 30
0.0
 11
167.7909854181
 21
142.6617825677
 31
0.0
  0
LINE
  5
19F
330
1F
100
AcDbEntity
  8
0
  6
Continuous
 62
     7
370
     0
100
AcDbLine
 10
161.806937059
 20
142.6591618259
 30
0.0
 11
161.806937059
 21
142.6617825677
 31
0.0
  0
LINE
  5
1A0
330
1F
100
AcDbEntity
  8
0
  6
Continuous
 62
     7
370
     0
100
AcDbLine
 10
176.2989617265
 20
162.9323443671
 30
0.0
 11
176.2989617265
 21
149.9323440989
 31
0.0
  0
SPLINE
  5
1A1
330
1F
100
AcDbEntity
  8
0
  6
Continuous
 62
     7
370
     0
100
AcDbSpline
210
0.0
220
0.0
230
1.0
 70
    24
 71
     3
 72
     8
 73
     4
 74
     0
 42
0.000000001
 43
0.00000001
 40
0.0
 40
0.0
 40
0.0
 40
0.0
 40
1.0
 40
1.0
 40
1.0
 40
1.0
 10
176.2989608622774
 20
149.9323441396508
 30
0.0
 10
176.1539630311461
 20
149.9323441396508
 30
0.0
 10
175.9849245408208
 20
149.9323441396508
 30
0.0
 10
175.7989608622774
 20
149.9323441396508
 30
0.0
  0
LINE
  5
1A2
330
1F
100
AcDbEntity
  8
0
  6
Continuous
 62
     7
370
     0
100
AcDbLine
 10
175.7989607133
 20
149.9323440989
 30
0.0
 11
175.7989607133
 21
162.9323443671
 31
0.0
  0
SPLINE
  5
1A3
330
1F
100
AcDbEntity
  8
0
  6
Continuous
 62
     7
370
     0
100
AcDbSpline
210
0.0
220
0.0
230
1.0
 70
    24
 71
     3
 72
     8
 73
     4
 74
     0
 42
0.000000001
 43
0.00000001
 40
0.0
 40
0.0
 40
0.0
 40
0.0
 40
1.0
 40
1.0
 40
1.0
 40
1.0
 10
175.7989608622774
 20
162.9323441396508
 30
0.0
 10
175.9849245408208
 20
162.9323441396508
 30
0.0
 10
176.1539630311461
 20
162.9323441396508
 30
0.0
 10
176.2989608622774
 20
162.9323441396508
 30
0.0
  0
LINE
  5
1A4
330
1F
100
AcDbEntity
  8
0
  6
Continuous
 62
     7
370
     0
100
AcDbLine
 10
175.7989607133
 20
162.9323443671
 30
0.0
 11
168.2989604152
 21
162.9323443671
 31
0.0
  0
LINE
  5
1A5
330
1F
100
AcDbEntity
  8
0
  6
Continuous
 62
     7
370
     0
100
AcDbLine
 10
175.7989607133
 20
149.9323440989
 30
0.0
 11
168.2989604152
 21
149.9323440989
 31
0.0
  0
LINE
  5
1A6
330
1F
100
AcDbEntity
  8
0
  6
Continuous
 62
     7
370
     0
100
AcDbLine
 10
161.806937059
 20
170.6872800172
 30
0.0
 11
167.7909854181
 21
170.6872800172
 31
0.0
  0
SPLINE
  5
1A7
330
1F
100
AcDbEntity
  8
0
  6
Continuous
 62
     7
370
     0
100
AcDbSpline
210
0.0
220
0.0
230
1.0
 70
     8
 71
     3
 72
     8
 73
     4
 74
     0
 42
0.000000001
 43
0.00000001
 40
0.0000002550698886
 40
0.0000002550698886
 40
0.0000002550698886
 40
0.0000002550698886
 40
0.0008708155061922
 40
0.0008708155061922
 40
0.0008708155061922
 40
0.0008708155061922
 10
168.2987991968441
 20
170.0082498621538
 30
0.0
 10
168.1312597627622
 20
170.2357785253365
 30
0.0
 10
167.9619075961559
 20
170.4620839427413
 30
0.0
 10
167.7909847885636
 20
170.6872800392266
 30
0.0
  0
SPLINE
  5
1A8
330
1F
100
AcDbEntity
  8
0
  6
Continuous
 62
     7
370
     0
100
AcDbSpline
210
0.0
220
0.0
230
1.0
 70
     8
 71
     3
 72
     8
 73
     4
 74
     0
 42
0.000000001
 43
0.00000001
 40
0.0000002550698886
 40
0.0000002550698886
 40
0.0000002550698886
 40
0.0000002550698886
 40
0.0008708155061923
 40
0.0008708155061923
 40
0.0008708155061923
 40
0.0008708155061923
 10
161.2991225277107
 20
170.0082498621538
 30
0.0
 10
161.4666619617926
 20
170.2357785253365
 30
0.0
 10
161.6360141283989
 20
170.4620839427413
 30
0.0
 10
161.8069369359912
 20
170.6872800392266
 30
0.0
  0
LINE
  5
1A9
330
1F
100
AcDbEntity
  8
0
  6
Continuous
 62
     7
370
     0
100
AcDbLine
 10
161.806937059
 20
142.1774091472
 30
0.0
 11
167.7909854181
 21
142.1774091472
 31
0.0
  0
SPLINE
  5
1AA
330
1F
100
AcDbEntity
  8
0
  6
Continuous
 62
     7
370
     0
100
AcDbSpline
210
0.0
220
0.0
230
1.0
 70
     8
 71
     3
 72
     8
 73
     4
 74
     0
 42
0.000000001
 43
0.00000001
 40
0.0000002577132338
 40
0.0000002577132338
 40
0.0000002577132338
 40
0.0000002577132338
 40
0.0008708181495375
 40
0.0008708181495375
 40
0.0008708181495375
 40
0.0008708181495375
 10
167.7909847885636
 20
142.1774082400748
 30
0.0
 10
167.9619075961559
 20
142.4026043365601
 30
0.0
 10
168.1312597627622
 20
142.628909753965
 30
0.0
 10
168.2987991968442
 20
142.8564384171476
 30
0.0
  0
SPLINE
  5
1AB
330
1F
100
AcDbEntity
  8
0
  6
Continuous
 62
     7
370
     0
100
AcDbSpline
210
0.0
220
0.0
230
1.0
 70
     8
 71
     3
 72
     8
 73
     4
 74
     0
 42
0.000000001
 43
0.00000001
 40
0.0000002577132338
 40
0.0000002577132338
 40
0.0000002577132338
 40
0.0000002577132338
 40
0.0008708181495375
 40
0.0008708181495375
 40
0.0008708181495375
 40
0.0008708181495375
 10
161.8069369359912
 20
142.1774082400748
 30
0.0
 10
161.6360141283989
 20
142.4026043365601
 30
0.0
 10
161.4666619617926
 20
142.628909753965
 30
0.0
 10
161.2991225277107
 20
142.8564384171476
 30
0.0
  0
LINE
  5
1AC
330
1F
100
AcDbEntity
  8
0
  6
Continuous
 62
     7
370
     0
100
AcDbLine
 10
161.806937059
 20
170.6896167056
 30
0.0
 11
167.7909854181
 21
170.6896167056
 31
0.0
  0
LINE
  5
1AD
330
1F
100
AcDbEntity
  8
0
  6
Continuous
 62
     7
370
     0
100
AcDbLine
 10
167.7909854181
 20
170.6872800172
 30
0.0
 11
167.7909854181
 21
170.6896167056
 31
0.0
  0
LINE
  5
1AE
330
1F
100
AcDbEntity
  8
0
  6
Continuous
 62
     7
370
     0
100
AcDbLine
 10
161.806937059
 20
170.6872800172
 30
0.0
 11
161.806937059
 21
170.6896167056
 31
0.0
  0
LINE
  5
1AF
330
1F
100
AcDbEntity
  8
0
  6
Continuous
 62
     7
370
     0
100
AcDbLine
 10
161.806937059
 20
142.1750715275
 30
0.0
 11
167.7909854181
 21
142.1750715275
 31
0.0
  0
LINE
  5
1B0
330
1F
100
AcDbEntity
  8
0
  6
Continuous
 62
     7
370
     0
100
AcDbLine
 10
167.7909854181
 20
142.1750715275
 30
0.0
 11
167.7909854181
 21
142.1774091472
 31
0.0
  0
LINE
  5
1B1
330
1F
100
AcDbEntity
  8
0
  6
Continuous
 62
     7
370
     0
100
AcDbLine
 10
161.806937059
 20
142.1750715275
 30
0.0
 11
161.806937059
 21
142.1774091472
 31
0.0
  0
LINE
  5
1B2
330
1F
100
AcDbEntity
  8
0
  6
Continuous
 62
     7
370
     0
100
AcDbLine
 10
161.806937059
 20
171.1153959663
 30
0.0
 11
167.7909854181
 21
171.1153959663
 31
0.0
  0
SPLINE
  5
1B3
330
1F
100
AcDbEntity
  8
0
  6
Continuous
 62
     7
370
     0
100
AcDbSpline
210
0.0
220
0.0
230
1.0
 70
     8
 71
     3
 72
     8
 73
     4
 74
     0
 42
0.000000001
 43
0.00000001
 40
0.0000002603326621
 40
0.0000002603326621
 40
0.0000002603326621
 40
0.0000002603326621
 40
0.0008708207689658
 40
0.0008708207689658
 40
0.0008708207689658
 40
0.0008708207689658
 10
168.2987991968441
 20
170.4500927648628
 30
0.0
 10
168.1312597627622
 20
170.6730217987276
 30
0.0
 10
167.9619075961559
 20
170.8947523154667
 30
0.0
 10
167.7909847885636
 20
171.1153959368783
 30
0.0
  0
SPLINE
  5
1B4
330
1F
100
AcDbEntity
  8
0
  6
Continuous
 62
     7
370
     0
100
AcDbSpline
210
0.0
220
0.0
230
1.0
 70
     8
 71
     3
 72
     8
 73
     4
 74
     0
 42
0.000000001
 43
0.00000001
 40
0.0000002603326621
 40
0.0000002603326621
 40
0.0000002603326621
 40
0.0000002603326621
 40
0.0008708207689658
 40
0.0008708207689658
 40
0.0008708207689658
 40
0.0008708207689658
 10
161.2991225277107
 20
170.4500927648628
 30
0.0
 10
161.4666619617926
 20
170.6730217987276
 30
0.0
 10
161.6360141283989
 20
170.8947523154667
 30
0.0
 10
161.8069369359912
 20
171.1153959368783
 30
0.0
  0
LINE
  5
1B5
330
1F
100
AcDbEntity
  8
0
  6
Continuous
 62
     7
370
     0
100
AcDbLine
 10
161.806937059
 20
141.7492913355
 30
0.0
 11
167.7909854181
 21
141.7492913355
 31
0.0
  0
SPLINE
  5
1B6
330
1F
100
AcDbEntity
  8
0
  6
Continuous
 62
     7
370
     0
100
AcDbSpline
210
0.0
220
0.0
230
1.0
 70
     8
 71
     3
 72
     8
 73
     4
 74
     0
 42
0.000000001
 43
0.00000001
 40
0.0000002630305631
 40
0.0000002630305631
 40
0.0000002630305631
 40
0.0000002630305631
 40
0.0008708234668668
 40
0.0008708234668668
 40
0.0008708234668668
 40
0.0008708234668668
 10
167.7909847885636
 20
141.7492923424231
 30
0.0
 10
167.961907596156
 20
141.9699359638348
 30
0.0
 10
168.1312597627622
 20
142.1916664805738
 30
0.0
 10
168.2987991968442
 20
142.4145955144386
 30
0.0
  0
SPLINE
  5
1B7
330
1F
100
AcDbEntity
  8
0
  6
Continuous
 62
     7
370
     0
100
AcDbSpline
210
0.0
220
0.0
230
1.0
 70
     8
 71
     3
 72
     8
 73
     4
 74
     0
 42
0.000000001
 43
0.00000001
 40
0.0000002630305631
 40
0.0000002630305631
 40
0.0000002630305631
 40
0.0000002630305631
 40
0.0008708234668668
 40
0.0008708234668668
 40
0.0008708234668668
 40
0.0008708234668668
 10
161.8069369359912
 20
141.7492923424231
 30
0.0
 10
161.6360141283989
 20
141.9699359638348
 30
0.0
 10
161.4666619617926
 20
142.1916664805738
 30
0.0
 10
161.2991225277107
 20
142.4145955144386
 30
0.0
  0
LINE
  5
1B8
330
1F
100
AcDbEntity
  8
0
  6
Continuous
 62
     7
370
     0
100
AcDbLine
 10
161.806937059
 20
171.1174399865
 30
0.0
 11
167.7909854181
 21
171.1174399865
 31
0.0
  0
LINE
  5
1B9
330
1F
100
AcDbEntity
  8
0
  6
Continuous
 62
     7
370
     0
100
AcDbLine
 10
167.7909854181
 20
171.1153959663
 30
0.0
 11
167.7909854181
 21
171.1174399865
 31
0.0
  0
LINE
  5
1BA
330
1F
100
AcDbEntity
  8
0
  6
Continuous
 62
     7
370
     0
100
AcDbLine
 10
161.806937059
 20
171.1153959663
 30
0.0
 11
161.806937059
 21
171.1174399865
 31
0.0
  0
LINE
  5
1BB
330
1F
100
AcDbEntity
  8
0
  6
Continuous
 62
     7
370
     0
100
AcDbLine
 10
161.806937059
 20
141.7472498764
 30
0.0
 11
167.7909854181
 21
141.7472498764
 31
0.0
  0
LINE
  5
1BC
330
1F
100
AcDbEntity
  8
0
  6
Continuous
 62
     7
370
     0
100
AcDbLine
 10
167.7909854181
 20
141.7472498764
 30
0.0
 11
167.7909854181
 21
141.7492913355
 31
0.0
  0
LINE
  5
1BD
330
1F
100
AcDbEntity
  8
0
  6
Continuous
 62
     7
370
     0
100
AcDbLine
 10
161.806937059
 20
141.7472498764
 30
0.0
 11
161.806937059
 21
141.7492913355
 31
0.0
  0
LINE
  5
1BE
330
1F
100
AcDbEntity
  8
0
  6
Continuous
 62
     7
370
     0
100
AcDbLine
 10
161.806937059
 20
171.485564559
 30
0.0
 11
167.7909854181
 21
171.485564559
 31
0.0
  0
SPLINE
  5
1BF
330
1F
100
AcDbEntity
  8
0
  6
Continuous
 62
     7
370
     0
100
AcDbSpline
210
0.0
220
0.0
230
1.0
 70
     8
 71
     3
 72
     8
 73
     4
 74
     0
 42
0.000000001
 43
0.00000001
 40
0.000000266892673
 40
0.000000266892673
 40
0.000000266892673
 40
0.000000266892673
 40
0.0008708273289767
 40
0.0008708273289767
 40
0.0008708273289767
 40
0.0008708273289767
 10
168.2987991968441
 20
170.8366140178483
 30
0.0
 10
168.1312597627622
 20
171.0540636233452
 30
0.0
 10
167.9619075961559
 20
171.2703441703678
 30
0.0
 10
167.7909847885636
 20
171.4855645371348
 30
0.0
  0
SPLINE
  5
1C0
330
1F
100
AcDbEntity
  8
0
  6
Continuous
 62
     7
370
     0
100
AcDbSpline
210
0.0
220
0.0
230
1.0
 70
     8
 71
     3
 72
     8
 73
     4
 74
     0
 42
0.000000001
 43
0.00000001
 40
0.000000266892673
 40
0.000000266892673
 40
0.000000266892673
 40
0.000000266892673
 40
0.0008708273289767
 40
0.0008708273289767
 40
0.0008708273289767
 40
0.0008708273289767
 10
161.2991225277107
 20
170.8366140178483
 30
0.0
 10
161.4666619617926
 20
171.0540636233452
 30
0.0
 10
161.6360141283989
 20
171.2703441703678
 30
0.0
 10
161.8069369359912
 20
171.4855645371348
 30
0.0
  0
LINE
  5
1C1
330
1F
100
AcDbEntity
  8
0
  6
Continuous
 62
     7
370
     0
100
AcDbLine
 10
161.806937059
 20
141.3791241397
 30
0.0
 11
167.7909854181
 21
141.3791241397
 31
0.0
  0
SPLINE
  5
1C2
330
1F
100
AcDbEntity
  8
0
  6
Continuous
 62
     7
370
     0
100
AcDbSpline
210
0.0
220
0.0
230
1.0
 70
     8
 71
     3
 72
     8
 73
     4
 74
     0
 42
0.000000001
 43
0.00000001
 40
0.0000002696585783
 40
0.0000002696585783
 40
0.0000002696585783
 40
0.0000002696585783
 40
0.000870830094882
 40
0.000870830094882
 40
0.000870830094882
 40
0.000870830094882
 10
167.7909847885636
 20
141.3791237421667
 30
0.0
 10
167.961907596156
 20
141.5943441089337
 30
0.0
 10
168.1312597627622
 20
141.8106246559563
 30
0.0
 10
168.2987991968442
 20
142.0280742614532
 30
0.0
  0
SPLINE
  5
1C3
330
1F
100
AcDbEntity
  8
0
  6
Continuous
 62
     7
370
     0
100
AcDbSpline
210
0.0
220
0.0
230
1.0
 70
     8
 71
     3
 72
     8
 73
     4
 74
     0
 42
0.000000001
 43
0.00000001
 40
0.0000002696585783
 40
0.0000002696585783
 40
0.0000002696585783
 40
0.0000002696585783
 40
0.000870830094882
 40
0.000870830094882
 40
0.000870830094882
 40
0.000870830094882
 10
161.8069369359912
 20
141.3791237421667
 30
0.0
 10
161.6360141283989
 20
141.5943441089336
 30
0.0
 10
161.4666619617926
 20
141.8106246559563
 30
0.0
 10
161.2991225277107
 20
142.0280742614532
 30
0.0
  0
LINE
  5
1C4
330
1F
100
AcDbEntity
  8
0
  6
Continuous
 62
     7
370
     0
100
AcDbLine
 10
161.806937059
 20
171.4873079949
 30
0.0
 11
167.7909854181
 21
171.4873079949
 31
0.0
  0
LINE
  5
1C5
330
1F
100
AcDbEntity
  8
0
  6
Continuous
 62
     7
370
     0
100
AcDbLine
 10
167.7909854181
 20
171.485564559
 30
0.0
 11
167.7909854181
 21
171.4873079949
 31
0.0
  0
LINE
  5
1C6
330
1F
100
AcDbEntity
  8
0
  6
Continuous
 62
     7
370
     0
100
AcDbLine
 10
161.806937059
 20
171.485564559
 30
0.0
 11
161.806937059
 21
171.4873079949
 31
0.0
  0
LINE
  5
1C7
330
1F
100
AcDbEntity
  8
0
  6
Continuous
 62
     7
370
     0
100
AcDbLine
 10
161.806937059
 20
141.3773807039
 30
0.0
 11
167.7909854181
 21
141.3773807039
 31
0.0
  0
LINE
  5
1C8
330
1F
100
AcDbEntity
  8
0
  6
Continuous
 62
     7
370
     0
100
AcDbLine
 10
167.7909854181
 20
141.3773807039
 30
0.0
 11
167.7909854181
 21
141.3791241397
 31
0.0
  0
LINE
  5
1C9
330
1F
100
AcDbEntity
  8
0
  6
Continuous
 62
     7
370
     0
100
AcDbLine
 10
161.806937059
 20
141.3773807039
 30
0.0
 11
161.806937059
 21
141.3791241397
 31
0.0
  0
LINE
  5
1CA
330
1F
100
AcDbEntity
  8
0
  6
Continuous
 62
     7
370
     0
100
AcDbLine
 10
161.806937059
 20
171.7963248997
 30
0.0
 11
167.7909854181
 21
171.7963248997
 31
0.0
  0
SPLINE
  5
1CB
330
1F
100
AcDbEntity
  8
0
  6
Continuous
 62
     7
370
     0
100
AcDbSpline
210
0.0
220
0.0
230
1.0
 70
     8
 71
     3
 72
     8
 73
     4
 74
     0
 42
0.000000001
 43
0.00000001
 40
0.0000002749048029
 40
0.0000002749048029
 40
0.0000002749048029
 40
0.0000002749048029
 40
0.0008708353411066
 40
0.0008708353411066
 40
0.0008708353411066
 40
0.0008708353411066
 10
168.2987991968441
 20
171.1662881983095
 30
0.0
 10
168.1312597627622
 20
171.3774002011888
 30
0.0
 10
167.9619075961559
 20
171.5873772179852
 30
0.0
 10
167.7909847885636
 20
171.7963249536445
 30
0.0
  0
SPLINE
  5
1CC
330
1F
100
AcDbEntity
  8
0
  6
Continuous
 62
     7
370
     0
100
AcDbSpline
210
0.0
220
0.0
230
1.0
 70
     8
 71
     3
 72
     8
 73
     4
 74
     0
 42
0.000000001
 43
0.00000001
 40
0.0000002749048029
 40
0.0000002749048029
 40
0.0000002749048029
 40
0.0000002749048029
 40
0.0008708353411066
 40
0.0008708353411066
 40
0.0008708353411066
 40
0.0008708353411066
 10
161.2991225277107
 20
171.1662881983094
 30
0.0
 10
161.4666619617926
 20
171.3774002011888
 30
0.0
 10
161.6360141283989
 20
171.5873772179852
 30
0.0
 10
161.8069369359912
 20
171.7963249536445
 30
0.0
  0
LINE
  5
1CD
330
1F
100
AcDbEntity
  8
0
  6
Continuous
 62
     7
370
     0
100
AcDbLine
 10
161.806937059
 20
141.0683641483
 30
0.0
 11
167.7909854181
 21
141.0683641483
 31
0.0
  0
SPLINE
  5
1CE
330
1F
100
AcDbEntity
  8
0
  6
Continuous
 62
     7
370
     0
100
AcDbSpline
210
0.0
220
0.0
230
1.0
 70
     8
 71
     3
 72
     8
 73
     4
 74
     0
 42
0.000000001
 43
0.00000001
 40
0.0000002777537673
 40
0.0000002777537673
 40
0.0000002777537673
 40
0.0000002777537673
 40
0.000870838190071
 40
0.000870838190071
 40
0.000870838190071
 40
0.000870838190071
 10
167.7909847885636
 20
141.068363325657
 30
0.0
 10
167.9619075961559
 20
141.2773110613163
 30
0.0
 10
168.1312597627622
 20
141.4872880781127
 30
0.0
 10
168.2987991968442
 20
141.698400080992
 30
0.0
  0
SPLINE
  5
1CF
330
1F
100
AcDbEntity
  8
0
  6
Continuous
 62
     7
370
     0
100
AcDbSpline
210
0.0
220
0.0
230
1.0
 70
     8
 71
     3
 72
     8
 73
     4
 74
     0
 42
0.000000001
 43
0.00000001
 40
0.0000002777537673
 40
0.0000002777537673
 40
0.0000002777537673
 40
0.0000002777537673
 40
0.000870838190071
 40
0.000870838190071
 40
0.000870838190071
 40
0.000870838190071
 10
161.8069369359912
 20
141.068363325657
 30
0.0
 10
161.6360141283989
 20
141.2773110613163
 30
0.0
 10
161.4666619617926
 20
141.4872880781128
 30
0.0
 10
161.2991225277107
 20
141.6984000809921
 30
0.0
  0
LINE
  5
1D0
330
1F
100
AcDbEntity
  8
0
  6
Continuous
 62
     7
370
     0
100
AcDbLine
 10
161.806937059
 20
171.7977608827
 30
0.0
 11
167.7909854181
 21
171.7977608827
 31
0.0
  0
LINE
  5
1D1
330
1F
100
AcDbEntity
  8
0
  6
Continuous
 62
     7
370
     0
100
AcDbLine
 10
167.7909854181
 20
171.7963248997
 30
0.0
 11
167.7909854181
 21
171.7977608827
 31
0.0
  0
LINE
  5
1D2
330
1F
100
AcDbEntity
  8
0
  6
Continuous
 62
     7
370
     0
100
AcDbLine
 10
161.806937059
 20
171.7963248997
 30
0.0
 11
161.806937059
 21
171.7977608827
 31
0.0
  0
LINE
  5
1D3
330
1F
100
AcDbEntity
  8
0
  6
Continuous
 62
     7
370
     0
100
AcDbLine
 10
161.806937059
 20
141.0669261863
 30
0.0
 11
167.7909854181
 21
141.0669261863
 31
0.0
  0
LINE
  5
1D4
330
1F
100
AcDbEntity
  8
0
  6
Continuous
 62
     7
370
     0
100
AcDbLine
 10
167.7909854181
 20
141.0669261863
 30
0.0
 11
167.7909854181
 21
141.0683641483
 31
0.0
  0
LINE
  5
1D5
330
1F
100
AcDbEntity
  8
0
  6
Continuous
 62
     7
370
     0
100
AcDbLine
 10
161.806937059
 20
141.0669261863
 30
0.0
 11
161.806937059
 21
141.0683641483
 31
0.0
  0
LINE
  5
1D6
330
1F
100
AcDbEntity
  8
0
  6
Continuous
 62
     7
370
     0
100
AcDbLine
 10
161.806937059
 20
172.0464507856
 30
0.0
 11
167.7909854181
 21
172.0464507856
 31
0.0
  0
SPLINE
  5
1D7
330
1F
100
AcDbEntity
  8
0
  6
Continuous
 62
     7
370
     0
100
AcDbSpline
210
0.0
220
0.0
230
1.0
 70
     8
 71
     3
 72
     8
 73
     4
 74
     0
 42
0.000000001
 43
0.00000001
 40
0.0000002845706964
 40
0.0000002845706964
 40
0.0000002845706964
 40
0.0000002845706964
 40
0.0008708450070001
 40
0.0008708450070001
 40
0.0008708450070001
 40
0.0008708450070001
 10
168.2987991968441
 20
171.4378142328699
 30
0.0
 10
168.1312597627622
 20
171.6417554705041
 30
0.0
 10
167.9619075961559
 20
171.8446002737184
 30
0.0
 10
167.7909847885636
 20
172.0464507570166
 30
0.0
  0
SPLINE
  5
1D8
330
1F
100
AcDbEntity
  8
0
  6
Continuous
 62
     7
370
     0
100
AcDbSpline
210
0.0
220
0.0
230
1.0
 70
     8
 71
     3
 72
     8
 73
     4
 74
     0
 42
0.000000001
 43
0.00000001
 40
0.0000002845706964
 40
0.0000002845706964
 40
0.0000002845706964
 40
0.0000002845706964
 40
0.0008708450070001
 40
0.0008708450070001
 40
0.0008708450070001
 40
0.0008708450070001
 10
161.2991225277107
 20
171.4378142328699
 30
0.0
 10
161.4666619617926
 20
171.6417554705041
 30
0.0
 10
161.6360141283989
 20
171.8446002737184
 30
0.0
 10
161.8069369359912
 20
172.0464507570166
 30
0.0
  0
LINE
  5
1D9
330
1F
100
AcDbEntity
  8
0
  6
Continuous
 62
     7
370
     0
100
AcDbLine
 10
161.806937059
 20
140.8182369818
 30
0.0
 11
167.7909854181
 21
140.8182369818
 31
0.0
  0
SPLINE
  5
1DA
330
1F
100
AcDbEntity
  8
0
  6
Continuous
 62
     7
370
     0
100
AcDbSpline
210
0.0
220
0.0
230
1.0
 70
     8
 71
     3
 72
     8
 73
     4
 74
     0
 42
0.000000001
 43
0.00000001
 40
0.000000287519866
 40
0.000000287519866
 40
0.000000287519866
 40
0.000000287519866
 40
0.0008708479561697
 40
0.0008708479561697
 40
0.0008708479561697
 40
0.0008708479561697
 10
167.7909847885636
 20
140.8182375222849
 30
0.0
 10
167.961907596156
 20
141.0200880055831
 30
0.0
 10
168.1312597627622
 20
141.2229328087974
 30
0.0
 10
168.2987991968442
 20
141.4268740464317
 30
0.0
  0
SPLINE
  5
1DB
330
1F
100
AcDbEntity
  8
0
  6
Continuous
 62
     7
370
     0
100
AcDbSpline
210
0.0
220
0.0
230
1.0
 70
     8
 71
     3
 72
     8
 73
     4
 74
     0
 42
0.000000001
 43
0.00000001
 40
0.000000287519866
 40
0.000000287519866
 40
0.000000287519866
 40
0.000000287519866
 40
0.0008708479561697
 40
0.0008708479561697
 40
0.0008708479561697
 40
0.0008708479561697
 10
161.8069369359912
 20
140.8182375222849
 30
0.0
 10
161.6360141283989
 20
141.0200880055831
 30
0.0
 10
161.4666619617926
 20
141.2229328087974
 30
0.0
 10
161.2991225277107
 20
141.4268740464317
 30
0.0
  0
LINE
  5
1DC
330
1F
100
AcDbEntity
  8
0
  6
Continuous
 62
     7
370
     0
100
AcDbLine
 10
161.806937059
 20
172.047573495
 30
0.0
 11
167.7909854181
 21
172.047573495
 31
0.0
  0
LINE
  5
1DD
330
1F
100
AcDbEntity
  8
0
  6
Continuous
 62
     7
370
     0
100
AcDbLine
 10
167.7909854181
 20
172.0464507856
 30
0.0
 11
167.7909854181
 21
172.047573495
 31
0.0
  0
LINE
  5
1DE
330
1F
100
AcDbEntity
  8
0
  6
Continuous
 62
     7
370
     0
100
AcDbLine
 10
161.806937059
 20
172.0464507856
 30
0.0
 11
161.806937059
 21
172.047573495
 31
0.0
  0
LINE
  5
1DF
330
1F
100
AcDbEntity
  8
0
  6
Continuous
 62
     7
370
     0
100
AcDbLine
 10
161.806937059
 20
140.8171156694
 30
0.0
 11
167.7909854181
 21
140.8171156694
 31
0.0
  0
LINE
  5
1E0
330
1F
100
AcDbEntity
  8
0
  6
Continuous
 62
     7
370
     0
100
AcDbLine
 10
167.7909854181
 20
140.8171156694
 30
0.0
 11
167.7909854181
 21
140.8182369818
 31
0.0
  0
LINE
  5
1E1
330
1F
100
AcDbEntity
  8
0
  6
Continuous
 62
     7
370
     0
100
AcDbLine
 10
161.806937059
 20
140.8171156694
 30
0.0
 11
161.806937059
 21
140.8182369818
 31
0.0
  0
LINE
  5
1E2
330
1F
100
AcDbEntity
  8
0
  6
Continuous
 62
     7
370
     0
100
AcDbLine
 10
161.806937059
 20
172.2349547821
 30
0.0
 11
167.7909854181
 21
172.2349547821
 31
0.0
  0
SPLINE
  5
1E3
330
1F
100
AcDbEntity
  8
0
  6
Continuous
 62
     7
370
     0
100
AcDbSpline
210
0.0
220
0.0
230
1.0
 70
     8
 71
     3
 72
     8
 73
     4
 74
     0
 42
0.000000001
 43
0.00000001
 40
0.0000002961524522
 40
0.0000002961524522
 40
0.0000002961524522
 40
0.0000002961524522
 40
0.0008708565887559
 40
0.0008708565887559
 40
0.0008708565887559
 40
0.0008708565887559
 10
168.2987991968441
 20
171.6501205323195
 30
0.0
 10
168.1312597627622
 20
171.8460861418157
 30
0.0
 10
167.9619075961559
 20
172.0409981956805
 30
0.0
 10
167.7909847885636
 20
172.2349548149767
 30
0.0
  0
SPLINE
  5
1E4
330
1F
100
AcDbEntity
  8
0
  6
Continuous
 62
     7
370
     0
100
AcDbSpline
210
0.0
220
0.0
230
1.0
 70
     8
 71
     3
 72
     8
 73
     4
 74
     0
 42
0.000000001
 43
0.00000001
 40
0.0000002961524522
 40
0.0000002961524522
 40
0.0000002961524522
 40
0.0000002961524522
 40
0.0008708565887559
 40
0.0008708565887559
 40
0.0008708565887559
 40
0.0008708565887559
 10
161.2991225277107
 20
171.6501205323195
 30
0.0
 10
161.4666619617926
 20
171.8460861418157
 30
0.0
 10
161.6360141283989
 20
172.0409981956805
 30
0.0
 10
161.8069369359912
 20
172.2349548149767
 30
0.0
  0
LINE
  5
1E5
330
1F
100
AcDbEntity
  8
0
  6
Continuous
 62
     7
370
     0
100
AcDbLine
 10
161.806937059
 20
140.6297335674
 30
0.0
 11
167.7909854181
 21
140.6297335674
 31
0.0
  0
SPLINE
  5
1E6
330
1F
100
AcDbEntity
  8
0
  6
Continuous
 62
     7
370
     0
100
AcDbSpline
210
0.0
220
0.0
230
1.0
 70
     8
 71
     3
 72
     8
 73
     4
 74
     0
 42
0.000000001
 43
0.00000001
 40
0.0000002992216915
 40
0.0000002992216915
 40
0.0000002992216915
 40
0.0000002992216915
 40
0.0008708596579952
 40
0.0008708596579952
 40
0.0008708596579952
 40
0.0008708596579952
 10
167.7909847885636
 20
140.6297334643248
 30
0.0
 10
167.961907596156
 20
140.8236900836211
 30
0.0
 10
168.1312597627622
 20
141.0186021374859
 30
0.0
 10
168.2987991968442
 20
141.2145677469821
 30
0.0
  0
SPLINE
  5
1E7
330
1F
100
AcDbEntity
  8
0
  6
Continuous
 62
     7
370
     0
100
AcDbSpline
210
0.0
220
0.0
230
1.0
 70
     8
 71
     3
 72
     8
 73
     4
 74
     0
 42
0.000000001
 43
0.00000001
 40
0.0000002992216915
 40
0.0000002992216915
 40
0.0000002992216915
 40
0.0000002992216915
 40
0.0008708596579952
 40
0.0008708596579952
 40
0.0008708596579952
 40
0.0008708596579952
 10
161.8069369359912
 20
140.6297334643248
 30
0.0
 10
161.6360141283989
 20
140.8236900836211
 30
0.0
 10
161.4666619617926
 20
141.0186021374859
 30
0.0
 10
161.2991225277107
 20
141.2145677469821
 30
0.0
  0
LINE
  5
1E8
330
1F
100
AcDbEntity
  8
0
  6
Continuous
 62
     7
370
     0
100
AcDbLine
 10
161.806937059
 20
172.2357599105
 30
0.0
 11
167.7909854181
 21
172.2357599105
 31
0.0
  0
LINE
  5
1E9
330
1F
100
AcDbEntity
  8
0
  6
Continuous
 62
     7
370
     0
100
AcDbLine
 10
167.7909854181
 20
172.2349547821
 30
0.0
 11
167.7909854181
 21
172.2357599105
 31
0.0
  0
LINE
  5
1EA
330
1F
100
AcDbEntity
  8
0
  6
Continuous
 62
     7
370
     0
100
AcDbLine
 10
161.806937059
 20
172.2349547821
 30
0.0
 11
161.806937059
 21
172.2357599105
 31
0.0
  0
LINE
  5
1EB
330
1F
100
AcDbEntity
  8
0
  6
Continuous
 62
     7
370
     0
100
AcDbLine
 10
161.806937059
 20
140.6289289047
 30
0.0
 11
167.7909854181
 21
140.6289289047
 31
0.0
  0
LINE
  5
1EC
330
1F
100
AcDbEntity
  8
0
  6
Continuous
 62
     7
370
     0
100
AcDbLine
 10
167.7909854181
 20
140.6289289047
 30
0.0
 11
167.7909854181
 21
140.6297335674
 31
0.0
  0
LINE
  5
1ED
330
1F
100
AcDbEntity
  8
0
  6
Continuous
 62
     7
370
     0
100
AcDbLine
 10
161.806937059
 20
140.6289289047
 30
0.0
 11
161.806937059
 21
140.6297335674
 31
0.0
  0
LINE
  5
1EE
330
1F
100
AcDbEntity
  8
0
  6
Continuous
 62
     7
370
     0
100
AcDbLine
 10
161.806937059
 20
172.3610931698
 30
0.0
 11
167.7909854181
 21
172.3610931698
 31
0.0
  0
SPLINE
  5
1EF
330
1F
100
AcDbEntity
  8
0
  6
Continuous
 62
     7
370
     0
100
AcDbSpline
210
0.0
220
0.0
230
1.0
 70
     8
 71
     3
 72
     8
 73
     4
 74
     0
 42
0.000000001
 43
0.00000001
 40
0.0000003099922359
 40
0.0000003099922359
 40
0.0000003099922359
 40
0.0000003099922359
 40
0.0008708704285396
 40
0.0008708704285396
 40
0.0008708704285396
 40
0.0008708704285396
 10
168.2987991968441
 20
171.802369220688
 30
0.0
 10
168.1312597627622
 20
171.9895858153136
 30
0.0
 10
167.9619075961559
 20
172.1757958909992
 30
0.0
 10
167.7909847885636
 20
172.3610931881274
 30
0.0
  0
SPLINE
  5
1F0
330
1F
100
AcDbEntity
  8
0
  6
Continuous
 62
     7
370
     0
100
AcDbSpline
210
0.0
220
0.0
230
1.0
 70
     8
 71
     3
 72
     8
 73
     4
 74
     0
 42
0.000000001
 43
0.00000001
 40
0.0000003099922359
 40
0.0000003099922359
 40
0.0000003099922359
 40
0.0000003099922359
 40
0.0008708704285396
 40
0.0008708704285396
 40
0.0008708704285396
 40
0.0008708704285396
 10
161.2991225277107
 20
171.802369220688
 30
0.0
 10
161.4666619617926
 20
171.9895858153136
 30
0.0
 10
161.6360141283989
 20
172.1757958909992
 30
0.0
 10
161.8069369359912
 20
172.3610931881274
 30
0.0
  0
LINE
  5
1F1
330
1F
100
AcDbEntity
  8
0
  6
Continuous
 62
     7
370
     0
100
AcDbLine
 10
161.806937059
 20
140.5035952379
 30
0.0
 11
167.7909854181
 21
140.5035952379
 31
0.0
  0
SPLINE
  5
1F2
330
1F
100
AcDbEntity
  8
0
  6
Continuous
 62
     7
370
     0
100
AcDbSpline
210
0.0
220
0.0
230
1.0
 70
     8
 71
     3
 72
     8
 73
     4
 74
     0
 42
0.000000001
 43
0.00000001
 40
0.0000003132049584
 40
0.0000003132049584
 40
0.0000003132049584
 40
0.0000003132049584
 40
0.000870873641262
 40
0.000870873641262
 40
0.000870873641262
 40
0.000870873641262
 10
167.7909847885637
 20
140.5035950911742
 30
0.0
 10
167.961907596156
 20
140.6888923883024
 30
0.0
 10
168.1312597627622
 20
140.875102463988
 30
0.0
 10
168.2987991968442
 20
141.0623190586136
 30
0.0
  0
SPLINE
  5
1F3
330
1F
100
AcDbEntity
  8
0
  6
Continuous
 62
     7
370
     0
100
AcDbSpline
210
0.0
220
0.0
230
1.0
 70
     8
 71
     3
 72
     8
 73
     4
 74
     0
 42
0.000000001
 43
0.00000001
 40
0.0000003132049583
 40
0.0000003132049583
 40
0.0000003132049583
 40
0.0000003132049583
 40
0.000870873641262
 40
0.000870873641262
 40
0.000870873641262
 40
0.000870873641262
 10
161.8069369359912
 20
140.5035950911742
 30
0.0
 10
161.6360141283989
 20
140.6888923883024
 30
0.0
 10
161.4666619617926
 20
140.8751024639879
 30
0.0
 10
161.2991225277107
 20
141.0623190586136
 30
0.0
  0
LINE
  5
1F4
330
1F
100
AcDbEntity
  8
0
  6
Continuous
 62
     7
370
     0
100
AcDbLine
 10
161.806937059
 20
172.361577574
 30
0.0
 11
167.7909854181
 21
172.361577574
 31
0.0
  0
LINE
  5
1F5
330
1F
100
AcDbEntity
  8
0
  6
Continuous
 62
     7
370
     0
100
AcDbLine
 10
167.7909854181
 20
172.3610931698
 30
0.0
 11
167.7909854181
 21
172.361577574
 31
0.0
  0
LINE
  5
1F6
330
1F
100
AcDbEntity
  8
0
  6
Continuous
 62
     7
370
     0
100
AcDbLine
 10
161.806937059
 20
172.3610931698
 30
0.0
 11
161.806937059
 21
172.361577574
 31
0.0
  0
LINE
  5
1F7
330
1F
100
AcDbEntity
  8
0
  6
Continuous
 62
     7
370
     0
100
AcDbLine
 10
161.806937059
 20
140.5031109502
 30
0.0
 11
167.7909854181
 21
140.5031109502
 31
0.0
  0
LINE
  5
1F8
330
1F
100
AcDbEntity
  8
0
  6
Continuous
 62
     7
370
     0
100
AcDbLine
 10
167.7909854181
 20
140.5031109502
 30
0.0
 11
167.7909854181
 21
140.5035952379
 31
0.0
  0
LINE
  5
1F9
330
1F
100
AcDbEntity
  8
0
  6
Continuous
 62
     7
370
     0
100
AcDbLine
 10
161.806937059
 20
140.5031109502
 30
0.0
 11
161.806937059
 21
140.5035952379
 31
0.0
  0
LINE
  5
1FA
330
1F
100
AcDbEntity
  8
0
  6
Continuous
 62
     7
370
     0
100
AcDbLine
 10
161.806937059
 20
172.4243680405
 30
0.0
 11
167.7909854181
 21
172.4243680405
 31
0.0
  0
SPLINE
  5
1FB
330
1F
100
AcDbEntity
  8
0
  6
Continuous
 62
     7
370
     0
100
AcDbSpline
210
0.0
220
0.0
230
1.0
 70
     8
 71
     3
 72
     8
 73
     4
 74
     0
 42
0.000000001
 43
0.00000001
 40
0.0000003265408331
 40
0.0000003265408331
 40
0.0000003265408331
 40
0.0000003265408331
 40
0.0008708869771367
 40
0.0008708869771367
 40
0.0008708869771367
 40
0.0008708869771367
 10
168.2987991968441
 20
171.8939594419582
 30
0.0
 10
168.1312597627622
 20
172.0716881633454
 30
0.0
 10
167.9619075961559
 20
172.2484613747542
 30
0.0
 10
167.7909847885636
 20
172.424368065937
 30
0.0
  0
SPLINE
  5
1FC
330
1F
100
AcDbEntity
  8
0
  6
Continuous
 62
     7
370
     0
100
AcDbSpline
210
0.0
220
0.0
230
1.0
 70
     8
 71
     3
 72
     8
 73
     4
 74
     0
 42
0.000000001
 43
0.00000001
 40
0.0000003265408331
 40
0.0000003265408331
 40
0.0000003265408331
 40
0.0000003265408331
 40
0.0008708869771367
 40
0.0008708869771367
 40
0.0008708869771367
 40
0.0008708869771367
 10
161.2991225277107
 20
171.8939594419582
 30
0.0
 10
161.4666619617926
 20
172.0716881633453
 30
0.0
 10
161.6360141283989
 20
172.2484613747542
 30
0.0
 10
161.8069369359912
 20
172.424368065937
 30
0.0
  0
LINE
  5
1FD
330
1F
100
AcDbEntity
  8
0
  6
Continuous
 62
     7
370
     0
100
AcDbLine
 10
161.806937059
 20
140.4403211822
 30
0.0
 11
167.7909854181
 21
140.4403211822
 31
0.0
  0
SPLINE
  5
1FE
330
1F
100
AcDbEntity
  8
0
  6
Continuous
 62
     7
370
     0
100
AcDbSpline
210
0.0
220
0.0
230
1.0
 70
     8
 71
     3
 72
     8
 73
     4
 74
     0
 42
0.000000001
 43
0.00000001
 40
0.0000003299251282
 40
0.0000003299251282
 40
0.0000003299251282
 40
0.0000003299251282
 40
0.0008708903614319
 40
0.0008708903614319
 40
0.0008708903614319
 40
0.0008708903614319
 10
167.7909847885636
 20
140.4403202133646
 30
0.0
 10
167.9619075961559
 20
140.6162269045474
 30
0.0
 10
168.1312597627622
 20
140.7930001159562
 30
0.0
 10
168.2987991968442
 20
140.9707288373434
 30
0.0
  0
SPLINE
  5
1FF
330
1F
100
AcDbEntity
  8
0
  6
Continuous
 62
     7
370
     0
100
AcDbSpline
210
0.0
220
0.0
230
1.0
 70
     8
 71
     3
 72
     8
 73
     4
 74
     0
 42
0.000000001
 43
0.00000001
 40
0.0000003299251282
 40
0.0000003299251282
 40
0.0000003299251282
 40
0.0000003299251282
 40
0.0008708903614319
 40
0.0008708903614319
 40
0.0008708903614319
 40
0.0008708903614319
 10
161.8069369359912
 20
140.4403202133646
 30
0.0
 10
161.6360141283989
 20
140.6162269045474
 30
0.0
 10
161.4666619617926
 20
140.7930001159562
 30
0.0
 10
161.2991225277107
 20
140.9707288373434
 30
0.0
  0
LINE
  5
200
330
1F
100
AcDbEntity
  8
0
  6
Continuous
 62
     7
370
     0
100
AcDbLine
 10
161.806937059
 20
172.4245297413
 30
0.0
 11
167.7909854181
 21
172.4245297413
 31
0.0
  0
LINE
  5
201
330
1F
100
AcDbEntity
  8
0
  6
Continuous
 62
     7
370
     0
100
AcDbLine
 10
167.7909854181
 20
172.4243680405
 30
0.0
 11
167.7909854181
 21
172.4245297413
 31
0.0
  0
LINE
  5
202
330
1F
100
AcDbEntity
  8
0
  6
Continuous
 62
     7
370
     0
100
AcDbLine
 10
161.806937059
 20
172.4243680405
 30
0.0
 11
161.806937059
 21
172.4245297413
 31
0.0
  0
LINE
  5
203
330
1F
100
AcDbEntity
  8
0
  6
Continuous
 62
     7
370
     0
100
AcDbLine
 10
161.806937059
 20
140.4401572694
 30
0.0
 11
167.7909854181
 21
140.4401572694
 31
0.0
  0
LINE
  5
204
330
1F
100
AcDbEntity
  8
0
  6
Continuous
 62
     7
370
     0
100
AcDbLine
 10
167.7909854181
 20
140.4401572694
 30
0.0
 11
167.7909854181
 21
140.4403211822
 31
0.0
  0
LINE
  5
205
330
1F
100
AcDbEntity
  8
0
  6
Continuous
 62
     7
370
     0
100
AcDbLine
 10
161.806937059
 20
140.4401572694
 30
0.0
 11
161.806937059
 21
140.4403211822
 31
0.0
  0
SPLINE
  5
206
330
1F
100
AcDbEntity
  8
0
  6
Continuous
 62
     7
370
     0
100
AcDbSpline
210
0.0
220
0.0
230
1.0
 70
     8
 71
     3
 72
     8
 73
     4
 74
     0
 42
0.000000001
 43
0.00000001
 40
0.0000003464001047
 40
0.0000003464001047
 40
0.0000003464001047
 40
0.0000003464001047
 40
0.0008709068364084
 40
0.0008709068364084
 40
0.0008709068364084
 40
0.0008709068364084
 10
168.2987991968441
 20
171.9245297313703
 30
0.0
 10
168.1312597627622
 20
172.0920691654522
 30
0.0
 10
167.9619075961559
 20
172.2587078694789
 30
0.0
 10
167.7909847885636
 20
172.4245297313703
 30
0.0
  0
SPLINE
  5
207
330
1F
100
AcDbEntity
  8
0
  6
Continuous
 62
     7
370
     0
100
AcDbSpline
210
0.0
220
0.0
230
1.0
 70
     8
 71
     3
 72
     8
 73
     4
 74
     0
 42
0.000000001
 43
0.00000001
 40
0.0000003464001047
 40
0.0000003464001047
 40
0.0000003464001047
 40
0.0000003464001047
 40
0.0008709068364084
 40
0.0008709068364084
 40
0.0008709068364084
 40
0.0008709068364084
 10
161.2991225277107
 20
171.9245297313703
 30
0.0
 10
161.4666619617926
 20
172.0920691654522
 30
0.0
 10
161.6360141283989
 20
172.2587078694789
 30
0.0
 10
161.8069369359912
 20
172.4245297313703
 30
0.0
  0
SPLINE
  5
208
330
1F
100
AcDbEntity
  8
0
  6
Continuous
 62
     7
370
     0
100
AcDbSpline
210
0.0
220
0.0
230
1.0
 70
     8
 71
     3
 72
     8
 73
     4
 74
     0
 42
0.000000001
 43
0.00000001
 40
0.0000003499903057
 40
0.0000003499903057
 40
0.0000003499903057
 40
0.0000003499903057
 40
0.0008709104266094
 40
0.0008709104266094
 40
0.0008709104266094
 40
0.0008709104266094
 10
167.7909847885636
 20
140.4401585479314
 30
0.0
 10
167.961907596156
 20
140.6059804098227
 30
0.0
 10
168.1312597627622
 20
140.7726191138494
 30
0.0
 10
168.2987991968442
 20
140.9401585479313
 30
0.0
  0
SPLINE
  5
209
330
1F
100
AcDbEntity
  8
0
  6
Continuous
 62
     7
370
     0
100
AcDbSpline
210
0.0
220
0.0
230
1.0
 70
     8
 71
     3
 72
     8
 73
     4
 74
     0
 42
0.000000001
 43
0.00000001
 40
0.0000003499903057
 40
0.0000003499903057
 40
0.0000003499903057
 40
0.0000003499903057
 40
0.0008709104266094
 40
0.0008709104266094
 40
0.0008709104266094
 40
0.0008709104266094
 10
161.8069369359912
 20
140.4401585479314
 30
0.0
 10
161.6360141283989
 20
140.6059804098227
 30
0.0
 10
161.4666619617926
 20
140.7726191138494
 30
0.0
 10
161.2991225277107
 20
140.9401585479313
 30
0.0
  0
LINE
  5
20A
330
1F
100
AcDbEntity
  8
0
  6
Continuous
 62
     7
370
     0
100
AcDbLine
 10
138.2989610858
 20
174.1876250639
 30
0.0
 11
132.2989601023
 21
174.1876250639
 31
0.0
  0
LINE
  5
20B
330
1F
100
AcDbEntity
  8
0
  6
Continuous
 62
     7
370
     0
100
AcDbLine
 10
138.2989610858
 20
183.932344084
 30
0.0
 11
138.2989610858
 21
174.1876250639
 31
0.0
  0
LINE
  5
20C
330
1F
100
AcDbEntity
  8
0
  6
Continuous
 62
     7
370
     0
100
AcDbLine
 10
132.2989601023
 20
183.932344084
 30
0.0
 11
132.2989601023
 21
174.1876250639
 31
0.0
  0
LINE
  5
20D
330
1F
100
AcDbEntity
  8
0
  6
Continuous
 62
     7
370
     0
100
AcDbLine
 10
138.2989610858
 20
138.6770630528
 30
0.0
 11
132.2989601023
 21
138.6770630528
 31
0.0
  0
LINE
  5
20E
330
1F
100
AcDbEntity
  8
0
  6
Continuous
 62
     7
370
     0
100
AcDbLine
 10
138.2989610858
 20
138.6770630528
 30
0.0
 11
138.2989610858
 21
174.1876250639
 31
0.0
  0
LINE
  5
20F
330
1F
100
AcDbEntity
  8
0
  6
Continuous
 62
     7
370
     0
100
AcDbLine
 10
132.2989601023
 20
138.6770630528
 30
0.0
 11
132.2989601023
 21
174.1876250639
 31
0.0
  0
LINE
  5
210
330
1F
100
AcDbEntity
  8
0
  6
Continuous
 62
     7
370
     0
100
AcDbLine
 10
138.2989610858
 20
138.6770630528
 30
0.0
 11
138.2989610858
 21
128.932344382
 31
0.0
  0
LINE
  5
211
330
1F
100
AcDbEntity
  8
0
  6
Continuous
 62
     7
370
     0
100
AcDbLine
 10
132.2989601023
 20
138.6770630528
 30
0.0
 11
132.2989601023
 21
128.932344382
 31
0.0
  0
LINE
  5
212
330
1F
100
AcDbEntity
  8
0
  6
Continuous
 62
     7
370
     0
100
AcDbLine
 10
152.2989610523
 20
164.9323437636
 30
0.0
 11
138.2989610858
 21
164.9323437636
 31
0.0
  0
LINE
  5
213
330
1F
100
AcDbEntity
  8
0
  6
Continuous
 62
     7
370
     0
100
AcDbLine
 10
152.2989610523
 20
147.932343771
 30
0.0
 11
138.2989610858
 21
147.932343771
 31
0.0
  0
LINE
  5
214
330
1F
100
AcDbEntity
  8
0
  6
Continuous
 62
     7
370
     0
100
AcDbLine
 10
152.2989610523
 20
164.9323437636
 30
0.0
 11
152.2989610523
 21
147.932343771
 31
0.0
  0
DIMENSION
  5
215
330
1F
100
AcDbEntity
  8
0
  6
Continuous
 62
     7
370
     0
100
AcDbDimension
  2
_D
 10
120.5097638038
 20
128.9323441397
 30
0.0
 11
120.5097638038
 21
156.4323441397
 31
0.0
 70
   160
  1
%%c<>
 71
     2
 42
-1.0
  3
SLDDIMSTYLE0
100
AcDbAlignedDimension
 13
132.2989608623
 23
183.9323441397
 33
0.0
 14
132.2989608623
 24
128.9323441397
 34
0.0
 50
90.0
100
AcDbRotatedDimension
  0
DIMENSION
  5
221
330
1F
100
AcDbEntity
  8
0
  6
Continuous
 62
     7
370
     0
100
AcDbDimension
  2
_D_1
 10
138.2989608623
 20
118.9323441397
 30
0.0
 11
135.2989608623
 21
118.9323441397
 31
0.0
 70
   160
  1
<>
 71
     2
 42
-1.0
  3
SLDDIMSTYLE1
100
AcDbAlignedDimension
 13
132.2989608623
 23
128.9323441397
 33
0.0
 14
138.2989608623
 24
128.9323441397
 34
0.0
 50
0.0
100
AcDbRotatedDimension
  0
DIMENSION
  5
22E
330
1F
100
AcDbEntity
  8
0
  6
Continuous
 62
     7
370
     0
100
AcDbDimension
  2
_D_2
 10
176.2989608623
 20
100.9323441397
 30
0.0
 11
154.2989608623
 21
100.9323441397
 31
0.0
 70
   160
  1
<>
 71
     2
 42
-1.0
  3
SLDDIMSTYLE0
100
AcDbAlignedDimension
 13
132.2989608623
 23
128.9323441397
 33
0.0
 14
176.2989608623
 24
149.9323441397
 34
0.0
 50
0.0
100
AcDbRotatedDimension
  0
DIMENSION
  5
238
330
1F
100
AcDbEntity
  8
0
  6
Continuous
 62
     7
370
     0
100
AcDbDimension
  2
_D_3
 10
152.2989608623
 20
110.110723214
 30
0.0
 11
142.2989608623
 21
110.110723214
 31
0.0
 70
   160
  1
<>
 71
     2
 42
-1.0
  3
SLDDIMSTYLE0
100
AcDbAlignedDimension
 13
132.2989608623
 23
128.9323441397
 33
0.0
 14
152.2989608623
 24
147.9323441397
 34
0.0
 50
0.0
100
AcDbRotatedDimension
  0
CIRCLE
  5
242
330
1F
100
AcDbEntity
  8
0
  6
Continuous
 62
     7
370
     0
100
AcDbCircle
 10
65.0521539714
 20
156.4323441397
 30
0.0
 40
5.700000000000007
  0
CIRCLE
  5
243
330
1F
100
AcDbEntity
  8
0
  6
Continuous
 62
     7
370
     0
100
AcDbCircle
 10
65.0521539714
 20
156.4323441397
 30
0.0
 40
6.500000000000014
  0
LINE
  5
244
330
1F
100
AcDbEntity
  8
0
  6
Continuous
 62
     7
370
     0
100
AcDbLine
 10
63.7252326127
 20
153.2324558397
 30
0.0
 11
67.1598776247
 21
153.6832532187
 31
0.0
  0
LINE
  5
245
330
1F
100
AcDbEntity
  8
0
  6
Continuous
 62
     7
370
     0
100
AcDbLine
 10
67.1598776247
 20
153.6832532187
 30
0.0
 11
68.4867980893
 21
156.883141612
 31
0.0
  0
LINE
  5
246
330
1F
100
AcDbEntity
  8
0
  6
Continuous
 62
     7
370
     0
100
AcDbLine
 10
68.4867980893
 20
156.883141612
 30
0.0
 11
66.3790754046
 21
159.6322316949
 31
0.0
  0
LINE
  5
247
330
1F
100
AcDbEntity
  8
0
  6
Continuous
 62
     7
370
     0
100
AcDbLine
 10
66.3790754046
 20
159.6322316949
 30
0.0
 11
62.9444303925
 21
159.1814352472
 31
0.0
  0
LINE
  5
248
330
1F
100
AcDbEntity
  8
0
  6
Continuous
 62
     7
370
     0
100
AcDbLine
 10
62.9444303925
 20
159.1814352472
 30
0.0
 11
61.6175099279
 21
155.981546854
 31
0.0
  0
LINE
  5
249
330
1F
100
AcDbEntity
  8
0
  6
Continuous
 62
     7
370
     0
100
AcDbLine
 10
61.6175099279
 20
155.981546854
 30
0.0
 11
63.7252326127
 21
153.2324558397
 31
0.0
  0
SPLINE
  5
24A
330
1F
100
AcDbEntity
  8
0
  6
Continuous
 62
     7
370
     0
100
AcDbSpline
210
0.0
220
0.0
230
1.0
 70
    24
 71
     3
 72
     8
 73
     4
 74
     0
 42
0.000000001
 43
0.00000001
 40
0.0
 40
0.0
 40
0.0
 40
0.0
 40
1.0
 40
1.0
 40
1.0
 40
1.0
 10
62.94443025107192
 20
159.1814350291888
 30
0.0
 10
63.01468770841493
 20
159.0897986662041
 30
0.0
 10
63.71726228184389
 20
158.1734350363581
 30
0.0
 10
65.05215397135883
 20
156.4323441396508
 30
0.0
  0
SPLINE
  5
24B
330
1F
100
AcDbEntity
  8
0
  6
Continuous
 62
     7
370
     0
100
AcDbSpline
210
0.0
220
0.0
230
1.0
 70
    24
 71
     3
 72
     8
 73
     4
 74
     0
 42
0.000000001
 43
0.00000001
 40
0.0
 40
0.0
 40
0.0
 40
0.0
 40
1.0
 40
1.0
 40
1.0
 40
1.0
 10
61.61750956356322
 20
155.9815472984923
 30
0.0
 10
61.73199771048976
 20
155.9965738598644
 30
0.0
 10
62.87687917975496
 20
156.1468394735839
 30
0.0
 10
65.05215397135883
 20
156.4323441396508
 30
0.0
  0
SPLINE
  5
24C
330
1F
100
AcDbEntity
  8
0
  6
Continuous
 62
     7
370
     0
100
AcDbSpline
210
0.0
220
0.0
230
1.0
 70
    24
 71
     3
 72
     8
 73
     4
 74
     0
 42
0.000000001
 43
0.00000001
 40
0.0
 40
0.0
 40
0.0
 40
0.0
 40
1.0
 40
1.0
 40
1.0
 40
1.0
 10
66.37907465886772
 20
159.6322318703472
 30
0.0
 10
66.3348439692839
 20
159.5255689459908
 30
0.0
 10
65.8925370734476
 20
158.4589397024253
 30
0.0
 10
65.05215397135883
 20
156.4323441396508
 30
0.0
  0
SPLINE
  5
24D
330
1F
100
AcDbEntity
  8
0
  6
Continuous
 62
     7
370
     0
100
AcDbSpline
210
0.0
220
0.0
230
1.0
 70
    24
 71
     3
 72
     8
 73
     4
 74
     0
 42
0.000000001
 43
0.00000001
 40
0.0
 40
0.0
 40
0.0
 40
0.0
 40
1.0
 40
1.0
 40
1.0
 40
1.0
 10
63.72523328384992
 20
153.2324564089545
 30
0.0
 10
63.76946397343367
 20
153.3391193333109
 30
0.0
 10
64.21177086926997
 20
154.4057485768764
 30
0.0
 10
65.05215397135883
 20
156.4323441396508
 30
0.0
  0
SPLINE
  5
24E
330
1F
100
AcDbEntity
  8
0
  6
Continuous
 62
     7
370
     0
100
AcDbSpline
210
0.0
220
0.0
230
1.0
 70
    24
 71
     3
 72
     8
 73
     4
 74
     0
 42
0.000000001
 43
0.00000001
 40
0.0
 40
0.0
 40
0.0
 40
0.0
 40
1.0
 40
1.0
 40
1.0
 40
1.0
 10
68.48679837915442
 20
156.8831409808093
 30
0.0
 10
68.37231023222789
 20
156.8681144194373
 30
0.0
 10
67.22742876296269
 20
156.7178488057178
 30
0.0
 10
65.05215397135883
 20
156.4323441396508
 30
0.0
  0
SPLINE
  5
24F
330
1F
100
AcDbEntity
  8
0
  6
Continuous
 62
     7
370
     0
100
AcDbSpline
210
0.0
220
0.0
230
1.0
 70
    24
 71
     3
 72
     8
 73
     4
 74
     0
 42
0.000000001
 43
0.00000001
 40
0.0
 40
0.0
 40
0.0
 40
0.0
 40
1.0
 40
1.0
 40
1.0
 40
1.0
 10
67.15987769164572
 20
153.6832532501129
 30
0.0
 10
67.08962023430271
 20
153.7748896130976
 30
0.0
 10
66.38704566087375
 20
154.6912532429436
 30
0.0
 10
65.05215397135883
 20
156.4323441396508
 30
0.0
  0
LINE
  5
250
330
1F
100
AcDbEntity
  8
0
  6
Continuous
 62
     7
370
     0
100
AcDbLine
 10
44.0521552231
 20
138.6770630528
 30
0.0
 11
44.0521552231
 21
174.1876250639
 31
0.0
  0
ARC
  5
251
330
1F
100
AcDbEntity
  8
0
  6
Continuous
 62
     7
370
     0
100
AcDbCircle
 10
65.0521539714
 20
156.4323441397
 30
0.0
 40
27.50000000000006
100
AcDbArc
 50
40.2141710174
 51
139.7858289826
  0
LINE
  5
252
330
1F
100
AcDbEntity
  8
0
  6
Continuous
 62
     7
370
     0
100
AcDbLine
 10
86.0521539583
 20
138.6770630528
 30
0.0
 11
86.0521539583
 21
174.1876250639
 31
0.0
  0
ARC
  5
253
330
1F
100
AcDbEntity
  8
0
  6
Continuous
 62
     7
370
     0
100
AcDbCircle
 10
65.0521539714
 20
156.4323441397
 30
0.0
 40
27.50000000000003
100
AcDbArc
 50
220.2141710174
 51
319.7858289826
  0
CIRCLE
  5
254
330
1F
100
AcDbEntity
  8
0
  6
Continuous
 62
     7
370
     0
100
AcDbCircle
 10
80.0521539714
 20
141.4323441397
 30
0.0
 40
3.299999999999983
  0
CIRCLE
  5
255
330
1F
100
AcDbEntity
  8
0
  6
Continuous
 62
     7
370
     0
100
AcDbCircle
 10
50.0521539714
 20
171.4323441397
 30
0.0
 40
3.299999999999983
  0
CIRCLE
  5
256
330
1F
100
AcDbEntity
  8
0
  6
Continuous
 62
     7
370
     0
100
AcDbCircle
 10
80.0521539714
 20
171.4323441397
 30
0.0
 40
3.299999999999983
  0
CIRCLE
  5
257
330
1F
100
AcDbEntity
  8
0
  6
Continuous
 62
     7
370
     0
100
AcDbCircle
 10
50.0521539714
 20
141.4323441397
 30
0.0
 40
3.299999999999983
  0
CIRCLE
  5
258
330
1F
100
AcDbEntity
  8
0
  6
Continuous
 62
     7
370
     0
100
AcDbCircle
 10
65.0521539714
 20
156.4323441397
 30
0.0
 40
14.99999999999997
  0
CIRCLE
  5
259
330
1F
100
AcDbEntity
  8
0
  6
Continuous
 62
     7
370
     0
100
AcDbCircle
 10
65.0521539714
 20
156.4323441397
 30
0.0
 40
7.75
  0
CIRCLE
  5
25A
330
1F
100
AcDbEntity
  8
0
  6
Continuous
 62
     7
370
     0
100
AcDbCircle
 10
65.0521539714
 20
156.4323441397
 30
0.0
 40
6.75
  0
CIRCLE
  5
25B
330
1F
100
AcDbEntity
  8
0
  6
HIDDEN
 62
     7
370
     0
100
AcDbCircle
 10
65.0521539714
 20
156.4323441397
 30
0.0
 40
4.000000000000002
  0
CIRCLE
  5
25C
330
1F
100
AcDbEntity
  8
0
  6
HIDDEN
 62
     7
370
     0
100
AcDbCircle
 10
65.0521539714
 20
156.4323441397
 30
0.0
 40
13.5
  0
CIRCLE
  5
25D
330
1F
100
AcDbEntity
  8
0
  6
HIDDEN
 62
     7
370
     0
100
AcDbCircle
 10
65.0521539714
 20
156.4323441397
 30
0.0
 40
3.900000000000006
  0
ARC
  5
25E
330
1F
100
AcDbEntity
  8
0
  6
HIDDEN
 62
     7
370
     0
100
AcDbCircle
 10
65.0521539714
 20
156.4323441397
 30
0.0
 40
14.0
100
AcDbArc
 50
217.3831984179
 51
0.0
  0
ARC
  5
25F
330
1F
100
AcDbEntity
  8
0
  6
HIDDEN
 62
     7
370
     0
100
AcDbCircle
 10
65.0521539714
 20
156.4323441397
 30
0.0
 40
14.0
100
AcDbArc
 50
0.0
 51
142.6168015821
  0
SPLINE
  5
260
330
1F
100
AcDbEntity
  8
0
  6
HIDDEN
 62
     7
370
     0
100
AcDbSpline
210
0.0
220
0.0
230
1.0
 70
    24
 71
     3
 72
     8
 73
     4
 74
     0
 42
0.000000001
 43
0.00000001
 40
0.0000002460339245
 40
0.0000002460339245
 40
0.0000002460339245
 40
0.0000002460339245
 40
0.0008708064702282
 40
0.0008708064702282
 40
0.0008708064702282
 40
0.0008708064702282
 10
53.11521981339884
 20
166.3074348894519
 30
0.0
 10
52.87933480623881
 20
166.2851371913173
 30
0.0
 10
52.64471797045999
 20
166.262959370673
 30
0.0
 10
52.41125119713659
 20
166.2408902629383
 30
0.0
  0
SPLINE
  5
261
330
1F
100
AcDbEntity
  8
0
  6
HIDDEN
 62
     7
370
     0
100
AcDbSpline
210
0.0
220
0.0
230
1.0
 70
    24
 71
     3
 72
     8
 73
     4
 74
     0
 42
0.000000001
 43
0.00000001
 40
0.0000002485836013
 40
0.0000002485836013
 40
0.0000002485836013
 40
0.0000002485836013
 40
0.0008708090199051
 40
0.0008708090199051
 40
0.0008708090199051
 40
0.0008708090199051
 10
53.04867518688528
 20
167.0114035057141
 30
0.0
 10
53.07074429461996
 20
166.7779367323907
 30
0.0
 10
53.09292211526427
 20
166.5433198966119
 30
0.0
 10
53.11521981339882
 20
166.3074348894519
 30
0.0
  0
LWPOLYLINE
  5
262
330
1F
100
AcDbEntity
  8
0
  6
HIDDEN
 62
     7
370
     0
100
AcDbPolyline
 90
        9
 70
   128
 43
0.0
 10
53.0520803298
 20
167.0152643968
 10
53.0516519214
 20
167.0147815061
 10
53.0512272383
 20
167.014299081
 10
53.0508025552
 20
167.0138166559
 10
53.0503778722
 20
167.0133337651
 10
53.0499531891
 20
167.01285134
 10
53.0495247807
 20
167.012368915
 10
53.0491000976
 20
167.0118860242
 10
53.0486754145
 20
167.0114035991
  0
SPLINE
  5
263
330
1F
100
AcDbEntity
  8
0
  6
HIDDEN
 62
     7
370
     0
100
AcDbSpline
210
0.0
220
0.0
230
1.0
 70
    24
 71
     3
 72
     8
 73
     4
 74
     0
 42
0.000000001
 43
0.00000001
 40
0.0000002450629425
 40
0.0000002450629425
 40
0.0000002450629425
 40
0.0000002450629425
 40
0.0008708054992462
 40
0.0008708054992462
 40
0.0008708054992462
 40
0.0008708054992462
 10
53.75883670480547
 20
167.0374749509726
 30
0.0
 10
53.52201707877409
 20
167.0300325944006
 30
0.0
 10
53.28647064884728
 20
167.0226302496282
 30
0.0
 10
53.05207883813042
 20
167.0152641902262
 30
0.0
  0
SPLINE
  5
264
330
1F
100
AcDbEntity
  8
0
  6
HIDDEN
 62
     7
370
     0
100
AcDbSpline
210
0.0
220
0.0
230
1.0
 70
    24
 71
     3
 72
     8
 73
     4
 74
     0
 42
0.000000001
 43
0.00000001
 40
0.0000002476025541
 40
0.0000002476025541
 40
0.0000002476025541
 40
0.0000002476025541
 40
0.0008708080388578
 40
0.0008708080388578
 40
0.0008708080388578
 40
0.0008708080388578
 10
53.73662594405913
 20
167.7442328176476
 30
0.0
 10
53.74399200346109
 20
167.5098410069307
 30
0.0
 10
53.75139434823353
 20
167.2742945770039
 30
0.0
 10
53.75883670480548
 20
167.0374749509726
 30
0.0
  0
LINE
  5
265
330
1F
100
AcDbEntity
  8
0
  6
HIDDEN
 62
     7
370
     0
100
AcDbLine
 10
53.7402652934
 20
167.747872167
 30
0.0
 11
53.7366259441
 21
167.7442328176
 31
0.0
  0
SPLINE
  5
266
330
1F
100
AcDbEntity
  8
0
  6
HIDDEN
 62
     7
370
     0
100
AcDbSpline
210
0.0
220
0.0
230
1.0
 70
    24
 71
     3
 72
     8
 73
     4
 74
     0
 42
0.000000001
 43
0.00000001
 40
0.0000002450629425
 40
0.0000002450629425
 40
0.0000002450629425
 40
0.0000002450629425
 40
0.0008708054992462
 40
0.0008708054992462
 40
0.0008708054992462
 40
0.0008708054992462
 10
54.44702316003728
 20
167.7256614062044
 30
0.0
 10
54.21020353400591
 20
167.7331037627763
 30
0.0
 10
53.97465710407909
 20
167.7405061075488
 30
0.0
 10
53.74026529336223
 20
167.7478721669507
 30
0.0
  0
SPLINE
  5
267
330
1F
100
AcDbEntity
  8
0
  6
HIDDEN
 62
     7
370
     0
100
AcDbSpline
210
0.0
220
0.0
230
1.0
 70
    24
 71
     3
 72
     8
 73
     4
 74
     0
 42
0.000000001
 43
0.00000001
 40
0.0000002476025541
 40
0.0000002476025541
 40
0.0000002476025541
 40
0.0000002476025541
 40
0.0008708080388578
 40
0.0008708080388578
 40
0.0008708080388578
 40
0.0008708080388578
 10
54.46923392078362
 20
168.4324192728794
 30
0.0
 10
54.46186786138165
 20
168.1980274621626
 30
0.0
 10
54.4544655166092
 20
167.9624810322357
 30
0.0
 10
54.44702316003725
 20
167.7256614062044
 30
0.0
  0
LINE
  5
268
330
1F
100
AcDbEntity
  8
0
  6
HIDDEN
 62
     7
370
     0
100
AcDbLine
 10
54.4730946053
 20
168.4358229241
 30
0.0
 11
54.4692339208
 21
168.4324192729
 31
0.0
  0
SPLINE
  5
269
330
1F
100
AcDbEntity
  8
0
  6
HIDDEN
 62
     7
370
     0
100
AcDbSpline
210
0.0
220
0.0
230
1.0
 70
    24
 71
     3
 72
     8
 73
     4
 74
     0
 42
0.000000001
 43
0.00000001
 40
0.0000002460339245
 40
0.0000002460339245
 40
0.0000002460339245
 40
0.0000002460339245
 40
0.0008708064702282
 40
0.0008708064702282
 40
0.0008708064702282
 40
0.0008708064702282
 10
55.17706322155799
 20
168.369278297611
 30
0.0
 10
54.94117821439797
 20
168.3915759957456
 30
0.0
 10
54.70656137861916
 20
168.4137538163899
 30
0.0
 10
54.47309460529577
 20
168.4358229241246
 30
0.0
  0
SPLINE
  5
26A
330
1F
100
AcDbEntity
  8
0
  6
HIDDEN
 62
     7
370
     0
100
AcDbSpline
210
0.0
220
0.0
230
1.0
 70
    24
 71
     3
 72
     8
 73
     4
 74
     0
 42
0.000000001
 43
0.00000001
 40
0.0000002485836013
 40
0.0000002485836013
 40
0.0000002485836013
 40
0.0000002485836013
 40
0.0008708090199051
 40
0.0008708090199051
 40
0.0008708090199051
 40
0.0008708090199051
 10
55.24360784807152
 20
169.0732469138732
 30
0.0
 10
55.22153874033683
 20
168.8397801405498
 30
0.0
 10
55.19936091969251
 20
168.605163304771
 30
0.0
 10
55.17706322155797
 20
168.369278297611
 30
0.0
  0
LINE
  5
26B
330
1F
100
AcDbEntity
  8
0
  6
HIDDEN
 62
     7
370
     0
100
AcDbLine
 10
55.2476746314
 20
169.0764014344
 30
0.0
 11
55.2436078481
 21
169.0732469139
 31
0.0
  0
SPLINE
  5
26C
330
1F
100
AcDbEntity
  8
0
  6
HIDDEN
 62
     7
370
     0
100
AcDbSpline
210
0.0
220
0.0
230
1.0
 70
    24
 71
     3
 72
     8
 73
     4
 74
     0
 42
0.000000001
 43
0.00000001
 40
0.0000002479952473
 40
0.0000002479952473
 40
0.0000002479952473
 40
0.0000002479952473
 40
0.000870808431551
 40
0.000870808431551
 40
0.000870808431551
 40
0.000870808431551
 10
55.94607575476833
 20
168.9657855633626
 30
0.0
 10
55.71205629683731
 20
169.0028506042321
 30
0.0
 10
55.47929498067106
 20
169.0397163750223
 30
0.0
 10
55.24767463143463
 20
169.0764014344039
 30
0.0
  0
SPLINE
  5
26D
330
1F
100
AcDbEntity
  8
0
  6
HIDDEN
 62
     7
370
     0
100
AcDbSpline
210
0.0
220
0.0
230
1.0
 70
    24
 71
     3
 72
     8
 73
     4
 74
     0
 42
0.000000001
 43
0.00000001
 40
0.0000002505652553
 40
0.0000002505652553
 40
0.0000002505652553
 40
0.0000002505652553
 40
0.000870811001559
 40
0.000870811001559
 40
0.000870811001559
 40
0.000870811001559
 10
56.05669162580958
 20
169.6641866866963
 30
0.0
 10
56.02000656642799
 20
169.4325663374599
 30
0.0
 10
55.98314079563779
 20
169.1998050212937
 30
0.0
 10
55.94607575476834
 20
168.9657855633626
 30
0.0
  0
LINE
  5
26E
330
1F
100
AcDbEntity
  8
0
  6
HIDDEN
 62
     7
370
     0
100
AcDbLine
 10
56.0609484583
 20
169.6670796271
 30
0.0
 11
56.0566916258
 21
169.6641866867
 31
0.0
  0
SPLINE
  5
26F
330
1F
100
AcDbEntity
  8
0
  6
HIDDEN
 62
     7
370
     0
100
AcDbSpline
210
0.0
220
0.0
230
1.0
 70
    24
 71
     3
 72
     8
 73
     4
 74
     0
 42
0.000000001
 43
0.00000001
 40
0.0000002509865792
 40
0.0000002509865792
 40
0.0000002509865792
 40
0.0000002509865792
 40
0.0008708114228829
 40
0.0008708114228829
 40
0.0008708114228829
 40
0.0008708114228829
 10
56.75102581852818
 20
169.5128290617996
 30
0.0
 10
56.51979547771328
 20
169.564515166621
 30
0.0
 10
56.28980828373598
 20
169.6159233952022
 30
0.0
 10
56.06094845828764
 20
169.6670796270611
 30
0.0
  0
SPLINE
  5
270
330
1F
100
AcDbEntity
  8
0
  6
HIDDEN
 62
     7
370
     0
100
AcDbSpline
210
0.0
220
0.0
230
1.0
 70
    24
 71
     3
 72
     8
 73
     4
 74
     0
 42
0.000000001
 43
0.00000001
 40
0.0000002535875959
 40
0.0000002535875959
 40
0.0000002535875959
 40
0.0000002535875959
 40
0.0008708140238996
 40
0.0008708140238996
 40
0.0008708140238996
 40
0.0008708140238996
 10
56.90527638378967
 20
170.2029064220401
 30
0.0
 10
56.85412015193075
 20
169.9740465965917
 30
0.0
 10
56.80271192334963
 20
169.7440594026145
 30
0.0
 10
56.75102581852816
 20
169.5128290617996
 30
0.0
  0
LWPOLYLINE
  5
271
330
1F
100
AcDbEntity
  8
0
  6
HIDDEN
 62
     7
370
     0
100
AcDbPolyline
 90
        9
 70
   128
 43
0.0
 10
56.9097059782
 20
170.2055264072
 10
56.9091527726
 20
170.2051990473
 10
56.908599567
 20
170.2048714546
 10
56.9080444987
 20
170.2045440947
 10
56.9074912931
 20
170.204216502
 10
56.9069380875
 20
170.2038891421
 10
56.9063830193
 20
170.2035615494
 10
56.9058298136
 20
170.2032339566
 10
56.905276608
 20
170.2029063639
  0
SPLINE
  5
272
330
1F
100
AcDbEntity
  8
0
  6
HIDDEN
 62
     7
370
     0
100
AcDbSpline
210
0.0
220
0.0
230
1.0
 70
    24
 71
     3
 72
     8
 73
     4
 74
     0
 42
0.000000001
 43
0.00000001
 40
0.0000002550698886
 40
0.0000002550698886
 40
0.0000002550698886
 40
0.0000002550698886
 40
0.0008708155061923
 40
0.0008708155061923
 40
0.0008708155061923
 40
0.0008708155061923
 10
57.58873664268248
 20
170.0082498621539
 30
0.0
 10
57.36120797949982
 20
170.0743530494848
 30
0.0
 10
57.13490256209496
 20
170.1401008510649
 30
0.0
 10
56.90970646560969
 20
170.205526365125
 30
0.0
  0
SPLINE
  5
273
330
1F
100
AcDbEntity
  8
0
  6
HIDDEN
 62
     7
370
     0
100
AcDbSpline
210
0.0
220
0.0
230
1.0
 70
    24
 71
     3
 72
     8
 73
     4
 74
     0
 42
0.000000001
 43
0.00000001
 40
0.0000002577132338
 40
0.0000002577132338
 40
0.0000002577132338
 40
0.0000002577132338
 40
0.0008708181495375
 40
0.0008708181495375
 40
0.0008708181495375
 40
0.0008708181495375
 10
57.78601314565357
 20
170.6872800392267
 30
0.0
 10
57.7205876315934
 20
170.4620839427414
 30
0.0
 10
57.65483983001337
 20
170.2357785253366
 30
0.0
 10
57.58873664268249
 20
170.0082498621539
 30
0.0
  0
LWPOLYLINE
  5
274
330
1F
100
AcDbEntity
  8
0
  6
HIDDEN
 62
     7
370
     0
100
AcDbPolyline
 90
        9
 70
   128
 43
0.0
 10
57.790599298
 20
170.6896167056
 10
57.7900256033
 20
170.6893247359
 10
57.7894519086
 20
170.6890325335
 10
57.7888800766
 20
170.6887405639
 10
57.7883063819
 20
170.6884485942
 10
57.7877326872
 20
170.6881563918
 10
57.7871589925
 20
170.6878644221
 10
57.7865871604
 20
170.6875722197
 10
57.7860134657
 20
170.6872800172
  0
SPLINE
  5
275
330
1F
100
AcDbEntity
  8
0
  6
HIDDEN
 62
     7
370
     0
100
AcDbSpline
210
0.0
220
0.0
230
1.0
 70
    24
 71
     3
 72
     8
 73
     4
 74
     0
 42
0.000000001
 43
0.00000001
 40
0.0000002603326621
 40
0.0000002603326621
 40
0.0000002603326621
 40
0.0000002603326621
 40
0.0008708207689658
 40
0.0008708207689658
 40
0.0008708207689658
 40
0.0008708207689658
 10
58.45590216532208
 20
170.4500927648629
 30
0.0
 10
58.23297313145729
 20
170.5303521556225
 30
0.0
 10
58.01124261471823
 20
170.6101800536659
 30
0.0
 10
57.79059899330652
 20
170.6896166453134
 30
0.0
  0
SPLINE
  5
276
330
1F
100
AcDbEntity
  8
0
  6
HIDDEN
 62
     7
370
     0
100
AcDbSpline
210
0.0
220
0.0
230
1.0
 70
    24
 71
     3
 72
     8
 73
     4
 74
     0
 42
0.000000001
 43
0.00000001
 40
0.0000002630305631
 40
0.0000002630305631
 40
0.0000002630305631
 40
0.0000002630305631
 40
0.0008708234668668
 40
0.0008708234668668
 40
0.0008708234668668
 40
0.0008708234668668
 10
58.69542604577252
 20
171.1153959368785
 30
0.0
 10
58.61598945412504
 20
170.8947523154667
 30
0.0
 10
58.5361615560816
 20
170.6730217987277
 30
0.0
 10
58.45590216532204
 20
170.4500927648629
 30
0.0
  0
LWPOLYLINE
  5
277
330
1F
100
AcDbEntity
  8
0
  6
HIDDEN
 62
     7
370
     0
100
AcDbPolyline
 90
        9
 70
   128
 43
0.0
 10
58.7001494135
 20
171.1174399865
 10
58.699558955
 20
171.1171845713
 10
58.6989684965
 20
171.1169291561
 10
58.698378038
 20
171.1166737408
 10
58.6977875795
 20
171.1164180928
 10
58.6971971209
 20
171.1161626776
 10
58.6966066624
 20
171.1159070295
 10
58.6960162039
 20
171.1156516143
 10
58.6954257454
 20
171.1153959663
  0
SPLINE
  5
278
330
1F
100
AcDbEntity
  8
0
  6
HIDDEN
 62
     7
370
     0
100
AcDbSpline
210
0.0
220
0.0
230
1.0
 70
    24
 71
     3
 72
     8
 73
     4
 74
     0
 42
0.000000001
 43
0.00000001
 40
0.000000266892673
 40
0.000000266892673
 40
0.000000266892673
 40
0.000000266892673
 40
0.0008708273289767
 40
0.0008708273289767
 40
0.0008708273289767
 40
0.0008708273289767
 10
59.34910008029928
 20
170.8366140178484
 30
0.0
 10
59.13165047480243
 20
170.9307128648883
 30
0.0
 10
58.91536992777972
 20
171.0243058151515
 30
0.0
 10
58.70014956101283
 20
171.1174399844502
 30
0.0
  0
SPLINE
  5
279
330
1F
100
AcDbEntity
  8
0
  6
HIDDEN
 62
     7
370
     0
100
AcDbSpline
210
0.0
220
0.0
230
1.0
 70
    24
 71
     3
 72
     8
 73
     4
 74
     0
 42
0.000000001
 43
0.00000001
 40
0.0000002696585783
 40
0.0000002696585783
 40
0.0000002696585783
 40
0.0000002696585783
 40
0.000870830094882
 40
0.000870830094882
 40
0.000870830094882
 40
0.000870830094882
 10
59.62992604690107
 20
171.4855645371348
 30
0.0
 10
59.53679187760236
 20
171.2703441703679
 30
0.0
 10
59.44319892733922
 20
171.0540636233452
 30
0.0
 10
59.34910008029927
 20
170.8366140178483
 30
0.0
  0
LWPOLYLINE
  5
27A
330
1F
100
AcDbEntity
  8
0
  6
HIDDEN
 62
     7
370
     0
100
AcDbPolyline
 90
        9
 70
   128
 43
0.0
 10
59.63476887
 20
171.4873079949
 10
59.6341635104
 20
171.4870900654
 10
59.6335581507
 20
171.4868722524
 10
59.632952791
 20
171.4866543229
 10
59.6323474313
 20
171.4864363934
 10
59.6317420717
 20
171.4862184639
 10
59.631136712
 20
171.4860005344
 10
59.6305313523
 20
171.4857826049
 10
59.6299259927
 20
171.485564559
  0
SPLINE
  5
27B
330
1F
100
AcDbEntity
  8
0
  6
HIDDEN
 62
     7
370
     0
100
AcDbSpline
210
0.0
220
0.0
230
1.0
 70
    24
 71
     3
 72
     8
 73
     4
 74
     0
 42
0.000000001
 43
0.00000001
 40
0.0000002749048029
 40
0.0000002749048029
 40
0.0000002749048029
 40
0.0000002749048029
 40
0.0008708353411066
 40
0.0008708353411066
 40
0.0008708353411066
 40
0.0008708353411066
 10
60.26480534350699
 20
171.1662881983095
 30
0.0
 10
60.05369334062769
 20
171.2738551364703
 30
0.0
 10
59.84371632383125
 20
171.380843770337
 30
0.0
 10
59.63476858817193
 20
171.4873079592696
 30
0.0
  0
SPLINE
  5
27C
330
1F
100
AcDbEntity
  8
0
  6
HIDDEN
 62
     7
370
     0
100
AcDbSpline
210
0.0
220
0.0
230
1.0
 70
    24
 71
     3
 72
     8
 73
     4
 74
     0
 42
0.000000001
 43
0.00000001
 40
0.0000002777537673
 40
0.0000002777537673
 40
0.0000002777537673
 40
0.0000002777537673
 40
0.000870838190071
 40
0.000870838190071
 40
0.000870838190071
 40
0.000870838190071
 10
60.58582510446712
 20
171.7963249536446
 30
0.0
 10
60.47936091553446
 20
171.5873772179853
 30
0.0
 10
60.37237228166775
 20
171.3774002011888
 30
0.0
 10
60.26480534350701
 20
171.1662881983095
 30
0.0
  0
LWPOLYLINE
  5
27D
330
1F
100
AcDbEntity
  8
0
  6
HIDDEN
 62
     7
370
     0
100
AcDbPolyline
 90
        9
 70
   128
 43
0.0
 10
60.5907677676
 20
171.7977608827
 10
60.5901493694
 20
171.7975814867
 10
60.5895328339
 20
171.7974020907
 10
60.5889144357
 20
171.7972225782
 10
60.5882960375
 20
171.7970430658
 10
60.5876776393
 20
171.7968635534
 10
60.5870611037
 20
171.796684041
 10
60.5864427056
 20
171.7965045285
 10
60.5858243074
 20
171.7963248997
  0
SPLINE
  5
27E
330
1F
100
AcDbEntity
  8
0
  6
HIDDEN
 62
     7
370
     0
100
AcDbSpline
210
0.0
220
0.0
230
1.0
 70
    24
 71
     3
 72
     8
 73
     4
 74
     0
 42
0.000000001
 43
0.00000001
 40
0.0000002845706964
 40
0.0000002845706964
 40
0.0000002845706964
 40
0.0000002845706964
 40
0.0008708450070001
 40
0.0008708450070001
 40
0.0008708450070001
 40
0.0008708450070001
 10
61.19940408461734
 20
171.4378142328699
 30
0.0
 10
60.99546284698306
 20
171.5584247445892
 30
0.0
 10
60.7926180437688
 20
171.6783868268001
 30
0.0
 10
60.59076756047058
 20
171.7977608698518
 30
0.0
  0
SPLINE
  5
27F
330
1F
100
AcDbEntity
  8
0
  6
HIDDEN
 62
     7
370
     0
100
AcDbSpline
210
0.0
220
0.0
230
1.0
 70
    24
 71
     3
 72
     8
 73
     4
 74
     0
 42
0.000000001
 43
0.00000001
 40
0.000000287519866
 40
0.000000287519866
 40
0.000000287519866
 40
0.000000287519866
 40
0.0008708479561697
 40
0.0008708479561697
 40
0.0008708479561697
 40
0.0008708479561697
 10
61.55935072159922
 20
172.0464507570167
 30
0.0
 10
61.43997667854746
 20
171.8446002737184
 30
0.0
 10
61.3200145963366
 20
171.6417554705042
 30
0.0
 10
61.19940408461732
 20
171.4378142328699
 30
0.0
  0
LINE
  5
280
330
1F
100
AcDbEntity
  8
0
  6
HIDDEN
 62
     7
370
     0
100
AcDbLine
 10
61.5643735867
 20
172.0475735004
 30
0.0
 11
61.5593507216
 21
172.046450757
 31
0.0
  0
SPLINE
  5
281
330
1F
100
AcDbEntity
  8
0
  6
HIDDEN
 62
     7
370
     0
100
AcDbSpline
210
0.0
220
0.0
230
1.0
 70
    24
 71
     3
 72
     8
 73
     4
 74
     0
 42
0.000000001
 43
0.00000001
 40
0.0000002961524522
 40
0.0000002961524522
 40
0.0000002961524522
 40
0.0000002961524522
 40
0.0008708565887559
 40
0.0008708565887559
 40
0.0008708565887559
 40
0.0008708565887559
 10
62.14920786937662
 20
171.6501205323196
 30
0.0
 10
61.95324225988043
 20
171.7832986230093
 30
0.0
 10
61.75833020601566
 20
171.9157607180313
 30
0.0
 10
61.56437358671943
 20
172.0475735003911
 30
0.0
  0
SPLINE
  5
282
330
1F
100
AcDbEntity
  8
0
  6
HIDDEN
 62
     7
370
     0
100
AcDbSpline
210
0.0
220
0.0
230
1.0
 70
    24
 71
     3
 72
     8
 73
     4
 74
     0
 42
0.000000001
 43
0.00000001
 40
0.0000002992216915
 40
0.0000002992216915
 40
0.0000002992216915
 40
0.0000002992216915
 40
0.0008708596579952
 40
0.0008708596579952
 40
0.0008708596579952
 40
0.0008708596579952
 10
62.54666083744806
 20
172.2349548149768
 30
0.0
 10
62.41484805508833
 20
172.0409981956805
 30
0.0
 10
62.28238596006634
 20
171.8460861418158
 30
0.0
 10
62.14920786937658
 20
171.6501205323196
 30
0.0
  0
LWPOLYLINE
  5
283
330
1F
100
AcDbEntity
  8
0
  6
HIDDEN
 62
     7
370
     0
100
AcDbPolyline
 90
        9
 70
   128
 43
0.0
 10
62.5517438169
 20
172.2357599105
 10
62.5511086549
 20
172.2356594441
 10
62.5504734929
 20
172.2355588612
 10
62.5498383309
 20
172.235458162
 10
62.5492031689
 20
172.2353575791
 10
62.5485680069
 20
172.2352568799
 10
62.5479309823
 20
172.235156297
 10
62.5472958203
 20
172.2350555978
 10
62.5466606583
 20
172.2349547821
  0
SPLINE
  5
284
330
1F
100
AcDbEntity
  8
0
  6
HIDDEN
 62
     7
370
     0
100
AcDbSpline
210
0.0
220
0.0
230
1.0
 70
    24
 71
     3
 72
     8
 73
     4
 74
     0
 42
0.000000001
 43
0.00000001
 40
0.0000003099922359
 40
0.0000003099922359
 40
0.0000003099922359
 40
0.0000003099922359
 40
0.0008708704285396
 40
0.0008708704285396
 40
0.0008708704285396
 40
0.0008708704285396
 10
63.11046825617051
 20
171.8023692206881
 30
0.0
 10
62.9232516615449
 20
171.9475892972676
 30
0.0
 10
62.73704158585939
 20
172.0920286377279
 30
0.0
 10
62.55174428873113
 20
172.2357599545632
 30
0.0
  0
SPLINE
  5
285
330
1F
100
AcDbEntity
  8
0
  6
HIDDEN
 62
     7
370
     0
100
AcDbSpline
210
0.0
220
0.0
230
1.0
 70
    24
 71
     3
 72
     8
 73
     4
 74
     0
 42
0.000000001
 43
0.00000001
 40
0.0000003132049583
 40
0.0000003132049583
 40
0.0000003132049583
 40
0.0000003132049583
 40
0.0008708736412621
 40
0.0008708736412621
 40
0.0008708736412621
 40
0.0008708736412621
 10
63.54385899004557
 20
172.3610931881274
 30
0.0
 10
63.40012767321029
 20
172.1757958909992
 30
0.0
 10
63.25568833275004
 20
171.9895858153137
 30
0.0
 10
63.11046825617046
 20
171.802369220688
 30
0.0
  0
LWPOLYLINE
  5
286
330
1F
100
AcDbEntity
  8
0
  6
HIDDEN
 62
     7
370
     0
100
AcDbPolyline
 90
        9
 70
   128
 43
0.0
 10
63.5489835407
 20
172.361577574
 10
63.5483427908
 20
172.3615170962
 10
63.5477020408
 20
172.3614566185
 10
63.5470612909
 20
172.3613960825
 10
63.546420541
 20
172.3613355465
 10
63.545779791
 20
172.3612750106
 10
63.5451390411
 20
172.3612144164
 10
63.5445001538
 20
172.3611538222
 10
63.5438594039
 20
172.3610931698
  0
SPLINE
  5
287
330
1F
100
AcDbEntity
  8
0
  6
HIDDEN
 62
     7
370
     0
100
AcDbSpline
210
0.0
220
0.0
230
1.0
 70
    24
 71
     3
 72
     8
 73
     4
 74
     0
 42
0.000000001
 43
0.00000001
 40
0.0000003265408331
 40
0.0000003265408331
 40
0.0000003265408331
 40
0.0000003265408331
 40
0.0008708869771368
 40
0.0008708869771368
 40
0.0008708869771368
 40
0.0008708869771368
 10
64.07939158941042
 20
171.8939594419582
 30
0.0
 10
63.90166286802327
 20
172.0506483871301
 30
0.0
 10
63.72488965661444
 20
172.2064949369398
 30
0.0
 10
63.54898296543163
 20
172.3615775464077
 30
0.0
  0
SPLINE
  5
288
330
1F
100
AcDbEntity
  8
0
  6
HIDDEN
 62
     7
370
     0
100
AcDbSpline
210
0.0
220
0.0
230
1.0
 70
    24
 71
     3
 72
     8
 73
     4
 74
     0
 42
0.000000001
 43
0.00000001
 40
0.0000003299251282
 40
0.0000003299251282
 40
0.0000003299251282
 40
0.0000003299251282
 40
0.0008708903614319
 40
0.0008708903614319
 40
0.0008708903614319
 40
0.0008708903614319
 10
64.5470096938599
 20
172.424368065937
 30
0.0
 10
64.39192708439205
 20
172.2484613747542
 30
0.0
 10
64.23608053458229
 20
172.0716881633454
 30
0.0
 10
64.07939158941042
 20
171.8939594419582
 30
0.0
  0
LWPOLYLINE
  5
289
330
1F
100
AcDbEntity
  8
0
  6
HIDDEN
 62
     7
370
     0
100
AcDbPolyline
 90
        9
 70
   128
 43
0.0
 10
64.5521539267
 20
172.4245297413
 10
64.5515113141
 20
172.4245096015
 10
64.5508687015
 20
172.4244894616
 10
64.5502242263
 20
172.4244693218
 10
64.5495816137
 20
172.4244491237
 10
64.5489390011
 20
172.4244288675
 10
64.5482963886
 20
172.4244086112
 10
64.5476519133
 20
172.4243883549
 10
64.5470093008
 20
172.4243680405
  0
SPLINE
  5
28A
330
1F
100
AcDbEntity
  8
0
  6
HIDDEN
 62
     7
370
     0
100
AcDbSpline
210
0.0
220
0.0
230
1.0
 70
    24
 71
     3
 72
     8
 73
     4
 74
     0
 42
0.000000001
 43
0.00000001
 40
0.0000003464001047
 40
0.0000003464001047
 40
0.0000003464001047
 40
0.0000003464001047
 40
0.0008709068364084
 40
0.0008709068364084
 40
0.0008709068364084
 40
0.0008709068364084
 10
65.05215397135892
 20
171.9245297313703
 30
0.0
 10
64.884614537277
 20
172.0920691654522
 30
0.0
 10
64.71797583325029
 20
172.2587078694789
 30
0.0
 10
64.55215397135893
 20
172.4245297313703
 30
0.0
  0
SPLINE
  5
28B
330
1F
100
AcDbEntity
  8
0
  6
HIDDEN
 62
     7
370
     0
100
AcDbSpline
210
0.0
220
0.0
230
1.0
 70
    24
 71
     3
 72
     8
 73
     4
 74
     0
 42
0.000000001
 43
0.00000001
 40
0.0000003499903057
 40
0.0000003499903057
 40
0.0000003499903057
 40
0.0000003499903057
 40
0.0008709104266094
 40
0.0008709104266094
 40
0.0008709104266094
 40
0.0008709104266094
 10
65.55215397135892
 20
172.4245297313703
 30
0.0
 10
65.38633210946755
 20
172.2587078694789
 30
0.0
 10
65.21969340544084
 20
172.0920691654522
 30
0.0
 10
65.05215397135892
 20
171.9245297313703
 30
0.0
  0
LWPOLYLINE
  5
28C
330
1F
100
AcDbEntity
  8
0
  6
HIDDEN
 62
     7
370
     0
100
AcDbPolyline
 90
        9
 70
   128
 43
0.0
 10
65.5572987165
 20
172.4243680405
 10
65.5566561039
 20
172.4243883549
 10
65.5560116287
 20
172.4244086112
 10
65.5553690161
 20
172.4244288675
 10
65.5547264035
 20
172.4244491237
 10
65.5540837909
 20
172.4244693218
 10
65.5534393157
 20
172.4244894616
 10
65.5527967031
 20
172.4245096015
 10
65.5521540906
 20
172.4245297413
  0
SPLINE
  5
28D
330
1F
100
AcDbEntity
  8
0
  6
HIDDEN
 62
     7
370
     0
100
AcDbSpline
210
0.0
220
0.0
230
1.0
 70
    24
 71
     3
 72
     8
 73
     4
 74
     0
 42
0.000000001
 43
0.00000001
 40
0.0000003265408331
 40
0.0000003265408331
 40
0.0000003265408331
 40
0.0000003265408331
 40
0.0008708869771367
 40
0.0008708869771367
 40
0.0008708869771367
 40
0.0008708869771367
 10
66.02491635330762
 20
171.8939594419582
 30
0.0
 10
65.86822740813578
 20
172.0716881633453
 30
0.0
 10
65.71238085832601
 20
172.2484613747542
 30
0.0
 10
65.55729824885816
 20
172.424368065937
 30
0.0
  0
SPLINE
  5
28E
330
1F
100
AcDbEntity
  8
0
  6
HIDDEN
 62
     7
370
     0
100
AcDbSpline
210
0.0
220
0.0
230
1.0
 70
    24
 71
     3
 72
     8
 73
     4
 74
     0
 42
0.000000001
 43
0.00000001
 40
0.0000003299251282
 40
0.0000003299251282
 40
0.0000003299251282
 40
0.0000003299251282
 40
0.0008708903614319
 40
0.0008708903614319
 40
0.0008708903614319
 40
0.0008708903614319
 10
66.55532497728642
 20
172.3615775464077
 30
0.0
 10
66.37941828610361
 20
172.2064949369398
 30
0.0
 10
66.20264507469479
 20
172.0506483871301
 30
0.0
 10
66.02491635330762
 20
171.8939594419582
 30
0.0
  0
LWPOLYLINE
  5
28F
330
1F
100
AcDbEntity
  8
0
  6
HIDDEN
 62
     7
370
     0
100
AcDbPolyline
 90
        9
 70
   128
 43
0.0
 10
66.5604486133
 20
172.3610931698
 10
66.5598078634
 20
172.3611538222
 10
66.5591671135
 20
172.3612144164
 10
66.5585282262
 20
172.3612750106
 10
66.5578874763
 20
172.3613355465
 10
66.5572467263
 20
172.3613960825
 10
66.5566059764
 20
172.3614566185
 10
66.5559652265
 20
172.3615170962
 10
66.5553244765
 20
172.361577574
  0
SPLINE
  5
290
330
1F
100
AcDbEntity
  8
0
  6
HIDDEN
 62
     7
370
     0
100
AcDbSpline
210
0.0
220
0.0
230
1.0
 70
    24
 71
     3
 72
     8
 73
     4
 74
     0
 42
0.000000001
 43
0.00000001
 40
0.0000003099922359
 40
0.0000003099922359
 40
0.0000003099922359
 40
0.0000003099922359
 40
0.0008708704285396
 40
0.0008708704285396
 40
0.0008708704285396
 40
0.0008708704285396
 10
66.99383968654757
 20
171.802369220688
 30
0.0
 10
66.84861960996801
 20
171.9895858153136
 30
0.0
 10
66.70418026950775
 20
172.1757958909992
 30
0.0
 10
66.56044895267249
 20
172.3610931881274
 30
0.0
  0
SPLINE
  5
291
330
1F
100
AcDbEntity
  8
0
  6
HIDDEN
 62
     7
370
     0
100
AcDbSpline
210
0.0
220
0.0
230
1.0
 70
    24
 71
     3
 72
     8
 73
     4
 74
     0
 42
0.000000001
 43
0.00000001
 40
0.0000003132049584
 40
0.0000003132049584
 40
0.0000003132049584
 40
0.0000003132049584
 40
0.0008708736412621
 40
0.0008708736412621
 40
0.0008708736412621
 40
0.0008708736412621
 10
67.55256365398697
 20
172.2357599545631
 30
0.0
 10
67.3672663568587
 20
172.0920286377278
 30
0.0
 10
67.18105628117318
 20
171.9475892972676
 30
0.0
 10
66.99383968654757
 20
171.802369220688
 30
0.0
  0
LWPOLYLINE
  5
292
330
1F
100
AcDbEntity
  8
0
  6
HIDDEN
 62
     7
370
     0
100
AcDbPolyline
 90
        9
 70
   128
 43
0.0
 10
67.5576473589
 20
172.2349547821
 10
67.5570121969
 20
172.2350555978
 10
67.5563770349
 20
172.235156297
 10
67.5557400103
 20
172.2352568799
 10
67.5551048483
 20
172.2353575791
 10
67.5544696863
 20
172.235458162
 10
67.5538345243
 20
172.2355588612
 10
67.5531993623
 20
172.2356594441
 10
67.5525642003
 20
172.2357599105
  0
SPLINE
  5
293
330
1F
100
AcDbEntity
  8
0
  6
HIDDEN
 62
     7
370
     0
100
AcDbSpline
210
0.0
220
0.0
230
1.0
 70
    24
 71
     3
 72
     8
 73
     4
 74
     0
 42
0.000000001
 43
0.00000001
 40
0.0000002961524522
 40
0.0000002961524522
 40
0.0000002961524522
 40
0.0000002961524522
 40
0.0008708565887559
 40
0.0008708565887559
 40
0.0008708565887559
 40
0.0008708565887559
 10
67.95510007334147
 20
171.6501205323195
 30
0.0
 10
67.82192198265172
 20
171.8460861418157
 30
0.0
 10
67.68945988762972
 20
172.0409981956805
 30
0.0
 10
67.55764710526998
 20
172.2349548149767
 30
0.0
  0
SPLINE
  5
294
330
1F
100
AcDbEntity
  8
0
  6
HIDDEN
 62
     7
370
     0
100
AcDbSpline
210
0.0
220
0.0
230
1.0
 70
    24
 71
     3
 72
     8
 73
     4
 74
     0
 42
0.000000001
 43
0.00000001
 40
0.0000002992216915
 40
0.0000002992216915
 40
0.0000002992216915
 40
0.0000002992216915
 40
0.0008708596579952
 40
0.0008708596579952
 40
0.0008708596579952
 40
0.0008708596579952
 10
68.53993435599867
 20
172.047573500391
 30
0.0
 10
68.34597773670242
 20
171.9157607180313
 30
0.0
 10
68.15106568283765
 20
171.7832986230093
 30
0.0
 10
67.95510007334146
 20
171.6501205323195
 30
0.0
  0
LINE
  5
295
330
1F
100
AcDbEntity
  8
0
  6
HIDDEN
 62
     7
370
     0
100
AcDbLine
 10
68.5449572211
 20
172.046450757
 30
0.0
 11
68.539934356
 21
172.0475735004
 31
0.0
  0
SPLINE
  5
296
330
1F
100
AcDbEntity
  8
0
  6
HIDDEN
 62
     7
370
     0
100
AcDbSpline
210
0.0
220
0.0
230
1.0
 70
    24
 71
     3
 72
     8
 73
     4
 74
     0
 42
0.000000001
 43
0.00000001
 40
0.0000002845706964
 40
0.0000002845706964
 40
0.0000002845706964
 40
0.0000002845706964
 40
0.0008708450070001
 40
0.0008708450070001
 40
0.0008708450070001
 40
0.0008708450070001
 10
68.90490385810072
 20
171.4378142328699
 30
0.0
 10
68.78429334638145
 20
171.6417554705041
 30
0.0
 10
68.6643312641706
 20
171.8446002737184
 30
0.0
 10
68.54495722111885
 20
172.0464507570166
 30
0.0
  0
SPLINE
  5
297
330
1F
100
AcDbEntity
  8
0
  6
HIDDEN
 62
     7
370
     0
100
AcDbSpline
210
0.0
220
0.0
230
1.0
 70
    24
 71
     3
 72
     8
 73
     4
 74
     0
 42
0.000000001
 43
0.00000001
 40
0.000000287519866
 40
0.000000287519866
 40
0.000000287519866
 40
0.000000287519866
 40
0.0008708479561697
 40
0.0008708479561697
 40
0.0008708479561697
 40
0.0008708479561697
 10
69.51354038224747
 20
171.7977608698517
 30
0.0
 10
69.31168989894925
 20
171.6783868268
 30
0.0
 10
69.10884509573499
 20
171.5584247445891
 30
0.0
 10
68.90490385810072
 20
171.4378142328699
 30
0.0
  0
LWPOLYLINE
  5
298
330
1F
100
AcDbEntity
  8
0
  6
HIDDEN
 62
     7
370
     0
100
AcDbPolyline
 90
        9
 70
   128
 43
0.0
 10
69.5184837099
 20
171.7963248997
 10
69.5178653117
 20
171.7965045285
 10
69.5172469135
 20
171.796684041
 10
69.5166303779
 20
171.7968635534
 10
69.5160119797
 20
171.7970430658
 10
69.5153935816
 20
171.7972225782
 10
69.5147751834
 20
171.7974020907
 10
69.5141586478
 20
171.7975814867
 10
69.5135402496
 20
171.7977608827
  0
SPLINE
  5
299
330
1F
100
AcDbEntity
  8
0
  6
HIDDEN
 62
     7
370
     0
100
AcDbSpline
210
0.0
220
0.0
230
1.0
 70
    24
 71
     3
 72
     8
 73
     4
 74
     0
 42
0.000000001
 43
0.00000001
 40
0.0000002749048029
 40
0.0000002749048029
 40
0.0000002749048029
 40
0.0000002749048029
 40
0.0008708353411066
 40
0.0008708353411066
 40
0.0008708353411066
 40
0.0008708353411066
 10
69.83950259921107
 20
171.1662881983094
 30
0.0
 10
69.73193566105033
 20
171.3774002011888
 30
0.0
 10
69.62494702718364
 20
171.5873772179852
 30
0.0
 10
69.51848283825097
 20
171.7963249536445
 30
0.0
  0
SPLINE
  5
29A
330
1F
100
AcDbEntity
  8
0
  6
HIDDEN
 62
     7
370
     0
100
AcDbSpline
210
0.0
220
0.0
230
1.0
 70
    24
 71
     3
 72
     8
 73
     4
 74
     0
 42
0.000000001
 43
0.00000001
 40
0.0000002777537673
 40
0.0000002777537673
 40
0.0000002777537673
 40
0.0000002777537673
 40
0.000870838190071
 40
0.000870838190071
 40
0.000870838190071
 40
0.000870838190071
 10
70.46953935454611
 20
171.4873079592696
 30
0.0
 10
70.26059161888682
 20
171.3808437703369
 30
0.0
 10
70.05061460209036
 20
171.2738551364702
 30
0.0
 10
69.83950259921107
 20
171.1662881983095
 30
0.0
  0
LWPOLYLINE
  5
29B
330
1F
100
AcDbEntity
  8
0
  6
HIDDEN
 62
     7
370
     0
100
AcDbPolyline
 90
        9
 70
   128
 43
0.0
 10
70.4743820246
 20
171.485564559
 10
70.4737766649
 20
171.4857826049
 10
70.4731713052
 20
171.4860005344
 10
70.4725659456
 20
171.4862184639
 10
70.4719605859
 20
171.4864363934
 10
70.4713552262
 20
171.4866543229
 10
70.4707498665
 20
171.4868722524
 10
70.4701445069
 20
171.4870900654
 10
70.4695391472
 20
171.4873079949
  0
SPLINE
  5
29C
330
1F
100
AcDbEntity
  8
0
  6
HIDDEN
 62
     7
370
     0
100
AcDbSpline
210
0.0
220
0.0
230
1.0
 70
    24
 71
     3
 72
     8
 73
     4
 74
     0
 42
0.000000001
 43
0.00000001
 40
0.000000266892673
 40
0.000000266892673
 40
0.000000266892673
 40
0.000000266892673
 40
0.0008708273289767
 40
0.0008708273289767
 40
0.0008708273289767
 40
0.0008708273289767
 10
70.75520786241877
 20
170.8366140178483
 30
0.0
 10
70.66110901537883
 20
171.0540636233452
 30
0.0
 10
70.56751606511568
 20
171.2703441703678
 30
0.0
 10
70.47438189581699
 20
171.4855645371348
 30
0.0
  0
SPLINE
  5
29D
330
1F
100
AcDbEntity
  8
0
  6
HIDDEN
 62
     7
370
     0
100
AcDbSpline
210
0.0
220
0.0
230
1.0
 70
    24
 71
     3
 72
     8
 73
     4
 74
     0
 42
0.000000001
 43
0.00000001
 40
0.0000002696585783
 40
0.0000002696585783
 40
0.0000002696585783
 40
0.0000002696585783
 40
0.000870830094882
 40
0.000870830094882
 40
0.000870830094882
 40
0.000870830094882
 10
71.40415838170522
 20
171.1174399844501
 30
0.0
 10
71.18893801493832
 20
171.0243058151514
 30
0.0
 10
70.97265746791562
 20
170.9307128648882
 30
0.0
 10
70.75520786241876
 20
170.8366140178483
 30
0.0
  0
LWPOLYLINE
  5
29E
330
1F
100
AcDbEntity
  8
0
  6
HIDDEN
 62
     7
370
     0
100
AcDbPolyline
 90
        9
 70
   128
 43
0.0
 10
71.4088822718
 20
171.1153959663
 10
71.4082918133
 20
171.1156516143
 10
71.4077013548
 20
171.1159070295
 10
71.4071108963
 20
171.1161626776
 10
71.4065204378
 20
171.1164180928
 10
71.4059299792
 20
171.1166737408
 10
71.4053395207
 20
171.1169291561
 10
71.4047490622
 20
171.1171845713
 10
71.4041586037
 20
171.1174399865
  0
SPLINE
  5
29F
330
1F
100
AcDbEntity
  8
0
  6
HIDDEN
 62
     7
370
     0
100
AcDbSpline
210
0.0
220
0.0
230
1.0
 70
    24
 71
     3
 72
     8
 73
     4
 74
     0
 42
0.000000001
 43
0.00000001
 40
0.0000002603326621
 40
0.0000002603326621
 40
0.0000002603326621
 40
0.0000002603326621
 40
0.0008708207689658
 40
0.0008708207689658
 40
0.0008708207689658
 40
0.0008708207689658
 10
71.64840577739598
 20
170.4500927648628
 30
0.0
 10
71.56814638663641
 20
170.6730217987276
 30
0.0
 10
71.488318488593
 20
170.8947523154667
 30
0.0
 10
71.4088818969455
 20
171.1153959368783
 30
0.0
  0
SPLINE
  5
2A0
330
1F
100
AcDbEntity
  8
0
  6
HIDDEN
 62
     7
370
     0
100
AcDbSpline
210
0.0
220
0.0
230
1.0
 70
    24
 71
     3
 72
     8
 73
     4
 74
     0
 42
0.000000001
 43
0.00000001
 40
0.0000002630305631
 40
0.0000002630305631
 40
0.0000002630305631
 40
0.0000002630305631
 40
0.0008708234668668
 40
0.0008708234668668
 40
0.0008708234668668
 40
0.0008708234668668
 10
72.3137089494115
 20
170.6896166453133
 30
0.0
 10
72.09306532799981
 20
170.6101800536658
 30
0.0
 10
71.87133481126077
 20
170.5303521556224
 30
0.0
 10
71.64840577739596
 20
170.4500927648628
 30
0.0
  0
LWPOLYLINE
  5
2A1
330
1F
100
AcDbEntity
  8
0
  6
HIDDEN
 62
     7
370
     0
100
AcDbPolyline
 90
        9
 70
   128
 43
0.0
 10
72.3182945515
 20
170.6872800172
 10
72.3177217882
 20
170.6875722197
 10
72.3171480934
 20
170.6878644221
 10
72.3165753301
 20
170.6881563918
 10
72.3160016354
 20
170.6884485942
 10
72.315428872
 20
170.6887405639
 10
72.3148551773
 20
170.6890325335
 10
72.3142824139
 20
170.6893247359
 10
72.3137087192
 20
170.6896167056
  0
SPLINE
  5
2A2
330
1F
100
AcDbEntity
  8
0
  6
HIDDEN
 62
     7
370
     0
100
AcDbSpline
210
0.0
220
0.0
230
1.0
 70
    24
 71
     3
 72
     8
 73
     4
 74
     0
 42
0.000000001
 43
0.00000001
 40
0.0000002550698886
 40
0.0000002550698886
 40
0.0000002550698886
 40
0.0000002550698886
 40
0.0008708155061923
 40
0.0008708155061923
 40
0.0008708155061923
 40
0.0008708155061923
 10
72.51557130003553
 20
170.0082498621538
 30
0.0
 10
72.44946811270465
 20
170.2357785253365
 30
0.0
 10
72.3837203111246
 20
170.4620839427413
 30
0.0
 10
72.31829479706445
 20
170.6872800392266
 30
0.0
  0
SPLINE
  5
2A3
330
1F
100
AcDbEntity
  8
0
  6
HIDDEN
 62
     7
370
     0
100
AcDbSpline
210
0.0
220
0.0
230
1.0
 70
    24
 71
     3
 72
     8
 73
     4
 74
     0
 42
0.000000001
 43
0.00000001
 40
0.0000002577132338
 40
0.0000002577132338
 40
0.0000002577132338
 40
0.0000002577132338
 40
0.0008708181495375
 40
0.0008708181495375
 40
0.0008708181495375
 40
0.0008708181495375
 10
73.19460147710832
 20
170.2055263651249
 30
0.0
 10
72.96940538062304
 20
170.1401008510647
 30
0.0
 10
72.74309996321817
 20
170.0743530494847
 30
0.0
 10
72.51557130003553
 20
170.0082498621538
 30
0.0
  0
LWPOLYLINE
  5
2A4
330
1F
100
AcDbEntity
  8
0
  6
HIDDEN
 62
     7
370
     0
100
AcDbPolyline
 90
        9
 70
   128
 43
0.0
 10
73.1990314092
 20
170.2029063639
 10
73.1984782036
 20
170.2032339566
 10
73.1979240666
 20
170.2035615494
 10
73.1973699297
 20
170.2038891421
 10
73.1968167241
 20
170.204216502
 10
73.1962625872
 20
170.2045440947
 10
73.1957093816
 20
170.2048714546
 10
73.1951552446
 20
170.2051990473
 10
73.1946011077
 20
170.2055264072
  0
SPLINE
  5
2A5
330
1F
100
AcDbEntity
  8
0
  6
HIDDEN
 62
     7
370
     0
100
AcDbSpline
210
0.0
220
0.0
230
1.0
 70
    24
 71
     3
 72
     8
 73
     4
 74
     0
 42
0.000000001
 43
0.00000001
 40
0.0000002509865792
 40
0.0000002509865792
 40
0.0000002509865792
 40
0.0000002509865792
 40
0.0008708114228829
 40
0.0008708114228829
 40
0.0008708114228829
 40
0.0008708114228829
 10
73.35328212418986
 20
169.5128290617995
 30
0.0
 10
73.3015960193684
 20
169.7440594026143
 30
0.0
 10
73.25018779078728
 20
169.9740465965916
 30
0.0
 10
73.19903155892835
 20
170.2029064220399
 30
0.0
  0
SPLINE
  5
2A6
330
1F
100
AcDbEntity
  8
0
  6
HIDDEN
 62
     7
370
     0
100
AcDbSpline
210
0.0
220
0.0
230
1.0
 70
    24
 71
     3
 72
     8
 73
     4
 74
     0
 42
0.000000001
 43
0.00000001
 40
0.0000002535875959
 40
0.0000002535875959
 40
0.0000002535875959
 40
0.0000002535875959
 40
0.0008708140238996
 40
0.0008708140238996
 40
0.0008708140238996
 40
0.0008708140238996
 10
74.04335948443035
 20
169.667079627061
 30
0.0
 10
73.81449965898204
 20
169.615923395202
 30
0.0
 10
73.58451246500475
 20
169.5645151666209
 30
0.0
 10
73.35328212418986
 20
169.5128290617995
 30
0.0
  0
LWPOLYLINE
  5
2A7
330
1F
100
AcDbEntity
  8
0
  6
HIDDEN
 62
     7
370
     0
100
AcDbPolyline
 90
        9
 70
   128
 43
0.0
 10
74.0476162176
 20
169.6641867788
 10
74.0470844324
 20
169.6645483647
 10
74.0465526472
 20
169.6649099507
 10
74.0460199307
 20
169.6652717696
 10
74.0454881455
 20
169.6656333555
 10
74.0449563603
 20
169.6659949415
 10
74.0444236438
 20
169.6663565275
 10
74.0438918586
 20
169.6667181135
 10
74.0433591421
 20
169.6670796995
  0
SPLINE
  5
2A8
330
1F
100
AcDbEntity
  8
0
  6
HIDDEN
 62
     7
370
     0
100
AcDbSpline
210
0.0
220
0.0
230
1.0
 70
    24
 71
     3
 72
     8
 73
     4
 74
     0
 42
0.000000001
 43
0.00000001
 40
0.0000002479952473
 40
0.0000002479952473
 40
0.0000002479952473
 40
0.0000002479952473
 40
0.000870808431551
 40
0.000870808431551
 40
0.000870808431551
 40
0.000870808431551
 10
74.1582321879497
 20
168.9657855633625
 30
0.0
 10
74.12116714708023
 20
169.1998050212935
 30
0.0
 10
74.08430137629003
 20
169.4325663374598
 30
0.0
 10
74.04761631690846
 20
169.6641866866962
 30
0.0
  0
SPLINE
  5
2A9
330
1F
100
AcDbEntity
  8
0
  6
HIDDEN
 62
     7
370
     0
100
AcDbSpline
210
0.0
220
0.0
230
1.0
 70
    24
 71
     3
 72
     8
 73
     4
 74
     0
 42
0.000000001
 43
0.00000001
 40
0.0000002505652553
 40
0.0000002505652553
 40
0.0000002505652553
 40
0.0000002505652553
 40
0.000870811001559
 40
0.000870811001559
 40
0.000870811001559
 40
0.000870811001559
 10
74.85663331128337
 20
169.0764014344037
 30
0.0
 10
74.62501296204695
 20
169.0397163750221
 30
0.0
 10
74.3922516458807
 20
169.0028506042319
 30
0.0
 10
74.15823218794968
 20
168.9657855633625
 30
0.0
  0
LWPOLYLINE
  5
2AA
330
1F
100
AcDbEntity
  8
0
  6
HIDDEN
 62
     7
370
     0
100
AcDbPolyline
 90
        9
 70
   128
 43
0.0
 10
74.8606999408
 20
169.0732470055
 10
74.8601914387
 20
169.0736414206
 10
74.8596838679
 20
169.0740358357
 10
74.8591753657
 20
169.0744297852
 10
74.8586668636
 20
169.0748242003
 10
74.8581583615
 20
169.0752186154
 10
74.8576498594
 20
169.0756130305
 10
74.8571413572
 20
169.07600698
 10
74.8566328551
 20
169.0764013951
  0
SPLINE
  5
2AB
330
1F
100
AcDbEntity
  8
0
  6
HIDDEN
 62
     7
370
     0
100
AcDbSpline
210
0.0
220
0.0
230
1.0
 70
    24
 71
     3
 72
     8
 73
     4
 74
     0
 42
0.000000001
 43
0.00000001
 40
0.0000002460339245
 40
0.0000002460339245
 40
0.0000002460339245
 40
0.0000002460339245
 40
0.0008708064702282
 40
0.0008708064702282
 40
0.0008708064702282
 40
0.0008708064702282
 10
74.92724472116002
 20
168.3692782976108
 30
0.0
 10
74.90494702302547
 20
168.6051633047709
 30
0.0
 10
74.88276920238116
 20
168.8397801405497
 30
0.0
 10
74.86070009464648
 20
169.0732469138731
 30
0.0
  0
SPLINE
  5
2AC
330
1F
100
AcDbEntity
  8
0
  6
HIDDEN
 62
     7
370
     0
100
AcDbSpline
210
0.0
220
0.0
230
1.0
 70
    24
 71
     3
 72
     8
 73
     4
 74
     0
 42
0.000000001
 43
0.00000001
 40
0.0000002485836013
 40
0.0000002485836013
 40
0.0000002485836013
 40
0.0000002485836013
 40
0.000870809019905
 40
0.000870809019905
 40
0.000870809019905
 40
0.000870809019905
 10
75.63121333742225
 20
168.4358229241244
 30
0.0
 10
75.39774656409887
 20
168.4137538163897
 30
0.0
 10
75.16312972832004
 20
168.3915759957454
 30
0.0
 10
74.92724472116001
 20
168.3692782976109
 30
0.0
  0
LWPOLYLINE
  5
2AD
330
1F
100
AcDbEntity
  8
0
  6
HIDDEN
 62
     7
370
     0
100
AcDbPolyline
 90
        9
 70
   128
 43
0.0
 10
75.6350741725
 20
168.4324193087
 10
75.6345917474
 20
168.4328449232
 10
75.6341093223
 20
168.4332700719
 10
75.6336259659
 20
168.4336956863
 10
75.6331435408
 20
168.4341213007
 10
75.6326611157
 20
168.4345469152
 10
75.6321786906
 20
168.4349720639
 10
75.6316962655
 20
168.4353976783
 10
75.6312129091
 20
168.4358228271
  0
SPLINE
  5
2AE
330
1F
100
AcDbEntity
  8
0
  6
HIDDEN
 62
     7
370
     0
100
AcDbSpline
210
0.0
220
0.0
230
1.0
 70
    24
 71
     3
 72
     8
 73
     4
 74
     0
 42
0.000000001
 43
0.00000001
 40
0.0000002450629425
 40
0.0000002450629425
 40
0.0000002450629425
 40
0.0000002450629425
 40
0.0008708054992462
 40
0.0008708054992462
 40
0.0008708054992462
 40
0.0008708054992462
 10
75.65728478268072
 20
167.7256614062042
 30
0.0
 10
75.64984242610876
 20
167.9624810322356
 30
0.0
 10
75.64244008133633
 20
168.1980274621624
 30
0.0
 10
75.63507402193437
 20
168.4324192728793
 30
0.0
  0
SPLINE
  5
2AF
330
1F
100
AcDbEntity
  8
0
  6
HIDDEN
 62
     7
370
     0
100
AcDbSpline
210
0.0
220
0.0
230
1.0
 70
    24
 71
     3
 72
     8
 73
     4
 74
     0
 42
0.000000001
 43
0.00000001
 40
0.0000002476025541
 40
0.0000002476025541
 40
0.0000002476025541
 40
0.0000002476025541
 40
0.0008708080388578
 40
0.0008708080388578
 40
0.0008708080388578
 40
0.0008708080388578
 10
76.36404264935575
 20
167.7478721669506
 30
0.0
 10
76.1296508386389
 20
167.7405061075486
 30
0.0
 10
75.8941044087121
 20
167.7331037627762
 30
0.0
 10
75.65728478268072
 20
167.7256614062042
 30
0.0
  0
LWPOLYLINE
  5
2B0
330
1F
100
AcDbEntity
  8
0
  6
HIDDEN
 62
     7
370
     0
100
AcDbPolyline
 90
        9
 70
   128
 43
0.0
 10
76.367682312
 20
167.7442329277
 10
76.3672268953
 20
167.7446878788
 10
76.3667724098
 20
167.7451428299
 10
76.3663169931
 20
167.745597781
 10
76.3658625077
 20
167.746052732
 10
76.3654070909
 20
167.7465076831
 10
76.3649526055
 20
167.7469626342
 10
76.3644971888
 20
167.7474171196
 10
76.3640427034
 20
167.7478720707
  0
SPLINE
  5
2B1
330
1F
100
AcDbEntity
  8
0
  6
HIDDEN
 62
     7
370
     0
100
AcDbSpline
210
0.0
220
0.0
230
1.0
 70
    24
 71
     3
 72
     8
 73
     4
 74
     0
 42
0.000000001
 43
0.00000001
 40
0.0000002450629425
 40
0.0000002450629425
 40
0.0000002450629425
 40
0.0000002450629425
 40
0.0008708054992462
 40
0.0008708054992462
 40
0.0008708054992462
 40
0.0008708054992462
 10
76.34547123791252
 20
167.0374749509724
 30
0.0
 10
76.35291359448448
 20
167.2742945770038
 30
0.0
 10
76.36031593925692
 20
167.5098410069306
 30
0.0
 10
76.36768199865888
 20
167.7442328176474
 30
0.0
  0
SPLINE
  5
2B2
330
1F
100
AcDbEntity
  8
0
  6
HIDDEN
 62
     7
370
     0
100
AcDbSpline
210
0.0
220
0.0
230
1.0
 70
    24
 71
     3
 72
     8
 73
     4
 74
     0
 42
0.000000001
 43
0.00000001
 40
0.0000002476025541
 40
0.0000002476025541
 40
0.0000002476025541
 40
0.0000002476025541
 40
0.0008708080388578
 40
0.0008708080388578
 40
0.0008708080388578
 40
0.0008708080388578
 10
77.05222910458757
 20
167.015264190226
 30
0.0
 10
76.81783729387072
 20
167.022630249628
 30
0.0
 10
76.5822908639439
 20
167.0300325944005
 30
0.0
 10
76.34547123791252
 20
167.0374749509724
 30
0.0
  0
LWPOLYLINE
  5
2B3
330
1F
100
AcDbEntity
  8
0
  6
HIDDEN
 62
     7
370
     0
100
AcDbPolyline
 90
        9
 70
   128
 43
0.0
 10
77.0556326027
 20
167.0114035991
 10
77.0552069883
 20
167.0118860242
 10
77.0547823052
 20
167.012368915
 10
77.0543566908
 20
167.01285134
 10
77.0539310764
 20
167.0133337651
 10
77.053505462
 20
167.0138166559
 10
77.0530798476
 20
167.014299081
 10
77.0526542331
 20
167.0147815061
 10
77.05222955
 20
167.0152643968
  0
SPLINE
  5
2B4
330
1F
100
AcDbEntity
  8
0
  6
HIDDEN
 62
     7
370
     0
100
AcDbSpline
210
0.0
220
0.0
230
1.0
 70
    24
 71
     3
 72
     8
 73
     4
 74
     0
 42
0.000000001
 43
0.00000001
 40
0.0000002460339245
 40
0.0000002460339245
 40
0.0000002460339245
 40
0.0000002460339245
 40
0.0008708064702282
 40
0.0008708064702282
 40
0.0008708064702282
 40
0.0008708064702282
 10
76.98908812931916
 20
166.3074348894517
 30
0.0
 10
77.0113858274537
 20
166.5433198966117
 30
0.0
 10
77.03356364809801
 20
166.7779367323905
 30
0.0
 10
77.0556327558327
 20
167.0114035057139
 30
0.0
  0
SPLINE
  5
2B5
330
1F
100
AcDbEntity
  8
0
  6
HIDDEN
 62
     7
370
     0
100
AcDbSpline
210
0.0
220
0.0
230
1.0
 70
    24
 71
     3
 72
     8
 73
     4
 74
     0
 42
0.000000001
 43
0.00000001
 40
0.0000002485836013
 40
0.0000002485836013
 40
0.0000002485836013
 40
0.0000002485836013
 40
0.000870809019905
 40
0.000870809019905
 40
0.000870809019905
 40
0.000870809019905
 10
77.69305674558139
 20
166.2408902629381
 30
0.0
 10
77.45958997225799
 20
166.2629593706728
 30
0.0
 10
77.22497313647916
 20
166.2851371913171
 30
0.0
 10
76.98908812931914
 20
166.3074348894517
 30
0.0
  0
LINE
  5
2B6
330
1F
100
AcDbEntity
  8
0
  6
HIDDEN
 62
     7
370
     0
100
AcDbLine
 10
77.6962112661
 20
166.2368234796
 30
0.0
 11
77.6930567456
 21
166.2408902629
 31
0.0
  0
SPLINE
  5
2B7
330
1F
100
AcDbEntity
  8
0
  6
HIDDEN
 62
     7
370
     0
100
AcDbSpline
210
0.0
220
0.0
230
1.0
 70
    24
 71
     3
 72
     8
 73
     4
 74
     0
 42
0.000000001
 43
0.00000001
 40
0.0000002479952473
 40
0.0000002479952473
 40
0.0000002479952473
 40
0.0000002479952473
 40
0.000870808431551
 40
0.000870808431551
 40
0.000870808431551
 40
0.000870808431551
 10
77.58559539507075
 20
165.5384223562413
 30
0.0
 10
77.62266043594022
 20
165.7724418141724
 30
0.0
 10
77.65952620673042
 20
166.0052031303386
 30
0.0
 10
77.696211266112
 20
166.2368234795751
 30
0.0
  0
SPLINE
  5
2B8
330
1F
100
AcDbEntity
  8
0
  6
HIDDEN
 62
     7
370
     0
100
AcDbSpline
210
0.0
220
0.0
230
1.0
 70
    24
 71
     3
 72
     8
 73
     4
 74
     0
 42
0.000000001
 43
0.00000001
 40
0.0000002505652553
 40
0.0000002505652553
 40
0.0000002505652553
 40
0.0000002505652553
 40
0.000870811001559
 40
0.000870811001559
 40
0.000870811001559
 40
0.000870811001559
 10
78.28399651840446
 20
165.4278064852001
 30
0.0
 10
78.05237616916803
 20
165.4644915445817
 30
0.0
 10
77.8196148530018
 20
165.5013573153719
 30
0.0
 10
77.58559539507075
 20
165.5384223562413
 30
0.0
  0
LWPOLYLINE
  5
2B9
330
1F
100
AcDbEntity
  8
0
  6
HIDDEN
 62
     7
370
     0
100
AcDbPolyline
 90
        9
 70
   128
 43
0.0
 10
78.2868894752
 20
165.4235493665
 10
78.286528122
 20
165.424082083
 10
78.2861667688
 20
165.4246138682
 10
78.2858044844
 20
165.4251456534
 10
78.2854431312
 20
165.4256783699
 10
78.285081778
 20
165.4262101551
 10
78.2847194936
 20
165.4267419403
 10
78.2843581404
 20
165.4272746568
 10
78.2839967872
 20
165.427806442
  0
SPLINE
  5
2BA
330
1F
100
AcDbEntity
  8
0
  6
HIDDEN
 62
     7
370
     0
100
AcDbSpline
210
0.0
220
0.0
230
1.0
 70
    24
 71
     3
 72
     8
 73
     4
 74
     0
 42
0.000000001
 43
0.00000001
 40
0.0000002509865792
 40
0.0000002509865792
 40
0.0000002509865792
 40
0.0000002509865792
 40
0.0008708114228829
 40
0.0008708114228829
 40
0.0008708114228829
 40
0.0008708114228829
 10
78.13263889350772
 20
164.7334722924815
 30
0.0
 10
78.18432499832917
 20
164.9647026332964
 30
0.0
 10
78.2357332269103
 20
165.1946898272737
 30
0.0
 10
78.28688945876922
 20
165.423549652722
 30
0.0
  0
SPLINE
  5
2BB
330
1F
100
AcDbEntity
  8
0
  6
HIDDEN
 62
     7
370
     0
100
AcDbSpline
210
0.0
220
0.0
230
1.0
 70
    24
 71
     3
 72
     8
 73
     4
 74
     0
 42
0.000000001
 43
0.00000001
 40
0.0000002535875959
 40
0.0000002535875959
 40
0.0000002535875959
 40
0.0000002535875959
 40
0.0008708140238996
 40
0.0008708140238996
 40
0.0008708140238996
 40
0.0008708140238996
 10
78.8227162537482
 20
164.57922172722
 30
0.0
 10
78.59385642829989
 20
164.6303779590789
 30
0.0
 10
78.3638692343226
 20
164.68178618766
 30
0.0
 10
78.13263889350772
 20
164.7334722924815
 30
0.0
  0
LWPOLYLINE
  5
2BC
330
1F
100
AcDbEntity
  8
0
  6
HIDDEN
 62
     7
370
     0
100
AcDbPolyline
 90
        9
 70
   128
 43
0.0
 10
78.8253364156
 20
164.5747913321
 10
78.8250085901
 20
164.575345469
 10
78.8246816959
 20
164.5758996059
 10
78.8243538703
 20
164.5764528115
 10
78.8240260448
 20
164.5770069485
 10
78.8236991505
 20
164.5775601541
 10
78.823371325
 20
164.578114291
 10
78.8230434995
 20
164.5786684279
 10
78.8227166052
 20
164.5792216335
  0
SPLINE
  5
2BD
330
1F
100
AcDbEntity
  8
0
  6
HIDDEN
 62
     7
370
     0
100
AcDbSpline
210
0.0
220
0.0
230
1.0
 70
    24
 71
     3
 72
     8
 73
     4
 74
     0
 42
0.000000001
 43
0.00000001
 40
0.0000002550698886
 40
0.0000002550698886
 40
0.0000002550698886
 40
0.0000002550698886
 40
0.0008708155061922
 40
0.0008708155061922
 40
0.0008708155061922
 40
0.0008708155061922
 10
78.62805969386207
 20
163.8957614683272
 30
0.0
 10
78.69416288119294
 20
164.1232901315098
 30
0.0
 10
78.75991068277298
 20
164.3495955489147
 30
0.0
 10
78.82533619683315
 20
164.5747916454
 30
0.0
  0
SPLINE
  5
2BE
330
1F
100
AcDbEntity
  8
0
  6
HIDDEN
 62
     7
370
     0
100
AcDbSpline
210
0.0
220
0.0
230
1.0
 70
    24
 71
     3
 72
     8
 73
     4
 74
     0
 42
0.000000001
 43
0.00000001
 40
0.0000002577132338
 40
0.0000002577132338
 40
0.0000002577132338
 40
0.0000002577132338
 40
0.0008708181495375
 40
0.0008708181495375
 40
0.0008708181495375
 40
0.0008708181495375
 10
79.30708987093485
 20
163.6984849653561
 30
0.0
 10
79.08189377444958
 20
163.7639104794163
 30
0.0
 10
78.85558835704472
 20
163.8296582809963
 30
0.0
 10
78.62805969386207
 20
163.8957614683272
 30
0.0
  0
LINE
  5
2BF
330
1F
100
AcDbEntity
  8
0
  6
HIDDEN
 62
     7
370
     0
100
AcDbLine
 10
79.309426477
 20
163.6938991177
 30
0.0
 11
79.3070898709
 21
163.6984849654
 31
0.0
  0
SPLINE
  5
2C0
330
1F
100
AcDbEntity
  8
0
  6
HIDDEN
 62
     7
370
     0
100
AcDbSpline
210
0.0
220
0.0
230
1.0
 70
    24
 71
     3
 72
     8
 73
     4
 74
     0
 42
0.000000001
 43
0.00000001
 40
0.0000002603326621
 40
0.0000002603326621
 40
0.0000002603326621
 40
0.0000002603326621
 40
0.0008708207689658
 40
0.0008708207689658
 40
0.0008708207689658
 40
0.0008708207689658
 10
79.06990259657105
 20
163.0285959456876
 30
0.0
 10
79.15016198733062
 20
163.2515249795524
 30
0.0
 10
79.22998988537404
 20
163.4732554962915
 30
0.0
 10
79.30942647702153
 20
163.6938991177032
 30
0.0
  0
SPLINE
  5
2C1
330
1F
100
AcDbEntity
  8
0
  6
HIDDEN
 62
     7
370
     0
100
AcDbSpline
210
0.0
220
0.0
230
1.0
 70
    24
 71
     3
 72
     8
 73
     4
 74
     0
 42
0.000000001
 43
0.00000001
 40
0.0000002630305631
 40
0.0000002630305631
 40
0.0000002630305631
 40
0.0000002630305631
 40
0.0008708234668668
 40
0.0008708234668668
 40
0.0008708234668668
 40
0.0008708234668668
 10
79.73520576858658
 20
162.7890720652371
 30
0.0
 10
79.5145621471749
 20
162.8685086568846
 30
0.0
 10
79.29283163043586
 20
162.948336554928
 30
0.0
 10
79.06990259657105
 20
163.0285959456876
 30
0.0
  0
LINE
  5
2C2
330
1F
100
AcDbEntity
  8
0
  6
HIDDEN
 62
     7
370
     0
100
AcDbLine
 10
79.7372498162
 20
162.78434855
 30
0.0
 11
79.7352057686
 21
162.7890720652
 31
0.0
  0
SPLINE
  5
2C3
330
1F
100
AcDbEntity
  8
0
  6
HIDDEN
 62
     7
370
     0
100
AcDbSpline
210
0.0
220
0.0
230
1.0
 70
    24
 71
     3
 72
     8
 73
     4
 74
     0
 42
0.000000001
 43
0.00000001
 40
0.000000266892673
 40
0.000000266892673
 40
0.000000266892673
 40
0.000000266892673
 40
0.0008708273289767
 40
0.0008708273289767
 40
0.0008708273289767
 40
0.0008708273289767
 10
79.4564238495565
 20
162.1353980307104
 30
0.0
 10
79.55052269659646
 20
162.3528476362073
 30
0.0
 10
79.6441156468596
 20
162.56912818323
 30
0.0
 10
79.7372498161583
 20
162.7843485499969
 30
0.0
  0
SPLINE
  5
2C4
330
1F
100
AcDbEntity
  8
0
  6
HIDDEN
 62
     7
370
     0
100
AcDbSpline
210
0.0
220
0.0
230
1.0
 70
    24
 71
     3
 72
     8
 73
     4
 74
     0
 42
0.000000001
 43
0.00000001
 40
0.0000002696585783
 40
0.0000002696585783
 40
0.0000002696585783
 40
0.0000002696585783
 40
0.000870830094882
 40
0.000870830094882
 40
0.000870830094882
 40
0.000870830094882
 10
80.10537436884297
 20
161.8545720641086
 30
0.0
 10
79.89015400207607
 20
161.9477062334073
 30
0.0
 10
79.67387345505338
 20
162.0412991836705
 30
0.0
 10
79.45642384955651
 20
162.1353980307104
 30
0.0
  0
LINE
  5
2C5
330
1F
100
AcDbEntity
  8
0
  6
HIDDEN
 62
     7
370
     0
100
AcDbLine
 10
80.1071180034
 20
161.8497293715
 30
0.0
 11
80.1053745675
 21
161.8545722489
 31
0.0
  0
SPLINE
  5
2C6
330
1F
100
AcDbEntity
  8
0
  6
HIDDEN
 62
     7
370
     0
100
AcDbSpline
210
0.0
220
0.0
230
1.0
 70
    24
 71
     3
 72
     8
 73
     4
 74
     0
 42
0.000000001
 43
0.00000001
 40
0.0000002749048029
 40
0.0000002749048029
 40
0.0000002749048029
 40
0.0000002749048029
 40
0.0008708353411066
 40
0.0008708353411066
 40
0.0008708353411066
 40
0.0008708353411066
 10
79.78609803001767
 20
161.2196927675027
 30
0.0
 10
79.8936649681784
 20
161.430804770382
 30
0.0
 10
80.00065360204512
 20
161.6407817871784
 30
0.0
 10
80.10711779097777
 20
161.8497295228377
 30
0.0
  0
SPLINE
  5
2C7
330
1F
100
AcDbEntity
  8
0
  6
HIDDEN
 62
     7
370
     0
100
AcDbSpline
210
0.0
220
0.0
230
1.0
 70
    24
 71
     3
 72
     8
 73
     4
 74
     0
 42
0.000000001
 43
0.00000001
 40
0.0000002777537673
 40
0.0000002777537673
 40
0.0000002777537673
 40
0.0000002777537673
 40
0.000870838190071
 40
0.000870838190071
 40
0.000870838190071
 40
0.000870838190071
 10
80.4161347853527
 20
160.8986730065426
 30
0.0
 10
80.2071870496934
 20
161.0051371954752
 30
0.0
 10
79.99721003289694
 20
161.1121258293419
 30
0.0
 10
79.78609803001765
 20
161.2196927675027
 30
0.0
  0
LINE
  5
2C8
330
1F
100
AcDbEntity
  8
0
  6
HIDDEN
 62
     7
370
     0
100
AcDbLine
 10
80.4175707016
 20
160.8937305505
 30
0.0
 11
80.4161347854
 21
160.8986730065
 31
0.0
  0
SPLINE
  5
2C9
330
1F
100
AcDbEntity
  8
0
  6
HIDDEN
 62
     7
370
     0
100
AcDbSpline
210
0.0
220
0.0
230
1.0
 70
    24
 71
     3
 72
     8
 73
     4
 74
     0
 42
0.000000001
 43
0.00000001
 40
0.0000002845706964
 40
0.0000002845706964
 40
0.0000002845706964
 40
0.0000002845706964
 40
0.0008708450070001
 40
0.0008708450070001
 40
0.0008708450070001
 40
0.0008708450070001
 10
80.05762406457804
 20
160.2850940263924
 30
0.0
 10
80.17823457629731
 20
160.4890352640266
 30
0.0
 10
80.29819665850818
 20
160.6918800672409
 30
0.0
 10
80.41757070155992
 20
160.8937305505391
 30
0.0
  0
SPLINE
  5
2CA
330
1F
100
AcDbEntity
  8
0
  6
HIDDEN
 62
     7
370
     0
100
AcDbSpline
210
0.0
220
0.0
230
1.0
 70
    24
 71
     3
 72
     8
 73
     4
 74
     0
 42
0.000000001
 43
0.00000001
 40
0.000000287519866
 40
0.000000287519866
 40
0.000000287519866
 40
0.000000287519866
 40
0.0008708479561697
 40
0.0008708479561697
 40
0.0008708479561697
 40
0.0008708479561697
 10
80.66626058872478
 20
159.9251473894105
 30
0.0
 10
80.46441010542657
 20
160.0445214324622
 30
0.0
 10
80.26156530221232
 20
160.1644835146731
 30
0.0
 10
80.05762406457805
 20
160.2850940263924
 30
0.0
  0
LWPOLYLINE
  5
2CB
330
1F
100
AcDbEntity
  8
0
  6
HIDDEN
 62
     7
370
     0
100
AcDbPolyline
 90
        9
 70
   128
 43
0.0
 10
80.6673835035
 20
159.9201249232
 10
80.6672428738
 20
159.9207526346
 10
80.6671027097
 20
159.921380346
 10
80.6669625457
 20
159.9220080574
 10
80.6668223816
 20
159.9226357688
 10
80.6666817519
 20
159.9232634802
 10
80.6665415879
 20
159.923892123
 10
80.6664009582
 20
159.9245198344
 10
80.6662607941
 20
159.9251475458
  0
SPLINE
  5
2CC
330
1F
100
AcDbEntity
  8
0
  6
HIDDEN
 62
     7
370
     0
100
AcDbSpline
210
0.0
220
0.0
230
1.0
 70
    24
 71
     3
 72
     8
 73
     4
 74
     0
 42
0.000000001
 43
0.00000001
 40
0.0000002961524522
 40
0.0000002961524522
 40
0.0000002961524522
 40
0.0000002961524522
 40
0.0008708565887559
 40
0.0008708565887559
 40
0.0008708565887559
 40
0.0008708565887559
 10
80.26993036402767
 20
159.3352902416331
 30
0.0
 10
80.40310845471743
 20
159.5312558511293
 30
0.0
 10
80.53557054973943
 20
159.726167904994
 30
0.0
 10
80.66738333209916
 20
159.9201245242903
 30
0.0
  0
SPLINE
  5
2CD
330
1F
100
AcDbEntity
  8
0
  6
HIDDEN
 62
     7
370
     0
100
AcDbSpline
210
0.0
220
0.0
230
1.0
 70
    24
 71
     3
 72
     8
 73
     4
 74
     0
 42
0.000000001
 43
0.00000001
 40
0.0000002992216915
 40
0.0000002992216915
 40
0.0000002992216915
 40
0.0000002992216915
 40
0.0008708596579952
 40
0.0008708596579952
 40
0.0008708596579952
 40
0.0008708596579952
 10
80.85476464668487
 20
158.9378372735616
 30
0.0
 10
80.66080802738864
 20
159.0696500559213
 30
0.0
 10
80.46589597352389
 20
159.2021121509433
 30
0.0
 10
80.26993036402769
 20
159.3352902416331
 30
0.0
  0
LWPOLYLINE
  5
2CE
330
1F
100
AcDbEntity
  8
0
  6
HIDDEN
 62
     7
370
     0
100
AcDbPolyline
 90
        9
 70
   128
 43
0.0
 10
80.8555698025
 20
158.9327534934
 10
80.8554692197
 20
158.9333895867
 10
80.8553686369
 20
158.9340247487
 10
80.855268054
 20
158.9346599107
 10
80.8551674712
 20
158.935296004
 10
80.8550668883
 20
158.935931166
 10
80.8549663055
 20
158.936566328
 10
80.854865257
 20
158.93720149
 10
80.8547646742
 20
158.9378375833
  0
SPLINE
  5
2CF
330
1F
100
AcDbEntity
  8
0
  6
HIDDEN
 62
     7
370
     0
100
AcDbSpline
210
0.0
220
0.0
230
1.0
 70
    24
 71
     3
 72
     8
 73
     4
 74
     0
 42
0.000000001
 43
0.00000001
 40
0.0000003099922359
 40
0.0000003099922359
 40
0.0000003099922359
 40
0.0000003099922359
 40
0.0008708704285396
 40
0.0008708704285396
 40
0.0008708704285396
 40
0.0008708704285396
 10
80.42217905239616
 20
158.3740298548392
 30
0.0
 10
80.56739912897574
 20
158.5612464494648
 30
0.0
 10
80.71183846943599
 20
158.7474565251503
 30
0.0
 10
80.85556978627126
 20
158.9327538222786
 30
0.0
  0
SPLINE
  5
2D0
330
1F
100
AcDbEntity
  8
0
  6
HIDDEN
 62
     7
370
     0
100
AcDbSpline
210
0.0
220
0.0
230
1.0
 70
    24
 71
     3
 72
     8
 73
     4
 74
     0
 42
0.000000001
 43
0.00000001
 40
0.0000003132049583
 40
0.0000003132049583
 40
0.0000003132049583
 40
0.0000003132049583
 40
0.000870873641262
 40
0.000870873641262
 40
0.000870873641262
 40
0.000870873641262
 10
80.98090301983554
 20
157.9406391209641
 30
0.0
 10
80.7956057227073
 20
158.0843704377994
 30
0.0
 10
80.60939564702177
 20
158.2288097782596
 30
0.0
 10
80.42217905239616
 20
158.3740298548392
 30
0.0
  0
LINE
  5
2D1
330
1F
100
AcDbEntity
  8
0
  6
HIDDEN
 62
     7
370
     0
100
AcDbLine
 10
80.9813873781
 20
157.9355151456
 30
0.0
 11
80.9809030198
 21
157.940639121
 31
0.0
  0
SPLINE
  5
2D2
330
1F
100
AcDbEntity
  8
0
  6
HIDDEN
 62
     7
370
     0
100
AcDbSpline
210
0.0
220
0.0
230
1.0
 70
    24
 71
     3
 72
     8
 73
     4
 74
     0
 42
0.000000001
 43
0.00000001
 40
0.000000326540833
 40
0.000000326540833
 40
0.000000326540833
 40
0.000000326540833
 40
0.0008708869771368
 40
0.0008708869771368
 40
0.0008708869771368
 40
0.0008708869771368
 10
80.51376927366633
 20
157.4051065215993
 30
0.0
 10
80.67045821883819
 20
157.5828352429864
 30
0.0
 10
80.82630476864797
 20
157.7596084543952
 30
0.0
 10
80.98138737811581
 20
157.9355151455781
 30
0.0
  0
SPLINE
  5
2D3
330
1F
100
AcDbEntity
  8
0
  6
HIDDEN
 62
     7
370
     0
100
AcDbSpline
210
0.0
220
0.0
230
1.0
 70
    24
 71
     3
 72
     8
 73
     4
 74
     0
 42
0.000000001
 43
0.00000001
 40
0.0000003299251282
 40
0.0000003299251282
 40
0.0000003299251282
 40
0.0000003299251282
 40
0.0008708903614319
 40
0.0008708903614319
 40
0.0008708903614319
 40
0.0008708903614319
 10
81.04417789764511
 20
156.9374884171498
 30
0.0
 10
80.86827120646231
 20
157.0925710266176
 30
0.0
 10
80.69149799505348
 20
157.2484175764274
 30
0.0
 10
80.51376927366633
 20
157.4051065215992
 30
0.0
  0
LWPOLYLINE
  5
2D4
330
1F
100
AcDbEntity
  8
0
  6
HIDDEN
 62
     7
370
     0
100
AcDbPolyline
 90
        9
 70
   128
 43
0.0
 10
81.0443395752
 20
156.9323433836
 10
81.0443195518
 20
156.9329878588
 10
81.0442995283
 20
156.9336304714
 10
81.0442790392
 20
156.934273084
 10
81.0442590158
 20
156.9349156966
 10
81.0442385267
 20
156.9355601718
 10
81.0442185033
 20
156.9362027844
 10
81.0441980142
 20
156.9368453969
 10
81.0441779907
 20
156.9374880095
  0
SPLINE
  5
2D5
330
1F
100
AcDbEntity
  8
0
  6
HIDDEN
 62
     7
370
     0
100
AcDbSpline
210
0.0
220
0.0
230
1.0
 70
    24
 71
     3
 72
     8
 73
     4
 74
     0
 42
0.000000001
 43
0.00000001
 40
0.0000003464001047
 40
0.0000003464001047
 40
0.0000003464001047
 40
0.0000003464001047
 40
0.0008709068364084
 40
0.0008709068364084
 40
0.0008709068364084
 40
0.0008709068364084
 10
80.5443395630784
 20
156.4323441396507
 30
0.0
 10
80.71187899716033
 20
156.5998835737326
 30
0.0
 10
80.87851770118704
 20
156.7665222777593
 30
0.0
 10
81.04433956307841
 20
156.9323441396507
 30
0.0
  0
SPLINE
  5
2D6
330
1F
100
AcDbEntity
  8
0
  6
HIDDEN
 62
     7
370
     0
100
AcDbSpline
210
0.0
220
0.0
230
1.0
 70
    24
 71
     3
 72
     8
 73
     4
 74
     0
 42
0.000000001
 43
0.00000001
 40
0.0000003499903057
 40
0.0000003499903057
 40
0.0000003499903057
 40
0.0000003499903057
 40
0.0008709104266094
 40
0.0008709104266094
 40
0.0008709104266094
 40
0.0008709104266094
 10
81.04433956307838
 20
155.9323441396507
 30
0.0
 10
80.87851770118702
 20
156.098166001542
 30
0.0
 10
80.71187899716033
 20
156.2648047055687
 30
0.0
 10
80.5443395630784
 20
156.4323441396507
 30
0.0
  0
LWPOLYLINE
  5
2D7
330
1F
100
AcDbEntity
  8
0
  6
HIDDEN
 62
     7
370
     0
100
AcDbPolyline
 90
        9
 70
   128
 43
0.0
 10
81.0441779907
 20
155.9272004564
 10
81.0441980142
 20
155.927843069
 10
81.0442185033
 20
155.9284856816
 10
81.0442385267
 20
155.9291282942
 10
81.0442590158
 20
155.9297727694
 10
81.0442790392
 20
155.930415382
 10
81.0442995283
 20
155.9310579945
 10
81.0443195518
 20
155.9317006071
 10
81.0443395752
 20
155.9323432197
  0
SPLINE
  5
2D8
330
1F
100
AcDbEntity
  8
0
  6
HIDDEN
 62
     7
370
     0
100
AcDbSpline
210
0.0
220
0.0
230
1.0
 70
    24
 71
     3
 72
     8
 73
     4
 74
     0
 42
0.000000001
 43
0.00000001
 40
0.0000003265408331
 40
0.0000003265408331
 40
0.0000003265408331
 40
0.0000003265408331
 40
0.0008708869771367
 40
0.0008708869771367
 40
0.0008708869771367
 40
0.0008708869771367
 10
80.51376927366631
 20
155.459581757702
 30
0.0
 10
80.69149799505347
 20
155.6162707028739
 30
0.0
 10
80.86827120646228
 20
155.7721172526837
 30
0.0
 10
81.0441778976451
 20
155.9271998621515
 30
0.0
  0
SPLINE
  5
2D9
330
1F
100
AcDbEntity
  8
0
  6
HIDDEN
 62
     7
370
     0
100
AcDbSpline
210
0.0
220
0.0
230
1.0
 70
    24
 71
     3
 72
     8
 73
     4
 74
     0
 42
0.000000001
 43
0.00000001
 40
0.0000003299251282
 40
0.0000003299251282
 40
0.0000003299251282
 40
0.0000003299251282
 40
0.0008708903614319
 40
0.0008708903614319
 40
0.0008708903614319
 40
0.0008708903614319
 10
80.98138737811578
 20
154.9291731337233
 30
0.0
 10
80.82630476864793
 20
155.105079824906
 30
0.0
 10
80.67045821883815
 20
155.2818530363149
 30
0.0
 10
80.51376927366631
 20
155.459581757702
 30
0.0
  0
LINE
  5
2DA
330
1F
100
AcDbEntity
  8
0
  6
HIDDEN
 62
     7
370
     0
100
AcDbLine
 10
80.9809030198
 20
154.9240491583
 30
0.0
 11
80.9813873781
 21
154.9291731337
 31
0.0
  0
SPLINE
  5
2DB
330
1F
100
AcDbEntity
  8
0
  6
HIDDEN
 62
     7
370
     0
100
AcDbSpline
210
0.0
220
0.0
230
1.0
 70
    24
 71
     3
 72
     8
 73
     4
 74
     0
 42
0.000000001
 43
0.00000001
 40
0.0000003099922359
 40
0.0000003099922359
 40
0.0000003099922359
 40
0.0000003099922359
 40
0.0008708704285396
 40
0.0008708704285396
 40
0.0008708704285396
 40
0.0008708704285396
 10
80.42217905239613
 20
154.4906584244621
 30
0.0
 10
80.60939564702174
 20
154.6358785010416
 30
0.0
 10
80.79560572270725
 20
154.7803178415019
 30
0.0
 10
80.98090301983551
 20
154.9240491583372
 30
0.0
  0
SPLINE
  5
2DC
330
1F
100
AcDbEntity
  8
0
  6
HIDDEN
 62
     7
370
     0
100
AcDbSpline
210
0.0
220
0.0
230
1.0
 70
    24
 71
     3
 72
     8
 73
     4
 74
     0
 42
0.000000001
 43
0.00000001
 40
0.0000003132049584
 40
0.0000003132049584
 40
0.0000003132049584
 40
0.0000003132049584
 40
0.000870873641262
 40
0.000870873641262
 40
0.000870873641262
 40
0.000870873641262
 10
80.8555697862712
 20
153.9319344570227
 30
0.0
 10
80.71183846943595
 20
154.117231754151
 30
0.0
 10
80.5673991289757
 20
154.3034418298365
 30
0.0
 10
80.42217905239613
 20
154.4906584244621
 30
0.0
  0
LINE
  5
2DD
330
1F
100
AcDbEntity
  8
0
  6
HIDDEN
 62
     7
370
     0
100
AcDbLine
 10
80.8547646467
 20
153.9268510057
 30
0.0
 11
80.8555697863
 21
153.931934457
 31
0.0
  0
SPLINE
  5
2DE
330
1F
100
AcDbEntity
  8
0
  6
HIDDEN
 62
     7
370
     0
100
AcDbSpline
210
0.0
220
0.0
230
1.0
 70
    24
 71
     3
 72
     8
 73
     4
 74
     0
 42
0.000000001
 43
0.00000001
 40
0.0000002961524522
 40
0.0000002961524522
 40
0.0000002961524522
 40
0.0000002961524522
 40
0.0008708565887559
 40
0.0008708565887559
 40
0.0008708565887559
 40
0.0008708565887559
 10
80.26993036402762
 20
153.5293980376682
 30
0.0
 10
80.46589597352381
 20
153.662576128358
 30
0.0
 10
80.6608080273886
 20
153.7950382233799
 30
0.0
 10
80.85476464668483
 20
153.9268510057397
 30
0.0
  0
SPLINE
  5
2DF
330
1F
100
AcDbEntity
  8
0
  6
HIDDEN
 62
     7
370
     0
100
AcDbSpline
210
0.0
220
0.0
230
1.0
 70
    24
 71
     3
 72
     8
 73
     4
 74
     0
 42
0.000000001
 43
0.00000001
 40
0.0000002992216915
 40
0.0000002992216915
 40
0.0000002992216915
 40
0.0000002992216915
 40
0.0008708596579952
 40
0.0008708596579952
 40
0.0008708596579952
 40
0.0008708596579952
 10
80.66738333209908
 20
152.944563755011
 30
0.0
 10
80.53557054973936
 20
153.1385203743072
 30
0.0
 10
80.40310845471737
 20
153.333432428172
 30
0.0
 10
80.26993036402762
 20
153.5293980376682
 30
0.0
  0
LWPOLYLINE
  5
2E0
330
1F
100
AcDbEntity
  8
0
  6
HIDDEN
 62
     7
370
     0
100
AcDbPolyline
 90
        9
 70
   128
 43
0.0
 10
80.6662607941
 20
152.9395399888
 10
80.6664009582
 20
152.9401695629
 10
80.6665415879
 20
152.9407972743
 10
80.6666817519
 20
152.9414249857
 10
80.6668223816
 20
152.9420526971
 10
80.6669625457
 20
152.9426804085
 10
80.6671027097
 20
152.9433081199
 10
80.6672428738
 20
152.9439358314
 10
80.6673835035
 20
152.9445635428
  0
SPLINE
  5
2E1
330
1F
100
AcDbEntity
  8
0
  6
HIDDEN
 62
     7
370
     0
100
AcDbSpline
210
0.0
220
0.0
230
1.0
 70
    24
 71
     3
 72
     8
 73
     4
 74
     0
 42
0.000000001
 43
0.00000001
 40
0.0000002845706964
 40
0.0000002845706964
 40
0.0000002845706964
 40
0.0000002845706964
 40
0.0008708450070001
 40
0.0008708450070001
 40
0.0008708450070001
 40
0.0008708450070001
 10
80.05762406457798
 20
152.5795942529089
 30
0.0
 10
80.26156530221225
 20
152.7002047646282
 30
0.0
 10
80.46441010542651
 20
152.8201668468391
 30
0.0
 10
80.66626058872473
 20
152.9395408898908
 30
0.0
  0
SPLINE
  5
2E2
330
1F
100
AcDbEntity
  8
0
  6
HIDDEN
 62
     7
370
     0
100
AcDbSpline
210
0.0
220
0.0
230
1.0
 70
    24
 71
     3
 72
     8
 73
     4
 74
     0
 42
0.000000001
 43
0.00000001
 40
0.000000287519866
 40
0.000000287519866
 40
0.000000287519866
 40
0.000000287519866
 40
0.0008708479561697
 40
0.0008708479561697
 40
0.0008708479561697
 40
0.0008708479561697
 10
80.41757070155984
 20
151.9709577287622
 30
0.0
 10
80.2981966585081
 20
152.1728082120604
 30
0.0
 10
80.17823457629724
 20
152.3756530152747
 30
0.0
 10
80.05762406457796
 20
152.5795942529089
 30
0.0
  0
LWPOLYLINE
  5
2E3
330
1F
100
AcDbEntity
  8
0
  6
HIDDEN
 62
     7
370
     0
100
AcDbPolyline
 90
        9
 70
   128
 43
0.0
 10
80.4161345589
 20
151.966015463
 10
80.4163143042
 20
151.9666338612
 10
80.4164940494
 20
151.9672503968
 10
80.416673329
 20
151.967868795
 10
80.4168530743
 20
151.9684871932
 10
80.4170323539
 20
151.9691037287
 10
80.4172120991
 20
151.9697221269
 10
80.4173913787
 20
151.9703405251
 10
80.4175706583
 20
151.9709570606
  0
SPLINE
  5
2E4
330
1F
100
AcDbEntity
  8
0
  6
HIDDEN
 62
     7
370
     0
100
AcDbSpline
210
0.0
220
0.0
230
1.0
 70
    24
 71
     3
 72
     8
 73
     4
 74
     0
 42
0.000000001
 43
0.00000001
 40
0.0000002749048029
 40
0.0000002749048029
 40
0.0000002749048029
 40
0.0000002749048029
 40
0.0008708353411066
 40
0.0008708353411066
 40
0.0008708353411066
 40
0.0008708353411066
 10
79.78609803001756
 20
151.6449955117986
 30
0.0
 10
79.99721003289686
 20
151.7525624499593
 30
0.0
 10
80.2071870496933
 20
151.859551083826
 30
0.0
 10
80.41613478535261
 20
151.9660152727587
 30
0.0
  0
SPLINE
  5
2E5
330
1F
100
AcDbEntity
  8
0
  6
HIDDEN
 62
     7
370
     0
100
AcDbSpline
210
0.0
220
0.0
230
1.0
 70
    24
 71
     3
 72
     8
 73
     4
 74
     0
 42
0.000000001
 43
0.00000001
 40
0.0000002777537673
 40
0.0000002777537673
 40
0.0000002777537673
 40
0.0000002777537673
 40
0.000870838190071
 40
0.000870838190071
 40
0.000870838190071
 40
0.000870838190071
 10
80.10711779097765
 20
151.0149587564635
 30
0.0
 10
80.000653602045
 20
151.2239064921229
 30
0.0
 10
79.8936649681783
 20
151.4338835089193
 30
0.0
 10
79.78609803001756
 20
151.6449955117986
 30
0.0
  0
LINE
  5
2E6
330
1F
100
AcDbEntity
  8
0
  6
HIDDEN
 62
     7
370
     0
100
AcDbLine
 10
80.1053745675
 20
151.0101152857
 30
0.0
 11
80.1071180034
 21
151.0149581631
 31
0.0
  0
SPLINE
  5
2E7
330
1F
100
AcDbEntity
  8
0
  6
HIDDEN
 62
     7
370
     0
100
AcDbSpline
210
0.0
220
0.0
230
1.0
 70
    24
 71
     3
 72
     8
 73
     4
 74
     0
 42
0.000000001
 43
0.00000001
 40
0.000000266892673
 40
0.000000266892673
 40
0.000000266892673
 40
0.000000266892673
 40
0.0008708273289767
 40
0.0008708273289767
 40
0.0008708273289767
 40
0.0008708273289767
 10
79.4564238495564
 20
150.7292902485909
 30
0.0
 10
79.67387345505324
 20
150.8233890956308
 30
0.0
 10
79.89015400207595
 20
150.916982045894
 30
0.0
 10
80.10537436884285
 20
151.0101162151927
 30
0.0
  0
SPLINE
  5
2E8
330
1F
100
AcDbEntity
  8
0
  6
HIDDEN
 62
     7
370
     0
100
AcDbSpline
210
0.0
220
0.0
230
1.0
 70
    24
 71
     3
 72
     8
 73
     4
 74
     0
 42
0.000000001
 43
0.00000001
 40
0.0000002696585783
 40
0.0000002696585783
 40
0.0000002696585783
 40
0.0000002696585783
 40
0.0008708300948821
 40
0.0008708300948821
 40
0.0008708300948821
 40
0.0008708300948821
 10
79.73724981615817
 20
150.0803397293044
 30
0.0
 10
79.64411564685946
 20
150.2955600960713
 30
0.0
 10
79.55052269659632
 20
150.511840643094
 30
0.0
 10
79.45642384955639
 20
150.7292902485909
 30
0.0
  0
LINE
  5
2E9
330
1F
100
AcDbEntity
  8
0
  6
HIDDEN
 62
     7
370
     0
100
AcDbLine
 10
79.7352057686
 20
150.0756162141
 30
0.0
 11
79.7372498162
 21
150.0803397293
 31
0.0
  0
SPLINE
  5
2EA
330
1F
100
AcDbEntity
  8
0
  6
HIDDEN
 62
     7
370
     0
100
AcDbSpline
210
0.0
220
0.0
230
1.0
 70
    24
 71
     3
 72
     8
 73
     4
 74
     0
 42
0.000000001
 43
0.00000001
 40
0.0000002603326621
 40
0.0000002603326621
 40
0.0000002603326621
 40
0.0000002603326621
 40
0.0008708207689658
 40
0.0008708207689658
 40
0.0008708207689658
 40
0.0008708207689658
 10
79.06990259657091
 20
149.8360923336137
 30
0.0
 10
79.29283163043571
 20
149.9163517243733
 30
0.0
 10
79.51456214717476
 20
149.9961796224167
 30
0.0
 10
79.73520576858647
 20
150.0756162140642
 30
0.0
  0
SPLINE
  5
2EB
330
1F
100
AcDbEntity
  8
0
  6
HIDDEN
 62
     7
370
     0
100
AcDbSpline
210
0.0
220
0.0
230
1.0
 70
    24
 71
     3
 72
     8
 73
     4
 74
     0
 42
0.000000001
 43
0.00000001
 40
0.0000002630305631
 40
0.0000002630305631
 40
0.0000002630305631
 40
0.0000002630305631
 40
0.0008708234668668
 40
0.0008708234668668
 40
0.0008708234668668
 40
0.0008708234668668
 10
79.30942647702139
 20
149.1707891615982
 30
0.0
 10
79.22998988537388
 20
149.3914327830098
 30
0.0
 10
79.15016198733046
 20
149.6131632997489
 30
0.0
 10
79.06990259657091
 20
149.8360923336137
 30
0.0
  0
LINE
  5
2EC
330
1F
100
AcDbEntity
  8
0
  6
HIDDEN
 62
     7
370
     0
100
AcDbLine
 10
79.3070898709
 20
149.1662033139
 30
0.0
 11
79.309426477
 21
149.1707891616
 31
0.0
  0
SPLINE
  5
2ED
330
1F
100
AcDbEntity
  8
0
  6
HIDDEN
 62
     7
370
     0
100
AcDbSpline
210
0.0
220
0.0
230
1.0
 70
    24
 71
     3
 72
     8
 73
     4
 74
     0
 42
0.000000001
 43
0.00000001
 40
0.0000002550698886
 40
0.0000002550698886
 40
0.0000002550698886
 40
0.0000002550698886
 40
0.0008708155061923
 40
0.0008708155061923
 40
0.0008708155061923
 40
0.0008708155061923
 10
78.62805969386191
 20
148.9689268109742
 30
0.0
 10
78.85558835704457
 20
149.035029998305
 30
0.0
 10
79.08189377444944
 20
149.1007777998851
 30
0.0
 10
79.3070898709347
 20
149.1662033139452
 30
0.0
  0
SPLINE
  5
2EE
330
1F
100
AcDbEntity
  8
0
  6
HIDDEN
 62
     7
370
     0
100
AcDbSpline
210
0.0
220
0.0
230
1.0
 70
    24
 71
     3
 72
     8
 73
     4
 74
     0
 42
0.000000001
 43
0.00000001
 40
0.0000002577132338
 40
0.0000002577132338
 40
0.0000002577132338
 40
0.0000002577132338
 40
0.0008708181495375
 40
0.0008708181495375
 40
0.0008708181495375
 40
0.0008708181495375
 10
78.82533619683296
 20
148.2898966339013
 30
0.0
 10
78.7599106827728
 20
148.5150927303866
 30
0.0
 10
78.69416288119277
 20
148.7413981477915
 30
0.0
 10
78.6280596938619
 20
148.9689268109741
 30
0.0
  0
LWPOLYLINE
  5
2EF
330
1F
100
AcDbEntity
  8
0
  6
HIDDEN
 62
     7
370
     0
100
AcDbPolyline
 90
        9
 70
   128
 43
0.0
 10
78.8227166052
 20
148.2854659011
 10
78.8230434995
 20
148.2860209693
 10
78.823371325
 20
148.2865741749
 10
78.8236991505
 20
148.2871273805
 10
78.8240260448
 20
148.2876805862
 10
78.8243538703
 20
148.2882356544
 10
78.8246816959
 20
148.28878886
 10
78.8250085901
 20
148.2893420656
 10
78.8253364156
 20
148.2898971339
  0
SPLINE
  5
2F0
330
1F
100
AcDbEntity
  8
0
  6
HIDDEN
 62
     7
370
     0
100
AcDbSpline
210
0.0
220
0.0
230
1.0
 70
    24
 71
     3
 72
     8
 73
     4
 74
     0
 42
0.000000001
 43
0.00000001
 40
0.0000002509865792
 40
0.0000002509865792
 40
0.0000002509865792
 40
0.0000002509865792
 40
0.0008708114228829
 40
0.0008708114228829
 40
0.0008708114228829
 40
0.0008708114228829
 10
78.13263889350753
 20
148.1312159868198
 30
0.0
 10
78.36386923432242
 20
148.1829020916413
 30
0.0
 10
78.59385642829972
 20
148.2343103202224
 30
0.0
 10
78.82271625374804
 20
148.2854665520813
 30
0.0
  0
SPLINE
  5
2F1
330
1F
100
AcDbEntity
  8
0
  6
HIDDEN
 62
     7
370
     0
100
AcDbSpline
210
0.0
220
0.0
230
1.0
 70
    24
 71
     3
 72
     8
 73
     4
 74
     0
 42
0.000000001
 43
0.00000001
 40
0.0000002535875959
 40
0.0000002535875959
 40
0.0000002535875959
 40
0.0000002535875959
 40
0.0008708140238996
 40
0.0008708140238996
 40
0.0008708140238996
 40
0.0008708140238996
 10
78.28688945876904
 20
147.4411386265793
 30
0.0
 10
78.23573322691011
 20
147.6699984520276
 30
0.0
 10
78.18432499832899
 20
147.8999856460049
 30
0.0
 10
78.13263889350753
 20
148.1312159868198
 30
0.0
  0
LINE
  5
2F2
330
1F
100
AcDbEntity
  8
0
  6
HIDDEN
 62
     7
370
     0
100
AcDbLine
 10
78.2839965184
 20
147.4368817941
 30
0.0
 11
78.2868894588
 21
147.4411386266
 31
0.0
  0
SPLINE
  5
2F3
330
1F
100
AcDbEntity
  8
0
  6
HIDDEN
 62
     7
370
     0
100
AcDbSpline
210
0.0
220
0.0
230
1.0
 70
    24
 71
     3
 72
     8
 73
     4
 74
     0
 42
0.000000001
 43
0.00000001
 40
0.0000002479952473
 40
0.0000002479952473
 40
0.0000002479952473
 40
0.0000002479952473
 40
0.000870808431551
 40
0.000870808431551
 40
0.000870808431551
 40
0.000870808431551
 10
77.58559539507057
 20
147.32626592306
 30
0.0
 10
77.8196148530016
 20
147.3633309639295
 30
0.0
 10
78.05237616916784
 20
147.4001967347197
 30
0.0
 10
78.28399651840427
 20
147.4368817941012
 30
0.0
  0
SPLINE
  5
2F4
330
1F
100
AcDbEntity
  8
0
  6
HIDDEN
 62
     7
370
     0
100
AcDbSpline
210
0.0
220
0.0
230
1.0
 70
    24
 71
     3
 72
     8
 73
     4
 74
     0
 42
0.000000001
 43
0.00000001
 40
0.0000002505652553
 40
0.0000002505652553
 40
0.0000002505652553
 40
0.0000002505652553
 40
0.000870811001559
 40
0.000870811001559
 40
0.000870811001559
 40
0.000870811001559
 10
77.69621126611179
 20
146.6278647997263
 30
0.0
 10
77.6595262067302
 20
146.8594851489627
 30
0.0
 10
77.62266043594002
 20
147.092246465129
 30
0.0
 10
77.58559539507057
 20
147.32626592306
 30
0.0
  0
LINE
  5
2F5
330
1F
100
AcDbEntity
  8
0
  6
HIDDEN
 62
     7
370
     0
100
AcDbLine
 10
77.6930567456
 20
146.6237980164
 30
0.0
 11
77.6962112661
 21
146.6278647997
 31
0.0
  0
SPLINE
  5
2F6
330
1F
100
AcDbEntity
  8
0
  6
HIDDEN
 62
     7
370
     0
100
AcDbSpline
210
0.0
220
0.0
230
1.0
 70
    24
 71
     3
 72
     8
 73
     4
 74
     0
 42
0.000000001
 43
0.00000001
 40
0.0000002460339245
 40
0.0000002460339245
 40
0.0000002460339245
 40
0.0000002460339245
 40
0.0008708064702282
 40
0.0008708064702282
 40
0.0008708064702282
 40
0.0008708064702282
 10
76.98908812931894
 20
146.5572533898497
 30
0.0
 10
77.22497313647897
 20
146.5795510879842
 30
0.0
 10
77.4595899722578
 20
146.6017289086286
 30
0.0
 10
77.69305674558119
 20
146.6237980163633
 30
0.0
  0
SPLINE
  5
2F7
330
1F
100
AcDbEntity
  8
0
  6
HIDDEN
 62
     7
370
     0
100
AcDbSpline
210
0.0
220
0.0
230
1.0
 70
    24
 71
     3
 72
     8
 73
     4
 74
     0
 42
0.000000001
 43
0.00000001
 40
0.0000002485836013
 40
0.0000002485836013
 40
0.0000002485836013
 40
0.0000002485836013
 40
0.0008708090199051
 40
0.0008708090199051
 40
0.0008708090199051
 40
0.0008708090199051
 10
77.05563275583248
 20
145.8532847735874
 30
0.0
 10
77.0335636480978
 20
146.0867515469108
 30
0.0
 10
77.01138582745348
 20
146.3213683826897
 30
0.0
 10
76.98908812931894
 20
146.5572533898497
 30
0.0
  0
LINE
  5
2F8
330
1F
100
AcDbEntity
  8
0
  6
HIDDEN
 62
     7
370
     0
100
AcDbLine
 10
77.0522291046
 20
145.8494240891
 30
0.0
 11
77.0556327558
 21
145.8532847736
 31
0.0
  0
SPLINE
  5
2F9
330
1F
100
AcDbEntity
  8
0
  6
HIDDEN
 62
     7
370
     0
100
AcDbSpline
210
0.0
220
0.0
230
1.0
 70
    24
 71
     3
 72
     8
 73
     4
 74
     0
 42
0.000000001
 43
0.00000001
 40
0.0000002450629425
 40
0.0000002450629425
 40
0.0000002450629425
 40
0.0000002450629425
 40
0.0008708054992462
 40
0.0008708054992462
 40
0.0008708054992462
 40
0.0008708054992462
 10
76.3454712379123
 20
145.827213328329
 30
0.0
 10
76.58229086394368
 20
145.8346556849009
 30
0.0
 10
76.81783729387048
 20
145.8420580296734
 30
0.0
 10
77.05222910458734
 20
145.8494240890753
 30
0.0
  0
SPLINE
  5
2FA
330
1F
100
AcDbEntity
  8
0
  6
HIDDEN
 62
     7
370
     0
100
AcDbSpline
210
0.0
220
0.0
230
1.0
 70
    24
 71
     3
 72
     8
 73
     4
 74
     0
 42
0.000000001
 43
0.00000001
 40
0.0000002476025541
 40
0.0000002476025541
 40
0.0000002476025541
 40
0.0000002476025541
 40
0.0008708080388578
 40
0.0008708080388578
 40
0.0008708080388578
 40
0.0008708080388578
 10
76.36768199865867
 20
145.1204554616539
 30
0.0
 10
76.3603159392567
 20
145.3548472723708
 30
0.0
 10
76.35291359448425
 20
145.5903937022976
 30
0.0
 10
76.3454712379123
 20
145.827213328329
 30
0.0
  0
LWPOLYLINE
  5
2FB
330
1F
100
AcDbEntity
  8
0
  6
HIDDEN
 62
     7
370
     0
100
AcDbPolyline
 90
        9
 70
   128
 43
0.0
 10
76.3640427034
 20
145.1168159296
 10
76.3644971888
 20
145.117270415
 10
76.3649526055
 20
145.1177267631
 10
76.3654070909
 20
145.1181812485
 10
76.3658625077
 20
145.1186357339
 10
76.3663169931
 20
145.1190902193
 10
76.3667724098
 20
145.1195447047
 10
76.3672268953
 20
145.1200010528
 10
76.367682312
 20
145.1204555382
  0
SPLINE
  5
2FC
330
1F
100
AcDbEntity
  8
0
  6
HIDDEN
 62
     7
370
     0
100
AcDbSpline
210
0.0
220
0.0
230
1.0
 70
    24
 71
     3
 72
     8
 73
     4
 74
     0
 42
0.000000001
 43
0.00000001
 40
0.0000002450629425
 40
0.0000002450629425
 40
0.0000002450629425
 40
0.0000002450629425
 40
0.0008708054992462
 40
0.0008708054992462
 40
0.0008708054992462
 40
0.0008708054992462
 10
75.65728478268046
 20
145.1390268730972
 30
0.0
 10
75.89410440871184
 20
145.1315845165252
 30
0.0
 10
76.12965083863867
 20
145.1241821717528
 30
0.0
 10
76.36404264935554
 20
145.1168161123508
 30
0.0
  0
SPLINE
  5
2FD
330
1F
100
AcDbEntity
  8
0
  6
HIDDEN
 62
     7
370
     0
100
AcDbSpline
210
0.0
220
0.0
230
1.0
 70
    24
 71
     3
 72
     8
 73
     4
 74
     0
 42
0.000000001
 43
0.00000001
 40
0.0000002476025541
 40
0.0000002476025541
 40
0.0000002476025541
 40
0.0000002476025541
 40
0.0008708080388578
 40
0.0008708080388578
 40
0.0008708080388578
 40
0.0008708080388578
 10
75.6350740219341
 20
144.4322690064221
 30
0.0
 10
75.64244008133608
 20
144.6666608171389
 30
0.0
 10
75.64984242610852
 20
144.9022072470658
 30
0.0
 10
75.65728478268046
 20
145.1390268730972
 30
0.0
  0
LWPOLYLINE
  5
2FE
330
1F
100
AcDbEntity
  8
0
  6
HIDDEN
 62
     7
370
     0
100
AcDbPolyline
 90
        9
 70
   128
 43
0.0
 10
75.6312129091
 20
144.4288647075
 10
75.6316962655
 20
144.4292912533
 10
75.6321786906
 20
144.4297159364
 10
75.6326611157
 20
144.4301424821
 10
75.6331435408
 20
144.4305671652
 10
75.6336259659
 20
144.4309918483
 10
75.6341093223
 20
144.431418394
 10
75.6345917474
 20
144.4318430771
 10
75.6350741725
 20
144.4322696229
  0
SPLINE
  5
2FF
330
1F
100
AcDbEntity
  8
0
  6
HIDDEN
 62
     7
370
     0
100
AcDbSpline
210
0.0
220
0.0
230
1.0
 70
    24
 71
     3
 72
     8
 73
     4
 74
     0
 42
0.000000001
 43
0.00000001
 40
0.0000002460339245
 40
0.0000002460339245
 40
0.0000002460339245
 40
0.0000002460339245
 40
0.0008708064702282
 40
0.0008708064702282
 40
0.0008708064702282
 40
0.0008708064702282
 10
74.92724472115978
 20
144.4954099816906
 30
0.0
 10
75.1631297283198
 20
144.473112283556
 30
0.0
 10
75.39774656409861
 20
144.4509344629117
 30
0.0
 10
75.63121333742201
 20
144.428865355177
 30
0.0
  0
SPLINE
  5
300
330
1F
100
AcDbEntity
  8
0
  6
HIDDEN
 62
     7
370
     0
100
AcDbSpline
210
0.0
220
0.0
230
1.0
 70
    24
 71
     3
 72
     8
 73
     4
 74
     0
 42
0.000000001
 43
0.00000001
 40
0.0000002485836013
 40
0.0000002485836013
 40
0.0000002485836013
 40
0.0000002485836013
 40
0.0008708090199051
 40
0.0008708090199051
 40
0.0008708090199051
 40
0.0008708090199051
 10
74.86070009464619
 20
143.7914413654283
 30
0.0
 10
74.88276920238089
 20
144.0249081387517
 30
0.0
 10
74.9049470230252
 20
144.2595249745305
 30
0.0
 10
74.92724472115977
 20
144.4954099816905
 30
0.0
  0
LWPOLYLINE
  5
301
330
1F
100
AcDbEntity
  8
0
  6
HIDDEN
 62
     7
370
     0
100
AcDbPolyline
 90
        9
 70
   128
 43
0.0
 10
74.8566328551
 20
143.7882861395
 10
74.8571413572
 20
143.7886810203
 10
74.8576498594
 20
143.7890759011
 10
74.8581583615
 20
143.7894689192
 10
74.8586668636
 20
143.7898638
 10
74.8591753657
 20
143.7902586808
 10
74.8596838679
 20
143.7906516989
 10
74.8601914387
 20
143.7910465797
 10
74.8606999408
 20
143.7914414604
  0
SPLINE
  5
302
330
1F
100
AcDbEntity
  8
0
  6
HIDDEN
 62
     7
370
     0
100
AcDbSpline
210
0.0
220
0.0
230
1.0
 70
    24
 71
     3
 72
     8
 73
     4
 74
     0
 42
0.000000001
 43
0.00000001
 40
0.0000002479952473
 40
0.0000002479952473
 40
0.0000002479952473
 40
0.0000002479952473
 40
0.000870808431551
 40
0.000870808431551
 40
0.000870808431551
 40
0.000870808431551
 10
74.15823218794942
 20
143.8989027159389
 30
0.0
 10
74.39225164588044
 20
143.8618376750695
 30
0.0
 10
74.62501296204668
 20
143.8249719042793
 30
0.0
 10
74.85663331128312
 20
143.7882868448977
 30
0.0
  0
SPLINE
  5
303
330
1F
100
AcDbEntity
  8
0
  6
HIDDEN
 62
     7
370
     0
100
AcDbSpline
210
0.0
220
0.0
230
1.0
 70
    24
 71
     3
 72
     8
 73
     4
 74
     0
 42
0.000000001
 43
0.00000001
 40
0.0000002505652553
 40
0.0000002505652553
 40
0.0000002505652553
 40
0.0000002505652553
 40
0.000870811001559
 40
0.000870811001559
 40
0.000870811001559
 40
0.000870811001559
 10
74.04761631690815
 20
143.2005015926052
 30
0.0
 10
74.08430137628974
 20
143.4321219418416
 30
0.0
 10
74.12116714707994
 20
143.6648832580079
 30
0.0
 10
74.1582321879494
 20
143.8989027159389
 30
0.0
  0
LWPOLYLINE
  5
304
330
1F
100
AcDbEntity
  8
0
  6
HIDDEN
 62
     7
370
     0
100
AcDbPolyline
 90
        9
 70
   128
 43
0.0
 10
74.0433591421
 20
143.1976078351
 10
74.0438918586
 20
143.1979710509
 10
74.0444236438
 20
143.1983324041
 10
74.0449563603
 20
143.1986937572
 10
74.0454881455
 20
143.1990551104
 10
74.0460199307
 20
143.1994164635
 10
74.0465526472
 20
143.1997778167
 10
74.0470844324
 20
143.2001391699
 10
74.0476162176
 20
143.2005023857
  0
SPLINE
  5
305
330
1F
100
AcDbEntity
  8
0
  6
HIDDEN
 62
     7
370
     0
100
AcDbSpline
210
0.0
220
0.0
230
1.0
 70
    24
 71
     3
 72
     8
 73
     4
 74
     0
 42
0.000000001
 43
0.00000001
 40
0.0000002509865792
 40
0.0000002509865792
 40
0.0000002509865792
 40
0.0000002509865792
 40
0.0008708114228829
 40
0.0008708114228829
 40
0.0008708114228829
 40
0.0008708114228829
 10
73.35328212418959
 20
143.351859217502
 30
0.0
 10
73.5845124650045
 20
143.3001731126805
 30
0.0
 10
73.81449965898179
 20
143.2487648840994
 30
0.0
 10
74.04335948443011
 20
143.1976086522405
 30
0.0
  0
SPLINE
  5
306
330
1F
100
AcDbEntity
  8
0
  6
HIDDEN
 62
     7
370
     0
100
AcDbSpline
210
0.0
220
0.0
230
1.0
 70
    24
 71
     3
 72
     8
 73
     4
 74
     0
 42
0.000000001
 43
0.00000001
 40
0.0000002535875959
 40
0.0000002535875959
 40
0.0000002535875959
 40
0.0000002535875959
 40
0.0008708140238996
 40
0.0008708140238996
 40
0.0008708140238996
 40
0.0008708140238996
 10
73.19903155892806
 20
142.6617818572615
 30
0.0
 10
73.25018779078698
 20
142.8906416827098
 30
0.0
 10
73.30159601936812
 20
143.1206288766871
 30
0.0
 10
73.35328212418958
 20
143.351859217502
 30
0.0
  0
LINE
  5
307
330
1F
100
AcDbEntity
  8
0
  6
HIDDEN
 62
     7
370
     0
100
AcDbLine
 10
73.1946014771
 20
142.6591619142
 30
0.0
 11
73.1990315589
 21
142.6617818573
 31
0.0
  0
SPLINE
  5
308
330
1F
100
AcDbEntity
  8
0
  6
HIDDEN
 62
     7
370
     0
100
AcDbSpline
210
0.0
220
0.0
230
1.0
 70
    24
 71
     3
 72
     8
 73
     4
 74
     0
 42
0.000000001
 43
0.00000001
 40
0.0000002550698886
 40
0.0000002550698886
 40
0.0000002550698886
 40
0.0000002550698886
 40
0.0008708155061923
 40
0.0008708155061923
 40
0.0008708155061923
 40
0.0008708155061923
 10
72.51557130003525
 20
142.8564384171476
 30
0.0
 10
72.7430999632179
 20
142.7903352298168
 30
0.0
 10
72.96940538062277
 20
142.7245874282367
 30
0.0
 10
73.19460147710805
 20
142.6591619141765
 30
0.0
  0
SPLINE
  5
309
330
1F
100
AcDbEntity
  8
0
  6
HIDDEN
 62
     7
370
     0
100
AcDbSpline
210
0.0
220
0.0
230
1.0
 70
    24
 71
     3
 72
     8
 73
     4
 74
     0
 42
0.000000001
 43
0.00000001
 40
0.0000002577132338
 40
0.0000002577132338
 40
0.0000002577132338
 40
0.0000002577132338
 40
0.0008708181495375
 40
0.0008708181495375
 40
0.0008708181495375
 40
0.0008708181495375
 10
72.31829479706417
 20
142.1774082400748
 30
0.0
 10
72.38372031112434
 20
142.4026043365601
 30
0.0
 10
72.44946811270438
 20
142.628909753965
 30
0.0
 10
72.51557130003525
 20
142.8564384171476
 30
0.0
  0
LINE
  5
30A
330
1F
100
AcDbEntity
  8
0
  6
HIDDEN
 62
     7
370
     0
100
AcDbLine
 10
72.3137089494
 20
142.175071634
 30
0.0
 11
72.3182947971
 21
142.1774082401
 31
0.0
  0
SPLINE
  5
30B
330
1F
100
AcDbEntity
  8
0
  6
HIDDEN
 62
     7
370
     0
100
AcDbSpline
210
0.0
220
0.0
230
1.0
 70
    24
 71
     3
 72
     8
 73
     4
 74
     0
 42
0.000000001
 43
0.00000001
 40
0.0000002603326621
 40
0.0000002603326621
 40
0.0000002603326621
 40
0.0000002603326621
 40
0.0008708207689658
 40
0.0008708207689658
 40
0.0008708207689658
 40
0.0008708207689658
 10
71.64840577739568
 20
142.4145955144386
 30
0.0
 10
71.87133481126047
 20
142.3343361236791
 30
0.0
 10
72.09306532799953
 20
142.2545082256356
 30
0.0
 10
72.31370894941122
 20
142.1750716339882
 30
0.0
  0
SPLINE
  5
30C
330
1F
100
AcDbEntity
  8
0
  6
HIDDEN
 62
     7
370
     0
100
AcDbSpline
210
0.0
220
0.0
230
1.0
 70
    24
 71
     3
 72
     8
 73
     4
 74
     0
 42
0.000000001
 43
0.00000001
 40
0.0000002630305631
 40
0.0000002630305631
 40
0.0000002630305631
 40
0.0000002630305631
 40
0.0008708234668668
 40
0.0008708234668668
 40
0.0008708234668668
 40
0.0008708234668668
 10
71.40888189694516
 20
141.7492923424231
 30
0.0
 10
71.48831848859267
 20
141.9699359638348
 30
0.0
 10
71.56814638663609
 20
142.1916664805738
 30
0.0
 10
71.64840577739565
 20
142.4145955144386
 30
0.0
  0
LWPOLYLINE
  5
30D
330
1F
100
AcDbEntity
  8
0
  6
HIDDEN
 62
     7
370
     0
100
AcDbPolyline
 90
        9
 70
   128
 43
0.0
 10
71.4041586037
 20
141.7472498764
 10
71.4047490622
 20
141.7475031962
 10
71.4053395207
 20
141.7477602412
 10
71.4059299792
 20
141.7480135609
 10
71.4065204378
 20
141.748270606
 10
71.4071108963
 20
141.7485239257
 10
71.4077013548
 20
141.7487809707
 10
71.4082918133
 20
141.7490380158
 10
71.4088822718
 20
141.7492913355
  0
SPLINE
  5
30E
330
1F
100
AcDbEntity
  8
0
  6
HIDDEN
 62
     7
370
     0
100
AcDbSpline
210
0.0
220
0.0
230
1.0
 70
    24
 71
     3
 72
     8
 73
     4
 74
     0
 42
0.000000001
 43
0.00000001
 40
0.000000266892673
 40
0.000000266892673
 40
0.000000266892673
 40
0.000000266892673
 40
0.0008708273289767
 40
0.0008708273289767
 40
0.0008708273289767
 40
0.0008708273289767
 10
70.75520786241849
 20
142.0280742614532
 30
0.0
 10
70.97265746791533
 20
141.9339754144133
 30
0.0
 10
71.18893801493803
 20
141.8403824641501
 30
0.0
 10
71.40415838170493
 20
141.7472482948514
 30
0.0
  0
SPLINE
  5
30F
330
1F
100
AcDbEntity
  8
0
  6
HIDDEN
 62
     7
370
     0
100
AcDbSpline
210
0.0
220
0.0
230
1.0
 70
    24
 71
     3
 72
     8
 73
     4
 74
     0
 42
0.000000001
 43
0.00000001
 40
0.0000002696585783
 40
0.0000002696585783
 40
0.0000002696585783
 40
0.0000002696585783
 40
0.000870830094882
 40
0.000870830094882
 40
0.000870830094882
 40
0.000870830094882
 10
70.47438189581668
 20
141.3791237421667
 30
0.0
 10
70.56751606511537
 20
141.5943441089336
 30
0.0
 10
70.6611090153785
 20
141.8106246559563
 30
0.0
 10
70.75520786241846
 20
142.0280742614532
 30
0.0
  0
LWPOLYLINE
  5
310
330
1F
100
AcDbEntity
  8
0
  6
HIDDEN
 62
     7
370
     0
100
AcDbPolyline
 90
        9
 70
   128
 43
0.0
 10
70.4695391472
 20
141.3773807039
 10
70.4701445069
 20
141.3775967707
 10
70.4707498665
 20
141.3778165628
 10
70.4713552262
 20
141.3780326297
 10
70.4719605859
 20
141.3782524218
 10
70.4725659456
 20
141.3784684886
 10
70.4731713052
 20
141.3786882808
 10
70.4737766649
 20
141.3789043476
 10
70.4743820246
 20
141.3791241397
  0
SPLINE
  5
311
330
1F
100
AcDbEntity
  8
0
  6
HIDDEN
 62
     7
370
     0
100
AcDbSpline
210
0.0
220
0.0
230
1.0
 70
    24
 71
     3
 72
     8
 73
     4
 74
     0
 42
0.000000001
 43
0.00000001
 40
0.0000002749048029
 40
0.0000002749048029
 40
0.0000002749048029
 40
0.0000002749048029
 40
0.0008708353411066
 40
0.0008708353411066
 40
0.0008708353411066
 40
0.0008708353411066
 10
69.83950259921073
 20
141.6984000809921
 30
0.0
 10
70.05061460209002
 20
141.5908331428313
 30
0.0
 10
70.26059161888648
 20
141.4838445089646
 30
0.0
 10
70.46953935454577
 20
141.3773803200319
 30
0.0
  0
SPLINE
  5
312
330
1F
100
AcDbEntity
  8
0
  6
HIDDEN
 62
     7
370
     0
100
AcDbSpline
210
0.0
220
0.0
230
1.0
 70
    24
 71
     3
 72
     8
 73
     4
 74
     0
 42
0.000000001
 43
0.00000001
 40
0.0000002777537673
 40
0.0000002777537673
 40
0.0000002777537673
 40
0.0000002777537673
 40
0.000870838190071
 40
0.000870838190071
 40
0.000870838190071
 40
0.000870838190071
 10
69.51848283825062
 20
141.068363325657
 30
0.0
 10
69.62494702718328
 20
141.2773110613163
 30
0.0
 10
69.73193566104999
 20
141.4872880781128
 30
0.0
 10
69.83950259921073
 20
141.6984000809921
 30
0.0
  0
LWPOLYLINE
  5
313
330
1F
100
AcDbEntity
  8
0
  6
HIDDEN
 62
     7
370
     0
100
AcDbPolyline
 90
        9
 70
   128
 43
0.0
 10
69.5135402496
 20
141.0669261863
 10
69.5141586478
 20
141.0671050002
 10
69.5147751834
 20
141.0672875394
 10
69.5153935816
 20
141.0674663533
 10
69.5160119797
 20
141.0676451673
 10
69.5166303779
 20
141.0678239812
 10
69.5172469135
 20
141.0680027952
 10
69.5178653117
 20
141.0681853344
 10
69.5184837099
 20
141.0683641483
  0
SPLINE
  5
314
330
1F
100
AcDbEntity
  8
0
  6
HIDDEN
 62
     7
370
     0
100
AcDbSpline
210
0.0
220
0.0
230
1.0
 70
    24
 71
     3
 72
     8
 73
     4
 74
     0
 42
0.000000001
 43
0.00000001
 40
0.0000002845706964
 40
0.0000002845706964
 40
0.0000002845706964
 40
0.0000002845706964
 40
0.0008708450070001
 40
0.0008708450070001
 40
0.0008708450070001
 40
0.0008708450070001
 10
68.90490385810044
 20
141.4268740464317
 30
0.0
 10
69.10884509573471
 20
141.3062635347124
 30
0.0
 10
69.31168989894898
 20
141.1863014525015
 30
0.0
 10
69.51354038224717
 20
141.0669274094498
 30
0.0
  0
SPLINE
  5
315
330
1F
100
AcDbEntity
  8
0
  6
HIDDEN
 62
     7
370
     0
100
AcDbSpline
210
0.0
220
0.0
230
1.0
 70
    24
 71
     3
 72
     8
 73
     4
 74
     0
 42
0.000000001
 43
0.00000001
 40
0.000000287519866
 40
0.000000287519866
 40
0.000000287519866
 40
0.000000287519866
 40
0.0008708479561697
 40
0.0008708479561697
 40
0.0008708479561697
 40
0.0008708479561697
 10
68.54495722111852
 20
140.8182375222849
 30
0.0
 10
68.66433126417026
 20
141.0200880055831
 30
0.0
 10
68.78429334638113
 20
141.2229328087974
 30
0.0
 10
68.90490385810041
 20
141.4268740464317
 30
0.0
  0
LINE
  5
316
330
1F
100
AcDbEntity
  8
0
  6
HIDDEN
 62
     7
370
     0
100
AcDbLine
 10
68.539934356
 20
140.8171147789
 30
0.0
 11
68.5449572211
 21
140.8182375223
 31
0.0
  0
SPLINE
  5
317
330
1F
100
AcDbEntity
  8
0
  6
HIDDEN
 62
     7
370
     0
100
AcDbSpline
210
0.0
220
0.0
230
1.0
 70
    24
 71
     3
 72
     8
 73
     4
 74
     0
 42
0.000000001
 43
0.00000001
 40
0.0000002961524522
 40
0.0000002961524522
 40
0.0000002961524522
 40
0.0000002961524522
 40
0.0008708565887559
 40
0.0008708565887559
 40
0.0008708565887559
 40
0.0008708565887559
 10
67.95510007334113
 20
141.2145677469821
 30
0.0
 10
68.15106568283733
 20
141.0813896562923
 30
0.0
 10
68.3459777367021
 20
140.9489275612703
 30
0.0
 10
68.53993435599834
 20
140.8171147789105
 30
0.0
  0
SPLINE
  5
318
330
1F
100
AcDbEntity
  8
0
  6
HIDDEN
 62
     7
370
     0
100
AcDbSpline
210
0.0
220
0.0
230
1.0
 70
    24
 71
     3
 72
     8
 73
     4
 74
     0
 42
0.000000001
 43
0.00000001
 40
0.0000002992216915
 40
0.0000002992216915
 40
0.0000002992216915
 40
0.0000002992216915
 40
0.0008708596579952
 40
0.0008708596579952
 40
0.0008708596579952
 40
0.0008708596579952
 10
67.55764710526961
 20
140.6297334643248
 30
0.0
 10
67.68945988762934
 20
140.8236900836211
 30
0.0
 10
67.82192198265135
 20
141.0186021374859
 30
0.0
 10
67.9551000733411
 20
141.2145677469821
 30
0.0
  0
LWPOLYLINE
  5
319
330
1F
100
AcDbEntity
  8
0
  6
HIDDEN
 62
     7
370
     0
100
AcDbPolyline
 90
        9
 70
   128
 43
0.0
 10
67.5525642003
 20
140.6289289047
 10
67.5531993623
 20
140.6290294875
 10
67.5538345243
 20
140.6291300704
 10
67.5544696863
 20
140.6292306532
 10
67.5551048483
 20
140.6293312361
 10
67.5557400103
 20
140.6294318189
 10
67.5563770349
 20
140.6295324017
 10
67.5570121969
 20
140.6296329846
 10
67.5576473589
 20
140.6297335674
  0
SPLINE
  5
31A
330
1F
100
AcDbEntity
  8
0
  6
HIDDEN
 62
     7
370
     0
100
AcDbSpline
210
0.0
220
0.0
230
1.0
 70
    24
 71
     3
 72
     8
 73
     4
 74
     0
 42
0.000000001
 43
0.00000001
 40
0.0000003099922359
 40
0.0000003099922359
 40
0.0000003099922359
 40
0.0000003099922359
 40
0.0008708704285396
 40
0.0008708704285396
 40
0.0008708704285396
 40
0.0008708704285396
 10
66.99383968654723
 20
141.0623190586136
 30
0.0
 10
67.18105628117284
 20
140.917098982034
 30
0.0
 10
67.36726635685835
 20
140.7726596415737
 30
0.0
 10
67.55256365398661
 20
140.6289283247384
 30
0.0
  0
SPLINE
  5
31B
330
1F
100
AcDbEntity
  8
0
  6
HIDDEN
 62
     7
370
     0
100
AcDbSpline
210
0.0
220
0.0
230
1.0
 70
    24
 71
     3
 72
     8
 73
     4
 74
     0
 42
0.000000001
 43
0.00000001
 40
0.0000003132049583
 40
0.0000003132049583
 40
0.0000003132049583
 40
0.0000003132049583
 40
0.000870873641262
 40
0.000870873641262
 40
0.000870873641262
 40
0.000870873641262
 10
66.56044895267209
 20
140.5035950911742
 30
0.0
 10
66.70418026950736
 20
140.6888923883024
 30
0.0
 10
66.84861960996761
 20
140.8751024639879
 30
0.0
 10
66.99383968654719
 20
141.0623190586136
 30
0.0
  0
LWPOLYLINE
  5
31C
330
1F
100
AcDbEntity
  8
0
  6
HIDDEN
 62
     7
370
     0
100
AcDbPolyline
 90
        9
 70
   128
 43
0.0
 10
66.5553244765
 20
140.5031109502
 10
66.5559652265
 20
140.5031705548
 10
66.5566059764
 20
140.5032301595
 10
66.5572467263
 20
140.5032934894
 10
66.5578874763
 20
140.503353094
 10
66.5585282262
 20
140.5034126987
 10
66.5591671135
 20
140.5034723033
 10
66.5598078634
 20
140.5035356333
 10
66.5604486133
 20
140.5035952379
  0
SPLINE
  5
31D
330
1F
100
AcDbEntity
  8
0
  6
HIDDEN
 62
     7
370
     0
100
AcDbSpline
210
0.0
220
0.0
230
1.0
 70
    24
 71
     3
 72
     8
 73
     4
 74
     0
 42
0.000000001
 43
0.00000001
 40
0.0000003265408331
 40
0.0000003265408331
 40
0.0000003265408331
 40
0.0000003265408331
 40
0.0008708869771367
 40
0.0008708869771367
 40
0.0008708869771367
 40
0.0008708869771367
 10
66.02491635330733
 20
140.9707288373434
 30
0.0
 10
66.20264507469447
 20
140.8140398921715
 30
0.0
 10
66.3794182861033
 20
140.6581933423618
 30
0.0
 10
66.5553249772861
 20
140.5031107328939
 30
0.0
  0
SPLINE
  5
31E
330
1F
100
AcDbEntity
  8
0
  6
HIDDEN
 62
     7
370
     0
100
AcDbSpline
210
0.0
220
0.0
230
1.0
 70
    24
 71
     3
 72
     8
 73
     4
 74
     0
 42
0.000000001
 43
0.00000001
 40
0.0000003299251282
 40
0.0000003299251282
 40
0.0000003299251282
 40
0.0000003299251282
 40
0.0008708903614319
 40
0.0008708903614319
 40
0.0008708903614319
 40
0.0008708903614319
 10
65.55729824885782
 20
140.4403202133646
 30
0.0
 10
65.71238085832567
 20
140.6162269045474
 30
0.0
 10
65.86822740813544
 20
140.7930001159562
 30
0.0
 10
66.02491635330732
 20
140.9707288373434
 30
0.0
  0
LWPOLYLINE
  5
31F
330
1F
100
AcDbEntity
  8
0
  6
HIDDEN
 62
     7
370
     0
100
AcDbPolyline
 90
        9
 70
   128
 43
0.0
 10
65.5521540906
 20
140.4401572694
 10
65.5527967031
 20
140.4401796212
 10
65.5534393157
 20
140.4401982476
 10
65.5540837909
 20
140.4402205993
 10
65.5547264035
 20
140.4402392258
 10
65.5553690161
 20
140.4402578522
 10
65.5560116287
 20
140.440280204
 10
65.5566561039
 20
140.4402988304
 10
65.5572987165
 20
140.4403211822
  0
SPLINE
  5
320
330
1F
100
AcDbEntity
  8
0
  6
HIDDEN
 62
     7
370
     0
100
AcDbSpline
210
0.0
220
0.0
230
1.0
 70
    24
 71
     3
 72
     8
 73
     4
 74
     0
 42
0.000000001
 43
0.00000001
 40
0.0000003464001047
 40
0.0000003464001047
 40
0.0000003464001047
 40
0.0000003464001047
 40
0.0008709068364084
 40
0.0008709068364084
 40
0.0008709068364084
 40
0.0008709068364084
 10
65.05215397135893
 20
140.9401585479313
 30
0.0
 10
65.21969340544086
 20
140.7726191138494
 30
0.0
 10
65.38633210946756
 20
140.6059804098227
 30
0.0
 10
65.55215397135893
 20
140.4401585479314
 30
0.0
  0
SPLINE
  5
321
330
1F
100
AcDbEntity
  8
0
  6
HIDDEN
 62
     7
370
     0
100
AcDbSpline
210
0.0
220
0.0
230
1.0
 70
    24
 71
     3
 72
     8
 73
     4
 74
     0
 42
0.000000001
 43
0.00000001
 40
0.0000003499903057
 40
0.0000003499903057
 40
0.0000003499903057
 40
0.0000003499903057
 40
0.0008709104266094
 40
0.0008709104266094
 40
0.0008709104266094
 40
0.0008709104266094
 10
64.5521539713589
 20
140.4401585479314
 30
0.0
 10
64.71797583325028
 20
140.6059804098227
 30
0.0
 10
64.88461453727697
 20
140.7726191138494
 30
0.0
 10
65.0521539713589
 20
140.9401585479313
 30
0.0
  0
LWPOLYLINE
  5
322
330
1F
100
AcDbEntity
  8
0
  6
HIDDEN
 62
     7
370
     0
100
AcDbPolyline
 90
        9
 70
   128
 43
0.0
 10
64.5470093008
 20
140.4403211822
 10
64.5476519133
 20
140.4402988304
 10
64.5482963886
 20
140.440280204
 10
64.5489390011
 20
140.4402578522
 10
64.5495816137
 20
140.4402392258
 10
64.5502242263
 20
140.4402205993
 10
64.5508687015
 20
140.4401982476
 10
64.5515113141
 20
140.4401796212
 10
64.5521539267
 20
140.4401572694
  0
SPLINE
  5
323
330
1F
100
AcDbEntity
  8
0
  6
HIDDEN
 62
     7
370
     0
100
AcDbSpline
210
0.0
220
0.0
230
1.0
 70
    24
 71
     3
 72
     8
 73
     4
 74
     0
 42
0.000000001
 43
0.00000001
 40
0.0000003265408331
 40
0.0000003265408331
 40
0.0000003265408331
 40
0.0000003265408331
 40
0.0008708869771367
 40
0.0008708869771367
 40
0.0008708869771367
 40
0.0008708869771367
 10
64.07939158941032
 20
140.9707288373434
 30
0.0
 10
64.23608053458219
 20
140.7930001159562
 30
0.0
 10
64.39192708439195
 20
140.6162269045474
 30
0.0
 10
64.54700969385979
 20
140.4403202133646
 30
0.0
  0
SPLINE
  5
324
330
1F
100
AcDbEntity
  8
0
  6
HIDDEN
 62
     7
370
     0
100
AcDbSpline
210
0.0
220
0.0
230
1.0
 70
    24
 71
     3
 72
     8
 73
     4
 74
     0
 42
0.000000001
 43
0.00000001
 40
0.0000003299251282
 40
0.0000003299251282
 40
0.0000003299251282
 40
0.0000003299251282
 40
0.0008708903614319
 40
0.0008708903614319
 40
0.0008708903614319
 40
0.0008708903614319
 10
63.54898296543151
 20
140.503110732894
 30
0.0
 10
63.72488965661431
 20
140.6581933423618
 30
0.0
 10
63.90166286802314
 20
140.8140398921716
 30
0.0
 10
64.07939158941028
 20
140.9707288373434
 30
0.0
  0
LWPOLYLINE
  5
325
330
1F
100
AcDbEntity
  8
0
  6
HIDDEN
 62
     7
370
     0
100
AcDbPolyline
 90
        9
 70
   128
 43
0.0
 10
63.5438594039
 20
140.5035952379
 10
63.5445001538
 20
140.5035356333
 10
63.5451390411
 20
140.5034723033
 10
63.545779791
 20
140.5034126987
 10
63.546420541
 20
140.503353094
 10
63.5470612909
 20
140.5032934894
 10
63.5477020408
 20
140.5032301595
 10
63.5483427908
 20
140.5031705548
 10
63.5489835407
 20
140.5031109502
  0
SPLINE
  5
326
330
1F
100
AcDbEntity
  8
0
  6
HIDDEN
 62
     7
370
     0
100
AcDbSpline
210
0.0
220
0.0
230
1.0
 70
    24
 71
     3
 72
     8
 73
     4
 74
     0
 42
0.000000001
 43
0.00000001
 40
0.0000003099922359
 40
0.0000003099922359
 40
0.0000003099922359
 40
0.0000003099922359
 40
0.0008708704285396
 40
0.0008708704285396
 40
0.0008708704285396
 40
0.0008708704285396
 10
63.11046825617038
 20
141.0623190586136
 30
0.0
 10
63.25568833274994
 20
140.875102463988
 30
0.0
 10
63.4001276732102
 20
140.6888923883025
 30
0.0
 10
63.54385899004547
 20
140.5035950911742
 30
0.0
  0
SPLINE
  5
327
330
1F
100
AcDbEntity
  8
0
  6
HIDDEN
 62
     7
370
     0
100
AcDbSpline
210
0.0
220
0.0
230
1.0
 70
    24
 71
     3
 72
     8
 73
     4
 74
     0
 42
0.000000001
 43
0.00000001
 40
0.0000003132049584
 40
0.0000003132049584
 40
0.0000003132049584
 40
0.0000003132049584
 40
0.0008708736412621
 40
0.0008708736412621
 40
0.0008708736412621
 40
0.0008708736412621
 10
62.55174428873097
 20
140.6289283247385
 30
0.0
 10
62.73704158585923
 20
140.7726596415738
 30
0.0
 10
62.92325166154475
 20
140.917098982034
 30
0.0
 10
63.11046825617036
 20
141.0623190586136
 30
0.0
  0
LWPOLYLINE
  5
328
330
1F
100
AcDbEntity
  8
0
  6
HIDDEN
 62
     7
370
     0
100
AcDbPolyline
 90
        9
 70
   128
 43
0.0
 10
62.5466606583
 20
140.6297335674
 10
62.5472958203
 20
140.6296329846
 10
62.5479309823
 20
140.6295324017
 10
62.5485680069
 20
140.6294318189
 10
62.5492031689
 20
140.6293312361
 10
62.5498383309
 20
140.6292306532
 10
62.5504734929
 20
140.6291300704
 10
62.5511086549
 20
140.6290294875
 10
62.5517438169
 20
140.6289289047
  0
SPLINE
  5
329
330
1F
100
AcDbEntity
  8
0
  6
HIDDEN
 62
     7
370
     0
100
AcDbSpline
210
0.0
220
0.0
230
1.0
 70
    24
 71
     3
 72
     8
 73
     4
 74
     0
 42
0.000000001
 43
0.00000001
 40
0.0000002961524522
 40
0.0000002961524522
 40
0.0000002961524522
 40
0.0000002961524522
 40
0.0008708565887559
 40
0.0008708565887559
 40
0.0008708565887559
 40
0.0008708565887559
 10
62.14920786937648
 20
141.2145677469821
 30
0.0
 10
62.28238596006623
 20
141.0186021374859
 30
0.0
 10
62.41484805508824
 20
140.8236900836211
 30
0.0
 10
62.54666083744796
 20
140.6297334643249
 30
0.0
  0
SPLINE
  5
32A
330
1F
100
AcDbEntity
  8
0
  6
HIDDEN
 62
     7
370
     0
100
AcDbSpline
210
0.0
220
0.0
230
1.0
 70
    24
 71
     3
 72
     8
 73
     4
 74
     0
 42
0.000000001
 43
0.00000001
 40
0.0000002992216915
 40
0.0000002992216915
 40
0.0000002992216915
 40
0.0000002992216915
 40
0.0008708596579952
 40
0.0008708596579952
 40
0.0008708596579952
 40
0.0008708596579952
 10
61.56437358671928
 20
140.8171147789106
 30
0.0
 10
61.75833020601551
 20
140.9489275612703
 30
0.0
 10
61.95324225988028
 20
141.0813896562923
 30
0.0
 10
62.14920786937647
 20
141.2145677469821
 30
0.0
  0
LINE
  5
32B
330
1F
100
AcDbEntity
  8
0
  6
HIDDEN
 62
     7
370
     0
100
AcDbLine
 10
61.5593507216
 20
140.8182375223
 30
0.0
 11
61.5643735867
 21
140.8171147789
 31
0.0
  0
SPLINE
  5
32C
330
1F
100
AcDbEntity
  8
0
  6
HIDDEN
 62
     7
370
     0
100
AcDbSpline
210
0.0
220
0.0
230
1.0
 70
    24
 71
     3
 72
     8
 73
     4
 74
     0
 42
0.000000001
 43
0.00000001
 40
0.0000002845706964
 40
0.0000002845706964
 40
0.0000002845706964
 40
0.0000002845706964
 40
0.0008708450070001
 40
0.0008708450070001
 40
0.0008708450070001
 40
0.0008708450070001
 10
61.19940408461724
 20
141.4268740464317
 30
0.0
 10
61.32001459633651
 20
141.2229328087975
 30
0.0
 10
61.43997667854737
 20
141.0200880055832
 30
0.0
 10
61.55935072159911
 20
140.818237522285
 30
0.0
  0
SPLINE
  5
32D
330
1F
100
AcDbEntity
  8
0
  6
HIDDEN
 62
     7
370
     0
100
AcDbSpline
210
0.0
220
0.0
230
1.0
 70
    24
 71
     3
 72
     8
 73
     4
 74
     0
 42
0.000000001
 43
0.00000001
 40
0.000000287519866
 40
0.000000287519866
 40
0.000000287519866
 40
0.000000287519866
 40
0.0008708479561697
 40
0.0008708479561697
 40
0.0008708479561697
 40
0.0008708479561697
 10
60.59076756047047
 20
141.0669274094498
 30
0.0
 10
60.79261804376868
 20
141.1863014525016
 30
0.0
 10
60.99546284698294
 20
141.3062635347125
 30
0.0
 10
61.19940408461721
 20
141.4268740464317
 30
0.0
  0
LWPOLYLINE
  5
32E
330
1F
100
AcDbEntity
  8
0
  6
HIDDEN
 62
     7
370
     0
100
AcDbPolyline
 90
        9
 70
   128
 43
0.0
 10
60.5858243074
 20
141.0683641483
 10
60.5864427056
 20
141.0681853344
 10
60.5870611037
 20
141.0680027952
 10
60.5876776393
 20
141.0678239812
 10
60.5882960375
 20
141.0676451673
 10
60.5889144357
 20
141.0674663533
 10
60.5895328339
 20
141.0672875394
 10
60.5901493694
 20
141.0671050002
 10
60.5907677676
 20
141.0669261863
  0
SPLINE
  5
32F
330
1F
100
AcDbEntity
  8
0
  6
HIDDEN
 62
     7
370
     0
100
AcDbSpline
210
0.0
220
0.0
230
1.0
 70
    24
 71
     3
 72
     8
 73
     4
 74
     0
 42
0.000000001
 43
0.00000001
 40
0.0000002749048029
 40
0.0000002749048029
 40
0.0000002749048029
 40
0.0000002749048029
 40
0.0008708353411066
 40
0.0008708353411066
 40
0.0008708353411066
 40
0.0008708353411066
 10
60.26480534350687
 20
141.6984000809921
 30
0.0
 10
60.37237228166762
 20
141.4872880781128
 30
0.0
 10
60.47936091553432
 20
141.2773110613164
 30
0.0
 10
60.58582510446697
 20
141.0683633256571
 30
0.0
  0
SPLINE
  5
330
330
1F
100
AcDbEntity
  8
0
  6
HIDDEN
 62
     7
370
     0
100
AcDbSpline
210
0.0
220
0.0
230
1.0
 70
    24
 71
     3
 72
     8
 73
     4
 74
     0
 42
0.000000001
 43
0.00000001
 40
0.0000002777537673
 40
0.0000002777537673
 40
0.0000002777537673
 40
0.0000002777537673
 40
0.000870838190071
 40
0.000870838190071
 40
0.000870838190071
 40
0.000870838190071
 10
59.63476858817183
 20
141.377380320032
 30
0.0
 10
59.84371632383113
 20
141.4838445089646
 30
0.0
 10
60.05369334062758
 20
141.5908331428313
 30
0.0
 10
60.26480534350687
 20
141.6984000809921
 30
0.0
  0
LWPOLYLINE
  5
331
330
1F
100
AcDbEntity
  8
0
  6
HIDDEN
 62
     7
370
     0
100
AcDbPolyline
 90
        9
 70
   128
 43
0.0
 10
59.6299259927
 20
141.3791241397
 10
59.6305313523
 20
141.3789043476
 10
59.631136712
 20
141.3786882808
 10
59.6317420717
 20
141.3784684886
 10
59.6323474313
 20
141.3782524218
 10
59.632952791
 20
141.3780326297
 10
59.6335581507
 20
141.3778165628
 10
59.6341635104
 20
141.3775967707
 10
59.63476887
 20
141.3773807039
  0
SPLINE
  5
332
330
1F
100
AcDbEntity
  8
0
  6
HIDDEN
 62
     7
370
     0
100
AcDbSpline
210
0.0
220
0.0
230
1.0
 70
    24
 71
     3
 72
     8
 73
     4
 74
     0
 42
0.000000001
 43
0.00000001
 40
0.000000266892673
 40
0.000000266892673
 40
0.000000266892673
 40
0.000000266892673
 40
0.0008708273289767
 40
0.0008708273289767
 40
0.0008708273289767
 40
0.0008708273289767
 10
59.34910008029919
 20
142.0280742614533
 30
0.0
 10
59.44319892733913
 20
141.8106246559564
 30
0.0
 10
59.53679187760227
 20
141.5943441089337
 30
0.0
 10
59.62992604690097
 20
141.3791237421668
 30
0.0
  0
SPLINE
  5
333
330
1F
100
AcDbEntity
  8
0
  6
HIDDEN
 62
     7
370
     0
100
AcDbSpline
210
0.0
220
0.0
230
1.0
 70
    24
 71
     3
 72
     8
 73
     4
 74
     0
 42
0.000000001
 43
0.00000001
 40
0.0000002696585783
 40
0.0000002696585783
 40
0.0000002696585783
 40
0.0000002696585783
 40
0.0008708300948821
 40
0.0008708300948821
 40
0.0008708300948821
 40
0.0008708300948821
 10
58.70014956101267
 20
141.7472482948515
 30
0.0
 10
58.91536992777958
 20
141.8403824641502
 30
0.0
 10
59.13165047480229
 20
141.9339754144134
 30
0.0
 10
59.34910008029915
 20
142.0280742614533
 30
0.0
  0
LWPOLYLINE
  5
334
330
1F
100
AcDbEntity
  8
0
  6
HIDDEN
 62
     7
370
     0
100
AcDbPolyline
 90
        9
 70
   128
 43
0.0
 10
58.6954257454
 20
141.7492913355
 10
58.6960162039
 20
141.7490380158
 10
58.6966066624
 20
141.7487809707
 10
58.6971971209
 20
141.7485239257
 10
58.6977875795
 20
141.748270606
 10
58.698378038
 20
141.7480135609
 10
58.6989684965
 20
141.7477602412
 10
58.699558955
 20
141.7475031962
 10
58.7001494135
 20
141.7472498764
  0
SPLINE
  5
335
330
1F
100
AcDbEntity
  8
0
  6
HIDDEN
 62
     7
370
     0
100
AcDbSpline
210
0.0
220
0.0
230
1.0
 70
    24
 71
     3
 72
     8
 73
     4
 74
     0
 42
0.000000001
 43
0.00000001
 40
0.0000002603326621
 40
0.0000002603326621
 40
0.0000002603326621
 40
0.0000002603326621
 40
0.0008708207689658
 40
0.0008708207689658
 40
0.0008708207689658
 40
0.0008708207689658
 10
58.45590216532197
 20
142.4145955144388
 30
0.0
 10
58.53616155608153
 20
142.1916664805739
 30
0.0
 10
58.61598945412496
 20
141.9699359638349
 30
0.0
 10
58.69542604577245
 20
141.7492923424232
 30
0.0
  0
SPLINE
  5
336
330
1F
100
AcDbEntity
  8
0
  6
HIDDEN
 62
     7
370
     0
100
AcDbSpline
210
0.0
220
0.0
230
1.0
 70
    24
 71
     3
 72
     8
 73
     4
 74
     0
 42
0.000000001
 43
0.00000001
 40
0.0000002630305631
 40
0.0000002630305631
 40
0.0000002630305631
 40
0.0000002630305631
 40
0.0008708234668668
 40
0.0008708234668668
 40
0.0008708234668668
 40
0.0008708234668668
 10
57.79059899330641
 20
142.1750716339883
 30
0.0
 10
58.01124261471811
 20
142.2545082256358
 30
0.0
 10
58.23297313145716
 20
142.3343361236792
 30
0.0
 10
58.45590216532194
 20
142.4145955144388
 30
0.0
  0
LINE
  5
337
330
1F
100
AcDbEntity
  8
0
  6
HIDDEN
 62
     7
370
     0
100
AcDbLine
 10
57.7860131457
 20
142.1774082401
 30
0.0
 11
57.7905989933
 21
142.175071634
 31
0.0
  0
SPLINE
  5
338
330
1F
100
AcDbEntity
  8
0
  6
HIDDEN
 62
     7
370
     0
100
AcDbSpline
210
0.0
220
0.0
230
1.0
 70
    24
 71
     3
 72
     8
 73
     4
 74
     0
 42
0.000000001
 43
0.00000001
 40
0.0000002550698886
 40
0.0000002550698886
 40
0.0000002550698886
 40
0.0000002550698886
 40
0.0008708155061923
 40
0.0008708155061923
 40
0.0008708155061923
 40
0.0008708155061923
 10
57.58873664268238
 20
142.8564384171477
 30
0.0
 10
57.65483983001324
 20
142.6289097539651
 30
0.0
 10
57.72058763159328
 20
142.4026043365602
 30
0.0
 10
57.78601314565344
 20
142.1774082400749
 30
0.0
  0
SPLINE
  5
339
330
1F
100
AcDbEntity
  8
0
  6
HIDDEN
 62
     7
370
     0
100
AcDbSpline
210
0.0
220
0.0
230
1.0
 70
    24
 71
     3
 72
     8
 73
     4
 74
     0
 42
0.000000001
 43
0.00000001
 40
0.0000002577132338
 40
0.0000002577132338
 40
0.0000002577132338
 40
0.0000002577132338
 40
0.0008708181495375
 40
0.0008708181495375
 40
0.0008708181495375
 40
0.0008708181495375
 10
56.90970646560957
 20
142.6591619141767
 30
0.0
 10
57.13490256209484
 20
142.7245874282368
 30
0.0
 10
57.3612079794997
 20
142.7903352298169
 30
0.0
 10
57.58873664268236
 20
142.8564384171478
 30
0.0
  0
LINE
  5
33A
330
1F
100
AcDbEntity
  8
0
  6
HIDDEN
 62
     7
370
     0
100
AcDbLine
 10
56.9052763838
 20
142.6617818573
 30
0.0
 11
56.9097064656
 21
142.6591619142
 31
0.0
  0
SPLINE
  5
33B
330
1F
100
AcDbEntity
  8
0
  6
HIDDEN
 62
     7
370
     0
100
AcDbSpline
210
0.0
220
0.0
230
1.0
 70
    24
 71
     3
 72
     8
 73
     4
 74
     0
 42
0.000000001
 43
0.00000001
 40
0.0000002509865792
 40
0.0000002509865792
 40
0.0000002509865792
 40
0.0000002509865792
 40
0.0008708114228829
 40
0.0008708114228829
 40
0.0008708114228829
 40
0.0008708114228829
 10
56.75102581852808
 20
143.3518592175021
 30
0.0
 10
56.80271192334953
 20
143.1206288766872
 30
0.0
 10
56.85412015193067
 20
142.8906416827099
 30
0.0
 10
56.90527638378958
 20
142.6617818572616
 30
0.0
  0
SPLINE
  5
33C
330
1F
100
AcDbEntity
  8
0
  6
HIDDEN
 62
     7
370
     0
100
AcDbSpline
210
0.0
220
0.0
230
1.0
 70
    24
 71
     3
 72
     8
 73
     4
 74
     0
 42
0.000000001
 43
0.00000001
 40
0.0000002535875959
 40
0.0000002535875959
 40
0.0000002535875959
 40
0.0000002535875959
 40
0.0008708140238996
 40
0.0008708140238996
 40
0.0008708140238996
 40
0.0008708140238996
 10
56.06094845828757
 20
143.1976086522406
 30
0.0
 10
56.28980828373589
 20
143.2487648840995
 30
0.0
 10
56.51979547771317
 20
143.3001731126807
 30
0.0
 10
56.75102581852806
 20
143.3518592175021
 30
0.0
  0
LINE
  5
33D
330
1F
100
AcDbEntity
  8
0
  6
HIDDEN
 62
     7
370
     0
100
AcDbLine
 10
56.0566916258
 20
143.2005015926
 30
0.0
 11
56.0609484583
 21
143.1976086522
 31
0.0
  0
SPLINE
  5
33E
330
1F
100
AcDbEntity
  8
0
  6
HIDDEN
 62
     7
370
     0
100
AcDbSpline
210
0.0
220
0.0
230
1.0
 70
    24
 71
     3
 72
     8
 73
     4
 74
     0
 42
0.000000001
 43
0.00000001
 40
0.0000002479952473
 40
0.0000002479952473
 40
0.0000002479952473
 40
0.0000002479952473
 40
0.000870808431551
 40
0.000870808431551
 40
0.000870808431551
 40
0.000870808431551
 10
55.94607575476822
 20
143.898902715939
 30
0.0
 10
55.98314079563768
 20
143.664883258008
 30
0.0
 10
56.02000656642787
 20
143.4321219418418
 30
0.0
 10
56.05669162580946
 20
143.2005015926053
 30
0.0
  0
SPLINE
  5
33F
330
1F
100
AcDbEntity
  8
0
  6
HIDDEN
 62
     7
370
     0
100
AcDbSpline
210
0.0
220
0.0
230
1.0
 70
    24
 71
     3
 72
     8
 73
     4
 74
     0
 42
0.000000001
 43
0.00000001
 40
0.0000002505652554
 40
0.0000002505652554
 40
0.0000002505652554
 40
0.0000002505652554
 40
0.000870811001559
 40
0.000870811001559
 40
0.000870811001559
 40
0.000870811001559
 10
55.24767463143452
 20
143.7882868448979
 30
0.0
 10
55.47929498067095
 20
143.8249719042794
 30
0.0
 10
55.71205629683719
 20
143.8618376750696
 30
0.0
 10
55.94607575476821
 20
143.8989027159391
 30
0.0
  0
LINE
  5
340
330
1F
100
AcDbEntity
  8
0
  6
HIDDEN
 62
     7
370
     0
100
AcDbLine
 10
55.2436078481
 20
143.7914413654
 30
0.0
 11
55.2476746314
 21
143.7882868449
 31
0.0
  0
SPLINE
  5
341
330
1F
100
AcDbEntity
  8
0
  6
HIDDEN
 62
     7
370
     0
100
AcDbSpline
210
0.0
220
0.0
230
1.0
 70
    24
 71
     3
 72
     8
 73
     4
 74
     0
 42
0.000000001
 43
0.00000001
 40
0.0000002460339246
 40
0.0000002460339246
 40
0.0000002460339246
 40
0.0000002460339246
 40
0.0008708064702282
 40
0.0008708064702282
 40
0.0008708064702282
 40
0.0008708064702282
 10
55.17706322155792
 20
144.4954099816907
 30
0.0
 10
55.19936091969247
 20
144.2595249745306
 30
0.0
 10
55.22153874033679
 20
144.0249081387518
 30
0.0
 10
55.24360784807148
 20
143.7914413654284
 30
0.0
  0
SPLINE
  5
342
330
1F
100
AcDbEntity
  8
0
  6
HIDDEN
 62
     7
370
     0
100
AcDbSpline
210
0.0
220
0.0
230
1.0
 70
    24
 71
     3
 72
     8
 73
     4
 74
     0
 42
0.000000001
 43
0.00000001
 40
0.0000002485836013
 40
0.0000002485836013
 40
0.0000002485836013
 40
0.0000002485836013
 40
0.000870809019905
 40
0.000870809019905
 40
0.000870809019905
 40
0.000870809019905
 10
54.47309460529566
 20
144.4288653551772
 30
0.0
 10
54.70656137861906
 20
144.4509344629118
 30
0.0
 10
54.94117821439787
 20
144.4731122835561
 30
0.0
 10
55.1770632215579
 20
144.4954099816907
 30
0.0
  0
LINE
  5
343
330
1F
100
AcDbEntity
  8
0
  6
HIDDEN
 62
     7
370
     0
100
AcDbLine
 10
54.4692339208
 20
144.4322690064
 30
0.0
 11
54.4730946053
 21
144.4288653552
 31
0.0
  0
SPLINE
  5
344
330
1F
100
AcDbEntity
  8
0
  6
HIDDEN
 62
     7
370
     0
100
AcDbSpline
210
0.0
220
0.0
230
1.0
 70
    24
 71
     3
 72
     8
 73
     4
 74
     0
 42
0.000000001
 43
0.00000001
 40
0.0000002450629425
 40
0.0000002450629425
 40
0.0000002450629425
 40
0.0000002450629425
 40
0.0008708054992462
 40
0.0008708054992462
 40
0.0008708054992462
 40
0.0008708054992462
 10
54.44702316003723
 20
145.1390268730973
 30
0.0
 10
54.45446551660918
 20
144.9022072470659
 30
0.0
 10
54.46186786138161
 20
144.6666608171391
 30
0.0
 10
54.46923392078358
 20
144.4322690064222
 30
0.0
  0
SPLINE
  5
345
330
1F
100
AcDbEntity
  8
0
  6
HIDDEN
 62
     7
370
     0
100
AcDbSpline
210
0.0
220
0.0
230
1.0
 70
    24
 71
     3
 72
     8
 73
     4
 74
     0
 42
0.000000001
 43
0.00000001
 40
0.000000247602554
 40
0.000000247602554
 40
0.000000247602554
 40
0.000000247602554
 40
0.0008708080388578
 40
0.0008708080388578
 40
0.0008708080388578
 40
0.0008708080388578
 10
53.74026529336213
 20
145.1168161123509
 30
0.0
 10
53.97465710407899
 20
145.1241821717529
 30
0.0
 10
54.21020353400581
 20
145.1315845165254
 30
0.0
 10
54.4470231600372
 20
145.1390268730973
 30
0.0
  0
LINE
  5
346
330
1F
100
AcDbEntity
  8
0
  6
HIDDEN
 62
     7
370
     0
100
AcDbLine
 10
53.7366259441
 20
145.1204554617
 30
0.0
 11
53.7402652934
 21
145.1168161124
 31
0.0
  0
SPLINE
  5
347
330
1F
100
AcDbEntity
  8
0
  6
HIDDEN
 62
     7
370
     0
100
AcDbSpline
210
0.0
220
0.0
230
1.0
 70
    24
 71
     3
 72
     8
 73
     4
 74
     0
 42
0.000000001
 43
0.00000001
 40
0.0000002450629425
 40
0.0000002450629425
 40
0.0000002450629425
 40
0.0000002450629425
 40
0.0008708054992462
 40
0.0008708054992462
 40
0.0008708054992462
 40
0.0008708054992462
 10
53.75883670480537
 20
145.8272133283291
 30
0.0
 10
53.75139434823343
 20
145.5903937022978
 30
0.0
 10
53.74399200346098
 20
145.3548472723709
 30
0.0
 10
53.73662594405901
 20
145.1204554616541
 30
0.0
  0
SPLINE
  5
348
330
1F
100
AcDbEntity
  8
0
  6
HIDDEN
 62
     7
370
     0
100
AcDbSpline
210
0.0
220
0.0
230
1.0
 70
    24
 71
     3
 72
     8
 73
     4
 74
     0
 42
0.000000001
 43
0.00000001
 40
0.0000002476025541
 40
0.0000002476025541
 40
0.0000002476025541
 40
0.0000002476025541
 40
0.0008708080388578
 40
0.0008708080388578
 40
0.0008708080388578
 40
0.0008708080388578
 10
53.05207883813033
 20
145.8494240890755
 30
0.0
 10
53.28647064884718
 20
145.8420580296735
 30
0.0
 10
53.52201707877399
 20
145.8346556849011
 30
0.0
 10
53.75883670480536
 20
145.8272133283291
 30
0.0
  0
LINE
  5
349
330
1F
100
AcDbEntity
  8
0
  6
HIDDEN
 62
     7
370
     0
100
AcDbLine
 10
53.0486751869
 20
145.8532847736
 30
0.0
 11
53.0520788381
 21
145.8494240891
 31
0.0
  0
SPLINE
  5
34A
330
1F
100
AcDbEntity
  8
0
  6
HIDDEN
 62
     7
370
     0
100
AcDbSpline
210
0.0
220
0.0
230
1.0
 70
    24
 71
     3
 72
     8
 73
     4
 74
     0
 42
0.000000001
 43
0.00000001
 40
0.0000002460339245
 40
0.0000002460339245
 40
0.0000002460339245
 40
0.0000002460339245
 40
0.0008708064702283
 40
0.0008708064702283
 40
0.0008708064702283
 40
0.0008708064702283
 10
53.11521981339877
 20
146.5572533898498
 30
0.0
 10
53.09292211526423
 20
146.3213683826898
 30
0.0
 10
53.07074429461991
 20
146.086751546911
 30
0.0
 10
53.04867518688523
 20
145.8532847735876
 30
0.0
  0
SPLINE
  5
34B
330
1F
100
AcDbEntity
  8
0
  6
HIDDEN
 62
     7
370
     0
100
AcDbSpline
210
0.0
220
0.0
230
1.0
 70
    24
 71
     3
 72
     8
 73
     4
 74
     0
 42
0.000000001
 43
0.00000001
 40
0.0000002485836013
 40
0.0000002485836013
 40
0.0000002485836013
 40
0.0000002485836013
 40
0.0008708090199051
 40
0.0008708090199051
 40
0.0008708090199051
 40
0.0008708090199051
 10
52.41125119713653
 20
146.6237980163634
 30
0.0
 10
52.64471797045992
 20
146.6017289086287
 30
0.0
 10
52.87933480623875
 20
146.5795510879844
 30
0.0
 10
53.11521981339877
 20
146.5572533898498
 30
0.0
  0
LINE
  5
34C
330
1F
100
AcDbEntity
  8
0
  6
HIDDEN
 62
     7
370
     0
100
AcDbLine
 10
52.4080966766
 20
146.6278647997
 30
0.0
 11
52.4112511971
 21
146.6237980164
 31
0.0
  0
SPLINE
  5
34D
330
1F
100
AcDbEntity
  8
0
  6
HIDDEN
 62
     7
370
     0
100
AcDbSpline
210
0.0
220
0.0
230
1.0
 70
    24
 71
     3
 72
     8
 73
     4
 74
     0
 42
0.000000001
 43
0.00000001
 40
0.0000002479952473
 40
0.0000002479952473
 40
0.0000002479952473
 40
0.0000002479952473
 40
0.000870808431551
 40
0.000870808431551
 40
0.000870808431551
 40
0.000870808431551
 10
52.51871254764713
 20
147.3262659230602
 30
0.0
 10
52.48164750677767
 20
147.0922464651292
 30
0.0
 10
52.44478173598747
 20
146.8594851489629
 30
0.0
 10
52.40809667660589
 20
146.6278647997265
 30
0.0
  0
SPLINE
  5
34E
330
1F
100
AcDbEntity
  8
0
  6
HIDDEN
 62
     7
370
     0
100
AcDbSpline
210
0.0
220
0.0
230
1.0
 70
    24
 71
     3
 72
     8
 73
     4
 74
     0
 42
0.000000001
 43
0.00000001
 40
0.0000002505652553
 40
0.0000002505652553
 40
0.0000002505652553
 40
0.0000002505652553
 40
0.000870811001559
 40
0.000870811001559
 40
0.000870811001559
 40
0.000870811001559
 10
51.82031142431342
 20
147.4368817941015
 30
0.0
 10
52.05193177354986
 20
147.4001967347199
 30
0.0
 10
52.2846930897161
 20
147.3633309639297
 30
0.0
 10
52.51871254764713
 20
147.3262659230602
 30
0.0
  0
LINE
  5
34F
330
1F
100
AcDbEntity
  8
0
  6
HIDDEN
 62
     7
370
     0
100
AcDbLine
 10
51.8174184839
 20
147.4411386266
 30
0.0
 11
51.8203114243
 21
147.4368817941
 31
0.0
  0
SPLINE
  5
350
330
1F
100
AcDbEntity
  8
0
  6
HIDDEN
 62
     7
370
     0
100
AcDbSpline
210
0.0
220
0.0
230
1.0
 70
    24
 71
     3
 72
     8
 73
     4
 74
     0
 42
0.000000001
 43
0.00000001
 40
0.0000002509865792
 40
0.0000002509865792
 40
0.0000002509865792
 40
0.0000002509865792
 40
0.0008708114228829
 40
0.0008708114228829
 40
0.0008708114228829
 40
0.0008708114228829
 10
51.97166904921017
 20
148.13121598682
 30
0.0
 10
51.91998294438871
 20
147.8999856460051
 30
0.0
 10
51.86857471580758
 20
147.6699984520278
 30
0.0
 10
51.81741848394866
 20
147.4411386265795
 30
0.0
  0
SPLINE
  5
351
330
1F
100
AcDbEntity
  8
0
  6
HIDDEN
 62
     7
370
     0
100
AcDbSpline
210
0.0
220
0.0
230
1.0
 70
    24
 71
     3
 72
     8
 73
     4
 74
     0
 42
0.000000001
 43
0.00000001
 40
0.0000002535875959
 40
0.0000002535875959
 40
0.0000002535875959
 40
0.0000002535875959
 40
0.0008708140238996
 40
0.0008708140238996
 40
0.0008708140238996
 40
0.0008708140238996
 10
51.28159168896968
 20
148.2854665520815
 30
0.0
 10
51.510451514418
 20
148.2343103202226
 30
0.0
 10
51.74043870839529
 20
148.1829020916414
 30
0.0
 10
51.97166904921017
 20
148.13121598682
 30
0.0
  0
LINE
  5
352
330
1F
100
AcDbEntity
  8
0
  6
HIDDEN
 62
     7
370
     0
100
AcDbLine
 10
51.2789717459
 20
148.2898966339
 30
0.0
 11
51.281591689
 21
148.2854665521
 31
0.0
  0
SPLINE
  5
353
330
1F
100
AcDbEntity
  8
0
  6
HIDDEN
 62
     7
370
     0
100
AcDbSpline
210
0.0
220
0.0
230
1.0
 70
    24
 71
     3
 72
     8
 73
     4
 74
     0
 42
0.000000001
 43
0.00000001
 40
0.0000002550698886
 40
0.0000002550698886
 40
0.0000002550698886
 40
0.0000002550698886
 40
0.0008708155061923
 40
0.0008708155061923
 40
0.0008708155061923
 40
0.0008708155061923
 10
51.47624824885582
 20
148.9689268109744
 30
0.0
 10
51.41014506152495
 20
148.7413981477917
 30
0.0
 10
51.3443972599449
 20
148.5150927303868
 30
0.0
 10
51.27897174588473
 20
148.2898966339015
 30
0.0
  0
SPLINE
  5
354
330
1F
100
AcDbEntity
  8
0
  6
HIDDEN
 62
     7
370
     0
100
AcDbSpline
210
0.0
220
0.0
230
1.0
 70
    24
 71
     3
 72
     8
 73
     4
 74
     0
 42
0.000000001
 43
0.00000001
 40
0.0000002577132338
 40
0.0000002577132338
 40
0.0000002577132338
 40
0.0000002577132338
 40
0.0008708181495375
 40
0.0008708181495375
 40
0.0008708181495375
 40
0.0008708181495375
 10
50.79721807178303
 20
149.1662033139454
 30
0.0
 10
51.02241416826831
 20
149.1007777998852
 30
0.0
 10
51.24871958567316
 20
149.0350299983052
 30
0.0
 10
51.47624824885582
 20
148.9689268109743
 30
0.0
  0
LINE
  5
355
330
1F
100
AcDbEntity
  8
0
  6
HIDDEN
 62
     7
370
     0
100
AcDbLine
 10
50.7948814657
 20
149.1707891616
 30
0.0
 11
50.7972180718
 21
149.1662033139
 31
0.0
  0
SPLINE
  5
356
330
1F
100
AcDbEntity
  8
0
  6
HIDDEN
 62
     7
370
     0
100
AcDbSpline
210
0.0
220
0.0
230
1.0
 70
    24
 71
     3
 72
     8
 73
     4
 74
     0
 42
0.000000001
 43
0.00000001
 40
0.0000002603326621
 40
0.0000002603326621
 40
0.0000002603326621
 40
0.0000002603326621
 40
0.0008708207689658
 40
0.0008708207689658
 40
0.0008708207689658
 40
0.0008708207689658
 10
51.03440534614683
 20
149.8360923336139
 30
0.0
 10
50.95414595538726
 20
149.6131632997491
 30
0.0
 10
50.87431805734384
 20
149.3914327830101
 30
0.0
 10
50.79488146569635
 20
149.1707891615984
 30
0.0
  0
SPLINE
  5
357
330
1F
100
AcDbEntity
  8
0
  6
HIDDEN
 62
     7
370
     0
100
AcDbSpline
210
0.0
220
0.0
230
1.0
 70
    24
 71
     3
 72
     8
 73
     4
 74
     0
 42
0.000000001
 43
0.00000001
 40
0.0000002630305631
 40
0.0000002630305631
 40
0.0000002630305631
 40
0.0000002630305631
 40
0.0008708234668668
 40
0.0008708234668668
 40
0.0008708234668668
 40
0.0008708234668668
 10
50.36910217413128
 20
150.0756162140644
 30
0.0
 10
50.58974579554298
 20
149.9961796224169
 30
0.0
 10
50.81147631228203
 20
149.9163517243735
 30
0.0
 10
51.03440534614683
 20
149.8360923336139
 30
0.0
  0
LINE
  5
358
330
1F
100
AcDbEntity
  8
0
  6
HIDDEN
 62
     7
370
     0
100
AcDbLine
 10
50.3670581266
 20
150.0803397293
 30
0.0
 11
50.3691021741
 21
150.0756162141
 31
0.0
  0
SPLINE
  5
359
330
1F
100
AcDbEntity
  8
0
  6
HIDDEN
 62
     7
370
     0
100
AcDbSpline
210
0.0
220
0.0
230
1.0
 70
    24
 71
     3
 72
     8
 73
     4
 74
     0
 42
0.000000001
 43
0.00000001
 40
0.000000266892673
 40
0.000000266892673
 40
0.000000266892673
 40
0.000000266892673
 40
0.0008708273289767
 40
0.0008708273289767
 40
0.0008708273289767
 40
0.0008708273289767
 10
50.64788409316137
 20
150.7292902485911
 30
0.0
 10
50.55378524612143
 20
150.5118406430942
 30
0.0
 10
50.46019229585828
 20
150.2955600960715
 30
0.0
 10
50.36705812655958
 20
150.0803397293047
 30
0.0
  0
SPLINE
  5
35A
330
1F
100
AcDbEntity
  8
0
  6
HIDDEN
 62
     7
370
     0
100
AcDbSpline
210
0.0
220
0.0
230
1.0
 70
    24
 71
     3
 72
     8
 73
     4
 74
     0
 42
0.000000001
 43
0.00000001
 40
0.0000002696585784
 40
0.0000002696585784
 40
0.0000002696585784
 40
0.0000002696585784
 40
0.0008708300948821
 40
0.0008708300948821
 40
0.0008708300948821
 40
0.0008708300948821
 10
49.99893357387491
 20
151.0101162151929
 30
0.0
 10
50.21415394064181
 20
150.9169820458942
 30
0.0
 10
50.43043448766452
 20
150.8233890956311
 30
0.0
 10
50.64788409316138
 20
150.7292902485911
 30
0.0
  0
LWPOLYLINE
  5
35B
330
1F
100
AcDbEntity
  8
0
  6
HIDDEN
 62
     7
370
     0
100
AcDbPolyline
 90
        9
 70
   128
 43
0.0
 10
49.9971895482
 20
151.0149581631
 10
49.9974093403
 20
151.0143528034
 10
49.9976254071
 20
151.0137474437
 10
49.9978451993
 20
151.0131420841
 10
49.9980612661
 20
151.0125367244
 10
49.9982810582
 20
151.0119313647
 10
49.9984971251
 20
151.011326005
 10
49.9987169172
 20
151.0107206454
 10
49.998932984
 20
151.0101152857
  0
SPLINE
  5
35C
330
1F
100
AcDbEntity
  8
0
  6
HIDDEN
 62
     7
370
     0
100
AcDbSpline
210
0.0
220
0.0
230
1.0
 70
    24
 71
     3
 72
     8
 73
     4
 74
     0
 42
0.000000001
 43
0.00000001
 40
0.0000002749048029
 40
0.0000002749048029
 40
0.0000002749048029
 40
0.0000002749048029
 40
0.0008708353411066
 40
0.0008708353411066
 40
0.0008708353411066
 40
0.0008708353411066
 10
50.31820991270022
 20
151.6449955117988
 30
0.0
 10
50.21064297453947
 20
151.4338835089195
 30
0.0
 10
50.10365434067276
 20
151.2239064921231
 30
0.0
 10
49.99719015174011
 20
151.0149587564638
 30
0.0
  0
SPLINE
  5
35D
330
1F
100
AcDbEntity
  8
0
  6
HIDDEN
 62
     7
370
     0
100
AcDbSpline
210
0.0
220
0.0
230
1.0
 70
    24
 71
     3
 72
     8
 73
     4
 74
     0
 42
0.000000001
 43
0.00000001
 40
0.0000002777537673
 40
0.0000002777537673
 40
0.0000002777537673
 40
0.0000002777537673
 40
0.000870838190071
 40
0.000870838190071
 40
0.000870838190071
 40
0.000870838190071
 10
49.68817315736516
 20
151.966015272759
 30
0.0
 10
49.89712089302448
 20
151.8595510838263
 30
0.0
 10
50.10709790982092
 20
151.7525624499596
 30
0.0
 10
50.31820991270022
 20
151.6449955117989
 30
0.0
  0
LINE
  5
35E
330
1F
100
AcDbEntity
  8
0
  6
HIDDEN
 62
     7
370
     0
100
AcDbLine
 10
49.6867372412
 20
151.9709577288
 30
0.0
 11
49.6881731574
 21
151.9660152728
 31
0.0
  0
SPLINE
  5
35F
330
1F
100
AcDbEntity
  8
0
  6
HIDDEN
 62
     7
370
     0
100
AcDbSpline
210
0.0
220
0.0
230
1.0
 70
    24
 71
     3
 72
     8
 73
     4
 74
     0
 42
0.000000001
 43
0.00000001
 40
0.0000002845706964
 40
0.0000002845706964
 40
0.0000002845706964
 40
0.0000002845706964
 40
0.0008708450070001
 40
0.0008708450070001
 40
0.0008708450070001
 40
0.0008708450070001
 10
50.04668387813982
 20
152.5795942529091
 30
0.0
 10
49.92607336642055
 20
152.3756530152749
 30
0.0
 10
49.80611128420968
 20
152.1728082120606
 30
0.0
 10
49.68673724115793
 20
151.9709577287624
 30
0.0
  0
SPLINE
  5
360
330
1F
100
AcDbEntity
  8
0
  6
HIDDEN
 62
     7
370
     0
100
AcDbSpline
210
0.0
220
0.0
230
1.0
 70
    24
 71
     3
 72
     8
 73
     4
 74
     0
 42
0.000000001
 43
0.00000001
 40
0.000000287519866
 40
0.000000287519866
 40
0.000000287519866
 40
0.000000287519866
 40
0.0008708479561697
 40
0.0008708479561697
 40
0.0008708479561697
 40
0.0008708479561697
 10
49.43804735399308
 20
152.939540889891
 30
0.0
 10
49.63989783729129
 20
152.8201668468393
 30
0.0
 10
49.84274264050556
 20
152.7002047646284
 30
0.0
 10
50.04668387813982
 20
152.5795942529091
 30
0.0
  0
LINE
  5
361
330
1F
100
AcDbEntity
  8
0
  6
HIDDEN
 62
     7
370
     0
100
AcDbLine
 10
49.4369246106
 20
152.944563755
 30
0.0
 11
49.438047354
 21
152.9395408899
 31
0.0
  0
SPLINE
  5
362
330
1F
100
AcDbEntity
  8
0
  6
HIDDEN
 62
     7
370
     0
100
AcDbSpline
210
0.0
220
0.0
230
1.0
 70
    24
 71
     3
 72
     8
 73
     4
 74
     0
 42
0.000000001
 43
0.00000001
 40
0.0000002961524522
 40
0.0000002961524522
 40
0.0000002961524522
 40
0.0000002961524522
 40
0.0008708565887559
 40
0.0008708565887559
 40
0.0008708565887559
 40
0.0008708565887559
 10
49.83437757869017
 20
153.5293980376685
 30
0.0
 10
49.70119948800041
 20
153.3334324281723
 30
0.0
 10
49.56873739297841
 20
153.1385203743075
 30
0.0
 10
49.43692461061869
 20
152.9445637550112
 30
0.0
  0
SPLINE
  5
363
330
1F
100
AcDbEntity
  8
0
  6
HIDDEN
 62
     7
370
     0
100
AcDbSpline
210
0.0
220
0.0
230
1.0
 70
    24
 71
     3
 72
     8
 73
     4
 74
     0
 42
0.000000001
 43
0.00000001
 40
0.0000002992216915
 40
0.0000002992216915
 40
0.0000002992216915
 40
0.0000002992216915
 40
0.0008708596579952
 40
0.0008708596579952
 40
0.0008708596579952
 40
0.0008708596579952
 10
49.24954329603297
 20
153.9268510057399
 30
0.0
 10
49.44349991532921
 20
153.7950382233802
 30
0.0
 10
49.63841196919399
 20
153.6625761283582
 30
0.0
 10
49.83437757869019
 20
153.5293980376685
 30
0.0
  0
LWPOLYLINE
  5
364
330
1F
100
AcDbEntity
  8
0
  6
HIDDEN
 62
     7
370
     0
100
AcDbPolyline
 90
        9
 70
   128
 43
0.0
 10
49.248737749
 20
153.9319349726
 10
49.2488383319
 20
153.9312998106
 10
49.2489389147
 20
153.9306627859
 10
49.2490394975
 20
153.9300276239
 10
49.2491400804
 20
153.9293924619
 10
49.2492406632
 20
153.9287573
 10
49.2493412461
 20
153.928122138
 10
49.2494418289
 20
153.927486976
 10
49.2495424117
 20
153.926851814
  0
SPLINE
  5
365
330
1F
100
AcDbEntity
  8
0
  6
HIDDEN
 62
     7
370
     0
100
AcDbSpline
210
0.0
220
0.0
230
1.0
 70
    24
 71
     3
 72
     8
 73
     4
 74
     0
 42
0.000000001
 43
0.00000001
 40
0.0000003099922359
 40
0.0000003099922359
 40
0.0000003099922359
 40
0.0000003099922359
 40
0.0008708704285396
 40
0.0008708704285396
 40
0.0008708704285396
 40
0.0008708704285396
 10
49.68212889032167
 20
154.4906584244624
 30
0.0
 10
49.5369088137421
 20
154.3034418298367
 30
0.0
 10
49.39246947328184
 20
154.1172317541512
 30
0.0
 10
49.24873815644658
 20
153.931934457023
 30
0.0
  0
SPLINE
  5
366
330
1F
100
AcDbEntity
  8
0
  6
HIDDEN
 62
     7
370
     0
100
AcDbSpline
210
0.0
220
0.0
230
1.0
 70
    24
 71
     3
 72
     8
 73
     4
 74
     0
 42
0.000000001
 43
0.00000001
 40
0.0000003132049583
 40
0.0000003132049583
 40
0.0000003132049583
 40
0.0000003132049583
 40
0.000870873641262
 40
0.000870873641262
 40
0.000870873641262
 40
0.000870873641262
 10
49.12340492288228
 20
154.9240491583374
 30
0.0
 10
49.30870222001055
 20
154.7803178415022
 30
0.0
 10
49.49491229569607
 20
154.6358785010419
 30
0.0
 10
49.68212889032168
 20
154.4906584244624
 30
0.0
  0
LWPOLYLINE
  5
367
330
1F
100
AcDbEntity
  8
0
  6
HIDDEN
 62
     7
370
     0
100
AcDbPolyline
 90
        9
 70
   128
 43
0.0
 10
49.1229197945
 20
154.9291728337
 10
49.1229793991
 20
154.9285320838
 10
49.1230427291
 20
154.9278913339
 10
49.1231023337
 20
154.9272524466
 10
49.1231619384
 20
154.9266116967
 10
49.123221543
 20
154.9259709467
 10
49.1232848729
 20
154.9253301968
 10
49.1233444776
 20
154.9246894469
 10
49.1234040822
 20
154.9240486969
  0
SPLINE
  5
368
330
1F
100
AcDbEntity
  8
0
  6
HIDDEN
 62
     7
370
     0
100
AcDbSpline
210
0.0
220
0.0
230
1.0
 70
    24
 71
     3
 72
     8
 73
     4
 74
     0
 42
0.000000001
 43
0.00000001
 40
0.000000326540833
 40
0.000000326540833
 40
0.000000326540833
 40
0.000000326540833
 40
0.0008708869771367
 40
0.0008708869771367
 40
0.0008708869771367
 40
0.0008708869771367
 10
49.59053866905152
 20
155.4595817577022
 30
0.0
 10
49.43384972387966
 20
155.2818530363151
 30
0.0
 10
49.27800317406989
 20
155.1050798249063
 30
0.0
 10
49.12292056460203
 20
154.9291731337235
 30
0.0
  0
SPLINE
  5
369
330
1F
100
AcDbEntity
  8
0
  6
HIDDEN
 62
     7
370
     0
100
AcDbSpline
210
0.0
220
0.0
230
1.0
 70
    24
 71
     3
 72
     8
 73
     4
 74
     0
 42
0.000000001
 43
0.00000001
 40
0.0000003299251282
 40
0.0000003299251282
 40
0.0000003299251282
 40
0.0000003299251282
 40
0.0008708903614319
 40
0.0008708903614319
 40
0.0008708903614319
 40
0.0008708903614319
 10
49.06013004507273
 20
155.9271998621518
 30
0.0
 10
49.23603673625554
 20
155.7721172526839
 30
0.0
 10
49.41280994766436
 20
155.6162707028741
 30
0.0
 10
49.59053866905153
 20
155.4595817577022
 30
0.0
  0
LINE
  5
36A
330
1F
100
AcDbEntity
  8
0
  6
HIDDEN
 62
     7
370
     0
100
AcDbLine
 10
49.0599683796
 20
155.9323441397
 30
0.0
 11
49.0601300451
 21
155.9271998622
 31
0.0
  0
SPLINE
  5
36B
330
1F
100
AcDbEntity
  8
0
  6
HIDDEN
 62
     7
370
     0
100
AcDbSpline
210
0.0
220
0.0
230
1.0
 70
    24
 71
     3
 72
     8
 73
     4
 74
     0
 42
0.000000001
 43
0.00000001
 40
0.0000003464001047
 40
0.0000003464001047
 40
0.0000003464001047
 40
0.0000003464001047
 40
0.0008709068364084
 40
0.0008709068364084
 40
0.0008709068364084
 40
0.0008709068364084
 10
49.55996837963944
 20
156.4323441396508
 30
0.0
 10
49.3924289455575
 20
156.2648047055689
 30
0.0
 10
49.2257902415308
 20
156.0981660015422
 30
0.0
 10
49.05996837963943
 20
155.9323441396508
 30
0.0
  0
SPLINE
  5
36C
330
1F
100
AcDbEntity
  8
0
  6
HIDDEN
 62
     7
370
     0
100
AcDbSpline
210
0.0
220
0.0
230
1.0
 70
    24
 71
     3
 72
     8
 73
     4
 74
     0
 42
0.000000001
 43
0.00000001
 40
0.0000003499903057
 40
0.0000003499903057
 40
0.0000003499903057
 40
0.0000003499903057
 40
0.0008709104266094
 40
0.0008709104266094
 40
0.0008709104266094
 40
0.0008709104266094
 10
49.05996837963944
 20
156.9323441396508
 30
0.0
 10
49.2257902415308
 20
156.7665222777595
 30
0.0
 10
49.39242894555751
 20
156.5998835737328
 30
0.0
 10
49.55996837963944
 20
156.4323441396508
 30
0.0
  0
LINE
  5
36D
330
1F
100
AcDbEntity
  8
0
  6
HIDDEN
 62
     7
370
     0
100
AcDbLine
 10
49.0601300451
 20
156.9374884172
 30
0.0
 11
49.0599683796
 21
156.9323441397
 31
0.0
  0
SPLINE
  5
36E
330
1F
100
AcDbEntity
  8
0
  6
HIDDEN
 62
     7
370
     0
100
AcDbSpline
210
0.0
220
0.0
230
1.0
 70
    24
 71
     3
 72
     8
 73
     4
 74
     0
 42
0.000000001
 43
0.00000001
 40
0.000000326540833
 40
0.000000326540833
 40
0.000000326540833
 40
0.000000326540833
 40
0.0008708869771367
 40
0.0008708869771367
 40
0.0008708869771367
 40
0.0008708869771367
 10
49.59053866905152
 20
157.4051065215995
 30
0.0
 10
49.41280994766435
 20
157.2484175764277
 30
0.0
 10
49.23603673625554
 20
157.0925710266179
 30
0.0
 10
49.06013004507273
 20
156.93748841715
 30
0.0
  0
SPLINE
  5
36F
330
1F
100
AcDbEntity
  8
0
  6
HIDDEN
 62
     7
370
     0
100
AcDbSpline
210
0.0
220
0.0
230
1.0
 70
    24
 71
     3
 72
     8
 73
     4
 74
     0
 42
0.000000001
 43
0.00000001
 40
0.0000003299251282
 40
0.0000003299251282
 40
0.0000003299251282
 40
0.0000003299251282
 40
0.0008708903614319
 40
0.0008708903614319
 40
0.0008708903614319
 40
0.0008708903614319
 10
49.12292056460203
 20
157.9355151455783
 30
0.0
 10
49.27800317406988
 20
157.7596084543954
 30
0.0
 10
49.43384972387965
 20
157.5828352429866
 30
0.0
 10
49.5905386690515
 20
157.4051065215994
 30
0.0
  0
LWPOLYLINE
  5
370
330
1F
100
AcDbEntity
  8
0
  6
HIDDEN
 62
     7
370
     0
100
AcDbPolyline
 90
        9
 70
   128
 43
0.0
 10
49.1234040822
 20
157.9406388377
 10
49.1233444776
 20
157.9399990191
 10
49.1232848729
 20
157.9393582691
 10
49.123221543
 20
157.9387175192
 10
49.1231619384
 20
157.9380767693
 10
49.1231023337
 20
157.9374369507
 10
49.1230427291
 20
157.9367962007
 10
49.1229793991
 20
157.9361554508
 10
49.1229197945
 20
157.9355147009
  0
SPLINE
  5
371
330
1F
100
AcDbEntity
  8
0
  6
HIDDEN
 62
     7
370
     0
100
AcDbSpline
210
0.0
220
0.0
230
1.0
 70
    24
 71
     3
 72
     8
 73
     4
 74
     0
 42
0.000000001
 43
0.00000001
 40
0.0000003099922359
 40
0.0000003099922359
 40
0.0000003099922359
 40
0.0000003099922359
 40
0.0008708704285396
 40
0.0008708704285396
 40
0.0008708704285396
 40
0.0008708704285396
 10
49.68212889032169
 20
158.3740298548394
 30
0.0
 10
49.49491229569607
 20
158.2288097782598
 30
0.0
 10
49.30870222001056
 20
158.0843704377996
 30
0.0
 10
49.1234049228823
 20
157.9406391209643
 30
0.0
  0
SPLINE
  5
372
330
1F
100
AcDbEntity
  8
0
  6
HIDDEN
 62
     7
370
     0
100
AcDbSpline
210
0.0
220
0.0
230
1.0
 70
    24
 71
     3
 72
     8
 73
     4
 74
     0
 42
0.000000001
 43
0.00000001
 40
0.0000003132049584
 40
0.0000003132049584
 40
0.0000003132049584
 40
0.0000003132049584
 40
0.0008708736412621
 40
0.0008708736412621
 40
0.0008708736412621
 40
0.0008708736412621
 10
49.24873815644663
 20
158.9327538222788
 30
0.0
 10
49.39246947328189
 20
158.7474565251505
 30
0.0
 10
49.53690881374214
 20
158.561246449465
 30
0.0
 10
49.68212889032171
 20
158.3740298548394
 30
0.0
  0
LWPOLYLINE
  5
373
330
1F
100
AcDbEntity
  8
0
  6
HIDDEN
 62
     7
370
     0
100
AcDbPolyline
 90
        9
 70
   128
 43
0.0
 10
49.2495424117
 20
158.9378375833
 10
49.2494418289
 20
158.93720149
 10
49.2493412461
 20
158.936566328
 10
49.2492406632
 20
158.935931166
 10
49.2491400804
 20
158.935296004
 10
49.2490394975
 20
158.9346599107
 10
49.2489389147
 20
158.9340247487
 10
49.2488383319
 20
158.9333895867
 10
49.248737749
 20
158.9327534934
  0
SPLINE
  5
374
330
1F
100
AcDbEntity
  8
0
  6
HIDDEN
 62
     7
370
     0
100
AcDbSpline
210
0.0
220
0.0
230
1.0
 70
    24
 71
     3
 72
     8
 73
     4
 74
     0
 42
0.000000001
 43
0.00000001
 40
0.0000002961524522
 40
0.0000002961524522
 40
0.0000002961524522
 40
0.0000002961524522
 40
0.000870856588756
 40
0.000870856588756
 40
0.000870856588756
 40
0.000870856588756
 10
49.83437757869022
 20
159.3352902416333
 30
0.0
 10
49.63841196919401
 20
159.2021121509435
 30
0.0
 10
49.44349991532923
 20
159.0696500559215
 30
0.0
 10
49.24954329603298
 20
158.9378372735618
 30
0.0
  0
SPLINE
  5
375
330
1F
100
AcDbEntity
  8
0
  6
HIDDEN
 62
     7
370
     0
100
AcDbSpline
210
0.0
220
0.0
230
1.0
 70
    24
 71
     3
 72
     8
 73
     4
 74
     0
 42
0.000000001
 43
0.00000001
 40
0.0000002992216915
 40
0.0000002992216915
 40
0.0000002992216915
 40
0.0000002992216915
 40
0.0008708596579952
 40
0.0008708596579952
 40
0.0008708596579952
 40
0.0008708596579952
 10
49.43692461061872
 20
159.9201245242905
 30
0.0
 10
49.56873739297845
 20
159.7261679049942
 30
0.0
 10
49.70119948800045
 20
159.5312558511295
 30
0.0
 10
49.83437757869021
 20
159.3352902416333
 30
0.0
  0
LINE
  5
376
330
1F
100
AcDbEntity
  8
0
  6
HIDDEN
 62
     7
370
     0
100
AcDbLine
 10
49.438047354
 20
159.9251473894
 30
0.0
 11
49.4369246106
 21
159.9201245243
 31
0.0
  0
SPLINE
  5
377
330
1F
100
AcDbEntity
  8
0
  6
HIDDEN
 62
     7
370
     0
100
AcDbSpline
210
0.0
220
0.0
230
1.0
 70
    24
 71
     3
 72
     8
 73
     4
 74
     0
 42
0.000000001
 43
0.00000001
 40
0.0000002845706964
 40
0.0000002845706964
 40
0.0000002845706964
 40
0.0000002845706964
 40
0.0008708450070001
 40
0.0008708450070001
 40
0.0008708450070001
 40
0.0008708450070001
 10
50.04668387813984
 20
160.2850940263926
 30
0.0
 10
49.84274264050558
 20
160.1644835146733
 30
0.0
 10
49.63989783729132
 20
160.0445214324625
 30
0.0
 10
49.43804735399312
 20
159.9251473894107
 30
0.0
  0
SPLINE
  5
378
330
1F
100
AcDbEntity
  8
0
  6
HIDDEN
 62
     7
370
     0
100
AcDbSpline
210
0.0
220
0.0
230
1.0
 70
    24
 71
     3
 72
     8
 73
     4
 74
     0
 42
0.000000001
 43
0.00000001
 40
0.000000287519866
 40
0.000000287519866
 40
0.000000287519866
 40
0.000000287519866
 40
0.0008708479561697
 40
0.0008708479561697
 40
0.0008708479561697
 40
0.0008708479561697
 10
49.68673724115797
 20
160.8937305505393
 30
0.0
 10
49.80611128420972
 20
160.6918800672411
 30
0.0
 10
49.92607336642057
 20
160.4890352640269
 30
0.0
 10
50.04668387813985
 20
160.2850940263926
 30
0.0
  0
LINE
  5
379
330
1F
100
AcDbEntity
  8
0
  6
HIDDEN
 62
     7
370
     0
100
AcDbLine
 10
49.6881731574
 20
160.8986730065
 30
0.0
 11
49.6867372412
 21
160.8937305505
 31
0.0
  0
SPLINE
  5
37A
330
1F
100
AcDbEntity
  8
0
  6
HIDDEN
 62
     7
370
     0
100
AcDbSpline
210
0.0
220
0.0
230
1.0
 70
    24
 71
     3
 72
     8
 73
     4
 74
     0
 42
0.000000001
 43
0.00000001
 40
0.0000002749048029
 40
0.0000002749048029
 40
0.0000002749048029
 40
0.0000002749048029
 40
0.0008708353411066
 40
0.0008708353411066
 40
0.0008708353411066
 40
0.0008708353411066
 10
50.31820991270023
 20
161.2196927675029
 30
0.0
 10
50.10709790982093
 20
161.1121258293422
 30
0.0
 10
49.89712089302449
 20
161.0051371954755
 30
0.0
 10
49.68817315736518
 20
160.8986730065428
 30
0.0
  0
SPLINE
  5
37B
330
1F
100
AcDbEntity
  8
0
  6
HIDDEN
 62
     7
370
     0
100
AcDbSpline
210
0.0
220
0.0
230
1.0
 70
    24
 71
     3
 72
     8
 73
     4
 74
     0
 42
0.000000001
 43
0.00000001
 40
0.0000002777537673
 40
0.0000002777537673
 40
0.0000002777537673
 40
0.0000002777537673
 40
0.000870838190071
 40
0.000870838190071
 40
0.000870838190071
 40
0.000870838190071
 10
49.99719015174013
 20
161.8497295228379
 30
0.0
 10
50.10365434067278
 20
161.6407817871786
 30
0.0
 10
50.21064297453949
 20
161.4308047703822
 30
0.0
 10
50.31820991270023
 20
161.2196927675029
 30
0.0
  0
LWPOLYLINE
  5
37C
330
1F
100
AcDbEntity
  8
0
  6
HIDDEN
 62
     7
370
     0
100
AcDbPolyline
 90
        9
 70
   128
 43
0.0
 10
49.998932984
 20
161.8545722489
 10
49.9987169172
 20
161.8539668893
 10
49.9984971251
 20
161.8533615296
 10
49.9982810582
 20
161.8527561699
 10
49.9980612661
 20
161.8521508102
 10
49.9978451993
 20
161.8515454506
 10
49.9976254071
 20
161.8509400909
 10
49.9974093403
 20
161.8503347312
 10
49.9971895482
 20
161.8497293715
  0
SPLINE
  5
37D
330
1F
100
AcDbEntity
  8
0
  6
HIDDEN
 62
     7
370
     0
100
AcDbSpline
210
0.0
220
0.0
230
1.0
 70
    24
 71
     3
 72
     8
 73
     4
 74
     0
 42
0.000000001
 43
0.00000001
 40
0.000000266892673
 40
0.000000266892673
 40
0.000000266892673
 40
0.000000266892673
 40
0.0008708273289767
 40
0.0008708273289767
 40
0.0008708273289767
 40
0.0008708273289767
 10
50.64788409316142
 20
162.1353980307106
 30
0.0
 10
50.43043448766456
 20
162.0412991836707
 30
0.0
 10
50.21415394064184
 20
161.9477062334075
 30
0.0
 10
49.99893357387494
 20
161.8545720641088
 30
0.0
  0
SPLINE
  5
37E
330
1F
100
AcDbEntity
  8
0
  6
HIDDEN
 62
     7
370
     0
100
AcDbSpline
210
0.0
220
0.0
230
1.0
 70
    24
 71
     3
 72
     8
 73
     4
 74
     0
 42
0.000000001
 43
0.00000001
 40
0.0000002696585783
 40
0.0000002696585783
 40
0.0000002696585783
 40
0.0000002696585783
 40
0.000870830094882
 40
0.000870830094882
 40
0.000870830094882
 40
0.000870830094882
 10
50.36705812655962
 20
162.7843485499971
 30
0.0
 10
50.46019229585833
 20
162.5691281832302
 30
0.0
 10
50.55378524612146
 20
162.3528476362075
 30
0.0
 10
50.64788409316142
 20
162.1353980307106
 30
0.0
  0
LINE
  5
37F
330
1F
100
AcDbEntity
  8
0
  6
HIDDEN
 62
     7
370
     0
100
AcDbLine
 10
50.3691021741
 20
162.7890720652
 30
0.0
 11
50.3670581266
 21
162.78434855
 31
0.0
  0
SPLINE
  5
380
330
1F
100
AcDbEntity
  8
0
  6
HIDDEN
 62
     7
370
     0
100
AcDbSpline
210
0.0
220
0.0
230
1.0
 70
    24
 71
     3
 72
     8
 73
     4
 74
     0
 42
0.000000001
 43
0.00000001
 40
0.0000002603326621
 40
0.0000002603326621
 40
0.0000002603326621
 40
0.0000002603326621
 40
0.0008708207689658
 40
0.0008708207689658
 40
0.0008708207689658
 40
0.0008708207689658
 10
51.03440534614689
 20
163.0285959456878
 30
0.0
 10
50.81147631228209
 20
162.9483365549283
 30
0.0
 10
50.58974579554304
 20
162.8685086568848
 30
0.0
 10
50.36910217413133
 20
162.7890720652373
 30
0.0
  0
SPLINE
  5
381
330
1F
100
AcDbEntity
  8
0
  6
HIDDEN
 62
     7
370
     0
100
AcDbSpline
210
0.0
220
0.0
230
1.0
 70
    24
 71
     3
 72
     8
 73
     4
 74
     0
 42
0.000000001
 43
0.00000001
 40
0.0000002630305631
 40
0.0000002630305631
 40
0.0000002630305631
 40
0.0000002630305631
 40
0.0008708234668668
 40
0.0008708234668668
 40
0.0008708234668668
 40
0.0008708234668668
 10
50.79488146569643
 20
163.6938991177034
 30
0.0
 10
50.87431805734391
 20
163.4732554962917
 30
0.0
 10
50.95414595538734
 20
163.2515249795526
 30
0.0
 10
51.0344053461469
 20
163.0285959456878
 30
0.0
  0
LINE
  5
382
330
1F
100
AcDbEntity
  8
0
  6
HIDDEN
 62
     7
370
     0
100
AcDbLine
 10
50.7972180718
 20
163.6984849654
 30
0.0
 11
50.7948814657
 21
163.6938991177
 31
0.0
  0
SPLINE
  5
383
330
1F
100
AcDbEntity
  8
0
  6
HIDDEN
 62
     7
370
     0
100
AcDbSpline
210
0.0
220
0.0
230
1.0
 70
    24
 71
     3
 72
     8
 73
     4
 74
     0
 42
0.000000001
 43
0.00000001
 40
0.0000002550698886
 40
0.0000002550698886
 40
0.0000002550698886
 40
0.0000002550698886
 40
0.0008708155061923
 40
0.0008708155061923
 40
0.0008708155061923
 40
0.0008708155061923
 10
51.47624824885589
 20
163.8957614683274
 30
0.0
 10
51.24871958567323
 20
163.8296582809965
 30
0.0
 10
51.02241416826836
 20
163.7639104794165
 30
0.0
 10
50.79721807178308
 20
163.6984849653563
 30
0.0
  0
SPLINE
  5
384
330
1F
100
AcDbEntity
  8
0
  6
HIDDEN
 62
     7
370
     0
100
AcDbSpline
210
0.0
220
0.0
230
1.0
 70
    24
 71
     3
 72
     8
 73
     4
 74
     0
 42
0.000000001
 43
0.00000001
 40
0.0000002577132338
 40
0.0000002577132338
 40
0.0000002577132338
 40
0.0000002577132338
 40
0.0008708181495375
 40
0.0008708181495375
 40
0.0008708181495375
 40
0.0008708181495375
 10
51.27897174588482
 20
164.5747916454002
 30
0.0
 10
51.34439725994499
 20
164.3495955489149
 30
0.0
 10
51.41014506152503
 20
164.12329013151
 30
0.0
 10
51.4762482488559
 20
163.8957614683274
 30
0.0
  0
LINE
  5
385
330
1F
100
AcDbEntity
  8
0
  6
HIDDEN
 62
     7
370
     0
100
AcDbLine
 10
51.281591689
 20
164.5792217272
 30
0.0
 11
51.2789717459
 21
164.5747916454
 31
0.0
  0
SPLINE
  5
386
330
1F
100
AcDbEntity
  8
0
  6
HIDDEN
 62
     7
370
     0
100
AcDbSpline
210
0.0
220
0.0
230
1.0
 70
    24
 71
     3
 72
     8
 73
     4
 74
     0
 42
0.000000001
 43
0.00000001
 40
0.0000002509865792
 40
0.0000002509865792
 40
0.0000002509865792
 40
0.0000002509865792
 40
0.0008708114228829
 40
0.0008708114228829
 40
0.0008708114228829
 40
0.0008708114228829
 10
51.97166904921024
 20
164.7334722924817
 30
0.0
 10
51.74043870839535
 20
164.6817861876602
 30
0.0
 10
51.51045151441806
 20
164.6303779590791
 30
0.0
 10
51.28159168896973
 20
164.5792217272202
 30
0.0
  0
SPLINE
  5
387
330
1F
100
AcDbEntity
  8
0
  6
HIDDEN
 62
     7
370
     0
100
AcDbSpline
210
0.0
220
0.0
230
1.0
 70
    24
 71
     3
 72
     8
 73
     4
 74
     0
 42
0.000000001
 43
0.00000001
 40
0.0000002535875959
 40
0.0000002535875959
 40
0.0000002535875959
 40
0.0000002535875959
 40
0.0008708140238996
 40
0.0008708140238996
 40
0.0008708140238996
 40
0.0008708140238996
 10
51.81741848394872
 20
165.4235496527222
 30
0.0
 10
51.86857471580764
 20
165.1946898272739
 30
0.0
 10
51.91998294438876
 20
164.9647026332966
 30
0.0
 10
51.97166904921023
 20
164.7334722924817
 30
0.0
  0
LINE
  5
388
330
1F
100
AcDbEntity
  8
0
  6
HIDDEN
 62
     7
370
     0
100
AcDbLine
 10
51.8203114243
 20
165.4278064852
 30
0.0
 11
51.8174184839
 21
165.4235496527
 31
0.0
  0
SPLINE
  5
389
330
1F
100
AcDbEntity
  8
0
  6
HIDDEN
 62
     7
370
     0
100
AcDbSpline
210
0.0
220
0.0
230
1.0
 70
    24
 71
     3
 72
     8
 73
     4
 74
     0
 42
0.000000001
 43
0.00000001
 40
0.0000002479952473
 40
0.0000002479952473
 40
0.0000002479952473
 40
0.0000002479952473
 40
0.000870808431551
 40
0.000870808431551
 40
0.000870808431551
 40
0.000870808431551
 10
52.51871254764723
 20
165.5384223562415
 30
0.0
 10
52.28469308971619
 20
165.5013573153721
 30
0.0
 10
52.05193177354994
 20
165.4644915445819
 30
0.0
 10
51.82031142431348
 20
165.4278064852003
 30
0.0
  0
SPLINE
  5
38A
330
1F
100
AcDbEntity
  8
0
  6
HIDDEN
 62
     7
370
     0
100
AcDbSpline
210
0.0
220
0.0
230
1.0
 70
    24
 71
     3
 72
     8
 73
     4
 74
     0
 42
0.000000001
 43
0.00000001
 40
0.0000002505652553
 40
0.0000002505652553
 40
0.0000002505652553
 40
0.0000002505652553
 40
0.0008708110015591
 40
0.0008708110015591
 40
0.0008708110015591
 40
0.0008708110015591
 10
52.40809667660597
 20
166.2368234795752
 30
0.0
 10
52.44478173598756
 20
166.0052031303388
 30
0.0
 10
52.48164750677775
 20
165.7724418141725
 30
0.0
 10
52.5187125476472
 20
165.5384223562415
 30
0.0
  0
LINE
  5
38B
330
1F
100
AcDbEntity
  8
0
  6
HIDDEN
 62
     7
370
     0
100
AcDbLine
 10
52.4112511971
 20
166.2408902629
 30
0.0
 11
52.4080966766
 21
166.2368234796
 31
0.0
  0
CIRCLE
  5
38C
330
1F
100
AcDbEntity
  8
0
  6
HIDDEN
 62
     7
370
     0
100
AcDbCircle
 10
65.0521539714
 20
156.4323441397
 30
0.0
 40
15.49202392628619
  0
ARC
  5
38D
330
1F
100
AcDbEntity
  8
0
  6
HIDDEN
 62
     7
370
     0
100
AcDbCircle
 10
65.0521539714
 20
156.4323441397
 30
0.0
 40
7.500000000000054
100
AcDbArc
 50
119.9264348666
 51
240.0735651334
  0
LINE
  5
38E
330
1F
100
AcDbEntity
  8
0
  6
HIDDEN
 62
     7
370
     0
100
AcDbLine
 10
61.3104957159
 20
162.9323443671
 30
0.0
 11
68.7938104387
 21
162.9323443671
 31
0.0
  0
ARC
  5
38F
330
1F
100
AcDbEntity
  8
0
  6
HIDDEN
 62
     7
370
     0
100
AcDbCircle
 10
65.0521539714
 20
156.4323441397
 30
0.0
 40
7.50000000000003
100
AcDbArc
 50
299.9264348666
 51
60.0735651334
  0
LINE
  5
390
330
1F
100
AcDbEntity
  8
0
  6
HIDDEN
 62
     7
370
     0
100
AcDbLine
 10
68.7938104387
 20
149.9323440989
 30
0.0
 11
61.3104957159
 21
149.9323440989
 31
0.0
  0
ARC
  5
391
330
1F
100
AcDbEntity
  8
0
  6
HIDDEN
 62
     7
370
     0
100
AcDbCircle
 10
65.0521539714
 20
156.4323441397
 30
0.0
 40
7.000000000000048
100
AcDbArc
 50
291.7867892983
 51
68.2132107017
  0
ARC
  5
392
330
1F
100
AcDbEntity
  8
0
  6
HIDDEN
 62
     7
370
     0
100
AcDbCircle
 10
65.0521539714
 20
156.4323441397
 30
0.0
 40
7.000000000000066
100
AcDbArc
 50
111.7867892983
 51
248.2132107017
  0
CIRCLE
  5
393
330
1F
100
AcDbEntity
  8
0
  6
HIDDEN
 62
     7
370
     0
100
AcDbCircle
 10
50.0521539714
 20
171.4323441397
 30
0.0
 40
5.499999999999972
  0
CIRCLE
  5
394
330
1F
100
AcDbEntity
  8
0
  6
HIDDEN
 62
     7
370
     0
100
AcDbCircle
 10
50.0521539714
 20
141.4323441397
 30
0.0
 40
5.499999999999972
  0
CIRCLE
  5
395
330
1F
100
AcDbEntity
  8
0
  6
HIDDEN
 62
     7
370
     0
100
AcDbCircle
 10
80.0521539714
 20
171.4323441397
 30
0.0
 40
5.5
  0
CIRCLE
  5
396
330
1F
100
AcDbEntity
  8
0
  6
HIDDEN
 62
     7
370
     0
100
AcDbCircle
 10
80.0521539714
 20
141.4323441397
 30
0.0
 40
5.499999999999972
  0
ARC
  5
397
330
1F
100
AcDbEntity
  8
0
  6
HIDDEN
 62
     7
370
     0
100
AcDbCircle
 10
65.0521539714
 20
156.4323441397
 30
0.0
 40
14.00000000000002
100
AcDbArc
 50
142.6168015821
 51
217.3831984179
  0
LINE
  5
398
330
1F
100
AcDbEntity
  8
0
  6
HIDDEN
 62
     7
370
     0
100
AcDbLine
 10
53.9278551008
 20
164.9323437636
 30
0.0
 11
76.1764519851
 21
164.9323437636
 31
0.0
  0
LINE
  5
399
330
1F
100
AcDbEntity
  8
0
  6
HIDDEN
 62
     7
370
     0
100
AcDbLine
 10
76.1764519851
 20
147.932343771
 30
0.0
 11
53.9278551008
 21
147.932343771
 31
0.0
  0
ARC
  5
39A
330
1F
100
AcDbEntity
  8
0
  6
HIDDEN
 62
     7
370
     0
100
AcDbCircle
 10
65.0521539714
 20
156.4323441397
 30
0.0
 40
14.00000000000003
100
AcDbArc
 50
322.6168015821
 51
37.3831984179
  0
CIRCLE
  5
39B
330
1F
100
AcDbEntity
  8
0
  6
HIDDEN
 62
     7
370
     0
100
AcDbCircle
 10
65.0521539714
 20
156.4323441397
 30
0.0
 40
3.399999999999977
  0
DIMENSION
  5
39C
330
1F
100
AcDbEntity
  8
0
  6
Continuous
 62
     7
370
     0
100
AcDbDimension
  2
_D_4
 10
80.0521539714
 20
191.6567938166
 30
0.0
 11
65.0521539714
 21
191.6567938166
 31
0.0
 70
   160
  1
<>
 71
     2
 42
-1.0
  3
SLDDIMSTYLE0
100
AcDbAlignedDimension
 13
50.0521539714
 23
179.4323441397
 33
0.0
 14
80.0521539714
 24
179.4323441397
 34
0.0
100
AcDbRotatedDimension
  0
DIMENSION
  5
3A6
330
1F
100
AcDbEntity
  8
0
  6
Continuous
 62
     7
370
     0
100
AcDbDimension
  2
_D_5
 10
32.6232801862
 20
141.4323441397
 30
0.0
 11
32.6232801862
 21
156.4323441397
 31
0.0
 70
   160
  1
<>
 71
     2
 42
-1.0
  3
SLDDIMSTYLE0
100
AcDbAlignedDimension
 13
42.0521539714
 23
171.4323441397
 33
0.0
 14
42.0521539714
 24
141.4323441397
 34
0.0
 50
90.0
100
AcDbRotatedDimension
  0
DIMENSION
  5
3B0
330
1F
100
AcDbEntity
  8
0
  6
Continuous
 62
     7
370
     0
100
AcDbDimension
  2
_D_6
 10
86.0521539714
 20
118.9323441397
 30
0.0
 11
65.0521539714
 21
118.9323441397
 31
0.0
 70
   160
  1
<>
 71
     2
 42
-1.0
  3
SLDDIMSTYLE0
100
AcDbAlignedDimension
 13
44.0521539714
 23
138.6770632351
 33
0.0
 14
86.0521539714
 24
138.6770632351
 34
0.0
100
AcDbRotatedDimension
  0
INSERT
  5
3BF
330
1F
100
AcDbEntity
  8
0
  6
Continuous
 62
     7
370
     0
100
AcDbBlockReference
  2
SW_NOTE_0
 10
90.8341645885
 20
191.0112221389
 30
0.0
  0
LEADER
  5
3C1
330
1F
100
AcDbEntity
  8
0
  6
Continuous
 62
     7
370
     0
100
AcDbLeader
  3
SLDDIMSTYLE2
 76
     2
 10
81.8602766412
 20
174.1929043021
 30
0.0
 10
90.8341645885
 20
191.0112221389
 30
0.0
  0
INSERT
  5
3CD
330
1F
100
AcDbEntity
  8
0
  6
Continuous
 62
     7
370
     0
100
AcDbBlockReference
  2
SW_CENTERMARKSYMBOL_0
 10
50.0521539714
 20
171.4323441397
 30
0.0
  0
INSERT
  5
3D9
330
1F
100
AcDbEntity
  8
0
  6
Continuous
 62
     7
370
     0
100
AcDbBlockReference
  2
SW_CENTERMARKSYMBOL_1
 10
80.0521539714
 20
171.4323441397
 30
0.0
  0
INSERT
  5
3E5
330
1F
100
AcDbEntity
  8
0
  6
Continuous
 62
     7
370
     0
100
AcDbBlockReference
  2
SW_CENTERMARKSYMBOL_2
 10
50.0521539714
 20
141.4323441397
 30
0.0
  0
INSERT
  5
3F1
330
1F
100
AcDbEntity
  8
0
  6
Continuous
 62
     7
370
     0
100
AcDbBlockReference
  2
SW_CENTERMARKSYMBOL_3
 10
80.0521539714
 20
141.4323441397
 30
0.0
  0
INSERT
  5
3FD
330
1F
100
AcDbEntity
  8
0
  6
Continuous
 62
     7
370
     0
100
AcDbBlockReference
  2
SW_CENTERMARKSYMBOL_4
 10
65.0521539714
 20
156.4323441397
 30
0.0
  0
ENDSEC
  0
SECTION
  2
OBJECTS
  0
DICTIONARY
  5
C
330
0
100
AcDbDictionary
281
     1
  3
ACAD_GROUP
350
D
  3
ACAD_LAYOUT
350
1A
  3
ACAD_MLINESTYLE
350
17
  3
ACAD_PLOTSETTINGS
350
19
  3
ACAD_PLOTSTYLENAME
350
E
  3
ACAD_SCALELIST
350
47
  0
DICTIONARY
  5
D
102
{ACAD_REACTORS
330
C
102
}
330
C
100
AcDbDictionary
281
     1
  0
DICTIONARY
  5
1A
102
{ACAD_REACTORS
330
C
102
}
330
C
100
AcDbDictionary
281
     1
  3
Layout1
350
1E
  3
Layout2
350
26
  3
Model
350
22
  0
DICTIONARY
  5
17
102
{ACAD_REACTORS
330
C
102
}
330
C
100
AcDbDictionary
281
     1
  3
Standard
350
18
  0
DICTIONARY
  5
19
102
{ACAD_REACTORS
330
C
102
}
330
C
100
AcDbDictionary
281
     1
  0
ACDBDICTIONARYWDFLT
  5
E
102
{ACAD_REACTORS
330
C
102
}
330
C
100
AcDbDictionary
281
     1
  3
Normal
350
F
100
AcDbDictionaryWithDefault
340
F
  0
DICTIONARY
  5
47
102
{ACAD_REACTORS
330
C
102
}
330
C
100
AcDbDictionary
281
     1
  3
A0
350
48
  3
A1
350
49
  3
A2
350
4A
  3
A3
350
4B
  3
A4
350
4C
  3
A5
350
4D
  3
A6
350
4E
  3
A7
350
4F
  3
A8
350
50
  3
A9
350
51
  3
B0
350
52
  3
B1
350
53
  3
B2
350
54
  3
B3
350
55
  3
B4
350
56
  3
B5
350
57
  3
B6
350
58
  3
B7
350
59
  3
B8
350
5A
  3
B9
350
5B
  3
C0
350
5C
  3
C1
350
5D
  3
C2
350
5E
  3
C3
350
5F
  3
C4
350
60
  3
C5
350
61
  3
C6
350
62
  3
C7
350
63
  3
C8
350
64
  3
C9
350
65
  3
D0
350
66
  3
D1
350
67
  3
D2
350
68
  0
LAYOUT
  5
1E
102
{ACAD_REACTORS
330
1A
102
}
330
1A
100
AcDbPlotSettings
  1

  2
none_device
  4

  6

 40
0.0
 41
0.0
 42
0.0
 43
0.0
 44
0.0
 45
0.0
 46
0.0
 47
0.0
 48
0.0
 49
0.0
140
0.0
141
0.0
142
1.0
143
1.0
 70
   688
 72
     1
 73
     0
 74
     5
  7

 75
    16
147
1.0
148
0.0
149
0.0
100
AcDbLayout
  1
Layout1
 70
     1
 71
     1
 10
0.0
 20
0.0
 11
420.0
 21
297.0
 12
0.0
 22
0.0
 32
0.0
 14
1.0000000000E+20
 24
1.0000000000E+20
 34
1.0000000000E+20
 15
-1.0000000000E+20
 25
-1.0000000000E+20
 35
-1.0000000000E+20
146
0.0
 13
0.0
 23
0.0
 33
0.0
 16
1.0
 26
0.0
 36
0.0
 17
0.0
 27
1.0
 37
0.0
 76
     0
330
1B
  0
LAYOUT
  5
26
102
{ACAD_REACTORS
330
1A
102
}
330
1A
100
AcDbPlotSettings
  1

  2
none_device
  4

  6

 40
0.0
 41
0.0
 42
0.0
 43
0.0
 44
0.0
 45
0.0
 46
0.0
 47
0.0
 48
0.0
 49
0.0
140
0.0
141
0.0
142
1.0
143
1.0
 70
   688
 72
     1
 73
     0
 74
     5
  7

 75
    16
147
1.0
148
0.0
149
0.0
100
AcDbLayout
  1
Layout2
 70
     1
 71
     2
 10
0.0
 20
0.0
 11
0.0
 21
0.0
 12
0.0
 22
0.0
 32
0.0
 14
0.0
 24
0.0
 34
0.0
 15
0.0
 25
0.0
 35
0.0
146
0.0
 13
0.0
 23
0.0
 33
0.0
 16
1.0
 26
0.0
 36
0.0
 17
0.0
 27
1.0
 37
0.0
 76
     0
330
23
  0
LAYOUT
  5
22
102
{ACAD_REACTORS
330
1A
102
}
330
1A
100
AcDbPlotSettings
  1

  2
none_device
  4
Letter_(8.50_x_11.00_Inches)
  6

 40
6.35
 41
6.35
 42
6.35000508
 43
6.35000508
 44
215.9
 45
279.4
 46
0.0
 47
0.0
 48
0.0
 49
0.0
140
0.0
141
0.0
142
1.0
143
1.0
 70
  1712
 72
     1
 73
     0
 74
     0
  7

 75
     0
147
1.0
148
0.0
149
0.0
100
AcDbLayout
  1
Model
 70
     1
 71
     0
 10
0.0
 20
0.0
 11
210.0
 21
297.0
 12
0.0
 22
0.0
 32
0.0
 14
0.0
 24
0.0
 34
0.0
 15
210.0
 25
297.0
 35
0.0
146
0.0
 13
0.0
 23
0.0
 33
0.0
 16
1.0
 26
0.0
 36
0.0
 17
0.0
 27
1.0
 37
0.0
 76
     0
330
1F
331
29
  0
MLINESTYLE
  5
18
102
{ACAD_REACTORS
330
17
102
}
330
17
100
AcDbMlineStyle
  2
Standard
 70
     0
  3

 62
   256
 51
90.0
 52
90.0
 71
     2
 49
0.5
 62
   256
  6
BYLAYER
 49
-0.5
 62
   256
  6
BYLAYER
  0
ACDBPLACEHOLDER
  5
F
102
{ACAD_REACTORS
330
E
102
}
330
E
  0
SCALE
  5
48
102
{ACAD_REACTORS
330
47
102
}
330
47
100
AcDbScale
 70
     0
300
1:1
140
1.0
141
1.0
290
     1
  0
SCALE
  5
49
102
{ACAD_REACTORS
330
47
102
}
330
47
100
AcDbScale
 70
     0
300
1:2
140
1.0
141
2.0
290
     0
  0
SCALE
  5
4A
102
{ACAD_REACTORS
330
47
102
}
330
47
100
AcDbScale
 70
     0
300
1:4
140
1.0
141
4.0
290
     0
  0
SCALE
  5
4B
102
{ACAD_REACTORS
330
47
102
}
330
47
100
AcDbScale
 70
     0
300
1:5
140
1.0
141
5.0
290
     0
  0
SCALE
  5
4C
102
{ACAD_REACTORS
330
47
102
}
330
47
100
AcDbScale
 70
     0
300
1:8
140
1.0
141
8.0
290
     0
  0
SCALE
  5
4D
102
{ACAD_REACTORS
330
47
102
}
330
47
100
AcDbScale
 70
     0
300
1:10
140
1.0
141
10.0
290
     0
  0
SCALE
  5
4E
102
{ACAD_REACTORS
330
47
102
}
330
47
100
AcDbScale
 70
     0
300
1:16
140
1.0
141
16.0
290
     0
  0
SCALE
  5
4F
102
{ACAD_REACTORS
330
47
102
}
330
47
100
AcDbScale
 70
     0
300
1:20
140
1.0
141
20.0
290
     0
  0
SCALE
  5
50
102
{ACAD_REACTORS
330
47
102
}
330
47
100
AcDbScale
 70
     0
300
1:30
140
1.0
141
30.0
290
     0
  0
SCALE
  5
51
102
{ACAD_REACTORS
330
47
102
}
330
47
100
AcDbScale
 70
     0
300
1:40
140
1.0
141
40.0
290
     0
  0
SCALE
  5
52
102
{ACAD_REACTORS
330
47
102
}
330
47
100
AcDbScale
 70
     0
300
1:50
140
1.0
141
50.0
290
     0
  0
SCALE
  5
53
102
{ACAD_REACTORS
330
47
102
}
330
47
100
AcDbScale
 70
     0
300
1:100
140
1.0
141
100.0
290
     0
  0
SCALE
  5
54
102
{ACAD_REACTORS
330
47
102
}
330
47
100
AcDbScale
 70
     0
300
2:1
140
2.0
141
1.0
290
     0
  0
SCALE
  5
55
102
{ACAD_REACTORS
330
47
102
}
330
47
100
AcDbScale
 70
     0
300
4:1
140
4.0
141
1.0
290
     0
  0
SCALE
  5
56
102
{ACAD_REACTORS
330
47
102
}
330
47
100
AcDbScale
 70
     0
300
8:1
140
8.0
141
1.0
290
     0
  0
SCALE
  5
57
102
{ACAD_REACTORS
330
47
102
}
330
47
100
AcDbScale
 70
     0
300
10:1
140
10.0
141
1.0
290
     0
  0
SCALE
  5
58
102
{ACAD_REACTORS
330
47
102
}
330
47
100
AcDbScale
 70
     0
300
100:1
140
100.0
141
1.0
290
     0
  0
SCALE
  5
59
102
{ACAD_REACTORS
330
47
102
}
330
47
100
AcDbScale
 70
     0
300
1/128" = 1'-0"
140
0.0078125
141
12.0
290
     0
  0
SCALE
  5
5A
102
{ACAD_REACTORS
330
47
102
}
330
47
100
AcDbScale
 70
     0
300
1/64" = 1'-0"
140
0.015625
141
12.0
290
     0
  0
SCALE
  5
5B
102
{ACAD_REACTORS
330
47
102
}
330
47
100
AcDbScale
 70
     0
300
1/32" = 1'-0"
140
0.03125
141
12.0
290
     0
  0
SCALE
  5
5C
102
{ACAD_REACTORS
330
47
102
}
330
47
100
AcDbScale
 70
     0
300
1/16" = 1'-0"
140
0.0625
141
12.0
290
     0
  0
SCALE
  5
5D
102
{ACAD_REACTORS
330
47
102
}
330
47
100
AcDbScale
 70
     0
300
3/32" = 1'-0"
140
0.09375
141
12.0
290
     0
  0
SCALE
  5
5E
102
{ACAD_REACTORS
330
47
102
}
330
47
100
AcDbScale
 70
     0
300
1/8" = 1'-0"
140
0.125
141
12.0
290
     0
  0
SCALE
  5
5F
102
{ACAD_REACTORS
330
47
102
}
330
47
100
AcDbScale
 70
     0
300
3/16" = 1'-0"
140
0.1875
141
12.0
290
     0
  0
SCALE
  5
60
102
{ACAD_REACTORS
330
47
102
}
330
47
100
AcDbScale
 70
     0
300
1/4" = 1'-0"
140
0.25
141
12.0
290
     0
  0
SCALE
  5
61
102
{ACAD_REACTORS
330
47
102
}
330
47
100
AcDbScale
 70
     0
300
3/8" = 1'-0"
140
0.375
141
12.0
290
     0
  0
SCALE
  5
62
102
{ACAD_REACTORS
330
47
102
}
330
47
100
AcDbScale
 70
     0
300
1/2" = 1'-0"
140
0.5
141
12.0
290
     0
  0
SCALE
  5
63
102
{ACAD_REACTORS
330
47
102
}
330
47
100
AcDbScale
 70
     0
300
3/4" = 1'-0"
140
0.75
141
12.0
290
     0
  0
SCALE
  5
64
102
{ACAD_REACTORS
330
47
102
}
330
47
100
AcDbScale
 70
     0
300
1" = 1'-0"
140
1.0
141
12.0
290
     0
  0
SCALE
  5
65
102
{ACAD_REACTORS
330
47
102
}
330
47
100
AcDbScale
 70
     0
300
1-1/2" = 1'-0"
140
1.5
141
12.0
290
     0
  0
SCALE
  5
66
102
{ACAD_REACTORS
330
47
102
}
330
47
100
AcDbScale
 70
     0
300
3" = 1'-0"
140
3.0
141
12.0
290
     0
  0
SCALE
  5
67
102
{ACAD_REACTORS
330
47
102
}
330
47
100
AcDbScale
 70
     0
300
6" = 1'-0"
140
6.0
141
12.0
290
     0
  0
SCALE
  5
68
102
{ACAD_REACTORS
330
47
102
}
330
47
100
AcDbScale
 70
     0
300
1'-0" = 1'-0"
140
12.0
141
12.0
290
     0
  0
ENDSEC
  0
EOF
