  0
SECTION
  2
HEADER
  9
$ACADVER
  1
AC1015
  9
$ACADMAINTVER
 70
     6
  9
$DWGCODEPAGE
  3
DOS932
  9
$INSBASE
 10
0.0
 20
0.0
 30
0.0
  9
$EXTMIN
 10
0.0
 20
0.0
 30
0.0
  9
$EXTMAX
 10
210.0
 20
297.0
 30
0.0
  9
$LIMMIN
 10
0.0
 20
0.0
  9
$LIMMAX
 10
0.0
 20
0.0
  9
$ORTHOMODE
 70
     0
  9
$REGENMODE
 70
     1
  9
$FILLMODE
 70
     1
  9
$QTEXTMODE
 70
     0
  9
$MIRRTEXT
 70
     1
  9
$LTSCALE
 40
1.0
  9
$ATTMODE
 70
     1
  9
$TEXTSIZE
 40
3.5
  9
$TRACEWID
 40
1.0
  9
$TEXTSTYLE
  7
Standard
  9
$CLAYER
  8
0
  9
$CELTYPE
  6
ByLayer
  9
$CECOLOR
 62
   256
  9
$CELTSCALE
 40
1.0
  9
$DISPSILH
 70
     0
  9
$DIMSCALE
 40
1.0
  9
$DIMASZ
 40
3.0
  9
$DIMEXO
 40
1.0
  9
$DIMDLI
 40
3.75
  9
$DIMRND
 40
0.0
  9
$DIMDLE
 40
0.0
  9
$DIMEXE
 40
1.0
  9
$DIMTP
 40
0.0
  9
$DIMTM
 40
0.0
  9
$DIMTXT
 40
3.5
  9
$DIMCEN
 40
2.5
  9
$DIMTSZ
 40
0.0
  9
$DIMTOL
 70
     0
  9
$DIMLIM
 70
     0
  9
$DIMTIH
 70
     1
  9
$DIMTOH
 70
     1
  9
$DIMSE1
 70
     0
  9
$DIMSE2
 70
     0
  9
$DIMTAD
 70
     1
  9
$DIMZIN
 70
     0
  9
$DIMBLK
  1

  9
$DIMASO
 70
     1
  9
$DIMSHO
 70
     1
  9
$DIMPOST
  1

  9
$DIMAPOST
  1

  9
$DIMALT
 70
     0
  9
$DIMALTD
 70
     3
  9
$DIMALTF
 40
0.0393700787
  9
$DIMLFAC
 40
1.0
  9
$DIMTOFL
 70
     1
  9
$DIMTVP
 40
0.0
  9
$DIMTIX
 70
     0
  9
$DIMSOXD
 70
     0
  9
$DIMSAH
 70
     0
  9
$DIMBLK1
  1

  9
$DIMBLK2
  1

  9
$DIMSTYLE
  2
ISO-25
  9
$DIMCLRD
 70
     0
  9
$DIMCLRE
 70
     0
  9
$DIMCLRT
 70
     0
  9
$DIMTFAC
 40
1.0
  9
$DIMGAP
 40
1.524
  9
$DIMJUST
 70
     0
  9
$DIMSD1
 70
     0
  9
$DIMSD2
 70
     0
  9
$DIMTOLJ
 70
     0
  9
$DIMTZIN
 70
     0
  9
$DIMALTZ
 70
     0
  9
$DIMALTTZ
 70
     0
  9
$DIMUPT
 70
     0
  9
$DIMDEC
 70
     2
  9
$DIMTDEC
 70
     2
  9
$DIMALTU
 70
     2
  9
$DIMALTTD
 70
     3
  9
$DIMTXSTY
  7
Standard
  9
$DIMAUNIT
 70
     0
  9
$DIMADEC
 70
     0
  9
$DIMALTRND
 40
0.0
  9
$DIMAZIN
 70
     0
  9
$DIMDSEP
 70
    44
  9
$DIMATFIT
 70
     3
  9
$DIMFRAC
 70
     0
  9
$DIMLDRBLK
  1

  9
$DIMLUNIT
 70
     2
  9
$DIMLWD
 70
    -2
  9
$DIMLWE
 70
    -2
  9
$DIMTMOVE
 70
     0
  9
$LUNITS
 70
     2
  9
$LUPREC
 70
     1
  9
$SKETCHINC
 40
1.0
  9
$FILLETRAD
 40
10.0
  9
$AUNITS
 70
     0
  9
$AUPREC
 70
     0
  9
$MENU
  1
.
  9
$ELEVATION
 40
0.0
  9
$PELEVATION
 40
0.0
  9
$THICKNESS
 40
0.0
  9
$LIMCHECK
 70
     0
  9
$CHAMFERA
 40
10.0
  9
$CHAMFERB
 40
10.0
  9
$CHAMFERC
 40
20.0
  9
$CHAMFERD
 40
0.0
  9
$SKPOLY
 70
     0
  9
$TDCREATE
 40
2454426.757905266
  9
$TDUCREATE
 40
2454426.382905266
  9
$TDUPDATE
 40
2454426.757905278
  9
$TDUUPDATE
 40
2454426.382905278
  9
$TDINDWG
 40
0.0000000116
  9
$TDUSRTIMER
 40
0.0000000116
  9
$USRTIMER
 70
     1
  9
$ANGBASE
 50
0.0
  9
$ANGDIR
 70
     0
  9
$PDMODE
 70
     0
  9
$PDSIZE
 40
-1.0
  9
$PLINEWID
 40
0.0
  9
$SPLFRAME
 70
     0
  9
$SPLINETYPE
 70
     6
  9
$SPLINESEGS
 70
     8
  9
$HANDSEED
  5
15C
  9
$SURFTAB1
 70
     6
  9
$SURFTAB2
 70
     6
  9
$SURFTYPE
 70
     6
  9
$SURFU
 70
     6
  9
$SURFV
 70
     6
  9
$UCSBASE
  2

  9
$UCSNAME
  2

  9
$UCSORG
 10
0.0
 20
0.0
 30
0.0
  9
$UCSXDIR
 10
1.0
 20
0.0
 30
0.0
  9
$UCSYDIR
 10
0.0
 20
1.0
 30
0.0
  9
$UCSORTHOREF
  2

  9
$UCSORTHOVIEW
 70
     0
  9
$UCSORGTOP
 10
0.0
 20
0.0
 30
0.0
  9
$UCSORGBOTTOM
 10
0.0
 20
0.0
 30
0.0
  9
$UCSORGLEFT
 10
0.0
 20
0.0
 30
0.0
  9
$UCSORGRIGHT
 10
0.0
 20
0.0
 30
0.0
  9
$UCSORGFRONT
 10
0.0
 20
0.0
 30
0.0
  9
$UCSORGBACK
 10
0.0
 20
0.0
 30
0.0
  9
$PUCSBASE
  2

  9
$PUCSNAME
  2

  9
$PUCSORG
 10
0.0
 20
0.0
 30
0.0
  9
$PUCSXDIR
 10
1.0
 20
0.0
 30
0.0
  9
$PUCSYDIR
 10
0.0
 20
1.0
 30
0.0
  9
$PUCSORTHOREF
  2

  9
$PUCSORTHOVIEW
 70
     0
  9
$PUCSORGTOP
 10
0.0
 20
0.0
 30
0.0
  9
$PUCSORGBOTTOM
 10
0.0
 20
0.0
 30
0.0
  9
$PUCSORGLEFT
 10
0.0
 20
0.0
 30
0.0
  9
$PUCSORGRIGHT
 10
0.0
 20
0.0
 30
0.0
  9
$PUCSORGFRONT
 10
0.0
 20
0.0
 30
0.0
  9
$PUCSORGBACK
 10
0.0
 20
0.0
 30
0.0
  9
$USERI1
 70
     0
  9
$USERI2
 70
     0
  9
$USERI3
 70
     0
  9
$USERI4
 70
     0
  9
$USERI5
 70
     0
  9
$USERR1
 40
0.0
  9
$USERR2
 40
0.0
  9
$USERR3
 40
0.0
  9
$USERR4
 40
0.0
  9
$USERR5
 40
0.0
  9
$WORLDVIEW
 70
     1
  9
$SHADEDGE
 70
     3
  9
$SHADEDIF
 70
    70
  9
$TILEMODE
 70
     1
  9
$MAXACTVP
 70
    64
  9
$PINSBASE
 10
0.0
 20
0.0
 30
0.0
  9
$PLIMCHECK
 70
     0
  9
$PEXTMIN
 10
1.0000000000E+20
 20
1.0000000000E+20
 30
1.0000000000E+20
  9
$PEXTMAX
 10
-1.0000000000E+20
 20
-1.0000000000E+20
 30
-1.0000000000E+20
  9
$PLIMMIN
 10
0.0
 20
0.0
  9
$PLIMMAX
 10
420.0
 20
297.0
  9
$UNITMODE
 70
     0
  9
$VISRETAIN
 70
     1
  9
$PLINEGEN
 70
     0
  9
$PSLTSCALE
 70
     1
  9
$TREEDEPTH
 70
  3020
  9
$CMLSTYLE
  2
Standard
  9
$CMLJUST
 70
     0
  9
$CMLSCALE
 40
20.0
  9
$PROXYGRAPHICS
 70
     1
  9
$MEASUREMENT
 70
     1
  9
$CELWEIGHT
370
    -1
  9
$ENDCAPS
280
     0
  9
$JOINSTYLE
280
     0
  9
$LWDISPLAY
290
     1
  9
$INSUNITS
 70
     4
  9
$HYPERLINKBASE
  1

  9
$STYLESHEET
  1

  9
$XEDIT
290
     1
  9
$CEPSNTYPE
380
     0
  9
$PSTYLEMODE
290
     1
  9
$FINGERPRINTGUID
  2
{8AC7620B-BC68-41F2-869B-87308AD64435}
  9
$VERSIONGUID
  2
{FAEB1C32-E019-11D5-929B-00C0DF256EC4}
  9
$EXTNAMES
290
     1
  9
$PSVPSCALE
 40
0.0
  9
$OLESTARTUP
290
     0
  0
ENDSEC
  0
SECTION
  2
CLASSES
  0
CLASS
  1
ACDBDICTIONARYWDFLT
  2
AcDbDictionaryWithDefault
  3
ObjectDBX Classes
 90
        0
280
     0
281
     0
  0
CLASS
  1
ACDBPLACEHOLDER
  2
AcDbPlaceHolder
  3
ObjectDBX Classes
 90
        0
280
     0
281
     0
  0
CLASS
  1
LAYOUT
  2
AcDbLayout
  3
ObjectDBX Classes
 90
        0
280
     0
281
     0
  0
ENDSEC
  0
SECTION
  2
TABLES
  0
TABLE
  2
VPORT
  5
8
330
0
100
AcDbSymbolTable
 70
     1
  0
VPORT
  5
29
330
8
100
AcDbSymbolTableRecord
100
AcDbViewportTableRecord
  2
*Active
 70
     0
 10
0.0
 20
0.0
 11
1.0
 21
1.0
 12
105.0
 22
148.5
 13
0.0
 23
0.0
 14
10.0
 24
10.0
 15
10.0
 25
10.0
 16
0.0
 26
0.0
 36
1.0
 17
0.0
 27
0.0
 37
0.0
 40
297.0
 41
1.9729729729
 42
50.0
 43
0.0
 44
0.0
 50
0.0
 51
0.0
 71
     0
 72
  2000
 73
     1
 74
     3
 75
     0
 76
     0
 77
     0
 78
     0
281
     0
 65
     1
110
0.0
120
0.0
130
0.0
111
1.0
121
0.0
131
0.0
112
0.0
122
1.0
132
0.0
 79
     0
146
0.0
  0
ENDTAB
  0
TABLE
  2
LTYPE
  5
5
330
0
100
AcDbSymbolTable
 70
     6
  0
LTYPE
  5
14
330
5
100
AcDbSymbolTableRecord
100
AcDbLinetypeTableRecord
  2
ByBlock
 70
     0
  3

 72
    65
 73
     0
 40
0.0
  0
LTYPE
  5
15
330
5
100
AcDbSymbolTableRecord
100
AcDbLinetypeTableRecord
  2
ByLayer
 70
     0
  3

 72
    65
 73
     0
 40
0.0
  0
LTYPE
  5
16
330
5
100
AcDbSymbolTableRecord
100
AcDbLinetypeTableRecord
  2
Continuous
 70
     0
  3
Solid line
 72
    65
 73
     0
 40
0.0
  0
LTYPE
  5
2A
330
5
100
AcDbSymbolTableRecord
100
AcDbLinetypeTableRecord
  2
HIDDEN
 70
     0
  3
Hidden __ __ __ __ __ __ __ __ __ __ __ __ __ __
 72
    65
 73
     2
 40
1.905
 49
1.27
 74
     0
 49
-0.635
 74
     0
  0
LTYPE
  5
2B
330
5
100
AcDbSymbolTableRecord
100
AcDbLinetypeTableRecord
  2
PHANTOM
 70
     0
  3
Phantom ______  __  __  ______  __  __  ______
 72
    65
 73
     6
 40
12.7
 49
6.35
 74
     0
 49
-1.27
 74
     0
 49
1.27
 74
     0
 49
-1.27
 74
     0
 49
1.27
 74
     0
 49
-1.27
 74
     0
  0
LTYPE
  5
2C
330
5
100
AcDbSymbolTableRecord
100
AcDbLinetypeTableRecord
  2
CENTER
 70
     0
  3
Center ____ _ ____ _ ____ _ ____ _ ____ _ ____
 72
    65
 73
     4
 40
10.16
 49
6.35
 74
     0
 49
-1.27
 74
     0
 49
1.27
 74
     0
 49
-1.27
 74
     0
  0
LTYPE
  5
2D
330
5
100
AcDbSymbolTableRecord
100
AcDbLinetypeTableRecord
  2
CENTERX2
 70
     0
  3
Center (2x) ________  __  ________  __  _____
 72
    65
 73
     4
 40
20.32
 49
12.7
 74
     0
 49
-2.54
 74
     0
 49
2.54
 74
     0
 49
-2.54
 74
     0
  0
LTYPE
  5
2E
330
5
100
AcDbSymbolTableRecord
100
AcDbLinetypeTableRecord
  2
DOT2
 70
     0
  3
Dot (.5x) ........................................
 72
    65
 73
     2
 40
0.635
 49
0.0
 74
     0
 49
-0.635
 74
     0
  0
ENDTAB
  0
TABLE
  2
LAYER
  5
2
330
0
100
AcDbSymbolTable
 70
     2
  0
LAYER
  5
10
330
2
100
AcDbSymbolTableRecord
100
AcDbLayerTableRecord
  2
0
 70
     0
 62
     7
  6
Continuous
370
    -3
390
F
  0
LAYER
  5
84
330
2
100
AcDbSymbolTableRecord
100
AcDbLayerTableRecord
  2
Defpoints
 70
     0
 62
     7
  6
Continuous
290
     0
370
    -3
390
F
  0
ENDTAB
  0
TABLE
  2
STYLE
  5
3
330
0
100
AcDbSymbolTable
 70
     2
  0
STYLE
  5
11
330
3
100
AcDbSymbolTableRecord
100
AcDbTextStyleTableRecord
  2
Standard
 70
     0
 40
0.0
 41
1.0
 50
0.0
 71
     0
 42
2.5
  3
txt
  4
bigfont
  0
STYLE
  5
37
330
3
100
AcDbSymbolTableRecord
100
AcDbTextStyleTableRecord
  2
SLDTEXTSTYLE0
 70
     0
 40
0.0
 41
0.7
 50
0.0
 71
     0
 42
0.2
  3
TXT
  4
bigfont
  0
ENDTAB
  0
TABLE
  2
VIEW
  5
6
330
0
100
AcDbSymbolTable
 70
     0
  0
ENDTAB
  0
TABLE
  2
UCS
  5
7
330
0
100
AcDbSymbolTable
 70
     0
  0
ENDTAB
  0
TABLE
  2
APPID
  5
9
330
0
100
AcDbSymbolTable
 70
     1
  0
APPID
  5
12
330
9
100
AcDbSymbolTableRecord
100
AcDbRegAppTableRecord
  2
ACAD
 70
     0
  0
ENDTAB
  0
TABLE
  2
DIMSTYLE
  5
A
330
0
100
AcDbSymbolTable
 70
     2
100
AcDbDimStyleTable
  0
DIMSTYLE
105
27
330
A
100
AcDbSymbolTableRecord
100
AcDbDimStyleTableRecord
  2
ISO-25
 70
     0
 41
2.5
 42
0.625
 43
3.75
 44
1.25
 73
     0
 74
     0
 77
     1
 78
     8
140
2.5
141
2.5
143
0.0393700787
147
0.625
171
     3
172
     1
271
     2
272
     2
274
     3
278
    44
283
     0
284
     8
340
11
  0
DIMSTYLE
105
92
102
{ACAD_REACTORS
330
83
330
9F
330
B2
330
C6
330
DA
330
135
330
149
102
}
330
A
100
AcDbSymbolTableRecord
100
AcDbDimStyleTableRecord
  2
SLDDIMSTYLE0
 70
     0
 41
3.0
 44
0.0
 73
     0
 74
     0
 77
     3
 78
    12
140
3.5
147
0.875
173
     1
271
     1
272
     3
284
    12
340
37
341
93
343
93
344
93
  0
ENDTAB
  0
TABLE
  2
BLOCK_RECORD
  5
1
330
0
100
AcDbSymbolTable
 70
     9
  0
BLOCK_RECORD
  5
1F
330
1
100
AcDbSymbolTableRecord
100
AcDbBlockTableRecord
  2
*Model_Space
340
22
  0
BLOCK_RECORD
  5
1B
330
1
100
AcDbSymbolTableRecord
100
AcDbBlockTableRecord
  2
*Paper_Space
340
1E
  0
BLOCK_RECORD
  5
23
330
1
100
AcDbSymbolTableRecord
100
AcDbBlockTableRecord
  2
*Paper_Space0
340
26
  0
BLOCK_RECORD
  5
85
330
1
100
AcDbSymbolTableRecord
100
AcDbBlockTableRecord
  2
*D1
340
0
  0
BLOCK_RECORD
  5
93
330
1
100
AcDbSymbolTableRecord
100
AcDbBlockTableRecord
  2
_Open30
340
0
102
{BLKREFS
331
8A
331
89
331
99
331
9A
331
A5
331
A4
331
AC
331
AD
331
B8
331
B7
331
C0
331
C1
331
CC
331
CB
331
D4
331
D5
331
E0
331
DF
331
E7
331
E8
331
13B
331
13A
331
143
331
144
331
14F
331
14E
331
156
331
157
102
}
  0
BLOCK_RECORD
  5
A0
330
1
100
AcDbSymbolTableRecord
100
AcDbBlockTableRecord
  2
*D3
340
0
  0
BLOCK_RECORD
  5
B3
330
1
100
AcDbSymbolTableRecord
100
AcDbBlockTableRecord
  2
*D4
340
0
  0
BLOCK_RECORD
  5
C7
330
1
100
AcDbSymbolTableRecord
100
AcDbBlockTableRecord
  2
*D5
340
0
  0
BLOCK_RECORD
  5
DB
330
1
100
AcDbSymbolTableRecord
100
AcDbBlockTableRecord
  2
*D6
340
0
  0
BLOCK_RECORD
  5
136
330
1
100
AcDbSymbolTableRecord
100
AcDbBlockTableRecord
  2
*D7
340
0
  0
BLOCK_RECORD
  5
14A
330
1
100
AcDbSymbolTableRecord
100
AcDbBlockTableRecord
  2
*D8
340
0
  0
ENDTAB
  0
ENDSEC
  0
SECTION
  2
BLOCKS
  0
BLOCK
  5
20
330
1F
100
AcDbEntity
  8
0
100
AcDbBlockBegin
  2
*Model_Space
 70
     0
 71
     0
 10
0.0
 20
0.0
 30
0.0
  3
*Model_Space
  1

  0
ENDBLK
  5
21
330
1F
100
AcDbEntity
  8
0
100
AcDbBlockEnd
  0
BLOCK
  5
1C
330
1B
100
AcDbEntity
 67
     1
  8
0
100
AcDbBlockBegin
  2
*Paper_Space
 70
     0
 71
     0
 10
0.0
 20
0.0
 30
0.0
  3
*Paper_Space
  1

  0
ENDBLK
  5
1D
330
1B
100
AcDbEntity
 67
     1
  8
0
100
AcDbBlockEnd
  0
BLOCK
  5
24
330
23
100
AcDbEntity
  8
0
100
AcDbBlockBegin
  2
*Paper_Space0
 70
     0
 71
     0
 10
0.0
 20
0.0
 30
0.0
  3
*Paper_Space0
  1

  0
ENDBLK
  5
25
330
23
100
AcDbEntity
  8
0
100
AcDbBlockEnd
  0
BLOCK
  5
90
330
85
100
AcDbEntity
  8
0
100
AcDbBlockBegin
  2
*D1
 70
     1
 71
     0
 10
0.0
 20
0.0
 30
0.0
  3
*D1
  1

  0
INSERT
  5
99
330
85
100
AcDbEntity
  8
0
  6
Continuous
 62
     7
370
     0
100
AcDbBlockReference
  2
_Open30
 10
62.3708670519
 20
139.027551292
 30
-0.4
 41
3.0
 42
3.0
 50
90.0
  0
INSERT
  5
9A
330
85
100
AcDbEntity
  8
0
  6
Continuous
 62
     7
370
     0
100
AcDbBlockReference
  2
_Open30
 10
62.3708670519
 20
113.027551292
 30
-0.4
 41
3.0
 42
3.0
 50
270.0
  0
LINE
  5
9B
330
85
100
AcDbEntity
  8
0
  6
Continuous
 62
     7
370
     0
100
AcDbLine
 10
72.1704390931
 20
139.027551292
 30
0.0
 11
61.3708670519
 21
139.027551292
 31
0.0
  0
LINE
  5
9C
330
85
100
AcDbEntity
  8
0
  6
Continuous
 62
     7
370
     0
100
AcDbLine
 10
74.1704390931
 20
113.027551292
 30
0.0
 11
61.3708670519
 21
113.027551292
 31
0.0
  0
LINE
  5
9D
330
85
100
AcDbEntity
  8
0
  6
Continuous
 62
     7
370
     0
100
AcDbLine
 10
62.3708670519
 20
139.027551292
 30
0.0
 11
62.3708670519
 21
113.027551292
 31
0.0
  0
MTEXT
  5
9E
330
85
100
AcDbEntity
  8
0
  6
Continuous
 62
     7
370
     0
100
AcDbMText
 10
58.298140012
 20
123.9913220647
 30
0.0
 40
3.5
 41
0.0
 71
     1
 72
     1
  1
26
  7
SLDTEXTSTYLE0
 11
-7.044197039909883E-15
 21
1.0
 31
0.0
 73
     1
 44
1.0
  0
ENDBLK
  5
91
330
85
100
AcDbEntity
  8
0
100
AcDbBlockEnd
  0
BLOCK
  5
94
330
93
100
AcDbEntity
  8
0
100
AcDbBlockBegin
  2
_Open30
 70
     0
 71
     0
 10
0.0
 20
0.0
 30
0.0
  3
_Open30
  1

  0
LINE
  5
96
330
93
100
AcDbEntity
  8
0
  6
ByBlock
 62
     0
370
    -2
100
AcDbLine
 10
-1.0
 20
0.267949
 30
0.0
 11
0.0
 21
0.0
 31
0.0
  0
LINE
  5
97
330
93
100
AcDbEntity
  8
0
  6
ByBlock
 62
     0
370
    -2
100
AcDbLine
 10
0.0
 20
0.0
 30
0.0
 11
-1.0
 21
-0.267949
 31
0.0
  0
LINE
  5
98
330
93
100
AcDbEntity
  8
0
  6
ByBlock
 62
     0
370
    -2
100
AcDbLine
 10
0.0
 20
0.0
 30
0.0
 11
-1.0
 21
0.0
 31
0.0
  0
ENDBLK
  5
95
330
93
100
AcDbEntity
  8
0
100
AcDbBlockEnd
  0
BLOCK
  5
AA
330
A0
100
AcDbEntity
  8
0
100
AcDbBlockBegin
  2
*D3
 70
     1
 71
     0
 10
0.0
 20
0.0
 30
0.0
  3
*D3
  1

  0
INSERT
  5
AC
330
A0
100
AcDbEntity
  8
0
  6
Continuous
 62
     7
370
     0
100
AcDbBlockReference
  2
_Open30
 10
86.8703441095
 20
142.0537238452
 30
-0.4
 41
3.0
 42
3.0
 50
180.0
  0
INSERT
  5
AD
330
A0
100
AcDbEntity
  8
0
  6
Continuous
 62
     7
370
     0
100
AcDbBlockReference
  2
_Open30
 10
112.2703441095
 20
142.0537238452
 30
-0.4
 41
3.0
 42
3.0
 50
360.0
  0
LINE
  5
AE
330
A0
100
AcDbEntity
  8
0
  6
Continuous
 62
     7
370
     0
100
AcDbLine
 10
86.8703441095
 20
133.0860149412
 30
0.0
 11
86.8703441095
 21
143.0537238452
 31
0.0
  0
LINE
  5
AF
330
A0
100
AcDbEntity
  8
0
  6
Continuous
 62
     7
370
     0
100
AcDbLine
 10
112.2703441095
 20
133.0860149412
 30
0.0
 11
112.2703441095
 21
143.0537238452
 31
0.0
  0
LINE
  5
B0
330
A0
100
AcDbEntity
  8
0
  6
Continuous
 62
     7
370
     0
100
AcDbLine
 10
86.8703441095
 20
142.0537238452
 30
0.0
 11
112.2703441095
 21
142.0537238452
 31
0.0
  0
MTEXT
  5
B1
330
A0
100
AcDbEntity
  8
0
  6
Continuous
 62
     7
370
     0
100
AcDbMText
 10
95.4978856549
 20
146.1264508851
 30
0.0
 40
3.5
 41
0.0
 71
     1
 72
     1
  1
25.4
  7
SLDTEXTSTYLE0
 73
     1
 44
1.0
  0
ENDBLK
  5
AB
330
A0
100
AcDbEntity
  8
0
100
AcDbBlockEnd
  0
BLOCK
  5
BE
330
B3
100
AcDbEntity
  8
0
100
AcDbBlockBegin
  2
*D4
 70
     1
 71
     0
 10
0.0
 20
0.0
 30
0.0
  3
*D4
  1

  0
INSERT
  5
C0
330
B3
100
AcDbEntity
  8
0
  6
Continuous
 62
     7
370
     0
100
AcDbBlockReference
  2
_Open30
 10
133.6085618789
 20
133.6656740778
 30
-0.4
 41
3.0
 42
3.0
 50
135.0
  0
INSERT
  5
C1
330
B3
100
AcDbEntity
  8
0
  6
Continuous
 62
     7
370
     0
100
AcDbBlockReference
  2
_Open30
 10
148.4578042839
 20
118.8164316729
 30
-0.4
 41
3.0
 42
3.0
 50
315.0
  0
LINE
  5
C2
330
B3
100
AcDbEntity
  8
0
  6
Continuous
 62
     7
370
     0
100
AcDbLine
 10
127.8606817085
 20
127.9177939074
 30
0.0
 11
134.3156686601
 21
134.372780859
 31
0.0
  0
LINE
  5
C3
330
B3
100
AcDbEntity
  8
0
  6
Continuous
 62
     7
370
     0
100
AcDbLine
 10
136.3756735504
 20
106.7343009394
 30
0.0
 11
149.164911065
 21
119.5235384541
 31
0.0
  0
LINE
  5
C4
330
B3
100
AcDbEntity
  8
0
  6
Continuous
 62
     7
370
     0
100
AcDbLine
 10
133.6085618789
 20
133.6656740778
 30
0.0
 11
148.4578042839
 21
118.8164316729
 31
0.0
  0
MTEXT
  5
C5
330
B3
100
AcDbEntity
  8
0
  6
Continuous
 62
     7
370
     0
100
AcDbMText
 10
142.4732044946
 20
130.5607372778
 30
0.0
 40
3.5
 41
0.0
 71
     1
 72
     1
  1
21
  7
SLDTEXTSTYLE0
 11
0.7071067811865561
 21
-0.7071067811865389
 31
0.0
 73
     1
 44
1.0
  0
ENDBLK
  5
BF
330
B3
100
AcDbEntity
  8
0
100
AcDbBlockEnd
  0
BLOCK
  5
D2
330
C7
100
AcDbEntity
  8
0
100
AcDbBlockBegin
  2
*D5
 70
     1
 71
     0
 10
0.0
 20
0.0
 30
0.0
  3
*D5
  1

  0
INSERT
  5
D4
330
C7
100
AcDbEntity
  8
0
  6
Continuous
 62
     7
370
     0
100
AcDbBlockReference
  2
_Open30
 10
69.689295588
 20
139.0860149412
 30
-0.4
 41
3.0
 42
3.0
 50
90.0
  0
INSERT
  5
D5
330
C7
100
AcDbEntity
  8
0
  6
Continuous
 62
     7
370
     0
100
AcDbBlockReference
  2
_Open30
 10
69.689295588
 20
125.0860149412
 30
-0.4
 41
3.0
 42
3.0
 50
270.0
  0
LINE
  5
D6
330
C7
100
AcDbEntity
  8
0
  6
Continuous
 62
     7
370
     0
100
AcDbLine
 10
75.0703441095
 20
139.0860149412
 30
0.0
 11
68.689295588
 21
139.0860149412
 31
0.0
  0
LINE
  5
D7
330
C7
100
AcDbEntity
  8
0
  6
Continuous
 62
     7
370
     0
100
AcDbLine
 10
75.0703441095
 20
125.0860149412
 30
0.0
 11
68.689295588
 21
125.0860149412
 31
0.0
  0
LINE
  5
D8
330
C7
100
AcDbEntity
  8
0
  6
Continuous
 62
     7
370
     0
100
AcDbLine
 10
69.689295588
 20
139.0860149412
 30
0.0
 11
69.689295588
 21
125.0860149412
 31
0.0
  0
MTEXT
  5
D9
330
C7
100
AcDbEntity
  8
0
  6
Continuous
 62
     7
370
     0
100
AcDbMText
 10
65.6165685481
 20
130.0497857139
 30
0.0
 40
3.5
 41
0.0
 71
     1
 72
     1
  1
14
  7
SLDTEXTSTYLE0
 11
-7.044197039909883E-15
 21
1.0
 31
0.0
 73
     1
 44
1.0
  0
ENDBLK
  5
D3
330
C7
100
AcDbEntity
  8
0
100
AcDbBlockEnd
  0
BLOCK
  5
E5
330
DB
100
AcDbEntity
  8
0
100
AcDbBlockBegin
  2
*D6
 70
     1
 71
     0
 10
0.0
 20
0.0
 30
0.0
  3
*D6
  1

  0
INSERT
  5
E7
330
DB
100
AcDbEntity
  8
0
  6
Continuous
 62
     7
370
     0
100
AcDbBlockReference
  2
_Open30
 10
75.5703441095
 20
146.1532908628
 30
-0.4
 41
3.0
 42
3.0
 50
180.0
  0
INSERT
  5
E8
330
DB
100
AcDbEntity
  8
0
  6
Continuous
 62
     7
370
     0
100
AcDbBlockReference
  2
_Open30
 10
123.5703441095
 20
146.1532908628
 30
-0.4
 41
3.0
 42
3.0
 50
0.0
  0
LINE
  5
E9
330
DB
100
AcDbEntity
  8
0
  6
Continuous
 62
     7
370
     0
100
AcDbLine
 10
75.5703441095
 20
139.5860149412
 30
0.0
 11
75.5703441095
 21
147.1532908628
 31
0.0
  0
LINE
  5
EA
330
DB
100
AcDbEntity
  8
0
  6
Continuous
 62
     7
370
     0
100
AcDbLine
 10
123.5703441095
 20
139.5860149412
 30
0.0
 11
123.5703441095
 21
147.1532908628
 31
0.0
  0
LINE
  5
EB
330
DB
100
AcDbEntity
  8
0
  6
Continuous
 62
     7
370
     0
100
AcDbLine
 10
75.5703441095
 20
146.1532908628
 30
0.0
 11
123.5703441095
 21
146.1532908628
 31
0.0
  0
MTEXT
  5
EC
330
DB
100
AcDbEntity
  8
0
  6
Continuous
 62
     7
370
     0
100
AcDbMText
 10
97.5341148822
 20
150.2260179027
 30
0.0
 40
3.5
 41
0.0
 71
     1
 72
     1
  1
48
  7
SLDTEXTSTYLE0
 73
     1
 44
1.0
  0
ENDBLK
  5
E6
330
DB
100
AcDbEntity
  8
0
100
AcDbBlockEnd
  0
BLOCK
  5
141
330
136
100
AcDbEntity
  8
0
100
AcDbBlockBegin
  2
*D7
 70
     1
 71
     0
 10
0.0
 20
0.0
 30
0.0
  3
*D7
  1

  0
INSERT
  5
143
330
136
100
AcDbEntity
  8
0
  6
Continuous
 62
     7
370
     0
100
AcDbBlockReference
  2
_Open30
 10
66.1301640105
 20
198.592392638
 30
-2.7136564278
 41
3.0
 42
3.0
 50
270.0
  0
INSERT
  5
144
330
136
100
AcDbEntity
  8
0
  6
Continuous
 62
     7
370
     0
100
AcDbBlockReference
  2
_Open30
 10
66.1301640105
 20
219.592392638
 30
-2.7136564278
 41
3.0
 42
3.0
 50
90.0
  0
LINE
  5
145
330
136
100
AcDbEntity
  8
0
  6
Continuous
 62
     7
370
     0
100
AcDbLine
 10
74.1704390931
 20
198.592392638
 30
0.0
 11
65.1301640105
 21
198.592392638
 31
0.0
  0
LINE
  5
146
330
136
100
AcDbEntity
  8
0
  6
Continuous
 62
     7
370
     0
100
AcDbLine
 10
74.1704390931
 20
219.592392638
 30
0.0
 11
65.1301640105
 21
219.592392638
 31
0.0
  0
LINE
  5
147
330
136
100
AcDbEntity
  8
0
  6
Continuous
 62
     7
370
     0
100
AcDbLine
 10
66.1301640105
 20
198.592392638
 30
0.0
 11
66.1301640105
 21
219.592392638
 31
0.0
  0
MTEXT
  5
148
330
136
100
AcDbEntity
  8
0
  6
Continuous
 62
     7
370
     0
100
AcDbMText
 10
62.0574369706
 20
207.0561634108
 30
0.0
 40
3.5
 41
0.0
 71
     1
 72
     1
  1
21
  7
SLDTEXTSTYLE0
 11
-1.608142872339125E-16
 21
1.0
 31
0.0
 73
     1
 44
1.0
  0
ENDBLK
  5
142
330
136
100
AcDbEntity
  8
0
100
AcDbBlockEnd
  0
BLOCK
  5
154
330
14A
100
AcDbEntity
  8
0
100
AcDbBlockBegin
  2
*D8
 70
     1
 71
     0
 10
0.0
 20
0.0
 30
0.0
  3
*D8
  1

  0
INSERT
  5
156
330
14A
100
AcDbEntity
  8
0
  6
Continuous
 62
     7
370
     0
100
AcDbBlockReference
  2
_Open30
 10
73.1704390931
 20
230.0218724784
 30
-2.7136564278
 41
3.0
 42
3.0
 50
180.0
  0
INSERT
  5
157
330
14A
100
AcDbEntity
  8
0
  6
Continuous
 62
     7
370
     0
100
AcDbBlockReference
  2
_Open30
 10
125.9704390931
 20
230.0218724784
 30
-2.7136564278
 41
3.0
 42
3.0
 50
0.0
  0
LINE
  5
158
330
14A
100
AcDbEntity
  8
0
  6
Continuous
 62
     7
370
     0
100
AcDbLine
 10
73.1704390931
 20
218.592392638
 30
0.0
 11
73.1704390931
 21
231.0218724784
 31
0.0
  0
LINE
  5
159
330
14A
100
AcDbEntity
  8
0
  6
Continuous
 62
     7
370
     0
100
AcDbLine
 10
125.9704390931
 20
218.592392638
 30
0.0
 11
125.9704390931
 21
231.0218724784
 31
0.0
  0
LINE
  5
15A
330
14A
100
AcDbEntity
  8
0
  6
Continuous
 62
     7
370
     0
100
AcDbLine
 10
73.1704390931
 20
230.0218724784
 30
0.0
 11
125.9704390931
 21
230.0218724784
 31
0.0
  0
MTEXT
  5
15B
330
14A
100
AcDbEntity
  8
0
  6
Continuous
 62
     7
370
     0
100
AcDbMText
 10
95.4979806385
 20
234.0945995183
 30
0.0
 40
3.5
 41
0.0
 71
     1
 72
     1
  1
52.8
  7
SLDTEXTSTYLE0
 73
     1
 44
1.0
  0
ENDBLK
  5
155
330
14A
100
AcDbEntity
  8
0
100
AcDbBlockEnd
  0
ENDSEC
  0
SECTION
  2
ENTITIES
  0
LINE
  5
2F
330
1F
100
AcDbEntity
  8
0
  6
Continuous
 62
     7
370
     0
100
AcDbLine
 10
20.2604743903
 20
285.0
 30
0.0
 11
196.7604743903
 21
285.0
 31
0.0
  0
LINE
  5
30
330
1F
100
AcDbEntity
  8
0
  6
Continuous
 62
     7
370
     0
100
AcDbLine
 10
20.2604743903
 20
285.0
 30
0.0
 11
20.2604743903
 21
10.0
 31
0.0
  0
LINE
  5
31
330
1F
100
AcDbEntity
  8
0
  6
Continuous
 62
     7
370
     0
100
AcDbLine
 10
20.2604743903
 20
10.0
 30
0.0
 11
196.7604743903
 21
10.0
 31
0.0
  0
LINE
  5
32
330
1F
100
AcDbEntity
  8
0
  6
Continuous
 62
     7
370
     0
100
AcDbLine
 10
196.7604743903
 20
285.0
 30
0.0
 11
196.7604743903
 21
10.0
 31
0.0
  0
LINE
  5
33
330
1F
100
AcDbEntity
  8
0
  6
Continuous
 62
     7
370
     0
100
AcDbLine
 10
127.0104743903
 20
50.75
 30
0.0
 11
196.7604743903
 21
50.75
 31
0.0
  0
LINE
  5
34
330
1F
100
AcDbEntity
  8
0
  6
Continuous
 62
     7
370
     0
100
AcDbLine
 10
127.0104743903
 20
50.75
 30
0.0
 11
127.0104743903
 21
10.0
 31
0.0
  0
LINE
  5
35
330
1F
100
AcDbEntity
  8
0
  6
Continuous
 62
     7
370
     0
100
AcDbLine
 10
127.0104743903
 20
22.75
 30
0.0
 11
196.7604743903
 21
22.75
 31
0.0
  0
LINE
  5
36
330
1F
100
AcDbEntity
  8
0
  6
Continuous
 62
     7
370
     0
100
AcDbLine
 10
127.0104743903
 20
36.75
 30
0.0
 11
196.7604743903
 21
36.75
 31
0.0
  0
MTEXT
  5
38
330
1F
100
AcDbEntity
  8
0
  6
Continuous
 62
     7
370
     0
100
AcDbMText
 10
158.217562316
 20
29.8861652342
 30
0.0
 40
4.2333333333
 41
0.0
 71
     1
 72
     1
  1
OM-1
  7
SLDTEXTSTYLE0
 73
     1
 44
1.0
  0
MTEXT
  5
39
330
1F
100
AcDbEntity
  8
0
  6
Continuous
 62
     7
370
     0
100
AcDbMText
 10
146.4309642672
 20
43.4099788511
 30
0.0
 40
4.2333333333
 41
0.0
 71
     1
 72
     1
  1
マイクロケース
  7
SLDTEXTSTYLE0
 73
     1
 44
1.0
  0
MTEXT
  5
3A
330
1F
100
AcDbEntity
  8
0
  6
Continuous
 62
     7
370
     0
100
AcDbMText
 10
155.4176364311
 20
16.2918259049
 30
0.0
 40
4.2333333333
 41
0.0
 71
     1
 72
     1
  1
140039
  7
SLDTEXTSTYLE0
 73
     1
 44
1.0
  0
LINE
  5
3B
330
1F
100
AcDbEntity
  8
0
  6
Continuous
 62
     7
370
     0
100
AcDbLine
 10
132.1033223957
 20
122.2609396579
 30
0.0
 11
127.1535749273
 21
127.2106871262
 31
0.0
  0
LINE
  5
3C
330
1F
100
AcDbEntity
  8
0
  6
Continuous
 62
     7
370
     0
100
AcDbLine
 10
136.6995164734
 20
116.957638799
 30
0.0
 11
131.7497690051
 21
121.9073862673
 31
0.0
  0
LINE
  5
3D
330
1F
100
AcDbEntity
  8
0
  6
Continuous
 62
     7
370
     0
100
AcDbLine
 10
141.2957105511
 20
111.6543379401
 30
0.0
 11
136.3459630828
 21
116.6040854084
 31
0.0
  0
LINE
  5
3E
330
1F
100
AcDbEntity
  8
0
  6
Continuous
 62
     7
370
     0
100
AcDbLine
 10
113.3239924837
 20
113.3811046826
 30
0.0
 11
118.273739952
 21
108.4313572143
 31
0.0
  0
LINE
  5
3F
330
1F
100
AcDbEntity
  8
0
  6
Continuous
 62
     7
370
     0
100
AcDbLine
 10
118.6272933426
 20
108.7849106049
 30
0.0
 11
123.5770408109
 21
103.8351631366
 31
0.0
  0
LINE
  5
40
330
1F
100
AcDbEntity
  8
0
  6
Continuous
 62
     7
370
     0
100
AcDbLine
 10
123.9305942015
 20
104.1887165271
 30
0.0
 11
128.8803416698
 21
99.2389690588
 31
0.0
  0
ARC
  5
41
330
1F
100
AcDbEntity
  8
0
  6
Continuous
 62
     7
370
     0
100
AcDbCircle
 10
76.0703441095
 20
138.5860149412
 30
0.0
 40
0.5
100
AcDbArc
 50
90.0
 51
180.0
  0
LINE
  5
42
330
1F
100
AcDbEntity
  8
0
  6
Continuous
 62
     7
370
     0
100
AcDbLine
 10
76.0703441095
 20
138.5860149412
 30
0.0
 11
76.0703441095
 21
139.0860149412
 31
0.0
  0
LINE
  5
43
330
1F
100
AcDbEntity
  8
0
  6
Continuous
 62
     7
370
     0
100
AcDbLine
 10
76.0703441095
 20
138.5860149412
 30
0.0
 11
75.5703441095
 21
138.5860149412
 31
0.0
  0
CIRCLE
  5
44
330
1F
100
AcDbEntity
  8
0
  6
Continuous
 62
     7
370
     0
100
AcDbCircle
 10
86.8703441095
 20
132.0860149412
 30
0.0
 40
2.100000000000009
  0
CIRCLE
  5
45
330
1F
100
AcDbEntity
  8
0
  6
Continuous
 62
     7
370
     0
100
AcDbCircle
 10
112.2703441095
 20
132.0860149412
 30
0.0
 40
2.100000000000009
  0
LINE
  5
46
330
1F
100
AcDbEntity
  8
0
  6
Continuous
 62
     7
370
     0
100
AcDbLine
 10
123.0703441095
 20
125.5860149412
 30
0.0
 11
123.0703441095
 21
138.5860149412
 31
0.0
  0
LINE
  5
47
330
1F
100
AcDbEntity
  8
0
  6
Continuous
 62
     7
370
     0
100
AcDbLine
 10
76.0703441095
 20
125.5860149412
 30
0.0
 11
123.0703441095
 21
125.5860149412
 31
0.0
  0
LINE
  5
48
330
1F
100
AcDbEntity
  8
0
  6
Continuous
 62
     7
370
     0
100
AcDbLine
 10
76.0703441095
 20
138.5860149412
 30
0.0
 11
76.0703441095
 21
125.5860149412
 31
0.0
  0
LINE
  5
49
330
1F
100
AcDbEntity
  8
0
  6
Continuous
 62
     7
370
     0
100
AcDbLine
 10
123.0703441095
 20
138.5860149412
 30
0.0
 11
76.0703441095
 21
138.5860149412
 31
0.0
  0
LINE
  5
4A
330
1F
100
AcDbEntity
  8
0
  6
Continuous
 62
     7
370
     0
100
AcDbLine
 10
123.0703441095
 20
125.0860149412
 30
0.0
 11
76.0703441095
 21
125.0860149412
 31
0.0
  0
LINE
  5
4B
330
1F
100
AcDbEntity
  8
0
  6
Continuous
 62
     7
370
     0
100
AcDbLine
 10
76.0703441095
 20
125.0860149412
 30
0.0
 11
76.0703441095
 21
125.5860149412
 31
0.0
  0
LINE
  5
4C
330
1F
100
AcDbEntity
  8
0
  6
Continuous
 62
     7
370
     0
100
AcDbLine
 10
123.0703441095
 20
125.0860149412
 30
0.0
 11
123.0703441095
 21
125.5860149412
 31
0.0
  0
LINE
  5
4D
330
1F
100
AcDbEntity
  8
0
  6
Continuous
 62
     7
370
     0
100
AcDbLine
 10
75.5703441095
 20
125.5860149412
 30
0.0
 11
76.0703441095
 21
125.5860149412
 31
0.0
  0
LINE
  5
4E
330
1F
100
AcDbEntity
  8
0
  6
Continuous
 62
     7
370
     0
100
AcDbLine
 10
75.5703441095
 20
125.5860149412
 30
0.0
 11
75.5703441095
 21
138.5860149412
 31
0.0
  0
LINE
  5
4F
330
1F
100
AcDbEntity
  8
0
  6
Continuous
 62
     7
370
     0
100
AcDbLine
 10
76.0703441095
 20
139.0860149412
 30
0.0
 11
123.0703441095
 21
139.0860149412
 31
0.0
  0
LINE
  5
50
330
1F
100
AcDbEntity
  8
0
  6
Continuous
 62
     7
370
     0
100
AcDbLine
 10
123.0703441095
 20
138.5860149412
 30
0.0
 11
123.0703441095
 21
139.0860149412
 31
0.0
  0
ARC
  5
51
330
1F
100
AcDbEntity
  8
0
  6
Continuous
 62
     7
370
     0
100
AcDbCircle
 10
76.0703441095
 20
125.5860149412
 30
0.0
 40
0.5
100
AcDbArc
 50
180.0
 51
270.0
  0
LINE
  5
52
330
1F
100
AcDbEntity
  8
0
  6
Continuous
 62
     7
370
     0
100
AcDbLine
 10
123.0703441095
 20
138.5860149412
 30
0.0
 11
123.5703441095
 21
138.5860149412
 31
0.0
  0
LINE
  5
53
330
1F
100
AcDbEntity
  8
0
  6
Continuous
 62
     7
370
     0
100
AcDbLine
 10
123.5703441095
 20
138.5860149412
 30
0.0
 11
123.5703441095
 21
125.5860149412
 31
0.0
  0
LINE
  5
54
330
1F
100
AcDbEntity
  8
0
  6
Continuous
 62
     7
370
     0
100
AcDbLine
 10
123.5703441095
 20
125.5860149412
 30
0.0
 11
123.0703441095
 21
125.5860149412
 31
0.0
  0
ARC
  5
55
330
1F
100
AcDbEntity
  8
0
  6
Continuous
 62
     7
370
     0
100
AcDbCircle
 10
123.0703441095
 20
125.5860149412
 30
0.0
 40
0.5
100
AcDbArc
 50
270.0
 51
0.0
  0
ARC
  5
56
330
1F
100
AcDbEntity
  8
0
  6
Continuous
 62
     7
370
     0
100
AcDbCircle
 10
123.0703441095
 20
138.5860149412
 30
0.0
 40
0.5
100
AcDbArc
 50
0.0
 51
90.0
  0
LINE
  5
57
330
1F
100
AcDbEntity
  8
0
  6
Continuous
 62
     7
370
     0
100
AcDbLine
 10
75.1704390931
 20
115.027551292
 30
0.0
 11
114.9704390931
 21
115.027551292
 31
0.0
  0
LINE
  5
58
330
1F
100
AcDbEntity
  8
0
  6
Continuous
 62
     7
370
     0
100
AcDbLine
 10
114.9704390931
 20
115.027551292
 30
0.0
 11
112.9704390931
 21
113.027551292
 31
0.0
  0
LINE
  5
59
330
1F
100
AcDbEntity
  8
0
  6
Continuous
 62
     7
370
     0
100
AcDbLine
 10
112.9704390931
 20
113.027551292
 30
0.0
 11
75.1704390931
 21
113.027551292
 31
0.0
  0
LINE
  5
5A
330
1F
100
AcDbEntity
  8
0
  6
Continuous
 62
     7
370
     0
100
AcDbLine
 10
75.1704390931
 20
113.027551292
 30
0.0
 11
75.1704390931
 21
115.027551292
 31
0.0
  0
LINE
  5
5B
330
1F
100
AcDbEntity
  8
0
  6
Continuous
 62
     7
370
     0
100
AcDbLine
 10
73.1704390931
 20
115.027551292
 30
0.0
 11
75.1704390931
 21
115.027551292
 31
0.0
  0
ARC
  5
5C
330
1F
100
AcDbEntity
  8
0
  6
Continuous
 62
     7
370
     0
100
AcDbCircle
 10
75.1704390931
 20
115.027551292
 30
0.0
 40
2.0
100
AcDbArc
 50
180.0
 51
270.0
  0
LINE
  5
5D
330
1F
100
AcDbEntity
  8
0
  6
Continuous
 62
     7
370
     0
100
AcDbLine
 10
75.1704390931
 20
139.027551292
 30
0.0
 11
75.1704390931
 21
115.027551292
 31
0.0
  0
LINE
  5
5E
330
1F
100
AcDbEntity
  8
0
  6
Continuous
 62
     7
370
     0
100
AcDbLine
 10
73.1704390931
 20
115.027551292
 30
0.0
 11
73.1704390931
 21
139.027551292
 31
0.0
  0
LINE
  5
5F
330
1F
100
AcDbEntity
  8
0
  6
Continuous
 62
     7
370
     0
100
AcDbLine
 10
73.1704390931
 20
139.027551292
 30
0.0
 11
75.1704390931
 21
139.027551292
 31
0.0
  0
LINE
  5
60
330
1F
100
AcDbEntity
  8
0
  6
Continuous
 62
     7
370
     0
100
AcDbLine
 10
110.2704390931
 20
132.0957427641
 30
0.0
 11
110.2704390931
 21
132.7266239682
 31
0.0
  0
ARC
  5
61
330
1F
100
AcDbEntity
  8
0
  6
Continuous
 62
     7
370
     0
100
AcDbCircle
 10
112.2705340767
 20
132.0860149412
 30
0.0
 40
2.000118640000004
100
AcDbArc
 50
179.721333834
 51
359.1625897716
  0
LINE
  5
62
330
1F
100
AcDbEntity
  8
0
  6
Continuous
 62
     7
370
     0
100
AcDbLine
 10
114.2704390931
 20
132.7260306101
 30
0.0
 11
114.2704390931
 21
132.0567831166
 31
0.0
  0
ARC
  5
63
330
1F
100
AcDbEntity
  8
0
  6
Continuous
 62
     7
370
     0
100
AcDbCircle
 10
86.8703441095
 20
132.0860149412
 30
0.0
 40
2.000118639999996
100
AcDbArc
 50
180.8374102284
 51
0.278666166
  0
LINE
  5
64
330
1F
100
AcDbEntity
  8
0
  6
Continuous
 62
     7
370
     0
100
AcDbLine
 10
88.8704390931
 20
132.0957427641
 30
0.0
 11
88.8704390931
 21
132.7260306101
 31
0.0
  0
LINE
  5
65
330
1F
100
AcDbEntity
  8
0
  6
Continuous
 62
     7
370
     0
100
AcDbLine
 10
84.8704390931
 20
132.7266239682
 30
0.0
 11
84.8704390931
 21
132.0567831166
 31
0.0
  0
LINE
  5
66
330
1F
100
AcDbEntity
  8
0
  6
Continuous
 62
     7
370
     0
100
AcDbLine
 10
123.9704390931
 20
124.027551292
 30
0.0
 11
123.9704390931
 21
139.027551292
 31
0.0
  0
LINE
  5
67
330
1F
100
AcDbEntity
  8
0
  6
Continuous
 62
     7
370
     0
100
AcDbLine
 10
114.9704390931
 20
115.027551292
 30
0.0
 11
123.9704390931
 21
124.027551292
 31
0.0
  0
LINE
  5
68
330
1F
100
AcDbEntity
  8
0
  6
Continuous
 62
     7
370
     0
100
AcDbLine
 10
75.1704390931
 20
139.027551292
 30
0.0
 11
75.8357260136
 21
139.027551292
 31
0.0
  0
LINE
  5
69
330
1F
100
AcDbEntity
  8
0
  6
Continuous
 62
     7
370
     0
100
AcDbLine
 10
123.3049622053
 20
139.027551292
 30
0.0
 11
123.9704390931
 21
139.027551292
 31
0.0
  0
LINE
  5
6A
330
1F
100
AcDbEntity
  8
0
  6
Continuous
 62
     7
370
     0
100
AcDbLine
 10
125.9704390931
 20
139.027551292
 30
0.0
 11
125.9704390931
 21
126.027551292
 31
0.0
  0
LINE
  5
6B
330
1F
100
AcDbEntity
  8
0
  6
Continuous
 62
     7
370
     0
100
AcDbLine
 10
125.8152993091
 20
125.872411508
 30
0.0
 11
123.9704390931
 21
124.027551292
 31
0.0
  0
LINE
  5
6C
330
1F
100
AcDbEntity
  8
0
  6
Continuous
 62
     7
370
     0
100
AcDbLine
 10
123.9704390931
 20
139.027551292
 30
0.0
 11
125.9704390931
 21
139.027551292
 31
0.0
  0
LINE
  5
6D
330
1F
100
AcDbEntity
  8
0
  6
Continuous
 62
     7
370
     0
100
AcDbLine
 10
132.1033223957
 20
122.2609396579
 30
0.0
 11
130.2945552322
 21
120.4521724944
 31
0.0
  0
LINE
  5
6E
330
1F
100
AcDbEntity
  8
0
  6
Continuous
 62
     7
370
     0
100
AcDbLine
 10
130.2945552322
 20
120.4521724944
 30
0.0
 11
125.3448077639
 21
125.4019199627
 31
0.0
  0
LINE
  5
6F
330
1F
100
AcDbEntity
  8
0
  6
Continuous
 62
     7
370
     0
100
AcDbLine
 10
127.1535749273
 20
127.2106871262
 30
0.0
 11
125.8152993091
 21
125.872411508
 31
0.0
  0
LINE
  5
70
330
1F
100
AcDbEntity
  8
0
  6
Continuous
 62
     7
370
     0
100
AcDbLine
 10
122.5163806391
 20
112.6739979014
 30
0.0
 11
117.5666331708
 21
117.6237453697
 31
0.0
  0
LWPOLYLINE
  5
71
330
1F
100
AcDbEntity
  8
0
  6
Continuous
 62
     7
370
     0
100
AcDbPolyline
 90
       28
 70
   128
 43
0.0
 10
126.1221062715
 20
119.6622010418
 10
126.4838403003
 20
119.6897989159
 10
126.8260731539
 20
119.8004009107
 10
127.1303549708
 20
119.988044444
 10
127.3802818392
 20
120.2426136044
 10
127.5623801372
 20
120.5503845025
 10
127.6668328982
 20
120.8947651296
 10
127.688009047
 20
121.2571898369
 10
127.6247669718
 20
121.6181202147
 10
127.4805160693
 20
121.9580984128
 10
127.263032943
 20
122.2587961186
 10
126.9840421645
 20
122.5040026409
 10
126.6585841989
 20
122.6804988327
 10
126.3042045694
 20
122.7787697385
 10
125.9400079735
 20
122.7935175484
 10
125.585628344
 20
122.7239472042
 10
125.2601703784
 20
122.5738092611
 10
124.9811796
 20
122.3511976945
 10
124.7636964737
 20
122.0681135515
 10
124.6194455712
 20
121.7398179717
 10
124.556203496
 20
121.3840094545
 10
124.5773796447
 20
121.0198697295
 10
124.6818324058
 20
120.6670296632
 10
124.8639307037
 20
120.3445109552
 10
125.1138575722
 20
120.0697006723
 10
125.418139389
 20
119.8574139081
 10
125.7603722427
 20
119.719095097
 10
126.1221062715
 20
119.6622010418
  0
LINE
  5
72
330
1F
100
AcDbEntity
  8
0
  6
Continuous
 62
     7
370
     0
100
AcDbLine
 10
130.2945552322
 20
120.4521724944
 30
0.0
 11
122.5163806391
 21
112.6739979014
 31
0.0
  0
ELLIPSE
  5
73
330
1F
100
AcDbEntity
  8
0
  6
Continuous
 62
     7
370
     0
100
AcDbEllipse
 10
126.9773953005
 20
122.084760031
 30
0.0
 11
1.131370849898474
 21
-1.131370849898488
 31
0.0
210
0.0
220
0.0
230
1.0
 40
0.9228554686
 41
3.554683813147902
 42
5.870094147621443
  0
LINE
  5
74
330
1F
100
AcDbEntity
  8
0
  6
Continuous
 62
     7
370
     0
100
AcDbLine
 10
136.6995164734
 20
116.957638799
 30
0.0
 11
135.3429411007
 21
115.6010634264
 31
0.0
  0
LINE
  5
75
330
1F
100
AcDbEntity
  8
0
  6
Continuous
 62
     7
370
     0
100
AcDbLine
 10
135.3429411007
 20
115.6010634264
 30
0.0
 11
130.3931936324
 21
120.5508108947
 31
0.0
  0
LINE
  5
76
330
1F
100
AcDbEntity
  8
0
  6
Continuous
 62
     7
370
     0
100
AcDbLine
 10
127.5153730949
 20
107.7734954206
 30
0.0
 11
122.5656256266
 21
112.7232428889
 31
0.0
  0
LWPOLYLINE
  5
77
330
1F
100
AcDbEntity
  8
0
  6
Continuous
 62
     7
370
     0
100
AcDbPolyline
 90
       28
 70
   128
 43
0.0
 10
131.1704921401
 20
117.9456318942
 10
131.5322261689
 20
117.8887378391
 10
131.8744590225
 20
117.750419028
 10
132.1787408393
 20
117.5381322638
 10
132.4286677078
 20
117.2633219809
 10
132.6107660058
 20
116.9408032728
 10
132.7152187668
 20
116.5879632066
 10
132.7363949156
 20
116.2238234815
 10
132.6731528404
 20
115.8680149644
 10
132.5289019379
 20
115.5397193845
 10
132.3114188116
 20
115.2566352416
 10
132.0324280331
 20
115.034023675
 10
131.7069700675
 20
114.8838857319
 10
131.352590438
 20
114.8143153876
 10
130.9883938421
 20
114.8290631976
 10
130.6340142126
 20
114.9273341034
 10
130.308556247
 20
115.1038302952
 10
130.0295654685
 20
115.3490368175
 10
129.8120823422
 20
115.6497345233
 10
129.6678314397
 20
115.9897127214
 10
129.6045893646
 20
116.3506430991
 10
129.6257655133
 20
116.7130678064
 10
129.7302182744
 20
117.0574484335
 10
129.9123165723
 20
117.3652193317
 10
130.1622434408
 20
117.619788492
 10
130.4665252576
 20
117.8074320254
 10
130.8087581113
 20
117.9180340201
 10
131.1704921401
 20
117.9456318942
  0
LINE
  5
78
330
1F
100
AcDbEntity
  8
0
  6
Continuous
 62
     7
370
     0
100
AcDbLine
 10
135.3429411007
 20
115.6010634264
 30
0.0
 11
127.5153730949
 21
107.7734954206
 31
0.0
  0
ELLIPSE
  5
79
330
1F
100
AcDbEntity
  8
0
  6
Continuous
 62
     7
370
     0
100
AcDbEllipse
 10
131.8276202317
 20
117.0354900257
 30
0.0
 11
1.131370849898474
 21
-1.131370849898474
 31
0.0
210
0.0
220
0.0
230
1.0
 40
0.9228554686
 41
3.45513757305609
 42
5.969640387713566
  0
LINE
  5
7A
330
1F
100
AcDbEntity
  8
0
  6
Continuous
 62
     7
370
     0
100
AcDbLine
 10
141.2957105511
 20
111.6543379401
 30
0.0
 11
140.3913269693
 21
110.7499543584
 31
0.0
  0
LINE
  5
7B
330
1F
100
AcDbEntity
  8
0
  6
Continuous
 62
     7
370
     0
100
AcDbLine
 10
140.3913269693
 20
110.7499543584
 30
0.0
 11
135.441579501
 21
115.6997018267
 31
0.0
  0
LINE
  5
7C
330
1F
100
AcDbEntity
  8
0
  6
Continuous
 62
     7
370
     0
100
AcDbLine
 10
132.5120122054
 20
102.8706395944
 30
0.0
 11
127.5622647371
 21
107.8203870627
 31
0.0
  0
LWPOLYLINE
  5
7D
330
1F
100
AcDbEntity
  8
0
  6
Continuous
 62
     7
370
     0
100
AcDbPolyline
 90
       28
 70
   128
 43
0.0
 10
136.2188780086
 20
113.0945228262
 10
136.5806120374
 20
113.0376287711
 10
136.9228448911
 20
112.8993099599
 10
137.2271267079
 20
112.6870231957
 10
137.4770535764
 20
112.4122129129
 10
137.6591518743
 20
112.0896942048
 10
137.7636046354
 20
111.7368541386
 10
137.7847807841
 20
111.3727144135
 10
137.7215387089
 20
111.0169058964
 10
137.5772878065
 20
110.6886103165
 10
137.3598046802
 20
110.4055261736
 10
137.0808139017
 20
110.1829146069
 10
136.7553559361
 20
110.0327766638
 10
136.4009763066
 20
109.9632063196
 10
136.0367797107
 20
109.9779541296
 10
135.6824000812
 20
110.0762250354
 10
135.3569421156
 20
110.2527212272
 10
135.0779513371
 20
110.4979277495
 10
134.8604682108
 20
110.7986254553
 10
134.7162173083
 20
111.1386036534
 10
134.6529752331
 20
111.4995340311
 10
134.6741513819
 20
111.8619587384
 10
134.7786041429
 20
112.2063393655
 10
134.9607024409
 20
112.5141102636
 10
135.2106293094
 20
112.768679424
 10
135.5149111262
 20
112.9563229573
 10
135.8571439798
 20
113.0669249521
 10
136.2188780086
 20
113.0945228262
  0
LINE
  5
7E
330
1F
100
AcDbEntity
  8
0
  6
Continuous
 62
     7
370
     0
100
AcDbLine
 10
140.3913269693
 20
110.7499543584
 30
0.0
 11
132.5120122054
 21
102.8706395944
 31
0.0
  0
ELLIPSE
  5
7F
330
1F
100
AcDbEntity
  8
0
  6
Continuous
 62
     7
370
     0
100
AcDbEllipse
 10
136.677845163
 20
111.9862200204
 30
0.0
 11
1.131370849898474
 21
-1.13137084989846
 31
0.0
210
0.0
220
0.0
230
1.0
 40
0.9228554686
 41
3.358717562579789
 42
6.066060398189611
  0
LINE
  5
80
330
1F
100
AcDbEntity
  8
0
  6
Continuous
 62
     7
370
     0
100
AcDbLine
 10
122.5163806391
 20
112.6739979014
 30
0.0
 11
118.273739952
 21
108.4313572143
 31
0.0
  0
LINE
  5
81
330
1F
100
AcDbEntity
  8
0
  6
Continuous
 62
     7
370
     0
100
AcDbLine
 10
127.5153730949
 20
107.7734954206
 30
0.0
 11
123.5770408109
 21
103.8351631366
 31
0.0
  0
LINE
  5
82
330
1F
100
AcDbEntity
  8
0
  6
Continuous
 62
     7
370
     0
100
AcDbLine
 10
132.5120122054
 20
102.8706395944
 30
0.0
 11
128.8803416698
 21
99.2389690588
 31
0.0
  0
DIMENSION
  5
83
330
1F
100
AcDbEntity
  8
0
  6
Continuous
 62
     7
370
     0
100
AcDbDimension
  2
*D1
 10
62.3708670519
 20
113.027551292
 30
0.0
 11
62.3708670519
 21
126.027551292
 31
0.0
 70
   160
 71
     1
 42
26.0
  3
SLDDIMSTYLE0
100
AcDbAlignedDimension
 13
73.1704390931
 23
139.027551292
 33
0.0
 14
75.1704390931
 24
113.027551292
 34
0.0
 50
90.0
100
AcDbRotatedDimension
1001
ACAD
1000
DSTYLE
1002
{
1070
    77
1070
     3
1070
   143
1040
0.0393700787
1070
    41
1040
3.0
1070
    44
1040
1.0
1070
    42
1040
1.0
1070
   147
1040
1.524
1070
    73
1070
     0
1070
    74
1070
     0
1070
   140
1040
3.5
1070
   284
1070
    12
1070
    78
1070
    12
1002
}
  0
DIMENSION
  5
9F
330
1F
100
AcDbEntity
  8
0
  6
Continuous
 62
     7
370
     0
100
AcDbDimension
  2
*D3
 10
112.2703441095
 20
142.0537238452
 30
0.0
 11
99.5703441095
 21
142.0537238452
 31
0.0
 70
   160
 71
     1
 42
25.4
  3
SLDDIMSTYLE0
100
AcDbAlignedDimension
 13
86.8703441095
 23
132.0860149412
 33
0.0
 14
112.2703441095
 24
132.0860149412
 34
0.0
100
AcDbRotatedDimension
1001
ACAD
1000
DSTYLE
1002
{
1070
    77
1070
     3
1070
   143
1040
0.0393700787
1070
    41
1040
3.0
1070
    44
1040
1.0
1070
    42
1040
1.0
1070
   147
1040
1.524
1070
    73
1070
     0
1070
    74
1070
     0
1070
   140
1040
3.5
1070
   284
1070
    12
1070
    78
1070
    12
1002
}
  0
DIMENSION
  5
B2
330
1F
100
AcDbEntity
  8
0
  6
Continuous
 62
     7
370
     0
100
AcDbDimension
  2
*D4
 10
148.4578042839
 20
118.8164316729
 30
0.0
 11
141.0331830814
 21
126.2410528754
 31
0.0
 70
   160
 71
     1
 42
21.0
  3
SLDDIMSTYLE0
100
AcDbAlignedDimension
 13
127.1535749273
 23
127.2106871262
 33
0.0
 14
135.6685667692
 24
106.0271941582
 34
0.0
 50
-45.0
100
AcDbRotatedDimension
1001
ACAD
1000
DSTYLE
1002
{
1070
    77
1070
     3
1070
   143
1040
0.0393700787
1070
    41
1040
3.0
1070
    44
1040
1.0
1070
    42
1040
1.0
1070
   147
1040
1.524
1070
    73
1070
     0
1070
    74
1070
     0
1070
   140
1040
3.5
1070
   284
1070
    12
1070
    78
1070
    12
1002
}
  0
DIMENSION
  5
C6
330
1F
100
AcDbEntity
  8
0
  6
Continuous
 62
     7
370
     0
100
AcDbDimension
  2
*D5
 10
69.689295588
 20
125.0860149412
 30
0.0
 11
69.689295588
 21
132.0860149412
 31
0.0
 70
   160
 71
     1
 42
14.0
  3
SLDDIMSTYLE0
100
AcDbAlignedDimension
 13
76.0703441095
 23
139.0860149412
 33
0.0
 14
76.0703441095
 24
125.0860149412
 34
0.0
 50
90.0
100
AcDbRotatedDimension
1001
ACAD
1000
DSTYLE
1002
{
1070
    77
1070
     3
1070
   143
1040
0.0393700787
1070
    41
1040
3.0
1070
    44
1040
1.0
1070
    42
1040
1.0
1070
   147
1040
1.524
1070
    73
1070
     0
1070
    74
1070
     0
1070
   140
1040
3.5
1070
   284
1070
    12
1070
    78
1070
    12
1002
}
  0
DIMENSION
  5
DA
330
1F
100
AcDbEntity
  8
0
  6
Continuous
 62
     7
370
     0
100
AcDbDimension
  2
*D6
 10
123.5703441095
 20
146.1532908628
 30
0.0
 11
99.5703441095
 21
146.1532908628
 31
0.0
 70
   160
 71
     1
 42
48.0
  3
SLDDIMSTYLE0
100
AcDbAlignedDimension
 13
75.5703441095
 23
138.5860149412
 33
0.0
 14
123.5703441095
 24
138.5860149412
 34
0.0
100
AcDbRotatedDimension
1001
ACAD
1000
DSTYLE
1002
{
1070
    77
1070
     3
1070
   143
1040
0.0393700787
1070
    41
1040
3.0
1070
    44
1040
1.0
1070
    42
1040
1.0
1070
   147
1040
1.524
1070
    73
1070
     0
1070
    74
1070
     0
1070
   140
1040
3.5
1070
   284
1070
    12
1070
    78
1070
    12
1002
}
  0
LINE
  5
ED
330
1F
100
AcDbEntity
  8
0
  6
Continuous
 62
     7
370
     0
100
AcDbLine
 10
130.6891088333
 20
218.3676061629
 30
0.0
 11
125.8140887319
 21
218.3676061629
 31
0.0
  0
LINE
  5
EE
330
1F
100
AcDbEntity
  8
0
  6
Continuous
 62
     7
370
     0
100
AcDbLine
 10
125.8140887319
 20
199.8171791131
 30
0.0
 11
130.6891088333
 21
199.8171791131
 31
0.0
  0
LINE
  5
EF
330
1F
100
AcDbEntity
  8
0
  6
Continuous
 62
     7
370
     0
100
AcDbLine
 10
135.6388563016
 20
217.8676061629
 30
0.0
 11
131.62452318
 21
217.8676061629
 31
0.0
  0
LINE
  5
F0
330
1F
100
AcDbEntity
  8
0
  6
Continuous
 62
     7
370
     0
100
AcDbLine
 10
131.62452318
 20
200.3171791131
 30
0.0
 11
135.6388563016
 21
200.3171791131
 31
0.0
  0
LINE
  5
F1
330
1F
100
AcDbEntity
  8
0
  6
Continuous
 62
     7
370
     0
100
AcDbLine
 10
140.5886037699
 20
217.367606163
 30
0.0
 11
136.4294257166
 21
217.367606163
 31
0.0
  0
LINE
  5
F2
330
1F
100
AcDbEntity
  8
0
  6
Continuous
 62
     7
370
     0
100
AcDbLine
 10
136.4294257166
 20
200.8171791131
 30
0.0
 11
140.5886037699
 21
200.8171791131
 31
0.0
  0
LINE
  5
F3
330
1F
100
AcDbEntity
  8
0
  6
Continuous
 62
     7
370
     0
100
AcDbLine
 10
75.5703441095
 20
198.092392638
 30
0.0
 11
76.0703441095
 21
198.092392638
 31
0.0
  0
LINE
  5
F4
330
1F
100
AcDbEntity
  8
0
  6
Continuous
 62
     7
370
     0
100
AcDbLine
 10
76.0703441095
 20
197.592392638
 30
0.0
 11
76.0703441095
 21
198.092392638
 31
0.0
  0
ARC
  5
F5
330
1F
100
AcDbEntity
  8
0
  6
Continuous
 62
     7
370
     0
100
AcDbCircle
 10
76.0703441095
 20
198.092392638
 30
0.0
 40
0.5000000000000284
100
AcDbArc
 50
180.0
 51
270.0
  0
LINE
  5
F6
330
1F
100
AcDbEntity
  8
0
  6
Continuous
 62
     7
370
     0
100
AcDbLine
 10
123.0703441095
 20
197.592392638
 30
0.0
 11
123.0703441095
 21
198.092392638
 31
0.0
  0
LINE
  5
F7
330
1F
100
AcDbEntity
  8
0
  6
Continuous
 62
     7
370
     0
100
AcDbLine
 10
123.0703441095
 20
198.092392638
 30
0.0
 11
123.5703441095
 21
198.092392638
 31
0.0
  0
ARC
  5
F8
330
1F
100
AcDbEntity
  8
0
  6
Continuous
 62
     7
370
     0
100
AcDbCircle
 10
123.0703441095
 20
198.092392638
 30
0.0
 40
0.5000000000000284
100
AcDbArc
 50
270.0
 51
0.0
  0
LINE
  5
F9
330
1F
100
AcDbEntity
  8
0
  6
Continuous
 62
     7
370
     0
100
AcDbLine
 10
76.0703441095
 20
198.092392638
 30
0.0
 11
123.0703441095
 21
198.092392638
 31
0.0
  0
LINE
  5
FA
330
1F
100
AcDbEntity
  8
0
  6
Continuous
 62
     7
370
     0
100
AcDbLine
 10
123.0703441095
 20
197.592392638
 30
0.0
 11
76.0703441095
 21
197.592392638
 31
0.0
  0
LINE
  5
FB
330
1F
100
AcDbEntity
  8
0
  6
Continuous
 62
     7
370
     0
100
AcDbLine
 10
76.0703441095
 20
198.092392638
 30
0.0
 11
76.0703441095
 21
198.592392638
 31
0.0
  0
LINE
  5
FC
330
1F
100
AcDbEntity
  8
0
  6
Continuous
 62
     7
370
     0
100
AcDbLine
 10
123.0703441095
 20
198.092392638
 30
0.0
 11
123.0703441095
 21
198.592392638
 31
0.0
  0
ARC
  5
FD
330
1F
100
AcDbEntity
  8
0
  6
Continuous
 62
     7
370
     0
100
AcDbCircle
 10
123.0703441095
 20
198.092392638
 30
0.0
 40
0.5
100
AcDbArc
 50
0.0
 51
90.0
  0
ARC
  5
FE
330
1F
100
AcDbEntity
  8
0
  6
Continuous
 62
     7
370
     0
100
AcDbCircle
 10
76.0703441095
 20
198.092392638
 30
0.0
 40
0.5
100
AcDbArc
 50
90.0
 51
180.0
  0
LINE
  5
FF
330
1F
100
AcDbEntity
  8
0
  6
Continuous
 62
     7
370
     0
100
AcDbLine
 10
124.4704390931
 20
200.292392638
 30
0.0
 11
74.6704390931
 21
200.292392638
 31
0.0
  0
LINE
  5
100
330
1F
100
AcDbEntity
  8
0
  6
Continuous
 62
     7
370
     0
100
AcDbLine
 10
124.4704390931
 20
217.892392638
 30
0.0
 11
124.4704390931
 21
200.292392638
 31
0.0
  0
LINE
  5
101
330
1F
100
AcDbEntity
  8
0
  6
Continuous
 62
     7
370
     0
100
AcDbLine
 10
124.4704390931
 20
217.892392638
 30
0.0
 11
74.6704390931
 21
217.892392638
 31
0.0
  0
LINE
  5
102
330
1F
100
AcDbEntity
  8
0
  6
Continuous
 62
     7
370
     0
100
AcDbLine
 10
74.6704390931
 20
217.892392638
 30
0.0
 11
74.6704390931
 21
200.292392638
 31
0.0
  0
LINE
  5
103
330
1F
100
AcDbEntity
  8
0
  6
Continuous
 62
     7
370
     0
100
AcDbLine
 10
125.9704390931
 20
200.592392638
 30
0.0
 11
125.9704390931
 21
217.592392638
 31
0.0
  0
ARC
  5
104
330
1F
100
AcDbEntity
  8
0
  6
Continuous
 62
     7
370
     0
100
AcDbCircle
 10
123.9704390931
 20
200.592392638
 30
0.0
 40
2.0
100
AcDbArc
 50
270.0
 51
0.0
  0
LINE
  5
105
330
1F
100
AcDbEntity
  8
0
  6
Continuous
 62
     7
370
     0
100
AcDbLine
 10
75.1704390931
 20
198.592392638
 30
0.0
 11
123.9704390931
 21
198.592392638
 31
0.0
  0
ARC
  5
106
330
1F
100
AcDbEntity
  8
0
  6
Continuous
 62
     7
370
     0
100
AcDbCircle
 10
75.1704390931
 20
200.592392638
 30
0.0
 40
2.0
100
AcDbArc
 50
180.0
 51
270.0
  0
LINE
  5
107
330
1F
100
AcDbEntity
  8
0
  6
Continuous
 62
     7
370
     0
100
AcDbLine
 10
73.1704390931
 20
217.592392638
 30
0.0
 11
73.1704390931
 21
200.592392638
 31
0.0
  0
LINE
  5
108
330
1F
100
AcDbEntity
  8
0
  6
Continuous
 62
     7
370
     0
100
AcDbLine
 10
123.9704390931
 20
219.592392638
 30
0.0
 11
75.1704390931
 21
219.592392638
 31
0.0
  0
ARC
  5
109
330
1F
100
AcDbEntity
  8
0
  6
Continuous
 62
     7
370
     0
100
AcDbCircle
 10
75.1704390931
 20
217.592392638
 30
0.0
 40
2.0
100
AcDbArc
 50
90.0
 51
180.0
  0
ARC
  5
10A
330
1F
100
AcDbEntity
  8
0
  6
Continuous
 62
     7
370
     0
100
AcDbCircle
 10
123.9704390931
 20
217.592392638
 30
0.0
 40
2.000000000000014
100
AcDbArc
 50
0.0
 51
90.0
  0
LWPOLYLINE
  5
10B
330
1F
100
AcDbEntity
  8
0
  6
Continuous
 62
     7
370
     0
100
AcDbPolyline
 90
       15
 70
   128
 43
0.0
 10
130.6891088333
 20
218.3676061629
 10
130.8810390224
 20
218.3491019628
 10
131.168156011
 20
218.2493679978
 10
131.4343363393
 20
218.0673920108
 10
131.6679466495
 20
217.8111272258
 10
131.8587770502
 20
217.4917736436
 10
131.9984873371
 20
217.1232885481
 10
132.0809715003
 20
216.7217765062
 10
132.1026245861
 20
216.3047855209
 10
132.0625002507
 20
215.890540099
 10
131.96235212
 20
215.4971447533
 10
131.806557148
 20
215.1417927482
 10
131.6019243226
 20
214.8400146714
 10
131.3573970801
 20
214.604999673
 10
131.0836624344
 20
214.4470190361
  0
LINE
  5
10C
330
1F
100
AcDbEntity
  8
0
  6
Continuous
 62
     7
370
     0
100
AcDbLine
 10
131.0836624344
 20
214.4470190361
 30
0.0
 11
126.1339149661
 21
214.4470190361
 31
0.0
  0
LWPOLYLINE
  5
10D
330
1F
100
AcDbEntity
  8
0
  6
Continuous
 62
     7
370
     0
100
AcDbPolyline
 90
       14
 70
   128
 43
0.0
 10
125.8152993091
 20
218.3647207959
 10
126.1158964855
 20
218.2954138832
 10
126.3990298902
 20
218.1366948757
 10
126.6515677412
 20
217.8959251919
 10
126.8617972842
 20
217.5842717762
 10
127.0199680324
 20
217.2161891741
 10
127.1187439958
 20
216.808749128
 10
127.1535439262
 20
216.380848786
 10
127.1227537961
 20
215.9523342485
 10
127.0278016577
 20
215.5430801026
 10
126.8730914095
 20
215.1720676348
 10
126.6657985428
 20
214.856504475
 10
126.4155373406
 20
214.6110265035
 10
126.1339149661
 20
214.4470190361
  0
LINE
  5
10E
330
1F
100
AcDbEntity
  8
0
  6
Continuous
 62
     7
370
     0
100
AcDbLine
 10
126.1339149661
 20
214.4470190361
 30
0.0
 11
125.9704390931
 21
214.3832223065
 31
0.0
  0
LINE
  5
10F
330
1F
100
AcDbEntity
  8
0
  6
Continuous
 62
     7
370
     0
100
AcDbLine
 10
131.0836624344
 20
203.7377662399
 30
0.0
 11
126.1339149661
 21
203.7377662399
 31
0.0
  0
LWPOLYLINE
  5
110
330
1F
100
AcDbEntity
  8
0
  6
Continuous
 62
     7
370
     0
100
AcDbPolyline
 90
       15
 70
   128
 43
0.0
 10
131.0836624344
 20
203.7377662399
 10
131.3573970801
 20
203.5797856031
 10
131.6019243226
 20
203.3447706046
 10
131.806557148
 20
203.0429925279
 10
131.96235212
 20
202.6876405227
 10
132.0625002507
 20
202.2942451771
 10
132.1026245861
 20
201.8799997552
 10
132.0809715003
 20
201.4630087698
 10
131.9984873371
 20
201.061496728
 10
131.8587770502
 20
200.6930116325
 10
131.6679466495
 20
200.3736580503
 10
131.4343363393
 20
200.1173932653
 10
131.168156011
 20
199.9354172783
 10
130.8810390224
 20
199.8356833132
 10
130.6891088333
 20
199.8171791131
  0
LWPOLYLINE
  5
111
330
1F
100
AcDbEntity
  8
0
  6
Continuous
 62
     7
370
     0
100
AcDbPolyline
 90
       14
 70
   128
 43
0.0
 10
126.1339149661
 20
203.7377662399
 10
126.4155373406
 20
203.5737587725
 10
126.6657985428
 20
203.3282808011
 10
126.8730914095
 20
203.0127176412
 10
127.0278016577
 20
202.6417051734
 10
127.1227537961
 20
202.2324510276
 10
127.1535439262
 20
201.8039364901
 10
127.1187439958
 20
201.376036148
 10
127.0199680324
 20
200.968596102
 10
126.8617972842
 20
200.6005134999
 10
126.6515677412
 20
200.2888600842
 10
126.3990298902
 20
200.0480904003
 10
126.1158964855
 20
199.8893713929
 10
125.8152993091
 20
199.8200644801
  0
LINE
  5
112
330
1F
100
AcDbEntity
  8
0
  6
Continuous
 62
     7
370
     0
100
AcDbLine
 10
125.9704390931
 20
203.8399400969
 30
0.0
 11
126.1339149661
 21
203.7377662399
 31
0.0
  0
LINE
  5
113
330
1F
100
AcDbEntity
  8
0
  6
Continuous
 62
     7
370
     0
100
AcDbLine
 10
112.3491187495
 20
217.892392638
 30
0.0
 11
112.3491187495
 21
200.292392638
 31
0.0
  0
LWPOLYLINE
  5
114
330
1F
100
AcDbEntity
  8
0
  6
Continuous
 62
     7
370
     0
100
AcDbPolyline
 90
       51
 70
   128
 43
0.0
 10
121.078943772
 20
209.092392638
 10
121.0496710941
 20
208.4343931618
 10
120.962314708
 20
207.7867707304
 10
120.8182522761
 20
207.1597387364
 10
120.6197557491
 20
206.563185849
 10
120.3699555356
 20
206.0065200635
 10
120.0727911343
 20
205.4985203319
 10
119.7329490054
 20
205.0471981135
 10
119.3557886622
 20
204.6596710292
 10
118.9472581487
 20
204.3420506126
 10
118.513800235
 20
204.0993459275
 10
118.0622508114
 20
203.9353845717
 10
117.5997310821
 20
203.8527523138
 10
117.1335352595
 20
203.8527523138
 10
116.6710155302
 20
203.9353845717
 10
116.2194661066
 20
204.0993459275
 10
115.7860081929
 20
204.3420506126
 10
115.3774776794
 20
204.6596710292
 10
115.0003173362
 20
205.0471981135
 10
114.6604752073
 20
205.4985203319
 10
114.363310806
 20
206.0065200635
 10
114.1135105926
 20
206.563185849
 10
113.9150140655
 20
207.1597387364
 10
113.7709516336
 20
207.7867707304
 10
113.6835952475
 20
208.4343931618
 10
113.6543225696
 20
209.092392638
 10
113.6835952475
 20
209.7503921142
 10
113.7709516336
 20
210.3980145457
 10
113.9150140655
 20
211.0250465396
 10
114.1135105926
 20
211.6215994271
 10
114.363310806
 20
212.1782652126
 10
114.6604752073
 20
212.6862649442
 10
115.0003173362
 20
213.1375871626
 10
115.3774776794
 20
213.5251142469
 10
115.7860081929
 20
213.8427346635
 10
116.2194661066
 20
214.0854393486
 10
116.6710155302
 20
214.2494007044
 10
117.1335352595
 20
214.3320329623
 10
117.5997310821
 20
214.3320329623
 10
118.0622508114
 20
214.2494007044
 10
118.513800235
 20
214.0854393486
 10
118.9472581487
 20
213.8427346635
 10
119.3557886622
 20
213.5251142469
 10
119.7329490054
 20
213.1375871626
 10
120.0727911343
 20
212.6862649442
 10
120.3699555356
 20
212.1782652126
 10
120.6197557491
 20
211.6215994271
 10
120.8182522761
 20
211.0250465396
 10
120.962314708
 20
210.3980145457
 10
121.0496710941
 20
209.7503921142
 10
121.078943772
 20
209.092392638
  0
ELLIPSE
  5
115
330
1F
100
AcDbEntity
  8
0
  6
Continuous
 62
     7
370
     0
100
AcDbEllipse
 10
126.9045574661
 20
213.7819399801
 30
0.0
 11
1.570452492612759
 21
0.3064647679249788
 31
0.0
210
0.0
220
0.0
230
1.0
 40
0.1880950065
 41
4.039170346174332
 42
8.453821894191874
  0
LINE
  5
116
330
1F
100
AcDbEntity
  8
0
  6
Continuous
 62
     7
370
     0
100
AcDbLine
 10
131.0836624344
 20
214.4470190361
 30
0.0
 11
127.0901735641
 21
212.8885534036
 31
0.0
  0
LINE
  5
117
330
1F
100
AcDbEntity
  8
0
  6
Continuous
 62
     7
370
     0
100
AcDbLine
 10
127.0901735641
 20
212.8885534036
 30
0.0
 11
125.9704390931
 21
212.8885534036
 31
0.0
  0
LINE
  5
118
330
1F
100
AcDbEntity
  8
0
  6
Continuous
 62
     7
370
     0
100
AcDbLine
 10
127.3670819972
 20
206.0606616688
 30
0.0
 11
125.9704390931
 21
206.0606616688
 31
0.0
  0
LINE
  5
119
330
1F
100
AcDbEntity
  8
0
  6
Continuous
 62
     7
370
     0
100
AcDbLine
 10
127.3670819972
 20
206.0606616688
 30
0.0
 11
131.0836624344
 21
203.7377662399
 31
0.0
  0
ELLIPSE
  5
11A
330
1F
100
AcDbEntity
  8
0
  6
Continuous
 62
     7
370
     0
100
AcDbEllipse
 10
126.9773953005
 20
204.757401449
 30
0.0
 11
1.533308470563327
 21
-0.4838213915560914
 31
0.0
210
0.0
220
0.0
230
1.0
 40
0.2855942176
 41
4.089309364664878
 42
5.547562737847074
  0
ELLIPSE
  5
11B
330
1F
100
AcDbEntity
  8
0
  6
Continuous
 62
     7
370
     0
100
AcDbEllipse
 10
126.9773953005
 20
204.757401449
 30
0.0
 11
1.533308470563327
 21
-0.4838213915560914
 31
0.0
210
0.0
220
0.0
230
1.0
 40
0.2855942176
 41
5.547562737847049
 42
8.656808980987901
  0
ARC
  5
11C
330
1F
100
AcDbEntity
  8
0
  6
Continuous
 62
     7
370
     0
100
AcDbCircle
 10
126.6489008562
 20
209.092392638
 30
0.0
 40
6.992962946425521
100
AcDbArc
 50
153.8477213893
 51
206.1522786107
  0
ARC
  5
11D
330
1F
100
AcDbEntity
  8
0
  6
Continuous
 62
     7
370
     0
100
AcDbCircle
 10
117.5865199683
 20
209.0835672167
 30
0.0
 40
10.23705775854274
100
AcDbArc
 50
342.8250442506
 51
21.8197261612
  0
LWPOLYLINE
  5
11E
330
1F
100
AcDbEntity
  8
0
  6
Continuous
 62
     7
370
     0
100
AcDbPolyline
 90
       13
 70
   128
 43
0.0
 10
135.6388563016
 20
217.8676061629
 10
135.849844079
 20
217.8376293993
 10
136.092319054
 20
217.7236087678
 10
136.3084752663
 20
217.530886389
 10
136.4857671118
 20
217.2706477784
 10
136.6139046561
 20
216.9579970612
 10
136.685450857
 20
216.6110803368
 10
136.6962532069
 20
216.2500324869
 10
136.6456847426
 20
215.8958085573
 10
136.5366804338
 20
215.5689675367
 10
136.3755668387
 20
215.2884791227
 10
136.1716949139
 20
215.0706227296
 10
135.9368972891
 20
214.928042639
  0
LINE
  5
11F
330
1F
100
AcDbEntity
  8
0
  6
Continuous
 62
     7
370
     0
100
AcDbLine
 10
135.9368972891
 20
214.928042639
 30
0.0
 11
131.6708564741
 21
214.928042639
 31
0.0
  0
LINE
  5
120
330
1F
100
AcDbEntity
  8
0
  6
Continuous
 62
     7
370
     0
100
AcDbLine
 10
135.9136520851
 20
203.2659629323
 30
0.0
 11
131.6640512535
 21
203.2659629323
 31
0.0
  0
LWPOLYLINE
  5
121
330
1F
100
AcDbEntity
  8
0
  6
Continuous
 62
     7
370
     0
100
AcDbPolyline
 90
       13
 70
   128
 43
0.0
 10
135.9136520851
 20
203.2659629323
 10
136.1523093515
 20
203.1297079437
 10
136.3607345015
 20
202.9161712555
 10
136.526655462
 20
202.6379259082
 10
136.6403028065
 20
202.3113549884
 10
136.6949849792
 20
201.9556869922
 10
136.6874822938
 20
201.5918636519
 10
136.6182365083
 20
201.2413068864
 10
136.4913248146
 20
200.9246574784
 10
136.3142197737
 20
200.6605597457
 10
136.0973493304
 20
200.4645637631
 10
135.8534828169
 20
200.3482097745
 10
135.6388563016
 20
200.3171791131
  0
ELLIPSE
  5
122
330
1F
100
AcDbEntity
  8
0
  6
Continuous
 62
     7
370
     0
100
AcDbEllipse
 10
131.7556575518
 20
214.2621304858
 30
0.0
 11
1.570452492612787
 21
0.3064647679249788
 31
0.0
210
0.0
220
0.0
230
0.9999999999999999
 40
0.1880950065
 41
0.0
 42
6.283185307179586
  0
LINE
  5
123
330
1F
100
AcDbEntity
  8
0
  6
Continuous
 62
     7
370
     0
100
AcDbLine
 10
135.9368972891
 20
214.928042639
 30
0.0
 11
131.4798792892
 21
213.1886839974
 31
0.0
  0
LINE
  5
124
330
1F
100
AcDbEntity
  8
0
  6
Continuous
 62
     7
370
     0
100
AcDbLine
 10
131.4798792892
 20
213.1886839974
 30
0.0
 11
127.8592429367
 21
213.1886839974
 31
0.0
  0
LINE
  5
125
330
1F
100
AcDbEntity
  8
0
  6
Continuous
 62
     7
370
     0
100
AcDbLine
 10
131.8389681486
 20
205.8126761947
 30
0.0
 11
127.7638531778
 21
205.8126761947
 31
0.0
  0
LINE
  5
126
330
1F
100
AcDbEntity
  8
0
  6
Continuous
 62
     7
370
     0
100
AcDbLine
 10
131.8389681486
 20
205.8126761947
 30
0.0
 11
135.9136520851
 21
203.2659629323
 31
0.0
  0
ELLIPSE
  5
127
330
1F
100
AcDbEntity
  8
0
  6
Continuous
 62
     7
370
     0
100
AcDbEllipse
 10
131.8276202317
 20
204.2729509132
 30
0.0
 11
1.533308470563327
 21
-0.4838213915560914
 31
0.0
210
0.0
220
0.0
230
1.0
 40
0.2855942176
 41
0.0
 42
6.283185307179586
  0
ARC
  5
128
330
1F
100
AcDbEntity
  8
0
  6
Continuous
 62
     7
370
     0
100
AcDbCircle
 10
123.0137551502
 20
209.0797798818
 30
0.0
 40
9.410544669137126
100
AcDbArc
 50
339.6853914903
 51
25.8889098336
  0
ARC
  5
129
330
1F
100
AcDbEntity
  8
0
  6
Continuous
 62
     7
370
     0
100
AcDbCircle
 10
126.3747519001
 20
209.092392638
 30
0.0
 40
5.769395302815516
100
AcDbArc
 50
162.536844963
 51
197.4631550371
  0
LWPOLYLINE
  5
12A
330
1F
100
AcDbEntity
  8
0
  6
Continuous
 62
     7
370
     0
100
AcDbPolyline
 90
       11
 70
   128
 43
0.0
 10
140.5886037699
 20
217.367606163
 10
140.6104191442
 20
217.3671301391
 10
140.8273834084
 20
217.3088651966
 10
141.0210566799
 20
217.1587881656
 10
141.1725477215
 20
216.9315378279
 10
141.2670798264
 20
216.6492805875
 10
141.295432164
 20
216.3395483204
 10
141.2548391967
 20
216.0325528653
 10
141.1492604349
 20
215.7582391078
 10
140.98899422
 20
215.543364102
 10
140.7896732048
 20
215.4088871401
  0
LINE
  5
12B
330
1F
100
AcDbEntity
  8
0
  6
Continuous
 62
     7
370
     0
100
AcDbLine
 10
140.7896732048
 20
215.4088871401
 30
0.0
 11
136.454594567
 21
215.4088871401
 31
0.0
  0
LINE
  5
12C
330
1F
100
AcDbEntity
  8
0
  6
Continuous
 62
     7
370
     0
100
AcDbLine
 10
140.7479830387
 20
202.7914462723
 30
0.0
 11
136.4453311935
 21
202.7914462723
 31
0.0
  0
LWPOLYLINE
  5
12D
330
1F
100
AcDbEntity
  8
0
  6
Continuous
 62
     7
370
     0
100
AcDbPolyline
 90
       12
 70
   128
 43
0.0
 10
140.7479830387
 20
202.7914462723
 10
140.938713859
 20
202.6859977657
 10
141.1000788878
 20
202.5076763307
 10
141.2185434914
 20
202.2714388346
 10
141.284171347
 20
201.997099905
 10
141.2914578606
 20
201.7076699607
 10
141.2397918693
 20
201.4274251929
 10
141.1335069037
 20
201.1798713778
 10
140.9815177087
 20
200.9857723094
 10
140.7965725116
 20
200.8614082175
 10
140.5941837535
 20
200.8172102498
 10
140.5886037699
 20
200.8171791131
  0
ELLIPSE
  5
12E
330
1F
100
AcDbEntity
  8
0
  6
Continuous
 62
     7
370
     0
100
AcDbEllipse
 10
136.6067576374
 20
214.7423209915
 30
0.0
 11
1.570452492612787
 21
0.3064647679249788
 31
0.0
210
0.0
220
0.0
230
0.9999999999999999
 40
0.1880950065
 41
0.0
 42
6.283185307179586
  0
LINE
  5
12F
330
1F
100
AcDbEntity
  8
0
  6
Continuous
 62
     7
370
     0
100
AcDbLine
 10
140.7896732048
 20
215.4088871401
 30
0.0
 11
135.8150135643
 21
213.4675179927
 31
0.0
  0
LINE
  5
130
330
1F
100
AcDbEntity
  8
0
  6
Continuous
 62
     7
370
     0
100
AcDbLine
 10
135.8150135643
 20
213.4675179927
 30
0.0
 11
132.1943772118
 21
213.4675179927
 31
0.0
  0
LINE
  5
131
330
1F
100
AcDbEntity
  8
0
  6
Continuous
 62
     7
370
     0
100
AcDbLine
 10
136.283933713
 20
205.581516324
 30
0.0
 11
132.2088187422
 21
205.581516324
 31
0.0
  0
LINE
  5
132
330
1F
100
AcDbEntity
  8
0
  6
Continuous
 62
     7
370
     0
100
AcDbLine
 10
136.283933713
 20
205.581516324
 30
0.0
 11
140.7479830387
 21
202.7914462723
 31
0.0
  0
ELLIPSE
  5
133
330
1F
100
AcDbEntity
  8
0
  6
Continuous
 62
     7
370
     0
100
AcDbEllipse
 10
136.677845163
 20
203.7885003774
 30
0.0
 11
1.533308470563299
 21
-0.4838213915560914
 31
0.0
210
0.0
220
0.0
230
0.9999999999999999
 40
0.2855942176
 41
0.0
 42
6.283185307179586
  0
ARC
  5
134
330
1F
100
AcDbEntity
  8
0
  6
Continuous
 62
     7
370
     0
100
AcDbCircle
 10
128.4181682208
 20
209.0707418458
 30
0.0
 40
8.604938205542615
100
AcDbArc
 50
336.0780967987
 51
30.7277721913
  0
DIMENSION
  5
135
330
1F
100
AcDbEntity
  8
0
  6
Continuous
 62
     7
370
     0
100
AcDbDimension
  2
*D7
 10
66.1301640105
 20
219.592392638
 30
0.0
 11
66.1301640105
 21
209.092392638
 31
0.0
 70
   160
 71
     1
 42
21.0
  3
SLDDIMSTYLE0
100
AcDbAlignedDimension
 13
75.1704390931
 23
198.592392638
 33
0.0
 14
75.1704390931
 24
219.592392638
 34
0.0
 50
90.0
100
AcDbRotatedDimension
1001
ACAD
1000
DSTYLE
1002
{
1070
    77
1070
     3
1070
   143
1040
0.0393700787
1070
    41
1040
3.0
1070
    44
1040
1.0
1070
    42
1040
1.0
1070
   147
1040
1.524
1070
    73
1070
     0
1070
    74
1070
     0
1070
   140
1040
3.5
1070
   284
1070
    12
1070
    78
1070
    12
1002
}
  0
DIMENSION
  5
149
330
1F
100
AcDbEntity
  8
0
  6
Continuous
 62
     7
370
     0
100
AcDbDimension
  2
*D8
 10
125.9704390931
 20
230.0218724784
 30
0.0
 11
99.5704390931
 21
230.0218724784
 31
0.0
 70
   160
 71
     1
 42
52.8
  3
SLDDIMSTYLE0
100
AcDbAlignedDimension
 13
73.1704390931
 23
217.592392638
 33
0.0
 14
125.9704390931
 24
217.592392638
 34
0.0
100
AcDbRotatedDimension
1001
ACAD
1000
DSTYLE
1002
{
1070
    77
1070
     3
1070
   143
1040
0.0393700787
1070
    41
1040
3.0
1070
    44
1040
1.0
1070
    42
1040
1.0
1070
   147
1040
1.524
1070
    73
1070
     0
1070
    74
1070
     0
1070
   140
1040
3.5
1070
   284
1070
    12
1070
    78
1070
    12
1002
}
  0
ENDSEC
  0
SECTION
  2
OBJECTS
  0
DICTIONARY
  5
C
330
0
100
AcDbDictionary
281
     1
  3
ACAD_GROUP
350
D
  3
ACAD_LAYOUT
350
1A
  3
ACAD_MLINESTYLE
350
17
  3
ACAD_PLOTSETTINGS
350
19
  3
ACAD_PLOTSTYLENAME
350
E
  0
DICTIONARY
  5
D
102
{ACAD_REACTORS
330
C
102
}
330
C
100
AcDbDictionary
281
     1
  0
DICTIONARY
  5
1A
102
{ACAD_REACTORS
330
C
102
}
330
C
100
AcDbDictionary
281
     1
  3
Layout1
350
1E
  3
Layout2
350
26
  3
Model
350
22
  0
DICTIONARY
  5
17
102
{ACAD_REACTORS
330
C
102
}
330
C
100
AcDbDictionary
281
     1
  3
Standard
350
18
  0
DICTIONARY
  5
19
102
{ACAD_REACTORS
330
C
102
}
330
C
100
AcDbDictionary
281
     1
  0
ACDBDICTIONARYWDFLT
  5
E
102
{ACAD_REACTORS
330
C
102
}
330
C
100
AcDbDictionary
281
     1
  3
Normal
350
F
100
AcDbDictionaryWithDefault
340
F
  0
LAYOUT
  5
1E
102
{ACAD_REACTORS
330
1A
102
}
330
1A
100
AcDbPlotSettings
  1

  2

  4

  6

 40
0.0
 41
0.0
 42
0.0
 43
0.0
 44
0.0
 45
0.0
 46
0.0
 47
0.0
 48
0.0
 49
0.0
140
0.0
141
0.0
142
1.0
143
1.0
 70
   688
 72
     0
 73
     0
 74
     5
  7

 75
    16
147
1.0
148
0.0
149
0.0
100
AcDbLayout
  1
Layout1
 70
     1
 71
     1
 10
0.0
 20
0.0
 11
0.0
 21
0.0
 12
0.0
 22
0.0
 32
0.0
 14
0.0
 24
0.0
 34
0.0
 15
0.0
 25
0.0
 35
0.0
146
0.0
 13
0.0
 23
0.0
 33
0.0
 16
1.0
 26
0.0
 36
0.0
 17
0.0
 27
1.0
 37
0.0
 76
     0
330
1B
  0
LAYOUT
  5
26
102
{ACAD_REACTORS
330
1A
102
}
330
1A
100
AcDbPlotSettings
  1

  2

  4

  6

 40
0.0
 41
0.0
 42
0.0
 43
0.0
 44
0.0
 45
0.0
 46
0.0
 47
0.0
 48
0.0
 49
0.0
140
0.0
141
0.0
142
1.0
143
1.0
 70
   688
 72
     0
 73
     0
 74
     5
  7

 75
    16
147
1.0
148
0.0
149
0.0
100
AcDbLayout
  1
Layout2
 70
     1
 71
     2
 10
0.0
 20
0.0
 11
0.0
 21
0.0
 12
0.0
 22
0.0
 32
0.0
 14
0.0
 24
0.0
 34
0.0
 15
0.0
 25
0.0
 35
0.0
146
0.0
 13
0.0
 23
0.0
 33
0.0
 16
1.0
 26
0.0
 36
0.0
 17
0.0
 27
1.0
 37
0.0
 76
     0
330
23
  0
LAYOUT
  5
22
102
{ACAD_REACTORS
330
1A
102
}
330
1A
100
AcDbPlotSettings
  1

  2

  4

  6

 40
0.0
 41
0.0
 42
0.0
 43
0.0
 44
0.0
 45
0.0
 46
0.0
 47
0.0
 48
0.0
 49
0.0
140
0.0
141
0.0
142
1.0
143
1.0
 70
  1712
 72
     0
 73
     0
 74
     0
  7

 75
     0
147
1.0
148
0.0
149
0.0
100
AcDbLayout
  1
Model
 70
     1
 71
     0
 10
0.0
 20
0.0
 11
0.0
 21
0.0
 12
0.0
 22
0.0
 32
0.0
 14
0.0
 24
0.0
 34
0.0
 15
210.0
 25
297.0
 35
0.0
146
0.0
 13
0.0
 23
0.0
 33
0.0
 16
1.0
 26
0.0
 36
0.0
 17
0.0
 27
1.0
 37
0.0
 76
     0
330
1F
  0
MLINESTYLE
  5
18
102
{ACAD_REACTORS
330
17
102
}
330
17
100
AcDbMlineStyle
  2
Standard
 70
     0
  3

 62
   256
 51
90.0
 52
90.0
 71
     2
 49
0.5
 62
   256
  6
BYLAYER
 49
-0.5
 62
   256
  6
BYLAYER
  0
ACDBPLACEHOLDER
  5
F
102
{ACAD_REACTORS
330
E
102
}
330
E
  0
ENDSEC
  0
EOF
