  0
SECTION
  2
HEADER
  9
$ACADVER
  1
AC1015
  9
$ACADMAINTVER
 70
     6
  9
$DWGCODEPAGE
  3
DOS932
  9
$INSBASE
 10
0.0
 20
0.0
 30
0.0
  9
$EXTMIN
 10
0.0
 20
0.0
 30
0.0
  9
$EXTMAX
 10
210.0
 20
297.0
 30
0.0
  9
$LIMMIN
 10
0.0
 20
0.0
  9
$LIMMAX
 10
210.0
 20
297.0
  9
$ORTHOMODE
 70
     0
  9
$REGENMODE
 70
     1
  9
$FILLMODE
 70
     1
  9
$QTEXTMODE
 70
     0
  9
$MIRRTEXT
 70
     1
  9
$LTSCALE
 40
1.0
  9
$ATTMODE
 70
     1
  9
$TEXTSIZE
 40
3.5
  9
$TRACEWID
 40
1.0
  9
$TEXTSTYLE
  7
Standard
  9
$CLAYER
  8
0
  9
$CELTYPE
  6
ByLayer
  9
$CECOLOR
 62
   256
  9
$CELTSCALE
 40
1.0
  9
$DISPSILH
 70
     0
  9
$DIMSCALE
 40
1.0
  9
$DIMASZ
 40
3.302
  9
$DIMEXO
 40
1.0
  9
$DIMDLI
 40
3.75
  9
$DIMRND
 40
0.0
  9
$DIMDLE
 40
0.0
  9
$DIMEXE
 40
1.0
  9
$DIMTP
 40
0.0
  9
$DIMTM
 40
0.0
  9
$DIMTXT
 40
3.5
  9
$DIMCEN
 40
2.5
  9
$DIMTSZ
 40
0.0
  9
$DIMTOL
 70
     0
  9
$DIMLIM
 70
     0
  9
$DIMTIH
 70
     1
  9
$DIMTOH
 70
     1
  9
$DIMSE1
 70
     0
  9
$DIMSE2
 70
     0
  9
$DIMTAD
 70
     1
  9
$DIMZIN
 70
     1
  9
$DIMBLK
  1

  9
$DIMASO
 70
     1
  9
$DIMSHO
 70
     1
  9
$DIMPOST
  1

  9
$DIMAPOST
  1

  9
$DIMALT
 70
     0
  9
$DIMALTD
 70
     3
  9
$DIMALTF
 40
0.0393700787
  9
$DIMLFAC
 40
1.0
  9
$DIMTOFL
 70
     1
  9
$DIMTVP
 40
0.0
  9
$DIMTIX
 70
     0
  9
$DIMSOXD
 70
     0
  9
$DIMSAH
 70
     0
  9
$DIMBLK1
  1

  9
$DIMBLK2
  1

  9
$DIMSTYLE
  2
ISO-25
  9
$DIMCLRD
 70
     0
  9
$DIMCLRE
 70
     0
  9
$DIMCLRT
 70
     0
  9
$DIMTFAC
 40
1.0
  9
$DIMGAP
 40
1.524
  9
$DIMJUST
 70
     0
  9
$DIMSD1
 70
     0
  9
$DIMSD2
 70
     0
  9
$DIMTOLJ
 70
     0
  9
$DIMTZIN
 70
     1
  9
$DIMALTZ
 70
     0
  9
$DIMALTTZ
 70
     0
  9
$DIMUPT
 70
     0
  9
$DIMDEC
 70
     1
  9
$DIMTDEC
 70
     3
  9
$DIMALTU
 70
     2
  9
$DIMALTTD
 70
     3
  9
$DIMTXSTY
  7
Standard
  9
$DIMAUNIT
 70
     0
  9
$DIMADEC
 70
     2
  9
$DIMALTRND
 40
0.0
  9
$DIMAZIN
 70
     0
  9
$DIMDSEP
 70
    44
  9
$DIMATFIT
 70
     3
  9
$DIMFRAC
 70
     0
  9
$DIMLDRBLK
  1

  9
$DIMLUNIT
 70
     2
  9
$DIMLWD
 70
    -2
  9
$DIMLWE
 70
    -2
  9
$DIMTMOVE
 70
     0
  9
$LUNITS
 70
     2
  9
$LUPREC
 70
     1
  9
$SKETCHINC
 40
1.0
  9
$FILLETRAD
 40
10.0
  9
$AUNITS
 70
     0
  9
$AUPREC
 70
     2
  9
$MENU
  1
.
  9
$ELEVATION
 40
0.0
  9
$PELEVATION
 40
0.0
  9
$THICKNESS
 40
0.0
  9
$LIMCHECK
 70
     0
  9
$CHAMFERA
 40
10.0
  9
$CHAMFERB
 40
10.0
  9
$CHAMFERC
 40
20.0
  9
$CHAMFERD
 40
0.0
  9
$SKPOLY
 70
     0
  9
$TDCREATE
 40
2456225.813895752
  9
$TDUCREATE
 40
2456225.438895752
  9
$TDUPDATE
 40
2456225.813895764
  9
$TDUUPDATE
 40
2456225.438895764
  9
$TDINDWG
 40
0.0000000116
  9
$TDUSRTIMER
 40
0.0000000116
  9
$USRTIMER
 70
     1
  9
$ANGBASE
 50
0.0
  9
$ANGDIR
 70
     0
  9
$PDMODE
 70
     0
  9
$PDSIZE
 40
-1.0
  9
$PLINEWID
 40
0.0
  9
$SPLFRAME
 70
     0
  9
$SPLINETYPE
 70
     6
  9
$SPLINESEGS
 70
     8
  9
$HANDSEED
  5
4CB
  9
$SURFTAB1
 70
     6
  9
$SURFTAB2
 70
     6
  9
$SURFTYPE
 70
     6
  9
$SURFU
 70
     6
  9
$SURFV
 70
     6
  9
$UCSBASE
  2

  9
$UCSNAME
  2

  9
$UCSORG
 10
0.0
 20
0.0
 30
0.0
  9
$UCSXDIR
 10
1.0
 20
0.0
 30
0.0
  9
$UCSYDIR
 10
0.0
 20
1.0
 30
0.0
  9
$UCSORTHOREF
  2

  9
$UCSORTHOVIEW
 70
     0
  9
$UCSORGTOP
 10
0.0
 20
0.0
 30
0.0
  9
$UCSORGBOTTOM
 10
0.0
 20
0.0
 30
0.0
  9
$UCSORGLEFT
 10
0.0
 20
0.0
 30
0.0
  9
$UCSORGRIGHT
 10
0.0
 20
0.0
 30
0.0
  9
$UCSORGFRONT
 10
0.0
 20
0.0
 30
0.0
  9
$UCSORGBACK
 10
0.0
 20
0.0
 30
0.0
  9
$PUCSBASE
  2

  9
$PUCSNAME
  2

  9
$PUCSORG
 10
0.0
 20
0.0
 30
0.0
  9
$PUCSXDIR
 10
1.0
 20
0.0
 30
0.0
  9
$PUCSYDIR
 10
0.0
 20
1.0
 30
0.0
  9
$PUCSORTHOREF
  2

  9
$PUCSORTHOVIEW
 70
     0
  9
$PUCSORGTOP
 10
0.0
 20
0.0
 30
0.0
  9
$PUCSORGBOTTOM
 10
0.0
 20
0.0
 30
0.0
  9
$PUCSORGLEFT
 10
0.0
 20
0.0
 30
0.0
  9
$PUCSORGRIGHT
 10
0.0
 20
0.0
 30
0.0
  9
$PUCSORGFRONT
 10
0.0
 20
0.0
 30
0.0
  9
$PUCSORGBACK
 10
0.0
 20
0.0
 30
0.0
  9
$USERI1
 70
     0
  9
$USERI2
 70
     0
  9
$USERI3
 70
     0
  9
$USERI4
 70
     0
  9
$USERI5
 70
     0
  9
$USERR1
 40
0.0
  9
$USERR2
 40
0.0
  9
$USERR3
 40
0.0
  9
$USERR4
 40
0.0
  9
$USERR5
 40
0.0
  9
$WORLDVIEW
 70
     1
  9
$SHADEDGE
 70
     3
  9
$SHADEDIF
 70
    70
  9
$TILEMODE
 70
     0
  9
$MAXACTVP
 70
    64
  9
$PINSBASE
 10
0.0
 20
0.0
 30
0.0
  9
$PLIMCHECK
 70
     0
  9
$PEXTMIN
 10
0.0
 20
0.0
 30
0.0
  9
$PEXTMAX
 10
210.0
 20
297.0
 30
0.0
  9
$PLIMMIN
 10
0.0
 20
0.0
  9
$PLIMMAX
 10
210.0
 20
297.0
  9
$UNITMODE
 70
     0
  9
$VISRETAIN
 70
     1
  9
$PLINEGEN
 70
     0
  9
$PSLTSCALE
 70
     1
  9
$TREEDEPTH
 70
  3020
  9
$CMLSTYLE
  2
Standard
  9
$CMLJUST
 70
     0
  9
$CMLSCALE
 40
20.0
  9
$PROXYGRAPHICS
 70
     1
  9
$MEASUREMENT
 70
     1
  9
$CELWEIGHT
370
    -1
  9
$ENDCAPS
280
     0
  9
$JOINSTYLE
280
     0
  9
$LWDISPLAY
290
     1
  9
$INSUNITS
 70
     4
  9
$HYPERLINKBASE
  1

  9
$STYLESHEET
  1

  9
$XEDIT
290
     1
  9
$CEPSNTYPE
380
     0
  9
$PSTYLEMODE
290
     1
  9
$FINGERPRINTGUID
  2
{10C5C271-827E-46F0-B8B7-7FEA9145EA95}
  9
$VERSIONGUID
  2
{FAEB1C32-E019-11D5-929B-00C0DF256EC4}
  9
$EXTNAMES
290
     1
  9
$PSVPSCALE
 40
0.0
  9
$OLESTARTUP
290
     0
  0
ENDSEC
  0
SECTION
  2
CLASSES
  0
CLASS
  1
ACDBDICTIONARYWDFLT
  2
AcDbDictionaryWithDefault
  3
ObjectDBX Classes
 90
        0
280
     0
281
     0
  0
CLASS
  1
VISUALSTYLE
  2
AcDbVisualStyle
  3
ObjectDBX Classes
 90
     4095
280
     0
281
     0
  0
CLASS
  1
MATERIAL
  2
AcDbMaterial
  3
ObjectDBX Classes
 90
     1153
280
     0
281
     0
  0
CLASS
  1
SCALE
  2
AcDbScale
  3
ObjectDBX Classes
 90
     1153
280
     0
281
     0
  0
CLASS
  1
DICTIONARYVAR
  2
AcDbDictionaryVar
  3
ObjectDBX Classes
 90
        0
280
     0
281
     0
  0
CLASS
  1
ACDBPLACEHOLDER
  2
AcDbPlaceHolder
  3
ObjectDBX Classes
 90
        0
280
     0
281
     0
  0
CLASS
  1
LAYOUT
  2
AcDbLayout
  3
ObjectDBX Classes
 90
        0
280
     0
281
     0
  0
ENDSEC
  0
SECTION
  2
TABLES
  0
TABLE
  2
VPORT
  5
8
330
0
100
AcDbSymbolTable
 70
     1
  0
VPORT
  5
29
330
8
100
AcDbSymbolTableRecord
100
AcDbViewportTableRecord
  2
*Active
 70
     0
 10
0.0
 20
0.0
 11
1.0
 21
1.0
 12
105.0
 22
148.5
 13
0.0
 23
0.0
 14
10.0
 24
10.0
 15
10.0
 25
10.0
 16
0.0
 26
0.0
 36
1.0
 17
0.0
 27
0.0
 37
0.0
 40
297.0
 41
0.7070707071
 42
50.0
 43
0.0
 44
0.0
 50
0.0
 51
0.0
 71
     0
 72
  2000
 73
     1
 74
     3
 75
     0
 76
     0
 77
     0
 78
     0
281
     0
 65
     1
110
0.0
120
0.0
130
0.0
111
1.0
121
0.0
131
0.0
112
0.0
122
1.0
132
0.0
 79
     0
146
0.0
  0
ENDTAB
  0
TABLE
  2
LTYPE
  5
5
330
0
100
AcDbSymbolTable
 70
     6
  0
LTYPE
  5
14
330
5
100
AcDbSymbolTableRecord
100
AcDbLinetypeTableRecord
  2
ByBlock
 70
     0
  3

 72
    65
 73
     0
 40
0.0
  0
LTYPE
  5
15
330
5
100
AcDbSymbolTableRecord
100
AcDbLinetypeTableRecord
  2
ByLayer
 70
     0
  3

 72
    65
 73
     0
 40
0.0
  0
LTYPE
  5
16
330
5
100
AcDbSymbolTableRecord
100
AcDbLinetypeTableRecord
  2
Continuous
 70
     0
  3
Solid line
 72
    65
 73
     0
 40
0.0
  0
LTYPE
  5
3F
330
5
100
AcDbSymbolTableRecord
100
AcDbLinetypeTableRecord
  2
HIDDEN
 70
     0
  3
Hidden __ __ __ __ __ __ __ __ __ __ __ __ __ __
 72
    65
 73
     2
 40
1.905
 49
1.27
 74
     0
 49
-0.635
 74
     0
  0
LTYPE
  5
40
330
5
100
AcDbSymbolTableRecord
100
AcDbLinetypeTableRecord
  2
PHANTOM
 70
     0
  3
Phantom ______  __  __  ______  __  __  ______
 72
    65
 73
     6
 40
12.7
 49
6.35
 74
     0
 49
-1.27
 74
     0
 49
1.27
 74
     0
 49
-1.27
 74
     0
 49
1.27
 74
     0
 49
-1.27
 74
     0
  0
LTYPE
  5
41
330
5
100
AcDbSymbolTableRecord
100
AcDbLinetypeTableRecord
  2
CENTER
 70
     0
  3
Center ____ _ ____ _ ____ _ ____ _ ____ _ ____
 72
    65
 73
     4
 40
10.16
 49
6.35
 74
     0
 49
-1.27
 74
     0
 49
1.27
 74
     0
 49
-1.27
 74
     0
  0
LTYPE
  5
42
330
5
100
AcDbSymbolTableRecord
100
AcDbLinetypeTableRecord
  2
CENTERX2
 70
     0
  3
Center (2x) ________  __  ________  __  _____
 72
    65
 73
     4
 40
20.32
 49
12.7
 74
     0
 49
-2.54
 74
     0
 49
2.54
 74
     0
 49
-2.54
 74
     0
  0
LTYPE
  5
43
330
5
100
AcDbSymbolTableRecord
100
AcDbLinetypeTableRecord
  2
DOT2
 70
     0
  3
Dot (.5x) ........................................
 72
    65
 73
     2
 40
0.635
 49
0.0
 74
     0
 49
-0.635
 74
     0
  0
ENDTAB
  0
TABLE
  2
LAYER
  5
2
330
0
100
AcDbSymbolTable
 70
     2
  0
LAYER
  5
10
330
2
100
AcDbSymbolTableRecord
100
AcDbLayerTableRecord
  2
0
 70
     0
 62
     7
  6
Continuous
370
    -3
390
F
  0
LAYER
  5
44
330
2
100
AcDbSymbolTableRecord
100
AcDbLayerTableRecord
  2
SLD-0
 70
     0
 62
   179
  6
Continuous
370
    -3
390
F
  0
ENDTAB
  0
TABLE
  2
STYLE
  5
3
330
0
100
AcDbSymbolTable
 70
     3
  0
STYLE
  5
11
330
3
100
AcDbSymbolTableRecord
100
AcDbTextStyleTableRecord
  2
Standard
 70
     0
 40
0.0
 41
1.0
 50
0.0
 71
     0
 42
2.5
  3
txt
  4
bigfont
  0
STYLE
  5
54
330
3
100
AcDbSymbolTableRecord
100
AcDbTextStyleTableRecord
  2
SLDTEXTSTYLE0
 70
     0
 40
0.0
 41
0.5157894737
 50
0.0
 71
     0
 42
0.2
  3
TXT
  4
bigfont
  0
STYLE
  5
3C3
330
3
100
AcDbSymbolTableRecord
100
AcDbTextStyleTableRecord
  2
SLDTEXTSTYLE1
 70
     0
 40
0.0
 41
0.7
 50
0.0
 71
     0
 42
0.2
  3
TXT
  4
bigfont
  0
ENDTAB
  0
TABLE
  2
VIEW
  5
6
330
0
100
AcDbSymbolTable
 70
     0
  0
ENDTAB
  0
TABLE
  2
UCS
  5
7
330
0
100
AcDbSymbolTable
 70
     0
  0
ENDTAB
  0
TABLE
  2
APPID
  5
9
330
0
100
AcDbSymbolTable
 70
     1
  0
APPID
  5
12
330
9
100
AcDbSymbolTableRecord
100
AcDbRegAppTableRecord
  2
ACAD
 70
     0
  0
ENDTAB
  0
TABLE
  2
DIMSTYLE
  5
A
330
0
100
AcDbSymbolTable
 70
     4
100
AcDbDimStyleTable
  0
DIMSTYLE
105
27
330
A
100
AcDbSymbolTableRecord
100
AcDbDimStyleTableRecord
  2
ISO-25
 70
     0
 41
2.5
 42
0.625
 43
3.75
 44
1.25
 73
     0
 74
     0
 77
     1
 78
     8
140
2.5
141
2.5
143
0.0393700787
147
0.625
171
     3
172
     1
271
     2
272
     2
274
     3
278
    44
283
     0
284
     8
340
11
  0
DIMSTYLE
105
3B3
102
{ACAD_REACTORS
330
3B2
330
3C5
330
3D3
330
3E1
330
3EF
330
41A
330
446
330
474
330
492
102
}
330
A
100
AcDbSymbolTableRecord
100
AcDbDimStyleTableRecord
  2
SLDDIMSTYLE0
 70
     0
 41
3.302
 44
0.0
 45
0.000000001
 73
     0
 74
     0
 77
     3
 78
    12
140
3.5
147
0.875
173
     1
271
     0
272
     3
276
     2
284
    12
340
54
341
3B4
343
3B4
344
3B4
  0
DIMSTYLE
105
3FE
102
{ACAD_REACTORS
330
3FD
330
40C
330
42A
330
438
330
464
330
482
330
4A0
102
}
330
A
100
AcDbSymbolTableRecord
100
AcDbDimStyleTableRecord
  2
SLDDIMSTYLE1
 70
     0
 41
3.302
 44
0.0
 45
0.000000001
 73
     0
 74
     0
 77
     3
 78
    12
140
3.5
147
0.875
173
     1
271
     1
272
     3
276
     2
284
    12
340
54
341
3B4
343
3B4
344
3B4
  0
DIMSTYLE
105
455
102
{ACAD_REACTORS
330
454
330
4B0
330
4BA
102
}
330
A
100
AcDbSymbolTableRecord
100
AcDbDimStyleTableRecord
  2
SLDDIMSTYLE2
 70
     0
 41
3.302
 44
0.0
 45
0.000000001
 73
     0
 74
     0
 77
     3
 78
    12
140
3.5
141
0.0
147
0.875
172
     1
173
     1
271
     0
272
     3
276
     2
284
    12
340
54
341
3B4
343
3B4
344
3B4
  0
ENDTAB
  0
TABLE
  2
BLOCK_RECORD
  5
1
330
0
100
AcDbSymbolTable
 70
    32
  0
BLOCK_RECORD
  5
1F
330
1
100
AcDbSymbolTableRecord
100
AcDbBlockTableRecord
  2
*Model_Space
340
22
  0
BLOCK_RECORD
  5
1B
330
1
100
AcDbSymbolTableRecord
100
AcDbBlockTableRecord
  2
*Paper_Space
340
1E
  0
BLOCK_RECORD
  5
45
330
1
100
AcDbSymbolTableRecord
100
AcDbBlockTableRecord
  2
_OPEN30
340
0
102
{BLKREFS
331
3A4
331
3A5
331
3B0
331
3B1
102
}
  0
BLOCK_RECORD
  5
4B
330
1
100
AcDbSymbolTableRecord
100
AcDbBlockTableRecord
  2
SW_NOTE_0
340
0
102
{BLKREFS
331
3A7
102
}
  0
BLOCK_RECORD
  5
78
330
1
100
AcDbSymbolTableRecord
100
AcDbBlockTableRecord
  2
SW_NOTE_1
340
0
102
{BLKREFS
331
3A8
102
}
  0
BLOCK_RECORD
  5
82
330
1
100
AcDbSymbolTableRecord
100
AcDbBlockTableRecord
  2
SW_NOTE_2
340
0
102
{BLKREFS
331
3A6
102
}
  0
BLOCK_RECORD
  5
8C
330
1
100
AcDbSymbolTableRecord
100
AcDbBlockTableRecord
  2
SW_NOTE_3
340
0
102
{BLKREFS
331
3AB
102
}
  0
BLOCK_RECORD
  5
96
330
1
100
AcDbSymbolTableRecord
100
AcDbBlockTableRecord
  2
SW_CENTERMARKSYMBOL_0
340
0
102
{BLKREFS
331
3A9
102
}
  0
BLOCK_RECORD
  5
A1
330
1
100
AcDbSymbolTableRecord
100
AcDbBlockTableRecord
  2
SW_CENTERMARKSYMBOL_1
340
0
102
{BLKREFS
331
3AA
102
}
  0
BLOCK_RECORD
  5
AC
330
1
100
AcDbSymbolTableRecord
100
AcDbBlockTableRecord
  2
SW_CENTERMARKSYMBOL_2
340
0
102
{BLKREFS
331
3AC
102
}
  0
BLOCK_RECORD
  5
B7
330
1
100
AcDbSymbolTableRecord
100
AcDbBlockTableRecord
  2
SW_CENTERMARKSYMBOL_3
340
0
102
{BLKREFS
331
3AE
102
}
  0
BLOCK_RECORD
  5
C2
330
1
100
AcDbSymbolTableRecord
100
AcDbBlockTableRecord
  2
SW_CENTERMARKSYMBOL_4
340
0
102
{BLKREFS
331
3AF
102
}
  0
BLOCK_RECORD
  5
CD
330
1
100
AcDbSymbolTableRecord
100
AcDbBlockTableRecord
  2
SW_CENTERMARKSYMBOL_5
340
0
102
{BLKREFS
331
3AD
102
}
  0
BLOCK_RECORD
  5
3B4
330
1
100
AcDbSymbolTableRecord
100
AcDbBlockTableRecord
  2
_NONE
340
0
  0
BLOCK_RECORD
  5
3B7
330
1
100
AcDbSymbolTableRecord
100
AcDbBlockTableRecord
  2
*D13
340
0
  0
BLOCK_RECORD
  5
3C6
330
1
100
AcDbSymbolTableRecord
100
AcDbBlockTableRecord
  2
*D14
340
0
  0
BLOCK_RECORD
  5
3D4
330
1
100
AcDbSymbolTableRecord
100
AcDbBlockTableRecord
  2
*D15
340
0
  0
BLOCK_RECORD
  5
3E2
330
1
100
AcDbSymbolTableRecord
100
AcDbBlockTableRecord
  2
*D16
340
0
  0
BLOCK_RECORD
  5
3F0
330
1
100
AcDbSymbolTableRecord
100
AcDbBlockTableRecord
  2
*D17
340
0
  0
BLOCK_RECORD
  5
3FF
330
1
100
AcDbSymbolTableRecord
100
AcDbBlockTableRecord
  2
*D18
340
0
  0
BLOCK_RECORD
  5
40D
330
1
100
AcDbSymbolTableRecord
100
AcDbBlockTableRecord
  2
*D19
340
0
  0
BLOCK_RECORD
  5
41B
330
1
100
AcDbSymbolTableRecord
100
AcDbBlockTableRecord
  2
*D20
340
0
  0
BLOCK_RECORD
  5
42B
330
1
100
AcDbSymbolTableRecord
100
AcDbBlockTableRecord
  2
*D21
340
0
  0
BLOCK_RECORD
  5
439
330
1
100
AcDbSymbolTableRecord
100
AcDbBlockTableRecord
  2
*D22
340
0
  0
BLOCK_RECORD
  5
447
330
1
100
AcDbSymbolTableRecord
100
AcDbBlockTableRecord
  2
*D23
340
0
  0
BLOCK_RECORD
  5
456
330
1
100
AcDbSymbolTableRecord
100
AcDbBlockTableRecord
  2
*D24
340
0
  0
BLOCK_RECORD
  5
465
330
1
100
AcDbSymbolTableRecord
100
AcDbBlockTableRecord
  2
*D25
340
0
  0
BLOCK_RECORD
  5
475
330
1
100
AcDbSymbolTableRecord
100
AcDbBlockTableRecord
  2
*D26
340
0
  0
BLOCK_RECORD
  5
483
330
1
100
AcDbSymbolTableRecord
100
AcDbBlockTableRecord
  2
*D27
340
0
  0
BLOCK_RECORD
  5
493
330
1
100
AcDbSymbolTableRecord
100
AcDbBlockTableRecord
  2
*D28
340
0
  0
BLOCK_RECORD
  5
4A1
330
1
100
AcDbSymbolTableRecord
100
AcDbBlockTableRecord
  2
*D29
340
0
  0
BLOCK_RECORD
  5
4B1
330
1
100
AcDbSymbolTableRecord
100
AcDbBlockTableRecord
  2
*D30
340
0
  0
BLOCK_RECORD
  5
4BB
330
1
100
AcDbSymbolTableRecord
100
AcDbBlockTableRecord
  2
*D31
340
0
  0
ENDTAB
  0
ENDSEC
  0
SECTION
  2
BLOCKS
  0
BLOCK
  5
20
330
1F
100
AcDbEntity
  8
0
100
AcDbBlockBegin
  2
*Model_Space
 70
     0
 10
0.0
 20
0.0
 30
0.0
  3
*Model_Space
  1

  0
ENDBLK
  5
21
330
1F
100
AcDbEntity
  8
0
100
AcDbBlockEnd
  0
BLOCK
  5
1C
330
1B
100
AcDbEntity
 67
     1
  8
0
100
AcDbBlockBegin
  2
*Paper_Space
 70
     0
 10
0.0
 20
0.0
 30
0.0
  3
*Paper_Space
  1

  0
ENDBLK
  5
1D
330
1B
100
AcDbEntity
 67
     1
  8
0
100
AcDbBlockEnd
  0
BLOCK
  5
46
330
45
100
AcDbEntity
  8
0
100
AcDbBlockBegin
  2
_OPEN30
 70
     0
 10
0.0
 20
0.0
 30
0.0
  3
_OPEN30
  1

  0
LINE
  5
48
330
45
100
AcDbEntity
  8
SLD-0
  6
Continuous
 62
   179
370
     0
100
AcDbLine
 10
-1.0
 20
0.267949
 30
0.0
 11
0.0
 21
0.0
 31
0.0
  0
LINE
  5
49
330
45
100
AcDbEntity
  8
SLD-0
  6
Continuous
 62
   179
370
     0
100
AcDbLine
 10
0.0
 20
0.0
 30
0.0
 11
-1.0
 21
-0.267949
 31
0.0
  0
LINE
  5
4A
330
45
100
AcDbEntity
  8
SLD-0
  6
Continuous
 62
   179
370
     0
100
AcDbLine
 10
0.0
 20
0.0
 30
0.0
 11
-1.0
 21
0.0
 31
0.0
  0
ENDBLK
  5
47
330
45
100
AcDbEntity
  8
0
100
AcDbBlockEnd
  0
BLOCK
  5
4C
330
4B
100
AcDbEntity
  8
0
100
AcDbBlockBegin
  2
SW_NOTE_0
 70
     0
 10
0.0
 20
0.0
 30
0.0
  3
SW_NOTE_0
  1

  0
LINE
  5
4E
330
4B
100
AcDbEntity
  8
SLD-0
  6
Continuous
 62
   179
370
     0
100
AcDbLine
 10
-8.1489390258
 20
0.0008836533
 30
0.0
 11
0.0
 21
0.0008836533
 31
0.0
  0
LINE
  5
4F
330
4B
100
AcDbEntity
  8
SLD-0
  6
Continuous
 62
   179
370
     0
100
AcDbLine
 10
0.0
 20
0.0008836533
 30
0.0
 11
-8.1489390258
 21
0.0008836533
 31
0.0
  0
LINE
  5
50
330
4B
100
AcDbEntity
  8
SLD-0
  6
Continuous
 62
   179
370
     0
100
AcDbLine
 10
-8.1489390258
 20
0.0008836533
 30
0.0
 11
0.0
 21
0.0008836533
 31
0.0
  0
LINE
  5
51
330
4B
100
AcDbEntity
  8
SLD-0
  6
Continuous
 62
   179
370
     0
100
AcDbLine
 10
0.0
 20
0.0008836533
 30
0.0
 11
-8.1489390258
 21
0.0008836533
 31
0.0
  0
LINE
  5
52
330
4B
100
AcDbEntity
  8
SLD-0
  6
Continuous
 62
   179
370
     0
100
AcDbLine
 10
-8.1489390258
 20
0.0008836533
 30
0.0
 11
0.0
 21
0.0008836533
 31
0.0
  0
LINE
  5
53
330
4B
100
AcDbEntity
  8
SLD-0
  6
Continuous
 62
   179
370
     0
100
AcDbLine
 10
0.0
 20
0.0008836533
 30
0.0
 11
-8.1489390258
 21
0.0008836533
 31
0.0
  0
MTEXT
  5
77
330
4B
100
AcDbEntity
  8
SLD-0
100
AcDbMText
 10
-8.1460659078
 20
3.7372124371
 30
0.0
 40
3.5
 41
0.0
 71
     1
 72
     1
  1
BF-6
  7
SLDTEXTSTYLE0
 73
     1
 44
1.0
  0
ENDBLK
  5
4D
330
4B
100
AcDbEntity
  8
0
100
AcDbBlockEnd
  0
BLOCK
  5
79
330
78
100
AcDbEntity
  8
0
100
AcDbBlockBegin
  2
SW_NOTE_1
 70
     0
 10
0.0
 20
0.0
 30
0.0
  3
SW_NOTE_1
  1

  0
LINE
  5
7B
330
78
100
AcDbEntity
  8
SLD-0
  6
Continuous
 62
   179
370
     0
100
AcDbLine
 10
0.0
 20
0.0008836533
 30
0.0
 11
8.1489390258
 21
0.0008836533
 31
0.0
  0
LINE
  5
7C
330
78
100
AcDbEntity
  8
SLD-0
  6
Continuous
 62
   179
370
     0
100
AcDbLine
 10
8.1489390258
 20
0.0008836533
 30
0.0
 11
0.0
 21
0.0008836533
 31
0.0
  0
LINE
  5
7D
330
78
100
AcDbEntity
  8
SLD-0
  6
Continuous
 62
   179
370
     0
100
AcDbLine
 10
0.0
 20
0.0008836533
 30
0.0
 11
8.1489390258
 21
0.0008836533
 31
0.0
  0
LINE
  5
7E
330
78
100
AcDbEntity
  8
SLD-0
  6
Continuous
 62
   179
370
     0
100
AcDbLine
 10
8.1489390258
 20
0.0008836533
 30
0.0
 11
0.0
 21
0.0008836533
 31
0.0
  0
LINE
  5
7F
330
78
100
AcDbEntity
  8
SLD-0
  6
Continuous
 62
   179
370
     0
100
AcDbLine
 10
0.0
 20
0.0008836533
 30
0.0
 11
8.1489390258
 21
0.0008836533
 31
0.0
  0
LINE
  5
80
330
78
100
AcDbEntity
  8
SLD-0
  6
Continuous
 62
   179
370
     0
100
AcDbLine
 10
8.1489390258
 20
0.0008836533
 30
0.0
 11
0.0
 21
0.0008836533
 31
0.0
  0
MTEXT
  5
81
330
78
100
AcDbEntity
  8
SLD-0
100
AcDbMText
 10
0.0033042669
 20
3.7365199885
 30
0.0
 40
3.5
 41
0.0
 71
     1
 72
     1
  1
BF-6
  7
SLDTEXTSTYLE0
 73
     1
 44
1.0
  0
ENDBLK
  5
7A
330
78
100
AcDbEntity
  8
0
100
AcDbBlockEnd
  0
BLOCK
  5
83
330
82
100
AcDbEntity
  8
0
100
AcDbBlockBegin
  2
SW_NOTE_2
 70
     0
 10
0.0
 20
0.0
 30
0.0
  3
SW_NOTE_2
  1

  0
LINE
  5
85
330
82
100
AcDbEntity
  8
SLD-0
  6
Continuous
 62
   179
370
     0
100
AcDbLine
 10
-0.0022759909
 20
-0.0023306682
 30
0.0
 11
10.1822155166
 21
-0.0023306682
 31
0.0
  0
LINE
  5
86
330
82
100
AcDbEntity
  8
SLD-0
  6
Continuous
 62
   179
370
     0
100
AcDbLine
 10
10.1822155166
 20
-0.0023306682
 30
0.0
 11
-0.0022759909
 21
-0.0023306682
 31
0.0
  0
LINE
  5
87
330
82
100
AcDbEntity
  8
SLD-0
  6
Continuous
 62
   179
370
     0
100
AcDbLine
 10
-0.0022759909
 20
-0.0023306682
 30
0.0
 11
10.1822155166
 21
-0.0023306682
 31
0.0
  0
LINE
  5
88
330
82
100
AcDbEntity
  8
SLD-0
  6
Continuous
 62
   179
370
     0
100
AcDbLine
 10
10.1822155166
 20
-0.0023306682
 30
0.0
 11
-0.0022759909
 21
-0.0023306682
 31
0.0
  0
LINE
  5
89
330
82
100
AcDbEntity
  8
SLD-0
  6
Continuous
 62
   179
370
     0
100
AcDbLine
 10
-0.0022759909
 20
-0.0023306682
 30
0.0
 11
10.1822155166
 21
-0.0023306682
 31
0.0
  0
LINE
  5
8A
330
82
100
AcDbEntity
  8
SLD-0
  6
Continuous
 62
   179
370
     0
100
AcDbLine
 10
10.1822155166
 20
-0.0023306682
 30
0.0
 11
-0.0022759909
 21
-0.0023306682
 31
0.0
  0
MTEXT
  5
8B
330
82
100
AcDbEntity
  8
SLD-0
100
AcDbMText
 10
0.0
 20
3.7345851288
 30
0.0
 40
3.5
 41
0.0
 71
     1
 72
     1
  1
 BF-5
  7
SLDTEXTSTYLE0
 73
     1
 44
1.0
  0
ENDBLK
  5
84
330
82
100
AcDbEntity
  8
0
100
AcDbBlockEnd
  0
BLOCK
  5
8D
330
8C
100
AcDbEntity
  8
0
100
AcDbBlockBegin
  2
SW_NOTE_3
 70
     0
 10
0.0
 20
0.0
 30
0.0
  3
SW_NOTE_3
  1

  0
LINE
  5
8F
330
8C
100
AcDbEntity
  8
SLD-0
  6
Continuous
 62
   179
370
     0
100
AcDbLine
 10
-0.0021379334
 20
-0.0021352055
 30
0.0
 11
8.1468010924
 21
-0.0021352055
 31
0.0
  0
LINE
  5
90
330
8C
100
AcDbEntity
  8
SLD-0
  6
Continuous
 62
   179
370
     0
100
AcDbLine
 10
8.1468010924
 20
-0.0021352055
 30
0.0
 11
-0.0021379334
 21
-0.0021352055
 31
0.0
  0
LINE
  5
91
330
8C
100
AcDbEntity
  8
SLD-0
  6
Continuous
 62
   179
370
     0
100
AcDbLine
 10
-0.0021379334
 20
-0.0021352055
 30
0.0
 11
8.1468010924
 21
-0.0021352055
 31
0.0
  0
LINE
  5
92
330
8C
100
AcDbEntity
  8
SLD-0
  6
Continuous
 62
   179
370
     0
100
AcDbLine
 10
8.1468010924
 20
-0.0021352055
 30
0.0
 11
-0.0021379334
 21
-0.0021352055
 31
0.0
  0
LINE
  5
93
330
8C
100
AcDbEntity
  8
SLD-0
  6
Continuous
 62
   179
370
     0
100
AcDbLine
 10
-0.0021379334
 20
-0.0021352055
 30
0.0
 11
8.1468010924
 21
-0.0021352055
 31
0.0
  0
LINE
  5
94
330
8C
100
AcDbEntity
  8
SLD-0
  6
Continuous
 62
   179
370
     0
100
AcDbLine
 10
8.1468010924
 20
-0.0021352055
 30
0.0
 11
-0.0021379334
 21
-0.0021352055
 31
0.0
  0
MTEXT
  5
95
330
8C
100
AcDbEntity
  8
SLD-0
100
AcDbMText
 10
0.0
 20
3.7345851288
 30
0.0
 40
3.5
 41
0.0
 71
     1
 72
     1
  1
BF-5
  7
SLDTEXTSTYLE0
 73
     1
 44
1.0
  0
ENDBLK
  5
8E
330
8C
100
AcDbEntity
  8
0
100
AcDbBlockEnd
  0
BLOCK
  5
97
330
96
100
AcDbEntity
  8
0
100
AcDbBlockBegin
  2
SW_CENTERMARKSYMBOL_0
 70
     0
 10
0.0
 20
0.0
 30
0.0
  3
SW_CENTERMARKSYMBOL_0
  1

  0
LINE
  5
99
330
96
100
AcDbEntity
  8
SLD-0
  6
Continuous
 62
   179
370
     0
100
AcDbLine
 10
0.0
 20
0.0
 30
0.0
 11
0.0
 21
2.5
 31
0.0
  0
LINE
  5
9A
330
96
100
AcDbEntity
  8
SLD-0
  6
Continuous
 62
   179
370
     0
100
AcDbLine
 10
0.0
 20
0.0
 30
0.0
 11
-2.5
 21
0.0
 31
0.0
  0
LINE
  5
9B
330
96
100
AcDbEntity
  8
SLD-0
  6
Continuous
 62
   179
370
     0
100
AcDbLine
 10
0.0
 20
0.0
 30
0.0
 11
0.0
 21
-2.5
 31
0.0
  0
LINE
  5
9C
330
96
100
AcDbEntity
  8
SLD-0
  6
Continuous
 62
   179
370
     0
100
AcDbLine
 10
0.0
 20
0.0
 30
0.0
 11
2.5
 21
0.0
 31
0.0
  0
LINE
  5
9D
330
96
100
AcDbEntity
  8
SLD-0
  6
Continuous
 62
   179
370
     0
100
AcDbLine
 10
0.0
 20
5.0
 30
0.0
 11
0.0
 21
8.0
 31
0.0
  0
LINE
  5
9E
330
96
100
AcDbEntity
  8
SLD-0
  6
Continuous
 62
   179
370
     0
100
AcDbLine
 10
-5.0
 20
0.0
 30
0.0
 11
-8.0
 21
0.0
 31
0.0
  0
LINE
  5
9F
330
96
100
AcDbEntity
  8
SLD-0
  6
Continuous
 62
   179
370
     0
100
AcDbLine
 10
0.0
 20
-5.0
 30
0.0
 11
0.0
 21
-8.0
 31
0.0
  0
LINE
  5
A0
330
96
100
AcDbEntity
  8
SLD-0
  6
Continuous
 62
   179
370
     0
100
AcDbLine
 10
5.0
 20
0.0
 30
0.0
 11
8.0
 21
0.0
 31
0.0
  0
ENDBLK
  5
98
330
96
100
AcDbEntity
  8
0
100
AcDbBlockEnd
  0
BLOCK
  5
A2
330
A1
100
AcDbEntity
  8
0
100
AcDbBlockBegin
  2
SW_CENTERMARKSYMBOL_1
 70
     0
 10
0.0
 20
0.0
 30
0.0
  3
SW_CENTERMARKSYMBOL_1
  1

  0
LINE
  5
A4
330
A1
100
AcDbEntity
  8
SLD-0
  6
Continuous
 62
   179
370
     0
100
AcDbLine
 10
0.0
 20
0.0
 30
0.0
 11
0.0
 21
2.5
 31
0.0
  0
LINE
  5
A5
330
A1
100
AcDbEntity
  8
SLD-0
  6
Continuous
 62
   179
370
     0
100
AcDbLine
 10
0.0
 20
0.0
 30
0.0
 11
-2.5
 21
0.0
 31
0.0
  0
LINE
  5
A6
330
A1
100
AcDbEntity
  8
SLD-0
  6
Continuous
 62
   179
370
     0
100
AcDbLine
 10
0.0
 20
0.0
 30
0.0
 11
0.0
 21
-2.5
 31
0.0
  0
LINE
  5
A7
330
A1
100
AcDbEntity
  8
SLD-0
  6
Continuous
 62
   179
370
     0
100
AcDbLine
 10
0.0
 20
0.0
 30
0.0
 11
2.5
 21
0.0
 31
0.0
  0
LINE
  5
A8
330
A1
100
AcDbEntity
  8
SLD-0
  6
Continuous
 62
   179
370
     0
100
AcDbLine
 10
0.0
 20
5.0
 30
0.0
 11
0.0
 21
8.0
 31
0.0
  0
LINE
  5
A9
330
A1
100
AcDbEntity
  8
SLD-0
  6
Continuous
 62
   179
370
     0
100
AcDbLine
 10
-5.0
 20
0.0
 30
0.0
 11
-8.0
 21
0.0
 31
0.0
  0
LINE
  5
AA
330
A1
100
AcDbEntity
  8
SLD-0
  6
Continuous
 62
   179
370
     0
100
AcDbLine
 10
0.0
 20
-5.0
 30
0.0
 11
0.0
 21
-8.0
 31
0.0
  0
LINE
  5
AB
330
A1
100
AcDbEntity
  8
SLD-0
  6
Continuous
 62
   179
370
     0
100
AcDbLine
 10
5.0
 20
0.0
 30
0.0
 11
8.0
 21
0.0
 31
0.0
  0
ENDBLK
  5
A3
330
A1
100
AcDbEntity
  8
0
100
AcDbBlockEnd
  0
BLOCK
  5
AD
330
AC
100
AcDbEntity
  8
0
100
AcDbBlockBegin
  2
SW_CENTERMARKSYMBOL_2
 70
     0
 10
0.0
 20
0.0
 30
0.0
  3
SW_CENTERMARKSYMBOL_2
  1

  0
LINE
  5
AF
330
AC
100
AcDbEntity
  8
SLD-0
  6
Continuous
 62
   179
370
     0
100
AcDbLine
 10
0.0
 20
0.0
 30
0.0
 11
0.0
 21
2.5
 31
0.0
  0
LINE
  5
B0
330
AC
100
AcDbEntity
  8
SLD-0
  6
Continuous
 62
   179
370
     0
100
AcDbLine
 10
0.0
 20
0.0
 30
0.0
 11
-2.5
 21
0.0
 31
0.0
  0
LINE
  5
B1
330
AC
100
AcDbEntity
  8
SLD-0
  6
Continuous
 62
   179
370
     0
100
AcDbLine
 10
0.0
 20
0.0
 30
0.0
 11
0.0
 21
-2.5
 31
0.0
  0
LINE
  5
B2
330
AC
100
AcDbEntity
  8
SLD-0
  6
Continuous
 62
   179
370
     0
100
AcDbLine
 10
0.0
 20
0.0
 30
0.0
 11
2.5
 21
0.0
 31
0.0
  0
LINE
  5
B3
330
AC
100
AcDbEntity
  8
SLD-0
  6
Continuous
 62
   179
370
     0
100
AcDbLine
 10
0.0
 20
5.0
 30
0.0
 11
0.0
 21
8.0
 31
0.0
  0
LINE
  5
B4
330
AC
100
AcDbEntity
  8
SLD-0
  6
Continuous
 62
   179
370
     0
100
AcDbLine
 10
-5.0
 20
0.0
 30
0.0
 11
-8.0
 21
0.0
 31
0.0
  0
LINE
  5
B5
330
AC
100
AcDbEntity
  8
SLD-0
  6
Continuous
 62
   179
370
     0
100
AcDbLine
 10
0.0
 20
-5.0
 30
0.0
 11
0.0
 21
-8.0
 31
0.0
  0
LINE
  5
B6
330
AC
100
AcDbEntity
  8
SLD-0
  6
Continuous
 62
   179
370
     0
100
AcDbLine
 10
5.0
 20
0.0
 30
0.0
 11
8.0
 21
0.0
 31
0.0
  0
ENDBLK
  5
AE
330
AC
100
AcDbEntity
  8
0
100
AcDbBlockEnd
  0
BLOCK
  5
B8
330
B7
100
AcDbEntity
  8
0
100
AcDbBlockBegin
  2
SW_CENTERMARKSYMBOL_3
 70
     0
 10
0.0
 20
0.0
 30
0.0
  3
SW_CENTERMARKSYMBOL_3
  1

  0
LINE
  5
BA
330
B7
100
AcDbEntity
  8
SLD-0
  6
Continuous
 62
   179
370
     0
100
AcDbLine
 10
0.0
 20
0.0
 30
0.0
 11
0.0
 21
2.5
 31
0.0
  0
LINE
  5
BB
330
B7
100
AcDbEntity
  8
SLD-0
  6
Continuous
 62
   179
370
     0
100
AcDbLine
 10
0.0
 20
0.0
 30
0.0
 11
-2.5
 21
0.0
 31
0.0
  0
LINE
  5
BC
330
B7
100
AcDbEntity
  8
SLD-0
  6
Continuous
 62
   179
370
     0
100
AcDbLine
 10
0.0
 20
0.0
 30
0.0
 11
0.0
 21
-2.5
 31
0.0
  0
LINE
  5
BD
330
B7
100
AcDbEntity
  8
SLD-0
  6
Continuous
 62
   179
370
     0
100
AcDbLine
 10
0.0
 20
0.0
 30
0.0
 11
2.5
 21
0.0
 31
0.0
  0
LINE
  5
BE
330
B7
100
AcDbEntity
  8
SLD-0
  6
Continuous
 62
   179
370
     0
100
AcDbLine
 10
0.0
 20
5.0
 30
0.0
 11
0.0
 21
8.0
 31
0.0
  0
LINE
  5
BF
330
B7
100
AcDbEntity
  8
SLD-0
  6
Continuous
 62
   179
370
     0
100
AcDbLine
 10
-5.0
 20
0.0
 30
0.0
 11
-8.0
 21
0.0
 31
0.0
  0
LINE
  5
C0
330
B7
100
AcDbEntity
  8
SLD-0
  6
Continuous
 62
   179
370
     0
100
AcDbLine
 10
0.0
 20
-5.0
 30
0.0
 11
0.0
 21
-8.0
 31
0.0
  0
LINE
  5
C1
330
B7
100
AcDbEntity
  8
SLD-0
  6
Continuous
 62
   179
370
     0
100
AcDbLine
 10
5.0
 20
0.0
 30
0.0
 11
8.0
 21
0.0
 31
0.0
  0
ENDBLK
  5
B9
330
B7
100
AcDbEntity
  8
0
100
AcDbBlockEnd
  0
BLOCK
  5
C3
330
C2
100
AcDbEntity
  8
0
100
AcDbBlockBegin
  2
SW_CENTERMARKSYMBOL_4
 70
     0
 10
0.0
 20
0.0
 30
0.0
  3
SW_CENTERMARKSYMBOL_4
  1

  0
LINE
  5
C5
330
C2
100
AcDbEntity
  8
SLD-0
  6
Continuous
 62
   179
370
     0
100
AcDbLine
 10
0.0
 20
0.0
 30
0.0
 11
0.0
 21
2.5
 31
0.0
  0
LINE
  5
C6
330
C2
100
AcDbEntity
  8
SLD-0
  6
Continuous
 62
   179
370
     0
100
AcDbLine
 10
0.0
 20
0.0
 30
0.0
 11
-2.5
 21
0.0
 31
0.0
  0
LINE
  5
C7
330
C2
100
AcDbEntity
  8
SLD-0
  6
Continuous
 62
   179
370
     0
100
AcDbLine
 10
0.0
 20
0.0
 30
0.0
 11
0.0
 21
-2.5
 31
0.0
  0
LINE
  5
C8
330
C2
100
AcDbEntity
  8
SLD-0
  6
Continuous
 62
   179
370
     0
100
AcDbLine
 10
0.0
 20
0.0
 30
0.0
 11
2.5
 21
0.0
 31
0.0
  0
LINE
  5
C9
330
C2
100
AcDbEntity
  8
SLD-0
  6
Continuous
 62
   179
370
     0
100
AcDbLine
 10
0.0
 20
5.0
 30
0.0
 11
0.0
 21
7.0
 31
0.0
  0
LINE
  5
CA
330
C2
100
AcDbEntity
  8
SLD-0
  6
Continuous
 62
   179
370
     0
100
AcDbLine
 10
-5.0
 20
0.0
 30
0.0
 11
-7.0
 21
0.0
 31
0.0
  0
LINE
  5
CB
330
C2
100
AcDbEntity
  8
SLD-0
  6
Continuous
 62
   179
370
     0
100
AcDbLine
 10
0.0
 20
-5.0
 30
0.0
 11
0.0
 21
-7.0
 31
0.0
  0
LINE
  5
CC
330
C2
100
AcDbEntity
  8
SLD-0
  6
Continuous
 62
   179
370
     0
100
AcDbLine
 10
5.0
 20
0.0
 30
0.0
 11
7.0
 21
0.0
 31
0.0
  0
ENDBLK
  5
C4
330
C2
100
AcDbEntity
  8
0
100
AcDbBlockEnd
  0
BLOCK
  5
CE
330
CD
100
AcDbEntity
  8
0
100
AcDbBlockBegin
  2
SW_CENTERMARKSYMBOL_5
 70
     0
 10
0.0
 20
0.0
 30
0.0
  3
SW_CENTERMARKSYMBOL_5
  1

  0
LINE
  5
D0
330
CD
100
AcDbEntity
  8
SLD-0
  6
Continuous
 62
   179
370
     0
100
AcDbLine
 10
0.0
 20
0.0
 30
0.0
 11
0.0
 21
2.5
 31
0.0
  0
LINE
  5
D1
330
CD
100
AcDbEntity
  8
SLD-0
  6
Continuous
 62
   179
370
     0
100
AcDbLine
 10
0.0
 20
0.0
 30
0.0
 11
-2.5
 21
0.0
 31
0.0
  0
LINE
  5
D2
330
CD
100
AcDbEntity
  8
SLD-0
  6
Continuous
 62
   179
370
     0
100
AcDbLine
 10
0.0
 20
0.0
 30
0.0
 11
0.0
 21
-2.5
 31
0.0
  0
LINE
  5
D3
330
CD
100
AcDbEntity
  8
SLD-0
  6
Continuous
 62
   179
370
     0
100
AcDbLine
 10
0.0
 20
0.0
 30
0.0
 11
2.5
 21
0.0
 31
0.0
  0
LINE
  5
D4
330
CD
100
AcDbEntity
  8
SLD-0
  6
Continuous
 62
   179
370
     0
100
AcDbLine
 10
0.0
 20
5.0
 30
0.0
 11
0.0
 21
7.0
 31
0.0
  0
LINE
  5
D5
330
CD
100
AcDbEntity
  8
SLD-0
  6
Continuous
 62
   179
370
     0
100
AcDbLine
 10
-5.0
 20
0.0
 30
0.0
 11
-7.0
 21
0.0
 31
0.0
  0
LINE
  5
D6
330
CD
100
AcDbEntity
  8
SLD-0
  6
Continuous
 62
   179
370
     0
100
AcDbLine
 10
0.0
 20
-5.0
 30
0.0
 11
0.0
 21
-7.0
 31
0.0
  0
LINE
  5
D7
330
CD
100
AcDbEntity
  8
SLD-0
  6
Continuous
 62
   179
370
     0
100
AcDbLine
 10
5.0
 20
0.0
 30
0.0
 11
7.0
 21
0.0
 31
0.0
  0
ENDBLK
  5
CF
330
CD
100
AcDbEntity
  8
0
100
AcDbBlockEnd
  0
BLOCK
  5
3B5
330
3B4
100
AcDbEntity
  8
0
100
AcDbBlockBegin
  2
_NONE
 70
     0
 10
0.0
 20
0.0
 30
0.0
  3
_NONE
  1

  0
ENDBLK
  5
3B6
330
3B4
100
AcDbEntity
  8
0
100
AcDbBlockEnd
  0
BLOCK
  5
3B8
330
3B7
100
AcDbEntity
  8
0
100
AcDbBlockBegin
  2
*D13
 70
     1
 10
0.0
 20
0.0
 30
0.0
  3
*D13
  1

  0
LINE
  5
3BA
330
3B7
100
AcDbEntity
  8
SLD-0
 62
   179
100
AcDbLine
 10
53.6777718359
 20
168.8398958843
 30
0.0
 11
50.6777718359
 21
169.6437428843
 31
0.0
  0
LINE
  5
3BB
330
3B7
100
AcDbEntity
  8
SLD-0
 62
   179
100
AcDbLine
 10
50.6777718359
 20
169.6437428843
 30
0.0
 11
53.6777718359
 21
170.4475898843
 31
0.0
  0
LINE
  5
3BC
330
3B7
100
AcDbEntity
  8
SLD-0
 62
   179
100
AcDbLine
 10
50.6777718359
 20
169.6437428843
 30
0.0
 11
53.6777718359
 21
169.6437428843
 31
0.0
  0
LINE
  5
3BD
330
3B7
100
AcDbEntity
  8
SLD-0
 62
   179
100
AcDbLine
 10
68.6777718359
 20
170.4475898843
 30
0.0
 11
71.6777718359
 21
169.6437428843
 31
0.0
  0
LINE
  5
3BE
330
3B7
100
AcDbEntity
  8
SLD-0
 62
   179
100
AcDbLine
 10
71.6777718359
 20
169.6437428843
 30
0.0
 11
68.6777718359
 21
168.8398958843
 31
0.0
  0
LINE
  5
3BF
330
3B7
100
AcDbEntity
  8
SLD-0
 62
   179
100
AcDbLine
 10
71.6777718359
 20
169.6437428843
 30
0.0
 11
68.6777718359
 21
169.6437428843
 31
0.0
  0
LINE
  5
3C0
330
3B7
100
AcDbEntity
  8
SLD-0
 62
   179
100
AcDbLine
 10
50.6777718359
 20
145.0399525741
 30
0.0
 11
50.6777718359
 21
170.6437428843
 31
0.0
  0
LINE
  5
3C1
330
3B7
100
AcDbEntity
  8
SLD-0
 62
   179
100
AcDbLine
 10
71.6777718359
 20
127.5399525741
 30
0.0
 11
71.6777718359
 21
170.6437428843
 31
0.0
  0
LINE
  5
3C2
330
3B7
100
AcDbEntity
  8
SLD-0
 62
   179
100
AcDbLine
 10
50.6777718359
 20
169.6437428843
 30
0.0
 11
71.6777718359
 21
169.6437428843
 31
0.0
  0
MTEXT
  5
3C4
330
3B7
100
AcDbEntity
  8
SLD-0
 62
   179
100
AcDbMText
 10
61.0902604212
 20
173.9747284506
 30
0.1
 40
3.5
 41
0.0
 71
     1
 72
     1
  1
21
  7
SLDTEXTSTYLE1
 73
     1
 44
1.0
  0
ENDBLK
  5
3B9
330
3B7
100
AcDbEntity
  8
0
100
AcDbBlockEnd
  0
BLOCK
  5
3C7
330
3C6
100
AcDbEntity
  8
0
100
AcDbBlockBegin
  2
*D14
 70
     1
 10
0.0
 20
0.0
 30
0.0
  3
*D14
  1

  0
LINE
  5
3C9
330
3C6
100
AcDbEntity
  8
SLD-0
 62
   179
100
AcDbLine
 10
74.6777718359
 20
168.8398958843
 30
0.0
 11
71.6777718359
 21
169.6437428843
 31
0.0
  0
LINE
  5
3CA
330
3C6
100
AcDbEntity
  8
SLD-0
 62
   179
100
AcDbLine
 10
71.6777718359
 20
169.6437428843
 30
0.0
 11
74.6777718359
 21
170.4475898843
 31
0.0
  0
LINE
  5
3CB
330
3C6
100
AcDbEntity
  8
SLD-0
 62
   179
100
AcDbLine
 10
71.6777718359
 20
169.6437428843
 30
0.0
 11
74.6777718359
 21
169.6437428843
 31
0.0
  0
LINE
  5
3CC
330
3C6
100
AcDbEntity
  8
SLD-0
 62
   179
100
AcDbLine
 10
118.6777718359
 20
170.4475898843
 30
0.0
 11
121.6777718359
 21
169.6437428843
 31
0.0
  0
LINE
  5
3CD
330
3C6
100
AcDbEntity
  8
SLD-0
 62
   179
100
AcDbLine
 10
121.6777718359
 20
169.6437428843
 30
0.0
 11
118.6777718359
 21
168.8398958843
 31
0.0
  0
LINE
  5
3CE
330
3C6
100
AcDbEntity
  8
SLD-0
 62
   179
100
AcDbLine
 10
121.6777718359
 20
169.6437428843
 30
0.0
 11
118.6777718359
 21
169.6437428843
 31
0.0
  0
LINE
  5
3CF
330
3C6
100
AcDbEntity
  8
SLD-0
 62
   179
100
AcDbLine
 10
71.6777718359
 20
127.5399525741
 30
0.0
 11
71.6777718359
 21
170.6437428843
 31
0.0
  0
LINE
  5
3D0
330
3C6
100
AcDbEntity
  8
SLD-0
 62
   179
100
AcDbLine
 10
121.6777718359
 20
127.5399525741
 30
0.0
 11
121.6777718359
 21
170.6437428843
 31
0.0
  0
LINE
  5
3D1
330
3C6
100
AcDbEntity
  8
SLD-0
 62
   179
100
AcDbLine
 10
71.6777718359
 20
169.6437428843
 30
0.0
 11
121.6777718359
 21
169.6437428843
 31
0.0
  0
MTEXT
  5
3D2
330
3C6
100
AcDbEntity
  8
SLD-0
 62
   179
100
AcDbMText
 10
94.6422193543
 20
173.9747284506
 30
0.1
 40
3.5
 41
0.0
 71
     1
 72
     1
  1
50
  7
SLDTEXTSTYLE1
 73
     1
 44
1.0
  0
ENDBLK
  5
3C8
330
3C6
100
AcDbEntity
  8
0
100
AcDbBlockEnd
  0
BLOCK
  5
3D5
330
3D4
100
AcDbEntity
  8
0
100
AcDbBlockBegin
  2
*D15
 70
     1
 10
0.0
 20
0.0
 30
0.0
  3
*D15
  1

  0
LINE
  5
3D7
330
3D4
100
AcDbEntity
  8
SLD-0
 62
   179
100
AcDbLine
 10
124.6777718359
 20
168.8398958843
 30
0.0
 11
121.6777718359
 21
169.6437428843
 31
0.0
  0
LINE
  5
3D8
330
3D4
100
AcDbEntity
  8
SLD-0
 62
   179
100
AcDbLine
 10
121.6777718359
 20
169.6437428843
 30
0.0
 11
124.6777718359
 21
170.4475898843
 31
0.0
  0
LINE
  5
3D9
330
3D4
100
AcDbEntity
  8
SLD-0
 62
   179
100
AcDbLine
 10
121.6777718359
 20
169.6437428843
 30
0.0
 11
124.6777718359
 21
169.6437428843
 31
0.0
  0
LINE
  5
3DA
330
3D4
100
AcDbEntity
  8
SLD-0
 62
   179
100
AcDbLine
 10
139.6777718359
 20
170.4475898843
 30
0.0
 11
142.6777718359
 21
169.6437428843
 31
0.0
  0
LINE
  5
3DB
330
3D4
100
AcDbEntity
  8
SLD-0
 62
   179
100
AcDbLine
 10
142.6777718359
 20
169.6437428843
 30
0.0
 11
139.6777718359
 21
168.8398958843
 31
0.0
  0
LINE
  5
3DC
330
3D4
100
AcDbEntity
  8
SLD-0
 62
   179
100
AcDbLine
 10
142.6777718359
 20
169.6437428843
 30
0.0
 11
139.6777718359
 21
169.6437428843
 31
0.0
  0
LINE
  5
3DD
330
3D4
100
AcDbEntity
  8
SLD-0
 62
   179
100
AcDbLine
 10
121.6777718359
 20
127.5399525741
 30
0.0
 11
121.6777718359
 21
170.6437428843
 31
0.0
  0
LINE
  5
3DE
330
3D4
100
AcDbEntity
  8
SLD-0
 62
   179
100
AcDbLine
 10
142.6777718359
 20
145.0399525741
 30
0.0
 11
142.6777718359
 21
170.6437428843
 31
0.0
  0
LINE
  5
3DF
330
3D4
100
AcDbEntity
  8
SLD-0
 62
   179
100
AcDbLine
 10
121.6777718359
 20
169.6437428843
 30
0.0
 11
142.6777718359
 21
169.6437428843
 31
0.0
  0
MTEXT
  5
3E0
330
3D4
100
AcDbEntity
  8
SLD-0
 62
   179
100
AcDbMText
 10
127.9158867064
 20
173.9747284506
 30
0.1
 40
3.5
 41
0.0
 71
     1
 72
     1
  1
21
  7
SLDTEXTSTYLE1
 73
     1
 44
1.0
  0
ENDBLK
  5
3D6
330
3D4
100
AcDbEntity
  8
0
100
AcDbBlockEnd
  0
BLOCK
  5
3E3
330
3E2
100
AcDbEntity
  8
0
100
AcDbBlockBegin
  2
*D16
 70
     1
 10
0.0
 20
0.0
 30
0.0
  3
*D16
  1

  0
LINE
  5
3E5
330
3E2
100
AcDbEntity
  8
SLD-0
 62
   179
100
AcDbLine
 10
53.6777718359
 20
186.8398958843
 30
0.0
 11
50.6777718359
 21
187.6437428843
 31
0.0
  0
LINE
  5
3E6
330
3E2
100
AcDbEntity
  8
SLD-0
 62
   179
100
AcDbLine
 10
50.6777718359
 20
187.6437428843
 30
0.0
 11
53.6777718359
 21
188.4475898843
 31
0.0
  0
LINE
  5
3E7
330
3E2
100
AcDbEntity
  8
SLD-0
 62
   179
100
AcDbLine
 10
50.6777718359
 20
187.6437428843
 30
0.0
 11
53.6777718359
 21
187.6437428843
 31
0.0
  0
LINE
  5
3E8
330
3E2
100
AcDbEntity
  8
SLD-0
 62
   179
100
AcDbLine
 10
139.6777718359
 20
188.4475898843
 30
0.0
 11
142.6777718359
 21
187.6437428843
 31
0.0
  0
LINE
  5
3E9
330
3E2
100
AcDbEntity
  8
SLD-0
 62
   179
100
AcDbLine
 10
142.6777718359
 20
187.6437428843
 30
0.0
 11
139.6777718359
 21
186.8398958843
 31
0.0
  0
LINE
  5
3EA
330
3E2
100
AcDbEntity
  8
SLD-0
 62
   179
100
AcDbLine
 10
142.6777718359
 20
187.6437428843
 30
0.0
 11
139.6777718359
 21
187.6437428843
 31
0.0
  0
LINE
  5
3EB
330
3E2
100
AcDbEntity
  8
SLD-0
 62
   179
100
AcDbLine
 10
50.6777718359
 20
145.0399525741
 30
0.0
 11
50.6777718359
 21
188.6437428843
 31
0.0
  0
LINE
  5
3EC
330
3E2
100
AcDbEntity
  8
SLD-0
 62
   179
100
AcDbLine
 10
142.6777718359
 20
145.0399525741
 30
0.0
 11
142.6777718359
 21
188.6437428843
 31
0.0
  0
LINE
  5
3ED
330
3E2
100
AcDbEntity
  8
SLD-0
 62
   179
100
AcDbLine
 10
50.6777718359
 20
187.6437428843
 30
0.0
 11
142.6777718359
 21
187.6437428843
 31
0.0
  0
MTEXT
  5
3EE
330
3E2
100
AcDbEntity
  8
SLD-0
 62
   179
100
AcDbMText
 10
94.6422193543
 20
191.9747284506
 30
0.1
 40
3.5
 41
0.0
 71
     1
 72
     1
  1
92
  7
SLDTEXTSTYLE1
 73
     1
 44
1.0
  0
ENDBLK
  5
3E4
330
3E2
100
AcDbEntity
  8
0
100
AcDbBlockEnd
  0
BLOCK
  5
3F1
330
3F0
100
AcDbEntity
  8
0
100
AcDbBlockBegin
  2
*D17
 70
     1
 10
0.0
 20
0.0
 30
0.0
  3
*D17
  1

  0
LINE
  5
3F3
330
3F0
100
AcDbEntity
  8
SLD-0
 62
   179
100
AcDbLine
 10
164.5120157329
 20
115.5399525741
 30
0.0
 11
165.3158627329
 21
118.5399525741
 31
0.0
  0
LINE
  5
3F4
330
3F0
100
AcDbEntity
  8
SLD-0
 62
   179
100
AcDbLine
 10
165.3158627329
 20
118.5399525741
 30
0.0
 11
166.1197097329
 21
115.5399525741
 31
0.0
  0
LINE
  5
3F5
330
3F0
100
AcDbEntity
  8
SLD-0
 62
   179
100
AcDbLine
 10
165.3158627329
 20
118.5399525741
 30
0.0
 11
165.3158627329
 21
115.5399525741
 31
0.0
  0
LINE
  5
3F6
330
3F0
100
AcDbEntity
  8
SLD-0
 62
   179
100
AcDbLine
 10
166.1197097329
 20
101.5399525741
 30
0.0
 11
165.3158627329
 21
98.5399525741
 31
0.0
  0
LINE
  5
3F7
330
3F0
100
AcDbEntity
  8
SLD-0
 62
   179
100
AcDbLine
 10
165.3158627329
 20
98.5399525741
 30
0.0
 11
164.5120157329
 21
101.5399525741
 31
0.0
  0
LINE
  5
3F8
330
3F0
100
AcDbEntity
  8
SLD-0
 62
   179
100
AcDbLine
 10
165.3158627329
 20
98.5399525741
 30
0.0
 11
165.3158627329
 21
101.5399525741
 31
0.0
  0
LINE
  5
3F9
330
3F0
100
AcDbEntity
  8
SLD-0
 62
   179
100
AcDbLine
 10
130.6777718359
 20
118.5399525741
 30
0.0
 11
166.3158627329
 21
118.5399525741
 31
0.0
  0
LINE
  5
3FA
330
3F0
100
AcDbEntity
  8
SLD-0
 62
   179
100
AcDbLine
 10
130.6777718359
 20
98.5399525741
 30
0.0
 11
166.3158627329
 21
98.5399525741
 31
0.0
  0
LINE
  5
3FB
330
3F0
100
AcDbEntity
  8
SLD-0
 62
   179
100
AcDbLine
 10
165.3158627329
 20
118.5399525741
 30
0.0
 11
165.3158627329
 21
98.5399525741
 31
0.0
  0
MTEXT
  5
3FC
330
3F0
100
AcDbEntity
  8
SLD-0
 62
   179
100
AcDbMText
 10
160.9848771666
 20
106.5044000925
 30
0.1
 40
3.5
 41
0.0
 71
     1
 72
     1
  1
20
  7
SLDTEXTSTYLE1
 11
-7.044195017643634E-15
 21
1.0
 31
0.0
 73
     1
 44
1.0
  0
ENDBLK
  5
3F2
330
3F0
100
AcDbEntity
  8
0
100
AcDbBlockEnd
  0
BLOCK
  5
400
330
3FF
100
AcDbEntity
  8
0
100
AcDbBlockBegin
  2
*D18
 70
     1
 10
0.0
 20
0.0
 30
0.0
  3
*D18
  1

  0
LINE
  5
402
330
3FF
100
AcDbEntity
  8
SLD-0
 62
   179
100
AcDbLine
 10
164.5120157329
 20
141.0399525741
 30
0.0
 11
165.3158627329
 21
144.0399525741
 31
0.0
  0
LINE
  5
403
330
3FF
100
AcDbEntity
  8
SLD-0
 62
   179
100
AcDbLine
 10
165.3158627329
 20
144.0399525741
 30
0.0
 11
166.1197097329
 21
141.0399525741
 31
0.0
  0
LINE
  5
404
330
3FF
100
AcDbEntity
  8
SLD-0
 62
   179
100
AcDbLine
 10
165.3158627329
 20
144.0399525741
 30
0.0
 11
165.3158627329
 21
141.0399525741
 31
0.0
  0
LINE
  5
405
330
3FF
100
AcDbEntity
  8
SLD-0
 62
   179
100
AcDbLine
 10
166.1197097329
 20
121.5399525741
 30
0.0
 11
165.3158627329
 21
118.5399525741
 31
0.0
  0
LINE
  5
406
330
3FF
100
AcDbEntity
  8
SLD-0
 62
   179
100
AcDbLine
 10
165.3158627329
 20
118.5399525741
 30
0.0
 11
164.5120157329
 21
121.5399525741
 31
0.0
  0
LINE
  5
407
330
3FF
100
AcDbEntity
  8
SLD-0
 62
   179
100
AcDbLine
 10
165.3158627329
 20
118.5399525741
 30
0.0
 11
165.3158627329
 21
121.5399525741
 31
0.0
  0
LINE
  5
408
330
3FF
100
AcDbEntity
  8
SLD-0
 62
   179
100
AcDbLine
 10
140.1777718359
 20
144.0399525741
 30
0.0
 11
166.3158627329
 21
144.0399525741
 31
0.0
  0
LINE
  5
409
330
3FF
100
AcDbEntity
  8
SLD-0
 62
   179
100
AcDbLine
 10
130.6777718359
 20
118.5399525741
 30
0.0
 11
166.3158627329
 21
118.5399525741
 31
0.0
  0
LINE
  5
40A
330
3FF
100
AcDbEntity
  8
SLD-0
 62
   179
100
AcDbLine
 10
165.3158627329
 20
144.0399525741
 30
0.0
 11
165.3158627329
 21
118.5399525741
 31
0.0
  0
MTEXT
  5
40B
330
3FF
100
AcDbEntity
  8
SLD-0
 62
   179
100
AcDbMText
 10
160.9848771666
 20
127.217165336
 30
0.1
 40
3.5
 41
0.0
 71
     1
 72
     1
  1
25.5
  7
SLDTEXTSTYLE1
 11
-7.044195017643634E-15
 21
1.0
 31
0.0
 73
     1
 44
1.0
  0
ENDBLK
  5
401
330
3FF
100
AcDbEntity
  8
0
100
AcDbBlockEnd
  0
BLOCK
  5
40E
330
40D
100
AcDbEntity
  8
0
100
AcDbBlockBegin
  2
*D19
 70
     1
 10
0.0
 20
0.0
 30
0.0
  3
*D19
  1

  0
LINE
  5
410
330
40D
100
AcDbEntity
  8
SLD-0
 62
   179
100
AcDbLine
 10
164.5120157329
 20
95.5399525741
 30
0.0
 11
165.3158627329
 21
98.5399525741
 31
0.0
  0
LINE
  5
411
330
40D
100
AcDbEntity
  8
SLD-0
 62
   179
100
AcDbLine
 10
165.3158627329
 20
98.5399525741
 30
0.0
 11
166.1197097329
 21
95.5399525741
 31
0.0
  0
LINE
  5
412
330
40D
100
AcDbEntity
  8
SLD-0
 62
   179
100
AcDbLine
 10
165.3158627329
 20
98.5399525741
 30
0.0
 11
165.3158627329
 21
95.5399525741
 31
0.0
  0
LINE
  5
413
330
40D
100
AcDbEntity
  8
SLD-0
 62
   179
100
AcDbLine
 10
166.1197097329
 20
82.0399525741
 30
0.0
 11
165.3158627329
 21
79.0399525741
 31
0.0
  0
LINE
  5
414
330
40D
100
AcDbEntity
  8
SLD-0
 62
   179
100
AcDbLine
 10
165.3158627329
 20
79.0399525741
 30
0.0
 11
164.5120157329
 21
82.0399525741
 31
0.0
  0
LINE
  5
415
330
40D
100
AcDbEntity
  8
SLD-0
 62
   179
100
AcDbLine
 10
165.3158627329
 20
79.0399525741
 30
0.0
 11
165.3158627329
 21
82.0399525741
 31
0.0
  0
LINE
  5
416
330
40D
100
AcDbEntity
  8
SLD-0
 62
   179
100
AcDbLine
 10
130.6777718359
 20
98.5399525741
 30
0.0
 11
166.3158627329
 21
98.5399525741
 31
0.0
  0
LINE
  5
417
330
40D
100
AcDbEntity
  8
SLD-0
 62
   179
100
AcDbLine
 10
143.6777718359
 20
79.0399525741
 30
0.0
 11
166.3158627329
 21
79.0399525741
 31
0.0
  0
LINE
  5
418
330
40D
100
AcDbEntity
  8
SLD-0
 62
   179
100
AcDbLine
 10
165.3158627329
 20
98.5399525741
 30
0.0
 11
165.3158627329
 21
79.0399525741
 31
0.0
  0
MTEXT
  5
419
330
40D
100
AcDbEntity
  8
SLD-0
 62
   179
100
AcDbMText
 10
160.9848771666
 20
84.717165336
 30
0.1
 40
3.5
 41
0.0
 71
     1
 72
     1
  1
19.5
  7
SLDTEXTSTYLE1
 11
-7.044195017643634E-15
 21
1.0
 31
0.0
 73
     1
 44
1.0
  0
ENDBLK
  5
40F
330
40D
100
AcDbEntity
  8
0
100
AcDbBlockEnd
  0
BLOCK
  5
41C
330
41B
100
AcDbEntity
  8
0
100
AcDbBlockBegin
  2
*D20
 70
     1
 10
0.0
 20
0.0
 30
0.0
  3
*D20
  1

  0
ARC
  5
41E
330
41B
100
AcDbEntity
  8
SLD-0
 62
   179
100
AcDbCircle
 10
172.6422193543
 20
119.7880050558
 30
0.0
 40
4.551633720796823
100
AcDbArc
 50
243.4349488229
 51
296.5650511771
  0
ARC
  5
41F
330
41B
100
AcDbEntity
  8
SLD-0
 62
   179
100
AcDbCircle
 10
172.6422193543
 20
118.8919000925
 30
0.0
 40
4.551633720796785
100
AcDbArc
 50
63.4349488229
 51
116.5650511771
  0
LINE
  5
420
330
41B
100
AcDbEntity
  8
SLD-0
 62
   179
100
AcDbLine
 10
173.8739248359
 20
156.6399525741
 30
0.0
 11
174.6777718359
 21
159.6399525741
 31
0.0
  0
LINE
  5
421
330
41B
100
AcDbEntity
  8
SLD-0
 62
   179
100
AcDbLine
 10
174.6777718359
 20
159.6399525741
 30
0.0
 11
175.4816188359
 21
156.6399525741
 31
0.0
  0
LINE
  5
422
330
41B
100
AcDbEntity
  8
SLD-0
 62
   179
100
AcDbLine
 10
174.6777718359
 20
159.6399525741
 30
0.0
 11
174.6777718359
 21
156.6399525741
 31
0.0
  0
LINE
  5
423
330
41B
100
AcDbEntity
  8
SLD-0
 62
   179
100
AcDbLine
 10
175.4816188359
 20
82.0399525741
 30
0.0
 11
174.6777718359
 21
79.0399525741
 31
0.0
  0
LINE
  5
424
330
41B
100
AcDbEntity
  8
SLD-0
 62
   179
100
AcDbLine
 10
174.6777718359
 20
79.0399525741
 30
0.0
 11
173.8739248359
 21
82.0399525741
 31
0.0
  0
LINE
  5
425
330
41B
100
AcDbEntity
  8
SLD-0
 62
   179
100
AcDbLine
 10
174.6777718359
 20
79.0399525741
 30
0.0
 11
174.6777718359
 21
82.0399525741
 31
0.0
  0
LINE
  5
426
330
41B
100
AcDbEntity
  8
SLD-0
 62
   179
100
AcDbLine
 10
100.1777718359
 20
159.6399525741
 30
0.0
 11
175.6777718359
 21
159.6399525741
 31
0.0
  0
LINE
  5
427
330
41B
100
AcDbEntity
  8
SLD-0
 62
   179
100
AcDbLine
 10
143.6777718359
 20
79.0399525741
 30
0.0
 11
175.6777718359
 21
79.0399525741
 31
0.0
  0
LINE
  5
428
330
41B
100
AcDbEntity
  8
SLD-0
 62
   179
100
AcDbLine
 10
174.6777718359
 20
159.6399525741
 30
0.0
 11
174.6777718359
 21
79.0399525741
 31
0.0
  0
MTEXT
  5
429
330
41B
100
AcDbEntity
  8
SLD-0
 62
   179
100
AcDbMText
 10
170.3467862697
 20
117.3044000925
 30
0.1
 40
3.5
 41
0.0
 71
     1
 72
     1
  1
81
  7
SLDTEXTSTYLE1
 11
-7.044195017643634E-15
 21
1.0
 31
0.0
 73
     1
 44
1.0
  0
ENDBLK
  5
41D
330
41B
100
AcDbEntity
  8
0
100
AcDbBlockEnd
  0
BLOCK
  5
42C
330
42B
100
AcDbEntity
  8
0
100
AcDbBlockBegin
  2
*D21
 70
     1
 10
0.0
 20
0.0
 30
0.0
  3
*D21
  1

  0
LINE
  5
42E
330
42B
100
AcDbEntity
  8
SLD-0
 62
   179
100
AcDbLine
 10
32.818668404
 20
141.0399525741
 30
0.0
 11
33.622515404
 21
144.0399525741
 31
0.0
  0
LINE
  5
42F
330
42B
100
AcDbEntity
  8
SLD-0
 62
   179
100
AcDbLine
 10
33.622515404
 20
144.0399525741
 30
0.0
 11
34.426362404
 21
141.0399525741
 31
0.0
  0
LINE
  5
430
330
42B
100
AcDbEntity
  8
SLD-0
 62
   179
100
AcDbLine
 10
33.622515404
 20
144.0399525741
 30
0.0
 11
33.622515404
 21
141.0399525741
 31
0.0
  0
LINE
  5
431
330
42B
100
AcDbEntity
  8
SLD-0
 62
   179
100
AcDbLine
 10
34.426362404
 20
111.5399525741
 30
0.0
 11
33.622515404
 21
108.5399525741
 31
0.0
  0
LINE
  5
432
330
42B
100
AcDbEntity
  8
SLD-0
 62
   179
100
AcDbLine
 10
33.622515404
 20
108.5399525741
 30
0.0
 11
32.818668404
 21
111.5399525741
 31
0.0
  0
LINE
  5
433
330
42B
100
AcDbEntity
  8
SLD-0
 62
   179
100
AcDbLine
 10
33.622515404
 20
108.5399525741
 30
0.0
 11
33.622515404
 21
111.5399525741
 31
0.0
  0
LINE
  5
434
330
42B
100
AcDbEntity
  8
SLD-0
 62
   179
100
AcDbLine
 10
53.1777718359
 20
144.0399525741
 30
0.0
 11
32.622515404
 21
144.0399525741
 31
0.0
  0
LINE
  5
435
330
42B
100
AcDbEntity
  8
SLD-0
 62
   179
100
AcDbLine
 10
51.1777718359
 20
108.5399525741
 30
0.0
 11
32.622515404
 21
108.5399525741
 31
0.0
  0
LINE
  5
436
330
42B
100
AcDbEntity
  8
SLD-0
 62
   179
100
AcDbLine
 10
33.622515404
 20
144.0399525741
 30
0.0
 11
33.622515404
 21
108.5399525741
 31
0.0
  0
MTEXT
  5
437
330
42B
100
AcDbEntity
  8
SLD-0
 62
   179
100
AcDbMText
 10
29.2915298378
 20
122.217165336
 30
0.1
 40
3.5
 41
0.0
 71
     1
 72
     1
  1
35.5
  7
SLDTEXTSTYLE1
 11
-7.044195017643634E-15
 21
1.0
 31
0.0
 73
     1
 44
1.0
  0
ENDBLK
  5
42D
330
42B
100
AcDbEntity
  8
0
100
AcDbBlockEnd
  0
BLOCK
  5
43A
330
439
100
AcDbEntity
  8
0
100
AcDbBlockBegin
  2
*D22
 70
     1
 10
0.0
 20
0.0
 30
0.0
  3
*D22
  1

  0
LINE
  5
43C
330
439
100
AcDbEntity
  8
SLD-0
 62
   179
100
AcDbLine
 10
32.818668404
 20
105.5399525741
 30
0.0
 11
33.622515404
 21
108.5399525741
 31
0.0
  0
LINE
  5
43D
330
439
100
AcDbEntity
  8
SLD-0
 62
   179
100
AcDbLine
 10
33.622515404
 20
108.5399525741
 30
0.0
 11
34.426362404
 21
105.5399525741
 31
0.0
  0
LINE
  5
43E
330
439
100
AcDbEntity
  8
SLD-0
 62
   179
100
AcDbLine
 10
33.622515404
 20
108.5399525741
 30
0.0
 11
33.622515404
 21
105.5399525741
 31
0.0
  0
LINE
  5
43F
330
439
100
AcDbEntity
  8
SLD-0
 62
   179
100
AcDbLine
 10
34.426362404
 20
82.0399525741
 30
0.0
 11
33.622515404
 21
79.0399525741
 31
0.0
  0
LINE
  5
440
330
439
100
AcDbEntity
  8
SLD-0
 62
   179
100
AcDbLine
 10
33.622515404
 20
79.0399525741
 30
0.0
 11
32.818668404
 21
82.0399525741
 31
0.0
  0
LINE
  5
441
330
439
100
AcDbEntity
  8
SLD-0
 62
   179
100
AcDbLine
 10
33.622515404
 20
79.0399525741
 30
0.0
 11
33.622515404
 21
82.0399525741
 31
0.0
  0
LINE
  5
442
330
439
100
AcDbEntity
  8
SLD-0
 62
   179
100
AcDbLine
 10
51.1777718359
 20
108.5399525741
 30
0.0
 11
32.622515404
 21
108.5399525741
 31
0.0
  0
LINE
  5
443
330
439
100
AcDbEntity
  8
SLD-0
 62
   179
100
AcDbLine
 10
49.6777718359
 20
79.0399525741
 30
0.0
 11
32.622515404
 21
79.0399525741
 31
0.0
  0
LINE
  5
444
330
439
100
AcDbEntity
  8
SLD-0
 62
   179
100
AcDbLine
 10
33.622515404
 20
108.5399525741
 30
0.0
 11
33.622515404
 21
79.0399525741
 31
0.0
  0
MTEXT
  5
445
330
439
100
AcDbEntity
  8
SLD-0
 62
   179
100
AcDbMText
 10
29.2915298378
 20
89.717165336
 30
0.1
 40
3.5
 41
0.0
 71
     1
 72
     1
  1
29.5
  7
SLDTEXTSTYLE1
 11
-7.044195017643634E-15
 21
1.0
 31
0.0
 73
     1
 44
1.0
  0
ENDBLK
  5
43B
330
439
100
AcDbEntity
  8
0
100
AcDbBlockEnd
  0
BLOCK
  5
448
330
447
100
AcDbEntity
  8
0
100
AcDbBlockBegin
  2
*D23
 70
     1
 10
0.0
 20
0.0
 30
0.0
  3
*D23
  1

  0
LINE
  5
44A
330
447
100
AcDbEntity
  8
SLD-0
 62
   179
100
AcDbLine
 10
23.8739248359
 20
141.0399525741
 30
0.0
 11
24.6777718359
 21
144.0399525741
 31
0.0
  0
LINE
  5
44B
330
447
100
AcDbEntity
  8
SLD-0
 62
   179
100
AcDbLine
 10
24.6777718359
 20
144.0399525741
 30
0.0
 11
25.4816188359
 21
141.0399525741
 31
0.0
  0
LINE
  5
44C
330
447
100
AcDbEntity
  8
SLD-0
 62
   179
100
AcDbLine
 10
24.6777718359
 20
144.0399525741
 30
0.0
 11
24.6777718359
 21
141.0399525741
 31
0.0
  0
LINE
  5
44D
330
447
100
AcDbEntity
  8
SLD-0
 62
   179
100
AcDbLine
 10
25.4816188359
 20
82.0399525741
 30
0.0
 11
24.6777718359
 21
79.0399525741
 31
0.0
  0
LINE
  5
44E
330
447
100
AcDbEntity
  8
SLD-0
 62
   179
100
AcDbLine
 10
24.6777718359
 20
79.0399525741
 30
0.0
 11
23.8739248359
 21
82.0399525741
 31
0.0
  0
LINE
  5
44F
330
447
100
AcDbEntity
  8
SLD-0
 62
   179
100
AcDbLine
 10
24.6777718359
 20
79.0399525741
 30
0.0
 11
24.6777718359
 21
82.0399525741
 31
0.0
  0
LINE
  5
450
330
447
100
AcDbEntity
  8
SLD-0
 62
   179
100
AcDbLine
 10
53.1777718359
 20
144.0399525741
 30
0.0
 11
23.6777718359
 21
144.0399525741
 31
0.0
  0
LINE
  5
451
330
447
100
AcDbEntity
  8
SLD-0
 62
   179
100
AcDbLine
 10
49.6777718359
 20
79.0399525741
 30
0.0
 11
23.6777718359
 21
79.0399525741
 31
0.0
  0
LINE
  5
452
330
447
100
AcDbEntity
  8
SLD-0
 62
   179
100
AcDbLine
 10
24.6777718359
 20
144.0399525741
 30
0.0
 11
24.6777718359
 21
79.0399525741
 31
0.0
  0
MTEXT
  5
453
330
447
100
AcDbEntity
  8
SLD-0
 62
   179
100
AcDbMText
 10
20.3467862697
 20
109.5044000925
 30
0.1
 40
3.5
 41
0.0
 71
     1
 72
     1
  1
65
  7
SLDTEXTSTYLE1
 11
-7.044195017643634E-15
 21
1.0
 31
0.0
 73
     1
 44
1.0
  0
ENDBLK
  5
449
330
447
100
AcDbEntity
  8
0
100
AcDbBlockEnd
  0
BLOCK
  5
457
330
456
100
AcDbEntity
  8
0
100
AcDbBlockBegin
  2
*D24
 70
     1
 10
0.0
 20
0.0
 30
0.0
  3
*D24
  1

  0
LINE
  5
459
330
456
100
AcDbEntity
  8
SLD-0
 62
   179
100
AcDbLine
 10
74.6524869101
 20
126.5429045437
 30
0.0
 11
73.1001457493
 21
123.852847496
 31
0.0
  0
LINE
  5
45A
330
456
100
AcDbEntity
  8
SLD-0
 62
   179
100
AcDbLine
 10
73.1001457493
 20
123.852847496
 30
0.0
 11
73.0994852213
 21
126.9586758176
 31
0.0
  0
LINE
  5
45B
330
456
100
AcDbEntity
  8
SLD-0
 62
   179
100
AcDbLine
 10
73.1001457493
 20
123.852847496
 30
0.0
 11
73.8759860657
 21
126.7507901806
 31
0.0
  0
LINE
  5
45C
330
456
100
AcDbEntity
  8
SLD-0
 62
   179
100
AcDbLine
 10
73.1001457493
 20
123.852847496
 30
0.0
 11
92.5600440262
 21
196.5400598846
 31
0.0
  0
LINE
  5
45D
330
456
100
AcDbEntity
  8
SLD-0
 62
   179
100
AcDbLine
 10
92.5600440262
 20
196.5400598846
 30
0.0
 11
176.3457194595
 21
196.5400598846
 31
0.0
  0
MTEXT
  5
45E
330
456
100
AcDbEntity
  8
SLD-0
 62
   179
100
AcDbMText
 10
95.7350440262
 20
200.8710454508
 30
0.1
 40
3.5
 41
0.0
 71
     1
 72
     1
  1
4-
  7
SLDTEXTSTYLE1
 73
     1
 44
1.0
  0
MTEXT
  5
45F
330
456
100
AcDbEntity
  8
SLD-0
 62
   179
100
AcDbMText
 10
98.0586550212
 20
200.8710452179
 30
0.1
 40
3.5
 41
0.0
 71
     1
 72
     1
  1
%%c
  7
SLDTEXTSTYLE1
 73
     1
 44
1.0
  0
MTEXT
  5
460
330
456
100
AcDbEntity
  8
SLD-0
 62
   179
100
AcDbMText
 10
103.6785857691
 20
200.8710454508
 30
0.1
 40
3.5
 41
0.0
 71
     1
 72
     1
  1
6.6 
  7
SLDTEXTSTYLE1
 73
     1
 44
1.0
  0
MTEXT
  5
461
330
456
100
AcDbEntity
  8
SLD-0
 62
   179
100
AcDbMText
 10
110.075807759
 20
200.8710452179
 30
0.1
 40
3.5
 41
0.0
 71
     1
 72
     1
  1
%%c
  7
SLDTEXTSTYLE1
 73
     1
 44
1.0
  0
MTEXT
  5
462
330
456
100
AcDbEntity
  8
SLD-0
 62
   179
100
AcDbMText
 10
115.6935519953
 20
200.8710454508
 30
0.1
 40
3.5
 41
0.0
 71
     1
 72
     1
  1
11
  7
SLDTEXTSTYLE1
 73
     1
 44
1.0
  0
MTEXT
  5
463
330
456
100
AcDbEntity
  8
SLD-0
 62
   179
100
AcDbMText
 10
119.7646569587
 20
200.8710454508
 30
0.1
 40
3.5
 41
0.0
 71
     1
 72
     1
  1
ザグリ深8.5(ロボット取付穴)
  7
SLDTEXTSTYLE1
 73
     1
 44
1.0
  0
ENDBLK
  5
458
330
456
100
AcDbEntity
  8
0
100
AcDbBlockEnd
  0
BLOCK
  5
466
330
465
100
AcDbEntity
  8
0
100
AcDbBlockBegin
  2
*D25
 70
     1
 10
0.0
 20
0.0
 30
0.0
  3
*D25
  1

  0
LINE
  5
468
330
465
100
AcDbEntity
  8
SLD-0
 62
   179
100
AcDbLine
 10
47.6777718359
 20
68.6783332321
 30
0.0
 11
50.6777718359
 21
67.8744862321
 31
0.0
  0
LINE
  5
469
330
465
100
AcDbEntity
  8
SLD-0
 62
   179
100
AcDbLine
 10
50.6777718359
 20
67.8744862321
 30
0.0
 11
47.6777718359
 21
67.0706392321
 31
0.0
  0
LINE
  5
46A
330
465
100
AcDbEntity
  8
SLD-0
 62
   179
100
AcDbLine
 10
50.6777718359
 20
67.8744862321
 30
0.0
 11
47.6777718359
 21
67.8744862321
 31
0.0
  0
LINE
  5
46B
330
465
100
AcDbEntity
  8
SLD-0
 62
   179
100
AcDbLine
 10
62.1777718359
 20
67.0706392321
 30
0.0
 11
59.1777718359
 21
67.8744862321
 31
0.0
  0
LINE
  5
46C
330
465
100
AcDbEntity
  8
SLD-0
 62
   179
100
AcDbLine
 10
59.1777718359
 20
67.8744862321
 30
0.0
 11
62.1777718359
 21
68.6783332321
 31
0.0
  0
LINE
  5
46D
330
465
100
AcDbEntity
  8
SLD-0
 62
   179
100
AcDbLine
 10
59.1777718359
 20
67.8744862321
 30
0.0
 11
62.1777718359
 21
67.8744862321
 31
0.0
  0
LINE
  5
46E
330
465
100
AcDbEntity
  8
SLD-0
 62
   179
100
AcDbLine
 10
50.6777718359
 20
78.0399525741
 30
0.0
 11
50.6777718359
 21
66.8744862321
 31
0.0
  0
LINE
  5
46F
330
465
100
AcDbEntity
  8
SLD-0
 62
   179
100
AcDbLine
 10
59.1777718359
 20
100.5399525741
 30
0.0
 11
59.1777718359
 21
66.8744862321
 31
0.0
  0
LINE
  5
470
330
465
100
AcDbEntity
  8
SLD-0
 62
   179
100
AcDbLine
 10
50.6777718359
 20
67.8744862321
 30
0.0
 11
39.3484613212
 21
67.8744862321
 31
0.0
  0
LINE
  5
471
330
465
100
AcDbEntity
  8
SLD-0
 62
   179
100
AcDbLine
 10
50.6777718359
 20
67.8744862321
 30
0.0
 11
59.1777718359
 21
67.8744862321
 31
0.0
  0
LINE
  5
472
330
465
100
AcDbEntity
  8
SLD-0
 62
   179
100
AcDbLine
 10
59.1777718359
 20
67.8744862321
 30
0.0
 11
64.1777718359
 21
67.8744862321
 31
0.0
  0
MTEXT
  5
473
330
465
100
AcDbEntity
  8
SLD-0
 62
   179
100
AcDbMText
 10
40.9359613212
 20
72.2054717984
 30
0.1
 40
3.5
 41
0.0
 71
     1
 72
     1
  1
8.5
  7
SLDTEXTSTYLE1
 73
     1
 44
1.0
  0
ENDBLK
  5
467
330
465
100
AcDbEntity
  8
0
100
AcDbBlockEnd
  0
BLOCK
  5
476
330
475
100
AcDbEntity
  8
0
100
AcDbBlockBegin
  2
*D26
 70
     1
 10
0.0
 20
0.0
 30
0.0
  3
*D26
  1

  0
LINE
  5
478
330
475
100
AcDbEntity
  8
SLD-0
 62
   179
100
AcDbLine
 10
62.1777718359
 20
67.0706392321
 30
0.0
 11
59.1777718359
 21
67.8744862321
 31
0.0
  0
LINE
  5
479
330
475
100
AcDbEntity
  8
SLD-0
 62
   179
100
AcDbLine
 10
59.1777718359
 20
67.8744862321
 30
0.0
 11
62.1777718359
 21
68.6783332321
 31
0.0
  0
LINE
  5
47A
330
475
100
AcDbEntity
  8
SLD-0
 62
   179
100
AcDbLine
 10
59.1777718359
 20
67.8744862321
 30
0.0
 11
62.1777718359
 21
67.8744862321
 31
0.0
  0
LINE
  5
47B
330
475
100
AcDbEntity
  8
SLD-0
 62
   179
100
AcDbLine
 10
131.1777718359
 20
68.6783332321
 30
0.0
 11
134.1777718359
 21
67.8744862321
 31
0.0
  0
LINE
  5
47C
330
475
100
AcDbEntity
  8
SLD-0
 62
   179
100
AcDbLine
 10
134.1777718359
 20
67.8744862321
 30
0.0
 11
131.1777718359
 21
67.0706392321
 31
0.0
  0
LINE
  5
47D
330
475
100
AcDbEntity
  8
SLD-0
 62
   179
100
AcDbLine
 10
134.1777718359
 20
67.8744862321
 30
0.0
 11
131.1777718359
 21
67.8744862321
 31
0.0
  0
LINE
  5
47E
330
475
100
AcDbEntity
  8
SLD-0
 62
   179
100
AcDbLine
 10
59.1777718359
 20
100.5399525741
 30
0.0
 11
59.1777718359
 21
66.8744862321
 31
0.0
  0
LINE
  5
47F
330
475
100
AcDbEntity
  8
SLD-0
 62
   179
100
AcDbLine
 10
134.1777718359
 20
100.5399525741
 30
0.0
 11
134.1777718359
 21
66.8744862321
 31
0.0
  0
LINE
  5
480
330
475
100
AcDbEntity
  8
SLD-0
 62
   179
100
AcDbLine
 10
59.1777718359
 20
67.8744862321
 30
0.0
 11
134.1777718359
 21
67.8744862321
 31
0.0
  0
MTEXT
  5
481
330
475
100
AcDbEntity
  8
SLD-0
 62
   179
100
AcDbMText
 10
94.6422193543
 20
72.2054717984
 30
0.1
 40
3.5
 41
0.0
 71
     1
 72
     1
  1
75
  7
SLDTEXTSTYLE1
 73
     1
 44
1.0
  0
ENDBLK
  5
477
330
475
100
AcDbEntity
  8
0
100
AcDbBlockEnd
  0
BLOCK
  5
484
330
483
100
AcDbEntity
  8
0
100
AcDbBlockBegin
  2
*D27
 70
     1
 10
0.0
 20
0.0
 30
0.0
  3
*D27
  1

  0
LINE
  5
486
330
483
100
AcDbEntity
  8
SLD-0
 62
   179
100
AcDbLine
 10
131.1777718359
 20
68.6783332321
 30
0.0
 11
134.1777718359
 21
67.8744862321
 31
0.0
  0
LINE
  5
487
330
483
100
AcDbEntity
  8
SLD-0
 62
   179
100
AcDbLine
 10
134.1777718359
 20
67.8744862321
 30
0.0
 11
131.1777718359
 21
67.0706392321
 31
0.0
  0
LINE
  5
488
330
483
100
AcDbEntity
  8
SLD-0
 62
   179
100
AcDbLine
 10
134.1777718359
 20
67.8744862321
 30
0.0
 11
131.1777718359
 21
67.8744862321
 31
0.0
  0
LINE
  5
489
330
483
100
AcDbEntity
  8
SLD-0
 62
   179
100
AcDbLine
 10
145.6777718359
 20
67.0706392321
 30
0.0
 11
142.6777718359
 21
67.8744862321
 31
0.0
  0
LINE
  5
48A
330
483
100
AcDbEntity
  8
SLD-0
 62
   179
100
AcDbLine
 10
142.6777718359
 20
67.8744862321
 30
0.0
 11
145.6777718359
 21
68.6783332321
 31
0.0
  0
LINE
  5
48B
330
483
100
AcDbEntity
  8
SLD-0
 62
   179
100
AcDbLine
 10
142.6777718359
 20
67.8744862321
 30
0.0
 11
145.6777718359
 21
67.8744862321
 31
0.0
  0
LINE
  5
48C
330
483
100
AcDbEntity
  8
SLD-0
 62
   179
100
AcDbLine
 10
134.1777718359
 20
100.5399525741
 30
0.0
 11
134.1777718359
 21
66.8744862321
 31
0.0
  0
LINE
  5
48D
330
483
100
AcDbEntity
  8
SLD-0
 62
   179
100
AcDbLine
 10
142.6777718359
 20
78.0399525741
 30
0.0
 11
142.6777718359
 21
66.8744862321
 31
0.0
  0
LINE
  5
48E
330
483
100
AcDbEntity
  8
SLD-0
 62
   179
100
AcDbLine
 10
134.1777718359
 20
67.8744862321
 30
0.0
 11
129.1777718359
 21
67.8744862321
 31
0.0
  0
LINE
  5
48F
330
483
100
AcDbEntity
  8
SLD-0
 62
   179
100
AcDbLine
 10
134.1777718359
 20
67.8744862321
 30
0.0
 11
142.6777718359
 21
67.8744862321
 31
0.0
  0
LINE
  5
490
330
483
100
AcDbEntity
  8
SLD-0
 62
   179
100
AcDbLine
 10
142.6777718359
 20
67.8744862321
 30
0.0
 11
153.5951771902
 21
67.8744862321
 31
0.0
  0
MTEXT
  5
491
330
483
100
AcDbEntity
  8
SLD-0
 62
   179
100
AcDbMText
 10
145.8976551956
 20
72.2054717984
 30
0.1
 40
3.5
 41
0.0
 71
     1
 72
     1
  1
8.5
  7
SLDTEXTSTYLE1
 73
     1
 44
1.0
  0
ENDBLK
  5
485
330
483
100
AcDbEntity
  8
0
100
AcDbBlockEnd
  0
BLOCK
  5
494
330
493
100
AcDbEntity
  8
0
100
AcDbBlockBegin
  2
*D28
 70
     1
 10
0.0
 20
0.0
 30
0.0
  3
*D28
  1

  0
LINE
  5
496
330
493
100
AcDbEntity
  8
SLD-0
 62
   179
100
AcDbLine
 10
159.0314585172
 20
245.7083583535
 30
0.0
 11
159.8353055172
 21
248.7083583535
 31
0.0
  0
LINE
  5
497
330
493
100
AcDbEntity
  8
SLD-0
 62
   179
100
AcDbLine
 10
159.8353055172
 20
248.7083583535
 30
0.0
 11
160.6391525172
 21
245.7083583535
 31
0.0
  0
LINE
  5
498
330
493
100
AcDbEntity
  8
SLD-0
 62
   179
100
AcDbLine
 10
159.8353055172
 20
248.7083583535
 30
0.0
 11
159.8353055172
 21
245.7083583535
 31
0.0
  0
LINE
  5
499
330
493
100
AcDbEntity
  8
SLD-0
 62
   179
100
AcDbLine
 10
160.6391525172
 20
226.7083583535
 30
0.0
 11
159.8353055172
 21
223.7083583535
 31
0.0
  0
LINE
  5
49A
330
493
100
AcDbEntity
  8
SLD-0
 62
   179
100
AcDbLine
 10
159.8353055172
 20
223.7083583535
 30
0.0
 11
159.0314585172
 21
226.7083583535
 31
0.0
  0
LINE
  5
49B
330
493
100
AcDbEntity
  8
SLD-0
 62
   179
100
AcDbLine
 10
159.8353055172
 20
223.7083583535
 30
0.0
 11
159.8353055172
 21
226.7083583535
 31
0.0
  0
LINE
  5
49C
330
493
100
AcDbEntity
  8
SLD-0
 62
   179
100
AcDbLine
 10
143.6777718359
 20
248.7083583535
 30
0.0
 11
160.8353055172
 21
248.7083583535
 31
0.0
  0
LINE
  5
49D
330
493
100
AcDbEntity
  8
SLD-0
 62
   179
100
AcDbLine
 10
143.6777718359
 20
223.7083583535
 30
0.0
 11
160.8353055172
 21
223.7083583535
 31
0.0
  0
LINE
  5
49E
330
493
100
AcDbEntity
  8
SLD-0
 62
   179
100
AcDbLine
 10
159.8353055172
 20
248.7083583535
 30
0.0
 11
159.8353055172
 21
223.7083583535
 31
0.0
  0
MTEXT
  5
49F
330
493
100
AcDbEntity
  8
SLD-0
 62
   179
100
AcDbMText
 10
155.5043199509
 20
234.1728058719
 30
0.1
 40
3.5
 41
0.0
 71
     1
 72
     1
  1
25
  7
SLDTEXTSTYLE1
 11
-7.044195017643634E-15
 21
1.0
 31
0.0
 73
     1
 44
1.0
  0
ENDBLK
  5
495
330
493
100
AcDbEntity
  8
0
100
AcDbBlockEnd
  0
BLOCK
  5
4A2
330
4A1
100
AcDbEntity
  8
0
100
AcDbBlockBegin
  2
*D29
 70
     1
 10
0.0
 20
0.0
 30
0.0
  3
*D29
  1

  0
LINE
  5
4A4
330
4A1
100
AcDbEntity
  8
SLD-0
 62
   179
100
AcDbLine
 10
160.6391525172
 20
226.7083583535
 30
0.0
 11
159.8353055172
 21
223.7083583535
 31
0.0
  0
LINE
  5
4A5
330
4A1
100
AcDbEntity
  8
SLD-0
 62
   179
100
AcDbLine
 10
159.8353055172
 20
223.7083583535
 30
0.0
 11
159.0314585172
 21
226.7083583535
 31
0.0
  0
LINE
  5
4A6
330
4A1
100
AcDbEntity
  8
SLD-0
 62
   179
100
AcDbLine
 10
159.8353055172
 20
223.7083583535
 30
0.0
 11
159.8353055172
 21
226.7083583535
 31
0.0
  0
LINE
  5
4A7
330
4A1
100
AcDbEntity
  8
SLD-0
 62
   179
100
AcDbLine
 10
159.0314585172
 20
206.2083583535
 30
0.0
 11
159.8353055172
 21
209.2083583535
 31
0.0
  0
LINE
  5
4A8
330
4A1
100
AcDbEntity
  8
SLD-0
 62
   179
100
AcDbLine
 10
159.8353055172
 20
209.2083583535
 30
0.0
 11
160.6391525172
 21
206.2083583535
 31
0.0
  0
LINE
  5
4A9
330
4A1
100
AcDbEntity
  8
SLD-0
 62
   179
100
AcDbLine
 10
159.8353055172
 20
209.2083583535
 30
0.0
 11
159.8353055172
 21
206.2083583535
 31
0.0
  0
LINE
  5
4AA
330
4A1
100
AcDbEntity
  8
SLD-0
 62
   179
100
AcDbLine
 10
143.6777718359
 20
223.7083583535
 30
0.0
 11
160.8353055172
 21
223.7083583535
 31
0.0
  0
LINE
  5
4AB
330
4A1
100
AcDbEntity
  8
SLD-0
 62
   179
100
AcDbLine
 10
112.1777718359
 20
209.2083583535
 30
0.0
 11
160.8353055172
 21
209.2083583535
 31
0.0
  0
LINE
  5
4AC
330
4A1
100
AcDbEntity
  8
SLD-0
 62
   179
100
AcDbLine
 10
159.8353055172
 20
223.7083583535
 30
0.0
 11
159.8353055172
 21
228.7083583535
 31
0.0
  0
LINE
  5
4AD
330
4A1
100
AcDbEntity
  8
SLD-0
 62
   179
100
AcDbLine
 10
159.8353055172
 20
223.7083583535
 30
0.0
 11
159.8353055172
 21
209.2083583535
 31
0.0
  0
LINE
  5
4AE
330
4A1
100
AcDbEntity
  8
SLD-0
 62
   179
100
AcDbLine
 10
159.8353055172
 20
209.2083583535
 30
0.0
 11
159.8353055172
 21
204.2083583535
 31
0.0
  0
MTEXT
  5
4AF
330
4A1
100
AcDbEntity
  8
SLD-0
 62
   179
100
AcDbMText
 10
155.5043199509
 20
212.3855711154
 30
0.1
 40
3.5
 41
0.0
 71
     1
 72
     1
  1
14.5
  7
SLDTEXTSTYLE1
 11
-1.715124499442883E-15
 21
1.0
 31
0.0
 73
     1
 44
1.0
  0
ENDBLK
  5
4A3
330
4A1
100
AcDbEntity
  8
0
100
AcDbBlockEnd
  0
BLOCK
  5
4B2
330
4B1
100
AcDbEntity
  8
0
100
AcDbBlockBegin
  2
*D30
 70
     1
 10
0.0
 20
0.0
 30
0.0
  3
*D30
  1

  0
LINE
  5
4B4
330
4B1
100
AcDbEntity
  8
SLD-0
 62
   179
100
AcDbLine
 10
100.269311189
 20
249.2124831919
 30
0.0
 11
98.3025854013
 21
246.8087029034
 31
0.0
  0
LINE
  5
4B5
330
4B1
100
AcDbEntity
  8
SLD-0
 62
   179
100
AcDbLine
 10
98.3025854013
 20
246.8087029034
 30
0.0
 11
98.8039308521
 21
249.8738004122
 31
0.0
  0
LINE
  5
4B6
330
4B1
100
AcDbEntity
  8
SLD-0
 62
   179
100
AcDbLine
 10
98.3025854013
 20
246.8087029034
 30
0.0
 11
99.5366210206
 21
249.543141802
 31
0.0
  0
LINE
  5
4B7
330
4B1
100
AcDbEntity
  8
SLD-0
 62
   179
100
AcDbLine
 10
98.3025854013
 20
246.8087029034
 30
0.0
 11
105.3446143231
 21
262.4127888049
 31
0.0
  0
LINE
  5
4B8
330
4B1
100
AcDbEntity
  8
SLD-0
 62
   179
100
AcDbLine
 10
105.3446143231
 20
262.4127888049
 30
0.0
 11
132.5116498198
 21
262.4127888049
 31
0.0
  0
MTEXT
  5
4B9
330
4B1
100
AcDbEntity
  8
SLD-0
 62
   179
100
AcDbMText
 10
108.5196143231
 20
266.7437743712
 30
0.1
 40
3.5
 41
0.0
 71
     1
 72
     1
  1
クランプφ4
  7
SLDTEXTSTYLE1
 73
     1
 44
1.0
  0
ENDBLK
  5
4B3
330
4B1
100
AcDbEntity
  8
0
100
AcDbBlockEnd
  0
BLOCK
  5
4BC
330
4BB
100
AcDbEntity
  8
0
100
AcDbBlockBegin
  2
*D31
 70
     1
 10
0.0
 20
0.0
 30
0.0
  3
*D31
  1

  0
LINE
  5
4BE
330
4BB
100
AcDbEntity
  8
SLD-0
 62
   179
100
AcDbLine
 10
94.5801905216
 20
236.8828487932
 30
0.0
 11
95.0683989144
 21
233.8156313955
 31
0.0
  0
LINE
  5
4BF
330
4BB
100
AcDbEntity
  8
SLD-0
 62
   179
100
AcDbLine
 10
95.0683989144
 20
233.8156313955
 30
0.0
 11
93.1119902112
 21
236.2278160869
 31
0.0
  0
LINE
  5
4C0
330
4BB
100
AcDbEntity
  8
SLD-0
 62
   179
100
AcDbLine
 10
95.0683989144
 20
233.8156313955
 30
0.0
 11
93.8460903664
 21
236.55533244
 31
0.0
  0
LINE
  5
4C1
330
4BB
100
AcDbEntity
  8
SLD-0
 62
   179
100
AcDbLine
 10
95.0683989144
 20
233.8156313955
 30
0.0
 11
82.3144333511
 21
262.4025645656
 31
0.0
  0
LINE
  5
4C2
330
4BB
100
AcDbEntity
  8
SLD-0
 62
   179
100
AcDbLine
 10
82.3144333511
 20
262.4025645656
 30
0.0
 11
47.2036963516
 21
262.4025645656
 31
0.0
  0
MTEXT
  5
4C3
330
4BB
100
AcDbEntity
  8
SLD-0
 62
   179
100
AcDbMText
 10
48.7911963516
 20
266.7335501319
 30
0.1
 40
3.5
 41
0.0
 71
     1
 72
     1
  1
アンクランプ
  7
SLDTEXTSTYLE1
 73
     1
 44
1.0
  0
MTEXT
  5
4C4
330
4BB
100
AcDbEntity
  8
SLD-0
 62
   179
100
AcDbMText
 10
71.4828632527
 20
266.733549899
 30
0.1
 40
3.5
 41
0.0
 71
     1
 72
     1
  1
%%c
  7
SLDTEXTSTYLE1
 73
     1
 44
1.0
  0
MTEXT
  5
4C5
330
4BB
100
AcDbEntity
  8
SLD-0
 62
   179
100
AcDbMText
 10
77.1027935349
 20
266.7335501319
 30
0.1
 40
3.5
 41
0.0
 71
     1
 72
     1
  1
4
  7
SLDTEXTSTYLE1
 73
     1
 44
1.0
  0
ENDBLK
  5
4BD
330
4BB
100
AcDbEntity
  8
0
100
AcDbBlockEnd
  0
ENDSEC
  0
SECTION
  2
ENTITIES
  0
VIEWPORT
  5
D8
330
1B
100
AcDbEntity
 67
     1
  8
0
100
AcDbViewport
 10
105.0
 20
148.5
 30
0.0
 40
222.18
 41
314.226
 68
     1
 69
     1
 12
105.0
 22
148.5
 13
0.0
 23
0.0
 14
10.0
 24
10.0
 15
10.0
 25
10.0
 16
0.0
 26
0.0
 36
1.0
 17
0.0
 27
0.0
 37
0.0
 42
50.0
 43
0.0
 44
0.0
 45
314.226
 50
0.0
 51
0.0
 72
   100
 90
   557152
  1

281
     0
 71
     1
 74
     0
110
0.0
120
0.0
130
0.0
111
1.0
121
0.0
131
0.0
112
0.0
122
1.0
132
0.0
 79
     0
146
0.0
  0
LINE
  5
D9
330
1B
100
AcDbEntity
 67
     1
  8
SLD-0
  6
Continuous
 62
   179
370
     0
100
AcDbLine
 10
20.2604743903
 20
285.0
 30
0.0
 11
196.7604743903
 21
285.0
 31
0.0
  0
LINE
  5
DA
330
1B
100
AcDbEntity
 67
     1
  8
SLD-0
  6
Continuous
 62
   179
370
     0
100
AcDbLine
 10
20.2604743903
 20
285.0
 30
0.0
 11
20.2604743903
 21
10.0
 31
0.0
  0
LINE
  5
DB
330
1B
100
AcDbEntity
 67
     1
  8
SLD-0
  6
Continuous
 62
   179
370
     0
100
AcDbLine
 10
20.2604743903
 20
10.0
 30
0.0
 11
196.7604743903
 21
10.0
 31
0.0
  0
LINE
  5
DC
330
1B
100
AcDbEntity
 67
     1
  8
SLD-0
  6
Continuous
 62
   179
370
     0
100
AcDbLine
 10
196.7604743903
 20
285.0
 30
0.0
 11
196.7604743903
 21
10.0
 31
0.0
  0
LINE
  5
DD
330
1B
100
AcDbEntity
 67
     1
  8
SLD-0
  6
Continuous
 62
   179
370
     0
100
AcDbLine
 10
127.0104743903
 20
50.75
 30
0.0
 11
196.7604743903
 21
50.75
 31
0.0
  0
LINE
  5
DE
330
1B
100
AcDbEntity
 67
     1
  8
SLD-0
  6
Continuous
 62
   179
370
     0
100
AcDbLine
 10
127.0104743903
 20
50.75
 30
0.0
 11
127.0104743903
 21
10.0
 31
0.0
  0
LINE
  5
DF
330
1B
100
AcDbEntity
 67
     1
  8
SLD-0
  6
Continuous
 62
   179
370
     0
100
AcDbLine
 10
127.0104743903
 20
22.75
 30
0.0
 11
196.7604743903
 21
22.75
 31
0.0
  0
LINE
  5
E0
330
1B
100
AcDbEntity
 67
     1
  8
SLD-0
  6
Continuous
 62
   179
370
     0
100
AcDbLine
 10
127.0104743903
 20
36.75
 30
0.0
 11
196.7604743903
 21
36.75
 31
0.0
  0
LINE
  5
E1
330
1B
100
AcDbEntity
 67
     1
  8
SLD-0
  6
Continuous
 62
   179
370
     0
100
AcDbLine
 10
152.6777718359
 20
85.4695723272
 30
0.0
 11
157.9159474125
 21
85.4695723272
 31
0.0
  0
LINE
  5
E2
330
1B
100
AcDbEntity
 67
     1
  8
SLD-0
  6
Continuous
 62
   179
370
     0
100
AcDbLine
 10
40.6777718359
 20
85.341033873
 30
0.0
 11
36.9458470111
 21
85.3129704176
 31
0.0
  0
LINE
  5
E3
330
1B
100
AcDbEntity
 67
     1
  8
SLD-0
  6
Continuous
 62
   179
370
     0
100
AcDbLine
 10
92.6777722478
 20
157.5399541485
 30
0.0
 11
92.6777722478
 21
148.3899519967
 31
0.0
  0
LINE
  5
E4
330
1B
100
AcDbEntity
 67
     1
  8
SLD-0
  6
Continuous
 62
   179
370
     0
100
AcDbLine
 10
100.6777726277
 20
148.3899519967
 30
0.0
 11
100.6777726277
 21
157.5399541485
 31
0.0
  0
LINE
  5
E5
330
1B
100
AcDbEntity
 67
     1
  8
SLD-0
  6
Continuous
 62
   179
370
     0
100
AcDbLine
 10
92.7277718359
 20
159.1399525741
 30
0.0
 11
92.7277721628
 21
158.1399531292
 31
0.0
  0
LINE
  5
E6
330
1B
100
AcDbEntity
 67
     1
  8
SLD-0
  6
Continuous
 62
   179
370
     0
100
AcDbLine
 10
100.6277722218
 20
158.1399531292
 30
0.0
 11
100.6277722218
 21
159.1399525741
 31
0.0
  0
LINE
  5
E7
330
1B
100
AcDbEntity
 67
     1
  8
SLD-0
  6
Continuous
 62
   179
370
     0
100
AcDbLine
 10
93.0777715683
 20
148.3899519967
 30
0.0
 11
93.0777715683
 21
144.039952867
 31
0.0
  0
LINE
  5
E8
330
1B
100
AcDbEntity
 67
     1
  8
SLD-0
  6
Continuous
 62
   179
370
     0
100
AcDbLine
 10
100.2777714446
 20
144.039952867
 30
0.0
 11
100.2777714446
 21
148.3899519967
 31
0.0
  0
LINE
  5
E9
330
1B
100
AcDbEntity
 67
     1
  8
SLD-0
  6
Continuous
 62
   179
370
     0
100
AcDbLine
 10
94.4827722549
 20
158.1399531292
 30
0.0
 11
94.4827722549
 21
157.5399541485
 31
0.0
  0
LINE
  5
EA
330
1B
100
AcDbEntity
 67
     1
  8
SLD-0
  6
Continuous
 62
   179
370
     0
100
AcDbLine
 10
98.8727726206
 20
157.5399541485
 30
0.0
 11
98.8727726206
 21
158.1399531292
 31
0.0
  0
LINE
  5
EB
330
1B
100
AcDbEntity
 67
     1
  8
SLD-0
  6
Continuous
 62
   179
370
     0
100
AcDbLine
 10
147.1777718678
 20
82.7149522679
 30
0.0
 11
148.1777738943
 21
83.5399531948
 31
0.0
  0
LINE
  5
EC
330
1B
100
AcDbEntity
 67
     1
  8
SLD-0
  6
Continuous
 62
   179
370
     0
100
AcDbLine
 10
148.1777738943
 20
87.5399519878
 30
0.0
 11
147.1777718678
 21
88.3649529146
 31
0.0
  0
LINE
  5
ED
330
1B
100
AcDbEntity
 67
     1
  8
SLD-0
  6
Continuous
 62
   179
370
     0
100
AcDbLine
 10
150.1777704969
 20
82.7149522679
 30
0.0
 11
151.1777725234
 21
83.5399531948
 31
0.0
  0
LINE
  5
EE
330
1B
100
AcDbEntity
 67
     1
  8
SLD-0
  6
Continuous
 62
   179
370
     0
100
AcDbLine
 10
151.1777725234
 20
87.5399519878
 30
0.0
 11
150.1777704969
 21
88.3649529146
 31
0.0
  0
LINE
  5
EF
330
1B
100
AcDbEntity
 67
     1
  8
SLD-0
  6
Continuous
 62
   179
370
     0
100
AcDbLine
 10
145.6777688279
 20
83.5399531948
 30
0.0
 11
147.1777718678
 21
83.5399531948
 31
0.0
  0
LINE
  5
F0
330
1B
100
AcDbEntity
 67
     1
  8
SLD-0
  6
Continuous
 62
   179
370
     0
100
AcDbLine
 10
147.1777718678
 20
87.5399519878
 30
0.0
 11
145.6777688279
 21
87.5399519878
 31
0.0
  0
LINE
  5
F1
330
1B
100
AcDbEntity
 67
     1
  8
SLD-0
  6
Continuous
 62
   179
370
     0
100
AcDbLine
 10
151.1777725234
 20
83.5399531948
 30
0.0
 11
152.6777681127
 21
83.5399531948
 31
0.0
  0
LINE
  5
F2
330
1B
100
AcDbEntity
 67
     1
  8
SLD-0
  6
Continuous
 62
   179
370
     0
100
AcDbLine
 10
152.6777681127
 20
87.5399519878
 30
0.0
 11
151.1777725234
 21
87.5399519878
 31
0.0
  0
LINE
  5
F3
330
1B
100
AcDbEntity
 67
     1
  8
SLD-0
  6
Continuous
 62
   179
370
     0
100
AcDbLine
 10
148.1777738943
 20
83.5399531948
 30
0.0
 11
150.1777704969
 21
83.5399531948
 31
0.0
  0
LINE
  5
F4
330
1B
100
AcDbEntity
 67
     1
  8
SLD-0
  6
Continuous
 62
   179
370
     0
100
AcDbLine
 10
150.1777704969
 20
87.5399519878
 30
0.0
 11
148.1777738943
 21
87.5399519878
 31
0.0
  0
LINE
  5
F5
330
1B
100
AcDbEntity
 67
     1
  8
SLD-0
  6
Continuous
 62
   179
370
     0
100
AcDbLine
 10
43.1777734473
 20
99.3649523894
 30
0.0
 11
42.1777714207
 21
98.5399528595
 31
0.0
  0
LINE
  5
F6
330
1B
100
AcDbEntity
 67
     1
  8
SLD-0
  6
Continuous
 62
   179
370
     0
100
AcDbLine
 10
42.1777714207
 20
94.5399522039
 30
0.0
 11
43.1777734473
 21
93.7149522083
 31
0.0
  0
LINE
  5
F7
330
1B
100
AcDbEntity
 67
     1
  8
SLD-0
  6
Continuous
 62
   179
370
     0
100
AcDbLine
 10
46.1777720764
 20
99.3649523894
 30
0.0
 11
45.1777700498
 21
98.5399528595
 31
0.0
  0
LINE
  5
F8
330
1B
100
AcDbEntity
 67
     1
  8
SLD-0
  6
Continuous
 62
   179
370
     0
100
AcDbLine
 10
45.1777700498
 20
94.5399522039
 30
0.0
 11
46.1777720764
 21
93.7149522083
 31
0.0
  0
LINE
  5
F9
330
1B
100
AcDbEntity
 67
     1
  8
SLD-0
  6
Continuous
 62
   179
370
     0
100
AcDbLine
 10
45.1777700498
 20
98.5399528595
 30
0.0
 11
43.1777734473
 21
98.5399528595
 31
0.0
  0
LINE
  5
FA
330
1B
100
AcDbEntity
 67
     1
  8
SLD-0
  6
Continuous
 62
   179
370
     0
100
AcDbLine
 10
43.1777734473
 20
94.5399522039
 30
0.0
 11
45.1777700498
 21
94.5399522039
 31
0.0
  0
LINE
  5
FB
330
1B
100
AcDbEntity
 67
     1
  8
SLD-0
  6
Continuous
 62
   179
370
     0
100
AcDbLine
 10
47.6777713909
 20
98.5399528595
 30
0.0
 11
46.1777720764
 21
98.5399528595
 31
0.0
  0
LINE
  5
FC
330
1B
100
AcDbEntity
 67
     1
  8
SLD-0
  6
Continuous
 62
   179
370
     0
100
AcDbLine
 10
46.1777720764
 20
94.5399522039
 30
0.0
 11
47.6777713909
 21
94.5399522039
 31
0.0
  0
LINE
  5
FD
330
1B
100
AcDbEntity
 67
     1
  8
SLD-0
  6
Continuous
 62
   179
370
     0
100
AcDbLine
 10
42.1777714207
 20
98.5399528595
 30
0.0
 11
40.6777721062
 21
98.5399528595
 31
0.0
  0
LINE
  5
FE
330
1B
100
AcDbEntity
 67
     1
  8
SLD-0
  6
Continuous
 62
   179
370
     0
100
AcDbLine
 10
40.6777721062
 20
94.5399522039
 30
0.0
 11
42.1777714207
 21
94.5399522039
 31
0.0
  0
LINE
  5
FF
330
1B
100
AcDbEntity
 67
     1
  8
SLD-0
  6
Continuous
 62
   179
370
     0
100
AcDbLine
 10
43.1777734473
 20
125.8649525421
 30
0.0
 11
42.1777714207
 21
125.0399534779
 31
0.0
  0
LINE
  5
100
330
1B
100
AcDbEntity
 67
     1
  8
SLD-0
  6
Continuous
 62
   179
370
     0
100
AcDbLine
 10
42.1777714207
 20
121.0399528223
 30
0.0
 11
43.1777734473
 21
120.2149528267
 31
0.0
  0
LINE
  5
101
330
1B
100
AcDbEntity
 67
     1
  8
SLD-0
  6
Continuous
 62
   179
370
     0
100
AcDbLine
 10
46.1777720764
 20
125.8649525421
 30
0.0
 11
45.1777700498
 21
125.0399534779
 31
0.0
  0
LINE
  5
102
330
1B
100
AcDbEntity
 67
     1
  8
SLD-0
  6
Continuous
 62
   179
370
     0
100
AcDbLine
 10
45.1777700498
 20
121.0399528223
 30
0.0
 11
46.1777720764
 21
120.2149528267
 31
0.0
  0
LINE
  5
103
330
1B
100
AcDbEntity
 67
     1
  8
SLD-0
  6
Continuous
 62
   179
370
     0
100
AcDbLine
 10
45.1777700498
 20
125.0399534779
 30
0.0
 11
43.1777734473
 21
125.0399534779
 31
0.0
  0
LINE
  5
104
330
1B
100
AcDbEntity
 67
     1
  8
SLD-0
  6
Continuous
 62
   179
370
     0
100
AcDbLine
 10
43.1777734473
 20
121.0399528223
 30
0.0
 11
45.1777700498
 21
121.0399528223
 31
0.0
  0
LINE
  5
105
330
1B
100
AcDbEntity
 67
     1
  8
SLD-0
  6
Continuous
 62
   179
370
     0
100
AcDbLine
 10
42.1777714207
 20
125.0399534779
 30
0.0
 11
40.6777721062
 21
125.0399534779
 31
0.0
  0
LINE
  5
106
330
1B
100
AcDbEntity
 67
     1
  8
SLD-0
  6
Continuous
 62
   179
370
     0
100
AcDbLine
 10
40.6777721062
 20
121.0399528223
 30
0.0
 11
42.1777714207
 21
121.0399528223
 31
0.0
  0
LINE
  5
107
330
1B
100
AcDbEntity
 67
     1
  8
SLD-0
  6
Continuous
 62
   179
370
     0
100
AcDbLine
 10
47.6777713909
 20
125.0399534779
 30
0.0
 11
46.1777720764
 21
125.0399534779
 31
0.0
  0
LINE
  5
108
330
1B
100
AcDbEntity
 67
     1
  8
SLD-0
  6
Continuous
 62
   179
370
     0
100
AcDbLine
 10
46.1777720764
 20
121.0399528223
 30
0.0
 11
47.6777713909
 21
121.0399528223
 31
0.0
  0
LINE
  5
109
330
1B
100
AcDbEntity
 67
     1
  8
SLD-0
  6
Continuous
 62
   179
370
     0
100
AcDbLine
 10
43.1777734473
 20
88.3649529146
 30
0.0
 11
42.1777714207
 21
87.5399519878
 31
0.0
  0
LINE
  5
10A
330
1B
100
AcDbEntity
 67
     1
  8
SLD-0
  6
Continuous
 62
   179
370
     0
100
AcDbLine
 10
42.1777714207
 20
83.5399531948
 30
0.0
 11
43.1777734473
 21
82.7149522679
 31
0.0
  0
LINE
  5
10B
330
1B
100
AcDbEntity
 67
     1
  8
SLD-0
  6
Continuous
 62
   179
370
     0
100
AcDbLine
 10
46.1777720764
 20
88.3649529146
 30
0.0
 11
45.1777700498
 21
87.5399519878
 31
0.0
  0
LINE
  5
10C
330
1B
100
AcDbEntity
 67
     1
  8
SLD-0
  6
Continuous
 62
   179
370
     0
100
AcDbLine
 10
45.1777700498
 20
83.5399531948
 30
0.0
 11
46.1777720764
 21
82.7149522679
 31
0.0
  0
LINE
  5
10D
330
1B
100
AcDbEntity
 67
     1
  8
SLD-0
  6
Continuous
 62
   179
370
     0
100
AcDbLine
 10
45.1777700498
 20
87.5399519878
 30
0.0
 11
43.1777734473
 21
87.5399519878
 31
0.0
  0
LINE
  5
10E
330
1B
100
AcDbEntity
 67
     1
  8
SLD-0
  6
Continuous
 62
   179
370
     0
100
AcDbLine
 10
43.1777734473
 20
83.5399531948
 30
0.0
 11
45.1777700498
 21
83.5399531948
 31
0.0
  0
LINE
  5
10F
330
1B
100
AcDbEntity
 67
     1
  8
SLD-0
  6
Continuous
 62
   179
370
     0
100
AcDbLine
 10
42.1777714207
 20
87.5399519878
 30
0.0
 11
40.6777721062
 21
87.5399519878
 31
0.0
  0
LINE
  5
110
330
1B
100
AcDbEntity
 67
     1
  8
SLD-0
  6
Continuous
 62
   179
370
     0
100
AcDbLine
 10
40.6777721062
 20
83.5399531948
 30
0.0
 11
42.1777714207
 21
83.5399531948
 31
0.0
  0
LINE
  5
111
330
1B
100
AcDbEntity
 67
     1
  8
SLD-0
  6
Continuous
 62
   179
370
     0
100
AcDbLine
 10
47.6777713909
 20
87.5399519878
 30
0.0
 11
46.1777720764
 21
87.5399519878
 31
0.0
  0
LINE
  5
112
330
1B
100
AcDbEntity
 67
     1
  8
SLD-0
  6
Continuous
 62
   179
370
     0
100
AcDbLine
 10
46.1777720764
 20
83.5399531948
 30
0.0
 11
47.6777713909
 21
83.5399531948
 31
0.0
  0
LINE
  5
113
330
1B
100
AcDbEntity
 67
     1
  8
SLD-0
  6
Continuous
 62
   179
370
     0
100
AcDbLine
 10
147.1777718678
 20
120.2149528267
 30
0.0
 11
148.1777738943
 21
121.0399528223
 31
0.0
  0
LINE
  5
114
330
1B
100
AcDbEntity
 67
     1
  8
SLD-0
  6
Continuous
 62
   179
370
     0
100
AcDbLine
 10
148.1777738943
 20
125.0399534779
 30
0.0
 11
147.1777718678
 21
125.8649525421
 31
0.0
  0
LINE
  5
115
330
1B
100
AcDbEntity
 67
     1
  8
SLD-0
  6
Continuous
 62
   179
370
     0
100
AcDbLine
 10
150.1777704969
 20
120.2149528267
 30
0.0
 11
151.1777725234
 21
121.0399528223
 31
0.0
  0
LINE
  5
116
330
1B
100
AcDbEntity
 67
     1
  8
SLD-0
  6
Continuous
 62
   179
370
     0
100
AcDbLine
 10
151.1777725234
 20
125.0399534779
 30
0.0
 11
150.1777704969
 21
125.8649525421
 31
0.0
  0
LINE
  5
117
330
1B
100
AcDbEntity
 67
     1
  8
SLD-0
  6
Continuous
 62
   179
370
     0
100
AcDbLine
 10
145.6777688279
 20
121.0399528223
 30
0.0
 11
147.1777718678
 21
121.0399528223
 31
0.0
  0
LINE
  5
118
330
1B
100
AcDbEntity
 67
     1
  8
SLD-0
  6
Continuous
 62
   179
370
     0
100
AcDbLine
 10
147.1777718678
 20
125.0399534779
 30
0.0
 11
145.6777688279
 21
125.0399534779
 31
0.0
  0
LINE
  5
119
330
1B
100
AcDbEntity
 67
     1
  8
SLD-0
  6
Continuous
 62
   179
370
     0
100
AcDbLine
 10
151.1777725234
 20
121.0399528223
 30
0.0
 11
152.6777681127
 21
121.0399528223
 31
0.0
  0
LINE
  5
11A
330
1B
100
AcDbEntity
 67
     1
  8
SLD-0
  6
Continuous
 62
   179
370
     0
100
AcDbLine
 10
152.6777681127
 20
125.0399534779
 30
0.0
 11
151.1777725234
 21
125.0399534779
 31
0.0
  0
LINE
  5
11B
330
1B
100
AcDbEntity
 67
     1
  8
SLD-0
  6
Continuous
 62
   179
370
     0
100
AcDbLine
 10
148.1777738943
 20
121.0399528223
 30
0.0
 11
150.1777704969
 21
121.0399528223
 31
0.0
  0
LINE
  5
11C
330
1B
100
AcDbEntity
 67
     1
  8
SLD-0
  6
Continuous
 62
   179
370
     0
100
AcDbLine
 10
150.1777704969
 20
125.0399534779
 30
0.0
 11
148.1777738943
 21
125.0399534779
 31
0.0
  0
LINE
  5
11D
330
1B
100
AcDbEntity
 67
     1
  8
SLD-0
  6
Continuous
 62
   179
370
     0
100
AcDbLine
 10
147.1777718678
 20
93.7149522083
 30
0.0
 11
148.1777738943
 21
94.5399522039
 31
0.0
  0
LINE
  5
11E
330
1B
100
AcDbEntity
 67
     1
  8
SLD-0
  6
Continuous
 62
   179
370
     0
100
AcDbLine
 10
148.1777738943
 20
98.5399528595
 30
0.0
 11
147.1777718678
 21
99.3649523894
 31
0.0
  0
LINE
  5
11F
330
1B
100
AcDbEntity
 67
     1
  8
SLD-0
  6
Continuous
 62
   179
370
     0
100
AcDbLine
 10
150.1777704969
 20
93.7149522083
 30
0.0
 11
151.1777725234
 21
94.5399522039
 31
0.0
  0
LINE
  5
120
330
1B
100
AcDbEntity
 67
     1
  8
SLD-0
  6
Continuous
 62
   179
370
     0
100
AcDbLine
 10
151.1777725234
 20
98.5399528595
 30
0.0
 11
150.1777704969
 21
99.3649523894
 31
0.0
  0
LINE
  5
121
330
1B
100
AcDbEntity
 67
     1
  8
SLD-0
  6
Continuous
 62
   179
370
     0
100
AcDbLine
 10
145.6777688279
 20
94.5399522039
 30
0.0
 11
147.1777718678
 21
94.5399522039
 31
0.0
  0
LINE
  5
122
330
1B
100
AcDbEntity
 67
     1
  8
SLD-0
  6
Continuous
 62
   179
370
     0
100
AcDbLine
 10
147.1777718678
 20
98.5399528595
 30
0.0
 11
145.6777688279
 21
98.5399528595
 31
0.0
  0
LINE
  5
123
330
1B
100
AcDbEntity
 67
     1
  8
SLD-0
  6
Continuous
 62
   179
370
     0
100
AcDbLine
 10
151.1777725234
 20
94.5399522039
 30
0.0
 11
152.6777681127
 21
94.5399522039
 31
0.0
  0
LINE
  5
124
330
1B
100
AcDbEntity
 67
     1
  8
SLD-0
  6
Continuous
 62
   179
370
     0
100
AcDbLine
 10
152.6777681127
 20
98.5399528595
 30
0.0
 11
151.1777725234
 21
98.5399528595
 31
0.0
  0
LINE
  5
125
330
1B
100
AcDbEntity
 67
     1
  8
SLD-0
  6
Continuous
 62
   179
370
     0
100
AcDbLine
 10
148.1777738943
 20
94.5399522039
 30
0.0
 11
150.1777704969
 21
94.5399522039
 31
0.0
  0
LINE
  5
126
330
1B
100
AcDbEntity
 67
     1
  8
SLD-0
  6
Continuous
 62
   179
370
     0
100
AcDbLine
 10
150.1777704969
 20
98.5399528595
 30
0.0
 11
148.1777738943
 21
98.5399528595
 31
0.0
  0
LINE
  5
127
330
1B
100
AcDbEntity
 67
     1
  8
SLD-0
  6
Continuous
 62
   179
370
     0
100
AcDbLine
 10
103.465155901
 20
115.8837533744
 30
0.0
 11
103.4343291238
 21
115.783637129
 31
0.0
  0
LINE
  5
128
330
1B
100
AcDbEntity
 67
     1
  8
SLD-0
  6
Continuous
 62
   179
370
     0
100
AcDbLine
 10
103.4343291238
 20
115.783637129
 30
0.0
 11
103.3558558836
 21
115.4700058701
 31
0.0
  0
LINE
  5
129
330
1B
100
AcDbEntity
 67
     1
  8
SLD-0
  6
Continuous
 62
   179
370
     0
100
AcDbLine
 10
106.0112968251
 20
110.8606739158
 30
0.0
 11
106.4313829109
 21
110.7460988874
 31
0.0
  0
LINE
  5
12A
330
1B
100
AcDbEntity
 67
     1
  8
SLD-0
  6
Continuous
 62
   179
370
     0
100
AcDbLine
 10
87.1787240892
 20
111.6653473305
 30
0.0
 11
87.5421126537
 21
111.8957081067
 31
0.0
  0
LINE
  5
12B
330
1B
100
AcDbEntity
 67
     1
  8
SLD-0
  6
Continuous
 62
   179
370
     0
100
AcDbLine
 10
87.5421126537
 20
111.8957081067
 30
0.0
 11
88.0185777485
 21
112.2942024099
 31
0.0
  0
LINE
  5
12C
330
1B
100
AcDbEntity
 67
     1
  8
SLD-0
  6
Continuous
 62
   179
370
     0
100
AcDbLine
 10
103.0474744901
 20
115.9398283067
 30
0.0
 11
103.0376583501
 21
115.9524738046
 31
0.0
  0
LINE
  5
12D
330
1B
100
AcDbEntity
 67
     1
  8
SLD-0
  6
Continuous
 62
   179
370
     0
100
AcDbLine
 10
99.9014016404
 20
99.3236906084
 30
0.0
 11
99.9172602012
 21
99.3258689719
 31
0.0
  0
LINE
  5
12E
330
1B
100
AcDbEntity
 67
     1
  8
SLD-0
  6
Continuous
 62
   179
370
     0
100
AcDbLine
 10
87.0844402514
 20
110.3563382945
 30
0.0
 11
87.0783973649
 21
110.3415153644
 31
0.0
  0
LINE
  5
12F
330
1B
100
AcDbEntity
 67
     1
  8
SLD-0
  6
Continuous
 62
   179
370
     0
100
AcDbLine
 10
96.6777719721
 20
148.3899519967
 30
0.0
 11
100.6777726277
 21
148.3899519967
 31
0.0
  0
LINE
  5
130
330
1B
100
AcDbEntity
 67
     1
  8
SLD-0
  6
Continuous
 62
   179
370
     0
100
AcDbLine
 10
92.6777722478
 20
148.3899519967
 30
0.0
 11
96.6777719721
 21
148.3899519967
 31
0.0
  0
LINE
  5
131
330
1B
100
AcDbEntity
 67
     1
  8
SLD-0
  6
Continuous
 62
   179
370
     0
100
AcDbLine
 10
96.6777719721
 20
157.5399541485
 30
0.0
 11
92.6777722478
 21
157.5399541485
 31
0.0
  0
LINE
  5
132
330
1B
100
AcDbEntity
 67
     1
  8
SLD-0
  6
Continuous
 62
   179
370
     0
100
AcDbLine
 10
100.6777726277
 20
157.5399541485
 30
0.0
 11
96.6777719721
 21
157.5399541485
 31
0.0
  0
LINE
  5
133
330
1B
100
AcDbEntity
 67
     1
  8
SLD-0
  6
Continuous
 62
   179
370
     0
100
AcDbLine
 10
96.6777719721
 20
158.1399531292
 30
0.0
 11
100.6277722218
 21
158.1399531292
 31
0.0
  0
LINE
  5
134
330
1B
100
AcDbEntity
 67
     1
  8
SLD-0
  6
Continuous
 62
   179
370
     0
100
AcDbLine
 10
92.7277721628
 20
158.1399531292
 30
0.0
 11
96.6777719721
 21
158.1399531292
 31
0.0
  0
LINE
  5
135
330
1B
100
AcDbEntity
 67
     1
  8
SLD-0
  6
Continuous
 62
   179
370
     0
100
AcDbLine
 10
145.6777688279
 20
87.0608014243
 30
0.0
 11
142.6777701988
 21
87.0608014243
 31
0.0
  0
LINE
  5
136
330
1B
100
AcDbEntity
 67
     1
  8
SLD-0
  6
Continuous
 62
   179
370
     0
100
AcDbLine
 10
145.6777688279
 20
89.543614276
 30
0.0
 11
142.6777701988
 21
89.543614276
 31
0.0
  0
LINE
  5
137
330
1B
100
AcDbEntity
 67
     1
  8
SLD-0
  6
Continuous
 62
   179
370
     0
100
AcDbLine
 10
145.6777688279
 20
87.0608014243
 30
0.0
 11
145.6777688279
 21
89.543614276
 31
0.0
  0
LINE
  5
138
330
1B
100
AcDbEntity
 67
     1
  8
SLD-0
  6
Continuous
 62
   179
370
     0
100
AcDbLine
 10
145.6777688279
 20
83.0571406709
 30
0.0
 11
142.6777701988
 21
83.0571406709
 31
0.0
  0
LINE
  5
139
330
1B
100
AcDbEntity
 67
     1
  8
SLD-0
  6
Continuous
 62
   179
370
     0
100
AcDbLine
 10
145.6777688279
 20
83.0571406709
 30
0.0
 11
145.6777688279
 21
87.0608014243
 31
0.0
  0
LINE
  5
13A
330
1B
100
AcDbEntity
 67
     1
  8
SLD-0
  6
Continuous
 62
   179
370
     0
100
AcDbLine
 10
145.6777688279
 20
81.5362909066
 30
0.0
 11
142.6777701988
 21
81.5362909066
 31
0.0
  0
LINE
  5
13B
330
1B
100
AcDbEntity
 67
     1
  8
SLD-0
  6
Continuous
 62
   179
370
     0
100
AcDbLine
 10
145.6777688279
 20
81.5362909066
 30
0.0
 11
145.6777688279
 21
83.0571406709
 31
0.0
  0
LINE
  5
13C
330
1B
100
AcDbEntity
 67
     1
  8
SLD-0
  6
Continuous
 62
   179
370
     0
100
AcDbLine
 10
148.1777738943
 20
83.5399531948
 30
0.0
 11
148.1777738943
 21
87.5399519878
 31
0.0
  0
LINE
  5
13D
330
1B
100
AcDbEntity
 67
     1
  8
SLD-0
  6
Continuous
 62
   179
370
     0
100
AcDbLine
 10
147.1777718678
 20
82.7149522679
 30
0.0
 11
147.1777718678
 21
88.3649529146
 31
0.0
  0
LINE
  5
13E
330
1B
100
AcDbEntity
 67
     1
  8
SLD-0
  6
Continuous
 62
   179
370
     0
100
AcDbLine
 10
151.1777725234
 20
83.5399531948
 30
0.0
 11
151.1777725234
 21
87.5399519878
 31
0.0
  0
LINE
  5
13F
330
1B
100
AcDbEntity
 67
     1
  8
SLD-0
  6
Continuous
 62
   179
370
     0
100
AcDbLine
 10
150.1777704969
 20
82.7149522679
 30
0.0
 11
150.1777704969
 21
88.3649529146
 31
0.0
  0
LINE
  5
140
330
1B
100
AcDbEntity
 67
     1
  8
SLD-0
  6
Continuous
 62
   179
370
     0
100
AcDbLine
 10
152.6777681127
 20
83.5399531948
 30
0.0
 11
152.6777681127
 21
87.5399519878
 31
0.0
  0
LINE
  5
141
330
1B
100
AcDbEntity
 67
     1
  8
SLD-0
  6
Continuous
 62
   179
370
     0
100
AcDbLine
 10
47.6777713909
 20
98.3589233088
 30
0.0
 11
50.6777718827
 21
98.3589233088
 31
0.0
  0
LINE
  5
142
330
1B
100
AcDbEntity
 67
     1
  8
SLD-0
  6
Continuous
 62
   179
370
     0
100
AcDbLine
 10
47.6777713909
 20
94.323444851
 30
0.0
 11
50.6777718827
 21
94.323444851
 31
0.0
  0
LINE
  5
143
330
1B
100
AcDbEntity
 67
     1
  8
SLD-0
  6
Continuous
 62
   179
370
     0
100
AcDbLine
 10
47.6777713909
 20
98.3589233088
 30
0.0
 11
47.6777713909
 21
94.323444851
 31
0.0
  0
LINE
  5
144
330
1B
100
AcDbEntity
 67
     1
  8
SLD-0
  6
Continuous
 62
   179
370
     0
100
AcDbLine
 10
42.1777714207
 20
98.5399528595
 30
0.0
 11
42.1777714207
 21
94.5399522039
 31
0.0
  0
LINE
  5
145
330
1B
100
AcDbEntity
 67
     1
  8
SLD-0
  6
Continuous
 62
   179
370
     0
100
AcDbLine
 10
43.1777734473
 20
99.3649523894
 30
0.0
 11
43.1777734473
 21
93.7149522083
 31
0.0
  0
LINE
  5
146
330
1B
100
AcDbEntity
 67
     1
  8
SLD-0
  6
Continuous
 62
   179
370
     0
100
AcDbLine
 10
45.1777700498
 20
98.5399528595
 30
0.0
 11
45.1777700498
 21
94.5399522039
 31
0.0
  0
LINE
  5
147
330
1B
100
AcDbEntity
 67
     1
  8
SLD-0
  6
Continuous
 62
   179
370
     0
100
AcDbLine
 10
46.1777720764
 20
99.3649523894
 30
0.0
 11
46.1777720764
 21
93.7149522083
 31
0.0
  0
LINE
  5
148
330
1B
100
AcDbEntity
 67
     1
  8
SLD-0
  6
Continuous
 62
   179
370
     0
100
AcDbLine
 10
47.6777713909
 20
100.5754309895
 30
0.0
 11
50.6777718827
 21
100.5754309895
 31
0.0
  0
LINE
  5
149
330
1B
100
AcDbEntity
 67
     1
  8
SLD-0
  6
Continuous
 62
   179
370
     0
100
AcDbLine
 10
47.6777713909
 20
100.5754309895
 30
0.0
 11
47.6777713909
 21
98.3589233088
 31
0.0
  0
LINE
  5
14A
330
1B
100
AcDbEntity
 67
     1
  8
SLD-0
  6
Continuous
 62
   179
370
     0
100
AcDbLine
 10
47.6777713909
 20
92.5044740739
 30
0.0
 11
50.6777718827
 21
92.5044740739
 31
0.0
  0
LINE
  5
14B
330
1B
100
AcDbEntity
 67
     1
  8
SLD-0
  6
Continuous
 62
   179
370
     0
100
AcDbLine
 10
47.6777713909
 20
94.323444851
 30
0.0
 11
47.6777713909
 21
92.5044740739
 31
0.0
  0
LINE
  5
14C
330
1B
100
AcDbEntity
 67
     1
  8
SLD-0
  6
Continuous
 62
   179
370
     0
100
AcDbLine
 10
40.6777721062
 20
98.5399528595
 30
0.0
 11
40.6777721062
 21
94.5399522039
 31
0.0
  0
LINE
  5
14D
330
1B
100
AcDbEntity
 67
     1
  8
SLD-0
  6
Continuous
 62
   179
370
     0
100
AcDbLine
 10
47.6777713909
 20
123.0647356438
 30
0.0
 11
50.6777718827
 21
123.0647356438
 31
0.0
  0
LINE
  5
14E
330
1B
100
AcDbEntity
 67
     1
  8
SLD-0
  6
Continuous
 62
   179
370
     0
100
AcDbLine
 10
47.6777713909
 20
119.551935904
 30
0.0
 11
50.6777718827
 21
119.551935904
 31
0.0
  0
LINE
  5
14F
330
1B
100
AcDbEntity
 67
     1
  8
SLD-0
  6
Continuous
 62
   179
370
     0
100
AcDbLine
 10
47.6777713909
 20
123.0647356438
 30
0.0
 11
47.6777713909
 21
119.551935904
 31
0.0
  0
LINE
  5
150
330
1B
100
AcDbEntity
 67
     1
  8
SLD-0
  6
Continuous
 62
   179
370
     0
100
AcDbLine
 10
47.6777713909
 20
126.5527528899
 30
0.0
 11
50.6777718827
 21
126.5527528899
 31
0.0
  0
LINE
  5
151
330
1B
100
AcDbEntity
 67
     1
  8
SLD-0
  6
Continuous
 62
   179
370
     0
100
AcDbLine
 10
47.6777713909
 20
126.5527528899
 30
0.0
 11
47.6777713909
 21
123.0647356438
 31
0.0
  0
LINE
  5
152
330
1B
100
AcDbEntity
 67
     1
  8
SLD-0
  6
Continuous
 62
   179
370
     0
100
AcDbLine
 10
42.1777714207
 20
125.0399143624
 30
0.0
 11
42.1777714207
 21
121.0399528223
 31
0.0
  0
LINE
  5
153
330
1B
100
AcDbEntity
 67
     1
  8
SLD-0
  6
Continuous
 62
   179
370
     0
100
AcDbLine
 10
43.1777734473
 20
125.8649003881
 30
0.0
 11
43.1777734473
 21
120.2149528267
 31
0.0
  0
LINE
  5
154
330
1B
100
AcDbEntity
 67
     1
  8
SLD-0
  6
Continuous
 62
   179
370
     0
100
AcDbLine
 10
45.1777700498
 20
125.0399143624
 30
0.0
 11
45.1777700498
 21
121.0399528223
 31
0.0
  0
LINE
  5
155
330
1B
100
AcDbEntity
 67
     1
  8
SLD-0
  6
Continuous
 62
   179
370
     0
100
AcDbLine
 10
46.1777720764
 20
125.8649003881
 30
0.0
 11
46.1777720764
 21
120.2149528267
 31
0.0
  0
LINE
  5
156
330
1B
100
AcDbEntity
 67
     1
  8
SLD-0
  6
Continuous
 62
   179
370
     0
100
AcDbLine
 10
47.6777713909
 20
119.5271515476
 30
0.0
 11
50.6777718827
 21
119.5271515476
 31
0.0
  0
LINE
  5
157
330
1B
100
AcDbEntity
 67
     1
  8
SLD-0
  6
Continuous
 62
   179
370
     0
100
AcDbLine
 10
47.6777713909
 20
119.551935904
 30
0.0
 11
47.6777713909
 21
119.5271515476
 31
0.0
  0
LINE
  5
158
330
1B
100
AcDbEntity
 67
     1
  8
SLD-0
  6
Continuous
 62
   179
370
     0
100
AcDbLine
 10
40.6777721062
 20
125.0399143624
 30
0.0
 11
40.6777721062
 21
121.0399528223
 31
0.0
  0
LINE
  5
159
330
1B
100
AcDbEntity
 67
     1
  8
SLD-0
  6
Continuous
 62
   179
370
     0
100
AcDbLine
 10
47.6777713909
 20
85.5647360163
 30
0.0
 11
50.6777718827
 21
85.5647360163
 31
0.0
  0
LINE
  5
15A
330
1B
100
AcDbEntity
 67
     1
  8
SLD-0
  6
Continuous
 62
   179
370
     0
100
AcDbLine
 10
47.6777713909
 20
82.0519362765
 30
0.0
 11
50.6777718827
 21
82.0519362765
 31
0.0
  0
LINE
  5
15B
330
1B
100
AcDbEntity
 67
     1
  8
SLD-0
  6
Continuous
 62
   179
370
     0
100
AcDbLine
 10
47.6777713909
 20
85.5647360163
 30
0.0
 11
47.6777713909
 21
82.0519362765
 31
0.0
  0
LINE
  5
15C
330
1B
100
AcDbEntity
 67
     1
  8
SLD-0
  6
Continuous
 62
   179
370
     0
100
AcDbLine
 10
47.6777713909
 20
89.0527532624
 30
0.0
 11
50.6777718827
 21
89.0527532624
 31
0.0
  0
LINE
  5
15D
330
1B
100
AcDbEntity
 67
     1
  8
SLD-0
  6
Continuous
 62
   179
370
     0
100
AcDbLine
 10
47.6777713909
 20
89.0527532624
 30
0.0
 11
47.6777713909
 21
85.5647360163
 31
0.0
  0
LINE
  5
15E
330
1B
100
AcDbEntity
 67
     1
  8
SLD-0
  6
Continuous
 62
   179
370
     0
100
AcDbLine
 10
42.1777714207
 20
87.5399147349
 30
0.0
 11
42.1777714207
 21
83.5399531948
 31
0.0
  0
LINE
  5
15F
330
1B
100
AcDbEntity
 67
     1
  8
SLD-0
  6
Continuous
 62
   179
370
     0
100
AcDbLine
 10
43.1777734473
 20
88.3648988979
 30
0.0
 11
43.1777734473
 21
82.7149522679
 31
0.0
  0
LINE
  5
160
330
1B
100
AcDbEntity
 67
     1
  8
SLD-0
  6
Continuous
 62
   179
370
     0
100
AcDbLine
 10
45.1777700498
 20
87.5399147349
 30
0.0
 11
45.1777700498
 21
83.5399531948
 31
0.0
  0
LINE
  5
161
330
1B
100
AcDbEntity
 67
     1
  8
SLD-0
  6
Continuous
 62
   179
370
     0
100
AcDbLine
 10
46.1777720764
 20
88.3648988979
 30
0.0
 11
46.1777720764
 21
82.7149522679
 31
0.0
  0
LINE
  5
162
330
1B
100
AcDbEntity
 67
     1
  8
SLD-0
  6
Continuous
 62
   179
370
     0
100
AcDbLine
 10
47.6777713909
 20
82.0271519201
 30
0.0
 11
50.6777718827
 21
82.0271519201
 31
0.0
  0
LINE
  5
163
330
1B
100
AcDbEntity
 67
     1
  8
SLD-0
  6
Continuous
 62
   179
370
     0
100
AcDbLine
 10
47.6777713909
 20
82.0519362765
 30
0.0
 11
47.6777713909
 21
82.0271519201
 31
0.0
  0
LINE
  5
164
330
1B
100
AcDbEntity
 67
     1
  8
SLD-0
  6
Continuous
 62
   179
370
     0
100
AcDbLine
 10
40.6777721062
 20
87.5399147349
 30
0.0
 11
40.6777721062
 21
83.5399531948
 31
0.0
  0
LINE
  5
165
330
1B
100
AcDbEntity
 67
     1
  8
SLD-0
  6
Continuous
 62
   179
370
     0
100
AcDbLine
 10
145.6777688279
 20
123.1202797221
 30
0.0
 11
142.6777701988
 21
123.1202797221
 31
0.0
  0
LINE
  5
166
330
1B
100
AcDbEntity
 67
     1
  8
SLD-0
  6
Continuous
 62
   179
370
     0
100
AcDbLine
 10
145.6777688279
 20
126.5798990803
 30
0.0
 11
142.6777701988
 21
126.5798990803
 31
0.0
  0
LINE
  5
167
330
1B
100
AcDbEntity
 67
     1
  8
SLD-0
  6
Continuous
 62
   179
370
     0
100
AcDbLine
 10
145.6777688279
 20
123.1202797221
 30
0.0
 11
145.6777688279
 21
126.5798990803
 31
0.0
  0
LINE
  5
168
330
1B
100
AcDbEntity
 67
     1
  8
SLD-0
  6
Continuous
 62
   179
370
     0
100
AcDbLine
 10
145.6777688279
 20
119.5803328606
 30
0.0
 11
142.6777701988
 21
119.5803328606
 31
0.0
  0
LINE
  5
169
330
1B
100
AcDbEntity
 67
     1
  8
SLD-0
  6
Continuous
 62
   179
370
     0
100
AcDbLine
 10
145.6777688279
 20
119.5803328606
 30
0.0
 11
145.6777688279
 21
123.1202797221
 31
0.0
  0
LINE
  5
16A
330
1B
100
AcDbEntity
 67
     1
  8
SLD-0
  6
Continuous
 62
   179
370
     0
100
AcDbLine
 10
148.1777738943
 20
121.0399528223
 30
0.0
 11
148.1777738943
 21
125.0399534779
 31
0.0
  0
LINE
  5
16B
330
1B
100
AcDbEntity
 67
     1
  8
SLD-0
  6
Continuous
 62
   179
370
     0
100
AcDbLine
 10
147.1777718678
 20
120.2149528267
 30
0.0
 11
147.1777718678
 21
125.8649525421
 31
0.0
  0
LINE
  5
16C
330
1B
100
AcDbEntity
 67
     1
  8
SLD-0
  6
Continuous
 62
   179
370
     0
100
AcDbLine
 10
151.1777725234
 20
121.0399528223
 30
0.0
 11
151.1777725234
 21
125.0399534779
 31
0.0
  0
LINE
  5
16D
330
1B
100
AcDbEntity
 67
     1
  8
SLD-0
  6
Continuous
 62
   179
370
     0
100
AcDbLine
 10
150.1777704969
 20
120.2149528267
 30
0.0
 11
150.1777704969
 21
125.8649525421
 31
0.0
  0
LINE
  5
16E
330
1B
100
AcDbEntity
 67
     1
  8
SLD-0
  6
Continuous
 62
   179
370
     0
100
AcDbLine
 10
152.6777681127
 20
121.0399528223
 30
0.0
 11
152.6777681127
 21
125.0399534779
 31
0.0
  0
LINE
  5
16F
330
1B
100
AcDbEntity
 67
     1
  8
SLD-0
  6
Continuous
 62
   179
370
     0
100
AcDbLine
 10
145.6777688279
 20
119.5000053572
 30
0.0
 11
142.6777701988
 21
119.5000053572
 31
0.0
  0
LINE
  5
170
330
1B
100
AcDbEntity
 67
     1
  8
SLD-0
  6
Continuous
 62
   179
370
     0
100
AcDbLine
 10
145.6777688279
 20
119.5000053572
 30
0.0
 11
145.6777688279
 21
119.5803328606
 31
0.0
  0
LINE
  5
171
330
1B
100
AcDbEntity
 67
     1
  8
SLD-0
  6
Continuous
 62
   179
370
     0
100
AcDbLine
 10
145.6777688279
 20
97.3440285029
 30
0.0
 11
142.6777701988
 21
97.3440285029
 31
0.0
  0
LINE
  5
172
330
1B
100
AcDbEntity
 67
     1
  8
SLD-0
  6
Continuous
 62
   179
370
     0
100
AcDbLine
 10
145.6777688279
 20
100.3725037167
 30
0.0
 11
142.6777701988
 21
100.3725037167
 31
0.0
  0
LINE
  5
173
330
1B
100
AcDbEntity
 67
     1
  8
SLD-0
  6
Continuous
 62
   179
370
     0
100
AcDbLine
 10
145.6777688279
 20
97.3440285029
 30
0.0
 11
145.6777688279
 21
100.3725037167
 31
0.0
  0
LINE
  5
174
330
1B
100
AcDbEntity
 67
     1
  8
SLD-0
  6
Continuous
 62
   179
370
     0
100
AcDbLine
 10
145.6777688279
 20
93.5114777835
 30
0.0
 11
142.6777701988
 21
93.5114777835
 31
0.0
  0
LINE
  5
175
330
1B
100
AcDbEntity
 67
     1
  8
SLD-0
  6
Continuous
 62
   179
370
     0
100
AcDbLine
 10
145.6777688279
 20
93.5114777835
 30
0.0
 11
145.6777688279
 21
97.3440285029
 31
0.0
  0
LINE
  5
176
330
1B
100
AcDbEntity
 67
     1
  8
SLD-0
  6
Continuous
 62
   179
370
     0
100
AcDbLine
 10
148.1777738943
 20
94.5399522039
 30
0.0
 11
148.1777738943
 21
98.5399528595
 31
0.0
  0
LINE
  5
177
330
1B
100
AcDbEntity
 67
     1
  8
SLD-0
  6
Continuous
 62
   179
370
     0
100
AcDbLine
 10
147.1777718678
 20
93.7149522083
 30
0.0
 11
147.1777718678
 21
99.3649523894
 31
0.0
  0
LINE
  5
178
330
1B
100
AcDbEntity
 67
     1
  8
SLD-0
  6
Continuous
 62
   179
370
     0
100
AcDbLine
 10
151.1777725234
 20
94.5399522039
 30
0.0
 11
151.1777725234
 21
98.5399528595
 31
0.0
  0
LINE
  5
179
330
1B
100
AcDbEntity
 67
     1
  8
SLD-0
  6
Continuous
 62
   179
370
     0
100
AcDbLine
 10
150.1777704969
 20
93.7149522083
 30
0.0
 11
150.1777704969
 21
99.3649523894
 31
0.0
  0
LINE
  5
17A
330
1B
100
AcDbEntity
 67
     1
  8
SLD-0
  6
Continuous
 62
   179
370
     0
100
AcDbLine
 10
145.6777688279
 20
92.7074018123
 30
0.0
 11
142.6777701988
 21
92.7074018123
 31
0.0
  0
LINE
  5
17B
330
1B
100
AcDbEntity
 67
     1
  8
SLD-0
  6
Continuous
 62
   179
370
     0
100
AcDbLine
 10
145.6777688279
 20
92.7074018123
 30
0.0
 11
145.6777688279
 21
93.5114777835
 31
0.0
  0
LINE
  5
17C
330
1B
100
AcDbEntity
 67
     1
  8
SLD-0
  6
Continuous
 62
   179
370
     0
100
AcDbLine
 10
152.6777681127
 20
94.5399522039
 30
0.0
 11
152.6777681127
 21
98.5399528595
 31
0.0
  0
LINE
  5
17D
330
1B
100
AcDbEntity
 67
     1
  8
SLD-0
  6
Continuous
 62
   179
370
     0
100
AcDbLine
 10
90.6166319943
 20
107.9165285273
 30
0.0
 11
88.2627039532
 21
106.5522137555
 31
0.0
  0
LINE
  5
17E
330
1B
100
AcDbEntity
 67
     1
  8
SLD-0
  6
Continuous
 62
   179
370
     0
100
AcDbLine
 10
106.1063403026
 20
107.7317853256
 30
0.0
 11
105.7966179924
 21
107.9099110285
 31
0.0
  0
LINE
  5
17F
330
1B
100
AcDbEntity
 67
     1
  8
SLD-0
  6
Continuous
 62
   179
370
     0
100
AcDbLine
 10
100.6639693084
 20
116.7655551226
 30
0.0
 11
100.6633695431
 21
117.1228453585
 31
0.0
  0
LINE
  5
180
330
1B
100
AcDbEntity
 67
     1
  8
SLD-0
  6
Continuous
 62
   179
370
     0
100
AcDbLine
 10
101.8082534924
 20
100.975002872
 30
0.0
 11
102.1179758016
 21
100.796877162
 31
0.0
  0
LINE
  5
181
330
1B
100
AcDbEntity
 67
     1
  8
SLD-0
  6
Continuous
 62
   179
370
     0
100
AcDbLine
 10
91.2635939606
 20
100.7786566798
 30
0.0
 11
91.5727164987
 21
100.9578212097
 31
0.0
  0
LINE
  5
182
330
1B
100
AcDbEntity
 67
     1
  8
SLD-0
  6
Continuous
 62
   179
370
     0
100
AcDbLine
 10
100.2482429109
 20
103.6025633865
 30
0.0
 11
102.6067392075
 21
102.2461593027
 31
0.0
  0
LINE
  5
183
330
1B
100
AcDbEntity
 67
     1
  8
SLD-0
  6
Continuous
 62
   179
370
     0
100
AcDbLine
 10
105.0994669193
 20
106.5804766483
 30
0.0
 11
102.7409707242
 21
107.9368808683
 31
0.0
  0
LINE
  5
184
330
1B
100
AcDbEntity
 67
     1
  8
SLD-0
  6
Continuous
 62
   179
370
     0
100
AcDbLine
 10
102.6067392075
 20
102.2461593027
 30
0.0
 11
105.0994669193
 21
106.5804766483
 31
0.0
  0
LINE
  5
185
330
1B
100
AcDbEntity
 67
     1
  8
SLD-0
  6
Continuous
 62
   179
370
     0
100
AcDbLine
 10
100.2482429109
 20
103.6025633865
 30
0.0
 11
102.7409707242
 21
107.9368808683
 31
0.0
  0
LINE
  5
186
330
1B
100
AcDbEntity
 67
     1
  8
SLD-0
  6
Continuous
 62
   179
370
     0
100
AcDbLine
 10
94.1638806105
 20
116.8130916166
 30
0.0
 11
94.1684478172
 21
114.0923724394
 31
0.0
  0
LINE
  5
187
330
1B
100
AcDbEntity
 67
     1
  8
SLD-0
  6
Continuous
 62
   179
370
     0
100
AcDbLine
 10
92.6633810773
 20
117.1094157832
 30
0.0
 11
92.6639808428
 21
116.7521255475
 31
0.0
  0
LINE
  5
188
330
1B
100
AcDbEntity
 67
     1
  8
SLD-0
  6
Continuous
 62
   179
370
     0
100
AcDbLine
 10
87.5610925476
 20
107.879299991
 30
0.0
 11
87.2519700095
 21
107.7001354612
 31
0.0
  0
LINE
  5
189
330
1B
100
AcDbEntity
 67
     1
  8
SLD-0
  6
Continuous
 62
   179
370
     0
100
AcDbLine
 10
90.7699691425
 20
102.2262896674
 30
0.0
 11
93.1238971944
 21
103.5906041305
 31
0.0
  0
LINE
  5
18A
330
1B
100
AcDbEntity
 67
     1
  8
SLD-0
  6
Continuous
 62
   179
370
     0
100
AcDbLine
 10
88.2627039532
 20
106.5522137555
 30
0.0
 11
90.7699691425
 21
102.2262896674
 31
0.0
  0
LINE
  5
18B
330
1B
100
AcDbEntity
 67
     1
  8
SLD-0
  6
Continuous
 62
   179
370
     0
100
AcDbLine
 10
90.6166319943
 20
107.9165285273
 30
0.0
 11
93.1238971944
 21
103.5906041305
 31
0.0
  0
LINE
  5
18C
330
1B
100
AcDbEntity
 67
     1
  8
SLD-0
  6
Continuous
 62
   179
370
     0
100
AcDbLine
 10
99.1684412056
 20
114.1007655185
 30
0.0
 11
99.163873999
 21
116.8214846957
 31
0.0
  0
LINE
  5
18D
330
1B
100
AcDbEntity
 67
     1
  8
SLD-0
  6
Continuous
 62
   179
370
     0
100
AcDbLine
 10
99.1684412056
 20
114.1007655185
 30
0.0
 11
94.1684478172
 21
114.0923724394
 31
0.0
  0
LINE
  5
18E
330
1B
100
AcDbEntity
 67
     1
  8
SLD-0
  6
Continuous
 62
   179
370
     0
100
AcDbLine
 10
99.163873999
 20
116.8214846957
 30
0.0
 11
94.1638806105
 21
116.8130916166
 31
0.0
  0
LINE
  5
18F
330
1B
100
AcDbEntity
 67
     1
  8
SLD-0
  6
Continuous
 62
   179
370
     0
100
AcDbLine
 10
105.3276842344
 20
108.1796013261
 30
0.0
 11
105.7966179924
 21
107.9099110285
 31
0.0
  0
LINE
  5
190
330
1B
100
AcDbEntity
 67
     1
  8
SLD-0
  6
Continuous
 62
   179
370
     0
100
AcDbLine
 10
92.6648889148
 20
116.2111718226
 30
0.0
 11
92.6639808428
 21
116.7521255475
 31
0.0
  0
LINE
  5
191
330
1B
100
AcDbEntity
 67
     1
  8
SLD-0
  6
Continuous
 62
   179
370
     0
100
AcDbLine
 10
101.3393197885
 20
101.244693321
 30
0.0
 11
101.8082534924
 21
100.975002872
 31
0.0
  0
LINE
  5
192
330
1B
100
AcDbEntity
 67
     1
  8
SLD-0
  6
Continuous
 62
   179
370
     0
100
AcDbLine
 10
92.040742485
 20
101.2290843527
 30
0.0
 11
91.5727164987
 21
100.9578212097
 31
0.0
  0
LINE
  5
193
330
1B
100
AcDbEntity
 67
     1
  8
SLD-0
  6
Continuous
 62
   179
370
     0
100
AcDbLine
 10
100.6648773813
 20
116.2246008434
 30
0.0
 11
100.6639693084
 21
116.7655551226
 31
0.0
  0
LINE
  5
194
330
1B
100
AcDbEntity
 67
     1
  8
SLD-0
  6
Continuous
 62
   179
370
     0
100
AcDbLine
 10
88.0291181797
 20
108.150563267
 30
0.0
 11
87.5610925476
 21
107.879299991
 31
0.0
  0
LINE
  5
195
330
1B
100
AcDbEntity
 67
     1
  8
SLD-0
  6
Continuous
 62
   179
370
     0
100
AcDbLine
 10
87.0531231328
 20
110.2439092661
 30
0.0
 11
87.0685244143
 21
110.3103044166
 31
0.0
  0
LINE
  5
196
330
1B
100
AcDbEntity
 67
     1
  8
SLD-0
  6
Continuous
 62
   179
370
     0
100
AcDbLine
 10
87.0685244143
 20
110.3103044166
 30
0.0
 11
87.0856267564
 21
110.3560379429
 31
0.0
  0
LINE
  5
197
330
1B
100
AcDbEntity
 67
     1
  8
SLD-0
  6
Continuous
 62
   179
370
     0
100
AcDbLine
 10
102.7989157582
 20
101.0629870805
 30
0.0
 11
102.4194222981
 21
100.8541328709
 31
0.0
  0
LINE
  5
198
330
1B
100
AcDbEntity
 67
     1
  8
SLD-0
  6
Continuous
 62
   179
370
     0
100
AcDbLine
 10
106.2084505996
 20
107.4424383799
 30
0.0
 11
106.218779181
 21
107.0093928953
 31
0.0
  0
LINE
  5
199
330
1B
100
AcDbEntity
 67
     1
  8
SLD-0
  6
Continuous
 62
   179
370
     0
100
AcDbLine
 10
100.0924417213
 20
117.5795012419
 30
0.0
 11
100.4630615399
 21
117.3552778815
 31
0.0
  0
LINE
  5
19A
330
1B
100
AcDbEntity
 67
     1
  8
SLD-0
  6
Continuous
 62
   179
370
     0
100
AcDbLine
 10
92.8629080063
 20
117.3425192993
 30
0.0
 11
93.2327725223
 21
117.5679859753
 31
0.0
  0
LINE
  5
19B
330
1B
100
AcDbEntity
 67
     1
  8
SLD-0
  6
Continuous
 62
   179
370
     0
100
AcDbLine
 10
87.1419582832
 20
106.9773694375
 30
0.0
 11
87.1508314591
 21
107.4104472986
 31
0.0
  0
LINE
  5
19C
330
1B
100
AcDbEntity
 67
     1
  8
SLD-0
  6
Continuous
 62
   179
370
     0
100
AcDbLine
 10
90.9619571431
 20
100.8348998877
 30
0.0
 11
90.5817642598
 21
101.0424791167
 31
0.0
  0
LINE
  5
19D
330
1B
100
AcDbEntity
 67
     1
  8
SLD-0
  6
Continuous
 62
   179
370
     0
100
AcDbLine
 10
106.1480431547
 20
107.7078015763
 30
0.0
 11
106.1063403026
 21
107.7317853256
 31
0.0
  0
LINE
  5
19E
330
1B
100
AcDbEntity
 67
     1
  8
SLD-0
  6
Continuous
 62
   179
370
     0
100
AcDbLine
 10
92.6633004329
 20
117.1575232457
 30
0.0
 11
92.6633563122
 21
117.1243560548
 31
0.0
  0
LINE
  5
19F
330
1B
100
AcDbEntity
 67
     1
  8
SLD-0
  6
Continuous
 62
   179
370
     0
100
AcDbLine
 10
92.6633563122
 20
117.1243560548
 30
0.0
 11
92.6633810773
 21
117.1094157832
 31
0.0
  0
LINE
  5
1A0
330
1B
100
AcDbEntity
 67
     1
  8
SLD-0
  6
Continuous
 62
   179
370
     0
100
AcDbLine
 10
102.1596782947
 20
100.7728936027
 30
0.0
 11
102.1179758016
 21
100.796877162
 31
0.0
  0
LINE
  5
1A1
330
1B
100
AcDbEntity
 67
     1
  8
SLD-0
  6
Continuous
 62
   179
370
     0
100
AcDbLine
 10
91.2219721614
 20
100.7545332687
 30
0.0
 11
91.2635939606
 21
100.7786566798
 31
0.0
  0
LINE
  5
1A2
330
1B
100
AcDbEntity
 67
     1
  8
SLD-0
  6
Continuous
 62
   179
370
     0
100
AcDbLine
 10
100.6632884428
 20
117.1709523801
 30
0.0
 11
100.6633443222
 21
117.1377851893
 31
0.0
  0
LINE
  5
1A3
330
1B
100
AcDbEntity
 67
     1
  8
SLD-0
  6
Continuous
 62
   179
370
     0
100
AcDbLine
 10
100.6633443222
 20
117.1377851893
 30
0.0
 11
100.6633695431
 21
117.1228453585
 31
0.0
  0
LINE
  5
1A4
330
1B
100
AcDbEntity
 67
     1
  8
SLD-0
  6
Continuous
 62
   179
370
     0
100
AcDbLine
 10
87.2103480939
 20
107.6760118935
 30
0.0
 11
87.2519700095
 21
107.7001354612
 31
0.0
  0
LINE
  5
1A5
330
1B
100
AcDbEntity
 67
     1
  8
SLD-0
  6
Continuous
 62
   179
370
     0
100
AcDbLine
 10
102.9657658353
 20
116.0231649133
 30
0.0
 11
103.015565516
 21
115.9766295182
 31
0.0
  0
LINE
  5
1A6
330
1B
100
AcDbEntity
 67
     1
  8
SLD-0
  6
Continuous
 62
   179
370
     0
100
AcDbLine
 10
103.015565516
 20
115.9766295182
 30
0.0
 11
103.0466195359
 21
115.9389510008
 31
0.0
  0
LINE
  5
1A7
330
1B
100
AcDbEntity
 67
     1
  8
SLD-0
  6
Continuous
 62
   179
370
     0
100
AcDbLine
 10
100.0144269481
 20
99.3527837286
 30
0.0
 11
99.9492269173
 21
99.332924206
 31
0.0
  0
LINE
  5
1A8
330
1B
100
AcDbEntity
 67
     1
  8
SLD-0
  6
Continuous
 62
   179
370
     0
100
AcDbLine
 10
99.9492269173
 20
99.332924206
 30
0.0
 11
99.901068227
 21
99.3248687314
 31
0.0
  0
LINE
  5
1A9
330
1B
100
AcDbEntity
 67
     1
  8
SLD-0
  6
Continuous
 62
   179
370
     0
100
AcDbLine
 10
88.2627039532
 20
106.5522137555
 30
0.0
 11
88.2036357502
 21
106.5179786142
 31
0.0
  0
LINE
  5
1AA
330
1B
100
AcDbEntity
 67
     1
  8
SLD-0
  6
Continuous
 62
   179
370
     0
100
AcDbLine
 10
88.2036357502
 20
106.5179786142
 30
0.0
 11
88.1465968991
 21
106.4849192094
 31
0.0
  0
LINE
  5
1AB
330
1B
100
AcDbEntity
 67
     1
  8
SLD-0
  6
Continuous
 62
   179
370
     0
100
AcDbLine
 10
88.1465968991
 20
106.4849192094
 30
0.0
 11
88.0916470046
 21
106.4530709459
 31
0.0
  0
LINE
  5
1AC
330
1B
100
AcDbEntity
 67
     1
  8
SLD-0
  6
Continuous
 62
   179
370
     0
100
AcDbLine
 10
88.0916470046
 20
106.4530709459
 30
0.0
 11
88.0388461369
 21
106.422467948
 31
0.0
  0
LINE
  5
1AD
330
1B
100
AcDbEntity
 67
     1
  8
SLD-0
  6
Continuous
 62
   179
370
     0
100
AcDbLine
 10
88.0388461369
 20
106.422467948
 30
0.0
 11
87.9882501754
 21
106.3931429576
 31
0.0
  0
LINE
  5
1AE
330
1B
100
AcDbEntity
 67
     1
  8
SLD-0
  6
Continuous
 62
   179
370
     0
100
AcDbLine
 10
87.9882501754
 20
106.3931429576
 30
0.0
 11
87.9399131368
 21
106.3651273775
 31
0.0
  0
LINE
  5
1AF
330
1B
100
AcDbEntity
 67
     1
  8
SLD-0
  6
Continuous
 62
   179
370
     0
100
AcDbLine
 10
87.9399131368
 20
106.3651273775
 30
0.0
 11
87.8938871751
 21
106.3384512431
 31
0.0
  0
LINE
  5
1B0
330
1B
100
AcDbEntity
 67
     1
  8
SLD-0
  6
Continuous
 62
   179
370
     0
100
AcDbLine
 10
87.8938871751
 20
106.3384512431
 30
0.0
 11
87.8502216506
 21
106.313143076
 31
0.0
  0
LINE
  5
1B1
330
1B
100
AcDbEntity
 67
     1
  8
SLD-0
  6
Continuous
 62
   179
370
     0
100
AcDbLine
 10
99.163873999
 20
116.8214846957
 30
0.0
 11
99.163758515
 21
116.8897571597
 31
0.0
  0
LINE
  5
1B2
330
1B
100
AcDbEntity
 67
     1
  8
SLD-0
  6
Continuous
 62
   179
370
     0
100
AcDbLine
 10
99.163758515
 20
116.8897571597
 30
0.0
 11
99.1636486189
 21
116.9556836221
 31
0.0
  0
LINE
  5
1B3
330
1B
100
AcDbEntity
 67
     1
  8
SLD-0
  6
Continuous
 62
   179
370
     0
100
AcDbLine
 10
99.1636486189
 20
116.9556836221
 30
0.0
 11
99.1635405855
 21
117.0191960964
 31
0.0
  0
LINE
  5
1B4
330
1B
100
AcDbEntity
 67
     1
  8
SLD-0
  6
Continuous
 62
   179
370
     0
100
AcDbLine
 10
99.1635405855
 20
117.0191960964
 30
0.0
 11
99.16343814
 21
117.0802247334
 31
0.0
  0
LINE
  5
1B5
330
1B
100
AcDbEntity
 67
     1
  8
SLD-0
  6
Continuous
 62
   179
370
     0
100
AcDbLine
 10
99.16343814
 20
117.0802247334
 30
0.0
 11
99.1633412825
 21
117.1387043405
 31
0.0
  0
LINE
  5
1B6
330
1B
100
AcDbEntity
 67
     1
  8
SLD-0
  6
Continuous
 62
   179
370
     0
100
AcDbLine
 10
99.1633412825
 20
117.1387043405
 30
0.0
 11
99.1632462876
 21
117.1945734504
 31
0.0
  0
LINE
  5
1B7
330
1B
100
AcDbEntity
 67
     1
  8
SLD-0
  6
Continuous
 62
   179
370
     0
100
AcDbLine
 10
99.1632462876
 20
117.1945734504
 30
0.0
 11
99.1631568806
 21
117.2477705959
 31
0.0
  0
LINE
  5
1B8
330
1B
100
AcDbEntity
 67
     1
  8
SLD-0
  6
Continuous
 62
   179
370
     0
100
AcDbLine
 10
99.1631568806
 20
117.2477705959
 30
0.0
 11
99.1630730616
 21
117.2982398975
 31
0.0
  0
LINE
  5
1B9
330
1B
100
AcDbEntity
 67
     1
  8
SLD-0
  6
Continuous
 62
   179
370
     0
100
AcDbLine
 10
102.6067392075
 20
102.2461593027
 30
0.0
 11
102.6659210319
 21
102.2121222566
 31
0.0
  0
LINE
  5
1BA
330
1B
100
AcDbEntity
 67
     1
  8
SLD-0
  6
Continuous
 62
   179
370
     0
100
AcDbLine
 10
102.6659210319
 20
102.2121222566
 30
0.0
 11
102.7230707103
 21
102.1792549516
 31
0.0
  0
LINE
  5
1BB
330
1B
100
AcDbEntity
 67
     1
  8
SLD-0
  6
Continuous
 62
   179
370
     0
100
AcDbLine
 10
102.7230707103
 20
102.1792549516
 30
0.0
 11
102.7781267757
 21
102.147591381
 31
0.0
  0
LINE
  5
1BC
330
1B
100
AcDbEntity
 67
     1
  8
SLD-0
  6
Continuous
 62
   179
370
     0
100
AcDbLine
 10
102.7781267757
 20
102.147591381
 30
0.0
 11
102.8310296232
 21
102.1171655382
 31
0.0
  0
LINE
  5
1BD
330
1B
100
AcDbEntity
 67
     1
  8
SLD-0
  6
Continuous
 62
   179
370
     0
100
AcDbLine
 10
102.8310296232
 20
102.1171655382
 30
0.0
 11
102.8817252362
 21
102.088010485
 31
0.0
  0
LINE
  5
1BE
330
1B
100
AcDbEntity
 67
     1
  8
SLD-0
  6
Continuous
 62
   179
370
     0
100
AcDbLine
 10
102.8817252362
 20
102.088010485
 30
0.0
 11
102.9301558727
 21
102.0601574207
 31
0.0
  0
LINE
  5
1BF
330
1B
100
AcDbEntity
 67
     1
  8
SLD-0
  6
Continuous
 62
   179
370
     0
100
AcDbLine
 10
102.9301558727
 20
102.0601574207
 30
0.0
 11
102.9762693787
 21
102.0336361478
 31
0.0
  0
LINE
  5
1C0
330
1B
100
AcDbEntity
 67
     1
  8
SLD-0
  6
Continuous
 62
   179
370
     0
100
AcDbLine
 10
102.9762693787
 20
102.0336361478
 30
0.0
 11
103.0200210506
 21
102.0084746058
 31
0.0
  0
LINE
  5
1C1
330
1B
100
AcDbEntity
 67
     1
  8
SLD-0
  6
Continuous
 62
   179
370
     0
100
AcDbLine
 10
90.3574873055
 20
101.9872186969
 30
0.0
 11
90.4011523644
 21
102.0125269222
 31
0.0
  0
LINE
  5
1C2
330
1B
100
AcDbEntity
 67
     1
  8
SLD-0
  6
Continuous
 62
   179
370
     0
100
AcDbLine
 10
90.4011523644
 20
102.0125269222
 30
0.0
 11
90.447178326
 21
102.0392032604
 31
0.0
  0
LINE
  5
1C3
330
1B
100
AcDbEntity
 67
     1
  8
SLD-0
  6
Continuous
 62
   179
370
     0
100
AcDbLine
 10
90.447178326
 20
102.0392032604
 30
0.0
 11
90.4955148989
 21
102.0672188404
 31
0.0
  0
LINE
  5
1C4
330
1B
100
AcDbEntity
 67
     1
  8
SLD-0
  6
Continuous
 62
   179
370
     0
100
AcDbLine
 10
90.4955148989
 20
102.0672188404
 30
0.0
 11
90.5461117918
 21
102.09654386
 31
0.0
  0
LINE
  5
1C5
330
1B
100
AcDbEntity
 67
     1
  8
SLD-0
  6
Continuous
 62
   179
370
     0
100
AcDbLine
 10
90.5461117918
 20
102.09654386
 30
0.0
 11
90.5989121938
 21
102.1271466541
 31
0.0
  0
LINE
  5
1C6
330
1B
100
AcDbEntity
 67
     1
  8
SLD-0
  6
Continuous
 62
   179
370
     0
100
AcDbLine
 10
90.5989121938
 20
102.1271466541
 30
0.0
 11
90.6538620884
 21
102.1589950922
 31
0.0
  0
LINE
  5
1C7
330
1B
100
AcDbEntity
 67
     1
  8
SLD-0
  6
Continuous
 62
   179
370
     0
100
AcDbLine
 10
90.6538620884
 20
102.1589950922
 30
0.0
 11
90.7109009395
 21
102.1920542496
 31
0.0
  0
LINE
  5
1C8
330
1B
100
AcDbEntity
 67
     1
  8
SLD-0
  6
Continuous
 62
   179
370
     0
100
AcDbLine
 10
90.7109009395
 20
102.1920542496
 30
0.0
 11
90.7699691425
 21
102.2262896674
 31
0.0
  0
LINE
  5
1C9
330
1B
100
AcDbEntity
 67
     1
  8
SLD-0
  6
Continuous
 62
   179
370
     0
100
AcDbLine
 10
94.1630796731
 20
117.2898468184
 30
0.0
 11
94.1631644234
 21
117.2393775168
 31
0.0
  0
LINE
  5
1CA
330
1B
100
AcDbEntity
 67
     1
  8
SLD-0
  6
Continuous
 62
   179
370
     0
100
AcDbLine
 10
94.1631644234
 20
117.2393775168
 30
0.0
 11
94.1632538304
 21
117.18617944
 31
0.0
  0
LINE
  5
1CB
330
1B
100
AcDbEntity
 67
     1
  8
SLD-0
  6
Continuous
 62
   179
370
     0
100
AcDbLine
 10
94.1632538304
 20
117.18617944
 30
0.0
 11
94.163347894
 21
117.1303112614
 31
0.0
  0
LINE
  5
1CC
330
1B
100
AcDbEntity
 67
     1
  8
SLD-0
  6
Continuous
 62
   179
370
     0
100
AcDbLine
 10
94.163347894
 20
117.1303112614
 30
0.0
 11
94.1634456829
 21
117.071830723
 31
0.0
  0
LINE
  5
1CD
330
1B
100
AcDbEntity
 67
     1
  8
SLD-0
  6
Continuous
 62
   179
370
     0
100
AcDbLine
 10
94.1634456829
 20
117.071830723
 30
0.0
 11
94.1635481283
 21
117.0108030173
 31
0.0
  0
LINE
  5
1CE
330
1B
100
AcDbEntity
 67
     1
  8
SLD-0
  6
Continuous
 62
   179
370
     0
100
AcDbLine
 10
94.1635481283
 20
117.0108030173
 30
0.0
 11
94.1636552304
 21
116.947290543
 31
0.0
  0
LINE
  5
1CF
330
1B
100
AcDbEntity
 67
     1
  8
SLD-0
  6
Continuous
 62
   179
370
     0
100
AcDbLine
 10
94.1636552304
 20
116.947290543
 30
0.0
 11
94.1637660578
 21
116.8813631493
 31
0.0
  0
LINE
  5
1D0
330
1B
100
AcDbEntity
 67
     1
  8
SLD-0
  6
Continuous
 62
   179
370
     0
100
AcDbLine
 10
94.1637660578
 20
116.8813631493
 30
0.0
 11
94.1638806105
 21
116.8130916166
 31
0.0
  0
LINE
  5
1D1
330
1B
100
AcDbEntity
 67
     1
  8
SLD-0
  6
Continuous
 62
   179
370
     0
100
AcDbLine
 10
105.5127487624
 20
106.3427921261
 30
0.0
 11
105.4689970905
 21
106.3679535807
 31
0.0
  0
LINE
  5
1D2
330
1B
100
AcDbEntity
 67
     1
  8
SLD-0
  6
Continuous
 62
   179
370
     0
100
AcDbLine
 10
105.4689970905
 20
106.3679535807
 30
0.0
 11
105.4228835845
 21
106.3944750574
 31
0.0
  0
LINE
  5
1D3
330
1B
100
AcDbEntity
 67
     1
  8
SLD-0
  6
Continuous
 62
   179
370
     0
100
AcDbLine
 10
105.4228835845
 20
106.3944750574
 30
0.0
 11
105.374452948
 21
106.4223281799
 31
0.0
  0
LINE
  5
1D4
330
1B
100
AcDbEntity
 67
     1
  8
SLD-0
  6
Continuous
 62
   179
370
     0
100
AcDbLine
 10
105.374452948
 20
106.4223281799
 30
0.0
 11
105.323757335
 21
106.4514831457
 31
0.0
  0
LINE
  5
1D5
330
1B
100
AcDbEntity
 67
     1
  8
SLD-0
  6
Continuous
 62
   179
370
     0
100
AcDbLine
 10
105.323757335
 20
106.4514831457
 30
0.0
 11
105.2708544875
 21
106.4819086976
 31
0.0
  0
LINE
  5
1D6
330
1B
100
AcDbEntity
 67
     1
  8
SLD-0
  6
Continuous
 62
   179
370
     0
100
AcDbLine
 10
105.2708544875
 20
106.4819086976
 30
0.0
 11
105.2157984221
 21
106.5135722972
 31
0.0
  0
LINE
  5
1D7
330
1B
100
AcDbEntity
 67
     1
  8
SLD-0
  6
Continuous
 62
   179
370
     0
100
AcDbLine
 10
105.2157984221
 20
106.5135722972
 30
0.0
 11
105.1586487437
 21
106.5464400097
 31
0.0
  0
LINE
  5
1D8
330
1B
100
AcDbEntity
 67
     1
  8
SLD-0
  6
Continuous
 62
   179
370
     0
100
AcDbLine
 10
105.1586487437
 20
106.5464400097
 30
0.0
 11
105.0994669193
 21
106.5804766483
 31
0.0
  0
LINE
  5
1D9
330
1B
100
AcDbEntity
 67
     1
  8
SLD-0
  6
Continuous
 62
   179
370
     0
100
AcDbLine
 10
94.1630796731
 20
117.2898468184
 30
0.0
 11
99.1630730616
 21
117.2982398975
 31
0.0
  0
LINE
  5
1DA
330
1B
100
AcDbEntity
 67
     1
  8
SLD-0
  6
Continuous
 62
   179
370
     0
100
AcDbLine
 10
105.5127487624
 20
106.3427921261
 30
0.0
 11
103.0200210506
 21
102.0084746058
 31
0.0
  0
LINE
  5
1DB
330
1B
100
AcDbEntity
 67
     1
  8
SLD-0
  6
Continuous
 62
   179
370
     0
100
AcDbLine
 10
90.3574873055
 20
101.9872186969
 30
0.0
 11
87.8502216506
 21
106.313143076
 31
0.0
  0
LINE
  5
1DC
330
1B
100
AcDbEntity
 67
     1
  8
SLD-0
  6
Continuous
 62
   179
370
     0
100
AcDbLine
 10
89.7723182826
 20
101.648060445
 30
0.0
 11
90.3574873055
 21
101.9872186969
 31
0.0
  0
LINE
  5
1DD
330
1B
100
AcDbEntity
 67
     1
  8
SLD-0
  6
Continuous
 62
   179
370
     0
100
AcDbLine
 10
94.1619446731
 20
117.9661971565
 30
0.0
 11
94.1630796731
 21
117.2898468184
 31
0.0
  0
LINE
  5
1DE
330
1B
100
AcDbEntity
 67
     1
  8
SLD-0
  6
Continuous
 62
   179
370
     0
100
AcDbLine
 10
106.0990520761
 20
106.0056006187
 30
0.0
 11
105.5127487624
 21
106.3427921261
 31
0.0
  0
LINE
  5
1DF
330
1B
100
AcDbEntity
 67
     1
  8
SLD-0
  6
Continuous
 62
   179
370
     0
100
AcDbLine
 10
99.1630730616
 20
117.2982398975
 30
0.0
 11
99.1619368479
 21
117.9745906298
 31
0.0
  0
LINE
  5
1E0
330
1B
100
AcDbEntity
 67
     1
  8
SLD-0
  6
Continuous
 62
   179
370
     0
100
AcDbLine
 10
87.8502216506
 20
106.313143076
 30
0.0
 11
87.2650530505
 21
105.973984731
 31
0.0
  0
LINE
  5
1E1
330
1B
100
AcDbEntity
 67
     1
  8
SLD-0
  6
Continuous
 62
   179
370
     0
100
AcDbLine
 10
103.0200210506
 20
102.0084746058
 30
0.0
 11
103.6063240016
 21
101.6712827484
 31
0.0
  0
LINE
  5
1E2
330
1B
100
AcDbEntity
 67
     1
  8
SLD-0
  6
Continuous
 62
   179
370
     0
100
AcDbLine
 10
115.6776720724
 20
128.4208514134
 30
0.0
 11
115.6776720724
 21
88.6590529571
 31
0.0
  0
LINE
  5
1E3
330
1B
100
AcDbEntity
 67
     1
  8
SLD-0
  6
Continuous
 62
   179
370
     0
100
AcDbLine
 10
111.7524723039
 20
85.539953163
 30
0.0
 11
81.6027723207
 21
85.5399522489
 31
0.0
  0
LINE
  5
1E4
330
1B
100
AcDbEntity
 67
     1
  8
SLD-0
  6
Continuous
 62
   179
370
     0
100
AcDbLine
 10
77.677771836
 20
88.6590525741
 30
0.0
 11
77.677771836
 21
128.4208518641
 31
0.0
  0
LINE
  5
1E5
330
1B
100
AcDbEntity
 67
     1
  8
SLD-0
  6
Continuous
 62
   179
370
     0
100
AcDbLine
 10
81.6027723594
 20
131.5399511535
 30
0.0
 11
111.7524723593
 21
131.5399511535
 31
0.0
  0
LINE
  5
1E6
330
1B
100
AcDbEntity
 67
     1
  8
SLD-0
  6
Continuous
 62
   179
370
     0
100
AcDbLine
 10
82.6777717728
 20
144.039952867
 30
0.0
 11
82.6777717728
 21
137.0399525741
 31
0.0
  0
LINE
  5
1E7
330
1B
100
AcDbEntity
 67
     1
  8
SLD-0
  6
Continuous
 62
   179
370
     0
100
AcDbLine
 10
110.6777724177
 20
144.039952867
 30
0.0
 11
82.6777717728
 21
144.039952867
 31
0.0
  0
LINE
  5
1E8
330
1B
100
AcDbEntity
 67
     1
  8
SLD-0
  6
Continuous
 62
   179
370
     0
100
AcDbLine
 10
110.6777724177
 20
137.0399525741
 30
0.0
 11
110.6777724177
 21
144.039952867
 31
0.0
  0
LINE
  5
1E9
330
1B
100
AcDbEntity
 67
     1
  8
SLD-0
  6
Continuous
 62
   179
370
     0
100
AcDbLine
 10
107.6777718494
 20
131.5399517494
 30
0.0
 11
107.6777718494
 21
134.0399525741
 31
0.0
  0
LINE
  5
1EA
330
1B
100
AcDbEntity
 67
     1
  8
SLD-0
  6
Continuous
 62
   179
370
     0
100
AcDbLine
 10
85.6777717728
 20
134.0399525741
 30
0.0
 11
85.6777719686
 21
131.5399517494
 31
0.0
  0
LINE
  5
1EB
330
1B
100
AcDbEntity
 67
     1
  8
SLD-0
  6
Continuous
 62
   179
370
     0
100
AcDbLine
 10
107.6777718494
 20
131.5399517494
 30
0.0
 11
85.6777719686
 21
131.5399517494
 31
0.0
  0
LINE
  5
1EC
330
1B
100
AcDbEntity
 67
     1
  8
SLD-0
  6
Continuous
 62
   179
370
     0
100
AcDbLine
 10
50.6777718827
 20
131.0399525987
 30
0.0
 11
50.6777718827
 21
79.0399533885
 31
0.0
  0
LINE
  5
1ED
330
1B
100
AcDbEntity
 67
     1
  8
SLD-0
  6
Continuous
 62
   179
370
     0
100
AcDbLine
 10
77.6777718845
 20
131.0399525987
 30
0.0
 11
50.6777718827
 21
131.0399525987
 31
0.0
  0
LINE
  5
1EE
330
1B
100
AcDbEntity
 67
     1
  8
SLD-0
  6
Continuous
 62
   179
370
     0
100
AcDbLine
 10
77.6777718845
 20
88.5399521517
 30
0.0
 11
77.6777718845
 21
131.0399525987
 31
0.0
  0
LINE
  5
1EF
330
1B
100
AcDbEntity
 67
     1
  8
SLD-0
  6
Continuous
 62
   179
370
     0
100
AcDbLine
 10
91.6777720838
 20
80.0399516898
 30
0.0
 11
91.6777720838
 21
85.5399516843
 31
0.0
  0
LINE
  5
1F0
330
1B
100
AcDbEntity
 67
     1
  8
SLD-0
  6
Continuous
 62
   179
370
     0
100
AcDbLine
 10
91.6777720838
 20
85.5399516843
 30
0.0
 11
80.6777718602
 21
85.5399525984
 31
0.0
  0
LINE
  5
1F1
330
1B
100
AcDbEntity
 67
     1
  8
SLD-0
  6
Continuous
 62
   179
370
     0
100
AcDbLine
 10
50.6777718827
 20
79.0399533885
 30
0.0
 11
90.6777719199
 21
79.0399533885
 31
0.0
  0
LINE
  5
1F2
330
1B
100
AcDbEntity
 67
     1
  8
SLD-0
  6
Continuous
 62
   179
370
     0
100
AcDbLine
 10
90.6777719199
 20
79.0399533885
 30
0.0
 11
91.6777720838
 21
80.0399516898
 31
0.0
  0
LINE
  5
1F3
330
1B
100
AcDbEntity
 67
     1
  8
SLD-0
  6
Continuous
 62
   179
370
     0
100
AcDbLine
 10
115.6777713611
 20
131.0399525987
 30
0.0
 11
115.6777718359
 21
88.5399525741
 31
0.0
  0
LINE
  5
1F4
330
1B
100
AcDbEntity
 67
     1
  8
SLD-0
  6
Continuous
 62
   179
370
     0
100
AcDbLine
 10
142.6777701988
 20
131.0399525987
 30
0.0
 11
115.6777713611
 21
131.0399525987
 31
0.0
  0
LINE
  5
1F5
330
1B
100
AcDbEntity
 67
     1
  8
SLD-0
  6
Continuous
 62
   179
370
     0
100
AcDbLine
 10
101.677770929
 20
80.0399516898
 30
0.0
 11
102.6777710929
 21
79.0399533885
 31
0.0
  0
LINE
  5
1F6
330
1B
100
AcDbEntity
 67
     1
  8
SLD-0
  6
Continuous
 62
   179
370
     0
100
AcDbLine
 10
101.677770929
 20
85.53995166
 30
0.0
 11
101.677770929
 21
80.0399516898
 31
0.0
  0
LINE
  5
1F7
330
1B
100
AcDbEntity
 67
     1
  8
SLD-0
  6
Continuous
 62
   179
370
     0
100
AcDbLine
 10
142.6777701988
 20
79.0399533885
 30
0.0
 11
142.6777701988
 21
131.0399525987
 31
0.0
  0
LINE
  5
1F8
330
1B
100
AcDbEntity
 67
     1
  8
SLD-0
  6
Continuous
 62
   179
370
     0
100
AcDbLine
 10
112.6777718359
 20
85.5399525741
 30
0.0
 11
101.677770929
 21
85.53995166
 31
0.0
  0
LINE
  5
1F9
330
1B
100
AcDbEntity
 67
     1
  8
SLD-0
  6
Continuous
 62
   179
370
     0
100
AcDbLine
 10
102.6777710929
 20
79.0399533885
 30
0.0
 11
142.6777701988
 21
79.0399533885
 31
0.0
  0
LINE
  5
1FA
330
1B
100
AcDbEntity
 67
     1
  8
SLD-0
  6
Continuous
 62
   179
370
     0
100
AcDbLine
 10
112.4890495255
 20
131.0399525987
 30
0.0
 11
115.6777713611
 21
131.0399525987
 31
0.0
  0
LINE
  5
1FB
330
1B
100
AcDbEntity
 67
     1
  8
SLD-0
  6
Continuous
 62
   179
370
     0
100
AcDbLine
 10
80.8662358893
 20
131.0399525987
 30
0.0
 11
77.6777718845
 21
131.0399525987
 31
0.0
  0
LINE
  5
1FC
330
1B
100
AcDbEntity
 67
     1
  8
SLD-0
  6
Continuous
 62
   179
370
     0
100
AcDbLine
 10
77.1777718026
 20
144.039952867
 30
0.0
 11
77.1777718026
 21
134.0399525741
 31
0.0
  0
LINE
  5
1FD
330
1B
100
AcDbEntity
 67
     1
  8
SLD-0
  6
Continuous
 62
   179
370
     0
100
AcDbLine
 10
82.6777717728
 20
144.039952867
 30
0.0
 11
77.1777718026
 21
144.039952867
 31
0.0
  0
LINE
  5
1FE
330
1B
100
AcDbEntity
 67
     1
  8
SLD-0
  6
Continuous
 62
   179
370
     0
100
AcDbLine
 10
116.1777723879
 20
134.0399530905
 30
0.0
 11
116.1777723879
 21
144.039952867
 31
0.0
  0
LINE
  5
1FF
330
1B
100
AcDbEntity
 67
     1
  8
SLD-0
  6
Continuous
 62
   179
370
     0
100
AcDbLine
 10
116.1777723879
 20
144.039952867
 30
0.0
 11
110.6777724177
 21
144.039952867
 31
0.0
  0
LINE
  5
200
330
1B
100
AcDbEntity
 67
     1
  8
SLD-0
  6
Continuous
 62
   179
370
     0
100
AcDbLine
 10
136.1777719274
 20
144.039952867
 30
0.0
 11
136.1777719274
 21
134.0399530905
 31
0.0
  0
LINE
  5
201
330
1B
100
AcDbEntity
 67
     1
  8
SLD-0
  6
Continuous
 62
   179
370
     0
100
AcDbLine
 10
142.6777701988
 20
144.039952867
 30
0.0
 11
136.1777719274
 21
144.039952867
 31
0.0
  0
LINE
  5
202
330
1B
100
AcDbEntity
 67
     1
  8
SLD-0
  6
Continuous
 62
   179
370
     0
100
AcDbLine
 10
142.6777701988
 20
144.039952867
 30
0.0
 11
142.6777701988
 21
131.0399525987
 31
0.0
  0
LINE
  5
203
330
1B
100
AcDbEntity
 67
     1
  8
SLD-0
  6
Continuous
 62
   179
370
     0
100
AcDbLine
 10
57.1777720168
 20
144.039952867
 30
0.0
 11
50.6777718827
 21
144.039952867
 31
0.0
  0
LINE
  5
204
330
1B
100
AcDbEntity
 67
     1
  8
SLD-0
  6
Continuous
 62
   179
370
     0
100
AcDbLine
 10
57.1777718359
 20
134.0399525741
 30
0.0
 11
57.1777720168
 21
144.039952867
 31
0.0
  0
LINE
  5
205
330
1B
100
AcDbEntity
 67
     1
  8
SLD-0
  6
Continuous
 62
   179
370
     0
100
AcDbLine
 10
50.6777718827
 20
131.0399525987
 30
0.0
 11
50.6777718827
 21
144.039952867
 31
0.0
  0
LINE
  5
206
330
1B
100
AcDbEntity
 67
     1
  8
SLD-0
  6
Continuous
 62
   179
370
     0
100
AcDbLine
 10
102.6777710929
 20
79.0399533885
 30
0.0
 11
90.6777719199
 21
79.0399533885
 31
0.0
  0
LINE
  5
207
330
1B
100
AcDbEntity
 67
     1
  8
SLD-0
  6
Continuous
 62
     8
370
     0
100
AcDbLine
 10
96.6777719721
 20
159.1399514305
 30
0.0
 11
92.7277718359
 21
159.1399525741
 31
0.0
  0
LINE
  5
208
330
1B
100
AcDbEntity
 67
     1
  8
SLD-0
  6
Continuous
 62
     8
370
     0
100
AcDbLine
 10
100.6277722218
 20
159.1399525741
 30
0.0
 11
96.6777719721
 21
159.1399514305
 31
0.0
  0
LINE
  5
209
330
1B
100
AcDbEntity
 67
     1
  8
SLD-0
  6
Continuous
 62
   179
370
     0
100
AcDbLine
 10
40.506351249
 20
126.2211777066
 30
0.0
 11
40.6777718359
 21
123.1200835478
 31
0.0
  0
LINE
  5
20A
330
1B
100
AcDbEntity
 67
     1
  8
SLD-0
  6
Continuous
 62
   179
370
     0
100
AcDbLine
 10
40.6777718359
 20
123.1200835478
 30
0.0
 11
38.9787711071
 21
125.7200001855
 31
0.0
  0
LINE
  5
20B
330
1B
100
AcDbEntity
 67
     1
  8
SLD-0
  6
Continuous
 62
   179
370
     0
100
AcDbLine
 10
40.6777718359
 20
123.1200835478
 30
0.0
 11
39.742561178
 21
125.970588946
 31
0.0
  0
LINE
  5
20C
330
1B
100
AcDbEntity
 67
     1
  8
SLD-0
  6
Continuous
 62
   179
370
     0
100
AcDbLine
 10
39.742561178
 20
125.970588946
 30
0.0
 11
30.4199762347
 21
154.3856615111
 31
0.0
  0
LINE
  5
20D
330
1B
100
AcDbEntity
 67
     1
  8
SLD-0
  6
Continuous
 62
   179
370
     0
100
AcDbLine
 10
151.1021489609
 20
126.519986957
 30
0.0
 11
148.9149842768
 21
124.3148836388
 31
0.0
  0
LINE
  5
20E
330
1B
100
AcDbEntity
 67
     1
  8
SLD-0
  6
Continuous
 62
   179
370
     0
100
AcDbLine
 10
148.9149842768
 20
124.3148836388
 30
0.0
 11
149.7065738748
 21
127.3181411881
 31
0.0
  0
LINE
  5
20F
330
1B
100
AcDbEntity
 67
     1
  8
SLD-0
  6
Continuous
 62
   179
370
     0
100
AcDbLine
 10
148.9149842768
 20
124.3148836388
 30
0.0
 11
150.4043614179
 21
126.9190640726
 31
0.0
  0
LINE
  5
210
330
1B
100
AcDbEntity
 67
     1
  8
SLD-0
  6
Continuous
 62
   179
370
     0
100
AcDbLine
 10
150.4043614179
 20
126.9190640726
 30
0.0
 11
170.8697329208
 21
162.7028280147
 31
0.0
  0
LINE
  5
211
330
1B
100
AcDbEntity
 67
     1
  8
SLD-0
  6
Continuous
 62
   179
370
     0
100
AcDbLine
 10
152.6777718359
 20
96.3967199626
 30
0.0
 11
157.9083994705
 21
96.3967199626
 31
0.0
  0
LINE
  5
212
330
1B
100
AcDbEntity
 67
     1
  8
SLD-0
  6
Continuous
 62
   179
370
     0
100
AcDbLine
 10
157.9083994705
 20
96.3967199626
 30
0.0
 11
157.9061234796
 21
67.2985444442
 31
0.0
  0
LINE
  5
213
330
1B
100
AcDbEntity
 67
     1
  8
SLD-0
  6
Continuous
 62
   179
370
     0
100
AcDbLine
 10
40.6777718359
 20
96.1098501752
 30
0.0
 11
36.932031445
 21
96.1098501752
 31
0.0
  0
LINE
  5
214
330
1B
100
AcDbEntity
 67
     1
  8
SLD-0
  6
Continuous
 62
   179
370
     0
100
AcDbLine
 10
36.932031445
 20
96.1098501752
 30
0.0
 11
36.932031445
 21
68.2602091116
 31
0.0
  0
LINE
  5
215
330
1B
100
AcDbEntity
 67
     1
  8
SLD-0
  6
Continuous
 62
   179
370
     0
100
AcDbLine
 10
36.932031445
 20
68.2602091116
 30
0.0
 11
35.2918439925
 21
68.2439828695
 31
0.0
  0
LINE
  5
216
330
1B
100
AcDbEntity
 67
     1
  8
SLD-0
  6
Continuous
 62
   179
370
     0
100
AcDbLine
 10
130.2277717903
 20
223.7083586731
 30
0.0
 11
130.2277717903
 21
221.487782044
 31
0.0
  0
LINE
  5
217
330
1B
100
AcDbEntity
 67
     1
  8
SLD-0
  6
Continuous
 62
   179
370
     0
100
AcDbLine
 10
138.1277714088
 20
221.487782044
 30
0.0
 11
138.1277714088
 21
223.7083586731
 31
0.0
  0
LINE
  5
218
330
1B
100
AcDbEntity
 67
     1
  8
SLD-0
  6
Continuous
 62
   179
370
     0
100
AcDbLine
 10
130.6777719572
 20
217.1562808432
 30
0.0
 11
131.462061049
 21
212.7083587327
 31
0.0
  0
LINE
  5
219
330
1B
100
AcDbEntity
 67
     1
  8
SLD-0
  6
Continuous
 62
   179
370
     0
100
AcDbLine
 10
136.8934821501
 20
212.7083587327
 30
0.0
 11
137.6777712419
 21
217.1562808432
 31
0.0
  0
LINE
  5
21A
330
1B
100
AcDbEntity
 67
     1
  8
SLD-0
  6
Continuous
 62
   179
370
     0
100
AcDbLine
 10
55.2277725353
 20
223.7083586731
 30
0.0
 11
55.2277725353
 21
221.487782044
 31
0.0
  0
LINE
  5
21B
330
1B
100
AcDbEntity
 67
     1
  8
SLD-0
  6
Continuous
 62
   179
370
     0
100
AcDbLine
 10
63.1277721539
 20
221.487782044
 30
0.0
 11
63.1277721539
 21
223.7083586731
 31
0.0
  0
LINE
  5
21C
330
1B
100
AcDbEntity
 67
     1
  8
SLD-0
  6
Continuous
 62
   179
370
     0
100
AcDbLine
 10
55.6777727022
 20
217.1562808432
 30
0.0
 11
56.4620599314
 21
212.7083587327
 31
0.0
  0
LINE
  5
21D
330
1B
100
AcDbEntity
 67
     1
  8
SLD-0
  6
Continuous
 62
   179
370
     0
100
AcDbLine
 10
61.8934828952
 20
212.7083587327
 30
0.0
 11
62.677771987
 21
217.1562808432
 31
0.0
  0
LINE
  5
21E
330
1B
100
AcDbEntity
 67
     1
  8
SLD-0
  6
Continuous
 62
   179
370
     0
100
AcDbLine
 10
46.1777720764
 20
236.0333582253
 30
0.0
 11
45.1777700498
 21
235.2083582298
 31
0.0
  0
LINE
  5
21F
330
1B
100
AcDbEntity
 67
     1
  8
SLD-0
  6
Continuous
 62
   179
370
     0
100
AcDbLine
 10
45.1777700498
 20
231.2083580398
 30
0.0
 11
46.1777720764
 21
230.3833580442
 31
0.0
  0
LINE
  5
220
330
1B
100
AcDbEntity
 67
     1
  8
SLD-0
  6
Continuous
 62
   179
370
     0
100
AcDbLine
 10
43.1777734473
 20
236.0333582253
 30
0.0
 11
42.1777714207
 21
235.2083582298
 31
0.0
  0
LINE
  5
221
330
1B
100
AcDbEntity
 67
     1
  8
SLD-0
  6
Continuous
 62
   179
370
     0
100
AcDbLine
 10
42.1777714207
 20
231.2083580398
 30
0.0
 11
43.1777734473
 21
230.3833580442
 31
0.0
  0
LINE
  5
222
330
1B
100
AcDbEntity
 67
     1
  8
SLD-0
  6
Continuous
 62
   179
370
     0
100
AcDbLine
 10
45.1777700498
 20
235.2083582298
 30
0.0
 11
43.1777734473
 21
235.2083582298
 31
0.0
  0
LINE
  5
223
330
1B
100
AcDbEntity
 67
     1
  8
SLD-0
  6
Continuous
 62
   179
370
     0
100
AcDbLine
 10
43.1777734473
 20
231.2083580398
 30
0.0
 11
45.1777700498
 21
231.2083580398
 31
0.0
  0
LINE
  5
224
330
1B
100
AcDbEntity
 67
     1
  8
SLD-0
  6
Continuous
 62
   179
370
     0
100
AcDbLine
 10
47.6777713909
 20
235.2083582298
 30
0.0
 11
46.1777720764
 21
235.2083582298
 31
0.0
  0
LINE
  5
225
330
1B
100
AcDbEntity
 67
     1
  8
SLD-0
  6
Continuous
 62
   179
370
     0
100
AcDbLine
 10
46.1777720764
 20
231.2083580398
 30
0.0
 11
47.6777713909
 21
231.2083580398
 31
0.0
  0
LINE
  5
226
330
1B
100
AcDbEntity
 67
     1
  8
SLD-0
  6
Continuous
 62
   179
370
     0
100
AcDbLine
 10
42.1777714207
 20
235.2083582298
 30
0.0
 11
40.6777721062
 21
235.2083582298
 31
0.0
  0
LINE
  5
227
330
1B
100
AcDbEntity
 67
     1
  8
SLD-0
  6
Continuous
 62
   179
370
     0
100
AcDbLine
 10
40.6777721062
 20
231.2083580398
 30
0.0
 11
42.1777714207
 21
231.2083580398
 31
0.0
  0
LINE
  5
228
330
1B
100
AcDbEntity
 67
     1
  8
SLD-0
  6
Continuous
 62
   179
370
     0
100
AcDbLine
 10
147.1777718678
 20
230.3833580442
 30
0.0
 11
148.1777738943
 21
231.2083580398
 31
0.0
  0
LINE
  5
229
330
1B
100
AcDbEntity
 67
     1
  8
SLD-0
  6
Continuous
 62
   179
370
     0
100
AcDbLine
 10
148.1777738943
 20
235.2083582298
 30
0.0
 11
147.1777718678
 21
236.0333582253
 31
0.0
  0
LINE
  5
22A
330
1B
100
AcDbEntity
 67
     1
  8
SLD-0
  6
Continuous
 62
   179
370
     0
100
AcDbLine
 10
150.1777704969
 20
230.3833580442
 30
0.0
 11
151.1777725234
 21
231.2083580398
 31
0.0
  0
LINE
  5
22B
330
1B
100
AcDbEntity
 67
     1
  8
SLD-0
  6
Continuous
 62
   179
370
     0
100
AcDbLine
 10
151.1777725234
 20
235.2083582298
 30
0.0
 11
150.1777704969
 21
236.0333582253
 31
0.0
  0
LINE
  5
22C
330
1B
100
AcDbEntity
 67
     1
  8
SLD-0
  6
Continuous
 62
   179
370
     0
100
AcDbLine
 10
148.1777738943
 20
231.2083580398
 30
0.0
 11
150.1777704969
 21
231.2083580398
 31
0.0
  0
LINE
  5
22D
330
1B
100
AcDbEntity
 67
     1
  8
SLD-0
  6
Continuous
 62
   179
370
     0
100
AcDbLine
 10
150.1777704969
 20
235.2083582298
 30
0.0
 11
148.1777738943
 21
235.2083582298
 31
0.0
  0
LINE
  5
22E
330
1B
100
AcDbEntity
 67
     1
  8
SLD-0
  6
Continuous
 62
   179
370
     0
100
AcDbLine
 10
145.6777688279
 20
231.2083580398
 30
0.0
 11
147.1777718678
 21
231.2083580398
 31
0.0
  0
LINE
  5
22F
330
1B
100
AcDbEntity
 67
     1
  8
SLD-0
  6
Continuous
 62
   179
370
     0
100
AcDbLine
 10
147.1777718678
 20
235.2083582298
 30
0.0
 11
145.6777688279
 21
235.2083582298
 31
0.0
  0
LINE
  5
230
330
1B
100
AcDbEntity
 67
     1
  8
SLD-0
  6
Continuous
 62
   179
370
     0
100
AcDbLine
 10
151.1777725234
 20
231.2083580398
 30
0.0
 11
152.6777681127
 21
231.2083580398
 31
0.0
  0
LINE
  5
231
330
1B
100
AcDbEntity
 67
     1
  8
SLD-0
  6
Continuous
 62
   179
370
     0
100
AcDbLine
 10
152.6777681127
 20
235.2083582298
 30
0.0
 11
151.1777725234
 21
235.2083582298
 31
0.0
  0
LINE
  5
232
330
1B
100
AcDbEntity
 67
     1
  8
SLD-0
  6
Continuous
 62
   179
370
     0
100
AcDbLine
 10
80.7662052601
 20
214.4211000629
 30
0.0
 11
81.0782602919
 21
213.7276279607
 31
0.0
  0
LINE
  5
233
330
1B
100
AcDbEntity
 67
     1
  8
SLD-0
  6
Continuous
 62
   179
370
     0
100
AcDbLine
 10
81.0782602919
 20
213.7276279607
 30
0.0
 11
81.1777718471
 21
213.5624262371
 31
0.0
  0
LINE
  5
234
330
1B
100
AcDbEntity
 67
     1
  8
SLD-0
  6
Continuous
 62
   179
370
     0
100
AcDbLine
 10
105.8183565899
 20
208.9083577373
 30
0.0
 11
106.1183579429
 21
209.2083590904
 31
0.0
  0
LINE
  5
235
330
1B
100
AcDbEntity
 67
     1
  8
SLD-0
  6
Continuous
 62
   179
370
     0
100
AcDbLine
 10
87.2371864669
 20
209.2083590903
 30
0.0
 11
87.5371864229
 21
208.9083577373
 31
0.0
  0
LINE
  5
236
330
1B
100
AcDbEntity
 67
     1
  8
SLD-0
  6
Continuous
 62
   179
370
     0
100
AcDbLine
 10
112.1777717829
 20
210.2083592542
 30
0.0
 11
112.1777717829
 21
223.7083586731
 31
0.0
  0
LINE
  5
237
330
1B
100
AcDbEntity
 67
     1
  8
SLD-0
  6
Continuous
 62
   179
370
     0
100
AcDbLine
 10
81.1777718471
 20
223.7083586731
 30
0.0
 11
81.1777718471
 21
210.2083592542
 31
0.0
  0
LINE
  5
238
330
1B
100
AcDbEntity
 67
     1
  8
SLD-0
  6
Continuous
 62
   179
370
     0
100
AcDbLine
 10
97.3994594231
 20
231.4583585464
 30
0.0
 11
98.1211468741
 21
230.2083588072
 31
0.0
  0
LINE
  5
239
330
1B
100
AcDbEntity
 67
     1
  8
SLD-0
  6
Continuous
 62
   179
370
     0
100
AcDbLine
 10
95.9560835898
 20
231.4583585464
 30
0.0
 11
97.3994594231
 21
231.4583585464
 31
0.0
  0
LINE
  5
23A
330
1B
100
AcDbEntity
 67
     1
  8
SLD-0
  6
Continuous
 62
   179
370
     0
100
AcDbLine
 10
95.2343961387
 20
230.2083588072
 30
0.0
 11
95.9560835898
 21
231.4583585464
 31
0.0
  0
LINE
  5
23B
330
1B
100
AcDbEntity
 67
     1
  8
SLD-0
  6
Continuous
 62
   179
370
     0
100
AcDbLine
 10
95.9560835898
 20
228.9583581366
 30
0.0
 11
95.2343961387
 21
230.2083588072
 31
0.0
  0
LINE
  5
23C
330
1B
100
AcDbEntity
 67
     1
  8
SLD-0
  6
Continuous
 62
   179
370
     0
100
AcDbLine
 10
97.3994594231
 20
228.9583581366
 30
0.0
 11
95.9560835898
 21
228.9583581366
 31
0.0
  0
LINE
  5
23D
330
1B
100
AcDbEntity
 67
     1
  8
SLD-0
  6
Continuous
 62
   179
370
     0
100
AcDbLine
 10
98.1211468741
 20
230.2083588072
 30
0.0
 11
97.3994594231
 21
228.9583581366
 31
0.0
  0
LINE
  5
23E
330
1B
100
AcDbEntity
 67
     1
  8
SLD-0
  6
Continuous
 62
   179
370
     0
100
AcDbLine
 10
97.3994594231
 20
244.458358349
 30
0.0
 11
98.1211468741
 21
243.2083583769
 31
0.0
  0
LINE
  5
23F
330
1B
100
AcDbEntity
 67
     1
  8
SLD-0
  6
Continuous
 62
   179
370
     0
100
AcDbLine
 10
95.9560835898
 20
244.458358349
 30
0.0
 11
97.3994594231
 21
244.458358349
 31
0.0
  0
LINE
  5
240
330
1B
100
AcDbEntity
 67
     1
  8
SLD-0
  6
Continuous
 62
   179
370
     0
100
AcDbLine
 10
95.2343961387
 20
243.2083583769
 30
0.0
 11
95.9560835898
 21
244.458358349
 31
0.0
  0
LINE
  5
241
330
1B
100
AcDbEntity
 67
     1
  8
SLD-0
  6
Continuous
 62
   179
370
     0
100
AcDbLine
 10
95.9560835898
 20
241.9583584049
 30
0.0
 11
95.2343961387
 21
243.2083583769
 31
0.0
  0
LINE
  5
242
330
1B
100
AcDbEntity
 67
     1
  8
SLD-0
  6
Continuous
 62
   179
370
     0
100
AcDbLine
 10
97.3994594231
 20
241.9583584049
 30
0.0
 11
95.9560835898
 21
241.9583584049
 31
0.0
  0
LINE
  5
243
330
1B
100
AcDbEntity
 67
     1
  8
SLD-0
  6
Continuous
 62
   179
370
     0
100
AcDbLine
 10
98.1211468741
 20
243.2083583769
 30
0.0
 11
97.3994594231
 21
241.9583584049
 31
0.0
  0
LINE
  5
244
330
1B
100
AcDbEntity
 67
     1
  8
SLD-0
  6
Continuous
 62
   179
370
     0
100
AcDbLine
 10
97.383744286
 20
230.6083581277
 30
0.0
 11
95.9840055719
 21
230.6083581277
 31
0.0
  0
LINE
  5
245
330
1B
100
AcDbEntity
 67
     1
  8
SLD-0
  6
Continuous
 62
   179
370
     0
100
AcDbLine
 10
97.5419089362
 20
230.4083584674
 30
0.0
 11
95.9339982062
 21
230.4083584674
 31
0.0
  0
LINE
  5
246
330
1B
100
AcDbEntity
 67
     1
  8
SLD-0
  6
Continuous
 62
   179
370
     0
100
AcDbLine
 10
137.6777712419
 20
219.7083580174
 30
0.0
 11
137.6777712419
 21
220.7083581813
 31
0.0
  0
LINE
  5
247
330
1B
100
AcDbEntity
 67
     1
  8
SLD-0
  6
Continuous
 62
   179
370
     0
100
AcDbLine
 10
130.6777719572
 20
219.7083580174
 30
0.0
 11
137.6777712419
 21
219.7083580174
 31
0.0
  0
LINE
  5
248
330
1B
100
AcDbEntity
 67
     1
  8
SLD-0
  6
Continuous
 62
   179
370
     0
100
AcDbLine
 10
130.6777719572
 20
219.7083580174
 30
0.0
 11
130.6777719572
 21
220.7083581813
 31
0.0
  0
LINE
  5
249
330
1B
100
AcDbEntity
 67
     1
  8
SLD-0
  6
Continuous
 62
   179
370
     0
100
AcDbLine
 10
130.6777719572
 20
220.7083581813
 30
0.0
 11
130.4595556274
 21
221.0863168218
 31
0.0
  0
LINE
  5
24A
330
1B
100
AcDbEntity
 67
     1
  8
SLD-0
  6
Continuous
 62
   179
370
     0
100
AcDbLine
 10
130.4595556274
 20
221.0863168218
 30
0.0
 11
130.3117435589
 21
221.3423355349
 31
0.0
  0
LINE
  5
24B
330
1B
100
AcDbEntity
 67
     1
  8
SLD-0
  6
Continuous
 62
   179
370
     0
100
AcDbLine
 10
130.3117435589
 20
221.3423355349
 30
0.0
 11
130.2371334448
 21
221.4715695807
 31
0.0
  0
LINE
  5
24C
330
1B
100
AcDbEntity
 67
     1
  8
SLD-0
  6
Continuous
 62
   179
370
     0
100
AcDbLine
 10
130.2371334448
 20
221.4715695807
 30
0.0
 11
130.2277717903
 21
221.487782044
 31
0.0
  0
LINE
  5
24D
330
1B
100
AcDbEntity
 67
     1
  8
SLD-0
  6
Continuous
 62
   179
370
     0
100
AcDbLine
 10
138.1277714088
 20
221.487782044
 30
0.0
 11
138.1184134796
 21
221.4715695807
 31
0.0
  0
LINE
  5
24E
330
1B
100
AcDbEntity
 67
     1
  8
SLD-0
  6
Continuous
 62
   179
370
     0
100
AcDbLine
 10
138.1184134796
 20
221.4715695807
 30
0.0
 11
138.0437996402
 21
221.3423355349
 31
0.0
  0
LINE
  5
24F
330
1B
100
AcDbEntity
 67
     1
  8
SLD-0
  6
Continuous
 62
   179
370
     0
100
AcDbLine
 10
138.0437996402
 20
221.3423355349
 30
0.0
 11
137.8959875717
 21
221.0863168218
 31
0.0
  0
LINE
  5
250
330
1B
100
AcDbEntity
 67
     1
  8
SLD-0
  6
Continuous
 62
   179
370
     0
100
AcDbLine
 10
137.8959875717
 20
221.0863168218
 30
0.0
 11
137.6777712419
 21
220.7083581813
 31
0.0
  0
LINE
  5
251
330
1B
100
AcDbEntity
 67
     1
  8
SLD-0
  6
Continuous
 62
   179
370
     0
100
AcDbLine
 10
131.462061049
 20
212.7083587327
 30
0.0
 11
136.8934821501
 21
212.7083587327
 31
0.0
  0
LINE
  5
252
330
1B
100
AcDbEntity
 67
     1
  8
SLD-0
  6
Continuous
 62
   179
370
     0
100
AcDbLine
 10
63.1277721539
 20
221.487782044
 30
0.0
 11
63.118412362
 21
221.4715695807
 31
0.0
  0
LINE
  5
253
330
1B
100
AcDbEntity
 67
     1
  8
SLD-0
  6
Continuous
 62
   179
370
     0
100
AcDbLine
 10
63.118412362
 20
221.4715695807
 30
0.0
 11
63.0437985226
 21
221.3423355349
 31
0.0
  0
LINE
  5
254
330
1B
100
AcDbEntity
 67
     1
  8
SLD-0
  6
Continuous
 62
   179
370
     0
100
AcDbLine
 10
63.0437985226
 20
221.3423355349
 30
0.0
 11
62.8959864542
 21
221.0863168218
 31
0.0
  0
LINE
  5
255
330
1B
100
AcDbEntity
 67
     1
  8
SLD-0
  6
Continuous
 62
   179
370
     0
100
AcDbLine
 10
62.8959864542
 20
221.0863168218
 30
0.0
 11
62.677771987
 21
220.7083581813
 31
0.0
  0
LINE
  5
256
330
1B
100
AcDbEntity
 67
     1
  8
SLD-0
  6
Continuous
 62
   179
370
     0
100
AcDbLine
 10
62.677771987
 20
220.7083581813
 30
0.0
 11
62.677771987
 21
219.7083580174
 31
0.0
  0
LINE
  5
257
330
1B
100
AcDbEntity
 67
     1
  8
SLD-0
  6
Continuous
 62
   179
370
     0
100
AcDbLine
 10
55.6777727022
 20
219.7083580174
 30
0.0
 11
62.677771987
 21
219.7083580174
 31
0.0
  0
LINE
  5
258
330
1B
100
AcDbEntity
 67
     1
  8
SLD-0
  6
Continuous
 62
   179
370
     0
100
AcDbLine
 10
55.6777727022
 20
220.7083581813
 30
0.0
 11
55.6777727022
 21
219.7083580174
 31
0.0
  0
LINE
  5
259
330
1B
100
AcDbEntity
 67
     1
  8
SLD-0
  6
Continuous
 62
   179
370
     0
100
AcDbLine
 10
55.6777727022
 20
220.7083581813
 30
0.0
 11
55.4595582351
 21
221.0863168218
 31
0.0
  0
LINE
  5
25A
330
1B
100
AcDbEntity
 67
     1
  8
SLD-0
  6
Continuous
 62
   179
370
     0
100
AcDbLine
 10
55.4595582351
 20
221.0863168218
 30
0.0
 11
55.311744304
 21
221.3423355349
 31
0.0
  0
LINE
  5
25B
330
1B
100
AcDbEntity
 67
     1
  8
SLD-0
  6
Continuous
 62
   179
370
     0
100
AcDbLine
 10
55.311744304
 20
221.3423355349
 30
0.0
 11
55.2371323272
 21
221.4715695807
 31
0.0
  0
LINE
  5
25C
330
1B
100
AcDbEntity
 67
     1
  8
SLD-0
  6
Continuous
 62
   179
370
     0
100
AcDbLine
 10
55.2371323272
 20
221.4715695807
 30
0.0
 11
55.2277725353
 21
221.487782044
 31
0.0
  0
LINE
  5
25D
330
1B
100
AcDbEntity
 67
     1
  8
SLD-0
  6
Continuous
 62
   179
370
     0
100
AcDbLine
 10
56.4620599314
 20
212.7083587327
 30
0.0
 11
61.8934828952
 21
212.7083587327
 31
0.0
  0
LINE
  5
25E
330
1B
100
AcDbEntity
 67
     1
  8
SLD-0
  6
Continuous
 62
   179
370
     0
100
AcDbLine
 10
47.6777713909
 20
231.2088600226
 30
0.0
 11
50.6777718827
 21
231.2088600226
 31
0.0
  0
LINE
  5
25F
330
1B
100
AcDbEntity
 67
     1
  8
SLD-0
  6
Continuous
 62
   179
370
     0
100
AcDbLine
 10
47.6777713909
 20
229.1664342263
 30
0.0
 11
50.6777718827
 21
229.1664342263
 31
0.0
  0
LINE
  5
260
330
1B
100
AcDbEntity
 67
     1
  8
SLD-0
  6
Continuous
 62
   179
370
     0
100
AcDbLine
 10
47.6777713909
 20
231.2088600226
 30
0.0
 11
47.6777713909
 21
229.1664342263
 31
0.0
  0
LINE
  5
261
330
1B
100
AcDbEntity
 67
     1
  8
SLD-0
  6
Continuous
 62
   179
370
     0
100
AcDbLine
 10
47.6777713909
 20
235.2507836983
 30
0.0
 11
50.6777718827
 21
235.2507836983
 31
0.0
  0
LINE
  5
262
330
1B
100
AcDbEntity
 67
     1
  8
SLD-0
  6
Continuous
 62
   179
370
     0
100
AcDbLine
 10
47.6777713909
 20
235.2507836983
 30
0.0
 11
47.6777713909
 21
231.2088600226
 31
0.0
  0
LINE
  5
263
330
1B
100
AcDbEntity
 67
     1
  8
SLD-0
  6
Continuous
 62
   179
370
     0
100
AcDbLine
 10
47.6777713909
 20
237.2502822761
 30
0.0
 11
50.6777718827
 21
237.2502822761
 31
0.0
  0
LINE
  5
264
330
1B
100
AcDbEntity
 67
     1
  8
SLD-0
  6
Continuous
 62
   179
370
     0
100
AcDbLine
 10
47.6777713909
 20
237.2502822761
 30
0.0
 11
47.6777713909
 21
235.2507836983
 31
0.0
  0
LINE
  5
265
330
1B
100
AcDbEntity
 67
     1
  8
SLD-0
  6
Continuous
 62
   179
370
     0
100
AcDbLine
 10
45.1777700498
 20
233.2206215576
 30
0.0
 11
45.1777700498
 21
231.2083580398
 31
0.0
  0
LINE
  5
266
330
1B
100
AcDbEntity
 67
     1
  8
SLD-0
  6
Continuous
 62
   179
370
     0
100
AcDbLine
 10
45.1777700498
 20
235.2083582298
 30
0.0
 11
45.1777700498
 21
233.2206215576
 31
0.0
  0
LINE
  5
267
330
1B
100
AcDbEntity
 67
     1
  8
SLD-0
  6
Continuous
 62
   179
370
     0
100
AcDbLine
 10
46.1777720764
 20
233.2256800362
 30
0.0
 11
46.1777720764
 21
230.3833580442
 31
0.0
  0
LINE
  5
268
330
1B
100
AcDbEntity
 67
     1
  8
SLD-0
  6
Continuous
 62
   179
370
     0
100
AcDbLine
 10
46.1777720764
 20
236.0333582253
 30
0.0
 11
46.1777720764
 21
233.2256800362
 31
0.0
  0
LINE
  5
269
330
1B
100
AcDbEntity
 67
     1
  8
SLD-0
  6
Continuous
 62
   179
370
     0
100
AcDbLine
 10
42.1777714207
 20
233.2206215576
 30
0.0
 11
42.1777714207
 21
231.2083580398
 31
0.0
  0
LINE
  5
26A
330
1B
100
AcDbEntity
 67
     1
  8
SLD-0
  6
Continuous
 62
   179
370
     0
100
AcDbLine
 10
42.1777714207
 20
235.2083582298
 30
0.0
 11
42.1777714207
 21
233.2206215576
 31
0.0
  0
LINE
  5
26B
330
1B
100
AcDbEntity
 67
     1
  8
SLD-0
  6
Continuous
 62
   179
370
     0
100
AcDbLine
 10
43.1777734473
 20
233.2256800362
 30
0.0
 11
43.1777734473
 21
230.3833580442
 31
0.0
  0
LINE
  5
26C
330
1B
100
AcDbEntity
 67
     1
  8
SLD-0
  6
Continuous
 62
   179
370
     0
100
AcDbLine
 10
43.1777734473
 20
236.0333582253
 30
0.0
 11
43.1777734473
 21
233.2256800362
 31
0.0
  0
LINE
  5
26D
330
1B
100
AcDbEntity
 67
     1
  8
SLD-0
  6
Continuous
 62
   179
370
     0
100
AcDbLine
 10
40.6777721062
 20
233.2206215576
 30
0.0
 11
40.6777721062
 21
231.2083580398
 31
0.0
  0
LINE
  5
26E
330
1B
100
AcDbEntity
 67
     1
  8
SLD-0
  6
Continuous
 62
   179
370
     0
100
AcDbLine
 10
40.6777721062
 20
235.2083582298
 30
0.0
 11
40.6777721062
 21
233.2206215576
 31
0.0
  0
LINE
  5
26F
330
1B
100
AcDbEntity
 67
     1
  8
SLD-0
  6
Continuous
 62
   179
370
     0
100
AcDbLine
 10
145.6777688279
 20
231.2573232555
 30
0.0
 11
142.6777701988
 21
231.2573232555
 31
0.0
  0
LINE
  5
270
330
1B
100
AcDbEntity
 67
     1
  8
SLD-0
  6
Continuous
 62
   179
370
     0
100
AcDbLine
 10
145.6777688279
 20
235.2985251561
 30
0.0
 11
142.6777701988
 21
235.2985251561
 31
0.0
  0
LINE
  5
271
330
1B
100
AcDbEntity
 67
     1
  8
SLD-0
  6
Continuous
 62
   179
370
     0
100
AcDbLine
 10
145.6777688279
 20
231.2573232555
 30
0.0
 11
145.6777688279
 21
235.2985251561
 31
0.0
  0
LINE
  5
272
330
1B
100
AcDbEntity
 67
     1
  8
SLD-0
  6
Continuous
 62
   179
370
     0
100
AcDbLine
 10
148.1777738943
 20
234.9599405058
 30
0.0
 11
148.1777738943
 21
235.2083582298
 31
0.0
  0
LINE
  5
273
330
1B
100
AcDbEntity
 67
     1
  8
SLD-0
  6
Continuous
 62
   179
370
     0
100
AcDbLine
 10
148.1777738943
 20
231.2083580398
 30
0.0
 11
148.1777738943
 21
234.9599405058
 31
0.0
  0
LINE
  5
274
330
1B
100
AcDbEntity
 67
     1
  8
SLD-0
  6
Continuous
 62
   179
370
     0
100
AcDbLine
 10
147.1777718678
 20
235.6824680098
 30
0.0
 11
147.1777718678
 21
236.0333582253
 31
0.0
  0
LINE
  5
275
330
1B
100
AcDbEntity
 67
     1
  8
SLD-0
  6
Continuous
 62
   179
370
     0
100
AcDbLine
 10
147.1777718678
 20
230.3833580442
 30
0.0
 11
147.1777718678
 21
235.6824680098
 31
0.0
  0
LINE
  5
276
330
1B
100
AcDbEntity
 67
     1
  8
SLD-0
  6
Continuous
 62
   179
370
     0
100
AcDbLine
 10
151.1777725234
 20
234.9599405058
 30
0.0
 11
151.1777725234
 21
235.2083582298
 31
0.0
  0
LINE
  5
277
330
1B
100
AcDbEntity
 67
     1
  8
SLD-0
  6
Continuous
 62
   179
370
     0
100
AcDbLine
 10
151.1777725234
 20
231.2083580398
 30
0.0
 11
151.1777725234
 21
234.9599405058
 31
0.0
  0
LINE
  5
278
330
1B
100
AcDbEntity
 67
     1
  8
SLD-0
  6
Continuous
 62
   179
370
     0
100
AcDbLine
 10
150.1777704969
 20
235.6824680098
 30
0.0
 11
150.1777704969
 21
236.0333582253
 31
0.0
  0
LINE
  5
279
330
1B
100
AcDbEntity
 67
     1
  8
SLD-0
  6
Continuous
 62
   179
370
     0
100
AcDbLine
 10
150.1777704969
 20
230.3833580442
 30
0.0
 11
150.1777704969
 21
235.6824680098
 31
0.0
  0
LINE
  5
27A
330
1B
100
AcDbEntity
 67
     1
  8
SLD-0
  6
Continuous
 62
   179
370
     0
100
AcDbLine
 10
145.6777688279
 20
229.1671569326
 30
0.0
 11
142.6777701988
 21
229.1671569326
 31
0.0
  0
LINE
  5
27B
330
1B
100
AcDbEntity
 67
     1
  8
SLD-0
  6
Continuous
 62
   179
370
     0
100
AcDbLine
 10
145.6777688279
 20
229.1671569326
 30
0.0
 11
145.6777688279
 21
231.2573232555
 31
0.0
  0
LINE
  5
27C
330
1B
100
AcDbEntity
 67
     1
  8
SLD-0
  6
Continuous
 62
   179
370
     0
100
AcDbLine
 10
145.6777688279
 20
237.2495600355
 30
0.0
 11
142.6777701988
 21
237.2495600355
 31
0.0
  0
LINE
  5
27D
330
1B
100
AcDbEntity
 67
     1
  8
SLD-0
  6
Continuous
 62
   179
370
     0
100
AcDbLine
 10
145.6777688279
 20
235.2985251561
 30
0.0
 11
145.6777688279
 21
237.2495600355
 31
0.0
  0
LINE
  5
27E
330
1B
100
AcDbEntity
 67
     1
  8
SLD-0
  6
Continuous
 62
   179
370
     0
100
AcDbLine
 10
152.6777681127
 20
234.9599405058
 30
0.0
 11
152.6777681127
 21
235.2083582298
 31
0.0
  0
LINE
  5
27F
330
1B
100
AcDbEntity
 67
     1
  8
SLD-0
  6
Continuous
 62
   179
370
     0
100
AcDbLine
 10
152.6777681127
 20
231.2083580398
 30
0.0
 11
152.6777681127
 21
234.9599405058
 31
0.0
  0
LINE
  5
280
330
1B
100
AcDbEntity
 67
     1
  8
SLD-0
  6
Continuous
 62
   179
370
     0
100
AcDbLine
 10
95.7046469837
 20
229.7083587252
 30
0.0
 11
97.6566441521
 21
229.7083587252
 31
0.0
  0
LINE
  5
281
330
1B
100
AcDbEntity
 67
     1
  8
SLD-0
  6
Continuous
 62
   179
370
     0
100
AcDbLine
 10
95.819871144
 20
229.4083583035
 30
0.0
 11
97.5465860381
 21
229.4083583035
 31
0.0
  0
LINE
  5
282
330
1B
100
AcDbEntity
 67
     1
  8
SLD-0
  6
Continuous
 62
   179
370
     0
100
AcDbLine
 10
92.6648892626
 20
208.9083577373
 30
0.0
 11
92.6643854171
 21
209.2083590903
 31
0.0
  0
LINE
  5
283
330
1B
100
AcDbEntity
 67
     1
  8
SLD-0
  6
Continuous
 62
   179
370
     0
100
AcDbLine
 10
94.168448092
 20
208.9083577373
 30
0.0
 11
92.6648892626
 21
208.9083577373
 31
0.0
  0
LINE
  5
284
330
1B
100
AcDbEntity
 67
     1
  8
SLD-0
  6
Continuous
 62
   179
370
     0
100
AcDbLine
 10
100.6639704272
 20
208.9083577373
 30
0.0
 11
99.168441461
 21
208.9083577373
 31
0.0
  0
LINE
  5
285
330
1B
100
AcDbEntity
 67
     1
  8
SLD-0
  6
Continuous
 62
   179
370
     0
100
AcDbLine
 10
92.6633814513
 20
209.2309138604
 30
0.0
 11
92.6639812231
 21
208.9083577373
 31
0.0
  0
LINE
  5
286
330
1B
100
AcDbEntity
 67
     1
  8
SLD-0
  6
Continuous
 62
   179
370
     0
100
AcDbLine
 10
92.6648892626
 20
208.9083577373
 30
0.0
 11
92.6639812231
 21
208.9083577373
 31
0.0
  0
LINE
  5
287
330
1B
100
AcDbEntity
 67
     1
  8
SLD-0
  6
Continuous
 62
   179
370
     0
100
AcDbLine
 10
105.8183565899
 20
208.9083577373
 30
0.0
 11
100.6639704272
 21
208.9083577373
 31
0.0
  0
LINE
  5
288
330
1B
100
AcDbEntity
 67
     1
  8
SLD-0
  6
Continuous
 62
   179
370
     0
100
AcDbLine
 10
100.6639704272
 20
208.9083577373
 30
0.0
 11
100.6633706554
 21
209.2309138604
 31
0.0
  0
LINE
  5
289
330
1B
100
AcDbEntity
 67
     1
  8
SLD-0
  6
Continuous
 62
   179
370
     0
100
AcDbLine
 10
92.6639812231
 20
208.9083577373
 30
0.0
 11
87.5371864229
 21
208.9083577373
 31
0.0
  0
LINE
  5
28A
330
1B
100
AcDbEntity
 67
     1
  8
SLD-0
  6
Continuous
 62
   179
370
     0
100
AcDbLine
 10
99.168441461
 20
208.9083577373
 30
0.0
 11
94.168448092
 21
208.9083577373
 31
0.0
  0
LINE
  5
28B
330
1B
100
AcDbEntity
 67
     1
  8
SLD-0
  6
Continuous
 62
   179
370
     0
100
AcDbLine
 10
111.7524720892
 20
223.7083586731
 30
0.0
 11
115.6776707783
 21
223.7083586731
 31
0.0
  0
LINE
  5
28C
330
1B
100
AcDbEntity
 67
     1
  8
SLD-0
  6
Continuous
 62
   179
370
     0
100
AcDbLine
 10
111.7524720892
 20
223.7083586731
 30
0.0
 11
111.7524720892
 21
228.2083584794
 31
0.0
  0
LINE
  5
28D
330
1B
100
AcDbEntity
 67
     1
  8
SLD-0
  6
Continuous
 62
   179
370
     0
100
AcDbLine
 10
111.7524720892
 20
228.2083584794
 30
0.0
 11
112.4890495255
 21
228.2083584794
 31
0.0
  0
LINE
  5
28E
330
1B
100
AcDbEntity
 67
     1
  8
SLD-0
  6
Continuous
 62
   179
370
     0
100
AcDbLine
 10
115.6776707783
 20
223.7083586731
 30
0.0
 11
115.6776707783
 21
228.2083584794
 31
0.0
  0
LINE
  5
28F
330
1B
100
AcDbEntity
 67
     1
  8
SLD-0
  6
Continuous
 62
   179
370
     0
100
AcDbLine
 10
81.6027718527
 20
223.7083586731
 30
0.0
 11
82.6777717728
 21
223.7083586731
 31
0.0
  0
LINE
  5
290
330
1B
100
AcDbEntity
 67
     1
  8
SLD-0
  6
Continuous
 62
   179
370
     0
100
AcDbLine
 10
110.6777724042
 20
223.7083586731
 30
0.0
 11
111.7524720892
 21
223.7083586731
 31
0.0
  0
LINE
  5
291
330
1B
100
AcDbEntity
 67
     1
  8
SLD-0
  6
Continuous
 62
   179
370
     0
100
AcDbLine
 10
81.6027718527
 20
223.7083586731
 30
0.0
 11
81.6027718527
 21
228.2083584794
 31
0.0
  0
LINE
  5
292
330
1B
100
AcDbEntity
 67
     1
  8
SLD-0
  6
Continuous
 62
   179
370
     0
100
AcDbLine
 10
81.6027718527
 20
228.2083584794
 30
0.0
 11
82.6777717728
 21
228.2083584794
 31
0.0
  0
LINE
  5
293
330
1B
100
AcDbEntity
 67
     1
  8
SLD-0
  6
Continuous
 62
   179
370
     0
100
AcDbLine
 10
110.6777724042
 20
228.2083584794
 30
0.0
 11
111.7524720892
 21
228.2083584794
 31
0.0
  0
LINE
  5
294
330
1B
100
AcDbEntity
 67
     1
  8
SLD-0
  6
Continuous
 62
   179
370
     0
100
AcDbLine
 10
77.6777718845
 20
223.7083586731
 30
0.0
 11
81.6027718527
 21
223.7083586731
 31
0.0
  0
LINE
  5
295
330
1B
100
AcDbEntity
 67
     1
  8
SLD-0
  6
Continuous
 62
   179
370
     0
100
AcDbLine
 10
80.8662358893
 20
228.2083584794
 30
0.0
 11
81.6027718527
 21
228.2083584794
 31
0.0
  0
LINE
  5
296
330
1B
100
AcDbEntity
 67
     1
  8
SLD-0
  6
Continuous
 62
   179
370
     0
100
AcDbLine
 10
111.1777718415
 20
209.2083583591
 30
0.0
 11
82.1777718415
 21
209.2083583591
 31
0.0
  0
LINE
  5
297
330
1B
100
AcDbEntity
 67
     1
  8
SLD-0
  6
Continuous
 62
   179
370
     0
100
AcDbLine
 10
136.1777719274
 20
248.7083581143
 30
0.0
 11
136.1777719274
 21
231.2083580398
 31
0.0
  0
LINE
  5
298
330
1B
100
AcDbEntity
 67
     1
  8
SLD-0
  6
Continuous
 62
   179
370
     0
100
AcDbLine
 10
136.1777719274
 20
248.7083581143
 30
0.0
 11
142.6777701988
 21
248.7083581143
 31
0.0
  0
LINE
  5
299
330
1B
100
AcDbEntity
 67
     1
  8
SLD-0
  6
Continuous
 62
   179
370
     0
100
AcDbLine
 10
142.6777701988
 20
248.7083581143
 30
0.0
 11
142.6777701988
 21
231.2083580398
 31
0.0
  0
LINE
  5
29A
330
1B
100
AcDbEntity
 67
     1
  8
SLD-0
  6
Continuous
 62
   179
370
     0
100
AcDbLine
 10
142.6777701988
 20
231.2083580398
 30
0.0
 11
136.1777719274
 21
231.2083580398
 31
0.0
  0
LINE
  5
29B
330
1B
100
AcDbEntity
 67
     1
  8
SLD-0
  6
Continuous
 62
   179
370
     0
100
AcDbLine
 10
50.6777718827
 20
231.2083580398
 30
0.0
 11
50.6777718827
 21
248.7083581143
 31
0.0
  0
LINE
  5
29C
330
1B
100
AcDbEntity
 67
     1
  8
SLD-0
  6
Continuous
 62
   179
370
     0
100
AcDbLine
 10
57.1777720168
 20
231.2083580398
 30
0.0
 11
50.6777718827
 21
231.2083580398
 31
0.0
  0
LINE
  5
29D
330
1B
100
AcDbEntity
 67
     1
  8
SLD-0
  6
Continuous
 62
   179
370
     0
100
AcDbLine
 10
50.6777718827
 20
248.7083581143
 30
0.0
 11
57.1777720168
 21
248.7083581143
 31
0.0
  0
LINE
  5
29E
330
1B
100
AcDbEntity
 67
     1
  8
SLD-0
  6
Continuous
 62
   179
370
     0
100
AcDbLine
 10
57.1777720168
 20
248.7083581143
 30
0.0
 11
57.1777720168
 21
231.2083580398
 31
0.0
  0
LINE
  5
29F
330
1B
100
AcDbEntity
 67
     1
  8
SLD-0
  6
Continuous
 62
   179
370
     0
100
AcDbLine
 10
82.6777717728
 20
231.2083580398
 30
0.0
 11
77.1777718026
 21
231.2083580398
 31
0.0
  0
LINE
  5
2A0
330
1B
100
AcDbEntity
 67
     1
  8
SLD-0
  6
Continuous
 62
   179
370
     0
100
AcDbLine
 10
116.1777723744
 20
231.2083580398
 30
0.0
 11
110.6777724042
 21
231.2083580398
 31
0.0
  0
LINE
  5
2A1
330
1B
100
AcDbEntity
 67
     1
  8
SLD-0
  6
Continuous
 62
   179
370
     0
100
AcDbLine
 10
110.6777724042
 20
223.7083586731
 30
0.0
 11
110.6777724042
 21
231.2083580398
 31
0.0
  0
LINE
  5
2A2
330
1B
100
AcDbEntity
 67
     1
  8
SLD-0
  6
Continuous
 62
   179
370
     0
100
AcDbLine
 10
110.6777724042
 20
223.7083586731
 30
0.0
 11
82.6777717728
 21
223.7083586731
 31
0.0
  0
LINE
  5
2A3
330
1B
100
AcDbEntity
 67
     1
  8
SLD-0
  6
Continuous
 62
   179
370
     0
100
AcDbLine
 10
82.6777717728
 20
223.7083586731
 30
0.0
 11
82.6777717728
 21
231.2083580398
 31
0.0
  0
LINE
  5
2A4
330
1B
100
AcDbEntity
 67
     1
  8
SLD-0
  6
Continuous
 62
   179
370
     0
100
AcDbLine
 10
77.1777718026
 20
248.7083581143
 30
0.0
 11
116.1777723744
 21
248.7083581143
 31
0.0
  0
LINE
  5
2A5
330
1B
100
AcDbEntity
 67
     1
  8
SLD-0
  6
Continuous
 62
   179
370
     0
100
AcDbLine
 10
77.1777718026
 20
248.7083581143
 30
0.0
 11
77.1777718026
 21
231.2083580398
 31
0.0
  0
LINE
  5
2A6
330
1B
100
AcDbEntity
 67
     1
  8
SLD-0
  6
Continuous
 62
   179
370
     0
100
AcDbLine
 10
116.1777723744
 20
248.7083581143
 30
0.0
 11
116.1777723744
 21
231.2083580398
 31
0.0
  0
LINE
  5
2A7
330
1B
100
AcDbEntity
 67
     1
  8
SLD-0
  6
Continuous
 62
   179
370
     0
100
AcDbLine
 10
119.1777710035
 20
248.7083581143
 30
0.0
 11
119.1777710035
 21
231.2083580398
 31
0.0
  0
LINE
  5
2A8
330
1B
100
AcDbEntity
 67
     1
  8
SLD-0
  6
Continuous
 62
   179
370
     0
100
AcDbLine
 10
119.1777710035
 20
231.2083580398
 30
0.0
 11
116.1777723744
 21
231.2083580398
 31
0.0
  0
LINE
  5
2A9
330
1B
100
AcDbEntity
 67
     1
  8
SLD-0
  6
Continuous
 62
   179
370
     0
100
AcDbLine
 10
116.1777723744
 20
248.7083581143
 30
0.0
 11
119.1777710035
 21
248.7083581143
 31
0.0
  0
LINE
  5
2AA
330
1B
100
AcDbEntity
 67
     1
  8
SLD-0
  6
Continuous
 62
   179
370
     0
100
AcDbLine
 10
133.1777732983
 20
248.7083581143
 30
0.0
 11
133.1777732983
 21
231.2083580398
 31
0.0
  0
LINE
  5
2AB
330
1B
100
AcDbEntity
 67
     1
  8
SLD-0
  6
Continuous
 62
   179
370
     0
100
AcDbLine
 10
136.1777719274
 20
231.2083580398
 30
0.0
 11
133.1777732983
 21
231.2083580398
 31
0.0
  0
LINE
  5
2AC
330
1B
100
AcDbEntity
 67
     1
  8
SLD-0
  6
Continuous
 62
   179
370
     0
100
AcDbLine
 10
133.1777732983
 20
248.7083581143
 30
0.0
 11
136.1777719274
 21
248.7083581143
 31
0.0
  0
LINE
  5
2AD
330
1B
100
AcDbEntity
 67
     1
  8
SLD-0
  6
Continuous
 62
   179
370
     0
100
AcDbLine
 10
74.1777720093
 20
248.7083581143
 30
0.0
 11
74.1777720093
 21
231.2083580398
 31
0.0
  0
LINE
  5
2AE
330
1B
100
AcDbEntity
 67
     1
  8
SLD-0
  6
Continuous
 62
   179
370
     0
100
AcDbLine
 10
77.1777718026
 20
231.2083580398
 30
0.0
 11
74.1777720093
 21
231.2083580398
 31
0.0
  0
LINE
  5
2AF
330
1B
100
AcDbEntity
 67
     1
  8
SLD-0
  6
Continuous
 62
   179
370
     0
100
AcDbLine
 10
74.1777720093
 20
248.7083581143
 30
0.0
 11
77.1777718026
 21
248.7083581143
 31
0.0
  0
LINE
  5
2B0
330
1B
100
AcDbEntity
 67
     1
  8
SLD-0
  6
Continuous
 62
   179
370
     0
100
AcDbLine
 10
60.1777725085
 20
248.7083581143
 30
0.0
 11
60.1777725085
 21
231.2083580398
 31
0.0
  0
LINE
  5
2B1
330
1B
100
AcDbEntity
 67
     1
  8
SLD-0
  6
Continuous
 62
   179
370
     0
100
AcDbLine
 10
60.1777725085
 20
231.2083580398
 30
0.0
 11
57.1777720168
 21
231.2083580398
 31
0.0
  0
LINE
  5
2B2
330
1B
100
AcDbEntity
 67
     1
  8
SLD-0
  6
Continuous
 62
   179
370
     0
100
AcDbLine
 10
57.1777720168
 20
248.7083581143
 30
0.0
 11
60.1777725085
 21
248.7083581143
 31
0.0
  0
LINE
  5
2B3
330
1B
100
AcDbEntity
 67
     1
  8
SLD-0
  6
Continuous
 62
   179
370
     0
100
AcDbLine
 10
97.6486645802
 20
244.0267233976
 30
0.0
 11
97.5853141561
 21
243.7883972523
 31
0.0
  0
LINE
  5
2B4
330
1B
100
AcDbEntity
 67
     1
  8
SLD-0
  6
Continuous
 62
   179
370
     0
100
AcDbLine
 10
97.5853141561
 20
243.7883972523
 30
0.0
 11
97.379413636
 21
243.4958292504
 31
0.0
  0
LINE
  5
2B5
330
1B
100
AcDbEntity
 67
     1
  8
SLD-0
  6
Continuous
 62
   179
370
     0
100
AcDbLine
 10
97.379413636
 20
243.4958292504
 30
0.0
 11
97.0720715984
 21
243.2893762232
 31
0.0
  0
LINE
  5
2B6
330
1B
100
AcDbEntity
 67
     1
  8
SLD-0
  6
Continuous
 62
   179
370
     0
100
AcDbLine
 10
97.0720715984
 20
243.2893762232
 30
0.0
 11
96.6777905985
 21
243.2083583769
 31
0.0
  0
LINE
  5
2B7
330
1B
100
AcDbEntity
 67
     1
  8
SLD-0
  6
Continuous
 62
   179
370
     0
100
AcDbLine
 10
77.6777718845
 20
223.7083586731
 30
0.0
 11
77.6777718845
 21
228.2083584794
 31
0.0
  0
LINE
  5
2B8
330
1B
100
AcDbEntity
 67
     1
  8
SLD-0
  6
Continuous
 62
   179
370
     0
100
AcDbLine
 10
77.6777718845
 20
223.7083586731
 30
0.0
 11
50.6777718827
 21
223.7083586731
 31
0.0
  0
LINE
  5
2B9
330
1B
100
AcDbEntity
 67
     1
  8
SLD-0
  6
Continuous
 62
   179
370
     0
100
AcDbLine
 10
80.8662358893
 20
228.2083584794
 30
0.0
 11
77.6777718845
 21
228.2083584794
 31
0.0
  0
LINE
  5
2BA
330
1B
100
AcDbEntity
 67
     1
  8
SLD-0
  6
Continuous
 62
   179
370
     0
100
AcDbLine
 10
50.6777718827
 20
223.7083586731
 30
0.0
 11
50.6777718827
 21
231.2083580398
 31
0.0
  0
LINE
  5
2BB
330
1B
100
AcDbEntity
 67
     1
  8
SLD-0
  6
Continuous
 62
   179
370
     0
100
AcDbLine
 10
60.1777725085
 20
248.7083581143
 30
0.0
 11
74.1777720093
 21
248.7083581143
 31
0.0
  0
LINE
  5
2BC
330
1B
100
AcDbEntity
 67
     1
  8
SLD-0
  6
Continuous
 62
   179
370
     0
100
AcDbLine
 10
142.6777701988
 20
223.7083586731
 30
0.0
 11
115.6777713611
 21
223.7083586731
 31
0.0
  0
LINE
  5
2BD
330
1B
100
AcDbEntity
 67
     1
  8
SLD-0
  6
Continuous
 62
   179
370
     0
100
AcDbLine
 10
115.6777713611
 20
223.7083586731
 30
0.0
 11
115.6777713611
 21
228.2083584794
 31
0.0
  0
LINE
  5
2BE
330
1B
100
AcDbEntity
 67
     1
  8
SLD-0
  6
Continuous
 62
   179
370
     0
100
AcDbLine
 10
112.4890495255
 20
228.2083584794
 30
0.0
 11
115.6777713611
 21
228.2083584794
 31
0.0
  0
LINE
  5
2BF
330
1B
100
AcDbEntity
 67
     1
  8
SLD-0
  6
Continuous
 62
   179
370
     0
100
AcDbLine
 10
119.1777710035
 20
248.7083581143
 30
0.0
 11
133.1777732983
 21
248.7083581143
 31
0.0
  0
LINE
  5
2C0
330
1B
100
AcDbEntity
 67
     1
  8
SLD-0
  6
Continuous
 62
   179
370
     0
100
AcDbLine
 10
142.6777701988
 20
231.2083580398
 30
0.0
 11
142.6777701988
 21
223.7083586731
 31
0.0
  0
LINE
  5
2C1
330
1B
100
AcDbEntity
 67
     1
  8
SLD-0
  6
Continuous
 62
     8
370
     0
100
AcDbLine
 10
97.6551614865
 20
230.1083580457
 30
0.0
 11
95.7122214302
 21
230.1083580457
 31
0.0
  0
LINE
  5
2C2
330
1B
100
AcDbEntity
 67
     1
  8
SLD-0
  6
Continuous
 62
     8
370
     0
100
AcDbLine
 10
94.1679442465
 20
209.2083590903
 30
0.0
 11
94.168448092
 21
208.9083577373
 31
0.0
  0
LINE
  5
2C3
330
1B
100
AcDbEntity
 67
     1
  8
SLD-0
  6
Continuous
 62
     8
370
     0
100
AcDbLine
 10
99.168441461
 20
208.9083577373
 30
0.0
 11
99.1679366842
 21
209.2083590903
 31
0.0
  0
LINE
  5
2C4
330
1B
100
AcDbEntity
 67
     1
  8
SLD-0
  6
Continuous
 62
     8
370
     0
100
AcDbLine
 10
81.1777718471
 20
210.2083592542
 30
0.0
 11
112.1777717829
 21
210.2083592542
 31
0.0
  0
LINE
  5
2C5
330
1B
100
AcDbEntity
 67
     1
  8
SLD-0
  6
Continuous
 62
     8
370
     0
100
AcDbLine
 10
83.0993398256
 20
219.0987571009
 30
0.0
 11
83.3657905157
 21
219.3923677184
 31
0.0
  0
LINE
  5
2C6
330
1B
100
AcDbEntity
 67
     1
  8
SLD-0
  6
Continuous
 62
     8
370
     0
100
AcDbLine
 10
83.3657905157
 20
219.3923677184
 30
0.0
 11
83.5641484871
 21
219.5488578506
 31
0.0
  0
LINE
  5
2C7
330
1B
100
AcDbEntity
 67
     1
  8
SLD-0
  6
Continuous
 62
     8
370
     0
100
AcDbLine
 10
83.5604720912
 20
211.870328603
 30
0.0
 11
83.3657905157
 21
212.0243488678
 31
0.0
  0
LINE
  5
2C8
330
1B
100
AcDbEntity
 67
     1
  8
SLD-0
  6
Continuous
 62
     8
370
     0
100
AcDbLine
 10
83.3657905157
 20
212.0243488678
 30
0.0
 11
83.0993398256
 21
212.3179594853
 31
0.0
  0
ARC
  5
2C9
330
1B
100
AcDbEntity
 67
     1
  8
SLD-0
  6
Continuous
 62
   179
370
     0
100
AcDbCircle
 10
93.2277718359
 20
159.1399525741
 30
0.0
 40
0.5
100
AcDbArc
 50
90.0
 51
180.0
  0
ARC
  5
2CA
330
1B
100
AcDbEntity
 67
     1
  8
SLD-0
  6
Continuous
 62
   179
370
     0
100
AcDbCircle
 10
100.1277722218
 20
159.1399525741
 30
0.0
 40
0.5
100
AcDbArc
 50
0.0
 51
90.0
  0
ARC
  5
2CB
330
1B
100
AcDbEntity
 67
     1
  8
SLD-0
  6
Continuous
 62
   179
370
     0
100
AcDbCircle
 10
107.2723013543
 20
114.6567070435
 30
0.0
 40
4.000000000000006
100
AcDbArc
 50
349.6551077868
 51
70.3448922132
  0
ARC
  5
2CC
330
1B
100
AcDbEntity
 67
     1
  8
SLD-0
  6
Continuous
 62
   179
370
     0
100
AcDbCircle
 10
108.8021274889
 20
101.5399525741
 30
0.0
 40
4.000000000000011
100
AcDbArc
 50
254.6096383046
 51
45.3903616954
  0
ARC
  5
2CD
330
1B
100
AcDbEntity
 67
     1
  8
SLD-0
  6
Continuous
 62
   179
370
     0
100
AcDbCircle
 10
85.2218849188
 20
115.1540119695
 30
0.0
 40
4.000000000000014
100
AcDbArc
 50
347.951648366
 51
0.711342257
  0
ARC
  5
2CE
330
1B
100
AcDbEntity
 67
     1
  8
SLD-0
  6
Continuous
 62
   179
370
     0
100
AcDbCircle
 10
85.2218849188
 20
115.1540119695
 30
0.0
 40
4.000000000000018
100
AcDbArc
 50
86.8032027072
 51
213.1967972928
  0
ARC
  5
2CF
330
1B
100
AcDbEntity
 67
     1
  8
SLD-0
  6
Continuous
 62
   179
370
     0
100
AcDbCircle
 10
84.553416183
 20
101.5399525741
 30
0.0
 40
4.00000000000002
100
AcDbArc
 50
133.7930217821
 51
286.2069782179
  0
ARC
  5
2D0
330
1B
100
AcDbEntity
 67
     1
  8
SLD-0
  6
Continuous
 62
   179
370
     0
100
AcDbCircle
 10
96.6777718359
 20
94.8382881848
 30
0.0
 40
4.000000000000026
100
AcDbArc
 50
198.6025952735
 51
340.541740391
  0
ARC
  5
2D1
330
1B
100
AcDbEntity
 67
     1
  8
SLD-0
  6
Continuous
 62
   179
370
     0
100
AcDbCircle
 10
96.6777718359
 20
94.8382881848
 30
0.0
 40
4.000000000000011
100
AcDbArc
 50
71.1517949561
 51
108.8482050439
  0
ARC
  5
2D2
330
1B
100
AcDbEntity
 67
     1
  8
SLD-0
  6
Continuous
 62
   179
370
     0
100
AcDbCircle
 10
96.6777718359
 20
122.4658079921
 30
0.0
 40
4.000000000000004
100
AcDbArc
 50
260.6586207226
 51
279.3413792774
  0
ARC
  5
2D3
330
1B
100
AcDbEntity
 67
     1
  8
SLD-0
  6
Continuous
 62
   179
370
     0
100
AcDbCircle
 10
96.6777718359
 20
122.4658079921
 30
0.0
 40
4.000000000000038
100
AcDbArc
 50
14.9674376935
 51
165.0325623065
  0
ARC
  5
2D4
330
1B
100
AcDbEntity
 67
     1
  8
SLD-0
  6
Continuous
 62
   179
370
     0
100
AcDbCircle
 10
97.3070974679
 20
108.4876709718
 30
0.0
 40
10.00000000000063
100
AcDbArc
 50
247.2124069047
 51
259.4870393898
  0
CIRCLE
  5
2D5
330
1B
100
AcDbEntity
 67
     1
  8
SLD-0
  6
Continuous
 62
   179
370
     0
100
AcDbCircle
 10
110.6777718359
 20
90.5399525741
 30
0.0
 40
2.44550000000001
  0
CIRCLE
  5
2D6
330
1B
100
AcDbEntity
 67
     1
  8
SLD-0
  6
Continuous
 62
   179
370
     0
100
AcDbCircle
 10
110.6777718359
 20
126.5399525741
 30
0.0
 40
2.445500000000024
  0
CIRCLE
  5
2D7
330
1B
100
AcDbEntity
 67
     1
  8
SLD-0
  6
Continuous
 62
   179
370
     0
100
AcDbCircle
 10
82.6777718359
 20
90.5399525741
 30
0.0
 40
2.445499999999996
  0
CIRCLE
  5
2D8
330
1B
100
AcDbEntity
 67
     1
  8
SLD-0
  6
Continuous
 62
   179
370
     0
100
AcDbCircle
 10
82.6777718359
 20
126.5399525741
 30
0.0
 40
2.445499999999996
  0
CIRCLE
  5
2D9
330
1B
100
AcDbEntity
 67
     1
  8
SLD-0
  6
Continuous
 62
   179
370
     0
100
AcDbCircle
 10
134.1777713027
 20
108.5399525378
 30
0.0
 40
2.71571113504081
  0
ARC
  5
2DA
330
1B
100
AcDbEntity
 67
     1
  8
SLD-0
  6
Continuous
 62
   179
370
     0
100
AcDbCircle
 10
134.1777713027
 20
108.5399525378
 30
0.0
 40
3.949999929586177
100
AcDbArc
 50
207.6157798177
 51
332.3842202315
  0
ARC
  5
2DB
330
1B
100
AcDbEntity
 67
     1
  8
SLD-0
  6
Continuous
 62
   179
370
     0
100
AcDbCircle
 10
134.1777713027
 20
108.5399525378
 30
0.0
 40
3.949999929586192
100
AcDbArc
 50
27.6157797685
 51
152.3842202807
  0
ARC
  5
2DC
330
1B
100
AcDbEntity
 67
     1
  8
SLD-0
  6
Continuous
 62
   179
370
     0
100
AcDbCircle
 10
134.1777713027
 20
108.5399525378
 30
0.0
 40
3.949999929586177
100
AcDbArc
 50
332.3842202315
 51
27.6157797685
  0
ARC
  5
2DD
330
1B
100
AcDbEntity
 67
     1
  8
SLD-0
  6
Continuous
 62
   179
370
     0
100
AcDbCircle
 10
134.1777713027
 20
108.5399525378
 30
0.0
 40
3.949999929586192
100
AcDbArc
 50
152.3842202807
 51
207.6157798177
  0
CIRCLE
  5
2DE
330
1B
100
AcDbEntity
 67
     1
  8
SLD-0
  6
Continuous
 62
   179
370
     0
100
AcDbCircle
 10
59.1777727966
 20
108.5399525378
 30
0.0
 40
2.71571113504079
  0
ARC
  5
2DF
330
1B
100
AcDbEntity
 67
     1
  8
SLD-0
  6
Continuous
 62
   179
370
     0
100
AcDbCircle
 10
59.1777727966
 20
108.5399525378
 30
0.0
 40
3.950000067095764
100
AcDbArc
 50
27.6157798177
 51
152.3842212749
  0
ARC
  5
2E0
330
1B
100
AcDbEntity
 67
     1
  8
SLD-0
  6
Continuous
 62
   179
370
     0
100
AcDbCircle
 10
59.1777727966
 20
108.5399525378
 30
0.0
 40
3.950000067095764
100
AcDbArc
 50
207.6157787251
 51
332.3842223676
  0
ARC
  5
2E1
330
1B
100
AcDbEntity
 67
     1
  8
SLD-0
  6
Continuous
 62
   179
370
     0
100
AcDbCircle
 10
59.1777727966
 20
108.5399525378
 30
0.0
 40
3.950000067095764
100
AcDbArc
 50
152.3842212749
 51
207.6157787251
  0
ARC
  5
2E2
330
1B
100
AcDbEntity
 67
     1
  8
SLD-0
  6
Continuous
 62
   179
370
     0
100
AcDbCircle
 10
59.1777727966
 20
108.5399525378
 30
0.0
 40
3.950000067095764
100
AcDbArc
 50
332.3842223676
 51
27.6157798177
  0
ARC
  5
2E3
330
1B
100
AcDbEntity
 67
     1
  8
SLD-0
  6
Continuous
 62
   179
370
     0
100
AcDbCircle
 10
86.7719727451
 20
105.770269956
 30
0.0
 40
1.683364381370314
100
AcDbArc
 50
27.6786765382
 51
76.9935682254
  0
ARC
  5
2E4
330
1B
100
AcDbEntity
 67
     1
  8
SLD-0
  6
Continuous
 62
   179
370
     0
100
AcDbCircle
 10
96.6777718359
 20
108.5399525741
 30
0.0
 40
9.46314100244028
100
AcDbArc
 50
355.1008819862
 51
65.0914793298
  0
ARC
  5
2E5
330
1B
100
AcDbEntity
 67
     1
  8
SLD-0
  6
Continuous
 62
   179
370
     0
100
AcDbCircle
 10
96.6777718359
 20
108.5399525741
 30
0.0
 40
9.140585734839753
100
AcDbArc
 50
356.0475872845
 51
64.1447740928
  0
ARC
  5
2E6
330
1B
100
AcDbEntity
 67
     1
  8
SLD-0
  6
Continuous
 62
   179
370
     0
100
AcDbCircle
 10
96.6777718359
 20
108.5399525741
 30
0.0
 40
9.463140917530614
100
AcDbArc
 50
235.1008796025
 51
305.0914769534
  0
ARC
  5
2E7
330
1B
100
AcDbEntity
 67
     1
  8
SLD-0
  6
Continuous
 62
   179
370
     0
100
AcDbCircle
 10
96.6777718359
 20
108.5399525741
 30
0.0
 40
9.140585649921796
100
AcDbArc
 50
236.047584848
 51
304.1447716083
  0
ARC
  5
2E8
330
1B
100
AcDbEntity
 67
     1
  8
SLD-0
  6
Continuous
 62
   179
370
     0
100
AcDbCircle
 10
104.029289517
 20
101.3461186824
 30
0.0
 40
1.683366419184639
100
AcDbArc
 50
147.678663083
 51
196.9934904738
  0
CIRCLE
  5
2E9
330
1B
100
AcDbEntity
 67
     1
  8
SLD-0
  6
Continuous
 62
   179
370
     0
100
AcDbCircle
 10
96.6777718359
 20
108.5399525741
 30
0.0
 40
4.5
  0
CIRCLE
  5
2EA
330
1B
100
AcDbEntity
 67
     1
  8
SLD-0
  6
Continuous
 62
   179
370
     0
100
AcDbCircle
 10
96.6777718359
 20
108.5399525741
 30
0.0
 40
5.000000000000014
  0
ARC
  5
2EB
330
1B
100
AcDbEntity
 67
     1
  8
SLD-0
  6
Continuous
 62
   179
370
     0
100
AcDbCircle
 10
94.0900523887
 20
118.4948382068
 30
0.0
 40
1.683366329678729
100
AcDbArc
 50
223.1988494626
 51
272.5136553397
  0
ARC
  5
2EC
330
1B
100
AcDbEntity
 67
     1
  8
SLD-0
  6
Continuous
 62
   179
370
     0
100
AcDbCircle
 10
96.6777718359
 20
108.5399525741
 30
0.0
 40
9.46314074999933
100
AcDbArc
 50
115.1008819862
 51
185.0914769401
  0
ARC
  5
2ED
330
1B
100
AcDbEntity
 67
     1
  8
SLD-0
  6
Continuous
 62
   179
370
     0
100
AcDbCircle
 10
96.6777718359
 20
108.5399525741
 30
0.0
 40
9.140585488954665
100
AcDbArc
 50
116.0475873312
 51
184.1447715929
  0
ARC
  5
2EE
330
1B
100
AcDbEntity
 67
     1
  8
SLD-0
  6
Continuous
 62
   179
370
     0
100
AcDbCircle
 10
106.5928092882
 20
105.8035501599
 30
0.0
 40
1.683355636564219
100
AcDbArc
 50
103.1987052236
 51
152.5138378061
  0
ARC
  5
2EF
330
1B
100
AcDbEntity
 67
     1
  8
SLD-0
  6
Continuous
 62
   179
370
     0
100
AcDbCircle
 10
89.3504531895
 20
101.3214803151
 30
0.0
 40
1.683361370898718
100
AcDbArc
 50
343.1987390568
 51
32.5137202015
  0
ARC
  5
2F0
330
1B
100
AcDbEntity
 67
     1
  8
SLD-0
  6
Continuous
 62
   179
370
     0
100
AcDbCircle
 10
99.2320555077
 20
118.5034678555
 30
0.0
 40
1.683364508301711
100
AcDbArc
 50
267.6787073953
 51
316.993570768
  0
ARC
  5
2F1
330
1B
100
AcDbEntity
 67
     1
  8
SLD-0
  6
Continuous
 62
   179
370
     0
100
AcDbCircle
 10
86.4164433363
 20
105.4940310082
 30
0.0
 40
1.651261588655413
100
AcDbArc
 50
29.7391625097
 51
63.936302921
  0
ARC
  5
2F2
330
1B
100
AcDbEntity
 67
     1
  8
SLD-0
  6
Continuous
 62
   179
370
     0
100
AcDbCircle
 10
99.1705881176
 20
118.9494897992
 30
0.0
 40
1.651267002642796
100
AcDbArc
 50
269.739241155
 51
303.9362733291
  0
ARC
  5
2F3
330
1B
100
AcDbEntity
 67
     1
  8
SLD-0
  6
Continuous
 62
   179
370
     0
100
AcDbCircle
 10
104.4462574889
 20
101.1763477833
 30
0.0
 40
1.65123754400262
100
AcDbArc
 50
149.7389001869
 51
183.9365642457
  0
ARC
  5
2F4
330
1B
100
AcDbEntity
 67
     1
  8
SLD-0
  6
Continuous
 62
   179
370
     0
100
AcDbCircle
 10
88.9340310882
 20
101.1503055888
 30
0.0
 40
1.651257445992785
100
AcDbArc
 50
356.2559437512
 51
30.4531608103
  0
ARC
  5
2F5
330
1B
100
AcDbEntity
 67
     1
  8
SLD-0
  6
Continuous
 62
   179
370
     0
100
AcDbCircle
 10
94.1500214874
 20
118.9410644117
 30
0.0
 40
1.65126922596002
100
AcDbArc
 50
236.2561368814
 51
270.4530979667
  0
ARC
  5
2F6
330
1B
100
AcDbEntity
 67
     1
  8
SLD-0
  6
Continuous
 62
   179
370
     0
100
AcDbCircle
 10
106.9492615949
 20
105.5285056556
 30
0.0
 40
1.651251517421482
100
AcDbArc
 50
116.2559017661
 51
150.4532923226
  0
CIRCLE
  5
2F7
330
1B
100
AcDbEntity
 67
     1
  8
SLD-0
  6
Continuous
 62
   179
370
     0
100
AcDbCircle
 10
96.6777718359
 20
108.5399525741
 30
0.0
 40
14.5
  0
CIRCLE
  5
2F8
330
1B
100
AcDbEntity
 67
     1
  8
SLD-0
  6
Continuous
 62
   179
370
     0
100
AcDbCircle
 10
96.6777718359
 20
108.5399525741
 30
0.0
 40
15.5
  0
CIRCLE
  5
2F9
330
1B
100
AcDbEntity
 67
     1
  8
SLD-0
  6
Continuous
 62
   179
370
     0
100
AcDbCircle
 10
96.6777718359
 20
108.5399525741
 30
0.0
 40
9.999999999999972
  0
CIRCLE
  5
2FA
330
1B
100
AcDbEntity
 67
     1
  8
SLD-0
  6
Continuous
 62
   179
370
     0
100
AcDbCircle
 10
82.6777718359
 20
126.5399525741
 30
0.0
 40
2.500000000000014
  0
CIRCLE
  5
2FB
330
1B
100
AcDbEntity
 67
     1
  8
SLD-0
  6
Continuous
 62
   179
370
     0
100
AcDbCircle
 10
110.6776718359
 20
90.5399525741
 30
0.0
 40
2.499999999999986
  0
ARC
  5
2FC
330
1B
100
AcDbEntity
 67
     1
  8
SLD-0
  6
Continuous
 62
   179
370
     0
100
AcDbCircle
 10
96.6777174679
 20
108.5399907709
 30
0.0
 40
27.4999993332842
100
AcDbArc
 50
303.241757477
 51
313.7019849375
  0
ARC
  5
2FD
330
1B
100
AcDbEntity
 67
     1
  8
SLD-0
  6
Continuous
 62
   179
370
     0
100
AcDbCircle
 10
96.6781638743
 20
108.5395737735
 30
0.0
 40
27.50000037767807
100
AcDbArc
 50
226.2967564684
 51
236.7566577969
  0
CIRCLE
  5
2FE
330
1B
100
AcDbEntity
 67
     1
  8
SLD-0
  6
Continuous
 62
   179
370
     0
100
AcDbCircle
 10
82.6777718359
 20
90.5399525741
 30
0.0
 40
2.500000000000014
  0
CIRCLE
  5
2FF
330
1B
100
AcDbEntity
 67
     1
  8
SLD-0
  6
Continuous
 62
   179
370
     0
100
AcDbCircle
 10
110.6776718359
 20
126.5399525741
 30
0.0
 40
2.499999999999986
  0
ARC
  5
300
330
1B
100
AcDbEntity
 67
     1
  8
SLD-0
  6
Continuous
 62
   179
370
     0
100
AcDbCircle
 10
96.6781599335
 20
108.540327799
 30
0.0
 40
27.49999972656698
100
AcDbArc
 50
123.2433331786
 51
133.7032334705
  0
ARC
  5
301
330
1B
100
AcDbEntity
 67
     1
  8
SLD-0
  6
Continuous
 62
   179
370
     0
100
AcDbCircle
 10
96.6777174988
 20
108.5399135082
 30
0.0
 40
27.49999937799825
100
AcDbArc
 50
46.2980152406
 51
56.758242523
  0
ARC
  5
302
330
1B
100
AcDbEntity
 67
     1
  8
SLD-0
  6
Continuous
 62
   179
370
     0
100
AcDbCircle
 10
82.6777717728
 20
134.0399525741
 30
0.0
 40
3.0
100
AcDbArc
 50
0.0
 51
90.0
  0
ARC
  5
303
330
1B
100
AcDbEntity
 67
     1
  8
SLD-0
  6
Continuous
 62
   179
370
     0
100
AcDbCircle
 10
110.6777718494
 20
134.0399525741
 30
0.0
 40
3.000000000000014
100
AcDbArc
 50
89.9999891463
 51
180.0
  0
ARC
  5
304
330
1B
100
AcDbEntity
 67
     1
  8
SLD-0
  6
Continuous
 62
   179
370
     0
100
AcDbCircle
 10
59.1777727966
 20
108.5399525378
 30
0.0
 40
4.000000000000007
100
AcDbArc
 50
0.0
 51
165.5323398859
  0
ARC
  5
305
330
1B
100
AcDbEntity
 67
     1
  8
SLD-0
  6
Continuous
 62
   179
370
     0
100
AcDbCircle
 10
59.1777727966
 20
108.5399525378
 30
0.0
 40
4.000000000000007
100
AcDbArc
 50
202.4611456817
 51
0.0
  0
CIRCLE
  5
306
330
1B
100
AcDbEntity
 67
     1
  8
SLD-0
  6
Continuous
 62
   179
370
     0
100
AcDbCircle
 10
59.1777727966
 20
108.5399525378
 30
0.0
 40
4.499999999999998
  0
CIRCLE
  5
307
330
1B
100
AcDbEntity
 67
     1
  8
SLD-0
  6
Continuous
 62
   179
370
     0
100
AcDbCircle
 10
67.6777718359
 20
86.5399525741
 30
0.0
 40
5.0
  0
CIRCLE
  5
308
330
1B
100
AcDbEntity
 67
     1
  8
SLD-0
  6
Continuous
 62
   179
370
     0
100
AcDbCircle
 10
67.6777718359
 20
86.5399525741
 30
0.0
 40
5.5
  0
CIRCLE
  5
309
330
1B
100
AcDbEntity
 67
     1
  8
SLD-0
  6
Continuous
 62
   179
370
     0
100
AcDbCircle
 10
71.6777718359
 20
118.5399525741
 30
0.0
 40
5.500000000000057
  0
ARC
  5
30A
330
1B
100
AcDbEntity
 67
     1
  8
SLD-0
  6
Continuous
 62
   179
370
     0
100
AcDbCircle
 10
80.6777718602
 20
88.5399525741
 30
0.0
 40
2.999999975700022
100
AcDbArc
 50
180.0000080672
 51
270.0
  0
CIRCLE
  5
30B
330
1B
100
AcDbEntity
 67
     1
  8
SLD-0
  6
Continuous
 62
   179
370
     0
100
AcDbCircle
 10
71.6777718359
 20
108.5399525741
 30
0.0
 40
1.0
  0
CIRCLE
  5
30C
330
1B
100
AcDbEntity
 67
     1
  8
SLD-0
  6
Continuous
 62
   179
370
     0
100
AcDbCircle
 10
60.1777718359
 20
123.0399525741
 30
0.0
 40
5.500000000000014
  0
CIRCLE
  5
30D
330
1B
100
AcDbEntity
 67
     1
  8
SLD-0
  6
Continuous
 62
   179
370
     0
100
AcDbCircle
 10
60.1777718359
 20
95.5399525741
 30
0.0
 40
5.500000000000014
  0
CIRCLE
  5
30E
330
1B
100
AcDbEntity
 67
     1
  8
SLD-0
  6
Continuous
 62
   179
370
     0
100
AcDbCircle
 10
71.6777718359
 20
98.5399525741
 30
0.0
 40
5.500000000000057
  0
CIRCLE
  5
30F
330
1B
100
AcDbEntity
 67
     1
  8
SLD-0
  6
Continuous
 62
   179
370
     0
100
AcDbCircle
 10
60.1777718359
 20
95.5399525741
 30
0.0
 40
5.000000000000014
  0
CIRCLE
  5
310
330
1B
100
AcDbEntity
 67
     1
  8
SLD-0
  6
Continuous
 62
   179
370
     0
100
AcDbCircle
 10
121.6777718359
 20
118.5399525741
 30
0.0
 40
5.500000000000057
  0
CIRCLE
  5
311
330
1B
100
AcDbEntity
 67
     1
  8
SLD-0
  6
Continuous
 62
   179
370
     0
100
AcDbCircle
 10
121.6777718359
 20
98.5399525741
 30
0.0
 40
5.500000000000057
  0
ARC
  5
312
330
1B
100
AcDbEntity
 67
     1
  8
SLD-0
  6
Continuous
 62
   179
370
     0
100
AcDbCircle
 10
112.6777718359
 20
88.5399525741
 30
0.0
 40
3.0
100
AcDbArc
 50
270.0
 51
0.0
  0
CIRCLE
  5
313
330
1B
100
AcDbEntity
 67
     1
  8
SLD-0
  6
Continuous
 62
   179
370
     0
100
AcDbCircle
 10
121.6777718359
 20
108.5399525741
 30
0.0
 40
1.000000000000057
  0
CIRCLE
  5
314
330
1B
100
AcDbEntity
 67
     1
  8
SLD-0
  6
Continuous
 62
   179
370
     0
100
AcDbCircle
 10
125.6777718359
 20
86.5399525741
 30
0.0
 40
5.500000000000014
  0
CIRCLE
  5
315
330
1B
100
AcDbEntity
 67
     1
  8
SLD-0
  6
Continuous
 62
   179
370
     0
100
AcDbCircle
 10
133.1777718359
 20
95.5399525741
 30
0.0
 40
5.500000000000028
  0
CIRCLE
  5
316
330
1B
100
AcDbEntity
 67
     1
  8
SLD-0
  6
Continuous
 62
   179
370
     0
100
AcDbCircle
 10
133.1777718359
 20
123.0399525741
 30
0.0
 40
5.500000000000028
  0
CIRCLE
  5
317
330
1B
100
AcDbEntity
 67
     1
  8
SLD-0
  6
Continuous
 62
   179
370
     0
100
AcDbCircle
 10
134.1777713027
 20
108.5399525378
 30
0.0
 40
4.500000000000026
  0
CIRCLE
  5
318
330
1B
100
AcDbEntity
 67
     1
  8
SLD-0
  6
Continuous
 62
   179
370
     0
100
AcDbCircle
 10
60.1777718359
 20
123.0399525741
 30
0.0
 40
5.000000000000014
  0
CIRCLE
  5
319
330
1B
100
AcDbEntity
 67
     1
  8
SLD-0
  6
Continuous
 62
   179
370
     0
100
AcDbCircle
 10
125.6777718359
 20
86.5399525741
 30
0.0
 40
5.000000000000014
  0
CIRCLE
  5
31A
330
1B
100
AcDbEntity
 67
     1
  8
SLD-0
  6
Continuous
 62
   179
370
     0
100
AcDbCircle
 10
134.1777713027
 20
108.5399525378
 30
0.0
 40
4.000000000000013
  0
CIRCLE
  5
31B
330
1B
100
AcDbEntity
 67
     1
  8
SLD-0
  6
Continuous
 62
   179
370
     0
100
AcDbCircle
 10
133.1777718359
 20
95.5399525741
 30
0.0
 40
5.000000000000028
  0
CIRCLE
  5
31C
330
1B
100
AcDbEntity
 67
     1
  8
SLD-0
  6
Continuous
 62
   179
370
     0
100
AcDbCircle
 10
133.1777718359
 20
123.0399525741
 30
0.0
 40
5.000000000000028
  0
CIRCLE
  5
31D
330
1B
100
AcDbEntity
 67
     1
  8
SLD-0
  6
Continuous
 62
   179
370
     0
100
AcDbCircle
 10
60.1777718359
 20
95.5399525741
 30
0.0
 40
3.500000000000007
  0
CIRCLE
  5
31E
330
1B
100
AcDbEntity
 67
     1
  8
SLD-0
  6
Continuous
 62
   179
370
     0
100
AcDbCircle
 10
60.1777718359
 20
123.0399525741
 30
0.0
 40
3.500000000000007
  0
CIRCLE
  5
31F
330
1B
100
AcDbEntity
 67
     1
  8
SLD-0
  6
Continuous
 62
   179
370
     0
100
AcDbCircle
 10
60.1777718359
 20
95.5399525741
 30
0.0
 40
2.500000000000007
  0
CIRCLE
  5
320
330
1B
100
AcDbEntity
 67
     1
  8
SLD-0
  6
Continuous
 62
   179
370
     0
100
AcDbCircle
 10
67.6777718359
 20
86.5399525741
 30
0.0
 40
3.5
  0
CIRCLE
  5
321
330
1B
100
AcDbEntity
 67
     1
  8
SLD-0
  6
Continuous
 62
   179
370
     0
100
AcDbCircle
 10
60.1777718359
 20
123.0399525741
 30
0.0
 40
2.500000000000007
  0
CIRCLE
  5
322
330
1B
100
AcDbEntity
 67
     1
  8
SLD-0
  6
Continuous
 62
   179
370
     0
100
AcDbCircle
 10
67.6777718359
 20
86.5399525741
 30
0.0
 40
2.500000000000014
  0
CIRCLE
  5
323
330
1B
100
AcDbEntity
 67
     1
  8
SLD-0
  6
Continuous
 62
   179
370
     0
100
AcDbCircle
 10
133.1777718359
 20
123.0399525741
 30
0.0
 40
3.500000000000028
  0
CIRCLE
  5
324
330
1B
100
AcDbEntity
 67
     1
  8
SLD-0
  6
Continuous
 62
   179
370
     0
100
AcDbCircle
 10
125.6777718359
 20
86.5399525741
 30
0.0
 40
3.500000000000014
  0
CIRCLE
  5
325
330
1B
100
AcDbEntity
 67
     1
  8
SLD-0
  6
Continuous
 62
   179
370
     0
100
AcDbCircle
 10
133.1777718359
 20
95.5399525741
 30
0.0
 40
3.500000000000028
  0
CIRCLE
  5
326
330
1B
100
AcDbEntity
 67
     1
  8
SLD-0
  6
Continuous
 62
   179
370
     0
100
AcDbCircle
 10
133.1777718359
 20
95.5399525741
 30
0.0
 40
2.500000000000028
  0
CIRCLE
  5
327
330
1B
100
AcDbEntity
 67
     1
  8
SLD-0
  6
Continuous
 62
   179
370
     0
100
AcDbCircle
 10
125.6777718359
 20
86.5399525741
 30
0.0
 40
2.500000000000014
  0
CIRCLE
  5
328
330
1B
100
AcDbEntity
 67
     1
  8
SLD-0
  6
Continuous
 62
   179
370
     0
100
AcDbCircle
 10
133.1777718359
 20
123.0399525741
 30
0.0
 40
2.500000000000028
  0
ARC
  5
329
330
1B
100
AcDbEntity
 67
     1
  8
SLD-0
  6
Continuous
 62
   179
370
     0
100
AcDbCircle
 10
110.6777718494
 20
134.0399525741
 30
0.0
 40
3.000000000000014
100
AcDbArc
 50
180.0
 51
236.4426902381
  0
ARC
  5
32A
330
1B
100
AcDbEntity
 67
     1
  8
SLD-0
  6
Continuous
 62
   179
370
     0
100
AcDbCircle
 10
98.6777718359
 20
82.5399525741
 30
0.0
 40
3.000000000000014
100
AcDbArc
 50
0.0
 51
90.0
  0
ARC
  5
32B
330
1B
100
AcDbEntity
 67
     1
  8
SLD-0
  6
Continuous
 62
   179
370
     0
100
AcDbCircle
 10
94.6777718359
 20
82.5399525741
 30
0.0
 40
3.000000000000014
100
AcDbArc
 50
90.0
 51
180.0
  0
ARC
  5
32C
330
1B
100
AcDbEntity
 67
     1
  8
SLD-0
  6
Continuous
 62
   179
370
     0
100
AcDbCircle
 10
82.6777717728
 20
134.0399525741
 30
0.0
 40
3.0
100
AcDbArc
 50
303.5573097619
 51
0.0
  0
ARC
  5
32D
330
1B
100
AcDbEntity
 67
     1
  8
SLD-0
  6
Continuous
 62
   179
370
     0
100
AcDbCircle
 10
74.1777718026
 20
134.0399525741
 30
0.0
 40
3.000000000000057
100
AcDbArc
 50
270.0
 51
0.0
  0
CIRCLE
  5
32E
330
1B
100
AcDbEntity
 67
     1
  8
SLD-0
  6
Continuous
 62
   179
370
     0
100
AcDbCircle
 10
79.6777718359
 20
137.5399525741
 30
0.0
 40
1.249999999999986
  0
ARC
  5
32F
330
1B
100
AcDbEntity
 67
     1
  8
SLD-0
  6
Continuous
 62
   179
370
     0
100
AcDbCircle
 10
119.1777721187
 20
134.0399525741
 30
0.0
 40
2.99999973075005
100
AcDbArc
 50
179.9999901375
 51
270.0
  0
CIRCLE
  5
330
330
1B
100
AcDbEntity
 67
     1
  8
SLD-0
  6
Continuous
 62
   179
370
     0
100
AcDbCircle
 10
113.6777718359
 20
137.5399525741
 30
0.0
 40
1.25
  0
ARC
  5
331
330
1B
100
AcDbEntity
 67
     1
  8
SLD-0
  6
Continuous
 62
   179
370
     0
100
AcDbCircle
 10
133.1777718816
 20
134.0399525741
 30
0.0
 40
3.000000045750044
100
AcDbArc
 50
270.0
 51
0.0000098625
  0
CIRCLE
  5
332
330
1B
100
AcDbEntity
 67
     1
  8
SLD-0
  6
Continuous
 62
   179
370
     0
100
AcDbCircle
 10
138.6777718359
 20
137.5399525741
 30
0.0
 40
1.25
  0
ARC
  5
333
330
1B
100
AcDbEntity
 67
     1
  8
SLD-0
  6
Continuous
 62
   179
370
     0
100
AcDbCircle
 10
60.1777718359
 20
134.0399525741
 30
0.0
 40
3.000000000000057
100
AcDbArc
 50
180.0
 51
270.0
  0
CIRCLE
  5
334
330
1B
100
AcDbEntity
 67
     1
  8
SLD-0
  6
Continuous
 62
   179
370
     0
100
AcDbCircle
 10
54.6777718359
 20
137.5399525741
 30
0.0
 40
1.249999999999979
  0
CIRCLE
  5
335
330
1B
100
AcDbEntity
 67
     1
  8
SLD-0
  6
Continuous
 62
   179
370
     0
100
AcDbCircle
 10
71.6777718359
 20
98.5399525741
 30
0.0
 40
3.300000000000026
  0
CIRCLE
  5
336
330
1B
100
AcDbEntity
 67
     1
  8
SLD-0
  6
Continuous
 62
   179
370
     0
100
AcDbCircle
 10
71.6777718359
 20
118.5399525741
 30
0.0
 40
3.300000000000026
  0
CIRCLE
  5
337
330
1B
100
AcDbEntity
 67
     1
  8
SLD-0
  6
Continuous
 62
   179
370
     0
100
AcDbCircle
 10
121.6777718359
 20
98.5399525741
 30
0.0
 40
3.299999999999997
  0
CIRCLE
  5
338
330
1B
100
AcDbEntity
 67
     1
  8
SLD-0
  6
Continuous
 62
   179
370
     0
100
AcDbCircle
 10
121.6777718359
 20
118.5399525741
 30
0.0
 40
3.300000000000026
  0
ARC
  5
339
330
1B
100
AcDbEntity
 67
     1
  8
SLD-0
  6
Continuous
 62
   179
370
     0
100
AcDbCircle
 10
134.1777715995
 20
213.5521300958
 30
0.0
 40
2.843771071580173
100
AcDbArc
 50
197.2600214535
 51
342.7399785465
  0
ARC
  5
33A
330
1B
100
AcDbEntity
 67
     1
  8
SLD-0
  6
Continuous
 62
   179
370
     0
100
AcDbCircle
 10
59.1777714133
 20
213.5521290471
 30
0.0
 40
2.843771649833148
100
AcDbArc
 50
197.2599957084
 51
270.0
  0
ARC
  5
33B
330
1B
100
AcDbEntity
 67
     1
  8
SLD-0
  6
Continuous
 62
   179
370
     0
100
AcDbCircle
 10
59.1777714133
 20
213.5521290471
 30
0.0
 40
2.843771649833148
100
AcDbArc
 50
270.0
 51
342.7400042916
  0
ARC
  5
33C
330
1B
100
AcDbEntity
 67
     1
  8
SLD-0
  6
Continuous
 62
   179
370
     0
100
AcDbCircle
 10
107.2723013543
 20
215.7083583535
 30
0.0
 40
3.999999999999988
100
AcDbArc
 50
355.9074402428
 51
60.9365183686
  0
ARC
  5
33D
330
1B
100
AcDbEntity
 67
     1
  8
SLD-0
  6
Continuous
 62
   179
370
     0
100
AcDbCircle
 10
107.2723013543
 20
215.7083583535
 30
0.0
 40
3.999999999999983
100
AcDbArc
 50
298.83261924
 51
355.9074402428
  0
ARC
  5
33E
330
1B
100
AcDbEntity
 67
     1
  8
SLD-0
  6
Continuous
 62
   179
370
     0
100
AcDbCircle
 10
108.8021274889
 20
215.7083583535
 30
0.0
 40
4.000000000000023
100
AcDbArc
 50
327.5554548537
 51
32.4445451463
  0
ARC
  5
33F
330
1B
100
AcDbEntity
 67
     1
  8
SLD-0
  6
Continuous
 62
   179
370
     0
100
AcDbCircle
 10
85.2218849188
 20
215.7083583535
 30
0.0
 40
4.000000000000018
100
AcDbArc
 50
110.2993393523
 51
249.5277743338
  0
ARC
  5
340
330
1B
100
AcDbEntity
 67
     1
  8
SLD-0
  6
Continuous
 62
   179
370
     0
100
AcDbCircle
 10
84.5534161545
 20
215.7083583438
 30
0.0
 40
4.000000030078203
100
AcDbArc
 50
147.5554548537
 51
198.7726978059
  0
ARC
  5
341
330
1B
100
AcDbEntity
 67
     1
  8
SLD-0
  6
Continuous
 62
   179
370
     0
100
AcDbCircle
 10
111.1777718415
 20
210.2083583005
 30
0.0
 40
0.9999999414501985
100
AcDbArc
 50
270.0
 51
0.0000546401
  0
ARC
  5
342
330
1B
100
AcDbEntity
 67
     1
  8
SLD-0
  6
Continuous
 62
   179
370
     0
100
AcDbCircle
 10
82.1777718415
 20
210.2083583535
 30
0.0
 40
0.9999999944002127
100
AcDbArc
 50
179.9999483937
 51
270.0
  0
CIRCLE
  5
343
330
1B
100
AcDbEntity
 67
     1
  8
SLD-0
  6
Continuous
 62
   179
370
     0
100
AcDbCircle
 10
96.6777718359
 20
230.2083583535
 30
0.0
 40
3.949999999999989
  0
CIRCLE
  5
344
330
1B
100
AcDbEntity
 67
     1
  8
SLD-0
  6
Continuous
 62
   179
370
     0
100
AcDbCircle
 10
96.6777718359
 20
230.2083583535
 30
0.0
 40
2.0
  0
CIRCLE
  5
345
330
1B
100
AcDbEntity
 67
     1
  8
SLD-0
  6
Continuous
 62
   179
370
     0
100
AcDbCircle
 10
96.6777718359
 20
230.2083583535
 30
0.0
 40
4.0
  0
CIRCLE
  5
346
330
1B
100
AcDbEntity
 67
     1
  8
SLD-0
  6
Continuous
 62
   179
370
     0
100
AcDbCircle
 10
96.6777719721
 20
243.2083583769
 30
0.0
 40
3.950000000000018
  0
CIRCLE
  5
347
330
1B
100
AcDbEntity
 67
     1
  8
SLD-0
  6
Continuous
 62
   179
370
     0
100
AcDbCircle
 10
96.6777719721
 20
243.2083583769
 30
0.0
 40
2.000000000000009
  0
CIRCLE
  5
348
330
1B
100
AcDbEntity
 67
     1
  8
SLD-0
  6
Continuous
 62
   179
370
     0
100
AcDbCircle
 10
96.6777719721
 20
243.2083583769
 30
0.0
 40
4.000000000000018
  0
ARC
  5
349
330
1B
100
AcDbEntity
 67
     1
  8
SLD-0
  6
Continuous
 62
   179
370
     0
100
AcDbCircle
 10
110.0411928664
 20
218.4836803837
 30
0.0
 40
1.099832542546863
100
AcDbArc
 50
55.2180919602
 51
89.0375629332
  0
ARC
  5
34A
330
1B
100
AcDbEntity
 67
     1
  8
SLD-0
  6
Continuous
 62
   179
370
     0
100
AcDbCircle
 10
110.0411928664
 20
212.9330362025
 30
0.0
 40
1.099832542552179
100
AcDbArc
 50
270.9624370668
 51
304.7819080394
  0
ARC
  5
34B
330
1B
100
AcDbEntity
 67
     1
  8
SLD-0
  6
Continuous
 62
   179
370
     0
100
AcDbCircle
 10
83.3143506484
 20
212.9330355711
 30
0.0
 40
1.099831911844684
100
AcDbArc
 50
235.2180816059
 51
269.0375604903
  0
ARC
  5
34C
330
1B
100
AcDbEntity
 67
     1
  8
SLD-0
  6
Continuous
 62
   179
370
     0
100
AcDbCircle
 10
83.3143506484
 20
218.4836810151
 30
0.0
 40
1.099831911839421
100
AcDbArc
 50
90.9624395097
 51
124.7819183945
  0
ARC
  5
34D
330
1B
100
AcDbEntity
 67
     1
  8
SLD-0
  6
Continuous
 62
     8
370
     0
100
AcDbCircle
 10
107.1486088169
 20
216.6262957045
 30
0.0
 40
3.941361042066894
100
AcDbArc
 50
4.5949069495
 51
47.7678230768
  0
ARC
  5
34E
330
1B
100
AcDbEntity
 67
     1
  8
SLD-0
  6
Continuous
 62
     8
370
     0
100
AcDbCircle
 10
107.1584016317
 20
214.7875475873
 30
0.0
 40
3.931370070839095
100
AcDbArc
 50
312.0244115488
 51
355.4354004691
  0
SPLINE
  5
34F
330
1B
100
AcDbEntity
 67
     1
  8
SLD-0
  6
Continuous
 62
   179
370
     0
100
AcDbSpline
210
0.0
220
0.0
230
1.0
 70
     8
 71
     3
 72
     9
 73
     5
 74
     0
 42
0.00000001
 43
0.00000001
 40
0.0
 40
0.0
 40
0.0
 40
0.0
 40
0.4599121315147738
 40
1.0
 40
1.0
 40
1.0
 40
1.0
 10
103.0376583501321
 20
115.9524738045821
 30
0.0
 10
103.0251858882341
 20
115.9684924832871
 30
0.0
 10
102.9980666603571
 20
116.0033223510104
 30
0.0
 10
102.9998779511111
 20
116.0015685342178
 30
0.0
 10
103.0008562072736
 20
116.0006213190445
 30
0.0
  0
SPLINE
  5
350
330
1B
100
AcDbEntity
 67
     1
  8
SLD-0
  6
Continuous
 62
   179
370
     0
100
AcDbSpline
210
0.0
220
0.0
230
1.0
 70
     8
 71
     3
 72
     9
 73
     5
 74
     0
 42
0.00000001
 43
0.00000001
 40
0.0
 40
0.0
 40
0.0
 40
0.0
 40
0.4599120676904798
 40
1.0
 40
1.0
 40
1.0
 40
1.0
 10
99.91726020123775
 20
99.32586897187323
 30
0.0
 10
99.93736895448608
 20
99.3286608356178
 30
0.0
 10
99.98109199343416
 20
99.33473126503397
 30
0.0
 10
99.97866775103986
 20
99.33403987924851
 30
0.0
 10
99.97735844697769
 20
99.3336664701292
 30
0.0
  0
SPLINE
  5
351
330
1B
100
AcDbEntity
 67
     1
  8
SLD-0
  6
Continuous
 62
   179
370
     0
100
AcDbSpline
210
0.0
220
0.0
230
1.0
 70
     8
 71
     3
 72
     9
 73
     5
 74
     0
 42
0.00000001
 43
0.00000001
 40
0.0
 40
0.0
 40
0.0
 40
0.0
 40
0.459912099701892
 40
0.9999999999999999
 40
0.9999999999999999
 40
0.9999999999999999
 40
0.9999999999999999
 10
87.07839736487682
 20
110.3415153643528
 30
0.0
 10
87.07076066106133
 20
110.3227047569281
 30
0.0
 10
87.05415595807476
 20
110.2818043165248
 30
0.0
 10
87.05476945439477
 20
110.2842492007531
 30
0.0
 10
87.0551007963341
 20
110.2855696531424
 30
0.0
  0
SPLINE
  5
352
330
1B
100
AcDbEntity
 67
     1
  8
SLD-0
  6
Continuous
 62
   179
370
     0
100
AcDbSpline
210
0.0
220
0.0
230
1.0
 70
     8
 71
     3
 72
     9
 73
     5
 74
     0
 42
0.00000001
 43
0.00000001
 40
0.0
 40
0.0
 40
0.0
 40
0.0
 40
0.5819530204230946
 40
1.0
 40
1.0
 40
1.0
 40
1.0
 10
90.33263029303367
 20
115.9845373781809
 30
0.0
 10
90.33131678459581
 20
115.9816253100285
 30
0.0
 10
90.3290597150528
 20
115.976621352578
 30
0.0
 10
90.29639677860527
 20
115.9349810324705
 30
0.0
 10
90.28274213667925
 20
115.9175734224209
 30
0.0
  0
SPLINE
  5
353
330
1B
100
AcDbEntity
 67
     1
  8
SLD-0
  6
Continuous
 62
   179
370
     0
100
AcDbSpline
210
0.0
220
0.0
230
1.0
 70
     8
 71
     3
 72
     9
 73
     5
 74
     0
 42
0.00000001
 43
0.00000001
 40
0.0
 40
0.0
 40
0.0
 40
0.0
 40
0.5819527514956145
 40
1.0
 40
1.0
 40
1.0
 40
1.0
 10
93.40314307954128
 20
99.32260654889436
 30
0.0
 10
93.40632150439829
 20
99.32292502008582
 30
0.0
 10
93.41178315888631
 20
99.32347226587275
 30
0.0
 10
93.46417703361126
 20
99.31600514891417
 30
0.0
 10
93.48608014877851
 20
99.31288354121537
 30
0.0
  0
SPLINE
  5
354
330
1B
100
AcDbEntity
 67
     1
  8
SLD-0
  6
Continuous
 62
   179
370
     0
100
AcDbSpline
210
0.0
220
0.0
230
1.0
 70
     8
 71
     3
 72
     9
 73
     5
 74
     0
 42
0.00000001
 43
0.00000001
 40
0.0
 40
0.0
 40
0.0
 40
0.0
 40
0.5819527518102529
 40
1.0
 40
1.0
 40
1.0
 40
1.0
 10
106.2975425436717
 20
110.3127137480715
 30
0.0
 10
106.2956771076452
 20
110.3153070590739
 30
0.0
 10
106.2924716308764
 20
110.3197632816698
 30
0.0
 10
106.2727416817346
 20
110.3688714215856
 30
0.0
 10
106.2644936307889
 20
110.3894009443411
 30
0.0
  0
SPLINE
  5
355
330
1B
100
AcDbEntity
 67
     1
  8
SLD-0
  6
Continuous
 62
   179
370
     0
100
AcDbSpline
210
0.0
220
0.0
230
1.0
 70
    24
 71
     3
 72
    13
 73
     9
 74
     0
 42
0.00000001
 43
0.00000001
 40
0.0
 40
0.0
 40
0.0
 40
0.0
 40
0.2394430511198087
 40
0.3696718470775984
 40
0.5000000545035852
 40
0.6302289842087998
 40
0.7605569811988923
 40
1.0
 40
1.0
 40
1.0
 40
1.0
 10
100.12777222184
 20
159.6399525741
 30
0.0
 10
100.0814346280421
 20
159.6399525741
 30
0.0
 10
100.0098948451656
 20
159.6399525741
 30
0.0
 10
99.58036678642355
 20
159.6399525741
 30
0.0
 10
99.13459914663804
 20
159.6399525741
 30
0.0
 10
98.58560303278894
 20
159.6399525741
 30
0.0
 10
97.78161061450659
 20
159.6399525741
 30
0.0
 10
97.11161999693726
 20
159.6399525741
 30
0.0
 10
96.67777156320875
 20
159.6399525741
 30
0.0
  0
SPLINE
  5
356
330
1B
100
AcDbEntity
 67
     1
  8
SLD-0
  6
Continuous
 62
   179
370
     0
100
AcDbSpline
210
0.0
220
0.0
230
1.0
 70
    24
 71
     3
 72
    13
 73
     9
 74
     0
 42
0.00000001
 43
0.00000001
 40
0.0
 40
0.0
 40
0.0
 40
0.0
 40
0.2394430118292161
 40
0.3696718833342287
 40
0.4999999779261137
 40
0.6302287947891878
 40
0.760557020489364
 40
1.0
 40
1.0
 40
1.0
 40
1.0
 10
96.67777156320875
 20
159.6399525741
 30
0.0
 10
96.24392212965655
 20
159.6399525741
 30
0.0
 10
95.5741095677467
 20
159.6399525741
 30
0.0
 10
94.77009732422492
 20
159.6399525741
 30
0.0
 10
94.22119437924012
 20
159.6399525741
 30
0.0
 10
93.7752754507846
 20
159.6399525741
 30
0.0
 10
93.34567083508179
 20
159.6399525741
 30
0.0
 10
93.27411036240414
 20
159.6399525741
 30
0.0
 10
93.2277718359
 20
159.6399525741
 30
0.0
  0
SPLINE
  5
357
330
1B
100
AcDbEntity
 67
     1
  8
SLD-0
  6
Continuous
 62
   179
370
     0
100
AcDbSpline
210
0.0
220
0.0
230
1.0
 70
    24
 71
     3
 72
    18
 73
    14
 74
     0
 42
0.00000001
 43
0.00000001
 40
0.0
 40
0.0
 40
0.0
 40
0.0
 40
0.1336943212610417
 40
0.2491781560249451
 40
0.3640779669637575
 40
0.4344725408314242
 40
0.4753416596271757
 40
0.509621691094975
 40
0.5437435922985043
 40
0.6017116998719821
 40
0.6592192519152564
 40
0.8149062079927658
 40
1.0
 40
1.0
 40
1.0
 40
1.0
 10
137.6777712419253
 20
110.3709358444849
 30
0.0
 10
137.6777712419253
 20
110.2633903450843
 30
0.0
 10
137.6777712419253
 20
110.06294810508
 30
0.0
 10
137.6777712419253
 20
109.7207809002796
 30
0.0
 10
137.6777712419253
 20
109.3631485940723
 30
0.0
 10
137.6777712419253
 20
109.0094053206221
 30
0.0
 10
137.6777712419253
 20
108.71895817786
 30
0.0
 10
137.6777712419253
 20
108.4759171889873
 30
0.0
 10
137.6777712419253
 20
108.2066649051126
 30
0.0
 10
137.6777712419253
 20
107.9411628659487
 30
0.0
 10
137.6777712419253
 20
107.557289138473
 30
0.0
 10
137.6777712419253
 20
107.1345763923927
 30
0.0
 10
137.6777712419253
 20
106.8587715838779
 30
0.0
 10
137.6777712419253
 20
106.7089692310492
 30
0.0
  0
SPLINE
  5
358
330
1B
100
AcDbEntity
 67
     1
  8
SLD-0
  6
Continuous
 62
   179
370
     0
100
AcDbSpline
210
0.0
220
0.0
230
1.0
 70
    24
 71
     3
 72
    18
 73
    14
 74
     0
 42
0.00000001
 43
0.00000001
 40
0.0
 40
0.0
 40
0.0
 40
0.0
 40
0.1336943212610417
 40
0.2491781560249451
 40
0.3640779669637575
 40
0.4344725408314242
 40
0.4753416596271757
 40
0.509621691094975
 40
0.5437435922985043
 40
0.6017116998719821
 40
0.6592192519152564
 40
0.8149062079927658
 40
1.0
 40
1.0
 40
1.0
 40
1.0
 10
130.6777713619962
 20
110.3709358414808
 30
0.0
 10
130.6777713620885
 20
110.2633903420802
 30
0.0
 10
130.6777713622606
 20
110.0629481020759
 30
0.0
 10
130.6777713625543
 20
109.7207808972755
 30
0.0
 10
130.6777713628612
 20
109.3631485910682
 30
0.0
 10
130.6777713631648
 20
109.009405317618
 30
0.0
 10
130.6777713634141
 20
108.7189581748559
 30
0.0
 10
130.6777713636228
 20
108.4759171859832
 30
0.0
 10
130.6777713638539
 20
108.2066649021085
 30
0.0
 10
130.6777713640817
 20
107.9411628629446
 30
0.0
 10
130.6777713644112
 20
107.5572891354689
 30
0.0
 10
130.6777713647739
 20
107.1345763893886
 30
0.0
 10
130.6777713650108
 20
106.8587715808738
 30
0.0
 10
130.6777713651394
 20
106.7089692280451
 30
0.0
  0
SPLINE
  5
359
330
1B
100
AcDbEntity
 67
     1
  8
SLD-0
  6
Continuous
 62
   179
370
     0
100
AcDbSpline
210
0.0
220
0.0
230
1.0
 70
    24
 71
     3
 72
    18
 73
    14
 74
     0
 42
0.00000001
 43
0.00000001
 40
0.0
 40
0.0
 40
0.0
 40
0.0
 40
0.1336943217983595
 40
0.2491781559312079
 40
0.3640779712409685
 40
0.434472544723968
 40
0.4753416632963924
 40
0.5096216945768703
 40
0.5437435955939425
 40
0.6017117174527266
 40
0.659219269181754
 40
0.8149062085681467
 40
1.0
 40
1.0
 40
1.0
 40
1.0
 10
55.67777270223912
 20
106.7089692310492
 30
0.0
 10
55.67777270223912
 20
106.8165147410252
 30
0.0
 10
55.67777270223912
 20
107.0169569998589
 30
0.0
 10
55.67777270223913
 20
107.3591241856473
 30
0.0
 10
55.67777270223912
 20
107.716756562885
 30
0.0
 10
55.67777270223912
 20
108.0704998341593
 30
0.0
 10
55.67777270223912
 20
108.3609469773293
 30
0.0
 10
55.67777270223912
 20
108.6039879682874
 30
0.0
 10
55.67777270223911
 20
108.873240273122
 30
0.0
 10
55.67777270223913
 20
109.1387423950235
 30
0.0
 10
55.67777270223911
 20
109.5226161199894
 30
0.0
 10
55.67777270223913
 20
109.9453286234949
 30
0.0
 10
55.67777270223912
 20
110.2211334660454
 30
0.0
 10
55.67777270223912
 20
110.3709358444849
 30
0.0
  0
SPLINE
  5
35A
330
1B
100
AcDbEntity
 67
     1
  8
SLD-0
  6
Continuous
 62
   179
370
     0
100
AcDbSpline
210
0.0
220
0.0
230
1.0
 70
    24
 71
     3
 72
    18
 73
    14
 74
     0
 42
0.00000001
 43
0.00000001
 40
0.0
 40
0.0
 40
0.0
 40
0.0
 40
0.1336943217983595
 40
0.2491781559312079
 40
0.3640779712409685
 40
0.434472544723968
 40
0.4753416632963924
 40
0.5096216945768703
 40
0.5437435955939425
 40
0.6017117174527266
 40
0.659219269181754
 40
0.8149062085681467
 40
1.0
 40
1.0
 40
1.0
 40
1.0
 10
62.67777292589246
 20
106.7089692977945
 30
0.0
 10
62.67777292384155
 20
106.8165148077705
 30
0.0
 10
62.67777292001909
 20
107.0169570666042
 30
0.0
 10
62.67777291349394
 20
107.3591242523926
 30
0.0
 10
62.67777290667385
 20
107.7167566296303
 30
0.0
 10
62.67777289992793
 20
108.0704999009046
 30
0.0
 10
62.67777289438909
 20
108.3609470440746
 30
0.0
 10
62.67777288975427
 20
108.6039880350327
 30
0.0
 10
62.67777288461959
 20
108.8732403398673
 30
0.0
 10
62.67777287955645
 20
109.1387424617688
 30
0.0
 10
62.67777287223594
 20
109.5226161867347
 30
0.0
 10
62.67777286417476
 20
109.9453286902402
 30
0.0
 10
62.67777285891514
 20
110.2211335327907
 30
0.0
 10
62.6777728560584
 20
110.3709359112302
 30
0.0
  0
SPLINE
  5
35B
330
1B
100
AcDbEntity
 67
     1
  8
SLD-0
  6
Continuous
 62
   179
370
     0
100
AcDbSpline
210
0.0
220
0.0
230
1.0
 70
     8
 71
     3
 72
     9
 73
     5
 74
     0
 42
0.00000001
 43
0.00000001
 40
0.0
 40
0.0
 40
0.0
 40
0.0
 40
0.1854711636110863
 40
1.0
 40
1.0
 40
1.0
 40
1.0
 10
87.15083145905793
 20
107.4104472986229
 30
0.0
 10
87.15289700281686
 20
107.4377517747912
 30
0.0
 10
87.16403374083433
 20
107.5849686015831
 30
0.0
 10
87.18955791663517
 20
107.635143219973
 30
0.0
 10
87.21034809385002
 20
107.6760118935064
 30
0.0
  0
SPLINE
  5
35C
330
1B
100
AcDbEntity
 67
     1
  8
SLD-0
  6
Continuous
 62
   179
370
     0
100
AcDbSpline
210
0.0
220
0.0
230
1.0
 70
     8
 71
     3
 72
     9
 73
     5
 74
     0
 42
0.00000001
 43
0.00000001
 40
0.0
 40
0.0
 40
0.0
 40
0.0
 40
0.1854710484716205
 40
1.0
 40
1.0
 40
1.0
 40
1.0
 10
102.4194222980952
 20
100.8541328708687
 30
0.0
 10
102.3947433737071
 20
100.8422693962616
 30
0.0
 10
102.2616825828642
 20
100.7783053722002
 30
0.0
 10
102.2054672835171
 20
100.7753229069656
 30
0.0
 10
102.1596782946801
 20
100.772893602685
 30
0.0
  0
SPLINE
  5
35D
330
1B
100
AcDbEntity
 67
     1
  8
SLD-0
  6
Continuous
 62
   179
370
     0
100
AcDbSpline
210
0.0
220
0.0
230
1.0
 70
     8
 71
     3
 72
     9
 73
     5
 74
     0
 42
0.00000001
 43
0.00000001
 40
0.0
 40
0.0
 40
0.0
 40
0.0
 40
0.9704565911907981
 40
1.0
 40
1.0
 40
1.0
 40
1.0
 10
92.66330043285724
 20
117.1575232456793
 30
0.0
 10
92.69788713652497
 20
117.2056582766523
 30
0.0
 10
92.73352675604187
 20
117.2552586723938
 30
0.0
 10
92.85919532830209
 20
117.3400152995699
 30
0.0
 10
92.86290800630685
 20
117.3425192992558
 30
0.0
  0
SPLINE
  5
35E
330
1B
100
AcDbEntity
 67
     1
  8
SLD-0
  6
Continuous
 62
   179
370
     0
100
AcDbSpline
210
0.0
220
0.0
230
1.0
 70
     8
 71
     3
 72
     9
 73
     5
 74
     0
 42
0.00000001
 43
0.00000001
 40
0.0
 40
0.0
 40
0.0
 40
0.0
 40
0.9704566544450379
 40
1.0
 40
1.0
 40
1.0
 40
1.0
 10
106.1480431547437
 20
107.7078015762569
 30
0.0
 10
106.172432043303
 20
107.6537796526447
 30
0.0
 10
106.1975633961024
 20
107.5981131544402
 30
0.0
 10
106.2081381849377
 20
107.446905558148
 30
0.0
 10
106.2084505995784
 20
107.4424383798802
 30
0.0
  0
SPLINE
  5
35F
330
1B
100
AcDbEntity
 67
     1
  8
SLD-0
  6
Continuous
 62
   179
370
     0
100
AcDbSpline
210
0.0
220
0.0
230
1.0
 70
     8
 71
     3
 72
     9
 73
     5
 74
     0
 42
0.00000001
 43
0.00000001
 40
0.0
 40
0.0
 40
0.0
 40
0.0
 40
0.9704567168813635
 40
1.0
 40
1.0
 40
1.0
 40
1.0
 10
91.2219721614156
 20
100.7545332687448
 30
0.0
 10
91.16299143192279
 20
100.7604212739947
 30
0.0
 10
91.10221517218157
 20
100.7664885257819
 30
0.0
 10
90.96598192065139
 20
100.8329367878568
 30
0.0
 10
90.96195714313127
 20
100.8348998876761
 30
0.0
  0
SPLINE
  5
360
330
1B
100
AcDbEntity
 67
     1
  8
SLD-0
  6
Continuous
 62
   179
370
     0
100
AcDbSpline
210
0.0
220
0.0
230
1.0
 70
     8
 71
     3
 72
     9
 73
     5
 74
     0
 42
0.00000001
 43
0.00000001
 40
0.0
 40
0.0
 40
0.0
 40
0.0
 40
0.1854712148516185
 40
1.0
 40
1.0
 40
1.0
 40
1.0
 10
100.4630615398805
 20
117.3552778814512
 30
0.0
 10
100.4856752690745
 20
117.3398368815153
 30
0.0
 10
100.6076010849597
 20
117.2565840708396
 30
0.0
 10
100.6382907925787
 20
117.2093918237879
 30
0.0
 10
100.6632884428422
 20
117.1709523801284
 30
0.0
  0
SPLINE
  5
361
330
1B
100
AcDbEntity
 67
     1
  8
SLD-0
  6
Continuous
 62
   179
370
     0
100
AcDbSpline
210
0.0
220
0.0
230
1.0
 70
     8
 71
     3
 72
    20
 73
    16
 74
     0
 42
0.00000001
 43
0.00000001
 40
0.0
 40
0.0
 40
0.0
 40
0.0
 40
0.1127198812165202
 40
0.2241391702021704
 40
0.3376682308161142
 40
0.41892097100577
 40
0.4636102143180669
 40
0.5090000106199292
 40
0.5387859829282169
 40
0.5922491330937303
 40
0.6562362131268692
 40
0.7355991146922353
 40
0.8165588206644254
 40
0.9657980051770179
 40
0.9999999999999999
 40
0.9999999999999999
 40
0.9999999999999999
 40
0.9999999999999999
 10
90.36468921001966
 20
116.0020117836484
 30
0.0
 10
90.27260213640913
 20
115.8853395749275
 30
0.0
 10
90.08949051454915
 20
115.6533413527315
 30
0.0
 10
89.74414802083531
 20
115.203989948217
 30
0.0
 10
89.36375110970903
 20
114.6837192244297
 30
0.0
 10
88.98615554725045
 20
114.1255854501488
 30
0.0
 10
88.67098679249776
 20
113.6227350956928
 30
0.0
 10
88.43748364183085
 20
113.2251889431544
 30
0.0
 10
88.2040611715984
 20
112.8040708510312
 30
0.0
 10
87.97244934835867
 20
112.3588386224017
 30
0.0
 10
87.73404732487131
 20
111.8644421988827
 30
0.0
 10
87.52618959990347
 20
111.4013864979715
 30
0.0
 10
87.30067835814303
 20
110.8685156471956
 30
0.0
 10
87.15503515181673
 20
110.5023044784117
 30
0.0
 10
87.06913831163062
 20
110.2845153257344
 30
0.0
 10
87.0531231328469
 20
110.2439092660734
 30
0.0
  0
SPLINE
  5
362
330
1B
100
AcDbEntity
 67
     1
  8
SLD-0
  6
Continuous
 62
   179
370
     0
100
AcDbSpline
210
0.0
220
0.0
230
1.0
 70
     8
 71
     3
 72
    10
 73
     6
 74
     0
 42
0.00000001
 43
0.00000001
 40
0.0
 40
0.0
 40
0.0
 40
0.0
 40
0.095911841379937
 40
0.7247870418382609
 40
1.0
 40
1.0
 40
1.0
 40
1.0
 10
103.2978587016087
 20
116.0345624389538
 30
0.0
 10
103.2974961871927
 20
116.0349050958426
 30
0.0
 10
103.2947567365944
 20
116.0374944869877
 30
0.0
 10
103.2905177765492
 20
116.0413771253859
 30
0.0
 10
103.286596781386
 20
116.0448419188841
 30
0.0
 10
103.2854031934958
 20
116.0458966346869
 30
0.0
  0
SPLINE
  5
363
330
1B
100
AcDbEntity
 67
     1
  8
SLD-0
  6
Continuous
 62
   179
370
     0
100
AcDbSpline
210
0.0
220
0.0
230
1.0
 70
     8
 71
     3
 72
    11
 73
     7
 74
     0
 42
0.00000001
 43
0.00000001
 40
0.0
 40
0.0
 40
0.0
 40
0.0
 40
0.0544349538142946
 40
0.4854360678188193
 40
0.8883629156551226
 40
1.0
 40
1.0
 40
1.0
 40
1.0
 10
102.9657658353072
 20
116.0231649132857
 30
0.0
 10
102.9539452729807
 20
116.0382562553086
 30
0.0
 10
102.8485327228987
 20
116.1728367264279
 30
0.0
 10
102.8102343002934
 20
116.2898702812558
 30
0.0
 10
103.0398076858108
 20
116.2021893695919
 30
0.0
 10
103.2518542042419
 20
116.0644464239686
 30
0.0
 10
103.2978587016087
 20
116.0345624389538
 30
0.0
  0
SPLINE
  5
364
330
1B
100
AcDbEntity
 67
     1
  8
SLD-0
  6
Continuous
 62
   179
370
     0
100
AcDbSpline
210
0.0
220
0.0
230
1.0
 70
     8
 71
     3
 72
    20
 73
    16
 74
     0
 42
0.00000001
 43
0.00000001
 40
0.0
 40
0.0
 40
0.0
 40
0.0
 40
0.1127115962284197
 40
0.225474682301701
 40
0.33770057829121
 40
0.4189473720186165
 40
0.4636333148873494
 40
0.5090197589167328
 40
0.5388034805497351
 40
0.5922627527032835
 40
0.6562451507473638
 40
0.736297901118507
 40
0.8165723601885488
 40
0.9658005028373645
 40
1.0
 40
1.0
 40
1.0
 40
1.0
 10
106.2966466113549
 20
110.2762124224046
 30
0.0
 10
106.241355838342
 20
110.4147379386848
 30
0.0
 10
106.1307490339274
 20
110.6918522536189
 30
0.0
 10
105.9183125269359
 20
111.2097710848824
 30
0.0
 10
105.6532229927304
 20
111.8063895721296
 30
0.0
 10
105.3609532843558
 20
112.4081638305515
 30
0.0
 10
105.082968222716
 20
112.9326616245829
 30
0.0
 10
104.8554513828289
 20
113.3336332940972
 30
0.0
 10
104.6074665597985
 20
113.7463335723448
 30
0.0
 10
104.3376460816689
 20
114.1696205427681
 30
0.0
 10
104.0278267979406
 20
114.6244007320533
 30
0.0
 10
103.7298714316945
 20
115.0377813507247
 30
0.0
 10
103.3828143534312
 20
115.4961864727336
 30
0.0
 10
103.1385576142449
 20
115.80577062439
 30
0.0
 10
102.9929195810931
 20
115.9890020075487
 30
0.0
 10
102.9657658353072
 20
116.0231649132857
 30
0.0
  0
SPLINE
  5
365
330
1B
100
AcDbEntity
 67
     1
  8
SLD-0
  6
Continuous
 62
   179
370
     0
100
AcDbSpline
210
0.0
220
0.0
230
1.0
 70
     8
 71
     3
 72
    10
 73
     6
 74
     0
 42
0.00000001
 43
0.00000001
 40
0.0
 40
0.0
 40
0.0
 40
0.0
 40
0.1291727723803922
 40
0.5647212840832532
 40
0.9999999999999999
 40
0.9999999999999999
 40
0.9999999999999999
 40
0.9999999999999999
 10
106.4716160460931
 20
110.5587028155515
 30
0.0
 10
106.474916858491
 20
110.4961534067927
 30
0.0
 10
106.489347446157
 20
110.222698081944
 30
0.0
 10
106.4473002489417
 20
109.9708755580228
 30
0.0
 10
106.3468541172938
 20
110.1744544915814
 30
0.0
 10
106.2966466113549
 20
110.2762124224046
 30
0.0
  0
SPLINE
  5
366
330
1B
100
AcDbEntity
 67
     1
  8
SLD-0
  6
Continuous
 62
   179
370
     0
100
AcDbSpline
210
0.0
220
0.0
230
1.0
 70
     8
 71
     3
 72
     9
 73
     5
 74
     0
 42
0.00000001
 43
0.00000001
 40
0.0
 40
0.0
 40
0.0
 40
0.0
 40
0.7021017250562022
 40
1.0
 40
1.0
 40
1.0
 40
1.0
 10
106.475259380005
 20
110.5422617124805
 30
0.0
 10
106.4744166047476
 20
110.5462873119738
 30
0.0
 10
106.4732162441342
 20
110.5520209533389
 30
0.0
 10
106.4719833292964
 20
110.5571691705309
 30
0.0
 10
106.4716160460931
 20
110.5587028155515
 30
0.0
  0
SPLINE
  5
367
330
1B
100
AcDbEntity
 67
     1
  8
SLD-0
  6
Continuous
 62
   179
370
     0
100
AcDbSpline
210
0.0
220
0.0
230
1.0
 70
     8
 71
     3
 72
    10
 73
     6
 74
     0
 42
0.00000001
 43
0.00000001
 40
0.0
 40
0.0
 40
0.0
 40
0.0
 40
0.0958734664261653
 40
0.7248127053969997
 40
1.0
 40
1.0
 40
1.0
 40
1.0
 10
99.85825160291012
 20
99.05948463850112
 30
0.0
 10
99.85872944523025
 20
99.05962684570447
 30
0.0
 10
99.86234197951862
 20
99.06070194595515
 30
0.0
 10
99.86782268095449
 20
99.06243628111386
 30
0.0
 10
99.87278438196465
 20
99.06409755006217
 30
0.0
 10
99.87429456558044
 20
99.0646031873712
 30
0.0
  0
SPLINE
  5
368
330
1B
100
AcDbEntity
 67
     1
  8
SLD-0
  6
Continuous
 62
   179
370
     0
100
AcDbSpline
210
0.0
220
0.0
230
1.0
 70
     8
 71
     3
 72
    11
 73
     7
 74
     0
 42
0.00000001
 43
0.00000001
 40
0.0
 40
0.0
 40
0.0
 40
0.0
 40
0.0544349835482677
 40
0.4854361746409397
 40
0.8883631451918572
 40
1.0
 40
1.0
 40
1.0
 40
1.0
 10
100.0144269480925
 20
99.35278372861833
 30
0.0
 10
100.0334067447275
 20
99.35547529457071
 30
0.0
 10
100.2026633380678
 20
99.37947793762386
 30
0.0
 10
100.3231669547211
 20
99.35412362797983
 30
0.0
 10
100.1324431861255
 20
99.19914816416724
 30
0.0
 10
99.9071335139883
 20
99.08438336063699
 30
0.0
 10
99.85825160291012
 20
99.05948463850112
 30
0.0
  0
SPLINE
  5
369
330
1B
100
AcDbEntity
 67
     1
  8
SLD-0
  6
Continuous
 62
   179
370
     0
100
AcDbSpline
210
0.0
220
0.0
230
1.0
 70
     8
 71
     3
 72
    20
 73
    16
 74
     0
 42
0.00000001
 43
0.00000001
 40
0.0
 40
0.0
 40
0.0
 40
0.0
 40
0.1127115937588921
 40
0.2254746926772915
 40
0.3377005697994701
 40
0.418947319706874
 40
0.4636332623866102
 40
0.5090196923188337
 40
0.5388034462415372
 40
0.5922627605761212
 40
0.6562451157891755
 40
0.7362979490828189
 40
0.8165723091404095
 40
0.9658005047464336
 40
0.9999999999999999
 40
0.9999999999999999
 40
0.9999999999999999
 40
0.9999999999999999
 10
93.37198009487207
 20
99.34163346909375
 30
0.0
 10
93.51959199216147
 20
99.32025380203534
 30
0.0
 10
93.81488324008787
 20
99.27748469817676
 30
0.0
 10
94.36963271885561
 20
99.20249970932441
 30
0.0
 10
95.01886391233681
 20
99.13376620105406
 30
0.0
 10
95.68614989477861
 20
99.08599107835558
 30
0.0
 10
96.27937069326734
 20
99.06448444733084
 30
0.0
 10
96.74038082456674
 20
99.06103451884393
 30
0.0
 10
97.22178233831528
 20
99.06944582072846
 30
0.0
 10
97.72327039794997
 20
99.09147180626366
 30
0.0
 10
98.27203036979182
 20
99.132393490132
 30
0.0
 10
98.77900842226175
 20
99.18374184558095
 30
0.0
 10
99.34952327047213
 20
99.25509700993132
 30
0.0
 10
99.73976214920494
 20
99.31184026947228
 30
0.0
 10
99.97126415371172
 20
99.3463495801016
 30
0.0
 10
100.0144269480925
 20
99.35278372861833
 30
0.0
  0
SPLINE
  5
36A
330
1B
100
AcDbEntity
 67
     1
  8
SLD-0
  6
Continuous
 62
   179
370
     0
100
AcDbSpline
210
0.0
220
0.0
230
1.0
 70
     8
 71
     3
 72
    10
 73
     6
 74
     0
 42
0.00000001
 43
0.00000001
 40
0.0
 40
0.0
 40
0.0
 40
0.0
 40
0.1291727197359316
 40
0.5647212641983496
 40
0.9999999999999999
 40
0.9999999999999999
 40
0.9999999999999999
 40
0.9999999999999999
 10
93.5291389166933
 20
99.04886011056992
 30
0.0
 10
93.47331925381643
 20
99.07727607543288
 30
0.0
 10
93.22928513692707
 20
99.20150586353083
 30
0.0
 10
93.03222398394063
 20
99.36383194006666
 30
0.0
 10
93.25875145291803
 20
99.34903143086943
 30
0.0
 10
93.37198009487207
 20
99.34163346909375
 30
0.0
  0
SPLINE
  5
36B
330
1B
100
AcDbEntity
 67
     1
  8
SLD-0
  6
Continuous
 62
   179
370
     0
100
AcDbSpline
210
0.0
220
0.0
230
1.0
 70
     8
 71
     3
 72
     9
 73
     5
 74
     0
 42
0.00000001
 43
0.00000001
 40
0.0
 40
0.0
 40
0.0
 40
0.0
 40
0.7020793123208984
 40
1.0
 40
1.0
 40
1.0
 40
1.0
 10
93.51307919021663
 20
99.05392510839195
 30
0.0
 10
93.51698659490738
 20
99.05264222402283
 30
0.0
 10
93.52255206966528
 20
99.05081495985681
 30
0.0
 10
93.52762699226305
 20
99.04930882061005
 30
0.0
 10
93.5291389166933
 20
99.04886011056992
 30
0.0
  0
SPLINE
  5
36C
330
1B
100
AcDbEntity
 67
     1
  8
SLD-0
  6
Continuous
 62
   179
370
     0
100
AcDbSpline
210
0.0
220
0.0
230
1.0
 70
     8
 71
     3
 72
    10
 73
     6
 74
     0
 42
0.00000001
 43
0.00000001
 40
0.0
 40
0.0
 40
0.0
 40
0.0
 40
0.0958501086888217
 40
0.72481021528134
 40
1.0
 40
1.0
 40
1.0
 40
1.0
 10
86.87720607738908
 20
110.5258105976918
 30
0.0
 10
86.87709042110913
 20
110.5253257863969
 30
0.0
 10
86.87621583834327
 20
110.5216596853997
 30
0.0
 10
86.87497650176697
 20
110.5160459420808
 30
0.0
 10
86.87393440236205
 20
110.510918109883
 30
0.0
 10
86.8736172258478
 20
110.5093573874274
 30
0.0
  0
SPLINE
  5
36D
330
1B
100
AcDbEntity
 67
     1
  8
SLD-0
  6
Continuous
 62
   179
370
     0
100
AcDbSpline
210
0.0
220
0.0
230
1.0
 70
     8
 71
     3
 72
    11
 73
     7
 74
     0
 42
0.00000001
 43
0.00000001
 40
0.0
 40
0.0
 40
0.0
 40
0.0
 40
0.0544350236553279
 40
0.4854361597592148
 40
0.8883630320376328
 40
0.9999999999999999
 40
0.9999999999999999
 40
0.9999999999999999
 40
0.9999999999999999
 10
87.0531231328469
 20
110.2439092660734
 30
0.0
 10
87.04596406546466
 20
110.226126359288
 30
0.0
 10
86.98212152542091
 20
110.0675434213266
 30
0.0
 10
86.89991402864314
 20
109.975863594466
 30
0.0
 10
86.86106105222022
 20
110.2185201534812
 30
0.0
 10
86.87432779675783
 20
110.4710278937635
 30
0.0
 10
86.87720607738908
 20
110.5258105976918
 30
0.0
  0
SPLINE
  5
36E
330
1B
100
AcDbEntity
 67
     1
  8
SLD-0
  6
Continuous
 62
   179
370
     0
100
AcDbSpline
210
0.0
220
0.0
230
1.0
 70
     8
 71
     3
 72
    10
 73
     6
 74
     0
 42
0.00000001
 43
0.00000001
 40
0.0
 40
0.0
 40
0.0
 40
0.0
 40
0.1291727306097939
 40
0.5647212814514154
 40
1.0
 40
1.0
 40
1.0
 40
1.0
 10
90.03256095346029
 20
116.0122945161948
 30
0.0
 10
90.08507978657727
 20
116.0464277846175
 30
0.0
 10
90.31468322221068
 20
116.1956526480448
 30
0.0
 10
90.55379323199827
 20
116.2851498112723
 30
0.0
 10
90.4277108614931
 20
116.0963716280827
 30
0.0
 10
90.36468921001966
 20
116.0020117836484
 30
0.0
  0
SPLINE
  5
36F
330
1B
100
AcDbEntity
 67
     1
  8
SLD-0
  6
Continuous
 62
   179
370
     0
100
AcDbSpline
210
0.0
220
0.0
230
1.0
 70
     8
 71
     3
 72
     9
 73
     5
 74
     0
 42
0.00000001
 43
0.00000001
 40
0.0
 40
0.0
 40
0.0
 40
0.0
 40
0.7020854983704727
 40
1.0
 40
1.0
 40
1.0
 40
1.0
 10
90.04497734602506
 20
116.0236706214437
 30
0.0
 10
90.04191277686458
 20
116.0209277982488
 30
0.0
 10
90.03754782534855
 20
116.017021118505
 30
0.0
 10
90.0337056062486
 20
116.0133794284674
 30
0.0
 10
90.03256095346029
 20
116.0122945161948
 30
0.0
  0
SPLINE
  5
370
330
1B
100
AcDbEntity
 67
     1
  8
SLD-0
  6
Continuous
 62
   179
370
     0
100
AcDbSpline
210
0.0
220
0.0
230
1.0
 70
     8
 71
     3
 72
    11
 73
     7
 74
     0
 42
0.00000001
 43
0.00000001
 40
0.0
 40
0.0
 40
0.0
 40
0.0
 40
0.0205843020044249
 40
0.25224695960892
 40
0.73982779084191
 40
1.0
 40
1.0
 40
1.0
 40
1.0
 10
103.6063240016139
 20
101.671282748405
 30
0.0
 10
103.5987705474058
 20
101.6642118113709
 30
0.0
 10
103.5062079791879
 20
101.5775621708789
 30
0.0
 10
103.2599036227932
 20
101.3673471827843
 30
0.0
 10
103.0080211762609
 20
101.1893559584861
 30
0.0
 10
102.8528914062802
 20
101.0956062357008
 30
0.0
 10
102.7989157581961
 20
101.0629870804885
 30
0.0
  0
SPLINE
  5
371
330
1B
100
AcDbEntity
 67
     1
  8
SLD-0
  6
Continuous
 62
   179
370
     0
100
AcDbSpline
210
0.0
220
0.0
230
1.0
 70
     8
 71
     3
 72
    10
 73
     6
 74
     0
 42
0.00000001
 43
0.00000001
 40
0.0
 40
0.0
 40
0.0
 40
0.0
 40
0.5668030373869072
 40
0.7996875542089441
 40
1.0
 40
1.0
 40
1.0
 40
1.0
 10
106.2187791809772
 20
107.0093928952913
 30
0.0
 10
106.2147510887136
 20
106.8660386887398
 30
0.0
 10
106.209067958882
 20
106.6637839948495
 30
0.0
 10
106.1614836055631
 20
106.3015888883774
 30
0.0
 10
106.1187926074709
 20
106.0991906008402
 30
0.0
 10
106.0990520760749
 20
106.0056006186853
 30
0.0
  0
SPLINE
  5
372
330
1B
100
AcDbEntity
 67
     1
  8
SLD-0
  6
Continuous
 62
   179
370
     0
100
AcDbSpline
210
0.0
220
0.0
230
1.0
 70
     8
 71
     3
 72
    11
 73
     7
 74
     0
 42
0.00000001
 43
0.00000001
 40
0.0
 40
0.0
 40
0.0
 40
0.0
 40
0.0205853907920348
 40
0.2522474470165481
 40
0.739827509687719
 40
1.0
 40
1.0
 40
1.0
 40
1.0
 10
99.16193684791241
 20
117.9745906297886
 30
0.0
 10
99.17183788189816
 20
117.9715844402285
 30
0.0
 10
99.29316229934348
 20
117.9347474596022
 30
0.0
 10
99.59836207826353
 20
117.8265485179838
 30
0.0
 10
99.87844861470761
 20
117.6974087531411
 30
0.0
 10
100.0372043603309
 20
117.6099363333052
 30
0.0
 10
100.0924417213074
 20
117.5795012418949
 30
0.0
  0
SPLINE
  5
373
330
1B
100
AcDbEntity
 67
     1
  8
SLD-0
  6
Continuous
 62
   179
370
     0
100
AcDbSpline
210
0.0
220
0.0
230
1.0
 70
     8
 71
     3
 72
    10
 73
     6
 74
     0
 42
0.00000001
 43
0.00000001
 40
0.0
 40
0.0
 40
0.0
 40
0.0
 40
0.5668030753328196
 40
0.7996875956260068
 40
1.0
 40
1.0
 40
1.0
 40
1.0
 10
93.23277252226707
 20
117.5679859753122
 30
0.0
 10
93.35893496966797
 20
117.6361744983452
 30
0.0
 10
93.53693425832934
 20
117.7323798973746
 30
0.0
 10
93.87439614874837
 20
117.8722689235502
 30
0.0
 10
94.07102330278246
 20
117.9364975304193
 30
0.0
 10
94.16194467305776
 20
117.966197156476
 30
0.0
  0
SPLINE
  5
374
330
1B
100
AcDbEntity
 67
     1
  8
SLD-0
  6
Continuous
 62
   179
370
     0
100
AcDbSpline
210
0.0
220
0.0
230
1.0
 70
     8
 71
     3
 72
    11
 73
     7
 74
     0
 42
0.00000001
 43
0.00000001
 40
0.0
 40
0.0
 40
0.0
 40
0.0
 40
0.020584531065546
 40
0.2522470565580147
 40
0.7398276080634434
 40
0.9999999999999999
 40
0.9999999999999999
 40
0.9999999999999999
 40
0.9999999999999999
 10
87.26505305048907
 20
105.9739847309746
 30
0.0
 10
87.26270626293599
 20
105.9840618610311
 30
0.0
 10
87.23394824796128
 20
106.1075490751531
 30
0.0
 10
87.17504671425259
 20
106.4259611753154
 30
0.0
 10
87.14684377123392
 20
106.7330931789389
 30
0.0
 10
87.14321935783597
 20
106.9143152248284
 30
0.0
 10
87.141958283157
 20
106.9773694375389
 30
0.0
  0
SPLINE
  5
375
330
1B
100
AcDbEntity
 67
     1
  8
SLD-0
  6
Continuous
 62
   179
370
     0
100
AcDbSpline
210
0.0
220
0.0
230
1.0
 70
     8
 71
     3
 72
    10
 73
     6
 74
     0
 42
0.00000001
 43
0.00000001
 40
0.0
 40
0.0
 40
0.0
 40
0.0
 40
0.5668032175778465
 40
0.7996877270149455
 40
1.0
 40
1.0
 40
1.0
 40
1.0
 10
90.58176425981857
 20
101.0424791167031
 30
0.0
 10
90.4596298241113
 20
101.117644438771
 30
0.0
 10
90.28731356645426
 20
101.2236932114151
 30
0.0
 10
89.99743656426082
 20
101.4460005754648
 30
0.0
 10
89.84349951404154
 20
101.5841701636999
 30
0.0
 10
89.77231828260757
 20
101.6480604449759
 30
0.0
  0
SPLINE
  5
376
330
1B
100
AcDbEntity
 67
     1
  8
SLD-0
  6
Continuous
 62
   179
370
     0
100
AcDbSpline
210
0.0
220
0.0
230
1.0
 70
     8
 71
     3
 72
    15
 73
    11
 74
     0
 42
0.00000001
 43
0.00000001
 40
0.0
 40
0.0
 40
0.0
 40
0.0
 40
0.1543115214906866
 40
0.3296080468324498
 40
0.4328573727878303
 40
0.5704527085946891
 40
0.707913621425443
 40
0.8459475838982269
 40
0.999169252657829
 40
1.0
 40
1.0
 40
1.0
 40
1.0
 10
94.00109501328285
 20
99.20772790931554
 30
0.0
 10
94.18239584853505
 20
99.15010146615253
 30
0.0
 10
94.56965283115883
 20
99.02701189258492
 30
0.0
 10
95.39883156053452
 20
98.8549424206453
 30
0.0
 10
96.30648064180652
 20
98.76901148046605
 30
0.0
 10
97.1846234285754
 20
98.77135893220871
 30
0.0
 10
98.07984415078464
 20
98.87622764457994
 30
0.0
 10
98.84999354922256
 20
99.04583207247964
 30
0.0
 10
99.22957581446695
 20
99.16426100365538
 30
0.0
 10
99.38492782818717
 20
99.21648523472304
 30
0.0
 10
99.3857655837756
 20
99.21676686056347
 30
0.0
  0
SPLINE
  5
377
330
1B
100
AcDbEntity
 67
     1
  8
SLD-0
  6
Continuous
 62
   179
370
     0
100
AcDbSpline
210
0.0
220
0.0
230
1.0
 70
     8
 71
     3
 72
     9
 73
     5
 74
     0
 42
0.00000001
 43
0.00000001
 40
0.0
 40
0.0
 40
0.0
 40
0.0
 40
0.7185319606835555
 40
0.9999999999999999
 40
0.9999999999999999
 40
0.9999999999999999
 40
0.9999999999999999
 10
103.2978587016087
 20
116.0345624389538
 30
0.0
 10
103.3328977327057
 20
115.9971377307385
 30
0.0
 10
103.3816624822425
 20
115.9450527710384
 30
0.0
 10
103.3971805825177
 20
115.8735570087406
 30
0.0
 10
103.4015484317761
 20
115.8534332367072
 30
0.0
  0
SPLINE
  5
378
330
1B
100
AcDbEntity
 67
     1
  8
SLD-0
  6
Continuous
 62
   179
370
     0
100
AcDbSpline
210
0.0
220
0.0
230
1.0
 70
     8
 71
     3
 72
    12
 73
     8
 74
     0
 42
0.00000001
 43
0.00000001
 40
0.0
 40
0.0
 40
0.0
 40
0.0
 40
0.299198992272273
 40
0.5983924222848361
 40
0.8977194465505897
 40
0.971154132583137
 40
0.9999999999999999
 40
0.9999999999999999
 40
0.9999999999999999
 40
0.9999999999999999
 10
99.85825160291012
 20
99.05948463850112
 30
0.0
 10
99.80856184640676
 20
99.05053584740186
 30
0.0
 10
99.70918325715755
 20
99.03263843156589
 30
0.0
 10
99.55517513332198
 20
99.07674505093992
 30
0.0
 10
99.45342671880861
 20
99.14583092918244
 30
0.0
 10
99.40166926337237
 20
99.19851773828853
 30
0.0
 10
99.38926415736631
 20
99.21275232437665
 30
0.0
 10
99.3857655837756
 20
99.21676686056347
 30
0.0
  0
SPLINE
  5
379
330
1B
100
AcDbEntity
 67
     1
  8
SLD-0
  6
Continuous
 62
   179
370
     0
100
AcDbSpline
210
0.0
220
0.0
230
1.0
 70
     8
 71
     3
 72
    12
 73
     8
 74
     0
 42
0.00000001
 43
0.00000001
 40
0.0
 40
0.0
 40
0.0
 40
0.0
 40
0.2991980503772349
 40
0.5983917227976635
 40
0.8977188772572694
 40
0.9711539444821111
 40
1.0
 40
1.0
 40
1.0
 40
1.0
 10
86.87720607738908
 20
110.5258105976918
 30
0.0
 10
86.89430097076476
 20
110.5733173811238
 30
0.0
 10
86.92849050737838
 20
110.6683302528539
 30
0.0
 10
87.04369152803112
 20
110.7796531477078
 30
0.0
 10
87.15439684716134
 20
110.833224519086
 30
0.0
 10
87.22590336263333
 20
110.8517065017707
 30
0.0
 10
87.24443363097919
 20
110.8553319631196
 30
0.0
 10
87.24965967010672
 20
110.8563544417212
 30
0.0
  0
SPLINE
  5
37A
330
1B
100
AcDbEntity
 67
     1
  8
SLD-0
  6
Continuous
 62
   179
370
     0
100
AcDbSpline
210
0.0
220
0.0
230
1.0
 70
     8
 71
     3
 72
    12
 73
     8
 74
     0
 42
0.00000001
 43
0.00000001
 40
0.0
 40
0.0
 40
0.0
 40
0.0
 40
0.028846006379099
 40
0.1022771351341494
 40
0.4016033944157502
 40
0.7007988318850544
 40
1.0
 40
1.0
 40
1.0
 40
1.0
 10
89.93416672345217
 20
115.524135269452
 30
0.0
 10
89.93242252212262
 20
115.5291666261978
 30
0.0
 10
89.92623823745113
 20
115.5470059328607
 30
0.0
 10
89.90625182361644
 20
115.6181053021481
 30
0.0
 10
89.89688054146326
 20
115.7407329301893
 30
0.0
 10
89.9351667305106
 20
115.8962929826104
 30
0.0
 10
90.00009600520836
 20
115.9736270914656
 30
0.0
 10
90.03256095346029
 20
116.0122945161948
 30
0.0
  0
SPLINE
  5
37B
330
1B
100
AcDbEntity
 67
     1
  8
SLD-0
  6
Continuous
 62
   179
370
     0
100
AcDbSpline
210
0.0
220
0.0
230
1.0
 70
     8
 71
     3
 72
    12
 73
     8
 74
     0
 42
0.00000001
 43
0.00000001
 40
0.0
 40
0.0
 40
0.0
 40
0.0
 40
0.0288461160626451
 40
0.102276664688681
 40
0.4016033001645643
 40
0.700798781105861
 40
1.0
 40
1.0
 40
1.0
 40
1.0
 10
94.00109501328286
 20
99.20772790931554
 30
0.0
 10
93.9976098584235
 20
99.20370164487747
 30
0.0
 10
93.98525290838667
 20
99.18942613905237
 30
0.0
 10
93.93367307890914
 20
99.13656676767414
 30
0.0
 10
93.83215871992255
 20
99.0671384192197
 30
0.0
 10
93.67829670458902
 20
99.02251447963165
 30
0.0
 10
93.57885849715882
 20
99.04007817745178
 30
0.0
 10
93.5291389166933
 20
99.04886011056992
 30
0.0
  0
SPLINE
  5
37C
330
1B
100
AcDbEntity
 67
     1
  8
SLD-0
  6
Continuous
 62
   179
370
     0
100
AcDbSpline
210
0.0
220
0.0
230
1.0
 70
     8
 71
     3
 72
     9
 73
     5
 74
     0
 42
0.00000001
 43
0.00000001
 40
0.0
 40
0.0
 40
0.0
 40
0.0
 40
0.1118018839501562
 40
1.0
 40
1.0
 40
1.0
 40
1.0
 10
106.395327688716
 20
110.7095989587197
 30
0.0
 10
106.4000707237199
 20
110.7050686995864
 30
0.0
 10
106.4424942933084
 20
110.6645482810283
 30
0.0
 10
106.4579173320972
 20
110.6084919463793
 30
0.0
 10
106.4716160460931
 20
110.5587028155515
 30
0.0
  0
SPLINE
  5
37D
330
1B
100
AcDbEntity
 67
     1
  8
SLD-0
  6
Continuous
 62
     8
370
     0
100
AcDbSpline
210
0.0
220
0.0
230
1.0
 70
     8
 71
     3
 72
     9
 73
     5
 74
     0
 42
0.00000001
 43
0.00000001
 40
0.0
 40
0.0
 40
0.0
 40
0.0
 40
0.6272805546230344
 40
1.0
 40
1.0
 40
1.0
 40
1.0
 10
89.93416672345217
 20
115.524135269452
 30
0.0
 10
89.79648041264278
 20
115.4043930132635
 30
0.0
 10
89.57698323582989
 20
115.2135019433811
 30
0.0
 10
89.26378040312744
 20
114.842580687381
 30
0.0
 10
89.14704361703207
 20
114.7043311225661
 30
0.0
  0
SPLINE
  5
37E
330
1B
100
AcDbEntity
 67
     1
  8
SLD-0
  6
Continuous
 62
     8
370
     0
100
AcDbSpline
210
0.0
220
0.0
230
1.0
 70
     8
 71
     3
 72
    10
 73
     6
 74
     0
 42
0.00000001
 43
0.00000001
 40
0.0
 40
0.0
 40
0.0
 40
0.0
 40
0.352268178327716
 40
0.996507032168516
 40
0.9999999999999999
 40
0.9999999999999999
 40
0.9999999999999999
 40
0.9999999999999999
 10
87.53713613148744
 20
111.8946254441926
 30
0.0
 10
87.48614216300717
 20
111.7447547617427
 30
0.0
 10
87.34188886022515
 20
111.3207959764611
 30
0.0
 10
87.28229188307165
 20
111.0178862224517
 30
0.0
 10
87.24983469917811
 20
110.8572208481033
 30
0.0
 10
87.24965967010672
 20
110.8563544417212
 30
0.0
  0
SPLINE
  5
37F
330
1B
100
AcDbEntity
 67
     1
  8
SLD-0
  6
Continuous
 62
   179
370
     0
100
AcDbSpline
210
0.0
220
0.0
230
1.0
 70
     8
 71
     3
 72
    10
 73
     6
 74
     0
 42
0.00000001
 43
0.00000001
 40
0.0
 40
0.0
 40
0.0
 40
0.0
 40
0.2559045703986572
 40
0.6953257322983645
 40
1.0
 40
1.0
 40
1.0
 40
1.0
 10
95.80112362053211
 20
244.1899586335494
 30
0.0
 10
95.95479755474858
 20
244.1685200688214
 30
0.0
 10
96.372349459655
 20
244.110268722643
 30
0.0
 10
97.00506523780565
 20
244.0326729532683
 30
0.0
 10
97.44802888543688
 20
243.9770427527507
 30
0.0
 10
97.62940296675976
 20
243.9542646386398
 30
0.0
  0
SPLINE
  5
380
330
1B
100
AcDbEntity
 67
     1
  8
SLD-0
  6
Continuous
 62
   179
370
     0
100
AcDbSpline
210
0.0
220
0.0
230
1.0
 70
     8
 71
     3
 72
    10
 73
     6
 74
     0
 42
0.00000001
 43
0.00000001
 40
0.0
 40
0.0
 40
0.0
 40
0.0
 40
0.4283890298004465
 40
0.980386187789779
 40
0.9999999999999999
 40
0.9999999999999999
 40
0.9999999999999999
 40
0.9999999999999999
 10
97.48273083712871
 20
243.6426333949639
 30
0.0
 10
97.28102008730194
 20
243.6146795834484
 30
0.0
 10
96.81939661120356
 20
243.5507061182113
 30
0.0
 10
96.31789883687159
 20
243.4929743674302
 30
0.0
 10
96.0506657420129
 20
243.458558199069
 30
0.0
 10
96.04149611439522
 20
243.4573772695585
 30
0.0
  0
SPLINE
  5
381
330
1B
100
AcDbEntity
 67
     1
  8
SLD-0
  6
Continuous
 62
   179
370
     0
100
AcDbSpline
210
0.0
220
0.0
230
1.0
 70
     8
 71
     3
 72
    19
 73
    15
 74
     0
 42
0.00000001
 43
0.00000001
 40
0.0
 40
0.0
 40
0.0
 40
0.0
 40
0.119721519417161
 40
0.18483596251347
 40
0.2499999230724329
 40
0.3151144267839312
 40
0.3802785073080366
 40
0.4999999581670528
 40
0.6197214937435657
 40
0.6848358971703149
 40
0.7500000063353214
 40
0.8151144766357885
 40
0.8802784805828391
 40
1.0
 40
1.0
 40
1.0
 40
1.0
 10
96.67777197208221
 20
233.6583585344924
 30
0.0
 10
97.11159005832894
 20
233.6120215570201
 30
0.0
 10
97.78135422368138
 20
233.5404827069222
 30
0.0
 10
98.58560388781848
 20
233.1109530464627
 30
0.0
 10
99.1337444762849
 20
232.6651866410963
 30
0.0
 10
99.58252489962763
 20
232.1161901176816
 30
0.0
 10
99.99845739817486
 20
231.3121972116071
 30
0.0
 10
100.2115098963749
 20
230.2083593188946
 30
0.0
 10
99.99849214953024
 20
229.104697281093
 30
0.0
 10
99.58262480889987
 20
228.3006839450957
 30
0.0
 10
99.13399600322253
 20
227.7517820563928
 30
0.0
 10
98.58576136896681
 20
227.3058617102173
 30
0.0
 10
97.78153132730796
 20
226.8762584349637
 30
0.0
 10
97.11158908238906
 20
226.804697200007
 30
0.0
 10
96.67777197208221
 20
226.7583581485523
 30
0.0
  0
SPLINE
  5
382
330
1B
100
AcDbEntity
 67
     1
  8
SLD-0
  6
Continuous
 62
   179
370
     0
100
AcDbSpline
210
0.0
220
0.0
230
1.0
 70
     8
 71
     3
 72
    19
 73
    15
 74
     0
 42
0.00000001
 43
0.00000001
 40
0.0
 40
0.0
 40
0.0
 40
0.0
 40
0.1197215155996991
 40
0.1848359566197573
 40
0.250000009187265
 40
0.3151144228863517
 40
0.3802785410080104
 40
0.5000000404484182
 40
0.619721455171309
 40
0.6848358961913672
 40
0.7499999821721622
 40
0.8151144626933762
 40
0.880278484400301
 40
1.0
 40
1.0
 40
1.0
 40
1.0
 10
96.67777197208221
 20
226.7583581485523
 30
0.0
 10
96.24395386126963
 20
226.8046951025833
 30
0.0
 10
95.57418965799035
 20
226.8762339164904
 30
0.0
 10
94.76993987747353
 20
227.3057639163701
 30
0.0
 10
94.22179873237951
 20
227.7515298451331
 30
0.0
 10
93.77301927015681
 20
228.3005271966981
 30
0.0
 10
93.35708451524845
 20
229.1045191530858
 30
0.0
 10
93.14403687199807
 20
230.2083576702502
 30
0.0
 10
93.35704992252845
 20
231.3120203894567
 30
0.0
 10
93.77291971992231
 20
232.1160320866936
 30
0.0
 10
94.22154639760153
 20
232.6649358492738
 30
0.0
 10
94.76978305410647
 20
233.1108539694867
 30
0.0
 10
95.57401222036088
 20
233.5404586969629
 30
0.0
 10
96.24395473419092
 20
233.6120196624823
 30
0.0
 10
96.67777197208221
 20
233.6583585344924
 30
0.0
  0
SPLINE
  5
383
330
1B
100
AcDbEntity
 67
     1
  8
SLD-0
  6
Continuous
 62
   179
370
     0
100
AcDbSpline
210
0.0
220
0.0
230
1.0
 70
     8
 71
     3
 72
    19
 73
    15
 74
     0
 42
0.00000001
 43
0.00000001
 40
0.0
 40
0.0
 40
0.0
 40
0.0
 40
0.1197214877079012
 40
0.1848265695531411
 40
0.2500000528472844
 40
0.3151050345027679
 40
0.3802785103196278
 40
0.4999999980275289
 40
0.6197213688252811
 40
0.684826395927975
 40
0.74999997144405
 40
0.8151049530995333
 40
0.8802785345918835
 40
1.0
 40
1.0
 40
1.0
 40
1.0
 10
94.17777156230028
 20
230.2083588071837
 30
0.0
 10
94.21134857408119
 20
229.8939976709416
 30
0.0
 10
94.26318491542743
 20
229.4086855392195
 30
0.0
 10
94.57442963384227
 20
228.82589360019
 30
0.0
 10
94.89742650595987
 20
228.4287019110877
 30
0.0
 10
95.2952643105408
 20
228.1034793330573
 30
0.0
 10
95.87786389386625
 20
227.8020681048335
 30
0.0
 10
96.67777088431497
 20
227.6476802250877
 30
0.0
 10
97.47750210415781
 20
227.802033827377
 30
0.0
 10
98.06012216869419
 20
228.1033796003306
 30
0.0
 10
98.45786648767164
 20
228.4284494369974
 30
0.0
 10
98.78101659420959
 20
228.8257359748724
 30
0.0
 10
99.09233442357824
 20
229.4085081550333
 30
0.0
 10
99.14419268624331
 20
229.89399865823
 30
0.0
 10
99.17777145054157
 20
230.2083588071837
 30
0.0
  0
SPLINE
  5
384
330
1B
100
AcDbEntity
 67
     1
  8
SLD-0
  6
Continuous
 62
   179
370
     0
100
AcDbSpline
210
0.0
220
0.0
230
1.0
 70
     8
 71
     3
 72
    19
 73
    15
 74
     0
 42
0.00000001
 43
0.00000001
 40
0.0
 40
0.0
 40
0.0
 40
0.0
 40
0.1197213695884565
 40
0.1848264081602686
 40
0.2499999029355895
 40
0.3151049336831903
 40
0.3802786049555714
 40
0.4999999968438384
 40
0.6197215056422751
 40
0.6848265442140872
 40
0.7499999467675472
 40
0.8151050151381878
 40
0.880278608111733
 40
1.0
 40
1.0
 40
1.0
 40
1.0
 10
99.17777145054157
 20
230.2083588071837
 30
0.0
 10
99.14419460014811
 20
230.5227195289713
 30
0.0
 10
99.09235850207398
 20
231.0080310758941
 30
0.0
 10
98.78111541440673
 20
231.5908233725789
 30
0.0
 10
98.45811811128662
 20
231.9880146140585
 30
0.0
 10
98.06028055080652
 20
232.3132385329538
 30
0.0
 10
97.47767939400373
 20
232.6146474304693
 30
0.0
 10
96.67777258028278
 20
232.7690368347647
 30
0.0
 10
95.87804133617405
 20
232.6146827464096
 30
0.0
 10
95.29542093716428
 20
232.3133377107116
 30
0.0
 10
94.89767839645592
 20
231.98826626
 30
0.0
 10
94.57452716312767
 20
231.5909811248526
 30
0.0
 10
94.26320989677488
 20
231.0082086061888
 30
0.0
 10
94.21135083480375
 20
230.5227185676801
 30
0.0
 10
94.17777156230028
 20
230.2083588071837
 30
0.0
  0
SPLINE
  5
385
330
1B
100
AcDbEntity
 67
     1
  8
SLD-0
  6
Continuous
 62
   179
370
     0
100
AcDbSpline
210
0.0
220
0.0
230
1.0
 70
     8
 71
     3
 72
    19
 73
    15
 74
     0
 42
0.00000001
 43
0.00000001
 40
0.0
 40
0.0
 40
0.0
 40
0.0
 40
0.1197215213403439
 40
0.184835945647847
 40
0.2499999345134266
 40
0.3151144392709114
 40
0.3802785208417998
 40
0.499999994803372
 40
0.6197214899443187
 40
0.6848359039895641
 40
0.7500000350846405
 40
0.8151144655372388
 40
0.8802784808373766
 40
0.9999999999999999
 40
0.9999999999999999
 40
0.9999999999999999
 40
0.9999999999999999
 10
96.67777197208221
 20
246.658358337052
 30
0.0
 10
97.11158999411394
 20
246.61202124768
 30
0.0
 10
97.78135398845345
 20
246.5404822324993
 30
0.0
 10
98.5856041743601
 20
246.110953443586
 30
0.0
 10
99.13374430904669
 20
245.6651863804576
 30
0.0
 10
99.58252492765052
 20
245.1161899570097
 30
0.0
 10
99.99845741612943
 20
244.3121969265421
 30
0.0
 10
100.211509908747
 20
243.2083591236654
 30
0.0
 10
99.99849207861972
 20
242.1046971166311
 30
0.0
 10
99.58262471931143
 20
241.3006839078249
 30
0.0
 10
99.13399633983744
 20
240.7517816321642
 30
0.0
 10
98.5857610456877
 20
240.3058621638485
 30
0.0
 10
97.78153150410392
 20
239.8762583104529
 30
0.0
 10
97.11158913551002
 20
239.804697276792
 30
0.0
 10
96.67777197208221
 20
239.7583583585656
 30
0.0
  0
SPLINE
  5
386
330
1B
100
AcDbEntity
 67
     1
  8
SLD-0
  6
Continuous
 62
   179
370
     0
100
AcDbSpline
210
0.0
220
0.0
230
1.0
 70
     8
 71
     3
 72
    19
 73
    15
 74
     0
 42
0.00000001
 43
0.00000001
 40
0.0
 40
0.0
 40
0.0
 40
0.0
 40
0.1197215143309431
 40
0.1848359500343951
 40
0.2499999843555306
 40
0.3151144361364283
 40
0.380278545180707
 40
0.5000000031713202
 40
0.619721439982554
 40
0.6848359197870041
 40
0.7499999728492585
 40
0.8151144811273708
 40
0.8802784834913364
 40
1.0
 40
1.0
 40
1.0
 40
1.0
 10
96.67777197208221
 20
239.7583583585656
 30
0.0
 10
96.24395385795684
 20
239.8046952684358
 30
0.0
 10
95.57418966632761
 20
239.8762340123732
 30
0.0
 10
94.76993997974985
 20
240.3057638960729
 30
0.0
 10
94.22179843919605
 20
240.7515294752409
 30
0.0
 10
93.77301947933462
 20
241.3005273057692
 30
0.0
 10
93.35708449559776
 20
242.10451901134
 30
0.0
 10
93.14403682246541
 20
243.2083575277066
 30
0.0
 10
93.3570501232754
 20
244.312020127113
 30
0.0
 10
93.7729194055431
 20
245.1160322764146
 30
0.0
 10
94.22154675049076
 20
245.66493559487
 30
0.0
 10
94.76978274351136
 20
246.1108543847958
 30
0.0
 10
95.57401246769892
 20
246.5404582134426
 30
0.0
 10
96.24395480315108
 20
246.6120193495844
 30
0.0
 10
96.67777197208221
 20
246.658358337052
 30
0.0
  0
SPLINE
  5
387
330
1B
100
AcDbEntity
 67
     1
  8
SLD-0
  6
Continuous
 62
   179
370
     0
100
AcDbSpline
210
0.0
220
0.0
230
1.0
 70
     8
 71
     3
 72
    19
 73
    15
 74
     0
 42
0.00000001
 43
0.00000001
 40
0.0
 40
0.0
 40
0.0
 40
0.0
 40
0.1197214717686685
 40
0.1848265344198549
 40
0.2500000134200954
 40
0.315105039924814
 40
0.3802785024428985
 40
0.5000000048328485
 40
0.6197213903126377
 40
0.6848264314843768
 40
0.7500000142342956
 40
0.8151050146426861
 40
0.8802785505311241
 40
1.0
 40
1.0
 40
1.0
 40
1.0
 10
94.17777156230028
 20
243.2083583769126
 30
0.0
 10
94.21134856763634
 20
242.8939973176631
 30
0.0
 10
94.26318489608083
 20
242.4086853324421
 30
0.0
 10
94.57442964198623
 20
241.8258935702863
 30
0.0
 10
94.89742670452773
 20
241.4287021116721
 30
0.0
 10
95.29526404918983
 20
241.1034789023651
 30
0.0
 10
95.87786409464421
 20
240.8020683784952
 30
0.0
 10
96.67777082416676
 20
240.6476800975641
 30
0.0
 10
97.47750216102872
 20
240.8020338237581
 30
0.0
 10
98.06012212824766
 20
241.1033797739087
 30
0.0
 10
98.45786654957712
 20
241.4284495777352
 30
0.0
 10
98.78101641560363
 20
241.82573615604
 30
0.0
 10
99.09233455956971
 20
242.4085079447649
 30
0.0
 10
99.1441927356206
 20
242.8939982763171
 30
0.0
 10
99.17777145054157
 20
243.2083583769126
 30
0.0
  0
SPLINE
  5
388
330
1B
100
AcDbEntity
 67
     1
  8
SLD-0
  6
Continuous
 62
   179
370
     0
100
AcDbSpline
210
0.0
220
0.0
230
1.0
 70
     8
 71
     3
 72
    19
 73
    15
 74
     0
 42
0.00000001
 43
0.00000001
 40
0.0
 40
0.0
 40
0.0
 40
0.0
 40
0.1197214462583118
 40
0.1848264260006925
 40
0.2499999147809153
 40
0.3151049395397158
 40
0.3802786048169827
 40
0.4999999968424149
 40
0.6197215057779951
 40
0.6848265383610062
 40
0.7499999349193766
 40
0.8151049973012134
 40
0.8802785314418962
 40
1.0
 40
1.0
 40
1.0
 40
1.0
 10
99.17777145054157
 20
243.2083583769126
 30
0.0
 10
99.14419469654501
 20
243.5227193701286
 30
0.0
 10
99.09235877548123
 20
244.0080310721339
 30
0.0
 10
98.78111527255014
 20
244.5908232567714
 30
0.0
 10
98.4581181252509
 20
244.9880144180059
 30
0.0
 10
98.0602805494063
 20
245.313238355708
 30
0.0
 10
97.47767935768488
 20
245.6146471355984
 30
0.0
 10
96.67777258027928
 20
245.769037469608
 30
0.0
 10
95.87804137248273
 20
245.6146824516752
 30
0.0
 10
95.29542093855473
 20
245.3133375334827
 30
0.0
 10
94.8976783824999
 20
244.9882660639496
 30
0.0
 10
94.57452730487445
 20
244.5909810090816
 30
0.0
 10
94.26320962344566
 20
244.0082086024048
 30
0.0
 10
94.21135073846523
 20
243.5227184088155
 30
0.0
 10
94.17777156230028
 20
243.2083583769126
 30
0.0
  0
SPLINE
  5
389
330
1B
100
AcDbEntity
 67
     1
  8
SLD-0
  6
Continuous
 62
   179
370
     0
100
AcDbSpline
210
0.0
220
0.0
230
1.0
 70
    24
 71
     3
 72
    13
 73
     9
 74
     0
 42
0.00000001
 43
0.00000001
 40
0.0
 40
0.0
 40
0.0
 40
0.0
 40
0.2671764288772873
 40
0.4957210659010963
 40
0.7274230731528507
 40
0.8681004832395434
 40
0.9497738490804928
 40
1.0
 40
1.0
 40
1.0
 40
1.0
 10
137.6777712419
 20
219.7083580174
 30
0.0
 10
137.6777712419
 20
219.4369598989957
 30
0.0
 10
137.6777712419
 20
218.9334058800118
 30
0.0
 10
137.6777712419
 20
218.2206491161345
 30
0.0
 10
137.6777712419
 20
217.6602625085255
 30
0.0
 10
137.6777712419
 20
217.3120730934843
 30
0.0
 10
137.6777712419
 20
217.1682408843651
 30
0.0
 10
137.6777712419
 20
217.1653203675369
 30
0.0
 10
137.6777712419
 20
217.1642082609684
 30
0.0
  0
SPLINE
  5
38A
330
1B
100
AcDbEntity
 67
     1
  8
SLD-0
  6
Continuous
 62
   179
370
     0
100
AcDbSpline
210
0.0
220
0.0
230
1.0
 70
    24
 71
     3
 72
    13
 73
     9
 74
     0
 42
0.00000001
 43
0.00000001
 40
0.0
 40
0.0
 40
0.0
 40
0.0
 40
0.2671764288772873
 40
0.4957210659010963
 40
0.7274230731528507
 40
0.8681004832395434
 40
0.9497738490804928
 40
1.0
 40
1.0
 40
1.0
 40
1.0
 10
130.6777719572
 20
219.7083580174
 30
0.0
 10
130.6777719572
 20
219.4369598989957
 30
0.0
 10
130.6777719572
 20
218.9334058800118
 30
0.0
 10
130.6777719572
 20
218.2206491161345
 30
0.0
 10
130.6777719572
 20
217.6602625085255
 30
0.0
 10
130.6777719572
 20
217.3120730934843
 30
0.0
 10
130.6777719572
 20
217.1682408843651
 30
0.0
 10
130.6777719572
 20
217.1653203675369
 30
0.0
 10
130.6777719572
 20
217.1642082609684
 30
0.0
  0
SPLINE
  5
38B
330
1B
100
AcDbEntity
 67
     1
  8
SLD-0
  6
Continuous
 62
   179
370
     0
100
AcDbSpline
210
0.0
220
0.0
230
1.0
 70
     8
 71
     3
 72
     9
 73
     5
 74
     0
 42
0.00000001
 43
0.00000001
 40
0.0
 40
0.0
 40
0.0
 40
0.0
 40
0.5134639925749553
 40
1.0
 40
1.0
 40
1.0
 40
1.0
 10
95.45991124357994
 20
219.387005163051
 30
0.0
 10
95.87725594623825
 20
219.486918713064
 30
0.0
 10
96.6900582238924
 20
219.6815059703163
 30
0.0
 10
97.50105403608289
 20
219.4833938453531
 30
0.0
 10
97.89563270058449
 20
219.387005163051
 30
0.0
  0
SPLINE
  5
38C
330
1B
100
AcDbEntity
 67
     1
  8
SLD-0
  6
Continuous
 62
   179
370
     0
100
AcDbSpline
210
0.0
220
0.0
230
1.0
 70
     8
 71
     3
 72
    16
 73
    12
 74
     0
 42
0.00000001
 43
0.00000001
 40
0.0
 40
0.0
 40
0.0
 40
0.0
 40
0.0753914216025588
 40
0.1507723465564534
 40
0.2873179158435857
 40
0.4196177668138831
 40
0.5470868965571257
 40
0.6719932431069063
 40
0.7982046597617631
 40
0.9285255091267887
 40
1.0
 40
1.0
 40
1.0
 40
1.0
 10
95.45991124357994
 20
212.0297114231361
 30
0.0
 10
95.22616893223885
 20
212.114357087867
 30
0.0
 10
94.75871685319186
 20
212.2836366322238
 30
0.0
 10
93.96362230201969
 20
212.7999378417297
 30
0.0
 10
93.19136883366771
 20
213.6495461866981
 30
0.0
 10
92.69425790581565
 20
214.8826682740938
 30
0.0
 10
92.63773470011532
 20
216.1760027931102
 30
0.0
 10
92.9967115484347
 20
217.3946590930933
 30
0.0
 10
93.73075780264624
 20
218.4281568203151
 30
0.0
 10
94.61260574334344
 20
219.082450012643
 30
0.0
 10
95.23829611322631
 20
219.3073479091577
 30
0.0
 10
95.45991124357994
 20
219.387005163051
 30
0.0
  0
SPLINE
  5
38D
330
1B
100
AcDbEntity
 67
     1
  8
SLD-0
  6
Continuous
 62
   179
370
     0
100
AcDbSpline
210
0.0
220
0.0
230
1.0
 70
     8
 71
     3
 72
     9
 73
     5
 74
     0
 42
0.00000001
 43
0.00000001
 40
0.0
 40
0.0
 40
0.0
 40
0.0
 40
0.5134639925749553
 40
1.0
 40
1.0
 40
1.0
 40
1.0
 10
97.89563270058449
 20
212.0297114231361
 30
0.0
 10
97.47828799792619
 20
211.9297978731232
 30
0.0
 10
96.66548572027203
 20
211.7352106158709
 30
0.0
 10
95.85448990808156
 20
211.9333227408341
 30
0.0
 10
95.45991124357994
 20
212.0297114231361
 30
0.0
  0
SPLINE
  5
38E
330
1B
100
AcDbEntity
 67
     1
  8
SLD-0
  6
Continuous
 62
   179
370
     0
100
AcDbSpline
210
0.0
220
0.0
230
1.0
 70
     8
 71
     3
 72
    16
 73
    12
 74
     0
 42
0.00000001
 43
0.00000001
 40
0.0
 40
0.0
 40
0.0
 40
0.0
 40
0.0753914278759054
 40
0.1507723591022733
 40
0.2873179397514103
 40
0.4196177667153736
 40
0.5470869070653672
 40
0.6719932375207819
 40
0.7982047184344121
 40
0.9285255031793711
 40
1.0
 40
1.0
 40
1.0
 40
1.0
 10
97.89563270058449
 20
219.387005163051
 30
0.0
 10
98.12937501446827
 20
219.302359499556
 30
0.0
 10
98.59682709860029
 20
219.1330799576705
 30
0.0
 10
99.39192160132535
 20
218.6167787246189
 30
0.0
 10
100.1641753247231
 20
217.7671706282058
 30
0.0
 10
100.6612849471451
 20
216.5340480450478
 30
0.0
 10
100.7178080025773
 20
215.2407140524816
 30
0.0
 10
100.3588328393507
 20
214.0220569594098
 30
0.0
 10
99.62478504881733
 20
212.9885604314432
 30
0.0
 10
98.74293807364992
 20
212.334266376344
 30
0.0
 10
98.11724785887571
 20
212.1093686474487
 30
0.0
 10
97.89563270058449
 20
212.0297114231361
 30
0.0
  0
SPLINE
  5
38F
330
1B
100
AcDbEntity
 67
     1
  8
SLD-0
  6
Continuous
 62
   179
370
     0
100
AcDbSpline
210
0.0
220
0.0
230
1.0
 70
     8
 71
     3
 72
     9
 73
     5
 74
     0
 42
0.00000001
 43
0.00000001
 40
0.0
 40
0.0
 40
0.0
 40
0.0
 40
0.5134641377875475
 40
1.0
 40
1.0
 40
1.0
 40
1.0
 10
110.6685970142108
 20
212.0297114231361
 30
0.0
 10
110.4810407760179
 20
211.9297978530628
 30
0.0
 10
110.1157645582844
 20
211.735210611773
 30
0.0
 10
109.6683967621344
 20
211.9333227588455
 30
0.0
 10
109.4507362857085
 20
212.0297114231361
 30
0.0
  0
SPLINE
  5
390
330
1B
100
AcDbEntity
 67
     1
  8
SLD-0
  6
Continuous
 62
   179
370
     0
100
AcDbSpline
210
0.0
220
0.0
230
1.0
 70
     8
 71
     3
 72
    16
 73
    12
 74
     0
 42
0.00000001
 43
0.00000001
 40
0.0
 40
0.0
 40
0.0
 40
0.0
 40
0.0431936364080772
 40
0.1813368135541302
 40
0.3170314180490053
 40
0.4482445474783445
 40
0.574874908234198
 40
0.6997648432915272
 40
0.8037022203604551
 40
0.9391701273620073
 40
1.0
 40
1.0
 40
1.0
 40
1.0
 10
110.6685970142108
 20
219.387005163051
 30
0.0
 10
110.72575886401
 20
219.3415339351401
 30
0.0
 10
110.9657374479273
 20
219.15063526896
 30
0.0
 10
111.2933099237613
 20
218.5734454864557
 30
0.0
 10
111.548099500675
 20
217.5055366166789
 30
0.0
 10
111.655583507104
 20
216.2449822785861
 30
0.0
 10
111.6453730075608
 20
214.9583145921659
 30
0.0
 10
111.5301199907208
 20
213.8434780045698
 30
0.0
 10
111.299488047463
 20
212.8936168966649
 30
0.0
 10
111.0054098936258
 20
212.3101886918464
 30
0.0
 10
110.7482783879416
 20
212.0960652220464
 30
0.0
 10
110.6685970142108
 20
212.0297114231361
 30
0.0
  0
SPLINE
  5
391
330
1B
100
AcDbEntity
 67
     1
  8
SLD-0
  6
Continuous
 62
   179
370
     0
100
AcDbSpline
210
0.0
220
0.0
230
1.0
 70
     8
 71
     3
 72
     9
 73
     5
 74
     0
 42
0.00000001
 43
0.00000001
 40
0.0
 40
0.0
 40
0.0
 40
0.0
 40
0.5134638319192868
 40
1.0
 40
1.0
 40
1.0
 40
1.0
 10
109.4507362857085
 20
219.387005163051
 30
0.0
 10
109.680524744547
 20
219.4869186908703
 30
0.0
 10
110.1280508302297
 20
219.6815059657827
 30
0.0
 10
110.4916788371278
 20
219.48339386528
 30
0.0
 10
110.6685970142108
 20
219.387005163051
 30
0.0
  0
SPLINE
  5
392
330
1B
100
AcDbEntity
 67
     1
  8
SLD-0
  6
Continuous
 62
   179
370
     0
100
AcDbSpline
210
0.0
220
0.0
230
1.0
 70
     8
 71
     3
 72
    15
 73
    11
 74
     0
 42
0.00000001
 43
0.00000001
 40
0.0
 40
0.0
 40
0.0
 40
0.0
 40
0.1027291130900228
 40
0.2401208784345444
 40
0.374104164206341
 40
0.5031983690811502
 40
0.6286284424712107
 40
0.7540154667045509
 40
0.8827886518338168
 40
1.0
 40
1.0
 40
1.0
 40
1.0
 10
109.4507362857085
 20
212.0297114231361
 30
0.0
 10
109.2654670936607
 20
212.1511584556773
 30
0.0
 10
108.8324155486483
 20
212.4350309360275
 30
0.0
 10
108.2099854801763
 20
213.2715786347955
 30
0.0
 10
107.7492815215433
 20
214.4383904371753
 30
0.0
 10
107.5951452388207
 20
215.7293903687583
 30
0.0
 10
107.7569669006433
 20
216.9875578258921
 30
0.0
 10
108.1890170642162
 20
218.0930763065104
 30
0.0
 10
108.79441911086
 20
218.9463924690111
 30
0.0
 10
109.2389282096394
 20
219.2448096962971
 30
0.0
 10
109.4507362857085
 20
219.387005163051
 30
0.0
  0
SPLINE
  5
393
330
1B
100
AcDbEntity
 67
     1
  8
SLD-0
  6
Continuous
 62
   179
370
     0
100
AcDbSpline
210
0.0
220
0.0
230
1.0
 70
     8
 71
     3
 72
    15
 73
    11
 74
     0
 42
0.00000001
 43
0.00000001
 40
0.0
 40
0.0
 40
0.0
 40
0.0
 40
0.1308473186096918
 40
0.2677325792803317
 40
0.4007798180984701
 40
0.5289258371447222
 40
0.6540239271769553
 40
0.7798847481346107
 40
0.9095959086192931
 40
1.0
 40
1.0
 40
1.0
 40
1.0
 10
83.9048071928104
 20
219.3870051630737
 30
0.0
 10
84.14168306338176
 20
219.2242396938463
 30
0.0
 10
84.62636542807374
 20
218.8911979520892
 30
0.0
 10
85.26164487289142
 20
217.9225569666379
 30
0.0
 10
85.66415451111149
 20
216.7188105786836
 30
0.0
 10
85.75206215003013
 20
215.4232191614465
 30
0.0
 10
85.53012851065016
 20
214.1870522602423
 30
0.0
 10
85.0509080913844
 20
213.1225844401495
 30
0.0
 10
84.46402181182185
 20
212.3883044509511
 30
0.0
 10
84.06761601814812
 20
212.1341116080688
 30
0.0
 10
83.9048071928104
 20
212.0297114231588
 30
0.0
  0
SPLINE
  5
394
330
1B
100
AcDbEntity
 67
     1
  8
SLD-0
  6
Continuous
 62
   179
370
     0
100
AcDbSpline
210
0.0
220
0.0
230
1.0
 70
     8
 71
     3
 72
     9
 73
     5
 74
     0
 42
0.00000001
 43
0.00000001
 40
0.0
 40
0.0
 40
0.0
 40
0.0
 40
0.5134641166408207
 40
1.0
 40
1.0
 40
1.0
 40
1.0
 10
82.68694669713877
 20
219.3870051630737
 30
0.0
 10
82.87450284293689
 20
219.4869187302258
 30
0.0
 10
83.23977889577026
 20
219.6815059738401
 30
0.0
 10
83.68714670201342
 20
219.4833938299874
 30
0.0
 10
83.9048071928104
 20
219.3870051630737
 30
0.0
  0
SPLINE
  5
395
330
1B
100
AcDbEntity
 67
     1
  8
SLD-0
  6
Continuous
 62
   179
370
     0
100
AcDbSpline
210
0.0
220
0.0
230
1.0
 70
     8
 71
     3
 72
    10
 73
     6
 74
     0
 42
0.00000001
 43
0.00000001
 40
0.0
 40
0.0
 40
0.0
 40
0.0
 40
0.2821557111517236
 40
0.7739005729773673
 40
1.0
 40
1.0
 40
1.0
 40
1.0
 10
82.68694669713877
 20
212.0297114231588
 30
0.0
 10
82.59433109645042
 20
212.1106408690015
 30
0.0
 10
82.34030375053288
 20
212.3326152683596
 30
0.0
 10
82.08036231660101
 20
212.803983575066
 30
0.0
 10
81.97988901298741
 20
213.3055831178235
 30
0.0
 10
81.94824293495766
 20
213.4635719337465
 30
0.0
  0
SPLINE
  5
396
330
1B
100
AcDbEntity
 67
     1
  8
SLD-0
  6
Continuous
 62
   179
370
     0
100
AcDbSpline
210
0.0
220
0.0
230
1.0
 70
     8
 71
     3
 72
    10
 73
     6
 74
     0
 42
0.00000001
 43
0.00000001
 40
0.0
 40
0.0
 40
0.0
 40
0.0
 40
0.3414088235543985
 40
0.8675023804876378
 40
0.9999999999999999
 40
0.9999999999999999
 40
0.9999999999999999
 40
0.9999999999999999
 10
81.95224471164546
 20
217.9820249655249
 30
0.0
 10
82.0060306003272
 20
218.2055394548998
 30
0.0
 10
82.14269779592654
 20
218.7734783546256
 30
0.0
 10
82.42396543445247
 20
219.1816903157226
 30
0.0
 10
82.6429005780933
 20
219.3526174575929
 30
0.0
 10
82.68694669713877
 20
219.3870051630737
 30
0.0
  0
SPLINE
  5
397
330
1B
100
AcDbEntity
 67
     1
  8
SLD-0
  6
Continuous
 62
   179
370
     0
100
AcDbSpline
210
0.0
220
0.0
230
1.0
 70
     8
 71
     3
 72
     9
 73
     5
 74
     0
 42
0.00000001
 43
0.00000001
 40
0.0
 40
0.0
 40
0.0
 40
0.0
 40
0.5134638077710697
 40
1.0
 40
1.0
 40
1.0
 40
1.0
 10
83.9048071928104
 20
212.0297114231588
 30
0.0
 10
83.67501882704703
 20
211.9297978986755
 30
0.0
 10
83.22749290158627
 20
211.7352106211086
 30
0.0
 10
82.86386488682736
 20
211.9333227179346
 30
0.0
 10
82.68694669713877
 20
212.0297114231588
 30
0.0
  0
SPLINE
  5
398
330
1B
100
AcDbEntity
 67
     1
  8
SLD-0
  6
Continuous
 62
   179
370
     0
100
AcDbSpline
210
0.0
220
0.0
230
1.0
 70
     8
 71
     3
 72
    17
 73
    13
 74
     0
 42
0.00000001
 43
0.00000001
 40
0.0
 40
0.0
 40
0.0
 40
0.0
 40
0.0000138789562273
 40
0.0001414430554214
 40
0.0006529249654073
 40
0.0026974213479391
 40
0.0108760517027357
 40
0.0435952199465525
 40
0.1748240865102481
 40
0.4396801224325931
 40
0.7281662645581995
 40
1.0
 40
1.0
 40
1.0
 40
1.0
 10
96.67777197208221
 20
243.2083583769126
 30
0.0
 10
96.67776576365628
 20
243.2083583769317
 30
0.0
 10
96.67770249241877
 20
243.2083583771257
 30
0.0
 10
96.67740985904376
 20
243.2083583506354
 30
0.0
 10
96.67621300035887
 20
243.208359369499
 30
0.0
 10
96.67140489206045
 20
243.2083692255838
 30
0.0
 10
96.65221671444269
 20
243.2085454708091
 30
0.0
 10
96.57525735273886
 20
243.2113598863615
 30
0.0
 10
96.3843759626796
 20
243.2393424626576
 30
0.0
 10
96.09877978131317
 20
243.3656827015079
 30
0.0
 10
95.81751512125406
 20
243.6362894704957
 30
0.0
 10
95.73775488294902
 20
243.8900639067511
 30
0.0
 10
95.69905997958
 20
244.01318010471
 30
0.0
  0
SPLINE
  5
399
330
1B
100
AcDbEntity
 67
     1
  8
SLD-0
  6
Continuous
 62
   179
370
     0
100
AcDbSpline
210
0.0
220
0.0
230
1.0
 70
     8
 71
     3
 72
    19
 73
    15
 74
     0
 42
0.00000001
 43
0.00000001
 40
0.0
 40
0.0
 40
0.0
 40
0.0
 40
0.0897747866469751
 40
0.1793046304346511
 40
0.2665564342725692
 40
0.3519346829256026
 40
0.4377983667051963
 40
0.5258714694856466
 40
0.6158726211206508
 40
0.7066141602038502
 40
0.7970651184314934
 40
0.8866541433704037
 40
0.9752294339948179
 40
0.9999999999999999
 40
0.9999999999999999
 40
0.9999999999999999
 40
0.9999999999999999
 10
95.86796277906711
 20
230.4950524919404
 30
0.0
 10
95.94350267548792
 20
230.5802611226648
 30
0.0
 10
96.09437636415582
 20
230.7504458996217
 30
0.0
 10
96.41213740962874
 20
230.8913825843701
 30
0.0
 10
96.74957294153005
 20
230.9244934644125
 30
0.0
 10
97.07520892771976
 20
230.8455373397938
 30
0.0
 10
97.35671891462785
 20
230.6672588826419
 30
0.0
 10
97.56801724659192
 20
230.4042167891506
 30
0.0
 10
97.68268613774957
 20
230.0807356767579
 30
0.0
 10
97.68248199608016
 20
229.7344691111578
 30
0.0
 10
97.56595724801385
 20
229.4053080030377
 30
0.0
 10
97.34498730551019
 20
229.1439522341604
 30
0.0
 10
97.12498673630427
 20
228.988933239668
 30
0.0
 10
96.98239607332914
 20
228.9638416453513
 30
0.0
 10
96.9512343570214
 20
228.9583581366314
 30
0.0
  0
SPLINE
  5
39A
330
1B
100
AcDbEntity
 67
     1
  8
SLD-0
  6
Continuous
 62
   179
370
     0
100
AcDbSpline
210
0.0
220
0.0
230
1.0
 70
     8
 71
     3
 72
    13
 73
     9
 74
     0
 42
0.00000001
 43
0.00000001
 40
0.0
 40
0.0
 40
0.0
 40
0.0
 40
0.1676954523943518
 40
0.3437832740379616
 40
0.521391339492859
 40
0.7009538585431097
 40
0.88240634278948
 40
1.0
 40
1.0
 40
1.0
 40
1.0
 10
96.37295568134601
 20
228.9583581366314
 30
0.0
 10
96.27426097327002
 20
228.9994863180481
 30
0.0
 10
96.07193235082889
 20
229.0838009530653
 30
0.0
 10
95.84079035927707
 20
229.3295841116424
 30
0.0
 10
95.69534392230989
 20
229.6361489137662
 30
0.0
 10
95.66164294326258
 20
229.976412922789
 30
0.0
 10
95.72919956250003
 20
230.2744369370363
 30
0.0
 10
95.82879783569251
 20
230.4327853008999
 30
0.0
 10
95.86796277906711
 20
230.4950524919404
 30
0.0
  0
ELLIPSE
  5
39B
330
1B
100
AcDbEntity
 67
     1
  8
SLD-0
  6
Continuous
 62
   179
370
     0
100
AcDbEllipse
 10
88.7812977503
 20
106.8527859773
 30
0.0
 11
-1.835334244032012
 21
-1.063742550001379
 31
0.0
210
0.0
220
0.0
230
1.0
 40
0.7071067812
 41
3.141592653616738
 42
4.712388980384687
  0
ELLIPSE
  5
39C
330
1B
100
AcDbEntity
 67
     1
  8
SLD-0
  6
Continuous
 62
   179
370
     0
100
AcDbEllipse
 10
102.0871381046
 20
102.5449885822
 30
0.0
 11
1.838895193403658
 21
-1.057574804766531
 31
0.0
210
0.0
220
0.0
230
1.0
 40
0.7071067812
 41
3.141592653975046
 42
4.712388980384663
  0
ELLIPSE
  5
39D
330
1B
100
AcDbEntity
 67
     1
  8
SLD-0
  6
Continuous
 62
   179
370
     0
100
AcDbEllipse
 10
94.1648868014
 20
116.2136897941
 30
0.0
 11
0.003560949371674837
 21
-2.121317354767925
 31
0.0
210
0.0
220
0.0
230
1.0
 40
0.7071067812
 41
4.71238898038477
 42
6.283185351448129
  0
ELLIPSE
  5
39E
330
1B
100
AcDbEntity
 67
     1
  8
SLD-0
  6
Continuous
 62
   179
370
     0
100
AcDbEllipse
 10
104.5798659184
 20
106.8793060649
 30
0.0
 11
-1.838895193403673
 21
1.057574804766546
 31
0.0
210
0.0
220
0.0
230
1.0
 40
0.7071067812
 41
4.712388980384677
 42
6.283185308232146
  0
ELLIPSE
  5
39F
330
1B
100
AcDbEntity
 67
     1
  8
SLD-0
  6
Continuous
 62
   179
370
     0
100
AcDbEllipse
 10
91.2885629145
 20
102.5268616424
 30
0.0
 11
1.835334244031984
 21
1.063742550001408
 31
0.0
210
0.0
220
0.0
230
0.9999999999999999
 40
0.7071067812
 41
4.712388980384695
 42
6.283185259495065
  0
ELLIPSE
  5
3A0
330
1B
100
AcDbEntity
 67
     1
  8
SLD-0
  6
Continuous
 62
   179
370
     0
100
AcDbEllipse
 10
99.1648794947
 20
116.2220828719
 30
0.0
 11
-0.003560949371660627
 21
2.121317354767925
 31
0.0
210
0.0
220
0.0
230
1.0
 40
0.7071067812
 41
3.141593161286103
 42
4.712388980384754
  0
ELLIPSE
  5
3A1
330
1B
100
AcDbEntity
 67
     1
  8
SLD-0
  6
Continuous
 62
   179
370
     0
100
AcDbEllipse
 10
97.5956363592
 20
108.0120756863
 30
0.0
 11
7.578344137256138
 21
-4.35841360082
 31
0.0
210
0.0
220
0.0
230
0.9999999999999999
 40
0.9926382639
 41
5.990955508595651
 42
6.575415049774199
  0
ELLIPSE
  5
3A2
330
1B
100
AcDbEntity
 67
     1
  8
SLD-0
  6
Continuous
 62
   179
370
     0
100
AcDbEllipse
 10
96.6759941508
 20
109.5987855929
 30
0.0
 11
-0.01467517011914765
 21
8.742245341894687
 31
0.0
210
0.0
220
0.0
230
1.0
 40
0.9926382639
 41
5.990955658473444
 42
6.575415049774131
  0
ELLIPSE
  5
3A3
330
1B
100
AcDbEntity
 67
     1
  8
SLD-0
  6
Continuous
 62
   179
370
     0
100
AcDbEllipse
 10
95.7616845217
 20
108.0089969409
 30
0.0
 11
7.563668967137956
 21
4.383831741074432
 31
0.0
210
0.0
220
0.0
230
0.9999999999999999
 40
0.9926382639
 41
2.849362912544498
 42
3.433822396184439
  0
INSERT
  5
3A4
330
1B
100
AcDbEntity
 67
     1
  8
0
  6
Continuous
 62
     7
100
AcDbBlockReference
  2
_OPEN30
 10
152.6777718359
 20
85.4695723272
 30
0.0
 41
3.0
 42
3.0
 43
3.0
 50
180.0
  0
INSERT
  5
3A5
330
1B
100
AcDbEntity
 67
     1
  8
0
  6
Continuous
 62
     7
100
AcDbBlockReference
  2
_OPEN30
 10
40.6777718359
 20
85.341033873
 30
0.0
 41
3.0
 42
3.0
 43
3.0
 50
0.430846633
  0
INSERT
  5
3A6
330
1B
100
AcDbEntity
 67
     1
  8
0
  6
Continuous
 62
     7
100
AcDbBlockReference
  2
SW_NOTE_2
 10
157.9083994705
 20
67.3008751123
 30
0.0
  0
INSERT
  5
3A7
330
1B
100
AcDbEntity
 67
     1
  8
0
  6
Continuous
 62
     7
100
AcDbBlockReference
  2
SW_NOTE_0
 10
30.4199762347
 20
154.3856615111
 30
0.0
  0
INSERT
  5
3A8
330
1B
100
AcDbEntity
 67
     1
  8
0
  6
Continuous
 62
     7
100
AcDbBlockReference
  2
SW_NOTE_1
 10
170.8697329208
 20
162.7028280147
 30
0.0
  0
INSERT
  5
3A9
330
1B
100
AcDbEntity
 67
     1
  8
0
  6
Continuous
 62
     7
100
AcDbBlockReference
  2
SW_CENTERMARKSYMBOL_0
 10
121.6777718359
 20
118.5399525741
 30
0.0
  0
INSERT
  5
3AA
330
1B
100
AcDbEntity
 67
     1
  8
0
  6
Continuous
 62
     7
100
AcDbBlockReference
  2
SW_CENTERMARKSYMBOL_1
 10
71.6777718359
 20
118.5399525741
 30
0.0
  0
INSERT
  5
3AB
330
1B
100
AcDbEntity
 67
     1
  8
0
  6
Continuous
 62
     7
100
AcDbBlockReference
  2
SW_NOTE_3
 10
27.1450429
 20
68.2461180751
 30
0.0
  0
INSERT
  5
3AC
330
1B
100
AcDbEntity
 67
     1
  8
0
  6
Continuous
 62
     7
100
AcDbBlockReference
  2
SW_CENTERMARKSYMBOL_2
 10
71.6777718359
 20
98.5399525741
 30
0.0
  0
INSERT
  5
3AD
330
1B
100
AcDbEntity
 67
     1
  8
0
  6
Continuous
 62
     7
100
AcDbBlockReference
  2
SW_CENTERMARKSYMBOL_5
 10
134.1777718359
 20
108.5399525741
 30
0.0
  0
INSERT
  5
3AE
330
1B
100
AcDbEntity
 67
     1
  8
0
  6
Continuous
 62
     7
100
AcDbBlockReference
  2
SW_CENTERMARKSYMBOL_3
 10
121.6777718359
 20
98.5399525741
 30
0.0
  0
INSERT
  5
3AF
330
1B
100
AcDbEntity
 67
     1
  8
0
  6
Continuous
 62
     7
100
AcDbBlockReference
  2
SW_CENTERMARKSYMBOL_4
 10
59.1777718359
 20
108.5399525741
 30
0.0
  0
INSERT
  5
3B0
330
1B
100
AcDbEntity
 67
     1
  8
0
  6
Continuous
 62
     7
100
AcDbBlockReference
  2
_OPEN30
 10
40.6777718359
 20
96.1098501752
 30
0.0
 41
3.0
 42
3.0
 43
3.0
  0
INSERT
  5
3B1
330
1B
100
AcDbEntity
 67
     1
  8
0
  6
Continuous
 62
     7
100
AcDbBlockReference
  2
_OPEN30
 10
152.6777718359
 20
96.3967199626
 30
0.0
 41
3.0
 42
3.0
 43
3.0
 50
180.0
  0
DIMENSION
  5
3B2
330
1B
100
AcDbEntity
 67
     1
  8
SLD-0
 62
   179
100
AcDbDimension
  2
*D13
 10
50.6777718359
 20
169.6437428843
 30
0.0
 11
63.1258129029
 21
169.6437428843
 31
0.0
 70
   160
 71
     2
 42
-1.0
  3
SLDDIMSTYLE0
100
AcDbAlignedDimension
 13
71.6777718359
 23
126.5399525741
 33
0.0
 14
50.6777718359
 24
144.0399525741
 34
0.0
100
AcDbRotatedDimension
  0
DIMENSION
  5
3C5
330
1B
100
AcDbEntity
 67
     1
  8
SLD-0
 62
   179
100
AcDbDimension
  2
*D14
 10
71.6777718359
 20
169.6437428843
 30
0.0
 11
96.6777718359
 21
169.6437428843
 31
0.0
 70
   160
 71
     2
 42
-1.0
  3
SLDDIMSTYLE0
100
AcDbAlignedDimension
 13
121.6777718359
 23
126.5399525741
 33
0.0
 14
71.6777718359
 24
126.5399525741
 34
0.0
100
AcDbRotatedDimension
  0
DIMENSION
  5
3D3
330
1B
100
AcDbEntity
 67
     1
  8
SLD-0
 62
   179
100
AcDbDimension
  2
*D15
 10
121.6777718359
 20
169.6437428843
 30
0.0
 11
129.951439188
 21
169.6437428843
 31
0.0
 70
   160
 71
     2
 42
-1.0
  3
SLDDIMSTYLE0
100
AcDbAlignedDimension
 13
142.6777718359
 23
144.0399525741
 33
0.0
 14
121.6777718359
 24
126.5399525741
 34
0.0
100
AcDbRotatedDimension
  0
DIMENSION
  5
3E1
330
1B
100
AcDbEntity
 67
     1
  8
SLD-0
 62
   179
100
AcDbDimension
  2
*D16
 10
50.6777718359
 20
187.6437428843
 30
0.0
 11
96.6777718359
 21
187.6437428843
 31
0.0
 70
   160
 71
     2
 42
-1.0
  3
SLDDIMSTYLE0
100
AcDbAlignedDimension
 13
142.6777718359
 23
144.0399525741
 33
0.0
 14
50.6777718359
 24
144.0399525741
 34
0.0
100
AcDbRotatedDimension
  0
DIMENSION
  5
3EF
330
1B
100
AcDbEntity
 67
     1
  8
SLD-0
 62
   179
100
AcDbDimension
  2
*D17
 10
165.3158627329
 20
118.5399525741
 30
0.0
 11
165.3158627329
 21
108.5399525741
 31
0.0
 70
   160
 71
     2
 42
-1.0
  3
SLDDIMSTYLE0
100
AcDbAlignedDimension
 13
129.6777718359
 23
98.5399525741
 33
0.0
 14
129.6777718359
 24
118.5399525741
 34
0.0
 50
90.0
100
AcDbRotatedDimension
  0
DIMENSION
  5
3FD
330
1B
100
AcDbEntity
 67
     1
  8
SLD-0
 62
   179
100
AcDbDimension
  2
*D18
 10
165.3158627329
 20
144.0399525741
 30
0.0
 11
165.3158627329
 21
131.2899525741
 31
0.0
 70
   160
 71
     2
 42
-1.0
  3
SLDDIMSTYLE1
100
AcDbAlignedDimension
 13
129.6777718359
 23
118.5399525741
 33
0.0
 14
139.1777718359
 24
144.0399525741
 34
0.0
 50
90.0
100
AcDbRotatedDimension
  0
DIMENSION
  5
40C
330
1B
100
AcDbEntity
 67
     1
  8
SLD-0
 62
   179
100
AcDbDimension
  2
*D19
 10
165.3158627329
 20
98.5399525741
 30
0.0
 11
165.3158627329
 21
88.7899525741
 31
0.0
 70
   160
 71
     2
 42
-1.0
  3
SLDDIMSTYLE1
100
AcDbAlignedDimension
 13
142.6777718359
 23
79.0399525741
 33
0.0
 14
129.6777718359
 24
98.5399525741
 34
0.0
 50
90.0
100
AcDbRotatedDimension
  0
DIMENSION
  5
41A
330
1B
100
AcDbEntity
 67
     1
  8
SLD-0
 62
   179
100
AcDbDimension
  2
*D20
 10
174.6777718359
 20
159.6399525741
 30
0.0
 11
174.6777718359
 21
119.3399525741
 31
0.0
 70
   160
  1
(<>)
 71
     2
 42
-1.0
  3
SLDDIMSTYLE0
100
AcDbAlignedDimension
 13
142.6777718359
 23
79.0399525741
 33
0.0
 14
99.1777718359
 24
159.6399525741
 34
0.0
 50
90.0
100
AcDbRotatedDimension
  0
DIMENSION
  5
42A
330
1B
100
AcDbEntity
 67
     1
  8
SLD-0
 62
   179
100
AcDbDimension
  2
*D21
 10
33.622515404
 20
144.0399525741
 30
0.0
 11
33.622515404
 21
126.2899525741
 31
0.0
 70
   160
 71
     2
 42
-1.0
  3
SLDDIMSTYLE1
100
AcDbAlignedDimension
 13
52.1777718359
 23
108.5399525741
 33
0.0
 14
54.1777718359
 24
144.0399525741
 34
0.0
 50
90.0
100
AcDbRotatedDimension
  0
DIMENSION
  5
438
330
1B
100
AcDbEntity
 67
     1
  8
SLD-0
 62
   179
100
AcDbDimension
  2
*D22
 10
33.622515404
 20
108.5399525741
 30
0.0
 11
33.622515404
 21
93.7899525741
 31
0.0
 70
   160
 71
     2
 42
-1.0
  3
SLDDIMSTYLE1
100
AcDbAlignedDimension
 13
50.6777718359
 23
79.0399525741
 33
0.0
 14
52.1777718359
 24
108.5399525741
 34
0.0
 50
90.0
100
AcDbRotatedDimension
  0
DIMENSION
  5
446
330
1B
100
AcDbEntity
 67
     1
  8
SLD-0
 62
   179
100
AcDbDimension
  2
*D23
 10
24.6777718359
 20
144.0399525741
 30
0.0
 11
24.6777718359
 21
111.5399525741
 31
0.0
 70
   160
 71
     2
 42
-1.0
  3
SLDDIMSTYLE0
100
AcDbAlignedDimension
 13
50.6777718359
 23
79.0399525741
 33
0.0
 14
54.1777718359
 24
144.0399525741
 34
0.0
 50
90.0
100
AcDbRotatedDimension
  0
DIMENSION
  5
454
330
1B
100
AcDbEntity
 67
     1
  8
SLD-0
 62
   179
100
AcDbDimension
  2
*D24
 10
5.6917538051
 20
9.4129631661
 30
0.0
 11
135.2466317429
 21
198.5756123662
 31
0.0
 70
   163
  1
4-%%c6.6 <>ザグリ深8.5(ロボット取付穴)
 71
     1
 42
-1.0
  3
SLDDIMSTYLE2
100
AcDbDiametricDimension
 15
0.0
 25
0.0
 35
0.0
 40
0.0
  0
DIMENSION
  5
464
330
1B
100
AcDbEntity
 67
     1
  8
SLD-0
 62
   179
100
AcDbDimension
  2
*D25
 10
50.6777718359
 20
67.8744862321
 30
0.0
 11
43.9909723185
 21
67.8744862321
 31
0.0
 70
   160
 71
     2
 42
-1.0
  3
SLDDIMSTYLE1
100
AcDbAlignedDimension
 13
59.1777718359
 23
101.5399525741
 33
0.0
 14
50.6777718359
 24
79.0399525741
 34
0.0
100
AcDbRotatedDimension
  0
DIMENSION
  5
474
330
1B
100
AcDbEntity
 67
     1
  8
SLD-0
 62
   179
100
AcDbDimension
  2
*D26
 10
59.1777718359
 20
67.8744862321
 30
0.0
 11
96.6777718359
 21
67.8744862321
 31
0.0
 70
   160
 71
     2
 42
-1.0
  3
SLDDIMSTYLE0
100
AcDbAlignedDimension
 13
134.1777718359
 23
101.5399525741
 33
0.0
 14
59.1777718359
 24
101.5399525741
 34
0.0
100
AcDbRotatedDimension
  0
DIMENSION
  5
482
330
1B
100
AcDbEntity
 67
     1
  8
SLD-0
 62
   179
100
AcDbDimension
  2
*D27
 10
134.1777718359
 20
67.8744862321
 30
0.0
 11
148.9526661929
 21
67.8744862321
 31
0.0
 70
   160
 71
     2
 42
-1.0
  3
SLDDIMSTYLE1
100
AcDbAlignedDimension
 13
142.6777718359
 23
79.0399525741
 33
0.0
 14
134.1777718359
 24
101.5399525741
 34
0.0
100
AcDbRotatedDimension
  0
DIMENSION
  5
492
330
1B
100
AcDbEntity
 67
     1
  8
SLD-0
 62
   179
100
AcDbDimension
  2
*D28
 10
159.8353055172
 20
248.7083583535
 30
0.0
 11
159.8353055172
 21
236.2083583535
 31
0.0
 70
   160
 71
     2
 42
-1.0
  3
SLDDIMSTYLE0
100
AcDbAlignedDimension
 13
142.6777718359
 23
223.7083583535
 33
0.0
 14
142.6777718359
 24
248.7083583535
 34
0.0
 50
90.0
100
AcDbRotatedDimension
  0
DIMENSION
  5
4A0
330
1B
100
AcDbEntity
 67
     1
  8
SLD-0
 62
   179
100
AcDbDimension
  2
*D29
 10
159.8353055172
 20
223.7083583535
 30
0.0
 11
159.8353055172
 21
216.4583583535
 31
0.0
 70
   160
 71
     2
 42
-1.0
  3
SLDDIMSTYLE1
100
AcDbAlignedDimension
 13
111.1777718359
 23
209.2083583535
 33
0.0
 14
142.6777718359
 24
223.7083583535
 34
0.0
 50
90.0
100
AcDbRotatedDimension
  0
DIMENSION
  5
4B0
330
1B
100
AcDbEntity
 67
     1
  8
SLD-0
 62
   179
100
AcDbDimension
  2
*D30
 10
2.9182214325
 20
7.3412515663
 30
0.0
 11
119.7218820714
 21
264.4483412866
 31
0.0
 70
   163
  1
クランプφ<><>
 71
     1
 42
-1.0
  3
SLDDIMSTYLE2
100
AcDbDiametricDimension
 15
0.0
 25
0.0
 35
0.0
 40
0.0
  0
DIMENSION
  5
4BA
330
1B
100
AcDbEntity
 67
     1
  8
SLD-0
 62
   179
100
AcDbDimension
  2
*D31
 10
3.0588744524
 20
7.2837680546
 30
0.0
 11
63.9653148514
 21
264.6517659441
 31
0.0
 70
   163
  1
アンクランプ<>
 71
     1
 42
-1.0
  3
SLDDIMSTYLE2
100
AcDbDiametricDimension
 15
0.0
 25
0.0
 35
0.0
 40
0.0
  0
MTEXT
  5
4C6
330
1B
100
AcDbEntity
 67
     1
  8
SLD-0
 62
   179
100
AcDbMText
 10
155.3747611586
 20
29.4771744232
 30
0.0
 40
4.2333333333
 41
0.0
 71
     1
 72
     1
  1
OX-特
  7
SLDTEXTSTYLE0
 73
     1
 44
1.0
  0
MTEXT
  5
4C7
330
1B
100
AcDbEntity
 67
     1
  8
SLD-0
 62
   179
100
AcDbMText
 10
133.3810244221
 20
43.8031563189
 30
0.0
 40
3.175
 41
0.0
 71
     1
 72
     1
  1
チャックワンタッチ・自動・ロボット側
  7
SLDTEXTSTYLE0
 73
     1
 44
1.0
  0
MTEXT
  5
4C8
330
1B
100
AcDbEntity
 67
     1
  8
SLD-0
 62
   179
100
AcDbMText
 10
155.4122468673
 20
15.8828352685
 30
0.0
 40
4.2333333333
 41
0.0
 71
     1
 72
     1
  1
999999
  7
SLDTEXTSTYLE0
 73
     1
 44
1.0
  0
ENDSEC
  0
SECTION
  2
OBJECTS
  0
DICTIONARY
  5
C
330
0
100
AcDbDictionary
281
     1
  3
ACAD_GROUP
350
D
  3
ACAD_LAYOUT
350
1A
  3
ACAD_MLINESTYLE
350
17
  3
ACAD_PLOTSETTINGS
350
19
  3
ACAD_PLOTSTYLENAME
350
E
  3
ACAD_SCALELIST
350
55
  3
AcDbVariableDictionary
350
4C9
  0
DICTIONARY
  5
D
102
{ACAD_REACTORS
330
C
102
}
330
C
100
AcDbDictionary
281
     1
  0
DICTIONARY
  5
1A
102
{ACAD_REACTORS
330
C
102
}
330
C
100
AcDbDictionary
281
     1
  3
Model
350
22
  3
SW_Model_1
350
1E
  0
DICTIONARY
  5
17
102
{ACAD_REACTORS
330
C
102
}
330
C
100
AcDbDictionary
281
     1
  3
Standard
350
18
  0
DICTIONARY
  5
19
102
{ACAD_REACTORS
330
C
102
}
330
C
100
AcDbDictionary
281
     1
  0
ACDBDICTIONARYWDFLT
  5
E
102
{ACAD_REACTORS
330
C
102
}
330
C
100
AcDbDictionary
281
     1
  3
Normal
350
F
100
AcDbDictionaryWithDefault
340
F
  0
DICTIONARY
  5
55
102
{ACAD_REACTORS
330
C
102
}
330
C
100
AcDbDictionary
281
     1
  3
A0
350
56
  3
A1
350
57
  3
A2
350
58
  3
A3
350
59
  3
A4
350
5A
  3
A5
350
5B
  3
A6
350
5C
  3
A7
350
5D
  3
A8
350
5E
  3
A9
350
5F
  3
B0
350
60
  3
B1
350
61
  3
B2
350
62
  3
B3
350
63
  3
B4
350
64
  3
B5
350
65
  3
B6
350
66
  3
B7
350
67
  3
B8
350
68
  3
B9
350
69
  3
C0
350
6A
  3
C1
350
6B
  3
C2
350
6C
  3
C3
350
6D
  3
C4
350
6E
  3
C5
350
6F
  3
C6
350
70
  3
C7
350
71
  3
C8
350
72
  3
C9
350
73
  3
D0
350
74
  3
D1
350
75
  3
D2
350
76
  0
DICTIONARY
  5
4C9
102
{ACAD_REACTORS
330
C
102
}
330
C
100
AcDbDictionary
281
     1
  3
CANNOSCALE
350
4CA
  0
LAYOUT
  5
22
102
{ACAD_REACTORS
330
1A
102
}
330
1A
100
AcDbPlotSettings
  1

  2
none_device
  4

  6

 40
0.0
 41
0.0
 42
0.0
 43
0.0
 44
0.0
 45
0.0
 46
0.0
 47
0.0
 48
0.0
 49
0.0
140
0.0
141
0.0
142
1.0
143
1.0
 70
  1712
 72
     0
 73
     0
 74
     0
  7

 75
     0
147
1.0
148
0.0
149
0.0
100
AcDbLayout
  1
Model
 70
     1
 71
     0
 10
0.0
 20
0.0
 11
210.0
 21
297.0
 12
0.0
 22
0.0
 32
0.0
 14
0.0
 24
0.0
 34
0.0
 15
210.0
 25
297.0
 35
0.0
146
0.0
 13
0.0
 23
0.0
 33
0.0
 16
1.0
 26
0.0
 36
0.0
 17
0.0
 27
1.0
 37
0.0
 76
     0
330
1F
331
29
  0
LAYOUT
  5
1E
102
{ACAD_REACTORS
330
1A
102
}
330
1A
100
AcDbPlotSettings
  1

  2
none_device
  4
ISO_A4_(210.00_x_297.00_MM)
  6

 40
7.5
 41
20.0
 42
7.5
 43
20.0
 44
210.0
 45
297.0
 46
0.0
 47
0.0
 48
0.0
 49
0.0
140
0.0
141
0.0
142
1.0
143
1.0
 70
  4832
 72
     0
 73
     0
 74
     1
  7

 75
     0
147
1.0
148
0.0
149
0.0
100
AcDbLayout
  1
SW_Model_1
 70
     1
 71
     1
 10
0.0
 20
0.0
 11
210.0
 21
297.0
 12
0.0
 22
0.0
 32
0.0
 14
0.0
 24
0.0
 34
0.0
 15
210.0
 25
297.0
 35
0.0
146
0.0
 13
0.0
 23
0.0
 33
0.0
 16
1.0
 26
0.0
 36
0.0
 17
0.0
 27
1.0
 37
0.0
 76
     0
330
1B
331
D8
  0
MLINESTYLE
  5
18
102
{ACAD_REACTORS
330
17
102
}
330
17
100
AcDbMlineStyle
  2
Standard
 70
     0
  3

 62
   256
 51
90.0
 52
90.0
 71
     2
 49
0.5
 62
   256
  6
BYLAYER
 49
-0.5
 62
   256
  6
BYLAYER
  0
ACDBPLACEHOLDER
  5
F
102
{ACAD_REACTORS
330
E
102
}
330
E
  0
SCALE
  5
56
102
{ACAD_REACTORS
330
55
102
}
330
55
100
AcDbScale
 70
     0
300
1:1
140
1.0
141
1.0
290
     1
  0
SCALE
  5
57
102
{ACAD_REACTORS
330
55
102
}
330
55
100
AcDbScale
 70
     0
300
1:2
140
1.0
141
2.0
290
     0
  0
SCALE
  5
58
102
{ACAD_REACTORS
330
55
102
}
330
55
100
AcDbScale
 70
     0
300
1:4
140
1.0
141
4.0
290
     0
  0
SCALE
  5
59
102
{ACAD_REACTORS
330
55
102
}
330
55
100
AcDbScale
 70
     0
300
1:5
140
1.0
141
5.0
290
     0
  0
SCALE
  5
5A
102
{ACAD_REACTORS
330
55
102
}
330
55
100
AcDbScale
 70
     0
300
1:8
140
1.0
141
8.0
290
     0
  0
SCALE
  5
5B
102
{ACAD_REACTORS
330
55
102
}
330
55
100
AcDbScale
 70
     0
300
1:10
140
1.0
141
10.0
290
     0
  0
SCALE
  5
5C
102
{ACAD_REACTORS
330
55
102
}
330
55
100
AcDbScale
 70
     0
300
1:16
140
1.0
141
16.0
290
     0
  0
SCALE
  5
5D
102
{ACAD_REACTORS
330
55
102
}
330
55
100
AcDbScale
 70
     0
300
1:20
140
1.0
141
20.0
290
     0
  0
SCALE
  5
5E
102
{ACAD_REACTORS
330
55
102
}
330
55
100
AcDbScale
 70
     0
300
1:30
140
1.0
141
30.0
290
     0
  0
SCALE
  5
5F
102
{ACAD_REACTORS
330
55
102
}
330
55
100
AcDbScale
 70
     0
300
1:40
140
1.0
141
40.0
290
     0
  0
SCALE
  5
60
102
{ACAD_REACTORS
330
55
102
}
330
55
100
AcDbScale
 70
     0
300
1:50
140
1.0
141
50.0
290
     0
  0
SCALE
  5
61
102
{ACAD_REACTORS
330
55
102
}
330
55
100
AcDbScale
 70
     0
300
1:100
140
1.0
141
100.0
290
     0
  0
SCALE
  5
62
102
{ACAD_REACTORS
330
55
102
}
330
55
100
AcDbScale
 70
     0
300
2:1
140
2.0
141
1.0
290
     0
  0
SCALE
  5
63
102
{ACAD_REACTORS
330
55
102
}
330
55
100
AcDbScale
 70
     0
300
4:1
140
4.0
141
1.0
290
     0
  0
SCALE
  5
64
102
{ACAD_REACTORS
330
55
102
}
330
55
100
AcDbScale
 70
     0
300
8:1
140
8.0
141
1.0
290
     0
  0
SCALE
  5
65
102
{ACAD_REACTORS
330
55
102
}
330
55
100
AcDbScale
 70
     0
300
10:1
140
10.0
141
1.0
290
     0
  0
SCALE
  5
66
102
{ACAD_REACTORS
330
55
102
}
330
55
100
AcDbScale
 70
     0
300
100:1
140
100.0
141
1.0
290
     0
  0
SCALE
  5
67
102
{ACAD_REACTORS
330
55
102
}
330
55
100
AcDbScale
 70
     0
300
1/128" = 1'-0"
140
0.0078125
141
12.0
290
     0
  0
SCALE
  5
68
102
{ACAD_REACTORS
330
55
102
}
330
55
100
AcDbScale
 70
     0
300
1/64" = 1'-0"
140
0.015625
141
12.0
290
     0
  0
SCALE
  5
69
102
{ACAD_REACTORS
330
55
102
}
330
55
100
AcDbScale
 70
     0
300
1/32" = 1'-0"
140
0.03125
141
12.0
290
     0
  0
SCALE
  5
6A
102
{ACAD_REACTORS
330
55
102
}
330
55
100
AcDbScale
 70
     0
300
1/16" = 1'-0"
140
0.0625
141
12.0
290
     0
  0
SCALE
  5
6B
102
{ACAD_REACTORS
330
55
102
}
330
55
100
AcDbScale
 70
     0
300
3/32" = 1'-0"
140
0.09375
141
12.0
290
     0
  0
SCALE
  5
6C
102
{ACAD_REACTORS
330
55
102
}
330
55
100
AcDbScale
 70
     0
300
1/8" = 1'-0"
140
0.125
141
12.0
290
     0
  0
SCALE
  5
6D
102
{ACAD_REACTORS
330
55
102
}
330
55
100
AcDbScale
 70
     0
300
3/16" = 1'-0"
140
0.1875
141
12.0
290
     0
  0
SCALE
  5
6E
102
{ACAD_REACTORS
330
55
102
}
330
55
100
AcDbScale
 70
     0
300
1/4" = 1'-0"
140
0.25
141
12.0
290
     0
  0
SCALE
  5
6F
102
{ACAD_REACTORS
330
55
102
}
330
55
100
AcDbScale
 70
     0
300
3/8" = 1'-0"
140
0.375
141
12.0
290
     0
  0
SCALE
  5
70
102
{ACAD_REACTORS
330
55
102
}
330
55
100
AcDbScale
 70
     0
300
1/2" = 1'-0"
140
0.5
141
12.0
290
     0
  0
SCALE
  5
71
102
{ACAD_REACTORS
330
55
102
}
330
55
100
AcDbScale
 70
     0
300
3/4" = 1'-0"
140
0.75
141
12.0
290
     0
  0
SCALE
  5
72
102
{ACAD_REACTORS
330
55
102
}
330
55
100
AcDbScale
 70
     0
300
1" = 1'-0"
140
1.0
141
12.0
290
     0
  0
SCALE
  5
73
102
{ACAD_REACTORS
330
55
102
}
330
55
100
AcDbScale
 70
     0
300
1-1/2" = 1'-0"
140
1.5
141
12.0
290
     0
  0
SCALE
  5
74
102
{ACAD_REACTORS
330
55
102
}
330
55
100
AcDbScale
 70
     0
300
3" = 1'-0"
140
3.0
141
12.0
290
     0
  0
SCALE
  5
75
102
{ACAD_REACTORS
330
55
102
}
330
55
100
AcDbScale
 70
     0
300
6" = 1'-0"
140
6.0
141
12.0
290
     0
  0
SCALE
  5
76
102
{ACAD_REACTORS
330
55
102
}
330
55
100
AcDbScale
 70
     0
300
1'-0" = 1'-0"
140
12.0
141
12.0
290
     0
  0
DICTIONARYVAR
  5
4CA
102
{ACAD_REACTORS
330
4C9
102
}
330
4C9
100
DictionaryVariables
280
     0
  1
1:1
  0
ENDSEC
  0
EOF
