  0
SECTION
  2
HEADER
  9
$ACADVER
  1
AC1024
  9
$ACADMAINTVER
 70
     6
  9
$DWGCODEPAGE
  3
DOS932
  9
$LASTSAVEDBY
  1
STAR056C
  9
$INSBASE
 10
0.0
 20
0.0
 30
0.0
  9
$EXTMIN
 10
20.2604743903
 20
10.0
 30
-14.064729308
  9
$EXTMAX
 10
196.7604743903
 20
285.0
 30
0.1
  9
$LIMMIN
 10
0.0
 20
0.0
  9
$LIMMAX
 10
0.0
 20
0.0
  9
$ORTHOMODE
 70
     0
  9
$REGENMODE
 70
     1
  9
$FILLMODE
 70
     1
  9
$QTEXTMODE
 70
     0
  9
$MIRRTEXT
 70
     1
  9
$LTSCALE
 40
1.0
  9
$ATTMODE
 70
     1
  9
$TEXTSIZE
 40
3.5
  9
$TRACEWID
 40
1.0
  9
$TEXTSTYLE
  7
Standard
  9
$CLAYER
  8
0
  9
$CELTYPE
  6
ByLayer
  9
$CECOLOR
 62
   256
  9
$CELTSCALE
 40
1.0
  9
$DISPSILH
 70
     0
  9
$DIMSCALE
 40
1.0
  9
$DIMASZ
 40
6.0
  9
$DIMEXO
 40
1.0
  9
$DIMDLI
 40
3.75
  9
$DIMRND
 40
0.0
  9
$DIMDLE
 40
0.0
  9
$DIMEXE
 40
1.0
  9
$DIMTP
 40
0.0
  9
$DIMTM
 40
0.0
  9
$DIMTXT
 40
9.8777777778
  9
$DIMCEN
 40
2.5
  9
$DIMTSZ
 40
0.0
  9
$DIMTOL
 70
     0
  9
$DIMLIM
 70
     0
  9
$DIMTIH
 70
     1
  9
$DIMTOH
 70
     1
  9
$DIMSE1
 70
     0
  9
$DIMSE2
 70
     0
  9
$DIMTAD
 70
     1
  9
$DIMZIN
 70
     0
  9
$DIMBLK
  1

  9
$DIMASO
 70
     1
  9
$DIMSHO
 70
     1
  9
$DIMPOST
  1

  9
$DIMAPOST
  1

  9
$DIMALT
 70
     0
  9
$DIMALTD
 70
     3
  9
$DIMALTF
 40
0.0393700787
  9
$DIMLFAC
 40
1.0
  9
$DIMTOFL
 70
     1
  9
$DIMTVP
 40
0.0
  9
$DIMTIX
 70
     0
  9
$DIMSOXD
 70
     0
  9
$DIMSAH
 70
     0
  9
$DIMBLK1
  1

  9
$DIMBLK2
  1

  9
$DIMSTYLE
  2
ISO-25
  9
$DIMCLRD
 70
     0
  9
$DIMCLRE
 70
     0
  9
$DIMCLRT
 70
     0
  9
$DIMTFAC
 40
1.0
  9
$DIMGAP
 40
1.524
  9
$DIMJUST
 70
     0
  9
$DIMSD1
 70
     0
  9
$DIMSD2
 70
     0
  9
$DIMTOLJ
 70
     0
  9
$DIMTZIN
 70
     0
  9
$DIMALTZ
 70
     0
  9
$DIMALTTZ
 70
     0
  9
$DIMUPT
 70
     0
  9
$DIMDEC
 70
     2
  9
$DIMTDEC
 70
     2
  9
$DIMALTU
 70
     2
  9
$DIMALTTD
 70
     3
  9
$DIMTXSTY
  7
Standard
  9
$DIMAUNIT
 70
     0
  9
$DIMADEC
 70
     0
  9
$DIMALTRND
 40
0.0
  9
$DIMAZIN
 70
     0
  9
$DIMDSEP
 70
    44
  9
$DIMATFIT
 70
     3
  9
$DIMFRAC
 70
     0
  9
$DIMLDRBLK
  1

  9
$DIMLUNIT
 70
     2
  9
$DIMLWD
 70
    -2
  9
$DIMLWE
 70
    -2
  9
$DIMTMOVE
 70
     0
  9
$DIMFXL
 40
1.0
  9
$DIMFXLON
 70
     0
  9
$DIMJOGANG
 40
0.7853981633974483
  9
$DIMTFILL
 70
     0
  9
$DIMTFILLCLR
 70
     0
  9
$DIMARCSYM
 70
     0
  9
$DIMLTYPE
  6

  9
$DIMLTEX1
  6

  9
$DIMLTEX2
  6

  9
$DIMTXTDIRECTION
 70
     0
  9
$LUNITS
 70
     2
  9
$LUPREC
 70
     1
  9
$SKETCHINC
 40
1.0
  9
$FILLETRAD
 40
10.0
  9
$AUNITS
 70
     0
  9
$AUPREC
 70
     0
  9
$MENU
  1
.
  9
$ELEVATION
 40
0.0
  9
$PELEVATION
 40
0.0
  9
$THICKNESS
 40
0.0
  9
$LIMCHECK
 70
     0
  9
$CHAMFERA
 40
10.0
  9
$CHAMFERB
 40
10.0
  9
$CHAMFERC
 40
20.0
  9
$CHAMFERD
 40
0.0
  9
$SKPOLY
 70
     0
  9
$TDCREATE
 40
2453354.092125822
  9
$TDUCREATE
 40
2453353.717125822
  9
$TDUPDATE
 40
2455355.63972581
  9
$TDUUPDATE
 40
2455355.26472581
  9
$TDINDWG
 40
0.0435301042
  9
$TDUSRTIMER
 40
0.0435301042
  9
$USRTIMER
 70
     1
  9
$ANGBASE
 50
0.0
  9
$ANGDIR
 70
     0
  9
$PDMODE
 70
     0
  9
$PDSIZE
 40
-1.0
  9
$PLINEWID
 40
0.0
  9
$SPLFRAME
 70
     0
  9
$SPLINETYPE
 70
     6
  9
$SPLINESEGS
 70
     8
  9
$HANDSEED
  5
442
  9
$SURFTAB1
 70
     6
  9
$SURFTAB2
 70
     6
  9
$SURFTYPE
 70
     6
  9
$SURFU
 70
     6
  9
$SURFV
 70
     6
  9
$UCSBASE
  2

  9
$UCSNAME
  2

  9
$UCSORG
 10
0.0
 20
0.0
 30
0.0
  9
$UCSXDIR
 10
1.0
 20
0.0
 30
0.0
  9
$UCSYDIR
 10
0.0
 20
1.0
 30
0.0
  9
$UCSORTHOREF
  2

  9
$UCSORTHOVIEW
 70
     0
  9
$UCSORGTOP
 10
0.0
 20
0.0
 30
0.0
  9
$UCSORGBOTTOM
 10
0.0
 20
0.0
 30
0.0
  9
$UCSORGLEFT
 10
0.0
 20
0.0
 30
0.0
  9
$UCSORGRIGHT
 10
0.0
 20
0.0
 30
0.0
  9
$UCSORGFRONT
 10
0.0
 20
0.0
 30
0.0
  9
$UCSORGBACK
 10
0.0
 20
0.0
 30
0.0
  9
$PUCSBASE
  2

  9
$PUCSNAME
  2

  9
$PUCSORG
 10
0.0
 20
0.0
 30
0.0
  9
$PUCSXDIR
 10
1.0
 20
0.0
 30
0.0
  9
$PUCSYDIR
 10
0.0
 20
1.0
 30
0.0
  9
$PUCSORTHOREF
  2

  9
$PUCSORTHOVIEW
 70
     0
  9
$PUCSORGTOP
 10
0.0
 20
0.0
 30
0.0
  9
$PUCSORGBOTTOM
 10
0.0
 20
0.0
 30
0.0
  9
$PUCSORGLEFT
 10
0.0
 20
0.0
 30
0.0
  9
$PUCSORGRIGHT
 10
0.0
 20
0.0
 30
0.0
  9
$PUCSORGFRONT
 10
0.0
 20
0.0
 30
0.0
  9
$PUCSORGBACK
 10
0.0
 20
0.0
 30
0.0
  9
$USERI1
 70
     0
  9
$USERI2
 70
     0
  9
$USERI3
 70
     0
  9
$USERI4
 70
     0
  9
$USERI5
 70
     0
  9
$USERR1
 40
0.0
  9
$USERR2
 40
0.0
  9
$USERR3
 40
0.0
  9
$USERR4
 40
0.0
  9
$USERR5
 40
0.0
  9
$WORLDVIEW
 70
     1
  9
$SHADEDGE
 70
     3
  9
$SHADEDIF
 70
    70
  9
$TILEMODE
 70
     1
  9
$MAXACTVP
 70
    64
  9
$PINSBASE
 10
0.0
 20
0.0
 30
0.0
  9
$PLIMCHECK
 70
     0
  9
$PEXTMIN
 10
0.0
 20
0.0
 30
0.0
  9
$PEXTMAX
 10
0.0
 20
0.0
 30
0.0
  9
$PLIMMIN
 10
0.0
 20
0.0
  9
$PLIMMAX
 10
0.0
 20
0.0
  9
$UNITMODE
 70
     0
  9
$VISRETAIN
 70
     1
  9
$PLINEGEN
 70
     0
  9
$PSLTSCALE
 70
     1
  9
$TREEDEPTH
 70
  3020
  9
$CMLSTYLE
  2
Standard
  9
$CMLJUST
 70
     0
  9
$CMLSCALE
 40
20.0
  9
$PROXYGRAPHICS
 70
     1
  9
$MEASUREMENT
 70
     1
  9
$CELWEIGHT
370
    -1
  9
$ENDCAPS
280
     0
  9
$JOINSTYLE
280
     0
  9
$LWDISPLAY
290
     1
  9
$INSUNITS
 70
     4
  9
$HYPERLINKBASE
  1

  9
$STYLESHEET
  1

  9
$XEDIT
290
     0
  9
$CEPSNTYPE
380
     0
  9
$PSTYLEMODE
290
     1
  9
$FINGERPRINTGUID
  2
{9D3CBE5D-C9AF-414E-BF3D-4ECEF1E2BEF3}
  9
$VERSIONGUID
  2
{FAEB1C32-E019-11D5-929B-00C0DF256EC4}
  9
$EXTNAMES
290
     1
  9
$PSVPSCALE
 40
0.0
  9
$OLESTARTUP
290
     0
  9
$SORTENTS
280
   127
  9
$INDEXCTL
280
     0
  9
$HIDETEXT
280
     1
  9
$XCLIPFRAME
280
     0
  9
$HALOGAP
280
     0
  9
$OBSCOLOR
 70
   257
  9
$OBSLTYPE
280
     0
  9
$INTERSECTIONDISPLAY
280
     0
  9
$INTERSECTIONCOLOR
 70
   257
  9
$DIMASSOC
280
     2
  9
$PROJECTNAME
  1

  9
$CAMERADISPLAY
290
     0
  9
$LENSLENGTH
 40
50.0
  9
$CAMERAHEIGHT
 40
0.0
  9
$STEPSPERSEC
 40
2.0
  9
$STEPSIZE
 40
6.0
  9
$3DDWFPREC
 40
2.0
  9
$PSOLWIDTH
 40
0.25
  9
$PSOLHEIGHT
 40
4.0
  9
$LOFTANG1
 40
1.570796326794897
  9
$LOFTANG2
 40
1.570796326794897
  9
$LOFTMAG1
 40
0.0
  9
$LOFTMAG2
 40
0.0
  9
$LOFTPARAM
 70
     7
  9
$LOFTNORMALS
280
     1
  9
$LATITUDE
 40
37.795
  9
$LONGITUDE
 40
-122.394
  9
$NORTHDIRECTION
 40
0.0
  9
$TIMEZONE
 70
 -8000
  9
$LIGHTGLYPHDISPLAY
280
     1
  9
$TILEMODELIGHTSYNCH
280
     1
  9
$SOLIDHIST
280
     1
  9
$SHOWHIST
280
     1
  9
$DWFFRAME
280
     2
  9
$DGNFRAME
280
     2
  9
$REALWORLDSCALE
290
     1
  9
$INTERFERECOLOR
 62
   256
  9
$CSHADOW
280
     0
  9
$SHADOWPLANELOCATION
 40
0.0
  0
ENDSEC
  0
SECTION
  2
CLASSES
  0
CLASS
  1
ACDBDICTIONARYWDFLT
  2
AcDbDictionaryWithDefault
  3
ObjectDBX Classes
 90
        0
 91
        4
280
     0
281
     0
  0
CLASS
  1
ACDBPLACEHOLDER
  2
AcDbPlaceHolder
  3
ObjectDBX Classes
 90
        0
 91
        1
280
     0
281
     0
  0
CLASS
  1
LAYOUT
  2
AcDbLayout
  3
ObjectDBX Classes
 90
        0
 91
        1
280
     0
281
     0
  0
CLASS
  1
DICTIONARYVAR
  2
AcDbDictionaryVar
  3
ObjectDBX Classes
 90
        0
 91
        4
280
     0
281
     0
  0
CLASS
  1
TABLESTYLE
  2
AcDbTableStyle
  3
ObjectDBX Classes
 90
     4095
 91
        4
280
     0
281
     0
  0
CLASS
  1
SCALE
  2
AcDbScale
  3
ObjectDBX Classes
 90
     1153
 91
        4
280
     0
281
     0
  0
CLASS
  1
CELLSTYLEMAP
  2
AcDbCellStyleMap
  3
ObjectDBX Classes
 90
     1152
 91
        4
280
     0
281
     0
  0
ENDSEC
  0
SECTION
  2
TABLES
  0
TABLE
  2
VPORT
  5
8
330
0
100
AcDbSymbolTable
 70
     2
  0
VPORT
  5
97
330
8
100
AcDbSymbolTableRecord
100
AcDbViewportTableRecord
  2
*Active
 70
     0
 10
0.0
 20
0.0
 11
1.0
 21
1.0
 12
108.5104743903
 22
147.5
 13
0.0
 23
0.0
 14
10.0
 24
10.0
 15
10.0
 25
10.0
 16
0.0
 26
0.0
 36
1.0
 17
0.0
 27
0.0
 37
0.0
 40
280.5
 41
1.9729729729
 42
50.0
 43
0.0
 44
0.0
 50
0.0
 51
0.0
 71
    16
 72
  2000
 73
     1
 74
     3
 75
     0
 76
     0
 77
     0
 78
     0
281
     0
 65
     0
110
0.0
120
0.0
130
0.0
111
1.0
121
0.0
131
0.0
112
0.0
122
1.0
132
0.0
 79
     0
146
0.0
 60
     3
 61
     5
292
     1
282
     1
141
0.0
142
0.0
 63
   256
  0
ENDTAB
  0
TABLE
  2
LTYPE
  5
5
330
0
100
AcDbSymbolTable
 70
     6
  0
LTYPE
  5
14
330
5
100
AcDbSymbolTableRecord
100
AcDbLinetypeTableRecord
  2
ByBlock
 70
     0
  3

 72
    65
 73
     0
 40
0.0
  0
LTYPE
  5
15
330
5
100
AcDbSymbolTableRecord
100
AcDbLinetypeTableRecord
  2
ByLayer
 70
     0
  3

 72
    65
 73
     0
 40
0.0
  0
LTYPE
  5
16
330
5
100
AcDbSymbolTableRecord
100
AcDbLinetypeTableRecord
  2
Continuous
 70
     0
  3
Solid line
 72
    65
 73
     0
 40
0.0
  0
LTYPE
  5
3CE
330
5
100
AcDbSymbolTableRecord
100
AcDbLinetypeTableRecord
  2
HIDDEN
 70
     0
  3
Hidden __ __ __ __ __ __ __ __ __ __ __ __ __ __
 72
    65
 73
     2
 40
1.905
 49
1.27
 74
     4
 75
     0
340
0
 46
1.0
 50
0.0
 44
0.0
 45
0.0
 49
-0.635
 74
     4
 75
     0
340
0
 46
1.0
 50
0.0
 44
0.0
 45
0.0
  0
LTYPE
  5
3CF
330
5
100
AcDbSymbolTableRecord
100
AcDbLinetypeTableRecord
  2
PHANTOM
 70
     0
  3
Phantom ______  __  __  ______  __  __  ______
 72
    65
 73
     6
 40
12.7
 49
6.35
 74
     4
 75
     0
340
0
 46
1.0
 50
0.0
 44
0.0
 45
0.0
 49
-1.27
 74
     4
 75
     0
340
0
 46
1.0
 50
0.0
 44
0.0
 45
0.0
 49
1.27
 74
     4
 75
     0
340
0
 46
1.0
 50
0.0
 44
0.0
 45
0.0
 49
-1.27
 74
     4
 75
     0
340
0
 46
1.0
 50
0.0
 44
0.0
 45
0.0
 49
1.27
 74
     4
 75
     0
340
0
 46
1.0
 50
0.0
 44
0.0
 45
0.0
 49
-1.27
 74
     4
 75
     0
340
0
 46
1.0
 50
0.0
 44
0.0
 45
0.0
  0
LTYPE
  5
3D0
330
5
100
AcDbSymbolTableRecord
100
AcDbLinetypeTableRecord
  2
CENTER
 70
     0
  3
Center ____ _ ____ _ ____ _ ____ _ ____ _ ____
 72
    65
 73
     4
 40
10.16
 49
6.35
 74
     4
 75
     0
340
0
 46
1.0
 50
0.0
 44
0.0
 45
0.0
 49
-1.27
 74
     4
 75
     0
340
0
 46
1.0
 50
0.0
 44
0.0
 45
0.0
 49
1.27
 74
     4
 75
     0
340
0
 46
1.0
 50
0.0
 44
0.0
 45
0.0
 49
-1.27
 74
     4
 75
     0
340
0
 46
1.0
 50
0.0
 44
0.0
 45
0.0
  0
LTYPE
  5
3D1
330
5
100
AcDbSymbolTableRecord
100
AcDbLinetypeTableRecord
  2
CENTERX2
 70
     0
  3
Center (2x) ________  __  ________  __  _____
 72
    65
 73
     4
 40
20.32
 49
12.7
 74
     4
 75
     0
340
0
 46
1.0
 50
0.0
 44
0.0
 45
0.0
 49
-2.54
 74
     4
 75
     0
340
0
 46
1.0
 50
0.0
 44
0.0
 45
0.0
 49
2.54
 74
     4
 75
     0
340
0
 46
1.0
 50
0.0
 44
0.0
 45
0.0
 49
-2.54
 74
     4
 75
     0
340
0
 46
1.0
 50
0.0
 44
0.0
 45
0.0
  0
LTYPE
  5
3D2
330
5
100
AcDbSymbolTableRecord
100
AcDbLinetypeTableRecord
  2
DOT2
 70
     0
  3
Dot (.5x) ........................................
 72
    65
 73
     2
 40
0.635
 49
0.0
 74
     4
 75
     0
340
0
 46
1.0
 50
0.0
 44
0.0
 45
0.0
 49
-0.635
 74
     4
 75
     0
340
0
 46
1.0
 50
0.0
 44
0.0
 45
0.0
  0
ENDTAB
  0
TABLE
  2
LAYER
  5
2
330
0
100
AcDbSymbolTable
 70
     2
  0
LAYER
  5
10
330
2
100
AcDbSymbolTableRecord
100
AcDbLayerTableRecord
  2
0
 70
     0
 62
     7
  6
Continuous
370
    -3
390
F
347
0
  0
LAYER
  5
125
330
2
100
AcDbSymbolTableRecord
100
AcDbLayerTableRecord
  2
Defpoints
 70
     0
 62
     7
  6
Continuous
290
     0
370
    -3
390
F
347
0
  0
ENDTAB
  0
TABLE
  2
STYLE
  5
3
330
0
100
AcDbSymbolTable
 70
     2
  0
STYLE
  5
11
330
3
100
AcDbSymbolTableRecord
100
AcDbTextStyleTableRecord
  2
Standard
 70
     0
 40
0.0
 41
1.0
 50
0.0
 71
     0
 42
2.5
  3
txt
  4
bigfont
  0
STYLE
  5
37
330
3
100
AcDbSymbolTableRecord
100
AcDbTextStyleTableRecord
  2
SLDTEXTSTYLE0
 70
     0
 40
0.0
 41
0.7
 50
0.0
 71
     0
 42
0.2
  3
TXT
  4
bigfont
  0
ENDTAB
  0
TABLE
  2
VIEW
  5
6
330
0
100
AcDbSymbolTable
 70
     0
  0
ENDTAB
  0
TABLE
  2
UCS
  5
7
330
0
100
AcDbSymbolTable
 70
     0
  0
ENDTAB
  0
TABLE
  2
APPID
  5
9
330
0
100
AcDbSymbolTable
 70
     1
  0
APPID
  5
12
330
9
100
AcDbSymbolTableRecord
100
AcDbRegAppTableRecord
  2
ACAD
 70
     0
  0
ENDTAB
  0
TABLE
  2
DIMSTYLE
  5
A
330
0
100
AcDbSymbolTable
 70
     7
100
AcDbDimStyleTable
  0
DIMSTYLE
105
27
330
A
100
AcDbSymbolTableRecord
100
AcDbDimStyleTableRecord
  2
Standard
 70
     0
278
     0
340
11
  0
DIMSTYLE
105
3D3
330
A
100
AcDbSymbolTableRecord
100
AcDbDimStyleTableRecord
  2
ISO-25
 70
     0
 41
2.5
 42
0.625
 43
3.75
 44
1.25
 73
     0
 74
     0
 77
     1
 78
     8
140
2.5
141
2.5
143
0.0393700787
147
0.625
171
     3
172
     1
271
     2
272
     2
274
     3
278
    44
283
     0
284
     8
340
11
  0
DIMSTYLE
105
132
102
{ACAD_REACTORS
330
124
330
140
102
}
330
A
100
AcDbSymbolTableRecord
100
AcDbDimStyleTableRecord
  2
SLDDIMSTYLE0
 70
     0
 41
6.0
 44
0.0
 73
     0
 74
     0
 77
     3
 78
    12
140
5.6444444444
147
1.4111111111
173
     1
271
     1
272
     2
284
    12
340
37
341
3D4
343
3D4
344
3D4
  0
DIMSTYLE
105
162
102
{ACAD_REACTORS
330
154
330
169
330
34B
330
362
330
376
330
38A
102
}
330
A
100
AcDbSymbolTableRecord
100
AcDbDimStyleTableRecord
  2
SLDDIMSTYLE1
 70
     0
 41
6.0
 44
0.0
 73
     0
 74
     0
 77
     3
 78
    12
140
5.6444444444
147
1.4111111111
173
     1
271
     1
272
     2
284
    12
340
37
341
3D4
343
3D4
344
3D4
  0
DIMSTYLE
105
18C
102
{ACAD_REACTORS
330
17F
102
}
330
A
100
AcDbSymbolTableRecord
100
AcDbDimStyleTableRecord
  2
SLDDIMSTYLE2
 70
     0
  3
<>
 41
6.0
 44
0.0
 78
    12
140
5.6444444444
147
1.4111111111
173
     1
271
     1
272
     2
284
    12
340
37
341
3D4
343
3D4
344
3D4
  0
DIMSTYLE
105
1A8
102
{ACAD_REACTORS
330
198
102
}
330
A
100
AcDbSymbolTableRecord
100
AcDbDimStyleTableRecord
  2
SLDDIMSTYLE3
 70
     0
 41
6.0
 44
0.0
 73
     0
 74
     0
 77
     3
 78
    12
140
5.6444444444
147
1.4111111111
173
     1
179
     1
272
     2
284
    12
340
37
341
3D4
343
3D4
344
3D4
  0
DIMSTYLE
105
3A2
330
A
100
AcDbSymbolTableRecord
100
AcDbDimStyleTableRecord
  2
SLDDIMSTYLE4
 70
     0
 41
6.0
 44
0.0
140
6.0
147
1.5
173
     1
271
     0
272
     0
340
11
341
3D4
343
3D4
344
3D4
  0
ENDTAB
  0
TABLE
  2
BLOCK_RECORD
  5
1
330
0
100
AcDbSymbolTable
 70
    26
  0
BLOCK_RECORD
  5
1F
102
{ACAD_XDICTIONARY
360
43B
102
}
330
1
100
AcDbSymbolTableRecord
100
AcDbBlockTableRecord
  2
*Model_Space
340
22
 70
     0
280
     1
281
     0
  0
BLOCK_RECORD
  5
73
330
1
100
AcDbSymbolTableRecord
100
AcDbBlockTableRecord
  2
*Paper_Space
340
74
 70
     0
280
     1
281
     0
  0
BLOCK_RECORD
  5
3D4
330
1
100
AcDbSymbolTableRecord
100
AcDbBlockTableRecord
  2
_OPEN30
340
0
102
{BLKREFS
331
139
331
13A
331
14D
331
14E
331
163
331
164
331
178
331
179
331
18D
331
1AA
331
1AB
331
35A
331
35B
331
370
331
371
331
384
331
385
331
399
331
39A
102
}
 70
     0
280
     1
281
     0
  0
BLOCK_RECORD
  5
23
330
1
100
AcDbSymbolTableRecord
100
AcDbBlockTableRecord
  2
*Paper_Space1
340
26
 70
     0
280
     1
281
     0
  0
BLOCK_RECORD
  5
3A
330
1
100
AcDbSymbolTableRecord
100
AcDbBlockTableRecord
  2
SW_NOTE_0
340
0
102
{BLKREFS
331
3F
102
}
 70
     0
280
     1
281
     0
  0
BLOCK_RECORD
  5
126
330
1
100
AcDbSymbolTableRecord
100
AcDbBlockTableRecord
  2
*D3
340
0
 70
     0
280
     1
281
     0
  0
BLOCK_RECORD
  5
141
330
1
100
AcDbSymbolTableRecord
100
AcDbBlockTableRecord
  2
*D4
340
0
 70
     0
280
     1
281
     0
  0
BLOCK_RECORD
  5
155
330
1
100
AcDbSymbolTableRecord
100
AcDbBlockTableRecord
  2
*D5
340
0
 70
     0
280
     1
281
     0
  0
BLOCK_RECORD
  5
16A
330
1
100
AcDbSymbolTableRecord
100
AcDbBlockTableRecord
  2
*D6
340
0
 70
     0
280
     1
281
     0
  0
BLOCK_RECORD
  5
180
330
1
100
AcDbSymbolTableRecord
100
AcDbBlockTableRecord
  2
*D7
340
0
 70
     0
280
     1
281
     0
  0
BLOCK_RECORD
  5
199
330
1
100
AcDbSymbolTableRecord
100
AcDbBlockTableRecord
  2
*D8
340
0
 70
     0
280
     1
281
     0
  0
BLOCK_RECORD
  5
1AF
330
1
100
AcDbSymbolTableRecord
100
AcDbBlockTableRecord
  2
SW_CENTERMARKSYMBOL_0
340
0
102
{BLKREFS
331
1BA
102
}
 70
     0
280
     1
281
     0
  0
BLOCK_RECORD
  5
1BB
330
1
100
AcDbSymbolTableRecord
100
AcDbBlockTableRecord
  2
SW_CENTERMARKSYMBOL_1
340
0
102
{BLKREFS
331
1C6
102
}
 70
     0
280
     1
281
     0
  0
BLOCK_RECORD
  5
1C7
330
1
100
AcDbSymbolTableRecord
100
AcDbBlockTableRecord
  2
SW_CENTERMARKSYMBOL_2
340
0
102
{BLKREFS
331
1D2
102
}
 70
     0
280
     1
281
     0
  0
BLOCK_RECORD
  5
1D3
330
1
100
AcDbSymbolTableRecord
100
AcDbBlockTableRecord
  2
SW_CENTERMARKSYMBOL_3
340
0
102
{BLKREFS
331
1DE
102
}
 70
     0
280
     1
281
     0
  0
BLOCK_RECORD
  5
1DF
330
1
100
AcDbSymbolTableRecord
100
AcDbBlockTableRecord
  2
SW_CENTERMARKSYMBOL_4
340
0
102
{BLKREFS
331
1EA
102
}
 70
     0
280
     1
281
     0
  0
BLOCK_RECORD
  5
1EB
330
1
100
AcDbSymbolTableRecord
100
AcDbBlockTableRecord
  2
SW_CENTERMARKSYMBOL_5
340
0
102
{BLKREFS
331
1F6
102
}
 70
     0
280
     1
281
     0
  0
BLOCK_RECORD
  5
1F7
330
1
100
AcDbSymbolTableRecord
100
AcDbBlockTableRecord
  2
SW_CENTERMARKSYMBOL_6
340
0
102
{BLKREFS
331
202
102
}
 70
     0
280
     1
281
     0
  0
BLOCK_RECORD
  5
203
330
1
100
AcDbSymbolTableRecord
100
AcDbBlockTableRecord
  2
SW_CENTERMARKSYMBOL_7
340
0
102
{BLKREFS
331
20E
102
}
 70
     0
280
     1
281
     0
  0
BLOCK_RECORD
  5
20F
330
1
100
AcDbSymbolTableRecord
100
AcDbBlockTableRecord
  2
SW_CENTERMARKSYMBOL_8
340
0
102
{BLKREFS
331
21A
102
}
 70
     0
280
     1
281
     0
  0
BLOCK_RECORD
  5
21B
330
1
100
AcDbSymbolTableRecord
100
AcDbBlockTableRecord
  2
SW_CENTERMARKSYMBOL_9
340
0
102
{BLKREFS
331
226
102
}
 70
     0
280
     1
281
     0
  0
BLOCK_RECORD
  5
227
330
1
100
AcDbSymbolTableRecord
100
AcDbBlockTableRecord
  2
SW_CENTERMARKSYMBOL_10
340
0
102
{BLKREFS
331
232
102
}
 70
     0
280
     1
281
     0
  0
BLOCK_RECORD
  5
233
330
1
100
AcDbSymbolTableRecord
100
AcDbBlockTableRecord
  2
SW_CENTERMARKSYMBOL_11
340
0
102
{BLKREFS
331
23E
102
}
 70
     0
280
     1
281
     0
  0
BLOCK_RECORD
  5
23F
330
1
100
AcDbSymbolTableRecord
100
AcDbBlockTableRecord
  2
SW_CENTERMARKSYMBOL_12
340
0
102
{BLKREFS
331
24A
102
}
 70
     0
280
     1
281
     0
  0
BLOCK_RECORD
  5
34C
330
1
100
AcDbSymbolTableRecord
100
AcDbBlockTableRecord
  2
*D22
340
0
 70
     0
280
     1
281
     0
  0
BLOCK_RECORD
  5
363
330
1
100
AcDbSymbolTableRecord
100
AcDbBlockTableRecord
  2
*D23
340
0
 70
     0
280
     1
281
     0
  0
BLOCK_RECORD
  5
377
330
1
100
AcDbSymbolTableRecord
100
AcDbBlockTableRecord
  2
*D24
340
0
 70
     0
280
     1
281
     0
  0
BLOCK_RECORD
  5
38B
330
1
100
AcDbSymbolTableRecord
100
AcDbBlockTableRecord
  2
*D25
340
0
 70
     0
280
     1
281
     0
  0
ENDTAB
  0
ENDSEC
  0
SECTION
  2
BLOCKS
  0
BLOCK
  5
20
330
1F
100
AcDbEntity
  8
0
100
AcDbBlockBegin
  2
*Model_Space
 70
     0
 10
0.0
 20
0.0
 30
0.0
  3
*Model_Space
  1

  0
ENDBLK
  5
21
330
1F
100
AcDbEntity
  8
0
100
AcDbBlockEnd
  0
BLOCK
  5
75
330
73
100
AcDbEntity
 67
     1
  8
0
100
AcDbBlockBegin
  2
*Paper_Space
 70
     0
 10
0.0
 20
0.0
 30
0.0
  3
*Paper_Space
  1

  0
ENDBLK
  5
76
330
73
100
AcDbEntity
 67
     1
  8
0
100
AcDbBlockEnd
  0
BLOCK
  5
3D5
330
3D4
100
AcDbEntity
  8
0
100
AcDbBlockBegin
  2
_OPEN30
 70
     0
 10
0.0
 20
0.0
 30
0.0
  3
_OPEN30
  1

  0
LINE
  5
136
330
3D4
100
AcDbEntity
  8
0
  6
ByBlock
 62
     0
370
    -2
100
AcDbLine
 10
-1.0
 20
0.267949
 30
0.0
 11
0.0
 21
0.0
 31
0.0
  0
LINE
  5
137
330
3D4
100
AcDbEntity
  8
0
  6
ByBlock
 62
     0
370
    -2
100
AcDbLine
 10
0.0
 20
0.0
 30
0.0
 11
-1.0
 21
-0.267949
 31
0.0
  0
LINE
  5
138
330
3D4
100
AcDbEntity
  8
0
  6
ByBlock
 62
     0
370
    -2
100
AcDbLine
 10
0.0
 20
0.0
 30
0.0
 11
-1.0
 21
0.0
 31
0.0
  0
ENDBLK
  5
3D6
330
3D4
100
AcDbEntity
  8
0
100
AcDbBlockEnd
  0
BLOCK
  5
3DA
330
23
100
AcDbEntity
  8
0
100
AcDbBlockBegin
  2
*Paper_Space1
 70
     0
 10
0.0
 20
0.0
 30
0.0
  3
*Paper_Space1
  1

  0
ENDBLK
  5
3DB
330
23
100
AcDbEntity
  8
0
100
AcDbBlockEnd
  0
BLOCK
  5
3DC
330
3A
100
AcDbEntity
  8
0
100
AcDbBlockBegin
  2
SW_NOTE_0
 70
     0
 10
0.0
 20
0.0
 30
0.0
  3
SW_NOTE_0
  1

  0
MTEXT
  5
3D
330
3A
100
AcDbEntity
  8
0
  6
Continuous
 62
     7
370
     0
100
AcDbMText
 10
0.0
 20
4.9260606061
 30
0.0
 40
4.2333333333
 41
0.0
 46
0.0
 71
     1
 72
     1
  1
チャックワンタッチ自動
  7
SLDTEXTSTYLE0
 73
     1
 44
1.0
  0
MTEXT
  5
3E
330
3A
100
AcDbEntity
  8
0
  6
Continuous
 62
     7
370
     0
100
AcDbMText
 10
3.6752577871
 20
-0.7183837702
 30
0.0
 40
4.2333333333
 41
0.0
 46
0.0
 71
     1
 72
     1
  1
（多関節ロボット用）
  7
SLDTEXTSTYLE0
 73
     1
 44
1.0
  0
ENDBLK
  5
3DD
330
3A
100
AcDbEntity
  8
0
100
AcDbBlockEnd
  0
BLOCK
  5
3DE
330
126
100
AcDbEntity
  8
0
100
AcDbBlockBegin
  2
*D3
 70
     1
 10
0.0
 20
0.0
 30
0.0
  3
*D3
  1

  0
INSERT
  5
139
330
126
100
AcDbEntity
  8
0
  6
Continuous
 62
     7
370
     0
100
AcDbBlockReference
  2
_OPEN30
 10
110.0423364347
 20
94.3106462345
 30
0.1
 41
6.0
 42
6.0
 50
180.0
  0
INSERT
  5
13A
330
126
100
AcDbEntity
  8
0
  6
Continuous
 62
     7
370
     0
100
AcDbBlockReference
  2
_OPEN30
 10
141.5423364347
 20
94.3106462345
 30
0.1
 41
6.0
 42
6.0
  0
LINE
  5
13B
330
126
100
AcDbEntity
  8
0
  6
Continuous
 62
     7
370
     0
100
AcDbLine
 10
110.0423364347
 20
132.3555299603
 30
0.0
 11
110.0423364347
 21
93.3106462345
 31
0.0
  0
LINE
  5
13C
330
126
100
AcDbEntity
  8
0
  6
Continuous
 62
     7
370
     0
100
AcDbLine
 10
141.5423364347
 20
132.3555299603
 30
0.0
 11
141.5423364347
 21
93.3106462345
 31
0.0
  0
LINE
  5
13D
330
126
100
AcDbEntity
  8
0
  6
Continuous
 62
     7
370
     0
100
AcDbLine
 10
110.0423364347
 20
94.3106462345
 30
0.0
 11
141.5423364347
 21
94.3106462345
 31
0.0
  0
MTEXT
  5
13E
330
126
100
AcDbEntity
  8
0
  6
Continuous
 62
     7
370
     0
100
AcDbMText
 10
111.6838058354
 20
99.236706666
 30
0.0
 40
4.2333333333
 41
0.0
 46
0.0
 71
     1
 72
     1
  1
P.C.D.
  7
SLDTEXTSTYLE0
 73
     1
 44
1.0
  0
MTEXT
  5
13F
330
126
100
AcDbEntity
  8
0
  6
Continuous
 62
     7
370
     0
100
AcDbMText
 10
128.6146796524
 20
99.236706666
 30
0.0
 40
4.2333333333
 41
0.0
 46
0.0
 71
     1
 72
     1
  1
31.5
  7
SLDTEXTSTYLE0
 73
     1
 44
1.0
  0
ENDBLK
  5
3DF
330
126
100
AcDbEntity
  8
0
100
AcDbBlockEnd
  0
BLOCK
  5
3E0
330
141
100
AcDbEntity
  8
0
100
AcDbBlockBegin
  2
*D4
 70
     1
 10
0.0
 20
0.0
 30
0.0
  3
*D4
  1

  0
INSERT
  5
14D
330
141
100
AcDbEntity
  8
0
  6
Continuous
 62
     7
370
     0
100
AcDbBlockReference
  2
_OPEN30
 10
149.8592046271
 20
82.0917332188
 30
-11.4
 41
6.0
 42
6.0
 50
0.0747134267
  0
INSERT
  5
14E
330
141
100
AcDbEntity
  8
0
  6
Continuous
 62
     7
370
     0
100
AcDbBlockReference
  2
_OPEN30
 10
101.8592454368
 20
82.0291414625
 30
-11.4
 41
6.0
 42
6.0
 50
180.0747134267
  0
LINE
  5
14F
330
141
100
AcDbEntity
  8
0
  6
Continuous
 62
     7
370
     0
100
AcDbLine
 10
149.7936200248
 20
132.3868266886
 30
0.0
 11
149.860508622
 21
81.091734069
 31
0.0
  0
LINE
  5
150
330
141
100
AcDbEntity
  8
0
  6
Continuous
 62
     7
370
     0
100
AcDbLine
 10
101.7936608345
 20
132.3242349323
 30
0.0
 11
101.8605494317
 21
81.0291423127
 31
0.0
  0
LINE
  5
151
330
141
100
AcDbEntity
  8
0
  6
Continuous
 62
     7
370
     0
100
AcDbLine
 10
149.8592046271
 20
82.0917332188
 30
0.0
 11
101.8592454368
 21
82.0291414625
 31
0.0
  0
MTEXT
  5
152
330
141
100
AcDbEntity
  8
0
  6
Continuous
 62
     7
370
     0
100
AcDbMText
 10
120.3514667192
 20
86.9793198652
 30
0.0
 40
4.2333333333
 41
0.0
 46
0.0
 71
     1
 72
     1
  1
%%c
  7
SLDTEXTSTYLE0
 11
0.9999991497982595
 21
0.001303994922584606
 31
0.0
 73
     1
 44
1.0
  0
MTEXT
  5
153
330
141
100
AcDbEntity
  8
0
  6
Continuous
 62
     7
370
     0
100
AcDbMText
 10
125.7126400791
 20
86.986310814
 30
0.0
 40
4.2333333333
 41
0.0
 46
0.0
 71
     1
 72
     1
  1
48
  7
SLDTEXTSTYLE0
 11
0.9999991497982595
 21
0.001303994922584606
 31
0.0
 73
     1
 44
1.0
  0
ENDBLK
  5
3E1
330
141
100
AcDbEntity
  8
0
100
AcDbBlockEnd
  0
BLOCK
  5
3E2
330
155
100
AcDbEntity
  8
0
100
AcDbBlockBegin
  2
*D5
 70
     1
 10
0.0
 20
0.0
 30
0.0
  3
*D5
  1

  0
INSERT
  5
163
330
155
100
AcDbEntity
  8
0
  6
Continuous
 62
     7
370
     0
100
AcDbBlockReference
  2
_OPEN30
 10
187.6935124779
 20
109.3555299603
 30
-11.4
 41
6.0
 42
6.0
 50
270.0
  0
INSERT
  5
164
330
155
100
AcDbEntity
  8
0
  6
Continuous
 62
     7
370
     0
100
AcDbBlockReference
  2
_OPEN30
 10
187.6935124779
 20
156.8555299603
 30
-11.4
 41
6.0
 42
6.0
 50
90.0
  0
LINE
  5
165
330
155
100
AcDbEntity
  8
0
  6
Continuous
 62
     7
370
     0
100
AcDbLine
 10
126.7923364347
 20
109.3555299603
 30
0.0
 11
188.6935124779
 21
109.3555299603
 31
0.0
  0
LINE
  5
166
330
155
100
AcDbEntity
  8
0
  6
Continuous
 62
     7
370
     0
100
AcDbLine
 10
131.6657336071
 20
156.8555299603
 30
0.0
 11
188.6935124779
 21
156.8555299603
 31
0.0
  0
LINE
  5
167
330
155
100
AcDbEntity
  8
0
  6
Continuous
 62
     7
370
     0
100
AcDbLine
 10
187.6935124779
 20
109.3555299603
 30
0.0
 11
187.6935124779
 21
156.8555299603
 31
0.0
  0
MTEXT
  5
168
330
155
100
AcDbEntity
  8
0
  6
Continuous
 62
     7
370
     0
100
AcDbMText
 10
182.7674520465
 20
127.4624362694
 30
0.0
 40
4.2333333333
 41
0.0
 46
0.0
 71
     1
 72
     1
  1
47.5
  7
SLDTEXTSTYLE0
 11
6.123031769111886E-17
 21
1.0
 31
0.0
 73
     1
 44
1.0
  0
ENDBLK
  5
3E3
330
155
100
AcDbEntity
  8
0
100
AcDbBlockEnd
  0
BLOCK
  5
3E4
330
16A
100
AcDbEntity
  8
0
100
AcDbBlockBegin
  2
*D6
 70
     1
 10
0.0
 20
0.0
 30
0.0
  3
*D6
  1

  0
ARC
  5
176
330
16A
100
AcDbEntity
  8
0
  6
Continuous
 62
     7
370
     0
100
AcDbCircle
 10
127.0255869079
 20
72.3669614549
 30
0.0
 40
6.307389805608857
100
AcDbArc
 50
153.4349488229
 51
206.5650511771
  0
ARC
  5
177
330
16A
100
AcDbEntity
  8
0
  6
Continuous
 62
     7
370
     0
100
AcDbCircle
 10
124.5590859616
 20
72.3669614549
 30
0.0
 40
6.307389805608844
100
AcDbArc
 50
333.4349488229
 51
26.5650511771
  0
INSERT
  5
178
330
16A
100
AcDbEntity
  8
0
  6
Continuous
 62
     7
370
     0
100
AcDbBlockReference
  2
_OPEN30
 10
85.9423364347
 20
69.5462109817
 30
-11.4
 41
6.0
 42
6.0
 50
180.0
  0
INSERT
  5
179
330
16A
100
AcDbEntity
  8
0
  6
Continuous
 62
     7
370
     0
100
AcDbBlockReference
  2
_OPEN30
 10
165.6423364347
 20
69.5462109817
 30
-11.4
 41
6.0
 42
6.0
 50
360.0
  0
LINE
  5
17A
330
16A
100
AcDbEntity
  8
0
  6
Continuous
 62
     7
370
     0
100
AcDbLine
 10
85.9423364347
 20
137.4555299603
 30
0.0
 11
85.9423364347
 21
68.5462109817
 31
0.0
  0
LINE
  5
17B
330
16A
100
AcDbEntity
  8
0
  6
Continuous
 62
     7
370
     0
100
AcDbLine
 10
165.6423364347
 20
137.4555299603
 30
0.0
 11
165.6423364347
 21
110.1175299603
 31
0.0
  0
LINE
  5
17C
330
16A
100
AcDbEntity
  8
0
  6
Continuous
 62
     7
370
     0
100
AcDbLine
 10
165.6423364347
 20
108.5935299603
 30
0.0
 11
165.6423364347
 21
68.5462109817
 31
0.0
  0
LINE
  5
17D
330
16A
100
AcDbEntity
  8
0
  6
Continuous
 62
     7
370
     0
100
AcDbLine
 10
85.9423364347
 20
69.5462109817
 30
0.0
 11
165.6423364347
 21
69.5462109817
 31
0.0
  0
MTEXT
  5
17E
330
16A
100
AcDbEntity
  8
0
  6
Continuous
 62
     7
370
     0
100
AcDbMText
 10
122.9715859616
 20
74.4722714131
 30
0.0
 40
4.2333333333
 41
0.0
 46
0.0
 71
     1
 72
     1
  1
80
  7
SLDTEXTSTYLE0
 73
     1
 44
1.0
  0
ENDBLK
  5
3E5
330
16A
100
AcDbEntity
  8
0
100
AcDbBlockEnd
  0
BLOCK
  5
3E6
330
180
100
AcDbEntity
  8
0
100
AcDbBlockBegin
  2
*D7
 70
     1
 10
0.0
 20
0.0
 30
0.0
  3
*D7
  1

  0
INSERT
  5
18D
330
180
100
AcDbEntity
  8
0
  6
Continuous
 62
     7
370
     0
100
AcDbBlockReference
  2
_OPEN30
 10
112.7008805421
 20
146.4269734816
 30
-11.4
 41
6.0
 42
6.0
 50
315.2948325361
  0
LINE
  5
18E
330
180
100
AcDbEntity
  8
0
  6
Continuous
 62
     7
370
     0
100
AcDbLine
 10
112.7008805421
 20
146.4269734816
 30
0.0
 11
96.4739361624
 21
162.4877701854
 31
0.0
  0
LINE
  5
18F
330
180
100
AcDbEntity
  8
0
  6
Continuous
 62
     7
370
     0
100
AcDbLine
 10
96.4739361624
 20
162.4877701854
 30
0.0
 11
27.3677446797
 21
162.4877701854
 31
0.0
  0
MTEXT
  5
190
330
180
100
AcDbEntity
  8
0
  6
Continuous
 62
     7
370
     0
100
AcDbMText
 10
51.5323976766
 20
167.4138306168
 30
0.0
 40
4.2333333333
 41
0.0
 46
0.0
 71
     1
 72
     1
  1
90
  7
SLDTEXTSTYLE0
 73
     1
 44
1.0
  0
MTEXT
  5
191
330
180
100
AcDbEntity
  8
0
  6
Continuous
 62
     7
370
     0
100
AcDbMText
 10
57.1768420528
 20
167.4138306168
 30
0.0
 40
4.2333333333
 41
0.0
 46
0.0
 71
     1
 72
     1
  1
%%d
  7
SLDTEXTSTYLE0
 73
     1
 44
1.0
  0
MTEXT
  5
192
330
180
100
AcDbEntity
  8
0
  6
Continuous
 62
     7
370
     0
100
AcDbMText
 10
59.4346194307
 20
167.4138306168
 30
0.0
 40
4.2333333333
 41
0.0
 46
0.0
 71
     1
 72
     1
  1
等配
  7
SLDTEXTSTYLE0
 73
     1
 44
1.0
  0
MTEXT
  5
193
330
180
100
AcDbEntity
  8
0
  6
Continuous
 62
     7
370
     0
100
AcDbMText
 10
29.3521196797
 20
173.0553315632
 30
0.0
 40
4.2333333333
 41
0.0
 46
0.0
 71
     1
 72
     1
  1
4-
  7
SLDTEXTSTYLE0
 73
     1
 44
1.0
  0
MTEXT
  5
194
330
180
100
AcDbEntity
  8
0
  6
Continuous
 62
     7
370
     0
100
AcDbMText
 10
34.9965640559
 20
173.0553315632
 30
0.0
 40
4.2333333333
 41
0.0
 46
0.0
 71
     1
 72
     1
  1
%%c
  7
SLDTEXTSTYLE0
 73
     1
 44
1.0
  0
MTEXT
  5
195
330
180
100
AcDbEntity
  8
0
  6
Continuous
 62
     7
370
     0
100
AcDbMText
 10
40.3587860271
 20
173.0553315632
 30
0.0
 40
4.2333333333
 41
0.0
 46
0.0
 71
     1
 72
     1
  1
5.5，
  7
SLDTEXTSTYLE0
 73
     1
 44
1.0
  0
MTEXT
  5
196
330
180
100
AcDbEntity
  8
0
  6
Continuous
 62
     7
370
     0
100
AcDbMText
 10
54.4698969677
 20
173.0553315632
 30
0.0
 40
4.2333333333
 41
0.0
 46
0.0
 71
     1
 72
     1
  1
%%c
  7
SLDTEXTSTYLE0
 73
     1
 44
1.0
  0
MTEXT
  5
197
330
180
100
AcDbEntity
  8
0
  6
Continuous
 62
     7
370
     0
100
AcDbMText
 10
59.8321208015
 20
173.0553315632
 30
0.0
 40
4.2333333333
 41
0.0
 46
0.0
 71
     1
 72
     1
  1
9ザクリ深5.5
  7
SLDTEXTSTYLE0
 73
     1
 44
1.0
  0
ENDBLK
  5
3E7
330
180
100
AcDbEntity
  8
0
100
AcDbBlockEnd
  0
BLOCK
  5
3E8
330
199
100
AcDbEntity
  8
0
100
AcDbBlockBegin
  2
*D8
 70
     1
 10
0.0
 20
0.0
 30
0.0
  3
*D8
  1

  0
ARC
  5
1A9
330
199
100
AcDbEntity
  8
0
  6
Continuous
 62
     7
370
     0
100
AcDbCircle
 10
125.7923364347
 20
133.3555299603
 30
0.0
 40
47.89429124428811
100
AcDbArc
 50
0.0
 51
45.0
  0
INSERT
  5
1AA
330
199
100
AcDbEntity
  8
0
  6
Continuous
 62
     7
370
     0
100
AcDbBlockReference
  2
_OPEN30
 10
173.686627679
 20
133.3555299603
 30
-11.4
 41
6.0
 42
6.0
 50
273.5702900041
  0
INSERT
  5
1AB
330
199
100
AcDbEntity
  8
0
  6
Continuous
 62
     7
370
     0
100
AcDbBlockReference
  2
_OPEN30
 10
159.6587145537
 20
167.2219080792
 30
-11.4
 41
6.0
 42
6.0
 50
131.4297099959
  0
LINE
  5
1AC
330
199
100
AcDbEntity
  8
0
  6
Continuous
 62
     7
370
     0
100
AcDbLine
 10
153.2923364347
 20
133.3555299603
 30
0.0
 11
174.686627679
 21
133.3555299603
 31
0.0
  0
LINE
  5
1AD
330
199
100
AcDbEntity
  8
0
  6
Continuous
 62
     7
370
     0
100
AcDbLine
 10
142.656833166
 20
150.2200266916
 30
0.0
 11
160.3658213349
 21
167.9290148604
 31
0.0
  0
MTEXT
  5
1AE
330
199
100
AcDbEntity
  8
0
  6
Continuous
 62
     7
370
     0
100
AcDbMText
 10
172.4324597852
 20
158.7825421993
 30
0.0
 40
4.2333333333
 41
0.0
 46
0.0
 71
     1
 72
     1
  1
45%%d
  7
SLDTEXTSTYLE0
 11
0.3826834323650843
 21
-0.9238795325112891
 31
0.0
 73
     1
 44
1.0
  0
ENDBLK
  5
3E9
330
199
100
AcDbEntity
  8
0
100
AcDbBlockEnd
  0
BLOCK
  5
3EA
330
1AF
100
AcDbEntity
  8
0
100
AcDbBlockBegin
  2
SW_CENTERMARKSYMBOL_0
 70
     0
 10
0.0
 20
0.0
 30
0.0
  3
SW_CENTERMARKSYMBOL_0
  1

  0
LINE
  5
1B2
330
1AF
100
AcDbEntity
  8
0
  6
Continuous
 62
     7
370
     0
100
AcDbLine
 10
0.0
 20
0.0
 30
0.0
 11
-1.767766953
 21
1.767766953
 31
0.0
  0
LINE
  5
1B3
330
1AF
100
AcDbEntity
  8
0
  6
Continuous
 62
     7
370
     0
100
AcDbLine
 10
0.0
 20
0.0
 30
0.0
 11
-1.767766953
 21
-1.767766953
 31
0.0
  0
LINE
  5
1B4
330
1AF
100
AcDbEntity
  8
0
  6
Continuous
 62
     7
370
     0
100
AcDbLine
 10
0.0
 20
0.0
 30
0.0
 11
1.767766953
 21
-1.767766953
 31
0.0
  0
LINE
  5
1B5
330
1AF
100
AcDbEntity
  8
0
  6
Continuous
 62
     7
370
     0
100
AcDbLine
 10
0.0
 20
0.0
 30
0.0
 11
1.767766953
 21
1.767766953
 31
0.0
  0
LINE
  5
1B6
330
1AF
100
AcDbEntity
  8
0
  6
Continuous
 62
     7
370
     0
100
AcDbLine
 10
-3.5355339059
 20
3.5355339059
 30
0.0
 11
-5.0204581464
 21
5.0204581464
 31
0.0
  0
LINE
  5
1B7
330
1AF
100
AcDbEntity
  8
0
  6
Continuous
 62
     7
370
     0
100
AcDbLine
 10
-3.5355339059
 20
-3.5355339059
 30
0.0
 11
-5.0204581464
 21
-5.0204581464
 31
0.0
  0
LINE
  5
1B8
330
1AF
100
AcDbEntity
  8
0
  6
Continuous
 62
     7
370
     0
100
AcDbLine
 10
3.5355339059
 20
-3.5355339059
 30
0.0
 11
5.0204581464
 21
-5.0204581464
 31
0.0
  0
LINE
  5
1B9
330
1AF
100
AcDbEntity
  8
0
  6
Continuous
 62
     7
370
     0
100
AcDbLine
 10
3.5355339059
 20
3.5355339059
 30
0.0
 11
5.0204581464
 21
5.0204581464
 31
0.0
  0
ENDBLK
  5
3EB
330
1AF
100
AcDbEntity
  8
0
100
AcDbBlockEnd
  0
BLOCK
  5
3EC
330
1BB
100
AcDbEntity
  8
0
100
AcDbBlockBegin
  2
SW_CENTERMARKSYMBOL_1
 70
     0
 10
0.0
 20
0.0
 30
0.0
  3
SW_CENTERMARKSYMBOL_1
  1

  0
LINE
  5
1BE
330
1BB
100
AcDbEntity
  8
0
  6
Continuous
 62
     7
370
     0
100
AcDbLine
 10
0.0
 20
0.0
 30
0.0
 11
0.0
 21
2.5
 31
0.0
  0
LINE
  5
1BF
330
1BB
100
AcDbEntity
  8
0
  6
Continuous
 62
     7
370
     0
100
AcDbLine
 10
0.0
 20
0.0
 30
0.0
 11
-2.5
 21
0.0
 31
0.0
  0
LINE
  5
1C0
330
1BB
100
AcDbEntity
  8
0
  6
Continuous
 62
     7
370
     0
100
AcDbLine
 10
0.0
 20
0.0
 30
0.0
 11
0.0
 21
-2.5
 31
0.0
  0
LINE
  5
1C1
330
1BB
100
AcDbEntity
  8
0
  6
Continuous
 62
     7
370
     0
100
AcDbLine
 10
0.0
 20
0.0
 30
0.0
 11
2.5
 21
0.0
 31
0.0
  0
LINE
  5
1C2
330
1BB
100
AcDbEntity
  8
0
  6
Continuous
 62
     7
370
     0
100
AcDbLine
 10
0.0
 20
5.0
 30
0.0
 11
0.0
 21
5.8929285786
 31
0.0
  0
LINE
  5
1C3
330
1BB
100
AcDbEntity
  8
0
  6
Continuous
 62
     7
370
     0
100
AcDbLine
 10
-5.0
 20
0.0
 30
0.0
 11
-5.8929285786
 21
0.0
 31
0.0
  0
LINE
  5
1C4
330
1BB
100
AcDbEntity
  8
0
  6
Continuous
 62
     7
370
     0
100
AcDbLine
 10
0.0
 20
-5.0
 30
0.0
 11
0.0
 21
-5.8929285786
 31
0.0
  0
LINE
  5
1C5
330
1BB
100
AcDbEntity
  8
0
  6
Continuous
 62
     7
370
     0
100
AcDbLine
 10
5.0
 20
0.0
 30
0.0
 11
5.8929285786
 21
0.0
 31
0.0
  0
ENDBLK
  5
3ED
330
1BB
100
AcDbEntity
  8
0
100
AcDbBlockEnd
  0
BLOCK
  5
3EE
330
1C7
100
AcDbEntity
  8
0
100
AcDbBlockBegin
  2
SW_CENTERMARKSYMBOL_2
 70
     0
 10
0.0
 20
0.0
 30
0.0
  3
SW_CENTERMARKSYMBOL_2
  1

  0
LINE
  5
1CA
330
1C7
100
AcDbEntity
  8
0
  6
Continuous
 62
     7
370
     0
100
AcDbLine
 10
0.0
 20
0.0
 30
0.0
 11
0.0
 21
2.5
 31
0.0
  0
LINE
  5
1CB
330
1C7
100
AcDbEntity
  8
0
  6
Continuous
 62
     7
370
     0
100
AcDbLine
 10
0.0
 20
0.0
 30
0.0
 11
-2.5
 21
0.0
 31
0.0
  0
LINE
  5
1CC
330
1C7
100
AcDbEntity
  8
0
  6
Continuous
 62
     7
370
     0
100
AcDbLine
 10
0.0
 20
0.0
 30
0.0
 11
0.0
 21
-2.5
 31
0.0
  0
LINE
  5
1CD
330
1C7
100
AcDbEntity
  8
0
  6
Continuous
 62
     7
370
     0
100
AcDbLine
 10
0.0
 20
0.0
 30
0.0
 11
2.5
 21
0.0
 31
0.0
  0
LINE
  5
1CE
330
1C7
100
AcDbEntity
  8
0
  6
Continuous
 62
     7
370
     0
100
AcDbLine
 10
0.0
 20
5.0
 30
0.0
 11
0.0
 21
5.75
 31
0.0
  0
LINE
  5
1CF
330
1C7
100
AcDbEntity
  8
0
  6
Continuous
 62
     7
370
     0
100
AcDbLine
 10
-5.0
 20
0.0
 30
0.0
 11
-5.75
 21
0.0
 31
0.0
  0
LINE
  5
1D0
330
1C7
100
AcDbEntity
  8
0
  6
Continuous
 62
     7
370
     0
100
AcDbLine
 10
0.0
 20
-5.0
 30
0.0
 11
0.0
 21
-5.75
 31
0.0
  0
LINE
  5
1D1
330
1C7
100
AcDbEntity
  8
0
  6
Continuous
 62
     7
370
     0
100
AcDbLine
 10
5.0
 20
0.0
 30
0.0
 11
5.75
 21
0.0
 31
0.0
  0
ENDBLK
  5
3EF
330
1C7
100
AcDbEntity
  8
0
100
AcDbBlockEnd
  0
BLOCK
  5
3F0
330
1D3
100
AcDbEntity
  8
0
100
AcDbBlockBegin
  2
SW_CENTERMARKSYMBOL_3
 70
     0
 10
0.0
 20
0.0
 30
0.0
  3
SW_CENTERMARKSYMBOL_3
  1

  0
LINE
  5
1D6
330
1D3
100
AcDbEntity
  8
0
  6
Continuous
 62
     7
370
     0
100
AcDbLine
 10
0.0
 20
0.0
 30
0.0
 11
-1.767766953
 21
1.767766953
 31
0.0
  0
LINE
  5
1D7
330
1D3
100
AcDbEntity
  8
0
  6
Continuous
 62
     7
370
     0
100
AcDbLine
 10
0.0
 20
0.0
 30
0.0
 11
-1.767766953
 21
-1.767766953
 31
0.0
  0
LINE
  5
1D8
330
1D3
100
AcDbEntity
  8
0
  6
Continuous
 62
     7
370
     0
100
AcDbLine
 10
0.0
 20
0.0
 30
0.0
 11
1.767766953
 21
-1.767766953
 31
0.0
  0
LINE
  5
1D9
330
1D3
100
AcDbEntity
  8
0
  6
Continuous
 62
     7
370
     0
100
AcDbLine
 10
0.0
 20
0.0
 30
0.0
 11
1.767766953
 21
1.767766953
 31
0.0
  0
LINE
  5
1DA
330
1D3
100
AcDbEntity
  8
0
  6
Continuous
 62
     7
370
     0
100
AcDbLine
 10
-3.5355339059
 20
3.5355339059
 30
0.0
 11
-4.9497474683
 21
4.9497474683
 31
0.0
  0
LINE
  5
1DB
330
1D3
100
AcDbEntity
  8
0
  6
Continuous
 62
     7
370
     0
100
AcDbLine
 10
-3.5355339059
 20
-3.5355339059
 30
0.0
 11
-4.9497474683
 21
-4.9497474683
 31
0.0
  0
LINE
  5
1DC
330
1D3
100
AcDbEntity
  8
0
  6
Continuous
 62
     7
370
     0
100
AcDbLine
 10
3.5355339059
 20
-3.5355339059
 30
0.0
 11
4.9497474683
 21
-4.9497474683
 31
0.0
  0
LINE
  5
1DD
330
1D3
100
AcDbEntity
  8
0
  6
Continuous
 62
     7
370
     0
100
AcDbLine
 10
3.5355339059
 20
3.5355339059
 30
0.0
 11
4.9497474683
 21
4.9497474683
 31
0.0
  0
ENDBLK
  5
3F1
330
1D3
100
AcDbEntity
  8
0
100
AcDbBlockEnd
  0
BLOCK
  5
3F2
330
1DF
100
AcDbEntity
  8
0
100
AcDbBlockBegin
  2
SW_CENTERMARKSYMBOL_4
 70
     0
 10
0.0
 20
0.0
 30
0.0
  3
SW_CENTERMARKSYMBOL_4
  1

  0
LINE
  5
1E2
330
1DF
100
AcDbEntity
  8
0
  6
Continuous
 62
     7
370
     0
100
AcDbLine
 10
0.0
 20
0.0
 30
0.0
 11
0.0
 21
2.5
 31
0.0
  0
LINE
  5
1E3
330
1DF
100
AcDbEntity
  8
0
  6
Continuous
 62
     7
370
     0
100
AcDbLine
 10
0.0
 20
0.0
 30
0.0
 11
-2.5
 21
0.0
 31
0.0
  0
LINE
  5
1E4
330
1DF
100
AcDbEntity
  8
0
  6
Continuous
 62
     7
370
     0
100
AcDbLine
 10
0.0
 20
0.0
 30
0.0
 11
0.0
 21
-2.5
 31
0.0
  0
LINE
  5
1E5
330
1DF
100
AcDbEntity
  8
0
  6
Continuous
 62
     7
370
     0
100
AcDbLine
 10
0.0
 20
0.0
 30
0.0
 11
2.5
 21
0.0
 31
0.0
  0
LINE
  5
1E6
330
1DF
100
AcDbEntity
  8
0
  6
Continuous
 62
     7
370
     0
100
AcDbLine
 10
0.0
 20
2.5
 30
0.0
 11
0.0
 21
4.475
 31
0.0
  0
LINE
  5
1E7
330
1DF
100
AcDbEntity
  8
0
  6
Continuous
 62
     7
370
     0
100
AcDbLine
 10
-2.5
 20
0.0
 30
0.0
 11
-4.475
 21
0.0
 31
0.0
  0
LINE
  5
1E8
330
1DF
100
AcDbEntity
  8
0
  6
Continuous
 62
     7
370
     0
100
AcDbLine
 10
0.0
 20
-2.5
 30
0.0
 11
0.0
 21
-4.475
 31
0.0
  0
LINE
  5
1E9
330
1DF
100
AcDbEntity
  8
0
  6
Continuous
 62
     7
370
     0
100
AcDbLine
 10
2.5
 20
0.0
 30
0.0
 11
4.475
 21
0.0
 31
0.0
  0
ENDBLK
  5
3F3
330
1DF
100
AcDbEntity
  8
0
100
AcDbBlockEnd
  0
BLOCK
  5
3F4
330
1EB
100
AcDbEntity
  8
0
100
AcDbBlockBegin
  2
SW_CENTERMARKSYMBOL_5
 70
     0
 10
0.0
 20
0.0
 30
0.0
  3
SW_CENTERMARKSYMBOL_5
  1

  0
LINE
  5
1EE
330
1EB
100
AcDbEntity
  8
0
  6
Continuous
 62
     7
370
     0
100
AcDbLine
 10
0.0
 20
0.0
 30
0.0
 11
-1.767766953
 21
1.767766953
 31
0.0
  0
LINE
  5
1EF
330
1EB
100
AcDbEntity
  8
0
  6
Continuous
 62
     7
370
     0
100
AcDbLine
 10
0.0
 20
0.0
 30
0.0
 11
-1.767766953
 21
-1.767766953
 31
0.0
  0
LINE
  5
1F0
330
1EB
100
AcDbEntity
  8
0
  6
Continuous
 62
     7
370
     0
100
AcDbLine
 10
0.0
 20
0.0
 30
0.0
 11
1.767766953
 21
-1.767766953
 31
0.0
  0
LINE
  5
1F1
330
1EB
100
AcDbEntity
  8
0
  6
Continuous
 62
     7
370
     0
100
AcDbLine
 10
0.0
 20
0.0
 30
0.0
 11
1.767766953
 21
1.767766953
 31
0.0
  0
LINE
  5
1F2
330
1EB
100
AcDbEntity
  8
0
  6
Continuous
 62
     7
370
     0
100
AcDbLine
 10
-3.5355339059
 20
3.5355339059
 30
0.0
 11
-5.0204581464
 21
5.0204581464
 31
0.0
  0
LINE
  5
1F3
330
1EB
100
AcDbEntity
  8
0
  6
Continuous
 62
     7
370
     0
100
AcDbLine
 10
-3.5355339059
 20
-3.5355339059
 30
0.0
 11
-5.0204581464
 21
-5.0204581464
 31
0.0
  0
LINE
  5
1F4
330
1EB
100
AcDbEntity
  8
0
  6
Continuous
 62
     7
370
     0
100
AcDbLine
 10
3.5355339059
 20
-3.5355339059
 30
0.0
 11
5.0204581464
 21
-5.0204581464
 31
0.0
  0
LINE
  5
1F5
330
1EB
100
AcDbEntity
  8
0
  6
Continuous
 62
     7
370
     0
100
AcDbLine
 10
3.5355339059
 20
3.5355339059
 30
0.0
 11
5.0204581464
 21
5.0204581464
 31
0.0
  0
ENDBLK
  5
3F5
330
1EB
100
AcDbEntity
  8
0
100
AcDbBlockEnd
  0
BLOCK
  5
3F6
330
1F7
100
AcDbEntity
  8
0
100
AcDbBlockBegin
  2
SW_CENTERMARKSYMBOL_6
 70
     0
 10
0.0
 20
0.0
 30
0.0
  3
SW_CENTERMARKSYMBOL_6
  1

  0
LINE
  5
1FA
330
1F7
100
AcDbEntity
  8
0
  6
Continuous
 62
     7
370
     0
100
AcDbLine
 10
0.0
 20
0.0
 30
0.0
 11
-1.767766953
 21
1.767766953
 31
0.0
  0
LINE
  5
1FB
330
1F7
100
AcDbEntity
  8
0
  6
Continuous
 62
     7
370
     0
100
AcDbLine
 10
0.0
 20
0.0
 30
0.0
 11
-1.767766953
 21
-1.767766953
 31
0.0
  0
LINE
  5
1FC
330
1F7
100
AcDbEntity
  8
0
  6
Continuous
 62
     7
370
     0
100
AcDbLine
 10
0.0
 20
0.0
 30
0.0
 11
1.767766953
 21
-1.767766953
 31
0.0
  0
LINE
  5
1FD
330
1F7
100
AcDbEntity
  8
0
  6
Continuous
 62
     7
370
     0
100
AcDbLine
 10
0.0
 20
0.0
 30
0.0
 11
1.767766953
 21
1.767766953
 31
0.0
  0
LINE
  5
1FE
330
1F7
100
AcDbEntity
  8
0
  6
Continuous
 62
     7
370
     0
100
AcDbLine
 10
-3.5355339059
 20
3.5355339059
 30
0.0
 11
-5.0204581464
 21
5.0204581464
 31
0.0
  0
LINE
  5
1FF
330
1F7
100
AcDbEntity
  8
0
  6
Continuous
 62
     7
370
     0
100
AcDbLine
 10
-3.5355339059
 20
-3.5355339059
 30
0.0
 11
-5.0204581464
 21
-5.0204581464
 31
0.0
  0
LINE
  5
200
330
1F7
100
AcDbEntity
  8
0
  6
Continuous
 62
     7
370
     0
100
AcDbLine
 10
3.5355339059
 20
-3.5355339059
 30
0.0
 11
5.0204581464
 21
-5.0204581464
 31
0.0
  0
LINE
  5
201
330
1F7
100
AcDbEntity
  8
0
  6
Continuous
 62
     7
370
     0
100
AcDbLine
 10
3.5355339059
 20
3.5355339059
 30
0.0
 11
5.0204581464
 21
5.0204581464
 31
0.0
  0
ENDBLK
  5
3F7
330
1F7
100
AcDbEntity
  8
0
100
AcDbBlockEnd
  0
BLOCK
  5
3F8
330
203
100
AcDbEntity
  8
0
100
AcDbBlockBegin
  2
SW_CENTERMARKSYMBOL_7
 70
     0
 10
0.0
 20
0.0
 30
0.0
  3
SW_CENTERMARKSYMBOL_7
  1

  0
LINE
  5
206
330
203
100
AcDbEntity
  8
0
  6
Continuous
 62
     7
370
     0
100
AcDbLine
 10
0.0
 20
0.0
 30
0.0
 11
0.0
 21
2.5
 31
0.0
  0
LINE
  5
207
330
203
100
AcDbEntity
  8
0
  6
Continuous
 62
     7
370
     0
100
AcDbLine
 10
0.0
 20
0.0
 30
0.0
 11
-2.5
 21
0.0
 31
0.0
  0
LINE
  5
208
330
203
100
AcDbEntity
  8
0
  6
Continuous
 62
     7
370
     0
100
AcDbLine
 10
0.0
 20
0.0
 30
0.0
 11
0.0
 21
-2.5
 31
0.0
  0
LINE
  5
209
330
203
100
AcDbEntity
  8
0
  6
Continuous
 62
     7
370
     0
100
AcDbLine
 10
0.0
 20
0.0
 30
0.0
 11
2.5
 21
0.0
 31
0.0
  0
LINE
  5
20A
330
203
100
AcDbEntity
  8
0
  6
Continuous
 62
     7
370
     0
100
AcDbLine
 10
0.0
 20
5.0
 30
0.0
 11
0.0
 21
6.05
 31
0.0
  0
LINE
  5
20B
330
203
100
AcDbEntity
  8
0
  6
Continuous
 62
     7
370
     0
100
AcDbLine
 10
-5.0
 20
0.0
 30
0.0
 11
-6.05
 21
0.0
 31
0.0
  0
LINE
  5
20C
330
203
100
AcDbEntity
  8
0
  6
Continuous
 62
     7
370
     0
100
AcDbLine
 10
0.0
 20
-5.0
 30
0.0
 11
0.0
 21
-6.05
 31
0.0
  0
LINE
  5
20D
330
203
100
AcDbEntity
  8
0
  6
Continuous
 62
     7
370
     0
100
AcDbLine
 10
5.0
 20
0.0
 30
0.0
 11
6.05
 21
0.0
 31
0.0
  0
ENDBLK
  5
3F9
330
203
100
AcDbEntity
  8
0
100
AcDbBlockEnd
  0
BLOCK
  5
3FA
330
20F
100
AcDbEntity
  8
0
100
AcDbBlockBegin
  2
SW_CENTERMARKSYMBOL_8
 70
     0
 10
0.0
 20
0.0
 30
0.0
  3
SW_CENTERMARKSYMBOL_8
  1

  0
LINE
  5
212
330
20F
100
AcDbEntity
  8
0
  6
Continuous
 62
     7
370
     0
100
AcDbLine
 10
0.0
 20
0.0
 30
0.0
 11
0.0
 21
2.5
 31
0.0
  0
LINE
  5
213
330
20F
100
AcDbEntity
  8
0
  6
Continuous
 62
     7
370
     0
100
AcDbLine
 10
0.0
 20
0.0
 30
0.0
 11
-2.5
 21
0.0
 31
0.0
  0
LINE
  5
214
330
20F
100
AcDbEntity
  8
0
  6
Continuous
 62
     7
370
     0
100
AcDbLine
 10
0.0
 20
0.0
 30
0.0
 11
0.0
 21
-2.5
 31
0.0
  0
LINE
  5
215
330
20F
100
AcDbEntity
  8
0
  6
Continuous
 62
     7
370
     0
100
AcDbLine
 10
0.0
 20
0.0
 30
0.0
 11
2.5
 21
0.0
 31
0.0
  0
LINE
  5
216
330
20F
100
AcDbEntity
  8
0
  6
Continuous
 62
     7
370
     0
100
AcDbLine
 10
0.0
 20
5.0
 30
0.0
 11
0.0
 21
6.05
 31
0.0
  0
LINE
  5
217
330
20F
100
AcDbEntity
  8
0
  6
Continuous
 62
     7
370
     0
100
AcDbLine
 10
-5.0
 20
0.0
 30
0.0
 11
-6.05
 21
0.0
 31
0.0
  0
LINE
  5
218
330
20F
100
AcDbEntity
  8
0
  6
Continuous
 62
     7
370
     0
100
AcDbLine
 10
0.0
 20
-5.0
 30
0.0
 11
0.0
 21
-6.05
 31
0.0
  0
LINE
  5
219
330
20F
100
AcDbEntity
  8
0
  6
Continuous
 62
     7
370
     0
100
AcDbLine
 10
5.0
 20
0.0
 30
0.0
 11
6.05
 21
0.0
 31
0.0
  0
ENDBLK
  5
3FB
330
20F
100
AcDbEntity
  8
0
100
AcDbBlockEnd
  0
BLOCK
  5
3FC
330
21B
100
AcDbEntity
  8
0
100
AcDbBlockBegin
  2
SW_CENTERMARKSYMBOL_9
 70
     0
 10
0.0
 20
0.0
 30
0.0
  3
SW_CENTERMARKSYMBOL_9
  1

  0
LINE
  5
21E
330
21B
100
AcDbEntity
  8
0
  6
Continuous
 62
     7
370
     0
100
AcDbLine
 10
0.0
 20
0.0
 30
0.0
 11
0.0
 21
2.5
 31
0.0
  0
LINE
  5
21F
330
21B
100
AcDbEntity
  8
0
  6
Continuous
 62
     7
370
     0
100
AcDbLine
 10
0.0
 20
0.0
 30
0.0
 11
-2.5
 21
0.0
 31
0.0
  0
LINE
  5
220
330
21B
100
AcDbEntity
  8
0
  6
Continuous
 62
     7
370
     0
100
AcDbLine
 10
0.0
 20
0.0
 30
0.0
 11
0.0
 21
-2.5
 31
0.0
  0
LINE
  5
221
330
21B
100
AcDbEntity
  8
0
  6
Continuous
 62
     7
370
     0
100
AcDbLine
 10
0.0
 20
0.0
 30
0.0
 11
2.5
 21
0.0
 31
0.0
  0
LINE
  5
222
330
21B
100
AcDbEntity
  8
0
  6
Continuous
 62
     7
370
     0
100
AcDbLine
 10
0.0
 20
2.5
 30
0.0
 11
0.0
 21
4.475
 31
0.0
  0
LINE
  5
223
330
21B
100
AcDbEntity
  8
0
  6
Continuous
 62
     7
370
     0
100
AcDbLine
 10
-2.5
 20
0.0
 30
0.0
 11
-4.475
 21
0.0
 31
0.0
  0
LINE
  5
224
330
21B
100
AcDbEntity
  8
0
  6
Continuous
 62
     7
370
     0
100
AcDbLine
 10
0.0
 20
-2.5
 30
0.0
 11
0.0
 21
-4.475
 31
0.0
  0
LINE
  5
225
330
21B
100
AcDbEntity
  8
0
  6
Continuous
 62
     7
370
     0
100
AcDbLine
 10
2.5
 20
0.0
 30
0.0
 11
4.475
 21
0.0
 31
0.0
  0
ENDBLK
  5
3FD
330
21B
100
AcDbEntity
  8
0
100
AcDbBlockEnd
  0
BLOCK
  5
3FE
330
227
100
AcDbEntity
  8
0
100
AcDbBlockBegin
  2
SW_CENTERMARKSYMBOL_10
 70
     0
 10
0.0
 20
0.0
 30
0.0
  3
SW_CENTERMARKSYMBOL_10
  1

  0
LINE
  5
22A
330
227
100
AcDbEntity
  8
0
  6
Continuous
 62
     7
370
     0
100
AcDbLine
 10
0.0
 20
0.0
 30
0.0
 11
0.0
 21
2.5
 31
0.0
  0
LINE
  5
22B
330
227
100
AcDbEntity
  8
0
  6
Continuous
 62
     7
370
     0
100
AcDbLine
 10
0.0
 20
0.0
 30
0.0
 11
-2.5
 21
0.0
 31
0.0
  0
LINE
  5
22C
330
227
100
AcDbEntity
  8
0
  6
Continuous
 62
     7
370
     0
100
AcDbLine
 10
0.0
 20
0.0
 30
0.0
 11
0.0
 21
-2.5
 31
0.0
  0
LINE
  5
22D
330
227
100
AcDbEntity
  8
0
  6
Continuous
 62
     7
370
     0
100
AcDbLine
 10
0.0
 20
0.0
 30
0.0
 11
2.5
 21
0.0
 31
0.0
  0
LINE
  5
22E
330
227
100
AcDbEntity
  8
0
  6
Continuous
 62
     7
370
     0
100
AcDbLine
 10
0.0
 20
5.0
 30
0.0
 11
0.0
 21
6.05
 31
0.0
  0
LINE
  5
22F
330
227
100
AcDbEntity
  8
0
  6
Continuous
 62
     7
370
     0
100
AcDbLine
 10
-5.0
 20
0.0
 30
0.0
 11
-6.05
 21
0.0
 31
0.0
  0
LINE
  5
230
330
227
100
AcDbEntity
  8
0
  6
Continuous
 62
     7
370
     0
100
AcDbLine
 10
0.0
 20
-5.0
 30
0.0
 11
0.0
 21
-6.05
 31
0.0
  0
LINE
  5
231
330
227
100
AcDbEntity
  8
0
  6
Continuous
 62
     7
370
     0
100
AcDbLine
 10
5.0
 20
0.0
 30
0.0
 11
6.05
 21
0.0
 31
0.0
  0
ENDBLK
  5
3FF
330
227
100
AcDbEntity
  8
0
100
AcDbBlockEnd
  0
BLOCK
  5
400
330
233
100
AcDbEntity
  8
0
100
AcDbBlockBegin
  2
SW_CENTERMARKSYMBOL_11
 70
     0
 10
0.0
 20
0.0
 30
0.0
  3
SW_CENTERMARKSYMBOL_11
  1

  0
LINE
  5
236
330
233
100
AcDbEntity
  8
0
  6
Continuous
 62
     7
370
     0
100
AcDbLine
 10
0.0
 20
0.0
 30
0.0
 11
0.0
 21
2.5
 31
0.0
  0
LINE
  5
237
330
233
100
AcDbEntity
  8
0
  6
Continuous
 62
     7
370
     0
100
AcDbLine
 10
0.0
 20
0.0
 30
0.0
 11
-2.5
 21
0.0
 31
0.0
  0
LINE
  5
238
330
233
100
AcDbEntity
  8
0
  6
Continuous
 62
     7
370
     0
100
AcDbLine
 10
0.0
 20
0.0
 30
0.0
 11
0.0
 21
-2.5
 31
0.0
  0
LINE
  5
239
330
233
100
AcDbEntity
  8
0
  6
Continuous
 62
     7
370
     0
100
AcDbLine
 10
0.0
 20
0.0
 30
0.0
 11
2.5
 21
0.0
 31
0.0
  0
LINE
  5
23A
330
233
100
AcDbEntity
  8
0
  6
Continuous
 62
     7
370
     0
100
AcDbLine
 10
0.0
 20
5.0
 30
0.0
 11
0.0
 21
6.05
 31
0.0
  0
LINE
  5
23B
330
233
100
AcDbEntity
  8
0
  6
Continuous
 62
     7
370
     0
100
AcDbLine
 10
-5.0
 20
0.0
 30
0.0
 11
-6.05
 21
0.0
 31
0.0
  0
LINE
  5
23C
330
233
100
AcDbEntity
  8
0
  6
Continuous
 62
     7
370
     0
100
AcDbLine
 10
0.0
 20
-5.0
 30
0.0
 11
0.0
 21
-6.05
 31
0.0
  0
LINE
  5
23D
330
233
100
AcDbEntity
  8
0
  6
Continuous
 62
     7
370
     0
100
AcDbLine
 10
5.0
 20
0.0
 30
0.0
 11
6.05
 21
0.0
 31
0.0
  0
ENDBLK
  5
401
330
233
100
AcDbEntity
  8
0
100
AcDbBlockEnd
  0
BLOCK
  5
402
330
23F
100
AcDbEntity
  8
0
100
AcDbBlockBegin
  2
SW_CENTERMARKSYMBOL_12
 70
     0
 10
0.0
 20
0.0
 30
0.0
  3
SW_CENTERMARKSYMBOL_12
  1

  0
LINE
  5
242
330
23F
100
AcDbEntity
  8
0
  6
Continuous
 62
     7
370
     0
100
AcDbLine
 10
0.0
 20
0.0
 30
0.0
 11
0.0
 21
2.5
 31
0.0
  0
LINE
  5
243
330
23F
100
AcDbEntity
  8
0
  6
Continuous
 62
     7
370
     0
100
AcDbLine
 10
0.0
 20
0.0
 30
0.0
 11
-2.5
 21
0.0
 31
0.0
  0
LINE
  5
244
330
23F
100
AcDbEntity
  8
0
  6
Continuous
 62
     7
370
     0
100
AcDbLine
 10
0.0
 20
0.0
 30
0.0
 11
0.0
 21
-2.5
 31
0.0
  0
LINE
  5
245
330
23F
100
AcDbEntity
  8
0
  6
Continuous
 62
     7
370
     0
100
AcDbLine
 10
0.0
 20
0.0
 30
0.0
 11
2.5
 21
0.0
 31
0.0
  0
LINE
  5
246
330
23F
100
AcDbEntity
  8
0
  6
Continuous
 62
     7
370
     0
100
AcDbLine
 10
0.0
 20
5.0
 30
0.0
 11
0.0
 21
26.5
 31
0.0
  0
LINE
  5
247
330
23F
100
AcDbEntity
  8
0
  6
Continuous
 62
     7
370
     0
100
AcDbLine
 10
-5.0
 20
0.0
 30
0.0
 11
-26.5
 21
0.0
 31
0.0
  0
LINE
  5
248
330
23F
100
AcDbEntity
  8
0
  6
Continuous
 62
     7
370
     0
100
AcDbLine
 10
0.0
 20
-5.0
 30
0.0
 11
0.0
 21
-26.5
 31
0.0
  0
LINE
  5
249
330
23F
100
AcDbEntity
  8
0
  6
Continuous
 62
     7
370
     0
100
AcDbLine
 10
5.0
 20
0.0
 30
0.0
 11
26.5
 21
0.0
 31
0.0
  0
ENDBLK
  5
403
330
23F
100
AcDbEntity
  8
0
100
AcDbBlockEnd
  0
BLOCK
  5
404
330
34C
100
AcDbEntity
  8
0
100
AcDbBlockBegin
  2
*D22
 70
     1
 10
0.0
 20
0.0
 30
0.0
  3
*D22
  1

  0
INSERT
  5
35A
330
34C
100
AcDbEntity
  8
0
  6
Continuous
 62
     7
370
     0
100
AcDbBlockReference
  2
_OPEN30
 10
76.2194076196
 20
193.2425765166
 30
-14.064729308
 41
6.0
 42
6.0
 50
90.0
  0
INSERT
  5
35B
330
34C
100
AcDbEntity
  8
0
  6
Continuous
 62
     7
370
     0
100
AcDbBlockReference
  2
_OPEN30
 10
76.2194076196
 20
205.2425765166
 30
-14.064729308
 41
6.0
 42
6.0
 50
270.0
  0
LINE
  5
35C
330
34C
100
AcDbEntity
  8
0
  6
Continuous
 62
     7
370
     0
100
AcDbLine
 10
115.5423364347
 20
193.2425765166
 30
0.0
 11
75.2194076196
 21
193.2425765166
 31
0.0
  0
LINE
  5
35D
330
34C
100
AcDbEntity
  8
0
  6
Continuous
 62
     7
370
     0
100
AcDbLine
 10
100.7923364347
 20
205.2425765166
 30
0.0
 11
75.2194076196
 21
205.2425765166
 31
0.0
  0
LINE
  5
35E
330
34C
100
AcDbEntity
  8
0
  6
Continuous
 62
     7
370
     0
100
AcDbLine
 10
76.2194076196
 20
193.2425765166
 30
0.0
 11
76.2194076196
 21
181.2425765166
 31
0.0
  0
LINE
  5
35F
330
34C
100
AcDbEntity
  8
0
  6
Continuous
 62
     7
370
     0
100
AcDbLine
 10
76.2194076196
 20
193.2425765166
 30
0.0
 11
76.2194076196
 21
205.2425765166
 31
0.0
  0
LINE
  5
360
330
34C
100
AcDbEntity
  8
0
  6
Continuous
 62
     7
370
     0
100
AcDbLine
 10
76.2194076196
 20
205.2425765166
 30
0.0
 11
76.2194076196
 21
217.2425765166
 31
0.0
  0
MTEXT
  5
361
330
34C
100
AcDbEntity
  8
0
  6
Continuous
 62
     7
370
     0
100
AcDbMText
 10
71.2933471882
 20
196.4218260434
 30
0.0
 40
4.2333333333
 41
0.0
 46
0.0
 71
     1
 72
     1
  1
12
  7
SLDTEXTSTYLE0
 11
2.725765576791495E-15
 21
1.0
 31
0.0
 73
     1
 44
1.0
  0
ENDBLK
  5
405
330
34C
100
AcDbEntity
  8
0
100
AcDbBlockEnd
  0
BLOCK
  5
406
330
363
100
AcDbEntity
  8
0
100
AcDbBlockBegin
  2
*D23
 70
     1
 10
0.0
 20
0.0
 30
0.0
  3
*D23
  1

  0
INSERT
  5
370
330
363
100
AcDbEntity
  8
0
  6
Continuous
 62
     7
370
     0
100
AcDbBlockReference
  2
_OPEN30
 10
76.2194076196
 20
205.2425765166
 30
-14.064729308
 41
6.0
 42
6.0
 50
270.0
  0
INSERT
  5
371
330
363
100
AcDbEntity
  8
0
  6
Continuous
 62
     7
370
     0
100
AcDbBlockReference
  2
_OPEN30
 10
76.2194076196
 20
227.2425765166
 30
-14.064729308
 41
6.0
 42
6.0
 50
90.0
  0
LINE
  5
372
330
363
100
AcDbEntity
  8
0
  6
Continuous
 62
     7
370
     0
100
AcDbLine
 10
100.7923364347
 20
205.2425765166
 30
0.0
 11
75.2194076196
 21
205.2425765166
 31
0.0
  0
LINE
  5
373
330
363
100
AcDbEntity
  8
0
  6
Continuous
 62
     7
370
     0
100
AcDbLine
 10
100.7923364347
 20
227.2425765166
 30
0.0
 11
75.2194076196
 21
227.2425765166
 31
0.0
  0
LINE
  5
374
330
363
100
AcDbEntity
  8
0
  6
Continuous
 62
     7
370
     0
100
AcDbLine
 10
76.2194076196
 20
205.2425765166
 30
0.0
 11
76.2194076196
 21
227.2425765166
 31
0.0
  0
MTEXT
  5
375
330
363
100
AcDbEntity
  8
0
  6
Continuous
 62
     7
370
     0
100
AcDbMText
 10
71.2933471882
 20
213.4218260434
 30
0.0
 40
4.2333333333
 41
0.0
 46
0.0
 71
     1
 72
     1
  1
22
  7
SLDTEXTSTYLE0
 11
6.123031769111886E-17
 21
1.0
 31
0.0
 73
     1
 44
1.0
  0
ENDBLK
  5
407
330
363
100
AcDbEntity
  8
0
100
AcDbBlockEnd
  0
BLOCK
  5
408
330
377
100
AcDbEntity
  8
0
100
AcDbBlockBegin
  2
*D24
 70
     1
 10
0.0
 20
0.0
 30
0.0
  3
*D24
  1

  0
INSERT
  5
384
330
377
100
AcDbEntity
  8
0
  6
Continuous
 62
     7
370
     0
100
AcDbBlockReference
  2
_OPEN30
 10
59.5864546631
 20
230.2425765166
 30
-14.064729308
 41
6.0
 42
6.0
 50
90.0
  0
INSERT
  5
385
330
377
100
AcDbEntity
  8
0
  6
Continuous
 62
     7
370
     0
100
AcDbBlockReference
  2
_OPEN30
 10
59.5864546631
 20
193.2425765166
 30
-14.064729308
 41
6.0
 42
6.0
 50
270.0
  0
LINE
  5
386
330
377
100
AcDbEntity
  8
0
  6
Continuous
 62
     7
370
     0
100
AcDbLine
 10
115.2923364347
 20
230.2425765166
 30
0.0
 11
58.5864546631
 21
230.2425765166
 31
0.0
  0
LINE
  5
387
330
377
100
AcDbEntity
  8
0
  6
Continuous
 62
     7
370
     0
100
AcDbLine
 10
115.5423364347
 20
193.2425765166
 30
0.0
 11
58.5864546631
 21
193.2425765166
 31
0.0
  0
LINE
  5
388
330
377
100
AcDbEntity
  8
0
  6
Continuous
 62
     7
370
     0
100
AcDbLine
 10
59.5864546631
 20
230.2425765166
 30
0.0
 11
59.5864546631
 21
193.2425765166
 31
0.0
  0
MTEXT
  5
389
330
377
100
AcDbEntity
  8
0
  6
Continuous
 62
     7
370
     0
100
AcDbMText
 10
54.6603942317
 20
208.9218260434
 30
0.0
 40
4.2333333333
 41
0.0
 46
0.0
 71
     1
 72
     1
  1
37
  7
SLDTEXTSTYLE0
 11
-7.044197039909883E-15
 21
1.0
 31
0.0
 73
     1
 44
1.0
  0
ENDBLK
  5
409
330
377
100
AcDbEntity
  8
0
100
AcDbBlockEnd
  0
BLOCK
  5
40A
330
38B
100
AcDbEntity
  8
0
100
AcDbBlockBegin
  2
*D25
 70
     1
 10
0.0
 20
0.0
 30
0.0
  3
*D25
  1

  0
INSERT
  5
399
330
38B
100
AcDbEntity
  8
0
  6
Continuous
 62
     7
370
     0
100
AcDbBlockReference
  2
_OPEN30
 10
76.2194076196
 20
227.2425765166
 30
-14.064729308
 41
6.0
 42
6.0
 50
90.0
  0
INSERT
  5
39A
330
38B
100
AcDbEntity
  8
0
  6
Continuous
 62
     7
370
     0
100
AcDbBlockReference
  2
_OPEN30
 10
76.2194076196
 20
230.2425765166
 30
-14.064729308
 41
6.0
 42
6.0
 50
270.0
  0
LINE
  5
39B
330
38B
100
AcDbEntity
  8
0
  6
Continuous
 62
     7
370
     0
100
AcDbLine
 10
106.0573424395
 20
227.2425765166
 30
0.0
 11
75.2194076196
 21
227.2425765166
 31
0.0
  0
LINE
  5
39C
330
38B
100
AcDbEntity
  8
0
  6
Continuous
 62
     7
370
     0
100
AcDbLine
 10
115.2923364347
 20
230.2425765166
 30
0.0
 11
75.2194076196
 21
230.2425765166
 31
0.0
  0
LINE
  5
39D
330
38B
100
AcDbEntity
  8
0
  6
Continuous
 62
     7
370
     0
100
AcDbLine
 10
76.2194076196
 20
227.2425765166
 30
0.0
 11
76.2194076196
 21
215.2425765166
 31
0.0
  0
LINE
  5
39E
330
38B
100
AcDbEntity
  8
0
  6
Continuous
 62
     7
370
     0
100
AcDbLine
 10
76.2194076196
 20
227.2425765166
 30
0.0
 11
76.2194076196
 21
230.2425765166
 31
0.0
  0
LINE
  5
39F
330
38B
100
AcDbEntity
  8
0
  6
Continuous
 62
     7
370
     0
100
AcDbLine
 10
76.2194076196
 20
230.2425765166
 30
0.0
 11
76.2194076196
 21
242.4534746772
 31
0.0
  0
MTEXT
  5
3A0
330
38B
100
AcDbEntity
  8
0
  6
Continuous
 62
     7
370
     0
100
AcDbMText
 10
71.2933471882
 20
238.0468169485
 30
0.0
 40
4.2333333333
 41
0.0
 46
0.0
 71
     1
 72
     1
  1
3
  7
SLDTEXTSTYLE0
 11
6.123031769111886E-17
 21
1.0
 31
0.0
 73
     1
 44
1.0
  0
ENDBLK
  5
40B
330
38B
100
AcDbEntity
  8
0
100
AcDbBlockEnd
  0
ENDSEC
  0
SECTION
  2
ENTITIES
  0
LINE
  5
2F
330
1F
100
AcDbEntity
  8
0
  6
Continuous
 62
     7
370
     0
100
AcDbLine
 10
20.2604743903
 20
285.0
 30
0.0
 11
196.7604743903
 21
285.0
 31
0.0
  0
LINE
  5
30
330
1F
100
AcDbEntity
  8
0
  6
Continuous
 62
     7
370
     0
100
AcDbLine
 10
20.2604743903
 20
285.0
 30
0.0
 11
20.2604743903
 21
10.0
 31
0.0
  0
LINE
  5
31
330
1F
100
AcDbEntity
  8
0
  6
Continuous
 62
     7
370
     0
100
AcDbLine
 10
20.2604743903
 20
10.0
 30
0.0
 11
196.7604743903
 21
10.0
 31
0.0
  0
LINE
  5
32
330
1F
100
AcDbEntity
  8
0
  6
Continuous
 62
     7
370
     0
100
AcDbLine
 10
196.7604743903
 20
285.0
 30
0.0
 11
196.7604743903
 21
10.0
 31
0.0
  0
LINE
  5
33
330
1F
100
AcDbEntity
  8
0
  6
Continuous
 62
     7
370
     0
100
AcDbLine
 10
127.0104743903
 20
50.75
 30
0.0
 11
196.7604743903
 21
50.75
 31
0.0
  0
LINE
  5
34
330
1F
100
AcDbEntity
  8
0
  6
Continuous
 62
     7
370
     0
100
AcDbLine
 10
127.0104743903
 20
50.75
 30
0.0
 11
127.0104743903
 21
10.0
 31
0.0
  0
LINE
  5
35
330
1F
100
AcDbEntity
  8
0
  6
Continuous
 62
     7
370
     0
100
AcDbLine
 10
127.0104743903
 20
22.75
 30
0.0
 11
196.7604743903
 21
22.75
 31
0.0
  0
LINE
  5
36
330
1F
100
AcDbEntity
  8
0
  6
Continuous
 62
     7
370
     0
100
AcDbLine
 10
127.0104743903
 20
36.75
 30
0.0
 11
196.7604743903
 21
36.75
 31
0.0
  0
MTEXT
  5
38
330
1F
100
AcDbEntity
  8
0
  6
Continuous
 62
     7
370
     0
100
AcDbMText
 10
33.0544276375
 20
160.0686649583
 30
0.0
 40
4.2333333333
 41
0.0
 46
0.0
 71
     1
 72
     1
  1
（ロボット取付け穴
  7
SLDTEXTSTYLE0
 73
     1
 44
1.0
  0
MTEXT
  5
39
330
1F
100
AcDbEntity
  8
0
  6
Continuous
 62
     7
370
     0
100
AcDbMText
 10
155.7572868651
 20
32.1385071371
 30
0.0
 40
4.2333333333
 41
0.0
 46
0.0
 71
     1
 72
     1
  1
OX-03A
  7
SLDTEXTSTYLE0
 73
     1
 44
1.0
  0
INSERT
  5
3F
330
1F
100
AcDbEntity
  8
0
  6
Continuous
 62
     7
370
     0
100
AcDbBlockReference
  2
SW_NOTE_0
 10
135.9001668887
 20
43.8297648245
 30
0.0
  0
MTEXT
  5
40
330
1F
100
AcDbEntity
  8
0
  6
Continuous
 62
     7
370
     0
100
AcDbMText
 10
155.491131752
 20
16.2918259049
 30
0.0
 40
4.2333333333
 41
0.0
 46
0.0
 71
     1
 72
     1
  1
140235
  7
SLDTEXTSTYLE0
 73
     1
 44
1.0
  0
CIRCLE
  5
41
330
1F
100
AcDbEntity
  8
0
  6
PHANTOM
 62
     7
370
     0
100
AcDbCircle
 10
125.7923364347
 20
133.3555299603
 30
0.0
 40
15.75000000000001
  0
LINE
  5
42
330
1F
100
AcDbEntity
  8
0
  6
Continuous
 62
     7
370
    15
100
AcDbLine
 10
165.6423364347
 20
138.4555299603
 30
0.0
 11
165.6423364347
 21
144.4555299603
 31
0.0
  0
LINE
  5
43
330
1F
100
AcDbEntity
  8
0
  6
Continuous
 62
     7
370
    15
100
AcDbLine
 10
156.1423364347
 20
144.4555299603
 30
0.0
 11
156.1423364347
 21
138.4555299603
 31
0.0
  0
LINE
  5
44
330
1F
100
AcDbEntity
  8
0
  6
Continuous
 62
     7
370
    15
100
AcDbLine
 10
165.6423364347
 20
146.4555299603
 30
0.0
 11
165.6423364347
 21
147.4555299603
 31
0.0
  0
LINE
  5
45
330
1F
100
AcDbEntity
  8
0
  6
Continuous
 62
     7
370
    15
100
AcDbLine
 10
156.1423364347
 20
147.4555299603
 30
0.0
 11
156.1423364347
 21
146.4555299603
 31
0.0
  0
ARC
  5
46
330
1F
100
AcDbEntity
  8
0
  6
Continuous
 62
     7
370
    15
100
AcDbCircle
 10
160.7923364347
 20
133.3555299603
 30
0.0
 40
4.100000000000008
100
AcDbArc
 50
257.3196165082
 51
0.0
  0
LINE
  5
47
330
1F
100
AcDbEntity
  8
0
  6
Continuous
 62
     7
370
    15
100
AcDbLine
 10
154.8923364347
 20
129.3561952105
 30
0.0
 11
159.8923364347
 21
129.3555299603
 31
0.0
  0
LINE
  5
48
330
1F
100
AcDbEntity
  8
0
  6
Continuous
 62
     7
370
    15
100
AcDbLine
 10
156.8923357582
 20
137.3555301503
 30
0.0
 11
154.8923364347
 21
137.3548647101
 31
0.0
  0
LINE
  5
49
330
1F
100
AcDbEntity
  8
0
  6
Continuous
 62
     7
370
    15
100
AcDbLine
 10
156.8923357582
 20
146.4555300586
 30
0.0
 11
156.8923357582
 21
144.4555297308
 31
0.0
  0
LINE
  5
4A
330
1F
100
AcDbEntity
  8
0
  6
Continuous
 62
     7
370
    15
100
AcDbLine
 10
164.8923352069
 20
144.4555297308
 30
0.0
 11
164.8923352069
 21
146.4555300586
 31
0.0
  0
LINE
  5
4B
330
1F
100
AcDbEntity
  8
0
  6
Continuous
 62
     7
370
    15
100
AcDbLine
 10
164.892336426
 20
133.355797761
 30
0.0
 11
164.8923352069
 21
138.4555301443
 31
0.0
  0
LINE
  5
4C
330
1F
100
AcDbEntity
  8
0
  6
Continuous
 62
     7
370
    15
100
AcDbLine
 10
156.8923357582
 20
138.4555301443
 30
0.0
 11
156.8923357582
 21
137.3555301503
 31
0.0
  0
LINE
  5
4D
330
1F
100
AcDbEntity
  8
0
  6
Continuous
 62
     7
370
    15
100
AcDbLine
 10
149.8923364735
 20
136.8555300683
 30
0.0
 11
149.5357572741
 21
136.8555300683
 31
0.0
  0
LINE
  5
4E
330
1F
100
AcDbEntity
  8
0
  6
Continuous
 62
     7
370
    15
100
AcDbLine
 10
149.5357572741
 20
129.8555298522
 30
0.0
 11
149.8923364735
 21
129.8555298522
 31
0.0
  0
LINE
  5
4F
330
1F
100
AcDbEntity
  8
0
  6
Continuous
 62
     7
370
    15
100
AcDbLine
 10
95.4423364347
 20
146.4555299603
 30
0.0
 11
95.4423364347
 21
147.4555299603
 31
0.0
  0
LINE
  5
50
330
1F
100
AcDbEntity
  8
0
  6
Continuous
 62
     7
370
    15
100
AcDbLine
 10
85.9423364347
 20
147.4555299603
 30
0.0
 11
85.9423364347
 21
146.4555299603
 31
0.0
  0
LINE
  5
51
330
1F
100
AcDbEntity
  8
0
  6
Continuous
 62
     7
370
    15
100
AcDbLine
 10
95.4423364347
 20
138.4555299603
 30
0.0
 11
95.4423364347
 21
144.4555299603
 31
0.0
  0
LINE
  5
52
330
1F
100
AcDbEntity
  8
0
  6
Continuous
 62
     7
370
    15
100
AcDbLine
 10
85.9423364347
 20
144.4555299603
 30
0.0
 11
85.9423364347
 21
138.4555299603
 31
0.0
  0
ARC
  5
53
330
1F
100
AcDbEntity
  8
0
  6
Continuous
 62
     7
370
    15
100
AcDbCircle
 10
90.7923364347
 20
133.3555299603
 30
0.0
 40
4.099999999999994
100
AcDbArc
 50
180.0
 51
270.0
  0
ARC
  5
54
330
1F
100
AcDbEntity
  8
0
  6
Continuous
 62
     7
370
    15
100
AcDbCircle
 10
90.7923364347
 20
133.3555299603
 30
0.0
 40
4.100000000000001
100
AcDbArc
 50
270.0
 51
282.6803834918
  0
LINE
  5
55
330
1F
100
AcDbEntity
  8
0
  6
Continuous
 62
     7
370
    15
100
AcDbLine
 10
86.6923376626
 20
146.4555300586
 30
0.0
 11
86.6923376626
 21
144.4555297308
 31
0.0
  0
LINE
  5
56
330
1F
100
AcDbEntity
  8
0
  6
Continuous
 62
     7
370
    15
100
AcDbLine
 10
94.6923371113
 20
144.4555297308
 30
0.0
 11
94.6923371113
 21
146.4555300586
 31
0.0
  0
LINE
  5
57
330
1F
100
AcDbEntity
  8
0
  6
Continuous
 62
     7
370
    15
100
AcDbLine
 10
94.6923371113
 20
137.3555301503
 30
0.0
 11
94.6923371113
 21
138.4555301443
 31
0.0
  0
LINE
  5
58
330
1F
100
AcDbEntity
  8
0
  6
Continuous
 62
     7
370
    15
100
AcDbLine
 10
86.6923376626
 20
138.4555301443
 30
0.0
 11
86.6923364418
 21
133.3552900506
 31
0.0
  0
LINE
  5
40C
330
1F
100
AcDbEntity
  8
0
  6
Continuous
 62
     7
370
    15
100
AcDbLine
 10
96.6923364347
 20
137.3548647101
 30
0.0
 11
94.6923371113
 21
137.3555301503
 31
0.0
  0
LINE
  5
40D
330
1F
100
AcDbEntity
  8
0
  6
Continuous
 62
     7
370
    15
100
AcDbLine
 10
91.6923364347
 20
129.3555299603
 30
0.0
 11
96.6923364347
 21
129.3561952105
 31
0.0
  0
LINE
  5
5B
330
1F
100
AcDbEntity
  8
0
  6
Continuous
 62
     7
370
    15
100
AcDbLine
 10
101.692336396
 20
129.8555298522
 30
0.0
 11
102.0489155954
 21
129.8555298522
 31
0.0
  0
LINE
  5
5C
330
1F
100
AcDbEntity
  8
0
  6
Continuous
 62
     7
370
    15
100
AcDbLine
 10
102.0489155954
 20
136.8555300683
 30
0.0
 11
101.692336396
 21
136.8555300683
 31
0.0
  0
LINE
  5
5D
330
1F
100
AcDbEntity
  8
0
  6
Continuous
 62
     7
370
    15
100
AcDbLine
 10
149.4577999866
 20
137.3555301503
 30
0.0
 11
149.4566563225
 21
137.3555301503
 31
0.0
  0
LINE
  5
40E
330
1F
100
AcDbEntity
  8
0
  6
Continuous
 62
     7
370
    15
100
AcDbLine
 10
149.4566563225
 20
129.3555297703
 30
0.0
 11
149.4589119858
 21
129.3555297703
 31
0.0
  0
LINE
  5
5F
330
1F
100
AcDbEntity
  8
0
  6
Continuous
 62
     7
370
    15
100
AcDbLine
 10
149.3976030207
 20
137.6904332824
 30
0.0
 11
149.3995252705
 21
137.6911331713
 31
0.0
  0
LINE
  5
60
330
1F
100
AcDbEntity
  8
0
  6
Continuous
 62
     7
370
    15
100
AcDbLine
 10
102.1870698488
 20
129.0206266381
 30
0.0
 11
102.185147599
 21
129.0199267492
 31
0.0
  0
LINE
  5
61
330
1F
100
AcDbEntity
  8
0
  6
Continuous
 62
     7
370
    15
100
AcDbLine
 10
104.9232303804
 20
145.2079741098
 30
0.0
 11
104.9213081306
 21
145.2086735331
 31
0.0
  0
LINE
  5
62
330
1F
100
AcDbEntity
  8
0
  6
Continuous
 62
     7
370
    15
100
AcDbLine
 10
146.661442489
 20
121.5030858107
 30
0.0
 11
146.6633647388
 21
121.5023863875
 31
0.0
  0
LINE
  5
63
330
1F
100
AcDbEntity
  8
0
  6
Continuous
 62
     7
370
    15
100
AcDbLine
 10
102.1227024204
 20
129.3805297278
 30
0.0
 11
102.1238051063
 21
129.3805297278
 31
0.0
  0
LINE
  5
64
330
1F
100
AcDbEntity
  8
0
  6
Continuous
 62
     7
370
    15
100
AcDbLine
 10
102.1238051063
 20
137.3305301927
 30
0.0
 11
102.1215773827
 21
137.3305301927
 31
0.0
  0
ARC
  5
65
330
1F
100
AcDbEntity
  8
0
  6
Continuous
 62
     7
370
    15
100
AcDbCircle
 10
133.9158595231
 20
138.0456482021
 30
0.0
 40
2.500000000000001
100
AcDbArc
 50
194.6997826601
 51
225.3002173399
  0
ARC
  5
66
330
1F
100
AcDbEntity
  8
0
  6
Continuous
 62
     7
370
    15
100
AcDbCircle
 10
133.9158595231
 20
138.0456482021
 30
0.0
 40
2.500000000000017
100
AcDbArc
 50
313.342757679
 51
106.657242321
  0
ARC
  5
67
330
1F
100
AcDbEntity
  8
0
  6
Continuous
 62
     7
370
    15
100
AcDbCircle
 10
125.7923364347
 20
123.9752934766
 30
0.0
 40
2.500000000000003
100
AcDbArc
 50
193.342757679
 51
346.657242321
  0
ARC
  5
68
330
1F
100
AcDbEntity
  8
0
  6
Continuous
 62
     7
370
    15
100
AcDbCircle
 10
125.7923364347
 20
123.9752934766
 30
0.0
 40
2.499999999999998
100
AcDbArc
 50
74.6997826601
 51
105.3002173399
  0
ARC
  5
69
330
1F
100
AcDbEntity
  8
0
  6
Continuous
 62
     7
370
    15
100
AcDbCircle
 10
125.7923364347
 20
142.1053044584
 30
0.0
 40
2.500000000000026
100
AcDbArc
 50
230.6048102383
 51
241.5686982919
  0
ARC
  5
6A
330
1F
100
AcDbEntity
  8
0
  6
Continuous
 62
     7
370
    15
100
AcDbCircle
 10
125.7923364347
 20
142.1053044584
 30
0.0
 40
2.500000000000016
100
AcDbArc
 50
299.9189148741
 51
309.3951897617
  0
ARC
  5
40F
330
1F
100
AcDbEntity
  8
0
  6
Continuous
 62
     7
370
    15
100
AcDbCircle
 10
125.7923364347
 20
142.1053044584
 30
0.0
 40
2.500000000000011
100
AcDbArc
 50
30.5755949312
 51
149.4244050688
  0
ARC
  5
410
330
1F
100
AcDbEntity
  8
0
  6
Continuous
 62
     7
370
    15
100
AcDbCircle
 10
117.6688133463
 20
138.0456482021
 30
0.0
 40
2.500000000000019
100
AcDbArc
 50
73.342757679
 51
226.657242321
  0
ARC
  5
6D
330
1F
100
AcDbEntity
  8
0
  6
Continuous
 62
     7
370
    15
100
AcDbCircle
 10
117.6688133463
 20
138.0456482021
 30
0.0
 40
2.500000000000006
100
AcDbArc
 50
314.6997826601
 51
345.3002173399
  0
ARC
  5
6E
330
1F
100
AcDbEntity
  8
0
  6
Continuous
 62
     7
370
    15
100
AcDbCircle
 10
133.2247713976
 20
129.0644116337
 30
0.0
 40
2.500000000000013
100
AcDbArc
 50
275.8930482486
 51
24.1069517514
  0
ARC
  5
6F
330
1F
100
AcDbEntity
  8
0
  6
Continuous
 62
     7
370
    15
100
AcDbCircle
 10
133.2247713976
 20
129.0644116337
 30
0.0
 40
2.500000000000012
100
AcDbArc
 50
106.0712873941
 51
114.6846516728
  0
ARC
  5
70
330
1F
100
AcDbEntity
  8
0
  6
Continuous
 62
     7
370
    15
100
AcDbCircle
 10
133.2247713976
 20
129.0644116337
 30
0.0
 40
2.500000000000023
100
AcDbArc
 50
185.3153483272
 51
193.9287126059
  0
ARC
  5
71
330
1F
100
AcDbEntity
  8
0
  6
Continuous
 62
     7
370
    15
100
AcDbCircle
 10
118.2883335436
 20
129.0230918711
 30
0.0
 40
2.499999999999996
100
AcDbArc
 50
348.2651068469
 51
357.2563190445
  0
ARC
  5
72
330
1F
100
AcDbEntity
  8
0
  6
Continuous
 62
     7
370
    15
100
AcDbCircle
 10
118.2883335436
 20
129.0230918711
 30
0.0
 40
2.500000000000004
100
AcDbArc
 50
62.7436809555
 51
71.7348931531
  0
ARC
  5
411
330
1F
100
AcDbEntity
  8
0
  6
Continuous
 62
     7
370
    15
100
AcDbCircle
 10
118.2883335436
 20
129.0230918711
 30
0.0
 40
2.500000000000011
100
AcDbArc
 50
153.2151472323
 51
266.7848527677
  0
ARC
  5
412
330
1F
100
AcDbEntity
  8
0
  6
Continuous
 62
     7
370
    15
100
AcDbCircle
 10
142.3947704636
 20
128.5570013773
 30
0.0
 40
2.000000000000012
100
AcDbArc
 50
207.625261467
 51
17.7400312132
  0
ARC
  5
413
330
1F
100
AcDbEntity
  8
0
  6
Continuous
 62
     7
370
    15
100
AcDbCircle
 10
109.3975387546
 20
128.1860474669
 30
0.0
 40
2.000000000000016
100
AcDbArc
 50
86.0999029444
 51
256.2146726778
  0
ARC
  5
414
330
1F
100
AcDbEntity
  8
0
  6
Continuous
 62
     7
370
    15
100
AcDbCircle
 10
130.6462929888
 20
116.8434443383
 30
0.0
 40
2.000000000000007
100
AcDbArc
 50
234.5677456823
 51
44.6825154199
  0
ARC
  5
77
330
1F
100
AcDbEntity
  8
0
  6
Continuous
 62
     7
370
    15
100
AcDbCircle
 10
109.3763739313
 20
138.6015470791
 30
0.0
 40
2.00000000000003
100
AcDbArc
 50
117.0163182272
 51
287.1310879626
  0
ARC
  5
78
330
1F
100
AcDbEntity
  8
0
  6
Continuous
 62
     7
370
    15
100
AcDbCircle
 10
142.3947704636
 20
138.7900110426
 30
0.0
 40
2.000000000000011
100
AcDbArc
 50
207.625261467
 51
17.7400312131
  0
ARC
  5
79
330
1F
100
AcDbEntity
  8
0
  6
Continuous
 62
     7
370
    15
100
AcDbCircle
 10
120.5429324016
 20
116.9381729806
 30
0.0
 40
2.000000000000006
100
AcDbArc
 50
207.6252614711
 51
17.7400312066
  0
LINE
  5
7A
330
1F
100
AcDbEntity
  8
0
  6
Continuous
 62
     7
370
    15
100
AcDbLine
 10
156.1423364347
 20
144.4555299603
 30
0.0
 11
165.6423364347
 21
144.4555299603
 31
0.0
  0
LINE
  5
7B
330
1F
100
AcDbEntity
  8
0
  6
Continuous
 62
     7
370
    15
100
AcDbLine
 10
156.1423364347
 20
138.4555299603
 30
0.0
 11
165.6423364347
 21
138.4555299603
 31
0.0
  0
LINE
  5
7C
330
1F
100
AcDbEntity
  8
0
  6
Continuous
 62
     7
370
    15
100
AcDbLine
 10
156.1423364347
 20
147.4555299603
 30
0.0
 11
165.6423364347
 21
147.4555299603
 31
0.0
  0
LINE
  5
7D
330
1F
100
AcDbEntity
  8
0
  6
Continuous
 62
     7
370
    15
100
AcDbLine
 10
156.1423364347
 20
146.4555299603
 30
0.0
 11
165.6423364347
 21
146.4555299603
 31
0.0
  0
LINE
  5
7E
330
1F
100
AcDbEntity
  8
0
  6
Continuous
 62
     7
370
    15
100
AcDbLine
 10
159.8923364347
 20
129.3555299603
 30
0.0
 11
159.8923364347
 21
134.3555299603
 31
0.0
  0
LWPOLYLINE
  5
7F
330
1F
100
AcDbEntity
  8
0
  6
Continuous
 62
     7
370
    15
100
AcDbPolyline
 90
       13
 70
   128
 43
0.0
 10
159.89233625
 20
134.3555300078
 10
160.2711796469
 20
134.3168996205
 10
160.9403945214
 20
134.2445679289
 10
161.6269506222
 20
134.1636619577
 10
162.2750691778
 20
134.0790308709
 10
162.9006422764
 20
133.9866709127
 10
163.4521938569
 20
133.8922129758
 10
163.9437049335
 20
133.7911060068
 10
164.3340892798
 20
133.6896699609
 10
164.63392672
 20
133.582867285
 10
164.8179635114
 20
133.4774901511
 10
164.8915379948
 20
133.3681796882
 10
164.8923352069
 20
133.3555299603
  0
LWPOLYLINE
  5
80
330
1F
100
AcDbEntity
  8
0
  6
Continuous
 62
     7
370
    15
100
AcDbPolyline
 90
       10
 70
   128
 43
0.0
 10
159.89233625
 20
134.3555300078
 10
159.3378416902
 20
134.9100254988
 10
158.816628874
 20
135.4312370345
 10
158.3398624963
 20
135.9080045764
 10
157.9177461273
 20
136.330120014
 10
157.5593210465
 20
136.6885453276
 10
157.272261352
 20
136.9756057207
 10
157.0627100474
 20
137.1851553954
 10
156.9351598329
 20
137.3127070069
 10
156.8923357582
 20
137.3555301503
  0
LINE
  5
81
330
1F
100
AcDbEntity
  8
0
  6
Continuous
 62
     7
370
    15
100
AcDbLine
 10
154.8923364347
 20
135.418373037
 30
0.0
 11
154.8923364347
 21
137.3548647101
 31
0.0
  0
LINE
  5
82
330
1F
100
AcDbEntity
  8
0
  6
Continuous
 62
     7
370
    15
100
AcDbLine
 10
154.8923364347
 20
129.3561952105
 30
0.0
 11
154.8923364347
 21
131.2926868836
 31
0.0
  0
LINE
  5
83
330
1F
100
AcDbEntity
  8
0
  6
Continuous
 62
     7
370
    15
100
AcDbLine
 10
154.8923364347
 20
131.4190382872
 30
0.0
 11
154.8923364347
 21
135.2920216334
 31
0.0
  0
LINE
  5
84
330
1F
100
AcDbEntity
  8
0
  6
Continuous
 62
     7
370
    15
100
AcDbLine
 10
149.8923364735
 20
131.3348039799
 30
0.0
 11
154.8923372931
 21
131.3348039799
 31
0.0
  0
LINE
  5
85
330
1F
100
AcDbEntity
  8
0
  6
Continuous
 62
     7
370
    15
100
AcDbLine
 10
149.8923364735
 20
135.3762559407
 30
0.0
 11
154.8923372931
 21
135.3762559407
 31
0.0
  0
LINE
  5
86
330
1F
100
AcDbEntity
  8
0
  6
Continuous
 62
     7
370
    15
100
AcDbLine
 10
154.8923364347
 20
135.2920216334
 30
0.0
 11
154.8923372931
 21
135.3762559407
 31
0.0
  0
LINE
  5
87
330
1F
100
AcDbEntity
  8
0
  6
Continuous
 62
     7
370
    15
100
AcDbLine
 10
154.8923372931
 20
131.3348039799
 30
0.0
 11
154.8923364347
 21
131.4190382872
 31
0.0
  0
LINE
  5
88
330
1F
100
AcDbEntity
  8
0
  6
Continuous
 62
     7
370
    15
100
AcDbLine
 10
149.8923364735
 20
133.3555299603
 30
0.0
 11
149.8923364735
 21
135.3762559407
 31
0.0
  0
LINE
  5
89
330
1F
100
AcDbEntity
  8
0
  6
Continuous
 62
     7
370
    15
100
AcDbLine
 10
149.8923364735
 20
131.3348039799
 30
0.0
 11
149.8923364735
 21
133.3555299603
 31
0.0
  0
LINE
  5
8A
330
1F
100
AcDbEntity
  8
0
  6
Continuous
 62
     7
370
    15
100
AcDbLine
 10
149.8923364735
 20
129.3140779995
 30
0.0
 11
154.8923372931
 21
129.3140779995
 31
0.0
  0
LINE
  5
8B
330
1F
100
AcDbEntity
  8
0
  6
Continuous
 62
     7
370
    15
100
AcDbLine
 10
149.8923364735
 20
129.3140779995
 30
0.0
 11
149.8923364735
 21
130.3244409897
 31
0.0
  0
LINE
  5
8C
330
1F
100
AcDbEntity
  8
0
  6
Continuous
 62
     7
370
    15
100
AcDbLine
 10
154.8923364347
 20
131.2926868836
 30
0.0
 11
154.8923372931
 21
131.3348039799
 31
0.0
  0
LINE
  5
8D
330
1F
100
AcDbEntity
  8
0
  6
Continuous
 62
     7
370
    15
100
AcDbLine
 10
154.8923372931
 20
129.3140779995
 30
0.0
 11
154.8923364347
 21
129.3561952105
 31
0.0
  0
LINE
  5
8E
330
1F
100
AcDbEntity
  8
0
  6
Continuous
 62
     7
370
    15
100
AcDbLine
 10
149.8923364735
 20
130.3244409897
 30
0.0
 11
149.8923364735
 21
131.3348039799
 31
0.0
  0
LINE
  5
8F
330
1F
100
AcDbEntity
  8
0
  6
Continuous
 62
     7
370
    15
100
AcDbLine
 10
149.8923364735
 20
136.3866189309
 30
0.0
 11
149.8923364735
 21
137.3969819211
 31
0.0
  0
LINE
  5
90
330
1F
100
AcDbEntity
  8
0
  6
Continuous
 62
     7
370
    15
100
AcDbLine
 10
149.8923364735
 20
137.3969819211
 30
0.0
 11
154.8923372931
 21
137.3969819211
 31
0.0
  0
LINE
  5
91
330
1F
100
AcDbEntity
  8
0
  6
Continuous
 62
     7
370
    15
100
AcDbLine
 10
154.8923364347
 20
137.3548647101
 30
0.0
 11
154.8923372931
 21
137.3969819211
 31
0.0
  0
LINE
  5
415
330
1F
100
AcDbEntity
  8
0
  6
Continuous
 62
     7
370
    15
100
AcDbLine
 10
154.8923372931
 20
135.3762559407
 30
0.0
 11
154.8923364347
 21
135.418373037
 31
0.0
  0
LINE
  5
416
330
1F
100
AcDbEntity
  8
0
  6
Continuous
 62
     7
370
    15
100
AcDbLine
 10
149.8923364735
 20
135.3762559407
 30
0.0
 11
149.8923364735
 21
136.3866189309
 31
0.0
  0
LINE
  5
94
330
1F
100
AcDbEntity
  8
0
  6
Continuous
 62
     7
370
    15
100
AcDbLine
 10
85.9423364347
 20
146.4555299603
 30
0.0
 11
95.4423364347
 21
146.4555299603
 31
0.0
  0
LINE
  5
95
330
1F
100
AcDbEntity
  8
0
  6
Continuous
 62
     7
370
    15
100
AcDbLine
 10
85.9423364347
 20
147.4555299603
 30
0.0
 11
95.4423364347
 21
147.4555299603
 31
0.0
  0
LINE
  5
96
330
1F
100
AcDbEntity
  8
0
  6
Continuous
 62
     7
370
    15
100
AcDbLine
 10
85.9423364347
 20
138.4555299603
 30
0.0
 11
95.4423364347
 21
138.4555299603
 31
0.0
  0
LINE
  5
417
330
1F
100
AcDbEntity
  8
0
  6
Continuous
 62
     7
370
    15
100
AcDbLine
 10
85.9423364347
 20
144.4555299603
 30
0.0
 11
95.4423364347
 21
144.4555299603
 31
0.0
  0
LINE
  5
418
330
1F
100
AcDbEntity
  8
0
  6
Continuous
 62
     7
370
    15
100
AcDbLine
 10
91.6923364347
 20
134.3555299603
 30
0.0
 11
91.6923364347
 21
129.3555299603
 31
0.0
  0
LWPOLYLINE
  5
419
330
1F
100
AcDbEntity
  8
0
  6
Continuous
 62
     7
370
    15
100
AcDbPolyline
 90
       13
 70
   128
 43
0.0
 10
86.6923376626
 20
133.3555299603
 10
86.6931348747
 20
133.3681796882
 10
86.7630026943
 20
133.4744126903
 10
86.9507461494
 20
133.582867285
 10
87.2406221634
 20
133.6866746238
 10
87.6409679359
 20
133.7911060068
 10
88.1173692352
 20
133.8893900789
 10
88.6840305931
 20
133.9866709127
 10
89.2911113507
 20
134.0764704906
 10
89.9577222473
 20
134.1636619577
 10
90.6245715624
 20
134.2423484707
 10
91.3134932226
 20
134.3168996205
 10
91.6923366195
 20
134.3555300078
  0
LWPOLYLINE
  5
41A
330
1F
100
AcDbEntity
  8
0
  6
Continuous
 62
     7
370
    15
100
AcDbPolyline
 90
       10
 70
   128
 43
0.0
 10
94.6923371113
 20
137.3555301503
 10
94.6495130366
 20
137.3127070069
 10
94.5219628221
 20
137.1851553954
 10
94.3124115175
 20
136.9756057207
 10
94.025351823
 20
136.6885453276
 10
93.6669267422
 20
136.330120014
 10
93.2448103732
 20
135.9080045764
 10
92.7680439955
 20
135.4312370345
 10
92.2468311793
 20
134.9100254988
 10
91.6923366195
 20
134.3555300078
  0
LINE
  5
41B
330
1F
100
AcDbEntity
  8
0
  6
Continuous
 62
     7
370
    15
100
AcDbLine
 10
96.6923364347
 20
137.3548647101
 30
0.0
 11
96.6923364347
 21
135.418373037
 31
0.0
  0
LINE
  5
41C
330
1F
100
AcDbEntity
  8
0
  6
Continuous
 62
     7
370
    15
100
AcDbLine
 10
96.6923364347
 20
135.2920216334
 30
0.0
 11
96.6923364347
 21
131.4190382872
 31
0.0
  0
LINE
  5
41D
330
1F
100
AcDbEntity
  8
0
  6
Continuous
 62
     7
370
    15
100
AcDbLine
 10
96.6923364347
 20
131.2926868836
 30
0.0
 11
96.6923364347
 21
129.3561952105
 31
0.0
  0
LINE
  5
41E
330
1F
100
AcDbEntity
  8
0
  6
Continuous
 62
     7
370
    15
100
AcDbLine
 10
101.692336396
 20
135.3762559407
 30
0.0
 11
96.6923355764
 21
135.3762559407
 31
0.0
  0
LINE
  5
41F
330
1F
100
AcDbEntity
  8
0
  6
Continuous
 62
     7
370
    15
100
AcDbLine
 10
101.692336396
 20
131.3348039799
 30
0.0
 11
96.6923355764
 21
131.3348039799
 31
0.0
  0
LINE
  5
420
330
1F
100
AcDbEntity
  8
0
  6
Continuous
 62
     7
370
    15
100
AcDbLine
 10
96.6923364347
 20
131.4190382872
 30
0.0
 11
96.6923355764
 21
131.3348039799
 31
0.0
  0
LINE
  5
421
330
1F
100
AcDbEntity
  8
0
  6
Continuous
 62
     7
370
    15
100
AcDbLine
 10
96.6923355764
 20
135.3762559407
 30
0.0
 11
96.6923364347
 21
135.2920216334
 31
0.0
  0
LINE
  5
422
330
1F
100
AcDbEntity
  8
0
  6
Continuous
 62
     7
370
    15
100
AcDbLine
 10
101.692336396
 20
133.3555299603
 30
0.0
 11
101.692336396
 21
131.3348039799
 31
0.0
  0
LINE
  5
423
330
1F
100
AcDbEntity
  8
0
  6
Continuous
 62
     7
370
    15
100
AcDbLine
 10
101.692336396
 20
135.3762559407
 30
0.0
 11
101.692336396
 21
133.3555299603
 31
0.0
  0
LINE
  5
424
330
1F
100
AcDbEntity
  8
0
  6
Continuous
 62
     7
370
    15
100
AcDbLine
 10
101.692336396
 20
137.3969819211
 30
0.0
 11
96.6923355764
 21
137.3969819211
 31
0.0
  0
LINE
  5
425
330
1F
100
AcDbEntity
  8
0
  6
Continuous
 62
     7
370
    15
100
AcDbLine
 10
101.692336396
 20
137.3969819211
 30
0.0
 11
101.692336396
 21
136.3866189309
 31
0.0
  0
LINE
  5
426
330
1F
100
AcDbEntity
  8
0
  6
Continuous
 62
     7
370
    15
100
AcDbLine
 10
96.6923364347
 20
135.418373037
 30
0.0
 11
96.6923355764
 21
135.3762559407
 31
0.0
  0
LINE
  5
427
330
1F
100
AcDbEntity
  8
0
  6
Continuous
 62
     7
370
    15
100
AcDbLine
 10
96.6923355764
 20
137.3969819211
 30
0.0
 11
96.6923364347
 21
137.3548647101
 31
0.0
  0
LINE
  5
428
330
1F
100
AcDbEntity
  8
0
  6
Continuous
 62
     7
370
    15
100
AcDbLine
 10
101.692336396
 20
136.3866189309
 30
0.0
 11
101.692336396
 21
135.3762559407
 31
0.0
  0
LINE
  5
429
330
1F
100
AcDbEntity
  8
0
  6
Continuous
 62
     7
370
    15
100
AcDbLine
 10
101.692336396
 20
130.3244409897
 30
0.0
 11
101.692336396
 21
129.3140779995
 31
0.0
  0
LINE
  5
42A
330
1F
100
AcDbEntity
  8
0
  6
Continuous
 62
     7
370
    15
100
AcDbLine
 10
101.692336396
 20
129.3140779995
 30
0.0
 11
96.6923355764
 21
129.3140779995
 31
0.0
  0
LINE
  5
42B
330
1F
100
AcDbEntity
  8
0
  6
Continuous
 62
     7
370
    15
100
AcDbLine
 10
96.6923364347
 20
129.3561952105
 30
0.0
 11
96.6923355764
 21
129.3140779995
 31
0.0
  0
LINE
  5
42C
330
1F
100
AcDbEntity
  8
0
  6
Continuous
 62
     7
370
    15
100
AcDbLine
 10
96.6923355764
 20
131.3348039799
 30
0.0
 11
96.6923364347
 21
131.2926868836
 31
0.0
  0
LINE
  5
42D
330
1F
100
AcDbEntity
  8
0
  6
Continuous
 62
     7
370
    15
100
AcDbLine
 10
101.692336396
 20
131.3348039799
 30
0.0
 11
101.692336396
 21
130.3244409897
 31
0.0
  0
ARC
  5
42E
330
1F
100
AcDbEntity
  8
0
  6
Continuous
 62
     7
370
    15
100
AcDbCircle
 10
117.7923364347
 20
152.8555299603
 30
0.0
 40
4.200000000000003
100
AcDbArc
 50
62.43526770730001
 51
162.1771424025
  0
ARC
  5
42F
330
1F
100
AcDbEntity
  8
0
  6
Continuous
 62
     7
370
    15
100
AcDbCircle
 10
133.7923364347
 20
152.8555299603
 30
0.0
 40
4.200000000000007
100
AcDbArc
 50
17.8228575975
 51
117.5647322927
  0
ARC
  5
430
330
1F
100
AcDbEntity
  8
0
  6
Continuous
 62
     7
370
    15
100
AcDbCircle
 10
129.0374059723
 20
136.4219312819
 30
0.0
 40
2.350657237025163
100
AcDbArc
 50
41.4579084596
 51
68.6132998887
  0
ELLIPSE
  5
431
330
1F
100
AcDbEntity
  8
0
  6
Continuous
 62
     7
370
    15
100
AcDbEllipse
 10
128.7709285209
 20
136.8072717106
 30
0.0
 11
1.130515874847134
 21
0.6527036446661613
 31
0.0
210
0.0
220
0.0
230
1.0
 40
0.7660444431
 41
1.570796326794881
 42
3.141592653589814
  0
ELLIPSE
  5
432
330
1F
100
AcDbEntity
  8
0
  6
Continuous
 62
     7
370
    15
100
AcDbEllipse
 10
124.2923364347
 20
129.0501226709
 30
0.0
 11
0.0
 21
1.305407289332294
 31
0.0
210
0.0
220
0.0
230
1.0
 40
0.7660444431
 41
0.0
 42
1.570796326794897
  0
ARC
  5
433
330
1F
100
AcDbEntity
  8
0
  6
Continuous
 62
     7
370
    15
100
AcDbCircle
 10
124.6649665304
 20
128.8100673427
 30
0.0
 40
2.134637033671031
100
AcDbArc
 50
229.982064858
 51
259.9467316675
  0
ELLIPSE
  5
434
330
1F
100
AcDbEntity
  8
0
  6
Continuous
 62
     7
370
    15
100
AcDbEllipse
 10
127.2923364347
 20
129.0501226709
 30
0.0
 11
0.0
 21
1.305407289332294
 31
0.0
210
0.0
220
0.0
230
1.0
 40
0.7660444431
 41
4.712388980384699
 42
6.283185307179586
  0
ARC
  5
435
330
1F
100
AcDbEntity
  8
0
  6
Continuous
 62
     7
370
    15
100
AcDbCircle
 10
126.825390242
 20
129.0120011783
 30
0.0
 40
2.350640772067229
100
AcDbArc
 50
281.4578123308
 51
308.6133911437
  0
ARC
  5
436
330
1F
100
AcDbEntity
  8
0
  6
Continuous
 62
     7
370
    15
100
AcDbCircle
 10
125.7923364347
 20
133.3555299603
 30
0.0
 40
6.548104418200708
100
AcDbArc
 50
292.4445960919
 51
330.0
  0
LINE
  5
437
330
1F
100
AcDbEntity
  8
0
  6
Continuous
 62
     7
370
    15
100
AcDbLine
 10
128.2923364347
 20
127.3034500309
 30
0.0
 11
128.2923364347
 21
127.8896120771
 31
0.0
  0
ARC
  5
438
330
1F
100
AcDbEntity
  8
0
  6
Continuous
 62
     7
370
    15
100
AcDbCircle
 10
125.7923364347
 20
133.3555299603
 30
0.0
 40
6.010512316395428
100
AcDbArc
 50
294.5783957627
 51
330.0
  0
ELLIPSE
  5
439
330
1F
100
AcDbEntity
  8
0
  6
Continuous
 62
     7
370
    15
100
AcDbEllipse
 10
126.2473212075
 20
133.6182155413
 30
0.0
 11
5.459673398161499
 21
3.152143906116009
 31
0.0
210
0.0
220
0.0
230
1.0
 40
0.9965215449
 41
6.042092644862558
 42
6.524277969496651
  0
LINE
  5
43A
330
1F
100
AcDbEntity
  8
0
  6
Continuous
 62
     7
370
    15
100
AcDbLine
 10
129.1404126851
 20
133.5564918514
 30
0.0
 11
127.6404126721
 21
136.154568037
 31
0.0
  0
ARC
  5
BB
330
1F
100
AcDbEntity
  8
0
  6
Continuous
 62
     7
370
    15
100
AcDbCircle
 10
125.7923364347
 20
133.3555299603
 30
0.0
 40
6.5481044182007
100
AcDbArc
 50
52.4445960919
 51
90.0
  0
ARC
  5
BC
330
1F
100
AcDbEntity
  8
0
  6
Continuous
 62
     7
370
    15
100
AcDbCircle
 10
125.7923364347
 20
133.3555299603
 30
0.0
 40
6.010512316395449
100
AcDbArc
 50
54.5783957627
 51
90.0
  0
LINE
  5
BD
330
1F
100
AcDbEntity
  8
0
  6
Continuous
 62
     7
370
    15
100
AcDbLine
 10
129.7835913993
 20
138.5466334344
 30
0.0
 11
129.2759601766
 21
138.2535524113
 31
0.0
  0
ARC
  5
BE
330
1F
100
AcDbEntity
  8
0
  6
Continuous
 62
     7
370
    15
100
AcDbCircle
 10
125.7923364347
 20
133.3555299603
 30
0.0
 40
6.548104418200694
100
AcDbArc
 50
90.0
 51
127.5554039081
  0
ARC
  5
BF
330
1F
100
AcDbEntity
  8
0
  6
Continuous
 62
     7
370
    15
100
AcDbCircle
 10
125.7923364347
 20
133.3555299603
 30
0.0
 40
6.010512316395449
100
AcDbArc
 50
90.0
 51
125.4216042373
  0
LINE
  5
C0
330
1F
100
AcDbEntity
  8
0
  6
Continuous
 62
     7
370
    15
100
AcDbLine
 10
122.3087126929
 20
138.2535524113
 30
0.0
 11
121.8010814702
 21
138.5466334344
 31
0.0
  0
LINE
  5
C1
330
1F
100
AcDbEntity
  8
0
  6
Continuous
 62
     7
370
    15
100
AcDbLine
 10
123.9442601974
 20
136.154568037
 30
0.0
 11
122.4442601843
 21
133.5564918514
 31
0.0
  0
ELLIPSE
  5
C2
330
1F
100
AcDbEntity
  8
0
  6
Continuous
 62
     7
370
    15
100
AcDbEllipse
 10
125.337351662
 20
133.6182155413
 30
0.0
 11
5.459673398161485
 21
-3.152143906116038
 31
0.0
210
0.0
220
0.0
230
1.0
 40
0.9965215449000001
 41
2.900499991272763
 42
3.382685315906869
  0
ARC
  5
C3
330
1F
100
AcDbEntity
  8
0
  6
Continuous
 62
     7
370
    15
100
AcDbCircle
 10
125.7923364347
 20
133.3555299603
 30
0.0
 40
6.54810441820069
100
AcDbArc
 50
172.4445960919
 51
210.0
  0
ARC
  5
C4
330
1F
100
AcDbEntity
  8
0
  6
Continuous
 62
     7
370
    15
100
AcDbCircle
 10
125.7923364347
 20
133.3555299603
 30
0.0
 40
6.010512316395432
100
AcDbArc
 50
174.5783957627
 51
210.0
  0
LINE
  5
C5
330
1F
100
AcDbEntity
  8
0
  6
Continuous
 62
     7
370
    15
100
AcDbLine
 10
119.3010814702
 20
134.2165064155
 30
0.0
 11
119.8087126929
 21
133.9234253924
 31
0.0
  0
ARC
  5
C6
330
1F
100
AcDbEntity
  8
0
  6
Continuous
 62
     7
370
    15
100
AcDbCircle
 10
125.7923364347
 20
133.3555299603
 30
0.0
 40
6.54810441820069
100
AcDbArc
 50
210.0
 51
247.5554039081
  0
ARC
  5
C7
330
1F
100
AcDbEntity
  8
0
  6
Continuous
 62
     7
370
    15
100
AcDbCircle
 10
125.7923364347
 20
133.3555299603
 30
0.0
 40
6.010512316395432
100
AcDbArc
 50
210.0
 51
245.4216042373
  0
LINE
  5
C8
330
1F
100
AcDbEntity
  8
0
  6
Continuous
 62
     7
370
    15
100
AcDbLine
 10
123.2923364347
 20
127.8896120771
 30
0.0
 11
123.2923364347
 21
127.3034500309
 31
0.0
  0
ELLIPSE
  5
C9
330
1F
100
AcDbEntity
  8
0
  6
Continuous
 62
     7
370
    15
100
AcDbEllipse
 10
125.7923364347
 20
132.8301587982
 30
0.0
 11
0.0
 21
6.304287812231933
 31
0.0
210
0.0
220
0.0
230
1.0
 40
0.9965215449
 41
2.900499991272748
 42
3.382685315906852
  0
LINE
  5
CA
330
1F
100
AcDbEntity
  8
0
  6
Continuous
 62
     7
370
    15
100
AcDbLine
 10
124.2923364217
 20
130.3555299342
 30
0.0
 11
127.2923364478
 21
130.3555299342
 31
0.0
  0
ARC
  5
CB
330
1F
100
AcDbEntity
  8
0
  6
Continuous
 62
     7
370
    15
100
AcDbCircle
 10
122.419531546
 20
136.6045977554
 30
0.0
 40
2.134630514821336
100
AcDbArc
 50
109.9820120119
 51
139.9467796398
  0
ELLIPSE
  5
CC
330
1F
100
AcDbEntity
  8
0
  6
Continuous
 62
     7
370
    15
100
AcDbEllipse
 10
122.8137443485
 20
136.8072717106
 30
0.0
 11
1.130515874847134
 21
-0.6527036446661327
 31
0.0
210
0.0
220
0.0
230
0.9999999999999998
 40
0.7660444431000001
 41
0.0
 42
1.570796326794907
  0
ARC
  5
CD
330
1F
100
AcDbEntity
  8
0
  6
Continuous
 62
     7
370
    15
100
AcDbCircle
 10
125.7923364347
 20
133.3555299603
 30
0.0
 40
6.548104418200708
100
AcDbArc
 50
330.0
 51
7.555403908100001
  0
ARC
  5
CE
330
1F
100
AcDbEntity
  8
0
  6
Continuous
 62
     7
370
    15
100
AcDbCircle
 10
125.7923364347
 20
133.3555299603
 30
0.0
 40
6.010512316395427
100
AcDbArc
 50
330.0
 51
5.4216042373
  0
LINE
  5
CF
330
1F
100
AcDbEntity
  8
0
  6
Continuous
 62
     7
370
    15
100
AcDbLine
 10
131.7759601766
 20
133.9234253924
 30
0.0
 11
132.2835913993
 21
134.2165064155
 31
0.0
  0
ELLIPSE
  5
D0
330
1F
100
AcDbEntity
  8
0
  6
Continuous
 62
     7
370
    15
100
AcDbEllipse
 10
121.3137443485
 20
134.2091954993
 30
0.0
 11
1.130515874847148
 21
-0.6527036446661327
 31
0.0
210
0.0
220
0.0
230
1.0
 40
0.7660444431
 41
4.712388980384707
 42
6.283185307179586
  0
ELLIPSE
  5
D1
330
1F
100
AcDbEntity
  8
0
  6
Continuous
 62
     7
370
    15
100
AcDbEllipse
 10
130.2709285209
 20
134.2091954993
 30
0.0
 11
1.130515874847134
 21
0.6527036446661327
 31
0.0
210
0.0
220
0.0
230
0.9999999999999998
 40
0.7660444431000001
 41
3.141592653589825
 42
4.712388980384699
  0
LINE
  5
D2
330
1F
100
AcDbEntity
  8
0
  6
Continuous
 62
     7
370
    15
100
AcDbLine
 10
128.2923363789
 20
129.0501225554
 30
0.0
 11
128.2923364347
 21
127.8896120771
 31
0.0
  0
LINE
  5
D3
330
1F
100
AcDbEntity
  8
0
  6
Continuous
 62
     7
370
    15
100
AcDbLine
 10
123.2923364906
 20
129.0501225554
 30
0.0
 11
123.2923364347
 21
127.8896120771
 31
0.0
  0
LINE
  5
D4
330
1F
100
AcDbEntity
  8
0
  6
Continuous
 62
     7
370
    15
100
AcDbLine
 10
120.8137443929
 20
133.3431700955
 30
0.0
 11
119.8087126929
 21
133.9234253924
 31
0.0
  0
LINE
  5
D5
330
1F
100
AcDbEntity
  8
0
  6
Continuous
 62
     7
370
    15
100
AcDbLine
 10
123.313744337
 20
137.673296947
 30
0.0
 11
122.3087126929
 21
138.2535524113
 31
0.0
  0
LINE
  5
D6
330
1F
100
AcDbEntity
  8
0
  6
Continuous
 62
     7
370
    15
100
AcDbLine
 10
128.2709285325
 20
137.673296947
 30
0.0
 11
129.2759601766
 21
138.2535524113
 31
0.0
  0
LINE
  5
D7
330
1F
100
AcDbEntity
  8
0
  6
Continuous
 62
     7
370
    15
100
AcDbLine
 10
130.7709284766
 20
133.3431700955
 30
0.0
 11
131.7759601766
 21
133.9234253924
 31
0.0
  0
ARC
  5
D8
330
1F
100
AcDbEntity
  8
0
  6
Continuous
 62
     7
370
    15
100
AcDbCircle
 10
130.2925026627
 20
134.6519298688
 30
0.0
 40
2.134641857189794
100
AcDbArc
 50
349.9820961599
 51
19.946698298
  0
ARC
  5
D9
330
1F
100
AcDbEntity
  8
0
  6
Continuous
 62
     7
370
    15
100
AcDbCircle
 10
121.5142375851
 20
134.6326405288
 30
0.0
 40
2.350674405091249
100
AcDbArc
 50
161.4580092665
 51
188.6131962756
  0
ARC
  5
DA
330
1F
100
AcDbEntity
  8
0
  6
Continuous
 62
     7
370
    15
100
AcDbCircle
 10
124.5267703432
 20
139.0314604436
 30
0.0
 40
1.147107443575823
100
AcDbArc
 50
105.3339268249
 51
126.3289521917
  0
LWPOLYLINE
  5
DB
330
1F
100
AcDbEntity
  8
0
  6
Continuous
 62
     7
370
    15
100
AcDbPolyline
 90
        3
 70
   128
 43
0.0
 10
124.0222474035
 20
139.925709907
 10
123.8775126577
 20
139.9215641245
 10
123.8472005526
 20
139.955603499
  0
ARC
  5
DC
330
1F
100
AcDbEntity
  8
0
  6
Continuous
 62
     7
370
    15
100
AcDbCircle
 10
125.7923364347
 20
22.0771809615
 30
0.0
 40
117.8618215954126
100
AcDbArc
 50
89.1394800931
 51
90.8605199069
  0
LWPOLYLINE
  5
DD
330
1F
100
AcDbEntity
  8
0
  6
Continuous
 62
     7
370
    15
100
AcDbPolyline
 90
        4
 70
   128
 43
0.0
 10
127.7374723169
 20
139.955603499
 10
127.7412343944
 20
139.949572254
 10
127.6490652409
 20
139.9198416434
 10
127.5624254659
 20
139.925709907
  0
LWPOLYLINE
  5
DE
330
1F
100
AcDbEntity
  8
0
  6
Continuous
 62
     7
370
    15
100
AcDbPolyline
 90
        3
 70
   128
 43
0.0
 10
127.2791864059
 20
140.1574937441
 10
127.5915828474
 20
140.0469913893
 10
127.7374723169
 20
139.955603499
  0
ARC
  5
DF
330
1F
100
AcDbEntity
  8
0
  6
Continuous
 62
     7
370
    15
100
AcDbCircle
 10
131.6885059204
 20
131.617732258
 30
0.0
 40
0.8016138588121684
100
AcDbArc
 50
346.5666961198
 51
8.7755837625
  0
LINE
  5
E0
330
1F
100
AcDbEntity
  8
0
  6
Continuous
 62
     7
370
    15
100
AcDbLine
 10
132.4807356751
 20
131.7400302319
 30
0.0
 11
132.4773936241
 21
131.7463038536
 31
0.0
  0
LWPOLYLINE
  5
E1
330
1F
100
AcDbEntity
  8
0
  6
Continuous
 62
     7
370
    15
100
AcDbPolyline
 90
        3
 70
   128
 43
0.0
 10
132.4562269902
 20
131.7271637777
 10
132.4055616452
 20
131.6813484114
 10
132.3673238686
 20
131.60338216
  0
ARC
  5
E2
330
1F
100
AcDbEntity
  8
0
  6
Continuous
 62
     7
370
    15
100
AcDbCircle
 10
33.3717888861
 20
186.7145674693
 30
0.0
 40
113.3020683512481
100
AcDbArc
 50
329.1048421772
 51
330.8951495503
  0
LWPOLYLINE
  5
E3
330
1F
100
AcDbEntity
  8
0
  6
Continuous
 62
     7
370
    15
100
AcDbPolyline
 90
        3
 70
   128
 43
0.0
 10
130.5972344882
 20
128.5374979302
 10
130.5212767503
 20
128.4142271429
 10
130.5284423462
 20
128.3925799467
  0
ARC
  5
E4
330
1F
100
AcDbEntity
  8
0
  6
Continuous
 62
     7
370
    15
100
AcDbCircle
 10
121.42884731
 20
129.2960642919
 30
0.0
 40
1.000026967126565
100
AcDbArc
 50
224.9515612116
 51
247.6809210117
  0
LINE
  5
E5
330
1F
100
AcDbEntity
  8
0
  6
Continuous
 62
     7
370
    15
100
AcDbLine
 10
121.0490728437
 20
128.3709560335
 30
0.0
 11
121.0561774379
 21
128.3707138896
 31
0.0
  0
LWPOLYLINE
  5
E6
330
1F
100
AcDbEntity
  8
0
  6
Continuous
 62
     7
370
    15
100
AcDbPolyline
 90
        3
 70
   128
 43
0.0
 10
121.0502206987
 20
128.3984468132
 10
121.0358401469
 20
128.4654000588
 10
120.9874383813
 20
128.5374979302
  0
ARC
  5
E7
330
1F
100
AcDbEntity
  8
0
  6
Continuous
 62
     7
370
    15
100
AcDbCircle
 10
222.2669969967
 20
189.0552110991
 30
0.0
 40
117.9828063766759
100
AcDbArc
 50
209.1403666486
 51
210.8596416239
  0
LWPOLYLINE
  5
E8
330
1F
100
AcDbEntity
  8
0
  6
Continuous
 62
     7
370
    15
100
AcDbPolyline
 90
        3
 70
   128
 43
0.0
 10
119.2173490009
 20
131.60338216
 10
119.1485722257
 20
131.7307989625
 10
119.1262591338
 20
131.7354137823
  0
LINE
  5
E9
330
1F
100
AcDbEntity
  8
0
  6
Continuous
 62
     7
370
    15
100
AcDbLine
 10
128.2923363789
 20
127.1752700955
 30
0.0
 11
128.2923364347
 21
127.3034500309
 31
0.0
  0
LINE
  5
EA
330
1F
100
AcDbEntity
  8
0
  6
Continuous
 62
     7
370
    15
100
AcDbLine
 10
123.2923364906
 20
127.1752700955
 30
0.0
 11
123.2923364347
 21
127.3034500309
 31
0.0
  0
LINE
  5
EB
330
1F
100
AcDbEntity
  8
0
  6
Continuous
 62
     7
370
    15
100
AcDbLine
 10
119.3010814702
 20
134.2165064155
 30
0.0
 11
119.190074288
 21
134.2805963173
 31
0.0
  0
LINE
  5
EC
330
1F
100
AcDbEntity
  8
0
  6
Continuous
 62
     7
370
    15
100
AcDbLine
 10
121.8010814702
 20
138.5466334344
 30
0.0
 11
121.6900746978
 21
138.6107234098
 31
0.0
  0
LINE
  5
ED
330
1F
100
AcDbEntity
  8
0
  6
Continuous
 62
     7
370
    15
100
AcDbLine
 10
129.7835913993
 20
138.5466334344
 30
0.0
 11
129.8945981717
 21
138.6107234098
 31
0.0
  0
LINE
  5
EE
330
1F
100
AcDbEntity
  8
0
  6
Continuous
 62
     7
370
    15
100
AcDbLine
 10
132.2835913993
 20
134.2165064155
 30
0.0
 11
132.3945985815
 21
134.2805963173
 31
0.0
  0
CIRCLE
  5
EF
330
1F
100
AcDbEntity
  8
0
  6
Continuous
 62
     7
370
    15
100
AcDbCircle
 10
125.7923364347
 20
133.3555299603
 30
0.0
 40
7.0
  0
CIRCLE
  5
F0
330
1F
100
AcDbEntity
  8
0
  6
Continuous
 62
     7
370
    15
100
AcDbCircle
 10
125.7923364347
 20
133.3555299603
 30
0.0
 40
10.25000000000001
  0
CIRCLE
  5
F1
330
1F
100
AcDbEntity
  8
0
  6
Continuous
 62
     7
370
    15
100
AcDbCircle
 10
114.6554046311
 20
122.2185981566
 30
0.0
 40
4.5
  0
CIRCLE
  5
F2
330
1F
100
AcDbEntity
  8
0
  6
Continuous
 62
     7
370
    15
100
AcDbCircle
 10
114.6554046311
 20
122.2185981566
 30
0.0
 40
4.600000000000009
  0
CIRCLE
  5
F3
330
1F
100
AcDbEntity
  8
0
  6
Continuous
 62
     7
370
    15
100
AcDbCircle
 10
109.0570032054
 20
138.4720347929
 30
0.0
 40
3.25
  0
CIRCLE
  5
F4
330
1F
100
AcDbEntity
  8
0
  6
Continuous
 62
     7
370
    15
100
AcDbCircle
 10
109.0570032054
 20
138.4720347929
 30
0.0
 40
3.549999999999997
  0
CIRCLE
  5
F5
330
1F
100
AcDbEntity
  8
0
  6
Continuous
 62
     7
370
    15
100
AcDbCircle
 10
114.6554046311
 20
144.4924617639
 30
0.0
 40
4.5
  0
CIRCLE
  5
F6
330
1F
100
AcDbEntity
  8
0
  6
Continuous
 62
     7
370
    15
100
AcDbCircle
 10
114.6554046311
 20
144.4924617639
 30
0.0
 40
4.600000000000009
  0
CIRCLE
  5
F7
330
1F
100
AcDbEntity
  8
0
  6
Continuous
 62
     7
370
    15
100
AcDbCircle
 10
109.0570032054
 20
128.2390251276
 30
0.0
 40
3.549999999999997
  0
CIRCLE
  5
F8
330
1F
100
AcDbEntity
  8
0
  6
Continuous
 62
     7
370
    15
100
AcDbCircle
 10
120.6758316021
 20
116.6201967309
 30
0.0
 40
3.549999999999983
  0
CIRCLE
  5
F9
330
1F
100
AcDbEntity
  8
0
  6
Continuous
 62
     7
370
    15
100
AcDbCircle
 10
130.9088412674
 20
116.6201967309
 30
0.0
 40
3.550000000000011
  0
CIRCLE
  5
FA
330
1F
100
AcDbEntity
  8
0
  6
Continuous
 62
     7
370
    15
100
AcDbCircle
 10
142.5276696641
 20
128.2390251276
 30
0.0
 40
3.549999999999983
  0
CIRCLE
  5
FB
330
1F
100
AcDbEntity
  8
0
  6
Continuous
 62
     7
370
    15
100
AcDbCircle
 10
142.5276696641
 20
138.4720347929
 30
0.0
 40
3.549999999999983
  0
CIRCLE
  5
FC
330
1F
100
AcDbEntity
  8
0
  6
Continuous
 62
     7
370
    15
100
AcDbCircle
 10
117.7923364347
 20
152.8555299603
 30
0.0
 40
1.649999999999977
  0
CIRCLE
  5
FD
330
1F
100
AcDbEntity
  8
0
  6
Continuous
 62
     7
370
    15
100
AcDbCircle
 10
125.7923364347
 20
112.8555299603
 30
0.0
 40
2.274999999999992
  0
CIRCLE
  5
FE
330
1F
100
AcDbEntity
  8
0
  6
Continuous
 62
     7
370
    15
100
AcDbCircle
 10
125.7923364347
 20
149.1055299603
 30
0.0
 40
2.274999999999992
  0
CIRCLE
  5
FF
330
1F
100
AcDbEntity
  8
0
  6
Continuous
 62
     7
370
    15
100
AcDbCircle
 10
136.9292682384
 20
144.4924617639
 30
0.0
 40
4.600000000000023
  0
CIRCLE
  5
100
330
1F
100
AcDbEntity
  8
0
  6
Continuous
 62
     7
370
    15
100
AcDbCircle
 10
136.9292682384
 20
122.2185981566
 30
0.0
 40
4.600000000000023
  0
ARC
  5
101
330
1F
100
AcDbEntity
  8
0
  6
Continuous
 62
     7
370
    15
100
AcDbCircle
 10
125.7923364347
 20
133.3555299603
 30
0.0
 40
24.00000000000003
100
AcDbArc
 50
101.7158523949
 51
236.4166783015
  0
LINE
  5
102
330
1F
100
AcDbEntity
  8
0
  6
Continuous
 62
     7
370
    15
100
AcDbLine
 10
120.9189392623
 20
156.8555299603
 30
0.0
 11
130.6657336071
 21
156.8555299603
 31
0.0
  0
ARC
  5
103
330
1F
100
AcDbEntity
  8
0
  6
Continuous
 62
     7
370
    15
100
AcDbCircle
 10
125.7923364347
 20
133.3555299603
 30
0.0
 40
24.00000000000003
100
AcDbArc
 50
243.5833216985
 51
78.2841476051
  0
LINE
  5
104
330
1F
100
AcDbEntity
  8
0
  6
Continuous
 62
     7
370
    15
100
AcDbLine
 10
113.4932983291
 20
115.052971077
 30
0.0
 11
112.5167587621
 21
113.3615549314
 31
0.0
  0
CIRCLE
  5
105
330
1F
100
AcDbEntity
  8
0
  6
Continuous
 62
     7
370
    15
100
AcDbCircle
 10
133.7923364347
 20
152.8555299603
 30
0.0
 40
1.649999999999977
  0
LINE
  5
106
330
1F
100
AcDbEntity
  8
0
  6
Continuous
 62
     7
370
    15
100
AcDbLine
 10
115.1148349734
 20
111.8615549314
 30
0.0
 11
116.0913745404
 21
113.552971077
 31
0.0
  0
ARC
  5
107
330
1F
100
AcDbEntity
  8
0
  6
Continuous
 62
     7
370
    15
100
AcDbCircle
 10
114.7923364347
 20
114.302971077
 30
0.0
 40
1.5
100
AcDbArc
 50
330.0
 51
150.0
  0
CIRCLE
  5
108
330
1F
100
AcDbEntity
  8
0
  6
Continuous
 62
     7
370
    15
100
AcDbCircle
 10
109.0570032054
 20
128.2390251276
 30
0.0
 40
3.25
  0
CIRCLE
  5
109
330
1F
100
AcDbEntity
  8
0
  6
Continuous
 62
     7
370
    15
100
AcDbCircle
 10
136.9292682384
 20
144.4924617639
 30
0.0
 40
4.5
  0
CIRCLE
  5
10A
330
1F
100
AcDbEntity
  8
0
  6
Continuous
 62
     7
370
    15
100
AcDbCircle
 10
136.9292682384
 20
122.2185981566
 30
0.0
 40
4.5
  0
CIRCLE
  5
10B
330
1F
100
AcDbEntity
  8
0
  6
Continuous
 62
     7
370
    15
100
AcDbCircle
 10
120.6758316021
 20
116.6201967309
 30
0.0
 40
3.250000000000014
  0
CIRCLE
  5
10C
330
1F
100
AcDbEntity
  8
0
  6
Continuous
 62
     7
370
    15
100
AcDbCircle
 10
142.5276696641
 20
138.4720347929
 30
0.0
 40
3.25
  0
CIRCLE
  5
10D
330
1F
100
AcDbEntity
  8
0
  6
Continuous
 62
     7
370
    15
100
AcDbCircle
 10
142.5276696641
 20
128.2390251276
 30
0.0
 40
3.25
  0
CIRCLE
  5
10E
330
1F
100
AcDbEntity
  8
0
  6
Continuous
 62
     7
370
    15
100
AcDbCircle
 10
130.9088412674
 20
116.6201967309
 30
0.0
 40
3.25
  0
ARC
  5
10F
330
1F
100
AcDbEntity
  8
0
  6
Continuous
 62
     7
370
    15
100
AcDbCircle
 10
125.7923364347
 20
133.3555299603
 30
0.0
 40
24.0
100
AcDbArc
 50
236.4166783015
 51
243.5833216985
  0
CIRCLE
  5
110
330
1F
100
AcDbEntity
  8
0
  6
Continuous
 62
     7
370
    15
100
AcDbCircle
 10
109.0570032054
 20
138.4720347929
 30
0.0
 40
2.499999999999986
  0
CIRCLE
  5
111
330
1F
100
AcDbEntity
  8
0
  6
Continuous
 62
     7
370
    15
100
AcDbCircle
 10
130.9088412674
 20
116.6201967309
 30
0.0
 40
2.500000000000028
  0
CIRCLE
  5
112
330
1F
100
AcDbEntity
  8
0
  6
Continuous
 62
     7
370
    15
100
AcDbCircle
 10
120.6758316021
 20
116.6201967309
 30
0.0
 40
2.500000000000014
  0
CIRCLE
  5
113
330
1F
100
AcDbEntity
  8
0
  6
Continuous
 62
     7
370
    15
100
AcDbCircle
 10
130.9088412674
 20
116.6201967309
 30
0.0
 40
2.0
  0
CIRCLE
  5
114
330
1F
100
AcDbEntity
  8
0
  6
Continuous
 62
     7
370
    15
100
AcDbCircle
 10
142.5276696641
 20
128.2390251276
 30
0.0
 40
2.5
  0
CIRCLE
  5
115
330
1F
100
AcDbEntity
  8
0
  6
Continuous
 62
     7
370
    15
100
AcDbCircle
 10
109.0570032054
 20
128.2390251276
 30
0.0
 40
2.499999999999986
  0
CIRCLE
  5
116
330
1F
100
AcDbEntity
  8
0
  6
Continuous
 62
     7
370
    15
100
AcDbCircle
 10
142.5276696641
 20
138.4720347929
 30
0.0
 40
2.500000000000028
  0
CIRCLE
  5
117
330
1F
100
AcDbEntity
  8
0
  6
Continuous
 62
     7
370
    15
100
AcDbCircle
 10
142.5276696641
 20
138.4720347929
 30
0.0
 40
2.0
  0
CIRCLE
  5
118
330
1F
100
AcDbEntity
  8
0
  6
Continuous
 62
     7
370
    15
100
AcDbCircle
 10
109.0570032054
 20
128.2390251276
 30
0.0
 40
2.0
  0
CIRCLE
  5
119
330
1F
100
AcDbEntity
  8
0
  6
Continuous
 62
     7
370
    15
100
AcDbCircle
 10
120.6758316021
 20
116.6201967309
 30
0.0
 40
2.0
  0
CIRCLE
  5
11A
330
1F
100
AcDbEntity
  8
0
  6
Continuous
 62
     7
370
    15
100
AcDbCircle
 10
142.5276696641
 20
128.2390251276
 30
0.0
 40
1.999999999999972
  0
CIRCLE
  5
11B
330
1F
100
AcDbEntity
  8
0
  6
Continuous
 62
     7
370
    15
100
AcDbCircle
 10
109.0570032054
 20
138.4720347929
 30
0.0
 40
2.0
  0
CIRCLE
  5
11C
330
1F
100
AcDbEntity
  8
0
  6
Continuous
 62
     7
370
    15
100
AcDbCircle
 10
114.6554046311
 20
122.2185981566
 30
0.0
 40
2.75
  0
CIRCLE
  5
11D
330
1F
100
AcDbEntity
  8
0
  6
Continuous
 62
     7
370
    15
100
AcDbCircle
 10
114.6554046311
 20
144.4924617639
 30
0.0
 40
2.75
  0
CIRCLE
  5
11E
330
1F
100
AcDbEntity
  8
0
  6
Continuous
 62
     7
370
    15
100
AcDbCircle
 10
136.9292682384
 20
144.4924617639
 30
0.0
 40
2.75
  0
CIRCLE
  5
11F
330
1F
100
AcDbEntity
  8
0
  6
Continuous
 62
     7
370
    15
100
AcDbCircle
 10
136.9292682384
 20
122.2185981566
 30
0.0
 40
2.75
  0
CIRCLE
  5
120
330
1F
100
AcDbEntity
  8
0
  6
Continuous
 62
     7
370
    15
100
AcDbCircle
 10
125.7923364347
 20
112.8555299603
 30
0.0
 40
1.24705953146763
  0
CIRCLE
  5
121
330
1F
100
AcDbEntity
  8
0
  6
Continuous
 62
     7
370
    15
100
AcDbCircle
 10
125.7923364347
 20
112.8555299603
 30
0.0
 40
1.975000000000018
  0
CIRCLE
  5
122
330
1F
100
AcDbEntity
  8
0
  6
Continuous
 62
     7
370
    15
100
AcDbCircle
 10
125.7923364347
 20
149.1055299603
 30
0.0
 40
1.24705953146764
  0
CIRCLE
  5
123
330
1F
100
AcDbEntity
  8
0
  6
Continuous
 62
     7
370
    15
100
AcDbCircle
 10
125.7923364347
 20
149.1055299603
 30
0.0
 40
1.975000000000021
  0
DIMENSION
  5
124
330
1F
100
AcDbEntity
  8
0
  6
Continuous
 62
     7
370
     0
100
AcDbDimension
280
     0
  2
*D3
 10
141.5423364347
 20
94.3106462345
 30
0.0
 11
125.7923364347
 21
94.3106462345
 31
0.0
 70
    32
  1
P.C.D.<>
 71
     1
 42
-1.0
 73
     0
 74
     0
 75
     0
  3
SLDDIMSTYLE0
100
AcDbAlignedDimension
 13
110.0423364347
 23
133.3555299603
 33
0.0
 14
141.5423364347
 24
133.3555299603
 34
0.0
100
AcDbRotatedDimension
1001
ACAD
1000
DSTYLE
1002
{
1070
    77
1070
     3
1070
   143
1040
0.0393700787
1070
    41
1040
6.0
1070
    44
1040
1.0
1070
    42
1040
1.0
1070
   147
1040
1.524
1070
    73
1070
     0
1070
    74
1070
     0
1070
   140
1040
9.8777777778
1070
   284
1070
    12
1070
    78
1070
    12
1002
}
  0
DIMENSION
  5
140
330
1F
100
AcDbEntity
  8
0
  6
Continuous
 62
     7
370
     0
100
AcDbDimension
280
     0
  2
*D4
 10
101.8592454368
 20
82.0291414625
 30
0.0
 11
125.8592250319
 21
82.0604373406
 31
0.0
 70
    32
  1
%%c<>
 71
     1
 42
-1.0
 73
     0
 74
     0
 75
     0
  3
SLDDIMSTYLE0
100
AcDbAlignedDimension
 13
149.7923160299
 23
133.3868258384
 33
0.0
 14
101.7923568396
 24
133.3242340821
 34
0.0
 50
0.0747134267
100
AcDbRotatedDimension
1001
ACAD
1000
DSTYLE
1002
{
1070
    77
1070
     3
1070
   143
1040
0.0393700787
1070
    41
1040
6.0
1070
    44
1040
1.0
1070
    42
1040
1.0
1070
   147
1040
1.524
1070
    73
1070
     0
1070
    74
1070
     0
1070
   140
1040
9.8777777778
1070
   284
1070
    12
1070
    78
1070
    12
1002
}
  0
DIMENSION
  5
154
330
1F
100
AcDbEntity
  8
0
  6
Continuous
 62
     7
370
     0
100
AcDbDimension
280
     0
  2
*D5
 10
187.6935124779
 20
156.8555299603
 30
0.0
 11
187.6935124779
 21
133.1055299603
 31
0.0
 70
    32
 71
     1
 42
-1.0
 73
     0
 74
     0
 75
     0
  3
SLDDIMSTYLE1
100
AcDbAlignedDimension
 13
125.7923364347
 23
109.3555299603
 33
0.0
 14
130.6657336071
 24
156.8555299603
 34
0.0
 50
90.0
100
AcDbRotatedDimension
1001
ACAD
1000
DSTYLE
1002
{
1070
    77
1070
     3
1070
   143
1040
0.0393700787
1070
    41
1040
6.0
1070
    44
1040
1.0
1070
    42
1040
1.0
1070
   147
1040
1.524
1070
    73
1070
     0
1070
    74
1070
     0
1070
   140
1040
9.8777777778
1070
   284
1070
    12
1070
    78
1070
    12
1002
}
  0
DIMENSION
  5
169
330
1F
100
AcDbEntity
  8
0
  6
Continuous
 62
     7
370
     0
100
AcDbDimension
280
     0
  2
*D6
 10
165.6423364347
 20
69.5462109817
 30
0.0
 11
125.7923364347
 21
69.5462109817
 31
0.0
 70
    32
  1
(<>)
 71
     1
 42
-1.0
 73
     0
 74
     0
 75
     0
  3
SLDDIMSTYLE1
100
AcDbAlignedDimension
 13
85.9423364347
 23
138.4555299603
 33
0.0
 14
165.6423364347
 24
138.4555299603
 34
0.0
100
AcDbRotatedDimension
1001
ACAD
1000
DSTYLE
1002
{
1070
    77
1070
     3
1070
   143
1040
0.0393700787
1070
    41
1040
6.0
1070
    44
1040
1.0
1070
    42
1040
1.0
1070
   147
1040
1.524
1070
    73
1070
     0
1070
    74
1070
     0
1070
   140
1040
9.8777777778
1070
   284
1070
    12
1070
    78
1070
    12
1002
}
  0
DIMENSION
  5
17F
330
1F
100
AcDbEntity
  8
0
  6
Continuous
 62
     7
370
     0
100
AcDbDimension
280
     0
  2
*D7
 10
116.60992872
 20
142.5579500463
 30
0.0
 11
61.127090421
 21
168.1292711318
 31
0.0
 70
    35
  1
4-%%c5.5，%%c9ザクリ深5.5\P90%%d等配
 71
     1
 42
-1.0
 73
     0
 74
     0
 75
     0
  3
SLDDIMSTYLE2
100
AcDbDiametricDimension
 15
112.7008805421
 25
146.4269734816
 35
0.0
 40
0.0
1001
ACAD
1000
DSTYLE
1002
{
1070
    77
1070
     0
1070
   143
1040
0.0393700787
1070
    41
1040
6.0
1070
    44
1040
1.0
1070
    42
1040
1.0
1070
   147
1040
1.524
1070
    73
1070
     1
1070
    74
1070
     1
1070
   140
1040
9.8777777778
1070
   284
1070
    12
1070
    78
1070
    12
1002
}
  0
DIMENSION
  5
198
330
1F
100
AcDbEntity
  8
0
  6
Continuous
 62
     7
370
     0
100
AcDbDimension
280
     0
  2
*D8
 10
99.2923364347
 20
133.3555299603
 30
0.0
 11
170.0408918395
 21
151.6838817243
 31
0.0
 70
    34
 71
     1
 42
-1.0
 73
     0
 74
     0
 75
     0
  3
SLDDIMSTYLE3
100
AcDb2LineAngularDimension
 13
141.9497263849
 23
149.5129199104
 33
0.0
 14
131.908810092
 24
139.4720036175
 34
0.0
 15
152.2923364347
 25
133.3555299603
 35
0.0
 16
172.7663523025
 26
142.6992426618
 36
0.0
1001
ACAD
1000
DSTYLE
1002
{
1070
    77
1070
     3
1070
   143
1040
0.0393700787
1070
    41
1040
6.0
1070
    44
1040
1.0
1070
    42
1040
1.0
1070
   147
1040
1.524
1070
    73
1070
     0
1070
    74
1070
     0
1070
   140
1040
9.8777777778
1070
   284
1070
    12
1070
    78
1070
    12
1002
}
  0
INSERT
  5
1BA
330
1F
100
AcDbEntity
  8
0
  6
Continuous
 62
     7
370
     0
100
AcDbBlockReference
  2
SW_CENTERMARKSYMBOL_0
 10
114.6554046311
 20
122.2185981566
 30
0.0
  0
INSERT
  5
1C6
330
1F
100
AcDbEntity
  8
0
  6
Continuous
 62
     7
370
     0
100
AcDbBlockReference
  2
SW_CENTERMARKSYMBOL_1
 10
109.0570032054
 20
128.2390251276
 30
0.0
  0
INSERT
  5
1D2
330
1F
100
AcDbEntity
  8
0
  6
Continuous
 62
     7
370
     0
100
AcDbBlockReference
  2
SW_CENTERMARKSYMBOL_2
 10
109.0570032054
 20
138.4720347929
 30
0.0
  0
INSERT
  5
1DE
330
1F
100
AcDbEntity
  8
0
  6
Continuous
 62
     7
370
     0
100
AcDbBlockReference
  2
SW_CENTERMARKSYMBOL_3
 10
114.6554046311
 20
144.4924617639
 30
0.0
  0
INSERT
  5
1EA
330
1F
100
AcDbEntity
  8
0
  6
Continuous
 62
     7
370
     0
100
AcDbBlockReference
  2
SW_CENTERMARKSYMBOL_4
 10
125.7923364347
 20
149.1055299603
 30
0.0
  0
INSERT
  5
1F6
330
1F
100
AcDbEntity
  8
0
  6
Continuous
 62
     7
370
     0
100
AcDbBlockReference
  2
SW_CENTERMARKSYMBOL_5
 10
136.9292682384
 20
144.4924617639
 30
0.0
  0
INSERT
  5
202
330
1F
100
AcDbEntity
  8
0
  6
Continuous
 62
     7
370
     0
100
AcDbBlockReference
  2
SW_CENTERMARKSYMBOL_6
 10
136.9292682384
 20
122.2185981566
 30
0.0
  0
INSERT
  5
20E
330
1F
100
AcDbEntity
  8
0
  6
Continuous
 62
     7
370
     0
100
AcDbBlockReference
  2
SW_CENTERMARKSYMBOL_7
 10
130.9088412674
 20
116.6201967309
 30
0.0
  0
INSERT
  5
21A
330
1F
100
AcDbEntity
  8
0
  6
Continuous
 62
     7
370
     0
100
AcDbBlockReference
  2
SW_CENTERMARKSYMBOL_8
 10
120.6758316021
 20
116.6201967309
 30
0.0
  0
INSERT
  5
226
330
1F
100
AcDbEntity
  8
0
  6
Continuous
 62
     7
370
     0
100
AcDbBlockReference
  2
SW_CENTERMARKSYMBOL_9
 10
125.7923364347
 20
112.8555299603
 30
0.0
  0
INSERT
  5
232
330
1F
100
AcDbEntity
  8
0
  6
Continuous
 62
     7
370
     0
100
AcDbBlockReference
  2
SW_CENTERMARKSYMBOL_10
 10
142.5276696641
 20
128.2390251276
 30
0.0
  0
INSERT
  5
23E
330
1F
100
AcDbEntity
  8
0
  6
Continuous
 62
     7
370
     0
100
AcDbBlockReference
  2
SW_CENTERMARKSYMBOL_11
 10
142.5276696641
 20
138.4720347929
 30
0.0
  0
INSERT
  5
24A
330
1F
100
AcDbEntity
  8
0
  6
Continuous
 62
     7
370
     0
100
AcDbBlockReference
  2
SW_CENTERMARKSYMBOL_12
 10
125.7923364347
 20
133.3555299603
 30
0.0
  0
LINE
  5
24B
330
1F
100
AcDbEntity
  8
0
  6
Continuous
 62
     7
370
    15
100
AcDbLine
 10
154.8923364347
 20
205.7425765166
 30
0.0
 11
158.3305976993
 21
205.7425764942
 31
0.0
  0
LINE
  5
24C
330
1F
100
AcDbEntity
  8
0
  6
Continuous
 62
     7
370
    15
100
AcDbLine
 10
158.3305976993
 20
213.7425764086
 30
0.0
 11
154.8923364347
 21
213.7425765166
 31
0.0
  0
LINE
  5
24D
330
1F
100
AcDbEntity
  8
0
  6
Continuous
 62
     7
370
    15
100
AcDbLine
 10
149.8923364735
 20
213.2425763266
 30
0.0
 11
149.7145972854
 21
213.2425763266
 31
0.0
  0
LINE
  5
24E
330
1F
100
AcDbEntity
  8
0
  6
Continuous
 62
     7
370
    15
100
AcDbLine
 10
149.7148059017
 20
206.2425765762
 30
0.0
 11
149.8923364735
 21
206.2425765762
 31
0.0
  0
LINE
  5
24F
330
1F
100
AcDbEntity
  8
0
  6
Continuous
 62
     7
370
    15
100
AcDbLine
 10
96.6923364347
 20
223.7425765166
 30
0.0
 11
93.2540751702
 21
223.7425766507
 31
0.0
  0
LINE
  5
250
330
1F
100
AcDbEntity
  8
0
  6
Continuous
 62
     7
370
    15
100
AcDbLine
 10
93.2540751702
 20
215.7425765035
 30
0.0
 11
96.6923364347
 21
215.7425765166
 31
0.0
  0
LINE
  5
251
330
1F
100
AcDbEntity
  8
0
  6
Continuous
 62
     7
370
    15
100
AcDbLine
 10
101.692336396
 20
216.2425764691
 30
0.0
 11
101.8644392199
 21
216.2425764691
 31
0.0
  0
LINE
  5
252
330
1F
100
AcDbEntity
  8
0
  6
Continuous
 62
     7
370
    15
100
AcDbLine
 10
101.8660336441
 20
223.2425765687
 30
0.0
 11
101.692336396
 21
223.2425765687
 31
0.0
  0
LINE
  5
253
330
1F
100
AcDbEntity
  8
0
  6
Continuous
 62
     7
370
    15
100
AcDbLine
 10
113.5923364347
 20
223.1425765166
 30
0.0
 11
115.4994432159
 21
221.2354697354
 31
0.0
  0
LINE
  5
254
330
1F
100
AcDbEntity
  8
0
  6
Continuous
 62
     7
370
    15
100
AcDbLine
 10
120.0852296536
 20
221.2354697354
 30
0.0
 11
121.9923364347
 21
223.1425765166
 31
0.0
  0
LINE
  5
255
330
1F
100
AcDbEntity
  8
0
  6
Continuous
 62
     7
370
    15
100
AcDbLine
 10
113.5923364347
 20
223.6425765166
 30
0.0
 11
113.5923364347
 21
223.1425765166
 31
0.0
  0
LINE
  5
256
330
1F
100
AcDbEntity
  8
0
  6
Continuous
 62
     7
370
    15
100
AcDbLine
 10
121.9923364347
 20
223.1425765166
 30
0.0
 11
121.9923364347
 21
223.6425765166
 31
0.0
  0
ARC
  5
257
330
1F
100
AcDbEntity
  8
0
  6
Continuous
 62
     7
370
    15
100
AcDbCircle
 10
114.7923364347
 20
220.5283629542
 30
0.0
 40
1.000000000000028
100
AcDbArc
 50
0.0
 51
45.0
  0
ARC
  5
258
330
1F
100
AcDbEntity
  8
0
  6
Continuous
 62
     7
370
    15
100
AcDbCircle
 10
120.7923364347
 20
220.5283629542
 30
0.0
 40
1.000000000000028
100
AcDbArc
 50
135.0
 51
180.0
  0
LINE
  5
259
330
1F
100
AcDbEntity
  8
0
  6
Continuous
 62
     7
370
    15
100
AcDbLine
 10
115.7923364347
 20
220.5283629542
 30
0.0
 11
115.7923366583
 21
216.6425764881
 31
0.0
  0
LINE
  5
25A
330
1F
100
AcDbEntity
  8
0
  6
Continuous
 62
     7
370
    15
100
AcDbLine
 10
119.7923363826
 20
216.6425764881
 30
0.0
 11
119.7923364347
 21
220.5283629542
 31
0.0
  0
LINE
  5
25B
330
1F
100
AcDbEntity
  8
0
  6
Continuous
 62
     7
370
    15
100
AcDbLine
 10
129.5923364347
 20
223.1425765166
 30
0.0
 11
131.4994432159
 21
221.2354697354
 31
0.0
  0
LINE
  5
25C
330
1F
100
AcDbEntity
  8
0
  6
Continuous
 62
     7
370
    15
100
AcDbLine
 10
136.0852296536
 20
221.2354697354
 30
0.0
 11
137.9923364347
 21
223.1425765166
 31
0.0
  0
LINE
  5
25D
330
1F
100
AcDbEntity
  8
0
  6
Continuous
 62
     7
370
    15
100
AcDbLine
 10
129.5923364347
 20
223.6425765166
 30
0.0
 11
129.5923364347
 21
223.1425765166
 31
0.0
  0
LINE
  5
25E
330
1F
100
AcDbEntity
  8
0
  6
Continuous
 62
     7
370
    15
100
AcDbLine
 10
137.9923364347
 20
223.1425765166
 30
0.0
 11
137.9923364347
 21
223.6425765166
 31
0.0
  0
ARC
  5
25F
330
1F
100
AcDbEntity
  8
0
  6
Continuous
 62
     7
370
    15
100
AcDbCircle
 10
130.7923364347
 20
220.5283629542
 30
0.0
 40
1.000000000000008
100
AcDbArc
 50
0.0
 51
45.0
  0
ARC
  5
260
330
1F
100
AcDbEntity
  8
0
  6
Continuous
 62
     7
370
    15
100
AcDbCircle
 10
136.7923364347
 20
220.5283629542
 30
0.0
 40
1.000000000000028
100
AcDbArc
 50
135.0
 51
180.0
  0
LINE
  5
261
330
1F
100
AcDbEntity
  8
0
  6
Continuous
 62
     7
370
    15
100
AcDbLine
 10
131.7923364347
 20
220.5283629542
 30
0.0
 11
131.7923364869
 21
216.6425764881
 31
0.0
  0
LINE
  5
262
330
1F
100
AcDbEntity
  8
0
  6
Continuous
 62
     7
370
    15
100
AcDbLine
 10
135.7923362112
 20
216.6425764881
 30
0.0
 11
135.7923364347
 21
220.5283629542
 31
0.0
  0
LINE
  5
263
330
1F
100
AcDbEntity
  8
0
  6
Continuous
 62
     7
370
    15
100
AcDbLine
 10
131.8028487511
 20
193.0425765166
 30
0.0
 11
132.0028489164
 21
193.242576308
 31
0.0
  0
LINE
  5
264
330
1F
100
AcDbEntity
  8
0
  6
Continuous
 62
     7
370
    15
100
AcDbLine
 10
119.5818239531
 20
193.242576308
 30
0.0
 11
119.7818241183
 21
193.0425765166
 31
0.0
  0
LINE
  5
265
330
1F
100
AcDbEntity
  8
0
  6
Continuous
 62
     7
370
    15
100
AcDbLine
 10
101.7923362261
 20
210.3064426774
 30
0.0
 11
101.7923364347
 21
205.2425765166
 31
0.0
  0
LINE
  5
266
330
1F
100
AcDbEntity
  8
0
  6
Continuous
 62
     7
370
    15
100
AcDbLine
 10
101.7923362261
 20
212.00299669
 30
0.0
 11
101.7923362261
 21
211.1075793946
 31
0.0
  0
LINE
  5
267
330
1F
100
AcDbEntity
  8
0
  6
Continuous
 62
     7
370
    15
100
AcDbLine
 10
101.7923362261
 20
215.7675764611
 30
0.0
 11
101.7923362261
 21
212.9488939972
 31
0.0
  0
LINE
  5
268
330
1F
100
AcDbEntity
  8
0
  6
Continuous
 62
     7
370
    15
100
AcDbLine
 10
149.7923364347
 20
220.1395693753
 30
0.0
 11
149.7923364347
 21
223.7425765166
 31
0.0
  0
LINE
  5
269
330
1F
100
AcDbEntity
  8
0
  6
Continuous
 62
     7
370
    15
100
AcDbLine
 10
149.7923366434
 20
213.7425764086
 30
0.0
 11
149.7923366434
 21
219.7975552263
 31
0.0
  0
LINE
  5
26A
330
1F
100
AcDbEntity
  8
0
  6
Continuous
 62
     7
370
    15
100
AcDbLine
 10
149.7923364347
 20
205.2425765166
 30
0.0
 11
149.7923366434
 21
205.7535707572
 31
0.0
  0
LINE
  5
26B
330
1F
100
AcDbEntity
  8
0
  6
Continuous
 62
     7
370
    15
100
AcDbLine
 10
115.5423361516
 20
205.2425764123
 30
0.0
 11
115.5423361516
 21
199.5571463922
 31
0.0
  0
LINE
  5
26C
330
1F
100
AcDbEntity
  8
0
  6
Continuous
 62
     7
370
    15
100
AcDbLine
 10
115.5423361516
 20
196.9280060002
 30
0.0
 11
115.5423364347
 21
194.2425765166
 31
0.0
  0
LINE
  5
26D
330
1F
100
AcDbEntity
  8
0
  6
Continuous
 62
     7
370
    15
100
AcDbLine
 10
136.0423364347
 20
194.2425765166
 30
0.0
 11
136.0423367179
 21
196.9280060002
 31
0.0
  0
LINE
  5
26E
330
1F
100
AcDbEntity
  8
0
  6
Continuous
 62
     7
370
    15
100
AcDbLine
 10
136.0423367179
 20
199.5571463922
 30
0.0
 11
136.0423367179
 21
205.2425764123
 31
0.0
  0
ARC
  5
26F
330
1F
100
AcDbEntity
  8
0
  6
Continuous
 62
     7
370
    15
100
AcDbCircle
 10
135.0423364347
 20
194.2425765166
 30
0.0
 40
1.0
100
AcDbArc
 50
270.0
 51
0.0
  0
ARC
  5
270
330
1F
100
AcDbEntity
  8
0
  6
Continuous
 62
     7
370
    15
100
AcDbCircle
 10
116.5423364347
 20
194.2425765166
 30
0.0
 40
1.0
100
AcDbArc
 50
180.0
 51
270.0
  0
ARC
  5
271
330
1F
100
AcDbEntity
  8
0
  6
Continuous
 62
     7
370
    15
100
AcDbCircle
 10
133.9158595231
 20
198.2425765166
 30
0.0
 40
2.500000000000021
100
AcDbArc
 50
280.3987592622
 51
79.0362717457
  0
ARC
  5
272
330
1F
100
AcDbEntity
  8
0
  6
Continuous
 62
     7
370
    15
100
AcDbCircle
 10
117.6688133463
 20
198.2425765166
 30
0.0
 40
2.500000000000006
100
AcDbArc
 50
101.9307416233
 51
258.2229194562
  0
LINE
  5
273
330
1F
100
AcDbEntity
  8
0
  6
Continuous
 62
     7
370
    15
100
AcDbLine
 10
101.7923364347
 20
227.2425765166
 30
0.0
 11
101.7923364347
 21
223.7425765166
 31
0.0
  0
LINE
  5
274
330
1F
100
AcDbEntity
  8
0
  6
Continuous
 62
     7
370
    15
100
AcDbLine
 10
149.7923364347
 20
223.7425765166
 30
0.0
 11
149.7923364347
 21
227.2425765166
 31
0.0
  0
ARC
  5
275
330
1F
100
AcDbEntity
  8
0
  6
Continuous
 62
     7
370
    15
100
AcDbCircle
 10
136.0923364347
 20
227.5425765166
 30
0.0
 40
0.3000000000000114
100
AcDbArc
 50
180.0
 51
270.0
  0
ARC
  5
276
330
1F
100
AcDbEntity
  8
0
  6
Continuous
 62
     7
370
    15
100
AcDbCircle
 10
115.4923364347
 20
227.5425765166
 30
0.0
 40
0.3000000000000114
100
AcDbArc
 50
270.0
 51
0.0
  0
LINE
  5
277
330
1F
100
AcDbEntity
  8
0
  6
Continuous
 62
     7
370
    15
100
AcDbLine
 10
135.7923364347
 20
229.7425765166
 30
0.0
 11
135.2923364347
 21
230.2425765166
 31
0.0
  0
LINE
  5
278
330
1F
100
AcDbEntity
  8
0
  6
Continuous
 62
     7
370
    15
100
AcDbLine
 10
116.2923364347
 20
230.2425765166
 30
0.0
 11
115.7923364347
 21
229.7425765166
 31
0.0
  0
LINE
  5
279
330
1F
100
AcDbEntity
  8
0
  6
Continuous
 62
     7
370
    15
100
AcDbLine
 10
135.7923364347
 20
227.5425765166
 30
0.0
 11
135.7923364347
 21
229.7425765166
 31
0.0
  0
LINE
  5
27A
330
1F
100
AcDbEntity
  8
0
  6
Continuous
 62
     7
370
    15
100
AcDbLine
 10
115.7923364347
 20
229.7425765166
 30
0.0
 11
115.7923364347
 21
227.5425765166
 31
0.0
  0
LINE
  5
27B
330
1F
100
AcDbEntity
  8
0
  6
Continuous
 62
     7
370
    15
100
AcDbLine
 10
127.7673364347
 20
204.2425765166
 30
0.0
 11
127.7673363394
 21
205.2425764123
 31
0.0
  0
LINE
  5
27C
330
1F
100
AcDbEntity
  8
0
  6
Continuous
 62
     7
370
    15
100
AcDbLine
 10
123.8173365301
 20
205.2425764123
 30
0.0
 11
123.8173364347
 21
204.2425765166
 31
0.0
  0
LINE
  5
27D
330
1F
100
AcDbEntity
  8
0
  6
Continuous
 62
     7
370
    15
100
AcDbLine
 10
123.8173364347
 20
204.2425765166
 30
0.0
 11
124.5452769033
 21
202.2425765166
 31
0.0
  0
LINE
  5
27E
330
1F
100
AcDbEntity
  8
0
  6
Continuous
 62
     7
370
    15
100
AcDbLine
 10
127.0393959662
 20
202.2425765166
 30
0.0
 11
127.7673364347
 21
204.2425765166
 31
0.0
  0
ARC
  5
27F
330
1F
100
AcDbEntity
  8
0
  6
Continuous
 62
     7
370
    15
100
AcDbCircle
 10
125.7923364347
 20
202.5201552541
 30
0.0
 40
1.277578737512143
100
AcDbArc
 50
192.5487008632
 51
347.4512991368
  0
CIRCLE
  5
280
330
1F
100
AcDbEntity
  8
0
  6
Continuous
 62
     7
370
    15
100
AcDbCircle
 10
160.8923364347
 20
209.7425765166
 30
0.0
 40
2.0
  0
CIRCLE
  5
281
330
1F
100
AcDbEntity
  8
0
  6
Continuous
 62
     7
370
    15
100
AcDbCircle
 10
160.8923364347
 20
209.7425765166
 30
0.0
 40
4.749999999999972
  0
LINE
  5
282
330
1F
100
AcDbEntity
  8
0
  6
Continuous
 62
     7
370
    15
100
AcDbLine
 10
149.8923364735
 20
209.7425766842
 30
0.0
 11
154.8923372931
 21
209.7425766842
 31
0.0
  0
LINE
  5
283
330
1F
100
AcDbEntity
  8
0
  6
Continuous
 62
     7
370
    15
100
AcDbLine
 10
149.8923364735
 20
209.7425766842
 30
0.0
 11
149.8923364735
 21
211.4925765054
 31
0.0
  0
LINE
  5
284
330
1F
100
AcDbEntity
  8
0
  6
Continuous
 62
     7
370
    15
100
AcDbLine
 10
149.8923364735
 20
211.4925765054
 30
0.0
 11
149.8923364735
 21
213.2425763266
 31
0.0
  0
LINE
  5
285
330
1F
100
AcDbEntity
  8
0
  6
Continuous
 62
     7
370
    15
100
AcDbLine
 10
149.8923364735
 20
213.2425763266
 30
0.0
 11
154.8923364347
 21
213.2425765166
 31
0.0
  0
LINE
  5
286
330
1F
100
AcDbEntity
  8
0
  6
Continuous
 62
     7
370
    15
100
AcDbLine
 10
154.8923364347
 20
213.1696274997
 30
0.0
 11
154.8923364347
 21
213.2425765166
 31
0.0
  0
LINE
  5
287
330
1F
100
AcDbEntity
  8
0
  6
Continuous
 62
     7
370
    15
100
AcDbLine
 10
154.8923372931
 20
209.7425766842
 30
0.0
 11
154.8923364347
 21
209.8155255335
 31
0.0
  0
LINE
  5
288
330
1F
100
AcDbEntity
  8
0
  6
Continuous
 62
     7
370
    15
100
AcDbLine
 10
149.8923364735
 20
206.2425765762
 30
0.0
 11
154.8923364347
 21
206.2425765166
 31
0.0
  0
LINE
  5
289
330
1F
100
AcDbEntity
  8
0
  6
Continuous
 62
     7
370
    15
100
AcDbLine
 10
149.8923364735
 20
206.2425765762
 30
0.0
 11
149.8923364735
 21
207.9925763974
 31
0.0
  0
LINE
  5
28A
330
1F
100
AcDbEntity
  8
0
  6
Continuous
 62
     7
370
    15
100
AcDbLine
 10
154.8923364347
 20
209.6696274997
 30
0.0
 11
154.8923372931
 21
209.7425766842
 31
0.0
  0
LINE
  5
28B
330
1F
100
AcDbEntity
  8
0
  6
Continuous
 62
     7
370
    15
100
AcDbLine
 10
154.8923364347
 20
206.2425765166
 30
0.0
 11
154.8923364347
 21
206.3155255335
 31
0.0
  0
LINE
  5
28C
330
1F
100
AcDbEntity
  8
0
  6
Continuous
 62
     7
370
    15
100
AcDbLine
 10
149.8923364735
 20
207.9925763974
 30
0.0
 11
149.8923364735
 21
209.7425766842
 31
0.0
  0
LINE
  5
28D
330
1F
100
AcDbEntity
  8
0
  6
Continuous
 62
     7
370
    15
100
AcDbLine
 10
154.8923364347
 20
206.3155255335
 30
0.0
 11
154.8923364347
 21
209.6696274997
 31
0.0
  0
LINE
  5
28E
330
1F
100
AcDbEntity
  8
0
  6
Continuous
 62
     7
370
    15
100
AcDbLine
 10
154.8923364347
 20
209.8155255335
 30
0.0
 11
154.8923364347
 21
213.1696274997
 31
0.0
  0
LINE
  5
28F
330
1F
100
AcDbEntity
  8
0
  6
Continuous
 62
     7
370
    15
100
AcDbLine
 10
154.8923364347
 20
213.2425765166
 30
0.0
 11
154.8923364347
 21
213.7425765166
 31
0.0
  0
LINE
  5
290
330
1F
100
AcDbEntity
  8
0
  6
Continuous
 62
     7
370
    15
100
AcDbLine
 10
154.8923364347
 20
205.7425765166
 30
0.0
 11
154.8923364347
 21
206.2425765166
 31
0.0
  0
LINE
  5
291
330
1F
100
AcDbEntity
  8
0
  6
Continuous
 62
     7
370
    15
100
AcDbLine
 10
159.2923372692
 20
208.5425763944
 30
0.0
 11
161.3923355645
 21
208.5425763944
 31
0.0
  0
LINE
  5
292
330
1F
100
AcDbEntity
  8
0
  6
Continuous
 62
     7
370
    15
100
AcDbLine
 10
161.3923355645
 20
210.9425765084
 30
0.0
 11
159.2923372692
 21
210.9425765084
 31
0.0
  0
LINE
  5
293
330
1F
100
AcDbEntity
  8
0
  6
Continuous
 62
     7
370
    15
100
AcDbLine
 10
161.3923355645
 20
210.9425765084
 30
0.0
 11
161.3923355645
 21
208.5425763944
 31
0.0
  0
CIRCLE
  5
294
330
1F
100
AcDbEntity
  8
0
  6
Continuous
 62
     7
370
    15
100
AcDbCircle
 10
90.6923364347
 20
219.7425765166
 30
0.0
 40
2.0
  0
CIRCLE
  5
295
330
1F
100
AcDbEntity
  8
0
  6
Continuous
 62
     7
370
    15
100
AcDbCircle
 10
90.6923364347
 20
219.7425765166
 30
0.0
 40
4.750000000000014
  0
LINE
  5
296
330
1F
100
AcDbEntity
  8
0
  6
Continuous
 62
     7
370
    15
100
AcDbLine
 10
101.692336396
 20
223.2425765687
 30
0.0
 11
96.6923364347
 21
223.2425765166
 31
0.0
  0
LINE
  5
297
330
1F
100
AcDbEntity
  8
0
  6
Continuous
 62
     7
370
    15
100
AcDbLine
 10
101.692336396
 20
223.2425765687
 30
0.0
 11
101.692336396
 21
221.4925767476
 31
0.0
  0
LINE
  5
298
330
1F
100
AcDbEntity
  8
0
  6
Continuous
 62
     7
370
    15
100
AcDbLine
 10
101.692336396
 20
221.4925767476
 30
0.0
 11
101.692336396
 21
219.7425764607
 31
0.0
  0
LINE
  5
299
330
1F
100
AcDbEntity
  8
0
  6
Continuous
 62
     7
370
    15
100
AcDbLine
 10
101.692336396
 20
219.7425764607
 30
0.0
 11
96.6923355764
 21
219.7425764607
 31
0.0
  0
LINE
  5
29A
330
1F
100
AcDbEntity
  8
0
  6
Continuous
 62
     7
370
    15
100
AcDbLine
 10
96.6923364347
 20
219.8155255335
 30
0.0
 11
96.6923355764
 21
219.7425764607
 31
0.0
  0
LINE
  5
29B
330
1F
100
AcDbEntity
  8
0
  6
Continuous
 62
     7
370
    15
100
AcDbLine
 10
96.6923364347
 20
223.2425765166
 30
0.0
 11
96.6923364347
 21
223.1696274997
 31
0.0
  0
LINE
  5
29C
330
1F
100
AcDbEntity
  8
0
  6
Continuous
 62
     7
370
    15
100
AcDbLine
 10
101.692336396
 20
217.9925765231
 30
0.0
 11
101.692336396
 21
216.2425764691
 31
0.0
  0
LINE
  5
29D
330
1F
100
AcDbEntity
  8
0
  6
Continuous
 62
     7
370
    15
100
AcDbLine
 10
101.692336396
 20
216.2425764691
 30
0.0
 11
96.6923364347
 21
216.2425765166
 31
0.0
  0
LINE
  5
29E
330
1F
100
AcDbEntity
  8
0
  6
Continuous
 62
     7
370
    15
100
AcDbLine
 10
96.6923364347
 20
216.3155255335
 30
0.0
 11
96.6923364347
 21
216.2425765166
 31
0.0
  0
LINE
  5
29F
330
1F
100
AcDbEntity
  8
0
  6
Continuous
 62
     7
370
    15
100
AcDbLine
 10
96.6923355764
 20
219.7425764607
 30
0.0
 11
96.6923364347
 21
219.6696274997
 31
0.0
  0
LINE
  5
2A0
330
1F
100
AcDbEntity
  8
0
  6
Continuous
 62
     7
370
    15
100
AcDbLine
 10
101.692336396
 20
219.7425764607
 30
0.0
 11
101.692336396
 21
217.9925765231
 31
0.0
  0
LINE
  5
2A1
330
1F
100
AcDbEntity
  8
0
  6
Continuous
 62
     7
370
    15
100
AcDbLine
 10
96.6923364347
 20
223.1696274997
 30
0.0
 11
96.6923364347
 21
219.8155255335
 31
0.0
  0
LINE
  5
2A2
330
1F
100
AcDbEntity
  8
0
  6
Continuous
 62
     7
370
    15
100
AcDbLine
 10
96.6923364347
 20
219.6696274997
 30
0.0
 11
96.6923364347
 21
216.3155255335
 31
0.0
  0
LINE
  5
2A3
330
1F
100
AcDbEntity
  8
0
  6
Continuous
 62
     7
370
    15
100
AcDbLine
 10
96.6923364347
 20
216.2425765166
 30
0.0
 11
96.6923364347
 21
215.7425765166
 31
0.0
  0
LINE
  5
2A4
330
1F
100
AcDbEntity
  8
0
  6
Continuous
 62
     7
370
    15
100
AcDbLine
 10
96.6923364347
 20
223.7425765166
 30
0.0
 11
96.6923364347
 21
223.2425765166
 31
0.0
  0
LINE
  5
2A5
330
1F
100
AcDbEntity
  8
0
  6
Continuous
 62
     7
370
    15
100
AcDbLine
 10
92.2923356003
 20
220.9425765177
 30
0.0
 11
90.192337305
 21
220.9425765177
 31
0.0
  0
LINE
  5
2A6
330
1F
100
AcDbEntity
  8
0
  6
Continuous
 62
     7
370
    15
100
AcDbLine
 10
90.192337305
 20
218.5425765201
 30
0.0
 11
92.2923356003
 21
218.5425765201
 31
0.0
  0
LINE
  5
2A7
330
1F
100
AcDbEntity
  8
0
  6
Continuous
 62
     7
370
    15
100
AcDbLine
 10
90.192337305
 20
218.5425765201
 30
0.0
 11
90.192337305
 21
220.9425765177
 31
0.0
  0
LINE
  5
2A8
330
1F
100
AcDbEntity
  8
0
  6
Continuous
 62
     7
370
    15
100
AcDbLine
 10
113.5923364347
 20
223.1425765166
 30
0.0
 11
121.9923364347
 21
223.1425765166
 31
0.0
  0
LINE
  5
2A9
330
1F
100
AcDbEntity
  8
0
  6
Continuous
 62
     7
370
    15
100
AcDbLine
 10
113.5923364347
 20
223.6425765166
 30
0.0
 11
121.9923364347
 21
223.6425765166
 31
0.0
  0
LINE
  5
2AA
330
1F
100
AcDbEntity
  8
0
  6
Continuous
 62
     7
370
    15
100
AcDbLine
 10
129.5923364347
 20
223.1425765166
 30
0.0
 11
137.9923364347
 21
223.1425765166
 31
0.0
  0
LINE
  5
2AB
330
1F
100
AcDbEntity
  8
0
  6
Continuous
 62
     7
370
    15
100
AcDbLine
 10
129.5923364347
 20
223.6425765166
 30
0.0
 11
137.9923364347
 21
223.6425765166
 31
0.0
  0
LINE
  5
2AC
330
1F
100
AcDbEntity
  8
0
  6
Continuous
 62
     7
370
    15
100
AcDbLine
 10
126.4899557165
 20
208.755730986
 30
0.0
 11
125.6967414548
 21
209.1033098841
 31
0.0
  0
LINE
  5
2AD
330
1F
100
AcDbEntity
  8
0
  6
Continuous
 62
     7
370
    15
100
AcDbLine
 10
125.6967414548
 20
209.1033098841
 30
0.0
 11
124.9991221294
 21
208.5901558021
 31
0.0
  0
LINE
  5
2AE
330
1F
100
AcDbEntity
  8
0
  6
Continuous
 62
     7
370
    15
100
AcDbLine
 10
124.9991221294
 20
208.5901558021
 30
0.0
 11
125.094717153
 21
207.7294218907
 31
0.0
  0
LINE
  5
2AF
330
1F
100
AcDbEntity
  8
0
  6
Continuous
 62
     7
370
    15
100
AcDbLine
 10
125.094717153
 20
207.7294218907
 30
0.0
 11
125.8879314147
 21
207.3818429926
 31
0.0
  0
LINE
  5
2B0
330
1F
100
AcDbEntity
  8
0
  6
Continuous
 62
     7
370
    15
100
AcDbLine
 10
125.8879314147
 20
207.3818429926
 30
0.0
 11
126.58555074
 21
207.8949980059
 31
0.0
  0
LINE
  5
2B1
330
1F
100
AcDbEntity
  8
0
  6
Continuous
 62
     7
370
    15
100
AcDbLine
 10
126.58555074
 20
207.8949980059
 30
0.0
 11
126.4899557165
 21
208.755730986
 31
0.0
  0
SPLINE
  5
2B2
330
1F
100
AcDbEntity
  8
0
  6
Continuous
 62
     7
370
    15
100
AcDbSpline
210
0.0
220
0.0
230
1.0
 70
    12
 71
     3
 72
    13
 73
     9
 74
     0
 42
0.00000001
 43
0.00000001
 40
0.0
 40
0.0
 40
0.0
 40
0.0
 40
0.03715436546735
 40
0.0776362703565459
 40
0.124429112202319
 40
0.2104517336731091
 40
0.3187298403911866
 40
1.0
 40
1.0
 40
1.0
 40
1.0
 10
125.6967414548046
 20
209.1033098840865
 30
0.0
 41
1.0
 10
125.6971341140824
 20
209.0997744405323
 30
0.0
 41
1.0
 10
125.6979545991443
 20
209.0923869196273
 30
0.0
 41
1.0
 10
125.700781971809
 20
209.0669286664065
 30
0.0
 41
1.0
 10
125.7055135901821
 20
209.0243258282471
 30
0.0
 41
1.0
 10
125.7130624422557
 20
208.9563556850704
 30
0.0
 41
1.0
 10
125.741843031124
 20
208.6972171652399
 30
0.0
 41
1.0
 10
125.7689483342572
 20
208.4531622746269
 30
0.0
 41
1.0
 10
125.7923364347437
 20
208.242576904014
 30
0.0
 41
1.0
  0
SPLINE
  5
2B3
330
1F
100
AcDbEntity
  8
0
  6
Continuous
 62
     7
370
    15
100
AcDbSpline
210
0.0
220
0.0
230
1.0
 70
    12
 71
     3
 72
    13
 73
     9
 74
     0
 42
0.00000001
 43
0.00000001
 40
0.0
 40
0.0
 40
0.0
 40
0.0
 40
0.037154411421281
 40
0.0776360791138601
 40
0.1244290552860092
 40
0.2104512443679414
 40
0.3187293670014855
 40
0.9999999999999999
 40
0.9999999999999999
 40
0.9999999999999999
 40
0.9999999999999999
 10
124.9991221294397
 20
208.5901558020863
 30
0.0
 41
1.0
 10
125.0023802667523
 20
208.5887280011459
 30
0.0
 41
1.0
 10
125.0091883144778
 20
208.5857445366656
 30
0.0
 41
1.0
 10
125.0326490574372
 20
208.5754640601904
 30
0.0
 41
1.0
 10
125.0719100857826
 20
208.5582600829948
 30
0.0
 41
1.0
 10
125.1345483671724
 20
208.5308133226598
 30
0.0
 41
1.0
 10
125.3733592498944
 20
208.4261680025568
 30
0.0
 41
1.0
 10
125.598269879638
 20
208.3276146896755
 30
0.0
 41
1.0
 10
125.7923364347437
 20
208.242576904014
 30
0.0
 41
1.0
  0
SPLINE
  5
2B4
330
1F
100
AcDbEntity
  8
0
  6
Continuous
 62
     7
370
    15
100
AcDbSpline
210
0.0
220
0.0
230
1.0
 70
    12
 71
     3
 72
    13
 73
     9
 74
     0
 42
0.00000001
 43
0.00000001
 40
0.0
 40
0.0
 40
0.0
 40
0.0
 40
0.0371544953018351
 40
0.0776358248228454
 40
0.1244291021001345
 40
0.2104513497897738
 40
0.3187294488660445
 40
1.0
 40
1.0
 40
1.0
 40
1.0
 10
126.4899557164529
 20
208.7557309860143
 30
0.0
 41
1.0
 10
126.48709027904
 20
208.7536228818142
 30
0.0
 41
1.0
 10
126.4811028313513
 20
208.7492179125889
 30
0.0
 41
1.0
 10
126.4604690883834
 20
208.7340419300628
 30
0.0
 41
1.0
 10
126.4259402013482
 20
208.7086410846761
 30
0.0
 41
1.0
 10
126.3708504757168
 20
208.6681197312975
 30
0.0
 41
1.0
 10
126.1608203766279
 20
208.5136247035131
 30
0.0
 41
1.0
 10
125.9630149640572
 20
208.3681238669443
 30
0.0
 41
1.0
 10
125.7923364347437
 20
208.242576904014
 30
0.0
 41
1.0
  0
SPLINE
  5
2B5
330
1F
100
AcDbEntity
  8
0
  6
Continuous
 62
     7
370
    15
100
AcDbSpline
210
0.0
220
0.0
230
1.0
 70
    12
 71
     3
 72
    13
 73
     9
 74
     0
 42
0.00000001
 43
0.00000001
 40
0.0
 40
0.0
 40
0.0
 40
0.0
 40
0.0371544768698571
 40
0.0776361603688275
 40
0.1244289414541373
 40
0.2104511464689896
 40
0.3187291918295654
 40
1.0
 40
1.0
 40
1.0
 40
1.0
 10
125.0947171530345
 20
207.7294218906912
 30
0.0
 41
1.0
 10
125.0975826158359
 20
207.7315299046297
 30
0.0
 41
1.0
 10
125.1035701454238
 20
207.7359347064727
 30
0.0
 41
1.0
 10
125.1242034771988
 20
207.7511123086601
 30
0.0
 41
1.0
 10
125.1587330047243
 20
207.776511163898
 30
0.0
 41
1.0
 10
125.2138222996923
 20
207.8170334349373
 30
0.0
 41
1.0
 10
125.4238528482341
 20
207.9715276489482
 30
0.0
 41
1.0
 10
125.6216580590626
 20
208.1170292588057
 30
0.0
 41
1.0
 10
125.7923364347437
 20
208.242576904014
 30
0.0
 41
1.0
  0
SPLINE
  5
2B6
330
1F
100
AcDbEntity
  8
0
  6
Continuous
 62
     7
370
    15
100
AcDbSpline
210
0.0
220
0.0
230
1.0
 70
    12
 71
     3
 72
    13
 73
     9
 74
     0
 42
0.00000001
 43
0.00000001
 40
0.0
 40
0.0
 40
0.0
 40
0.0
 40
0.6812708627198559
 40
0.789548957809772
 40
0.8755711250095073
 40
0.9223640892785286
 40
0.9628457466734412
 40
0.9999999999999999
 40
0.9999999999999999
 40
0.9999999999999999
 40
0.9999999999999999
 10
125.7923364347437
 20
208.242576904014
 30
0.0
 41
1.0
 10
125.986402940806
 20
208.1575386734717
 30
0.0
 41
1.0
 10
126.2113134954649
 20
208.0589848529976
 30
0.0
 41
1.0
 10
126.4501245038114
 20
207.9543395752251
 30
0.0
 41
1.0
 10
126.5127627819505
 20
207.9268927459946
 30
0.0
 41
1.0
 10
126.5520238150608
 20
207.9096889025621
 30
0.0
 41
1.0
 10
126.5754845176225
 20
207.8994080834903
 30
0.0
 41
1.0
 10
126.5822925952307
 20
207.8964254203878
 30
0.0
 41
1.0
 10
126.5855507400477
 20
207.8949980059418
 30
0.0
 41
1.0
  0
SPLINE
  5
2B7
330
1F
100
AcDbEntity
  8
0
  6
Continuous
 62
     7
370
    15
100
AcDbSpline
210
0.0
220
0.0
230
1.0
 70
    12
 71
     3
 72
    13
 73
     9
 74
     0
 42
0.00000001
 43
0.00000001
 40
0.0
 40
0.0
 40
0.0
 40
0.0
 40
0.0371543283862052
 40
0.0776361928732745
 40
0.1244289880184211
 40
0.2104515236361159
 40
0.3187295222894719
 40
1.0
 40
1.0
 40
1.0
 40
1.0
 10
125.8879314146827
 20
207.3818429926189
 30
0.0
 41
1.0
 10
125.8875387554045
 20
207.3853784361731
 30
0.0
 41
1.0
 10
125.8867182703419
 20
207.3927659570782
 30
0.0
 41
1.0
 10
125.8838908976834
 20
207.4182242102987
 30
0.0
 41
1.0
 10
125.879159279275
 20
207.46082704846
 30
0.0
 41
1.0
 10
125.8716104274773
 20
207.5287971916221
 30
0.0
 41
1.0
 10
125.8428298017417
 20
207.7879360070491
 30
0.0
 41
1.0
 10
125.8157245207897
 20
208.0319912162215
 30
0.0
 41
1.0
 10
125.7923364347437
 20
208.242576904014
 30
0.0
 41
1.0
  0
LINE
  5
2B8
330
1F
100
AcDbEntity
  8
0
  6
Continuous
 62
     7
370
    15
100
AcDbLine
 10
129.4648137583
 20
193.242576308
 30
0.0
 11
129.2759601766
 21
193.0425765166
 31
0.0
  0
LINE
  5
2B9
330
1F
100
AcDbEntity
  8
0
  6
Continuous
 62
     7
370
    15
100
AcDbLine
 10
129.2759601766
 20
193.0425765166
 30
0.0
 11
125.7923364347
 21
193.0425765166
 31
0.0
  0
LINE
  5
2BA
330
1F
100
AcDbEntity
  8
0
  6
Continuous
 62
     7
370
    15
100
AcDbLine
 10
125.7923364347
 20
193.0425765166
 30
0.0
 11
122.3087126929
 21
193.0425765166
 31
0.0
  0
LINE
  5
2BB
330
1F
100
AcDbEntity
  8
0
  6
Continuous
 62
     7
370
    15
100
AcDbLine
 10
122.3087126929
 20
193.0425765166
 30
0.0
 11
122.1198591112
 21
193.242576308
 31
0.0
  0
LINE
  5
2BC
330
1F
100
AcDbEntity
  8
0
  6
Continuous
 62
     7
370
    15
100
AcDbLine
 10
122.3302812024
 20
193.0425766477
 30
0.0
 11
120.8137443929
 21
193.0425766477
 31
0.0
  0
LINE
  5
2BD
330
1F
100
AcDbEntity
  8
0
  6
Continuous
 62
     7
370
    15
100
AcDbLine
 10
130.7709284766
 20
193.0425766477
 30
0.0
 11
129.2554857383
 21
193.0425766477
 31
0.0
  0
LINE
  5
2BE
330
1F
100
AcDbEntity
  8
0
  6
Continuous
 62
     7
370
    15
100
AcDbLine
 10
131.7759601766
 20
193.0425765166
 30
0.0
 11
131.9648137024
 21
193.242576308
 31
0.0
  0
LINE
  5
2BF
330
1F
100
AcDbEntity
  8
0
  6
Continuous
 62
     7
370
    15
100
AcDbLine
 10
130.7709284766
 20
193.0425766477
 30
0.0
 11
131.7759601766
 21
193.0425765166
 31
0.0
  0
LINE
  5
2C0
330
1F
100
AcDbEntity
  8
0
  6
Continuous
 62
     7
370
    15
100
AcDbLine
 10
119.6198591671
 20
193.242576308
 30
0.0
 11
119.8087126929
 21
193.0425765166
 31
0.0
  0
LINE
  5
2C1
330
1F
100
AcDbEntity
  8
0
  6
Continuous
 62
     7
370
    15
100
AcDbLine
 10
120.8137443929
 20
193.0425766477
 30
0.0
 11
119.8087126929
 21
193.0425765166
 31
0.0
  0
LINE
  5
2C2
330
1F
100
AcDbEntity
  8
0
  6
Continuous
 62
     7
370
    15
100
AcDbLine
 10
131.8028487511
 20
193.0425765166
 30
0.0
 11
131.7759601766
 21
193.0425765166
 31
0.0
  0
LINE
  5
2C3
330
1F
100
AcDbEntity
  8
0
  6
Continuous
 62
     7
370
    15
100
AcDbLine
 10
119.8087126929
 20
193.0425765166
 30
0.0
 11
119.7818241183
 21
193.0425765166
 31
0.0
  0
ARC
  5
2C4
330
1F
100
AcDbEntity
  8
0
  6
Continuous
 62
     7
370
    15
100
AcDbCircle
 10
104.5837464205
 20
218.830300305
 30
0.0
 40
1.541458000835489
100
AcDbArc
 50
179.218266818
 51
196.0778321662
  0
LWPOLYLINE
  5
2C5
330
1F
100
AcDbEntity
  8
0
  6
Continuous
 62
     7
370
    15
100
AcDbPolyline
 90
        4
 70
   128
 43
0.0
 10
103.2016582495
 20
218.2914228033
 10
103.1740985519
 20
218.2973176095
 10
103.1292926228
 20
218.3421038644
 10
103.1025804287
 20
218.4034044476
  0
ARC
  5
2C6
330
1F
100
AcDbEntity
  8
0
  6
Continuous
 62
     7
370
    15
100
AcDbCircle
 10
103.148422721
 20
218.4675046201
 30
0.0
 40
0.1839533302132813
100
AcDbArc
 50
286.8218544008
 51
351.6313143589
  0
ARC
  5
2C7
330
1F
100
AcDbEntity
  8
0
  6
Continuous
 62
     7
370
    15
100
AcDbCircle
 10
99.961795783
 20
219.3947532619
 30
0.0
 40
3.501109588583944
100
AcDbArc
 50
344.1874368553
 51
2.306621645
  0
ARC
  5
2C8
330
1F
100
AcDbEntity
  8
0
  6
Continuous
 62
     7
370
    15
100
AcDbCircle
 10
99.7387643621
 20
219.6954590053
 30
0.0
 40
3.724733530356612
100
AcDbArc
 50
357.5411860164
 51
13.1603910155
  0
LWPOLYLINE
  5
2C9
330
1F
100
AcDbEntity
  8
0
  6
Continuous
 62
     7
370
    15
100
AcDbPolyline
 90
        4
 70
   128
 43
0.0
 10
103.2312147027
 20
220.7167701417
 10
103.2683130062
 20
220.705088097
 10
103.3220261044
 20
220.6416524568
 10
103.3656734681
 20
220.5434980424
  0
ARC
  5
2CA
330
1F
100
AcDbEntity
  8
0
  6
Continuous
 62
     7
370
    15
100
AcDbCircle
 10
103.2762964249
 20
220.5477406068
 30
0.0
 40
0.1749381186104992
100
AcDbArc
 50
104.9336892155
 51
173.2234924917
  0
ARC
  5
2CB
330
1F
100
AcDbEntity
  8
0
  6
Continuous
 62
     7
370
    15
100
AcDbCircle
 10
105.3656366571
 20
220.001558757
 30
0.0
 40
2.332962265067733
100
AcDbArc
 50
165.9385025686
 51
182.2753584172
  0
ARC
  5
2CC
330
1F
100
AcDbEntity
  8
0
  6
Continuous
 62
     7
370
    15
100
AcDbCircle
 10
105.3550050292
 20
219.8443843395
 30
0.0
 40
2.32138890283089
100
AcDbArc
 50
178.4065671178
 51
193.5814746436
  0
LWPOLYLINE
  5
2CD
330
1F
100
AcDbEntity
  8
0
  6
Continuous
 62
     7
370
    15
100
AcDbPolyline
 90
        4
 70
   128
 43
0.0
 10
103.2100736803
 20
219.1499487817
 10
103.1786564446
 20
219.1597181227
 10
103.1323343224
 20
219.2166599998
 10
103.0985291755
 20
219.299257602
  0
LWPOLYLINE
  5
2CE
330
1F
100
AcDbEntity
  8
0
  6
Continuous
 62
     7
370
    15
100
AcDbPolyline
 90
        5
 70
   128
 43
0.0
 10
103.3568221784
 20
219.436124069
 10
103.3292215026
 20
219.3263420922
 10
103.2755568332
 20
219.1978349438
 10
103.2270386523
 20
219.1532248253
 10
103.2100736803
 20
219.1499487817
  0
ARC
  5
2CF
330
1F
100
AcDbEntity
  8
0
  6
Continuous
 62
     7
370
    15
100
AcDbCircle
 10
99.9220113237
 20
219.3911528325
 30
0.0
 40
3.435105241390991
100
AcDbArc
 50
346.7269950789
 51
0.750118404
  0
ARC
  5
2D0
330
1F
100
AcDbEntity
  8
0
  6
Continuous
 62
     7
370
    15
100
AcDbCircle
 10
103.167840317
 20
218.6191611042
 30
0.0
 40
0.0989307836774542
100
AcDbArc
 50
292.6020608766
 51
350.2944743738
  0
ARC
  5
2D1
330
1F
100
AcDbEntity
  8
0
  6
Continuous
 62
     7
370
    15
100
AcDbCircle
 10
103.2238273299
 20
218.5853142944
 30
0.0
 40
0.0602275182971332
100
AcDbArc
 50
187.3608278805
 51
252.6452500878
  0
ARC
  5
2D2
330
1F
100
AcDbEntity
  8
0
  6
Continuous
 62
     7
370
    15
100
AcDbCircle
 10
104.0863066131
 20
218.813273348
 30
0.0
 40
0.9518481864025753
100
AcDbArc
 50
177.7085362061
 51
194.3353916505
  0
LINE
  5
2D3
330
1F
100
AcDbEntity
  8
0
  6
Continuous
 62
     7
370
    15
100
AcDbLine
 10
103.0424309721
 20
218.8513310292
 30
0.0
 11
103.1352190233
 21
218.8513310292
 31
0.0
  0
LWPOLYLINE
  5
2D4
330
1F
100
AcDbEntity
  8
0
  6
Continuous
 62
     7
370
    15
100
AcDbPolyline
 90
        3
 70
   128
 43
0.0
 10
101.7923585779
 20
212.9517298745
 10
101.7931129492
 20
212.6974615821
 10
101.7931986308
 20
212.6684588002
  0
ARC
  5
2D5
330
1F
100
AcDbEntity
  8
0
  6
Continuous
 62
     7
370
    15
100
AcDbCircle
 10
257.4520306847
 20
212.1588968249
 30
0.0
 40
155.6597296882259
100
AcDbArc
 50
179.7940427939
 51
180.0573842783
  0
ARC
  5
2D6
330
1F
100
AcDbEntity
  8
0
  6
Continuous
 62
     7
370
    15
100
AcDbCircle
 10
103.0868151188
 20
212.7408357712
 30
0.0
 40
1.293702407033881
100
AcDbArc
 50
175.4768672423
 51
180.992141396
  0
ARC
  5
2D7
330
1F
100
AcDbEntity
  8
0
  6
Continuous
 62
     7
370
    15
100
AcDbCircle
 10
100.9713480754
 20
212.7323969234
 30
0.0
 40
0.833149010051933
100
AcDbArc
 50
359.0397892313
 51
7.6189405511
  0
ARC
  5
2D8
330
1F
100
AcDbEntity
  8
0
  6
Continuous
 62
     7
370
    15
100
AcDbCircle
 10
64.8526603582
 20
211.8533012954
 30
0.0
 40
36.96184583294298
100
AcDbArc
 50
359.7739716257
 51
1.3411947932
  0
ARC
  5
2D9
330
1F
100
AcDbEntity
  8
0
  6
Continuous
 62
     7
370
    15
100
AcDbCircle
 10
57.2891570745
 20
211.5544128884
 30
0.0
 40
44.525324643558
100
AcDbArc
 50
358.6958321801
 51
0.1969813214
  0
ARC
  5
2DA
330
1F
100
AcDbEntity
  8
0
  6
Continuous
 62
     7
370
    15
100
AcDbCircle
 10
100.835465499
 20
210.5407156741
 30
0.0
 40
0.9674822625319632
100
AcDbArc
 50
353.5566041366
 51
0.0176651235
  0
ARC
  5
2DB
330
1F
100
AcDbEntity
  8
0
  6
Continuous
 62
     7
370
    15
100
AcDbCircle
 10
102.3154846766
 20
210.4984867017
 30
0.0
 40
0.5228742752992765
100
AcDbArc
 50
177.0428466789
 51
187.2894610502
  0
ARC
  5
2DC
330
1F
100
AcDbEntity
  8
0
  6
Continuous
 62
     7
370
    15
100
AcDbCircle
 10
239.407926582
 20
211.05570576
 30
0.0
 40
137.6156414592731
100
AcDbArc
 50
179.9423216069
 51
180.220765911
  0
LWPOLYLINE
  5
2DD
330
1F
100
AcDbEntity
  8
0
  6
Continuous
 62
     7
370
    15
100
AcDbPolyline
 90
        3
 70
   128
 43
0.0
 10
101.7930961853
 20
210.5744470464
 10
101.7930365807
 20
210.5544371152
 10
101.7923362261
 20
210.307719055
  0
ARC
  5
2DE
330
1F
100
AcDbEntity
  8
0
  6
Continuous
 62
     7
370
    15
100
AcDbCircle
 10
102.6298332106
 20
210.2441477928
 30
0.0
 40
0.8399062474110185
100
AcDbArc
 50
175.6592158569
 51
187.3542940912
  0
ARC
  5
2DF
330
1F
100
AcDbEntity
  8
0
  6
Continuous
 62
     7
370
    15
100
AcDbCircle
 10
100.3489298416
 20
210.3444536264
 30
0.0
 40
1.462744505530369
100
AcDbArc
 50
351.8321369676
 51
0.3887353587
  0
ARC
  5
2E0
330
1F
100
AcDbEntity
  8
0
  6
Continuous
 62
     7
370
    15
100
AcDbCircle
 10
64.2767308555
 20
211.6035920023
 30
0.0
 40
37.55569186636595
100
AcDbArc
 50
358.0938201291
 51
0.2059648779
  0
ARC
  5
2E1
330
1F
100
AcDbEntity
  8
0
  6
Continuous
 62
     7
370
    15
100
AcDbCircle
 10
71.6020963918
 20
211.8651501104
 30
0.0
 40
30.23034857797178
100
AcDbArc
 50
359.7601397143
 51
2.0598454999
  0
ARC
  5
2E2
330
1F
100
AcDbEntity
  8
0
  6
Continuous
 62
     7
370
    15
100
AcDbCircle
 10
100.1693805642
 20
212.9409395218
 30
0.0
 40
1.643565861125172
100
AcDbArc
 50
0.3761614438
 51
7.9521417238
  0
ARC
  5
2E3
330
1F
100
AcDbEntity
  8
0
  6
Continuous
 62
     7
370
    15
100
AcDbCircle
 10
103.3343942455
 20
213.0260228287
 30
0.0
 40
1.543824291543212
100
AcDbArc
 50
174.7114301853
 51
182.7582914655
  0
LWPOLYLINE
  5
2E4
330
1F
100
AcDbEntity
  8
0
  6
Continuous
 62
     7
370
    15
100
AcDbPolyline
 90
       15
 70
   128
 43
0.0
 10
149.7905093885
 20
205.7535707572
 10
149.7916232503
 20
205.7468587154
 10
149.7769958979
 20
205.8356724301
 10
149.7015140659
 20
206.3295490661
 10
149.5923667854
 20
207.2045741224
 10
149.5401475287
 20
207.752973176
 10
149.4961071468
 20
208.3755669737
 10
149.467776314
 20
209.0169828007
 10
149.456695438
 20
209.698796607
 10
149.4906272447
 20
211.0110357025
 10
149.5818614668
 20
212.1800997847
 10
149.6922455436
 20
213.0900652701
 10
149.7387446171
 20
213.4073368361
 10
149.7734531468
 20
213.627668898
 10
149.7923366434
 20
213.7425764086
  0
LWPOLYLINE
  5
2E5
330
1F
100
AcDbEntity
  8
0
  6
Continuous
 62
     7
370
    15
100
AcDbPolyline
 90
       15
 70
   128
 43
0.0
 10
101.7923362261
 20
215.7675764611
 10
101.8278773582
 20
215.988118769
 10
101.9191488332
 20
216.6233238968
 10
102.0280558324
 20
217.6114500762
 10
102.0734950608
 20
218.1985464267
 10
102.1069220907
 20
218.848436707
 10
102.1225571341
 20
219.4995999889
 10
102.119817183
 20
220.1770403044
 10
102.0627606368
 20
221.4435752103
 10
101.9606709188
 20
222.5262591237
 10
101.9064232415
 20
222.9577674152
 10
101.8565863079
 20
223.3091884846
 10
101.8193613446
 20
223.5510063911
 10
101.7969481355
 20
223.6896398099
 10
101.8007013655
 20
223.6666347453
  0
LWPOLYLINE
  5
2E6
330
1F
100
AcDbEntity
  8
0
  6
Continuous
 62
     7
370
    15
100
AcDbPolyline
 90
       29
 70
   128
 43
0.0
 10
102.1870698488
 20
212.2425766283
 10
102.1970741159
 20
211.5857939789
 10
102.2287092811
 20
210.9290117951
 10
102.3597780323
 20
209.7636944236
 10
102.5963414169
 20
208.8663255417
 10
102.7554820931
 20
208.5568684706
 10
102.9476903087
 20
208.3451918879
 10
103.1570832885
 20
208.2500889519
 10
103.3927693671
 20
208.2664746413
 10
103.8824457383
 20
208.6271628359
 10
104.3517969257
 20
209.3869097153
 10
104.5520275539
 20
209.8901503341
 10
104.7207124239
 20
210.4760397779
 10
104.8397801525
 20
211.0962987499
 10
104.9091450578
 20
211.7688016588
 10
104.9210808879
 20
212.4278567353
 10
104.8767592466
 20
213.1007335702
 10
104.6363252855
 20
214.3282816833
 10
104.2343124455
 20
215.3340953955
 10
103.9979017979
 20
215.7125591621
 10
103.7439170933
 20
216.0016952403
 10
103.4982640004
 20
216.176178641
 10
103.2548311806
 20
216.2423335103
 10
102.8373956388
 20
216.0361257702
 10
102.5225713557
 20
215.413843267
 10
102.3152310109
 20
214.4319932995
 10
102.2507536864
 20
213.8453601947
 10
102.2083785093
 20
213.1942411506
 10
102.1870698488
 20
212.2425766283
  0
LWPOLYLINE
  5
2E7
330
1F
100
AcDbEntity
  8
0
  6
Continuous
 62
     7
370
    15
100
AcDbPolyline
 90
       29
 70
   128
 43
0.0
 10
146.661442489
 20
212.2425766283
 10
146.6896261728
 20
212.9088126676
 10
146.7715453065
 20
213.5561414616
 10
147.0774922228
 20
214.7214586003
 10
147.5210811651
 20
215.6188274821
 10
147.7696958637
 20
215.9317426704
 10
148.0211957997
 20
216.1399607867
 10
148.2633135921
 20
216.2352368323
 10
148.490552575
 20
216.2186780333
 10
148.8728716678
 20
215.8579899551
 10
149.148820684
 20
215.0982435414
 10
149.2467492527
 20
214.5869532687
 10
149.3188317573
 20
214.009113246
 10
149.3668097711
 20
213.3791927336
 10
149.3924285925
 20
212.7163515979
 10
149.3967182642
 20
212.0476079726
 10
149.3803642398
 20
211.3844192209
 10
149.2831043607
 20
210.1568713406
 10
149.0865990228
 20
209.1510578612
 10
148.945481301
 20
208.7680784607
 10
148.7759228504
 20
208.4834579
 10
148.5796708322
 20
208.3075999835
 10
148.3600016391
 20
208.2428199792
 10
147.8796012408
 20
208.4490269044
 10
147.3945200151
 20
209.0713096404
 10
146.9795450276
 20
210.0531597243
 10
146.8253068334
 20
210.6490324804
 10
146.7187002009
 20
211.2909116404
 10
146.661442489
 20
212.2425766283
  0
LINE
  5
2E8
330
1F
100
AcDbEntity
  8
0
  6
Continuous
 62
     7
370
    15
100
AcDbLine
 10
149.7923364347
 20
220.1395693753
 30
0.0
 11
149.7923137723
 21
220.1395693753
 31
0.0
  0
ARC
  5
2E9
330
1F
100
AcDbEntity
  8
0
  6
Continuous
 62
     7
370
    15
100
AcDbCircle
 10
152.5390561769
 20
219.9364255202
 30
0.0
 40
2.754243716393582
100
AcDbArc
 50
175.770210901
 51
179.309062868
  0
ARC
  5
2EA
330
1F
100
AcDbEntity
  8
0
  6
Continuous
 62
     7
370
    15
100
AcDbCircle
 10
175.8766306455
 20
219.3683928336
 30
0.0
 40
26.09854444553616
100
AcDbArc
 50
178.6799307275
 51
180.0799719385
  0
LINE
  5
2EB
330
1F
100
AcDbEntity
  8
0
  6
Continuous
 62
     7
370
    15
100
AcDbLine
 10
149.7781116224
 20
219.3319651851
 30
0.0
 11
149.7781117672
 21
217.1078853475
 31
0.0
  0
LINE
  5
2EC
330
1F
100
AcDbEntity
  8
0
  6
Continuous
 62
     7
370
    15
100
AcDbLine
 10
149.7781117672
 20
217.1078853475
 30
0.0
 11
149.7879640975
 21
217.1078853475
 31
0.0
  0
LINE
  5
2ED
330
1F
100
AcDbEntity
  8
0
  6
Continuous
 62
     7
370
    15
100
AcDbLine
 10
149.7879640975
 20
217.1078853475
 30
0.0
 11
149.7879650152
 21
219.3319651851
 31
0.0
  0
ARC
  5
2EE
330
1F
100
AcDbEntity
  8
0
  6
Continuous
 62
     7
370
    15
100
AcDbCircle
 10
177.1519849909
 20
219.36506811
 30
0.0
 40
27.36403999843144
100
AcDbArc
 50
179.3202913292
 51
180.0693120733
  0
ARC
  5
2EF
330
1F
100
AcDbEntity
  8
0
  6
Continuous
 62
     7
370
    15
100
AcDbCircle
 10
152.2850993979
 20
219.6881376028
 30
0.0
 40
2.495229376070763
100
AcDbArc
 50
177.4637478743
 51
179.9644839988
  0
SPLINE
  5
2F0
330
1F
100
AcDbEntity
  8
0
  6
Continuous
 62
     7
370
    15
100
AcDbSpline
210
0.0
220
0.0
230
1.0
 70
    28
 71
     3
 72
     8
 73
     4
 74
     0
 42
0.00000001
 43
0.00000001
 40
0.0
 40
0.0
 40
0.0
 40
0.0
 40
0.0290631426504233
 40
0.0290631426504233
 40
0.0290631426504233
 40
0.0290631426504233
 10
149.7923364347437
 20
220.13956937529
 30
0.0
 41
1.0
 10
149.7923364347437
 20
220.1394544317731
 30
0.0
 41
1.0
 10
149.7923364347437
 20
220.1393394882562
 30
0.0
 41
1.0
 10
149.7923364347437
 20
220.1392180190763
 30
0.0
 41
1.0
  0
LINE
  5
2F1
330
1F
100
AcDbEntity
  8
0
  6
Continuous
 62
     7
370
    15
100
AcDbLine
 10
148.2847875529
 20
218.2914228257
 30
0.0
 11
148.2847875529
 21
220.7167700479
 31
0.0
  0
LINE
  5
2F2
330
1F
100
AcDbEntity
  8
0
  6
Continuous
 62
     7
370
    15
100
AcDbLine
 10
148.3364361046
 20
218.2914228257
 30
0.0
 11
148.2847875529
 21
218.2914228257
 31
0.0
  0
LINE
  5
2F3
330
1F
100
AcDbEntity
  8
0
  6
Continuous
 62
     7
370
    15
100
AcDbLine
 10
148.3858131352
 20
218.7868148576
 30
0.0
 11
148.5063156249
 21
218.7868148576
 31
0.0
  0
LINE
  5
2F4
330
1F
100
AcDbEntity
  8
0
  6
Continuous
 62
     7
370
    15
100
AcDbLine
 10
148.3858131352
 20
220.7167700479
 30
0.0
 11
148.3858131352
 21
218.7868148576
 31
0.0
  0
LINE
  5
2F5
330
1F
100
AcDbEntity
  8
0
  6
Continuous
 62
     7
370
    15
100
AcDbLine
 10
148.2847875529
 20
220.7167700479
 30
0.0
 11
148.3858131352
 21
220.7167700479
 31
0.0
  0
LINE
  5
2F6
330
1F
100
AcDbEntity
  8
0
  6
Continuous
 62
     7
370
    15
100
AcDbLine
 10
130.6657336071
 20
216.6425765166
 30
0.0
 11
130.6657336071
 21
205.2425765166
 31
0.0
  0
LINE
  5
2F7
330
1F
100
AcDbEntity
  8
0
  6
Continuous
 62
     7
370
    15
100
AcDbLine
 10
130.6657336071
 20
216.6425765166
 30
0.0
 11
144.5273304299
 21
216.6425765166
 31
0.0
  0
LINE
  5
2F8
330
1F
100
AcDbEntity
  8
0
  6
Continuous
 62
     7
370
    15
100
AcDbLine
 10
144.5273304299
 20
216.6425765166
 30
0.0
 11
144.5273304299
 21
223.7425765166
 31
0.0
  0
LINE
  5
2F9
330
1F
100
AcDbEntity
  8
0
  6
Continuous
 62
     7
370
    15
100
AcDbLine
 10
144.5273304299
 20
223.7425765166
 30
0.0
 11
149.7923364347
 21
223.7425765166
 31
0.0
  0
LINE
  5
2FA
330
1F
100
AcDbEntity
  8
0
  6
Continuous
 62
     7
370
    15
100
AcDbLine
 10
101.7923364347
 20
223.7425765166
 30
0.0
 11
107.0573424395
 21
223.7425765166
 31
0.0
  0
LINE
  5
2FB
330
1F
100
AcDbEntity
  8
0
  6
Continuous
 62
     7
370
    15
100
AcDbLine
 10
107.0573424395
 20
216.6425765166
 30
0.0
 11
107.0573424395
 21
223.7425765166
 31
0.0
  0
LINE
  5
2FC
330
1F
100
AcDbEntity
  8
0
  6
Continuous
 62
     7
370
    15
100
AcDbLine
 10
107.0573424395
 20
216.6425765166
 30
0.0
 11
120.9189392623
 21
216.6425765166
 31
0.0
  0
LINE
  5
2FD
330
1F
100
AcDbEntity
  8
0
  6
Continuous
 62
     7
370
    15
100
AcDbLine
 10
120.9189392623
 20
205.2425765166
 30
0.0
 11
120.9189392623
 21
216.6425765166
 31
0.0
  0
LINE
  5
2FE
330
1F
100
AcDbEntity
  8
0
  6
Continuous
 62
     7
370
    15
100
AcDbLine
 10
120.9189392623
 20
205.2425765166
 30
0.0
 11
101.7923364347
 21
205.2425765166
 31
0.0
  0
LINE
  5
2FF
330
1F
100
AcDbEntity
  8
0
  6
Continuous
 62
     7
370
    15
100
AcDbLine
 10
149.7923364347
 20
205.2425765166
 30
0.0
 11
130.6657336071
 21
205.2425765166
 31
0.0
  0
LINE
  5
300
330
1F
100
AcDbEntity
  8
0
  6
Continuous
 62
     7
370
    15
100
AcDbLine
 10
120.9189392623
 20
205.2425765166
 30
0.0
 11
130.6657336071
 21
205.2425765166
 31
0.0
  0
LINE
  5
301
330
1F
100
AcDbEntity
  8
0
  6
Continuous
 62
     7
370
    15
100
AcDbLine
 10
120.9189392623
 20
216.6425765166
 30
0.0
 11
130.6657336071
 21
216.6425765166
 31
0.0
  0
CIRCLE
  5
302
330
1F
100
AcDbEntity
  8
0
  6
Continuous
 62
     7
370
    15
100
AcDbCircle
 10
125.7923364347
 20
208.2425765166
 30
0.0
 40
1.025000000000006
  0
LINE
  5
303
330
1F
100
AcDbEntity
  8
0
  6
Continuous
 62
     7
370
    15
100
AcDbLine
 10
122.1216164109
 20
223.7425765166
 30
0.0
 11
129.4630564586
 21
223.7425765166
 31
0.0
  0
LINE
  5
304
330
1F
100
AcDbEntity
  8
0
  6
Continuous
 62
     7
370
    15
100
AcDbLine
 10
129.4630564586
 20
223.7425765166
 30
0.0
 11
131.3950143659
 21
223.7425765166
 31
0.0
  0
LINE
  5
305
330
1F
100
AcDbEntity
  8
0
  6
Continuous
 62
     7
370
    15
100
AcDbLine
 10
120.1896585036
 20
223.7425765166
 30
0.0
 11
122.1216164109
 21
223.7425765166
 31
0.0
  0
LINE
  5
306
330
1F
100
AcDbEntity
  8
0
  6
Continuous
 62
     7
370
    15
100
AcDbLine
 10
107.0573424395
 20
223.7425765166
 30
0.0
 11
120.1896585036
 21
223.7425765166
 31
0.0
  0
LINE
  5
307
330
1F
100
AcDbEntity
  8
0
  6
Continuous
 62
     7
370
    15
100
AcDbLine
 10
131.3950143659
 20
223.7425765166
 30
0.0
 11
144.5273304299
 21
223.7425765166
 31
0.0
  0
LWPOLYLINE
  5
308
330
1F
100
AcDbEntity
  8
0
  6
Continuous
 62
     7
370
    15
100
AcDbPolyline
 90
       19
 70
   128
 43
0.0
 10
148.1939878023
 20
208.2969978073
 10
148.2066463387
 20
208.303345702
 10
148.4369940764
 20
208.4838062146
 10
148.653122381
 20
208.7784748146
 10
148.848467291
 20
209.178398698
 10
149.0170925564
 20
209.6714259678
 10
149.1538740403
 20
210.2425763005
 10
149.254658044
 20
210.8744958969
 10
149.3163786537
 20
211.5479836793
 10
149.3371620482
 20
212.2425766283
 10
149.3163786537
 20
212.9371691117
 10
149.254658044
 20
213.610657127
 10
149.1538740403
 20
214.2425764905
 10
149.0170925564
 20
214.813727056
 10
148.848467291
 20
215.3067543259
 10
148.653122381
 20
215.7066780928
 10
148.4369940764
 20
216.001347042
 10
148.2066463387
 20
216.1818075547
 10
148.0951726145
 20
216.2255514268
  0
LWPOLYLINE
  5
309
330
1F
100
AcDbEntity
  8
0
  6
Continuous
 62
     7
370
    15
100
AcDbPolyline
 90
       19
 70
   128
 43
0.0
 10
103.4211858815
 20
208.2831667358
 10
103.3780265308
 20
208.303345702
 10
103.1476787931
 20
208.4838062146
 10
102.9315504885
 20
208.7784748146
 10
102.7362055785
 20
209.178398698
 10
102.5675803131
 20
209.6714259678
 10
102.4307988292
 20
210.2425763005
 10
102.3300148255
 20
210.8744958969
 10
102.2682942158
 20
211.5479836793
 10
102.2475108212
 20
212.2425766283
 10
102.2682942158
 20
212.9371691117
 10
102.3300148255
 20
213.610657127
 10
102.4307988292
 20
214.2425764905
 10
102.5675803131
 20
214.813727056
 10
102.7362055785
 20
215.3067543259
 10
102.9315504885
 20
215.7066780928
 10
103.1476787931
 20
216.001347042
 10
103.3780265308
 20
216.1818075547
 10
103.5019427246
 20
216.2287509855
  0
LWPOLYLINE
  5
30A
330
1F
100
AcDbEntity
  8
0
  6
Continuous
 62
     7
370
    15
100
AcDbPolyline
 90
       27
 70
   128
 43
0.0
 10
104.3338335759
 20
212.2425766283
 10
104.312962637
 20
212.7451392444
 10
104.2515624023
 20
213.2184951188
 10
104.1532035625
 20
213.6351341469
 10
104.0235988504
 20
213.9708426403
 10
103.8702826655
 20
214.2061105551
 10
103.7021659023
 20
214.3272651447
 10
103.5290162719
 20
214.3272651447
 10
103.360897646
 20
214.2061105551
 10
103.2075833237
 20
213.9708426403
 10
103.0779786116
 20
213.6351341469
 10
102.9796179092
 20
213.2184951188
 10
102.9182195372
 20
212.7451392444
 10
102.8973485983
 20
212.2425766283
 10
102.9182195372
 20
211.7400135467
 10
102.9796179092
 20
211.2666576722
 10
103.0779786116
 20
210.850018877
 10
103.2075833237
 20
210.5143106164
 10
103.360897646
 20
210.2790422359
 10
103.5290162719
 20
210.1578878792
 10
103.7021659023
 20
210.1578878792
 10
103.8702826655
 20
210.2790422359
 10
104.0235988504
 20
210.5143106164
 10
104.1532035625
 20
210.850018877
 10
104.2515624023
 20
211.2666576722
 10
104.312962637
 20
211.7400135467
 10
104.3338335759
 20
212.2425766283
  0
LWPOLYLINE
  5
30B
330
1F
100
AcDbEntity
  8
0
  6
Continuous
 62
     7
370
    15
100
AcDbPolyline
 90
       27
 70
   128
 43
0.0
 10
148.6873242712
 20
212.2425766283
 10
148.6664533323
 20
212.7451392444
 10
148.6050549603
 20
213.2184951188
 10
148.5066942579
 20
213.6351341469
 10
148.3770895457
 20
213.9708426403
 10
148.2237752235
 20
214.2061105551
 10
148.0556565976
 20
214.3272651447
 10
147.8825069672
 20
214.3272651447
 10
147.714390204
 20
214.2061105551
 10
147.5610740191
 20
213.9708426403
 10
147.431469307
 20
213.6351341469
 10
147.3331104672
 20
213.2184951188
 10
147.2717102325
 20
212.7451392444
 10
147.2508392936
 20
212.2425766283
 10
147.2717102325
 20
211.7400135467
 10
147.3331104672
 20
211.2666576722
 10
147.431469307
 20
210.850018877
 10
147.5610740191
 20
210.5143106164
 10
147.714390204
 20
210.2790422359
 10
147.8825069672
 20
210.1578878792
 10
148.0556565976
 20
210.1578878792
 10
148.2237752235
 20
210.2790422359
 10
148.3770895457
 20
210.5143106164
 10
148.5066942579
 20
210.850018877
 10
148.6050549603
 20
211.2666576722
 10
148.6664533323
 20
211.7400135467
 10
148.6873242712
 20
212.2425766283
  0
LWPOLYLINE
  5
30C
330
1F
100
AcDbEntity
  8
0
  6
Continuous
 62
     7
370
    15
100
AcDbPolyline
 90
       13
 70
   128
 43
0.0
 10
116.9155759445
 20
195.7425757864
 10
117.3505427024
 20
195.8787649492
 10
117.7836673042
 20
196.2699129799
 10
118.153206323
 20
196.8845933297
 10
118.3852323039
 20
197.6644809911
 10
118.4243036142
 20
198.4975900123
 10
118.2731173641
 20
199.2833841214
 10
117.9632570303
 20
199.961962513
 10
117.5420477694
 20
200.4663239786
 10
117.087567941
 20
200.720094479
 10
116.6793496987
 20
200.6934847304
 10
116.3551767996
 20
200.405206866
 10
116.3245269737
 20
200.3358251968
  0
LWPOLYLINE
  5
30D
330
1F
100
AcDbEntity
  8
0
  6
Continuous
 62
     7
370
    15
100
AcDbPolyline
 90
        3
 70
   128
 43
0.0
 10
116.3275081372
 20
196.1486249784
 10
116.5963232225
 20
195.836074985
 10
116.9155759445
 20
195.7425757864
  0
CIRCLE
  5
30E
330
1F
100
AcDbEntity
  8
0
  6
Continuous
 62
     7
370
    15
100
AcDbCircle
 10
125.7923422121
 20
198.2425774424
 30
0.0
 40
2.500001656026651
  0
LWPOLYLINE
  5
30F
330
1F
100
AcDbEntity
  8
0
  6
Continuous
 62
     7
370
    15
100
AcDbPolyline
 90
        3
 70
   128
 43
0.0
 10
134.669096925
 20
195.7425757864
 10
135.0480092398
 20
195.8787649492
 10
135.2903328544
 20
196.2070002774
  0
LWPOLYLINE
  5
310
330
1F
100
AcDbEntity
  8
0
  6
Continuous
 62
     7
370
    15
100
AcDbPolyline
 90
       14
 70
   128
 43
0.0
 10
135.2660104341
 20
200.3036759415
 10
135.1849686063
 20
200.4663239786
 10
134.8316313407
 20
200.720094479
 10
134.4123238406
 20
200.6934847304
 10
133.9752904779
 20
200.405206866
 10
133.572122798
 20
199.879415668
 10
133.2738527736
 20
199.1565305361
 10
133.1521312414
 20
198.3306783804
 10
133.227829606
 20
197.5165050098
 10
133.4765588573
 20
196.7869609216
 10
133.859403216
 20
196.200829334
 10
134.3110415793
 20
195.836074985
 10
134.669096925
 20
195.7425757864
 10
134.669096925
 20
195.7425757864
  0
LINE
  5
311
330
1F
100
AcDbEntity
  8
0
  6
Continuous
 62
     7
370
    15
100
AcDbLine
 10
135.0423364347
 20
193.2425765166
 30
0.0
 11
116.5423531164
 21
193.2425765166
 31
0.0
  0
SPLINE
  5
312
330
1F
100
AcDbEntity
  8
0
  6
Continuous
 62
     7
370
    15
100
AcDbSpline
210
0.0
220
0.0
230
1.0
 70
    12
 71
     3
 72
    15
 73
    11
 74
     0
 42
0.00000001
 43
0.00000001
 40
0.0
 40
0.0
 40
0.0
 40
0.0
 40
0.119512294007358
 40
0.2389686932603889
 40
0.3566129793728527
 40
0.4775556668378039
 40
0.6003479127444705
 40
0.7288583660521868
 40
0.8606359757345489
 40
1.0
 40
1.0
 40
1.0
 40
1.0
 10
103.373479868005
 20
219.4610088508039
 30
0.0
 41
1.0
 10
103.3775825475534
 20
219.4736405281134
 30
0.0
 41
1.0
 10
103.3857859878665
 20
219.4988979750179
 30
0.0
 41
1.0
 10
103.3960623778583
 20
219.5414503230716
 30
0.0
 41
1.0
 10
103.404870869847
 20
219.5868405847851
 30
0.0
 41
1.0
 10
103.4121412051624
 20
219.6351017034492
 30
0.0
 41
1.0
 10
103.4176195088313
 20
219.6869713855965
 30
0.0
 41
1.0
 10
103.4217309770865
 20
219.7415002627719
 30
0.0
 41
1.0
 10
103.4241201412839
 20
219.7993842554981
 30
0.0
 41
1.0
 10
103.4244017564355
 20
219.8388703481135
 30
0.0
 41
1.0
 10
103.4245465037407
 20
219.8591657955122
 30
0.0
 41
1.0
  0
SPLINE
  5
313
330
1F
100
AcDbEntity
  8
0
  6
Continuous
 62
     7
370
    15
100
AcDbSpline
210
0.0
220
0.0
230
1.0
 70
    12
 71
     3
 72
    15
 73
    11
 74
     0
 42
0.00000001
 43
0.00000001
 40
0.0
 40
0.0
 40
0.0
 40
0.0
 40
0.1549058900924407
 40
0.2996711798094042
 40
0.434129850383935
 40
0.5601873120347143
 40
0.6785251232698105
 40
0.7899349307235041
 40
0.8962359160237147
 40
1.0
 40
1.0
 40
1.0
 40
1.0
 10
103.4245465037407
 20
219.8591657955122
 30
0.0
 41
1.0
 10
103.4243834029432
 20
219.8902178897029
 30
0.0
 41
1.0
 10
103.4240678784115
 20
219.9502893156254
 30
0.0
 41
1.0
 10
103.4211364862818
 20
220.0369417636314
 30
0.0
 41
1.0
 10
103.4167631849976
 20
220.1172444966217
 30
0.0
 41
1.0
 10
103.4100572701356
 20
220.1906941490004
 30
0.0
 41
1.0
 10
103.4018584478609
 20
220.2580014175555
 30
0.0
 41
1.0
 10
103.391473834387
 20
220.3182262168796
 30
0.0
 41
1.0
 10
103.3796165422519
 20
220.372858066129
 30
0.0
 41
1.0
 10
103.3698118860204
 20
220.4037932199901
 30
0.0
 41
1.0
 10
103.364968762049
 20
220.4190739990083
 30
0.0
 41
1.0
  0
SPLINE
  5
314
330
1F
100
AcDbEntity
  8
0
  6
Continuous
 62
     7
370
    15
100
AcDbSpline
210
0.0
220
0.0
230
1.0
 70
    12
 71
     3
 72
    11
 73
     7
 74
     0
 42
0.00000001
 43
0.00000001
 40
0.0
 40
0.0
 40
0.0
 40
0.0
 40
0.2605169665726523
 40
0.5096738451771018
 40
0.75016850767363
 40
1.0
 40
1.0
 40
1.0
 40
1.0
 10
103.364968762049
 20
220.4190739990083
 30
0.0
 41
1.0
 10
103.3607005825884
 20
220.430547907138
 30
0.0
 41
1.0
 10
103.3523503416569
 20
220.4529953928145
 30
0.0
 41
1.0
 10
103.3376096059826
 20
220.4764421552478
 30
0.0
 41
1.0
 10
103.3218508622611
 20
220.491286147267
 30
0.0
 41
1.0
 10
103.3109468460414
 20
220.4929040636852
 30
0.0
 41
1.0
 10
103.3053910203573
 20
220.4937284261412
 30
0.0
 41
1.0
  0
SPLINE
  5
315
330
1F
100
AcDbEntity
  8
0
  6
Continuous
 62
     7
370
    15
100
AcDbSpline
210
0.0
220
0.0
230
1.0
 70
    12
 71
     3
 72
    11
 73
     7
 74
     0
 42
0.00000001
 43
0.00000001
 40
0.0
 40
0.0
 40
0.0
 40
0.0
 40
0.2499387837310278
 40
0.4912475062238678
 40
0.7393711530914392
 40
1.0
 40
1.0
 40
1.0
 40
1.0
 10
103.2841132554674
 20
218.5278285116437
 30
0.0
 41
1.0
 10
103.2896762740533
 20
218.5285940258328
 30
0.0
 41
1.0
 10
103.3006102274261
 20
218.5300986220014
 30
0.0
 41
1.0
 10
103.3162546431989
 20
218.5458043542244
 30
0.0
 41
1.0
 10
103.3311206496016
 20
218.5684383691022
 30
0.0
 41
1.0
 10
103.3394327769296
 20
218.5909503001895
 30
0.0
 41
1.0
 10
103.3436909971591
 20
218.6024829387766
 30
0.0
 41
1.0
  0
SPLINE
  5
316
330
1F
100
AcDbEntity
  8
0
  6
Continuous
 62
     7
370
    15
100
AcDbSpline
210
0.0
220
0.0
230
1.0
 70
    12
 71
     3
 72
    23
 73
    19
 74
     0
 42
0.00000001
 43
0.00000001
 40
0.0
 40
0.0
 40
0.0
 40
0.0
 40
0.0429074195973431
 40
0.0875806531667567
 40
0.1341489510201865
 40
0.1833824948965791
 40
0.2350585734887962
 40
0.2893544055219257
 40
0.3459385190560872
 40
0.4060743060697107
 40
0.4687097492130233
 40
0.535066826113327
 40
0.6039725938206265
 40
0.6767369645543585
 40
0.752298020099801
 40
0.8312934689420644
 40
0.9141507516606886
 40
1.0
 40
1.0
 40
1.0
 40
1.0
 10
103.3436909971591
 20
218.6024829387766
 30
0.0
 41
1.0
 10
103.3466931988581
 20
218.611702016547
 30
0.0
 41
1.0
 10
103.3528211550065
 20
218.6305195744498
 30
0.0
 41
1.0
 10
103.3610570288865
 20
218.6622361101098
 30
0.0
 41
1.0
 10
103.3692326035764
 20
218.6963597725892
 30
0.0
 41
1.0
 10
103.3767186075399
 20
218.7342631529028
 30
0.0
 41
1.0
 10
103.3838208152766
 20
218.7753416908078
 30
0.0
 41
1.0
 10
103.3903960688846
 20
218.8195589100114
 30
0.0
 41
1.0
 10
103.3965631613744
 20
218.8669550931529
 30
0.0
 41
1.0
 10
103.4023685316815
 20
218.9173609804966
 30
0.0
 41
1.0
 10
103.4077057720951
 20
218.9712221871828
 30
0.0
 41
1.0
 10
103.4127930272958
 20
219.0279895998786
 30
0.0
 41
1.0
 10
103.4171207658177
 20
219.0883623008483
 30
0.0
 41
1.0
 10
103.421254862111
 20
219.1516226952236
 30
0.0
 41
1.0
 10
103.4248000868279
 20
219.2182169928114
 30
0.0
 41
1.0
 10
103.4282301662557
 20
219.2878902157835
 30
0.0
 41
1.0
 10
103.4307785083853
 20
219.3609572057092
 30
0.0
 41
1.0
 10
103.4322889799883
 20
219.4107739342498
 30
0.0
 41
1.0
 10
103.4330576096966
 20
219.4361240417596
 30
0.0
 41
1.0
  0
SPLINE
  5
317
330
1F
100
AcDbEntity
  8
0
  6
Continuous
 62
     7
370
    15
100
AcDbSpline
210
0.0
220
0.0
230
1.0
 70
    12
 71
     3
 72
    15
 73
    11
 74
     0
 42
0.00000001
 43
0.00000001
 40
0.0
 40
0.0
 40
0.0
 40
0.0
 40
0.1221692123763253
 40
0.2419322780132649
 40
0.3621110703827106
 40
0.483356714427551
 40
0.606684242134478
 40
0.7322726537301409
 40
0.8635810853834739
 40
1.0
 40
1.0
 40
1.0
 40
1.0
 10
103.2883688084454
 20
219.1499487377505
 30
0.0
 41
1.0
 10
103.2831072084552
 20
219.1503931676638
 30
0.0
 41
1.0
 10
103.2726876367245
 20
219.1512732743555
 30
0.0
 41
1.0
 10
103.2572300822385
 20
219.1582891723445
 30
0.0
 41
1.0
 10
103.2422421821619
 20
219.1706297596824
 30
0.0
 41
1.0
 10
103.2274681639827
 20
219.1864674837624
 30
0.0
 41
1.0
 10
103.2133081785707
 20
219.2080756604456
 30
0.0
 41
1.0
 10
103.19943488292
 20
219.2335719773672
 30
0.0
 41
1.0
 10
103.1860235265263
 20
219.2639906768706
 30
0.0
 41
1.0
 10
103.1777066792661
 20
219.2873533020309
 30
0.0
 41
1.0
 10
103.17346887804
 20
219.2992575920161
 30
0.0
 41
1.0
  0
SPLINE
  5
318
330
1F
100
AcDbEntity
  8
0
  6
Continuous
 62
     7
370
    15
100
AcDbSpline
210
0.0
220
0.0
230
1.0
 70
    12
 71
     3
 72
    15
 73
    11
 74
     0
 42
0.00000001
 43
0.00000001
 40
0.0
 40
0.0
 40
0.0
 40
0.0
 40
0.1071978974716904
 40
0.217147280825297
 40
0.3305405503129963
 40
0.4491623817724443
 40
0.574045275358049
 40
0.7071646061823572
 40
0.8486372930017674
 40
1.0
 40
1.0
 40
1.0
 40
1.0
 10
103.1734688780401
 20
219.2992575920161
 30
0.0
 41
1.0
 10
103.1679981606761
 20
219.3165304486641
 30
0.0
 41
1.0
 10
103.1569163071344
 20
219.3515195104056
 30
0.0
 41
1.0
 10
103.1431283207496
 20
219.4121304179298
 30
0.0
 41
1.0
 10
103.1314416622403
 20
219.4790183682433
 30
0.0
 41
1.0
 10
103.1217967642801
 20
219.5522064765585
 30
0.0
 41
1.0
 10
103.1144622572474
 20
219.6321051417006
 30
0.0
 41
1.0
 10
103.1091396195075
 20
219.7184136721176
 30
0.0
 41
1.0
 10
103.1060030856052
 20
219.8115026583363
 30
0.0
 41
1.0
 10
103.1055923395478
 20
219.8757347187756
 30
0.0
 41
1.0
 10
103.1053800303924
 20
219.9089354136008
 30
0.0
 41
1.0
  0
SPLINE
  5
319
330
1F
100
AcDbEntity
  8
0
  6
Continuous
 62
     7
370
    15
100
AcDbSpline
210
0.0
220
0.0
230
1.0
 70
    12
 71
     3
 72
    15
 73
    11
 74
     0
 42
0.00000001
 43
0.00000001
 40
0.0
 40
0.0
 40
0.0
 40
0.0
 40
0.1525129547106145
 40
0.2952940693408133
 40
0.4290356027002567
 40
0.5546045747843816
 40
0.6730476147226903
 40
0.7853258162720546
 40
0.893816518695535
 40
0.9999999999999999
 40
0.9999999999999999
 40
0.9999999999999999
 40
0.9999999999999999
 10
103.1053800303924
 20
219.9089354136008
 30
0.0
 41
1.0
 10
103.1055615751041
 20
219.9450608151632
 30
0.0
 41
1.0
 10
103.1059130801732
 20
220.0150064591526
 30
0.0
 41
1.0
 10
103.109466632352
 20
220.11618887415
 30
0.0
 41
1.0
 10
103.1150293641126
 20
220.2100973662734
 30
0.0
 41
1.0
 10
103.1228975012884
 20
220.2966487807427
 30
0.0
 41
1.0
 10
103.1328527682534
 20
220.3760454211326
 30
0.0
 41
1.0
 10
103.145498185859
 20
220.4474993355061
 30
0.0
 41
1.0
 10
103.1600044979578
 20
220.5126392707146
 30
0.0
 41
1.0
 10
103.1718602601227
 20
220.5499352726125
 30
0.0
 41
1.0
 10
103.177724431018
 20
220.568382853274
 30
0.0
 41
1.0
  0
SPLINE
  5
31A
330
1F
100
AcDbEntity
  8
0
  6
Continuous
 62
     7
370
    15
100
AcDbSpline
210
0.0
220
0.0
230
1.0
 70
    12
 71
     3
 72
     9
 73
     5
 74
     0
 42
0.00000001
 43
0.00000001
 40
0.0
 40
0.0
 40
0.0
 40
0.0
 40
0.9096893986686733
 40
1.0
 40
1.0
 40
1.0
 40
1.0
 10
103.1777251219967
 20
220.5683827487531
 30
0.0
 41
1.0
 10
103.1990442459195
 20
220.6225486870789
 30
0.0
 41
1.0
 10
103.222479853671
 20
220.682092019567
 30
0.0
 41
1.0
 10
103.2518850105509
 20
220.6928142118268
 30
0.0
 41
1.0
 10
103.2545406079509
 20
220.6937825394574
 30
0.0
 41
1.0
  0
SPLINE
  5
31B
330
1F
100
AcDbEntity
  8
0
  6
Continuous
 62
     7
370
    15
100
AcDbSpline
210
0.0
220
0.0
230
1.0
 70
    12
 71
     3
 72
    15
 73
    11
 74
     0
 42
0.00000001
 43
0.00000001
 40
0.0
 40
0.0
 40
0.0
 40
0.0
 40
0.1393810202816849
 40
0.2711199225959062
 40
0.3991411117306024
 40
0.5232616219685339
 40
0.6429586939517116
 40
0.761434377676327
 40
0.8804849265728252
 40
1.0
 40
1.0
 40
1.0
 40
1.0
 10
103.2798577024895
 20
218.2914228257232
 30
0.0
 41
1.0
 10
103.2746515597983
 20
218.2917941923998
 30
0.0
 41
1.0
 10
103.2645247218644
 20
218.2925165641001
 30
0.0
 41
1.0
 10
103.2496981244387
 20
218.2976420238212
 30
0.0
 41
1.0
 10
103.2356450528513
 20
218.3062803995294
 30
0.0
 41
1.0
 10
103.2224113449127
 20
218.3187829554763
 30
0.0
 41
1.0
 10
103.2099474807742
 20
218.334414870991
 30
0.0
 41
1.0
 10
103.1984279381905
 20
218.3541872823206
 30
0.0
 41
1.0
 10
103.1874150184107
 20
218.3763726802839
 30
0.0
 41
1.0
 10
103.1809588172263
 20
218.3943821819386
 30
0.0
 41
1.0
 10
103.177724431018
 20
218.4034044664224
 30
0.0
 41
1.0
  0
SPLINE
  5
31C
330
1F
100
AcDbEntity
  8
0
  6
Continuous
 62
     7
370
    15
100
AcDbSpline
210
0.0
220
0.0
230
1.0
 70
    12
 71
     3
 72
    15
 73
    11
 74
     0
 42
0.00000001
 43
0.00000001
 40
0.0
 40
0.0
 40
0.0
 40
0.0
 40
0.1227732250155534
 40
0.2440805326651999
 40
0.3643231739355928
 40
0.4854566455892561
 40
0.6086669429199343
 40
0.7353161354494073
 40
0.8650649351196343
 40
1.0
 40
1.0
 40
1.0
 40
1.0
 10
103.177724431018
 20
218.4034044664224
 30
0.0
 41
1.0
 10
103.1729370540838
 20
218.4181793266697
 30
0.0
 41
1.0
 10
103.1634194616933
 20
218.4475526347242
 30
0.0
 41
1.0
 10
103.1511869369741
 20
218.4963325802252
 30
0.0
 41
1.0
 10
103.1405088655561
 20
218.5477373911784
 30
0.0
 41
1.0
 10
103.1316487135267
 20
218.6024180720306
 30
0.0
 41
1.0
 10
103.1245940673438
 20
218.6603846427678
 30
0.0
 41
1.0
 10
103.1190287503872
 20
218.7211927053314
 30
0.0
 41
1.0
 10
103.115377103836
 20
218.7852551450659
 30
0.0
 41
1.0
 10
103.1143928871529
 20
218.8290198896345
 30
0.0
 41
1.0
 10
103.1138911363484
 20
218.8513310292192
 30
0.0
 41
1.0
  0
LINE
  5
31D
330
1F
100
AcDbEntity
  8
0
  6
Continuous
 62
     7
370
    15
100
AcDbLine
 10
103.3568221784
 20
219.436124069
 30
0.0
 11
103.4330583817
 21
219.436124069
 31
0.0
  0
LINE
  5
31E
330
1F
100
AcDbEntity
  8
0
  6
Continuous
 62
     7
370
    15
100
AcDbLine
 10
103.2653551257
 20
218.6024829134
 30
0.0
 11
103.3436905301
 21
218.6024829134
 31
0.0
  0
ARC
  5
31F
330
1F
100
AcDbEntity
  8
0
  6
Continuous
 62
     7
370
    15
100
AcDbCircle
 10
103.2967879048
 20
220.3770829114
 30
0.0
 40
0.1359419950464328
100
AcDbArc
 50
120.9012882683
 51
167.4458450757
  0
ARC
  5
320
330
1F
100
AcDbEntity
  8
0
  6
Continuous
 62
     7
370
    15
100
AcDbCircle
 10
103.1942827
 20
220.4061187081
 30
0.0
 40
0.0935101242574312
100
AcDbArc
 50
7.963645982499999
 51
69.5373970195
  0
ARC
  5
321
330
1F
100
AcDbEntity
  8
0
  6
Continuous
 62
     7
370
    15
100
AcDbCircle
 10
101.4788140019
 20
219.9384598739
 30
0.0
 40
1.870864109708049
100
AcDbArc
 50
357.5708644982
 51
14.8858554603
  0
ARC
  5
322
330
1F
100
AcDbEntity
  8
0
  6
Continuous
 62
     7
370
    15
100
AcDbCircle
 10
102.1232469493
 20
219.8179664894
 30
0.0
 40
1.225442768202159
100
AcDbArc
 50
343.06487157
 51
1.9266393042
  0
ARC
  5
323
330
1F
100
AcDbEntity
  8
0
  6
Continuous
 62
     7
370
    15
100
AcDbCircle
 10
103.19634833
 20
219.4685689788
 30
0.0
 40
0.0994879437041691
100
AcDbArc
 50
287.9283570776
 51
355.6418263441
  0
ARC
  5
324
330
1F
100
AcDbEntity
  8
0
  6
Continuous
 62
     7
370
    15
100
AcDbCircle
 10
103.259363861
 20
219.4598206157
 30
0.0
 40
0.0918119614145356
100
AcDbArc
 50
187.0408785732
 51
249.3419011807
  0
ARC
  5
325
330
1F
100
AcDbEntity
  8
0
  6
Continuous
 62
     7
370
    15
100
AcDbCircle
 10
104.8726231824
 20
219.8332023981
 30
0.0
 40
1.747241328986858
100
AcDbArc
 50
177.5157761951
 51
192.7171939175
  0
ARC
  5
326
330
1F
100
AcDbEntity
  8
0
  6
Continuous
 62
     7
370
    15
100
AcDbCircle
 10
105.1033029674
 20
220.0119557764
 30
0.0
 40
1.978962373780701
100
AcDbArc
 50
168.4960361926
 51
182.9840409607
  0
LINE
  5
327
330
1F
100
AcDbEntity
  8
0
  6
Continuous
 62
     7
370
    15
100
AcDbLine
 10
103.2868910289
 20
220.4190740449
 30
0.0
 11
103.3649693883
 21
220.4190740449
 31
0.0
  0
LINE
  5
328
330
1F
100
AcDbEntity
  8
0
  6
Continuous
 62
     7
370
    15
100
AcDbLine
 10
103.3479969657
 20
219.859165707
 30
0.0
 11
103.4245460934
 21
219.859165707
 31
0.0
  0
LINE
  5
329
330
1F
100
AcDbEntity
  8
0
  6
Continuous
 62
     7
370
    15
100
AcDbLine
 10
103.2955486036
 20
219.4610087754
 30
0.0
 11
103.373479814
 21
219.4610087754
 31
0.0
  0
LINE
  5
32A
330
1F
100
AcDbEntity
  8
0
  6
Continuous
 62
     7
370
    15
100
AcDbLine
 10
103.2269734597
 20
219.3739119539
 30
0.0
 11
103.3053908205
 21
219.3739119539
 31
0.0
  0
LINE
  5
32B
330
1F
100
AcDbEntity
  8
0
  6
Continuous
 62
     7
370
    15
100
AcDbLine
 10
148.3076519972
 20
220.7167701417
 30
0.0
 11
148.3076519972
 21
218.7868148176
 31
0.0
  0
LINE
  5
32C
330
1F
100
AcDbEntity
  8
0
  6
Continuous
 62
     7
370
    15
100
AcDbLine
 10
103.2269734597
 20
220.4937283968
 30
0.0
 11
103.3053908205
 21
220.4937283968
 31
0.0
  0
LINE
  5
32D
330
1F
100
AcDbEntity
  8
0
  6
Continuous
 62
     7
370
    15
100
AcDbLine
 10
103.2058622396
 20
218.5278285615
 30
0.0
 11
103.284113825
 21
218.5278285615
 31
0.0
  0
LINE
  5
32E
330
1F
100
AcDbEntity
  8
0
  6
Continuous
 62
     7
370
    15
100
AcDbLine
 10
103.1025804287
 20
220.5683827488
 30
0.0
 11
103.177725122
 21
220.5683827488
 31
0.0
  0
LINE
  5
32F
330
1F
100
AcDbEntity
  8
0
  6
Continuous
 62
     7
370
    15
100
AcDbLine
 10
103.0985291755
 20
219.299257602
 30
0.0
 11
103.1734689778
 21
219.299257602
 31
0.0
  0
LINE
  5
330
330
1F
100
AcDbEntity
  8
0
  6
Continuous
 62
     7
370
    15
100
AcDbLine
 10
103.1025804287
 20
218.4034044476
 30
0.0
 11
103.177725122
 21
218.4034044476
 31
0.0
  0
LINE
  5
331
330
1F
100
AcDbEntity
  8
0
  6
Continuous
 62
     7
370
    15
100
AcDbLine
 10
148.3858131352
 20
218.7868148576
 30
0.0
 11
148.3076519972
 21
218.7868148176
 31
0.0
  0
LINE
  5
332
330
1F
100
AcDbEntity
  8
0
  6
Continuous
 62
     7
370
    15
100
AcDbLine
 10
103.0345137871
 20
219.9089353526
 30
0.0
 11
103.1053799844
 21
219.9089353526
 31
0.0
  0
LINE
  5
333
330
1F
100
AcDbEntity
  8
0
  6
Continuous
 62
     7
370
    15
100
AcDbLine
 10
149.7781116224
 20
219.3319651851
 30
0.0
 11
149.7879650152
 21
219.3319651851
 31
0.0
  0
LINE
  5
334
330
1F
100
AcDbEntity
  8
0
  6
Continuous
 62
     7
370
    15
100
AcDbLine
 10
129.7441388189
 20
227.2425762931
 30
0.0
 11
129.7441388189
 21
223.7425766507
 31
0.0
  0
LINE
  5
335
330
1F
100
AcDbEntity
  8
0
  6
Continuous
 62
     7
370
    15
100
AcDbLine
 10
127.8956798079
 20
223.7425766507
 30
0.0
 11
127.8956798994
 21
227.2425765166
 31
0.0
  0
LINE
  5
336
330
1F
100
AcDbEntity
  8
0
  6
Continuous
 62
     7
370
    15
100
AcDbLine
 10
127.8956798994
 20
227.2425765166
 30
0.0
 11
129.7441388189
 21
227.2425762931
 31
0.0
  0
LINE
  5
337
330
1F
100
AcDbEntity
  8
0
  6
Continuous
 62
     7
370
    15
100
AcDbLine
 10
144.5273304299
 20
223.7425765166
 30
0.0
 11
144.5273304299
 21
227.2425765166
 31
0.0
  0
LINE
  5
338
330
1F
100
AcDbEntity
  8
0
  6
Continuous
 62
     7
370
    15
100
AcDbLine
 10
131.3950143659
 20
223.7425765166
 30
0.0
 11
144.5273304299
 21
223.7425765166
 31
0.0
  0
LINE
  5
339
330
1F
100
AcDbEntity
  8
0
  6
Continuous
 62
     7
370
    15
100
AcDbLine
 10
144.5273304299
 20
227.2425765166
 30
0.0
 11
129.7441388189
 21
227.2425762931
 31
0.0
  0
LINE
  5
33A
330
1F
100
AcDbEntity
  8
0
  6
Continuous
 62
     7
370
    15
100
AcDbLine
 10
121.8405340506
 20
223.7425766507
 30
0.0
 11
121.8405340506
 21
227.2425762931
 31
0.0
  0
LINE
  5
33B
330
1F
100
AcDbEntity
  8
0
  6
Continuous
 62
     7
370
    15
100
AcDbLine
 10
123.6889929701
 20
227.2425765166
 30
0.0
 11
123.6889930616
 21
223.7425766507
 31
0.0
  0
LINE
  5
33C
330
1F
100
AcDbEntity
  8
0
  6
Continuous
 62
     7
370
    15
100
AcDbLine
 10
121.8405340506
 20
227.2425762931
 30
0.0
 11
123.6889929701
 21
227.2425765166
 31
0.0
  0
LINE
  5
33D
330
1F
100
AcDbEntity
  8
0
  6
Continuous
 62
     7
370
    15
100
AcDbLine
 10
107.0573424395
 20
223.7425765166
 30
0.0
 11
107.0573424395
 21
227.2425765166
 31
0.0
  0
LINE
  5
33E
330
1F
100
AcDbEntity
  8
0
  6
Continuous
 62
     7
370
    15
100
AcDbLine
 10
107.0573424395
 20
223.7425765166
 30
0.0
 11
120.1896585036
 21
223.7425765166
 31
0.0
  0
LINE
  5
33F
330
1F
100
AcDbEntity
  8
0
  6
Continuous
 62
     7
370
    15
100
AcDbLine
 10
121.8405340506
 20
227.2425762931
 30
0.0
 11
107.0573424395
 21
227.2425765166
 31
0.0
  0
LINE
  5
340
330
1F
100
AcDbEntity
  8
0
  6
Continuous
 62
     7
370
    15
100
AcDbLine
 10
107.0573424395
 20
223.7425765166
 30
0.0
 11
101.7923364347
 21
223.7425765166
 31
0.0
  0
LINE
  5
341
330
1F
100
AcDbEntity
  8
0
  6
Continuous
 62
     7
370
    15
100
AcDbLine
 10
149.7923364347
 20
223.7425765166
 30
0.0
 11
144.5273304299
 21
223.7425765166
 31
0.0
  0
LINE
  5
342
330
1F
100
AcDbEntity
  8
0
  6
Continuous
 62
     7
370
    15
100
AcDbLine
 10
107.0573424395
 20
227.2425765166
 30
0.0
 11
101.7923364347
 21
227.2425765166
 31
0.0
  0
LINE
  5
343
330
1F
100
AcDbEntity
  8
0
  6
Continuous
 62
     7
370
    15
100
AcDbLine
 10
149.7923364347
 20
227.2425765166
 30
0.0
 11
144.5273304299
 21
227.2425765166
 31
0.0
  0
LINE
  5
344
330
1F
100
AcDbEntity
  8
0
  6
Continuous
 62
     7
370
    15
100
AcDbLine
 10
123.6889929701
 20
227.2425765166
 30
0.0
 11
127.8956798994
 21
227.2425765166
 31
0.0
  0
LINE
  5
345
330
1F
100
AcDbEntity
  8
0
  6
Continuous
 62
     7
370
    15
100
AcDbLine
 10
116.2923364347
 20
230.2425765166
 30
0.0
 11
135.2923364347
 21
230.2425765166
 31
0.0
  0
LINE
  5
346
330
1F
100
AcDbEntity
  8
0
  6
Continuous
 62
     7
370
    15
100
AcDbLine
 10
135.7923364347
 20
229.7425765166
 30
0.0
 11
115.7923364347
 21
229.7425765166
 31
0.0
  0
LINE
  5
347
330
1F
100
AcDbEntity
  8
0
  6
Continuous
 62
     7
370
    15
100
AcDbLine
 10
124.0927214602
 20
204.2425765166
 30
0.0
 11
123.8173364347
 21
204.2425765166
 31
0.0
  0
LINE
  5
348
330
1F
100
AcDbEntity
  8
0
  6
Continuous
 62
     7
370
    15
100
AcDbLine
 10
127.7673364347
 20
204.2425765166
 30
0.0
 11
124.0927214602
 21
204.2425765166
 31
0.0
  0
LINE
  5
349
330
1F
100
AcDbEntity
  8
0
  6
Continuous
 62
     7
370
    15
100
AcDbLine
 10
124.7191612176
 20
202.2425765166
 30
0.0
 11
124.5452769033
 21
202.2425765166
 31
0.0
  0
LINE
  5
34A
330
1F
100
AcDbEntity
  8
0
  6
Continuous
 62
     7
370
    15
100
AcDbLine
 10
127.0393959662
 20
202.2425765166
 30
0.0
 11
124.7191612176
 21
202.2425765166
 31
0.0
  0
DIMENSION
  5
34B
330
1F
100
AcDbEntity
  8
0
  6
Continuous
 62
     7
370
     0
100
AcDbDimension
280
     0
  2
*D22
 10
76.2194076196
 20
205.2425765166
 30
0.0
 11
76.2194076196
 21
199.2425765166
 31
0.0
 70
    32
 71
     1
 42
-1.0
 73
     0
 74
     0
 75
     0
  3
SLDDIMSTYLE1
100
AcDbAlignedDimension
 13
116.5423364347
 23
193.2425765166
 33
0.0
 14
101.7923364347
 24
205.2425765166
 34
0.0
 50
90.0
100
AcDbRotatedDimension
1001
ACAD
1000
DSTYLE
1002
{
1070
    77
1070
     3
1070
   143
1040
0.0393700787
1070
    41
1040
6.0
1070
    44
1040
1.0
1070
    42
1040
1.0
1070
   147
1040
1.524
1070
    73
1070
     0
1070
    74
1070
     0
1070
   140
1040
9.8777777778
1070
   284
1070
    12
1070
    78
1070
    12
1002
}
  0
DIMENSION
  5
362
330
1F
100
AcDbEntity
  8
0
  6
Continuous
 62
     7
370
     0
100
AcDbDimension
280
     0
  2
*D23
 10
76.2194076196
 20
227.2425765166
 30
0.0
 11
76.2194076196
 21
216.2425765166
 31
0.0
 70
    32
 71
     1
 42
-1.0
 73
     0
 74
     0
 75
     0
  3
SLDDIMSTYLE1
100
AcDbAlignedDimension
 13
101.7923364347
 23
205.2425765166
 33
0.0
 14
101.7923364347
 24
227.2425765166
 34
0.0
 50
90.0
100
AcDbRotatedDimension
1001
ACAD
1000
DSTYLE
1002
{
1070
    77
1070
     3
1070
   143
1040
0.0393700787
1070
    41
1040
6.0
1070
    44
1040
1.0
1070
    42
1040
1.0
1070
   147
1040
1.524
1070
    73
1070
     0
1070
    74
1070
     0
1070
   140
1040
9.8777777778
1070
   284
1070
    12
1070
    78
1070
    12
1002
}
  0
DIMENSION
  5
376
330
1F
100
AcDbEntity
  8
0
  6
Continuous
 62
     7
370
     0
100
AcDbDimension
280
     0
  2
*D24
 10
59.5864546631
 20
193.2425765166
 30
0.0
 11
59.5864546631
 21
211.7425765166
 31
0.0
 70
    32
 71
     1
 42
-1.0
 73
     0
 74
     0
 75
     0
  3
SLDDIMSTYLE1
100
AcDbAlignedDimension
 13
116.2923364347
 23
230.2425765166
 33
0.0
 14
116.5423364347
 24
193.2425765166
 34
0.0
 50
90.0
100
AcDbRotatedDimension
1001
ACAD
1000
DSTYLE
1002
{
1070
    77
1070
     3
1070
   143
1040
0.0393700787
1070
    41
1040
6.0
1070
    44
1040
1.0
1070
    42
1040
1.0
1070
   147
1040
1.524
1070
    73
1070
     0
1070
    74
1070
     0
1070
   140
1040
9.8777777778
1070
   284
1070
    12
1070
    78
1070
    12
1002
}
  0
DIMENSION
  5
38A
330
1F
100
AcDbEntity
  8
0
  6
Continuous
 62
     7
370
     0
100
AcDbDimension
280
     0
  2
*D25
 10
76.2194076196
 20
230.2425765166
 30
0.0
 11
76.2194076196
 21
239.4563958128
 31
0.0
 70
    32
 71
     1
 42
-1.0
 73
     0
 74
     0
 75
     0
  3
SLDDIMSTYLE1
100
AcDbAlignedDimension
 13
107.0573424395
 23
227.2425765166
 33
0.0
 14
116.2923364347
 24
230.2425765166
 34
0.0
 50
90.0
100
AcDbRotatedDimension
1001
ACAD
1000
DSTYLE
1002
{
1070
    77
1070
     3
1070
   143
1040
0.0393700787
1070
    41
1040
6.0
1070
    44
1040
1.0
1070
    42
1040
1.0
1070
   147
1040
1.524
1070
    73
1070
     0
1070
    74
1070
     0
1070
   140
1040
9.8777777778
1070
   284
1070
    12
1070
    78
1070
    12
1002
}
  0
MTEXT
  5
3A1
330
1F
100
AcDbEntity
  8
0
  6
Continuous
 62
     7
370
     0
100
AcDbMText
 10
95.3793817417
 20
248.5918940434
 30
-0.064729308
 40
3.5
 41
0.0
 46
0.0
 71
     1
 72
     1
  1
クランプφ4
  7
SLDTEXTSTYLE0
 73
     1
 44
1.0
  0
LEADER
  5
3A3
330
1F
100
AcDbEntity
  8
0
  6
Continuous
 62
     7
370
     0
100
AcDbLeader
  3
SLDDIMSTYLE4
 76
     3
 10
90.2021194371
 20
222.7064933167
 30
0.0
 10
94.8782305994
 20
244.5170082019
 30
0.0
 10
117.7817744479
 20
244.5170082019
 30
0.0
1001
ACAD
1000
DSTYLE
1002
{
1070
   176
1070
     0
1070
    77
1070
     0
1070
    40
1040
1.0
1070
   147
1040
1.5
1002
}
  0
MTEXT
  5
3A4
330
1F
100
AcDbEntity
  8
0
  6
Continuous
 62
     7
370
     0
100
AcDbMText
 10
141.2696633713
 20
248.4878383082
 30
-0.064729308
 40
3.5
 41
0.0
 46
0.0
 71
     1
 72
     1
  1
アンクランプφ4
  7
SLDTEXTSTYLE0
 73
     1
 44
1.0
  0
LEADER
  5
3A5
330
1F
100
AcDbEntity
  8
0
  6
Continuous
 62
     7
370
     0
100
AcDbLeader
  3
SLDDIMSTYLE4
 76
     3
 10
160.9139400393
 20
212.8965820996
 30
0.0
 10
172.3204091483
 20
244.4150725552
 30
0.0
 10
141.2683845426
 20
244.4150725552
 30
0.0
1001
ACAD
1000
DSTYLE
1002
{
1070
   176
1070
     0
1070
    77
1070
     0
1070
    40
1040
1.0
1070
   147
1040
1.5
1002
}
  0
ENDSEC
  0
SECTION
  2
OBJECTS
  0
DICTIONARY
  5
C
330
0
100
AcDbDictionary
281
     1
  3
ACAD_COLOR
350
6C
  3
ACAD_GROUP
350
D
  3
ACAD_LAYOUT
350
1A
  3
ACAD_MATERIAL
350
6B
  3
ACAD_MLEADERSTYLE
350
440
  3
ACAD_MLINESTYLE
350
17
  3
ACAD_PLOTSETTINGS
350
19
  3
ACAD_PLOTSTYLENAME
350
E
  3
ACAD_SCALELIST
350
99
  3
ACAD_TABLESTYLE
350
92
  3
ACDB_RECOMPOSE_DATA
350
43F
  3
AcDbVariableDictionary
350
59
  0
DICTIONARY
  5
43B
330
1F
100
AcDbDictionary
280
     1
281
     1
  0
DICTIONARY
  5
6C
102
{ACAD_REACTORS
330
C
102
}
330
C
100
AcDbDictionary
281
     1
  0
DICTIONARY
  5
D
102
{ACAD_REACTORS
330
C
102
}
330
C
100
AcDbDictionary
281
     1
  0
DICTIONARY
  5
1A
102
{ACAD_REACTORS
330
C
102
}
330
C
100
AcDbDictionary
281
     1
  3
Layout1
350
74
  3
Layout2
350
26
  3
Model
350
22
  0
DICTIONARY
  5
6B
102
{ACAD_REACTORS
330
C
102
}
330
C
100
AcDbDictionary
281
     1
  0
DICTIONARY
  5
440
102
{ACAD_REACTORS
330
C
102
}
330
C
100
AcDbDictionary
281
     1
  0
DICTIONARY
  5
17
102
{ACAD_REACTORS
330
C
102
}
330
C
100
AcDbDictionary
281
     1
  3
Standard
350
18
  0
DICTIONARY
  5
19
102
{ACAD_REACTORS
330
C
102
}
330
C
100
AcDbDictionary
281
     1
  0
ACDBDICTIONARYWDFLT
  5
E
102
{ACAD_REACTORS
330
C
102
}
330
C
100
AcDbDictionary
281
     1
  3
Normal
350
F
100
AcDbDictionaryWithDefault
340
F
  0
DICTIONARY
  5
99
102
{ACAD_REACTORS
330
C
102
}
330
C
100
AcDbDictionary
281
     1
  3
A0
350
3A7
  3
A1
350
3A8
  3
A2
350
3A9
  3
A3
350
3AA
  3
A4
350
3AB
  3
A5
350
3AC
  3
A6
350
3AD
  3
A7
350
3AE
  3
A8
350
3AF
  3
A9
350
3B0
  3
B0
350
3B1
  3
B1
350
3B2
  3
B2
350
3B3
  3
B3
350
3B4
  3
B4
350
3B5
  3
B5
350
3B6
  3
B6
350
3B7
  3
B7
350
3B8
  3
B8
350
3B9
  3
B9
350
3BA
  3
C0
350
3BB
  3
C1
350
3BC
  3
C2
350
3BD
  3
C3
350
3BE
  3
C4
350
3BF
  3
C5
350
3C0
  3
C6
350
3C1
  3
C7
350
3C2
  3
C8
350
3C3
  3
C9
350
3C4
  3
D0
350
3C5
  3
D1
350
3C6
  3
D2
350
3C7
  0
DICTIONARY
  5
92
102
{ACAD_REACTORS
330
C
102
}
330
C
100
AcDbDictionary
281
     1
  3
Standard
350
93
  0
XRECORD
  5
43F
102
{ACAD_REACTORS
330
C
102
}
330
C
100
AcDbXrecord
280
     1
 90
        1
330
93
  0
DICTIONARY
  5
59
102
{ACAD_REACTORS
330
C
102
}
330
C
100
AcDbDictionary
281
     1
  3
CANNOSCALE
350
43C
  3
CTABLESTYLE
350
98
  3
DIMASSOC
350
3CA
  3
HIDETEXT
350
5E
  3
XCLIPFRAME
350
441
  0
LAYOUT
  5
74
102
{ACAD_REACTORS
330
1A
102
}
330
1A
100
AcDbPlotSettings
  1

  2
\\ADSCCNDC1\hq601xrx1
  4

  6

 40
0.0
 41
0.0
 42
0.0
 43
0.0
 44
0.0
 45
0.0
 46
0.0
 47
0.0
 48
0.0
 49
0.0
140
0.0
141
0.0
142
1.0
143
1.0
 70
   688
 72
     0
 73
     0
 74
     5
  7

 75
    16
 76
     0
 77
     2
 78
   300
147
1.0
148
0.0
149
0.0
100
AcDbLayout
  1
Layout1
 70
     1
 71
     1
 10
0.0
 20
0.0
 11
0.0
 21
0.0
 12
0.0
 22
0.0
 32
0.0
 14
0.0
 24
0.0
 34
0.0
 15
0.0
 25
0.0
 35
0.0
146
0.0
 13
0.0
 23
0.0
 33
0.0
 16
1.0
 26
0.0
 36
0.0
 17
0.0
 27
1.0
 37
0.0
 76
     0
330
73
  0
LAYOUT
  5
26
102
{ACAD_REACTORS
330
1A
102
}
330
1A
100
AcDbPlotSettings
  1

  2
none_device
  4
ISO_C5_(229.00_x_162.00_MM)
  6

 40
0.0
 41
0.0
 42
0.0
 43
0.0
 44
229.0
 45
162.0
 46
0.0
 47
0.0
 48
0.0
 49
0.0
140
0.0
141
0.0
142
1.0
143
1.0
 70
   688
 72
     0
 73
     0
 74
     5
  7

 75
    16
 76
     0
 77
     2
 78
   300
147
1.0
148
0.0
149
0.0
100
AcDbLayout
  1
Layout2
 70
     1
 71
     2
 10
0.0
 20
0.0
 11
0.0
 21
0.0
 12
0.0
 22
0.0
 32
0.0
 14
0.0
 24
0.0
 34
0.0
 15
0.0
 25
0.0
 35
0.0
146
0.0
 13
0.0
 23
0.0
 33
0.0
 16
1.0
 26
0.0
 36
0.0
 17
0.0
 27
1.0
 37
0.0
 76
     0
330
23
  0
LAYOUT
  5
22
102
{ACAD_REACTORS
330
1A
102
}
330
1A
100
AcDbPlotSettings
  1

  2
none_device
  4
ISO_C5_(229.00_x_162.00_MM)
  6

 40
0.0
 41
0.0
 42
0.0
 43
0.0
 44
229.0
 45
162.0
 46
0.0
 47
0.0
 48
0.0
 49
0.0
140
0.0
141
0.0
142
1.0
143
1.0
 70
 11952
 72
     0
 73
     0
 74
     0
  7

 75
    16
 76
     0
 77
     2
 78
   300
147
1.0
148
0.0
149
0.0
100
AcDbLayout
  1
Model
 70
     1
 71
     0
 10
0.0
 20
0.0
 11
0.0
 21
0.0
 12
0.0
 22
0.0
 32
0.0
 14
20.2604743903
 24
10.0
 34
-14.064729308
 15
196.7604743903
 25
285.0
 35
0.1
146
0.0
 13
0.0
 23
0.0
 33
0.0
 16
1.0
 26
0.0
 36
0.0
 17
0.0
 27
1.0
 37
0.0
 76
     0
330
1F
331
97
  0
MLINESTYLE
  5
18
102
{ACAD_REACTORS
330
17
102
}
330
17
100
AcDbMlineStyle
  2
Standard
 70
     0
  3

 62
   256
 51
90.0
 52
90.0
 71
     2
 49
0.5
 62
   256
  6
BYLAYER
 49
-0.5
 62
   256
  6
BYLAYER
  0
ACDBPLACEHOLDER
  5
F
102
{ACAD_REACTORS
330
E
102
}
330
E
  0
SCALE
  5
3A7
102
{ACAD_REACTORS
330
99
102
}
330
99
100
AcDbScale
 70
     0
300
1:1
140
1.0
141
1.0
290
     1
  0
SCALE
  5
3A8
102
{ACAD_REACTORS
330
99
102
}
330
99
100
AcDbScale
 70
     0
300
1:2
140
1.0
141
2.0
290
     0
  0
SCALE
  5
3A9
102
{ACAD_REACTORS
330
99
102
}
330
99
100
AcDbScale
 70
     0
300
1:4
140
1.0
141
4.0
290
     0
  0
SCALE
  5
3AA
102
{ACAD_REACTORS
330
99
102
}
330
99
100
AcDbScale
 70
     0
300
1:5
140
1.0
141
5.0
290
     0
  0
SCALE
  5
3AB
102
{ACAD_REACTORS
330
99
102
}
330
99
100
AcDbScale
 70
     0
300
1:8
140
1.0
141
8.0
290
     0
  0
SCALE
  5
3AC
102
{ACAD_REACTORS
330
99
102
}
330
99
100
AcDbScale
 70
     0
300
1:10
140
1.0
141
10.0
290
     0
  0
SCALE
  5
3AD
102
{ACAD_REACTORS
330
99
102
}
330
99
100
AcDbScale
 70
     0
300
1:16
140
1.0
141
16.0
290
     0
  0
SCALE
  5
3AE
102
{ACAD_REACTORS
330
99
102
}
330
99
100
AcDbScale
 70
     0
300
1:20
140
1.0
141
20.0
290
     0
  0
SCALE
  5
3AF
102
{ACAD_REACTORS
330
99
102
}
330
99
100
AcDbScale
 70
     0
300
1:30
140
1.0
141
30.0
290
     0
  0
SCALE
  5
3B0
102
{ACAD_REACTORS
330
99
102
}
330
99
100
AcDbScale
 70
     0
300
1:40
140
1.0
141
40.0
290
     0
  0
SCALE
  5
3B1
102
{ACAD_REACTORS
330
99
102
}
330
99
100
AcDbScale
 70
     0
300
1:50
140
1.0
141
50.0
290
     0
  0
SCALE
  5
3B2
102
{ACAD_REACTORS
330
99
102
}
330
99
100
AcDbScale
 70
     0
300
1:100
140
1.0
141
100.0
290
     0
  0
SCALE
  5
3B3
102
{ACAD_REACTORS
330
99
102
}
330
99
100
AcDbScale
 70
     0
300
2:1
140
2.0
141
1.0
290
     0
  0
SCALE
  5
3B4
102
{ACAD_REACTORS
330
99
102
}
330
99
100
AcDbScale
 70
     0
300
4:1
140
4.0
141
1.0
290
     0
  0
SCALE
  5
3B5
102
{ACAD_REACTORS
330
99
102
}
330
99
100
AcDbScale
 70
     0
300
8:1
140
8.0
141
1.0
290
     0
  0
SCALE
  5
3B6
102
{ACAD_REACTORS
330
99
102
}
330
99
100
AcDbScale
 70
     0
300
10:1
140
10.0
141
1.0
290
     0
  0
SCALE
  5
3B7
102
{ACAD_REACTORS
330
99
102
}
330
99
100
AcDbScale
 70
     0
300
100:1
140
100.0
141
1.0
290
     0
  0
SCALE
  5
3B8
102
{ACAD_REACTORS
330
99
102
}
330
99
100
AcDbScale
 70
     0
300
1/128" = 1'-0"
140
0.0078125
141
12.0
290
     0
  0
SCALE
  5
3B9
102
{ACAD_REACTORS
330
99
102
}
330
99
100
AcDbScale
 70
     0
300
1/64" = 1'-0"
140
0.015625
141
12.0
290
     0
  0
SCALE
  5
3BA
102
{ACAD_REACTORS
330
99
102
}
330
99
100
AcDbScale
 70
     0
300
1/32" = 1'-0"
140
0.03125
141
12.0
290
     0
  0
SCALE
  5
3BB
102
{ACAD_REACTORS
330
99
102
}
330
99
100
AcDbScale
 70
     0
300
1/16" = 1'-0"
140
0.0625
141
12.0
290
     0
  0
SCALE
  5
3BC
102
{ACAD_REACTORS
330
99
102
}
330
99
100
AcDbScale
 70
     0
300
3/32" = 1'-0"
140
0.09375
141
12.0
290
     0
  0
SCALE
  5
3BD
102
{ACAD_REACTORS
330
99
102
}
330
99
100
AcDbScale
 70
     0
300
1/8" = 1'-0"
140
0.125
141
12.0
290
     0
  0
SCALE
  5
3BE
102
{ACAD_REACTORS
330
99
102
}
330
99
100
AcDbScale
 70
     0
300
3/16" = 1'-0"
140
0.1875
141
12.0
290
     0
  0
SCALE
  5
3BF
102
{ACAD_REACTORS
330
99
102
}
330
99
100
AcDbScale
 70
     0
300
1/4" = 1'-0"
140
0.25
141
12.0
290
     0
  0
SCALE
  5
3C0
102
{ACAD_REACTORS
330
99
102
}
330
99
100
AcDbScale
 70
     0
300
3/8" = 1'-0"
140
0.375
141
12.0
290
     0
  0
SCALE
  5
3C1
102
{ACAD_REACTORS
330
99
102
}
330
99
100
AcDbScale
 70
     0
300
1/2" = 1'-0"
140
0.5
141
12.0
290
     0
  0
SCALE
  5
3C2
102
{ACAD_REACTORS
330
99
102
}
330
99
100
AcDbScale
 70
     0
300
3/4" = 1'-0"
140
0.75
141
12.0
290
     0
  0
SCALE
  5
3C3
102
{ACAD_REACTORS
330
99
102
}
330
99
100
AcDbScale
 70
     0
300
1" = 1'-0"
140
1.0
141
12.0
290
     0
  0
SCALE
  5
3C4
102
{ACAD_REACTORS
330
99
102
}
330
99
100
AcDbScale
 70
     0
300
1-1/2" = 1'-0"
140
1.5
141
12.0
290
     0
  0
SCALE
  5
3C5
102
{ACAD_REACTORS
330
99
102
}
330
99
100
AcDbScale
 70
     0
300
3" = 1'-0"
140
3.0
141
12.0
290
     0
  0
SCALE
  5
3C6
102
{ACAD_REACTORS
330
99
102
}
330
99
100
AcDbScale
 70
     0
300
6" = 1'-0"
140
6.0
141
12.0
290
     0
  0
SCALE
  5
3C7
102
{ACAD_REACTORS
330
99
102
}
330
99
100
AcDbScale
 70
     0
300
1'-0" = 1'-0"
140
12.0
141
12.0
290
     0
  0
TABLESTYLE
  5
93
102
{ACAD_REACTORS
330
92
102
}
102
{ACAD_XDICTIONARY
360
43D
102
}
330
92
100
AcDbTableStyle
  3
Standard
 70
     0
 71
     0
 40
0.06
 41
0.06
280
     0
281
     0
  7
Standard
140
0.18
170
     2
 62
     0
 63
   257
283
     0
 90
        4
 91
        0
  1

274
    -2
284
     1
 64
     0
275
    -2
285
     1
 65
     0
276
    -2
286
     1
 66
     0
277
    -2
287
     1
 67
     0
278
    -2
288
     1
 68
     0
279
    -2
289
     1
 69
     0
  7
Standard
140
0.25
170
     5
 62
     0
 63
   257
283
     0
 90
        4
 91
        0
  1

274
    -2
284
     1
 64
     0
275
    -2
285
     1
 65
     0
276
    -2
286
     1
 66
     0
277
    -2
287
     1
 67
     0
278
    -2
288
     1
 68
     0
279
    -2
289
     1
 69
     0
  7
Standard
140
0.18
170
     5
 62
     0
 63
   257
283
     0
 90
        4
 91
        0
  1

274
    -2
284
     1
 64
     0
275
    -2
285
     1
 65
     0
276
    -2
286
     1
 66
     0
277
    -2
287
     1
 67
     0
278
    -2
288
     1
 68
     0
279
    -2
289
     1
 69
     0
  0
DICTIONARYVAR
  5
43C
102
{ACAD_REACTORS
330
59
102
}
330
59
100
DictionaryVariables
280
     0
  1
1:1
  0
DICTIONARYVAR
  5
98
102
{ACAD_REACTORS
330
59
102
}
330
59
100
DictionaryVariables
280
     0
  1
Standard
  0
DICTIONARYVAR
  5
3CA
102
{ACAD_REACTORS
330
59
102
}
330
59
100
DictionaryVariables
280
     0
  1
2
  0
DICTIONARYVAR
  5
5E
102
{ACAD_REACTORS
330
59
102
}
330
59
100
DictionaryVariables
280
     0
  1
1
  0
DICTIONARYVAR
  5
441
102
{ACAD_REACTORS
330
59
102
}
330
59
100
DictionaryVariables
280
     0
  1
0
  0
DICTIONARY
  5
43D
330
93
100
AcDbDictionary
280
     1
281
     1
  3
ACAD_ROUNDTRIP_2008_TABLESTYLE_CELLSTYLEMAP
360
43E
  0
CELLSTYLEMAP
  5
43E
102
{ACAD_REACTORS
330
43D
102
}
330
43D
100
AcDbCellStyleMap
 90
        3
300
CELLSTYLE
  1
TABLEFORMAT_BEGIN
 90
        5
170
     1
 91
        0
 92
    32768
 62
   257
 93
        1
300
CONTENTFORMAT
  1
CONTENTFORMAT_BEGIN
 90
        0
 91
        0
 92
        4
 93
        0
300

 40
0.0
140
1.0
 94
        5
 62
     0
340
11
144
0.25
309
CONTENTFORMAT_END
171
     0
 94
        6
 95
        1
302
GRIDFORMAT
  1
GRIDFORMAT_BEGIN
 90
        0
 91
        1
 62
     0
 92
       -2
340
0
 93
        0
 40
0.045
309
GRIDFORMAT_END
 95
        2
302
GRIDFORMAT
  1
GRIDFORMAT_BEGIN
 90
        0
 91
        1
 62
     0
 92
       -2
340
0
 93
        0
 40
0.045
309
GRIDFORMAT_END
 95
        4
302
GRIDFORMAT
  1
GRIDFORMAT_BEGIN
 90
        0
 91
        1
 62
     0
 92
       -2
340
0
 93
        0
 40
0.045
309
GRIDFORMAT_END
 95
        8
302
GRIDFORMAT
  1
GRIDFORMAT_BEGIN
 90
        0
 91
        1
 62
     0
 92
       -2
340
0
 93
        0
 40
0.045
309
GRIDFORMAT_END
 95
       16
302
GRIDFORMAT
  1
GRIDFORMAT_BEGIN
 90
        0
 91
        1
 62
     0
 92
       -2
340
0
 93
        0
 40
0.045
309
GRIDFORMAT_END
 95
       32
302
GRIDFORMAT
  1
GRIDFORMAT_BEGIN
 90
        0
 91
        1
 62
     0
 92
       -2
340
0
 93
        0
 40
0.045
309
GRIDFORMAT_END
309
TABLEFORMAT_END
  1
CELLSTYLE_BEGIN
 90
        1
 91
        1
300
_TITLE
309
CELLSTYLE_END
300
CELLSTYLE
  1
TABLEFORMAT_BEGIN
 90
        5
170
     1
 91
        0
 92
        0
 62
   257
 93
        1
300
CONTENTFORMAT
  1
CONTENTFORMAT_BEGIN
 90
        0
 91
        0
 92
        4
 93
        0
300

 40
0.0
140
1.0
 94
        5
 62
     0
340
11
144
0.18
309
CONTENTFORMAT_END
171
     0
 94
        6
 95
        1
302
GRIDFORMAT
  1
GRIDFORMAT_BEGIN
 90
        0
 91
        1
 62
     0
 92
       -2
340
0
 93
        0
 40
0.045
309
GRIDFORMAT_END
 95
        2
302
GRIDFORMAT
  1
GRIDFORMAT_BEGIN
 90
        0
 91
        1
 62
     0
 92
       -2
340
0
 93
        0
 40
0.045
309
GRIDFORMAT_END
 95
        4
302
GRIDFORMAT
  1
GRIDFORMAT_BEGIN
 90
        0
 91
        1
 62
     0
 92
       -2
340
0
 93
        0
 40
0.045
309
GRIDFORMAT_END
 95
        8
302
GRIDFORMAT
  1
GRIDFORMAT_BEGIN
 90
        0
 91
        1
 62
     0
 92
       -2
340
0
 93
        0
 40
0.045
309
GRIDFORMAT_END
 95
       16
302
GRIDFORMAT
  1
GRIDFORMAT_BEGIN
 90
        0
 91
        1
 62
     0
 92
       -2
340
0
 93
        0
 40
0.045
309
GRIDFORMAT_END
 95
       32
302
GRIDFORMAT
  1
GRIDFORMAT_BEGIN
 90
        0
 91
        1
 62
     0
 92
       -2
340
0
 93
        0
 40
0.045
309
GRIDFORMAT_END
309
TABLEFORMAT_END
  1
CELLSTYLE_BEGIN
 90
        2
 91
        1
300
_HEADER
309
CELLSTYLE_END
300
CELLSTYLE
  1
TABLEFORMAT_BEGIN
 90
        5
170
     1
 91
        0
 92
        0
 62
   257
 93
        1
300
CONTENTFORMAT
  1
CONTENTFORMAT_BEGIN
 90
        0
 91
        0
 92
        4
 93
        0
300

 40
0.0
140
1.0
 94
        2
 62
     0
340
11
144
0.18
309
CONTENTFORMAT_END
171
     0
 94
        6
 95
        1
302
GRIDFORMAT
  1
GRIDFORMAT_BEGIN
 90
        0
 91
        1
 62
     0
 92
       -2
340
0
 93
        0
 40
0.045
309
GRIDFORMAT_END
 95
        2
302
GRIDFORMAT
  1
GRIDFORMAT_BEGIN
 90
        0
 91
        1
 62
     0
 92
       -2
340
0
 93
        0
 40
0.045
309
GRIDFORMAT_END
 95
        4
302
GRIDFORMAT
  1
GRIDFORMAT_BEGIN
 90
        0
 91
        1
 62
     0
 92
       -2
340
0
 93
        0
 40
0.045
309
GRIDFORMAT_END
 95
        8
302
GRIDFORMAT
  1
GRIDFORMAT_BEGIN
 90
        0
 91
        1
 62
     0
 92
       -2
340
0
 93
        0
 40
0.045
309
GRIDFORMAT_END
 95
       16
302
GRIDFORMAT
  1
GRIDFORMAT_BEGIN
 90
        0
 91
        1
 62
     0
 92
       -2
340
0
 93
        0
 40
0.045
309
GRIDFORMAT_END
 95
       32
302
GRIDFORMAT
  1
GRIDFORMAT_BEGIN
 90
        0
 91
        1
 62
     0
 92
       -2
340
0
 93
        0
 40
0.045
309
GRIDFORMAT_END
309
TABLEFORMAT_END
  1
CELLSTYLE_BEGIN
 90
        3
 91
        2
300
_DATA
309
CELLSTYLE_END
  0
ENDSEC
  0
EOF
