  0
SECTION
  2
HEADER
  9
$ACADVER
  1
AC1024
  9
$ACADMAINTVER
 70
     6
  9
$DWGCODEPAGE
  3
DOS932
  9
$LASTSAVEDBY
  1
STAR056C
  9
$INSBASE
 10
0.0
 20
0.0
 30
0.0
  9
$EXTMIN
 10
20.2604743903
 20
10.0
 30
-14.029587464
  9
$EXTMAX
 10
196.7604743903
 20
285.0
 30
119.4254502388
  9
$LIMMIN
 10
0.0
 20
0.0
  9
$LIMMAX
 10
0.0
 20
0.0
  9
$ORTHOMODE
 70
     0
  9
$REGENMODE
 70
     1
  9
$FILLMODE
 70
     1
  9
$QTEXTMODE
 70
     0
  9
$MIRRTEXT
 70
     1
  9
$LTSCALE
 40
1.0
  9
$ATTMODE
 70
     1
  9
$TEXTSIZE
 40
3.5
  9
$TRACEWID
 40
1.0
  9
$TEXTSTYLE
  7
Standard
  9
$CLAYER
  8
0
  9
$CELTYPE
  6
ByLayer
  9
$CECOLOR
 62
   256
  9
$CELTSCALE
 40
1.0
  9
$DISPSILH
 70
     0
  9
$DIMSCALE
 40
1.0
  9
$DIMASZ
 40
6.0
  9
$DIMEXO
 40
1.0
  9
$DIMDLI
 40
3.75
  9
$DIMRND
 40
0.0
  9
$DIMDLE
 40
0.0
  9
$DIMEXE
 40
1.0
  9
$DIMTP
 40
0.0
  9
$DIMTM
 40
0.0
  9
$DIMTXT
 40
9.8777777778
  9
$DIMCEN
 40
2.5
  9
$DIMTSZ
 40
0.0
  9
$DIMTOL
 70
     0
  9
$DIMLIM
 70
     0
  9
$DIMTIH
 70
     1
  9
$DIMTOH
 70
     1
  9
$DIMSE1
 70
     0
  9
$DIMSE2
 70
     0
  9
$DIMTAD
 70
     1
  9
$DIMZIN
 70
     0
  9
$DIMBLK
  1

  9
$DIMASO
 70
     1
  9
$DIMSHO
 70
     1
  9
$DIMPOST
  1

  9
$DIMAPOST
  1

  9
$DIMALT
 70
     0
  9
$DIMALTD
 70
     3
  9
$DIMALTF
 40
0.0393700787
  9
$DIMLFAC
 40
1.0
  9
$DIMTOFL
 70
     1
  9
$DIMTVP
 40
0.0
  9
$DIMTIX
 70
     0
  9
$DIMSOXD
 70
     0
  9
$DIMSAH
 70
     0
  9
$DIMBLK1
  1

  9
$DIMBLK2
  1

  9
$DIMSTYLE
  2
ISO-25
  9
$DIMCLRD
 70
     0
  9
$DIMCLRE
 70
     0
  9
$DIMCLRT
 70
     0
  9
$DIMTFAC
 40
1.0
  9
$DIMGAP
 40
1.524
  9
$DIMJUST
 70
     0
  9
$DIMSD1
 70
     0
  9
$DIMSD2
 70
     0
  9
$DIMTOLJ
 70
     0
  9
$DIMTZIN
 70
     0
  9
$DIMALTZ
 70
     0
  9
$DIMALTTZ
 70
     0
  9
$DIMUPT
 70
     0
  9
$DIMDEC
 70
     2
  9
$DIMTDEC
 70
     2
  9
$DIMALTU
 70
     2
  9
$DIMALTTD
 70
     3
  9
$DIMTXSTY
  7
Standard
  9
$DIMAUNIT
 70
     0
  9
$DIMADEC
 70
     0
  9
$DIMALTRND
 40
0.0
  9
$DIMAZIN
 70
     0
  9
$DIMDSEP
 70
    44
  9
$DIMATFIT
 70
     3
  9
$DIMFRAC
 70
     0
  9
$DIMLDRBLK
  1

  9
$DIMLUNIT
 70
     2
  9
$DIMLWD
 70
    -2
  9
$DIMLWE
 70
    -2
  9
$DIMTMOVE
 70
     0
  9
$DIMFXL
 40
1.0
  9
$DIMFXLON
 70
     0
  9
$DIMJOGANG
 40
0.7853981633974483
  9
$DIMTFILL
 70
     0
  9
$DIMTFILLCLR
 70
     0
  9
$DIMARCSYM
 70
     0
  9
$DIMLTYPE
  6

  9
$DIMLTEX1
  6

  9
$DIMLTEX2
  6

  9
$DIMTXTDIRECTION
 70
     0
  9
$LUNITS
 70
     2
  9
$LUPREC
 70
     1
  9
$SKETCHINC
 40
1.0
  9
$FILLETRAD
 40
10.0
  9
$AUNITS
 70
     0
  9
$AUPREC
 70
     0
  9
$MENU
  1
.
  9
$ELEVATION
 40
0.0
  9
$PELEVATION
 40
0.0
  9
$THICKNESS
 40
0.0
  9
$LIMCHECK
 70
     0
  9
$CHAMFERA
 40
10.0
  9
$CHAMFERB
 40
10.0
  9
$CHAMFERC
 40
20.0
  9
$CHAMFERD
 40
0.0
  9
$SKPOLY
 70
     0
  9
$TDCREATE
 40
2453354.092125822
  9
$TDUCREATE
 40
2453353.717125822
  9
$TDUPDATE
 40
2455355.638768426
  9
$TDUUPDATE
 40
2455355.263768426
  9
$TDINDWG
 40
0.0431481597
  9
$TDUSRTIMER
 40
0.0431481597
  9
$USRTIMER
 70
     1
  9
$ANGBASE
 50
0.0
  9
$ANGDIR
 70
     0
  9
$PDMODE
 70
     0
  9
$PDSIZE
 40
-1.0
  9
$PLINEWID
 40
0.0
  9
$SPLFRAME
 70
     0
  9
$SPLINETYPE
 70
     6
  9
$SPLINESEGS
 70
     8
  9
$HANDSEED
  5
355
  9
$SURFTAB1
 70
     6
  9
$SURFTAB2
 70
     6
  9
$SURFTYPE
 70
     6
  9
$SURFU
 70
     6
  9
$SURFV
 70
     6
  9
$UCSBASE
  2

  9
$UCSNAME
  2

  9
$UCSORG
 10
0.0
 20
0.0
 30
0.0
  9
$UCSXDIR
 10
1.0
 20
0.0
 30
0.0
  9
$UCSYDIR
 10
0.0
 20
1.0
 30
0.0
  9
$UCSORTHOREF
  2

  9
$UCSORTHOVIEW
 70
     0
  9
$UCSORGTOP
 10
0.0
 20
0.0
 30
0.0
  9
$UCSORGBOTTOM
 10
0.0
 20
0.0
 30
0.0
  9
$UCSORGLEFT
 10
0.0
 20
0.0
 30
0.0
  9
$UCSORGRIGHT
 10
0.0
 20
0.0
 30
0.0
  9
$UCSORGFRONT
 10
0.0
 20
0.0
 30
0.0
  9
$UCSORGBACK
 10
0.0
 20
0.0
 30
0.0
  9
$PUCSBASE
  2

  9
$PUCSNAME
  2

  9
$PUCSORG
 10
0.0
 20
0.0
 30
0.0
  9
$PUCSXDIR
 10
1.0
 20
0.0
 30
0.0
  9
$PUCSYDIR
 10
0.0
 20
1.0
 30
0.0
  9
$PUCSORTHOREF
  2

  9
$PUCSORTHOVIEW
 70
     0
  9
$PUCSORGTOP
 10
0.0
 20
0.0
 30
0.0
  9
$PUCSORGBOTTOM
 10
0.0
 20
0.0
 30
0.0
  9
$PUCSORGLEFT
 10
0.0
 20
0.0
 30
0.0
  9
$PUCSORGRIGHT
 10
0.0
 20
0.0
 30
0.0
  9
$PUCSORGFRONT
 10
0.0
 20
0.0
 30
0.0
  9
$PUCSORGBACK
 10
0.0
 20
0.0
 30
0.0
  9
$USERI1
 70
     0
  9
$USERI2
 70
     0
  9
$USERI3
 70
     0
  9
$USERI4
 70
     0
  9
$USERI5
 70
     0
  9
$USERR1
 40
0.0
  9
$USERR2
 40
0.0
  9
$USERR3
 40
0.0
  9
$USERR4
 40
0.0
  9
$USERR5
 40
0.0
  9
$WORLDVIEW
 70
     1
  9
$SHADEDGE
 70
     3
  9
$SHADEDIF
 70
    70
  9
$TILEMODE
 70
     1
  9
$MAXACTVP
 70
    64
  9
$PINSBASE
 10
0.0
 20
0.0
 30
0.0
  9
$PLIMCHECK
 70
     0
  9
$PEXTMIN
 10
0.0
 20
0.0
 30
0.0
  9
$PEXTMAX
 10
0.0
 20
0.0
 30
0.0
  9
$PLIMMIN
 10
0.0
 20
0.0
  9
$PLIMMAX
 10
0.0
 20
0.0
  9
$UNITMODE
 70
     0
  9
$VISRETAIN
 70
     1
  9
$PLINEGEN
 70
     0
  9
$PSLTSCALE
 70
     1
  9
$TREEDEPTH
 70
  3020
  9
$CMLSTYLE
  2
Standard
  9
$CMLJUST
 70
     0
  9
$CMLSCALE
 40
20.0
  9
$PROXYGRAPHICS
 70
     1
  9
$MEASUREMENT
 70
     1
  9
$CELWEIGHT
370
    -1
  9
$ENDCAPS
280
     0
  9
$JOINSTYLE
280
     0
  9
$LWDISPLAY
290
     1
  9
$INSUNITS
 70
     4
  9
$HYPERLINKBASE
  1

  9
$STYLESHEET
  1

  9
$XEDIT
290
     0
  9
$CEPSNTYPE
380
     0
  9
$PSTYLEMODE
290
     1
  9
$FINGERPRINTGUID
  2
{932A3C40-0538-464E-8EE5-EBB919234096}
  9
$VERSIONGUID
  2
{FAEB1C32-E019-11D5-929B-00C0DF256EC4}
  9
$EXTNAMES
290
     1
  9
$PSVPSCALE
 40
0.0
  9
$OLESTARTUP
290
     0
  9
$SORTENTS
280
   127
  9
$INDEXCTL
280
     0
  9
$HIDETEXT
280
     1
  9
$XCLIPFRAME
280
     0
  9
$HALOGAP
280
     0
  9
$OBSCOLOR
 70
   257
  9
$OBSLTYPE
280
     0
  9
$INTERSECTIONDISPLAY
280
     0
  9
$INTERSECTIONCOLOR
 70
   257
  9
$DIMASSOC
280
     2
  9
$PROJECTNAME
  1

  9
$CAMERADISPLAY
290
     0
  9
$LENSLENGTH
 40
50.0
  9
$CAMERAHEIGHT
 40
0.0
  9
$STEPSPERSEC
 40
2.0
  9
$STEPSIZE
 40
6.0
  9
$3DDWFPREC
 40
2.0
  9
$PSOLWIDTH
 40
0.25
  9
$PSOLHEIGHT
 40
4.0
  9
$LOFTANG1
 40
1.570796326794897
  9
$LOFTANG2
 40
1.570796326794897
  9
$LOFTMAG1
 40
0.0
  9
$LOFTMAG2
 40
0.0
  9
$LOFTPARAM
 70
     7
  9
$LOFTNORMALS
280
     1
  9
$LATITUDE
 40
37.795
  9
$LONGITUDE
 40
-122.394
  9
$NORTHDIRECTION
 40
0.0
  9
$TIMEZONE
 70
 -8000
  9
$LIGHTGLYPHDISPLAY
280
     1
  9
$TILEMODELIGHTSYNCH
280
     1
  9
$SOLIDHIST
280
     1
  9
$SHOWHIST
280
     1
  9
$DWFFRAME
280
     2
  9
$DGNFRAME
280
     2
  9
$REALWORLDSCALE
290
     1
  9
$INTERFERECOLOR
 62
   256
  9
$CSHADOW
280
     0
  9
$SHADOWPLANELOCATION
 40
0.0
  0
ENDSEC
  0
SECTION
  2
CLASSES
  0
CLASS
  1
ACDBDICTIONARYWDFLT
  2
AcDbDictionaryWithDefault
  3
ObjectDBX Classes
 90
        0
 91
        4
280
     0
281
     0
  0
CLASS
  1
ACDBPLACEHOLDER
  2
AcDbPlaceHolder
  3
ObjectDBX Classes
 90
        0
 91
        1
280
     0
281
     0
  0
CLASS
  1
LAYOUT
  2
AcDbLayout
  3
ObjectDBX Classes
 90
        0
 91
        1
280
     0
281
     0
  0
CLASS
  1
DICTIONARYVAR
  2
AcDbDictionaryVar
  3
ObjectDBX Classes
 90
        0
 91
        4
280
     0
281
     0
  0
CLASS
  1
TABLESTYLE
  2
AcDbTableStyle
  3
ObjectDBX Classes
 90
     4095
 91
        4
280
     0
281
     0
  0
CLASS
  1
SCALE
  2
AcDbScale
  3
ObjectDBX Classes
 90
     1153
 91
        4
280
     0
281
     0
  0
CLASS
  1
CELLSTYLEMAP
  2
AcDbCellStyleMap
  3
ObjectDBX Classes
 90
     1152
 91
        4
280
     0
281
     0
  0
ENDSEC
  0
SECTION
  2
TABLES
  0
TABLE
  2
VPORT
  5
8
330
0
100
AcDbSymbolTable
 70
     2
  0
VPORT
  5
97
330
8
100
AcDbSymbolTableRecord
100
AcDbViewportTableRecord
  2
*Active
 70
     0
 10
0.0
 20
0.0
 11
1.0
 21
1.0
 12
108.5104743903
 22
147.5
 13
0.0
 23
0.0
 14
10.0
 24
10.0
 15
10.0
 25
10.0
 16
0.0
 26
0.0
 36
1.0
 17
0.0
 27
0.0
 37
0.0
 40
280.5
 41
1.9729729729
 42
50.0
 43
0.0
 44
0.0
 50
0.0
 51
0.0
 71
    16
 72
  2000
 73
     1
 74
     3
 75
     0
 76
     0
 77
     0
 78
     0
281
     0
 65
     0
110
0.0
120
0.0
130
0.0
111
1.0
121
0.0
131
0.0
112
0.0
122
1.0
132
0.0
 79
     0
146
0.0
 60
     3
 61
     5
292
     1
282
     1
141
0.0
142
0.0
 63
   256
  0
ENDTAB
  0
TABLE
  2
LTYPE
  5
5
330
0
100
AcDbSymbolTable
 70
     6
  0
LTYPE
  5
14
330
5
100
AcDbSymbolTableRecord
100
AcDbLinetypeTableRecord
  2
ByBlock
 70
     0
  3

 72
    65
 73
     0
 40
0.0
  0
LTYPE
  5
15
330
5
100
AcDbSymbolTableRecord
100
AcDbLinetypeTableRecord
  2
ByLayer
 70
     0
  3

 72
    65
 73
     0
 40
0.0
  0
LTYPE
  5
16
330
5
100
AcDbSymbolTableRecord
100
AcDbLinetypeTableRecord
  2
Continuous
 70
     0
  3
Solid line
 72
    65
 73
     0
 40
0.0
  0
LTYPE
  5
2EF
330
5
100
AcDbSymbolTableRecord
100
AcDbLinetypeTableRecord
  2
HIDDEN
 70
     0
  3
Hidden __ __ __ __ __ __ __ __ __ __ __ __ __ __
 72
    65
 73
     2
 40
1.905
 49
1.27
 74
     4
 75
     0
340
0
 46
1.0
 50
0.0
 44
0.0
 45
0.0
 49
-0.635
 74
     4
 75
     0
340
0
 46
1.0
 50
0.0
 44
0.0
 45
0.0
  0
LTYPE
  5
2F0
330
5
100
AcDbSymbolTableRecord
100
AcDbLinetypeTableRecord
  2
PHANTOM
 70
     0
  3
Phantom ______  __  __  ______  __  __  ______
 72
    65
 73
     6
 40
12.7
 49
6.35
 74
     4
 75
     0
340
0
 46
1.0
 50
0.0
 44
0.0
 45
0.0
 49
-1.27
 74
     4
 75
     0
340
0
 46
1.0
 50
0.0
 44
0.0
 45
0.0
 49
1.27
 74
     4
 75
     0
340
0
 46
1.0
 50
0.0
 44
0.0
 45
0.0
 49
-1.27
 74
     4
 75
     0
340
0
 46
1.0
 50
0.0
 44
0.0
 45
0.0
 49
1.27
 74
     4
 75
     0
340
0
 46
1.0
 50
0.0
 44
0.0
 45
0.0
 49
-1.27
 74
     4
 75
     0
340
0
 46
1.0
 50
0.0
 44
0.0
 45
0.0
  0
LTYPE
  5
2F1
330
5
100
AcDbSymbolTableRecord
100
AcDbLinetypeTableRecord
  2
CENTER
 70
     0
  3
Center ____ _ ____ _ ____ _ ____ _ ____ _ ____
 72
    65
 73
     4
 40
10.16
 49
6.35
 74
     4
 75
     0
340
0
 46
1.0
 50
0.0
 44
0.0
 45
0.0
 49
-1.27
 74
     4
 75
     0
340
0
 46
1.0
 50
0.0
 44
0.0
 45
0.0
 49
1.27
 74
     4
 75
     0
340
0
 46
1.0
 50
0.0
 44
0.0
 45
0.0
 49
-1.27
 74
     4
 75
     0
340
0
 46
1.0
 50
0.0
 44
0.0
 45
0.0
  0
LTYPE
  5
2F2
330
5
100
AcDbSymbolTableRecord
100
AcDbLinetypeTableRecord
  2
CENTERX2
 70
     0
  3
Center (2x) ________  __  ________  __  _____
 72
    65
 73
     4
 40
20.32
 49
12.7
 74
     4
 75
     0
340
0
 46
1.0
 50
0.0
 44
0.0
 45
0.0
 49
-2.54
 74
     4
 75
     0
340
0
 46
1.0
 50
0.0
 44
0.0
 45
0.0
 49
2.54
 74
     4
 75
     0
340
0
 46
1.0
 50
0.0
 44
0.0
 45
0.0
 49
-2.54
 74
     4
 75
     0
340
0
 46
1.0
 50
0.0
 44
0.0
 45
0.0
  0
LTYPE
  5
2F3
330
5
100
AcDbSymbolTableRecord
100
AcDbLinetypeTableRecord
  2
DOT2
 70
     0
  3
Dot (.5x) ........................................
 72
    65
 73
     2
 40
0.635
 49
0.0
 74
     4
 75
     0
340
0
 46
1.0
 50
0.0
 44
0.0
 45
0.0
 49
-0.635
 74
     4
 75
     0
340
0
 46
1.0
 50
0.0
 44
0.0
 45
0.0
  0
ENDTAB
  0
TABLE
  2
LAYER
  5
2
330
0
100
AcDbSymbolTable
 70
     2
  0
LAYER
  5
10
330
2
100
AcDbSymbolTableRecord
100
AcDbLayerTableRecord
  2
0
 70
     0
 62
     7
  6
Continuous
370
    -3
390
F
347
0
  0
LAYER
  5
125
330
2
100
AcDbSymbolTableRecord
100
AcDbLayerTableRecord
  2
Defpoints
 70
     0
 62
     7
  6
Continuous
290
     0
370
    -3
390
F
347
0
  0
ENDTAB
  0
TABLE
  2
STYLE
  5
3
330
0
100
AcDbSymbolTable
 70
     3
  0
STYLE
  5
11
330
3
100
AcDbSymbolTableRecord
100
AcDbTextStyleTableRecord
  2
Standard
 70
     0
 40
0.0
 41
1.0
 50
0.0
 71
     0
 42
2.5
  3
txt
  4
bigfont
  0
STYLE
  5
37
330
3
100
AcDbSymbolTableRecord
100
AcDbTextStyleTableRecord
  2
SLDTEXTSTYLE0
 70
     0
 40
0.0
 41
0.7
 50
0.0
 71
     0
 42
0.2
  3
TXT
  4
bigfont
  0
STYLE
  5
153
330
3
100
AcDbSymbolTableRecord
100
AcDbTextStyleTableRecord
  2
SLDTEXTSTYLE1
 70
     0
 40
0.0
 41
0.4
 50
0.0
 71
     0
 42
0.2
  3
TXT
  4
bigfont
  0
ENDTAB
  0
TABLE
  2
VIEW
  5
6
330
0
100
AcDbSymbolTable
 70
     0
  0
ENDTAB
  0
TABLE
  2
UCS
  5
7
330
0
100
AcDbSymbolTable
 70
     0
  0
ENDTAB
  0
TABLE
  2
APPID
  5
9
330
0
100
AcDbSymbolTable
 70
     1
  0
APPID
  5
12
330
9
100
AcDbSymbolTableRecord
100
AcDbRegAppTableRecord
  2
ACAD
 70
     0
  0
ENDTAB
  0
TABLE
  2
DIMSTYLE
  5
A
330
0
100
AcDbSymbolTable
 70
     7
100
AcDbDimStyleTable
  0
DIMSTYLE
105
27
330
A
100
AcDbSymbolTableRecord
100
AcDbDimStyleTableRecord
  2
Standard
 70
     0
278
     0
340
11
  0
DIMSTYLE
105
2F4
330
A
100
AcDbSymbolTableRecord
100
AcDbDimStyleTableRecord
  2
ISO-25
 70
     0
 41
2.5
 42
0.625
 43
3.75
 44
1.25
 73
     0
 74
     0
 77
     1
 78
     8
140
2.5
141
2.5
143
0.0393700787
147
0.625
171
     3
172
     1
271
     2
272
     2
274
     3
278
    44
283
     0
284
     8
340
11
  0
DIMSTYLE
105
132
102
{ACAD_REACTORS
330
124
102
}
330
A
100
AcDbSymbolTableRecord
100
AcDbDimStyleTableRecord
  2
SLDDIMSTYLE0
 70
     0
 41
6.0
 44
0.0
 73
     0
 74
     0
 77
     3
 78
    12
140
4.9388888889
147
1.2347222222
173
     1
271
     1
272
     2
284
    12
340
11
341
2F5
343
2F5
344
2F5
  0
DIMSTYLE
105
14D
102
{ACAD_REACTORS
330
140
102
}
330
A
100
AcDbSymbolTableRecord
100
AcDbDimStyleTableRecord
  2
SLDDIMSTYLE1
 70
     0
  3
<>
 41
6.0
 44
0.0
 78
    12
140
4.2333333333
147
1.0583333333
173
     1
271
     1
272
     2
284
    12
340
37
341
2F5
343
2F5
344
2F5
  0
DIMSTYLE
105
163
102
{ACAD_REACTORS
330
155
102
}
330
A
100
AcDbSymbolTableRecord
100
AcDbDimStyleTableRecord
  2
SLDDIMSTYLE2
 70
     0
 41
6.0
 44
0.0
 73
     0
 74
     0
 77
     3
 78
    12
140
4.2333333333
147
1.0583333333
173
     1
271
     1
272
     2
284
    12
340
37
341
2F5
343
2F5
344
2F5
  0
DIMSTYLE
105
179
102
{ACAD_REACTORS
330
16B
330
29E
330
2B3
102
}
330
A
100
AcDbSymbolTableRecord
100
AcDbDimStyleTableRecord
  2
SLDDIMSTYLE3
 70
     0
 41
6.0
 44
0.0
 73
     0
 74
     0
 77
     3
 78
    12
140
4.2333333333
147
1.0583333333
173
     1
271
     1
272
     2
284
    12
340
37
341
2F5
343
2F5
344
2F5
  0
DIMSTYLE
105
190
102
{ACAD_REACTORS
330
180
102
}
330
A
100
AcDbSymbolTableRecord
100
AcDbDimStyleTableRecord
  2
SLDDIMSTYLE4
 70
     0
 41
6.0
 44
0.0
 73
     0
 74
     0
 77
     3
 78
    12
140
4.9388888889
147
1.2347222222
173
     1
179
     1
272
     2
284
    12
340
11
341
2F5
343
2F5
344
2F5
  0
ENDTAB
  0
TABLE
  2
BLOCK_RECORD
  5
1
330
0
100
AcDbSymbolTable
 70
    19
  0
BLOCK_RECORD
  5
1F
102
{ACAD_XDICTIONARY
360
34E
102
}
330
1
100
AcDbSymbolTableRecord
100
AcDbBlockTableRecord
  2
*Model_Space
340
22
 70
     0
280
     1
281
     0
  0
BLOCK_RECORD
  5
73
330
1
100
AcDbSymbolTableRecord
100
AcDbBlockTableRecord
  2
*Paper_Space
340
74
 70
     0
280
     1
281
     0
  0
BLOCK_RECORD
  5
2F5
330
1
100
AcDbSymbolTableRecord
100
AcDbBlockTableRecord
  2
_OPEN30
340
0
102
{BLKREFS
331
139
331
13A
331
14E
331
164
331
165
331
17A
331
17B
331
192
331
193
331
2AD
331
2AE
331
2C1
331
2C2
102
}
 70
     0
280
     1
281
     0
  0
BLOCK_RECORD
  5
23
330
1
100
AcDbSymbolTableRecord
100
AcDbBlockTableRecord
  2
*Paper_Space1
340
26
 70
     0
280
     1
281
     0
  0
BLOCK_RECORD
  5
39
330
1
100
AcDbSymbolTableRecord
100
AcDbBlockTableRecord
  2
SW_NOTE_0
340
0
102
{BLKREFS
331
3E
102
}
 70
     0
280
     1
281
     0
  0
BLOCK_RECORD
  5
126
330
1
100
AcDbSymbolTableRecord
100
AcDbBlockTableRecord
  2
*D3
340
0
 70
     0
280
     1
281
     0
  0
BLOCK_RECORD
  5
141
330
1
100
AcDbSymbolTableRecord
100
AcDbBlockTableRecord
  2
*D4
340
0
 70
     0
280
     1
281
     0
  0
BLOCK_RECORD
  5
156
330
1
100
AcDbSymbolTableRecord
100
AcDbBlockTableRecord
  2
*D5
340
0
 70
     0
280
     1
281
     0
  0
BLOCK_RECORD
  5
16C
330
1
100
AcDbSymbolTableRecord
100
AcDbBlockTableRecord
  2
*D6
340
0
 70
     0
280
     1
281
     0
  0
BLOCK_RECORD
  5
181
330
1
100
AcDbSymbolTableRecord
100
AcDbBlockTableRecord
  2
*D7
340
0
 70
     0
280
     1
281
     0
  0
BLOCK_RECORD
  5
198
330
1
100
AcDbSymbolTableRecord
100
AcDbBlockTableRecord
  2
SW_CENTERMARKSYMBOL_0
340
0
102
{BLKREFS
331
1A3
102
}
 70
     0
280
     1
281
     0
  0
BLOCK_RECORD
  5
1A4
330
1
100
AcDbSymbolTableRecord
100
AcDbBlockTableRecord
  2
SW_CENTERMARKSYMBOL_1
340
0
102
{BLKREFS
331
1AF
102
}
 70
     0
280
     1
281
     0
  0
BLOCK_RECORD
  5
1B0
330
1
100
AcDbSymbolTableRecord
100
AcDbBlockTableRecord
  2
SW_CENTERMARKSYMBOL_2
340
0
102
{BLKREFS
331
1BB
102
}
 70
     0
280
     1
281
     0
  0
BLOCK_RECORD
  5
1BC
330
1
100
AcDbSymbolTableRecord
100
AcDbBlockTableRecord
  2
SW_CENTERMARKSYMBOL_3
340
0
102
{BLKREFS
331
1C7
102
}
 70
     0
280
     1
281
     0
  0
BLOCK_RECORD
  5
1C8
330
1
100
AcDbSymbolTableRecord
100
AcDbBlockTableRecord
  2
SW_CENTERMARKSYMBOL_4
340
0
102
{BLKREFS
331
1D3
102
}
 70
     0
280
     1
281
     0
  0
BLOCK_RECORD
  5
1D4
330
1
100
AcDbSymbolTableRecord
100
AcDbBlockTableRecord
  2
SW_CENTERMARKSYMBOL_5
340
0
102
{BLKREFS
331
1DF
102
}
 70
     0
280
     1
281
     0
  0
BLOCK_RECORD
  5
1E0
330
1
100
AcDbSymbolTableRecord
100
AcDbBlockTableRecord
  2
SW_CENTERMARKSYMBOL_6
340
0
102
{BLKREFS
331
1EB
102
}
 70
     0
280
     1
281
     0
  0
BLOCK_RECORD
  5
1EC
330
1
100
AcDbSymbolTableRecord
100
AcDbBlockTableRecord
  2
SW_CENTERMARKSYMBOL_7
340
0
102
{BLKREFS
331
1F7
102
}
 70
     0
280
     1
281
     0
  0
BLOCK_RECORD
  5
1F8
330
1
100
AcDbSymbolTableRecord
100
AcDbBlockTableRecord
  2
SW_CENTERMARKSYMBOL_8
340
0
102
{BLKREFS
331
203
102
}
 70
     0
280
     1
281
     0
  0
BLOCK_RECORD
  5
29F
330
1
100
AcDbSymbolTableRecord
100
AcDbBlockTableRecord
  2
*D17
340
0
 70
     0
280
     1
281
     0
  0
BLOCK_RECORD
  5
2B4
330
1
100
AcDbSymbolTableRecord
100
AcDbBlockTableRecord
  2
*D18
340
0
 70
     0
280
     1
281
     0
  0
ENDTAB
  0
ENDSEC
  0
SECTION
  2
BLOCKS
  0
BLOCK
  5
20
330
1F
100
AcDbEntity
  8
0
100
AcDbBlockBegin
  2
*Model_Space
 70
     0
 10
0.0
 20
0.0
 30
0.0
  3
*Model_Space
  1

  0
ENDBLK
  5
21
330
1F
100
AcDbEntity
  8
0
100
AcDbBlockEnd
  0
BLOCK
  5
75
330
73
100
AcDbEntity
 67
     1
  8
0
100
AcDbBlockBegin
  2
*Paper_Space
 70
     0
 10
0.0
 20
0.0
 30
0.0
  3
*Paper_Space
  1

  0
ENDBLK
  5
76
330
73
100
AcDbEntity
 67
     1
  8
0
100
AcDbBlockEnd
  0
BLOCK
  5
2F6
330
2F5
100
AcDbEntity
  8
0
100
AcDbBlockBegin
  2
_OPEN30
 70
     0
 10
0.0
 20
0.0
 30
0.0
  3
_OPEN30
  1

  0
LINE
  5
136
330
2F5
100
AcDbEntity
  8
0
  6
ByBlock
 62
     0
370
    -2
100
AcDbLine
 10
-1.0
 20
0.267949
 30
0.0
 11
0.0
 21
0.0
 31
0.0
  0
LINE
  5
137
330
2F5
100
AcDbEntity
  8
0
  6
ByBlock
 62
     0
370
    -2
100
AcDbLine
 10
0.0
 20
0.0
 30
0.0
 11
-1.0
 21
-0.267949
 31
0.0
  0
LINE
  5
138
330
2F5
100
AcDbEntity
  8
0
  6
ByBlock
 62
     0
370
    -2
100
AcDbLine
 10
0.0
 20
0.0
 30
0.0
 11
-1.0
 21
0.0
 31
0.0
  0
ENDBLK
  5
2F7
330
2F5
100
AcDbEntity
  8
0
100
AcDbBlockEnd
  0
BLOCK
  5
2FB
330
23
100
AcDbEntity
  8
0
100
AcDbBlockBegin
  2
*Paper_Space1
 70
     0
 10
0.0
 20
0.0
 30
0.0
  3
*Paper_Space1
  1

  0
ENDBLK
  5
2FC
330
23
100
AcDbEntity
  8
0
100
AcDbBlockEnd
  0
BLOCK
  5
2FD
330
39
100
AcDbEntity
  8
0
100
AcDbBlockBegin
  2
SW_NOTE_0
 70
     0
 10
0.0
 20
0.0
 30
0.0
  3
SW_NOTE_0
  1

  0
MTEXT
  5
3C
330
39
100
AcDbEntity
  8
0
  6
Continuous
 62
     7
370
     0
100
AcDbMText
 10
0.0
 20
4.9260606061
 30
0.0
 40
4.2333333333
 41
0.0
 46
0.0
 71
     1
 72
     1
  1
チャックワンタッチ自動
  7
SLDTEXTSTYLE0
 73
     1
 44
1.0
  0
MTEXT
  5
3D
330
39
100
AcDbEntity
  8
0
  6
Continuous
 62
     7
370
     0
100
AcDbMText
 10
3.6752577871
 20
-0.7183837702
 30
0.0
 40
4.2333333333
 41
0.0
 46
0.0
 71
     1
 72
     1
  1
（多関節ロボット用）
  7
SLDTEXTSTYLE0
 73
     1
 44
1.0
  0
ENDBLK
  5
2FE
330
39
100
AcDbEntity
  8
0
100
AcDbBlockEnd
  0
BLOCK
  5
2FF
330
126
100
AcDbEntity
  8
0
100
AcDbBlockBegin
  2
*D3
 70
     1
 10
0.0
 20
0.0
 30
0.0
  3
*D3
  1

  0
INSERT
  5
139
330
126
100
AcDbEntity
  8
0
  6
Continuous
 62
     7
370
     0
100
AcDbBlockReference
  2
_OPEN30
 10
90.1581623232
 20
101.473241243
 30
0.1
 41
6.0
 42
6.0
 50
180.0
  0
INSERT
  5
13A
330
126
100
AcDbEntity
  8
0
  6
Continuous
 62
     7
370
     0
100
AcDbBlockReference
  2
_OPEN30
 10
121.6581623232
 20
101.473241243
 30
0.1
 41
6.0
 42
6.0
  0
LINE
  5
13B
330
126
100
AcDbEntity
  8
0
  6
Continuous
 62
     7
370
     0
100
AcDbLine
 10
90.1581623232
 20
136.5266237092
 30
0.0
 11
90.1581623232
 21
100.473241243
 31
0.0
  0
LINE
  5
13C
330
126
100
AcDbEntity
  8
0
  6
Continuous
 62
     7
370
     0
100
AcDbLine
 10
121.6581623232
 20
136.5266237092
 30
0.0
 11
121.6581623232
 21
100.473241243
 31
0.0
  0
LINE
  5
13D
330
126
100
AcDbEntity
  8
0
  6
Continuous
 62
     7
370
     0
100
AcDbLine
 10
90.1581623232
 20
101.473241243
 30
0.0
 11
121.6581623232
 21
101.473241243
 31
0.0
  0
MTEXT
  5
13E
330
126
100
AcDbEntity
  8
0
  6
Continuous
 62
     7
370
     0
100
AcDbMText
 10
95.438743911
 20
106.2481631122
 30
0.0
 40
3.7041666667
 41
0.0
 46
0.0
 71
     1
 72
     1
  1
P.C.D.
 73
     1
 44
1.0
  0
MTEXT
  5
13F
330
126
100
AcDbEntity
  8
0
  6
Continuous
 62
     7
370
     0
100
AcDbMText
 10
107.9699078326
 20
106.2481631122
 30
0.0
 40
3.7041666667
 41
0.0
 46
0.0
 71
     1
 72
     1
  1
31.5
 73
     1
 44
1.0
  0
ENDBLK
  5
300
330
126
100
AcDbEntity
  8
0
100
AcDbBlockEnd
  0
BLOCK
  5
301
330
141
100
AcDbEntity
  8
0
100
AcDbBlockBegin
  2
*D4
 70
     1
 10
0.0
 20
0.0
 30
0.0
  3
*D4
  1

  0
INSERT
  5
14E
330
141
100
AcDbEntity
  8
0
  6
Continuous
 62
     7
370
     0
100
AcDbBlockReference
  2
_OPEN30
 10
93.5159974236
 20
150.3471201463
 30
119.4254502388
 41
6.0
 42
6.0
 50
306.7074965437
  0
LINE
  5
14F
330
141
100
AcDbEntity
  8
0
  6
Continuous
 62
     7
370
     0
100
AcDbLine
 10
93.5159974236
 20
150.3471201463
 30
0.0
 11
77.919247591
 21
171.2660526535
 31
0.0
  0
LINE
  5
150
330
141
100
AcDbEntity
  8
0
  6
Continuous
 62
     7
370
     0
100
AcDbLine
 10
77.919247591
 20
171.2660526535
 30
0.0
 11
33.3653316175
 21
171.2660526535
 31
0.0
  0
MTEXT
  5
151
330
141
100
AcDbEntity
  8
0
  6
Continuous
 62
     7
370
     0
100
AcDbMText
 10
34.9528316175
 20
174.9605979916
 30
0.0
 40
3.175
 41
0.0
 46
0.0
 71
     1
 72
     1
  1
4-M5(90
  7
SLDTEXTSTYLE0
 73
     1
 44
1.0
  0
MTEXT
  5
152
330
141
100
AcDbEntity
  8
0
  6
Continuous
 62
     7
370
     0
100
AcDbMText
 10
49.7694976394
 20
174.9605979916
 30
0.0
 40
3.175
 41
0.0
 46
0.0
 71
     1
 72
     1
  1
%%d
  7
SLDTEXTSTYLE0
 73
     1
 44
1.0
  0
MTEXT
  5
154
330
141
100
AcDbEntity
  8
0
  6
Continuous
 62
     7
370
     0
100
AcDbMText
 10
51.4628320699
 20
174.9605979916
 30
0.0
 40
3.175
 41
0.0
 46
0.0
 71
     1
 72
     1
  1
等配)      
  7
SLDTEXTSTYLE1
 73
     1
 44
1.0
  0
ENDBLK
  5
302
330
141
100
AcDbEntity
  8
0
100
AcDbBlockEnd
  0
BLOCK
  5
303
330
156
100
AcDbEntity
  8
0
100
AcDbBlockBegin
  2
*D5
 70
     1
 10
0.0
 20
0.0
 30
0.0
  3
*D5
  1

  0
INSERT
  5
164
330
156
100
AcDbEntity
  8
0
  6
Continuous
 62
     7
370
     0
100
AcDbBlockReference
  2
_OPEN30
 10
129.8632807559
 20
86.1996678227
 30
119.4254502388
 41
6.0
 42
6.0
 50
359.9498889109
  0
INSERT
  5
165
330
156
100
AcDbEntity
  8
0
  6
Continuous
 62
     7
370
     0
100
AcDbBlockReference
  2
_OPEN30
 10
81.8632991142
 20
86.2416487852
 30
119.4254502388
 41
6.0
 42
6.0
 50
179.9498889109
  0
LINE
  5
166
330
156
100
AcDbEntity
  8
0
  6
Continuous
 62
     7
370
     0
100
AcDbLine
 10
129.9072785407
 20
136.5056336105
 30
0.0
 11
129.8624061525
 21
85.1996682052
 31
0.0
  0
LINE
  5
167
330
156
100
AcDbEntity
  8
0
  6
Continuous
 62
     7
370
     0
100
AcDbLine
 10
81.907296899
 20
136.5476145729
 30
0.0
 11
81.8624245109
 21
85.2416491676
 31
0.0
  0
LINE
  5
168
330
156
100
AcDbEntity
  8
0
  6
Continuous
 62
     7
370
     0
100
AcDbLine
 10
129.8632807559
 20
86.1996678227
 30
0.0
 11
81.8632991142
 21
86.2416487852
 31
0.0
  0
MTEXT
  5
169
330
156
100
AcDbEntity
  8
0
  6
Continuous
 62
     7
370
     0
100
AcDbMText
 10
98.444307393
 20
89.9216937248
 30
0.0
 40
3.175
 41
0.0
 46
0.0
 71
     1
 72
     1
  1
%%c
  7
SLDTEXTSTYLE0
 11
0.999999617534387
 21
-0.0008746033842696963
 31
0.0
 73
     1
 44
1.0
  0
MTEXT
  5
16A
330
156
100
AcDbEntity
  8
0
  6
Continuous
 62
     7
370
     0
100
AcDbMText
 10
102.4643010627
 20
89.9181778234
 30
0.0
 40
3.175
 41
0.0
 46
0.0
 71
     1
 72
     1
  1
48
  7
SLDTEXTSTYLE0
 11
0.999999617534387
 21
-0.0008746033842696963
 31
0.0
 73
     1
 44
1.0
  0
ENDBLK
  5
304
330
156
100
AcDbEntity
  8
0
100
AcDbBlockEnd
  0
BLOCK
  5
305
330
16C
100
AcDbEntity
  8
0
100
AcDbBlockBegin
  2
*D6
 70
     1
 10
0.0
 20
0.0
 30
0.0
  3
*D6
  1

  0
INSERT
  5
17A
330
16C
100
AcDbEntity
  8
0
  6
Continuous
 62
     7
370
     0
100
AcDbBlockReference
  2
_OPEN30
 10
63.1917777212
 20
161.0266237092
 30
119.4254502388
 41
6.0
 42
6.0
 50
90.0
  0
INSERT
  5
17B
330
16C
100
AcDbEntity
  8
0
  6
Continuous
 62
     7
370
     0
100
AcDbBlockReference
  2
_OPEN30
 10
63.1917777212
 20
113.5266237092
 30
119.4254502388
 41
6.0
 42
6.0
 50
270.0
  0
LINE
  5
17C
330
16C
100
AcDbEntity
  8
0
  6
Continuous
 62
     7
370
     0
100
AcDbLine
 10
100.0347651508
 20
161.0266237092
 30
0.0
 11
62.1917777212
 21
161.0266237092
 31
0.0
  0
LINE
  5
17D
330
16C
100
AcDbEntity
  8
0
  6
Continuous
 62
     7
370
     0
100
AcDbLine
 10
104.9081623232
 20
113.5266237092
 30
0.0
 11
62.1917777212
 21
113.5266237092
 31
0.0
  0
LINE
  5
17E
330
16C
100
AcDbEntity
  8
0
  6
Continuous
 62
     7
370
     0
100
AcDbLine
 10
63.1917777212
 20
161.0266237092
 30
0.0
 11
63.1917777212
 21
113.5266237092
 31
0.0
  0
MTEXT
  5
17F
330
16C
100
AcDbEntity
  8
0
  6
Continuous
 62
     7
370
     0
100
AcDbMText
 10
59.497232383
 20
133.0441897309
 30
0.0
 40
3.175
 41
0.0
 46
0.0
 71
     1
 72
     1
  1
47.5
  7
SLDTEXTSTYLE0
 11
-7.044197039909883E-15
 21
1.0
 31
0.0
 73
     1
 44
1.0
  0
ENDBLK
  5
306
330
16C
100
AcDbEntity
  8
0
100
AcDbBlockEnd
  0
BLOCK
  5
307
330
181
100
AcDbEntity
  8
0
100
AcDbBlockBegin
  2
*D7
 70
     1
 10
0.0
 20
0.0
 30
0.0
  3
*D7
  1

  0
ARC
  5
191
330
181
100
AcDbEntity
  8
0
  6
Continuous
 62
     7
370
     0
100
AcDbCircle
 10
105.9081623232
 20
137.5266237092
 30
0.0
 40
37.36178183071422
100
AcDbArc
 50
0.0
 51
45.0
  0
INSERT
  5
192
330
181
100
AcDbEntity
  8
0
  6
Continuous
 62
     7
370
     0
100
AcDbBlockReference
  2
_OPEN30
 10
143.2699441539
 20
137.5266237092
 30
119.4254502388
 41
6.0
 42
6.0
 50
274.5616707123
  0
INSERT
  5
193
330
181
100
AcDbEntity
  8
0
  6
Continuous
 62
     7
370
     0
100
AcDbBlockReference
  2
_OPEN30
 10
132.3269316129
 20
163.9453929989
 30
119.4254502388
 41
6.0
 42
6.0
 50
130.4383292877
  0
LINE
  5
194
330
181
100
AcDbEntity
  8
0
  6
Continuous
 62
     7
370
     0
100
AcDbLine
 10
133.4081623232
 20
137.5266237092
 30
0.0
 11
144.2699441539
 21
137.5266237092
 31
0.0
  0
LINE
  5
195
330
181
100
AcDbEntity
  8
0
  6
Continuous
 62
     7
370
     0
100
AcDbLine
 10
121.0048921015
 20
152.6233534876
 30
0.0
 11
133.0340383941
 21
164.6524997801
 31
0.0
  0
MTEXT
  5
196
330
181
100
AcDbEntity
  8
0
  6
Continuous
 62
     7
370
     0
100
AcDbMText
 10
142.9477710166
 20
158.2136110891
 30
0.0
 40
3.7041666667
 41
0.0
 46
0.0
 71
     1
 72
     1
  1
45%%d
 11
0.3826834323650842
 21
-0.9238795325112892
 31
0.0
 73
     1
 44
1.0
  0
ENDBLK
  5
308
330
181
100
AcDbEntity
  8
0
100
AcDbBlockEnd
  0
BLOCK
  5
309
330
198
100
AcDbEntity
  8
0
100
AcDbBlockBegin
  2
SW_CENTERMARKSYMBOL_0
 70
     0
 10
0.0
 20
0.0
 30
0.0
  3
SW_CENTERMARKSYMBOL_0
  1

  0
LINE
  5
19B
330
198
100
AcDbEntity
  8
0
  6
Continuous
 62
     7
370
     0
100
AcDbLine
 10
0.0
 20
0.0
 30
0.0
 11
-1.767766953
 21
1.767766953
 31
0.0
  0
LINE
  5
19C
330
198
100
AcDbEntity
  8
0
  6
Continuous
 62
     7
370
     0
100
AcDbLine
 10
0.0
 20
0.0
 30
0.0
 11
-1.767766953
 21
-1.767766953
 31
0.0
  0
LINE
  5
19D
330
198
100
AcDbEntity
  8
0
  6
Continuous
 62
     7
370
     0
100
AcDbLine
 10
0.0
 20
0.0
 30
0.0
 11
1.767766953
 21
-1.767766953
 31
0.0
  0
LINE
  5
19E
330
198
100
AcDbEntity
  8
0
  6
Continuous
 62
     7
370
     0
100
AcDbLine
 10
0.0
 20
0.0
 30
0.0
 11
1.767766953
 21
1.767766953
 31
0.0
  0
LINE
  5
19F
330
198
100
AcDbEntity
  8
0
  6
Continuous
 62
     7
370
     0
100
AcDbLine
 10
-1.767766953
 20
1.767766953
 30
0.0
 11
-3.2526911935
 21
3.2526911935
 31
0.0
  0
LINE
  5
1A0
330
198
100
AcDbEntity
  8
0
  6
Continuous
 62
     7
370
     0
100
AcDbLine
 10
-1.767766953
 20
-1.767766953
 30
0.0
 11
-3.2526911935
 21
-3.2526911935
 31
0.0
  0
LINE
  5
1A1
330
198
100
AcDbEntity
  8
0
  6
Continuous
 62
     7
370
     0
100
AcDbLine
 10
1.767766953
 20
-1.767766953
 30
0.0
 11
3.2693641195
 21
-3.2693641195
 31
0.0
  0
LINE
  5
1A2
330
198
100
AcDbEntity
  8
0
  6
Continuous
 62
     7
370
     0
100
AcDbLine
 10
1.767766953
 20
1.767766953
 30
0.0
 11
3.2526911935
 21
3.2526911935
 31
0.0
  0
ENDBLK
  5
30A
330
198
100
AcDbEntity
  8
0
100
AcDbBlockEnd
  0
BLOCK
  5
30B
330
1A4
100
AcDbEntity
  8
0
100
AcDbBlockBegin
  2
SW_CENTERMARKSYMBOL_1
 70
     0
 10
0.0
 20
0.0
 30
0.0
  3
SW_CENTERMARKSYMBOL_1
  1

  0
LINE
  5
1A7
330
1A4
100
AcDbEntity
  8
0
  6
Continuous
 62
     7
370
     0
100
AcDbLine
 10
0.0
 20
0.0
 30
0.0
 11
-1.767766953
 21
1.767766953
 31
0.0
  0
LINE
  5
1A8
330
1A4
100
AcDbEntity
  8
0
  6
Continuous
 62
     7
370
     0
100
AcDbLine
 10
0.0
 20
0.0
 30
0.0
 11
-1.767766953
 21
-1.767766953
 31
0.0
  0
LINE
  5
1A9
330
1A4
100
AcDbEntity
  8
0
  6
Continuous
 62
     7
370
     0
100
AcDbLine
 10
0.0
 20
0.0
 30
0.0
 11
1.767766953
 21
-1.767766953
 31
0.0
  0
LINE
  5
1AA
330
1A4
100
AcDbEntity
  8
0
  6
Continuous
 62
     7
370
     0
100
AcDbLine
 10
0.0
 20
0.0
 30
0.0
 11
1.767766953
 21
1.767766953
 31
0.0
  0
LINE
  5
1AB
330
1A4
100
AcDbEntity
  8
0
  6
Continuous
 62
     7
370
     0
100
AcDbLine
 10
-1.767766953
 20
1.767766953
 30
0.0
 11
-3.2526911935
 21
3.2526911935
 31
0.0
  0
LINE
  5
1AC
330
1A4
100
AcDbEntity
  8
0
  6
Continuous
 62
     7
370
     0
100
AcDbLine
 10
-1.767766953
 20
-1.767766953
 30
0.0
 11
-3.2526911935
 21
-3.2526911935
 31
0.0
  0
LINE
  5
1AD
330
1A4
100
AcDbEntity
  8
0
  6
Continuous
 62
     7
370
     0
100
AcDbLine
 10
1.767766953
 20
-1.767766953
 30
0.0
 11
3.2526911935
 21
-3.2526911935
 31
0.0
  0
LINE
  5
1AE
330
1A4
100
AcDbEntity
  8
0
  6
Continuous
 62
     7
370
     0
100
AcDbLine
 10
1.767766953
 20
1.767766953
 30
0.0
 11
3.2526911935
 21
3.2526911935
 31
0.0
  0
ENDBLK
  5
30C
330
1A4
100
AcDbEntity
  8
0
100
AcDbBlockEnd
  0
BLOCK
  5
30D
330
1B0
100
AcDbEntity
  8
0
100
AcDbBlockBegin
  2
SW_CENTERMARKSYMBOL_2
 70
     0
 10
0.0
 20
0.0
 30
0.0
  3
SW_CENTERMARKSYMBOL_2
  1

  0
LINE
  5
1B3
330
1B0
100
AcDbEntity
  8
0
  6
Continuous
 62
     7
370
     0
100
AcDbLine
 10
0.0
 20
0.0
 30
0.0
 11
0.0
 21
2.5
 31
0.0
  0
LINE
  5
1B4
330
1B0
100
AcDbEntity
  8
0
  6
Continuous
 62
     7
370
     0
100
AcDbLine
 10
0.0
 20
0.0
 30
0.0
 11
-2.5
 21
0.0
 31
0.0
  0
LINE
  5
1B5
330
1B0
100
AcDbEntity
  8
0
  6
Continuous
 62
     7
370
     0
100
AcDbLine
 10
0.0
 20
0.0
 30
0.0
 11
0.0
 21
-2.5
 31
0.0
  0
LINE
  5
1B6
330
1B0
100
AcDbEntity
  8
0
  6
Continuous
 62
     7
370
     0
100
AcDbLine
 10
0.0
 20
0.0
 30
0.0
 11
2.5
 21
0.0
 31
0.0
  0
LINE
  5
1B7
330
1B0
100
AcDbEntity
  8
0
  6
Continuous
 62
     7
370
     0
100
AcDbLine
 10
0.0
 20
2.5
 30
0.0
 11
0.0
 21
4.15
 31
0.0
  0
LINE
  5
1B8
330
1B0
100
AcDbEntity
  8
0
  6
Continuous
 62
     7
370
     0
100
AcDbLine
 10
-2.5
 20
0.0
 30
0.0
 11
-4.15
 21
0.0
 31
0.0
  0
LINE
  5
1B9
330
1B0
100
AcDbEntity
  8
0
  6
Continuous
 62
     7
370
     0
100
AcDbLine
 10
0.0
 20
-2.5
 30
0.0
 11
0.0
 21
-4.15
 31
0.0
  0
LINE
  5
1BA
330
1B0
100
AcDbEntity
  8
0
  6
Continuous
 62
     7
370
     0
100
AcDbLine
 10
2.5
 20
0.0
 30
0.0
 11
4.15
 21
0.0
 31
0.0
  0
ENDBLK
  5
30E
330
1B0
100
AcDbEntity
  8
0
100
AcDbBlockEnd
  0
BLOCK
  5
30F
330
1BC
100
AcDbEntity
  8
0
100
AcDbBlockBegin
  2
SW_CENTERMARKSYMBOL_3
 70
     0
 10
0.0
 20
0.0
 30
0.0
  3
SW_CENTERMARKSYMBOL_3
  1

  0
LINE
  5
1BF
330
1BC
100
AcDbEntity
  8
0
  6
Continuous
 62
     7
370
     0
100
AcDbLine
 10
0.0
 20
0.0
 30
0.0
 11
0.0
 21
2.5
 31
0.0
  0
LINE
  5
1C0
330
1BC
100
AcDbEntity
  8
0
  6
Continuous
 62
     7
370
     0
100
AcDbLine
 10
0.0
 20
0.0
 30
0.0
 11
-2.5
 21
0.0
 31
0.0
  0
LINE
  5
1C1
330
1BC
100
AcDbEntity
  8
0
  6
Continuous
 62
     7
370
     0
100
AcDbLine
 10
0.0
 20
0.0
 30
0.0
 11
0.0
 21
-2.5
 31
0.0
  0
LINE
  5
1C2
330
1BC
100
AcDbEntity
  8
0
  6
Continuous
 62
     7
370
     0
100
AcDbLine
 10
0.0
 20
0.0
 30
0.0
 11
2.5
 21
0.0
 31
0.0
  0
LINE
  5
1C3
330
1BC
100
AcDbEntity
  8
0
  6
Continuous
 62
     7
370
     0
100
AcDbLine
 10
0.0
 20
2.5
 30
0.0
 11
0.0
 21
4.15
 31
0.0
  0
LINE
  5
1C4
330
1BC
100
AcDbEntity
  8
0
  6
Continuous
 62
     7
370
     0
100
AcDbLine
 10
-2.5
 20
0.0
 30
0.0
 11
-4.15
 21
0.0
 31
0.0
  0
LINE
  5
1C5
330
1BC
100
AcDbEntity
  8
0
  6
Continuous
 62
     7
370
     0
100
AcDbLine
 10
0.0
 20
-2.5
 30
0.0
 11
0.0
 21
-4.15
 31
0.0
  0
LINE
  5
1C6
330
1BC
100
AcDbEntity
  8
0
  6
Continuous
 62
     7
370
     0
100
AcDbLine
 10
2.5
 20
0.0
 30
0.0
 11
4.15
 21
0.0
 31
0.0
  0
ENDBLK
  5
310
330
1BC
100
AcDbEntity
  8
0
100
AcDbBlockEnd
  0
BLOCK
  5
311
330
1C8
100
AcDbEntity
  8
0
100
AcDbBlockBegin
  2
SW_CENTERMARKSYMBOL_4
 70
     0
 10
0.0
 20
0.0
 30
0.0
  3
SW_CENTERMARKSYMBOL_4
  1

  0
LINE
  5
1CB
330
1C8
100
AcDbEntity
  8
0
  6
Continuous
 62
     7
370
     0
100
AcDbLine
 10
0.0
 20
0.0
 30
0.0
 11
-1.767766953
 21
1.767766953
 31
0.0
  0
LINE
  5
1CC
330
1C8
100
AcDbEntity
  8
0
  6
Continuous
 62
     7
370
     0
100
AcDbLine
 10
0.0
 20
0.0
 30
0.0
 11
-1.767766953
 21
-1.767766953
 31
0.0
  0
LINE
  5
1CD
330
1C8
100
AcDbEntity
  8
0
  6
Continuous
 62
     7
370
     0
100
AcDbLine
 10
0.0
 20
0.0
 30
0.0
 11
1.767766953
 21
-1.767766953
 31
0.0
  0
LINE
  5
1CE
330
1C8
100
AcDbEntity
  8
0
  6
Continuous
 62
     7
370
     0
100
AcDbLine
 10
0.0
 20
0.0
 30
0.0
 11
1.767766953
 21
1.767766953
 31
0.0
  0
LINE
  5
1CF
330
1C8
100
AcDbEntity
  8
0
  6
Continuous
 62
     7
370
     0
100
AcDbLine
 10
-1.767766953
 20
1.767766953
 30
0.0
 11
-3.2526911935
 21
3.2526911935
 31
0.0
  0
LINE
  5
1D0
330
1C8
100
AcDbEntity
  8
0
  6
Continuous
 62
     7
370
     0
100
AcDbLine
 10
-1.767766953
 20
-1.767766953
 30
0.0
 11
-3.2526911935
 21
-3.2526911935
 31
0.0
  0
LINE
  5
1D1
330
1C8
100
AcDbEntity
  8
0
  6
Continuous
 62
     7
370
     0
100
AcDbLine
 10
1.767766953
 20
-1.767766953
 30
0.0
 11
3.2526911935
 21
-3.2526911935
 31
0.0
  0
LINE
  5
1D2
330
1C8
100
AcDbEntity
  8
0
  6
Continuous
 62
     7
370
     0
100
AcDbLine
 10
1.767766953
 20
1.767766953
 30
0.0
 11
3.2526911935
 21
3.2526911935
 31
0.0
  0
ENDBLK
  5
312
330
1C8
100
AcDbEntity
  8
0
100
AcDbBlockEnd
  0
BLOCK
  5
313
330
1D4
100
AcDbEntity
  8
0
100
AcDbBlockBegin
  2
SW_CENTERMARKSYMBOL_5
 70
     0
 10
0.0
 20
0.0
 30
0.0
  3
SW_CENTERMARKSYMBOL_5
  1

  0
LINE
  5
1D7
330
1D4
100
AcDbEntity
  8
0
  6
Continuous
 62
     7
370
     0
100
AcDbLine
 10
0.0
 20
0.0
 30
0.0
 11
-1.767766953
 21
1.767766953
 31
0.0
  0
LINE
  5
1D8
330
1D4
100
AcDbEntity
  8
0
  6
Continuous
 62
     7
370
     0
100
AcDbLine
 10
0.0
 20
0.0
 30
0.0
 11
-1.767766953
 21
-1.767766953
 31
0.0
  0
LINE
  5
1D9
330
1D4
100
AcDbEntity
  8
0
  6
Continuous
 62
     7
370
     0
100
AcDbLine
 10
0.0
 20
0.0
 30
0.0
 11
1.767766953
 21
-1.767766953
 31
0.0
  0
LINE
  5
1DA
330
1D4
100
AcDbEntity
  8
0
  6
Continuous
 62
     7
370
     0
100
AcDbLine
 10
0.0
 20
0.0
 30
0.0
 11
1.767766953
 21
1.767766953
 31
0.0
  0
LINE
  5
1DB
330
1D4
100
AcDbEntity
  8
0
  6
Continuous
 62
     7
370
     0
100
AcDbLine
 10
-1.767766953
 20
1.767766953
 30
0.0
 11
-3.2526911935
 21
3.2526911935
 31
0.0
  0
LINE
  5
1DC
330
1D4
100
AcDbEntity
  8
0
  6
Continuous
 62
     7
370
     0
100
AcDbLine
 10
-1.767766953
 20
-1.767766953
 30
0.0
 11
-3.2526911935
 21
-3.2526911935
 31
0.0
  0
LINE
  5
1DD
330
1D4
100
AcDbEntity
  8
0
  6
Continuous
 62
     7
370
     0
100
AcDbLine
 10
1.767766953
 20
-1.767766953
 30
0.0
 11
3.2526911935
 21
-3.2526911935
 31
0.0
  0
LINE
  5
1DE
330
1D4
100
AcDbEntity
  8
0
  6
Continuous
 62
     7
370
     0
100
AcDbLine
 10
1.767766953
 20
1.767766953
 30
0.0
 11
3.2526911935
 21
3.2526911935
 31
0.0
  0
ENDBLK
  5
314
330
1D4
100
AcDbEntity
  8
0
100
AcDbBlockEnd
  0
BLOCK
  5
315
330
1E0
100
AcDbEntity
  8
0
100
AcDbBlockBegin
  2
SW_CENTERMARKSYMBOL_6
 70
     0
 10
0.0
 20
0.0
 30
0.0
  3
SW_CENTERMARKSYMBOL_6
  1

  0
LINE
  5
1E3
330
1E0
100
AcDbEntity
  8
0
  6
Continuous
 62
     7
370
     0
100
AcDbLine
 10
0.0
 20
0.0
 30
0.0
 11
0.0
 21
2.5
 31
0.0
  0
LINE
  5
1E4
330
1E0
100
AcDbEntity
  8
0
  6
Continuous
 62
     7
370
     0
100
AcDbLine
 10
0.0
 20
0.0
 30
0.0
 11
-2.5
 21
0.0
 31
0.0
  0
LINE
  5
1E5
330
1E0
100
AcDbEntity
  8
0
  6
Continuous
 62
     7
370
     0
100
AcDbLine
 10
0.0
 20
0.0
 30
0.0
 11
0.0
 21
-2.5
 31
0.0
  0
LINE
  5
1E6
330
1E0
100
AcDbEntity
  8
0
  6
Continuous
 62
     7
370
     0
100
AcDbLine
 10
0.0
 20
0.0
 30
0.0
 11
2.5
 21
0.0
 31
0.0
  0
LINE
  5
1E7
330
1E0
100
AcDbEntity
  8
0
  6
Continuous
 62
     7
370
     0
100
AcDbLine
 10
0.0
 20
2.5
 30
0.0
 11
0.0
 21
4.5
 31
0.0
  0
LINE
  5
1E8
330
1E0
100
AcDbEntity
  8
0
  6
Continuous
 62
     7
370
     0
100
AcDbLine
 10
-2.5
 20
0.0
 30
0.0
 11
-4.5
 21
0.0
 31
0.0
  0
LINE
  5
1E9
330
1E0
100
AcDbEntity
  8
0
  6
Continuous
 62
     7
370
     0
100
AcDbLine
 10
0.0
 20
-2.5
 30
0.0
 11
0.0
 21
-4.5
 31
0.0
  0
LINE
  5
1EA
330
1E0
100
AcDbEntity
  8
0
  6
Continuous
 62
     7
370
     0
100
AcDbLine
 10
2.5
 20
0.0
 30
0.0
 11
4.5
 21
0.0
 31
0.0
  0
ENDBLK
  5
316
330
1E0
100
AcDbEntity
  8
0
100
AcDbBlockEnd
  0
BLOCK
  5
317
330
1EC
100
AcDbEntity
  8
0
100
AcDbBlockBegin
  2
SW_CENTERMARKSYMBOL_7
 70
     0
 10
0.0
 20
0.0
 30
0.0
  3
SW_CENTERMARKSYMBOL_7
  1

  0
LINE
  5
1EF
330
1EC
100
AcDbEntity
  8
0
  6
Continuous
 62
     7
370
     0
100
AcDbLine
 10
0.0
 20
0.0
 30
0.0
 11
0.0
 21
2.5
 31
0.0
  0
LINE
  5
1F0
330
1EC
100
AcDbEntity
  8
0
  6
Continuous
 62
     7
370
     0
100
AcDbLine
 10
0.0
 20
0.0
 30
0.0
 11
-2.5
 21
0.0
 31
0.0
  0
LINE
  5
1F1
330
1EC
100
AcDbEntity
  8
0
  6
Continuous
 62
     7
370
     0
100
AcDbLine
 10
0.0
 20
0.0
 30
0.0
 11
0.0
 21
-2.5
 31
0.0
  0
LINE
  5
1F2
330
1EC
100
AcDbEntity
  8
0
  6
Continuous
 62
     7
370
     0
100
AcDbLine
 10
0.0
 20
0.0
 30
0.0
 11
2.5
 21
0.0
 31
0.0
  0
LINE
  5
1F3
330
1EC
100
AcDbEntity
  8
0
  6
Continuous
 62
     7
370
     0
100
AcDbLine
 10
0.0
 20
2.5
 30
0.0
 11
0.0
 21
4.8
 31
0.0
  0
LINE
  5
1F4
330
1EC
100
AcDbEntity
  8
0
  6
Continuous
 62
     7
370
     0
100
AcDbLine
 10
-2.5
 20
0.0
 30
0.0
 11
-4.8
 21
0.0
 31
0.0
  0
LINE
  5
1F5
330
1EC
100
AcDbEntity
  8
0
  6
Continuous
 62
     7
370
     0
100
AcDbLine
 10
0.0
 20
-2.5
 30
0.0
 11
0.0
 21
-4.8
 31
0.0
  0
LINE
  5
1F6
330
1EC
100
AcDbEntity
  8
0
  6
Continuous
 62
     7
370
     0
100
AcDbLine
 10
2.5
 20
0.0
 30
0.0
 11
4.8
 21
0.0
 31
0.0
  0
ENDBLK
  5
318
330
1EC
100
AcDbEntity
  8
0
100
AcDbBlockEnd
  0
BLOCK
  5
319
330
1F8
100
AcDbEntity
  8
0
100
AcDbBlockBegin
  2
SW_CENTERMARKSYMBOL_8
 70
     0
 10
0.0
 20
0.0
 30
0.0
  3
SW_CENTERMARKSYMBOL_8
  1

  0
LINE
  5
1FB
330
1F8
100
AcDbEntity
  8
0
  6
Continuous
 62
     7
370
     0
100
AcDbLine
 10
0.0
 20
0.0
 30
0.0
 11
0.0
 21
2.5
 31
0.0
  0
LINE
  5
1FC
330
1F8
100
AcDbEntity
  8
0
  6
Continuous
 62
     7
370
     0
100
AcDbLine
 10
0.0
 20
0.0
 30
0.0
 11
-2.5
 21
0.0
 31
0.0
  0
LINE
  5
1FD
330
1F8
100
AcDbEntity
  8
0
  6
Continuous
 62
     7
370
     0
100
AcDbLine
 10
0.0
 20
0.0
 30
0.0
 11
0.0
 21
-2.5
 31
0.0
  0
LINE
  5
1FE
330
1F8
100
AcDbEntity
  8
0
  6
Continuous
 62
     7
370
     0
100
AcDbLine
 10
0.0
 20
0.0
 30
0.0
 11
2.5
 21
0.0
 31
0.0
  0
LINE
  5
1FF
330
1F8
100
AcDbEntity
  8
0
  6
Continuous
 62
     7
370
     0
100
AcDbLine
 10
0.0
 20
5.0
 30
0.0
 11
0.0
 21
26.5
 31
0.0
  0
LINE
  5
200
330
1F8
100
AcDbEntity
  8
0
  6
Continuous
 62
     7
370
     0
100
AcDbLine
 10
-5.0
 20
0.0
 30
0.0
 11
-26.5
 21
0.0
 31
0.0
  0
LINE
  5
201
330
1F8
100
AcDbEntity
  8
0
  6
Continuous
 62
     7
370
     0
100
AcDbLine
 10
0.0
 20
-5.0
 30
0.0
 11
0.0
 21
-26.5
 31
0.0
  0
LINE
  5
202
330
1F8
100
AcDbEntity
  8
0
  6
Continuous
 62
     7
370
     0
100
AcDbLine
 10
5.0
 20
0.0
 30
0.0
 11
26.5
 21
0.0
 31
0.0
  0
ENDBLK
  5
31A
330
1F8
100
AcDbEntity
  8
0
100
AcDbBlockEnd
  0
BLOCK
  5
31B
330
29F
100
AcDbEntity
  8
0
100
AcDbBlockBegin
  2
*D17
 70
     1
 10
0.0
 20
0.0
 30
0.0
  3
*D17
  1

  0
INSERT
  5
2AD
330
29F
100
AcDbEntity
  8
0
  6
Continuous
 62
     7
370
     0
100
AcDbBlockReference
  2
_OPEN30
 10
68.3004604035
 20
211.4549394656
 30
-14.029587464
 41
6.0
 42
6.0
 50
270.0
  0
INSERT
  5
2AE
330
29F
100
AcDbEntity
  8
0
  6
Continuous
 62
     7
370
     0
100
AcDbBlockReference
  2
_OPEN30
 10
68.3004604035
 20
224.4549394656
 30
-14.029587464
 41
6.0
 42
6.0
 50
90.0
  0
LINE
  5
2AF
330
29F
100
AcDbEntity
  8
0
  6
Continuous
 62
     7
370
     0
100
AcDbLine
 10
80.9081623232
 20
211.4549394656
 30
0.0
 11
67.3004604035
 21
211.4549394656
 31
0.0
  0
LINE
  5
2B0
330
29F
100
AcDbEntity
  8
0
  6
Continuous
 62
     7
370
     0
100
AcDbLine
 10
80.9081623232
 20
224.4549394656
 30
0.0
 11
67.3004604035
 21
224.4549394656
 31
0.0
  0
LINE
  5
2B1
330
29F
100
AcDbEntity
  8
0
  6
Continuous
 62
     7
370
     0
100
AcDbLine
 10
68.3004604035
 20
211.4549394656
 30
0.0
 11
68.3004604035
 21
224.4549394656
 31
0.0
  0
MTEXT
  5
2B2
330
29F
100
AcDbEntity
  8
0
  6
Continuous
 62
     7
370
     0
100
AcDbMText
 10
64.6059150654
 20
215.8387224764
 30
0.0
 40
3.175
 41
0.0
 46
0.0
 71
     1
 72
     1
  1
13
  7
SLDTEXTSTYLE0
 11
7.610746885142183E-15
 21
1.0
 31
0.0
 73
     1
 44
1.0
  0
ENDBLK
  5
31C
330
29F
100
AcDbEntity
  8
0
100
AcDbBlockEnd
  0
BLOCK
  5
31D
330
2B4
100
AcDbEntity
  8
0
100
AcDbBlockBegin
  2
*D18
 70
     1
 10
0.0
 20
0.0
 30
0.0
  3
*D18
  1

  0
INSERT
  5
2C1
330
2B4
100
AcDbEntity
  8
0
  6
Continuous
 62
     7
370
     0
100
AcDbBlockReference
  2
_OPEN30
 10
51.3941974962
 20
224.4549394656
 30
-14.029587464
 41
6.0
 42
6.0
 50
90.0
  0
INSERT
  5
2C2
330
2B4
100
AcDbEntity
  8
0
  6
Continuous
 62
     7
370
     0
100
AcDbBlockReference
  2
_OPEN30
 10
51.3941974962
 20
206.8549394656
 30
-14.029587464
 41
6.0
 42
6.0
 50
270.0
  0
LINE
  5
2C3
330
2B4
100
AcDbEntity
  8
0
  6
Continuous
 62
     7
370
     0
100
AcDbLine
 10
80.9081623232
 20
224.4549394656
 30
0.0
 11
50.3941974962
 21
224.4549394656
 31
0.0
  0
LINE
  5
2C4
330
2B4
100
AcDbEntity
  8
0
  6
Continuous
 62
     7
370
     0
100
AcDbLine
 10
86.742929802
 20
206.8549394656
 30
0.0
 11
50.3941974962
 21
206.8549394656
 31
0.0
  0
LINE
  5
2C5
330
2B4
100
AcDbEntity
  8
0
  6
Continuous
 62
     7
370
     0
100
AcDbLine
 10
51.3941974962
 20
224.4549394656
 30
0.0
 11
51.3941974962
 21
206.8549394656
 31
0.0
  0
MTEXT
  5
2C6
330
2B4
100
AcDbEntity
  8
0
  6
Continuous
 62
     7
370
     0
100
AcDbMText
 10
47.699652158
 20
211.4225054873
 30
0.0
 40
3.175
 41
0.0
 46
0.0
 71
     1
 72
     1
  1
17.6
  7
SLDTEXTSTYLE0
 11
9.494087373912441E-16
 21
1.0
 31
0.0
 73
     1
 44
1.0
  0
ENDBLK
  5
31E
330
2B4
100
AcDbEntity
  8
0
100
AcDbBlockEnd
  0
ENDSEC
  0
SECTION
  2
ENTITIES
  0
LINE
  5
2F
330
1F
100
AcDbEntity
  8
0
  6
Continuous
 62
     7
370
     0
100
AcDbLine
 10
20.2604743903
 20
285.0
 30
0.0
 11
196.7604743903
 21
285.0
 31
0.0
  0
LINE
  5
30
330
1F
100
AcDbEntity
  8
0
  6
Continuous
 62
     7
370
     0
100
AcDbLine
 10
20.2604743903
 20
285.0
 30
0.0
 11
20.2604743903
 21
10.0
 31
0.0
  0
LINE
  5
31
330
1F
100
AcDbEntity
  8
0
  6
Continuous
 62
     7
370
     0
100
AcDbLine
 10
20.2604743903
 20
10.0
 30
0.0
 11
196.7604743903
 21
10.0
 31
0.0
  0
LINE
  5
32
330
1F
100
AcDbEntity
  8
0
  6
Continuous
 62
     7
370
     0
100
AcDbLine
 10
196.7604743903
 20
285.0
 30
0.0
 11
196.7604743903
 21
10.0
 31
0.0
  0
LINE
  5
33
330
1F
100
AcDbEntity
  8
0
  6
Continuous
 62
     7
370
     0
100
AcDbLine
 10
127.0104743903
 20
50.75
 30
0.0
 11
196.7604743903
 21
50.75
 31
0.0
  0
LINE
  5
34
330
1F
100
AcDbEntity
  8
0
  6
Continuous
 62
     7
370
     0
100
AcDbLine
 10
127.0104743903
 20
50.75
 30
0.0
 11
127.0104743903
 21
10.0
 31
0.0
  0
LINE
  5
35
330
1F
100
AcDbEntity
  8
0
  6
Continuous
 62
     7
370
     0
100
AcDbLine
 10
127.0104743903
 20
22.75
 30
0.0
 11
196.7604743903
 21
22.75
 31
0.0
  0
LINE
  5
36
330
1F
100
AcDbEntity
  8
0
  6
Continuous
 62
     7
370
     0
100
AcDbLine
 10
127.0104743903
 20
36.75
 30
0.0
 11
196.7604743903
 21
36.75
 31
0.0
  0
MTEXT
  5
38
330
1F
100
AcDbEntity
  8
0
  6
Continuous
 62
     7
370
     0
100
AcDbMText
 10
154.051354574
 20
31.8276483744
 30
0.0
 40
4.2333333333
 41
0.0
 46
0.0
 71
     1
 72
     1
  1
OX-03AI
  7
SLDTEXTSTYLE0
 73
     1
 44
1.0
  0
INSERT
  5
3E
330
1F
100
AcDbEntity
  8
0
  6
Continuous
 62
     7
370
     0
100
AcDbBlockReference
  2
SW_NOTE_0
 10
137.6604768421
 20
43.8849703425
 30
0.0
  0
MTEXT
  5
3F
330
1F
100
AcDbEntity
  8
0
  6
Continuous
 62
     7
370
     0
100
AcDbMText
 10
155.4171465554
 20
16.2918259049
 30
0.0
 40
4.2333333333
 41
0.0
 46
0.0
 71
     1
 72
     1
  1
140236
  7
SLDTEXTSTYLE0
 73
     1
 44
1.0
  0
CIRCLE
  5
40
330
1F
100
AcDbEntity
  8
0
  6
CENTER
 62
     7
370
     0
100
AcDbCircle
 10
105.9081623232
 20
137.5266237092
 30
0.0
 40
15.74999999999999
  0
LINE
  5
41
330
1F
100
AcDbEntity
  8
0
  6
Continuous
 62
     7
370
    15
100
AcDbLine
 10
99.2499933479
 20
114.4686581475
 30
0.0
 11
99.2499994015
 21
114.4686786366
 31
0.0
  0
LINE
  5
42
330
1F
100
AcDbEntity
  8
0
  6
Continuous
 62
     7
370
    15
100
AcDbLine
 10
126.7791906273
 20
149.379767282
 30
0.0
 11
126.7772683775
 21
149.3790678588
 31
0.0
  0
LINE
  5
43
330
1F
100
AcDbEntity
  8
0
  6
Continuous
 62
     7
370
    15
100
AcDbLine
 10
116.6527563607
 20
116.0638535303
 30
0.0
 11
116.6521584516
 21
116.0658093077
 31
0.0
  0
LINE
  5
44
330
1F
100
AcDbEntity
  8
0
  6
Continuous
 62
     7
370
    15
100
AcDbLine
 10
129.5153511589
 20
133.1910204982
 30
0.0
 11
129.5134289092
 21
133.1917203871
 31
0.0
  0
LINE
  5
45
330
1F
100
AcDbEntity
  8
0
  6
Continuous
 62
     7
370
    15
100
AcDbLine
 10
102.8140058177
 20
113.724879725
 30
0.0
 11
102.8146039596
 21
113.7268355024
 31
0.0
  0
LINE
  5
46
330
1F
100
AcDbEntity
  8
0
  6
Continuous
 62
     7
370
    15
100
AcDbLine
 10
82.3009734875
 20
141.8622269203
 30
0.0
 11
82.3028957373
 21
141.8615270314
 31
0.0
  0
LINE
  5
47
330
1F
100
AcDbEntity
  8
0
  6
Continuous
 62
     7
370
    15
100
AcDbLine
 10
85.0371340191
 20
125.6734801364
 30
0.0
 11
85.0390562689
 21
125.6741795597
 31
0.0
  0
LINE
  5
48
330
1F
100
AcDbEntity
  8
0
  6
Continuous
 62
     7
370
    15
100
AcDbLine
 10
91.9978128648
 20
117.9664915335
 30
0.0
 11
91.9992564147
 21
117.9679350835
 31
0.0
  0
LINE
  5
49
330
1F
100
AcDbEntity
  8
0
  6
Continuous
 62
     7
370
    15
100
AcDbLine
 10
121.4857794246
 20
155.7867897582
 30
0.0
 11
121.4842287725
 21
155.7854896319
 31
0.0
  0
LINE
  5
4A
330
1F
100
AcDbEntity
  8
0
  6
Continuous
 62
     7
370
    15
100
AcDbLine
 10
85.2203847742
 20
149.6967364011
 30
0.0
 11
85.2219344949
 21
149.6954353434
 31
0.0
  0
ARC
  5
4B
330
1F
100
AcDbEntity
  8
0
  6
Continuous
 62
     7
370
    15
100
AcDbCircle
 10
100.7916574906
 20
120.7912904799
 30
0.0
 40
1.250000000000011
100
AcDbArc
 50
158.3073592978
 51
205.4637162542
  0
ARC
  5
4C
330
1F
100
AcDbEntity
  8
0
  6
Continuous
 62
     7
370
    15
100
AcDbCircle
 10
100.7916574906
 20
120.7912904799
 30
0.0
 40
1.250000000000004
100
AcDbArc
 50
338.3073592978
 51
25.4637162542
  0
CIRCLE
  5
4D
330
1F
100
AcDbEntity
  8
0
  6
Continuous
 62
     7
370
    15
100
AcDbCircle
 10
100.7916574906
 20
120.7912904799
 30
0.0
 40
2.150000000000012
  0
CIRCLE
  5
4E
330
1F
100
AcDbEntity
  8
0
  6
Continuous
 62
     7
370
    15
100
AcDbCircle
 10
100.7916574906
 20
120.7912904799
 30
0.0
 40
2.65000000000001
  0
CIRCLE
  5
4F
330
1F
100
AcDbEntity
  8
0
  6
Continuous
 62
     7
370
    15
100
AcDbCircle
 10
111.0246671559
 20
120.7912904799
 30
0.0
 40
2.150000000000017
  0
CIRCLE
  5
50
330
1F
100
AcDbEntity
  8
0
  6
Continuous
 62
     7
370
    15
100
AcDbCircle
 10
111.0246671559
 20
120.7912904799
 30
0.0
 40
2.650000000000015
  0
ARC
  5
51
330
1F
100
AcDbEntity
  8
0
  6
Continuous
 62
     7
370
    15
100
AcDbCircle
 10
111.0246671559
 20
120.7912904799
 30
0.0
 40
1.250000000000017
100
AcDbArc
 50
158.3073592978
 51
205.4637162542
  0
ARC
  5
52
330
1F
100
AcDbEntity
  8
0
  6
Continuous
 62
     7
370
    15
100
AcDbCircle
 10
111.0246671559
 20
120.7912904799
 30
0.0
 40
1.250000000000004
100
AcDbArc
 50
338.3073592978
 51
25.4637162542
  0
CIRCLE
  5
53
330
1F
100
AcDbEntity
  8
0
  6
Continuous
 62
     7
370
    15
100
AcDbCircle
 10
122.6434955526
 20
142.6431285419
 30
0.0
 40
2.150000000000022
  0
CIRCLE
  5
54
330
1F
100
AcDbEntity
  8
0
  6
Continuous
 62
     7
370
    15
100
AcDbCircle
 10
122.6434955526
 20
142.6431285419
 30
0.0
 40
2.649999999999997
  0
ARC
  5
55
330
1F
100
AcDbEntity
  8
0
  6
Continuous
 62
     7
370
    15
100
AcDbCircle
 10
122.6434955526
 20
142.6431285419
 30
0.0
 40
1.25000000000001
100
AcDbArc
 50
172.2943874518
 51
219.4507444082
  0
ARC
  5
56
330
1F
100
AcDbEntity
  8
0
  6
Continuous
 62
     7
370
    15
100
AcDbCircle
 10
122.6434955526
 20
142.6431285419
 30
0.0
 40
1.250000000000014
100
AcDbArc
 50
352.2943874518
 51
39.4507444082
  0
CIRCLE
  5
57
330
1F
100
AcDbEntity
  8
0
  6
Continuous
 62
     7
370
    15
100
AcDbCircle
 10
122.6434955526
 20
132.4101188766
 30
0.0
 40
2.149999999999999
  0
CIRCLE
  5
58
330
1F
100
AcDbEntity
  8
0
  6
Continuous
 62
     7
370
    15
100
AcDbCircle
 10
122.6434955526
 20
132.4101188766
 30
0.0
 40
2.649999999999996
  0
ARC
  5
31F
330
1F
100
AcDbEntity
  8
0
  6
Continuous
 62
     7
370
    15
100
AcDbCircle
 10
122.6434955526
 20
132.4101188766
 30
0.0
 40
1.250000000000015
100
AcDbArc
 50
158.3073592978
 51
205.4637162542
  0
ARC
  5
320
330
1F
100
AcDbEntity
  8
0
  6
Continuous
 62
     7
370
    15
100
AcDbCircle
 10
122.6434955526
 20
132.4101188766
 30
0.0
 40
1.250000000000031
100
AcDbArc
 50
338.3073592978
 51
25.4637162542
  0
ARC
  5
5B
330
1F
100
AcDbEntity
  8
0
  6
Continuous
 62
     7
370
    15
100
AcDbCircle
 10
89.1728290939
 20
132.4101188766
 30
0.0
 40
1.250000000000004
100
AcDbArc
 50
158.3073592978
 51
205.4637162542
  0
ARC
  5
5C
330
1F
100
AcDbEntity
  8
0
  6
Continuous
 62
     7
370
    15
100
AcDbCircle
 10
89.1728290939
 20
132.4101188766
 30
0.0
 40
1.250000000000011
100
AcDbArc
 50
338.3073592978
 51
25.4637162542
  0
CIRCLE
  5
5D
330
1F
100
AcDbEntity
  8
0
  6
Continuous
 62
     7
370
    15
100
AcDbCircle
 10
89.1728290939
 20
132.4101188766
 30
0.0
 40
2.149999999999999
  0
CIRCLE
  5
321
330
1F
100
AcDbEntity
  8
0
  6
Continuous
 62
     7
370
    15
100
AcDbCircle
 10
89.1728290939
 20
132.4101188766
 30
0.0
 40
2.650000000000001
  0
ARC
  5
5F
330
1F
100
AcDbEntity
  8
0
  6
Continuous
 62
     7
370
    15
100
AcDbCircle
 10
89.1728290939
 20
142.6431285419
 30
0.0
 40
1.250000000000011
100
AcDbArc
 50
158.3073592978
 51
205.4637162542
  0
ARC
  5
60
330
1F
100
AcDbEntity
  8
0
  6
Continuous
 62
     7
370
    15
100
AcDbCircle
 10
89.1728290939
 20
142.6431285419
 30
0.0
 40
1.250000000000011
100
AcDbArc
 50
338.3073592978
 51
25.4637162542
  0
CIRCLE
  5
61
330
1F
100
AcDbEntity
  8
0
  6
Continuous
 62
     7
370
    15
100
AcDbCircle
 10
89.1728290939
 20
142.6431285419
 30
0.0
 40
2.149999999999999
  0
CIRCLE
  5
62
330
1F
100
AcDbEntity
  8
0
  6
Continuous
 62
     7
370
    15
100
AcDbCircle
 10
89.1728290939
 20
142.6431285419
 30
0.0
 40
2.649999999999992
  0
LINE
  5
63
330
1F
100
AcDbEntity
  8
0
  6
Continuous
 62
     7
370
    15
100
AcDbLine
 10
122.1012326877
 20
131.8919963184
 30
0.0
 11
121.2464991633
 21
131.8638578689
 31
0.0
  0
LINE
  5
64
330
1F
100
AcDbEntity
  8
0
  6
Continuous
 62
     7
370
    15
100
AcDbLine
 10
124.0733948445
 20
131.9569213313
 30
0.0
 11
123.2186613202
 21
131.9287828819
 31
0.0
  0
ARC
  5
65
330
1F
100
AcDbEntity
  8
0
  6
Continuous
 62
     7
370
    15
100
AcDbCircle
 10
122.6434955526
 20
132.4101188766
 30
0.0
 40
1.499999999999999
100
AcDbArc
 50
201.3567584105
 51
342.4143171415
  0
ARC
  5
66
330
1F
100
AcDbEntity
  8
0
  6
Continuous
 62
     7
370
    15
100
AcDbCircle
 10
122.6434955526
 20
132.4101188766
 30
0.0
 40
0.7500000000000115
100
AcDbArc
 50
223.6958526718
 51
320.0752228802
  0
LWPOLYLINE
  5
67
330
1F
100
AcDbEntity
  8
0
  6
Continuous
 62
     7
370
    15
100
AcDbPolyline
 90
        3
 70
   128
 43
0.0
 10
121.2464993721
 20
131.8638578897
 10
121.0925592011
 20
131.8587900979
 10
120.9317216551
 20
131.8534950634
  0
LINE
  5
68
330
1F
100
AcDbEntity
  8
0
  6
Continuous
 62
     7
370
    15
100
AcDbLine
 10
124.3881724009
 20
131.9672840375
 30
0.0
 11
124.0733948445
 21
131.9569213313
 31
0.0
  0
ARC
  5
69
330
1F
100
AcDbEntity
  8
0
  6
Continuous
 62
     7
370
    15
100
AcDbCircle
 10
122.6434955526
 20
132.4101188766
 30
0.0
 40
1.800000000000003
100
AcDbArc
 50
198.0131579891
 51
345.7579175628
  0
LWPOLYLINE
  5
6A
330
1F
100
AcDbEntity
  8
0
  6
Continuous
 62
     7
370
    15
100
AcDbPolyline
 90
        3
 70
   128
 43
0.0
 10
124.0404913103
 20
132.9563798291
 10
124.1944314813
 20
132.9614476209
 10
124.3552690273
 20
132.9667426554
  0
ARC
  5
322
330
1F
100
AcDbEntity
  8
0
  6
Continuous
 62
     7
370
    15
100
AcDbCircle
 10
122.6434955526
 20
132.4101188766
 30
0.0
 40
1.500000000000006
100
AcDbArc
 50
21.3567584105
 51
162.4143171415
  0
LINE
  5
323
330
1F
100
AcDbEntity
  8
0
  6
Continuous
 62
     7
370
    15
100
AcDbLine
 10
120.8988187042
 20
132.8529537157
 30
0.0
 11
121.2135962607
 21
132.8633164218
 31
0.0
  0
ARC
  5
6D
330
1F
100
AcDbEntity
  8
0
  6
Continuous
 62
     7
370
    15
100
AcDbCircle
 10
122.6434955526
 20
132.4101188766
 30
0.0
 40
1.80000000000001
100
AcDbArc
 50
18.0131579891
 51
165.7579175628
  0
LINE
  5
6E
330
1F
100
AcDbEntity
  8
0
  6
Continuous
 62
     7
370
    15
100
AcDbLine
 10
124.0404919418
 20
132.9563798843
 30
0.0
 11
123.1857584175
 21
132.9282414348
 31
0.0
  0
LINE
  5
6F
330
1F
100
AcDbEntity
  8
0
  6
Continuous
 62
     7
370
    15
100
AcDbLine
 10
122.068329785
 20
132.8914548713
 30
0.0
 11
121.2135962607
 21
132.8633164218
 31
0.0
  0
ARC
  5
70
330
1F
100
AcDbEntity
  8
0
  6
Continuous
 62
     7
370
    15
100
AcDbCircle
 10
122.6434955526
 20
132.4101188766
 30
0.0
 40
0.7500000000000013
100
AcDbArc
 50
43.6958526718
 51
140.0752228802
  0
ARC
  5
71
330
1F
100
AcDbEntity
  8
0
  6
Continuous
 62
     7
370
    15
100
AcDbCircle
 10
122.6434955526
 20
132.4101188766
 30
0.0
 40
1.80000000000001
100
AcDbArc
 50
345.7579175628
 51
18.0131579891
  0
ARC
  5
72
330
1F
100
AcDbEntity
  8
0
  6
Continuous
 62
     7
370
    15
100
AcDbCircle
 10
122.6434955526
 20
132.4101188766
 30
0.0
 40
0.7500000000000115
100
AcDbArc
 50
320.0752228802
 51
43.6958526718
  0
ARC
  5
324
330
1F
100
AcDbEntity
  8
0
  6
Continuous
 62
     7
370
    15
100
AcDbCircle
 10
122.6434955526
 20
132.4101188766
 30
0.0
 40
1.799999999999996
100
AcDbArc
 50
165.7579175628
 51
198.0131579891
  0
ARC
  5
325
330
1F
100
AcDbEntity
  8
0
  6
Continuous
 62
     7
370
    15
100
AcDbCircle
 10
122.6434955526
 20
132.4101188766
 30
0.0
 40
0.7500000000000013
100
AcDbArc
 50
140.0752228802
 51
223.6958526718
  0
CIRCLE
  5
326
330
1F
100
AcDbEntity
  8
0
  6
Continuous
 62
     7
370
    15
100
AcDbCircle
 10
122.6434955526
 20
132.4101188766
 30
0.0
 40
3.800000000000001
  0
CIRCLE
  5
327
330
1F
100
AcDbEntity
  8
0
  6
Continuous
 62
     7
370
    15
100
AcDbCircle
 10
122.6434955526
 20
132.4101188766
 30
0.0
 40
4.0
  0
LWPOLYLINE
  5
77
330
1F
100
AcDbEntity
  8
0
  6
Continuous
 62
     7
370
    15
100
AcDbPolyline
 90
        3
 70
   128
 43
0.0
 10
121.4199516824
 20
141.7754067016
 10
121.2718015438
 20
141.7332815846
 10
121.1170120066
 20
141.6892686767
  0
ARC
  5
78
330
1F
100
AcDbEntity
  8
0
  6
Continuous
 62
     7
370
    15
100
AcDbCircle
 10
122.6434955526
 20
142.6431285419
 30
0.0
 40
1.499999999999997
100
AcDbArc
 50
215.3437865645
 51
356.4013452955
  0
LINE
  5
79
330
1F
100
AcDbEntity
  8
0
  6
Continuous
 62
     7
370
    15
100
AcDbLine
 10
124.443477718
 20
142.6351158017
 30
0.0
 11
124.1405378563
 21
142.5489779129
 31
0.0
  0
ARC
  5
7A
330
1F
100
AcDbEntity
  8
0
  6
Continuous
 62
     7
370
    15
100
AcDbCircle
 10
122.6434955526
 20
142.6431285419
 30
0.0
 40
1.800000000000022
100
AcDbArc
 50
212.0001861432
 51
359.7449457168
  0
LWPOLYLINE
  5
7B
330
1F
100
AcDbEntity
  8
0
  6
Continuous
 62
     7
370
    15
100
AcDbPolyline
 90
        3
 70
   128
 43
0.0
 10
123.8670399314
 20
143.5108504166
 10
124.0151891386
 20
143.5529755336
 10
124.1699786758
 20
143.5969879759
  0
ARC
  5
7C
330
1F
100
AcDbEntity
  8
0
  6
Continuous
 62
     7
370
    15
100
AcDbCircle
 10
122.6434955526
 20
142.6431285419
 30
0.0
 40
1.500000000000004
100
AcDbArc
 50
35.3437865645
 51
176.4013452955
  0
LINE
  5
7D
330
1F
100
AcDbEntity
  8
0
  6
Continuous
 62
     7
370
    15
100
AcDbLine
 10
120.8435133871
 20
142.651141282
 30
0.0
 11
121.1464532489
 21
142.7372791709
 31
0.0
  0
ARC
  5
7E
330
1F
100
AcDbEntity
  8
0
  6
Continuous
 62
     7
370
    15
100
AcDbCircle
 10
122.6434955526
 20
142.6431285419
 30
0.0
 40
1.800000000000002
100
AcDbArc
 50
32.0001861432
 51
179.7449457167
  0
LINE
  5
7F
330
1F
100
AcDbEntity
  8
0
  6
Continuous
 62
     7
370
    15
100
AcDbLine
 10
123.867039165
 20
143.5108502879
 30
0.0
 11
123.044449211
 21
143.2769551458
 31
0.0
  0
ARC
  5
80
330
1F
100
AcDbEntity
  8
0
  6
Continuous
 62
     7
370
    15
100
AcDbCircle
 10
122.6434955526
 20
142.6431285419
 30
0.0
 40
0.7500000000000037
100
AcDbArc
 50
57.6828808258
 51
154.0622510342
  0
LINE
  5
81
330
1F
100
AcDbEntity
  8
0
  6
Continuous
 62
     7
370
    15
100
AcDbLine
 10
121.9690432029
 20
142.971174313
 30
0.0
 11
121.1464532489
 21
142.7372791709
 31
0.0
  0
LINE
  5
82
330
1F
100
AcDbEntity
  8
0
  6
Continuous
 62
     7
370
    15
100
AcDbLine
 10
122.2425418941
 20
142.009301938
 30
0.0
 11
121.4199519402
 21
141.7754067959
 31
0.0
  0
ARC
  5
83
330
1F
100
AcDbEntity
  8
0
  6
Continuous
 62
     7
370
    15
100
AcDbCircle
 10
122.6434955526
 20
142.6431285419
 30
0.0
 40
0.7500000000000214
100
AcDbArc
 50
237.6828808258
 51
334.0622510342
  0
LINE
  5
84
330
1F
100
AcDbEntity
  8
0
  6
Continuous
 62
     7
370
    15
100
AcDbLine
 10
124.1405378563
 20
142.5489779129
 30
0.0
 11
123.3179479023
 21
142.3150827707
 31
0.0
  0
ARC
  5
85
330
1F
100
AcDbEntity
  8
0
  6
Continuous
 62
     7
370
    15
100
AcDbCircle
 10
122.6434955526
 20
142.6431285419
 30
0.0
 40
1.800000000000008
100
AcDbArc
 50
359.7449457168
 51
32.0001861432
  0
ARC
  5
86
330
1F
100
AcDbEntity
  8
0
  6
Continuous
 62
     7
370
    15
100
AcDbCircle
 10
122.6434955526
 20
142.6431285419
 30
0.0
 40
0.7500000000000088
100
AcDbArc
 50
334.0622510342
 51
57.6828808258
  0
ARC
  5
87
330
1F
100
AcDbEntity
  8
0
  6
Continuous
 62
     7
370
    15
100
AcDbCircle
 10
122.6434955526
 20
142.6431285419
 30
0.0
 40
1.800000000000002
100
AcDbArc
 50
179.7449457168
 51
212.0001861432
  0
ARC
  5
88
330
1F
100
AcDbEntity
  8
0
  6
Continuous
 62
     7
370
    15
100
AcDbCircle
 10
122.6434955526
 20
142.6431285419
 30
0.0
 40
0.7500000000000037
100
AcDbArc
 50
154.0622510342
 51
237.6828808258
  0
CIRCLE
  5
89
330
1F
100
AcDbEntity
  8
0
  6
Continuous
 62
     7
370
    15
100
AcDbCircle
 10
122.6434955526
 20
142.6431285419
 30
0.0
 40
3.799999999999999
  0
CIRCLE
  5
8A
330
1F
100
AcDbEntity
  8
0
  6
Continuous
 62
     7
370
    15
100
AcDbCircle
 10
122.6434955526
 20
142.6431285419
 30
0.0
 40
3.99999999999999
  0
LINE
  5
8B
330
1F
100
AcDbEntity
  8
0
  6
Continuous
 62
     7
370
    15
100
AcDbLine
 10
88.6305662289
 20
142.1250059837
 30
0.0
 11
87.7758327046
 21
142.0968675342
 31
0.0
  0
ARC
  5
8C
330
1F
100
AcDbEntity
  8
0
  6
Continuous
 62
     7
370
    15
100
AcDbCircle
 10
89.1728290939
 20
142.6431285419
 30
0.0
 40
0.7500000000000115
100
AcDbArc
 50
223.6958526718
 51
320.0752228802
  0
LINE
  5
8D
330
1F
100
AcDbEntity
  8
0
  6
Continuous
 62
     7
370
    15
100
AcDbLine
 10
90.6027283858
 20
142.1899309966
 30
0.0
 11
89.7479948614
 21
142.1617925472
 31
0.0
  0
ARC
  5
8E
330
1F
100
AcDbEntity
  8
0
  6
Continuous
 62
     7
370
    15
100
AcDbCircle
 10
89.1728290939
 20
142.6431285419
 30
0.0
 40
1.500000000000006
100
AcDbArc
 50
201.3567584105
 51
342.4143171415
  0
LWPOLYLINE
  5
8F
330
1F
100
AcDbEntity
  8
0
  6
Continuous
 62
     7
370
    15
100
AcDbPolyline
 90
        3
 70
   128
 43
0.0
 10
87.7758333361
 20
142.0968675894
 10
87.6218931651
 20
142.0917997976
 10
87.4610556191
 20
142.0865047631
  0
ARC
  5
90
330
1F
100
AcDbEntity
  8
0
  6
Continuous
 62
     7
370
    15
100
AcDbCircle
 10
89.1728290939
 20
142.6431285419
 30
0.0
 40
1.800000000000003
100
AcDbArc
 50
198.0131579891
 51
345.7579175628
  0
LINE
  5
91
330
1F
100
AcDbEntity
  8
0
  6
Continuous
 62
     7
370
    15
100
AcDbLine
 10
90.9175059422
 20
142.2002937028
 30
0.0
 11
90.6027283858
 21
142.1899309966
 31
0.0
  0
LWPOLYLINE
  5
328
330
1F
100
AcDbEntity
  8
0
  6
Continuous
 62
     7
370
    15
100
AcDbPolyline
 90
        3
 70
   128
 43
0.0
 10
90.5698252743
 20
143.1893895288
 10
90.7237654453
 20
143.1944573206
 10
90.8846029913
 20
143.1997523551
  0
ARC
  5
329
330
1F
100
AcDbEntity
  8
0
  6
Continuous
 62
     7
370
    15
100
AcDbCircle
 10
89.1728290939
 20
142.6431285419
 30
0.0
 40
1.500000000000006
100
AcDbArc
 50
21.3567584105
 51
162.4143171415
  0
LINE
  5
94
330
1F
100
AcDbEntity
  8
0
  6
Continuous
 62
     7
370
    15
100
AcDbLine
 10
87.4281522455
 20
143.085963381
 30
0.0
 11
87.742929802
 21
143.0963260871
 31
0.0
  0
ARC
  5
95
330
1F
100
AcDbEntity
  8
0
  6
Continuous
 62
     7
370
    15
100
AcDbCircle
 10
89.1728290939
 20
142.6431285419
 30
0.0
 40
1.800000000000003
100
AcDbArc
 50
18.0131579891
 51
165.7579175628
  0
ARC
  5
96
330
1F
100
AcDbEntity
  8
0
  6
Continuous
 62
     7
370
    15
100
AcDbCircle
 10
89.1728290939
 20
142.6431285419
 30
0.0
 40
0.750000000000015
100
AcDbArc
 50
43.6958526718
 51
140.0752228802
  0
LINE
  5
32A
330
1F
100
AcDbEntity
  8
0
  6
Continuous
 62
     7
370
    15
100
AcDbLine
 10
88.5976633263
 20
143.1244645366
 30
0.0
 11
87.742929802
 21
143.0963260871
 31
0.0
  0
LINE
  5
32B
330
1F
100
AcDbEntity
  8
0
  6
Continuous
 62
     7
370
    15
100
AcDbLine
 10
90.5698254831
 20
143.1893895496
 30
0.0
 11
89.7150919588
 21
143.1612511001
 31
0.0
  0
ARC
  5
32C
330
1F
100
AcDbEntity
  8
0
  6
Continuous
 62
     7
370
    15
100
AcDbCircle
 10
89.1728290939
 20
142.6431285419
 30
0.0
 40
1.799999999999996
100
AcDbArc
 50
345.7579175628
 51
18.0131579891
  0
ARC
  5
32D
330
1F
100
AcDbEntity
  8
0
  6
Continuous
 62
     7
370
    15
100
AcDbCircle
 10
89.1728290939
 20
142.6431285419
 30
0.0
 40
0.7500000000000013
100
AcDbArc
 50
320.0752228802
 51
43.6958526718
  0
ARC
  5
32E
330
1F
100
AcDbEntity
  8
0
  6
Continuous
 62
     7
370
    15
100
AcDbCircle
 10
89.1728290939
 20
142.6431285419
 30
0.0
 40
1.80000000000001
100
AcDbArc
 50
165.7579175628
 51
198.0131579891
  0
ARC
  5
32F
330
1F
100
AcDbEntity
  8
0
  6
Continuous
 62
     7
370
    15
100
AcDbCircle
 10
89.1728290939
 20
142.6431285419
 30
0.0
 40
0.750000000000026
100
AcDbArc
 50
140.0752228802
 51
223.6958526718
  0
CIRCLE
  5
330
330
1F
100
AcDbEntity
  8
0
  6
Continuous
 62
     7
370
    15
100
AcDbCircle
 10
89.1728290939
 20
142.6431285419
 30
0.0
 40
3.8
  0
CIRCLE
  5
331
330
1F
100
AcDbEntity
  8
0
  6
Continuous
 62
     7
370
    15
100
AcDbCircle
 10
89.1728290939
 20
142.6431285419
 30
0.0
 40
4.0
  0
LWPOLYLINE
  5
332
330
1F
100
AcDbEntity
  8
0
  6
Continuous
 62
     7
370
    15
100
AcDbPolyline
 90
        3
 70
   128
 43
0.0
 10
109.6276707383
 20
120.2450299543
 10
109.473731033
 20
120.2399616969
 10
109.3128932541
 20
120.2346661967
  0
ARC
  5
333
330
1F
100
AcDbEntity
  8
0
  6
Continuous
 62
     7
370
    15
100
AcDbCircle
 10
111.0246671559
 20
120.7912904799
 30
0.0
 40
1.500000000000012
100
AcDbArc
 50
201.3567584105
 51
342.4143171415
  0
LINE
  5
334
330
1F
100
AcDbEntity
  8
0
  6
Continuous
 62
     7
370
    15
100
AcDbLine
 10
112.7693440042
 20
120.3484556408
 30
0.0
 11
112.4545664478
 21
120.3380929346
 31
0.0
  0
ARC
  5
335
330
1F
100
AcDbEntity
  8
0
  6
Continuous
 62
     7
370
    15
100
AcDbCircle
 10
111.0246671559
 20
120.7912904799
 30
0.0
 40
1.800000000000017
100
AcDbArc
 50
198.0131579891
 51
345.7579175628
  0
LINE
  5
336
330
1F
100
AcDbEntity
  8
0
  6
Continuous
 62
     7
370
    15
100
AcDbLine
 10
112.4216635451
 20
121.3375514876
 30
0.0
 11
111.5669300208
 21
121.3094130381
 31
0.0
  0
ARC
  5
337
330
1F
100
AcDbEntity
  8
0
  6
Continuous
 62
     7
370
    15
100
AcDbCircle
 10
111.0246671559
 20
120.7912904799
 30
0.0
 40
0.7500000000000059
100
AcDbArc
 50
43.6958526718
 51
140.0752228802
  0
LINE
  5
338
330
1F
100
AcDbEntity
  8
0
  6
Continuous
 62
     7
370
    15
100
AcDbLine
 10
110.4495013883
 20
121.2726264746
 30
0.0
 11
109.594767864
 21
121.2444880251
 31
0.0
  0
ARC
  5
339
330
1F
100
AcDbEntity
  8
0
  6
Continuous
 62
     7
370
    15
100
AcDbCircle
 10
111.0246671559
 20
120.7912904799
 30
0.0
 40
1.500000000000004
100
AcDbArc
 50
21.3567584105
 51
162.4143171415
  0
LWPOLYLINE
  5
33A
330
1F
100
AcDbEntity
  8
0
  6
Continuous
 62
     7
370
    15
100
AcDbPolyline
 90
        3
 70
   128
 43
0.0
 10
112.421663375
 20
121.3375514281
 10
112.5756030804
 20
121.3426196856
 10
112.736441092
 20
121.3479133231
  0
LINE
  5
33B
330
1F
100
AcDbEntity
  8
0
  6
Continuous
 62
     7
370
    15
100
AcDbLine
 10
109.2799903075
 20
121.234125319
 30
0.0
 11
109.594767864
 21
121.2444880251
 31
0.0
  0
ARC
  5
33C
330
1F
100
AcDbEntity
  8
0
  6
Continuous
 62
     7
370
    15
100
AcDbCircle
 10
111.0246671559
 20
120.7912904799
 30
0.0
 40
1.80000000000001
100
AcDbArc
 50
18.0131579891
 51
165.7579175628
  0
LINE
  5
33D
330
1F
100
AcDbEntity
  8
0
  6
Continuous
 62
     7
370
    15
100
AcDbLine
 10
110.4824042909
 20
120.2731679217
 30
0.0
 11
109.6276707666
 21
120.2450294722
 31
0.0
  0
ARC
  5
33E
330
1F
100
AcDbEntity
  8
0
  6
Continuous
 62
     7
370
    15
100
AcDbCircle
 10
111.0246671559
 20
120.7912904799
 30
0.0
 40
0.7500000000000059
100
AcDbArc
 50
223.6958526718
 51
320.0752228802
  0
LINE
  5
33F
330
1F
100
AcDbEntity
  8
0
  6
Continuous
 62
     7
370
    15
100
AcDbLine
 10
112.4545664478
 20
120.3380929346
 30
0.0
 11
111.5998329235
 21
120.3099544852
 31
0.0
  0
ARC
  5
340
330
1F
100
AcDbEntity
  8
0
  6
Continuous
 62
     7
370
    15
100
AcDbCircle
 10
111.0246671559
 20
120.7912904799
 30
0.0
 40
1.799999999999994
100
AcDbArc
 50
345.7579175628
 51
18.0131579891
  0
ARC
  5
341
330
1F
100
AcDbEntity
  8
0
  6
Continuous
 62
     7
370
    15
100
AcDbCircle
 10
111.0246671559
 20
120.7912904799
 30
0.0
 40
0.749999999999995
100
AcDbArc
 50
320.0752228802
 51
43.6958526718
  0
ARC
  5
342
330
1F
100
AcDbEntity
  8
0
  6
Continuous
 62
     7
370
    15
100
AcDbCircle
 10
111.0246671559
 20
120.7912904799
 30
0.0
 40
1.800000000000021
100
AcDbArc
 50
165.7579175628
 51
198.0131579891
  0
ARC
  5
343
330
1F
100
AcDbEntity
  8
0
  6
Continuous
 62
     7
370
    15
100
AcDbCircle
 10
111.0246671559
 20
120.7912904799
 30
0.0
 40
0.7500000000000059
100
AcDbArc
 50
140.0752228802
 51
223.6958526718
  0
CIRCLE
  5
344
330
1F
100
AcDbEntity
  8
0
  6
Continuous
 62
     7
370
    15
100
AcDbCircle
 10
111.0246671559
 20
120.7912904799
 30
0.0
 40
3.8
  0
CIRCLE
  5
345
330
1F
100
AcDbEntity
  8
0
  6
Continuous
 62
     7
370
    15
100
AcDbCircle
 10
111.0246671559
 20
120.7912904799
 30
0.0
 40
4.000000000000001
  0
LINE
  5
346
330
1F
100
AcDbEntity
  8
0
  6
Continuous
 62
     7
370
    15
100
AcDbLine
 10
88.6305662289
 20
131.8919963184
 30
0.0
 11
87.7758327046
 21
131.8638578689
 31
0.0
  0
ARC
  5
347
330
1F
100
AcDbEntity
  8
0
  6
Continuous
 62
     7
370
    15
100
AcDbCircle
 10
89.1728290939
 20
132.4101188766
 30
0.0
 40
0.7500000000000077
100
AcDbArc
 50
223.6958526718
 51
320.0752228802
  0
LINE
  5
348
330
1F
100
AcDbEntity
  8
0
  6
Continuous
 62
     7
370
    15
100
AcDbLine
 10
90.6027283858
 20
131.9569213313
 30
0.0
 11
89.7479948614
 21
131.9287828819
 31
0.0
  0
ARC
  5
349
330
1F
100
AcDbEntity
  8
0
  6
Continuous
 62
     7
370
    15
100
AcDbCircle
 10
89.1728290939
 20
132.4101188766
 30
0.0
 40
1.500000000000006
100
AcDbArc
 50
201.3567584105
 51
342.4143171415
  0
LWPOLYLINE
  5
34A
330
1F
100
AcDbEntity
  8
0
  6
Continuous
 62
     7
370
    15
100
AcDbPolyline
 90
        3
 70
   128
 43
0.0
 10
87.7758333361
 20
131.8638578897
 10
87.6218931651
 20
131.8587900979
 10
87.4610556191
 20
131.8534950634
  0
ARC
  5
34B
330
1F
100
AcDbEntity
  8
0
  6
Continuous
 62
     7
370
    15
100
AcDbCircle
 10
89.1728290939
 20
132.4101188766
 30
0.0
 40
1.80000000000001
100
AcDbArc
 50
198.0131579892
 51
345.7579175628
  0
LINE
  5
34C
330
1F
100
AcDbEntity
  8
0
  6
Continuous
 62
     7
370
    15
100
AcDbLine
 10
90.9175059422
 20
131.9672840375
 30
0.0
 11
90.6027283858
 21
131.9569213313
 31
0.0
  0
LWPOLYLINE
  5
34D
330
1F
100
AcDbEntity
  8
0
  6
Continuous
 62
     7
370
    15
100
AcDbPolyline
 90
        3
 70
   128
 43
0.0
 10
90.5698252743
 20
132.9563798291
 10
90.7237654453
 20
132.9614476209
 10
90.8846029913
 20
132.9667426554
  0
ARC
  5
BB
330
1F
100
AcDbEntity
  8
0
  6
Continuous
 62
     7
370
    15
100
AcDbCircle
 10
89.1728290939
 20
132.4101188766
 30
0.0
 40
1.500000000000006
100
AcDbArc
 50
21.3567584105
 51
162.4143171415
  0
LINE
  5
BC
330
1F
100
AcDbEntity
  8
0
  6
Continuous
 62
     7
370
    15
100
AcDbLine
 10
87.4281522455
 20
132.8529537157
 30
0.0
 11
87.742929802
 21
132.8633164218
 31
0.0
  0
ARC
  5
BD
330
1F
100
AcDbEntity
  8
0
  6
Continuous
 62
     7
370
    15
100
AcDbCircle
 10
89.1728290939
 20
132.4101188766
 30
0.0
 40
1.800000000000003
100
AcDbArc
 50
18.0131579891
 51
165.7579175628
  0
LINE
  5
BE
330
1F
100
AcDbEntity
  8
0
  6
Continuous
 62
     7
370
    15
100
AcDbLine
 10
90.5698254831
 20
132.9563798843
 30
0.0
 11
89.7150919588
 21
132.9282414348
 31
0.0
  0
ARC
  5
BF
330
1F
100
AcDbEntity
  8
0
  6
Continuous
 62
     7
370
    15
100
AcDbCircle
 10
89.1728290939
 20
132.4101188766
 30
0.0
 40
0.7500000000000115
100
AcDbArc
 50
43.6958526718
 51
140.0752228802
  0
LINE
  5
C0
330
1F
100
AcDbEntity
  8
0
  6
Continuous
 62
     7
370
    15
100
AcDbLine
 10
88.5976633263
 20
132.8914548713
 30
0.0
 11
87.742929802
 21
132.8633164218
 31
0.0
  0
ARC
  5
C1
330
1F
100
AcDbEntity
  8
0
  6
Continuous
 62
     7
370
    15
100
AcDbCircle
 10
89.1728290939
 20
132.4101188766
 30
0.0
 40
1.800000000000003
100
AcDbArc
 50
345.7579175628
 51
18.0131579891
  0
ARC
  5
C2
330
1F
100
AcDbEntity
  8
0
  6
Continuous
 62
     7
370
    15
100
AcDbCircle
 10
89.1728290939
 20
132.4101188766
 30
0.0
 40
0.7500000000000115
100
AcDbArc
 50
320.0752228802
 51
43.6958526718
  0
ARC
  5
C3
330
1F
100
AcDbEntity
  8
0
  6
Continuous
 62
     7
370
    15
100
AcDbCircle
 10
89.1728290939
 20
132.4101188766
 30
0.0
 40
1.800000000000003
100
AcDbArc
 50
165.7579175628
 51
198.0131579891
  0
ARC
  5
C4
330
1F
100
AcDbEntity
  8
0
  6
Continuous
 62
     7
370
    15
100
AcDbCircle
 10
89.1728290939
 20
132.4101188766
 30
0.0
 40
0.7500000000000115
100
AcDbArc
 50
140.0752228802
 51
223.6958526718
  0
CIRCLE
  5
C5
330
1F
100
AcDbEntity
  8
0
  6
Continuous
 62
     7
370
    15
100
AcDbCircle
 10
89.1728290939
 20
132.4101188766
 30
0.0
 40
3.800000000000001
  0
CIRCLE
  5
C6
330
1F
100
AcDbEntity
  8
0
  6
Continuous
 62
     7
370
    15
100
AcDbCircle
 10
89.1728290939
 20
132.4101188766
 30
0.0
 40
4.0
  0
LINE
  5
C7
330
1F
100
AcDbEntity
  8
0
  6
Continuous
 62
     7
370
    15
100
AcDbLine
 10
102.1886538798
 20
121.3375514876
 30
0.0
 11
101.3339203555
 21
121.3094130381
 31
0.0
  0
ARC
  5
C8
330
1F
100
AcDbEntity
  8
0
  6
Continuous
 62
     7
370
    15
100
AcDbCircle
 10
100.7916574906
 20
120.7912904799
 30
0.0
 40
0.7500000000000059
100
AcDbArc
 50
43.6958526718
 51
140.0752228802
  0
LINE
  5
C9
330
1F
100
AcDbEntity
  8
0
  6
Continuous
 62
     7
370
    15
100
AcDbLine
 10
100.216491723
 20
121.2726264746
 30
0.0
 11
99.3617581987
 21
121.2444880251
 31
0.0
  0
ARC
  5
CA
330
1F
100
AcDbEntity
  8
0
  6
Continuous
 62
     7
370
    15
100
AcDbCircle
 10
100.7916574906
 20
120.7912904799
 30
0.0
 40
1.500000000000004
100
AcDbArc
 50
21.3567584105
 51
162.4143171415
  0
LWPOLYLINE
  5
CB
330
1F
100
AcDbEntity
  8
0
  6
Continuous
 62
     7
370
    15
100
AcDbPolyline
 90
        3
 70
   128
 43
0.0
 10
99.3946612714
 20
120.2450299543
 10
99.2407215661
 20
120.2399616969
 10
99.0798835544
 20
120.2346661967
  0
ARC
  5
CC
330
1F
100
AcDbEntity
  8
0
  6
Continuous
 62
     7
370
    15
100
AcDbCircle
 10
100.7916574906
 20
120.7912904799
 30
0.0
 40
1.500000000000006
100
AcDbArc
 50
201.3567584105
 51
342.4143171415
  0
ARC
  5
CD
330
1F
100
AcDbEntity
  8
0
  6
Continuous
 62
     7
370
    15
100
AcDbCircle
 10
100.7916574906
 20
120.7912904799
 30
0.0
 40
1.800000000000008
100
AcDbArc
 50
198.0131579891
 51
345.7579175628
  0
LINE
  5
CE
330
1F
100
AcDbEntity
  8
0
  6
Continuous
 62
     7
370
    15
100
AcDbLine
 10
102.5363343389
 20
120.3484556408
 30
0.0
 11
102.2215567825
 21
120.3380929346
 31
0.0
  0
LINE
  5
CF
330
1F
100
AcDbEntity
  8
0
  6
Continuous
 62
     7
370
    15
100
AcDbLine
 10
100.2493946256
 20
120.2731679217
 30
0.0
 11
99.3946611013
 21
120.2450294722
 31
0.0
  0
ARC
  5
D0
330
1F
100
AcDbEntity
  8
0
  6
Continuous
 62
     7
370
    15
100
AcDbCircle
 10
100.7916574906
 20
120.7912904799
 30
0.0
 40
0.7500000000000169
100
AcDbArc
 50
223.6958526718
 51
320.0752228802
  0
LINE
  5
D1
330
1F
100
AcDbEntity
  8
0
  6
Continuous
 62
     7
370
    15
100
AcDbLine
 10
102.2215567825
 20
120.3380929346
 30
0.0
 11
101.3668232582
 21
120.3099544852
 31
0.0
  0
LINE
  5
D2
330
1F
100
AcDbEntity
  8
0
  6
Continuous
 62
     7
370
    15
100
AcDbLine
 10
99.0469806422
 20
121.234125319
 30
0.0
 11
99.3617581987
 21
121.2444880251
 31
0.0
  0
ARC
  5
D3
330
1F
100
AcDbEntity
  8
0
  6
Continuous
 62
     7
370
    15
100
AcDbCircle
 10
100.7916574906
 20
120.7912904799
 30
0.0
 40
1.800000000000007
100
AcDbArc
 50
18.0131579891
 51
165.7579175628
  0
LWPOLYLINE
  5
D4
330
1F
100
AcDbEntity
  8
0
  6
Continuous
 62
     7
370
    15
100
AcDbPolyline
 90
        3
 70
   128
 43
0.0
 10
102.1886539081
 20
121.3375514281
 10
102.3425936135
 20
121.3426196856
 10
102.5034313923
 20
121.3479133231
  0
ARC
  5
D5
330
1F
100
AcDbEntity
  8
0
  6
Continuous
 62
     7
370
    15
100
AcDbCircle
 10
100.7916574906
 20
120.7912904799
 30
0.0
 40
1.799999999999996
100
AcDbArc
 50
345.7579175628
 51
18.0131579891
  0
ARC
  5
D6
330
1F
100
AcDbEntity
  8
0
  6
Continuous
 62
     7
370
    15
100
AcDbCircle
 10
100.7916574906
 20
120.7912904799
 30
0.0
 40
0.7500000000000059
100
AcDbArc
 50
320.0752228802
 51
43.6958526718
  0
ARC
  5
D7
330
1F
100
AcDbEntity
  8
0
  6
Continuous
 62
     7
370
    15
100
AcDbCircle
 10
100.7916574906
 20
120.7912904799
 30
0.0
 40
1.800000000000008
100
AcDbArc
 50
165.7579175628
 51
198.0131579891
  0
ARC
  5
D8
330
1F
100
AcDbEntity
  8
0
  6
Continuous
 62
     7
370
    15
100
AcDbCircle
 10
100.7916574906
 20
120.7912904799
 30
0.0
 40
0.7500000000000169
100
AcDbArc
 50
140.0752228802
 51
223.6958526718
  0
CIRCLE
  5
D9
330
1F
100
AcDbEntity
  8
0
  6
Continuous
 62
     7
370
    15
100
AcDbCircle
 10
100.7916574906
 20
120.7912904799
 30
0.0
 40
3.8
  0
CIRCLE
  5
DA
330
1F
100
AcDbEntity
  8
0
  6
Continuous
 62
     7
370
    15
100
AcDbCircle
 10
100.7916574906
 20
120.7912904799
 30
0.0
 40
4.000000000000001
  0
CIRCLE
  5
DB
330
1F
100
AcDbEntity
  8
0
  6
Continuous
 62
     7
370
    15
100
AcDbCircle
 10
105.9081623232
 20
117.0266237092
 30
0.0
 40
2.0
  0
ARC
  5
DC
330
1F
100
AcDbEntity
  8
0
  6
Continuous
 62
     7
370
    15
100
AcDbCircle
 10
111.6508331769
 20
112.8012359844
 30
0.0
 40
9.305714426758438
100
AcDbArc
 50
138.4134676586
 51
148.89614541
  0
ARC
  5
DD
330
1F
100
AcDbEntity
  8
0
  6
Continuous
 62
     7
370
    15
100
AcDbCircle
 10
105.9081623232
 20
117.0266237092
 30
0.0
 40
2.299999999999989
100
AcDbArc
 50
58.03634847350001
 51
121.9636515265
  0
ARC
  5
DE
330
1F
100
AcDbEntity
  8
0
  6
Continuous
 62
     7
370
    15
100
AcDbCircle
 10
100.1654702865
 20
112.8012203982
 30
0.0
 40
9.305740616066402
100
AcDbArc
 50
31.1038693821
 51
41.5865175493
  0
ARC
  5
DF
330
1F
100
AcDbEntity
  8
0
  6
Continuous
 62
     7
370
    15
100
AcDbCircle
 10
105.9081623232
 20
117.0266237092
 30
0.0
 40
2.299999999999996
100
AcDbArc
 50
165.3459142184
 51
14.6540857818
  0
CIRCLE
  5
E0
330
1F
100
AcDbEntity
  8
0
  6
Continuous
 62
     7
370
    15
100
AcDbCircle
 10
100.7916574906
 20
120.7912904799
 30
0.0
 40
4.0
  0
ARC
  5
E1
330
1F
100
AcDbEntity
  8
0
  6
Continuous
 62
     7
370
    15
100
AcDbCircle
 10
100.7916574906
 20
120.7912904799
 30
0.0
 40
4.299999999999994
100
AcDbArc
 50
335.0569602641
 51
312.2526054808
  0
CIRCLE
  5
E2
330
1F
100
AcDbEntity
  8
0
  6
Continuous
 62
     7
370
    15
100
AcDbCircle
 10
111.0246671559
 20
120.7912904799
 30
0.0
 40
4.0
  0
ARC
  5
E3
330
1F
100
AcDbEntity
  8
0
  6
Continuous
 62
     7
370
    15
100
AcDbCircle
 10
111.0246671559
 20
120.7912904799
 30
0.0
 40
4.300000000000006
100
AcDbArc
 50
227.7473945191
 51
204.9430397359
  0
LWPOLYLINE
  5
E4
330
1F
100
AcDbEntity
  8
0
  6
Continuous
 62
     7
370
    15
100
AcDbPolyline
 90
        7
 70
   128
 43
0.0
 10
108.3667216724
 20
147.8724878189
 10
108.5161642538
 20
147.964871293
 10
108.6231648358
 20
148.1245176775
 10
108.6506882118
 20
148.2734333632
 10
108.6317176366
 20
148.4366020096
 10
108.5418184655
 20
148.6582791341
 10
108.4973459499
 20
148.7313609478
  0
LWPOLYLINE
  5
E5
330
1F
100
AcDbEntity
  8
0
  6
Continuous
 62
     7
370
    15
100
AcDbPolyline
 90
        7
 70
   128
 43
0.0
 10
116.9063405966
 20
134.1665541195
 10
116.7825668952
 20
134.3603444194
 10
116.6154634109
 20
134.5113206563
 10
116.4473242959
 20
134.5782985819
 10
116.3107346645
 20
134.5799223428
 10
116.1336511275
 20
134.5091797785
 10
116.0972233763
 20
134.4828666561
  0
LWPOLYLINE
  5
E6
330
1F
100
AcDbEntity
  8
0
  6
Continuous
 62
     7
370
    15
100
AcDbPolyline
 90
        3
 70
   128
 43
0.0
 10
116.0972233763
 20
134.4828666561
 10
116.0127719766
 20
134.5753698052
 10
115.9913254803
 20
134.5974901133
  0
ARC
  5
E7
330
1F
100
AcDbEntity
  8
0
  6
Continuous
 62
     7
370
    15
100
AcDbCircle
 10
105.9081623232
 20
137.5266237092
 30
0.0
 40
10.5
100
AcDbArc
 50
343.8015516943
 51
76.1984483057
  0
LWPOLYLINE
  5
E8
330
1F
100
AcDbEntity
  8
0
  6
Continuous
 62
     7
370
    15
100
AcDbPolyline
 90
        3
 70
   128
 43
0.0
 10
108.4130398365
 20
147.7234659624
 10
108.3989857132
 20
147.7721433994
 10
108.3667216724
 20
147.8724878189
  0
LWPOLYLINE
  5
E9
330
1F
100
AcDbEntity
  8
0
  6
Continuous
 62
     7
370
    15
100
AcDbPolyline
 90
        7
 70
   128
 43
0.0
 10
113.6386635615
 20
130.2245168855
 10
113.6439492827
 20
130.0489039068
 10
113.7287061563
 20
129.8764155154
 10
113.8439098274
 20
129.7781218683
 10
113.9947030595
 20
129.7129660753
 10
114.2316305911
 20
129.6799832863
 10
114.3171576684
 20
129.6819567588
  0
ARC
  5
EA
330
1F
100
AcDbEntity
  8
0
  6
Continuous
 62
     7
370
    15
100
AcDbCircle
 10
114.1354036592
 20
132.7766237092
 30
0.0
 40
2.600000000000001
100
AcDbArc
 50
258.9857086076
 51
41.0142913924
  0
ARC
  5
EB
330
1F
100
AcDbEntity
  8
0
  6
Continuous
 62
     7
370
    15
100
AcDbCircle
 10
114.1354036592
 20
132.7766237092
 30
0.0
 40
3.099999999999989
100
AcDbArc
 50
273.3611893804
 51
26.6388106196
  0
LWPOLYLINE
  5
EC
330
1F
100
AcDbEntity
  8
0
  6
Continuous
 62
     7
370
    15
100
AcDbPolyline
 90
        7
 70
   128
 43
0.0
 10
97.499166978
 20
129.6819567588
 10
97.7288814163
 20
129.6922534612
 10
97.943182466
 20
129.7614800652
 10
98.0852566561
 20
129.8736043182
 10
98.1549577689
 20
129.9910827448
 10
98.1822348101
 20
130.1798124706
 10
98.177661085
 20
130.2245168855
  0
LWPOLYLINE
  5
ED
330
1F
100
AcDbEntity
  8
0
  6
Continuous
 62
     7
370
    15
100
AcDbPolyline
 90
        3
 70
   128
 43
0.0
 10
98.177661085
 20
130.2245168855
 10
98.2999963587
 20
130.2514018399
 10
98.3298769122
 20
130.2589152848
  0
ARC
  5
EE
330
1F
100
AcDbEntity
  8
0
  6
Continuous
 62
     7
370
    15
100
AcDbCircle
 10
105.9081623232
 20
137.5266237092
 30
0.0
 40
10.50000000000001
100
AcDbArc
 50
223.8015516943
 51
316.1984483057
  0
LWPOLYLINE
  5
EF
330
1F
100
AcDbEntity
  8
0
  6
Continuous
 62
     7
370
    15
100
AcDbPolyline
 90
        3
 70
   128
 43
0.0
 10
113.4864477342
 20
130.2589152848
 10
113.5356308794
 20
130.2467475553
 10
113.6386635615
 20
130.2245168855
  0
LWPOLYLINE
  5
F0
330
1F
100
AcDbEntity
  8
0
  6
Continuous
 62
     7
370
    15
100
AcDbPolyline
 90
        7
 70
   128
 43
0.0
 10
103.3189786965
 20
148.7313609478
 10
103.2130386582
 20
148.5272737128
 10
103.1658406271
 20
148.3070699406
 10
103.1919057848
 20
148.1279682276
 10
103.2587945363
 20
148.0088660401
 10
103.408601032
 20
147.8908786458
 10
103.449602974
 20
147.8724878189
  0
ARC
  5
F1
330
1F
100
AcDbEntity
  8
0
  6
Continuous
 62
     7
370
    15
100
AcDbCircle
 10
105.9081623232
 20
147.0266237092
 30
0.0
 40
3.1
100
AcDbArc
 50
33.3611893804
 51
146.6388106196
  0
ARC
  5
F2
330
1F
100
AcDbEntity
  8
0
  6
Continuous
 62
     7
370
    15
100
AcDbCircle
 10
105.9081623232
 20
147.0266237092
 30
0.0
 40
2.60000000000001
100
AcDbArc
 50
18.9857086076
 51
161.0142913924
  0
LWPOLYLINE
  5
F3
330
1F
100
AcDbEntity
  8
0
  6
Continuous
 62
     7
370
    15
100
AcDbPolyline
 90
        7
 70
   128
 43
0.0
 10
95.7191012701
 20
134.4828666561
 10
95.5643732002
 20
134.566095695
 10
95.3726157447
 20
134.5789381676
 10
95.2298896289
 20
134.5283161291
 10
95.0980665064
 20
134.4303025772
 10
94.9510376802
 20
134.241609173
 10
94.9099840498
 20
134.1665541195
  0
LWPOLYLINE
  5
F4
330
1F
100
AcDbEntity
  8
0
  6
Continuous
 62
     7
370
    15
100
AcDbPolyline
 90
        3
 70
   128
 43
0.0
 10
103.449602974
 20
147.8724878189
 10
103.4117181687
 20
147.7530997154
 10
103.4032848099
 20
147.7234659624
  0
ARC
  5
F5
330
1F
100
AcDbEntity
  8
0
  6
Continuous
 62
     7
370
    15
100
AcDbCircle
 10
105.9081623232
 20
137.5266237092
 30
0.0
 40
10.5
100
AcDbArc
 50
103.8015516943
 51
196.1984483057
  0
LWPOLYLINE
  5
F6
330
1F
100
AcDbEntity
  8
0
  6
Continuous
 62
     7
370
    15
100
AcDbPolyline
 90
        3
 70
   128
 43
0.0
 10
95.8249991661
 20
134.5974901133
 10
95.7898706099
 20
134.5609801729
 10
95.7191012701
 20
134.4828666561
  0
ARC
  5
F7
330
1F
100
AcDbEntity
  8
0
  6
Continuous
 62
     7
370
    15
100
AcDbCircle
 10
97.6809209873
 20
132.7766237092
 30
0.0
 40
2.60000000000001
100
AcDbArc
 50
138.9857086076
 51
281.0142913924
  0
ARC
  5
F8
330
1F
100
AcDbEntity
  8
0
  6
Continuous
 62
     7
370
    15
100
AcDbCircle
 10
97.6809209873
 20
132.7766237092
 30
0.0
 40
3.100000000000014
100
AcDbArc
 50
153.3611893804
 51
266.6388106196
  0
CIRCLE
  5
F9
330
1F
100
AcDbEntity
  8
0
  6
Continuous
 62
     7
370
    15
100
AcDbCircle
 10
117.0450941269
 20
148.6635555129
 30
0.0
 40
2.099999999999994
  0
CIRCLE
  5
FA
330
1F
100
AcDbEntity
  8
0
  6
Continuous
 62
     7
370
    15
100
AcDbCircle
 10
94.7712305195
 20
148.6635555129
 30
0.0
 40
2.099999999999994
  0
CIRCLE
  5
FB
330
1F
100
AcDbEntity
  8
0
  6
Continuous
 62
     7
370
    15
100
AcDbCircle
 10
94.7712305195
 20
126.3896919055
 30
0.0
 40
2.09999999999998
  0
CIRCLE
  5
FC
330
1F
100
AcDbEntity
  8
0
  6
Continuous
 62
     7
370
    15
100
AcDbCircle
 10
117.0450941269
 20
126.3896919055
 30
0.0
 40
2.09999999999998
  0
LINE
  5
FD
330
1F
100
AcDbEntity
  8
0
  6
Continuous
 62
     7
370
    15
100
AcDbLine
 10
115.6091242175
 20
117.724064826
 30
0.0
 11
116.5856637845
 21
116.0326486803
 31
0.0
  0
ARC
  5
FE
330
1F
100
AcDbEntity
  8
0
  6
Continuous
 62
     7
370
    15
100
AcDbCircle
 10
105.9081623232
 20
137.5266237092
 30
0.0
 40
24.00000000000001
100
AcDbArc
 50
101.7158523949
 51
296.4166783015
  0
LINE
  5
FF
330
1F
100
AcDbEntity
  8
0
  6
Continuous
 62
     7
370
    15
100
AcDbLine
 10
110.7815594956
 20
161.0266237092
 30
0.0
 11
101.0347651508
 21
161.0266237092
 31
0.0
  0
ARC
  5
100
330
1F
100
AcDbEntity
  8
0
  6
Continuous
 62
     7
370
    15
100
AcDbCircle
 10
105.9081623232
 20
137.5266237092
 30
0.0
 40
24.0
100
AcDbArc
 50
303.5833216985
 51
78.2841476051
  0
LINE
  5
101
330
1F
100
AcDbEntity
  8
0
  6
Continuous
 62
     7
370
    15
100
AcDbLine
 10
119.1837399959
 20
117.5326486803
 30
0.0
 11
118.2072004289
 21
119.224064826
 31
0.0
  0
ARC
  5
102
330
1F
100
AcDbEntity
  8
0
  6
Continuous
 62
     7
370
    15
100
AcDbCircle
 10
116.9081623232
 20
118.474064826
 30
0.0
 40
1.500000000000012
100
AcDbArc
 50
30.0
 51
210.0
  0
CIRCLE
  5
103
330
1F
100
AcDbEntity
  8
0
  6
Continuous
 62
     7
370
    15
100
AcDbCircle
 10
97.9081623232
 20
157.0266237092
 30
0.0
 40
1.649999999999992
  0
CIRCLE
  5
104
330
1F
100
AcDbEntity
  8
0
  6
Continuous
 62
     7
370
    15
100
AcDbCircle
 10
113.9081623232
 20
157.0266237092
 30
0.0
 40
1.649999999999992
  0
CIRCLE
  5
105
330
1F
100
AcDbEntity
  8
0
  6
Continuous
 62
     7
370
    15
100
AcDbCircle
 10
105.9081623232
 20
153.2766237092
 30
0.0
 40
2.299999999999983
  0
CIRCLE
  5
106
330
1F
100
AcDbEntity
  8
0
  6
Continuous
 62
     7
370
    15
100
AcDbCircle
 10
89.1728290939
 20
132.4101188766
 30
0.0
 40
4.299999999999997
  0
CIRCLE
  5
107
330
1F
100
AcDbEntity
  8
0
  6
Continuous
 62
     7
370
    15
100
AcDbCircle
 10
89.1728290939
 20
142.6431285419
 30
0.0
 40
4.299999999999997
  0
CIRCLE
  5
108
330
1F
100
AcDbEntity
  8
0
  6
Continuous
 62
     7
370
    15
100
AcDbCircle
 10
122.6434955526
 20
132.4101188766
 30
0.0
 40
4.299999999999997
  0
CIRCLE
  5
109
330
1F
100
AcDbEntity
  8
0
  6
Continuous
 62
     7
370
    15
100
AcDbCircle
 10
122.6434955526
 20
142.6431285419
 30
0.0
 40
4.299999999999997
  0
CIRCLE
  5
10A
330
1F
100
AcDbEntity
  8
0
  6
Continuous
 62
     7
370
    15
100
AcDbCircle
 10
122.6434955526
 20
142.6431285419
 30
0.0
 40
4.0
  0
CIRCLE
  5
10B
330
1F
100
AcDbEntity
  8
0
  6
Continuous
 62
     7
370
    15
100
AcDbCircle
 10
122.6434955526
 20
132.4101188766
 30
0.0
 40
4.0
  0
CIRCLE
  5
10C
330
1F
100
AcDbEntity
  8
0
  6
Continuous
 62
     7
370
    15
100
AcDbCircle
 10
105.9081623232
 20
153.2766237092
 30
0.0
 40
2.0
  0
CIRCLE
  5
10D
330
1F
100
AcDbEntity
  8
0
  6
Continuous
 62
     7
370
    15
100
AcDbCircle
 10
89.1728290939
 20
132.4101188766
 30
0.0
 40
4.0
  0
CIRCLE
  5
10E
330
1F
100
AcDbEntity
  8
0
  6
Continuous
 62
     7
370
    15
100
AcDbCircle
 10
89.1728290939
 20
142.6431285419
 30
0.0
 40
4.0
  0
ARC
  5
10F
330
1F
100
AcDbEntity
  8
0
  6
Continuous
 62
     7
370
    15
100
AcDbCircle
 10
105.9081623232
 20
137.5266237092
 30
0.0
 40
24.00000000000001
100
AcDbArc
 50
296.4166783015
 51
303.5833216985
  0
LWPOLYLINE
  5
110
330
1F
100
AcDbEntity
  8
0
  6
Continuous
 62
     7
370
    15
100
AcDbPolyline
 90
        4
 70
   128
 43
0.0
 10
121.9001984125
 20
132.3100768869
 10
121.9497522241
 20
132.4462241401
 10
122.0856601274
 20
132.8196314071
 10
122.1384027874
 20
132.9645382148
  0
LWPOLYLINE
  5
111
330
1F
100
AcDbEntity
  8
0
  6
Continuous
 62
     7
370
    15
100
AcDbPolyline
 90
        4
 70
   128
 43
0.0
 10
122.1384027874
 20
142.0887092036
 10
122.0856601274
 20
142.2336160113
 10
121.9497522241
 20
142.6070232784
 10
121.9001984125
 20
142.7431705316
  0
ARC
  5
112
330
1F
100
AcDbEntity
  8
0
  6
Continuous
 62
     7
370
    15
100
AcDbCircle
 10
113.5142139385
 20
133.4111940141
 30
0.0
 40
2.917684784799335
100
AcDbArc
 50
273.8598323052
 51
325.302196766
  0
ARC
  5
113
330
1F
100
AcDbEntity
  8
0
  6
Continuous
 62
     7
370
    15
100
AcDbCircle
 10
113.3613803585
 20
132.9979342198
 30
0.0
 40
2.840336602017729
100
AcDbArc
 50
333.9437692382
 51
26.8942074279
  0
ARC
  5
114
330
1F
100
AcDbEntity
  8
0
  6
Continuous
 62
     7
370
    15
100
AcDbCircle
 10
105.9066905034
 20
137.5270849518
 30
0.0
 40
10.50154219792988
100
AcDbArc
 50
342.0046756308
 51
343.801375122
  0
LWPOLYLINE
  5
115
330
1F
100
AcDbEntity
  8
0
  6
Continuous
 62
     7
370
    15
100
AcDbPolyline
 90
        3
 70
   128
 43
0.0
 10
113.4864477342
 20
130.2589152848
 10
113.5773783451
 20
130.3549341765
 10
113.7106203375
 20
130.5001273659
  0
ARC
  5
116
330
1F
100
AcDbEntity
  8
0
  6
Continuous
 62
     7
370
    15
100
AcDbCircle
 10
105.6628543401
 20
146.1605600025
 30
0.0
 40
2.928986136619455
100
AcDbArc
 50
33.966271394
 51
85.195745273
  0
ARC
  5
117
330
1F
100
AcDbEntity
  8
0
  6
Continuous
 62
     7
370
    15
100
AcDbCircle
 10
106.120506159
 20
146.2167033854
 30
0.0
 40
2.870417196335583
100
AcDbArc
 50
94.2424250713
 51
146.5955582617
  0
ARC
  5
118
330
1F
100
AcDbEntity
  8
0
  6
Continuous
 62
     7
370
    15
100
AcDbCircle
 10
105.9086197996
 20
137.5245899426
 30
0.0
 40
10.50208433971611
100
AcDbArc
 50
102.0047224864
 51
103.8013286202
  0
LWPOLYLINE
  5
119
330
1F
100
AcDbEntity
  8
0
  6
Continuous
 62
     7
370
    15
100
AcDbPolyline
 90
        3
 70
   128
 43
0.0
 10
108.4130398365
 20
147.7234659624
 10
108.2844195323
 20
147.754204264
 10
108.0920576485
 20
147.7969985363
  0
ARC
  5
11A
330
1F
100
AcDbEntity
  8
0
  6
Continuous
 62
     7
370
    15
100
AcDbCircle
 10
98.5194099145
 20
132.9974627919
 30
0.0
 40
2.898185591373353
100
AcDbArc
 50
153.673982944
 51
205.4880403899
  0
ARC
  5
11B
330
1F
100
AcDbEntity
  8
0
  6
Continuous
 62
     7
370
    15
100
AcDbCircle
 10
98.2596037932
 20
133.3363105479
 30
0.0
 40
2.840355627879736
100
AcDbArc
 50
213.9439591764
 51
266.8940117523
  0
ARC
  5
11C
330
1F
100
AcDbEntity
  8
0
  6
Continuous
 62
     7
370
    15
100
AcDbCircle
 10
105.9080484958
 20
137.5265312187
 30
0.0
 40
10.49985361394537
100
AcDbArc
 50
222.0046293895
 51
223.8016174128
  0
LWPOLYLINE
  5
11D
330
1F
100
AcDbEntity
  8
0
  6
Continuous
 62
     7
370
    15
100
AcDbPolyline
 90
        3
 70
   128
 43
0.0
 10
95.8249991661
 20
134.5974901133
 10
95.8626888594
 20
134.4707326871
 10
95.9218092164
 20
134.2827449926
  0
ARC
  5
11E
330
1F
100
AcDbEntity
  8
0
  6
Continuous
 62
     7
370
    15
100
AcDbCircle
 10
105.9081422234
 20
137.5268130145
 30
0.0
 40
10.49981055322806
100
AcDbArc
 50
89.9998903184
 51
102.0046965664
  0
ARC
  5
11F
330
1F
100
AcDbEntity
  8
0
  6
Continuous
 62
     7
370
    15
100
AcDbCircle
 10
105.9081778475
 20
137.5267694973
 30
0.0
 40
10.49985407033537
100
AcDbArc
 50
77.9953284023
 51
90.000084713
  0
ARC
  5
120
330
1F
100
AcDbEntity
  8
0
  6
Continuous
 62
     7
370
    15
100
AcDbCircle
 10
105.9085802131
 20
137.5269274785
 30
0.0
 40
10.50051390162144
100
AcDbArc
 50
210.0002945383
 51
222.0042945624
  0
ARC
  5
121
330
1F
100
AcDbEntity
  8
0
  6
Continuous
 62
     7
370
    15
100
AcDbCircle
 10
105.9075682034
 20
137.5263580012
 30
0.0
 40
10.49935273699731
100
AcDbArc
 50
197.9950343842
 51
210.0003645475
  0
ARC
  5
122
330
1F
100
AcDbEntity
  8
0
  6
Continuous
 62
     7
370
    15
100
AcDbCircle
 10
105.908771273
 20
137.5263513992
 30
0.0
 40
10.49933659290382
100
AcDbArc
 50
329.9996261887
 51
342.0049748796
  0
ARC
  5
123
330
1F
100
AcDbEntity
  8
0
  6
Continuous
 62
     7
370
    15
100
AcDbCircle
 10
105.9002762659
 20
137.5323538767
 30
0.0
 40
10.50969477273659
100
AcDbArc
 50
318.0009677951
 51
329.9944431042
  0
DIMENSION
  5
124
330
1F
100
AcDbEntity
  8
0
  6
Continuous
 62
     7
370
     0
100
AcDbDimension
280
     0
  2
*D3
 10
121.6581623232
 20
101.473241243
 30
0.0
 11
105.9081623232
 21
101.473241243
 31
0.0
 70
    32
  1
P.C.D.<>
 71
     1
 42
-1.0
 73
     0
 74
     0
 75
     0
  3
SLDDIMSTYLE0
100
AcDbAlignedDimension
 13
90.1581623232
 23
137.5266237092
 33
0.0
 14
121.6581623232
 24
137.5266237092
 34
0.0
100
AcDbRotatedDimension
1001
ACAD
1000
DSTYLE
1002
{
1070
    77
1070
     3
1070
   143
1040
0.0393700787
1070
    41
1040
6.0
1070
    44
1040
1.0
1070
    42
1040
1.0
1070
   147
1040
1.524
1070
    73
1070
     0
1070
    74
1070
     0
1070
   140
1040
9.8777777778
1070
   284
1070
    12
1070
    78
1070
    12
1002
}
  0
DIMENSION
  5
140
330
1F
100
AcDbEntity
  8
0
  6
Continuous
 62
     7
370
     0
100
AcDbDimension
280
     0
  2
*D4
 10
96.0264636154
 20
146.9799908795
 30
0.0
 11
54.8485396042
 21
173.3822696426
 31
0.0
 70
    35
  1
4-M5(90%%d等配)      
 71
     1
 42
-1.0
 73
     0
 74
     0
 75
     0
  3
SLDDIMSTYLE1
100
AcDbDiametricDimension
 15
93.5159974236
 25
150.3471201463
 35
0.0
 40
0.0
1001
ACAD
1000
DSTYLE
1002
{
1070
    77
1070
     0
1070
   143
1040
0.0393700787
1070
    41
1040
6.0
1070
    44
1040
1.0
1070
    42
1040
1.0
1070
   147
1040
1.524
1070
    73
1070
     1
1070
    74
1070
     1
1070
   140
1040
9.8777777778
1070
   284
1070
    12
1070
    78
1070
    12
1002
}
  0
DIMENSION
  5
155
330
1F
100
AcDbEntity
  8
0
  6
Continuous
 62
     7
370
     0
100
AcDbDimension
280
     0
  2
*D5
 10
81.8632991142
 20
86.2416487852
 30
0.0
 11
102.5672891458
 21
86.2235409985
 31
0.0
 70
    32
  1
%%c<>
 71
     1
 42
-1.0
 73
     0
 74
     0
 75
     0
  3
SLDDIMSTYLE2
100
AcDbAlignedDimension
 13
129.908153144
 23
137.505633228
 33
0.0
 14
81.9081715024
 24
137.5476141905
 34
0.0
 50
359.9498889109
100
AcDbRotatedDimension
1001
ACAD
1000
DSTYLE
1002
{
1070
    77
1070
     3
1070
   143
1040
0.0393700787
1070
    41
1040
6.0
1070
    44
1040
1.0
1070
    42
1040
1.0
1070
   147
1040
1.524
1070
    73
1070
     0
1070
    74
1070
     0
1070
   140
1040
9.8777777778
1070
   284
1070
    12
1070
    78
1070
    12
1002
}
  0
DIMENSION
  5
16B
330
1F
100
AcDbEntity
  8
0
  6
Continuous
 62
     7
370
     0
100
AcDbDimension
280
     0
  2
*D6
 10
63.1917777212
 20
113.5266237092
 30
0.0
 11
63.1917777212
 21
137.2766237092
 31
0.0
 70
    32
 71
     1
 42
-1.0
 73
     0
 74
     0
 75
     0
  3
SLDDIMSTYLE3
100
AcDbAlignedDimension
 13
101.0347651508
 23
161.0266237092
 33
0.0
 14
105.9081623232
 24
113.5266237092
 34
0.0
 50
90.0
100
AcDbRotatedDimension
1001
ACAD
1000
DSTYLE
1002
{
1070
    77
1070
     3
1070
   143
1040
0.0393700787
1070
    41
1040
6.0
1070
    44
1040
1.0
1070
    42
1040
1.0
1070
   147
1040
1.524
1070
    73
1070
     0
1070
    74
1070
     0
1070
   140
1040
9.8777777778
1070
   284
1070
    12
1070
    78
1070
    12
1002
}
  0
DIMENSION
  5
180
330
1F
100
AcDbEntity
  8
0
  6
Continuous
 62
     7
370
     0
100
AcDbDimension
280
     0
  2
*D7
 10
79.4081623232
 20
137.5266237092
 30
0.0
 11
140.4259478548
 21
151.8243586195
 31
0.0
 70
    34
 71
     1
 42
-1.0
 73
     0
 74
     0
 75
     0
  3
SLDDIMSTYLE4
100
AcDb2LineAngularDimension
 13
120.2977853204
 23
151.9162467064
 33
0.0
 14
113.7924029334
 24
145.4108643195
 34
0.0
 15
132.4081623232
 25
137.5266237092
 35
0.0
 16
142.5520479924
 26
144.8155457577
 36
0.0
1001
ACAD
1000
DSTYLE
1002
{
1070
    77
1070
     3
1070
   143
1040
0.0393700787
1070
    41
1040
6.0
1070
    44
1040
1.0
1070
    42
1040
1.0
1070
   147
1040
1.524
1070
    73
1070
     0
1070
    74
1070
     0
1070
   140
1040
9.8777777778
1070
   284
1070
    12
1070
    78
1070
    12
1002
}
  0
MTEXT
  5
197
330
1F
100
AcDbEntity
  8
0
  6
Continuous
 62
     7
370
     0
100
AcDbMText
 10
38.0877600319
 20
169.1125102923
 30
0.0
 40
3.175
 41
0.0
 46
0.0
 71
     1
 72
     1
  1
ツール取付用タップ
  7
SLDTEXTSTYLE0
 73
     1
 44
1.0
  0
INSERT
  5
1A3
330
1F
100
AcDbEntity
  8
0
  6
Continuous
 62
     7
370
     0
100
AcDbBlockReference
  2
SW_CENTERMARKSYMBOL_0
 10
94.7712305195
 20
126.3896919055
 30
0.0
  0
INSERT
  5
1AF
330
1F
100
AcDbEntity
  8
0
  6
Continuous
 62
     7
370
     0
100
AcDbBlockReference
  2
SW_CENTERMARKSYMBOL_1
 10
94.7712305195
 20
148.6635555129
 30
0.0
  0
INSERT
  5
1BB
330
1F
100
AcDbEntity
  8
0
  6
Continuous
 62
     7
370
     0
100
AcDbBlockReference
  2
SW_CENTERMARKSYMBOL_2
 10
97.9081623232
 20
157.0266237092
 30
0.0
  0
INSERT
  5
1C7
330
1F
100
AcDbEntity
  8
0
  6
Continuous
 62
     7
370
     0
100
AcDbBlockReference
  2
SW_CENTERMARKSYMBOL_3
 10
113.9081623232
 20
157.0266237092
 30
0.0
  0
INSERT
  5
1D3
330
1F
100
AcDbEntity
  8
0
  6
Continuous
 62
     7
370
     0
100
AcDbBlockReference
  2
SW_CENTERMARKSYMBOL_4
 10
117.0450941269
 20
148.6635555129
 30
0.0
  0
INSERT
  5
1DF
330
1F
100
AcDbEntity
  8
0
  6
Continuous
 62
     7
370
     0
100
AcDbBlockReference
  2
SW_CENTERMARKSYMBOL_5
 10
117.0450941269
 20
126.3896919055
 30
0.0
  0
INSERT
  5
1EB
330
1F
100
AcDbEntity
  8
0
  6
Continuous
 62
     7
370
     0
100
AcDbBlockReference
  2
SW_CENTERMARKSYMBOL_6
 10
105.9081623232
 20
117.0266237092
 30
0.0
  0
INSERT
  5
1F7
330
1F
100
AcDbEntity
  8
0
  6
Continuous
 62
     7
370
     0
100
AcDbBlockReference
  2
SW_CENTERMARKSYMBOL_7
 10
105.9081623232
 20
153.2766237092
 30
0.0
  0
INSERT
  5
203
330
1F
100
AcDbEntity
  8
0
  6
Continuous
 62
     7
370
     0
100
AcDbBlockReference
  2
SW_CENTERMARKSYMBOL_8
 10
105.9081623232
 20
137.5266237092
 30
0.0
  0
LINE
  5
204
330
1F
100
AcDbEntity
  8
0
  6
Continuous
 62
     7
370
    15
100
AcDbLine
 10
103.4416574906
 20
208.5549394656
 30
0.0
 11
103.4416573955
 21
211.4549374986
 31
0.0
  0
LINE
  5
205
330
1F
100
AcDbEntity
  8
0
  6
Continuous
 62
     7
370
    15
100
AcDbLine
 10
98.1416575512
 20
211.4549374986
 30
0.0
 11
98.1416574906
 21
208.5549394656
 31
0.0
  0
LINE
  5
206
330
1F
100
AcDbEntity
  8
0
  6
Continuous
 62
     7
370
    15
100
AcDbLine
 10
98.1416574906
 20
208.5549394656
 30
0.0
 11
98.6416574906
 21
208.0549394656
 31
0.0
  0
LINE
  5
207
330
1F
100
AcDbEntity
  8
0
  6
Continuous
 62
     7
370
    15
100
AcDbLine
 10
102.9416574906
 20
208.0549394656
 30
0.0
 11
103.4416574906
 21
208.5549394656
 31
0.0
  0
LINE
  5
208
330
1F
100
AcDbEntity
  8
0
  6
Continuous
 62
     7
370
    15
100
AcDbLine
 10
113.6746671559
 20
208.5549394656
 30
0.0
 11
113.6746670952
 21
211.4549374986
 31
0.0
  0
LINE
  5
209
330
1F
100
AcDbEntity
  8
0
  6
Continuous
 62
     7
370
    15
100
AcDbLine
 10
108.3746672509
 20
211.4549374986
 30
0.0
 11
108.3746671559
 21
208.5549394656
 31
0.0
  0
LINE
  5
20A
330
1F
100
AcDbEntity
  8
0
  6
Continuous
 62
     7
370
    15
100
AcDbLine
 10
108.3746671559
 20
208.5549394656
 30
0.0
 11
108.8746671559
 21
208.0549394656
 31
0.0
  0
LINE
  5
20B
330
1F
100
AcDbEntity
  8
0
  6
Continuous
 62
     7
370
    15
100
AcDbLine
 10
113.1746671559
 20
208.0549394656
 30
0.0
 11
113.6746671559
 21
208.5549394656
 31
0.0
  0
LINE
  5
20C
330
1F
100
AcDbEntity
  8
0
  6
Continuous
 62
     7
370
    15
100
AcDbLine
 10
125.2934955526
 20
208.5549394656
 30
0.0
 11
125.2934964275
 21
211.4549374986
 31
0.0
  0
LINE
  5
20D
330
1F
100
AcDbEntity
  8
0
  6
Continuous
 62
     7
370
    15
100
AcDbLine
 10
119.9934951862
 20
211.4549374986
 30
0.0
 11
119.9934955526
 21
208.5549394656
 31
0.0
  0
LINE
  5
20E
330
1F
100
AcDbEntity
  8
0
  6
Continuous
 62
     7
370
    15
100
AcDbLine
 10
119.9934955526
 20
208.5549394656
 30
0.0
 11
120.4934955526
 21
208.0549394656
 31
0.0
  0
LINE
  5
20F
330
1F
100
AcDbEntity
  8
0
  6
Continuous
 62
     7
370
    15
100
AcDbLine
 10
124.7934955526
 20
208.0549394656
 30
0.0
 11
125.2934955526
 21
208.5549394656
 31
0.0
  0
LINE
  5
210
330
1F
100
AcDbEntity
  8
0
  6
Continuous
 62
     7
370
    15
100
AcDbLine
 10
91.8228290939
 20
208.5549394656
 30
0.0
 11
91.8228294602
 21
211.4549374986
 31
0.0
  0
LINE
  5
211
330
1F
100
AcDbEntity
  8
0
  6
Continuous
 62
     7
370
    15
100
AcDbLine
 10
86.5228282189
 20
211.4549374986
 30
0.0
 11
86.5228290939
 21
208.5549394656
 31
0.0
  0
LINE
  5
212
330
1F
100
AcDbEntity
  8
0
  6
Continuous
 62
     7
370
    15
100
AcDbLine
 10
86.5228290939
 20
208.5549394656
 30
0.0
 11
87.0228290939
 21
208.0549394656
 31
0.0
  0
LINE
  5
213
330
1F
100
AcDbEntity
  8
0
  6
Continuous
 62
     7
370
    15
100
AcDbLine
 10
91.3228290939
 20
208.0549394656
 30
0.0
 11
91.8228290939
 21
208.5549394656
 31
0.0
  0
LINE
  5
214
330
1F
100
AcDbEntity
  8
0
  6
Continuous
 62
     7
370
    15
100
AcDbLine
 10
129.9081623232
 20
211.4549394656
 30
0.0
 11
129.9081623232
 21
224.4549394656
 31
0.0
  0
LINE
  5
215
330
1F
100
AcDbEntity
  8
0
  6
Continuous
 62
     7
370
    15
100
AcDbLine
 10
81.9081623232
 20
224.4549394656
 30
0.0
 11
81.9081623232
 21
211.4549394656
 31
0.0
  0
LINE
  5
216
330
1F
100
AcDbEntity
  8
0
  6
Continuous
 62
     7
370
    15
100
AcDbLine
 10
98.1416574906
 20
208.5549394656
 30
0.0
 11
103.4416574906
 21
208.5549394656
 31
0.0
  0
LINE
  5
217
330
1F
100
AcDbEntity
  8
0
  6
Continuous
 62
     7
370
    15
100
AcDbLine
 10
102.9416574906
 20
208.0549394656
 30
0.0
 11
98.6416574906
 21
208.0549394656
 31
0.0
  0
LINE
  5
218
330
1F
100
AcDbEntity
  8
0
  6
Continuous
 62
     7
370
    15
100
AcDbLine
 10
108.3746671559
 20
208.5549394656
 30
0.0
 11
113.6746671559
 21
208.5549394656
 31
0.0
  0
LINE
  5
219
330
1F
100
AcDbEntity
  8
0
  6
Continuous
 62
     7
370
    15
100
AcDbLine
 10
113.1746671559
 20
208.0549394656
 30
0.0
 11
108.8746671559
 21
208.0549394656
 31
0.0
  0
LINE
  5
21A
330
1F
100
AcDbEntity
  8
0
  6
Continuous
 62
     7
370
    15
100
AcDbLine
 10
119.9934955526
 20
208.5549394656
 30
0.0
 11
125.2934955526
 21
208.5549394656
 31
0.0
  0
LINE
  5
21B
330
1F
100
AcDbEntity
  8
0
  6
Continuous
 62
     7
370
    15
100
AcDbLine
 10
124.7934955526
 20
208.0549394656
 30
0.0
 11
120.4934955526
 21
208.0549394656
 31
0.0
  0
LINE
  5
21C
330
1F
100
AcDbEntity
  8
0
  6
Continuous
 62
     7
370
    15
100
AcDbLine
 10
86.5228290939
 20
208.5549394656
 30
0.0
 11
91.8228290939
 21
208.5549394656
 31
0.0
  0
LINE
  5
21D
330
1F
100
AcDbEntity
  8
0
  6
Continuous
 62
     7
370
    15
100
AcDbLine
 10
91.3228290939
 20
208.0549394656
 30
0.0
 11
87.0228290939
 21
208.0549394656
 31
0.0
  0
LINE
  5
21E
330
1F
100
AcDbEntity
  8
0
  6
Continuous
 62
     7
370
    15
100
AcDbLine
 10
124.4434783137
 20
208.054939549
 30
0.0
 11
124.4434783137
 21
207.3549426008
 31
0.0
  0
LINE
  5
21F
330
1F
100
AcDbEntity
  8
0
  6
Continuous
 62
     7
370
    15
100
AcDbLine
 10
124.1699790267
 20
207.3549394656
 30
0.0
 11
124.1699786758
 21
208.054939549
 31
0.0
  0
LINE
  5
220
330
1F
100
AcDbEntity
  8
0
  6
Continuous
 62
     7
370
    15
100
AcDbLine
 10
124.1699790267
 20
207.3549394656
 30
0.0
 11
120.8435133871
 21
207.3549394656
 31
0.0
  0
LINE
  5
221
330
1F
100
AcDbEntity
  8
0
  6
Continuous
 62
     7
370
    15
100
AcDbLine
 10
120.8435133001
 20
208.054939549
 30
0.0
 11
120.8435133871
 21
207.3549394656
 31
0.0
  0
LWPOLYLINE
  5
222
330
1F
100
AcDbEntity
  8
0
  6
Continuous
 62
     7
370
    15
100
AcDbPolyline
 90
        3
 70
   128
 43
0.0
 10
123.8670399314
 20
206.8549415875
 10
124.0151891386
 20
207.0982999015
 10
124.1699786758
 20
207.3549426008
  0
LINE
  5
223
330
1F
100
AcDbEntity
  8
0
  6
Continuous
 62
     7
370
    15
100
AcDbLine
 10
123.867039165
 20
206.8549394656
 30
0.0
 11
121.1464532489
 21
206.8549394656
 31
0.0
  0
LINE
  5
224
330
1F
100
AcDbEntity
  8
0
  6
Continuous
 62
     7
370
    15
100
AcDbLine
 10
120.8435133871
 20
207.3549394656
 30
0.0
 11
121.1464532489
 21
206.8549394656
 31
0.0
  0
LINE
  5
225
330
1F
100
AcDbEntity
  8
0
  6
Continuous
 62
     7
370
    15
100
AcDbLine
 10
124.4434783137
 20
207.3549426008
 30
0.0
 11
124.1405377066
 21
206.8549415875
 31
0.0
  0
LINE
  5
226
330
1F
100
AcDbEntity
  8
0
  6
Continuous
 62
     7
370
    15
100
AcDbLine
 10
124.1405377066
 20
206.8549415875
 30
0.0
 11
123.867039165
 21
206.8549394656
 31
0.0
  0
LINE
  5
227
330
1F
100
AcDbEntity
  8
0
  6
Continuous
 62
     7
370
    15
100
AcDbLine
 10
90.9175056866
 20
208.054939549
 30
0.0
 11
90.9175056866
 21
207.3549426008
 31
0.0
  0
LINE
  5
228
330
1F
100
AcDbEntity
  8
0
  6
Continuous
 62
     7
370
    15
100
AcDbLine
 10
90.8846030396
 20
207.3549394656
 30
0.0
 11
90.8846029913
 21
208.054939549
 31
0.0
  0
LINE
  5
229
330
1F
100
AcDbEntity
  8
0
  6
Continuous
 62
     7
370
    15
100
AcDbLine
 10
90.8846030396
 20
207.3549394656
 30
0.0
 11
87.4281522455
 21
207.3549394656
 31
0.0
  0
LINE
  5
22A
330
1F
100
AcDbEntity
  8
0
  6
Continuous
 62
     7
370
    15
100
AcDbLine
 10
87.4281519925
 20
208.054939549
 30
0.0
 11
87.4281522455
 21
207.3549394656
 31
0.0
  0
LWPOLYLINE
  5
22B
330
1F
100
AcDbEntity
  8
0
  6
Continuous
 62
     7
370
    15
100
AcDbPolyline
 90
        3
 70
   128
 43
0.0
 10
90.5698252743
 20
206.8549415875
 10
90.7237654453
 20
207.0982999015
 10
90.8846029913
 20
207.3549426008
  0
LINE
  5
22C
330
1F
100
AcDbEntity
  8
0
  6
Continuous
 62
     7
370
    15
100
AcDbLine
 10
90.5698254831
 20
206.8549394656
 30
0.0
 11
87.742929802
 21
206.8549394656
 31
0.0
  0
LINE
  5
22D
330
1F
100
AcDbEntity
  8
0
  6
Continuous
 62
     7
370
    15
100
AcDbLine
 10
87.4281522455
 20
207.3549394656
 30
0.0
 11
87.742929802
 21
206.8549394656
 31
0.0
  0
LINE
  5
22E
330
1F
100
AcDbEntity
  8
0
  6
Continuous
 62
     7
370
    15
100
AcDbLine
 10
90.9175056866
 20
207.3549426008
 30
0.0
 11
90.6027279696
 21
206.8549415875
 31
0.0
  0
LINE
  5
22F
330
1F
100
AcDbEntity
  8
0
  6
Continuous
 62
     7
370
    15
100
AcDbLine
 10
90.6027279696
 20
206.8549415875
 30
0.0
 11
90.5698254831
 21
206.8549394656
 31
0.0
  0
LINE
  5
230
330
1F
100
AcDbEntity
  8
0
  6
Continuous
 62
     7
370
    15
100
AcDbLine
 10
112.7693437873
 20
208.054939549
 30
0.0
 11
112.7693437873
 21
207.3549426008
 31
0.0
  0
LINE
  5
231
330
1F
100
AcDbEntity
  8
0
  6
Continuous
 62
     7
370
    15
100
AcDbLine
 10
112.7364411016
 20
207.3549394656
 30
0.0
 11
112.736441092
 21
208.054939549
 31
0.0
  0
LINE
  5
232
330
1F
100
AcDbEntity
  8
0
  6
Continuous
 62
     7
370
    15
100
AcDbLine
 10
112.7364411016
 20
207.3549394656
 30
0.0
 11
109.2799903075
 21
207.3549394656
 31
0.0
  0
LINE
  5
233
330
1F
100
AcDbEntity
  8
0
  6
Continuous
 62
     7
370
    15
100
AcDbLine
 10
109.2799903261
 20
208.054939549
 30
0.0
 11
109.2799903075
 21
207.3549394656
 31
0.0
  0
LWPOLYLINE
  5
234
330
1F
100
AcDbEntity
  8
0
  6
Continuous
 62
     7
370
    15
100
AcDbPolyline
 90
        3
 70
   128
 43
0.0
 10
112.421663375
 20
206.8549415875
 10
112.5756030804
 20
207.0982999015
 10
112.736441092
 20
207.3549426008
  0
LINE
  5
235
330
1F
100
AcDbEntity
  8
0
  6
Continuous
 62
     7
370
    15
100
AcDbLine
 10
112.4216635451
 20
206.8549394656
 30
0.0
 11
109.594767864
 21
206.8549394656
 31
0.0
  0
LINE
  5
236
330
1F
100
AcDbEntity
  8
0
  6
Continuous
 62
     7
370
    15
100
AcDbLine
 10
109.2799903075
 20
207.3549394656
 30
0.0
 11
109.594767864
 21
206.8549394656
 31
0.0
  0
LINE
  5
237
330
1F
100
AcDbEntity
  8
0
  6
Continuous
 62
     7
370
    15
100
AcDbLine
 10
112.4545665359
 20
206.8549415875
 30
0.0
 11
112.4216635451
 21
206.8549394656
 31
0.0
  0
LINE
  5
238
330
1F
100
AcDbEntity
  8
0
  6
Continuous
 62
     7
370
    15
100
AcDbLine
 10
112.7693437873
 20
207.3549426008
 30
0.0
 11
112.4545665359
 21
206.8549415875
 31
0.0
  0
LINE
  5
239
330
1F
100
AcDbEntity
  8
0
  6
Continuous
 62
     7
370
    15
100
AcDbLine
 10
102.5363343204
 20
208.054939549
 30
0.0
 11
102.5363343204
 21
207.3549426008
 31
0.0
  0
LINE
  5
23A
330
1F
100
AcDbEntity
  8
0
  6
Continuous
 62
     7
370
    15
100
AcDbLine
 10
102.5034314363
 20
207.3549394656
 30
0.0
 11
102.5034313923
 21
208.054939549
 31
0.0
  0
LINE
  5
23B
330
1F
100
AcDbEntity
  8
0
  6
Continuous
 62
     7
370
    15
100
AcDbLine
 10
102.5034314363
 20
207.3549394656
 30
0.0
 11
99.0469806422
 21
207.3549394656
 31
0.0
  0
LINE
  5
23C
330
1F
100
AcDbEntity
  8
0
  6
Continuous
 62
     7
370
    15
100
AcDbLine
 10
99.0469808592
 20
208.054939549
 30
0.0
 11
99.0469806422
 21
207.3549394656
 31
0.0
  0
LWPOLYLINE
  5
23D
330
1F
100
AcDbEntity
  8
0
  6
Continuous
 62
     7
370
    15
100
AcDbPolyline
 90
        3
 70
   128
 43
0.0
 10
102.1886539081
 20
206.8549415875
 10
102.3425936135
 20
207.0982999015
 10
102.5034313923
 20
207.3549426008
  0
LINE
  5
23E
330
1F
100
AcDbEntity
  8
0
  6
Continuous
 62
     7
370
    15
100
AcDbLine
 10
102.1886538798
 20
206.8549394656
 30
0.0
 11
99.3617581987
 21
206.8549394656
 31
0.0
  0
LINE
  5
23F
330
1F
100
AcDbEntity
  8
0
  6
Continuous
 62
     7
370
    15
100
AcDbLine
 10
99.0469806422
 20
207.3549394656
 30
0.0
 11
99.3617581987
 21
206.8549394656
 31
0.0
  0
LINE
  5
240
330
1F
100
AcDbEntity
  8
0
  6
Continuous
 62
     7
370
    15
100
AcDbLine
 10
102.5363343204
 20
207.3549426008
 30
0.0
 11
102.2215568362
 21
206.8549415875
 31
0.0
  0
LINE
  5
241
330
1F
100
AcDbEntity
  8
0
  6
Continuous
 62
     7
370
    15
100
AcDbLine
 10
102.2215568362
 20
206.8549415875
 30
0.0
 11
102.1886538798
 21
206.8549394656
 31
0.0
  0
LWPOLYLINE
  5
242
330
1F
100
AcDbEntity
  8
0
  6
Continuous
 62
     7
370
    15
100
AcDbPolyline
 90
       38
 70
   128
 43
0.0
 10
129.5134289092
 20
219.4549388099
 10
129.503109855
 20
218.7887004423
 10
129.4717894768
 20
218.1413716483
 10
129.4181844121
 20
217.5318992543
 10
129.3407207256
 20
216.9760561395
 10
129.2362505471
 20
216.4857930351
 10
129.1041573411
 20
216.0786858607
 10
128.9423027909
 20
215.7657763768
 10
128.7528084492
 20
215.5575550008
 10
128.5400161421
 20
215.4622769761
 10
128.3077293908
 20
215.4788396168
 10
128.0649075186
 20
215.6064978648
 10
127.8180530196
 20
215.8395296741
 10
127.5755161321
 20
216.1742991615
 10
127.3487018323
 20
216.5992728281
 10
127.1459510451
 20
217.110561471
 10
126.979786334
 20
217.6884061504
 10
126.8595619029
 20
218.3183229375
 10
126.7913537001
 20
218.9811638403
 10
126.7799170589
 20
219.649905603
 10
126.8237395113
 20
220.3130966831
 10
126.9205206907
 20
220.9476104784
 10
127.0641734725
 20
221.5406468916
 10
127.2497320449
 20
222.080083828
 10
127.4661863124
 20
222.546460371
 10
127.7061751014
 20
222.9294351149
 10
127.9565816647
 20
223.2140547443
 10
128.2057570195
 20
223.3899182487
 10
128.4456675774
 20
223.4546935964
 10
128.6654950952
 20
223.4060413051
 10
128.8631031191
 20
223.2484913278
 10
129.0341908014
 20
222.985605042
 10
129.1779274022
 20
222.6262039352
 10
129.2950356281
 20
222.1733799982
 10
129.385267747
 20
221.6443589735
 10
129.4504808163
 20
221.0484838891
 10
129.4921202486
 20
220.4066014695
 10
129.5134289092
 20
219.4549388099
  0
LWPOLYLINE
  5
243
330
1F
100
AcDbEntity
  8
0
  6
Continuous
 62
     7
370
    15
100
AcDbPolyline
 90
       38
 70
   128
 43
0.0
 10
85.0390562689
 20
219.4549388099
 10
85.0108725852
 20
218.7887004423
 10
84.9289534515
 20
218.1413716483
 10
84.7970520979
 20
217.5318992544
 10
84.6230065351
 20
216.9760561395
 10
84.4131385809
 20
216.4857930351
 10
84.1794175929
 20
216.0786858607
 10
83.9308028942
 20
215.7657763768
 10
83.6793029582
 20
215.5575550008
 10
83.4371851659
 20
215.4622769761
 10
83.2099461829
 20
215.4788396168
 10
83.0063497549
 20
215.6064978648
 10
82.8276270902
 20
215.8395296741
 10
82.6758066094
 20
216.1742991615
 10
82.551678074
 20
216.5992728281
 10
82.4537495053
 20
217.110561471
 10
82.3816670006
 20
217.6884061504
 10
82.3336889869
 20
218.3183229375
 10
82.3080701655
 20
218.9811638403
 10
82.3037804937
 20
219.649905603
 10
82.3201345181
 20
220.3130966831
 10
82.3575736856
 20
220.9476104784
 10
82.4173943972
 20
221.5406468916
 10
82.5024669891
 20
222.080083828
 10
82.6138997352
 20
222.546460371
 10
82.755017457
 20
222.9294351149
 10
82.9245759076
 20
223.2140547443
 10
83.1208279258
 20
223.3899182487
 10
83.3404971188
 20
223.4546935964
 10
83.5755815631
 20
223.4060413051
 10
83.8208975172
 20
223.2484913278
 10
84.0675825155
 20
222.985605042
 10
84.3059787428
 20
222.6262039352
 10
84.5281066274
 20
222.1733799982
 10
84.7209537303
 20
221.6443589735
 10
84.8751919245
 20
221.0484838891
 10
84.981798557
 20
220.4066014695
 10
85.0390562689
 20
219.4549388099
  0
LINE
  5
244
330
1F
100
AcDbEntity
  8
0
  6
Continuous
 62
     7
370
    15
100
AcDbLine
 10
83.4157112051
 20
214.9060931564
 30
0.0
 11
83.4157112051
 21
212.4807459342
 31
0.0
  0
LINE
  5
245
330
1F
100
AcDbEntity
  8
0
  6
Continuous
 62
     7
370
    15
100
AcDbLine
 10
83.3640626534
 20
214.9060931564
 30
0.0
 11
83.4157112051
 21
214.9060931564
 31
0.0
  0
LINE
  5
246
330
1F
100
AcDbEntity
  8
0
  6
Continuous
 62
     7
370
    15
100
AcDbLine
 10
83.3146856228
 20
214.4107011245
 30
0.0
 11
83.1941831331
 21
214.4107011245
 31
0.0
  0
LINE
  5
247
330
1F
100
AcDbEntity
  8
0
  6
Continuous
 62
     7
370
    15
100
AcDbLine
 10
83.3146856228
 20
212.4807459342
 30
0.0
 11
83.3146856228
 21
214.4107011245
 31
0.0
  0
LINE
  5
248
330
1F
100
AcDbEntity
  8
0
  6
Continuous
 62
     7
370
    15
100
AcDbLine
 10
83.4157112051
 20
212.4807459342
 30
0.0
 11
83.3146856228
 21
212.4807459342
 31
0.0
  0
ARC
  5
249
330
1F
100
AcDbEntity
  8
0
  6
Continuous
 62
     7
370
    15
100
AcDbCircle
 10
127.1167979356
 20
214.3672194143
 30
0.0
 40
1.5414124238081
100
AcDbArc
 50
359.2181975578
 51
16.0780742769
  0
LWPOLYLINE
  5
24A
330
1F
100
AcDbEntity
  8
0
  6
Continuous
 62
     7
370
    15
100
AcDbPolyline
 90
        4
 70
   128
 43
0.0
 10
128.4988405084
 20
214.9060911346
 10
128.5264002061
 20
214.9001977253
 10
128.5712061351
 20
214.8554122854
 10
128.5979183292
 20
214.7941089082
  0
ARC
  5
24B
330
1F
100
AcDbEntity
  8
0
  6
Continuous
 62
     7
370
    15
100
AcDbCircle
 10
128.5520700041
 20
214.7300146665
 30
0.0
 40
0.1839464645282781
100
AcDbArc
 50
106.8205378085
 51
171.6329402656
  0
ARC
  5
24C
330
1F
100
AcDbEntity
  8
0
  6
Continuous
 62
     7
370
    15
100
AcDbCircle
 10
131.7386667769
 20
213.802764387
 30
0.0
 40
3.501073526967204
100
AcDbArc
 50
164.1873466994
 51
182.3066890373
  0
ARC
  5
24D
330
1F
100
AcDbEntity
  8
0
  6
Continuous
 62
     7
370
    15
100
AcDbCircle
 10
131.9617155045
 20
213.5020559741
 30
0.0
 40
3.724714656665385
100
AcDbArc
 50
177.5411734547
 51
193.1604256987
  0
LWPOLYLINE
  5
24E
330
1F
100
AcDbEntity
  8
0
  6
Continuous
 62
     7
370
    15
100
AcDbPolyline
 90
        4
 70
   128
 43
0.0
 10
128.4692840552
 20
212.4807483363
 10
128.4321857518
 20
212.4924308467
 10
128.3784726536
 20
212.5558650899
 10
128.3348252898
 20
212.6540190387
  0
ARC
  5
24F
330
1F
100
AcDbEntity
  8
0
  6
Continuous
 62
     7
370
    15
100
AcDbCircle
 10
128.4242102825
 20
212.6497712067
 30
0.0
 40
0.1749296307177459
100
AcDbArc
 50
284.9317359708
 51
353.2248227906
  0
ARC
  5
250
330
1F
100
AcDbEntity
  8
0
  6
Continuous
 62
     7
370
    15
100
AcDbCircle
 10
126.3349033946
 20
213.195953273
 30
0.0
 40
2.332921038059988
100
AcDbArc
 50
345.9383709527
 51
2.2754197881
  0
ARC
  5
251
330
1F
100
AcDbEntity
  8
0
  6
Continuous
 62
     7
370
    15
100
AcDbCircle
 10
126.3454910469
 20
213.3531311835
 30
0.0
 40
2.321391656858423
100
AcDbArc
 50
358.406503999
 51
13.5814741356
  0
LWPOLYLINE
  5
252
330
1F
100
AcDbEntity
  8
0
  6
Continuous
 62
     7
370
    15
100
AcDbPolyline
 90
        4
 70
   128
 43
0.0
 10
128.4904250776
 20
214.047568183
 10
128.5218423134
 20
214.0378004718
 10
128.5681644356
 20
213.9808556843
 10
128.6019695824
 20
213.8982585478
  0
LWPOLYLINE
  5
253
330
1F
100
AcDbEntity
  8
0
  6
Continuous
 62
     7
370
    15
100
AcDbPolyline
 90
        5
 70
   128
 43
0.0
 10
128.3436765796
 20
213.7613913822
 10
128.3712772554
 20
213.8711756873
 10
128.4249419248
 20
213.9996833015
 10
128.4734601056
 20
214.0442899275
 10
128.4904250776
 20
214.047568183
  0
ARC
  5
254
330
1F
100
AcDbEntity
  8
0
  6
Continuous
 62
     7
370
    15
100
AcDbCircle
 10
131.7784236726
 20
213.8063666411
 30
0.0
 40
3.435041537894223
100
AcDbArc
 50
166.7268672281
 51
180.7501994126
  0
ARC
  5
255
330
1F
100
AcDbEntity
  8
0
  6
Continuous
 62
     7
370
    15
100
AcDbCircle
 10
128.5326391849
 20
214.5783671188
 30
0.0
 40
0.0989091210644951
100
AcDbArc
 50
112.5952025394
 51
170.3016810806
  0
ARC
  5
256
330
1F
100
AcDbEntity
  8
0
  6
Continuous
 62
     7
370
    15
100
AcDbCircle
 10
128.4766845874
 20
214.6122095766
 30
0.0
 40
0.0602130016258058
100
AcDbArc
 50
7.351629932799999
 51
72.6540520783
  0
ARC
  5
257
330
1F
100
AcDbEntity
  8
0
  6
Continuous
 62
     7
370
    15
100
AcDbCircle
 10
127.6142602271
 20
214.3842471003
 30
0.0
 40
0.9517802373698532
100
AcDbArc
 50
357.7082538248
 51
14.3359384315
  0
LINE
  5
258
330
1F
100
AcDbEntity
  8
0
  6
Continuous
 62
     7
370
    15
100
AcDbLine
 10
128.6580677858
 20
214.3461849529
 30
0.0
 11
128.5652797347
 21
214.3461849529
 31
0.0
  0
LWPOLYLINE
  5
259
330
1F
100
AcDbEntity
  8
0
  6
Continuous
 62
     7
370
    15
100
AcDbPolyline
 90
       38
 70
   128
 43
0.0
 10
90.3320958739
 20
220.4549408365
 10
90.2889430424
 20
219.7928002882
 10
90.1628075069
 20
219.1494575548
 10
89.9580208486
 20
218.5437253523
 10
89.6842175996
 20
217.991302054
 10
89.3482243544
 20
217.5041234899
 10
88.9656817442
 20
217.0995942164
 10
88.5474638915
 20
216.7887038398
 10
88.1107201701
 20
216.5818533707
 10
87.6740993833
 20
216.487216096
 10
87.2470097518
 20
216.5037265826
 10
86.8458760804
 20
216.6306695748
 10
86.4758467203
 20
216.8623602796
 10
86.1440984434
 20
217.1951702643
 10
85.8577186143
 20
217.6176405359
 10
85.6191864139
 20
218.1258148361
 10
85.4346355325
 20
218.7001055885
 10
85.306707201
 20
219.3261033702
 10
85.2362936264
 20
219.9847793985
 10
85.2245421982
 20
220.6494084406
 10
85.2697485959
 20
221.3084868002
 10
85.3712944215
 20
221.9391113925
 10
85.527672795
 20
222.5284821201
 10
85.7400553202
 20
223.0644992399
 10
86.0040852701
 20
223.5278806496
 10
86.3202413445
 20
223.9082774926
 10
86.6799199855
 20
224.1909376192
 10
87.07461263
 20
224.3655196238
 10
87.4956505275
 20
224.4297138262
 10
87.9266647523
 20
224.381165843
 10
88.3595285839
 20
224.2243907261
 10
88.7801157212
 20
223.9629051495
 10
89.1750616854
 20
223.6054858971
 10
89.5340325212
 20
223.1552845645
 10
89.8395566171
 20
222.6293778825
 10
90.0801377272
 20
222.0371386814
 10
90.2445292002
 20
221.3992274213
 10
90.3320958739
 20
220.4549408365
  0
LWPOLYLINE
  5
25A
330
1F
100
AcDbEntity
  8
0
  6
Continuous
 62
     7
370
    15
100
AcDbPolyline
 90
       38
 70
   128
 43
0.0
 10
126.5943901515
 20
220.4549408365
 10
126.5656197345
 20
219.7928002882
 10
126.4802193171
 20
219.1494575548
 10
126.3384682959
 20
218.5437253523
 10
126.1424248939
 20
217.991302054
 10
125.8912788605
 20
217.5041234899
 10
125.5905436253
 20
217.0995942164
 10
125.2421582019
 20
216.7887038398
 10
124.8553166067
 20
216.5818533707
 10
124.4422936713
 20
216.487216096
 10
124.0111248469
 20
216.5037265826
 10
123.5783932632
 20
216.6306695748
 10
123.1534922397
 20
216.8623602796
 10
122.74869102
 20
217.1951702643
 10
122.3796358233
 20
217.6176405359
 10
122.0567276603
 20
218.1258148361
 10
121.7964602536
 20
218.7001055885
 10
121.6104062175
 20
219.3261033702
 10
121.5057404613
 20
219.9847793985
 10
121.4882669872
 20
220.6494084406
 10
121.5556146478
 20
221.3084868002
 10
121.7049633985
 20
221.9391113925
 10
121.9288589334
 20
222.5284821201
 10
122.222149176
 20
223.0644992399
 10
122.5707264518
 20
223.5278806496
 10
122.9664528644
 20
223.9082774926
 10
123.3911825245
 20
224.1909376192
 10
123.8284384733
 20
224.3655196238
 10
124.2657260871
 20
224.4297138262
 10
124.6844096011
 20
224.381165843
 10
125.0788153982
 20
224.2243907261
 10
125.4384977644
 20
223.9629051495
 10
125.7572038001
 20
223.6054858971
 10
126.0316235846
 20
223.1552845645
 10
126.2545579946
 20
222.6293778825
 10
126.4235203987
 20
222.0371386814
 10
126.5356721258
 20
221.3992274213
 10
126.5943901515
 20
220.4549408365
  0
LINE
  5
25B
330
1F
100
AcDbEntity
  8
0
  6
Continuous
 62
     7
370
    15
100
AcDbLine
 10
110.7815594956
 20
217.4549394656
 30
0.0
 11
110.7815594956
 21
211.4549394656
 31
0.0
  0
LINE
  5
25C
330
1F
100
AcDbEntity
  8
0
  6
Continuous
 62
     7
370
    15
100
AcDbLine
 10
110.7815594956
 20
217.4549394656
 30
0.0
 11
120.9693838158
 21
217.4549394656
 31
0.0
  0
LINE
  5
25D
330
1F
100
AcDbEntity
  8
0
  6
Continuous
 62
     7
370
    15
100
AcDbLine
 10
120.9693838158
 20
224.4549394656
 30
0.0
 11
120.9693838158
 21
217.4549394656
 31
0.0
  0
LINE
  5
25E
330
1F
100
AcDbEntity
  8
0
  6
Continuous
 62
     7
370
    15
100
AcDbLine
 10
120.9693838158
 20
224.4549394656
 30
0.0
 11
129.9081623232
 21
224.4549394656
 31
0.0
  0
LINE
  5
25F
330
1F
100
AcDbEntity
  8
0
  6
Continuous
 62
     7
370
    15
100
AcDbLine
 10
81.9081623232
 20
224.4549394656
 30
0.0
 11
90.8469408306
 21
224.4549394656
 31
0.0
  0
LINE
  5
260
330
1F
100
AcDbEntity
  8
0
  6
Continuous
 62
     7
370
    15
100
AcDbLine
 10
90.8469408306
 20
217.4549394656
 30
0.0
 11
90.8469408306
 21
224.4549394656
 31
0.0
  0
LINE
  5
261
330
1F
100
AcDbEntity
  8
0
  6
Continuous
 62
     7
370
    15
100
AcDbLine
 10
90.8469408306
 20
217.4549394656
 30
0.0
 11
101.0347651508
 21
217.4549394656
 31
0.0
  0
LINE
  5
262
330
1F
100
AcDbEntity
  8
0
  6
Continuous
 62
     7
370
    15
100
AcDbLine
 10
101.0347651508
 20
211.4549394656
 30
0.0
 11
101.0347651508
 21
217.4549394656
 31
0.0
  0
LINE
  5
263
330
1F
100
AcDbEntity
  8
0
  6
Continuous
 62
     7
370
    15
100
AcDbLine
 10
81.9081623232
 20
211.4549394656
 30
0.0
 11
101.0347651508
 21
211.4549394656
 31
0.0
  0
LINE
  5
264
330
1F
100
AcDbEntity
  8
0
  6
Continuous
 62
     7
370
    15
100
AcDbLine
 10
110.7815594956
 20
211.4549394656
 30
0.0
 11
129.9081623232
 21
211.4549394656
 31
0.0
  0
LINE
  5
265
330
1F
100
AcDbEntity
  8
0
  6
Continuous
 62
     7
370
    15
100
AcDbLine
 10
110.7815594956
 20
211.4549394656
 30
0.0
 11
101.0347651508
 21
211.4549394656
 31
0.0
  0
LINE
  5
266
330
1F
100
AcDbEntity
  8
0
  6
Continuous
 62
     7
370
    15
100
AcDbLine
 10
101.0347651508
 20
217.4549394656
 30
0.0
 11
110.7815594956
 21
217.4549394656
 31
0.0
  0
LINE
  5
267
330
1F
100
AcDbEntity
  8
0
  6
Continuous
 62
     7
370
    15
100
AcDbLine
 10
102.1974621896
 20
224.4549394656
 30
0.0
 11
109.6188624568
 21
224.4549394656
 31
0.0
  0
LINE
  5
268
330
1F
100
AcDbEntity
  8
0
  6
Continuous
 62
     7
370
    15
100
AcDbLine
 10
91.4081623232
 20
224.4549394656
 30
0.0
 11
91.4081627404
 21
217.4549422074
 31
0.0
  0
LINE
  5
269
330
1F
100
AcDbEntity
  8
0
  6
Continuous
 62
     7
370
    15
100
AcDbLine
 10
90.8469408306
 20
224.4549394656
 30
0.0
 11
91.4081623232
 21
224.4549394656
 31
0.0
  0
LINE
  5
26A
330
1F
100
AcDbEntity
  8
0
  6
Continuous
 62
     7
370
    15
100
AcDbLine
 10
120.408161906
 20
217.4549422074
 30
0.0
 11
120.4081623232
 21
224.4549394656
 31
0.0
  0
LINE
  5
26B
330
1F
100
AcDbEntity
  8
0
  6
Continuous
 62
     7
370
    15
100
AcDbLine
 10
120.4081623232
 20
224.4549394656
 30
0.0
 11
120.9693838158
 21
224.4549394656
 31
0.0
  0
LWPOLYLINE
  5
26C
330
1F
100
AcDbEntity
  8
0
  6
Continuous
 62
     7
370
    15
100
AcDbPolyline
 90
       22
 70
   128
 43
0.0
 10
87.8454795009
 20
224.4299373436
 10
87.5524537539
 20
224.4037112999
 10
87.1684303409
 20
224.2878398705
 10
86.8002766645
 20
224.0821442414
 10
86.4566204971
 20
223.7914225865
 10
86.1455196416
 20
223.4224921871
 10
85.8742626285
 20
222.9840031672
 10
85.649210391
 20
222.4862373281
 10
85.4756360775
 20
221.940862279
 10
85.3576095676
 20
221.3606557656
 10
85.2978968894
 20
220.759222548
 10
85.2978968894
 20
220.1506591249
 10
85.3576095676
 20
219.5492184568
 10
85.4756360775
 20
218.9690193939
 10
85.649210391
 20
218.4236368943
 10
85.8742626285
 20
217.9258785057
 10
86.1455196416
 20
217.4873894859
 10
86.4566204971
 20
217.1184590864
 10
86.8002766645
 20
216.8277374316
 10
87.1684303409
 20
216.6220343519
 10
87.5524537539
 20
216.5061629224
 10
87.8454795009
 20
216.4799368787
  0
ARC
  5
26D
330
1F
100
AcDbEntity
  8
0
  6
Continuous
 62
     7
370
    15
100
AcDbCircle
 10
122.9357315597
 20
220.9972084272
 30
0.0
 40
3.630914814087899
100
AcDbArc
 50
351.4108921992
 51
70.5368891808
  0
LWPOLYLINE
  5
26E
330
1F
100
AcDbEntity
  8
0
  6
Continuous
 62
     7
370
    15
100
AcDbPolyline
 90
       12
 70
   128
 43
0.0
 10
123.9708451456
 20
216.4799368787
 10
124.068712247
 20
216.4828575063
 10
124.4573103165
 20
216.5526470948
 10
124.8345052725
 20
216.7139074612
 10
125.1914570009
 20
216.9628537107
 10
125.5198003626
 20
217.2936520386
 10
125.8118351823
 20
217.6985463906
 10
126.0607199645
 20
218.1680447269
 10
126.2606209045
 20
218.6911499906
 10
126.4068497246
 20
219.255598526
 10
126.4959810203
 20
219.8481581021
 10
126.5259249037
 20
220.4549408365
  0
LWPOLYLINE
  5
26F
330
1F
100
AcDbEntity
  8
0
  6
Continuous
 62
     7
370
    15
100
AcDbPolyline
 90
       31
 70
   128
 43
0.0
 10
125.3206984973
 20
220.4549408365
 10
125.2912016487
 20
220.89155231
 10
125.2039981907
 20
221.3090828467
 10
125.0628990954
 20
221.6892859745
 10
124.8740734434
 20
222.0155468989
 10
124.6457727527
 20
222.2735903073
 10
124.3879733509
 20
222.4521583724
 10
124.1119423783
 20
222.5434354353
 10
123.8297460502
 20
222.5434354353
 10
123.5537169403
 20
222.4521583724
 10
123.2959175384
 20
222.2735903073
 10
123.0676168477
 20
222.0155468989
 10
122.8787893331
 20
221.6892859745
 10
122.7376921004
 20
221.3090828467
 10
122.6504886424
 20
220.89155231
 10
122.6209917938
 20
220.4549408365
 10
122.6504886424
 20
220.0183219123
 10
122.7376921004
 20
219.6007913757
 10
122.8787893331
 20
219.2205882478
 10
123.0676168477
 20
218.894334774
 10
123.2959175384
 20
218.6362839151
 10
123.5537169403
 20
218.4577233005
 10
123.8297460502
 20
218.3664462376
 10
124.1119423783
 20
218.3664462376
 10
124.3879733509
 20
218.4577233005
 10
124.6457727527
 20
218.6362839151
 10
124.8740734434
 20
218.894334774
 10
125.0628990954
 20
219.2205882478
 10
125.2039981907
 20
219.6007913757
 10
125.2912016487
 20
220.0183219123
 10
125.3206984973
 20
220.4549408365
  0
LWPOLYLINE
  5
270
330
1F
100
AcDbEntity
  8
0
  6
Continuous
 62
     7
370
    15
100
AcDbPolyline
 90
       31
 70
   128
 43
0.0
 10
89.1953328526
 20
220.4549408365
 10
89.165836004
 20
220.89155231
 10
89.078632546
 20
221.3090828467
 10
88.9375353133
 20
221.6892859745
 10
88.7487077987
 20
222.0155468989
 10
88.520407108
 20
222.2735903073
 10
88.2626077062
 20
222.4521583724
 10
87.9865785962
 20
222.5434354353
 10
87.7043822682
 20
222.5434354353
 10
87.4283512956
 20
222.4521583724
 10
87.1705518937
 20
222.2735903073
 10
86.942251203
 20
222.0155468989
 10
86.753425551
 20
221.6892859745
 10
86.6123264557
 20
221.3090828467
 10
86.5251229977
 20
220.89155231
 10
86.4956261492
 20
220.4549408365
 10
86.5251229977
 20
220.0183219123
 10
86.6123264557
 20
219.6007913757
 10
86.753425551
 20
219.2205882478
 10
86.942251203
 20
218.894334774
 10
87.1705518937
 20
218.6362839151
 10
87.4283512956
 20
218.4577233005
 10
87.7043822682
 20
218.3664462376
 10
87.9865785962
 20
218.3664462376
 10
88.2626077062
 20
218.4577233005
 10
88.520407108
 20
218.6362839151
 10
88.7487077987
 20
218.894334774
 10
88.9375353133
 20
219.2205882478
 10
89.078632546
 20
219.6007913757
 10
89.165836004
 20
220.0183219123
 10
89.1953328526
 20
220.4549408365
  0
LINE
  5
271
330
1F
100
AcDbEntity
  8
0
  6
Continuous
 62
     7
370
    15
100
AcDbLine
 10
117.4081623232
 20
224.4549394656
 30
0.0
 11
120.4081623232
 21
224.4549394656
 31
0.0
  0
LINE
  5
272
330
1F
100
AcDbEntity
  8
0
  6
Continuous
 62
     7
370
    15
100
AcDbLine
 10
91.4081623232
 20
224.4549394656
 30
0.0
 11
94.4081623232
 21
224.4549394656
 31
0.0
  0
LINE
  5
273
330
1F
100
AcDbEntity
  8
0
  6
Continuous
 62
     7
370
    15
100
AcDbLine
 10
109.6188624568
 20
224.4549394656
 30
0.0
 11
111.5718625271
 21
224.4549394656
 31
0.0
  0
LINE
  5
274
330
1F
100
AcDbEntity
  8
0
  6
Continuous
 62
     7
370
    15
100
AcDbLine
 10
100.2444621193
 20
224.4549394656
 30
0.0
 11
102.1974621896
 21
224.4549394656
 31
0.0
  0
LINE
  5
275
330
1F
100
AcDbEntity
  8
0
  6
Continuous
 62
     7
370
    15
100
AcDbLine
 10
100.2444621193
 20
224.4549394656
 30
0.0
 11
94.4081623232
 21
224.4549394656
 31
0.0
  0
LINE
  5
276
330
1F
100
AcDbEntity
  8
0
  6
Continuous
 62
     7
370
    15
100
AcDbLine
 10
117.4081623232
 20
224.4549394656
 30
0.0
 11
111.5718625271
 21
224.4549394656
 31
0.0
  0
LWPOLYLINE
  5
277
330
1F
100
AcDbEntity
  8
0
  6
Continuous
 62
     7
370
    15
100
AcDbPolyline
 90
       21
 70
   128
 43
0.0
 10
83.5948375886
 20
223.4380639005
 10
83.563466919
 20
223.4285495091
 10
83.3578476584
 20
223.3119553733
 10
83.1607257849
 20
223.1049558926
 10
82.9767206585
 20
222.8124013949
 10
82.8101443028
 20
222.4411538649
 10
82.6649045473
 20
221.9999081302
 10
82.5444044447
 20
221.4990130472
 10
82.4514659023
 20
220.9502107311
 10
82.3882700777
 20
220.3663534332
 10
82.3562977737
 20
219.7611353207
 10
82.3562977737
 20
219.1487422991
 10
82.3882700777
 20
218.5435241866
 10
82.4514659023
 20
217.9596743393
 10
82.5444044447
 20
217.4108645726
 10
82.6649045473
 20
216.9099694896
 10
82.8101443028
 20
216.4687237549
 10
82.9767206585
 20
216.0974762249
 10
83.1607257849
 20
215.8049217272
 10
83.3578476584
 20
215.5979222465
 10
83.5581267154
 20
215.4831684041
  0
LWPOLYLINE
  5
278
330
1F
100
AcDbEntity
  8
0
  6
Continuous
 62
     7
370
    15
100
AcDbPolyline
 90
       11
 70
   128
 43
0.0
 10
129.464040873
 20
219.4549388099
 10
129.4480072236
 20
220.0655362416
 10
129.4002843922
 20
220.6618211079
 10
129.3219881034
 20
221.2298161197
 10
129.2149530625
 20
221.75621454
 10
129.081691978
 20
222.2286707568
 10
128.925326643
 20
222.6361132074
 10
128.7495190179
 20
222.9689902473
 10
128.5583948618
 20
223.2195011187
 10
128.3564301109
 20
223.3817747641
 10
128.2514924085
 20
223.4290039945
  0
LWPOLYLINE
  5
279
330
1F
100
AcDbEntity
  8
0
  6
Continuous
 62
     7
370
    15
100
AcDbPolyline
 90
       11
 70
   128
 43
0.0
 10
128.2792532718
 20
215.4909989643
 10
128.3564301109
 20
215.5281028557
 10
128.5583948618
 20
215.6903765011
 10
128.7495190179
 20
215.9408873725
 10
128.925326643
 20
216.2737644124
 10
129.081691978
 20
216.681206863
 10
129.2149530625
 20
217.1536630798
 10
129.3219881034
 20
217.6800615001
 10
129.4002843922
 20
218.2480565119
 10
129.4480072236
 20
218.8443413782
 10
129.464040873
 20
219.4549388099
  0
LWPOLYLINE
  5
27A
330
1F
100
AcDbEntity
  8
0
  6
Continuous
 62
     7
370
    15
100
AcDbPolyline
 90
       31
 70
   128
 43
0.0
 10
128.814203096
 20
219.4549388099
 10
128.798508448
 20
219.0183273363
 10
128.7521080947
 20
218.6007893491
 10
128.6770304566
 20
218.2205936718
 10
128.5765593773
 20
217.8943327475
 10
128.4550813859
 20
217.6362893391
 10
128.3179106092
 20
217.4577212739
 10
128.1710373139
 20
217.366444211
 10
128.0208839005
 20
217.366444211
 10
127.8740124678
 20
217.4577212739
 10
127.7368398285
 20
217.6362893391
 10
127.6153618371
 20
217.8943327475
 10
127.5148907578
 20
218.2205936718
 10
127.4398131197
 20
218.6007893491
 10
127.3934127664
 20
219.0183273363
 10
127.3777181184
 20
219.4549388099
 10
127.3934127664
 20
219.891557734
 10
127.4398131197
 20
220.3090882707
 10
127.5148907578
 20
220.6892913986
 10
127.6153618371
 20
221.0155448723
 10
127.7368398285
 20
221.2735957313
 10
127.8740124678
 20
221.4521563459
 10
128.0208839005
 20
221.5434334088
 10
128.1710373139
 20
221.5434334088
 10
128.3179106092
 20
221.4521563459
 10
128.4550813859
 20
221.2735957313
 10
128.5765593773
 20
221.0155448723
 10
128.6770304566
 20
220.6892913986
 10
128.7521080947
 20
220.3090882707
 10
128.798508448
 20
219.891557734
 10
128.814203096
 20
219.4549388099
  0
LWPOLYLINE
  5
27B
330
1F
100
AcDbEntity
  8
0
  6
Continuous
 62
     7
370
    15
100
AcDbPolyline
 90
       31
 70
   128
 43
0.0
 10
84.438606528
 20
219.4549388099
 10
84.42291188
 20
219.0183273363
 10
84.3765115267
 20
218.6007893491
 10
84.3014338886
 20
218.2205936718
 10
84.2009628093
 20
217.8943327475
 10
84.079484818
 20
217.6362893391
 10
83.9423121786
 20
217.4577212739
 10
83.7954407459
 20
217.366444211
 10
83.6452873325
 20
217.366444211
 10
83.4984140372
 20
217.4577212739
 10
83.3612432605
 20
217.6362893391
 10
83.2397652691
 20
217.8943327475
 10
83.1392941898
 20
218.2205936718
 10
83.0642165518
 20
218.6007893491
 10
83.0178161984
 20
219.0183273363
 10
83.0021215504
 20
219.4549388099
 10
83.0178161984
 20
219.891557734
 10
83.0642165518
 20
220.3090882707
 10
83.1392941898
 20
220.6892913986
 10
83.2397652691
 20
221.0155448723
 10
83.3612432605
 20
221.2735957313
 10
83.4984140372
 20
221.4521563459
 10
83.6452873325
 20
221.5434334088
 10
83.7954407459
 20
221.5434334088
 10
83.9423121786
 20
221.4521563459
 10
84.079484818
 20
221.2735957313
 10
84.2009628093
 20
221.0155448723
 10
84.3014338886
 20
220.6892913986
 10
84.3765115267
 20
220.3090882707
 10
84.42291188
 20
219.891557734
 10
84.438606528
 20
219.4549388099
  0
SPLINE
  5
27C
330
1F
100
AcDbEntity
  8
0
  6
Continuous
 62
     7
370
    15
100
AcDbSpline
210
0.0
220
0.0
230
1.0
 70
    12
 71
     3
 72
     9
 73
     5
 74
     0
 42
0.00000001
 43
0.00000001
 40
0.0
 40
0.0
 40
0.0
 40
0.0
 40
0.5583090653531173
 40
1.0
 40
1.0
 40
1.0
 40
1.0
 10
128.3270189439979
 20
213.7365064430515
 30
0.0
 41
1.0
 10
128.3100733699202
 20
213.6699873809708
 30
0.0
 41
1.0
 10
128.2797217687565
 20
213.5508435837288
 30
0.0
 41
1.0
 10
128.2771074052481
 20
213.4034498791073
 30
0.0
 41
1.0
 10
128.2759526645866
 20
213.3383474159519
 30
0.0
 41
1.0
  0
SPLINE
  5
27D
330
1F
100
AcDbEntity
  8
0
  6
Continuous
 62
     7
370
    15
100
AcDbSpline
210
0.0
220
0.0
230
1.0
 70
    12
 71
     3
 72
     9
 73
     5
 74
     0
 42
0.00000001
 43
0.00000001
 40
0.0
 40
0.0
 40
0.0
 40
0.0
 40
0.5614223803299063
 40
1.0
 40
1.0
 40
1.0
 40
1.0
 10
128.2759526645866
 20
213.3383474159519
 30
0.0
 41
1.0
 10
128.276995405906
 20
213.2235806871537
 30
0.0
 41
1.0
 10
128.2788527264474
 20
213.0191593230983
 30
0.0
 41
1.0
 10
128.3182504221034
 20
212.8518304385576
 30
0.0
 41
1.0
 10
128.3355293696847
 20
212.7784437346737
 30
0.0
 41
1.0
  0
SPLINE
  5
27E
330
1F
100
AcDbEntity
  8
0
  6
Continuous
 62
     7
370
    15
100
AcDbSpline
210
0.0
220
0.0
230
1.0
 70
    12
 71
     3
 72
     9
 73
     5
 74
     0
 42
0.00000001
 43
0.00000001
 40
0.0
 40
0.0
 40
0.0
 40
0.0
 40
0.559538497479262
 40
0.9999999999999999
 40
0.9999999999999999
 40
0.9999999999999999
 40
0.9999999999999999
 10
128.3355293696847
 20
212.7784437346737
 30
0.0
 41
1.0
 10
128.3452918667188
 20
212.7546375269081
 30
0.0
 41
1.0
 10
128.3627392757497
 20
212.7120913788365
 30
0.0
 41
1.0
 10
128.3852103113321
 20
212.7063276276155
 30
0.0
 41
1.0
 10
128.395107937428
 20
212.7037889170925
 30
0.0
 41
1.0
  0
SPLINE
  5
27F
330
1F
100
AcDbEntity
  8
0
  6
Continuous
 62
     7
370
    15
100
AcDbSpline
210
0.0
220
0.0
230
1.0
 70
    12
 71
     3
 72
     9
 73
     5
 74
     0
 42
0.00000001
 43
0.00000001
 40
0.0
 40
0.0
 40
0.0
 40
0.0
 40
0.5592032203549564
 40
1.0
 40
1.0
 40
1.0
 40
1.0
 10
128.4163849329677
 20
214.6696842122356
 30
0.0
 41
1.0
 10
128.4038055100025
 20
214.6651899466779
 30
0.0
 41
1.0
 10
128.3813102479809
 20
214.657153037386
 30
0.0
 41
1.0
 10
128.3643043659179
 20
214.6140354765966
 30
0.0
 41
1.0
 10
128.3568082278696
 20
214.5950293946545
 30
0.0
 41
1.0
  0
SPLINE
  5
280
330
1F
100
AcDbEntity
  8
0
  6
Continuous
 62
     7
370
    15
100
AcDbSpline
210
0.0
220
0.0
230
1.0
 70
    12
 71
     3
 72
    10
 73
     6
 74
     0
 42
0.00000001
 43
0.00000001
 40
0.0
 40
0.0
 40
0.0
 40
0.0
 40
0.2789651160471513
 40
0.5592982760745581
 40
1.0
 40
1.0
 40
1.0
 40
1.0
 10
128.3568082278696
 20
214.5950293946545
 30
0.0
 41
1.0
 10
128.3401124824657
 20
214.5276612303171
 30
0.0
 41
1.0
 10
128.3066391157794
 20
214.3925945283937
 30
0.0
 41
1.0
 10
128.2803959792515
 20
214.1023205277886
 30
0.0
 41
1.0
 10
128.2723550501459
 20
213.8907219561107
 30
0.0
 41
1.0
 10
128.2674403762546
 20
213.7613913822453
 30
0.0
 41
1.0
  0
SPLINE
  5
281
330
1F
100
AcDbEntity
  8
0
  6
Continuous
 62
     7
370
    15
100
AcDbSpline
210
0.0
220
0.0
230
1.0
 70
    12
 71
     3
 72
     9
 73
     5
 74
     0
 42
0.00000001
 43
0.00000001
 40
0.0
 40
0.0
 40
0.0
 40
0.0
 40
0.5585445815839877
 40
1.0
 40
1.0
 40
1.0
 40
1.0
 10
128.4121306514468
 20
214.0475681829731
 30
0.0
 41
1.0
 10
128.4364650217092
 20
214.0379433688636
 30
0.0
 41
1.0
 10
128.4800324844773
 20
214.0207114156287
 30
0.0
 41
1.0
 10
128.5126365421849
 20
213.9357605623082
 30
0.0
 41
1.0
 10
128.5270297801223
 20
213.8982585478107
 30
0.0
 41
1.0
  0
SPLINE
  5
282
330
1F
100
AcDbEntity
  8
0
  6
Continuous
 62
     7
370
    15
100
AcDbSpline
210
0.0
220
0.0
230
1.0
 70
    28
 71
     1
 72
     4
 73
     2
 74
     0
 42
0.00000001
 43
0.00000001
 40
0.0
 40
0.0
 40
1.0
 40
1.0
 10
128.5270297801223
 20
213.8982585478107
 30
0.0
 41
1.0
 10
128.5497316992011
 20
213.7715837765018
 30
0.0
 41
1.0
  0
SPLINE
  5
283
330
1F
100
AcDbEntity
  8
0
  6
Continuous
 62
     7
370
    15
100
AcDbSpline
210
0.0
220
0.0
230
1.0
 70
    28
 71
     1
 72
     4
 73
     2
 74
     0
 42
0.00000001
 43
0.00000001
 40
0.0
 40
0.0
 40
1.0
 40
1.0
 10
128.5928985005346
 20
213.3503577518742
 30
0.0
 41
1.0
 10
128.5951187735524
 20
213.2885775375645
 30
0.0
 41
1.0
  0
SPLINE
  5
284
330
1F
100
AcDbEntity
  8
0
  6
Continuous
 62
     7
370
    15
100
AcDbSpline
210
0.0
220
0.0
230
1.0
 70
    12
 71
     3
 72
     9
 73
     5
 74
     0
 42
0.00000001
 43
0.00000001
 40
0.0
 40
0.0
 40
0.0
 40
0.0
 40
0.5612659886604681
 40
1.0
 40
1.0
 40
1.0
 40
1.0
 10
128.5951187735524
 20
213.2885775375645
 30
0.0
 41
1.0
 10
128.5936520581192
 20
213.1529220752328
 30
0.0
 41
1.0
 10
128.5910388311236
 20
212.9112265777817
 30
0.0
 41
1.0
 10
128.5435907311765
 20
212.7151566468236
 30
0.0
 41
1.0
 10
128.5227736359563
 20
212.6291340995113
 30
0.0
 41
1.0
  0
SPLINE
  5
285
330
1F
100
AcDbEntity
  8
0
  6
Continuous
 62
     7
370
    15
100
AcDbSpline
210
0.0
220
0.0
230
1.0
 70
    28
 71
     1
 72
     4
 73
     2
 74
     0
 42
0.00000001
 43
0.00000001
 40
0.0
 40
0.0
 40
1.0
 40
1.0
 10
128.5227736359563
 20
212.6291340995113
 30
0.0
 41
1.0
 10
128.4671494638648
 20
212.5305554676334
 30
0.0
 41
1.0
  0
SPLINE
  5
286
330
1F
100
AcDbEntity
  8
0
  6
Continuous
 62
     7
370
    15
100
AcDbSpline
210
0.0
220
0.0
230
1.0
 70
    28
 71
     1
 72
     4
 73
     2
 74
     0
 42
0.00000001
 43
0.00000001
 40
0.0
 40
0.0
 40
1.0
 40
1.0
 10
128.4936362778869
 20
214.8509046840946
 30
0.0
 41
1.0
 10
128.5227736359563
 20
214.7941089082043
 30
0.0
 41
1.0
  0
SPLINE
  5
287
330
1F
100
AcDbEntity
  8
0
  6
Continuous
 62
     7
370
    15
100
AcDbSpline
210
0.0
220
0.0
230
1.0
 70
    12
 71
     3
 72
     9
 73
     5
 74
     0
 42
0.00000001
 43
0.00000001
 40
0.0
 40
0.0
 40
0.0
 40
0.0
 40
0.558815423648815
 40
1.0
 40
1.0
 40
1.0
 40
1.0
 10
128.5227736359563
 20
214.7941089082043
 30
0.0
 41
1.0
 10
128.5425800942527
 20
214.7197130953714
 30
0.0
 41
1.0
 10
128.5780237442633
 20
214.5865818150156
 30
0.0
 41
1.0
 10
128.5839803744848
 20
214.4197785021975
 30
0.0
 41
1.0
 10
128.5866083478656
 20
214.3461874532978
 30
0.0
 41
1.0
  0
LINE
  5
288
330
1F
100
AcDbEntity
  8
0
  6
Continuous
 62
     7
370
    15
100
AcDbLine
 10
128.3436765796
 20
213.7613913822
 30
0.0
 11
128.2674403763
 21
213.7613913822
 31
0.0
  0
LINE
  5
289
330
1F
100
AcDbEntity
  8
0
  6
Continuous
 62
     7
370
    15
100
AcDbLine
 10
128.4351436323
 20
214.5950293947
 30
0.0
 11
128.3568082279
 21
214.5950293947
 31
0.0
  0
ARC
  5
28A
330
1F
100
AcDbEntity
  8
0
  6
Continuous
 62
     7
370
    15
100
AcDbCircle
 10
126.5972407384
 20
213.185557643
 30
0.0
 40
1.978917459279091
100
AcDbArc
 50
348.4959003551
 51
2.9840934044
  0
ARC
  5
28B
330
1F
100
AcDbEntity
  8
0
  6
Continuous
 62
     7
370
    15
100
AcDbCircle
 10
128.4037105165
 20
212.8204344876
 30
0.0
 40
0.1359422408604019
100
AcDbArc
 50
300.9013915952
 51
347.4460325067
  0
ARC
  5
28C
330
1F
100
AcDbEntity
  8
0
  6
Continuous
 62
     7
370
    15
100
AcDbCircle
 10
128.5062054403
 20
212.7913900034
 30
0.0
 40
0.093498352986951
100
AcDbArc
 50
187.959044068
 51
249.5416500192
  0
ARC
  5
28D
330
1F
100
AcDbEntity
  8
0
  6
Continuous
 62
     7
370
    15
100
AcDbCircle
 10
130.221662937
 20
213.259054865
 30
0.0
 40
1.8708422417223
100
AcDbArc
 50
177.5708856198
 51
194.8859371246
  0
ARC
  5
28E
330
1F
100
AcDbEntity
  8
0
  6
Continuous
 62
     7
370
    15
100
AcDbCircle
 10
129.5772662675
 20
213.3795466076
 30
0.0
 40
1.225457217969028
100
AcDbArc
 50
163.0649735996
 51
181.9266153628
  0
ARC
  5
28F
330
1F
100
AcDbEntity
  8
0
  6
Continuous
 62
     7
370
    15
100
AcDbCircle
 10
128.5041404624
 20
213.7289545919
 30
0.0
 40
0.0994773726109439
100
AcDbArc
 50
107.9242942775
 51
175.6461869223
  0
ARC
  5
290
330
1F
100
AcDbEntity
  8
0
  6
Continuous
 62
     7
370
    15
100
AcDbCircle
 10
128.4411396398
 20
213.7376988346
 30
0.0
 40
0.0918067642918616
100
AcDbArc
 50
7.0387645012
 51
69.3438415836
  0
ARC
  5
291
330
1F
100
AcDbEntity
  8
0
  6
Continuous
 62
     7
370
    15
100
AcDbCircle
 10
126.8278493132
 20
213.3643102804
 30
0.0
 40
1.747267557430203
100
AcDbArc
 50
357.515820456
 51
12.7170930307
  0
LINE
  5
292
330
1F
100
AcDbEntity
  8
0
  6
Continuous
 62
     7
370
    15
100
AcDbLine
 10
128.4136077291
 20
212.7784437347
 30
0.0
 11
128.3355293697
 21
212.7784437347
 31
0.0
  0
LINE
  5
293
330
1F
100
AcDbEntity
  8
0
  6
Continuous
 62
     7
370
    15
100
AcDbLine
 10
128.3525017923
 20
213.338347416
 30
0.0
 11
128.2759526646
 21
213.338347416
 31
0.0
  0
LINE
  5
294
330
1F
100
AcDbEntity
  8
0
  6
Continuous
 62
     7
370
    15
100
AcDbLine
 10
128.4049501544
 20
213.7365064431
 30
0.0
 11
128.327018944
 21
213.7365064431
 31
0.0
  0
LINE
  5
295
330
1F
100
AcDbEntity
  8
0
  6
Continuous
 62
     7
370
    15
100
AcDbLine
 10
128.4735252982
 20
213.8236037302
 30
0.0
 11
128.3951079374
 21
213.8236037302
 31
0.0
  0
LINE
  5
296
330
1F
100
AcDbEntity
  8
0
  6
Continuous
 62
     7
370
    15
100
AcDbLine
 10
83.3928467607
 20
212.4807483363
 30
0.0
 11
83.3928467607
 21
214.4107020307
 31
0.0
  0
LINE
  5
297
330
1F
100
AcDbEntity
  8
0
  6
Continuous
 62
     7
370
    15
100
AcDbLine
 10
128.4735252982
 20
212.7037889171
 30
0.0
 11
128.3951079374
 21
212.7037889171
 31
0.0
  0
LINE
  5
298
330
1F
100
AcDbEntity
  8
0
  6
Continuous
 62
     7
370
    15
100
AcDbLine
 10
128.4946365183
 20
214.6696842122
 30
0.0
 11
128.416384933
 21
214.6696842122
 31
0.0
  0
LINE
  5
299
330
1F
100
AcDbEntity
  8
0
  6
Continuous
 62
     7
370
    15
100
AcDbLine
 10
128.5979183292
 20
212.6291340995
 30
0.0
 11
128.522773636
 21
212.6291340995
 31
0.0
  0
LINE
  5
29A
330
1F
100
AcDbEntity
  8
0
  6
Continuous
 62
     7
370
    15
100
AcDbLine
 10
128.6019695824
 20
213.8982585478
 30
0.0
 11
128.5270297801
 21
213.8982585478
 31
0.0
  0
LINE
  5
29B
330
1F
100
AcDbEntity
  8
0
  6
Continuous
 62
     7
370
    15
100
AcDbLine
 10
128.5979183292
 20
214.7941089082
 30
0.0
 11
128.522773636
 21
214.7941089082
 31
0.0
  0
LINE
  5
29C
330
1F
100
AcDbEntity
  8
0
  6
Continuous
 62
     7
370
    15
100
AcDbLine
 10
83.3146856228
 20
214.4107011245
 30
0.0
 11
83.3928467607
 21
214.4107020307
 31
0.0
  0
LINE
  5
29D
330
1F
100
AcDbEntity
  8
0
  6
Continuous
 62
     7
370
    15
100
AcDbLine
 10
128.6659849709
 20
213.2885775376
 30
0.0
 11
128.5951187736
 21
213.2885775376
 31
0.0
  0
DIMENSION
  5
29E
330
1F
100
AcDbEntity
  8
0
  6
Continuous
 62
     7
370
     0
100
AcDbDimension
280
     0
  2
*D17
 10
68.3004604035
 20
224.4549394656
 30
0.0
 11
68.3004604035
 21
217.9549394656
 31
0.0
 70
    32
 71
     1
 42
-1.0
 73
     0
 74
     0
 75
     0
  3
SLDDIMSTYLE3
100
AcDbAlignedDimension
 13
81.9081623232
 23
211.4549394656
 33
0.0
 14
81.9081623232
 24
224.4549394656
 34
0.0
 50
90.0
100
AcDbRotatedDimension
1001
ACAD
1000
DSTYLE
1002
{
1070
    77
1070
     3
1070
   143
1040
0.0393700787
1070
    41
1040
6.0
1070
    44
1040
1.0
1070
    42
1040
1.0
1070
   147
1040
1.524
1070
    73
1070
     0
1070
    74
1070
     0
1070
   140
1040
9.8777777778
1070
   284
1070
    12
1070
    78
1070
    12
1002
}
  0
DIMENSION
  5
2B3
330
1F
100
AcDbEntity
  8
0
  6
Continuous
 62
     7
370
     0
100
AcDbDimension
280
     0
  2
*D18
 10
51.3941974962
 20
206.8549394656
 30
0.0
 11
51.3941974962
 21
215.6549394656
 31
0.0
 70
    32
 71
     1
 42
-1.0
 73
     0
 74
     0
 75
     0
  3
SLDDIMSTYLE3
100
AcDbAlignedDimension
 13
81.9081623232
 23
224.4549394656
 33
0.0
 14
87.742929802
 24
206.8549394656
 34
0.0
 50
90.0
100
AcDbRotatedDimension
1001
ACAD
1000
DSTYLE
1002
{
1070
    77
1070
     3
1070
   143
1040
0.0393700787
1070
    41
1040
6.0
1070
    44
1040
1.0
1070
    42
1040
1.0
1070
   147
1040
1.524
1070
    73
1070
     0
1070
    74
1070
     0
1070
   140
1040
9.8777777778
1070
   284
1070
    12
1070
    78
1070
    12
1002
}
  0
ENDSEC
  0
SECTION
  2
OBJECTS
  0
DICTIONARY
  5
C
330
0
100
AcDbDictionary
281
     1
  3
ACAD_COLOR
350
6C
  3
ACAD_GROUP
350
D
  3
ACAD_LAYOUT
350
1A
  3
ACAD_MATERIAL
350
6B
  3
ACAD_MLEADERSTYLE
350
353
  3
ACAD_MLINESTYLE
350
17
  3
ACAD_PLOTSETTINGS
350
19
  3
ACAD_PLOTSTYLENAME
350
E
  3
ACAD_SCALELIST
350
99
  3
ACAD_TABLESTYLE
350
92
  3
ACDB_RECOMPOSE_DATA
350
352
  3
AcDbVariableDictionary
350
59
  0
DICTIONARY
  5
34E
330
1F
100
AcDbDictionary
280
     1
281
     1
  0
DICTIONARY
  5
6C
102
{ACAD_REACTORS
330
C
102
}
330
C
100
AcDbDictionary
281
     1
  0
DICTIONARY
  5
D
102
{ACAD_REACTORS
330
C
102
}
330
C
100
AcDbDictionary
281
     1
  0
DICTIONARY
  5
1A
102
{ACAD_REACTORS
330
C
102
}
330
C
100
AcDbDictionary
281
     1
  3
Layout1
350
74
  3
Layout2
350
26
  3
Model
350
22
  0
DICTIONARY
  5
6B
102
{ACAD_REACTORS
330
C
102
}
330
C
100
AcDbDictionary
281
     1
  0
DICTIONARY
  5
353
102
{ACAD_REACTORS
330
C
102
}
330
C
100
AcDbDictionary
281
     1
  0
DICTIONARY
  5
17
102
{ACAD_REACTORS
330
C
102
}
330
C
100
AcDbDictionary
281
     1
  3
Standard
350
18
  0
DICTIONARY
  5
19
102
{ACAD_REACTORS
330
C
102
}
330
C
100
AcDbDictionary
281
     1
  0
ACDBDICTIONARYWDFLT
  5
E
102
{ACAD_REACTORS
330
C
102
}
330
C
100
AcDbDictionary
281
     1
  3
Normal
350
F
100
AcDbDictionaryWithDefault
340
F
  0
DICTIONARY
  5
99
102
{ACAD_REACTORS
330
C
102
}
330
C
100
AcDbDictionary
281
     1
  3
A0
350
2C8
  3
A1
350
2C9
  3
A2
350
2CA
  3
A3
350
2CB
  3
A4
350
2CC
  3
A5
350
2CD
  3
A6
350
2CE
  3
A7
350
2CF
  3
A8
350
2D0
  3
A9
350
2D1
  3
B0
350
2D2
  3
B1
350
2D3
  3
B2
350
2D4
  3
B3
350
2D5
  3
B4
350
2D6
  3
B5
350
2D7
  3
B6
350
2D8
  3
B7
350
2D9
  3
B8
350
2DA
  3
B9
350
2DB
  3
C0
350
2DC
  3
C1
350
2DD
  3
C2
350
2DE
  3
C3
350
2DF
  3
C4
350
2E0
  3
C5
350
2E1
  3
C6
350
2E2
  3
C7
350
2E3
  3
C8
350
2E4
  3
C9
350
2E5
  3
D0
350
2E6
  3
D1
350
2E7
  3
D2
350
2E8
  0
DICTIONARY
  5
92
102
{ACAD_REACTORS
330
C
102
}
330
C
100
AcDbDictionary
281
     1
  3
Standard
350
93
  0
XRECORD
  5
352
102
{ACAD_REACTORS
330
C
102
}
330
C
100
AcDbXrecord
280
     1
 90
        1
330
93
  0
DICTIONARY
  5
59
102
{ACAD_REACTORS
330
C
102
}
330
C
100
AcDbDictionary
281
     1
  3
CANNOSCALE
350
34F
  3
CTABLESTYLE
350
98
  3
DIMASSOC
350
2EB
  3
HIDETEXT
350
5E
  3
XCLIPFRAME
350
354
  0
LAYOUT
  5
74
102
{ACAD_REACTORS
330
1A
102
}
330
1A
100
AcDbPlotSettings
  1

  2
\\ADSCCNDC1\hq601xrx1
  4

  6

 40
0.0
 41
0.0
 42
0.0
 43
0.0
 44
0.0
 45
0.0
 46
0.0
 47
0.0
 48
0.0
 49
0.0
140
0.0
141
0.0
142
1.0
143
1.0
 70
   688
 72
     0
 73
     0
 74
     5
  7

 75
    16
 76
     0
 77
     2
 78
   300
147
1.0
148
0.0
149
0.0
100
AcDbLayout
  1
Layout1
 70
     1
 71
     1
 10
0.0
 20
0.0
 11
0.0
 21
0.0
 12
0.0
 22
0.0
 32
0.0
 14
0.0
 24
0.0
 34
0.0
 15
0.0
 25
0.0
 35
0.0
146
0.0
 13
0.0
 23
0.0
 33
0.0
 16
1.0
 26
0.0
 36
0.0
 17
0.0
 27
1.0
 37
0.0
 76
     0
330
73
  0
LAYOUT
  5
26
102
{ACAD_REACTORS
330
1A
102
}
330
1A
100
AcDbPlotSettings
  1

  2
none_device
  4
ISO_C5_(229.00_x_162.00_MM)
  6

 40
0.0
 41
0.0
 42
0.0
 43
0.0
 44
229.0
 45
162.0
 46
0.0
 47
0.0
 48
0.0
 49
0.0
140
0.0
141
0.0
142
1.0
143
1.0
 70
   688
 72
     0
 73
     0
 74
     5
  7

 75
    16
 76
     0
 77
     2
 78
   300
147
1.0
148
0.0
149
0.0
100
AcDbLayout
  1
Layout2
 70
     1
 71
     2
 10
0.0
 20
0.0
 11
0.0
 21
0.0
 12
0.0
 22
0.0
 32
0.0
 14
0.0
 24
0.0
 34
0.0
 15
0.0
 25
0.0
 35
0.0
146
0.0
 13
0.0
 23
0.0
 33
0.0
 16
1.0
 26
0.0
 36
0.0
 17
0.0
 27
1.0
 37
0.0
 76
     0
330
23
  0
LAYOUT
  5
22
102
{ACAD_REACTORS
330
1A
102
}
330
1A
100
AcDbPlotSettings
  1

  2
none_device
  4
ISO_C5_(229.00_x_162.00_MM)
  6

 40
0.0
 41
0.0
 42
0.0
 43
0.0
 44
229.0
 45
162.0
 46
0.0
 47
0.0
 48
0.0
 49
0.0
140
0.0
141
0.0
142
1.0
143
1.0
 70
 11952
 72
     0
 73
     0
 74
     0
  7

 75
    16
 76
     0
 77
     2
 78
   300
147
1.0
148
0.0
149
0.0
100
AcDbLayout
  1
Model
 70
     1
 71
     0
 10
0.0
 20
0.0
 11
0.0
 21
0.0
 12
0.0
 22
0.0
 32
0.0
 14
20.2604743903
 24
10.0
 34
-14.029587464
 15
196.7604743903
 25
285.0
 35
119.4254502388
146
0.0
 13
0.0
 23
0.0
 33
0.0
 16
1.0
 26
0.0
 36
0.0
 17
0.0
 27
1.0
 37
0.0
 76
     0
330
1F
331
97
  0
MLINESTYLE
  5
18
102
{ACAD_REACTORS
330
17
102
}
330
17
100
AcDbMlineStyle
  2
Standard
 70
     0
  3

 62
   256
 51
90.0
 52
90.0
 71
     2
 49
0.5
 62
   256
  6
BYLAYER
 49
-0.5
 62
   256
  6
BYLAYER
  0
ACDBPLACEHOLDER
  5
F
102
{ACAD_REACTORS
330
E
102
}
330
E
  0
SCALE
  5
2C8
102
{ACAD_REACTORS
330
99
102
}
330
99
100
AcDbScale
 70
     0
300
1:1
140
1.0
141
1.0
290
     1
  0
SCALE
  5
2C9
102
{ACAD_REACTORS
330
99
102
}
330
99
100
AcDbScale
 70
     0
300
1:2
140
1.0
141
2.0
290
     0
  0
SCALE
  5
2CA
102
{ACAD_REACTORS
330
99
102
}
330
99
100
AcDbScale
 70
     0
300
1:4
140
1.0
141
4.0
290
     0
  0
SCALE
  5
2CB
102
{ACAD_REACTORS
330
99
102
}
330
99
100
AcDbScale
 70
     0
300
1:5
140
1.0
141
5.0
290
     0
  0
SCALE
  5
2CC
102
{ACAD_REACTORS
330
99
102
}
330
99
100
AcDbScale
 70
     0
300
1:8
140
1.0
141
8.0
290
     0
  0
SCALE
  5
2CD
102
{ACAD_REACTORS
330
99
102
}
330
99
100
AcDbScale
 70
     0
300
1:10
140
1.0
141
10.0
290
     0
  0
SCALE
  5
2CE
102
{ACAD_REACTORS
330
99
102
}
330
99
100
AcDbScale
 70
     0
300
1:16
140
1.0
141
16.0
290
     0
  0
SCALE
  5
2CF
102
{ACAD_REACTORS
330
99
102
}
330
99
100
AcDbScale
 70
     0
300
1:20
140
1.0
141
20.0
290
     0
  0
SCALE
  5
2D0
102
{ACAD_REACTORS
330
99
102
}
330
99
100
AcDbScale
 70
     0
300
1:30
140
1.0
141
30.0
290
     0
  0
SCALE
  5
2D1
102
{ACAD_REACTORS
330
99
102
}
330
99
100
AcDbScale
 70
     0
300
1:40
140
1.0
141
40.0
290
     0
  0
SCALE
  5
2D2
102
{ACAD_REACTORS
330
99
102
}
330
99
100
AcDbScale
 70
     0
300
1:50
140
1.0
141
50.0
290
     0
  0
SCALE
  5
2D3
102
{ACAD_REACTORS
330
99
102
}
330
99
100
AcDbScale
 70
     0
300
1:100
140
1.0
141
100.0
290
     0
  0
SCALE
  5
2D4
102
{ACAD_REACTORS
330
99
102
}
330
99
100
AcDbScale
 70
     0
300
2:1
140
2.0
141
1.0
290
     0
  0
SCALE
  5
2D5
102
{ACAD_REACTORS
330
99
102
}
330
99
100
AcDbScale
 70
     0
300
4:1
140
4.0
141
1.0
290
     0
  0
SCALE
  5
2D6
102
{ACAD_REACTORS
330
99
102
}
330
99
100
AcDbScale
 70
     0
300
8:1
140
8.0
141
1.0
290
     0
  0
SCALE
  5
2D7
102
{ACAD_REACTORS
330
99
102
}
330
99
100
AcDbScale
 70
     0
300
10:1
140
10.0
141
1.0
290
     0
  0
SCALE
  5
2D8
102
{ACAD_REACTORS
330
99
102
}
330
99
100
AcDbScale
 70
     0
300
100:1
140
100.0
141
1.0
290
     0
  0
SCALE
  5
2D9
102
{ACAD_REACTORS
330
99
102
}
330
99
100
AcDbScale
 70
     0
300
1/128" = 1'-0"
140
0.0078125
141
12.0
290
     0
  0
SCALE
  5
2DA
102
{ACAD_REACTORS
330
99
102
}
330
99
100
AcDbScale
 70
     0
300
1/64" = 1'-0"
140
0.015625
141
12.0
290
     0
  0
SCALE
  5
2DB
102
{ACAD_REACTORS
330
99
102
}
330
99
100
AcDbScale
 70
     0
300
1/32" = 1'-0"
140
0.03125
141
12.0
290
     0
  0
SCALE
  5
2DC
102
{ACAD_REACTORS
330
99
102
}
330
99
100
AcDbScale
 70
     0
300
1/16" = 1'-0"
140
0.0625
141
12.0
290
     0
  0
SCALE
  5
2DD
102
{ACAD_REACTORS
330
99
102
}
330
99
100
AcDbScale
 70
     0
300
3/32" = 1'-0"
140
0.09375
141
12.0
290
     0
  0
SCALE
  5
2DE
102
{ACAD_REACTORS
330
99
102
}
330
99
100
AcDbScale
 70
     0
300
1/8" = 1'-0"
140
0.125
141
12.0
290
     0
  0
SCALE
  5
2DF
102
{ACAD_REACTORS
330
99
102
}
330
99
100
AcDbScale
 70
     0
300
3/16" = 1'-0"
140
0.1875
141
12.0
290
     0
  0
SCALE
  5
2E0
102
{ACAD_REACTORS
330
99
102
}
330
99
100
AcDbScale
 70
     0
300
1/4" = 1'-0"
140
0.25
141
12.0
290
     0
  0
SCALE
  5
2E1
102
{ACAD_REACTORS
330
99
102
}
330
99
100
AcDbScale
 70
     0
300
3/8" = 1'-0"
140
0.375
141
12.0
290
     0
  0
SCALE
  5
2E2
102
{ACAD_REACTORS
330
99
102
}
330
99
100
AcDbScale
 70
     0
300
1/2" = 1'-0"
140
0.5
141
12.0
290
     0
  0
SCALE
  5
2E3
102
{ACAD_REACTORS
330
99
102
}
330
99
100
AcDbScale
 70
     0
300
3/4" = 1'-0"
140
0.75
141
12.0
290
     0
  0
SCALE
  5
2E4
102
{ACAD_REACTORS
330
99
102
}
330
99
100
AcDbScale
 70
     0
300
1" = 1'-0"
140
1.0
141
12.0
290
     0
  0
SCALE
  5
2E5
102
{ACAD_REACTORS
330
99
102
}
330
99
100
AcDbScale
 70
     0
300
1-1/2" = 1'-0"
140
1.5
141
12.0
290
     0
  0
SCALE
  5
2E6
102
{ACAD_REACTORS
330
99
102
}
330
99
100
AcDbScale
 70
     0
300
3" = 1'-0"
140
3.0
141
12.0
290
     0
  0
SCALE
  5
2E7
102
{ACAD_REACTORS
330
99
102
}
330
99
100
AcDbScale
 70
     0
300
6" = 1'-0"
140
6.0
141
12.0
290
     0
  0
SCALE
  5
2E8
102
{ACAD_REACTORS
330
99
102
}
330
99
100
AcDbScale
 70
     0
300
1'-0" = 1'-0"
140
12.0
141
12.0
290
     0
  0
TABLESTYLE
  5
93
102
{ACAD_REACTORS
330
92
102
}
102
{ACAD_XDICTIONARY
360
350
102
}
330
92
100
AcDbTableStyle
  3
Standard
 70
     0
 71
     0
 40
0.06
 41
0.06
280
     0
281
     0
  7
Standard
140
0.18
170
     2
 62
     0
 63
   257
283
     0
 90
        4
 91
        0
  1

274
    -2
284
     1
 64
     0
275
    -2
285
     1
 65
     0
276
    -2
286
     1
 66
     0
277
    -2
287
     1
 67
     0
278
    -2
288
     1
 68
     0
279
    -2
289
     1
 69
     0
  7
Standard
140
0.25
170
     5
 62
     0
 63
   257
283
     0
 90
        4
 91
        0
  1

274
    -2
284
     1
 64
     0
275
    -2
285
     1
 65
     0
276
    -2
286
     1
 66
     0
277
    -2
287
     1
 67
     0
278
    -2
288
     1
 68
     0
279
    -2
289
     1
 69
     0
  7
Standard
140
0.18
170
     5
 62
     0
 63
   257
283
     0
 90
        4
 91
        0
  1

274
    -2
284
     1
 64
     0
275
    -2
285
     1
 65
     0
276
    -2
286
     1
 66
     0
277
    -2
287
     1
 67
     0
278
    -2
288
     1
 68
     0
279
    -2
289
     1
 69
     0
  0
DICTIONARYVAR
  5
34F
102
{ACAD_REACTORS
330
59
102
}
330
59
100
DictionaryVariables
280
     0
  1
1:1
  0
DICTIONARYVAR
  5
98
102
{ACAD_REACTORS
330
59
102
}
330
59
100
DictionaryVariables
280
     0
  1
Standard
  0
DICTIONARYVAR
  5
2EB
102
{ACAD_REACTORS
330
59
102
}
330
59
100
DictionaryVariables
280
     0
  1
2
  0
DICTIONARYVAR
  5
5E
102
{ACAD_REACTORS
330
59
102
}
330
59
100
DictionaryVariables
280
     0
  1
1
  0
DICTIONARYVAR
  5
354
102
{ACAD_REACTORS
330
59
102
}
330
59
100
DictionaryVariables
280
     0
  1
0
  0
DICTIONARY
  5
350
330
93
100
AcDbDictionary
280
     1
281
     1
  3
ACAD_ROUNDTRIP_2008_TABLESTYLE_CELLSTYLEMAP
360
351
  0
CELLSTYLEMAP
  5
351
102
{ACAD_REACTORS
330
350
102
}
330
350
100
AcDbCellStyleMap
 90
        3
300
CELLSTYLE
  1
TABLEFORMAT_BEGIN
 90
        5
170
     1
 91
        0
 92
    32768
 62
   257
 93
        1
300
CONTENTFORMAT
  1
CONTENTFORMAT_BEGIN
 90
        0
 91
        0
 92
        4
 93
        0
300

 40
0.0
140
1.0
 94
        5
 62
     0
340
11
144
0.25
309
CONTENTFORMAT_END
171
     0
 94
        6
 95
        1
302
GRIDFORMAT
  1
GRIDFORMAT_BEGIN
 90
        0
 91
        1
 62
     0
 92
       -2
340
0
 93
        0
 40
0.045
309
GRIDFORMAT_END
 95
        2
302
GRIDFORMAT
  1
GRIDFORMAT_BEGIN
 90
        0
 91
        1
 62
     0
 92
       -2
340
0
 93
        0
 40
0.045
309
GRIDFORMAT_END
 95
        4
302
GRIDFORMAT
  1
GRIDFORMAT_BEGIN
 90
        0
 91
        1
 62
     0
 92
       -2
340
0
 93
        0
 40
0.045
309
GRIDFORMAT_END
 95
        8
302
GRIDFORMAT
  1
GRIDFORMAT_BEGIN
 90
        0
 91
        1
 62
     0
 92
       -2
340
0
 93
        0
 40
0.045
309
GRIDFORMAT_END
 95
       16
302
GRIDFORMAT
  1
GRIDFORMAT_BEGIN
 90
        0
 91
        1
 62
     0
 92
       -2
340
0
 93
        0
 40
0.045
309
GRIDFORMAT_END
 95
       32
302
GRIDFORMAT
  1
GRIDFORMAT_BEGIN
 90
        0
 91
        1
 62
     0
 92
       -2
340
0
 93
        0
 40
0.045
309
GRIDFORMAT_END
309
TABLEFORMAT_END
  1
CELLSTYLE_BEGIN
 90
        1
 91
        1
300
_TITLE
309
CELLSTYLE_END
300
CELLSTYLE
  1
TABLEFORMAT_BEGIN
 90
        5
170
     1
 91
        0
 92
        0
 62
   257
 93
        1
300
CONTENTFORMAT
  1
CONTENTFORMAT_BEGIN
 90
        0
 91
        0
 92
        4
 93
        0
300

 40
0.0
140
1.0
 94
        5
 62
     0
340
11
144
0.18
309
CONTENTFORMAT_END
171
     0
 94
        6
 95
        1
302
GRIDFORMAT
  1
GRIDFORMAT_BEGIN
 90
        0
 91
        1
 62
     0
 92
       -2
340
0
 93
        0
 40
0.045
309
GRIDFORMAT_END
 95
        2
302
GRIDFORMAT
  1
GRIDFORMAT_BEGIN
 90
        0
 91
        1
 62
     0
 92
       -2
340
0
 93
        0
 40
0.045
309
GRIDFORMAT_END
 95
        4
302
GRIDFORMAT
  1
GRIDFORMAT_BEGIN
 90
        0
 91
        1
 62
     0
 92
       -2
340
0
 93
        0
 40
0.045
309
GRIDFORMAT_END
 95
        8
302
GRIDFORMAT
  1
GRIDFORMAT_BEGIN
 90
        0
 91
        1
 62
     0
 92
       -2
340
0
 93
        0
 40
0.045
309
GRIDFORMAT_END
 95
       16
302
GRIDFORMAT
  1
GRIDFORMAT_BEGIN
 90
        0
 91
        1
 62
     0
 92
       -2
340
0
 93
        0
 40
0.045
309
GRIDFORMAT_END
 95
       32
302
GRIDFORMAT
  1
GRIDFORMAT_BEGIN
 90
        0
 91
        1
 62
     0
 92
       -2
340
0
 93
        0
 40
0.045
309
GRIDFORMAT_END
309
TABLEFORMAT_END
  1
CELLSTYLE_BEGIN
 90
        2
 91
        1
300
_HEADER
309
CELLSTYLE_END
300
CELLSTYLE
  1
TABLEFORMAT_BEGIN
 90
        5
170
     1
 91
        0
 92
        0
 62
   257
 93
        1
300
CONTENTFORMAT
  1
CONTENTFORMAT_BEGIN
 90
        0
 91
        0
 92
        4
 93
        0
300

 40
0.0
140
1.0
 94
        2
 62
     0
340
11
144
0.18
309
CONTENTFORMAT_END
171
     0
 94
        6
 95
        1
302
GRIDFORMAT
  1
GRIDFORMAT_BEGIN
 90
        0
 91
        1
 62
     0
 92
       -2
340
0
 93
        0
 40
0.045
309
GRIDFORMAT_END
 95
        2
302
GRIDFORMAT
  1
GRIDFORMAT_BEGIN
 90
        0
 91
        1
 62
     0
 92
       -2
340
0
 93
        0
 40
0.045
309
GRIDFORMAT_END
 95
        4
302
GRIDFORMAT
  1
GRIDFORMAT_BEGIN
 90
        0
 91
        1
 62
     0
 92
       -2
340
0
 93
        0
 40
0.045
309
GRIDFORMAT_END
 95
        8
302
GRIDFORMAT
  1
GRIDFORMAT_BEGIN
 90
        0
 91
        1
 62
     0
 92
       -2
340
0
 93
        0
 40
0.045
309
GRIDFORMAT_END
 95
       16
302
GRIDFORMAT
  1
GRIDFORMAT_BEGIN
 90
        0
 91
        1
 62
     0
 92
       -2
340
0
 93
        0
 40
0.045
309
GRIDFORMAT_END
 95
       32
302
GRIDFORMAT
  1
GRIDFORMAT_BEGIN
 90
        0
 91
        1
 62
     0
 92
       -2
340
0
 93
        0
 40
0.045
309
GRIDFORMAT_END
309
TABLEFORMAT_END
  1
CELLSTYLE_BEGIN
 90
        3
 91
        2
300
_DATA
309
CELLSTYLE_END
  0
ENDSEC
  0
EOF
