  0
SECTION
  2
HEADER
  9
$ACADVER
  1
AC1015
  9
$ACADMAINTVER
 70
     6
  9
$DWGCODEPAGE
  3
DOS932
  9
$INSBASE
 10
0.0
 20
0.0
 30
0.0
  9
$EXTMIN
 10
0.0
 20
0.0
 30
0.0
  9
$EXTMAX
 10
210.0
 20
297.0
 30
0.0
  9
$LIMMIN
 10
0.0
 20
0.0
  9
$LIMMAX
 10
210.0
 20
297.0
  9
$ORTHOMODE
 70
     0
  9
$REGENMODE
 70
     1
  9
$FILLMODE
 70
     1
  9
$QTEXTMODE
 70
     0
  9
$MIRRTEXT
 70
     1
  9
$LTSCALE
 40
1.0
  9
$ATTMODE
 70
     1
  9
$TEXTSIZE
 40
3.5
  9
$TRACEWID
 40
1.0
  9
$TEXTSTYLE
  7
Standard
  9
$CLAYER
  8
0
  9
$CELTYPE
  6
ByLayer
  9
$CECOLOR
 62
   256
  9
$CELTSCALE
 40
1.0
  9
$DISPSILH
 70
     0
  9
$DIMSCALE
 40
1.0
  9
$DIMASZ
 40
3.0
  9
$DIMEXO
 40
1.0
  9
$DIMDLI
 40
3.75
  9
$DIMRND
 40
0.0
  9
$DIMDLE
 40
0.0
  9
$DIMEXE
 40
1.0
  9
$DIMTP
 40
0.0
  9
$DIMTM
 40
0.0
  9
$DIMTXT
 40
3.5
  9
$DIMCEN
 40
2.5
  9
$DIMTSZ
 40
0.0
  9
$DIMTOL
 70
     0
  9
$DIMLIM
 70
     0
  9
$DIMTIH
 70
     1
  9
$DIMTOH
 70
     1
  9
$DIMSE1
 70
     0
  9
$DIMSE2
 70
     0
  9
$DIMTAD
 70
     1
  9
$DIMZIN
 70
     0
  9
$DIMBLK
  1

  9
$DIMASO
 70
     1
  9
$DIMSHO
 70
     1
  9
$DIMPOST
  1

  9
$DIMAPOST
  1

  9
$DIMALT
 70
     0
  9
$DIMALTD
 70
     3
  9
$DIMALTF
 40
0.0393700787
  9
$DIMLFAC
 40
1.0
  9
$DIMTOFL
 70
     1
  9
$DIMTVP
 40
0.0
  9
$DIMTIX
 70
     0
  9
$DIMSOXD
 70
     0
  9
$DIMSAH
 70
     0
  9
$DIMBLK1
  1

  9
$DIMBLK2
  1

  9
$DIMSTYLE
  2
ISO-25
  9
$DIMCLRD
 70
     0
  9
$DIMCLRE
 70
     0
  9
$DIMCLRT
 70
     0
  9
$DIMTFAC
 40
1.0
  9
$DIMGAP
 40
1.524
  9
$DIMJUST
 70
     0
  9
$DIMSD1
 70
     0
  9
$DIMSD2
 70
     0
  9
$DIMTOLJ
 70
     0
  9
$DIMTZIN
 70
     0
  9
$DIMALTZ
 70
     0
  9
$DIMALTTZ
 70
     0
  9
$DIMUPT
 70
     0
  9
$DIMDEC
 70
     1
  9
$DIMTDEC
 70
     3
  9
$DIMALTU
 70
     2
  9
$DIMALTTD
 70
     3
  9
$DIMTXSTY
  7
Standard
  9
$DIMAUNIT
 70
     0
  9
$DIMADEC
 70
     2
  9
$DIMALTRND
 40
0.0
  9
$DIMAZIN
 70
     0
  9
$DIMDSEP
 70
    44
  9
$DIMATFIT
 70
     3
  9
$DIMFRAC
 70
     0
  9
$DIMLDRBLK
  1

  9
$DIMLUNIT
 70
     2
  9
$DIMLWD
 70
    -2
  9
$DIMLWE
 70
    -2
  9
$DIMTMOVE
 70
     0
  9
$LUNITS
 70
     2
  9
$LUPREC
 70
     1
  9
$SKETCHINC
 40
1.0
  9
$FILLETRAD
 40
10.0
  9
$AUNITS
 70
     0
  9
$AUPREC
 70
     2
  9
$MENU
  1
.
  9
$ELEVATION
 40
0.0
  9
$PELEVATION
 40
0.0
  9
$THICKNESS
 40
0.0
  9
$LIMCHECK
 70
     0
  9
$CHAMFERA
 40
10.0
  9
$CHAMFERB
 40
10.0
  9
$CHAMFERC
 40
20.0
  9
$CHAMFERD
 40
0.0
  9
$SKPOLY
 70
     0
  9
$TDCREATE
 40
2456905.830373611
  9
$TDUCREATE
 40
2456905.455373611
  9
$TDUPDATE
 40
2456905.830376991
  9
$TDUUPDATE
 40
2456905.455376991
  9
$TDINDWG
 40
0.0000000116
  9
$TDUSRTIMER
 40
0.0000000116
  9
$USRTIMER
 70
     1
  9
$ANGBASE
 50
0.0
  9
$ANGDIR
 70
     0
  9
$PDMODE
 70
     0
  9
$PDSIZE
 40
-1.0
  9
$PLINEWID
 40
0.0
  9
$SPLFRAME
 70
     0
  9
$SPLINETYPE
 70
     6
  9
$SPLINESEGS
 70
     8
  9
$HANDSEED
  5
29F
  9
$SURFTAB1
 70
     6
  9
$SURFTAB2
 70
     6
  9
$SURFTYPE
 70
     6
  9
$SURFU
 70
     6
  9
$SURFV
 70
     6
  9
$UCSBASE
  2

  9
$UCSNAME
  2

  9
$UCSORG
 10
0.0
 20
0.0
 30
0.0
  9
$UCSXDIR
 10
1.0
 20
0.0
 30
0.0
  9
$UCSYDIR
 10
0.0
 20
1.0
 30
0.0
  9
$UCSORTHOREF
  2

  9
$UCSORTHOVIEW
 70
     0
  9
$UCSORGTOP
 10
0.0
 20
0.0
 30
0.0
  9
$UCSORGBOTTOM
 10
0.0
 20
0.0
 30
0.0
  9
$UCSORGLEFT
 10
0.0
 20
0.0
 30
0.0
  9
$UCSORGRIGHT
 10
0.0
 20
0.0
 30
0.0
  9
$UCSORGFRONT
 10
0.0
 20
0.0
 30
0.0
  9
$UCSORGBACK
 10
0.0
 20
0.0
 30
0.0
  9
$PUCSBASE
  2

  9
$PUCSNAME
  2

  9
$PUCSORG
 10
0.0
 20
0.0
 30
0.0
  9
$PUCSXDIR
 10
1.0
 20
0.0
 30
0.0
  9
$PUCSYDIR
 10
0.0
 20
1.0
 30
0.0
  9
$PUCSORTHOREF
  2

  9
$PUCSORTHOVIEW
 70
     0
  9
$PUCSORGTOP
 10
0.0
 20
0.0
 30
0.0
  9
$PUCSORGBOTTOM
 10
0.0
 20
0.0
 30
0.0
  9
$PUCSORGLEFT
 10
0.0
 20
0.0
 30
0.0
  9
$PUCSORGRIGHT
 10
0.0
 20
0.0
 30
0.0
  9
$PUCSORGFRONT
 10
0.0
 20
0.0
 30
0.0
  9
$PUCSORGBACK
 10
0.0
 20
0.0
 30
0.0
  9
$USERI1
 70
     0
  9
$USERI2
 70
     0
  9
$USERI3
 70
     0
  9
$USERI4
 70
     0
  9
$USERI5
 70
     0
  9
$USERR1
 40
0.0
  9
$USERR2
 40
0.0
  9
$USERR3
 40
0.0
  9
$USERR4
 40
0.0
  9
$USERR5
 40
0.0
  9
$WORLDVIEW
 70
     1
  9
$SHADEDGE
 70
     3
  9
$SHADEDIF
 70
    70
  9
$TILEMODE
 70
     1
  9
$MAXACTVP
 70
    64
  9
$PINSBASE
 10
0.0
 20
0.0
 30
0.0
  9
$PLIMCHECK
 70
     0
  9
$PEXTMIN
 10
1.0000000000E+20
 20
1.0000000000E+20
 30
1.0000000000E+20
  9
$PEXTMAX
 10
-1.0000000000E+20
 20
-1.0000000000E+20
 30
-1.0000000000E+20
  9
$PLIMMIN
 10
0.0
 20
0.0
  9
$PLIMMAX
 10
420.0
 20
297.0
  9
$UNITMODE
 70
     0
  9
$VISRETAIN
 70
     1
  9
$PLINEGEN
 70
     0
  9
$PSLTSCALE
 70
     1
  9
$TREEDEPTH
 70
  3020
  9
$CMLSTYLE
  2
Standard
  9
$CMLJUST
 70
     0
  9
$CMLSCALE
 40
20.0
  9
$PROXYGRAPHICS
 70
     1
  9
$MEASUREMENT
 70
     1
  9
$CELWEIGHT
370
    -1
  9
$ENDCAPS
280
     0
  9
$JOINSTYLE
280
     0
  9
$LWDISPLAY
290
     1
  9
$INSUNITS
 70
     4
  9
$HYPERLINKBASE
  1

  9
$STYLESHEET
  1

  9
$XEDIT
290
     1
  9
$CEPSNTYPE
380
     0
  9
$PSTYLEMODE
290
     1
  9
$FINGERPRINTGUID
  2
{132D57FC-6FEB-4C3B-9F95-3345E471DA23}
  9
$VERSIONGUID
  2
{FAEB1C32-E019-11D5-929B-00C0DF256EC4}
  9
$EXTNAMES
290
     1
  9
$PSVPSCALE
 40
0.0
  9
$OLESTARTUP
290
     0
  0
ENDSEC
  0
SECTION
  2
CLASSES
  0
CLASS
  1
ACDBDICTIONARYWDFLT
  2
AcDbDictionaryWithDefault
  3
ObjectDBX Classes
 90
        0
280
     0
281
     0
  0
CLASS
  1
VISUALSTYLE
  2
AcDbVisualStyle
  3
ObjectDBX Classes
 90
     4095
280
     0
281
     0
  0
CLASS
  1
MATERIAL
  2
AcDbMaterial
  3
ObjectDBX Classes
 90
     1153
280
     0
281
     0
  0
CLASS
  1
ACDBPLACEHOLDER
  2
AcDbPlaceHolder
  3
ObjectDBX Classes
 90
        0
280
     0
281
     0
  0
CLASS
  1
LAYOUT
  2
AcDbLayout
  3
ObjectDBX Classes
 90
        0
280
     0
281
     0
  0
ENDSEC
  0
SECTION
  2
TABLES
  0
TABLE
  2
VPORT
  5
8
330
0
100
AcDbSymbolTable
 70
     1
  0
VPORT
  5
29
330
8
100
AcDbSymbolTableRecord
100
AcDbViewportTableRecord
  2
*Active
 70
     0
 10
0.0
 20
0.0
 11
1.0
 21
1.0
 12
105.0
 22
148.5
 13
0.0
 23
0.0
 14
10.0
 24
10.0
 15
10.0
 25
10.0
 16
0.0
 26
0.0
 36
1.0
 17
0.0
 27
0.0
 37
0.0
 40
297.0
 41
0.7070707071
 42
50.0
 43
0.0
 44
0.0
 50
0.0
 51
0.0
 71
     0
 72
  2000
 73
     1
 74
     3
 75
     0
 76
     0
 77
     0
 78
     0
281
     0
 65
     1
110
0.0
120
0.0
130
0.0
111
1.0
121
0.0
131
0.0
112
0.0
122
1.0
132
0.0
 79
     0
146
0.0
  0
ENDTAB
  0
TABLE
  2
LTYPE
  5
5
330
0
100
AcDbSymbolTable
 70
     6
  0
LTYPE
  5
14
330
5
100
AcDbSymbolTableRecord
100
AcDbLinetypeTableRecord
  2
ByBlock
 70
     0
  3

 72
    65
 73
     0
 40
0.0
  0
LTYPE
  5
15
330
5
100
AcDbSymbolTableRecord
100
AcDbLinetypeTableRecord
  2
ByLayer
 70
     0
  3

 72
    65
 73
     0
 40
0.0
  0
LTYPE
  5
16
330
5
100
AcDbSymbolTableRecord
100
AcDbLinetypeTableRecord
  2
Continuous
 70
     0
  3
Solid line
 72
    65
 73
     0
 40
0.0
  0
LTYPE
  5
3F
330
5
100
AcDbSymbolTableRecord
100
AcDbLinetypeTableRecord
  2
HIDDEN
 70
     0
  3
Hidden __ __ __ __ __ __ __ __ __ __ __ __ __ __
 72
    65
 73
     2
 40
1.905
 49
1.27
 74
     0
 49
-0.635
 74
     0
  0
LTYPE
  5
40
330
5
100
AcDbSymbolTableRecord
100
AcDbLinetypeTableRecord
  2
PHANTOM
 70
     0
  3
Phantom ______  __  __  ______  __  __  ______
 72
    65
 73
     6
 40
12.7
 49
6.35
 74
     0
 49
-1.27
 74
     0
 49
1.27
 74
     0
 49
-1.27
 74
     0
 49
1.27
 74
     0
 49
-1.27
 74
     0
  0
LTYPE
  5
41
330
5
100
AcDbSymbolTableRecord
100
AcDbLinetypeTableRecord
  2
CENTER
 70
     0
  3
Center ____ _ ____ _ ____ _ ____ _ ____ _ ____
 72
    65
 73
     4
 40
10.16
 49
6.35
 74
     0
 49
-1.27
 74
     0
 49
1.27
 74
     0
 49
-1.27
 74
     0
  0
LTYPE
  5
42
330
5
100
AcDbSymbolTableRecord
100
AcDbLinetypeTableRecord
  2
CENTERX2
 70
     0
  3
Center (2x) ________  __  ________  __  _____
 72
    65
 73
     4
 40
20.32
 49
12.7
 74
     0
 49
-2.54
 74
     0
 49
2.54
 74
     0
 49
-2.54
 74
     0
  0
LTYPE
  5
43
330
5
100
AcDbSymbolTableRecord
100
AcDbLinetypeTableRecord
  2
DOT2
 70
     0
  3
Dot (.5x) ........................................
 72
    65
 73
     2
 40
0.635
 49
0.0
 74
     0
 49
-0.635
 74
     0
  0
ENDTAB
  0
TABLE
  2
LAYER
  5
2
330
0
100
AcDbSymbolTable
 70
     1
  0
LAYER
  5
10
330
2
100
AcDbSymbolTableRecord
100
AcDbLayerTableRecord
  2
0
 70
     0
 62
     7
  6
Continuous
370
    -3
390
F
  0
ENDTAB
  0
TABLE
  2
STYLE
  5
3
330
0
100
AcDbSymbolTable
 70
     2
  0
STYLE
  5
11
330
3
100
AcDbSymbolTableRecord
100
AcDbTextStyleTableRecord
  2
Standard
 70
     0
 40
0.0
 41
1.0
 50
0.0
 71
     0
 42
3.5
  3
txt
  4
bigfont
  0
STYLE
  5
4C
330
3
100
AcDbSymbolTableRecord
100
AcDbTextStyleTableRecord
  2
SLDTEXTSTYLE0
 70
     0
 40
0.0
 41
0.7
 50
0.0
 71
     0
 42
0.2
  3
TXT
  4
bigfont
  0
ENDTAB
  0
TABLE
  2
VIEW
  5
6
330
0
100
AcDbSymbolTable
 70
     0
  0
ENDTAB
  0
TABLE
  2
UCS
  5
7
330
0
100
AcDbSymbolTable
 70
     0
  0
ENDTAB
  0
TABLE
  2
APPID
  5
9
330
0
100
AcDbSymbolTable
 70
     1
  0
APPID
  5
12
330
9
100
AcDbSymbolTableRecord
100
AcDbRegAppTableRecord
  2
ACAD
 70
     0
  0
ENDTAB
  0
TABLE
  2
DIMSTYLE
  5
A
330
0
100
AcDbSymbolTable
 70
     6
100
AcDbDimStyleTable
  0
DIMSTYLE
105
27
330
A
100
AcDbSymbolTableRecord
100
AcDbDimStyleTableRecord
  2
ISO-25
 70
     0
 41
2.5
 42
0.625
 43
3.75
 44
1.25
 73
     0
 74
     0
 77
     1
 78
     8
140
2.5
141
2.5
143
0.0393700787
147
0.625
171
     3
172
     1
178
     0
271
     2
272
     2
274
     3
278
    44
283
     0
284
     8
340
11
  0
DIMSTYLE
105
139
102
{ACAD_REACTORS
330
138
330
144
330
151
330
25E
330
269
330
273
330
27D
102
}
330
A
100
AcDbSymbolTableRecord
100
AcDbDimStyleTableRecord
  2
SLDDIMSTYLE0
 70
     0
 41
3.0
 44
0.0
 45
0.000000001
 73
     0
 74
     0
 77
     3
 78
    12
 79
     3
140
3.5
147
0.875
173
     1
178
     0
271
     1
272
     3
276
     2
284
    12
340
4C
  0
DIMSTYLE
105
15D
102
{ACAD_REACTORS
330
15C
102
}
330
A
100
AcDbSymbolTableRecord
100
AcDbDimStyleTableRecord
  2
SLDDIMSTYLE1
 70
     0
 41
3.0
 44
0.0
 73
     0
 74
     0
 77
     3
 78
    12
 79
     3
140
3.5
147
0.875
173
     1
178
     0
179
     2
272
     3
276
     2
284
    12
340
4C
  0
DIMSTYLE
105
168
102
{ACAD_REACTORS
330
167
102
}
330
A
100
AcDbSymbolTableRecord
100
AcDbDimStyleTableRecord
  2
SLDDIMSTYLE2
 70
     0
 41
3.0
 44
0.0
 45
0.000000001
 78
    12
 79
     3
140
3.5
141
0.0
147
0.875
172
     1
173
     1
178
     0
271
     1
272
     3
276
     2
284
    12
340
4C
341
169
343
169
  0
DIMSTYLE
105
288
102
{ACAD_REACTORS
330
287
102
}
330
A
100
AcDbSymbolTableRecord
100
AcDbDimStyleTableRecord
  2
SLDDIMSTYLE3
 70
     0
 41
3.0
 44
0.0
 45
0.000000001
 73
     0
 74
     0
 77
     3
 78
    12
 79
     3
140
3.5
147
0.875
172
     1
173
     1
178
     0
271
     1
272
     3
276
     2
284
    12
289
     0
340
4C
  0
DIMSTYLE
105
295
330
A
100
AcDbSymbolTableRecord
100
AcDbDimStyleTableRecord
  2
SLDDIMSTYLE4
 70
     0
 41
3.0
 44
0.0
 45
0.000000001
140
0.0
146
3.0
147
0.0
173
     1
178
     0
271
     0
272
     0
276
     2
340
11
341
296
343
296
344
296
  0
ENDTAB
  0
TABLE
  2
BLOCK_RECORD
  5
1
330
0
100
AcDbSymbolTable
 70
    15
  0
BLOCK_RECORD
  5
1F
330
1
100
AcDbSymbolTableRecord
100
AcDbBlockTableRecord
  2
*Model_Space
340
22
  0
BLOCK_RECORD
  5
1B
330
1
100
AcDbSymbolTableRecord
100
AcDbBlockTableRecord
  2
*Paper_Space
340
1E
  0
BLOCK_RECORD
  5
23
330
1
100
AcDbSymbolTableRecord
100
AcDbBlockTableRecord
  2
*Paper_Space0
340
26
  0
BLOCK_RECORD
  5
13A
330
1
100
AcDbSymbolTableRecord
100
AcDbBlockTableRecord
  2
_D
340
0
  0
BLOCK_RECORD
  5
145
330
1
100
AcDbSymbolTableRecord
100
AcDbBlockTableRecord
  2
_D_1
340
0
  0
BLOCK_RECORD
  5
152
330
1
100
AcDbSymbolTableRecord
100
AcDbBlockTableRecord
  2
_D_2
340
0
  0
BLOCK_RECORD
  5
15E
330
1
100
AcDbSymbolTableRecord
100
AcDbBlockTableRecord
  2
_D_3
340
0
  0
BLOCK_RECORD
  5
169
330
1
100
AcDbSymbolTableRecord
100
AcDbBlockTableRecord
  2
_NONE
340
0
  0
BLOCK_RECORD
  5
16C
330
1
100
AcDbSymbolTableRecord
100
AcDbBlockTableRecord
  2
_D_4
340
0
  0
BLOCK_RECORD
  5
17C
330
1
100
AcDbSymbolTableRecord
100
AcDbBlockTableRecord
  2
SW_CENTERMARKSYMBOL_0
340
0
102
{BLKREFS
331
19B
102
}
  0
BLOCK_RECORD
  5
19C
330
1
100
AcDbSymbolTableRecord
100
AcDbBlockTableRecord
  2
SW_CENTERMARKSYMBOL_1
340
0
102
{BLKREFS
331
1A7
102
}
  0
BLOCK_RECORD
  5
25F
330
1
100
AcDbSymbolTableRecord
100
AcDbBlockTableRecord
  2
_D_5
340
0
  0
BLOCK_RECORD
  5
26A
330
1
100
AcDbSymbolTableRecord
100
AcDbBlockTableRecord
  2
_D_6
340
0
  0
BLOCK_RECORD
  5
274
330
1
100
AcDbSymbolTableRecord
100
AcDbBlockTableRecord
  2
_D_7
340
0
  0
BLOCK_RECORD
  5
27E
330
1
100
AcDbSymbolTableRecord
100
AcDbBlockTableRecord
  2
_D_8
340
0
  0
BLOCK_RECORD
  5
289
330
1
100
AcDbSymbolTableRecord
100
AcDbBlockTableRecord
  2
_D_9
340
0
  0
BLOCK_RECORD
  5
296
330
1
100
AcDbSymbolTableRecord
100
AcDbBlockTableRecord
  2
_OPEN30
340
0
  0
ENDTAB
  0
ENDSEC
  0
SECTION
  2
BLOCKS
  0
BLOCK
  5
20
330
1F
100
AcDbEntity
  8
0
100
AcDbBlockBegin
  2
*Model_Space
 70
     0
 10
0.0
 20
0.0
 30
0.0
  3
*Model_Space
  1

  0
ENDBLK
  5
21
330
1F
100
AcDbEntity
  8
0
100
AcDbBlockEnd
  0
BLOCK
  5
1C
330
1B
100
AcDbEntity
 67
     1
  8
0
100
AcDbBlockBegin
  2
*Paper_Space
 70
     0
 10
0.0
 20
0.0
 30
0.0
  3
*Paper_Space
  1

  0
ENDBLK
  5
1D
330
1B
100
AcDbEntity
 67
     1
  8
0
100
AcDbBlockEnd
  0
BLOCK
  5
24
330
23
100
AcDbEntity
  8
0
100
AcDbBlockBegin
  2
*Paper_Space0
 70
     0
 10
0.0
 20
0.0
 30
0.0
  3
*Paper_Space0
  1

  0
ENDBLK
  5
25
330
23
100
AcDbEntity
  8
0
100
AcDbBlockEnd
  0
BLOCK
  5
13B
330
13A
100
AcDbEntity
  8
0
100
AcDbBlockBegin
  2
_D
 70
     0
 10
0.0
 20
0.0
 30
0.0
  3
_D
  1

  0
SOLID
  5
13D
330
13A
100
AcDbEntity
  8
0
  6
Continuous
 62
     7
370
     0
100
AcDbTrace
 10
93.7401665756
 20
84.274269396
 30
0.0
 11
96.7401665756
 21
83.524269396
 31
0.0
 12
96.7401665756
 22
85.024269396
 32
0.0
 13
96.7401665756
 23
85.024269396
 33
0.0
  0
SOLID
  5
13E
330
13A
100
AcDbEntity
  8
0
  6
Continuous
 62
     7
370
     0
100
AcDbTrace
 10
133.7401665756
 20
84.274269396
 30
0.0
 11
130.7401665756
 21
85.024269396
 31
0.0
 12
130.7401665756
 22
83.524269396
 32
0.0
 13
130.7401665756
 23
83.524269396
 33
0.0
  0
LINE
  5
13F
330
13A
100
AcDbEntity
  8
0
  6
Continuous
 62
     7
370
     0
100
AcDbLine
 10
93.7401665756
 20
121.274269396
 30
0.0
 11
93.7401665756
 21
83.274269396
 31
0.0
  0
LINE
  5
140
330
13A
100
AcDbEntity
  8
0
  6
Continuous
 62
     7
370
     0
100
AcDbLine
 10
133.7401665756
 20
121.274269396
 30
0.0
 11
133.7401665756
 21
83.274269396
 31
0.0
  0
LINE
  5
141
330
13A
100
AcDbEntity
  8
0
  6
Continuous
 62
     7
370
     0
100
AcDbLine
 10
93.7401665756
 20
84.274269396
 30
0.0
 11
133.7401665756
 21
84.274269396
 31
0.0
  0
MTEXT
  5
142
330
13A
100
AcDbEntity
  8
0
  6
Continuous
 62
     7
370
     0
100
AcDbMText
 10
105.5929445857
 20
88.7860062523
 30
0.1
 40
3.5
 41
0.0
 71
     1
 72
     1
  1
P.C.D.
  7
SLDTEXTSTYLE0
 73
     1
 44
1.0
  0
MTEXT
  5
143
330
13A
100
AcDbEntity
  8
0
  6
Continuous
 62
     7
370
     0
100
AcDbMText
 10
117.8137780362
 20
88.7860062523
 30
0.1
 40
3.5
 41
0.0
 71
     1
 72
     1
  1
40
  7
SLDTEXTSTYLE0
 73
     1
 44
1.0
  0
ENDBLK
  5
13C
330
13A
100
AcDbEntity
  8
0
100
AcDbBlockEnd
  0
BLOCK
  5
146
330
145
100
AcDbEntity
  8
0
100
AcDbBlockBegin
  2
_D_1
 70
     0
 10
0.0
 20
0.0
 30
0.0
  3
_D_1
  1

  0
ARC
  5
148
330
145
100
AcDbEntity
  8
0
  6
Continuous
 62
     7
370
     0
100
AcDbCircle
 10
112.8052015984
 20
66.6295726705
 30
0.0
 40
5.672469721325912
100
AcDbArc
 50
153.4349488229
 51
206.5650511771
  0
ARC
  5
149
330
145
100
AcDbEntity
  8
0
  6
Continuous
 62
     7
370
     0
100
AcDbCircle
 10
114.6751315528
 20
66.6295726705
 30
0.0
 40
5.672469721325919
100
AcDbArc
 50
333.4349488229
 51
26.5650511771
  0
SOLID
  5
14A
330
145
100
AcDbEntity
  8
0
  6
Continuous
 62
     7
370
     0
100
AcDbTrace
 10
157.4901665756
 20
64.0927670911
 30
0.0
 11
154.4901665756
 21
64.8427670911
 31
0.0
 12
154.4901665756
 22
63.3427670911
 32
0.0
 13
154.4901665756
 23
63.3427670911
 33
0.0
  0
SOLID
  5
14B
330
145
100
AcDbEntity
  8
0
  6
Continuous
 62
     7
370
     0
100
AcDbTrace
 10
69.9901665756
 20
64.0927670911
 30
0.0
 11
72.9901665756
 21
63.3427670911
 31
0.0
 12
72.9901665756
 22
64.8427670911
 32
0.0
 13
72.9901665756
 23
64.8427670911
 33
0.0
  0
LINE
  5
14C
330
145
100
AcDbEntity
  8
0
  6
Continuous
 62
     7
370
     0
100
AcDbLine
 10
157.4901665756
 20
121.274269396
 30
0.0
 11
157.4901665756
 21
63.0927670911
 31
0.0
  0
LINE
  5
14D
330
145
100
AcDbEntity
  8
0
  6
Continuous
 62
     7
370
     0
100
AcDbLine
 10
69.9901665756
 20
121.274269396
 30
0.0
 11
69.9901665756
 21
63.0927670911
 31
0.0
  0
LINE
  5
14E
330
145
100
AcDbEntity
  8
0
  6
Continuous
 62
     7
370
     0
100
AcDbLine
 10
157.4901665756
 20
64.0927670911
 30
0.0
 11
69.9901665756
 21
64.0927670911
 31
0.0
  0
MTEXT
  5
14F
330
145
100
AcDbEntity
  8
0
  6
Continuous
 62
     7
370
     0
100
AcDbMText
 10
107.7315904395
 20
68.6045044131
 30
23.4
 40
3.5
 41
0.0
 71
     1
 72
     1
  1
%%c
  7
SLDTEXTSTYLE0
 73
     1
 44
1.0
  0
MTEXT
  5
150
330
145
100
AcDbEntity
  8
0
  6
Continuous
 62
     7
370
     0
100
AcDbMText
 10
111.6015209546
 20
68.6045044131
 30
23.4
 40
3.5
 41
0.0
 71
     1
 72
     1
  1
87.5
  7
SLDTEXTSTYLE0
 73
     1
 44
1.0
  0
ENDBLK
  5
147
330
145
100
AcDbEntity
  8
0
100
AcDbBlockEnd
  0
BLOCK
  5
153
330
152
100
AcDbEntity
  8
0
100
AcDbBlockBegin
  2
_D_2
 70
     0
 10
0.0
 20
0.0
 30
0.0
  3
_D_2
  1

  0
SOLID
  5
155
330
152
100
AcDbEntity
  8
0
  6
Continuous
 62
     7
370
     0
100
AcDbTrace
 10
141.7401665756
 20
75.0160711124
 30
0.0
 11
138.7401665756
 21
75.7660711124
 31
0.0
 12
138.7401665756
 22
74.2660711124
 32
0.0
 13
138.7401665756
 23
74.2660711124
 33
0.0
  0
SOLID
  5
156
330
152
100
AcDbEntity
  8
0
  6
Continuous
 62
     7
370
     0
100
AcDbTrace
 10
85.7401665756
 20
75.0160711124
 30
0.0
 11
88.7401665756
 21
74.2660711124
 31
0.0
 12
88.7401665756
 22
75.7660711124
 32
0.0
 13
88.7401665756
 23
75.7660711124
 33
0.0
  0
LINE
  5
157
330
152
100
AcDbEntity
  8
0
  6
Continuous
 62
     7
370
     0
100
AcDbLine
 10
141.7401665756
 20
117.774269396
 30
0.0
 11
141.7401665756
 21
74.0160711124
 31
0.0
  0
LINE
  5
158
330
152
100
AcDbEntity
  8
0
  6
Continuous
 62
     7
370
     0
100
AcDbLine
 10
85.7401665756
 20
117.774269396
 30
0.0
 11
85.7401665756
 21
74.0160711124
 31
0.0
  0
LINE
  5
159
330
152
100
AcDbEntity
  8
0
  6
Continuous
 62
     7
370
     0
100
AcDbLine
 10
141.7401665756
 20
75.0160711124
 30
0.0
 11
85.7401665756
 21
75.0160711124
 31
0.0
  0
MTEXT
  5
15A
330
152
100
AcDbEntity
  8
0
  6
Continuous
 62
     7
370
     0
100
AcDbMText
 10
109.7683957042
 20
79.5278084344
 30
23.4
 40
3.5
 41
0.0
 71
     1
 72
     1
  1
%%c
  7
SLDTEXTSTYLE0
 73
     1
 44
1.0
  0
MTEXT
  5
15B
330
152
100
AcDbEntity
  8
0
  6
Continuous
 62
     7
370
     0
100
AcDbMText
 10
113.6383262192
 20
79.5278084344
 30
23.4
 40
3.5
 41
0.0
 71
     1
 72
     1
  1
56
  7
SLDTEXTSTYLE0
 73
     1
 44
1.0
  0
ENDBLK
  5
154
330
152
100
AcDbEntity
  8
0
100
AcDbBlockEnd
  0
BLOCK
  5
15F
330
15E
100
AcDbEntity
  8
0
100
AcDbBlockBegin
  2
_D_3
 70
     0
 10
0.0
 20
0.0
 30
0.0
  3
_D_3
  1

  0
ARC
  5
161
330
15E
100
AcDbEntity
  8
0
  6
Continuous
 62
     7
370
     0
100
AcDbCircle
 10
113.7401665756
 20
122.274269396
 30
0.0
 40
54.44082268839237
100
AcDbArc
 50
360.0
 51
45.0
  0
SOLID
  5
162
330
15E
100
AcDbEntity
  8
0
  6
Continuous
 62
     7
370
     0
100
AcDbTrace
 10
168.180989264
 20
122.274269396
 30
0.0
 11
168.8481405546
 21
125.2937741824
 31
0.0
 12
167.3487087385
 22
125.2524918737
 32
0.0
 13
167.3487087385
 23
125.2524918737
 33
0.0
  0
SOLID
  5
163
330
15E
100
AcDbEntity
  8
0
  6
Continuous
 62
     7
370
     0
100
AcDbTrace
 10
152.235641472
 20
160.7697442923
 30
0.0
 11
153.7530515784
 21
158.075311779
 31
0.0
 12
154.8425009839
 22
159.1063791836
 32
0.0
 13
154.8425009839
 23
159.1063791836
 33
0.0
  0
LINE
  5
164
330
15E
100
AcDbEntity
  8
0
  6
Continuous
 62
     7
370
     0
100
AcDbLine
 10
147.7401665756
 20
122.274269396
 30
0.0
 11
169.180989264
 21
122.274269396
 31
0.0
  0
LINE
  5
165
330
15E
100
AcDbEntity
  8
0
  6
Continuous
 62
     7
370
     0
100
AcDbLine
 10
134.24626323
 20
142.7803660504
 30
0.0
 11
152.9427482531
 21
161.4768510735
 31
0.0
  0
MTEXT
  5
166
330
15E
100
AcDbEntity
  8
0
  6
Continuous
 62
     7
370
     0
100
AcDbMText
 10
166.6463262905
 20
148.5979630509
 30
23.4
 40
3.5
 41
0.0
 71
     1
 72
     1
  1
45°
  7
SLDTEXTSTYLE0
 11
0.3826834323650433
 21
-0.9238795325113061
 31
0.0
 73
     1
 44
1.0
  0
ENDBLK
  5
160
330
15E
100
AcDbEntity
  8
0
100
AcDbBlockEnd
  0
BLOCK
  5
16A
330
169
100
AcDbEntity
  8
0
100
AcDbBlockBegin
  2
_NONE
 70
     0
 10
0.0
 20
0.0
 30
0.0
  3
_NONE
  1

  0
ENDBLK
  5
16B
330
169
100
AcDbEntity
  8
0
100
AcDbBlockEnd
  0
BLOCK
  5
16D
330
16C
100
AcDbEntity
  8
0
100
AcDbBlockBegin
  2
_D_4
 70
     0
 10
0.0
 20
0.0
 30
0.0
  3
_D_4
  1

  0
SOLID
  5
16F
330
16C
100
AcDbEntity
  8
0
  6
Continuous
 62
     7
370
     0
100
AcDbTrace
 10
97.3694682355
 20
138.7819933649
 30
0.0
 11
95.8582384231
 21
141.4798970797
 31
0.0
 12
94.7664284176
 22
140.4513296721
 32
0.0
 13
94.7664284176
 23
140.4513296721
 33
0.0
  0
LINE
  5
170
330
16C
100
AcDbEntity
  8
0
  6
Continuous
 62
     7
370
     0
100
AcDbLine
 10
97.3694682355
 20
138.7819933649
 30
0.0
 11
87.6994485374
 21
149.0465848559
 31
0.0
  0
LINE
  5
171
330
16C
100
AcDbEntity
  8
0
  6
Continuous
 62
     7
370
     0
100
AcDbLine
 10
101.8265936683
 20
134.0508166745
 30
0.0
 11
97.3694682355
 21
138.7819933649
 31
0.0
  0
LINE
  5
172
330
16C
100
AcDbEntity
  8
0
  6
Continuous
 62
     7
370
     0
100
AcDbLine
 10
87.6994485374
 20
149.0465848559
 30
0.0
 11
25.8224948223
 21
149.0465848559
 31
0.0
  0
MTEXT
  5
173
330
16C
100
AcDbEntity
  8
0
  6
Continuous
 62
     7
370
     0
100
AcDbMText
 10
25.8224948223
 20
153.5583221779
 30
23.4
 40
3.5
 41
0.0
 71
     1
 72
     1
  1
4-
  7
SLDTEXTSTYLE0
 73
     1
 44
1.0
  0
MTEXT
  5
174
330
16C
100
AcDbEntity
  8
0
  6
Continuous
 62
     7
370
     0
100
AcDbMText
 10
29.8961058172
 20
153.5583221779
 30
23.4
 40
3.5
 41
0.0
 71
     1
 72
     1
  1
%%c
  7
SLDTEXTSTYLE0
 73
     1
 44
1.0
  0
MTEXT
  5
175
330
16C
100
AcDbEntity
  8
0
  6
Continuous
 62
     7
370
     0
100
AcDbMText
 10
33.7660365651
 20
153.5583221779
 30
23.4
 40
3.5
 41
0.0
 71
     1
 72
     1
  1
6.5
  7
SLDTEXTSTYLE0
 73
     1
 44
1.0
  0
MTEXT
  5
176
330
16C
100
AcDbEntity
  8
0
  6
Continuous
 62
     7
370
     0
100
AcDbMText
 10
39.8764523591
 20
153.5583221779
 30
23.4
 40
3.5
 41
0.0
 71
     1
 72
     1
  1
,
  7
SLDTEXTSTYLE0
 73
     1
 44
1.0
  0
MTEXT
  5
177
330
16C
100
AcDbEntity
  8
0
  6
Continuous
 62
     7
370
     0
100
AcDbMText
 10
41.9132585551
 20
153.5583221779
 30
23.4
 40
3.5
 41
0.0
 71
     1
 72
     1
  1
%%c
  7
SLDTEXTSTYLE0
 73
     1
 44
1.0
  0
MTEXT
  5
178
330
16C
100
AcDbEntity
  8
0
  6
Continuous
 62
     7
370
     0
100
AcDbMText
 10
45.7831888373
 20
153.5583221779
 30
23.4
 40
3.5
 41
0.0
 71
     1
 72
     1
  1
11ザグリ深9(90
  7
SLDTEXTSTYLE0
 73
     1
 44
1.0
  0
MTEXT
  5
179
330
16C
100
AcDbEntity
  8
0
  6
Continuous
 62
     7
370
     0
100
AcDbMText
 10
74.2984644051
 20
153.5583221779
 30
23.4
 40
3.5
 41
0.0
 71
     1
 72
     1
  1
%%d
  7
SLDTEXTSTYLE0
 73
     1
 44
1.0
  0
MTEXT
  5
17A
330
16C
100
AcDbEntity
  8
0
  6
Continuous
 62
     7
370
     0
100
AcDbMText
 10
75.9279101069
 20
153.5583221779
 30
23.4
 40
3.5
 41
0.0
 71
     1
 72
     1
  1
等配)
  7
SLDTEXTSTYLE0
 73
     1
 44
1.0
  0
ENDBLK
  5
16E
330
16C
100
AcDbEntity
  8
0
100
AcDbBlockEnd
  0
BLOCK
  5
17D
330
17C
100
AcDbEntity
  8
0
100
AcDbBlockBegin
  2
SW_CENTERMARKSYMBOL_0
 70
     0
 10
0.0
 20
0.0
 30
0.0
  3
SW_CENTERMARKSYMBOL_0
  1

  0
ARC
  5
17F
330
17C
100
AcDbEntity
  8
0
  6
Continuous
 62
     0
370
     0
100
AcDbCircle
 10
14.1421356237
 20
14.1421356237
 30
0.0
 40
20.00000000000001
100
AcDbArc
 50
225.0
 51
232.1619724391
  0
ARC
  5
180
330
17C
100
AcDbEntity
  8
0
  6
Continuous
 62
     0
370
     0
100
AcDbCircle
 10
14.1421356237
 20
14.1421356237
 30
0.0
 40
20.00000000000001
100
AcDbArc
 50
217.8380275609
 51
225.0
  0
ARC
  5
181
330
17C
100
AcDbEntity
  8
0
  6
Continuous
 62
     0
370
     0
100
AcDbCircle
 10
14.1421356237
 20
14.1421356237
 30
0.0
 40
20.0
100
AcDbArc
 50
315.0
 51
322.1619724391
  0
ARC
  5
182
330
17C
100
AcDbEntity
  8
0
  6
Continuous
 62
     0
370
     0
100
AcDbCircle
 10
14.1421356237
 20
14.1421356237
 30
0.0
 40
20.00000000000001
100
AcDbArc
 50
307.8380275609
 51
315.0
  0
ARC
  5
183
330
17C
100
AcDbEntity
  8
0
  6
Continuous
 62
     0
370
     0
100
AcDbCircle
 10
14.1421356237
 20
14.1421356237
 30
0.0
 40
20.0
100
AcDbArc
 50
45.0
 51
52.1619724391
  0
ARC
  5
184
330
17C
100
AcDbEntity
  8
0
  6
Continuous
 62
     0
370
     0
100
AcDbCircle
 10
14.1421356237
 20
14.1421356237
 30
0.0
 40
20.0
100
AcDbArc
 50
37.8380275609
 51
45.0
  0
ARC
  5
185
330
17C
100
AcDbEntity
  8
0
  6
Continuous
 62
     0
370
     0
100
AcDbCircle
 10
14.1421356237
 20
14.1421356237
 30
0.0
 40
20.0
100
AcDbArc
 50
135.0
 51
142.1619724391
  0
ARC
  5
186
330
17C
100
AcDbEntity
  8
0
  6
Continuous
 62
     0
370
     0
100
AcDbCircle
 10
14.1421356237
 20
14.1421356237
 30
0.0
 40
20.0
100
AcDbArc
 50
127.8380275609
 51
135.0
  0
ARC
  5
187
330
17C
100
AcDbEntity
  8
0
  6
Continuous
 62
     0
370
     0
100
AcDbCircle
 10
14.1421356237
 20
14.1421356237
 30
0.0
 40
20.00000000000001
100
AcDbArc
 50
239.3239448783
 51
300.6760551217
  0
ARC
  5
188
330
17C
100
AcDbEntity
  8
0
  6
Continuous
 62
     0
370
     0
100
AcDbCircle
 10
14.1421356237
 20
14.1421356237
 30
0.0
 40
20.0
100
AcDbArc
 50
329.3239448783
 51
30.6760551217
  0
ARC
  5
189
330
17C
100
AcDbEntity
  8
0
  6
Continuous
 62
     0
370
     0
100
AcDbCircle
 10
14.1421356237
 20
14.1421356237
 30
0.0
 40
20.00000000000001
100
AcDbArc
 50
149.3239448783
 51
210.6760551217
  0
ARC
  5
18A
330
17C
100
AcDbEntity
  8
0
  6
Continuous
 62
     0
370
     0
100
AcDbCircle
 10
14.1421356237
 20
14.1421356237
 30
0.0
 40
20.00000000000001
100
AcDbArc
 50
59.3239448783
 51
120.6760551217
  0
LINE
  5
18B
330
17C
100
AcDbEntity
  8
0
  6
Continuous
 62
     0
370
     0
100
AcDbLine
 10
0.0
 20
0.0
 30
0.0
 11
-1.767766953
 21
-1.767766953
 31
0.0
  0
LINE
  5
18C
330
17C
100
AcDbEntity
  8
0
  6
Continuous
 62
     0
370
     0
100
AcDbLine
 10
0.0
 20
0.0
 30
0.0
 11
1.767766953
 21
1.767766953
 31
0.0
  0
LINE
  5
18D
330
17C
100
AcDbEntity
  8
0
  6
Continuous
 62
     0
370
     0
100
AcDbLine
 10
-3.5355339059
 20
-3.5355339059
 30
0.0
 11
-5.6568542495
 21
-5.6568542495
 31
0.0
  0
LINE
  5
18E
330
17C
100
AcDbEntity
  8
0
  6
Continuous
 62
     0
370
     0
100
AcDbLine
 10
3.5355339059
 20
3.5355339059
 30
0.0
 11
5.6568542495
 21
5.6568542495
 31
0.0
  0
LINE
  5
18F
330
17C
100
AcDbEntity
  8
0
  6
Continuous
 62
     0
370
     0
100
AcDbLine
 10
28.2842712475
 20
0.0
 30
0.0
 11
30.0520382004
 21
-1.767766953
 31
0.0
  0
LINE
  5
190
330
17C
100
AcDbEntity
  8
0
  6
Continuous
 62
     0
370
     0
100
AcDbLine
 10
28.2842712475
 20
0.0
 30
0.0
 11
26.5165042945
 21
1.767766953
 31
0.0
  0
LINE
  5
191
330
17C
100
AcDbEntity
  8
0
  6
Continuous
 62
     0
370
     0
100
AcDbLine
 10
31.8198051534
 20
-3.5355339059
 30
0.0
 11
33.941125497
 21
-5.6568542495
 31
0.0
  0
LINE
  5
192
330
17C
100
AcDbEntity
  8
0
  6
Continuous
 62
     0
370
     0
100
AcDbLine
 10
24.7487373415
 20
3.5355339059
 30
0.0
 11
22.627416998
 21
5.6568542495
 31
0.0
  0
LINE
  5
193
330
17C
100
AcDbEntity
  8
0
  6
Continuous
 62
     0
370
     0
100
AcDbLine
 10
28.2842712475
 20
28.2842712475
 30
0.0
 11
30.0520382004
 21
30.0520382004
 31
0.0
  0
LINE
  5
194
330
17C
100
AcDbEntity
  8
0
  6
Continuous
 62
     0
370
     0
100
AcDbLine
 10
28.2842712475
 20
28.2842712475
 30
0.0
 11
26.5165042945
 21
26.5165042945
 31
0.0
  0
LINE
  5
195
330
17C
100
AcDbEntity
  8
0
  6
Continuous
 62
     0
370
     0
100
AcDbLine
 10
31.8198051534
 20
31.8198051534
 30
0.0
 11
33.941125497
 21
33.941125497
 31
0.0
  0
LINE
  5
196
330
17C
100
AcDbEntity
  8
0
  6
Continuous
 62
     0
370
     0
100
AcDbLine
 10
24.7487373415
 20
24.7487373415
 30
0.0
 11
22.627416998
 21
22.627416998
 31
0.0
  0
LINE
  5
197
330
17C
100
AcDbEntity
  8
0
  6
Continuous
 62
     0
370
     0
100
AcDbLine
 10
0.0
 20
28.2842712475
 30
0.0
 11
-1.767766953
 21
30.0520382004
 31
0.0
  0
LINE
  5
198
330
17C
100
AcDbEntity
  8
0
  6
Continuous
 62
     0
370
     0
100
AcDbLine
 10
0.0
 20
28.2842712475
 30
0.0
 11
1.767766953
 21
26.5165042945
 31
0.0
  0
LINE
  5
199
330
17C
100
AcDbEntity
  8
0
  6
Continuous
 62
     0
370
     0
100
AcDbLine
 10
-3.5355339059
 20
31.8198051534
 30
0.0
 11
-5.6568542495
 21
33.941125497
 31
0.0
  0
LINE
  5
19A
330
17C
100
AcDbEntity
  8
0
  6
Continuous
 62
     0
370
     0
100
AcDbLine
 10
3.5355339059
 20
24.7487373415
 30
0.0
 11
5.6568542495
 21
22.627416998
 31
0.0
  0
ENDBLK
  5
17E
330
17C
100
AcDbEntity
  8
0
100
AcDbBlockEnd
  0
BLOCK
  5
19D
330
19C
100
AcDbEntity
  8
0
100
AcDbBlockBegin
  2
SW_CENTERMARKSYMBOL_1
 70
     0
 10
0.0
 20
0.0
 30
0.0
  3
SW_CENTERMARKSYMBOL_1
  1

  0
LINE
  5
19F
330
19C
100
AcDbEntity
  8
0
  6
Continuous
 62
     0
370
     0
100
AcDbLine
 10
0.0
 20
0.0
 30
0.0
 11
-2.5
 21
0.0
 31
0.0
  0
LINE
  5
1A0
330
19C
100
AcDbEntity
  8
0
  6
Continuous
 62
     0
370
     0
100
AcDbLine
 10
0.0
 20
0.0
 30
0.0
 11
0.0
 21
-2.5
 31
0.0
  0
LINE
  5
1A1
330
19C
100
AcDbEntity
  8
0
  6
Continuous
 62
     0
370
     0
100
AcDbLine
 10
0.0
 20
0.0
 30
0.0
 11
2.5
 21
0.0
 31
0.0
  0
LINE
  5
1A2
330
19C
100
AcDbEntity
  8
0
  6
Continuous
 62
     0
370
     0
100
AcDbLine
 10
0.0
 20
0.0
 30
0.0
 11
0.0
 21
2.5
 31
0.0
  0
LINE
  5
1A3
330
19C
100
AcDbEntity
  8
0
  6
Continuous
 62
     0
370
     0
100
AcDbLine
 10
-5.0
 20
0.0
 30
0.0
 11
-30.5
 21
0.0
 31
0.0
  0
LINE
  5
1A4
330
19C
100
AcDbEntity
  8
0
  6
Continuous
 62
     0
370
     0
100
AcDbLine
 10
0.0
 20
-5.0
 30
0.0
 11
0.0
 21
-30.5
 31
0.0
  0
LINE
  5
1A5
330
19C
100
AcDbEntity
  8
0
  6
Continuous
 62
     0
370
     0
100
AcDbLine
 10
5.0
 20
0.0
 30
0.0
 11
30.5
 21
0.0
 31
0.0
  0
LINE
  5
1A6
330
19C
100
AcDbEntity
  8
0
  6
Continuous
 62
     0
370
     0
100
AcDbLine
 10
0.0
 20
5.0
 30
0.0
 11
0.0
 21
30.5
 31
0.0
  0
ENDBLK
  5
19E
330
19C
100
AcDbEntity
  8
0
100
AcDbBlockEnd
  0
BLOCK
  5
260
330
25F
100
AcDbEntity
  8
0
100
AcDbBlockBegin
  2
_D_5
 70
     0
 10
0.0
 20
0.0
 30
0.0
  3
_D_5
  1

  0
SOLID
  5
262
330
25F
100
AcDbEntity
  8
0
  6
Continuous
 62
     7
370
     0
100
AcDbTrace
 10
101.2401665756
 20
241.8415382713
 30
0.0
 11
104.2401665756
 21
241.0915382713
 31
0.0
 12
104.2401665756
 22
242.5915382713
 32
0.0
 13
104.2401665756
 23
242.5915382713
 33
0.0
  0
SOLID
  5
263
330
25F
100
AcDbEntity
  8
0
  6
Continuous
 62
     7
370
     0
100
AcDbTrace
 10
126.2401665756
 20
241.8415382713
 30
0.0
 11
123.2401665756
 21
242.5915382713
 31
0.0
 12
123.2401665756
 22
241.0915382713
 32
0.0
 13
123.2401665756
 23
241.0915382713
 33
0.0
  0
LINE
  5
264
330
25F
100
AcDbEntity
  8
0
  6
Continuous
 62
     7
370
     0
100
AcDbLine
 10
101.2401665756
 20
236.3731057416
 30
0.0
 11
101.2401665756
 21
242.8415382713
 31
0.0
  0
LINE
  5
265
330
25F
100
AcDbEntity
  8
0
  6
Continuous
 62
     7
370
     0
100
AcDbLine
 10
126.2401665756
 20
236.3731057416
 30
0.0
 11
126.2401665756
 21
242.8415382713
 31
0.0
  0
LINE
  5
266
330
25F
100
AcDbEntity
  8
0
  6
Continuous
 62
     7
370
     0
100
AcDbLine
 10
101.2401665756
 20
241.8415382713
 30
0.0
 11
126.2401665756
 21
241.8415382713
 31
0.0
  0
MTEXT
  5
267
330
25F
100
AcDbEntity
  8
0
  6
Continuous
 62
     7
370
     0
100
AcDbMText
 10
109.7683957042
 20
246.3532755933
 30
0.1
 40
3.5
 41
0.0
 71
     1
 72
     1
  1
%%c
  7
SLDTEXTSTYLE0
 73
     1
 44
1.0
  0
MTEXT
  5
268
330
25F
100
AcDbEntity
  8
0
  6
Continuous
 62
     7
370
     0
100
AcDbMText
 10
113.6383262193
 20
246.3532755933
 30
0.1
 40
3.5
 41
0.0
 71
     1
 72
     1
  1
25
  7
SLDTEXTSTYLE0
 73
     1
 44
1.0
  0
ENDBLK
  5
261
330
25F
100
AcDbEntity
  8
0
100
AcDbBlockEnd
  0
BLOCK
  5
26B
330
26A
100
AcDbEntity
  8
0
100
AcDbBlockBegin
  2
_D_6
 70
     0
 10
0.0
 20
0.0
 30
0.0
  3
_D_6
  1

  0
SOLID
  5
26D
330
26A
100
AcDbEntity
  8
0
  6
Continuous
 62
     7
370
     0
100
AcDbTrace
 10
45.5670131777
 20
193.3731057416
 30
0.0
 11
46.3170131777
 21
196.3731057416
 31
0.0
 12
44.8170131777
 22
196.3731057416
 32
0.0
 13
44.8170131777
 23
196.3731057416
 33
0.0
  0
SOLID
  5
26E
330
26A
100
AcDbEntity
  8
0
  6
Continuous
 62
     7
370
     0
100
AcDbTrace
 10
45.5670131777
 20
235.8731057416
 30
0.0
 11
44.8170131777
 21
232.8731057416
 31
0.0
 12
46.3170131777
 22
232.8731057416
 32
0.0
 13
46.3170131777
 23
232.8731057416
 33
0.0
  0
LINE
  5
26F
330
26A
100
AcDbEntity
  8
0
  6
Continuous
 62
     7
370
     0
100
AcDbLine
 10
101.2401665756
 20
193.3731057416
 30
0.0
 11
44.5670131777
 21
193.3731057416
 31
0.0
  0
LINE
  5
270
330
26A
100
AcDbEntity
  8
0
  6
Continuous
 62
     7
370
     0
100
AcDbLine
 10
100.7401665756
 20
235.8731057416
 30
0.0
 11
44.5670131777
 21
235.8731057416
 31
0.0
  0
LINE
  5
271
330
26A
100
AcDbEntity
  8
0
  6
Continuous
 62
     7
370
     0
100
AcDbLine
 10
45.5670131777
 20
193.3731057416
 30
0.0
 11
45.5670131777
 21
235.8731057416
 31
0.0
  0
MTEXT
  5
272
330
26A
100
AcDbEntity
  8
0
  6
Continuous
 62
     7
370
     0
100
AcDbMText
 10
41.0552763214
 20
210.5494947466
 30
0.1
 40
3.5
 41
0.0
 71
     1
 72
     1
  1
42.5
  7
SLDTEXTSTYLE0
 11
6.123233995736766E-17
 21
1.0
 31
0.0
 73
     1
 44
1.0
  0
ENDBLK
  5
26C
330
26A
100
AcDbEntity
  8
0
100
AcDbBlockEnd
  0
BLOCK
  5
275
330
274
100
AcDbEntity
  8
0
100
AcDbBlockBegin
  2
_D_7
 70
     0
 10
0.0
 20
0.0
 30
0.0
  3
_D_7
  1

  0
SOLID
  5
277
330
274
100
AcDbEntity
  8
0
  6
Continuous
 62
     7
370
     0
100
AcDbTrace
 10
58.276060477
 20
193.3731057416
 30
0.0
 11
59.026060477
 21
196.3731057416
 31
0.0
 12
57.526060477
 22
196.3731057416
 32
0.0
 13
57.526060477
 23
196.3731057416
 33
0.0
  0
SOLID
  5
278
330
274
100
AcDbEntity
  8
0
  6
Continuous
 62
     7
370
     0
100
AcDbTrace
 10
58.276060477
 20
205.3731057416
 30
0.0
 11
57.526060477
 21
202.3731057416
 31
0.0
 12
59.026060477
 22
202.3731057416
 32
0.0
 13
59.026060477
 23
202.3731057416
 33
0.0
  0
LINE
  5
279
330
274
100
AcDbEntity
  8
0
  6
Continuous
 62
     7
370
     0
100
AcDbLine
 10
101.2401665756
 20
193.3731057416
 30
0.0
 11
57.276060477
 21
193.3731057416
 31
0.0
  0
LINE
  5
27A
330
274
100
AcDbEntity
  8
0
  6
Continuous
 62
     7
370
     0
100
AcDbLine
 10
85.2401665756
 20
205.3731057416
 30
0.0
 11
57.276060477
 21
205.3731057416
 31
0.0
  0
LINE
  5
27B
330
274
100
AcDbEntity
  8
0
  6
Continuous
 62
     7
370
     0
100
AcDbLine
 10
58.276060477
 20
193.3731057416
 30
0.0
 11
58.276060477
 21
205.3731057416
 31
0.0
  0
MTEXT
  5
27C
330
274
100
AcDbEntity
  8
0
  6
Continuous
 62
     7
370
     0
100
AcDbMText
 10
53.7643236207
 20
197.3363002441
 30
0.1
 40
3.5
 41
0.0
 71
     1
 72
     1
  1
12
  7
SLDTEXTSTYLE0
 11
6.123233995736766E-17
 21
1.0
 31
0.0
 73
     1
 44
1.0
  0
ENDBLK
  5
276
330
274
100
AcDbEntity
  8
0
100
AcDbBlockEnd
  0
BLOCK
  5
27F
330
27E
100
AcDbEntity
  8
0
100
AcDbBlockBegin
  2
_D_8
 70
     0
 10
0.0
 20
0.0
 30
0.0
  3
_D_8
  1

  0
SOLID
  5
281
330
27E
100
AcDbEntity
  8
0
  6
Continuous
 62
     7
370
     0
100
AcDbTrace
 10
58.276060477
 20
205.3731057416
 30
0.0
 11
59.026060477
 21
208.3731057416
 31
0.0
 12
57.526060477
 22
208.3731057416
 32
0.0
 13
57.526060477
 23
208.3731057416
 33
0.0
  0
SOLID
  5
282
330
27E
100
AcDbEntity
  8
0
  6
Continuous
 62
     7
370
     0
100
AcDbTrace
 10
58.276060477
 20
232.8731057416
 30
0.0
 11
57.526060477
 21
229.8731057416
 31
0.0
 12
59.026060477
 22
229.8731057416
 32
0.0
 13
59.026060477
 23
229.8731057416
 33
0.0
  0
LINE
  5
283
330
27E
100
AcDbEntity
  8
0
  6
Continuous
 62
     7
370
     0
100
AcDbLine
 10
85.2401665756
 20
205.3731057416
 30
0.0
 11
57.276060477
 21
205.3731057416
 31
0.0
  0
LINE
  5
284
330
27E
100
AcDbEntity
  8
0
  6
Continuous
 62
     7
370
     0
100
AcDbLine
 10
85.2401665756
 20
232.8731057416
 30
0.0
 11
57.276060477
 21
232.8731057416
 31
0.0
  0
LINE
  5
285
330
27E
100
AcDbEntity
  8
0
  6
Continuous
 62
     7
370
     0
100
AcDbLine
 10
58.276060477
 20
205.3731057416
 30
0.0
 11
58.276060477
 21
232.8731057416
 31
0.0
  0
MTEXT
  5
286
330
27E
100
AcDbEntity
  8
0
  6
Continuous
 62
     7
370
     0
100
AcDbMText
 10
53.7643236207
 20
215.0494947466
 30
0.1
 40
3.5
 41
0.0
 71
     1
 72
     1
  1
27.5
  7
SLDTEXTSTYLE0
 11
6.123233995736766E-17
 21
1.0
 31
0.0
 73
     1
 44
1.0
  0
ENDBLK
  5
280
330
27E
100
AcDbEntity
  8
0
100
AcDbBlockEnd
  0
BLOCK
  5
28A
330
289
100
AcDbEntity
  8
0
100
AcDbBlockBegin
  2
_D_9
 70
     0
 10
0.0
 20
0.0
 30
0.0
  3
_D_9
  1

  0
SOLID
  5
28C
330
289
100
AcDbEntity
  8
0
  6
Continuous
 62
     7
370
     0
100
AcDbTrace
 10
58.276060477
 20
235.8731057416
 30
0.0
 11
59.026060477
 21
238.8731057416
 31
0.0
 12
57.526060477
 22
238.8731057416
 32
0.0
 13
57.526060477
 23
238.8731057416
 33
0.0
  0
SOLID
  5
28D
330
289
100
AcDbEntity
  8
0
  6
Continuous
 62
     7
370
     0
100
AcDbTrace
 10
58.276060477
 20
232.8731057416
 30
0.0
 11
57.526060477
 21
229.8731057416
 31
0.0
 12
59.026060477
 22
229.8731057416
 32
0.0
 13
59.026060477
 23
229.8731057416
 33
0.0
  0
LINE
  5
28E
330
289
100
AcDbEntity
  8
0
  6
Continuous
 62
     7
370
     0
100
AcDbLine
 10
100.7401665756
 20
235.8731057416
 30
0.0
 11
57.276060477
 21
235.8731057416
 31
0.0
  0
LINE
  5
28F
330
289
100
AcDbEntity
  8
0
  6
Continuous
 62
     7
370
     0
100
AcDbLine
 10
85.2401665756
 20
232.8731057416
 30
0.0
 11
57.276060477
 21
232.8731057416
 31
0.0
  0
LINE
  5
290
330
289
100
AcDbEntity
  8
0
  6
Continuous
 62
     7
370
     0
100
AcDbLine
 10
58.276060477
 20
235.8731057416
 30
0.0
 11
58.276060477
 21
244.2612487139
 31
0.0
  0
LINE
  5
291
330
289
100
AcDbEntity
  8
0
  6
Continuous
 62
     7
370
     0
100
AcDbLine
 10
58.276060477
 20
235.8731057416
 30
0.0
 11
58.276060477
 21
232.8731057416
 31
0.0
  0
LINE
  5
292
330
289
100
AcDbEntity
  8
0
  6
Continuous
 62
     7
370
     0
100
AcDbLine
 10
58.276060477
 20
232.8731057416
 30
0.0
 11
58.276060477
 21
227.8731057416
 31
0.0
  0
MTEXT
  5
293
330
289
100
AcDbEntity
  8
0
  6
Continuous
 62
     7
370
     0
100
AcDbMText
 10
53.7643236207
 20
242.2244432164
 30
0.1
 40
3.5
 41
0.0
 71
     1
 72
     1
  1
3
  7
SLDTEXTSTYLE0
 11
-6.156016597943509E-15
 21
1.0
 31
0.0
 73
     1
 44
1.0
  0
ENDBLK
  5
28B
330
289
100
AcDbEntity
  8
0
100
AcDbBlockEnd
  0
BLOCK
  5
297
330
296
100
AcDbEntity
  8
0
100
AcDbBlockBegin
  2
_OPEN30
 70
     0
 10
0.0
 20
0.0
 30
0.0
  3
_OPEN30
  1

  0
LINE
  5
299
330
296
100
AcDbEntity
  8
0
  6
ByBlock
 62
     0
370
    -2
100
AcDbLine
 10
-1.0
 20
0.267949
 30
0.0
 11
0.0
 21
0.0
 31
0.0
  0
LINE
  5
29A
330
296
100
AcDbEntity
  8
0
  6
ByBlock
 62
     0
370
    -2
100
AcDbLine
 10
0.0
 20
0.0
 30
0.0
 11
-1.0
 21
-0.267949
 31
0.0
  0
LINE
  5
29B
330
296
100
AcDbEntity
  8
0
  6
ByBlock
 62
     0
370
    -2
100
AcDbLine
 10
0.0
 20
0.0
 30
0.0
 11
-1.0
 21
0.0
 31
0.0
  0
ENDBLK
  5
298
330
296
100
AcDbEntity
  8
0
100
AcDbBlockEnd
  0
ENDSEC
  0
SECTION
  2
ENTITIES
  0
LINE
  5
44
330
1F
100
AcDbEntity
  8
0
  6
Continuous
 62
     7
370
     0
100
AcDbLine
 10
20.2604743903
 20
285.0
 30
0.0
 11
196.7604743903
 21
285.0
 31
0.0
  0
LINE
  5
45
330
1F
100
AcDbEntity
  8
0
  6
Continuous
 62
     7
370
     0
100
AcDbLine
 10
20.2604743903
 20
285.0
 30
0.0
 11
20.2604743903
 21
10.0
 31
0.0
  0
LINE
  5
46
330
1F
100
AcDbEntity
  8
0
  6
Continuous
 62
     7
370
     0
100
AcDbLine
 10
20.2604743903
 20
10.0
 30
0.0
 11
196.7604743903
 21
10.0
 31
0.0
  0
LINE
  5
47
330
1F
100
AcDbEntity
  8
0
  6
Continuous
 62
     7
370
     0
100
AcDbLine
 10
196.7604743903
 20
285.0
 30
0.0
 11
196.7604743903
 21
10.0
 31
0.0
  0
LINE
  5
48
330
1F
100
AcDbEntity
  8
0
  6
Continuous
 62
     7
370
     0
100
AcDbLine
 10
127.0104743903
 20
50.75
 30
0.0
 11
196.7604743903
 21
50.75
 31
0.0
  0
LINE
  5
49
330
1F
100
AcDbEntity
  8
0
  6
Continuous
 62
     7
370
     0
100
AcDbLine
 10
127.0104743903
 20
50.75
 30
0.0
 11
127.0104743903
 21
10.0
 31
0.0
  0
LINE
  5
4A
330
1F
100
AcDbEntity
  8
0
  6
Continuous
 62
     7
370
     0
100
AcDbLine
 10
127.0104743903
 20
22.75
 30
0.0
 11
196.7604743903
 21
22.75
 31
0.0
  0
LINE
  5
4B
330
1F
100
AcDbEntity
  8
0
  6
Continuous
 62
     7
370
     0
100
AcDbLine
 10
127.0104743903
 20
36.75
 30
0.0
 11
196.7604743903
 21
36.75
 31
0.0
  0
MTEXT
  5
4D
330
1F
100
AcDbEntity
  8
0
  6
Continuous
 62
     7
370
     0
100
AcDbMText
 10
162.5817172278
 20
30.4171582345
 30
0.0
 40
4.2333333333
 41
0.0
 71
     2
 72
     1
  1
OX-10B
  7
SLDTEXTSTYLE0
 73
     1
 44
1.0
  0
MTEXT
  5
4E
330
1F
100
AcDbEntity
  8
0
  6
Continuous
 62
     7
370
     0
100
AcDbMText
 10
159.1080369801
 20
43.9878195875
 30
0.0
 40
3.175
 41
0.0
 71
     2
 72
     1
  1
チャックワンタッチ・自動・ロボット側
  7
SLDTEXTSTYLE0
 73
     1
 44
1.0
  0
MTEXT
  5
4F
330
1F
100
AcDbEntity
  8
0
  6
Continuous
 62
     7
370
     0
100
AcDbMText
 10
162.5721655586
 20
16.8228189052
 30
0.0
 40
4.2333333333
 41
0.0
 71
     2
 72
     1
  1
140262
  7
SLDTEXTSTYLE0
 73
     1
 44
1.0
  0
SPLINE
  5
50
330
1F
100
AcDbEntity
  8
0
  6
Continuous
 62
     7
370
     0
100
AcDbSpline
210
0.0
220
0.0
230
1.0
 70
     8
 71
     3
 72
     9
 73
     5
 74
     0
 42
0.00000001
 43
0.00000001
 12
1.0
 22
0.0
 32
0.0
 13
1.0
 23
0.0
 33
0.0
 40
0.0
 40
0.0
 40
0.0
 40
0.0
 40
0.7809581418673347
 40
1.0
 40
1.0
 40
1.0
 40
1.0
 10
121.4983583623186
 20
121.7396619492
 30
0.0
 10
121.5067933003756
 20
121.7618407825845
 30
0.0
 10
121.5175940560178
 20
121.7902402987629
 30
0.0
 10
121.5134745513987
 20
121.7831567112555
 30
0.0
 10
121.5125722074523
 20
121.7816051090857
 30
0.0
  0
SPLINE
  5
51
330
1F
100
AcDbEntity
  8
0
  6
Continuous
 62
     7
370
     0
100
AcDbSpline
210
0.0
220
0.0
230
1.0
 70
     8
 71
     3
 72
     9
 73
     5
 74
     0
 42
0.00000001
 43
0.00000001
 12
1.0
 22
0.0
 32
0.0
 13
1.0
 23
0.0
 33
0.0
 40
0.0
 40
0.0
 40
0.0
 40
0.0
 40
0.3050315941781556
 40
1.0
 40
1.0
 40
1.0
 40
1.0
 10
117.1996315670773
 20
129.2519132136156
 30
0.0
 10
117.2011368204978
 20
129.2518399658656
 30
0.0
 10
117.2060715664363
 20
129.2515998341827
 30
0.0
 10
117.1775796268789
 20
129.2565290612849
 30
0.0
 10
117.157778629066
 20
129.2599547183862
 30
0.0
  0
SPLINE
  5
52
330
1F
100
AcDbEntity
  8
0
  6
Continuous
 62
     7
370
     0
100
AcDbSpline
210
0.0
220
0.0
230
1.0
 70
     8
 71
     3
 72
     9
 73
     5
 74
     0
 42
0.00000001
 43
0.00000001
 12
1.0
 22
0.0
 32
0.0
 13
1.0
 23
0.0
 33
0.0
 40
0.0
 40
0.0
 40
0.0
 40
0.0
 40
0.7809581263601232
 40
0.9999999999999999
 40
0.9999999999999999
 40
0.9999999999999999
 40
0.9999999999999999
 10
109.3980869473532
 20
115.8227818547537
 30
0.0
 10
109.4130770677916
 20
115.8043873643011
 30
0.0
 10
109.4322715929939
 20
115.7808336168827
 30
0.0
 10
109.4281965406117
 20
115.7879436480101
 30
0.0
 10
109.4273039335027
 20
115.7895010425498
 30
0.0
  0
SPLINE
  5
53
330
1F
100
AcDbEntity
  8
0
  6
Continuous
 62
     7
370
     0
100
AcDbSpline
210
0.0
220
0.0
230
1.0
 70
     8
 71
     3
 72
     9
 73
     5
 74
     0
 42
0.00000001
 43
0.00000001
 12
1.0
 22
0.0
 32
0.0
 13
1.0
 23
0.0
 33
0.0
 40
0.0
 40
0.0
 40
0.0
 40
0.0
 40
0.3050315960514821
 40
1.0
 40
1.0
 40
1.0
 40
1.0
 10
105.9676170544341
 20
121.7814319995021
 30
0.0
 10
105.9669280670161
 20
121.7827722629171
 30
0.0
 10
105.9646693258662
 20
121.7871661140208
 30
0.0
 10
105.9746459818128
 20
121.7600266438
 30
0.0
 10
105.9815794424727
 20
121.7411655694967
 30
0.0
  0
SPLINE
  5
54
330
1F
100
AcDbEntity
  8
0
  6
Continuous
 62
     7
370
     0
100
AcDbSpline
210
0.0
220
0.0
230
1.0
 70
     8
 71
     3
 72
     9
 73
     5
 74
     0
 42
0.00000001
 43
0.00000001
 12
1.0
 22
0.0
 32
0.0
 13
1.0
 23
0.0
 33
0.0
 40
0.0
 40
0.0
 40
0.0
 40
0.0
 40
0.3050316051439922
 40
0.9999999999999999
 40
0.9999999999999999
 40
0.9999999999999999
 40
0.9999999999999999
 10
118.0532508724943
 20
115.7894628583243
 30
0.0
 10
118.0524346958771
 20
115.7881960134248
 30
0.0
 10
118.049758984235
 20
115.784042853955
 30
0.0
 10
118.0682741796556
 20
115.8062525287122
 30
0.0
 10
118.0811416552976
 20
115.8216875507286
 30
0.0
  0
SPLINE
  5
55
330
1F
100
AcDbEntity
  8
0
  6
Continuous
 62
     7
370
     0
100
AcDbSpline
210
0.0
220
0.0
230
1.0
 70
     8
 71
     3
 72
     9
 73
     5
 74
     0
 42
0.00000001
 43
0.00000001
 12
1.0
 22
0.0
 32
0.0
 13
1.0
 23
0.0
 33
0.0
 40
0.0
 40
0.0
 40
0.0
 40
0.0
 40
0.7809581498641275
 40
1.0
 40
1.0
 40
1.0
 40
1.0
 10
110.3240544171646
 20
129.260364500319
 30
0.0
 10
110.3006295743164
 20
129.2565798336624
 30
0.0
 10
110.270634570292
 20
129.2517336499619
 30
0.0
 10
110.2788287234198
 20
129.2517079076878
 30
0.0
 10
110.2806235858813
 20
129.2517022690525
 30
0.0
  0
LWPOLYLINE
  5
56
330
1F
100
AcDbEntity
  8
0
  6
Continuous
 62
     7
370
     0
100
AcDbPolyline
 90
        3
 70
   128
 43
0.0
 10
123.8986970121
 20
132.139299111
 10
123.2226937273
 20
132.0817629336
 10
123.0520456293
 20
132.0486702486
  0
ARC
  5
57
330
1F
100
AcDbEntity
  8
0
  6
Continuous
 62
     7
370
     0
100
AcDbCircle
 10
123.8986968219
 20
128.1392995682
 30
0.0
 40
4.0
100
AcDbArc
 50
192.6981549893
 51
227.3018450107
  0
ARC
  5
58
330
1F
100
AcDbEntity
  8
0
  6
Continuous
 62
     7
370
     0
100
AcDbCircle
 10
123.8986968219
 20
128.1392995682
 30
0.0
 40
4.0
100
AcDbArc
 50
317.7801792132
 51
90.0
  0
ARC
  5
59
330
1F
100
AcDbEntity
  8
0
  6
Continuous
 62
     7
370
     0
100
AcDbCircle
 10
103.5816363293
 20
128.1392995682
 30
0.0
 40
4.000000000000008
100
AcDbArc
 50
90.0
 51
222.2198207868
  0
ARC
  5
5A
330
1F
100
AcDbEntity
  8
0
  6
Continuous
 62
     7
370
     0
100
AcDbCircle
 10
103.5816363293
 20
128.1392995682
 30
0.0
 40
4.0
100
AcDbArc
 50
312.6981549893
 51
347.3018450107
  0
LWPOLYLINE
  5
5B
330
1F
100
AcDbEntity
  8
0
  6
Continuous
 62
     7
370
     0
100
AcDbPolyline
 90
        3
 70
   128
 43
0.0
 10
104.4282875219
 20
132.0486702486
 10
104.2576394239
 20
132.0817629336
 10
103.5816361392
 20
132.139299111
  0
ARC
  5
5C
330
1F
100
AcDbEntity
  8
0
  6
Continuous
 62
     7
370
     0
100
AcDbCircle
 10
152.6401665756
 20
122.274269396
 30
0.0
 40
4.100000000000002
100
AcDbArc
 50
0.6051035538
 51
90.0
  0
ARC
  5
5D
330
1F
100
AcDbEntity
  8
0
  6
Continuous
 62
     7
370
     0
100
AcDbCircle
 10
152.6401665756
 20
122.274269396
 30
0.0
 40
4.100000000000006
100
AcDbArc
 50
358.921834207
 51
0.6051035538
  0
ARC
  5
5E
330
1F
100
AcDbEntity
  8
0
  6
Continuous
 62
     7
370
     0
100
AcDbCircle
 10
152.6401665756
 20
122.274269396
 30
0.0
 40
4.100000000000033
100
AcDbArc
 50
257.3196165082
 51
358.921834207
  0
ARC
  5
5F
330
1F
100
AcDbEntity
  8
0
  6
Continuous
 62
     7
370
     0
100
AcDbCircle
 10
152.6401665756
 20
122.274269396
 30
0.0
 40
4.099999999999994
100
AcDbArc
 50
90.0
 51
102.6803834918
  0
LINE
  5
60
330
1F
100
AcDbEntity
  8
0
  6
Continuous
 62
     7
370
     0
100
AcDbLine
 10
146.7401663968
 20
118.274269206
 30
0.0
 11
151.7401653537
 21
118.274269206
 31
0.0
  0
LINE
  5
61
330
1F
100
AcDbEntity
  8
0
  6
Continuous
 62
     7
370
     0
100
AcDbLine
 10
151.7401653537
 20
126.2742695859
 30
0.0
 11
146.7401663968
 21
126.2742695859
 31
0.0
  0
LINE
  5
62
330
1F
100
AcDbEntity
  8
0
  6
Continuous
 62
     7
370
     0
100
AcDbLine
 10
141.7401674399
 20
125.774269504
 30
0.0
 11
141.5205559888
 21
125.774269504
 31
0.0
  0
LINE
  5
63
330
1F
100
AcDbEntity
  8
0
  6
Continuous
 62
     7
370
     0
100
AcDbLine
 10
141.5205559888
 20
118.7742692879
 30
0.0
 11
141.7401674399
 21
118.7742692879
 31
0.0
  0
ARC
  5
64
330
1F
100
AcDbEntity
  8
0
  6
Continuous
 62
     7
370
     0
100
AcDbCircle
 10
74.8401665756
 20
122.274269396
 30
0.0
 40
4.100000000000022
100
AcDbArc
 50
77.3196165082
 51
90.0
  0
ARC
  5
65
330
1F
100
AcDbEntity
  8
0
  6
Continuous
 62
     7
370
     0
100
AcDbCircle
 10
74.8401665756
 20
122.274269396
 30
0.0
 40
4.09999999999999
100
AcDbArc
 50
182.4114750031
 51
282.6803834918
  0
ARC
  5
66
330
1F
100
AcDbEntity
  8
0
  6
Continuous
 62
     7
370
     0
100
AcDbCircle
 10
74.8401665756
 20
122.274269396
 30
0.0
 40
4.1
100
AcDbArc
 50
179.3993883106
 51
182.4114750031
  0
ARC
  5
67
330
1F
100
AcDbEntity
  8
0
  6
Continuous
 62
     7
370
     0
100
AcDbCircle
 10
74.8401665756
 20
122.274269396
 30
0.0
 40
4.100000000000009
100
AcDbArc
 50
90.0
 51
179.3993883106
  0
LINE
  5
68
330
1F
100
AcDbEntity
  8
0
  6
Continuous
 62
     7
370
     0
100
AcDbLine
 10
80.7401667544
 20
126.2742695859
 30
0.0
 11
75.7401677975
 21
126.2742695859
 31
0.0
  0
LINE
  5
69
330
1F
100
AcDbEntity
  8
0
  6
Continuous
 62
     7
370
     0
100
AcDbLine
 10
75.7401677975
 20
118.274269206
 30
0.0
 11
80.7401667544
 21
118.274269206
 31
0.0
  0
LINE
  5
6A
330
1F
100
AcDbEntity
  8
0
  6
Continuous
 62
     7
370
     0
100
AcDbLine
 10
85.7401657113
 20
118.7742692879
 30
0.0
 11
85.9597771624
 21
118.7742692879
 31
0.0
  0
LINE
  5
6B
330
1F
100
AcDbEntity
  8
0
  6
Continuous
 62
     7
370
     0
100
AcDbLine
 10
85.9597771624
 20
125.774269504
 30
0.0
 11
85.7401657113
 21
125.774269504
 31
0.0
  0
ARC
  5
6C
330
1F
100
AcDbEntity
  8
0
  6
Continuous
 62
     7
370
     0
100
AcDbCircle
 10
113.7401665756
 20
132.28937431
 30
0.0
 40
4.000000000000023
100
AcDbArc
 50
90.0
 51
124.6034040857
  0
LWPOLYLINE
  5
6D
330
1F
100
AcDbEntity
  8
0
  6
Continuous
 62
     7
370
     0
100
AcDbPolyline
 90
        3
 70
   128
 43
0.0
 10
110.7100212676
 20
129.6782023734
 10
110.9724111585
 20
129.401549743
 10
110.9945538183
 20
129.38048928
  0
LWPOLYLINE
  5
6E
330
1F
100
AcDbEntity
  8
0
  6
Continuous
 62
     7
370
     0
100
AcDbPolyline
 90
        3
 70
   128
 43
0.0
 10
116.4613041756
 20
129.3575815386
 10
116.5079219928
 20
129.401549743
 10
116.7703118836
 20
129.6782023734
  0
ARC
  5
6F
330
1F
100
AcDbEntity
  8
0
  6
Continuous
 62
     7
370
     0
100
AcDbCircle
 10
113.7401665756
 20
132.28937431
 30
0.0
 40
4.000000000000015
100
AcDbArc
 50
55.3965959143
 51
90.0
  0
LWPOLYLINE
  5
70
330
1F
100
AcDbEntity
  8
0
  6
Continuous
 62
     7
370
     0
100
AcDbPolyline
 90
        3
 70
   128
 43
0.0
 10
113.7401665756
 20
114.5442091389
 10
113.0641632909
 20
114.4866724959
 10
112.5505441296
 20
114.3632140471
  0
ARC
  5
71
330
1F
100
AcDbEntity
  8
0
  6
Continuous
 62
     7
370
     0
100
AcDbCircle
 10
113.7401665756
 20
110.5442090514
 30
0.0
 40
4.000000000000004
100
AcDbArc
 50
197.7801792132
 51
342.2198207868
  0
LWPOLYLINE
  5
72
330
1F
100
AcDbEntity
  8
0
  6
Continuous
 62
     7
370
     0
100
AcDbPolyline
 90
        3
 70
   128
 43
0.0
 10
114.9297890216
 20
114.3632140471
 10
114.4161698604
 20
114.4866724959
 10
113.7401665756
 20
114.5442091389
  0
LINE
  5
73
330
1F
100
AcDbEntity
  8
0
  6
Continuous
 62
     7
370
     0
100
AcDbLine
 10
121.6672332221
 20
121.1964857527
 30
0.0
 11
121.259062943
 21
121.0965041998
 31
0.0
  0
LWPOLYLINE
  5
74
330
1F
100
AcDbEntity
  8
0
  6
Continuous
 62
     7
370
     0
100
AcDbPolyline
 90
        3
 70
   128
 43
0.0
 10
118.5156744169
 20
116.3684172085
 10
118.5888349274
 20
116.0954260728
 10
118.6370876813
 20
115.9481201782
  0
ARC
  5
75
330
1F
100
AcDbEntity
  8
0
  6
Continuous
 62
     7
370
     0
100
AcDbCircle
 10
122.4135018527
 20
117.2667169389
 30
0.0
 40
4.000000000000004
100
AcDbArc
 50
295.3965959143
 51
4.6034040857
  0
ARC
  5
76
330
1F
100
AcDbEntity
  8
0
  6
Continuous
 62
     7
370
     0
100
AcDbCircle
 10
105.0668312985
 20
117.2667169389
 30
0.0
 40
4.000000000000011
100
AcDbArc
 50
175.3965959143
 51
244.6034040857
  0
LWPOLYLINE
  5
77
330
1F
100
AcDbEntity
  8
0
  6
Continuous
 62
     7
370
     0
100
AcDbPolyline
 90
        3
 70
   128
 43
0.0
 10
108.8432454699
 20
115.9481201782
 10
108.8914982238
 20
116.0954260728
 10
108.9650210188
 20
116.3699902124
  0
LINE
  5
78
330
1F
100
AcDbEntity
  8
0
  6
Continuous
 62
     7
370
     0
100
AcDbLine
 10
106.2370319115
 20
121.0917176674
 30
0.0
 11
105.8130999291
 21
121.1964857527
 31
0.0
  0
CIRCLE
  5
79
330
1F
100
AcDbEntity
  8
0
  6
Continuous
 62
     7
370
     0
100
AcDbCircle
 10
120.5385404519
 20
101.3510260375
 30
0.0
 40
2.000000000000002
  0
CIRCLE
  5
7A
330
1F
100
AcDbEntity
  8
0
  6
Continuous
 62
     7
370
     0
100
AcDbCircle
 10
134.6634099341
 20
129.0726432722
 30
0.0
 40
2.000000000000027
  0
LWPOLYLINE
  5
7B
330
1F
100
AcDbEntity
  8
0
  6
Continuous
 62
     7
370
     0
100
AcDbPolyline
 90
        3
 70
   128
 43
0.0
 10
118.0806778567
 20
115.8218607767
 10
118.0562734799
 20
115.7966270572
 10
118.0169735299
 20
115.7666622191
  0
SPLINE
  5
7C
330
1F
100
AcDbEntity
  8
0
  6
Continuous
 62
     7
370
     0
100
AcDbSpline
210
0.0
220
0.0
230
1.0
 70
     8
 71
     3
 72
    38
 73
    34
 74
     0
 42
0.00000001
 43
0.00000001
 12
1.0
 22
0.0
 32
0.0
 13
1.0
 23
0.0
 33
0.0
 40
0.0
 40
0.0
 40
0.0
 40
0.0
 40
0.1249999999999998
 40
0.1249999999999998
 40
0.2499999999999997
 40
0.2499999999999997
 40
0.3124999999999996
 40
0.3124999999999996
 40
0.3749999999999995
 40
0.3749999999999995
 40
0.4062499999999995
 40
0.4062499999999995
 40
0.4374999999999995
 40
0.4374999999999995
 40
0.4687499999999996
 40
0.4687499999999996
 40
0.4999999999999996
 40
0.4999999999999996
 40
0.5312499999999996
 40
0.5312499999999996
 40
0.5624999999999994
 40
0.5624999999999994
 40
0.5937499999999994
 40
0.5937499999999994
 40
0.6249999999999993
 40
0.6249999999999993
 40
0.6874999999999994
 40
0.6874999999999994
 40
0.7499999999999994
 40
0.7499999999999994
 40
0.8749999999999997
 40
0.8749999999999997
 40
1.0
 40
1.0
 40
1.0
 40
1.0
 10
118.0169735549639
 20
115.7666619906961
 30
0.0
 10
118.1187358211364
 20
115.8797796888664
 30
0.0
 10
118.2319351554667
 20
116.0046113554106
 30
0.0
 10
118.4855196681984
 20
116.2897637189538
 30
0.0
 10
118.625522846087
 20
116.4493416619793
 30
0.0
 10
118.8659624928626
 20
116.7368661875408
 30
0.0
 10
118.9512427487322
 20
116.8408468595434
 30
0.0
 10
119.136942049614
 20
117.0747585316808
 30
0.0
 10
119.2375856094107
 20
117.2049404814542
 30
0.0
 10
119.4016605395625
 20
117.427025248019
 30
0.0
 10
119.4587181001751
 20
117.5057738582992
 30
0.0
 10
119.5794522605442
 20
117.6768605798859
 30
0.0
 10
119.6437503684443
 20
117.7701181102079
 30
0.0
 10
119.7779318867103
 20
117.97109153885
 30
0.0
 10
119.8489965855197
 20
118.080626028783
 30
0.0
 10
119.9938195387649
 20
118.3124358158231
 30
0.0
 10
120.0681303759957
 20
118.4356432291443
 30
0.0
 10
120.2143792210432
 20
118.6882879641431
 30
0.0
 10
120.2842850018801
 20
118.8141751704432
 30
0.0
 10
120.4150814834766
 20
119.0588784681729
 30
0.0
 10
120.4739217958347
 20
119.1736960735592
 30
0.0
 10
120.5825927597201
 20
119.3928062594887
 30
0.0
 10
120.6314475892307
 20
119.4951729737871
 30
0.0
 10
120.7203467638789
 20
119.6868202711258
 30
0.0
 10
120.7607123977897
 20
119.7767881991979
 30
0.0
 10
120.8731988678373
 20
120.0340223676585
 30
0.0
 10
120.9356159074951
 20
120.1859130286638
 30
0.0
 10
121.0457588940301
 20
120.4639230770616
 30
0.0
 10
121.0936268875755
 20
120.5906090914996
 30
0.0
 10
121.2239201249646
 20
120.9458962479494
 30
0.0
 10
121.2934568457452
 20
121.1506207726126
 30
0.0
 10
121.4151298133573
 20
121.5172076119125
 30
0.0
 10
121.4670049106375
 20
121.6788342798353
 30
0.0
 10
121.5143233960957
 20
121.8242496073786
 30
0.0
  0
LWPOLYLINE
  5
7D
330
1F
100
AcDbEntity
  8
0
  6
Continuous
 62
     7
370
     0
100
AcDbPolyline
 90
        3
 70
   128
 43
0.0
 10
121.4978507915
 20
121.7400255725
 10
121.5080226967
 20
121.7752322433
 10
121.5143235596
 20
121.8242496131
  0
SPLINE
  5
7E
330
1F
100
AcDbEntity
  8
0
  6
Continuous
 62
     7
370
     0
100
AcDbSpline
210
0.0
220
0.0
230
1.0
 70
     8
 71
     3
 72
    16
 73
    12
 74
     0
 42
0.00000001
 43
0.00000001
 12
1.0
 22
0.0
 32
0.0
 13
1.0
 23
0.0
 33
0.0
 40
0.0
 40
0.0
 40
0.0
 40
0.0
 40
0.1250000000000002
 40
0.1250000000000002
 40
0.2500000000000005
 40
0.2500000000000005
 40
0.5000000000000002
 40
0.5000000000000002
 40
0.7499999999999999
 40
0.7499999999999999
 40
1.0
 40
1.0
 40
1.0
 40
1.0
 10
110.7401665756117
 20
115.2210694510732
 30
0.0
 10
110.6439725656942
 20
115.266058758898
 30
0.0
 10
110.5620932406994
 20
115.3085358729173
 30
0.0
 10
110.4127755100491
 20
115.3909526685694
 30
0.0
 10
110.3456047957157
 20
115.4309565696652
 30
0.0
 10
110.1655746744892
 20
115.5441269827786
 30
0.0
 10
110.0704693955049
 20
115.6123660948667
 30
0.0
 10
109.9129889130558
 20
115.7358750546752
 30
0.0
 10
109.8527382939965
 20
115.7897289128775
 30
0.0
 10
109.7665796351857
 20
115.8789183553315
 30
0.0
 10
109.7401665756117
 20
115.9147657775584
 30
0.0
 10
109.7401665756117
 20
115.9341302823682
 30
0.0
  0
ELLIPSE
  5
7F
330
1F
100
AcDbEntity
  8
0
  6
Continuous
 62
     7
370
     0
100
AcDbEllipse
 10
113.7401665756
 20
121.6803862768
 30
0.0
 11
4.121147867408581E-13
 21
7.126409633072341
 31
0.0
210
0.0
220
0.0
230
1.0
 40
0.9965215449
 41
2.705458367696076
 42
3.577726939483522
  0
SPLINE
  5
80
330
1F
100
AcDbEntity
  8
0
  6
Continuous
 62
     7
370
     0
100
AcDbSpline
210
0.0
220
0.0
230
1.0
 70
     8
 71
     3
 72
    16
 73
    12
 74
     0
 42
0.00000001
 43
0.00000001
 12
1.0
 22
0.0
 32
0.0
 13
1.0
 23
0.0
 33
0.0
 40
0.0
 40
0.0
 40
0.0
 40
0.0
 40
0.2499999999999997
 40
0.2499999999999997
 40
0.4999999999999997
 40
0.4999999999999997
 40
0.7499999999999997
 40
0.7499999999999997
 40
0.8749999999999998
 40
0.8749999999999998
 40
1.0
 40
1.0
 40
1.0
 40
1.0
 10
117.7401665756117
 20
115.9341302823678
 30
0.0
 10
117.7401665756117
 20
115.9147512245066
 30
0.0
 10
117.7141874803161
 20
115.8794277741677
 30
0.0
 10
117.6280239516435
 20
115.7901135114167
 30
0.0
 10
117.5666406302636
 20
115.7353285057019
 30
0.0
 10
117.41075045003
 20
115.6130562412351
 30
0.0
 10
117.3166952607753
 20
115.5454190823459
 30
0.0
 10
117.1359843043631
 20
115.4317094678222
 30
0.0
 10
117.0692802928105
 20
115.391948466543
 30
0.0
 10
116.9198905615279
 20
115.3094029930394
 30
0.0
 10
116.8359509586211
 20
115.2658671790781
 30
0.0
 10
116.7401665756117
 20
115.2210694510729
 30
0.0
  0
SPLINE
  5
81
330
1F
100
AcDbEntity
  8
0
  6
Continuous
 62
     7
370
     0
100
AcDbSpline
210
0.0
220
0.0
230
1.0
 70
    24
 71
     3
 72
     8
 73
     4
 74
     0
 42
0.00000001
 43
0.00000001
 12
1.0
 22
0.0
 32
0.0
 13
1.0
 23
0.0
 33
0.0
 40
0.0
 40
0.0
 40
0.0
 40
0.0
 40
1.0
 40
1.0
 40
1.0
 40
1.0
 10
117.7401665756117
 20
115.9341302823678
 30
0.0
 10
117.7401665756117
 20
115.9748351519534
 30
0.0
 10
117.7401665756117
 20
116.0156508129937
 30
0.0
 10
117.7401665756117
 20
116.0565839291903
 30
0.0
  0
ARC
  5
82
330
1F
100
AcDbEntity
  8
0
  6
Continuous
 62
     7
370
     0
100
AcDbCircle
 10
113.7401665756
 20
122.274269396
 30
0.0
 40
7.393213953591614
100
AcDbArc
 50
302.7542386904
 51
357.2457613096
  0
SPLINE
  5
83
330
1F
100
AcDbEntity
  8
0
  6
Continuous
 62
     7
370
     0
100
AcDbSpline
210
0.0
220
0.0
230
1.0
 70
    24
 71
     3
 72
     8
 73
     4
 74
     0
 42
0.00000001
 43
0.00000001
 12
1.0
 22
0.0
 32
0.0
 13
1.0
 23
0.0
 33
0.0
 40
0.0032115242739648
 40
0.0032115242739648
 40
0.0032115242739648
 40
0.0032115242739648
 40
0.0046935097134194
 40
0.0046935097134194
 40
0.0046935097134194
 40
0.0046935097134194
 10
121.2308881115036
 20
121.9802373376065
 30
0.0
 10
121.1956366695202
 20
121.9598849080881
 30
0.0
 10
121.160289268495
 20
121.9394770765911
 30
0.0
 10
121.1248401425692
 20
121.9190105141952
 30
0.0
  0
SPLINE
  5
84
330
1F
100
AcDbEntity
  8
0
  6
Continuous
 62
     7
370
     0
100
AcDbSpline
210
0.0
220
0.0
230
1.0
 70
     8
 71
     3
 72
    16
 73
    12
 74
     0
 42
0.00000001
 43
0.00000001
 12
1.0
 22
0.0
 32
0.0
 13
1.0
 23
0.0
 33
0.0
 40
0.0
 40
0.0
 40
0.0
 40
0.0
 40
0.1250000000000003
 40
0.1250000000000003
 40
0.2500000000000006
 40
0.2500000000000006
 40
0.5000000000000004
 40
0.5000000000000004
 40
0.7500000000000002
 40
0.7500000000000002
 40
1.0
 40
1.0
 40
1.0
 40
1.0
 10
121.3484169058487
 20
123.2027931570384
 30
0.0
 10
121.3575520273325
 20
123.0969920468456
 30
0.0
 10
121.3617054300098
 20
123.0048439143457
 30
0.0
 10
121.3649892566017
 20
122.8343225685411
 30
0.0
 10
121.3639302191689
 20
122.7561490729902
 30
0.0
 10
121.3559368270692
 20
122.5436532080048
 30
0.0
 10
121.3443926619614
 20
122.4271700643264
 30
0.0
 10
121.3161710063968
 20
122.229033486021
 30
0.0
 10
121.2996575066314
 20
122.1499279902208
 30
0.0
 10
121.2654965131223
 20
122.0307176817077
 30
0.0
 10
121.2476582646006
 20
121.9899195900114
 30
0.0
 10
121.2308881115036
 20
121.9802373376065
 30
0.0
  0
ELLIPSE
  5
85
330
1F
100
AcDbEntity
  8
0
  6
Continuous
 62
     7
370
     0
100
AcDbEllipse
 10
114.2544844437
 20
122.5712109555
 30
0.0
 11
6.171651780014982
 21
3.5632048165359
 31
0.0
210
0.0
220
0.0
230
1.0
 40
0.9965215449
 41
5.847051021285878
 42
6.719319593073296
  0
SPLINE
  5
86
330
1F
100
AcDbEntity
  8
0
  6
Continuous
 62
     7
370
     0
100
AcDbSpline
210
0.0
220
0.0
230
1.0
 70
     8
 71
     3
 72
    16
 73
    12
 74
     0
 42
0.00000001
 43
0.00000001
 12
1.0
 22
0.0
 32
0.0
 13
1.0
 23
0.0
 33
0.0
 40
0.0
 40
0.0
 40
0.0
 40
0.0
 40
0.2499999999999997
 40
0.2499999999999997
 40
0.4999999999999998
 40
0.4999999999999998
 40
0.7499999999999999
 40
0.7499999999999999
 40
0.8749999999999999
 40
0.8749999999999999
 40
1.0
 40
1.0
 40
1.0
 40
1.0
 10
117.2308881115039
 20
128.9084405678823
 30
0.0
 10
117.2476708679131
 20
128.9181300968128
 30
0.0
 10
117.2912514209038
 20
128.9132932654889
 30
0.0
 10
117.4116816057027
 20
128.8833305921543
 30
0.0
 10
117.4898184730881
 20
128.857563579328
 30
0.0
 10
117.6736544504114
 20
128.7836948552785
 30
0.0
 10
117.7792575428767
 20
128.7360592514708
 30
0.0
 10
117.9680884359148
 20
128.6364137797376
 30
0.0
 10
118.0358744788787
 20
128.5985269118383
 30
0.0
 10
118.1820558215417
 20
128.5104243462348
 30
0.0
 10
118.26172874386
 20
128.4594984247146
 30
0.0
 10
118.348416905849
 20
128.3989455797452
 30
0.0
  0
SPLINE
  5
87
330
1F
100
AcDbEntity
  8
0
  6
Continuous
 62
     7
370
     0
100
AcDbSpline
210
0.0
220
0.0
230
1.0
 70
    24
 71
     3
 72
     8
 73
     4
 74
     0
 42
0.00000001
 43
0.00000001
 12
1.0
 22
0.0
 32
0.0
 13
1.0
 23
0.0
 33
0.0
 40
0.0032115242739648
 40
0.0032115242739648
 40
0.0032115242739648
 40
0.0032115242739648
 40
0.0046935097134194
 40
0.0046935097134194
 40
0.0046935097134194
 40
0.0046935097134194
 10
117.2308881115039
 20
128.9084405678823
 30
0.0
 10
117.1956366695205
 20
128.8880881383638
 30
0.0
 10
117.1602892684954
 20
128.8676803068668
 30
0.0
 10
117.1248401425695
 20
128.847213744471
 30
0.0
  0
ARC
  5
88
330
1F
100
AcDbEntity
  8
0
  6
Continuous
 62
     7
370
     0
100
AcDbCircle
 10
113.7401665756
 20
122.274269396
 30
0.0
 40
7.393213953591614
100
AcDbArc
 50
62.7542386904
 51
117.2457613096
  0
SPLINE
  5
89
330
1F
100
AcDbEntity
  8
0
  6
Continuous
 62
     7
370
     0
100
AcDbSpline
210
0.0
220
0.0
230
1.0
 70
    24
 71
     3
 72
     8
 73
     4
 74
     0
 42
0.00000001
 43
0.00000001
 12
1.0
 22
0.0
 32
0.0
 13
1.0
 23
0.0
 33
0.0
 40
0.0032115242739648
 40
0.0032115242739648
 40
0.0032115242739648
 40
0.0032115242739648
 40
0.0046935097134194
 40
0.0046935097134194
 40
0.0046935097134194
 40
0.0046935097134194
 10
110.2494450397209
 20
128.9084405678826
 30
0.0
 10
110.2846964817043
 20
128.8880881383642
 30
0.0
 10
110.3200438827294
 20
128.8676803068672
 30
0.0
 10
110.3554930086553
 20
128.8472137444713
 30
0.0
  0
SPLINE
  5
8A
330
1F
100
AcDbEntity
  8
0
  6
Continuous
 62
     7
370
     0
100
AcDbSpline
210
0.0
220
0.0
230
1.0
 70
     8
 71
     3
 72
    16
 73
    12
 74
     0
 42
0.00000001
 43
0.00000001
 12
1.0
 22
0.0
 32
0.0
 13
1.0
 23
0.0
 33
0.0
 40
0.0
 40
0.0
 40
0.0
 40
0.0
 40
0.1249999999999994
 40
0.1249999999999994
 40
0.2499999999999988
 40
0.2499999999999988
 40
0.4999999999999992
 40
0.4999999999999992
 40
0.7499999999999996
 40
0.7499999999999996
 40
1.0
 40
1.0
 40
1.0
 40
1.0
 10
109.1319162453758
 20
128.3989455797457
 30
0.0
 10
109.2189751338095
 20
128.4597573821138
 30
0.0
 10
109.2967010561271
 20
128.5094284005944
 30
0.0
 10
109.4427349601854
 20
128.5975329507469
 30
0.0
 10
109.5109647119516
 20
128.635702545202
 30
0.0
 10
109.6989882252778
 20
128.7350279970739
 30
0.0
 10
109.80563766937
 20
128.7832720286643
 30
0.0
 10
109.9913398073837
 20
128.8578996471612
 30
0.0
 10
110.0681039262083
 20
128.8831512847591
 30
0.0
 10
110.1884235785282
 20
128.9131721508182
 30
0.0
 10
110.2326748866239
 20
128.9181228202875
 30
0.0
 10
110.2494450397209
 20
128.9084405678826
 30
0.0
  0
ELLIPSE
  5
8B
330
1F
100
AcDbEntity
  8
0
  6
Continuous
 62
     7
370
     0
100
AcDbEllipse
 10
113.2258487075
 20
122.5712109555
 30
0.0
 11
6.171651780014599
 21
-3.56320481653654
 31
0.0
210
0.0
220
0.0
230
1.0
 40
0.9965215449
 41
2.705458367696089
 42
3.577726939483531
  0
SPLINE
  5
8C
330
1F
100
AcDbEntity
  8
0
  6
Continuous
 62
     7
370
     0
100
AcDbSpline
210
0.0
220
0.0
230
1.0
 70
     8
 71
     3
 72
    16
 73
    12
 74
     0
 42
0.00000001
 43
0.00000001
 12
1.0
 22
0.0
 32
0.0
 13
1.0
 23
0.0
 33
0.0
 40
0.0
 40
0.0
 40
0.0
 40
0.0
 40
0.25
 40
0.25
 40
0.5
 40
0.5
 40
0.75
 40
0.75
 40
0.875
 40
0.875
 40
1.0
 40
1.0
 40
1.0
 40
1.0
 10
106.2494450397206
 20
121.9802373376073
 30
0.0
 10
106.2326622833114
 20
121.9899268665379
 30
0.0
 10
106.2150608256164
 20
122.0300871482007
 30
0.0
 10
106.1807941694901
 20
122.1493640842863
 30
0.0
 10
106.1640406234845
 20
122.2299161028274
 30
0.0
 10
106.1360948263949
 20
122.4260570913437
 30
0.0
 10
106.1245469231843
 20
122.5413298540406
 30
0.0
 10
106.1164269865584
 20
122.7546849402976
 30
0.0
 10
106.115344955147
 20
122.832332809476
 30
0.0
 10
106.1185533437667
 20
123.0029808485831
 30
0.0
 10
106.1228200243552
 20
123.0974425840647
 30
0.0
 10
106.1319162453756
 20
123.2027931570392
 30
0.0
  0
SPLINE
  5
8D
330
1F
100
AcDbEntity
  8
0
  6
Continuous
 62
     7
370
     0
100
AcDbSpline
210
0.0
220
0.0
230
1.0
 70
    24
 71
     3
 72
     8
 73
     4
 74
     0
 42
0.00000001
 43
0.00000001
 12
1.0
 22
0.0
 32
0.0
 13
1.0
 23
0.0
 33
0.0
 40
0.0032115242739648
 40
0.0032115242739648
 40
0.0032115242739648
 40
0.0032115242739648
 40
0.0046935097134194
 40
0.0046935097134194
 40
0.0046935097134194
 40
0.0046935097134194
 10
106.2494450397206
 20
121.9802373376073
 30
0.0
 10
106.284696481704
 20
121.9598849080888
 30
0.0
 10
106.3200438827291
 20
121.9394770765918
 30
0.0
 10
106.355493008655
 20
121.919010514196
 30
0.0
  0
ARC
  5
8E
330
1F
100
AcDbEntity
  8
0
  6
Continuous
 62
     7
370
     0
100
AcDbCircle
 10
113.7401665756
 20
122.274269396
 30
0.0
 40
7.393213953591633
100
AcDbArc
 50
182.7542386904
 51
237.2457613096
  0
SPLINE
  5
8F
330
1F
100
AcDbEntity
  8
0
  6
Continuous
 62
     7
370
     0
100
AcDbSpline
210
0.0
220
0.0
230
1.0
 70
    24
 71
     3
 72
     8
 73
     4
 74
     0
 42
0.00000001
 43
0.00000001
 12
1.0
 22
0.0
 32
0.0
 13
1.0
 23
0.0
 33
0.0
 40
0.0
 40
0.0
 40
0.0
 40
0.0
 40
1.0
 40
1.0
 40
1.0
 40
1.0
 10
109.7401665756117
 20
115.9341302823682
 30
0.0
 10
109.7401665756117
 20
115.9748351519539
 30
0.0
 10
109.7401665756117
 20
116.0156508129941
 30
0.0
 10
109.7401665756117
 20
116.0565839291908
 30
0.0
  0
SPLINE
  5
90
330
1F
100
AcDbEntity
  8
0
  6
Continuous
 62
     7
370
     0
100
AcDbSpline
210
0.0
220
0.0
230
1.0
 70
     8
 71
     3
 72
    12
 73
     8
 74
     0
 42
0.00000001
 43
0.00000001
 12
1.0
 22
0.0
 32
0.0
 13
1.0
 23
0.0
 33
0.0
 40
0.0
 40
0.0
 40
0.0
 40
0.0
 40
0.25
 40
0.25
 40
0.5
 40
0.5
 40
1.0
 40
1.0
 40
1.0
 40
1.0
 10
109.4633595962596
 20
115.7666619906965
 30
0.0
 10
109.510329237976
 20
115.7144511078744
 30
0.0
 10
109.5368471940364
 20
115.6764147449376
 30
0.0
 10
109.5497081075471
 20
115.6253531195091
 30
0.0
 10
109.5358210747211
 20
115.6123464976474
 30
0.0
 10
109.4321753216428
 20
115.6133347595497
 30
0.0
 10
109.2858122424639
 20
115.6642668094358
 30
0.0
 10
109.0691318657018
 20
115.7797344832499
 30
0.0
  0
SPLINE
  5
91
330
1F
100
AcDbEntity
  8
0
  6
Continuous
 62
     7
370
     0
100
AcDbSpline
210
0.0
220
0.0
230
1.0
 70
     8
 71
     3
 72
    38
 73
    34
 74
     0
 42
0.00000001
 43
0.00000001
 12
1.0
 22
0.0
 32
0.0
 13
1.0
 23
0.0
 33
0.0
 40
0.0
 40
0.0
 40
0.0
 40
0.0
 40
0.1250000000000002
 40
0.1250000000000002
 40
0.2500000000000003
 40
0.2500000000000003
 40
0.3125000000000003
 40
0.3125000000000003
 40
0.3750000000000003
 40
0.3750000000000003
 40
0.4062500000000003
 40
0.4062500000000003
 40
0.4375000000000002
 40
0.4375000000000002
 40
0.4687500000000002
 40
0.4687500000000002
 40
0.5000000000000002
 40
0.5000000000000002
 40
0.5312500000000002
 40
0.5312500000000002
 40
0.5625000000000003
 40
0.5625000000000003
 40
0.5937500000000003
 40
0.5937500000000003
 40
0.6250000000000003
 40
0.6250000000000003
 40
0.6875000000000002
 40
0.6875000000000002
 40
0.7500000000000001
 40
0.7500000000000001
 40
0.875
 40
0.875
 40
1.0
 40
1.0
 40
1.0
 40
1.0
 10
105.9660097551284
 20
121.8242496073794
 30
0.0
 10
106.0130914222753
 20
121.6795620506423
 30
0.0
 10
106.0645991495342
 20
121.5191127181486
 30
0.0
 10
106.1847560839459
 20
121.156925906345
 30
0.0
 10
106.2529530475454
 20
120.9558906261702
 30
0.0
 10
106.3817367675049
 20
120.6039015212048
 30
0.0
 10
106.4291465430269
 20
120.4780563171792
 30
0.0
 10
106.5388703428986
 20
120.2002801690819
 30
0.0
 10
106.6012894386183
 20
120.0480293146839
 30
0.0
 10
106.711583023181
 20
119.794893873766
 30
0.0
 10
106.7512525398901
 20
119.7061062716573
 30
0.0
 10
106.8390509068498
 20
119.5160040608797
 30
0.0
 10
106.8876652432529
 20
119.413691500862
 30
0.0
 10
106.9946225788095
 20
119.1970001830042
 30
0.0
 10
107.0539498802774
 20
119.0806891035565
 30
0.0
 10
107.1822915680774
 20
118.839363853475
 30
0.0
 10
107.2518368993327
 20
118.7134050739961
 30
0.0
 10
107.3975092354503
 20
118.4604274914114
 30
0.0
 10
107.4715778636993
 20
118.3369437061852
 30
0.0
 10
107.6180988951247
 20
118.1013189815322
 30
0.0
 10
107.6881137020119
 20
117.9929529735703
 30
0.0
 10
107.8235332073121
 20
117.789286065227
 30
0.0
 10
107.8877579676411
 20
117.6957931846241
 30
0.0
 10
108.009279808379
 20
117.5229805923339
 30
0.0
 10
108.0670115026599
 20
117.4430389638913
 30
0.0
 10
108.2335395922443
 20
117.2170057390177
 30
0.0
 10
108.3338722434437
 20
117.0870056665423
 30
0.0
 10
108.519564514596
 20
116.8526140179555
 30
0.0
 10
108.6053438246308
 20
116.747816112298
 30
0.0
 10
108.8478849090601
 20
116.4573352805528
 30
0.0
 10
108.9904131878058
 20
116.2947524515293
 30
0.0
 10
109.2470502195265
 20
116.0060871509735
 30
0.0
 10
109.3610854712366
 20
115.8803486649436
 30
0.0
 10
109.4633595962596
 20
115.7666619906965
 30
0.0
  0
SPLINE
  5
92
330
1F
100
AcDbEntity
  8
0
  6
Continuous
 62
     7
370
     0
100
AcDbSpline
210
0.0
220
0.0
230
1.0
 70
     8
 71
     3
 72
    14
 73
    10
 74
     0
 42
0.00000001
 43
0.00000001
 12
1.0
 22
0.0
 32
0.0
 13
1.0
 23
0.0
 33
0.0
 40
0.0
 40
0.0
 40
0.0
 40
0.0
 40
0.25
 40
0.25
 40
0.5
 40
0.5
 40
0.75
 40
0.75
 40
1.0
 40
1.0
 40
1.0
 40
1.0
 10
105.7802170004915
 20
121.4763021315635
 30
0.0
 10
105.7843805464476
 20
121.5987714770348
 30
0.0
 10
105.7941783655964
 20
121.6985112914272
 30
0.0
 10
105.8193755352878
 20
121.851054069362
 30
0.0
 10
105.8348190630253
 20
121.9045353367373
 30
0.0
 10
105.8687726703616
 20
121.964271911963
 30
0.0
 10
105.8869418939029
 20
121.9696367829833
 30
0.0
 10
105.9246696370486
 20
121.9328608703072
 30
0.0
 10
105.9443183852634
 20
121.8909097640433
 30
0.0
 10
105.966009755128
 20
121.8242496073796
 30
0.0
  0
SPLINE
  5
93
330
1F
100
AcDbEntity
  8
0
  6
Continuous
 62
     7
370
     0
100
AcDbSpline
210
0.0
220
0.0
230
1.0
 70
     8
 71
     3
 72
    12
 73
     8
 74
     0
 42
0.00000001
 43
0.00000001
 12
1.0
 22
0.0
 32
0.0
 13
1.0
 23
0.0
 33
0.0
 40
0.0
 40
0.0
 40
0.0
 40
0.0
 40
0.25
 40
0.25
 40
0.5
 40
0.5
 40
1.0
 40
1.0
 40
1.0
 40
1.0
 10
110.242816734481
 20
129.2318965897823
 30
0.0
 10
110.1741159627451
 20
129.2173251282603
 30
0.0
 10
110.1279165281442
 20
129.213378086124
 30
0.0
 10
110.0772654066091
 20
129.2277710210219
 30
0.0
 10
110.0729448580721
 20
129.2463008551629
 30
0.0
 10
110.125623594523
 20
129.335566579371
 30
0.0
 10
110.242913583179
 20
129.436854699172
 30
0.0
 10
110.4512517103963
 20
129.5667715730414
 30
0.0
  0
SPLINE
  5
94
330
1F
100
AcDbEntity
  8
0
  6
Continuous
 62
     7
370
     0
100
AcDbSpline
210
0.0
220
0.0
230
1.0
 70
     8
 71
     3
 72
    38
 73
    34
 74
     0
 42
0.00000001
 43
0.00000001
 12
1.0
 22
0.0
 32
0.0
 13
1.0
 23
0.0
 33
0.0
 40
0.0
 40
0.0
 40
0.0
 40
0.0
 40
0.1249999999999997
 40
0.1249999999999997
 40
0.2499999999999994
 40
0.2499999999999994
 40
0.3124999999999993
 40
0.3124999999999993
 40
0.3749999999999993
 40
0.3749999999999993
 40
0.4062499999999993
 40
0.4062499999999993
 40
0.4374999999999993
 40
0.4374999999999993
 40
0.4687499999999992
 40
0.4687499999999992
 40
0.4999999999999992
 40
0.4999999999999992
 40
0.5312499999999992
 40
0.5312499999999992
 40
0.5624999999999993
 40
0.5624999999999993
 40
0.5937499999999993
 40
0.5937499999999993
 40
0.6249999999999993
 40
0.6249999999999993
 40
0.6874999999999994
 40
0.6874999999999994
 40
0.7499999999999994
 40
0.7499999999999994
 40
0.8749999999999998
 40
0.8749999999999998
 40
1.0
 40
1.0
 40
1.0
 40
1.0
 10
117.237516416744
 20
129.2318965897819
 30
0.0
 10
117.0879238062628
 20
129.2636252430781
 30
0.0
 10
116.9220134572724
 20
129.2995134249711
 30
0.0
 10
116.5437034579397
 20
129.3774349637152
 30
0.0
 10
116.3316384584134
 20
129.4195766593548
 30
0.0
 10
115.9588041365949
 20
129.4843829840596
 30
0.0
 10
115.8251568330148
 20
129.5062710928401
 30
0.0
 10
115.5293215753275
 20
129.549889492651
 30
0.0
 10
115.3665718844703
 20
129.571780081181
 30
0.0
 10
115.0875573248382
 20
129.6029810247681
 30
0.0
 10
114.9894599966466
 20
129.6130073243975
 30
0.0
 10
114.7790389812606
 20
129.6318420294461
 30
0.0
 10
114.6659593914209
 20
129.6407158631415
 30
0.0
 10
114.4218689222353
 20
129.6561591407278
 30
0.0
 10
114.29301380299
 20
129.6626107381522
 30
0.0
 10
114.015696289968
 20
129.6716893112289
 30
0.0
 10
113.8717218808822
 20
129.6740927323029
 30
0.0
 10
113.5798006997171
 20
129.673759884717
 30
0.0
 10
113.435944531231
 20
129.6710085185593
 30
0.0
 10
113.1627798901858
 20
129.661493055518
 30
0.0
 10
113.0323878899086
 20
129.6547164660033
 30
0.0
 10
112.7912490360858
 20
129.6389985767876
 30
0.0
 10
112.6783365917828
 20
129.6299435470919
 30
0.0
 10
112.4698040644539
 20
129.610928057901
 30
0.0
 10
112.3730769871322
 20
129.6008890660726
 30
0.0
 10
112.0987084724178
 20
129.5698383917195
 30
0.0
 10
111.9356458169014
 20
129.547769487095
 30
0.0
 10
111.6402227161478
 20
129.503905011135
 30
0.0
 10
111.5075326847561
 20
129.482040479112
 30
0.0
 10
111.138309318021
 20
129.4175758997081
 30
0.0
 10
110.930109176533
 20
129.3761185625589
 30
0.0
 10
110.5563677293895
 20
129.2990841142986
 30
0.0
 10
110.3916606678003
 20
129.2634664483491
 30
0.0
 10
110.242816734481
 20
129.2318965897823
 30
0.0
  0
SPLINE
  5
95
330
1F
100
AcDbEntity
  8
0
  6
Continuous
 62
     7
370
     0
100
AcDbSpline
210
0.0
220
0.0
230
1.0
 70
     8
 71
     3
 72
    14
 73
    10
 74
     0
 42
0.00000001
 43
0.00000001
 12
1.0
 22
0.0
 32
0.0
 13
1.0
 23
0.0
 33
0.0
 40
0.0
 40
0.0
 40
0.0
 40
0.0
 40
0.25
 40
0.25
 40
0.5
 40
0.5
 40
0.75
 40
0.75
 40
1.0
 40
1.0
 40
1.0
 40
1.0
 10
117.0290814408287
 20
129.5667715730411
 30
0.0
 10
117.1330612322125
 20
129.5019311637381
 30
0.0
 10
117.2145395356695
 20
129.4435760962579
 30
0.0
 10
117.3340468716776
 20
129.3454833182351
 30
0.0
 10
117.3726412439818
 20
129.3053681972032
 30
0.0
 10
117.4073978319933
 20
129.2460952230877
 30
0.0
 10
117.402959334814
 20
129.2276777784239
 30
0.0
 10
117.3522465886161
 20
129.2133925507706
 30
0.0
 10
117.3060914907674
 20
129.217351788796
 30
0.0
 10
117.2375164167444
 20
129.2318965897821
 30
0.0
  0
SPLINE
  5
96
330
1F
100
AcDbEntity
  8
0
  6
Continuous
 62
     7
370
     0
100
AcDbSpline
210
0.0
220
0.0
230
1.0
 70
     8
 71
     3
 72
    12
 73
     8
 74
     0
 42
0.00000001
 43
0.00000001
 12
1.0
 22
0.0
 32
0.0
 13
1.0
 23
0.0
 33
0.0
 40
0.0
 40
0.0
 40
0.0
 40
0.0
 40
0.2500000000000004
 40
0.2500000000000004
 40
0.5000000000000009
 40
0.5000000000000009
 40
1.0
 40
1.0
 40
1.0
 40
1.0
 10
121.5143233960957
 20
121.8242496073786
 30
0.0
 10
121.5360545261155
 20
121.8910319517228
 30
0.0
 10
121.5557360046561
 20
121.9330153567959
 30
0.0
 10
121.5935262126804
 20
121.9696840473262
 30
0.0
 10
121.611733794043
 20
121.9641608350467
 30
0.0
 10
121.6627008106692
 20
121.8739068489352
 30
0.0
 10
121.6917739011904
 20
121.7216866792472
 30
0.0
 10
121.7001161507326
 20
121.4763021315626
 30
0.0
  0
SPLINE
  5
97
330
1F
100
AcDbEntity
  8
0
  6
Continuous
 62
     7
370
     0
100
AcDbSpline
210
0.0
220
0.0
230
1.0
 70
     8
 71
     3
 72
    14
 73
    10
 74
     0
 42
0.00000001
 43
0.00000001
 12
1.0
 22
0.0
 32
0.0
 13
1.0
 23
0.0
 33
0.0
 40
0.0
 40
0.0
 40
0.0
 40
0.0
 40
0.25
 40
0.25
 40
0.5
 40
0.5
 40
0.75
 40
0.75
 40
1.0
 40
1.0
 40
1.0
 40
1.0
 10
118.4112012855216
 20
115.7797344832494
 30
0.0
 10
118.3030579481806
 20
115.7221055470815
 30
0.0
 10
118.2117818255737
 20
115.6807208001699
 30
0.0
 10
118.0670773198725
 20
115.6262708002587
 30
0.0
 10
118.0130394198302
 20
115.6129046539157
 30
0.0
 10
117.9443292244815
 20
115.6124410528062
 30
0.0
 10
117.9305984981192
 20
115.6254936264499
 30
0.0
 10
117.9435835011713
 20
115.6765547667796
 30
0.0
 10
117.9700898508053
 20
115.7145466350181
 30
0.0
 10
118.016973554964
 20
115.7666619906956
 30
0.0
  0
LWPOLYLINE
  5
98
330
1F
100
AcDbEntity
  8
0
  6
Continuous
 62
     7
370
     0
100
AcDbPolyline
 90
        3
 70
   128
 43
0.0
 10
105.9819612847
 20
121.7414806476
 10
105.9723104545
 20
121.7752322433
 10
105.9660095917
 20
121.8242496131
  0
LWPOLYLINE
  5
99
330
1F
100
AcDbEntity
  8
0
  6
Continuous
 62
     7
370
     0
100
AcDbPolyline
 90
        3
 70
   128
 43
0.0
 10
109.3986559854
 20
115.8230398311
 10
109.4240596713
 20
115.7966270572
 10
109.4633596213
 20
115.7666622191
  0
LWPOLYLINE
  5
9A
330
1F
100
AcDbEntity
  8
0
  6
Continuous
 62
     7
370
     0
100
AcDbPolyline
 90
        3
 70
   128
 43
0.0
 10
117.1578605855
 20
129.2594667054
 10
117.1919157924
 20
129.2509488291
 10
117.2375163724
 20
129.2318967632
  0
LWPOLYLINE
  5
9B
330
1F
100
AcDbEntity
  8
0
  6
Continuous
 62
     7
370
     0
100
AcDbPolyline
 90
        3
 70
   128
 43
0.0
 10
110.3239931827
 20
129.2597428425
 10
110.2884173588
 20
129.2509488291
 10
110.2428167788
 20
129.2318967632
  0
LINE
  5
9C
330
1F
100
AcDbEntity
  8
0
  6
Continuous
 62
     7
370
     0
100
AcDbLine
 10
112.1876049284
 20
126.6347431107
 30
0.0
 11
109.1319163525
 21
128.3989456012
 31
0.0
  0
ELLIPSE
  5
9D
330
1F
100
AcDbEntity
  8
0
  6
Continuous
 62
     7
370
     0
100
AcDbEllipse
 10
111.0570890372
 20
127.2874465501
 30
0.0
 11
1.13051587484712
 21
-0.6527036446661896
 31
0.0
210
0.0
220
0.0
230
1.0
 40
0.7660444431
 41
0.0
 42
1.570796326794891
  0
LINE
  5
9E
330
1F
100
AcDbEntity
  8
0
  6
Continuous
 62
     7
370
     0
100
AcDbLine
 10
118.3484167987
 20
128.3989456012
 30
0.0
 11
115.2927282229
 21
126.6347431107
 31
0.0
  0
ELLIPSE
  5
9F
330
1F
100
AcDbEntity
  8
0
  6
Continuous
 62
     7
370
     0
100
AcDbEllipse
 10
116.423244114
 20
127.2874465501
 30
0.0
 11
1.130515874847177
 21
0.6527036446661043
 31
0.0
210
0.0
220
0.0
230
1.0
 40
0.7660444431
 41
1.570796326794874
 42
3.141592653589776
  0
LINE
  5
A0
330
1F
100
AcDbEntity
  8
0
  6
Continuous
 62
     7
370
     0
100
AcDbLine
 10
116.7401666017
 20
115.2210692405
 30
0.0
 11
116.7401666017
 21
118.749474687
 31
0.0
  0
ELLIPSE
  5
A1
330
1F
100
AcDbEntity
  8
0
  6
Continuous
 62
     7
370
     0
100
AcDbEllipse
 10
116.7401665756
 20
117.4440675103
 30
0.0
 11
-7.105427357601002E-14
 21
-1.305407289332294
 31
0.0
210
0.0
220
0.0
230
1.0
 40
0.7660444431
 41
1.570796326794884
 42
3.141592653589779
  0
LINE
  5
A2
330
1F
100
AcDbEntity
  8
0
  6
Continuous
 62
     7
370
     0
100
AcDbLine
 10
118.2927283654
 20
121.4385905065
 30
0.0
 11
121.3484168248
 21
123.2027931716
 31
0.0
  0
ELLIPSE
  5
A3
330
1F
100
AcDbEntity
  8
0
  6
Continuous
 62
     7
370
     0
100
AcDbEllipse
 10
119.423244114
 20
122.0912941274
 30
0.0
 11
-1.130515874847177
 21
-0.6527036446660901
 31
0.0
210
0.0
220
0.0
230
1.0
 40
0.7660444431
 41
0.0
 42
1.570796326794881
  0
LINE
  5
A4
330
1F
100
AcDbEntity
  8
0
  6
Continuous
 62
     7
370
     0
100
AcDbLine
 10
110.7401665495
 20
118.749474687
 30
0.0
 11
110.7401665495
 21
115.2210692405
 31
0.0
  0
LINE
  5
A5
330
1F
100
AcDbEntity
  8
0
  6
Continuous
 62
     7
370
     0
100
AcDbLine
 10
116.7401666017
 20
118.749474687
 30
0.0
 11
110.7401665495
 21
118.749474687
 31
0.0
  0
LINE
  5
A6
330
1F
100
AcDbEntity
  8
0
  6
Continuous
 62
     7
370
     0
100
AcDbLine
 10
106.1319163264
 20
123.2027931716
 30
0.0
 11
109.1876047859
 21
121.4385905065
 31
0.0
  0
ELLIPSE
  5
A7
330
1F
100
AcDbEntity
  8
0
  6
Continuous
 62
     7
370
     0
100
AcDbEllipse
 10
108.0570890372
 20
122.0912941274
 30
0.0
 11
-1.13051587484712
 21
0.6527036446661754
 31
0.0
210
0.0
220
0.0
230
1.0
 40
0.7660444431
 41
1.570796326794884
 42
3.141592653589762
  0
ELLIPSE
  5
A8
330
1F
100
AcDbEntity
  8
0
  6
Continuous
 62
     7
370
     0
100
AcDbEllipse
 10
110.7401665756
 20
117.4440675103
 30
0.0
 11
7.105427357601002E-14
 21
1.305407289332294
 31
0.0
210
0.0
220
0.0
230
1.0
 40
0.7660444431
 41
0.0
 42
1.570796326794884
  0
LINE
  5
A9
330
1F
100
AcDbEntity
  8
0
  6
Continuous
 62
     7
370
     0
100
AcDbLine
 10
109.1876047859
 20
121.4385905065
 30
0.0
 11
112.1876049284
 21
126.6347431107
 31
0.0
  0
LINE
  5
AA
330
1F
100
AcDbEntity
  8
0
  6
Continuous
 62
     7
370
     0
100
AcDbLine
 10
115.2927282229
 20
126.6347431107
 30
0.0
 11
118.2927283654
 21
121.4385905065
 31
0.0
  0
CIRCLE
  5
AB
330
1F
100
AcDbEntity
  8
0
  6
Continuous
 62
     7
370
     0
100
AcDbCircle
 10
113.7401665756
 20
122.274269396
 30
0.0
 40
3.0
  0
CIRCLE
  5
AC
330
1F
100
AcDbEntity
  8
0
  6
Continuous
 62
     7
370
     0
100
AcDbCircle
 10
113.7401665756
 20
122.274269396
 30
0.0
 40
3.500000000000014
  0
ARC
  5
AD
330
1F
100
AcDbEntity
  8
0
  6
Continuous
 62
     7
370
     0
100
AcDbCircle
 10
113.7401665756
 20
122.274269396
 30
0.0
 40
7.070658692508449
100
AcDbArc
 50
64.4521762433
 51
115.5478237567
  0
SPLINE
  5
AE
330
1F
100
AcDbEntity
  8
0
  6
Continuous
 62
     7
370
     0
100
AcDbSpline
210
0.0
220
0.0
230
1.0
 70
    24
 71
     3
 72
     8
 73
     4
 74
     0
 42
0.00000001
 43
0.00000001
 12
1.0
 22
0.0
 32
0.0
 13
1.0
 23
0.0
 33
0.0
 40
0.0
 40
0.0
 40
0.0
 40
0.0
 40
0.0005039729593972
 40
0.0005039729593972
 40
0.0005039729593972
 40
0.0005039729593972
 10
117.1248401425695
 20
128.847213744471
 30
0.0
 10
117.0134967821317
 20
128.7829296253497
 30
0.0
 10
116.9017343139824
 20
128.7184035342784
 30
0.0
 10
116.789489377678
 20
128.6535988900879
 30
0.0
  0
SPLINE
  5
AF
330
1F
100
AcDbEntity
  8
0
  6
Continuous
 62
     7
370
     0
100
AcDbSpline
210
0.0
220
0.0
230
1.0
 70
    24
 71
     3
 72
     8
 73
     4
 74
     0
 42
0.00000001
 43
0.00000001
 12
1.0
 22
0.0
 32
0.0
 13
1.0
 23
0.0
 33
0.0
 40
0.0
 40
0.0
 40
0.0
 40
0.0
 40
0.0005039729593972
 40
0.0005039729593972
 40
0.0005039729593972
 40
0.0005039729593972
 10
110.6908437735469
 20
128.6535988900882
 30
0.0
 10
110.5785988372425
 20
128.7184035342787
 30
0.0
 10
110.4668363690932
 20
128.7829296253501
 30
0.0
 10
110.3554930086553
 20
128.8472137444713
 30
0.0
  0
ARC
  5
B0
330
1F
100
AcDbEntity
  8
0
  6
Continuous
 62
     7
370
     0
100
AcDbCircle
 10
113.7401665756
 20
122.274269396
 30
0.0
 40
7.070658692508468
100
AcDbArc
 50
304.4521762433
 51
355.5478237567
  0
SPLINE
  5
B1
330
1F
100
AcDbEntity
  8
0
  6
Continuous
 62
     7
370
     0
100
AcDbSpline
210
0.0
220
0.0
230
1.0
 70
    24
 71
     3
 72
     8
 73
     4
 74
     0
 42
0.00000001
 43
0.00000001
 12
1.0
 22
0.0
 32
0.0
 13
1.0
 23
0.0
 33
0.0
 40
0.0
 40
0.0
 40
0.0
 40
0.0
 40
0.0005039729593972
 40
0.0005039729593972
 40
0.0005039729593972
 40
0.0005039729593972
 10
120.7894893776776
 20
121.7253956598122
 30
0.0
 10
120.901734313982
 20
121.7902003040027
 30
0.0
 10
121.0134967821313
 20
121.854726395074
 30
0.0
 10
121.1248401425692
 20
121.9190105141952
 30
0.0
  0
SPLINE
  5
B2
330
1F
100
AcDbEntity
  8
0
  6
Continuous
 62
     7
370
     0
100
AcDbSpline
210
0.0
220
0.0
230
1.0
 70
    24
 71
     3
 72
     8
 73
     4
 74
     0
 42
0.00000001
 43
0.00000001
 12
1.0
 22
0.0
 32
0.0
 13
1.0
 23
0.0
 33
0.0
 40
0.0
 40
0.0
 40
0.0
 40
0.0
 40
0.0005039729593972
 40
0.0005039729593972
 40
0.0005039729593972
 40
0.0005039729593972
 10
117.7401665756117
 20
116.0565839291904
 30
0.0
 10
117.7401665756118
 20
116.1851521674329
 30
0.0
 10
117.7401665756118
 20
116.3142043495755
 30
0.0
 10
117.7401665756118
 20
116.4438136379565
 30
0.0
  0
ARC
  5
B3
330
1F
100
AcDbEntity
  8
0
  6
Continuous
 62
     7
370
     0
100
AcDbCircle
 10
113.7401665756
 20
122.274269396
 30
0.0
 40
7.07065869250846
100
AcDbArc
 50
184.4521762433
 51
235.5478237567
  0
SPLINE
  5
B4
330
1F
100
AcDbEntity
  8
0
  6
Continuous
 62
     7
370
     0
100
AcDbSpline
210
0.0
220
0.0
230
1.0
 70
    24
 71
     3
 72
     8
 73
     4
 74
     0
 42
0.00000001
 43
0.00000001
 12
1.0
 22
0.0
 32
0.0
 13
1.0
 23
0.0
 33
0.0
 40
0.0
 40
0.0
 40
0.0
 40
0.0
 40
0.0005039729593972
 40
0.0005039729593972
 40
0.0005039729593972
 40
0.0005039729593972
 10
109.7401665756118
 20
116.443813637957
 30
0.0
 10
109.7401665756118
 20
116.3142043495759
 30
0.0
 10
109.7401665756118
 20
116.1851521674333
 30
0.0
 10
109.7401665756117
 20
116.0565839291908
 30
0.0
  0
SPLINE
  5
B5
330
1F
100
AcDbEntity
  8
0
  6
Continuous
 62
     7
370
     0
100
AcDbSpline
210
0.0
220
0.0
230
1.0
 70
    24
 71
     3
 72
     8
 73
     4
 74
     0
 42
0.00000001
 43
0.00000001
 12
1.0
 22
0.0
 32
0.0
 13
1.0
 23
0.0
 33
0.0
 40
0.0
 40
0.0
 40
0.0
 40
0.0
 40
0.0005039729593972
 40
0.0005039729593972
 40
0.0005039729593972
 40
0.0005039729593972
 10
106.355493008655
 20
121.919010514196
 30
0.0
 10
106.4668363690928
 20
121.8547263950747
 30
0.0
 10
106.5785988372421
 20
121.7902003040034
 30
0.0
 10
106.6908437735465
 20
121.7253956598129
 30
0.0
  0
LINE
  5
B6
330
1F
100
AcDbEntity
  8
0
  6
Continuous
 62
     7
370
     0
100
AcDbLine
 10
116.7894894452
 20
128.6535989954
 30
0.0
 11
115.9232441997
 21
128.1534717879
 31
0.0
  0
LINE
  5
B7
330
1F
100
AcDbEntity
  8
0
  6
Continuous
 62
     7
370
     0
100
AcDbLine
 10
120.7894891696
 20
121.725395659
 30
0.0
 11
119.9232441568
 21
121.2252687425
 31
0.0
  0
LINE
  5
B8
330
1F
100
AcDbEntity
  8
0
  6
Continuous
 62
     7
370
     0
100
AcDbLine
 10
110.690843706
 20
128.6535989954
 30
0.0
 11
111.5570889515
 21
128.1534717879
 31
0.0
  0
LINE
  5
B9
330
1F
100
AcDbEntity
  8
0
  6
Continuous
 62
     7
370
     0
100
AcDbLine
 10
109.7401663856
 20
116.4438138245
 30
0.0
 11
109.7401663856
 21
117.4440673082
 31
0.0
  0
LINE
  5
BA
330
1F
100
AcDbEntity
  8
0
  6
Continuous
 62
     7
370
     0
100
AcDbLine
 10
117.7401667656
 20
116.4438138245
 30
0.0
 11
117.7401667656
 21
117.4440673082
 31
0.0
  0
LINE
  5
BB
330
1F
100
AcDbEntity
  8
0
  6
Continuous
 62
     7
370
     0
100
AcDbLine
 10
106.6908439817
 20
121.725395659
 30
0.0
 11
107.5570889944
 21
121.2252687425
 31
0.0
  0
SPLINE
  5
BC
330
1F
100
AcDbEntity
  8
0
  6
Continuous
 62
     7
370
     0
100
AcDbSpline
210
0.0
220
0.0
230
1.0
 70
     8
 71
     3
 72
    10
 73
     6
 74
     0
 42
0.00000001
 43
0.00000001
 12
1.0
 22
0.0
 32
0.0
 13
1.0
 23
0.0
 33
0.0
 40
0.0
 40
0.0
 40
0.0
 40
0.0
 40
0.4999999999999998
 40
0.4999999999999998
 40
1.0
 40
1.0
 40
1.0
 40
1.0
 10
121.7001161507326
 20
121.4763021315626
 30
0.0
 10
121.6920738483107
 20
121.417164568258
 30
0.0
 10
121.6620564044259
 20
121.3622483586156
 30
0.0
 10
121.5680129937946
 20
121.2784509969937
 30
0.0
 10
121.5052288067012
 20
121.2515533907807
 30
0.0
 10
121.4398564905118
 20
121.244571212156
 30
0.0
  0
SPLINE
  5
BD
330
1F
100
AcDbEntity
  8
0
  6
Continuous
 62
     7
370
     0
100
AcDbSpline
210
0.0
220
0.0
230
1.0
 70
     8
 71
     3
 72
    10
 73
     6
 74
     0
 42
0.00000001
 43
0.00000001
 12
1.0
 22
0.0
 32
0.0
 13
1.0
 23
0.0
 33
0.0
 40
0.0
 40
0.0
 40
0.0
 40
0.0
 40
0.5
 40
0.5
 40
1.0
 40
1.0
 40
1.0
 40
1.0
 10
117.0290814408287
 20
129.566771573041
 30
0.0
 10
116.973845657476
 20
129.5893755164924
 30
0.0
 10
116.9112781028982
 20
129.5908377523561
 30
0.0
 10
116.7916857536463
 20
129.5512924505025
 30
0.0
 10
116.7369996498219
 20
129.5103685526282
 30
0.0
 10
116.6982667476643
 20
129.4572455554163
 30
0.0
  0
SPLINE
  5
BE
330
1F
100
AcDbEntity
  8
0
  6
Continuous
 62
     7
370
     0
100
AcDbSpline
210
0.0
220
0.0
230
1.0
 70
     8
 71
     3
 72
    10
 73
     6
 74
     0
 42
0.00000001
 43
0.00000001
 12
1.0
 22
0.0
 32
0.0
 13
1.0
 23
0.0
 33
0.0
 40
0.0
 40
0.0
 40
0.0
 40
0.0
 40
0.5
 40
0.5
 40
1.0
 40
1.0
 40
1.0
 40
1.0
 10
109.0691318657018
 20
115.7797344832499
 30
0.0
 10
109.0219383847731
 20
115.8162681031045
 30
0.0
 10
108.9893882740856
 20
115.8697220768866
 30
0.0
 10
108.9638393354666
 20
115.9930647403628
 30
0.0
 10
108.9719374187326
 20
116.0608862444476
 30
0.0
 10
108.9985768327638
 20
116.1209914202847
 30
0.0
  0
SPLINE
  5
BF
330
1F
100
AcDbEntity
  8
0
  6
Continuous
 62
     7
370
     0
100
AcDbSpline
210
0.0
220
0.0
230
1.0
 70
     8
 71
     3
 72
    10
 73
     6
 74
     0
 42
0.00000001
 43
0.00000001
 12
1.0
 22
0.0
 32
0.0
 13
1.0
 23
0.0
 33
0.0
 40
0.0
 40
0.0
 40
0.0
 40
0.0
 40
0.5000000000000003
 40
0.5000000000000003
 40
1.0
 40
1.0
 40
1.0
 40
1.0
 10
105.7802170004915
 20
121.4763021315634
 30
0.0
 10
105.7882593029133
 20
121.4171645682559
 30
0.0
 10
105.8182767467981
 20
121.362248358614
 30
0.0
 10
105.9123201574296
 20
121.2784509969904
 30
0.0
 10
105.9751043445229
 20
121.2515533907814
 30
0.0
 10
106.0404766607123
 20
121.2445712121568
 30
0.0
  0
SPLINE
  5
C0
330
1F
100
AcDbEntity
  8
0
  6
Continuous
 62
     7
370
     0
100
AcDbSpline
210
0.0
220
0.0
230
1.0
 70
     8
 71
     3
 72
    10
 73
     6
 74
     0
 42
0.00000001
 43
0.00000001
 12
1.0
 22
0.0
 32
0.0
 13
1.0
 23
0.0
 33
0.0
 40
0.0
 40
0.0
 40
0.0
 40
0.0
 40
0.5
 40
0.5
 40
1.0
 40
1.0
 40
1.0
 40
1.0
 10
118.4112012855217
 20
115.7797344832494
 30
0.0
 10
118.4583947664531
 20
115.8162681031054
 30
0.0
 10
118.4909448771401
 20
115.8697220768873
 30
0.0
 10
118.5164938157604
 20
115.9930647403644
 30
0.0
 10
118.5083957324916
 20
116.0608862444475
 30
0.0
 10
118.4817563184597
 20
116.1209914202843
 30
0.0
  0
SPLINE
  5
C1
330
1F
100
AcDbEntity
  8
0
  6
Continuous
 62
     7
370
     0
100
AcDbSpline
210
0.0
220
0.0
230
1.0
 70
     8
 71
     3
 72
    10
 73
     6
 74
     0
 42
0.00000001
 43
0.00000001
 12
1.0
 22
0.0
 32
0.0
 13
1.0
 23
0.0
 33
0.0
 40
0.0
 40
0.0
 40
0.0
 40
0.0
 40
0.5
 40
0.5
 40
1.0
 40
1.0
 40
1.0
 40
1.0
 10
110.4512517103962
 20
129.5667715730413
 30
0.0
 10
110.506487493749
 20
129.5893755164927
 30
0.0
 10
110.5690550483248
 20
129.5908377523553
 30
0.0
 10
110.6886473975752
 20
129.5512924505009
 30
0.0
 10
110.7433335014022
 20
129.5103685526281
 30
0.0
 10
110.7820664035607
 20
129.4572455554166
 30
0.0
  0
CIRCLE
  5
C2
330
1F
100
AcDbEntity
  8
0
  6
Continuous
 62
     7
370
     0
100
AcDbCircle
 10
113.7401665756
 20
122.274269396
 30
0.0
 40
8.5
  0
CIRCLE
  5
C3
330
1F
100
AcDbEntity
  8
0
  6
Continuous
 62
     7
370
     0
100
AcDbCircle
 10
113.7401665756
 20
122.274269396
 30
0.0
 40
8.000000000000014
  0
CIRCLE
  5
C4
330
1F
100
AcDbEntity
  8
0
  6
Continuous
 62
     7
370
     0
100
AcDbCircle
 10
113.7401665756
 20
122.274269396
 30
0.0
 40
13.50000000000001
  0
CIRCLE
  5
C5
330
1F
100
AcDbEntity
  8
0
  6
Continuous
 62
     7
370
     0
100
AcDbCircle
 10
113.7401665756
 20
122.274269396
 30
0.0
 40
11.50000000000001
  0
CIRCLE
  5
C6
330
1F
100
AcDbEntity
  8
0
  6
Continuous
 62
     7
370
     0
100
AcDbCircle
 10
113.7401665756
 20
122.274269396
 30
0.0
 40
2.750000000000008
  0
CIRCLE
  5
C7
330
1F
100
AcDbEntity
  8
0
  6
Continuous
 62
     7
370
     0
100
AcDbCircle
 10
113.7401665756
 20
122.274269396
 30
0.0
 40
2.550000000000001
  0
LINE
  5
C8
330
1F
100
AcDbEntity
  8
0
  6
Continuous
 62
     7
370
     0
100
AcDbLine
 10
112.0975446384
 20
121.7249123608
 30
0.0
 11
113.3946127512
 21
120.5770385447
 31
0.0
  0
LINE
  5
C9
330
1F
100
AcDbEntity
  8
0
  6
Continuous
 62
     7
370
     0
100
AcDbLine
 10
113.3946127512
 20
120.5770385447
 30
0.0
 11
115.0372346593
 21
121.1263955799
 31
0.0
  0
LINE
  5
CA
330
1F
100
AcDbEntity
  8
0
  6
Continuous
 62
     7
370
     0
100
AcDbLine
 10
115.0372346593
 20
121.1263955799
 30
0.0
 11
115.3827885128
 21
122.8236264311
 31
0.0
  0
LINE
  5
CB
330
1F
100
AcDbEntity
  8
0
  6
Continuous
 62
     7
370
     0
100
AcDbLine
 10
114.0857204001
 20
123.9715002472
 30
0.0
 11
112.443098492
 21
123.422143212
 31
0.0
  0
LINE
  5
CC
330
1F
100
AcDbEntity
  8
0
  6
Continuous
 62
     7
370
     0
100
AcDbLine
 10
115.3827885128
 20
122.8236264311
 30
0.0
 11
114.0857204001
 21
123.9715002472
 31
0.0
  0
LINE
  5
CD
330
1F
100
AcDbEntity
  8
0
  6
Continuous
 62
     7
370
     0
100
AcDbLine
 10
112.443098492
 20
123.422143212
 30
0.0
 11
112.0975446384
 21
121.7249123608
 31
0.0
  0
CIRCLE
  5
CE
330
1F
100
AcDbEntity
  8
0
  6
Continuous
 62
     7
370
     0
100
AcDbCircle
 10
92.8169232171
 20
115.4758955197
 30
0.0
 40
1.999999999999996
  0
CIRCLE
  5
CF
330
1F
100
AcDbEntity
  8
0
  6
Continuous
 62
     7
370
     0
100
AcDbCircle
 10
120.5385404519
 20
101.3510260375
 30
0.0
 40
3.75
  0
CIRCLE
  5
D0
330
1F
100
AcDbEntity
  8
0
  6
Continuous
 62
     7
370
     0
100
AcDbCircle
 10
120.5385404519
 20
101.3510260375
 30
0.0
 40
3.25
  0
CIRCLE
  5
D1
330
1F
100
AcDbEntity
  8
0
  6
Continuous
 62
     7
370
     0
100
AcDbCircle
 10
92.8169232171
 20
129.0726432722
 30
0.0
 40
3.25
  0
CIRCLE
  5
D2
330
1F
100
AcDbEntity
  8
0
  6
Continuous
 62
     7
370
     0
100
AcDbCircle
 10
92.8169232171
 20
129.0726432722
 30
0.0
 40
3.750000000000014
  0
CIRCLE
  5
D3
330
1F
100
AcDbEntity
  8
0
  6
Continuous
 62
     7
370
     0
100
AcDbCircle
 10
134.6634099341
 20
129.0726432722
 30
0.0
 40
3.750000000000028
  0
CIRCLE
  5
D4
330
1F
100
AcDbEntity
  8
0
  6
Continuous
 62
     7
370
     0
100
AcDbCircle
 10
134.6634099341
 20
129.0726432722
 30
0.0
 40
3.25
  0
ARC
  5
D5
330
1F
100
AcDbEntity
  8
0
  6
Continuous
 62
     7
370
     0
100
AcDbCircle
 10
113.7401665756
 20
122.274269396
 30
0.0
 40
27.5
100
AcDbArc
 50
241.1267761136
 51
234.8732238864
  0
LINE
  5
D6
330
1F
100
AcDbEntity
  8
0
  6
Continuous
 62
     7
370
     0
100
AcDbLine
 10
97.9170090714
 20
99.7825442343
 30
0.0
 11
97.6516622314
 21
99.3579002558
 31
0.0
  0
ARC
  5
D7
330
1F
100
AcDbEntity
  8
0
  6
Continuous
 62
     7
370
     0
100
AcDbCircle
 10
113.7401665756
 20
122.274269396
 30
0.0
 40
28.00000000000002
100
AcDbArc
 50
241.0708868111
 51
234.9291131889
  0
LINE
  5
D8
330
1F
100
AcDbEntity
  8
0
  6
Continuous
 62
     7
370
     0
100
AcDbLine
 10
100.1958063999
 20
97.7681419342
 30
0.0
 11
100.4611532399
 21
98.1927859126
 31
0.0
  0
CIRCLE
  5
D9
330
1F
100
AcDbEntity
  8
0
  6
Continuous
 62
     7
370
     0
100
AcDbCircle
 10
134.6634099341
 20
115.4758955197
 30
0.0
 40
3.75
  0
CIRCLE
  5
DA
330
1F
100
AcDbEntity
  8
0
  6
Continuous
 62
     7
370
     0
100
AcDbCircle
 10
134.6634099341
 20
115.4758955197
 30
0.0
 40
3.249999999999972
  0
CIRCLE
  5
DB
330
1F
100
AcDbEntity
  8
0
  6
Continuous
 62
     7
370
     0
100
AcDbCircle
 10
106.9417926994
 20
101.3510260375
 30
0.0
 40
3.25
  0
CIRCLE
  5
DC
330
1F
100
AcDbEntity
  8
0
  6
Continuous
 62
     7
370
     0
100
AcDbCircle
 10
106.9417926994
 20
101.3510260375
 30
0.0
 40
3.750000000000028
  0
CIRCLE
  5
DD
330
1F
100
AcDbEntity
  8
0
  6
Continuous
 62
     7
370
     0
100
AcDbCircle
 10
92.8169232171
 20
115.4758955197
 30
0.0
 40
3.75
  0
CIRCLE
  5
DE
330
1F
100
AcDbEntity
  8
0
  6
Continuous
 62
     7
370
     0
100
AcDbCircle
 10
121.7401665756
 20
146.774269396
 30
0.0
 40
1.650000000000006
  0
LINE
  5
DF
330
1F
100
AcDbEntity
  8
0
  6
Continuous
 62
     7
370
     0
100
AcDbLine
 10
100.4611532399
 20
98.1927859126
 30
0.0
 11
101.2343381727
 21
99.4301392226
 31
0.0
  0
ARC
  5
E0
330
1F
100
AcDbEntity
  8
0
  6
Continuous
 62
     7
370
     0
100
AcDbCircle
 10
113.7401665756
 20
122.274269396
 30
0.0
 40
13.5
100
AcDbArc
 50
360.0
 51
13.6118090568
  0
ARC
  5
E1
330
1F
100
AcDbEntity
  8
0
  6
Continuous
 62
     7
370
     0
100
AcDbCircle
 10
113.7401665756
 20
122.274269396
 30
0.0
 40
13.50000000000001
100
AcDbArc
 50
46.3881909432
 51
80.3130719419
  0
ARC
  5
E2
330
1F
100
AcDbEntity
  8
0
  6
Continuous
 62
     7
370
     0
100
AcDbCircle
 10
113.7401665756
 20
122.274269396
 30
0.0
 40
13.5
100
AcDbArc
 50
286.3881909432
 51
320.3130719419
  0
ARC
  5
E3
330
1F
100
AcDbEntity
  8
0
  6
Continuous
 62
     7
370
     0
100
AcDbCircle
 10
113.7401665756
 20
122.274269396
 30
0.0
 40
13.5
100
AcDbArc
 50
339.6869280581
 51
360.0
  0
LINE
  5
E4
330
1F
100
AcDbEntity
  8
0
  6
Continuous
 62
     7
370
     0
100
AcDbLine
 10
98.6901940042
 20
101.0198975443
 30
0.0
 11
97.9170090714
 21
99.7825442343
 31
0.0
  0
ARC
  5
E5
330
1F
100
AcDbEntity
  8
0
  6
Continuous
 62
     7
370
     0
100
AcDbCircle
 10
127.8823021993
 20
136.4164050197
 30
0.0
 40
5.5
100
AcDbArc
 50
360.0
 51
231.7485362303
  0
ARC
  5
E6
330
1F
100
AcDbEntity
  8
0
  6
Continuous
 62
     7
370
     0
100
AcDbCircle
 10
127.8823021993
 20
136.4164050197
 30
0.0
 40
5.5
100
AcDbArc
 50
256.8502999386
 51
360.0
  0
CIRCLE
  5
E7
330
1F
100
AcDbEntity
  8
0
  6
Continuous
 62
     7
370
     0
100
AcDbCircle
 10
99.5980309519
 20
108.1321337722
 30
0.0
 40
5.499999999999986
  0
CIRCLE
  5
E8
330
1F
100
AcDbEntity
  8
0
  6
Continuous
 62
     7
370
     0
100
AcDbCircle
 10
105.7401665756
 20
146.774269396
 30
0.0
 40
1.650000000000006
  0
CIRCLE
  5
E9
330
1F
100
AcDbEntity
  8
0
  6
Continuous
 62
     7
370
     0
100
AcDbCircle
 10
127.8823021993
 20
108.1321337722
 30
0.0
 40
5.499999999999986
  0
ARC
  5
EA
330
1F
100
AcDbEntity
  8
0
  6
Continuous
 62
     7
370
     0
100
AcDbCircle
 10
99.5980309519
 20
136.4164050197
 30
0.0
 40
5.500000000000008
100
AcDbArc
 50
360.0
 51
283.1497000615
  0
ARC
  5
EB
330
1F
100
AcDbEntity
  8
0
  6
Continuous
 62
     7
370
     0
100
AcDbCircle
 10
99.5980309519
 20
136.4164050197
 30
0.0
 40
5.499999999999986
100
AcDbArc
 50
308.2514637697
 51
360.0
  0
ARC
  5
EC
330
1F
100
AcDbEntity
  8
0
  6
Continuous
 62
     7
370
     0
100
AcDbCircle
 10
99.9622657055
 20
100.2250188959
 30
0.0
 40
1.500000000000008
100
AcDbArc
 50
328.0
 51
148.0
  0
CIRCLE
  5
ED
330
1F
100
AcDbEntity
  8
0
  6
Continuous
 62
     7
370
     0
100
AcDbCircle
 10
92.8169232171
 20
115.4758955197
 30
0.0
 40
3.25
  0
CIRCLE
  5
EE
330
1F
100
AcDbEntity
  8
0
  6
Continuous
 62
     7
370
     0
100
AcDbCircle
 10
134.6634099341
 20
115.4758955197
 30
0.0
 40
2.0
  0
CIRCLE
  5
EF
330
1F
100
AcDbEntity
  8
0
  6
Continuous
 62
     7
370
     0
100
AcDbCircle
 10
134.6634099341
 20
115.4758955197
 30
0.0
 40
2.5
  0
CIRCLE
  5
F0
330
1F
100
AcDbEntity
  8
0
  6
Continuous
 62
     7
370
     0
100
AcDbCircle
 10
106.9417926994
 20
101.3510260375
 30
0.0
 40
2.5
  0
CIRCLE
  5
F1
330
1F
100
AcDbEntity
  8
0
  6
Continuous
 62
     7
370
     0
100
AcDbCircle
 10
106.9417926994
 20
101.3510260375
 30
0.0
 40
2.0
  0
CIRCLE
  5
F2
330
1F
100
AcDbEntity
  8
0
  6
Continuous
 62
     7
370
     0
100
AcDbCircle
 10
92.8169232171
 20
129.0726432722
 30
0.0
 40
2.5
  0
CIRCLE
  5
F3
330
1F
100
AcDbEntity
  8
0
  6
Continuous
 62
     7
370
     0
100
AcDbCircle
 10
92.8169232171
 20
129.0726432722
 30
0.0
 40
2.0
  0
ARC
  5
F4
330
1F
100
AcDbEntity
  8
0
  6
Continuous
 62
     7
370
     0
100
AcDbCircle
 10
113.7401665756
 20
122.274269396
 30
0.0
 40
28.00000000000002
100
AcDbArc
 50
234.9291131889
 51
241.0708868111
  0
CIRCLE
  5
F5
330
1F
100
AcDbEntity
  8
0
  6
Continuous
 62
     7
370
     0
100
AcDbCircle
 10
127.8823021993
 20
108.1321337722
 30
0.0
 40
3.249999999999986
  0
CIRCLE
  5
F6
330
1F
100
AcDbEntity
  8
0
  6
Continuous
 62
     7
370
     0
100
AcDbCircle
 10
99.5980309519
 20
136.4164050197
 30
0.0
 40
3.249999999999986
  0
CIRCLE
  5
F7
330
1F
100
AcDbEntity
  8
0
  6
Continuous
 62
     7
370
     0
100
AcDbCircle
 10
127.8823021993
 20
136.4164050197
 30
0.0
 40
3.25
  0
CIRCLE
  5
F8
330
1F
100
AcDbEntity
  8
0
  6
Continuous
 62
     7
370
     0
100
AcDbCircle
 10
99.5980309519
 20
108.1321337722
 30
0.0
 40
3.249999999999986
  0
CIRCLE
  5
F9
330
1F
100
AcDbEntity
  8
0
  6
Continuous
 62
     7
370
     0
100
AcDbCircle
 10
113.7401665756
 20
142.274269396
 30
0.0
 40
0.0859962546738586
  0
CIRCLE
  5
FA
330
1F
100
AcDbEntity
  8
0
  6
Continuous
 62
     7
370
     0
100
AcDbCircle
 10
113.7401665756
 20
142.274269396
 30
0.0
 40
1.438292411478585
  0
CIRCLE
  5
FB
330
1F
100
AcDbEntity
  8
0
  6
Continuous
 62
     7
370
     0
100
AcDbCircle
 10
113.7401665756
 20
142.274269396
 30
0.0
 40
2.5
  0
SPLINE
  5
FC
330
1F
100
AcDbEntity
  8
0
  6
Continuous
 62
     7
370
     0
100
AcDbSpline
210
0.0
220
0.0
230
1.0
 70
    24
 71
     3
 72
    26
 73
    22
 74
     0
 42
0.00000001
 43
0.00000001
 12
1.0
 22
0.0
 32
0.0
 13
1.0
 23
0.0
 33
0.0
 40
0.0
 40
0.0
 40
0.0
 40
0.0
 40
0.2500000000000018
 40
0.2500000000000018
 40
0.3750000000000028
 40
0.3750000000000028
 40
0.4375000000000032
 40
0.4375000000000032
 40
0.4687500000000033
 40
0.4687500000000033
 40
0.5000000000000033
 40
0.5000000000000033
 40
0.5312500000000034
 40
0.5312500000000034
 40
0.5625000000000036
 40
0.5625000000000036
 40
0.6250000000000037
 40
0.6250000000000037
 40
0.7500000000000029
 40
0.7500000000000029
 40
1.0
 40
1.0
 40
1.0
 40
1.0
 10
115.2401665756132
 20
140.8073257062862
 30
0.0
 10
115.2401665756132
 20
140.9722450665885
 30
0.0
 10
115.2401665756132
 20
141.1463433030942
 30
0.0
 10
115.2401665756132
 20
141.4625481395331
 30
0.0
 10
115.2401665756132
 20
141.5755619421301
 30
0.0
 10
115.2401665756132
 20
141.7855256548106
 30
0.0
 10
115.2401665756132
 20
141.8635358146111
 30
0.0
 10
115.2401665756132
 20
142.0015843651827
 30
0.0
 10
115.2401665756132
 20
142.0515779734201
 30
0.0
 10
115.2401665756133
 20
142.1580252127901
 30
0.0
 10
115.2401665756133
 20
142.216496551804
 30
0.0
 10
115.2401665756133
 20
142.3327869018945
 30
0.0
 10
115.2401665756133
 20
142.3910852940785
 30
0.0
 10
115.2401665756133
 20
142.4990042675714
 30
0.0
 10
115.2401665756133
 20
142.5485603907048
 30
0.0
 10
115.2401665756133
 20
142.6860611317586
 30
0.0
 10
115.2401665756133
 20
142.7638529245365
 30
0.0
 10
115.2401665756133
 20
142.9739789758534
 30
0.0
 10
115.2401665756133
 20
143.0884837543235
 30
0.0
 10
115.2401665756133
 20
143.4038466230489
 30
0.0
 10
115.2401665756133
 20
143.5768405610481
 30
0.0
 10
115.2401665756133
 20
143.7412130856169
 30
0.0
  0
ELLIPSE
  5
FD
330
1F
100
AcDbEntity
  8
0
  6
Continuous
 62
     7
370
     0
100
AcDbEllipse
 10
114.2298036045
 20
142.274269396
 30
0.0
 11
1.827350269189651
 21
-8.526512829121202E-14
 31
0.0
210
0.0
220
0.0
230
1.0
 40
0.963433044
 41
5.298243370445522
 42
7.268127243913651
  0
SPLINE
  5
FE
330
1F
100
AcDbEntity
  8
0
  6
Continuous
 62
     7
370
     0
100
AcDbSpline
210
0.0
220
0.0
230
1.0
 70
    24
 71
     3
 72
    26
 73
    22
 74
     0
 42
0.00000001
 43
0.00000001
 12
1.0
 22
0.0
 32
0.0
 13
1.0
 23
0.0
 33
0.0
 40
0.0
 40
0.0
 40
0.0
 40
0.0
 40
0.2499999999999976
 40
0.2499999999999976
 40
0.3749999999999966
 40
0.3749999999999966
 40
0.4374999999999966
 40
0.4374999999999966
 40
0.4687499999999965
 40
0.4687499999999965
 40
0.4999999999999964
 40
0.4999999999999964
 40
0.5312499999999963
 40
0.5312499999999963
 40
0.5624999999999962
 40
0.5624999999999962
 40
0.6249999999999961
 40
0.6249999999999961
 40
0.7499999999999972
 40
0.7499999999999972
 40
1.0
 40
1.0
 40
1.0
 40
1.0
 10
112.2401665756132
 20
140.8073257062864
 30
0.0
 10
112.2401665756132
 20
140.9722450665887
 30
0.0
 10
112.2401665756132
 20
141.1463433030944
 30
0.0
 10
112.2401665756132
 20
141.4625481395333
 30
0.0
 10
112.2401665756132
 20
141.5755619421303
 30
0.0
 10
112.2401665756132
 20
141.7855256548108
 30
0.0
 10
112.2401665756132
 20
141.8635358146112
 30
0.0
 10
112.2401665756132
 20
142.0015843651829
 30
0.0
 10
112.2401665756133
 20
142.0515779734203
 30
0.0
 10
112.2401665756133
 20
142.1580252127903
 30
0.0
 10
112.2401665756133
 20
142.2164965518042
 30
0.0
 10
112.2401665756133
 20
142.3327869018947
 30
0.0
 10
112.2401665756133
 20
142.3910852940787
 30
0.0
 10
112.2401665756133
 20
142.4990042675715
 30
0.0
 10
112.2401665756133
 20
142.5485603907049
 30
0.0
 10
112.2401665756133
 20
142.6860611317588
 30
0.0
 10
112.2401665756133
 20
142.7638529245366
 30
0.0
 10
112.2401665756133
 20
142.9739789758535
 30
0.0
 10
112.2401665756133
 20
143.0884837543236
 30
0.0
 10
112.2401665756133
 20
143.4038466230491
 30
0.0
 10
112.2401665756133
 20
143.5768405610483
 30
0.0
 10
112.2401665756133
 20
143.7412130856171
 30
0.0
  0
ELLIPSE
  5
FF
330
1F
100
AcDbEntity
  8
0
  6
Continuous
 62
     7
370
     0
100
AcDbEllipse
 10
113.2505295467
 20
142.274269396
 30
0.0
 11
1.827350269189637
 21
-8.526512829121201E-14
 31
0.0
210
0.0
220
0.0
230
1.0
 40
0.963433044
 41
2.15665071685571
 42
4.126534590323859
  0
CIRCLE
  5
100
330
1F
100
AcDbEntity
  8
0
  6
Continuous
 62
     7
370
     0
100
AcDbCircle
 10
113.7401665756
 20
98.274269396
 30
0.0
 40
0.0859962546738728
  0
CIRCLE
  5
101
330
1F
100
AcDbEntity
  8
0
  6
Continuous
 62
     7
370
     0
100
AcDbCircle
 10
113.7401665756
 20
98.274269396
 30
0.0
 40
1.438292411478557
  0
CIRCLE
  5
102
330
1F
100
AcDbEntity
  8
0
  6
Continuous
 62
     7
370
     0
100
AcDbCircle
 10
113.7401665756
 20
98.274269396
 30
0.0
 40
2.5
  0
SPLINE
  5
103
330
1F
100
AcDbEntity
  8
0
  6
Continuous
 62
     7
370
     0
100
AcDbSpline
210
0.0
220
0.0
230
1.0
 70
    24
 71
     3
 72
    26
 73
    22
 74
     0
 42
0.00000001
 43
0.00000001
 12
1.0
 22
0.0
 32
0.0
 13
1.0
 23
0.0
 33
0.0
 40
0.0
 40
0.0
 40
0.0
 40
0.0
 40
0.2500000000000016
 40
0.2500000000000016
 40
0.3750000000000026
 40
0.3750000000000026
 40
0.4375000000000027
 40
0.4375000000000027
 40
0.4687500000000027
 40
0.4687500000000027
 40
0.5000000000000028
 40
0.5000000000000028
 40
0.5312500000000029
 40
0.5312500000000029
 40
0.5625000000000029
 40
0.5625000000000029
 40
0.6250000000000031
 40
0.6250000000000031
 40
0.7500000000000022
 40
0.7500000000000022
 40
1.0
 40
1.0
 40
1.0
 40
1.0
 10
112.2401665756108
 20
99.74121308561867
 30
0.0
 10
112.2401665756108
 20
99.57629372531638
 30
0.0
 10
112.2401665756108
 20
99.40219548881072
 30
0.0
 10
112.2401665756108
 20
99.0859906523718
 30
0.0
 10
112.2401665756107
 20
98.97297684977484
 30
0.0
 10
112.2401665756107
 20
98.76301313709433
 30
0.0
 10
112.2401665756107
 20
98.68500297729385
 30
0.0
 10
112.2401665756107
 20
98.54695442672217
 30
0.0
 10
112.2401665756107
 20
98.49696081848481
 30
0.0
 10
112.2401665756107
 20
98.3905135791148
 30
0.0
 10
112.2401665756107
 20
98.33204224010089
 30
0.0
 10
112.2401665756107
 20
98.2157518900104
 30
0.0
 10
112.2401665756107
 20
98.1574534978264
 30
0.0
 10
112.2401665756107
 20
98.04953452433354
 30
0.0
 10
112.2401665756107
 20
97.99997840120011
 30
0.0
 10
112.2401665756107
 20
97.86247766014627
 30
0.0
 10
112.2401665756107
 20
97.78468586736844
 30
0.0
 10
112.2401665756107
 20
97.57455981605158
 30
0.0
 10
112.2401665756107
 20
97.46005503758144
 30
0.0
 10
112.2401665756106
 20
97.14469216885598
 30
0.0
 10
112.2401665756106
 20
96.97169823085676
 30
0.0
 10
112.2401665756106
 20
96.80732570628795
 30
0.0
  0
ELLIPSE
  5
104
330
1F
100
AcDbEntity
  8
0
  6
Continuous
 62
     7
370
     0
100
AcDbEllipse
 10
113.2505295467
 20
98.274269396
 30
0.0
 11
1.827350269189637
 21
-9.947598300641401E-14
 31
0.0
210
0.0
220
0.0
230
1.0
 40
0.963433044
 41
2.156650716855708
 42
4.126534590323875
  0
SPLINE
  5
105
330
1F
100
AcDbEntity
  8
0
  6
Continuous
 62
     7
370
     0
100
AcDbSpline
210
0.0
220
0.0
230
1.0
 70
    24
 71
     3
 72
    26
 73
    22
 74
     0
 42
0.00000001
 43
0.00000001
 12
1.0
 22
0.0
 32
0.0
 13
1.0
 23
0.0
 33
0.0
 40
0.0
 40
0.0
 40
0.0
 40
0.0
 40
0.2499999999999997
 40
0.2499999999999997
 40
0.3749999999999991
 40
0.3749999999999991
 40
0.4374999999999994
 40
0.4374999999999994
 40
0.4687499999999997
 40
0.4687499999999997
 40
0.5
 40
0.5
 40
0.5312500000000003
 40
0.5312500000000003
 40
0.5625000000000006
 40
0.5625000000000006
 40
0.6250000000000011
 40
0.6250000000000011
 40
0.7500000000000012
 40
0.7500000000000012
 40
1.0
 40
1.0
 40
1.0
 40
1.0
 10
115.2401665756108
 20
99.74121308561851
 30
0.0
 10
115.2401665756108
 20
99.5762937253162
 30
0.0
 10
115.2401665756108
 20
99.40219548881053
 30
0.0
 10
115.2401665756108
 20
99.08599065237163
 30
0.0
 10
115.2401665756107
 20
98.97297684977465
 30
0.0
 10
115.2401665756107
 20
98.76301313709415
 30
0.0
 10
115.2401665756107
 20
98.68500297729366
 30
0.0
 10
115.2401665756107
 20
98.546954426722
 30
0.0
 10
115.2401665756107
 20
98.49696081848464
 30
0.0
 10
115.2401665756107
 20
98.39051357911463
 30
0.0
 10
115.2401665756107
 20
98.33204224010072
 30
0.0
 10
115.2401665756107
 20
98.21575189001022
 30
0.0
 10
115.2401665756107
 20
98.15745349782621
 30
0.0
 10
115.2401665756107
 20
98.04953452433337
 30
0.0
 10
115.2401665756107
 20
97.99997840119995
 30
0.0
 10
115.2401665756107
 20
97.86247766014611
 30
0.0
 10
115.2401665756107
 20
97.78468586736827
 30
0.0
 10
115.2401665756107
 20
97.57455981605142
 30
0.0
 10
115.2401665756107
 20
97.46005503758126
 30
0.0
 10
115.2401665756106
 20
97.14469216885581
 30
0.0
 10
115.2401665756106
 20
96.97169823085659
 30
0.0
 10
115.2401665756106
 20
96.80732570628778
 30
0.0
  0
ELLIPSE
  5
106
330
1F
100
AcDbEntity
  8
0
  6
Continuous
 62
     7
370
     0
100
AcDbEllipse
 10
114.2298036045
 20
98.274269396
 30
0.0
 11
1.827350269189637
 21
-8.526512829121201E-14
 31
0.0
210
0.0
220
0.0
230
1.0
 40
0.963433044
 41
5.298243370445511
 42
7.268127243913658
  0
LINE
  5
107
330
1F
100
AcDbEntity
  8
0
  6
Continuous
 62
     7
370
     0
100
AcDbLine
 10
151.7401653537
 20
118.274269206
 30
0.0
 11
151.7401653537
 21
126.2742695859
 31
0.0
  0
LINE
  5
108
330
1F
100
AcDbEntity
  8
0
  6
Continuous
 62
     7
370
     0
100
AcDbLine
 10
141.7401674399
 20
122.274269396
 30
0.0
 11
146.7401663968
 21
122.274269396
 31
0.0
  0
LINE
  5
109
330
1F
100
AcDbEntity
  8
0
  6
Continuous
 62
     7
370
     0
100
AcDbLine
 10
141.7401674399
 20
122.274269396
 30
0.0
 11
141.7401674399
 21
124.02426945
 31
0.0
  0
LINE
  5
10A
330
1F
100
AcDbEntity
  8
0
  6
Continuous
 62
     7
370
     0
100
AcDbLine
 10
141.7401674399
 20
124.02426945
 30
0.0
 11
141.7401674399
 21
125.774269504
 31
0.0
  0
LINE
  5
10B
330
1F
100
AcDbEntity
  8
0
  6
Continuous
 62
     7
370
     0
100
AcDbLine
 10
141.7401674399
 20
125.774269504
 30
0.0
 11
146.7401663968
 21
125.774269504
 31
0.0
  0
LINE
  5
10C
330
1F
100
AcDbEntity
  8
0
  6
Continuous
 62
     7
370
     0
100
AcDbLine
 10
146.7401663968
 20
125.7013204037
 30
0.0
 11
146.7401663968
 21
125.774269504
 31
0.0
  0
LINE
  5
10D
330
1F
100
AcDbEntity
  8
0
  6
Continuous
 62
     7
370
     0
100
AcDbLine
 10
146.7401663968
 20
122.274269396
 30
0.0
 11
146.7401663968
 21
122.3472184162
 31
0.0
  0
LINE
  5
10E
330
1F
100
AcDbEntity
  8
0
  6
Continuous
 62
     7
370
     0
100
AcDbLine
 10
141.7401674399
 20
118.7742692879
 30
0.0
 11
146.7401663968
 21
118.7742692879
 31
0.0
  0
LINE
  5
10F
330
1F
100
AcDbEntity
  8
0
  6
Continuous
 62
     7
370
     0
100
AcDbLine
 10
141.7401674399
 20
118.7742692879
 30
0.0
 11
141.7401674399
 21
120.5242693419
 31
0.0
  0
LINE
  5
110
330
1F
100
AcDbEntity
  8
0
  6
Continuous
 62
     7
370
     0
100
AcDbLine
 10
141.7401674399
 20
120.5242693419
 30
0.0
 11
141.7401674399
 21
122.274269396
 31
0.0
  0
LINE
  5
111
330
1F
100
AcDbEntity
  8
0
  6
Continuous
 62
     7
370
     0
100
AcDbLine
 10
146.7401663968
 20
122.2013203757
 30
0.0
 11
146.7401663968
 21
122.274269396
 31
0.0
  0
LINE
  5
112
330
1F
100
AcDbEntity
  8
0
  6
Continuous
 62
     7
370
     0
100
AcDbLine
 10
146.7401663968
 20
118.7742692879
 30
0.0
 11
146.7401663968
 21
118.8472183882
 31
0.0
  0
LINE
  5
113
330
1F
100
AcDbEntity
  8
0
  6
Continuous
 62
     7
370
     0
100
AcDbLine
 10
146.7401663968
 20
118.274269206
 30
0.0
 11
146.7401663968
 21
118.7742692879
 31
0.0
  0
LINE
  5
114
330
1F
100
AcDbEntity
  8
0
  6
Continuous
 62
     7
370
     0
100
AcDbLine
 10
146.7401663968
 20
118.8472183882
 30
0.0
 11
146.7401663968
 21
122.2013203757
 31
0.0
  0
LINE
  5
115
330
1F
100
AcDbEntity
  8
0
  6
Continuous
 62
     7
370
     0
100
AcDbLine
 10
146.7401663968
 20
122.3472184162
 30
0.0
 11
146.7401663968
 21
125.7013204037
 31
0.0
  0
LINE
  5
116
330
1F
100
AcDbEntity
  8
0
  6
Continuous
 62
     7
370
     0
100
AcDbLine
 10
146.7401663968
 20
125.774269504
 30
0.0
 11
146.7401663968
 21
126.2742695859
 31
0.0
  0
ARC
  5
117
330
1F
100
AcDbEntity
  8
0
  6
Continuous
 62
     7
370
     0
100
AcDbCircle
 10
152.7401665756
 20
122.274269396
 30
0.0
 40
4.750000000000006
100
AcDbArc
 50
237.3631024964
 51
122.6368975036
  0
LINE
  5
118
330
1F
100
AcDbEntity
  8
0
  6
Continuous
 62
     7
370
     0
100
AcDbLine
 10
75.7401677975
 20
126.2742695859
 30
0.0
 11
75.7401677975
 21
118.274269206
 31
0.0
  0
LINE
  5
119
330
1F
100
AcDbEntity
  8
0
  6
Continuous
 62
     7
370
     0
100
AcDbLine
 10
85.7401657113
 20
122.274269396
 30
0.0
 11
80.7401667544
 21
122.274269396
 31
0.0
  0
LINE
  5
11A
330
1F
100
AcDbEntity
  8
0
  6
Continuous
 62
     7
370
     0
100
AcDbLine
 10
85.7401657113
 20
122.274269396
 30
0.0
 11
85.7401657113
 21
120.5242693419
 31
0.0
  0
LINE
  5
11B
330
1F
100
AcDbEntity
  8
0
  6
Continuous
 62
     7
370
     0
100
AcDbLine
 10
85.7401657113
 20
120.5242693419
 30
0.0
 11
85.7401657113
 21
118.7742692879
 31
0.0
  0
LINE
  5
11C
330
1F
100
AcDbEntity
  8
0
  6
Continuous
 62
     7
370
     0
100
AcDbLine
 10
85.7401657113
 20
118.7742692879
 30
0.0
 11
80.7401667544
 21
118.7742692879
 31
0.0
  0
LINE
  5
11D
330
1F
100
AcDbEntity
  8
0
  6
Continuous
 62
     7
370
     0
100
AcDbLine
 10
80.7401667544
 20
118.8472183882
 30
0.0
 11
80.7401667544
 21
118.7742692879
 31
0.0
  0
LINE
  5
11E
330
1F
100
AcDbEntity
  8
0
  6
Continuous
 62
     7
370
     0
100
AcDbLine
 10
80.7401667544
 20
122.274269396
 30
0.0
 11
80.7401667544
 21
122.2013203757
 31
0.0
  0
LINE
  5
11F
330
1F
100
AcDbEntity
  8
0
  6
Continuous
 62
     7
370
     0
100
AcDbLine
 10
85.7401657113
 20
125.774269504
 30
0.0
 11
80.7401667544
 21
125.774269504
 31
0.0
  0
LINE
  5
120
330
1F
100
AcDbEntity
  8
0
  6
Continuous
 62
     7
370
     0
100
AcDbLine
 10
85.7401657113
 20
125.774269504
 30
0.0
 11
85.7401657113
 21
124.02426945
 31
0.0
  0
LINE
  5
121
330
1F
100
AcDbEntity
  8
0
  6
Continuous
 62
     7
370
     0
100
AcDbLine
 10
85.7401657113
 20
124.02426945
 30
0.0
 11
85.7401657113
 21
122.274269396
 31
0.0
  0
LINE
  5
122
330
1F
100
AcDbEntity
  8
0
  6
Continuous
 62
     7
370
     0
100
AcDbLine
 10
80.7401667544
 20
122.3472184162
 30
0.0
 11
80.7401667544
 21
122.274269396
 31
0.0
  0
LINE
  5
123
330
1F
100
AcDbEntity
  8
0
  6
Continuous
 62
     7
370
     0
100
AcDbLine
 10
80.7401667544
 20
125.774269504
 30
0.0
 11
80.7401667544
 21
125.7013204037
 31
0.0
  0
LINE
  5
124
330
1F
100
AcDbEntity
  8
0
  6
Continuous
 62
     7
370
     0
100
AcDbLine
 10
80.7401667544
 20
126.2742695859
 30
0.0
 11
80.7401667544
 21
125.774269504
 31
0.0
  0
LINE
  5
125
330
1F
100
AcDbEntity
  8
0
  6
Continuous
 62
     7
370
     0
100
AcDbLine
 10
80.7401667544
 20
125.7013204037
 30
0.0
 11
80.7401667544
 21
122.3472184162
 31
0.0
  0
LINE
  5
126
330
1F
100
AcDbEntity
  8
0
  6
Continuous
 62
     7
370
     0
100
AcDbLine
 10
80.7401667544
 20
122.2013203757
 30
0.0
 11
80.7401667544
 21
118.8472183882
 31
0.0
  0
LINE
  5
127
330
1F
100
AcDbEntity
  8
0
  6
Continuous
 62
     7
370
     0
100
AcDbLine
 10
80.7401667544
 20
118.7742692879
 30
0.0
 11
80.7401667544
 21
118.274269206
 31
0.0
  0
ARC
  5
128
330
1F
100
AcDbEntity
  8
0
  6
Continuous
 62
     7
370
     0
100
AcDbCircle
 10
74.7401665756
 20
122.274269396
 30
0.0
 40
4.750000000000006
100
AcDbArc
 50
57.3631024964
 51
302.6368975036
  0
SPLINE
  5
129
330
1F
100
AcDbEntity
  8
0
  6
Continuous
 62
     8
370
     0
100
AcDbSpline
210
0.0
220
0.0
230
1.0
 70
     8
 71
     3
 72
     9
 73
     5
 74
     0
 42
0.00000001
 43
0.00000001
 12
1.0
 22
0.0
 32
0.0
 13
1.0
 23
0.0
 33
0.0
 40
0.0
 40
0.0
 40
0.0
 40
0.0
 40
0.1885133073077136
 40
0.9999999999999999
 40
0.9999999999999999
 40
0.9999999999999999
 40
0.9999999999999999
 10
108.9985770368591
 20
116.1209913431456
 30
0.0
 10
109.0171649886347
 20
116.1113712237963
 30
0.0
 10
109.1157678514306
 20
116.0603397104951
 30
0.0
 10
109.1872469707722
 20
116.0329880820284
 30
0.0
 10
109.2452513249233
 20
116.0107925995042
 30
0.0
  0
LINE
  5
12A
330
1F
100
AcDbEntity
  8
0
  6
Continuous
 62
     8
370
     0
100
AcDbLine
 10
106.0404767478
 20
121.2445712178
 30
0.0
 11
106.0599409239
 21
121.1113747437
 31
0.0
  0
SPLINE
  5
12B
330
1F
100
AcDbEntity
  8
0
  6
Continuous
 62
     8
370
     0
100
AcDbSpline
210
0.0
220
0.0
230
1.0
 70
     8
 71
     3
 72
     9
 73
     5
 74
     0
 42
0.00000001
 43
0.00000001
 12
1.0
 22
0.0
 32
0.0
 13
1.0
 23
0.0
 33
0.0
 40
0.0
 40
0.0
 40
0.0
 40
0.0
 40
0.1960285778385648
 40
1.0
 40
1.0
 40
1.0
 40
1.0
 10
108.8925869399324
 20
116.1995698227336
 30
0.0
 10
108.9005504532264
 20
116.1932915106479
 30
0.0
 10
108.9411746998635
 20
116.1612639759134
 30
0.0
 10
108.972994681206
 20
116.1389395464501
 30
0.0
 10
108.9985770368591
 20
116.1209913431456
 30
0.0
  0
LINE
  5
12C
330
1F
100
AcDbEntity
  8
0
  6
Continuous
 62
     8
370
     0
100
AcDbLine
 10
106.0671228179
 20
121.5081944125
 30
0.0
 11
106.0404767478
 21
121.2445712178
 31
0.0
  0
SPLINE
  5
12D
330
1F
100
AcDbEntity
  8
0
  6
Continuous
 62
     8
370
     0
100
AcDbSpline
210
0.0
220
0.0
230
1.0
 70
     8
 71
     3
 72
     9
 73
     5
 74
     0
 42
0.00000001
 43
0.00000001
 12
1.0
 22
0.0
 32
0.0
 13
1.0
 23
0.0
 33
0.0
 40
0.0
 40
0.0
 40
0.0
 40
0.0
 40
0.1885133624123204
 40
1.0
 40
1.0
 40
1.0
 40
1.0
 10
121.4398564034715
 20
121.2445712177803
 30
0.0
 10
121.4388937403808
 20
121.2654789620686
 30
0.0
 10
121.4337871363801
 20
121.3763875152909
 30
0.0
 10
121.4217345179445
 20
121.4519659810512
 30
0.0
 10
121.411953979136
 20
121.513296896105
 30
0.0
  0
LINE
  5
12E
330
1F
100
AcDbEntity
  8
0
  6
Continuous
 62
     8
370
     0
100
AcDbLine
 10
118.4817561144
 20
116.1209913431
 30
0.0
 11
118.6104062209
 21
116.2226433395
 31
0.0
  0
SPLINE
  5
12F
330
1F
100
AcDbEntity
  8
0
  6
Continuous
 62
     8
370
     0
100
AcDbSpline
210
0.0
220
0.0
230
1.0
 70
     8
 71
     3
 72
     9
 73
     5
 74
     0
 42
0.00000001
 43
0.00000001
 12
1.0
 22
0.0
 32
0.0
 13
1.0
 23
0.0
 33
0.0
 40
0.0
 40
0.0
 40
0.0
 40
0.0
 40
0.2719955862270557
 40
1.0
 40
1.0
 40
1.0
 40
1.0
 10
121.4225584836319
 20
121.0977208562916
 30
0.0
 10
121.4248189393564
 20
121.1131936932384
 30
0.0
 10
121.4331295732012
 20
121.1700800462907
 30
0.0
 10
121.4370224048495
 20
121.2131882530151
 30
0.0
 10
121.4398564034715
 20
121.2445712177803
 30
0.0
  0
LINE
  5
130
330
1F
100
AcDbEntity
  8
0
  6
Continuous
 62
     8
370
     0
100
AcDbLine
 10
118.234125358
 20
116.0095548718
 30
0.0
 11
118.4817561144
 21
116.1209913431
 31
0.0
  0
SPLINE
  5
131
330
1F
100
AcDbEntity
  8
0
  6
Continuous
 62
     8
370
     0
100
AcDbSpline
210
0.0
220
0.0
230
1.0
 70
     8
 71
     3
 72
     9
 73
     5
 74
     0
 42
0.00000001
 43
0.00000001
 12
1.0
 22
0.0
 32
0.0
 13
1.0
 23
0.0
 33
0.0
 40
0.0
 40
0.0
 40
0.0
 40
0.0
 40
0.1934933624990957
 40
1.0
 40
1.0
 40
1.0
 40
1.0
 10
110.7820665193364
 20
129.4572456269314
 30
0.0
 10
110.7644304868263
 20
129.4459543383073
 30
0.0
 10
110.6732850734523
 20
129.3875994238115
 30
0.0
 10
110.615332914633
 20
129.340594764678
 30
0.0
 10
110.5685941138878
 20
129.3026851950934
 30
0.0
  0
LINE
  5
132
330
1F
100
AcDbEntity
  8
0
  6
Continuous
 62
     8
370
     0
100
AcDbLine
 10
116.6982666319
 20
129.4572456269
 30
0.0
 11
116.5493744621
 21
129.5158351301
 31
0.0
  0
LINE
  5
133
330
1F
100
AcDbEntity
  8
0
  6
Continuous
 62
     8
370
     0
100
AcDbLine
 10
110.8900845712
 20
129.5006131283
 30
0.0
 11
110.7820665193
 21
129.4572456269
 31
0.0
  0
LINE
  5
134
330
1F
100
AcDbEntity
  8
0
  6
Continuous
 62
     8
370
     0
100
AcDbLine
 10
116.9188119666
 20
129.2983489572
 30
0.0
 11
116.6982666319
 21
129.4572456269
 31
0.0
  0
LINE
  5
135
330
1F
100
AcDbEntity
  8
0
  6
CENTERX2
 62
     7
370
     0
100
AcDbLine
 10
113.7401665756
 20
122.274269396
 30
0.0
 11
113.7401665756
 21
120.0898078612
 31
0.0
  0
POINT
  5
136
330
1F
100
AcDbEntity
  8
0
  6
Continuous
 62
     7
370
     0
100
AcDbPoint
 10
93.7401665756
 20
122.274269396
 30
0.0
  0
POINT
  5
137
330
1F
100
AcDbEntity
  8
0
  6
Continuous
 62
     7
370
     0
100
AcDbPoint
 10
133.7401665756
 20
122.274269396
 30
0.0
  0
DIMENSION
  5
138
330
1F
100
AcDbEntity
  8
0
  6
Continuous
 62
     7
370
     0
100
AcDbDimension
  2
_D
 10
133.7401665756
 20
84.274269396
 30
0.0
 11
113.7401665756
 21
84.274269396
 31
0.0
 70
   160
  1
P.C.D.<>
 71
     2
 42
-1.0
  3
SLDDIMSTYLE0
100
AcDbAlignedDimension
 13
93.7401665756
 23
122.274269396
 33
0.0
 14
133.7401665756
 24
122.274269396
 34
0.0
 50
0.0
100
AcDbRotatedDimension
  0
DIMENSION
  5
144
330
1F
100
AcDbEntity
  8
0
  6
Continuous
 62
     7
370
     0
100
AcDbDimension
  2
_D_1
 10
69.9901665756
 20
64.0927670911
 30
0.0
 11
113.7401665756
 21
64.0927670911
 31
0.0
 70
   160
  1
(%%c<>)
 71
     2
 42
-1.0
  3
SLDDIMSTYLE0
100
AcDbAlignedDimension
 13
157.4901665756
 23
122.274269396
 33
0.0
 14
69.9901665756
 24
122.274269396
 34
0.0
 50
0.0
100
AcDbRotatedDimension
  0
DIMENSION
  5
151
330
1F
100
AcDbEntity
  8
0
  6
Continuous
 62
     7
370
     0
100
AcDbDimension
  2
_D_2
 10
85.7401665756
 20
75.0160711124
 30
0.0
 11
113.7401665756
 21
75.0160711124
 31
0.0
 70
   160
  1
%%c<>
 71
     2
 42
-1.0
  3
SLDDIMSTYLE0
100
AcDbAlignedDimension
 13
141.7401665756
 23
118.774269396
 33
0.0
 14
85.7401665756
 24
118.774269396
 34
0.0
 50
0.0
100
AcDbRotatedDimension
  0
DIMENSION
  5
15C
330
1F
100
AcDbEntity
  8
0
  6
Continuous
 62
     7
370
     0
100
AcDbDimension
  2
_D_3
 10
122.2254479499
 20
130.7595507702
 30
0.0
 11
164.0369283905
 21
143.1078702831
 31
0.0
 70
   162
  1
<>
 71
     1
 42
-1.0
  3
SLDDIMSTYLE1
100
AcDb2LineAngularDimension
 13
141.7401665756
 23
122.274269396
 33
0.0
 14
146.7401665756
 24
122.274269396
 34
0.0
 15
133.5391564488
 25
142.0732592692
 35
0.0
 16
164.0369283905
 26
143.1078702831
 36
0.0
  0
DIMENSION
  5
167
330
1F
100
AcDbEntity
  8
0
  6
Continuous
 62
     7
370
     0
100
AcDbDimension
  2
_D_4
 10
101.8265936683
 20
134.0508166745
 30
0.0
 11
55.9672216798
 21
151.5833904353
 31
0.0
 70
   163
  1
4-<>,%%c11ザグリ深9(90%%d等配)
 71
     1
 42
-1.0
  3
SLDDIMSTYLE2
100
AcDbDiametricDimension
 15
97.3694682355
 25
138.7819933649
 35
0.0
 40
0.0
  0
MTEXT
  5
17B
330
1F
100
AcDbEntity
  8
0
  6
Continuous
 62
     7
370
     0
100
AcDbMText
 10
49.6862597529
 20
148.9234391312
 30
0.0
 40
3.5
 41
0.0
 71
     2
 72
     1
  1
(ロボット取付穴)
  7
SLDTEXTSTYLE0
 73
     1
 44
1.0
  0
INSERT
  5
19B
330
1F
100
AcDbEntity
  8
0
  6
Continuous
 62
     7
370
     0
100
AcDbBlockReference
  2
SW_CENTERMARKSYMBOL_0
 10
99.5980309519
 20
108.1321337722
 30
0.0
  0
INSERT
  5
1A7
330
1F
100
AcDbEntity
  8
0
  6
Continuous
 62
     7
370
     0
100
AcDbBlockReference
  2
SW_CENTERMARKSYMBOL_1
 10
113.7401665756
 20
122.274269396
 30
0.0
  0
LINE
  5
1A8
330
1F
100
AcDbEntity
  8
0
  6
Continuous
 62
     7
370
     0
100
AcDbLine
 10
127.2401669258
 20
195.3731058366
 30
0.0
 11
127.2401669258
 21
197.6743380274
 31
0.0
  0
LINE
  5
1A9
330
1F
100
AcDbEntity
  8
0
  6
Continuous
 62
     7
370
     0
100
AcDbLine
 10
127.2401669258
 20
202.071873724
 30
0.0
 11
127.2401669258
 21
205.3731058459
 31
0.0
  0
LINE
  5
1AA
330
1F
100
AcDbEntity
  8
0
  6
Continuous
 62
     7
370
     0
100
AcDbLine
 10
100.2401662254
 20
205.3731058459
 30
0.0
 11
100.2401662254
 21
202.071873724
 31
0.0
  0
LINE
  5
1AB
330
1F
100
AcDbEntity
  8
0
  6
Continuous
 62
     7
370
     0
100
AcDbLine
 10
100.2401662254
 20
197.6743380274
 30
0.0
 11
100.2401662254
 21
195.3731058366
 31
0.0
  0
ARC
  5
1AC
330
1F
100
AcDbEntity
  8
0
  6
Continuous
 62
     7
370
     0
100
AcDbCircle
 10
102.2401665756
 20
195.3731057416
 30
0.0
 40
2.0
100
AcDbArc
 50
180.0
 51
270.0
  0
ARC
  5
1AD
330
1F
100
AcDbEntity
  8
0
  6
Continuous
 62
     7
370
     0
100
AcDbCircle
 10
125.2401665756
 20
195.3731057416
 30
0.0
 40
2.000000000000014
100
AcDbArc
 50
270.0
 51
0.0
  0
ARC
  5
1AE
330
1F
100
AcDbEntity
  8
0
  6
Continuous
 62
     7
370
     0
100
AcDbCircle
 10
123.8986968219
 20
199.8731057416
 30
0.0
 40
3.999999999999992
100
AcDbArc
 50
295.8337425052
 51
68.4358185551
  0
ARC
  5
1AF
330
1F
100
AcDbEntity
  8
0
  6
Continuous
 62
     7
370
     0
100
AcDbCircle
 10
103.5816363293
 20
199.8731057416
 30
0.0
 40
3.999999999999996
100
AcDbArc
 50
112.2775233683
 51
247.8868378381
  0
LINE
  5
1B0
330
1F
100
AcDbEntity
  8
0
  6
Continuous
 62
     7
370
     0
100
AcDbLine
 10
85.7401657113
 20
221.3781059454
 30
0.0
 11
85.7401657113
 21
205.8731059279
 31
0.0
  0
LINE
  5
1B1
330
1F
100
AcDbEntity
  8
0
  6
Continuous
 62
     7
370
     0
100
AcDbLine
 10
141.7401674399
 20
219.8731054287
 30
0.0
 11
141.7401674399
 21
229.8731052052
 31
0.0
  0
LINE
  5
1B2
330
1F
100
AcDbEntity
  8
0
  6
Continuous
 62
     7
370
     0
100
AcDbLine
 10
141.7401674399
 20
205.8731059279
 30
0.0
 11
141.7401674399
 21
210.8856470059
 31
0.0
  0
LINE
  5
1B3
330
1F
100
AcDbEntity
  8
0
  6
Continuous
 62
     7
370
     0
100
AcDbLine
 10
85.7401657113
 20
205.8731059279
 30
0.0
 11
86.2401667246
 21
205.3731058459
 31
0.0
  0
LINE
  5
1B4
330
1F
100
AcDbEntity
  8
0
  6
Continuous
 62
     7
370
     0
100
AcDbLine
 10
141.2401664266
 20
205.3731058459
 30
0.0
 11
141.7401674399
 21
205.8731059279
 31
0.0
  0
LINE
  5
1B5
330
1F
100
AcDbEntity
  8
0
  6
Continuous
 62
     7
370
     0
100
AcDbLine
 10
141.7401674399
 20
232.3731065463
 30
0.0
 11
141.2401664266
 21
232.8731075595
 31
0.0
  0
LINE
  5
1B6
330
1F
100
AcDbEntity
  8
0
  6
Continuous
 62
     7
370
     0
100
AcDbLine
 10
86.2401667246
 20
232.8731075595
 30
0.0
 11
85.7401657113
 21
232.3731065463
 31
0.0
  0
LINE
  5
1B7
330
1F
100
AcDbEntity
  8
0
  6
Continuous
 62
     7
370
     0
100
AcDbLine
 10
141.7401674399
 20
229.8731052052
 30
0.0
 11
141.7401674399
 21
232.3731065463
 31
0.0
  0
LINE
  5
1B8
330
1F
100
AcDbEntity
  8
0
  6
Continuous
 62
     7
370
     0
100
AcDbLine
 10
85.7401657113
 20
232.3731065463
 30
0.0
 11
85.7401657113
 21
229.9145565103
 31
0.0
  0
ARC
  5
1B9
330
1F
100
AcDbEntity
  8
0
  6
Continuous
 62
     7
370
     0
100
AcDbCircle
 10
100.9401665756
 20
233.1731057416
 30
0.0
 40
0.3000000000000114
100
AcDbArc
 50
270.0
 51
0.0
  0
ARC
  5
1BA
330
1F
100
AcDbEntity
  8
0
  6
Continuous
 62
     7
370
     0
100
AcDbCircle
 10
126.5401665756
 20
233.1731057416
 30
0.0
 40
0.2999999999999829
100
AcDbArc
 50
180.0
 51
270.0
  0
LINE
  5
1BB
330
1F
100
AcDbEntity
  8
0
  6
Continuous
 62
     7
370
     0
100
AcDbLine
 10
126.2401667619
 20
235.3731051754
 30
0.0
 11
125.7401666799
 21
235.8731061886
 31
0.0
  0
LINE
  5
1BC
330
1F
100
AcDbEntity
  8
0
  6
Continuous
 62
     7
370
     0
100
AcDbLine
 10
101.7401664713
 20
235.8731061886
 30
0.0
 11
101.2401663893
 21
235.3731051754
 31
0.0
  0
LINE
  5
1BD
330
1F
100
AcDbEntity
  8
0
  6
Continuous
 62
     7
370
     0
100
AcDbLine
 10
126.2401667619
 20
233.1731051873
 30
0.0
 11
126.2401667619
 21
235.3731051754
 31
0.0
  0
LINE
  5
1BE
330
1F
100
AcDbEntity
  8
0
  6
Continuous
 62
     7
370
     0
100
AcDbLine
 10
101.2401663893
 20
235.3731051754
 30
0.0
 11
101.2401663893
 21
233.1731051873
 31
0.0
  0
LINE
  5
1BF
330
1F
100
AcDbEntity
  8
0
  6
Continuous
 62
     7
370
     0
100
AcDbLine
 10
111.2401666315
 20
205.3731058459
 30
0.0
 11
111.2401666315
 21
203.3731055181
 31
0.0
  0
LINE
  5
1C0
330
1F
100
AcDbEntity
  8
0
  6
Continuous
 62
     7
370
     0
100
AcDbLine
 10
116.2401665197
 20
203.3731055181
 30
0.0
 11
116.2401665197
 21
205.3731058459
 31
0.0
  0
LINE
  5
1C1
330
1F
100
AcDbEntity
  8
0
  6
Continuous
 62
     7
370
     0
100
AcDbLine
 10
112.2387070637
 20
199.6465020548
 30
0.0
 11
112.3018741337
 21
199.4107591654
 31
0.0
  0
LINE
  5
1C2
330
1F
100
AcDbEntity
  8
0
  6
Continuous
 62
     7
370
     0
100
AcDbLine
 10
111.2401666315
 20
203.3731055181
 30
0.0
 11
111.4231792008
 21
202.6900930996
 31
0.0
  0
LINE
  5
1C3
330
1F
100
AcDbEntity
  8
0
  6
Continuous
 62
     7
370
     0
100
AcDbLine
 10
116.0571539504
 20
202.6900930996
 30
0.0
 11
116.2401665197
 21
203.3731055181
 31
0.0
  0
LINE
  5
1C4
330
1F
100
AcDbEntity
  8
0
  6
Continuous
 62
     7
370
     0
100
AcDbLine
 10
115.1784590175
 20
199.4107591654
 30
0.0
 11
115.2416260875
 21
199.6465020548
 31
0.0
  0
ARC
  5
1C5
330
1F
100
AcDbEntity
  8
0
  6
Continuous
 62
     7
370
     0
100
AcDbCircle
 10
113.6541703209
 20
199.7731057416
 30
0.0
 40
1.400000000000006
100
AcDbArc
 50
195.0
 51
270.0
  0
ARC
  5
1C6
330
1F
100
AcDbEntity
  8
0
  6
Continuous
 62
     7
370
     0
100
AcDbCircle
 10
113.8261628303
 20
199.7731057416
 30
0.0
 40
1.400000000000006
100
AcDbArc
 50
270.0
 51
345.0
  0
LINE
  5
1C7
330
1F
100
AcDbEntity
  8
0
  6
Continuous
 62
     7
370
     0
100
AcDbLine
 10
157.4901658306
 20
228.4731075834
 30
0.0
 11
157.4901658306
 21
229.4731058846
 31
0.0
  0
LINE
  5
1C8
330
1F
100
AcDbEntity
  8
0
  6
Continuous
 62
     7
370
     0
100
AcDbLine
 10
147.9901652047
 20
229.4731058846
 30
0.0
 11
147.9901652047
 21
228.4731075834
 31
0.0
  0
LINE
  5
1C9
330
1F
100
AcDbEntity
  8
0
  6
Continuous
 62
     7
370
     0
100
AcDbLine
 10
157.4901658306
 20
220.4731062721
 30
0.0
 11
157.4901658306
 21
226.4731072556
 31
0.0
  0
LINE
  5
1CA
330
1F
100
AcDbEntity
  8
0
  6
Continuous
 62
     7
370
     0
100
AcDbLine
 10
147.9901652047
 20
226.4731072556
 30
0.0
 11
147.9901652047
 21
220.4731062721
 31
0.0
  0
ARC
  5
1CB
330
1F
100
AcDbEntity
  8
0
  6
Continuous
 62
     7
370
     0
100
AcDbCircle
 10
152.6401665756
 20
215.3731057416
 30
0.0
 40
4.100000000000001
100
AcDbArc
 50
257.3196165082
 51
359.9850194581
  0
LINE
  5
1CC
330
1F
100
AcDbEntity
  8
0
  6
Continuous
 62
     7
370
     0
100
AcDbLine
 10
146.7401663968
 20
211.3731049667
 30
0.0
 11
151.7401653537
 21
211.3731049667
 31
0.0
  0
LINE
  5
1CD
330
1F
100
AcDbEntity
  8
0
  6
Continuous
 62
     7
370
     0
100
AcDbLine
 10
148.7401667246
 20
219.373106278
 30
0.0
 11
146.7401663968
 21
219.373106278
 31
0.0
  0
LINE
  5
1CE
330
1F
100
AcDbEntity
  8
0
  6
Continuous
 62
     7
370
     0
100
AcDbLine
 10
148.7401667246
 20
228.4731075834
 30
0.0
 11
148.7401667246
 21
226.4731072556
 31
0.0
  0
LINE
  5
1CF
330
1F
100
AcDbEntity
  8
0
  6
Continuous
 62
     7
370
     0
100
AcDbLine
 10
156.7401680359
 20
226.4731072556
 30
0.0
 11
156.7401680359
 21
228.4731075834
 31
0.0
  0
LINE
  5
1D0
330
1F
100
AcDbEntity
  8
0
  6
Continuous
 62
     7
370
     0
100
AcDbLine
 10
156.7401680359
 20
215.3731056224
 30
0.0
 11
156.7401680359
 21
220.4731062721
 31
0.0
  0
LINE
  5
1D1
330
1F
100
AcDbEntity
  8
0
  6
Continuous
 62
     7
370
     0
100
AcDbLine
 10
148.7401667246
 20
220.4731062721
 30
0.0
 11
148.7401667246
 21
219.373106278
 31
0.0
  0
LINE
  5
1D2
330
1F
100
AcDbEntity
  8
0
  6
Continuous
 62
     7
370
     0
100
AcDbLine
 10
141.7401674399
 20
218.8731052648
 30
0.0
 11
141.5979023287
 21
218.8731052648
 31
0.0
  0
LINE
  5
1D3
330
1F
100
AcDbEntity
  8
0
  6
Continuous
 62
     7
370
     0
100
AcDbLine
 10
141.5975521514
 20
211.87310598
 30
0.0
 11
141.7401674399
 21
211.87310598
 31
0.0
  0
LINE
  5
1D4
330
1F
100
AcDbEntity
  8
0
  6
Continuous
 62
     7
370
     0
100
AcDbLine
 10
79.4901679465
 20
238.9731065105
 30
0.0
 11
79.4901679465
 21
239.9731048118
 31
0.0
  0
LINE
  5
1D5
330
1F
100
AcDbEntity
  8
0
  6
Continuous
 62
     7
370
     0
100
AcDbLine
 10
69.9901673207
 20
239.9731048118
 30
0.0
 11
69.9901673207
 21
238.9731065105
 31
0.0
  0
LINE
  5
1D6
330
1F
100
AcDbEntity
  8
0
  6
Continuous
 62
     7
370
     0
100
AcDbLine
 10
79.4901679465
 20
230.9731051992
 30
0.0
 11
79.4901679465
 21
236.9731061827
 31
0.0
  0
LINE
  5
1D7
330
1F
100
AcDbEntity
  8
0
  6
Continuous
 62
     7
370
     0
100
AcDbLine
 10
69.9901673207
 20
236.9731061827
 30
0.0
 11
69.9901673207
 21
230.9731051992
 31
0.0
  0
ARC
  5
1D8
330
1F
100
AcDbEntity
  8
0
  6
Continuous
 62
     7
370
     0
100
AcDbCircle
 10
74.8401665756
 20
225.8731057416
 30
0.0
 40
4.100000000000023
100
AcDbArc
 50
180.0153832388
 51
282.6803834918
  0
LINE
  5
1D9
330
1F
100
AcDbEntity
  8
0
  6
Continuous
 62
     7
370
     0
100
AcDbLine
 10
70.7401651153
 20
238.9731065105
 30
0.0
 11
70.7401651153
 21
236.9731061827
 31
0.0
  0
LINE
  5
1DA
330
1F
100
AcDbEntity
  8
0
  6
Continuous
 62
     7
370
     0
100
AcDbLine
 10
78.7401664266
 20
236.9731061827
 30
0.0
 11
78.7401664266
 21
238.9731065105
 31
0.0
  0
LINE
  5
1DB
330
1F
100
AcDbEntity
  8
0
  6
Continuous
 62
     7
370
     0
100
AcDbLine
 10
78.7401664266
 20
229.8731052052
 30
0.0
 11
78.7401664266
 21
230.9731051992
 31
0.0
  0
LINE
  5
1DC
330
1F
100
AcDbEntity
  8
0
  6
Continuous
 62
     7
370
     0
100
AcDbLine
 10
70.7401651153
 20
230.9731051992
 30
0.0
 11
70.7401651153
 21
225.8731045495
 31
0.0
  0
LINE
  5
1DD
330
1F
100
AcDbEntity
  8
0
  6
Continuous
 62
     7
370
     0
100
AcDbLine
 10
80.7401667544
 20
229.8731052052
 30
0.0
 11
78.7401664266
 21
229.8731052052
 31
0.0
  0
LINE
  5
1DE
330
1F
100
AcDbEntity
  8
0
  6
Continuous
 62
     7
370
     0
100
AcDbLine
 10
75.7401677975
 20
221.8731057565
 30
0.0
 11
80.7401667544
 21
221.8731057565
 31
0.0
  0
LINE
  5
1DF
330
1F
100
AcDbEntity
  8
0
  6
Continuous
 62
     7
370
     0
100
AcDbLine
 10
85.7401657113
 20
222.3731049071
 30
0.0
 11
85.881987513
 21
222.3731049071
 31
0.0
  0
LINE
  5
1E0
330
1F
100
AcDbEntity
  8
0
  6
Continuous
 62
     7
370
     0
100
AcDbLine
 10
85.8818329135
 20
229.3731041919
 30
0.0
 11
85.7401657113
 21
229.3731041919
 31
0.0
  0
SPLINE
  5
1E1
330
1F
100
AcDbEntity
  8
0
  6
Continuous
 62
     7
370
     0
100
AcDbSpline
210
0.0
220
0.0
230
1.0
 70
     8
 71
     3
 72
    15
 73
    11
 74
     0
 42
0.00000001
 43
0.00000001
 12
1.0
 22
0.0
 32
0.0
 13
1.0
 23
0.0
 33
0.0
 40
0.0
 40
0.0
 40
0.0
 40
0.0
 40
0.1103821205072478
 40
0.2207163930765585
 40
0.3171177818500062
 40
0.4134999210382571
 40
0.5946415984822196
 40
0.7731281827373596
 40
0.9573332631356916
 40
1.0
 40
1.0
 40
1.0
 40
1.0
 10
116.5069049885138
 20
197.2464805203751
 30
0.0
 10
116.6695182398648
 20
197.4159340344663
 30
0.0
 10
116.9946742537166
 20
197.7547676087125
 30
0.0
 10
117.3351517263948
 20
198.3446663201303
 30
0.0
 10
117.5557524256292
 20
198.9565902116344
 30
0.0
 10
117.6941443488962
 20
199.7493230079223
 30
0.0
 10
117.6175524740516
 20
200.7506973978541
 30
0.0
 10
117.1373360381394
 20
201.8141127769638
 30
0.0
 10
116.5917956038549
 20
202.5231499440233
 30
0.0
 10
116.1658727461322
 20
202.7535618697721
 30
0.0
 10
116.0857713976517
 20
202.7968943785205
 30
0.0
  0
LWPOLYLINE
  5
1E2
330
1F
100
AcDbEntity
  8
0
  6
Continuous
 62
     7
370
     0
100
AcDbPolyline
 90
       17
 70
   128
 43
0.0
 10
111.3856094153
 20
202.8303055759
 10
111.3686325689
 20
202.8204512517
 10
110.8620580481
 20
202.390927143
 10
110.4399109454
 20
201.8782145079
 10
110.1326152412
 20
201.3255034308
 10
109.9261829359
 20
200.7253498505
 10
109.8387832017
 20
199.5363643128
 10
110.1293088132
 20
198.4269533041
 10
110.7600435344
 20
197.4621319878
 10
111.7069771709
 20
196.7124180137
 10
112.9144392754
 20
196.2703697118
 10
113.5858534099
 20
196.193038506
 10
114.2614780538
 20
196.2217756282
 10
114.9343636781
 20
196.3608623683
 10
115.5730094025
 20
196.6074907887
 10
116.5069049885
 20
197.2464805204
 10
116.5069049885
 20
197.2464805204
  0
SPLINE
  5
1E3
330
1F
100
AcDbEntity
  8
0
  6
Continuous
 62
     7
370
     0
100
AcDbSpline
210
0.0
220
0.0
230
1.0
 70
     8
 71
     3
 72
    10
 73
     6
 74
     0
 42
0.00000001
 43
0.00000001
 12
1.0
 22
0.0
 32
0.0
 13
1.0
 23
0.0
 33
0.0
 40
0.0
 40
0.0
 40
0.0
 40
0.0
 40
0.5657651793133682
 40
0.8706212024732345
 40
1.0
 40
1.0
 40
1.0
 40
1.0
 10
125.3847888866081
 20
196.1909702713862
 30
0.0
 10
125.5902335633476
 20
196.2197674511662
 30
0.0
 10
125.9063797279486
 20
196.2640816581989
 30
0.0
 10
126.1934101257978
 20
196.5231492209383
 30
0.0
 10
126.2920788096328
 20
196.6935036414452
 30
0.0
 10
126.321476810576
 20
196.7442601654008
 30
0.0
  0
LWPOLYLINE
  5
1E4
330
1F
100
AcDbEntity
  8
0
  6
Continuous
 62
     7
370
     0
100
AcDbPolyline
 90
       19
 70
   128
 43
0.0
 10
126.3359346622
 20
202.97745268
 10
126.3054943839
 20
203.0477451827
 10
125.8090882757
 20
203.4816269498
 10
125.4925019303
 20
203.5541751157
 10
125.145462268
 20
203.5204938348
 10
124.7709895679
 20
203.3763912241
 10
124.389411808
 20
203.1248624171
 10
124.0210029492
 20
202.7728662561
 10
123.6803409839
 20
202.3265578519
 10
123.397902512
 20
201.817203566
 10
123.1759376088
 20
201.2434324916
 10
123.0369637916
 20
200.6597903292
 10
122.9732287312
 20
200.0514178272
 10
123.0728839719
 20
198.8975976329
 10
123.4294659653
 20
197.8622309598
 10
123.9900066713
 20
197.0081068776
 10
124.680555352
 20
196.419617414
 10
125.3847888866
 20
196.1909702714
 10
125.3847888866
 20
196.1909702714
  0
SPLINE
  5
1E5
330
1F
100
AcDbEntity
  8
0
  6
Continuous
 62
     7
370
     0
100
AcDbSpline
210
0.0
220
0.0
230
1.0
 70
     8
 71
     3
 72
    20
 73
    16
 74
     0
 42
0.00000001
 43
0.00000001
 12
1.0
 22
0.0
 32
0.0
 13
1.0
 23
0.0
 33
0.0
 40
0.0
 40
0.0
 40
0.0
 40
0.0
 40
0.0640891501841513
 40
0.1281509149449851
 40
0.1844554198751391
 40
0.2407479636429851
 40
0.3464438354146765
 40
0.4503475149932382
 40
0.5573851694838153
 40
0.6704939702499324
 40
0.7897351076704399
 40
0.851551058490932
 40
0.9133646151045688
 40
0.9755912948919531
 40
1.0
 40
1.0
 40
1.0
 40
1.0
 10
103.6526494854703
 20
197.209107709609
 30
0.0
 10
103.7661706165659
 20
197.3755440962894
 30
0.0
 10
103.9931643709485
 20
197.708345751046
 30
0.0
 10
104.2489049787377
 20
198.2916285679252
 30
0.0
 10
104.4211072797857
 20
198.8998657566335
 30
0.0
 10
104.5371444670311
 20
199.6926464923498
 30
0.0
 10
104.4873942119852
 20
200.6915616072424
 30
0.0
 10
104.1485310819174
 20
201.7826050955198
 30
0.0
 10
103.5918336607932
 20
202.6888130987605
 30
0.0
 10
102.8952781720995
 20
203.3301006561033
 30
0.0
 10
102.2906058048727
 20
203.5685930030722
 30
0.0
 10
101.845194842206
 20
203.5555751272888
 30
0.0
 10
101.54102802972
 20
203.4319299355511
 30
0.0
 10
101.3241452061026
 20
203.2644952739445
 30
0.0
 10
101.2246874594919
 20
203.1042087867579
 30
0.0
 10
101.1966661745324
 20
203.0590495760813
 30
0.0
  0
SPLINE
  5
1E6
330
1F
100
AcDbEntity
  8
0
  6
Continuous
 62
     7
370
     0
100
AcDbSpline
210
0.0
220
0.0
230
1.0
 70
     8
 71
     3
 72
    14
 73
    10
 74
     0
 42
0.00000001
 43
0.00000001
 12
1.0
 22
0.0
 32
0.0
 13
1.0
 23
0.0
 33
0.0
 40
0.0
 40
0.0
 40
0.0
 40
0.0
 40
0.009376756230411
 40
0.2564531070813309
 40
0.3858854022303013
 40
0.5153203675009674
 40
0.6472482817431612
 40
0.7791605189172768
 40
1.0
 40
1.0
 40
1.0
 40
1.0
 10
101.1343113341942
 20
196.7722890167758
 30
0.0
 10
101.1384406755607
 20
196.7620142148403
 30
0.0
 10
101.2513776441261
 20
196.480999670338
 30
0.0
 10
101.5350067417719
 20
196.3031344779234
 30
0.0
 10
101.9351382027578
 20
196.1761557068818
 30
0.0
 10
102.282726999899
 20
196.1967290950454
 30
0.0
 10
102.6539769452033
 20
196.3265321524404
 30
0.0
 10
103.1273843780234
 20
196.6083280453747
 30
0.0
 10
103.4504161285203
 20
196.9778003439323
 30
0.0
 10
103.6526494854703
 20
197.209107709609
 30
0.0
  0
LINE
  5
1E7
330
1F
100
AcDbEntity
  8
0
  6
Continuous
 62
     7
370
     0
100
AcDbLine
 10
125.240166598
 20
193.3731057416
 30
0.0
 11
102.2401665533
 21
193.3731057416
 31
0.0
  0
SPLINE
  5
1E8
330
1F
100
AcDbEntity
  8
0
  6
Continuous
 62
     7
370
     0
100
AcDbSpline
210
0.0
220
0.0
230
1.0
 70
     8
 71
     3
 72
    70
 73
    66
 74
     0
 42
0.00000001
 43
0.00000001
 12
1.0
 22
0.0
 32
0.0
 13
1.0
 23
0.0
 33
0.0
 40
-0.03125
 40
-0.03125
 40
0.0
 40
0.0
 40
0.03125
 40
0.03125
 40
0.0625
 40
0.0625
 40
0.09375
 40
0.09375
 40
0.125
 40
0.125
 40
0.15625
 40
0.15625
 40
0.1875
 40
0.1875
 40
0.21875
 40
0.21875
 40
0.25
 40
0.25
 40
0.28125
 40
0.28125
 40
0.3125
 40
0.3125
 40
0.34375
 40
0.34375
 40
0.375
 40
0.375
 40
0.40625
 40
0.40625
 40
0.4375
 40
0.4375
 40
0.46875
 40
0.46875
 40
0.5
 40
0.5
 40
0.53125
 40
0.53125
 40
0.5625
 40
0.5625
 40
0.59375
 40
0.59375
 40
0.625
 40
0.625
 40
0.65625
 40
0.65625
 40
0.6875
 40
0.6875
 40
0.71875
 40
0.71875
 40
0.75
 40
0.75
 40
0.78125
 40
0.78125
 40
0.8125
 40
0.8125
 40
0.84375
 40
0.84375
 40
0.875
 40
0.875
 40
0.90625
 40
0.90625
 40
0.9375
 40
0.9375
 40
0.96875
 40
0.96875
 40
1.0
 40
1.0
 40
1.03125
 40
1.03125
 10
137.6781151395293
 20
216.6709151720832
 30
0.0
 10
137.6781151395293
 20
216.0752963111122
 30
0.0
 10
137.6935411612691
 20
215.7825616789978
 30
0.0
 10
137.7534299602755
 20
215.206796315031
 30
0.0
 10
137.7986290771821
 20
214.9207461264013
 30
0.0
 10
137.9147591031141
 20
214.3760389468728
 30
0.0
 10
137.985161473626
 20
214.117767887681
 30
0.0
 10
138.1483089070835
 20
213.6289808863526
 30
0.0
 10
138.2417165836455
 20
213.3979327466248
 30
0.0
 10
138.4409083379629
 20
212.983603108469
 30
0.0
 10
138.5474877426549
 20
212.7975021658312
 30
0.0
 10
138.7725973519903
 20
212.4685145792457
 30
0.0
 10
138.8890847948067
 20
212.3290168965007
 30
0.0
 10
139.1228134438883
 20
212.1044256475496
 30
0.0
 10
139.2417724623133
 20
212.0177651442945
 30
0.0
 10
139.4763807273022
 20
211.9019750533268
 30
0.0
 10
139.590192133205
 20
211.8732743368446
 30
0.0
 10
139.8105117000173
 20
211.8729386133097
 30
0.0
 10
139.9179973254319
 20
211.9022639704238
 30
0.0
 10
140.1175163270621
 20
212.017267795888
 30
0.0
 10
140.2103658971108
 20
212.1023528660933
 30
0.0
 10
140.383538894513
 20
212.3281177144461
 30
0.0
 10
140.4631943476685
 20
212.4688055984231
 30
0.0
 10
140.6051609311916
 20
212.7942472354543
 30
0.0
 10
140.6685602013502
 20
212.9806582997267
 30
0.0
 10
140.7811686983216
 20
213.3996713116068
 30
0.0
 10
140.8288892086053
 20
213.6263837403971
 30
0.0
 10
140.9102486354298
 20
214.1131789435322
 30
0.0
 10
140.9441362378479
 20
214.3764661909727
 30
0.0
 10
140.9973057760564
 20
214.9208094159359
 30
0.0
 10
141.0167792271248
 20
215.2012839906385
 30
0.0
 10
141.0429763115607
 20
215.7788798250224
 30
0.0
 10
141.0495488128496
 20
216.0774434160663
 30
0.0
 10
141.0495999951389
 20
216.6652639167282
 30
0.0
 10
141.043292097763
 20
216.9577164486328
 30
0.0
 10
141.0171368137386
 20
217.5396289693662
 30
0.0
 10
140.997459368619
 20
217.8231058567837
 30
0.0
 10
140.9446829272131
 20
218.364862572115
 30
0.0
 10
140.9111185425688
 20
218.6272100689428
 30
0.0
 10
140.8292655473026
 20
219.1181842671064
 30
0.0
 10
140.7815491098953
 20
219.3445019663893
 30
0.0
 10
140.6702978755875
 20
219.7596983168387
 30
0.0
 10
140.6060152070564
 20
219.949707954314
 30
0.0
 10
140.463867523974
 20
220.2761574907754
 30
0.0
 10
140.3856809422185
 20
220.4146676894504
 30
0.0
 10
140.2126988769705
 20
220.6414344547937
 30
0.0
 10
140.1183497668228
 20
220.7282003365572
 30
0.0
 10
139.9196273623899
 20
220.8432676634669
 30
0.0
 10
139.8140573062851
 20
220.8728608747135
 30
0.0
 10
139.5913302929251
 20
220.8733475948296
 30
0.0
 10
139.4773580227623
 20
220.8443985583685
 30
0.0
 10
139.2448549983382
 20
220.7302823835745
 30
0.0
 10
139.124977769839
 20
220.6436250763466
 30
0.0
 10
138.8899539855637
 20
220.4182671861025
 30
0.0
 10
138.7746935130038
 20
220.2802794274958
 30
0.0
 10
138.5506586355785
 20
219.9538131774113
 30
0.0
 10
138.4418981161283
 20
219.7644291232114
 30
0.0
 10
138.2426974513326
 20
219.3505546942029
 30
0.0
 10
138.1509441505569
 20
219.1244034930012
 30
0.0
 10
137.986161718155
 20
218.6321467839311
 30
0.0
 10
137.9152852287154
 20
218.3719958333602
 30
0.0
 10
137.7996516814442
 20
217.8308977843149
 30
0.0
 10
137.7543168960006
 20
217.5464780605769
 30
0.0
 10
137.6935449692024
 20
216.965129085171
 30
0.0
 10
137.6781151395293
 20
216.6709151720832
 30
0.0
 10
137.6781151395293
 20
216.0752963111122
 30
0.0
  0
LINE
  5
1E9
330
1F
100
AcDbEntity
  8
0
  6
Continuous
 62
     7
370
     0
100
AcDbLine
 10
91.3401673743
 20
216.8731049369
 30
0.0
 11
91.3401673743
 21
229.8731052052
 31
0.0
  0
LINE
  5
1EA
330
1F
100
AcDbEntity
  8
0
  6
Continuous
 62
     7
370
     0
100
AcDbLine
 10
91.3401673743
 20
216.8731049369
 30
0.0
 11
136.1401657769
 21
216.8731049369
 31
0.0
  0
LINE
  5
1EB
330
1F
100
AcDbEntity
  8
0
  6
Continuous
 62
     7
370
     0
100
AcDbLine
 10
136.1401657769
 20
229.8731052052
 30
0.0
 11
136.1401657769
 21
216.8731049369
 31
0.0
  0
LINE
  5
1EC
330
1F
100
AcDbEntity
  8
0
  6
Continuous
 62
     7
370
     0
100
AcDbLine
 10
141.7401674399
 20
229.8731052052
 30
0.0
 11
136.1401657769
 21
229.8731052052
 31
0.0
  0
SPLINE
  5
1ED
330
1F
100
AcDbEntity
  8
0
  6
Continuous
 62
     7
370
     0
100
AcDbSpline
210
0.0
220
0.0
230
1.0
 70
     8
 71
     3
 72
    30
 73
    26
 74
     0
 42
0.00000001
 43
0.00000001
 12
1.0
 22
0.0
 32
0.0
 13
1.0
 23
0.0
 33
0.0
 40
0.0
 40
0.0
 40
0.0
 40
0.0
 40
0.1250000000000004
 40
0.1250000000000004
 40
0.2500000000000009
 40
0.2500000000000009
 40
0.3750000000000012
 40
0.3750000000000012
 40
0.4375000000000014
 40
0.4375000000000014
 40
0.5000000000000016
 40
0.5000000000000016
 40
0.5625000000000018
 40
0.5625000000000018
 40
0.625000000000002
 40
0.625000000000002
 40
0.7500000000000018
 40
0.7500000000000018
 40
0.8125000000000013
 40
0.8125000000000013
 40
0.8750000000000009
 40
0.8750000000000009
 40
0.9375000000000004
 40
0.9375000000000004
 40
1.0
 40
1.0
 40
1.0
 40
1.0
 10
85.81535726560973
 20
229.8731057415977
 30
0.0
 10
85.84830560532268
 20
229.6430867157065
 30
0.0
 10
85.88826982592909
 20
229.3463635701225
 30
0.0
 10
85.96952252226004
 20
228.6197470589866
 30
0.0
 10
86.00857741453775
 20
228.2085593860125
 30
0.0
 10
86.0706025316492
 20
227.2936974174706
 30
0.0
 10
86.09193755105706
 20
226.8118105400176
 30
0.0
 10
86.10383591762022
 20
226.0593599065293
 30
0.0
 10
86.10436564765998
 20
225.8079760151351
 30
0.0
 10
86.09872759708037
 20
225.3110579182204
 30
0.0
 10
86.09257811066502
 20
225.0643875028786
 30
0.0
 10
86.07392573241823
 20
224.5747376673712
 30
0.0
 10
86.06157669009536
 20
224.3363966123979
 30
0.0
 10
86.03241137817125
 20
223.8789054060124
 30
0.0
 10
86.015547529566
 20
223.6586176828244
 30
0.0
 10
85.96003607953764
 20
223.0238251595629
 30
0.0
 10
85.91822927953618
 20
222.6543483971663
 30
0.0
 10
85.85912482472195
 20
222.1878230049853
 30
0.0
 10
85.84034610771543
 20
222.0496305547589
 30
0.0
 10
85.80663931903096
 20
221.8109726372218
 30
0.0
 10
85.79160587296386
 20
221.7097267164905
 30
0.0
 10
85.76654061830544
 20
221.5446615919766
 30
0.0
 10
85.75673067927788
 20
221.4822755973022
 30
0.0
 10
85.74358441644995
 20
221.3992575784922
 30
0.0
 10
85.7401665756121
 20
221.3781057415977
 30
0.0
 10
85.74016657561208
 20
221.3781057415977
 30
0.0
  0
LINE
  5
1EE
330
1F
100
AcDbEntity
  8
0
  6
Continuous
 62
     7
370
     0
100
AcDbLine
 10
91.3401673743
 20
229.8731052052
 30
0.0
 11
85.8153569707
 21
229.8731052052
 31
0.0
  0
SPLINE
  5
1EF
330
1F
100
AcDbEntity
  8
0
  6
Continuous
 62
     7
370
     0
100
AcDbSpline
210
0.0
220
0.0
230
1.0
 70
     8
 71
     3
 72
    70
 73
    66
 74
     0
 42
0.00000001
 43
0.00000001
 12
1.0
 22
0.0
 32
0.0
 13
1.0
 23
0.0
 33
0.0
 40
-0.03125
 40
-0.03125
 40
0.0
 40
0.0
 40
0.03125
 40
0.03125
 40
0.0625
 40
0.0625
 40
0.09375
 40
0.09375
 40
0.125
 40
0.125
 40
0.15625
 40
0.15625
 40
0.1875
 40
0.1875
 40
0.21875
 40
0.21875
 40
0.25
 40
0.25
 40
0.28125
 40
0.28125
 40
0.3125
 40
0.3125
 40
0.34375
 40
0.34375
 40
0.375
 40
0.375
 40
0.40625
 40
0.40625
 40
0.4375
 40
0.4375
 40
0.46875
 40
0.46875
 40
0.5
 40
0.5
 40
0.53125
 40
0.53125
 40
0.5625
 40
0.5625
 40
0.59375
 40
0.59375
 40
0.625
 40
0.625
 40
0.65625
 40
0.65625
 40
0.6875
 40
0.6875
 40
0.71875
 40
0.71875
 40
0.75
 40
0.75
 40
0.78125
 40
0.78125
 40
0.8125
 40
0.8125
 40
0.84375
 40
0.84375
 40
0.875
 40
0.875
 40
0.90625
 40
0.90625
 40
0.9375
 40
0.9375
 40
0.96875
 40
0.96875
 40
1.0
 40
1.0
 40
1.03125
 40
1.03125
 10
86.43075867095287
 20
216.0752963111122
 30
0.0
 10
86.43075867095288
 20
216.6709151720832
 30
0.0
 10
86.43726291037339
 20
216.9636498041976
 30
0.0
 10
86.46323200550567
 20
217.5394151681644
 30
0.0
 10
86.4830287303937
 20
217.8254653567941
 30
0.0
 10
86.53624347610646
 20
218.3701725363226
 30
0.0
 10
86.56941643973964
 20
218.6284435955145
 30
0.0
 10
86.6509124314013
 20
219.1172305968428
 30
0.0
 10
86.69965705141475
 20
219.3482787365706
 30
0.0
 10
86.81095625069563
 20
219.7626083747264
 30
0.0
 10
86.87386304325429
 20
219.9487093173643
 30
0.0
 10
87.01715603427141
 20
220.2776969039497
 30
0.0
 10
87.09634825328996
 20
220.4171945866946
 30
0.0
 10
87.26813681920264
 20
220.6417858356458
 30
0.0
 10
87.36202120413296
 20
220.7284463389009
 30
0.0
 10
87.56276996133927
 20
220.8442364298686
 30
0.0
 10
87.66794652278257
 20
220.8729371463508
 30
0.0
 10
87.88816603614762
 20
220.8732728698857
 30
0.0
 10
88.00447065748251
 20
220.8439475127716
 30
0.0
 10
88.23762002037839
 20
220.7289436873074
 30
0.0
 10
88.35510666392825
 20
220.6438586171022
 30
0.0
 10
88.59056517957272
 20
220.4180937687493
 30
0.0
 10
88.70780958641305
 20
220.2774058847723
 30
0.0
 10
88.93074243058251
 20
219.9519642477411
 30
0.0
 10
89.0379751014326
 20
219.7655531834687
 30
0.0
 10
89.23948627196852
 20
219.3465401715885
 30
0.0
 10
89.33100048674417
 20
219.1198277427983
 30
0.0
 10
89.4937945619251
 20
218.6330325396632
 30
0.0
 10
89.56567440996058
 20
218.3697452922227
 30
0.0
 10
89.68170828421293
 20
217.8254020672595
 30
0.0
 10
89.72616687235463
 20
217.5449274925569
 30
0.0
 10
89.78656939392339
 20
216.967331658173
 30
0.0
 10
89.80215768812822
 20
216.6687680671291
 30
0.0
 10
89.80227797672919
 20
216.0809475664672
 30
0.0
 10
89.78730737357849
 20
215.7884950345626
 30
0.0
 10
89.72698173684523
 20
215.2065825138292
 30
0.0
 10
89.68206176536533
 20
214.9231056264117
 30
0.0
 10
89.56684942134785
 20
214.3813489110804
 30
0.0
 10
89.4955772906594
 20
214.1190014142526
 30
0.0
 10
89.33171203809914
 20
213.628027216089
 30
0.0
 10
89.24024472089603
 20
213.4017095168061
 30
0.0
 10
89.04100839958039
 20
212.9865131663567
 30
0.0
 10
88.93213927028584
 20
212.7965035288815
 30
0.0
 10
88.70881192563459
 20
212.47005399242
 30
0.0
 10
88.593630639388
 20
212.331543793745
 30
0.0
 10
88.35812968033073
 20
212.1047770284017
 30
0.0
 10
88.23866817519439
 20
212.0180111466382
 30
0.0
 10
88.00630213049232
 20
211.9029438197285
 30
0.0
 10
87.89183442657824
 20
211.8733506084819
 30
0.0
 10
87.66896235929048
 20
211.8728638883658
 30
0.0
 10
87.56369613143767
 20
211.9018129248269
 30
0.0
 10
87.36457049230307
 20
212.0159290996208
 30
0.0
 10
87.26978318719802
 20
212.1025864068488
 30
0.0
 10
87.0969322072693
 20
212.3279442970929
 30
0.0
 10
87.01856849745214
 20
212.4659320556996
 30
0.0
 10
86.87580512659262
 20
212.7923983057841
 30
0.0
 10
86.81153176651976
 20
212.981782359984
 30
0.0
 10
86.70018286315376
 20
213.3956567889925
 30
0.0
 10
86.65225975216698
 20
213.6218079901942
 30
0.0
 10
86.5698858063929
 20
214.1140646992643
 30
0.0
 10
86.53649309096299
 20
214.3742156498352
 30
0.0
 10
86.4834889099055
 20
214.9153136988805
 30
0.0
 10
86.46361906114485
 20
215.1997334226185
 30
0.0
 10
86.43726213650268
 20
215.7810823980244
 30
0.0
 10
86.43075867095287
 20
216.0752963111122
 30
0.0
 10
86.43075867095288
 20
216.6709151720832
 30
0.0
  0
SPLINE
  5
1F0
330
1F
100
AcDbEntity
  8
0
  6
Continuous
 62
     7
370
     0
100
AcDbSpline
210
0.0
220
0.0
230
1.0
 70
     8
 71
     3
 72
    26
 73
    22
 74
     0
 42
0.00000001
 43
0.00000001
 12
1.0
 22
0.0
 32
0.0
 13
1.0
 23
0.0
 33
0.0
 40
0.0
 40
0.0
 40
0.0
 40
0.0
 40
0.0150538901330794
 40
0.0690843537272421
 40
0.1213018848745204
 40
0.1750103154382173
 40
0.2276652324336422
 40
0.2818182813147702
 40
0.3349598949323943
 40
0.3896533404219832
 40
0.4425697582913931
 40
0.4970564052804701
 40
0.5493732845194297
 40
0.603211635830572
 40
0.6554951524600268
 40
0.7092627658535829
 40
0.7621239682912667
 40
0.8164992439501114
 40
0.8696554593432164
 40
0.924377453662074
 40
1.0
 40
1.0
 40
1.0
 40
1.0
 10
141.7381557831183
 20
210.8856470058933
 30
0.0
 10
141.7387393808985
 20
210.882004618397
 30
0.0
 10
141.7414175906585
 20
210.8652892057045
 30
0.0
 10
141.725804592556
 20
210.9623631276021
 30
0.0
 10
141.6923261495768
 20
211.1782309384035
 30
0.0
 10
141.6430255974539
 20
211.5168878338265
 30
0.0
 10
141.5841766201252
 20
211.9644576524338
 30
0.0
 10
141.5224257694663
 20
212.506392408801
 30
0.0
 10
141.4639151567263
 20
213.1365958773457
 30
0.0
 10
141.4163343346722
 20
213.8265215923475
 30
0.0
 10
141.3845492810504
 20
214.5669513399611
 30
0.0
 10
141.3727629878707
 20
215.3202319294656
 30
0.0
 10
141.3818534320883
 20
216.0789095728163
 30
0.0
 10
141.410329756576
 20
216.8074968026142
 30
0.0
 10
141.4554029614789
 20
217.5016320799561
 30
0.0
 10
141.5114817994954
 20
218.1323865150358
 30
0.0
 10
141.5733420445012
 20
218.6932394562376
 30
0.0
 10
141.6334082937678
 20
219.1596823367241
 30
0.0
 10
141.6851339866122
 20
219.5207071549156
 30
0.0
 10
141.7294203159418
 20
219.8072153170376
 30
0.0
 10
141.7362215430382
 20
219.8489133206376
 30
0.0
 10
141.7401674398794
 20
219.8731054286733
 30
0.0
  0
LINE
  5
1F1
330
1F
100
AcDbEntity
  8
0
  6
Continuous
 62
     7
370
     0
100
AcDbLine
 10
85.7401657113
 20
205.8731059279
 30
0.0
 11
141.7401674399
 21
205.8731059279
 31
0.0
  0
LINE
  5
1F2
330
1F
100
AcDbEntity
  8
0
  6
Continuous
 62
     7
370
     0
100
AcDbLine
 10
141.2401664266
 20
205.3731058459
 30
0.0
 11
86.2401667246
 21
205.3731058459
 31
0.0
  0
LINE
  5
1F3
330
1F
100
AcDbEntity
  8
0
  6
Continuous
 62
     7
370
     0
100
AcDbLine
 10
117.3541982853
 20
216.8731049369
 30
0.0
 11
117.3541982853
 21
229.8731052052
 31
0.0
  0
LINE
  5
1F4
330
1F
100
AcDbEntity
  8
0
  6
Continuous
 62
     7
370
     0
100
AcDbLine
 10
110.1261348659
 20
229.8731052052
 30
0.0
 11
110.1261348659
 21
216.8731049369
 31
0.0
  0
LINE
  5
1F5
330
1F
100
AcDbEntity
  8
0
  6
Continuous
 62
     7
370
     0
100
AcDbLine
 10
117.3541982853
 20
229.8731052052
 30
0.0
 11
110.1261348659
 21
229.8731052052
 31
0.0
  0
LINE
  5
1F6
330
1F
100
AcDbEntity
  8
0
  6
Continuous
 62
     7
370
     0
100
AcDbLine
 10
107.4156113164
 20
216.8731049369
 30
0.0
 11
107.4156113164
 21
229.8731052052
 31
0.0
  0
LINE
  5
1F7
330
1F
100
AcDbEntity
  8
0
  6
Continuous
 62
     7
370
     0
100
AcDbLine
 10
107.4156113164
 20
229.8731052052
 30
0.0
 11
110.1261348659
 21
229.8731052052
 31
0.0
  0
LINE
  5
1F8
330
1F
100
AcDbEntity
  8
0
  6
Continuous
 62
     7
370
     0
100
AcDbLine
 10
120.0647218348
 20
229.8731052052
 30
0.0
 11
120.0647218348
 21
216.8731049369
 31
0.0
  0
LINE
  5
1F9
330
1F
100
AcDbEntity
  8
0
  6
Continuous
 62
     7
370
     0
100
AcDbLine
 10
117.3541982853
 20
229.8731052052
 30
0.0
 11
120.0647218348
 21
229.8731052052
 31
0.0
  0
LINE
  5
1FA
330
1F
100
AcDbEntity
  8
0
  6
Continuous
 62
     7
370
     0
100
AcDbLine
 10
97.7401658157
 20
229.8731052052
 30
0.0
 11
97.7401658157
 21
216.8731049369
 31
0.0
  0
LINE
  5
1FB
330
1F
100
AcDbEntity
  8
0
  6
Continuous
 62
     7
370
     0
100
AcDbLine
 10
107.4156113164
 20
229.8731052052
 30
0.0
 11
97.7401658157
 21
229.8731052052
 31
0.0
  0
LINE
  5
1FC
330
1F
100
AcDbEntity
  8
0
  6
Continuous
 62
     7
370
     0
100
AcDbLine
 10
91.3401673743
 20
229.8731052052
 30
0.0
 11
97.7401658157
 21
229.8731052052
 31
0.0
  0
LINE
  5
1FD
330
1F
100
AcDbEntity
  8
0
  6
Continuous
 62
     7
370
     0
100
AcDbLine
 10
129.7401673356
 20
216.8731049369
 30
0.0
 11
129.7401673356
 21
229.8731052052
 31
0.0
  0
LINE
  5
1FE
330
1F
100
AcDbEntity
  8
0
  6
Continuous
 62
     7
370
     0
100
AcDbLine
 10
129.7401673356
 20
229.8731052052
 30
0.0
 11
120.0647218348
 21
229.8731052052
 31
0.0
  0
LINE
  5
1FF
330
1F
100
AcDbEntity
  8
0
  6
Continuous
 62
     7
370
     0
100
AcDbLine
 10
129.7401673356
 20
229.8731052052
 30
0.0
 11
136.1401657769
 21
229.8731052052
 31
0.0
  0
LWPOLYLINE
  5
200
330
1F
100
AcDbEntity
  8
0
  6
Continuous
 62
     7
370
     0
100
AcDbPolyline
 90
       11
 70
   128
 43
0.0
 10
140.9234515587
 20
216.3731057863
 10
140.9016232201
 20
215.6512544225
 10
140.8366988608
 20
214.9481002908
 10
140.7303623119
 20
214.2818507473
 10
140.5853665629
 20
213.6697650622
 10
140.4054685691
 20
213.1276943456
 10
140.195326806
 20
212.6696792166
 10
139.9603820601
 20
212.3075791369
 10
139.7067214558
 20
212.0507743876
 10
139.4409145424
 20
211.9059164743
 10
139.4115611175
 20
211.8970968495
  0
LWPOLYLINE
  5
201
330
1F
100
AcDbEntity
  8
0
  6
Continuous
 62
     7
370
     0
100
AcDbPolyline
 90
       11
 70
   128
 43
0.0
 10
139.4280604282
 20
220.844327725
 10
139.4409145424
 20
220.8402950983
 10
139.7067214558
 20
220.695437185
 10
139.9603820601
 20
220.4386324357
 10
140.195326806
 20
220.076532356
 10
140.4054685691
 20
219.618517227
 10
140.5853665629
 20
219.0764465104
 10
140.7303623119
 20
218.4643608253
 10
140.8366988608
 20
217.7981112818
 10
140.9016232201
 20
217.0949571501
 10
140.9234515587
 20
216.3731057863
  0
LWPOLYLINE
  5
202
330
1F
100
AcDbEntity
  8
0
  6
Continuous
 62
     7
370
     0
100
AcDbPolyline
 90
       11
 70
   128
 43
0.0
 10
86.5568815926
 20
216.3731057863
 10
86.5787099311
 20
215.6512544225
 10
86.6436342904
 20
214.9481002908
 10
86.7499708393
 20
214.2818507473
 10
86.8949665883
 20
213.6697650622
 10
87.0748645821
 20
213.1276943456
 10
87.2850063452
 20
212.6696792166
 10
87.5199510911
 20
212.3075791369
 10
87.7736116955
 20
212.0507743876
 10
88.0394186088
 20
211.9059164743
 10
88.0853719273
 20
211.8927252214
  0
LWPOLYLINE
  5
203
330
1F
100
AcDbEntity
  8
0
  6
Continuous
 62
     7
370
     0
100
AcDbPolyline
 90
       11
 70
   128
 43
0.0
 10
88.0414954582
 20
220.8409656505
 10
88.0394186088
 20
220.8402950983
 10
87.7736116955
 20
220.695437185
 10
87.5199510911
 20
220.4386324357
 10
87.2850063452
 20
220.076532356
 10
87.0748645821
 20
219.618517227
 10
86.8949665883
 20
219.0764465104
 10
86.7499708393
 20
218.4643608253
 10
86.6436342904
 20
217.7981112818
 10
86.5787099311
 20
217.0949571501
 10
86.5568815926
 20
216.3731057863
  0
LWPOLYLINE
  5
204
330
1F
100
AcDbEntity
  8
0
  6
Continuous
 62
     7
370
     0
100
AcDbPolyline
 90
       27
 70
   128
 43
0.0
 10
87.4559375653
 20
216.3731057863
 10
87.4787959465
 20
215.8705436359
 10
87.546044887
 20
215.3971877615
 10
87.6537765571
 20
214.9805475693
 10
87.795728744
 20
214.6448393087
 10
87.9636517921
 20
214.4095723252
 10
88.1477873036
 20
214.2884165715
 10
88.3374343821
 20
214.2884165715
 10
88.5215698937
 20
214.4095723252
 10
88.6894929418
 20
214.6448393087
 10
88.8314451286
 20
214.9805475693
 10
88.9391749361
 20
215.3971877615
 10
89.0064257392
 20
215.8705436359
 10
89.0292841205
 20
216.3731057863
 10
89.0064257392
 20
216.8756679367
 10
88.9391749361
 20
217.3490238111
 10
88.8314451286
 20
217.7656640033
 10
88.6894929418
 20
218.1013722639
 10
88.5215698937
 20
218.3366392474
 10
88.3374343821
 20
218.4577950011
 10
88.1477873036
 20
218.4577950011
 10
87.9636517921
 20
218.3366392474
 10
87.795728744
 20
218.1013722639
 10
87.6537765571
 20
217.7656640033
 10
87.546044887
 20
217.3490238111
 10
87.4787959465
 20
216.8756679367
 10
87.4559375653
 20
216.3731057863
  0
LWPOLYLINE
  5
205
330
1F
100
AcDbEntity
  8
0
  6
Continuous
 62
     7
370
     0
100
AcDbPolyline
 90
       27
 70
   128
 43
0.0
 10
138.4510490307
 20
216.3731057863
 10
138.473907412
 20
215.8705436359
 10
138.5411582151
 20
215.3971877615
 10
138.6488880226
 20
214.9805475693
 10
138.7908402094
 20
214.6448393087
 10
138.9587632576
 20
214.4095723252
 10
139.1428987691
 20
214.2884165715
 10
139.3325458476
 20
214.2884165715
 10
139.5166813591
 20
214.4095723252
 10
139.6846044073
 20
214.6448393087
 10
139.8265565941
 20
214.9805475693
 10
139.9342882642
 20
215.3971877615
 10
140.0015372047
 20
215.8705436359
 10
140.024395586
 20
216.3731057863
 10
140.0015372047
 20
216.8756679367
 10
139.9342882642
 20
217.3490238111
 10
139.8265565941
 20
217.7656640033
 10
139.6846044073
 20
218.1013722639
 10
139.5166813591
 20
218.3366392474
 10
139.3325458476
 20
218.4577950011
 10
139.1428987691
 20
218.4577950011
 10
138.9587632576
 20
218.3366392474
 10
138.7908402094
 20
218.1013722639
 10
138.6488880226
 20
217.7656640033
 10
138.5411582151
 20
217.3490238111
 10
138.473907412
 20
216.8756679367
 10
138.4510490307
 20
216.3731057863
  0
LINE
  5
206
330
1F
100
AcDbEntity
  8
0
  6
Continuous
 62
     7
370
     0
100
AcDbLine
 10
106.1903321379
 20
229.8731052052
 30
0.0
 11
106.1903321379
 21
232.8731075595
 31
0.0
  0
LINE
  5
207
330
1F
100
AcDbEntity
  8
0
  6
Continuous
 62
     7
370
     0
100
AcDbLine
 10
97.7401658157
 20
232.8731075595
 30
0.0
 11
97.7401658157
 21
229.8731052052
 31
0.0
  0
LINE
  5
208
330
1F
100
AcDbEntity
  8
0
  6
Continuous
 62
     7
370
     0
100
AcDbLine
 10
106.1903321379
 20
229.8731052052
 30
0.0
 11
97.7401658157
 21
229.8731052052
 31
0.0
  0
LINE
  5
209
330
1F
100
AcDbEntity
  8
0
  6
Continuous
 62
     7
370
     0
100
AcDbLine
 10
106.1903321379
 20
232.8731075595
 30
0.0
 11
97.7401658157
 21
232.8731075595
 31
0.0
  0
LINE
  5
20A
330
1F
100
AcDbEntity
  8
0
  6
Continuous
 62
     7
370
     0
100
AcDbLine
 10
91.3401673743
 20
229.8731052052
 30
0.0
 11
91.3401673743
 21
232.3731065463
 31
0.0
  0
SPLINE
  5
20B
330
1F
100
AcDbEntity
  8
0
  6
Continuous
 62
     7
370
     0
100
AcDbSpline
210
0.0
220
0.0
230
1.0
 70
     8
 71
     3
 72
    12
 73
     8
 74
     0
 42
0.00000001
 43
0.00000001
 12
1.0
 22
0.0
 32
0.0
 13
1.0
 23
0.0
 33
0.0
 40
0.0
 40
0.0
 40
0.0
 40
0.0
 40
0.4999999999999984
 40
0.4999999999999984
 40
0.7499999999999992
 40
0.7499999999999992
 40
1.0
 40
1.0
 40
1.0
 40
1.0
 10
93.85034839260615
 20
232.8731057415977
 30
0.0
 10
93.37180124053604
 20
232.7108725121019
 30
0.0
 10
92.92038346800256
 20
232.5869722059186
 30
0.0
 10
92.28693475604771
 20
232.4599038936082
 30
0.0
 10
92.08205860252019
 20
232.4273430184311
 30
0.0
 10
91.69443117676961
 20
232.3840111064445
 30
0.0
 10
91.51167532533292
 20
232.3731057415977
 30
0.0
 10
91.34016657561304
 20
232.3731057415977
 30
0.0
  0
LINE
  5
20C
330
1F
100
AcDbEntity
  8
0
  6
Continuous
 62
     7
370
     0
100
AcDbLine
 10
93.8503480712
 20
232.8731075595
 30
0.0
 11
97.7401658157
 21
232.8731075595
 31
0.0
  0
LINE
  5
20D
330
1F
100
AcDbEntity
  8
0
  6
Continuous
 62
     7
370
     0
100
AcDbLine
 10
111.6811208622
 20
232.8731075595
 30
0.0
 11
111.6811208622
 21
229.8731052052
 31
0.0
  0
LINE
  5
20E
330
1F
100
AcDbEntity
  8
0
  6
Continuous
 62
     7
370
     0
100
AcDbLine
 10
106.1903321379
 20
232.8731075595
 30
0.0
 11
111.6811208622
 21
232.8731075595
 31
0.0
  0
LINE
  5
20F
330
1F
100
AcDbEntity
  8
0
  6
Continuous
 62
     7
370
     0
100
AcDbLine
 10
129.7401673356
 20
229.8731052052
 30
0.0
 11
129.7401673356
 21
232.8731075595
 31
0.0
  0
LINE
  5
210
330
1F
100
AcDbEntity
  8
0
  6
Continuous
 62
     7
370
     0
100
AcDbLine
 10
121.2900010133
 20
232.8731075595
 30
0.0
 11
121.2900010133
 21
229.8731052052
 31
0.0
  0
LINE
  5
211
330
1F
100
AcDbEntity
  8
0
  6
Continuous
 62
     7
370
     0
100
AcDbLine
 10
129.7401673356
 20
229.8731052052
 30
0.0
 11
121.2900010133
 21
229.8731052052
 31
0.0
  0
LINE
  5
212
330
1F
100
AcDbEntity
  8
0
  6
Continuous
 62
     7
370
     0
100
AcDbLine
 10
129.7401673356
 20
232.8731075595
 30
0.0
 11
121.2900010133
 21
232.8731075595
 31
0.0
  0
LINE
  5
213
330
1F
100
AcDbEntity
  8
0
  6
Continuous
 62
     7
370
     0
100
AcDbLine
 10
115.799212289
 20
229.8731052052
 30
0.0
 11
115.799212289
 21
232.8731075595
 31
0.0
  0
LINE
  5
214
330
1F
100
AcDbEntity
  8
0
  6
Continuous
 62
     7
370
     0
100
AcDbLine
 10
115.799212289
 20
232.8731075595
 30
0.0
 11
121.2900010133
 21
232.8731075595
 31
0.0
  0
SPLINE
  5
215
330
1F
100
AcDbEntity
  8
0
  6
Continuous
 62
     7
370
     0
100
AcDbSpline
210
0.0
220
0.0
230
1.0
 70
     8
 71
     3
 72
    12
 73
     8
 74
     0
 42
0.00000001
 43
0.00000001
 12
1.0
 22
0.0
 32
0.0
 13
1.0
 23
0.0
 33
0.0
 40
0.0
 40
0.0
 40
0.0
 40
0.0
 40
0.5000000000000004
 40
0.5000000000000004
 40
0.7500000000000002
 40
0.7500000000000002
 40
1.0
 40
1.0
 40
1.0
 40
1.0
 10
136.1401665756131
 20
232.3731057415977
 30
0.0
 10
135.7970164580052
 20
232.3731057415977
 30
0.0
 10
135.4132035220315
 20
232.4163078345435
 30
0.0
 10
134.7805716985155
 20
232.5424758149182
 30
0.0
 10
134.558897676252
 20
232.5952282297115
 30
0.0
 10
134.1032137171712
 20
232.7200404621202
 30
0.0
 10
133.8694197496148
 20
232.7919344052407
 30
0.0
 10
133.6299847586202
 20
232.8731057415977
 30
0.0
  0
LINE
  5
216
330
1F
100
AcDbEntity
  8
0
  6
Continuous
 62
     7
370
     0
100
AcDbLine
 10
136.1401657769
 20
232.3731065463
 30
0.0
 11
136.1401657769
 21
229.8731052052
 31
0.0
  0
LINE
  5
217
330
1F
100
AcDbEntity
  8
0
  6
Continuous
 62
     7
370
     0
100
AcDbLine
 10
129.7401673356
 20
232.8731075595
 30
0.0
 11
133.6299850801
 21
232.8731075595
 31
0.0
  0
LINE
  5
218
330
1F
100
AcDbEntity
  8
0
  6
Continuous
 62
     7
370
     0
100
AcDbLine
 10
91.3401673743
 20
232.3731065463
 30
0.0
 11
85.7401657113
 21
232.3731065463
 31
0.0
  0
LINE
  5
219
330
1F
100
AcDbEntity
  8
0
  6
Continuous
 62
     7
370
     0
100
AcDbLine
 10
141.7401674399
 20
232.3731065463
 30
0.0
 11
136.1401657769
 21
232.3731065463
 31
0.0
  0
LINE
  5
21A
330
1F
100
AcDbEntity
  8
0
  6
Continuous
 62
     7
370
     0
100
AcDbLine
 10
86.2401667246
 20
232.8731075595
 30
0.0
 11
93.8503480712
 21
232.8731075595
 31
0.0
  0
LINE
  5
21B
330
1F
100
AcDbEntity
  8
0
  6
Continuous
 62
     7
370
     0
100
AcDbLine
 10
133.6299850801
 20
232.8731075595
 30
0.0
 11
141.2401664266
 21
232.8731075595
 31
0.0
  0
LINE
  5
21C
330
1F
100
AcDbEntity
  8
0
  6
Continuous
 62
     7
370
     0
100
AcDbLine
 10
115.799212289
 20
232.8731075595
 30
0.0
 11
111.6811208622
 21
232.8731075595
 31
0.0
  0
LINE
  5
21D
330
1F
100
AcDbEntity
  8
0
  6
Continuous
 62
     7
370
     0
100
AcDbLine
 10
85.7401657113
 20
229.8731052052
 30
0.0
 11
91.3401673743
 21
229.8731052052
 31
0.0
  0
LINE
  5
21E
330
1F
100
AcDbEntity
  8
0
  6
Continuous
 62
     7
370
     0
100
AcDbLine
 10
101.7401664713
 20
235.8731061886
 30
0.0
 11
125.7401666799
 21
235.8731061886
 31
0.0
  0
LINE
  5
21F
330
1F
100
AcDbEntity
  8
0
  6
Continuous
 62
     7
370
     0
100
AcDbLine
 10
126.2401667619
 20
235.3731051754
 30
0.0
 11
101.2401663893
 21
235.3731051754
 31
0.0
  0
LINE
  5
220
330
1F
100
AcDbEntity
  8
0
  6
Continuous
 62
     7
370
     0
100
AcDbLine
 10
111.2401666315
 20
203.3731055181
 30
0.0
 11
116.2401665197
 21
203.3731055181
 31
0.0
  0
SPLINE
  5
221
330
1F
100
AcDbEntity
  8
0
  6
Continuous
 62
     7
370
     0
100
AcDbSpline
210
0.0
220
0.0
230
1.0
 70
    24
 71
     3
 72
    13
 73
     9
 74
     0
 42
0.00000001
 43
0.00000001
 12
1.0
 22
0.0
 32
0.0
 13
1.0
 23
0.0
 33
0.0
 40
0.0
 40
0.0
 40
0.0
 40
0.0
 40
0.0212479917595485
 40
0.0713012419594331
 40
0.1555048830022665
 40
0.3930811671424316
 40
0.6953720728355768
 40
1.0
 40
1.0
 40
1.0
 40
1.0
 10
115.2401665886506
 20
199.6468932102695
 30
0.0
 10
115.2401665886506
 20
199.6455205500572
 30
0.0
 10
115.2401665886506
 20
199.6409143557855
 30
0.0
 10
115.2401665886506
 20
199.6939873119687
 30
0.0
 10
115.2401665886506
 20
199.8986650387498
 30
0.0
 10
115.2401665886506
 20
200.3930289574877
 30
0.0
 10
115.2401665886506
 20
201.0903311640113
 30
0.0
 10
115.2401665886506
 20
201.6115122314154
 30
0.0
 10
115.2401665886506
 20
201.8731062035337
 30
0.0
  0
LWPOLYLINE
  5
222
330
1F
100
AcDbEntity
  8
0
  6
Continuous
 62
     7
370
     0
100
AcDbPolyline
 90
        7
 70
   128
 43
0.0
 10
115.2401665887
 20
201.8731062035
 10
115.4952252246
 20
202.1281647231
 10
115.7098104441
 20
202.3427498262
 10
115.8770589819
 20
202.5099976654
 10
115.9916212046
 20
202.6245605867
 10
116.0498335221
 20
202.6827729042
 10
116.0571539504
 20
202.6900930996
  0
SPLINE
  5
223
330
1F
100
AcDbEntity
  8
0
  6
Continuous
 62
     7
370
     0
100
AcDbSpline
210
0.0
220
0.0
230
1.0
 70
    24
 71
     3
 72
    13
 73
     9
 74
     0
 42
0.00000001
 43
0.00000001
 12
1.0
 22
0.0
 32
0.0
 13
1.0
 23
0.0
 33
0.0
 40
0.0
 40
0.0
 40
0.0
 40
0.0
 40
0.3027946709419582
 40
0.6069183042147647
 40
0.8444949078639865
 40
0.9286986621497137
 40
0.9787519796646791
 40
1.0
 40
1.0
 40
1.0
 40
1.0
 10
112.2401665625736
 20
201.8731062035337
 30
0.0
 10
112.2401665625736
 20
201.6130876750414
 30
0.0
 10
112.2401665625736
 20
201.0919093997236
 30
0.0
 10
112.2401665625736
 20
200.3944737305398
 30
0.0
 10
112.2401665625736
 20
199.8986655610662
 30
0.0
 10
112.2401665625736
 20
199.6939872672633
 30
0.0
 10
112.2401665625736
 20
199.6409143589261
 30
0.0
 10
112.2401665625736
 20
199.6455205507782
 30
0.0
 10
112.2401665625736
 20
199.6468932102695
 30
0.0
  0
LWPOLYLINE
  5
224
330
1F
100
AcDbEntity
  8
0
  6
Continuous
 62
     7
370
     0
100
AcDbPolyline
 90
        7
 70
   128
 43
0.0
 10
111.4231792008
 20
202.6900930996
 10
111.4304996291
 20
202.6827729042
 10
111.4887119466
 20
202.6245605867
 10
111.6032741693
 20
202.5099976654
 10
111.7705227071
 20
202.3427498262
 10
111.9851079266
 20
202.1281647231
 10
112.2401665626
 20
201.8731062035
  0
LINE
  5
225
330
1F
100
AcDbEntity
  8
0
  6
Continuous
 62
     7
370
     0
100
AcDbLine
 10
113.8261628285
 20
198.3731056298
 30
0.0
 11
113.6541703227
 21
198.3731056298
 31
0.0
  0
LINE
  5
226
330
1F
100
AcDbEntity
  8
0
  6
Continuous
 62
     7
370
     0
100
AcDbLine
 10
147.9901652047
 20
228.4731075834
 30
0.0
 11
157.4901658306
 21
228.4731075834
 31
0.0
  0
LINE
  5
227
330
1F
100
AcDbEntity
  8
0
  6
Continuous
 62
     7
370
     0
100
AcDbLine
 10
147.9901652047
 20
229.4731058846
 30
0.0
 11
157.4901658306
 21
229.4731058846
 31
0.0
  0
LINE
  5
228
330
1F
100
AcDbEntity
  8
0
  6
Continuous
 62
     7
370
     0
100
AcDbLine
 10
147.9901652047
 20
220.4731062721
 30
0.0
 11
157.4901658306
 21
220.4731062721
 31
0.0
  0
LINE
  5
229
330
1F
100
AcDbEntity
  8
0
  6
Continuous
 62
     7
370
     0
100
AcDbLine
 10
147.9901652047
 20
226.4731072556
 30
0.0
 11
157.4901658306
 21
226.4731072556
 31
0.0
  0
LINE
  5
22A
330
1F
100
AcDbEntity
  8
0
  6
Continuous
 62
     7
370
     0
100
AcDbLine
 10
151.7401653537
 20
211.3731049667
 30
0.0
 11
151.7401653537
 21
216.3731057863
 31
0.0
  0
SPLINE
  5
22B
330
1F
100
AcDbEntity
  8
0
  6
Continuous
 62
     7
370
     0
100
AcDbSpline
210
0.0
220
0.0
230
1.0
 70
     8
 71
     3
 72
    24
 73
    20
 74
     0
 42
0.00000001
 43
0.00000001
 12
1.0
 22
0.0
 32
0.0
 13
1.0
 23
0.0
 33
0.0
 40
0.0
 40
0.0
 40
0.0
 40
0.0
 40
0.0624999999999997
 40
0.0624999999999997
 40
0.1249999999999994
 40
0.1249999999999994
 40
0.2499999999999995
 40
0.2499999999999995
 40
0.3749999999999996
 40
0.3749999999999996
 40
0.4999999999999996
 40
0.4999999999999996
 40
0.6249999999999997
 40
0.6249999999999997
 40
0.7499999999999998
 40
0.7499999999999998
 40
0.8749999999999999
 40
0.8749999999999999
 40
1.0
 40
1.0
 40
1.0
 40
1.0
 10
156.7401665756121
 20
215.3731057415977
 30
0.0
 10
156.7401665756122
 20
215.3969497128384
 30
0.0
 10
156.7314583823311
 20
215.4211843078543
 30
0.0
 10
156.6971047990121
 20
215.4689298784168
 30
0.0
 10
156.6715060626488
 20
215.492663816396
 30
0.0
 10
156.5696135804392
 20
215.563785372394
 30
0.0
 10
156.4664978839945
 20
215.6116578711794
 30
0.0
 10
156.2006065357646
 20
215.7048969231773
 30
0.0
 10
156.0382849696118
 20
215.7505262034309
 30
0.0
 10
155.6534650497874
 20
215.8415181549423
 30
0.0
 10
155.4354429451613
 20
215.8857367285424
 30
0.0
 10
154.9580455802701
 20
215.9716623402199
 30
0.0
 10
154.6937905270372
 20
216.0141283697545
 30
0.0
 10
154.1427295099047
 20
216.0949936922075
 30
0.0
 10
153.8550861772157
 20
216.1336509665122
 30
0.0
 10
153.2550589295731
 20
216.2088296724917
 30
0.0
 10
152.9503326814936
 20
216.2443649743562
 30
0.0
 10
152.3431303580043
 20
216.311473001984
 30
0.0
 10
152.0352084054841
 20
216.3436015586106
 30
0.0
 10
151.7401665756123
 20
216.3731057415978
 30
0.0
  0
LWPOLYLINE
  5
22C
330
1F
100
AcDbEntity
  8
0
  6
Continuous
 62
     7
370
     0
100
AcDbPolyline
 90
       10
 70
   128
 43
0.0
 10
151.7401653537
 20
216.3731057863
 10
151.185670794
 20
216.9276003461
 10
150.6644579777
 20
217.4488131623
 10
150.1876916
 20
217.92557954
 10
149.765575231
 20
218.347695909
 10
149.4071501502
 20
218.7061209898
 10
149.1200904557
 20
218.9931806843
 10
148.9105428764
 20
219.2027319889
 10
148.7829889366
 20
219.3302822034
 10
148.7401667246
 20
219.373106278
  0
LINE
  5
22D
330
1F
100
AcDbEntity
  8
0
  6
Continuous
 62
     7
370
     0
100
AcDbLine
 10
146.7401663968
 20
217.4359497349
 30
0.0
 11
146.7401663968
 21
219.3724413137
 31
0.0
  0
LINE
  5
22E
330
1F
100
AcDbEntity
  8
0
  6
Continuous
 62
     7
370
     0
100
AcDbLine
 10
146.7401663968
 20
211.3737717937
 30
0.0
 11
146.7401663968
 21
213.3102633725
 31
0.0
  0
LINE
  5
22F
330
1F
100
AcDbEntity
  8
0
  6
Continuous
 62
     7
370
     0
100
AcDbLine
 10
146.7401663968
 20
213.4366140436
 30
0.0
 11
146.7401663968
 21
217.3095972012
 31
0.0
  0
LINE
  5
230
330
1F
100
AcDbEntity
  8
0
  6
Continuous
 62
     7
370
     0
100
AcDbLine
 10
141.7401674399
 20
217.3938316028
 30
0.0
 11
146.7401663968
 21
217.3938316028
 31
0.0
  0
LINE
  5
231
330
1F
100
AcDbEntity
  8
0
  6
Continuous
 62
     7
370
     0
100
AcDbLine
 10
141.7401674399
 20
218.4041955243
 30
0.0
 11
141.7401674399
 21
219.4145575832
 31
0.0
  0
LINE
  5
232
330
1F
100
AcDbEntity
  8
0
  6
Continuous
 62
     7
370
     0
100
AcDbLine
 10
141.7401674399
 20
219.4145575832
 30
0.0
 11
146.7401663968
 21
219.4145575832
 31
0.0
  0
LINE
  5
233
330
1F
100
AcDbEntity
  8
0
  6
Continuous
 62
     7
370
     0
100
AcDbLine
 10
146.7401663968
 20
219.3724413137
 30
0.0
 11
146.7401663968
 21
219.4145575832
 31
0.0
  0
LINE
  5
234
330
1F
100
AcDbEntity
  8
0
  6
Continuous
 62
     7
370
     0
100
AcDbLine
 10
146.7401663968
 20
217.3938316028
 30
0.0
 11
146.7401663968
 21
217.4359497349
 31
0.0
  0
LINE
  5
235
330
1F
100
AcDbEntity
  8
0
  6
Continuous
 62
     7
370
     0
100
AcDbLine
 10
141.7401674399
 20
217.3938316028
 30
0.0
 11
141.7401674399
 21
218.4041955243
 31
0.0
  0
LINE
  5
236
330
1F
100
AcDbEntity
  8
0
  6
Continuous
 62
     7
370
     0
100
AcDbLine
 10
141.7401674399
 20
213.352379642
 30
0.0
 11
146.7401663968
 21
213.352379642
 31
0.0
  0
LINE
  5
237
330
1F
100
AcDbEntity
  8
0
  6
Continuous
 62
     7
370
     0
100
AcDbLine
 10
146.7401663968
 20
217.3095972012
 30
0.0
 11
146.7401663968
 21
217.3938316028
 31
0.0
  0
LINE
  5
238
330
1F
100
AcDbEntity
  8
0
  6
Continuous
 62
     7
370
     0
100
AcDbLine
 10
146.7401663968
 20
213.352379642
 30
0.0
 11
146.7401663968
 21
213.4366140436
 31
0.0
  0
LINE
  5
239
330
1F
100
AcDbEntity
  8
0
  6
Continuous
 62
     7
370
     0
100
AcDbLine
 10
141.7401674399
 20
213.352379642
 30
0.0
 11
141.7401674399
 21
215.3731056224
 31
0.0
  0
LINE
  5
23A
330
1F
100
AcDbEntity
  8
0
  6
Continuous
 62
     7
370
     0
100
AcDbLine
 10
141.7401674399
 20
215.3731056224
 30
0.0
 11
141.7401674399
 21
217.3938316028
 31
0.0
  0
LINE
  5
23B
330
1F
100
AcDbEntity
  8
0
  6
Continuous
 62
     7
370
     0
100
AcDbLine
 10
141.7401674399
 20
211.3316536616
 30
0.0
 11
146.7401663968
 21
211.3316536616
 31
0.0
  0
LINE
  5
23C
330
1F
100
AcDbEntity
  8
0
  6
Continuous
 62
     7
370
     0
100
AcDbLine
 10
141.7401674399
 20
211.3316536616
 30
0.0
 11
141.7401674399
 21
212.3420175831
 31
0.0
  0
LINE
  5
23D
330
1F
100
AcDbEntity
  8
0
  6
Continuous
 62
     7
370
     0
100
AcDbLine
 10
146.7401663968
 20
213.3102633725
 30
0.0
 11
146.7401663968
 21
213.352379642
 31
0.0
  0
LINE
  5
23E
330
1F
100
AcDbEntity
  8
0
  6
Continuous
 62
     7
370
     0
100
AcDbLine
 10
146.7401663968
 20
211.3316536616
 30
0.0
 11
146.7401663968
 21
211.3737717937
 31
0.0
  0
LINE
  5
23F
330
1F
100
AcDbEntity
  8
0
  6
Continuous
 62
     7
370
     0
100
AcDbLine
 10
141.7401674399
 20
212.3420175831
 30
0.0
 11
141.7401674399
 21
213.352379642
 31
0.0
  0
LINE
  5
240
330
1F
100
AcDbEntity
  8
0
  6
Continuous
 62
     7
370
     0
100
AcDbLine
 10
69.9901673207
 20
238.9731065105
 30
0.0
 11
79.4901679465
 21
238.9731065105
 31
0.0
  0
LINE
  5
241
330
1F
100
AcDbEntity
  8
0
  6
Continuous
 62
     7
370
     0
100
AcDbLine
 10
69.9901673207
 20
239.9731048118
 30
0.0
 11
79.4901679465
 21
239.9731048118
 31
0.0
  0
LINE
  5
242
330
1F
100
AcDbEntity
  8
0
  6
Continuous
 62
     7
370
     0
100
AcDbLine
 10
69.9901673207
 20
230.9731051992
 30
0.0
 11
79.4901679465
 21
230.9731051992
 31
0.0
  0
LINE
  5
243
330
1F
100
AcDbEntity
  8
0
  6
Continuous
 62
     7
370
     0
100
AcDbLine
 10
69.9901673207
 20
236.9731061827
 30
0.0
 11
79.4901679465
 21
236.9731061827
 31
0.0
  0
LINE
  5
244
330
1F
100
AcDbEntity
  8
0
  6
Continuous
 62
     7
370
     0
100
AcDbLine
 10
75.7401677975
 20
226.8731065761
 30
0.0
 11
75.7401677975
 21
221.8731057565
 31
0.0
  0
SPLINE
  5
245
330
1F
100
AcDbEntity
  8
0
  6
Continuous
 62
     7
370
     0
100
AcDbSpline
210
0.0
220
0.0
230
1.0
 70
     8
 71
     3
 72
    24
 73
    20
 74
     0
 42
0.00000001
 43
0.00000001
 12
1.0
 22
0.0
 32
0.0
 13
1.0
 23
0.0
 33
0.0
 40
0.0
 40
0.0
 40
0.0
 40
0.0
 40
0.0624999999999998
 40
0.0624999999999998
 40
0.1249999999999996
 40
0.1249999999999996
 40
0.2499999999999998
 40
0.2499999999999998
 40
0.3749999999999998
 40
0.3749999999999998
 40
0.4999999999999999
 40
0.4999999999999999
 40
0.6249999999999999
 40
0.6249999999999999
 40
0.7499999999999999
 40
0.7499999999999999
 40
0.875
 40
0.875
 40
1.0
 40
1.0
 40
1.0
 40
1.0
 10
70.74016657561202
 20
225.8731057415977
 30
0.0
 10
70.74016657561204
 20
225.8969497128384
 30
0.0
 10
70.74887476889316
 20
225.921184307854
 30
0.0
 10
70.78322835221218
 20
225.9689298784164
 30
0.0
 10
70.80882708857543
 20
225.9926638163956
 30
0.0
 10
70.91071957078505
 20
226.0637853723937
 30
0.0
 10
71.01383526722974
 20
226.111657871179
 30
0.0
 10
71.27972661545975
 20
226.204896923177
 30
0.0
 10
71.44204818161256
 20
226.2505262034306
 30
0.0
 10
71.82686810143704
 20
226.341518154942
 30
0.0
 10
72.04489020606314
 20
226.3857367285421
 30
0.0
 10
72.52228757095439
 20
226.4716623402195
 30
0.0
 10
72.78654262418725
 20
226.5141283697542
 30
0.0
 10
73.33760364131979
 20
226.5949936922072
 30
0.0
 10
73.6252469740088
 20
226.633650966512
 30
0.0
 10
74.22527422165146
 20
226.7088296724914
 30
0.0
 10
74.53000046973085
 20
226.744364974356
 30
0.0
 10
75.1372027932202
 20
226.8114730019837
 30
0.0
 10
75.4451247457403
 20
226.8436015586104
 30
0.0
 10
75.74016657561218
 20
226.8731057415976
 30
0.0
  0
LWPOLYLINE
  5
246
330
1F
100
AcDbEntity
  8
0
  6
Continuous
 62
     7
370
     0
100
AcDbPolyline
 90
       10
 70
   128
 43
0.0
 10
78.7401664266
 20
229.8731052052
 10
78.6973442146
 20
229.8302829932
 10
78.5697902748
 20
229.7027327786
 10
78.3602426955
 20
229.4931814741
 10
78.073183001
 20
229.2061217795
 10
77.7147579202
 20
228.8476966988
 10
77.2926415512
 20
228.4255803298
 10
76.8158751735
 20
227.9488139521
 10
76.2946623573
 20
227.4276011358
 10
75.7401677975
 20
226.8731065761
  0
LINE
  5
247
330
1F
100
AcDbEntity
  8
0
  6
Continuous
 62
     7
370
     0
100
AcDbLine
 10
80.7401667544
 20
229.8724421035
 30
0.0
 11
80.7401667544
 21
227.9359505247
 31
0.0
  0
LINE
  5
248
330
1F
100
AcDbEntity
  8
0
  6
Continuous
 62
     7
370
     0
100
AcDbLine
 10
80.7401667544
 20
227.8095961283
 30
0.0
 11
80.7401667544
 21
223.9366148333
 31
0.0
  0
LINE
  5
249
330
1F
100
AcDbEntity
  8
0
  6
Continuous
 62
     7
370
     0
100
AcDbLine
 10
80.7401667544
 20
223.8102622996
 30
0.0
 11
80.7401667544
 21
221.8737707208
 31
0.0
  0
LINE
  5
24A
330
1F
100
AcDbEntity
  8
0
  6
Continuous
 62
     7
370
     0
100
AcDbLine
 10
85.7401657113
 20
229.9145565103
 30
0.0
 11
80.7401667544
 21
229.9145565103
 31
0.0
  0
LINE
  5
24B
330
1F
100
AcDbEntity
  8
0
  6
Continuous
 62
     7
370
     0
100
AcDbLine
 10
85.7401657113
 20
229.9145565103
 30
0.0
 11
85.7401657113
 21
228.9041944514
 31
0.0
  0
LINE
  5
24C
330
1F
100
AcDbEntity
  8
0
  6
Continuous
 62
     7
370
     0
100
AcDbLine
 10
85.7401657113
 20
227.8938323926
 30
0.0
 11
80.7401667544
 21
227.8938323926
 31
0.0
  0
LINE
  5
24D
330
1F
100
AcDbEntity
  8
0
  6
Continuous
 62
     7
370
     0
100
AcDbLine
 10
80.7401667544
 20
227.9359505247
 30
0.0
 11
80.7401667544
 21
227.8938323926
 31
0.0
  0
LINE
  5
24E
330
1F
100
AcDbEntity
  8
0
  6
Continuous
 62
     7
370
     0
100
AcDbLine
 10
80.7401667544
 20
229.9145565103
 30
0.0
 11
80.7401667544
 21
229.8724421035
 31
0.0
  0
LINE
  5
24F
330
1F
100
AcDbEntity
  8
0
  6
Continuous
 62
     7
370
     0
100
AcDbLine
 10
85.7401657113
 20
228.9041944514
 30
0.0
 11
85.7401657113
 21
227.8938323926
 31
0.0
  0
LINE
  5
250
330
1F
100
AcDbEntity
  8
0
  6
Continuous
 62
     7
370
     0
100
AcDbLine
 10
85.7401657113
 20
223.8523804317
 30
0.0
 11
80.7401667544
 21
223.8523804317
 31
0.0
  0
LINE
  5
251
330
1F
100
AcDbEntity
  8
0
  6
Continuous
 62
     7
370
     0
100
AcDbLine
 10
80.7401667544
 20
223.9366148333
 30
0.0
 11
80.7401667544
 21
223.8523804317
 31
0.0
  0
LINE
  5
252
330
1F
100
AcDbEntity
  8
0
  6
Continuous
 62
     7
370
     0
100
AcDbLine
 10
80.7401667544
 20
227.8938323926
 30
0.0
 11
80.7401667544
 21
227.8095961283
 31
0.0
  0
LINE
  5
253
330
1F
100
AcDbEntity
  8
0
  6
Continuous
 62
     7
370
     0
100
AcDbLine
 10
85.7401657113
 20
225.8731045495
 30
0.0
 11
85.7401657113
 21
223.8523804317
 31
0.0
  0
LINE
  5
254
330
1F
100
AcDbEntity
  8
0
  6
Continuous
 62
     7
370
     0
100
AcDbLine
 10
85.7401657113
 20
227.8938323926
 30
0.0
 11
85.7401657113
 21
225.8731045495
 31
0.0
  0
LINE
  5
255
330
1F
100
AcDbEntity
  8
0
  6
Continuous
 62
     7
370
     0
100
AcDbLine
 10
85.7401657113
 20
222.8420165102
 30
0.0
 11
85.7401657113
 21
221.8316544513
 31
0.0
  0
LINE
  5
256
330
1F
100
AcDbEntity
  8
0
  6
Continuous
 62
     7
370
     0
100
AcDbLine
 10
85.7401657113
 20
221.8316544513
 30
0.0
 11
80.7401667544
 21
221.8316544513
 31
0.0
  0
LINE
  5
257
330
1F
100
AcDbEntity
  8
0
  6
Continuous
 62
     7
370
     0
100
AcDbLine
 10
80.7401667544
 20
221.8737707208
 30
0.0
 11
80.7401667544
 21
221.8316544513
 31
0.0
  0
LINE
  5
258
330
1F
100
AcDbEntity
  8
0
  6
Continuous
 62
     7
370
     0
100
AcDbLine
 10
80.7401667544
 20
223.8523804317
 30
0.0
 11
80.7401667544
 21
223.8102622996
 31
0.0
  0
LINE
  5
259
330
1F
100
AcDbEntity
  8
0
  6
Continuous
 62
     7
370
     0
100
AcDbLine
 10
85.7401657113
 20
223.8523804317
 30
0.0
 11
85.7401657113
 21
222.8420165102
 31
0.0
  0
LINE
  5
25A
330
1F
100
AcDbEntity
  8
0
  6
Continuous
 62
     8
370
     0
100
AcDbLine
 10
100.2401662254
 20
195.3731058366
 30
0.0
 11
127.2401669258
 21
195.3731058366
 31
0.0
  0
LINE
  5
25B
330
1F
100
AcDbEntity
  8
0
  6
Continuous
 62
     8
370
     0
100
AcDbLine
 10
101.2401663893
 20
233.1731051873
 30
0.0
 11
126.2401667619
 21
233.1731051873
 31
0.0
  0
LINE
  5
25C
330
1F
100
AcDbEntity
  8
0
  6
Continuous
 62
     8
370
     0
100
AcDbLine
 10
113.7401665756
 20
199.4107591654
 30
0.0
 11
115.1784590175
 21
199.4107591654
 31
0.0
  0
LINE
  5
25D
330
1F
100
AcDbEntity
  8
0
  6
Continuous
 62
     8
370
     0
100
AcDbLine
 10
112.3018741337
 20
199.4107591654
 30
0.0
 11
113.7401665756
 21
199.4107591654
 31
0.0
  0
DIMENSION
  5
25E
330
1F
100
AcDbEntity
  8
0
  6
Continuous
 62
     7
370
     0
100
AcDbDimension
  2
_D_5
 10
126.2401665756
 20
241.8415382713
 30
0.0
 11
113.7401665756
 21
241.8415382713
 31
0.0
 70
   160
  1
%%c<>
 71
     2
 42
-1.0
  3
SLDDIMSTYLE0
100
AcDbAlignedDimension
 13
101.2401665756
 23
235.3731057416
 33
0.0
 14
126.2401665756
 24
235.3731057416
 34
0.0
100
AcDbRotatedDimension
  0
DIMENSION
  5
269
330
1F
100
AcDbEntity
  8
0
  6
Continuous
 62
     7
370
     0
100
AcDbDimension
  2
_D_6
 10
45.5670131777
 20
235.8731057416
 30
0.0
 11
45.5670131777
 21
214.6231057416
 31
0.0
 70
   160
  1
<>
 71
     2
 42
-1.0
  3
SLDDIMSTYLE0
100
AcDbAlignedDimension
 13
102.2401665756
 23
193.3731057416
 33
0.0
 14
101.7401665756
 24
235.8731057416
 34
0.0
 50
90.0
100
AcDbRotatedDimension
  0
DIMENSION
  5
273
330
1F
100
AcDbEntity
  8
0
  6
Continuous
 62
     7
370
     0
100
AcDbDimension
  2
_D_7
 10
58.276060477
 20
205.3731057416
 30
0.0
 11
58.276060477
 21
199.3731057416
 31
0.0
 70
   160
  1
<>
 71
     2
 42
-1.0
  3
SLDDIMSTYLE0
100
AcDbAlignedDimension
 13
102.2401665756
 23
193.3731057416
 33
0.0
 14
86.2401665756
 24
205.3731057416
 34
0.0
 50
90.0
100
AcDbRotatedDimension
  0
DIMENSION
  5
27D
330
1F
100
AcDbEntity
  8
0
  6
Continuous
 62
     7
370
     0
100
AcDbDimension
  2
_D_8
 10
58.276060477
 20
232.8731057416
 30
0.0
 11
58.276060477
 21
219.1231057416
 31
0.0
 70
   160
  1
<>
 71
     2
 42
-1.0
  3
SLDDIMSTYLE0
100
AcDbAlignedDimension
 13
86.2401665756
 23
205.3731057416
 33
0.0
 14
86.2401665756
 24
232.8731057416
 34
0.0
 50
90.0
100
AcDbRotatedDimension
  0
DIMENSION
  5
287
330
1F
100
AcDbEntity
  8
0
  6
Continuous
 62
     7
370
     0
100
AcDbDimension
  2
_D_9
 10
58.276060477
 20
232.8731057416
 30
0.0
 11
58.276060477
 21
243.2428459651
 31
0.0
 70
   160
  1
<>
 71
     2
 42
-1.0
  3
SLDDIMSTYLE3
100
AcDbAlignedDimension
 13
101.7401665756
 23
235.8731057416
 33
0.0
 14
86.2401665756
 24
232.8731057416
 34
0.0
 50
90.0
100
AcDbRotatedDimension
  0
MTEXT
  5
294
330
1F
100
AcDbEntity
  8
0
  6
Continuous
 62
     7
370
     0
100
AcDbMText
 10
44.1102894729
 20
255.5052958303
 30
0.0
 40
3.5
 41
0.0
 71
     1
 72
     1
  1
クランプ φ4
  7
SLDTEXTSTYLE0
 73
     1
 44
1.0
  0
LEADER
  5
29C
330
1F
100
AcDbEntity
  8
0
  6
Continuous
 62
     7
370
     0
100
AcDbLeader
  3
SLDDIMSTYLE4
 76
     3
 10
74.9444014862
 20
239.9731057416
 30
0.0
 10
68.9460260973
 20
250.8896797153
 30
0.0
 10
44.009489917
 20
250.8896797153
 30
0.0
  0
MTEXT
  5
29D
330
1F
100
AcDbEntity
  8
0
  6
Continuous
 62
     7
370
     0
100
AcDbMText
 10
155.5633169817
 20
242.5391489315
 30
0.0
 40
3.5
 41
0.0
 71
     1
 72
     1
  1
アンクランプ φ4
  7
SLDTEXTSTYLE0
 73
     1
 44
1.0
  0
LEADER
  5
29E
330
1F
100
AcDbEntity
  8
0
  6
Continuous
 62
     7
370
     0
100
AcDbLeader
  3
SLDDIMSTYLE4
 76
     3
 10
152.6550318789
 20
229.4731057416
 30
0.0
 10
155.0160142349
 20
237.9596678529
 30
0.0
 10
188.137603796
 20
237.9596678529
 30
0.0
  0
ENDSEC
  0
SECTION
  2
OBJECTS
  0
DICTIONARY
  5
C
330
0
100
AcDbDictionary
281
     1
  3
ACAD_GROUP
350
D
  3
ACAD_LAYOUT
350
1A
  3
ACAD_MLINESTYLE
350
17
  3
ACAD_PLOTSETTINGS
350
19
  3
ACAD_PLOTSTYLENAME
350
E
  0
DICTIONARY
  5
D
102
{ACAD_REACTORS
330
C
102
}
330
C
100
AcDbDictionary
281
     1
  0
DICTIONARY
  5
1A
102
{ACAD_REACTORS
330
C
102
}
330
C
100
AcDbDictionary
281
     1
  3
Layout1
350
1E
  3
Layout2
350
26
  3
Model
350
22
  0
DICTIONARY
  5
17
102
{ACAD_REACTORS
330
C
102
}
330
C
100
AcDbDictionary
281
     1
  3
Standard
350
18
  0
DICTIONARY
  5
19
102
{ACAD_REACTORS
330
C
102
}
330
C
100
AcDbDictionary
281
     1
  0
ACDBDICTIONARYWDFLT
  5
E
102
{ACAD_REACTORS
330
C
102
}
330
C
100
AcDbDictionary
281
     1
  3
Normal
350
F
100
AcDbDictionaryWithDefault
340
F
  0
LAYOUT
  5
1E
102
{ACAD_REACTORS
330
1A
102
}
330
1A
100
AcDbPlotSettings
  1

  2
none_device
  4

  6

 40
0.0
 41
0.0
 42
0.0
 43
0.0
 44
0.0
 45
0.0
 46
0.0
 47
0.0
 48
0.0
 49
0.0
140
0.0
141
0.0
142
1.0
143
1.0
 70
   688
 72
     0
 73
     0
 74
     5
  7

 75
    16
147
1.0
148
0.0
149
0.0
100
AcDbLayout
  1
Layout1
 70
     1
 71
     1
 10
0.0
 20
0.0
 11
420.0
 21
297.0
 12
0.0
 22
0.0
 32
0.0
 14
1.0000000000E+20
 24
1.0000000000E+20
 34
1.0000000000E+20
 15
-1.0000000000E+20
 25
-1.0000000000E+20
 35
-1.0000000000E+20
146
0.0
 13
0.0
 23
0.0
 33
0.0
 16
1.0
 26
0.0
 36
0.0
 17
0.0
 27
1.0
 37
0.0
 76
     0
330
1B
  0
LAYOUT
  5
26
102
{ACAD_REACTORS
330
1A
102
}
330
1A
100
AcDbPlotSettings
  1

  2
none_device
  4

  6

 40
0.0
 41
0.0
 42
0.0
 43
0.0
 44
0.0
 45
0.0
 46
0.0
 47
0.0
 48
0.0
 49
0.0
140
0.0
141
0.0
142
1.0
143
1.0
 70
   688
 72
     0
 73
     0
 74
     5
  7

 75
    16
147
1.0
148
0.0
149
0.0
100
AcDbLayout
  1
Layout2
 70
     1
 71
     2
 10
0.0
 20
0.0
 11
0.0
 21
0.0
 12
0.0
 22
0.0
 32
0.0
 14
0.0
 24
0.0
 34
0.0
 15
0.0
 25
0.0
 35
0.0
146
0.0
 13
0.0
 23
0.0
 33
0.0
 16
1.0
 26
0.0
 36
0.0
 17
0.0
 27
1.0
 37
0.0
 76
     0
330
23
  0
LAYOUT
  5
22
102
{ACAD_REACTORS
330
1A
102
}
330
1A
100
AcDbPlotSettings
  1

  2
none_device
  4

  6

 40
0.0
 41
0.0
 42
0.0
 43
0.0
 44
0.0
 45
0.0
 46
0.0
 47
0.0
 48
0.0
 49
0.0
140
0.0
141
0.0
142
1.0
143
1.0
 70
  1712
 72
     0
 73
     0
 74
     0
  7

 75
     0
147
1.0
148
0.0
149
0.0
100
AcDbLayout
  1
Model
 70
     1
 71
     0
 10
0.0
 20
0.0
 11
210.0
 21
297.0
 12
0.0
 22
0.0
 32
0.0
 14
0.0
 24
0.0
 34
0.0
 15
210.0
 25
297.0
 35
0.0
146
0.0
 13
0.0
 23
0.0
 33
0.0
 16
1.0
 26
0.0
 36
0.0
 17
0.0
 27
1.0
 37
0.0
 76
     0
330
1F
331
29
  0
MLINESTYLE
  5
18
102
{ACAD_REACTORS
330
17
102
}
330
17
100
AcDbMlineStyle
  2
Standard
 70
     0
  3

 62
   256
 51
90.0
 52
90.0
 71
     2
 49
0.5
 62
   256
  6
BYLAYER
 49
-0.5
 62
   256
  6
BYLAYER
  0
ACDBPLACEHOLDER
  5
F
102
{ACAD_REACTORS
330
E
102
}
330
E
  0
ENDSEC
  0
EOF
