  0
SECTION
  2
HEADER
  9
$ACADVER
  1
AC1015
  9
$ACADMAINTVER
 70
     6
  9
$DWGCODEPAGE
  3
DOS932
  9
$INSBASE
 10
0.0
 20
0.0
 30
0.0
  9
$EXTMIN
 10
0.0
 20
0.0
 30
0.0
  9
$EXTMAX
 10
210.0
 20
297.0
 30
0.0
  9
$LIMMIN
 10
0.0
 20
0.0
  9
$LIMMAX
 10
210.0
 20
297.0
  9
$ORTHOMODE
 70
     0
  9
$REGENMODE
 70
     1
  9
$FILLMODE
 70
     1
  9
$QTEXTMODE
 70
     0
  9
$MIRRTEXT
 70
     1
  9
$LTSCALE
 40
1.0
  9
$ATTMODE
 70
     1
  9
$TEXTSIZE
 40
3.5
  9
$TRACEWID
 40
1.0
  9
$TEXTSTYLE
  7
Standard
  9
$CLAYER
  8
0
  9
$CELTYPE
  6
ByLayer
  9
$CECOLOR
 62
   256
  9
$CELTSCALE
 40
1.0
  9
$DISPSILH
 70
     0
  9
$DIMSCALE
 40
1.0
  9
$DIMASZ
 40
3.0
  9
$DIMEXO
 40
1.0
  9
$DIMDLI
 40
3.75
  9
$DIMRND
 40
0.0
  9
$DIMDLE
 40
0.0
  9
$DIMEXE
 40
1.0
  9
$DIMTP
 40
0.0
  9
$DIMTM
 40
0.0
  9
$DIMTXT
 40
3.5
  9
$DIMCEN
 40
2.5
  9
$DIMTSZ
 40
0.0
  9
$DIMTOL
 70
     0
  9
$DIMLIM
 70
     0
  9
$DIMTIH
 70
     1
  9
$DIMTOH
 70
     1
  9
$DIMSE1
 70
     0
  9
$DIMSE2
 70
     0
  9
$DIMTAD
 70
     1
  9
$DIMZIN
 70
     0
  9
$DIMBLK
  1

  9
$DIMASO
 70
     1
  9
$DIMSHO
 70
     1
  9
$DIMPOST
  1

  9
$DIMAPOST
  1

  9
$DIMALT
 70
     0
  9
$DIMALTD
 70
     3
  9
$DIMALTF
 40
0.0393700787
  9
$DIMLFAC
 40
1.0
  9
$DIMTOFL
 70
     1
  9
$DIMTVP
 40
0.0
  9
$DIMTIX
 70
     0
  9
$DIMSOXD
 70
     0
  9
$DIMSAH
 70
     0
  9
$DIMBLK1
  1

  9
$DIMBLK2
  1

  9
$DIMSTYLE
  2
ISO-25
  9
$DIMCLRD
 70
     0
  9
$DIMCLRE
 70
     0
  9
$DIMCLRT
 70
     0
  9
$DIMTFAC
 40
1.0
  9
$DIMGAP
 40
1.524
  9
$DIMJUST
 70
     0
  9
$DIMSD1
 70
     0
  9
$DIMSD2
 70
     0
  9
$DIMTOLJ
 70
     0
  9
$DIMTZIN
 70
     0
  9
$DIMALTZ
 70
     0
  9
$DIMALTTZ
 70
     0
  9
$DIMUPT
 70
     0
  9
$DIMDEC
 70
     1
  9
$DIMTDEC
 70
     3
  9
$DIMALTU
 70
     2
  9
$DIMALTTD
 70
     3
  9
$DIMTXSTY
  7
Standard
  9
$DIMAUNIT
 70
     0
  9
$DIMADEC
 70
     2
  9
$DIMALTRND
 40
0.0
  9
$DIMAZIN
 70
     0
  9
$DIMDSEP
 70
    44
  9
$DIMATFIT
 70
     3
  9
$DIMFRAC
 70
     0
  9
$DIMLDRBLK
  1

  9
$DIMLUNIT
 70
     2
  9
$DIMLWD
 70
    -2
  9
$DIMLWE
 70
    -2
  9
$DIMTMOVE
 70
     0
  9
$LUNITS
 70
     2
  9
$LUPREC
 70
     1
  9
$SKETCHINC
 40
1.0
  9
$FILLETRAD
 40
10.0
  9
$AUNITS
 70
     0
  9
$AUPREC
 70
     2
  9
$MENU
  1
.
  9
$ELEVATION
 40
0.0
  9
$PELEVATION
 40
0.0
  9
$THICKNESS
 40
0.0
  9
$LIMCHECK
 70
     0
  9
$CHAMFERA
 40
10.0
  9
$CHAMFERB
 40
10.0
  9
$CHAMFERC
 40
20.0
  9
$CHAMFERD
 40
0.0
  9
$SKPOLY
 70
     0
  9
$TDCREATE
 40
2456917.431869328
  9
$TDUCREATE
 40
2456917.056869328
  9
$TDUPDATE
 40
2456917.431873843
  9
$TDUUPDATE
 40
2456917.056873843
  9
$TDINDWG
 40
0.0000000116
  9
$TDUSRTIMER
 40
0.0000000116
  9
$USRTIMER
 70
     1
  9
$ANGBASE
 50
0.0
  9
$ANGDIR
 70
     0
  9
$PDMODE
 70
     0
  9
$PDSIZE
 40
-1.0
  9
$PLINEWID
 40
0.0
  9
$SPLFRAME
 70
     0
  9
$SPLINETYPE
 70
     6
  9
$SPLINESEGS
 70
     8
  9
$HANDSEED
  5
24F
  9
$SURFTAB1
 70
     6
  9
$SURFTAB2
 70
     6
  9
$SURFTYPE
 70
     6
  9
$SURFU
 70
     6
  9
$SURFV
 70
     6
  9
$UCSBASE
  2

  9
$UCSNAME
  2

  9
$UCSORG
 10
0.0
 20
0.0
 30
0.0
  9
$UCSXDIR
 10
1.0
 20
0.0
 30
0.0
  9
$UCSYDIR
 10
0.0
 20
1.0
 30
0.0
  9
$UCSORTHOREF
  2

  9
$UCSORTHOVIEW
 70
     0
  9
$UCSORGTOP
 10
0.0
 20
0.0
 30
0.0
  9
$UCSORGBOTTOM
 10
0.0
 20
0.0
 30
0.0
  9
$UCSORGLEFT
 10
0.0
 20
0.0
 30
0.0
  9
$UCSORGRIGHT
 10
0.0
 20
0.0
 30
0.0
  9
$UCSORGFRONT
 10
0.0
 20
0.0
 30
0.0
  9
$UCSORGBACK
 10
0.0
 20
0.0
 30
0.0
  9
$PUCSBASE
  2

  9
$PUCSNAME
  2

  9
$PUCSORG
 10
0.0
 20
0.0
 30
0.0
  9
$PUCSXDIR
 10
1.0
 20
0.0
 30
0.0
  9
$PUCSYDIR
 10
0.0
 20
1.0
 30
0.0
  9
$PUCSORTHOREF
  2

  9
$PUCSORTHOVIEW
 70
     0
  9
$PUCSORGTOP
 10
0.0
 20
0.0
 30
0.0
  9
$PUCSORGBOTTOM
 10
0.0
 20
0.0
 30
0.0
  9
$PUCSORGLEFT
 10
0.0
 20
0.0
 30
0.0
  9
$PUCSORGRIGHT
 10
0.0
 20
0.0
 30
0.0
  9
$PUCSORGFRONT
 10
0.0
 20
0.0
 30
0.0
  9
$PUCSORGBACK
 10
0.0
 20
0.0
 30
0.0
  9
$USERI1
 70
     0
  9
$USERI2
 70
     0
  9
$USERI3
 70
     0
  9
$USERI4
 70
     0
  9
$USERI5
 70
     0
  9
$USERR1
 40
0.0
  9
$USERR2
 40
0.0
  9
$USERR3
 40
0.0
  9
$USERR4
 40
0.0
  9
$USERR5
 40
0.0
  9
$WORLDVIEW
 70
     1
  9
$SHADEDGE
 70
     3
  9
$SHADEDIF
 70
    70
  9
$TILEMODE
 70
     1
  9
$MAXACTVP
 70
    64
  9
$PINSBASE
 10
0.0
 20
0.0
 30
0.0
  9
$PLIMCHECK
 70
     0
  9
$PEXTMIN
 10
1.0000000000E+20
 20
1.0000000000E+20
 30
1.0000000000E+20
  9
$PEXTMAX
 10
-1.0000000000E+20
 20
-1.0000000000E+20
 30
-1.0000000000E+20
  9
$PLIMMIN
 10
0.0
 20
0.0
  9
$PLIMMAX
 10
420.0
 20
297.0
  9
$UNITMODE
 70
     0
  9
$VISRETAIN
 70
     1
  9
$PLINEGEN
 70
     0
  9
$PSLTSCALE
 70
     1
  9
$TREEDEPTH
 70
  3020
  9
$CMLSTYLE
  2
Standard
  9
$CMLJUST
 70
     0
  9
$CMLSCALE
 40
20.0
  9
$PROXYGRAPHICS
 70
     1
  9
$MEASUREMENT
 70
     1
  9
$CELWEIGHT
370
    -1
  9
$ENDCAPS
280
     0
  9
$JOINSTYLE
280
     0
  9
$LWDISPLAY
290
     1
  9
$INSUNITS
 70
     4
  9
$HYPERLINKBASE
  1

  9
$STYLESHEET
  1

  9
$XEDIT
290
     1
  9
$CEPSNTYPE
380
     0
  9
$PSTYLEMODE
290
     1
  9
$FINGERPRINTGUID
  2
{B067539E-7816-4835-9324-216F9D0EB9F8}
  9
$VERSIONGUID
  2
{FAEB1C32-E019-11D5-929B-00C0DF256EC4}
  9
$EXTNAMES
290
     1
  9
$PSVPSCALE
 40
0.0
  9
$OLESTARTUP
290
     0
  0
ENDSEC
  0
SECTION
  2
CLASSES
  0
CLASS
  1
ACDBDICTIONARYWDFLT
  2
AcDbDictionaryWithDefault
  3
ObjectDBX Classes
 90
        0
280
     0
281
     0
  0
CLASS
  1
VISUALSTYLE
  2
AcDbVisualStyle
  3
ObjectDBX Classes
 90
     4095
280
     0
281
     0
  0
CLASS
  1
MATERIAL
  2
AcDbMaterial
  3
ObjectDBX Classes
 90
     1153
280
     0
281
     0
  0
CLASS
  1
ACDBPLACEHOLDER
  2
AcDbPlaceHolder
  3
ObjectDBX Classes
 90
        0
280
     0
281
     0
  0
CLASS
  1
LAYOUT
  2
AcDbLayout
  3
ObjectDBX Classes
 90
        0
280
     0
281
     0
  0
ENDSEC
  0
SECTION
  2
TABLES
  0
TABLE
  2
VPORT
  5
8
330
0
100
AcDbSymbolTable
 70
     1
  0
VPORT
  5
29
330
8
100
AcDbSymbolTableRecord
100
AcDbViewportTableRecord
  2
*Active
 70
     0
 10
0.0
 20
0.0
 11
1.0
 21
1.0
 12
105.0
 22
148.5
 13
0.0
 23
0.0
 14
10.0
 24
10.0
 15
10.0
 25
10.0
 16
0.0
 26
0.0
 36
1.0
 17
0.0
 27
0.0
 37
0.0
 40
297.0
 41
0.7070707071
 42
50.0
 43
0.0
 44
0.0
 50
0.0
 51
0.0
 71
     0
 72
  2000
 73
     1
 74
     3
 75
     0
 76
     0
 77
     0
 78
     0
281
     0
 65
     1
110
0.0
120
0.0
130
0.0
111
1.0
121
0.0
131
0.0
112
0.0
122
1.0
132
0.0
 79
     0
146
0.0
  0
ENDTAB
  0
TABLE
  2
LTYPE
  5
5
330
0
100
AcDbSymbolTable
 70
     6
  0
LTYPE
  5
14
330
5
100
AcDbSymbolTableRecord
100
AcDbLinetypeTableRecord
  2
ByBlock
 70
     0
  3

 72
    65
 73
     0
 40
0.0
  0
LTYPE
  5
15
330
5
100
AcDbSymbolTableRecord
100
AcDbLinetypeTableRecord
  2
ByLayer
 70
     0
  3

 72
    65
 73
     0
 40
0.0
  0
LTYPE
  5
16
330
5
100
AcDbSymbolTableRecord
100
AcDbLinetypeTableRecord
  2
Continuous
 70
     0
  3
Solid line
 72
    65
 73
     0
 40
0.0
  0
LTYPE
  5
3F
330
5
100
AcDbSymbolTableRecord
100
AcDbLinetypeTableRecord
  2
HIDDEN
 70
     0
  3
Hidden __ __ __ __ __ __ __ __ __ __ __ __ __ __
 72
    65
 73
     2
 40
1.905
 49
1.27
 74
     0
 49
-0.635
 74
     0
  0
LTYPE
  5
40
330
5
100
AcDbSymbolTableRecord
100
AcDbLinetypeTableRecord
  2
PHANTOM
 70
     0
  3
Phantom ______  __  __  ______  __  __  ______
 72
    65
 73
     6
 40
12.7
 49
6.35
 74
     0
 49
-1.27
 74
     0
 49
1.27
 74
     0
 49
-1.27
 74
     0
 49
1.27
 74
     0
 49
-1.27
 74
     0
  0
LTYPE
  5
41
330
5
100
AcDbSymbolTableRecord
100
AcDbLinetypeTableRecord
  2
CENTER
 70
     0
  3
Center ____ _ ____ _ ____ _ ____ _ ____ _ ____
 72
    65
 73
     4
 40
10.16
 49
6.35
 74
     0
 49
-1.27
 74
     0
 49
1.27
 74
     0
 49
-1.27
 74
     0
  0
LTYPE
  5
42
330
5
100
AcDbSymbolTableRecord
100
AcDbLinetypeTableRecord
  2
CENTERX2
 70
     0
  3
Center (2x) ________  __  ________  __  _____
 72
    65
 73
     4
 40
20.32
 49
12.7
 74
     0
 49
-2.54
 74
     0
 49
2.54
 74
     0
 49
-2.54
 74
     0
  0
LTYPE
  5
43
330
5
100
AcDbSymbolTableRecord
100
AcDbLinetypeTableRecord
  2
DOT2
 70
     0
  3
Dot (.5x) ........................................
 72
    65
 73
     2
 40
0.635
 49
0.0
 74
     0
 49
-0.635
 74
     0
  0
ENDTAB
  0
TABLE
  2
LAYER
  5
2
330
0
100
AcDbSymbolTable
 70
     1
  0
LAYER
  5
10
330
2
100
AcDbSymbolTableRecord
100
AcDbLayerTableRecord
  2
0
 70
     0
 62
     7
  6
Continuous
370
    -3
390
F
  0
ENDTAB
  0
TABLE
  2
STYLE
  5
3
330
0
100
AcDbSymbolTable
 70
     2
  0
STYLE
  5
11
330
3
100
AcDbSymbolTableRecord
100
AcDbTextStyleTableRecord
  2
Standard
 70
     0
 40
0.0
 41
1.0
 50
0.0
 71
     0
 42
3.5
  3
txt
  4
bigfont
  0
STYLE
  5
4C
330
3
100
AcDbSymbolTableRecord
100
AcDbTextStyleTableRecord
  2
SLDTEXTSTYLE0
 70
     0
 40
0.0
 41
0.7
 50
0.0
 71
     0
 42
0.2
  3
TXT
  4
bigfont
  0
ENDTAB
  0
TABLE
  2
VIEW
  5
6
330
0
100
AcDbSymbolTable
 70
     0
  0
ENDTAB
  0
TABLE
  2
UCS
  5
7
330
0
100
AcDbSymbolTable
 70
     0
  0
ENDTAB
  0
TABLE
  2
APPID
  5
9
330
0
100
AcDbSymbolTable
 70
     1
  0
APPID
  5
12
330
9
100
AcDbSymbolTableRecord
100
AcDbRegAppTableRecord
  2
ACAD
 70
     0
  0
ENDTAB
  0
TABLE
  2
DIMSTYLE
  5
A
330
0
100
AcDbSymbolTable
 70
     4
100
AcDbDimStyleTable
  0
DIMSTYLE
105
27
330
A
100
AcDbSymbolTableRecord
100
AcDbDimStyleTableRecord
  2
ISO-25
 70
     0
 41
2.5
 42
0.625
 43
3.75
 44
1.25
 73
     0
 74
     0
 77
     1
 78
     8
140
2.5
141
2.5
143
0.0393700787
147
0.625
171
     3
172
     1
178
     0
271
     2
272
     2
274
     3
278
    44
283
     0
284
     8
340
11
  0
DIMSTYLE
105
E7
102
{ACAD_REACTORS
330
E6
330
F1
330
108
330
112
330
11C
330
126
330
148
330
212
330
242
102
}
330
A
100
AcDbSymbolTableRecord
100
AcDbDimStyleTableRecord
  2
SLDDIMSTYLE0
 70
     0
 41
3.0
 44
0.0
 45
0.000000001
 73
     0
 74
     0
 77
     3
 78
    12
 79
     3
140
3.5
147
0.875
173
     1
178
     0
271
     1
272
     3
276
     2
284
    12
340
4C
  0
DIMSTYLE
105
FC
102
{ACAD_REACTORS
330
FB
330
130
330
13C
330
152
330
15E
330
21C
330
228
330
235
102
}
330
A
100
AcDbSymbolTableRecord
100
AcDbDimStyleTableRecord
  2
SLDDIMSTYLE1
 70
     0
 41
3.0
 44
0.0
 45
0.000000001
 73
     0
 74
     0
 77
     3
 78
    12
 79
     3
140
3.5
147
0.875
172
     1
173
     1
178
     0
271
     1
272
     3
276
     2
284
    12
289
     0
340
4C
  0
DIMSTYLE
105
16B
102
{ACAD_REACTORS
330
16A
102
}
330
A
100
AcDbSymbolTableRecord
100
AcDbDimStyleTableRecord
  2
SLDDIMSTYLE2
 70
     0
 41
3.0
 44
0.0
 45
0.000000001
 78
    12
 79
     3
140
3.5
141
0.0
147
0.875
173
     1
178
     0
271
     1
272
     3
276
     2
284
    12
340
4C
  0
ENDTAB
  0
TABLE
  2
BLOCK_RECORD
  5
1
330
0
100
AcDbSymbolTable
 70
    24
  0
BLOCK_RECORD
  5
1F
330
1
100
AcDbSymbolTableRecord
100
AcDbBlockTableRecord
  2
*Model_Space
340
22
  0
BLOCK_RECORD
  5
1B
330
1
100
AcDbSymbolTableRecord
100
AcDbBlockTableRecord
  2
*Paper_Space
340
1E
  0
BLOCK_RECORD
  5
23
330
1
100
AcDbSymbolTableRecord
100
AcDbBlockTableRecord
  2
*Paper_Space0
340
26
  0
BLOCK_RECORD
  5
E8
330
1
100
AcDbSymbolTableRecord
100
AcDbBlockTableRecord
  2
_D
340
0
  0
BLOCK_RECORD
  5
F2
330
1
100
AcDbSymbolTableRecord
100
AcDbBlockTableRecord
  2
_D_1
340
0
  0
BLOCK_RECORD
  5
FD
330
1
100
AcDbSymbolTableRecord
100
AcDbBlockTableRecord
  2
_D_2
340
0
  0
BLOCK_RECORD
  5
109
330
1
100
AcDbSymbolTableRecord
100
AcDbBlockTableRecord
  2
_D_3
340
0
  0
BLOCK_RECORD
  5
113
330
1
100
AcDbSymbolTableRecord
100
AcDbBlockTableRecord
  2
_D_4
340
0
  0
BLOCK_RECORD
  5
11D
330
1
100
AcDbSymbolTableRecord
100
AcDbBlockTableRecord
  2
_D_5
340
0
  0
BLOCK_RECORD
  5
127
330
1
100
AcDbSymbolTableRecord
100
AcDbBlockTableRecord
  2
_D_6
340
0
  0
BLOCK_RECORD
  5
131
330
1
100
AcDbSymbolTableRecord
100
AcDbBlockTableRecord
  2
_D_7
340
0
  0
BLOCK_RECORD
  5
13D
330
1
100
AcDbSymbolTableRecord
100
AcDbBlockTableRecord
  2
_D_8
340
0
  0
BLOCK_RECORD
  5
149
330
1
100
AcDbSymbolTableRecord
100
AcDbBlockTableRecord
  2
_D_9
340
0
  0
BLOCK_RECORD
  5
153
330
1
100
AcDbSymbolTableRecord
100
AcDbBlockTableRecord
  2
_D_10
340
0
  0
BLOCK_RECORD
  5
15F
330
1
100
AcDbSymbolTableRecord
100
AcDbBlockTableRecord
  2
_D_11
340
0
  0
BLOCK_RECORD
  5
16C
330
1
100
AcDbSymbolTableRecord
100
AcDbBlockTableRecord
  2
_D_12
340
0
  0
BLOCK_RECORD
  5
178
330
1
100
AcDbSymbolTableRecord
100
AcDbBlockTableRecord
  2
SW_CENTERMARKSYMBOL_0
340
0
102
{BLKREFS
331
183
102
}
  0
BLOCK_RECORD
  5
184
330
1
100
AcDbSymbolTableRecord
100
AcDbBlockTableRecord
  2
SW_CENTERMARKSYMBOL_1
340
0
102
{BLKREFS
331
18F
102
}
  0
BLOCK_RECORD
  5
190
330
1
100
AcDbSymbolTableRecord
100
AcDbBlockTableRecord
  2
SW_CENTERMARKSYMBOL_2
340
0
102
{BLKREFS
331
19B
102
}
  0
BLOCK_RECORD
  5
19C
330
1
100
AcDbSymbolTableRecord
100
AcDbBlockTableRecord
  2
SW_CENTERMARKSYMBOL_3
340
0
102
{BLKREFS
331
1A7
102
}
  0
BLOCK_RECORD
  5
1A8
330
1
100
AcDbSymbolTableRecord
100
AcDbBlockTableRecord
  2
SW_CENTERMARKSYMBOL_4
340
0
102
{BLKREFS
331
1B3
102
}
  0
BLOCK_RECORD
  5
213
330
1
100
AcDbSymbolTableRecord
100
AcDbBlockTableRecord
  2
_D_13
340
0
  0
BLOCK_RECORD
  5
21D
330
1
100
AcDbSymbolTableRecord
100
AcDbBlockTableRecord
  2
_D_14
340
0
  0
BLOCK_RECORD
  5
229
330
1
100
AcDbSymbolTableRecord
100
AcDbBlockTableRecord
  2
_D_15
340
0
  0
BLOCK_RECORD
  5
236
330
1
100
AcDbSymbolTableRecord
100
AcDbBlockTableRecord
  2
_D_16
340
0
  0
BLOCK_RECORD
  5
243
330
1
100
AcDbSymbolTableRecord
100
AcDbBlockTableRecord
  2
_D_17
340
0
  0
ENDTAB
  0
ENDSEC
  0
SECTION
  2
BLOCKS
  0
BLOCK
  5
20
330
1F
100
AcDbEntity
  8
0
100
AcDbBlockBegin
  2
*Model_Space
 70
     0
 10
0.0
 20
0.0
 30
0.0
  3
*Model_Space
  1

  0
ENDBLK
  5
21
330
1F
100
AcDbEntity
  8
0
100
AcDbBlockEnd
  0
BLOCK
  5
1C
330
1B
100
AcDbEntity
 67
     1
  8
0
100
AcDbBlockBegin
  2
*Paper_Space
 70
     0
 10
0.0
 20
0.0
 30
0.0
  3
*Paper_Space
  1

  0
ENDBLK
  5
1D
330
1B
100
AcDbEntity
 67
     1
  8
0
100
AcDbBlockEnd
  0
BLOCK
  5
24
330
23
100
AcDbEntity
  8
0
100
AcDbBlockBegin
  2
*Paper_Space0
 70
     0
 10
0.0
 20
0.0
 30
0.0
  3
*Paper_Space0
  1

  0
ENDBLK
  5
25
330
23
100
AcDbEntity
  8
0
100
AcDbBlockEnd
  0
BLOCK
  5
E9
330
E8
100
AcDbEntity
  8
0
100
AcDbBlockBegin
  2
_D
 70
     0
 10
0.0
 20
0.0
 30
0.0
  3
_D
  1

  0
SOLID
  5
EB
330
E8
100
AcDbEntity
  8
0
  6
Continuous
 62
     7
370
     0
100
AcDbTrace
 10
54.1302005007
 20
213.6743931411
 30
0.0
 11
57.1302005007
 21
212.9243931411
 31
0.0
 12
57.1302005007
 22
214.4243931411
 32
0.0
 13
57.1302005007
 23
214.4243931411
 33
0.0
  0
SOLID
  5
EC
330
E8
100
AcDbEntity
  8
0
  6
Continuous
 62
     7
370
     0
100
AcDbTrace
 10
86.1302005007
 20
213.6743931411
 30
0.0
 11
83.1302005007
 21
214.4243931411
 31
0.0
 12
83.1302005007
 22
212.9243931411
 32
0.0
 13
83.1302005007
 23
212.9243931411
 33
0.0
  0
LINE
  5
ED
330
E8
100
AcDbEntity
  8
0
  6
Continuous
 62
     7
370
     0
100
AcDbLine
 10
54.1302005007
 20
199.6743931411
 30
0.0
 11
54.1302005007
 21
214.6743931411
 31
0.0
  0
LINE
  5
EE
330
E8
100
AcDbEntity
  8
0
  6
Continuous
 62
     7
370
     0
100
AcDbLine
 10
86.1302005007
 20
199.6743931411
 30
0.0
 11
86.1302005007
 21
214.6743931411
 31
0.0
  0
LINE
  5
EF
330
E8
100
AcDbEntity
  8
0
  6
Continuous
 62
     7
370
     0
100
AcDbLine
 10
54.1302005007
 20
213.6743931411
 30
0.0
 11
86.1302005007
 21
213.6743931411
 31
0.0
  0
MTEXT
  5
F0
330
E8
100
AcDbEntity
  8
0
  6
Continuous
 62
     7
370
     0
100
AcDbMText
 10
68.0933950032
 20
218.1861299975
 30
-9.4772044725
 40
3.5
 41
0.0
 71
     1
 72
     1
  1
32
  7
SLDTEXTSTYLE0
 73
     1
 44
1.0
  0
ENDBLK
  5
EA
330
E8
100
AcDbEntity
  8
0
100
AcDbBlockEnd
  0
BLOCK
  5
F3
330
F2
100
AcDbEntity
  8
0
100
AcDbBlockBegin
  2
_D_1
 70
     0
 10
0.0
 20
0.0
 30
0.0
  3
_D_1
  1

  0
SOLID
  5
F5
330
F2
100
AcDbEntity
  8
0
  6
Continuous
 62
     7
370
     0
100
AcDbTrace
 10
80.1302005007
 20
204.4445822885
 30
0.0
 11
77.1302005007
 21
205.1945822885
 31
0.0
 12
77.1302005007
 22
203.6945822885
 32
0.0
 13
77.1302005007
 23
203.6945822885
 33
0.0
  0
SOLID
  5
F6
330
F2
100
AcDbEntity
  8
0
  6
Continuous
 62
     7
370
     0
100
AcDbTrace
 10
60.1302005007
 20
204.4445822885
 30
0.0
 11
63.1302005007
 21
203.6945822885
 31
0.0
 12
63.1302005007
 22
205.1945822885
 32
0.0
 13
63.1302005007
 23
205.1945822885
 33
0.0
  0
LINE
  5
F7
330
F2
100
AcDbEntity
  8
0
  6
Continuous
 62
     7
370
     0
100
AcDbLine
 10
80.1302005007
 20
188.6743931411
 30
0.0
 11
80.1302005007
 21
205.4445822885
 31
0.0
  0
LINE
  5
F8
330
F2
100
AcDbEntity
  8
0
  6
Continuous
 62
     7
370
     0
100
AcDbLine
 10
60.1302005007
 20
188.6743931411
 30
0.0
 11
60.1302005007
 21
205.4445822885
 31
0.0
  0
LINE
  5
F9
330
F2
100
AcDbEntity
  8
0
  6
Continuous
 62
     7
370
     0
100
AcDbLine
 10
80.1302005007
 20
204.4445822885
 30
0.0
 11
60.1302005007
 21
204.4445822885
 31
0.0
  0
MTEXT
  5
FA
330
F2
100
AcDbEntity
  8
0
  6
Continuous
 62
     7
370
     0
100
AcDbMText
 10
68.0933950032
 20
208.9563191448
 30
-9.4772044725
 40
3.5
 41
0.0
 71
     1
 72
     1
  1
20
  7
SLDTEXTSTYLE0
 73
     1
 44
1.0
  0
ENDBLK
  5
F4
330
F2
100
AcDbEntity
  8
0
100
AcDbBlockEnd
  0
BLOCK
  5
FE
330
FD
100
AcDbEntity
  8
0
100
AcDbBlockBegin
  2
_D_2
 70
     0
 10
0.0
 20
0.0
 30
0.0
  3
_D_2
  1

  0
SOLID
  5
100
330
FD
100
AcDbEntity
  8
0
  6
Continuous
 62
     7
370
     0
100
AcDbTrace
 10
27.8509640799
 20
187.6743931411
 30
0.0
 11
28.6009640799
 21
190.6743931411
 31
0.0
 12
27.1009640799
 22
190.6743931411
 32
0.0
 13
27.1009640799
 23
190.6743931411
 33
0.0
  0
SOLID
  5
101
330
FD
100
AcDbEntity
  8
0
  6
Continuous
 62
     7
370
     0
100
AcDbTrace
 10
27.8509640799
 20
175.6743931411
 30
0.0
 11
27.1009640799
 21
172.6743931411
 31
0.0
 12
28.6009640799
 22
172.6743931411
 32
0.0
 13
28.6009640799
 23
172.6743931411
 33
0.0
  0
LINE
  5
102
330
FD
100
AcDbEntity
  8
0
  6
Continuous
 62
     7
370
     0
100
AcDbLine
 10
33.6302005007
 20
187.6743931411
 30
0.0
 11
26.8509640799
 21
187.6743931411
 31
0.0
  0
LINE
  5
103
330
FD
100
AcDbEntity
  8
0
  6
Continuous
 62
     7
370
     0
100
AcDbLine
 10
59.1302005007
 20
175.6743931411
 30
0.0
 11
26.8509640799
 21
175.6743931411
 31
0.0
  0
LINE
  5
104
330
FD
100
AcDbEntity
  8
0
  6
Continuous
 62
     7
370
     0
100
AcDbLine
 10
27.8509640799
 20
187.6743931411
 30
0.0
 11
27.8509640799
 21
192.6743931411
 31
0.0
  0
LINE
  5
105
330
FD
100
AcDbEntity
  8
0
  6
Continuous
 62
     7
370
     0
100
AcDbLine
 10
27.8509640799
 20
187.6743931411
 30
0.0
 11
27.8509640799
 21
175.6743931411
 31
0.0
  0
LINE
  5
106
330
FD
100
AcDbEntity
  8
0
  6
Continuous
 62
     7
370
     0
100
AcDbLine
 10
27.8509640799
 20
175.6743931411
 30
0.0
 11
27.8509640799
 21
170.6743931411
 31
0.0
  0
MTEXT
  5
107
330
FD
100
AcDbEntity
  8
0
  6
Continuous
 62
     7
370
     0
100
AcDbMText
 10
23.3392272235
 20
179.6375876437
 30
-9.4772044725
 40
3.5
 41
0.0
 71
     1
 72
     1
  1
12
  7
SLDTEXTSTYLE0
 11
-7.044195017643634E-15
 21
1.0
 31
0.0
 73
     1
 44
1.0
  0
ENDBLK
  5
FF
330
FD
100
AcDbEntity
  8
0
100
AcDbBlockEnd
  0
BLOCK
  5
10A
330
109
100
AcDbEntity
  8
0
100
AcDbBlockBegin
  2
_D_3
 70
     0
 10
0.0
 20
0.0
 30
0.0
  3
_D_3
  1

  0
SOLID
  5
10C
330
109
100
AcDbEntity
  8
0
  6
Continuous
 62
     7
370
     0
100
AcDbTrace
 10
32.6302005007
 20
92.6743931411
 30
0.0
 11
35.6302005007
 21
91.9243931411
 31
0.0
 12
35.6302005007
 22
93.4243931411
 32
0.0
 13
35.6302005007
 23
93.4243931411
 33
0.0
  0
SOLID
  5
10D
330
109
100
AcDbEntity
  8
0
  6
Continuous
 62
     7
370
     0
100
AcDbTrace
 10
107.6302005007
 20
92.6743931411
 30
0.0
 11
104.6302005007
 21
93.4243931411
 31
0.0
 12
104.6302005007
 22
91.9243931411
 32
0.0
 13
104.6302005007
 23
91.9243931411
 33
0.0
  0
LINE
  5
10E
330
109
100
AcDbEntity
  8
0
  6
Continuous
 62
     7
370
     0
100
AcDbLine
 10
32.6302005007
 20
150.6743931411
 30
0.0
 11
32.6302005007
 21
91.6743931411
 31
0.0
  0
LINE
  5
10F
330
109
100
AcDbEntity
  8
0
  6
Continuous
 62
     7
370
     0
100
AcDbLine
 10
107.6302005007
 20
150.6743931411
 30
0.0
 11
107.6302005007
 21
91.6743931411
 31
0.0
  0
LINE
  5
110
330
109
100
AcDbEntity
  8
0
  6
Continuous
 62
     7
370
     0
100
AcDbLine
 10
32.6302005007
 20
92.6743931411
 30
0.0
 11
107.6302005007
 21
92.6743931411
 31
0.0
  0
MTEXT
  5
111
330
109
100
AcDbEntity
  8
0
  6
Continuous
 62
     7
370
     0
100
AcDbMText
 10
68.0933950032
 20
97.1861299975
 30
-9.4772044725
 40
3.5
 41
0.0
 71
     1
 72
     1
  1
75
  7
SLDTEXTSTYLE0
 73
     1
 44
1.0
  0
ENDBLK
  5
10B
330
109
100
AcDbEntity
  8
0
100
AcDbBlockEnd
  0
BLOCK
  5
114
330
113
100
AcDbEntity
  8
0
100
AcDbBlockBegin
  2
_D_4
 70
     0
 10
0.0
 20
0.0
 30
0.0
  3
_D_4
  1

  0
SOLID
  5
116
330
113
100
AcDbEntity
  8
0
  6
Continuous
 62
     7
370
     0
100
AcDbTrace
 10
45.1302005007
 20
102.7875409282
 30
0.0
 11
48.1302005007
 21
102.0375409282
 31
0.0
 12
48.1302005007
 22
103.5375409282
 32
0.0
 13
48.1302005007
 23
103.5375409282
 33
0.0
  0
SOLID
  5
117
330
113
100
AcDbEntity
  8
0
  6
Continuous
 62
     7
370
     0
100
AcDbTrace
 10
95.1302005007
 20
102.7875409282
 30
0.0
 11
92.1302005007
 21
103.5375409282
 31
0.0
 12
92.1302005007
 22
102.0375409282
 32
0.0
 13
92.1302005007
 23
102.0375409282
 33
0.0
  0
LINE
  5
118
330
113
100
AcDbEntity
  8
0
  6
Continuous
 62
     7
370
     0
100
AcDbLine
 10
45.1302005007
 20
150.6743931411
 30
0.0
 11
45.1302005007
 21
101.7875409282
 31
0.0
  0
LINE
  5
119
330
113
100
AcDbEntity
  8
0
  6
Continuous
 62
     7
370
     0
100
AcDbLine
 10
95.1302005007
 20
150.6743931411
 30
0.0
 11
95.1302005007
 21
101.7875409282
 31
0.0
  0
LINE
  5
11A
330
113
100
AcDbEntity
  8
0
  6
Continuous
 62
     7
370
     0
100
AcDbLine
 10
45.1302005007
 20
102.7875409282
 30
0.0
 11
95.1302005007
 21
102.7875409282
 31
0.0
  0
MTEXT
  5
11B
330
113
100
AcDbEntity
  8
0
  6
Continuous
 62
     7
370
     0
100
AcDbMText
 10
68.0933950032
 20
107.2992777846
 30
-9.4772044725
 40
3.5
 41
0.0
 71
     1
 72
     1
  1
50
  7
SLDTEXTSTYLE0
 73
     1
 44
1.0
  0
ENDBLK
  5
115
330
113
100
AcDbEntity
  8
0
100
AcDbBlockEnd
  0
BLOCK
  5
11E
330
11D
100
AcDbEntity
  8
0
100
AcDbBlockBegin
  2
_D_5
 70
     0
 10
0.0
 20
0.0
 30
0.0
  3
_D_5
  1

  0
SOLID
  5
120
330
11D
100
AcDbEntity
  8
0
  6
Continuous
 62
     7
370
     0
100
AcDbTrace
 10
128.1587871842
 20
187.6743931411
 30
0.0
 11
127.4087871842
 21
184.6743931411
 31
0.0
 12
128.9087871842
 22
184.6743931411
 32
0.0
 13
128.9087871842
 23
184.6743931411
 33
0.0
  0
SOLID
  5
121
330
11D
100
AcDbEntity
  8
0
  6
Continuous
 62
     7
370
     0
100
AcDbTrace
 10
128.1587871842
 20
149.6743931411
 30
0.0
 11
128.9087871842
 21
152.6743931411
 31
0.0
 12
127.4087871842
 22
152.6743931411
 32
0.0
 13
127.4087871842
 23
152.6743931411
 33
0.0
  0
LINE
  5
122
330
11D
100
AcDbEntity
  8
0
  6
Continuous
 62
     7
370
     0
100
AcDbLine
 10
106.6302005007
 20
187.6743931411
 30
0.0
 11
129.1587871842
 21
187.6743931411
 31
0.0
  0
LINE
  5
123
330
11D
100
AcDbEntity
  8
0
  6
Continuous
 62
     7
370
     0
100
AcDbLine
 10
106.6302005007
 20
149.6743931411
 30
0.0
 11
129.1587871842
 21
149.6743931411
 31
0.0
  0
LINE
  5
124
330
11D
100
AcDbEntity
  8
0
  6
Continuous
 62
     7
370
     0
100
AcDbLine
 10
128.1587871842
 20
187.6743931411
 30
0.0
 11
128.1587871842
 21
149.6743931411
 31
0.0
  0
MTEXT
  5
125
330
11D
100
AcDbEntity
  8
0
  6
Continuous
 62
     7
370
     0
100
AcDbMText
 10
123.6470503278
 20
166.6375876437
 30
-9.4772044725
 40
3.5
 41
0.0
 71
     1
 72
     1
  1
38
  7
SLDTEXTSTYLE0
 11
-7.044195017643634E-15
 21
1.0
 31
0.0
 73
     1
 44
1.0
  0
ENDBLK
  5
11F
330
11D
100
AcDbEntity
  8
0
100
AcDbBlockEnd
  0
BLOCK
  5
128
330
127
100
AcDbEntity
  8
0
100
AcDbBlockBegin
  2
_D_6
 70
     0
 10
0.0
 20
0.0
 30
0.0
  3
_D_6
  1

  0
SOLID
  5
12A
330
127
100
AcDbEntity
  8
0
  6
Continuous
 62
     7
370
     0
100
AcDbTrace
 10
135.6302005007
 20
114.6743931411
 30
0.0
 11
136.3802005007
 21
117.6743931411
 31
0.0
 12
134.8802005007
 22
117.6743931411
 32
0.0
 13
134.8802005007
 23
117.6743931411
 33
0.0
  0
SOLID
  5
12B
330
127
100
AcDbEntity
  8
0
  6
Continuous
 62
     7
370
     0
100
AcDbTrace
 10
135.6302005007
 20
197.6743931411
 30
0.0
 11
134.8802005007
 21
194.6743931411
 31
0.0
 12
136.3802005007
 22
194.6743931411
 32
0.0
 13
136.3802005007
 23
194.6743931411
 33
0.0
  0
LINE
  5
12C
330
127
100
AcDbEntity
  8
0
  6
Continuous
 62
     7
370
     0
100
AcDbLine
 10
83.1302005007
 20
114.6743931411
 30
0.0
 11
136.6302005007
 21
114.6743931411
 31
0.0
  0
LINE
  5
12D
330
127
100
AcDbEntity
  8
0
  6
Continuous
 62
     7
370
     0
100
AcDbLine
 10
74.6302005007
 20
197.6743931411
 30
0.0
 11
136.6302005007
 21
197.6743931411
 31
0.0
  0
LINE
  5
12E
330
127
100
AcDbEntity
  8
0
  6
Continuous
 62
     7
370
     0
100
AcDbLine
 10
135.6302005007
 20
114.6743931411
 30
0.0
 11
135.6302005007
 21
197.6743931411
 31
0.0
  0
MTEXT
  5
12F
330
127
100
AcDbEntity
  8
0
  6
Continuous
 62
     7
370
     0
100
AcDbMText
 10
131.1184636443
 20
154.1375876437
 30
-9.4772044725
 40
3.5
 41
0.0
 71
     1
 72
     1
  1
83
  7
SLDTEXTSTYLE0
 11
6.123233995736766E-17
 21
1.0
 31
0.0
 73
     1
 44
1.0
  0
ENDBLK
  5
129
330
127
100
AcDbEntity
  8
0
100
AcDbBlockEnd
  0
BLOCK
  5
132
330
131
100
AcDbEntity
  8
0
100
AcDbBlockBegin
  2
_D_7
 70
     0
 10
0.0
 20
0.0
 30
0.0
  3
_D_7
  1

  0
SOLID
  5
134
330
131
100
AcDbEntity
  8
0
  6
Continuous
 62
     7
370
     0
100
AcDbTrace
 10
113.1902022325
 20
149.6743931411
 30
0.0
 11
112.4402022325
 21
146.6743931411
 31
0.0
 12
113.9402022325
 22
146.6743931411
 32
0.0
 13
113.9402022325
 23
146.6743931411
 33
0.0
  0
SOLID
  5
135
330
131
100
AcDbEntity
  8
0
  6
Continuous
 62
     7
370
     0
100
AcDbTrace
 10
113.1902022325
 20
154.6743931411
 30
0.0
 11
113.9402022325
 21
157.6743931411
 31
0.0
 12
112.4402022325
 22
157.6743931411
 32
0.0
 13
112.4402022325
 23
157.6743931411
 33
0.0
  0
LINE
  5
136
330
131
100
AcDbEntity
  8
0
  6
Continuous
 62
     7
370
     0
100
AcDbLine
 10
106.6302005007
 20
149.6743931411
 30
0.0
 11
114.1902022325
 21
149.6743931411
 31
0.0
  0
LINE
  5
137
330
131
100
AcDbEntity
  8
0
  6
Continuous
 62
     7
370
     0
100
AcDbLine
 10
87.7302005007
 20
154.6743931411
 30
0.0
 11
114.1902022325
 21
154.6743931411
 31
0.0
  0
LINE
  5
138
330
131
100
AcDbEntity
  8
0
  6
Continuous
 62
     7
370
     0
100
AcDbLine
 10
113.1902022325
 20
149.6743931411
 30
0.0
 11
113.1902022325
 21
144.6743931411
 31
0.0
  0
LINE
  5
139
330
131
100
AcDbEntity
  8
0
  6
Continuous
 62
     7
370
     0
100
AcDbLine
 10
113.1902022325
 20
149.6743931411
 30
0.0
 11
113.1902022325
 21
154.6743931411
 31
0.0
  0
LINE
  5
13A
330
131
100
AcDbEntity
  8
0
  6
Continuous
 62
     7
370
     0
100
AcDbLine
 10
113.1902022325
 20
154.6743931411
 30
0.0
 11
113.1902022325
 21
159.6743931411
 31
0.0
  0
MTEXT
  5
13B
330
131
100
AcDbEntity
  8
0
  6
Continuous
 62
     7
370
     0
100
AcDbMText
 10
108.6784653761
 20
151.1559903924
 30
-9.4772044725
 40
3.5
 41
0.0
 71
     1
 72
     1
  1
5
  7
SLDTEXTSTYLE0
 11
6.123233995736766E-17
 21
1.0
 31
0.0
 73
     1
 44
1.0
  0
ENDBLK
  5
133
330
131
100
AcDbEntity
  8
0
100
AcDbBlockEnd
  0
BLOCK
  5
13E
330
13D
100
AcDbEntity
  8
0
100
AcDbBlockBegin
  2
_D_8
 70
     0
 10
0.0
 20
0.0
 30
0.0
  3
_D_8
  1

  0
SOLID
  5
140
330
13D
100
AcDbEntity
  8
0
  6
Continuous
 62
     7
370
     0
100
AcDbTrace
 10
120.7884491034
 20
149.6743931411
 30
0.0
 11
120.0384491034
 21
146.6743931411
 31
0.0
 12
121.5384491034
 22
146.6743931411
 32
0.0
 13
121.5384491034
 23
146.6743931411
 33
0.0
  0
SOLID
  5
141
330
13D
100
AcDbEntity
  8
0
  6
Continuous
 62
     7
370
     0
100
AcDbTrace
 10
120.7884491034
 20
159.6743931411
 30
0.0
 11
121.5384491034
 21
162.6743931411
 31
0.0
 12
120.0384491034
 22
162.6743931411
 32
0.0
 13
120.0384491034
 23
162.6743931411
 33
0.0
  0
LINE
  5
142
330
13D
100
AcDbEntity
  8
0
  6
Continuous
 62
     7
370
     0
100
AcDbLine
 10
106.6302005007
 20
149.6743931411
 30
0.0
 11
121.7884491034
 21
149.6743931411
 31
0.0
  0
LINE
  5
143
330
13D
100
AcDbEntity
  8
0
  6
Continuous
 62
     7
370
     0
100
AcDbLine
 10
104.1302005007
 20
159.6743931411
 30
0.0
 11
121.7884491034
 21
159.6743931411
 31
0.0
  0
LINE
  5
144
330
13D
100
AcDbEntity
  8
0
  6
Continuous
 62
     7
370
     0
100
AcDbLine
 10
120.7884491034
 20
149.6743931411
 30
0.0
 11
120.7884491034
 21
144.6743931411
 31
0.0
  0
LINE
  5
145
330
13D
100
AcDbEntity
  8
0
  6
Continuous
 62
     7
370
     0
100
AcDbLine
 10
120.7884491034
 20
149.6743931411
 30
0.0
 11
120.7884491034
 21
159.6743931411
 31
0.0
  0
LINE
  5
146
330
13D
100
AcDbEntity
  8
0
  6
Continuous
 62
     7
370
     0
100
AcDbLine
 10
120.7884491034
 20
159.6743931411
 30
0.0
 11
120.7884491034
 21
164.6743931411
 31
0.0
  0
MTEXT
  5
147
330
13D
100
AcDbEntity
  8
0
  6
Continuous
 62
     7
370
     0
100
AcDbMText
 10
116.2767122471
 20
152.6375876437
 30
-9.4772044725
 40
3.5
 41
0.0
 71
     1
 72
     1
  1
10
  7
SLDTEXTSTYLE0
 11
6.123233995736766E-17
 21
1.0
 31
0.0
 73
     1
 44
1.0
  0
ENDBLK
  5
13F
330
13D
100
AcDbEntity
  8
0
100
AcDbBlockEnd
  0
BLOCK
  5
14A
330
149
100
AcDbEntity
  8
0
100
AcDbBlockBegin
  2
_D_9
 70
     0
 10
0.0
 20
0.0
 30
0.0
  3
_D_9
  1

  0
SOLID
  5
14C
330
149
100
AcDbEntity
  8
0
  6
Continuous
 62
     7
370
     0
100
AcDbTrace
 10
120.7884491034
 20
159.6743931411
 30
0.0
 11
121.5384491034
 21
162.6743931411
 31
0.0
 12
120.0384491034
 22
162.6743931411
 32
0.0
 13
120.0384491034
 23
162.6743931411
 33
0.0
  0
SOLID
  5
14D
330
149
100
AcDbEntity
  8
0
  6
Continuous
 62
     7
370
     0
100
AcDbTrace
 10
120.7884491034
 20
179.6743931411
 30
0.0
 11
120.0384491034
 21
176.6743931411
 31
0.0
 12
121.5384491034
 22
176.6743931411
 32
0.0
 13
121.5384491034
 23
176.6743931411
 33
0.0
  0
LINE
  5
14E
330
149
100
AcDbEntity
  8
0
  6
Continuous
 62
     7
370
     0
100
AcDbLine
 10
104.1302005007
 20
159.6743931411
 30
0.0
 11
121.7884491034
 21
159.6743931411
 31
0.0
  0
LINE
  5
14F
330
149
100
AcDbEntity
  8
0
  6
Continuous
 62
     7
370
     0
100
AcDbLine
 10
104.1302005007
 20
179.6743931411
 30
0.0
 11
121.7884491034
 21
179.6743931411
 31
0.0
  0
LINE
  5
150
330
149
100
AcDbEntity
  8
0
  6
Continuous
 62
     7
370
     0
100
AcDbLine
 10
120.7884491034
 20
159.6743931411
 30
0.0
 11
120.7884491034
 21
179.6743931411
 31
0.0
  0
MTEXT
  5
151
330
149
100
AcDbEntity
  8
0
  6
Continuous
 62
     7
370
     0
100
AcDbMText
 10
116.2767122471
 20
167.6375876437
 30
-9.4772044725
 40
3.5
 41
0.0
 71
     1
 72
     1
  1
20
  7
SLDTEXTSTYLE0
 11
6.123233995736766E-17
 21
1.0
 31
0.0
 73
     1
 44
1.0
  0
ENDBLK
  5
14B
330
149
100
AcDbEntity
  8
0
100
AcDbBlockEnd
  0
BLOCK
  5
154
330
153
100
AcDbEntity
  8
0
100
AcDbBlockBegin
  2
_D_10
 70
     0
 10
0.0
 20
0.0
 30
0.0
  3
_D_10
  1

  0
SOLID
  5
156
330
153
100
AcDbEntity
  8
0
  6
Continuous
 62
     7
370
     0
100
AcDbTrace
 10
120.7884491034
 20
187.6743931411
 30
0.0
 11
121.5384491034
 21
190.6743931411
 31
0.0
 12
120.0384491034
 22
190.6743931411
 32
0.0
 13
120.0384491034
 23
190.6743931411
 33
0.0
  0
SOLID
  5
157
330
153
100
AcDbEntity
  8
0
  6
Continuous
 62
     7
370
     0
100
AcDbTrace
 10
120.7884491034
 20
179.6743931411
 30
0.0
 11
120.0384491034
 21
176.6743931411
 31
0.0
 12
121.5384491034
 22
176.6743931411
 32
0.0
 13
121.5384491034
 23
176.6743931411
 33
0.0
  0
LINE
  5
158
330
153
100
AcDbEntity
  8
0
  6
Continuous
 62
     7
370
     0
100
AcDbLine
 10
106.6302005007
 20
187.6743931411
 30
0.0
 11
121.7884491034
 21
187.6743931411
 31
0.0
  0
LINE
  5
159
330
153
100
AcDbEntity
  8
0
  6
Continuous
 62
     7
370
     0
100
AcDbLine
 10
104.1302005007
 20
179.6743931411
 30
0.0
 11
121.7884491034
 21
179.6743931411
 31
0.0
  0
LINE
  5
15A
330
153
100
AcDbEntity
  8
0
  6
Continuous
 62
     7
370
     0
100
AcDbLine
 10
120.7884491034
 20
187.6743931411
 30
0.0
 11
120.7884491034
 21
192.6743931411
 31
0.0
  0
LINE
  5
15B
330
153
100
AcDbEntity
  8
0
  6
Continuous
 62
     7
370
     0
100
AcDbLine
 10
120.7884491034
 20
187.6743931411
 30
0.0
 11
120.7884491034
 21
179.6743931411
 31
0.0
  0
LINE
  5
15C
330
153
100
AcDbEntity
  8
0
  6
Continuous
 62
     7
370
     0
100
AcDbLine
 10
120.7884491034
 20
179.6743931411
 30
0.0
 11
120.7884491034
 21
174.6743931411
 31
0.0
  0
MTEXT
  5
15D
330
153
100
AcDbEntity
  8
0
  6
Continuous
 62
     7
370
     0
100
AcDbMText
 10
116.2767122471
 20
182.6559903924
 30
-9.4772044725
 40
3.5
 41
0.0
 71
     1
 72
     1
  1
8
  7
SLDTEXTSTYLE0
 11
-7.044195017643634E-15
 21
1.0
 31
0.0
 73
     1
 44
1.0
  0
ENDBLK
  5
155
330
153
100
AcDbEntity
  8
0
100
AcDbBlockEnd
  0
BLOCK
  5
160
330
15F
100
AcDbEntity
  8
0
100
AcDbBlockBegin
  2
_D_11
 70
     0
 10
0.0
 20
0.0
 30
0.0
  3
_D_11
  1

  0
SOLID
  5
162
330
15F
100
AcDbEntity
  8
0
  6
Continuous
 62
     7
370
     0
100
AcDbTrace
 10
128.1587871842
 20
197.6743931411
 30
0.0
 11
128.9087871842
 21
200.6743931411
 31
0.0
 12
127.4087871842
 22
200.6743931411
 32
0.0
 13
127.4087871842
 23
200.6743931411
 33
0.0
  0
SOLID
  5
163
330
15F
100
AcDbEntity
  8
0
  6
Continuous
 62
     7
370
     0
100
AcDbTrace
 10
128.1587871842
 20
187.6743931411
 30
0.0
 11
127.4087871842
 21
184.6743931411
 31
0.0
 12
128.9087871842
 22
184.6743931411
 32
0.0
 13
128.9087871842
 23
184.6743931411
 33
0.0
  0
LINE
  5
164
330
15F
100
AcDbEntity
  8
0
  6
Continuous
 62
     7
370
     0
100
AcDbLine
 10
74.6302005007
 20
197.6743931411
 30
0.0
 11
129.1587871842
 21
197.6743931411
 31
0.0
  0
LINE
  5
165
330
15F
100
AcDbEntity
  8
0
  6
Continuous
 62
     7
370
     0
100
AcDbLine
 10
106.6302005007
 20
187.6743931411
 30
0.0
 11
129.1587871842
 21
187.6743931411
 31
0.0
  0
LINE
  5
166
330
15F
100
AcDbEntity
  8
0
  6
Continuous
 62
     7
370
     0
100
AcDbLine
 10
128.1587871842
 20
197.6743931411
 30
0.0
 11
128.1587871842
 21
202.6743931411
 31
0.0
  0
LINE
  5
167
330
15F
100
AcDbEntity
  8
0
  6
Continuous
 62
     7
370
     0
100
AcDbLine
 10
128.1587871842
 20
197.6743931411
 30
0.0
 11
128.1587871842
 21
187.6743931411
 31
0.0
  0
LINE
  5
168
330
15F
100
AcDbEntity
  8
0
  6
Continuous
 62
     7
370
     0
100
AcDbLine
 10
128.1587871842
 20
187.6743931411
 30
0.0
 11
128.1587871842
 21
182.6743931411
 31
0.0
  0
MTEXT
  5
169
330
15F
100
AcDbEntity
  8
0
  6
Continuous
 62
     7
370
     0
100
AcDbMText
 10
123.6470503278
 20
190.6375876437
 30
-9.4772044725
 40
3.5
 41
0.0
 71
     1
 72
     1
  1
10
  7
SLDTEXTSTYLE0
 11
-7.044195017643634E-15
 21
1.0
 31
0.0
 73
     1
 44
1.0
  0
ENDBLK
  5
161
330
15F
100
AcDbEntity
  8
0
100
AcDbBlockEnd
  0
BLOCK
  5
16D
330
16C
100
AcDbEntity
  8
0
100
AcDbBlockBegin
  2
_D_12
 70
     0
 10
0.0
 20
0.0
 30
0.0
  3
_D_12
  1

  0
SOLID
  5
16F
330
16C
100
AcDbEntity
  8
0
  6
Continuous
 62
     7
370
     0
100
AcDbTrace
 10
97.9021076402
 20
184.424817418
 30
0.0
 11
100.0618421177
 21
186.6379705954
 31
0.0
 12
98.7662718604
 22
187.3939452698
 32
0.0
 13
98.7662718604
 23
187.3939452698
 33
0.0
  0
LINE
  5
170
330
16C
100
AcDbEntity
  8
0
  6
Continuous
 62
     7
370
     0
100
AcDbLine
 10
97.9021076402
 20
184.424817418
 30
0.0
 11
110.823115082
 21
206.5685128385
 31
0.0
  0
LINE
  5
171
330
16C
100
AcDbEntity
  8
0
  6
Continuous
 62
     7
370
     0
100
AcDbLine
 10
110.823115082
 20
206.5685128385
 30
0.0
 11
158.8497859194
 21
206.5685128385
 31
0.0
  0
MTEXT
  5
172
330
16C
100
AcDbEntity
  8
0
  6
Continuous
 62
     7
370
     0
100
AcDbMText
 10
112.410615082
 20
211.0802501605
 30
-9.4772044725
 40
3.5
 41
0.0
 71
     1
 72
     1
  1
4-
  7
SLDTEXTSTYLE0
 73
     1
 44
1.0
  0
MTEXT
  5
173
330
16C
100
AcDbEntity
  8
0
  6
Continuous
 62
     7
370
     0
100
AcDbMText
 10
116.4842260769
 20
211.0802501605
 30
-9.4772044725
 40
3.5
 41
0.0
 71
     1
 72
     1
  1
%%c
  7
SLDTEXTSTYLE0
 73
     1
 44
1.0
  0
MTEXT
  5
174
330
16C
100
AcDbEntity
  8
0
  6
Continuous
 62
     7
370
     0
100
AcDbMText
 10
120.3541568248
 20
211.0802501605
 30
-9.4772044725
 40
3.5
 41
0.0
 71
     1
 72
     1
  1
6.6,
  7
SLDTEXTSTYLE0
 73
     1
 44
1.0
  0
MTEXT
  5
175
330
16C
100
AcDbEntity
  8
0
  6
Continuous
 62
     7
370
     0
100
AcDbMText
 10
128.5013788148
 20
211.0802501605
 30
-9.4772044725
 40
3.5
 41
0.0
 71
     1
 72
     1
  1
%%c
  7
SLDTEXTSTYLE0
 73
     1
 44
1.0
  0
MTEXT
  5
176
330
16C
100
AcDbEntity
  8
0
  6
Continuous
 62
     7
370
     0
100
AcDbMText
 10
132.371309097
 20
211.0802501605
 30
-9.4772044725
 40
3.5
 41
0.0
 71
     1
 72
     1
  1
11
  7
SLDTEXTSTYLE0
 73
     1
 44
1.0
  0
MTEXT
  5
177
330
16C
100
AcDbEntity
  8
0
  6
Continuous
 62
     7
370
     0
100
AcDbMText
 10
136.4449196263
 20
211.0802501605
 30
-9.4772044725
 40
3.5
 41
0.0
 71
     1
 72
     1
  1
ザグリ深6.5
  7
SLDTEXTSTYLE0
 73
     1
 44
1.0
  0
ENDBLK
  5
16E
330
16C
100
AcDbEntity
  8
0
100
AcDbBlockEnd
  0
BLOCK
  5
179
330
178
100
AcDbEntity
  8
0
100
AcDbBlockBegin
  2
SW_CENTERMARKSYMBOL_0
 70
     0
 10
0.0
 20
0.0
 30
0.0
  3
SW_CENTERMARKSYMBOL_0
  1

  0
LINE
  5
17B
330
178
100
AcDbEntity
  8
0
  6
Continuous
 62
     0
370
     0
100
AcDbLine
 10
0.0
 20
0.0
 30
0.0
 11
0.0
 21
2.5
 31
0.0
  0
LINE
  5
17C
330
178
100
AcDbEntity
  8
0
  6
Continuous
 62
     0
370
     0
100
AcDbLine
 10
0.0
 20
0.0
 30
0.0
 11
-2.5
 21
0.0
 31
0.0
  0
LINE
  5
17D
330
178
100
AcDbEntity
  8
0
  6
Continuous
 62
     0
370
     0
100
AcDbLine
 10
0.0
 20
0.0
 30
0.0
 11
0.0
 21
-2.5
 31
0.0
  0
LINE
  5
17E
330
178
100
AcDbEntity
  8
0
  6
Continuous
 62
     0
370
     0
100
AcDbLine
 10
0.0
 20
0.0
 30
0.0
 11
2.5
 21
0.0
 31
0.0
  0
LINE
  5
17F
330
178
100
AcDbEntity
  8
0
  6
Continuous
 62
     0
370
     0
100
AcDbLine
 10
0.0
 20
5.0
 30
0.0
 11
0.0
 21
8.0
 31
0.0
  0
LINE
  5
180
330
178
100
AcDbEntity
  8
0
  6
Continuous
 62
     0
370
     0
100
AcDbLine
 10
-5.0
 20
0.0
 30
0.0
 11
-8.0
 21
0.0
 31
0.0
  0
LINE
  5
181
330
178
100
AcDbEntity
  8
0
  6
Continuous
 62
     0
370
     0
100
AcDbLine
 10
0.0
 20
-5.0
 30
0.0
 11
0.0
 21
-8.0
 31
0.0
  0
LINE
  5
182
330
178
100
AcDbEntity
  8
0
  6
Continuous
 62
     0
370
     0
100
AcDbLine
 10
5.0
 20
0.0
 30
0.0
 11
8.0
 21
0.0
 31
0.0
  0
ENDBLK
  5
17A
330
178
100
AcDbEntity
  8
0
100
AcDbBlockEnd
  0
BLOCK
  5
185
330
184
100
AcDbEntity
  8
0
100
AcDbBlockBegin
  2
SW_CENTERMARKSYMBOL_1
 70
     0
 10
0.0
 20
0.0
 30
0.0
  3
SW_CENTERMARKSYMBOL_1
  1

  0
LINE
  5
187
330
184
100
AcDbEntity
  8
0
  6
Continuous
 62
     0
370
     0
100
AcDbLine
 10
0.0
 20
0.0
 30
0.0
 11
0.0
 21
2.5
 31
0.0
  0
LINE
  5
188
330
184
100
AcDbEntity
  8
0
  6
Continuous
 62
     0
370
     0
100
AcDbLine
 10
0.0
 20
0.0
 30
0.0
 11
-2.5
 21
0.0
 31
0.0
  0
LINE
  5
189
330
184
100
AcDbEntity
  8
0
  6
Continuous
 62
     0
370
     0
100
AcDbLine
 10
0.0
 20
0.0
 30
0.0
 11
0.0
 21
-2.5
 31
0.0
  0
LINE
  5
18A
330
184
100
AcDbEntity
  8
0
  6
Continuous
 62
     0
370
     0
100
AcDbLine
 10
0.0
 20
0.0
 30
0.0
 11
2.5
 21
0.0
 31
0.0
  0
LINE
  5
18B
330
184
100
AcDbEntity
  8
0
  6
Continuous
 62
     0
370
     0
100
AcDbLine
 10
0.0
 20
5.0
 30
0.0
 11
0.0
 21
8.0
 31
0.0
  0
LINE
  5
18C
330
184
100
AcDbEntity
  8
0
  6
Continuous
 62
     0
370
     0
100
AcDbLine
 10
-5.0
 20
0.0
 30
0.0
 11
-8.0
 21
0.0
 31
0.0
  0
LINE
  5
18D
330
184
100
AcDbEntity
  8
0
  6
Continuous
 62
     0
370
     0
100
AcDbLine
 10
0.0
 20
-5.0
 30
0.0
 11
0.0
 21
-8.0
 31
0.0
  0
LINE
  5
18E
330
184
100
AcDbEntity
  8
0
  6
Continuous
 62
     0
370
     0
100
AcDbLine
 10
5.0
 20
0.0
 30
0.0
 11
8.0
 21
0.0
 31
0.0
  0
ENDBLK
  5
186
330
184
100
AcDbEntity
  8
0
100
AcDbBlockEnd
  0
BLOCK
  5
191
330
190
100
AcDbEntity
  8
0
100
AcDbBlockBegin
  2
SW_CENTERMARKSYMBOL_2
 70
     0
 10
0.0
 20
0.0
 30
0.0
  3
SW_CENTERMARKSYMBOL_2
  1

  0
LINE
  5
193
330
190
100
AcDbEntity
  8
0
  6
Continuous
 62
     0
370
     0
100
AcDbLine
 10
0.0
 20
0.0
 30
0.0
 11
0.0
 21
2.5
 31
0.0
  0
LINE
  5
194
330
190
100
AcDbEntity
  8
0
  6
Continuous
 62
     0
370
     0
100
AcDbLine
 10
0.0
 20
0.0
 30
0.0
 11
-2.5
 21
0.0
 31
0.0
  0
LINE
  5
195
330
190
100
AcDbEntity
  8
0
  6
Continuous
 62
     0
370
     0
100
AcDbLine
 10
0.0
 20
0.0
 30
0.0
 11
0.0
 21
-2.5
 31
0.0
  0
LINE
  5
196
330
190
100
AcDbEntity
  8
0
  6
Continuous
 62
     0
370
     0
100
AcDbLine
 10
0.0
 20
0.0
 30
0.0
 11
2.5
 21
0.0
 31
0.0
  0
LINE
  5
197
330
190
100
AcDbEntity
  8
0
  6
Continuous
 62
     0
370
     0
100
AcDbLine
 10
0.0
 20
5.0
 30
0.0
 11
0.0
 21
8.0
 31
0.0
  0
LINE
  5
198
330
190
100
AcDbEntity
  8
0
  6
Continuous
 62
     0
370
     0
100
AcDbLine
 10
-5.0
 20
0.0
 30
0.0
 11
-8.0
 21
0.0
 31
0.0
  0
LINE
  5
199
330
190
100
AcDbEntity
  8
0
  6
Continuous
 62
     0
370
     0
100
AcDbLine
 10
0.0
 20
-5.0
 30
0.0
 11
0.0
 21
-8.0
 31
0.0
  0
LINE
  5
19A
330
190
100
AcDbEntity
  8
0
  6
Continuous
 62
     0
370
     0
100
AcDbLine
 10
5.0
 20
0.0
 30
0.0
 11
8.0
 21
0.0
 31
0.0
  0
ENDBLK
  5
192
330
190
100
AcDbEntity
  8
0
100
AcDbBlockEnd
  0
BLOCK
  5
19D
330
19C
100
AcDbEntity
  8
0
100
AcDbBlockBegin
  2
SW_CENTERMARKSYMBOL_3
 70
     0
 10
0.0
 20
0.0
 30
0.0
  3
SW_CENTERMARKSYMBOL_3
  1

  0
LINE
  5
19F
330
19C
100
AcDbEntity
  8
0
  6
Continuous
 62
     0
370
     0
100
AcDbLine
 10
0.0
 20
0.0
 30
0.0
 11
0.0
 21
2.5
 31
0.0
  0
LINE
  5
1A0
330
19C
100
AcDbEntity
  8
0
  6
Continuous
 62
     0
370
     0
100
AcDbLine
 10
0.0
 20
0.0
 30
0.0
 11
-2.5
 21
0.0
 31
0.0
  0
LINE
  5
1A1
330
19C
100
AcDbEntity
  8
0
  6
Continuous
 62
     0
370
     0
100
AcDbLine
 10
0.0
 20
0.0
 30
0.0
 11
0.0
 21
-2.5
 31
0.0
  0
LINE
  5
1A2
330
19C
100
AcDbEntity
  8
0
  6
Continuous
 62
     0
370
     0
100
AcDbLine
 10
0.0
 20
0.0
 30
0.0
 11
2.5
 21
0.0
 31
0.0
  0
LINE
  5
1A3
330
19C
100
AcDbEntity
  8
0
  6
Continuous
 62
     0
370
     0
100
AcDbLine
 10
0.0
 20
5.0
 30
0.0
 11
0.0
 21
8.0
 31
0.0
  0
LINE
  5
1A4
330
19C
100
AcDbEntity
  8
0
  6
Continuous
 62
     0
370
     0
100
AcDbLine
 10
-5.0
 20
0.0
 30
0.0
 11
-8.0
 21
0.0
 31
0.0
  0
LINE
  5
1A5
330
19C
100
AcDbEntity
  8
0
  6
Continuous
 62
     0
370
     0
100
AcDbLine
 10
0.0
 20
-5.0
 30
0.0
 11
0.0
 21
-8.0
 31
0.0
  0
LINE
  5
1A6
330
19C
100
AcDbEntity
  8
0
  6
Continuous
 62
     0
370
     0
100
AcDbLine
 10
5.0
 20
0.0
 30
0.0
 11
8.0
 21
0.0
 31
0.0
  0
ENDBLK
  5
19E
330
19C
100
AcDbEntity
  8
0
100
AcDbBlockEnd
  0
BLOCK
  5
1A9
330
1A8
100
AcDbEntity
  8
0
100
AcDbBlockBegin
  2
SW_CENTERMARKSYMBOL_4
 70
     0
 10
0.0
 20
0.0
 30
0.0
  3
SW_CENTERMARKSYMBOL_4
  1

  0
LINE
  5
1AB
330
1A8
100
AcDbEntity
  8
0
  6
Continuous
 62
     0
370
     0
100
AcDbLine
 10
0.0
 20
0.0
 30
0.0
 11
0.0
 21
2.5
 31
0.0
  0
LINE
  5
1AC
330
1A8
100
AcDbEntity
  8
0
  6
Continuous
 62
     0
370
     0
100
AcDbLine
 10
0.0
 20
0.0
 30
0.0
 11
-2.5
 21
0.0
 31
0.0
  0
LINE
  5
1AD
330
1A8
100
AcDbEntity
  8
0
  6
Continuous
 62
     0
370
     0
100
AcDbLine
 10
0.0
 20
0.0
 30
0.0
 11
0.0
 21
-2.5
 31
0.0
  0
LINE
  5
1AE
330
1A8
100
AcDbEntity
  8
0
  6
Continuous
 62
     0
370
     0
100
AcDbLine
 10
0.0
 20
0.0
 30
0.0
 11
2.5
 21
0.0
 31
0.0
  0
LINE
  5
1AF
330
1A8
100
AcDbEntity
  8
0
  6
Continuous
 62
     0
370
     0
100
AcDbLine
 10
0.0
 20
2.5
 30
0.0
 11
0.0
 21
4.6
 31
0.0
  0
LINE
  5
1B0
330
1A8
100
AcDbEntity
  8
0
  6
Continuous
 62
     0
370
     0
100
AcDbLine
 10
-2.5
 20
0.0
 30
0.0
 11
-4.6
 21
0.0
 31
0.0
  0
LINE
  5
1B1
330
1A8
100
AcDbEntity
  8
0
  6
Continuous
 62
     0
370
     0
100
AcDbLine
 10
0.0
 20
-2.5
 30
0.0
 11
0.0
 21
-4.6
 31
0.0
  0
LINE
  5
1B2
330
1A8
100
AcDbEntity
  8
0
  6
Continuous
 62
     0
370
     0
100
AcDbLine
 10
2.5
 20
0.0
 30
0.0
 11
4.6
 21
0.0
 31
0.0
  0
ENDBLK
  5
1AA
330
1A8
100
AcDbEntity
  8
0
100
AcDbBlockEnd
  0
BLOCK
  5
214
330
213
100
AcDbEntity
  8
0
100
AcDbBlockBegin
  2
_D_13
 70
     0
 10
0.0
 20
0.0
 30
0.0
  3
_D_13
  1

  0
SOLID
  5
216
330
213
100
AcDbEntity
  8
0
  6
Continuous
 62
     7
370
     0
100
AcDbTrace
 10
171.5656947562
 20
216.4258071384
 30
0.0
 11
174.5656947562
 21
215.6758071384
 31
0.0
 12
174.5656947562
 22
217.1758071384
 32
0.0
 13
174.5656947562
 23
217.1758071384
 33
0.0
  0
SOLID
  5
217
330
213
100
AcDbEntity
  8
0
  6
Continuous
 62
     7
370
     0
100
AcDbTrace
 10
187.5656947562
 20
216.4258071384
 30
0.0
 11
184.5656947562
 21
217.1758071384
 31
0.0
 12
184.5656947562
 22
215.6758071384
 32
0.0
 13
184.5656947562
 23
215.6758071384
 33
0.0
  0
LINE
  5
218
330
213
100
AcDbEntity
  8
0
  6
Continuous
 62
     7
370
     0
100
AcDbLine
 10
171.5656947562
 20
187.6743931411
 30
0.0
 11
171.5656947562
 21
217.4258071384
 31
0.0
  0
LINE
  5
219
330
213
100
AcDbEntity
  8
0
  6
Continuous
 62
     7
370
     0
100
AcDbLine
 10
187.5656947562
 20
188.6743931411
 30
0.0
 11
187.5656947562
 21
217.4258071384
 31
0.0
  0
LINE
  5
21A
330
213
100
AcDbEntity
  8
0
  6
Continuous
 62
     7
370
     0
100
AcDbLine
 10
171.5656947562
 20
216.4258071384
 30
0.0
 11
187.5656947562
 21
216.4258071384
 31
0.0
  0
MTEXT
  5
21B
330
213
100
AcDbEntity
  8
0
  6
Continuous
 62
     7
370
     0
100
AcDbMText
 10
177.5288892587
 20
220.9375439948
 30
-37.4
 40
3.5
 41
0.0
 71
     1
 72
     1
  1
16
  7
SLDTEXTSTYLE0
 73
     1
 44
1.0
  0
ENDBLK
  5
215
330
213
100
AcDbEntity
  8
0
100
AcDbBlockEnd
  0
BLOCK
  5
21E
330
21D
100
AcDbEntity
  8
0
100
AcDbBlockBegin
  2
_D_14
 70
     0
 10
0.0
 20
0.0
 30
0.0
  3
_D_14
  1

  0
SOLID
  5
220
330
21D
100
AcDbEntity
  8
0
  6
Continuous
 62
     7
370
     0
100
AcDbTrace
 10
171.5656947562
 20
207.6743931411
 30
0.0
 11
168.5656947562
 21
208.4243931411
 31
0.0
 12
168.5656947562
 22
206.9243931411
 32
0.0
 13
168.5656947562
 23
206.9243931411
 33
0.0
  0
SOLID
  5
221
330
21D
100
AcDbEntity
  8
0
  6
Continuous
 62
     7
370
     0
100
AcDbTrace
 10
179.5656947562
 20
207.6743931411
 30
0.0
 11
182.5656947562
 21
206.9243931411
 31
0.0
 12
182.5656947562
 22
208.4243931411
 32
0.0
 13
182.5656947562
 23
208.4243931411
 33
0.0
  0
LINE
  5
222
330
21D
100
AcDbEntity
  8
0
  6
Continuous
 62
     7
370
     0
100
AcDbLine
 10
171.5656947562
 20
187.6743931411
 30
0.0
 11
171.5656947562
 21
208.6743931411
 31
0.0
  0
LINE
  5
223
330
21D
100
AcDbEntity
  8
0
  6
Continuous
 62
     7
370
     0
100
AcDbLine
 10
179.5656947562
 20
200.0464710098
 30
0.0
 11
179.5656947562
 21
208.6743931411
 31
0.0
  0
LINE
  5
224
330
21D
100
AcDbEntity
  8
0
  6
Continuous
 62
     7
370
     0
100
AcDbLine
 10
171.5656947562
 20
207.6743931411
 30
0.0
 11
166.5656947562
 21
207.6743931411
 31
0.0
  0
LINE
  5
225
330
21D
100
AcDbEntity
  8
0
  6
Continuous
 62
     7
370
     0
100
AcDbLine
 10
171.5656947562
 20
207.6743931411
 30
0.0
 11
179.5656947562
 21
207.6743931411
 31
0.0
  0
LINE
  5
226
330
21D
100
AcDbEntity
  8
0
  6
Continuous
 62
     7
370
     0
100
AcDbLine
 10
179.5656947562
 20
207.6743931411
 30
0.0
 11
184.5656947562
 21
207.6743931411
 31
0.0
  0
MTEXT
  5
227
330
21D
100
AcDbEntity
  8
0
  6
Continuous
 62
     7
370
     0
100
AcDbMText
 10
174.5472920075
 20
212.1861299975
 30
-37.4
 40
3.5
 41
0.0
 71
     1
 72
     1
  1
8
  7
SLDTEXTSTYLE0
 73
     1
 44
1.0
  0
ENDBLK
  5
21F
330
21D
100
AcDbEntity
  8
0
100
AcDbBlockEnd
  0
BLOCK
  5
22A
330
229
100
AcDbEntity
  8
0
100
AcDbBlockBegin
  2
_D_15
 70
     0
 10
0.0
 20
0.0
 30
0.0
  3
_D_15
  1

  0
SOLID
  5
22C
330
229
100
AcDbEntity
  8
0
  6
Continuous
 62
     7
370
     0
100
AcDbTrace
 10
147.8656947562
 20
159.6743931411
 30
0.0
 11
148.6156947562
 21
162.6743931411
 31
0.0
 12
147.1156947562
 22
162.6743931411
 32
0.0
 13
147.1156947562
 23
162.6743931411
 33
0.0
  0
SOLID
  5
22D
330
229
100
AcDbEntity
  8
0
  6
Continuous
 62
     7
370
     0
100
AcDbTrace
 10
147.8656947562
 20
149.6743931411
 30
0.0
 11
147.1156947562
 21
146.6743931411
 31
0.0
 12
148.6156947562
 22
146.6743931411
 32
0.0
 13
148.6156947562
 23
146.6743931411
 33
0.0
  0
LINE
  5
22E
330
229
100
AcDbEntity
  8
0
  6
Continuous
 62
     7
370
     0
100
AcDbLine
 10
163.3656947562
 20
159.6743931411
 30
0.0
 11
146.8656947562
 21
159.6743931411
 31
0.0
  0
LINE
  5
22F
330
229
100
AcDbEntity
  8
0
  6
Continuous
 62
     7
370
     0
100
AcDbLine
 10
163.3656947562
 20
149.6743931411
 30
0.0
 11
146.8656947562
 21
149.6743931411
 31
0.0
  0
LINE
  5
230
330
229
100
AcDbEntity
  8
0
  6
Continuous
 62
     7
370
     0
100
AcDbLine
 10
147.8656947562
 20
159.6743931411
 30
0.0
 11
147.8656947562
 21
164.6743931411
 31
0.0
  0
LINE
  5
231
330
229
100
AcDbEntity
  8
0
  6
Continuous
 62
     7
370
     0
100
AcDbLine
 10
147.8656947562
 20
159.6743931411
 30
0.0
 11
147.8656947562
 21
149.6743931411
 31
0.0
  0
LINE
  5
232
330
229
100
AcDbEntity
  8
0
  6
Continuous
 62
     7
370
     0
100
AcDbLine
 10
147.8656947562
 20
149.6743931411
 30
0.0
 11
147.8656947562
 21
144.6743931411
 31
0.0
  0
MTEXT
  5
233
330
229
100
AcDbEntity
  8
0
  6
Continuous
 62
     7
370
     0
100
AcDbMText
 10
143.3539574342
 20
150.7026222697
 30
-37.4
 40
3.5
 41
0.0
 71
     1
 72
     1
  1
%%c
  7
SLDTEXTSTYLE0
 11
-7.044195017643634E-15
 21
1.0
 31
0.0
 73
     1
 44
1.0
  0
MTEXT
  5
234
330
229
100
AcDbEntity
  8
0
  6
Continuous
 62
     7
370
     0
100
AcDbMText
 10
143.3539574342
 20
154.5725527848
 30
-37.4
 40
3.5
 41
0.0
 71
     1
 72
     1
  1
10
  7
SLDTEXTSTYLE0
 11
-7.044195017643634E-15
 21
1.0
 31
0.0
 73
     1
 44
1.0
  0
ENDBLK
  5
22B
330
229
100
AcDbEntity
  8
0
100
AcDbBlockEnd
  0
BLOCK
  5
237
330
236
100
AcDbEntity
  8
0
100
AcDbBlockBegin
  2
_D_16
 70
     0
 10
0.0
 20
0.0
 30
0.0
  3
_D_16
  1

  0
SOLID
  5
239
330
236
100
AcDbEntity
  8
0
  6
Continuous
 62
     7
370
     0
100
AcDbTrace
 10
155.7774250224
 20
150.6743931411
 30
0.0
 11
155.0274250224
 21
147.6743931411
 31
0.0
 12
156.5274250224
 22
147.6743931411
 32
0.0
 13
156.5274250224
 23
147.6743931411
 33
0.0
  0
SOLID
  5
23A
330
236
100
AcDbEntity
  8
0
  6
Continuous
 62
     7
370
     0
100
AcDbTrace
 10
155.7774250224
 20
158.6743931411
 30
0.0
 11
156.5274250224
 21
161.6743931411
 31
0.0
 12
155.0274250224
 22
161.6743931411
 32
0.0
 13
155.0274250224
 23
161.6743931411
 33
0.0
  0
LINE
  5
23B
330
236
100
AcDbEntity
  8
0
  6
Continuous
 62
     7
370
     0
100
AcDbLine
 10
166.8656947562
 20
150.6743931411
 30
0.0
 11
154.7774250224
 21
150.6743931411
 31
0.0
  0
LINE
  5
23C
330
236
100
AcDbEntity
  8
0
  6
Continuous
 62
     7
370
     0
100
AcDbLine
 10
166.8656947562
 20
158.6743931411
 30
0.0
 11
154.7774250224
 21
158.6743931411
 31
0.0
  0
LINE
  5
23D
330
236
100
AcDbEntity
  8
0
  6
Continuous
 62
     7
370
     0
100
AcDbLine
 10
155.7774250224
 20
150.6743931411
 30
0.0
 11
155.7774250224
 21
145.6743931411
 31
0.0
  0
LINE
  5
23E
330
236
100
AcDbEntity
  8
0
  6
Continuous
 62
     7
370
     0
100
AcDbLine
 10
155.7774250224
 20
150.6743931411
 30
0.0
 11
155.7774250224
 21
158.6743931411
 31
0.0
  0
LINE
  5
23F
330
236
100
AcDbEntity
  8
0
  6
Continuous
 62
     7
370
     0
100
AcDbLine
 10
155.7774250224
 20
158.6743931411
 30
0.0
 11
155.7774250224
 21
163.6743931411
 31
0.0
  0
MTEXT
  5
240
330
236
100
AcDbEntity
  8
0
  6
Continuous
 62
     7
370
     0
100
AcDbMText
 10
151.2656877004
 20
151.7210251349
 30
-37.4
 40
3.5
 41
0.0
 71
     1
 72
     1
  1
%%c
  7
SLDTEXTSTYLE0
 11
5.053215498074303E-16
 21
1.0
 31
0.0
 73
     1
 44
1.0
  0
MTEXT
  5
241
330
236
100
AcDbEntity
  8
0
  6
Continuous
 62
     7
370
     0
100
AcDbMText
 10
151.2656877004
 20
155.5909556499
 30
-37.4
 40
3.5
 41
0.0
 71
     1
 72
     1
  1
8
  7
SLDTEXTSTYLE0
 11
5.053215498074303E-16
 21
1.0
 31
0.0
 73
     1
 44
1.0
  0
ENDBLK
  5
238
330
236
100
AcDbEntity
  8
0
100
AcDbBlockEnd
  0
BLOCK
  5
244
330
243
100
AcDbEntity
  8
0
100
AcDbBlockBegin
  2
_D_17
 70
     0
 10
0.0
 20
0.0
 30
0.0
  3
_D_17
  1

  0
SOLID
  5
246
330
243
100
AcDbEntity
  8
0
  6
Continuous
 62
     7
370
     0
100
AcDbTrace
 10
192.0656947562
 20
101.8172394207
 30
0.0
 11
189.0656947562
 21
102.5672394207
 31
0.0
 12
189.0656947562
 22
101.0672394207
 32
0.0
 13
189.0656947562
 23
101.0672394207
 33
0.0
  0
SOLID
  5
247
330
243
100
AcDbEntity
  8
0
  6
Continuous
 62
     7
370
     0
100
AcDbTrace
 10
167.0656947562
 20
101.8172394207
 30
0.0
 11
170.0656947562
 21
101.0672394207
 31
0.0
 12
170.0656947562
 22
102.5672394207
 32
0.0
 13
170.0656947562
 23
102.5672394207
 33
0.0
  0
LINE
  5
248
330
243
100
AcDbEntity
  8
0
  6
Continuous
 62
     7
370
     0
100
AcDbLine
 10
192.0656947562
 20
114.1743931411
 30
0.0
 11
192.0656947562
 21
100.8172394207
 31
0.0
  0
LINE
  5
249
330
243
100
AcDbEntity
  8
0
  6
Continuous
 62
     7
370
     0
100
AcDbLine
 10
167.0656947562
 20
114.1743931411
 30
0.0
 11
167.0656947562
 21
100.8172394207
 31
0.0
  0
LINE
  5
24A
330
243
100
AcDbEntity
  8
0
  6
Continuous
 62
     7
370
     0
100
AcDbLine
 10
192.0656947562
 20
101.8172394207
 30
0.0
 11
167.0656947562
 21
101.8172394207
 31
0.0
  0
MTEXT
  5
24B
330
243
100
AcDbEntity
  8
0
  6
Continuous
 62
     7
370
     0
100
AcDbMText
 10
175.5939238848
 20
106.3289767428
 30
-37.4
 40
3.5
 41
0.0
 71
     1
 72
     1
  1
%%c
  7
SLDTEXTSTYLE0
 73
     1
 44
1.0
  0
MTEXT
  5
24C
330
243
100
AcDbEntity
  8
0
  6
Continuous
 62
     7
370
     0
100
AcDbMText
 10
179.4638543999
 20
106.3289767428
 30
-37.4
 40
3.5
 41
0.0
 71
     1
 72
     1
  1
25
  7
SLDTEXTSTYLE0
 73
     1
 44
1.0
  0
ENDBLK
  5
245
330
243
100
AcDbEntity
  8
0
100
AcDbBlockEnd
  0
ENDSEC
  0
SECTION
  2
ENTITIES
  0
LINE
  5
44
330
1F
100
AcDbEntity
  8
0
  6
Continuous
 62
     7
370
     0
100
AcDbLine
 10
20.2604743903
 20
285.0
 30
0.0
 11
196.7604743903
 21
285.0
 31
0.0
  0
LINE
  5
45
330
1F
100
AcDbEntity
  8
0
  6
Continuous
 62
     7
370
     0
100
AcDbLine
 10
20.2604743903
 20
285.0
 30
0.0
 11
20.2604743903
 21
10.0
 31
0.0
  0
LINE
  5
46
330
1F
100
AcDbEntity
  8
0
  6
Continuous
 62
     7
370
     0
100
AcDbLine
 10
20.2604743903
 20
10.0
 30
0.0
 11
196.7604743903
 21
10.0
 31
0.0
  0
LINE
  5
47
330
1F
100
AcDbEntity
  8
0
  6
Continuous
 62
     7
370
     0
100
AcDbLine
 10
196.7604743903
 20
285.0
 30
0.0
 11
196.7604743903
 21
10.0
 31
0.0
  0
LINE
  5
48
330
1F
100
AcDbEntity
  8
0
  6
Continuous
 62
     7
370
     0
100
AcDbLine
 10
127.0104743903
 20
50.75
 30
0.0
 11
196.7604743903
 21
50.75
 31
0.0
  0
LINE
  5
49
330
1F
100
AcDbEntity
  8
0
  6
Continuous
 62
     7
370
     0
100
AcDbLine
 10
127.0104743903
 20
50.75
 30
0.0
 11
127.0104743903
 21
10.0
 31
0.0
  0
LINE
  5
4A
330
1F
100
AcDbEntity
  8
0
  6
Continuous
 62
     7
370
     0
100
AcDbLine
 10
127.0104743903
 20
22.75
 30
0.0
 11
196.7604743903
 21
22.75
 31
0.0
  0
LINE
  5
4B
330
1F
100
AcDbEntity
  8
0
  6
Continuous
 62
     7
370
     0
100
AcDbLine
 10
127.0104743903
 20
36.75
 30
0.0
 11
196.7604743903
 21
36.75
 31
0.0
  0
MTEXT
  5
4D
330
1F
100
AcDbEntity
  8
0
  6
Continuous
 62
     7
370
     0
100
AcDbMText
 10
161.6850745875
 20
30.4171582345
 30
0.0
 40
4.2333333333
 41
0.0
 71
     2
 72
     1
  1
OA-SSL(SUS)
  7
SLDTEXTSTYLE0
 73
     1
 44
1.0
  0
MTEXT
  5
4E
330
1F
100
AcDbEntity
  8
0
  6
Continuous
 62
     7
370
     0
100
AcDbMText
 10
158.9832885137
 20
44.3077193877
 30
0.0
 40
3.175
 41
0.0
 71
     2
 72
     1
  1
チャックワンタッチ・ステンレス・ロボ
  7
SLDTEXTSTYLE0
 73
     1
 44
1.0
  0
MTEXT
  5
4F
330
1F
100
AcDbEntity
  8
0
  6
Continuous
 62
     7
370
     0
100
AcDbMText
 10
162.6471314379
 20
16.8228189052
 30
0.0
 40
4.2333333333
 41
0.0
 71
     2
 72
     1
  1
140271
  7
SLDTEXTSTYLE0
 73
     1
 44
1.0
  0
LINE
  5
50
330
1F
100
AcDbEntity
  8
0
  6
Continuous
 62
     7
370
     0
100
AcDbLine
 10
89.1301995172
 20
193.6743929027
 30
0.0
 11
88.3263526513
 21
196.6743915318
 31
0.0
  0
LINE
  5
51
330
1F
100
AcDbEntity
  8
0
  6
Continuous
 62
     7
370
     0
100
AcDbLine
 10
83.9340491249
 20
196.6743915318
 30
0.0
 11
83.130202259
 21
193.6743929027
 31
0.0
  0
LINE
  5
52
330
1F
100
AcDbEntity
  8
0
  6
Continuous
 62
     7
370
     0
100
AcDbLine
 10
83.130202259
 20
193.6743929027
 30
0.0
 11
83.130202259
 21
187.6743919192
 31
0.0
  0
LINE
  5
53
330
1F
100
AcDbEntity
  8
0
  6
Continuous
 62
     7
370
     0
100
AcDbLine
 10
89.1301995172
 20
187.6743919192
 30
0.0
 11
89.1301995172
 21
193.6743929027
 31
0.0
  0
LINE
  5
54
330
1F
100
AcDbEntity
  8
0
  6
Continuous
 62
     7
370
     0
100
AcDbLine
 10
57.1301998599
 20
193.6743929027
 30
0.0
 11
56.326352994
 21
196.6743915318
 31
0.0
  0
LINE
  5
55
330
1F
100
AcDbEntity
  8
0
  6
Continuous
 62
     7
370
     0
100
AcDbLine
 10
51.934047605
 20
196.6743915318
 30
0.0
 11
51.1302007391
 21
193.6743929027
 31
0.0
  0
LINE
  5
56
330
1F
100
AcDbEntity
  8
0
  6
Continuous
 62
     7
370
     0
100
AcDbLine
 10
51.1302007391
 20
193.6743929027
 30
0.0
 11
51.1302007391
 21
187.6743919192
 31
0.0
  0
LINE
  5
57
330
1F
100
AcDbEntity
  8
0
  6
Continuous
 62
     7
370
     0
100
AcDbLine
 10
57.1301998599
 20
187.6743919192
 30
0.0
 11
57.1301998599
 21
193.6743929027
 31
0.0
  0
LINE
  5
58
330
1F
100
AcDbEntity
  8
0
  6
Continuous
 62
     7
370
     0
100
AcDbLine
 10
74.1301989212
 20
175.6743936776
 30
0.0
 11
74.1301989212
 21
177.4243934988
 31
0.0
  0
LINE
  5
59
330
1F
100
AcDbEntity
  8
0
  6
Continuous
 62
     7
370
     0
100
AcDbLine
 10
74.1301989212
 20
183.9243917702
 30
0.0
 11
74.1301989212
 21
197.1743925451
 31
0.0
  0
LINE
  5
5A
330
1F
100
AcDbEntity
  8
0
  6
Continuous
 62
     7
370
     0
100
AcDbLine
 10
66.1302013351
 20
197.1743925451
 30
0.0
 11
66.1302013351
 21
183.9243917702
 31
0.0
  0
LINE
  5
5B
330
1F
100
AcDbEntity
  8
0
  6
Continuous
 62
     7
370
     0
100
AcDbLine
 10
66.1302013351
 20
177.4243934988
 30
0.0
 11
66.1302013351
 21
175.6743936776
 31
0.0
  0
LINE
  5
5C
330
1F
100
AcDbEntity
  8
0
  6
Continuous
 62
     7
370
     0
100
AcDbLine
 10
74.1301989212
 20
197.1743925451
 30
0.0
 11
73.6302016332
 21
197.6743935584
 31
0.0
  0
LINE
  5
5D
330
1F
100
AcDbEntity
  8
0
  6
Continuous
 62
     7
370
     0
100
AcDbLine
 10
66.6302023484
 20
197.6743935584
 30
0.0
 11
66.1302013351
 21
197.1743925451
 31
0.0
  0
LINE
  5
5E
330
1F
100
AcDbEntity
  8
0
  6
Continuous
 62
     7
370
     0
100
AcDbLine
 10
82.6302012457
 20
127.1743922471
 30
0.0
 11
82.1302002325
 21
127.6743932604
 31
0.0
  0
LINE
  5
5F
330
1F
100
AcDbEntity
  8
0
  6
Continuous
 62
     7
370
     0
100
AcDbLine
 10
58.1302000238
 20
127.6743932604
 30
0.0
 11
57.6302008732
 21
127.1743922471
 31
0.0
  0
LINE
  5
60
330
1F
100
AcDbEntity
  8
0
  6
Continuous
 62
     7
370
     0
100
AcDbLine
 10
82.6302012457
 20
120.0589164137
 30
0.0
 11
82.6302012457
 21
127.1743922471
 31
0.0
  0
LINE
  5
61
330
1F
100
AcDbEntity
  8
0
  6
Continuous
 62
     7
370
     0
100
AcDbLine
 10
82.6302012457
 20
115.1743940054
 30
0.0
 11
82.6302012457
 21
118.3252147375
 31
0.0
  0
LINE
  5
62
330
1F
100
AcDbEntity
  8
0
  6
Continuous
 62
     7
370
     0
100
AcDbLine
 10
57.6302008732
 20
127.1743922471
 30
0.0
 11
57.6302008732
 21
115.1743940054
 31
0.0
  0
LINE
  5
63
330
1F
100
AcDbEntity
  8
0
  6
Continuous
 62
     7
370
     0
100
AcDbLine
 10
57.6302008732
 20
115.1743940054
 30
0.0
 11
58.1302000238
 21
114.6743929921
 31
0.0
  0
LINE
  5
64
330
1F
100
AcDbEntity
  8
0
  6
Continuous
 62
     7
370
     0
100
AcDbLine
 10
82.1302002325
 20
114.6743929921
 30
0.0
 11
82.6302012457
 21
115.1743940054
 31
0.0
  0
ARC
  5
65
330
1F
100
AcDbEntity
  8
0
  6
Continuous
 62
     7
370
     0
100
AcDbCircle
 10
61.1302005007
 20
129.6743931411
 30
0.0
 40
2.000000000000007
100
AcDbArc
 50
270.0
 51
0.0
  0
ARC
  5
66
330
1F
100
AcDbEntity
  8
0
  6
Continuous
 62
     7
370
     0
100
AcDbCircle
 10
79.1302005007
 20
129.6743931411
 30
0.0
 40
2.0
100
AcDbArc
 50
180.0
 51
270.0
  0
LINE
  5
67
330
1F
100
AcDbEntity
  8
0
  6
Continuous
 62
     7
370
     0
100
AcDbLine
 10
77.1302012755
 20
129.6743935882
 30
0.0
 11
77.1302012755
 21
148.6743930936
 31
0.0
  0
LINE
  5
68
330
1F
100
AcDbEntity
  8
0
  6
Continuous
 62
     7
370
     0
100
AcDbLine
 10
63.1302008434
 20
148.6743930936
 30
0.0
 11
63.1302008434
 21
129.6743935882
 31
0.0
  0
LINE
  5
69
330
1F
100
AcDbEntity
  8
0
  6
Continuous
 62
     7
370
     0
100
AcDbLine
 10
77.1302012755
 20
148.6743930936
 30
0.0
 11
76.130199249
 21
149.6743931411
 31
0.0
  0
LINE
  5
6A
330
1F
100
AcDbEntity
  8
0
  6
Continuous
 62
     7
370
     0
100
AcDbLine
 10
64.1302010073
 20
149.6743931411
 30
0.0
 11
63.1302008434
 21
148.6743930936
 31
0.0
  0
LINE
  5
6B
330
1F
100
AcDbEntity
  8
0
  6
Continuous
 62
     7
370
     0
100
AcDbLine
 10
66.5143122925
 20
182.1743919491
 30
0.0
 11
66.2361672177
 21
182.1743919491
 31
0.0
  0
LINE
  5
6C
330
1F
100
AcDbEntity
  8
0
  6
Continuous
 62
     7
370
     0
100
AcDbLine
 10
66.2361672177
 20
179.17439332
 30
0.0
 11
66.5143122925
 21
179.17439332
 31
0.0
  0
LINE
  5
6D
330
1F
100
AcDbEntity
  8
0
  6
Continuous
 62
     7
370
     0
100
AcDbLine
 10
83.9340491249
 20
196.6743915318
 30
0.0
 11
88.3263526513
 21
196.6743915318
 31
0.0
  0
LINE
  5
6E
330
1F
100
AcDbEntity
  8
0
  6
Continuous
 62
     7
370
     0
100
AcDbLine
 10
83.1985650613
 20
193.6743929027
 30
0.0
 11
89.1301995172
 21
193.6743929027
 31
0.0
  0
LINE
  5
6F
330
1F
100
AcDbEntity
  8
0
  6
Continuous
 62
     7
370
     0
100
AcDbLine
 10
83.130202259
 20
193.6743929027
 30
0.0
 11
83.1985650613
 21
193.6743929027
 31
0.0
  0
LINE
  5
70
330
1F
100
AcDbEntity
  8
0
  6
Continuous
 62
     7
370
     0
100
AcDbLine
 10
51.934047605
 20
196.6743915318
 30
0.0
 11
56.326352994
 21
196.6743915318
 31
0.0
  0
LINE
  5
71
330
1F
100
AcDbEntity
  8
0
  6
Continuous
 62
     7
370
     0
100
AcDbLine
 10
51.1302007391
 20
193.6743929027
 30
0.0
 11
57.1301998599
 21
193.6743929027
 31
0.0
  0
LINE
  5
72
330
1F
100
AcDbEntity
  8
0
  6
Continuous
 62
     7
370
     0
100
AcDbLine
 10
80.1301999046
 20
175.6743936776
 30
0.0
 11
60.1302003517
 21
175.6743936776
 31
0.0
  0
LINE
  5
73
330
1F
100
AcDbEntity
  8
0
  6
Continuous
 62
     7
370
     0
100
AcDbLine
 10
80.1301999046
 20
186.674393618
 30
0.0
 11
80.1301999046
 21
175.6743936776
 31
0.0
  0
LINE
  5
74
330
1F
100
AcDbEntity
  8
0
  6
Continuous
 62
     7
370
     0
100
AcDbLine
 10
106.6302014544
 20
186.674393618
 30
0.0
 11
80.1301999046
 21
186.674393618
 31
0.0
  0
LINE
  5
75
330
1F
100
AcDbEntity
  8
0
  6
Continuous
 62
     7
370
     0
100
AcDbLine
 10
107.6302034809
 20
185.6743915914
 30
0.0
 11
106.6302014544
 21
186.674393618
 31
0.0
  0
LINE
  5
76
330
1F
100
AcDbEntity
  8
0
  6
Continuous
 62
     7
370
     0
100
AcDbLine
 10
107.6302034809
 20
151.6743932361
 30
0.0
 11
107.6302034809
 21
185.6743915914
 31
0.0
  0
LINE
  5
77
330
1F
100
AcDbEntity
  8
0
  6
Continuous
 62
     7
370
     0
100
AcDbLine
 10
105.6301994278
 20
149.6743931411
 30
0.0
 11
107.6302034809
 21
151.6743932361
 31
0.0
  0
LINE
  5
78
330
1F
100
AcDbEntity
  8
0
  6
Continuous
 62
     7
370
     0
100
AcDbLine
 10
34.6302005957
 20
149.6743931411
 30
0.0
 11
78.8135742797
 21
149.6743931411
 31
0.0
  0
LINE
  5
79
330
1F
100
AcDbEntity
  8
0
  6
Continuous
 62
     7
370
     0
100
AcDbLine
 10
85.4468261852
 20
149.6743931411
 30
0.0
 11
105.6301994278
 21
149.6743931411
 31
0.0
  0
LINE
  5
7A
330
1F
100
AcDbEntity
  8
0
  6
Continuous
 62
     7
370
     0
100
AcDbLine
 10
32.6302005007
 20
151.6743932361
 30
0.0
 11
34.6302005957
 21
149.6743931411
 31
0.0
  0
LINE
  5
7B
330
1F
100
AcDbEntity
  8
0
  6
Continuous
 62
     7
370
     0
100
AcDbLine
 10
32.6302005007
 20
185.6743915914
 30
0.0
 11
32.6302005007
 21
151.6743932361
 31
0.0
  0
LINE
  5
7C
330
1F
100
AcDbEntity
  8
0
  6
Continuous
 62
     7
370
     0
100
AcDbLine
 10
60.1302003517
 20
186.674393618
 30
0.0
 11
33.6302005482
 21
186.674393618
 31
0.0
  0
LINE
  5
7D
330
1F
100
AcDbEntity
  8
0
  6
Continuous
 62
     7
370
     0
100
AcDbLine
 10
60.1302003517
 20
175.6743936776
 30
0.0
 11
60.1302003517
 21
186.674393618
 31
0.0
  0
CIRCLE
  5
7E
330
1F
100
AcDbEntity
  8
0
  6
Continuous
 62
     7
370
     0
100
AcDbCircle
 10
45.1302005007
 20
159.6743931411
 30
0.0
 40
5.5
  0
CIRCLE
  5
7F
330
1F
100
AcDbEntity
  8
0
  6
Continuous
 62
     7
370
     0
100
AcDbCircle
 10
95.1302005007
 20
159.6743931411
 30
0.0
 40
5.5
  0
CIRCLE
  5
80
330
1F
100
AcDbEntity
  8
0
  6
Continuous
 62
     7
370
     0
100
AcDbCircle
 10
95.1302005007
 20
179.6743931411
 30
0.0
 40
5.5
  0
CIRCLE
  5
81
330
1F
100
AcDbEntity
  8
0
  6
Continuous
 62
     7
370
     0
100
AcDbCircle
 10
45.1302005007
 20
179.6743931411
 30
0.0
 40
5.5
  0
CIRCLE
  5
82
330
1F
100
AcDbEntity
  8
0
  6
Continuous
 62
     7
370
     0
100
AcDbCircle
 10
54.1302005007
 20
182.6743931411
 30
0.0
 40
1.649999999999984
  0
CIRCLE
  5
83
330
1F
100
AcDbEntity
  8
0
  6
Continuous
 62
     7
370
     0
100
AcDbCircle
 10
86.1302005007
 20
182.6743931411
 30
0.0
 40
1.650000000000006
  0
LINE
  5
84
330
1F
100
AcDbEntity
  8
0
  6
Continuous
 62
     7
370
     0
100
AcDbLine
 10
33.6302005482
 20
186.674393618
 30
0.0
 11
32.6302005007
 21
185.6743915914
 31
0.0
  0
LINE
  5
85
330
1F
100
AcDbEntity
  8
0
  6
Continuous
 62
     7
370
     0
100
AcDbLine
 10
34.6302005957
 20
187.6743919192
 30
0.0
 11
60.1302003517
 21
187.6743919192
 31
0.0
  0
LINE
  5
86
330
1F
100
AcDbEntity
  8
0
  6
Continuous
 62
     7
370
     0
100
AcDbLine
 10
60.1302003517
 20
187.6743919192
 30
0.0
 11
60.1302003517
 21
186.674393618
 31
0.0
  0
LINE
  5
87
330
1F
100
AcDbEntity
  8
0
  6
Continuous
 62
     7
370
     0
100
AcDbLine
 10
33.6302005482
 20
186.674393618
 30
0.0
 11
34.6302005957
 21
187.6743919192
 31
0.0
  0
LINE
  5
88
330
1F
100
AcDbEntity
  8
0
  6
Continuous
 62
     7
370
     0
100
AcDbLine
 10
80.1301999046
 20
187.6743919192
 30
0.0
 11
105.6301994278
 21
187.6743919192
 31
0.0
  0
LINE
  5
89
330
1F
100
AcDbEntity
  8
0
  6
Continuous
 62
     7
370
     0
100
AcDbLine
 10
105.6301994278
 20
187.6743919192
 30
0.0
 11
106.6302014544
 21
186.674393618
 31
0.0
  0
LINE
  5
8A
330
1F
100
AcDbEntity
  8
0
  6
Continuous
 62
     7
370
     0
100
AcDbLine
 10
80.1301999046
 20
186.674393618
 30
0.0
 11
80.1301999046
 21
187.6743919192
 31
0.0
  0
CIRCLE
  5
8B
330
1F
100
AcDbEntity
  8
0
  6
Continuous
 62
     7
370
     0
100
AcDbCircle
 10
95.1302005007
 20
159.6743931411
 30
0.0
 40
3.299999999999997
  0
CIRCLE
  5
8C
330
1F
100
AcDbEntity
  8
0
  6
Continuous
 62
     7
370
     0
100
AcDbCircle
 10
45.1302005007
 20
159.6743931411
 30
0.0
 40
3.300000000000004
  0
CIRCLE
  5
8D
330
1F
100
AcDbEntity
  8
0
  6
Continuous
 62
     7
370
     0
100
AcDbCircle
 10
45.1302005007
 20
179.6743931411
 30
0.0
 40
3.299999999999997
  0
CIRCLE
  5
8E
330
1F
100
AcDbEntity
  8
0
  6
Continuous
 62
     7
370
     0
100
AcDbCircle
 10
95.1302005007
 20
179.6743931411
 30
0.0
 40
3.299999999999997
  0
LINE
  5
8F
330
1F
100
AcDbEntity
  8
0
  6
Continuous
 62
     7
370
     0
100
AcDbLine
 10
67.9050376668
 20
197.1743925451
 30
0.0
 11
66.1302013351
 21
197.1743925451
 31
0.0
  0
LINE
  5
90
330
1F
100
AcDbEntity
  8
0
  6
Continuous
 62
     7
370
     0
100
AcDbLine
 10
74.1301989212
 20
197.1743925451
 30
0.0
 11
67.9050376668
 21
197.1743925451
 31
0.0
  0
LINE
  5
91
330
1F
100
AcDbEntity
  8
0
  6
Continuous
 62
     7
370
     0
100
AcDbLine
 10
68.1831827416
 20
197.6743935584
 30
0.0
 11
73.6302016332
 21
197.6743935584
 31
0.0
  0
LINE
  5
92
330
1F
100
AcDbEntity
  8
0
  6
Continuous
 62
     7
370
     0
100
AcDbLine
 10
66.6302023484
 20
197.6743935584
 30
0.0
 11
68.1831827416
 21
197.6743935584
 31
0.0
  0
SPLINE
  5
93
330
1F
100
AcDbEntity
  8
0
  6
Continuous
 62
     7
370
     0
100
AcDbSpline
210
0.0
220
0.0
230
1.0
 70
     8
 71
     3
 72
    12
 73
     8
 74
     0
 42
0.00000001
 43
0.00000001
 12
1.0
 22
0.0
 32
0.0
 13
1.0
 23
0.0
 33
0.0
 40
0.0
 40
0.0
 40
0.0
 40
0.0
 40
0.5000000000000022
 40
0.5000000000000022
 40
0.7500000000000011
 40
0.7500000000000011
 40
1.0
 40
1.0
 40
1.0
 40
1.0
 10
69.63282229689547
 20
178.4299466406091
 30
0.0
 10
69.14379538916876
 20
178.1357022846735
 30
0.0
 10
68.64370055549338
 20
177.8856710134585
 30
0.0
 10
67.86659334493547
 20
177.618341132254
 30
0.0
 10
67.60301574839507
 20
177.5473745555447
 30
0.0
 10
67.06465810984494
 20
177.4501918524736
 30
0.0
 10
66.78744110864626
 20
177.424393141144
 30
0.0
 10
66.51431080756757
 20
177.424393141144
 30
0.0
  0
SPLINE
  5
94
330
1F
100
AcDbEntity
  8
0
  6
Continuous
 62
     7
370
     0
100
AcDbSpline
210
0.0
220
0.0
230
1.0
 70
     8
 71
     3
 72
    12
 73
     8
 74
     0
 42
0.00000001
 43
0.00000001
 12
1.0
 22
0.0
 32
0.0
 13
1.0
 23
0.0
 33
0.0
 40
0.0
 40
0.0
 40
0.0
 40
0.0
 40
0.5
 40
0.5
 40
0.75
 40
0.75
 40
1.0
 40
1.0
 40
1.0
 40
1.0
 10
69.63282229689547
 20
178.4299466406091
 30
0.0
 10
70.15536907196181
 20
178.1387549911973
 30
0.0
 10
70.70483824718738
 20
177.8838372648199
 30
0.0
 10
71.54674675635962
 20
177.6164416944235
 30
0.0
 10
71.83113527045961
 20
177.5460068991277
 30
0.0
 10
72.40890251518869
 20
177.4499334718224
 30
0.0
 10
72.70456975574069
 20
177.424393141144
 30
0.0
 10
73.0000228881179
 20
177.424393141144
 30
0.0
  0
LINE
  5
95
330
1F
100
AcDbEntity
  8
0
  6
Continuous
 62
     7
370
     0
100
AcDbLine
 10
73.0000240757
 20
177.4243934988
 30
0.0
 11
66.5143122925
 21
177.4243934988
 31
0.0
  0
SPLINE
  5
96
330
1F
100
AcDbEntity
  8
0
  6
Continuous
 62
     7
370
     0
100
AcDbSpline
210
0.0
220
0.0
230
1.0
 70
     8
 71
     3
 72
    12
 73
     8
 74
     0
 42
0.00000001
 43
0.00000001
 12
1.0
 22
0.0
 32
0.0
 13
1.0
 23
0.0
 33
0.0
 40
0.0
 40
0.0
 40
0.0
 40
0.0
 40
0.5
 40
0.5
 40
0.75
 40
0.75
 40
1.0
 40
1.0
 40
1.0
 40
1.0
 10
73.0000228881179
 20
177.424393141144
 30
0.0
 10
73.59169114181243
 20
177.424393141144
 30
0.0
 10
74.16810602985018
 20
177.5259654627764
 30
0.0
 10
75.01522748108955
 20
177.7948624938454
 30
0.0
 10
75.2959359848619
 20
177.9043866225307
 30
0.0
 10
75.84086708399404
 20
178.1491600162006
 30
0.0
 10
76.1065548005928
 20
178.2846877927197
 30
0.0
 10
76.36722347934032
 20
178.4299466406091
 30
0.0
  0
LINE
  5
97
330
1F
100
AcDbEntity
  8
0
  6
Continuous
 62
     7
370
     0
100
AcDbLine
 10
69.6328235819
 20
178.4299462079
 30
0.0
 11
69.6328235819
 21
182.9188390611
 31
0.0
  0
SPLINE
  5
98
330
1F
100
AcDbEntity
  8
0
  6
Continuous
 62
     7
370
     0
100
AcDbSpline
210
0.0
220
0.0
230
1.0
 70
     8
 71
     3
 72
    12
 73
     8
 74
     0
 42
0.00000001
 43
0.00000001
 12
1.0
 22
0.0
 32
0.0
 13
1.0
 23
0.0
 33
0.0
 40
0.0
 40
0.0
 40
0.0
 40
0.0
 40
0.5
 40
0.5
 40
0.75
 40
0.75
 40
1.0
 40
1.0
 40
1.0
 40
1.0
 10
69.63282229689547
 20
182.9188396416789
 30
0.0
 10
70.15536907196181
 20
183.2100312910907
 30
0.0
 10
70.7048382471874
 20
183.4649490174681
 30
0.0
 10
71.54674675635962
 20
183.7323445878645
 30
0.0
 10
71.83113527045961
 20
183.8027793831603
 30
0.0
 10
72.40890251518869
 20
183.8988528104656
 30
0.0
 10
72.70456975574069
 20
183.924393141144
 30
0.0
 10
73.00002288811791
 20
183.924393141144
 30
0.0
  0
SPLINE
  5
99
330
1F
100
AcDbEntity
  8
0
  6
Continuous
 62
     7
370
     0
100
AcDbSpline
210
0.0
220
0.0
230
1.0
 70
     8
 71
     3
 72
    12
 73
     8
 74
     0
 42
0.00000001
 43
0.00000001
 12
1.0
 22
0.0
 32
0.0
 13
1.0
 23
0.0
 33
0.0
 40
0.0
 40
0.0
 40
0.0
 40
0.0
 40
0.500000000000001
 40
0.500000000000001
 40
0.7500000000000004
 40
0.7500000000000004
 40
1.0
 40
1.0
 40
1.0
 40
1.0
 10
73.00002288811791
 20
183.924393141144
 30
0.0
 10
73.59169114181246
 20
183.924393141144
 30
0.0
 10
74.16810602985021
 20
183.8228208195116
 30
0.0
 10
75.01522748108957
 20
183.5539237884425
 30
0.0
 10
75.2959359848619
 20
183.4443996597573
 30
0.0
 10
75.84086708399404
 20
183.1996262660874
 30
0.0
 10
76.1065548005928
 20
183.0640984895683
 30
0.0
 10
76.36722347934032
 20
182.9188396416789
 30
0.0
  0
LINE
  5
9A
330
1F
100
AcDbEntity
  8
0
  6
Continuous
 62
     7
370
     0
100
AcDbLine
 10
76.3672245695
 20
178.4299462079
 30
0.0
 11
76.3672245695
 21
182.9188390611
 31
0.0
  0
SPLINE
  5
9B
330
1F
100
AcDbEntity
  8
0
  6
Continuous
 62
     7
370
     0
100
AcDbSpline
210
0.0
220
0.0
230
1.0
 70
     8
 71
     3
 72
    10
 73
     6
 74
     0
 42
0.00000001
 43
0.00000001
 12
1.0
 22
0.0
 32
0.0
 13
1.0
 23
0.0
 33
0.0
 40
0.0
 40
0.0
 40
0.0
 40
0.0
 40
0.5
 40
0.5
 40
1.0
 40
1.0
 40
1.0
 40
1.0
 10
66.51431080756757
 20
183.924393141144
 30
0.0
 10
67.05674493089009
 20
183.924393141144
 30
0.0
 10
67.5899557782618
 20
183.8245835105428
 30
0.0
 10
68.64158169720076
 20
183.4648518418435
 30
0.0
 10
69.14436128504003
 20
183.212743501696
 30
0.0
 10
69.63282229689551
 20
182.918839641679
 30
0.0
  0
LINE
  5
9C
330
1F
100
AcDbEntity
  8
0
  6
Continuous
 62
     7
370
     0
100
AcDbLine
 10
66.5143122925
 20
183.9243917702
 30
0.0
 11
73.0000240757
 21
183.9243917702
 31
0.0
  0
SPLINE
  5
9D
330
1F
100
AcDbEntity
  8
0
  6
Continuous
 62
     7
370
     0
100
AcDbSpline
210
0.0
220
0.0
230
1.0
 70
     8
 71
     3
 72
    10
 73
     6
 74
     0
 42
0.00000001
 43
0.00000001
 12
1.0
 22
0.0
 32
0.0
 13
1.0
 23
0.0
 33
0.0
 40
0.0
 40
0.0
 40
0.0
 40
0.0
 40
0.5
 40
0.5
 40
1.0
 40
1.0
 40
1.0
 40
1.0
 10
66.51431080756757
 20
177.424393141144
 30
0.0
 10
65.97187668424503
 20
177.424393141144
 30
0.0
 10
65.43866583687334
 20
177.5242027717452
 30
0.0
 10
64.38703991793435
 20
177.8839344404445
 30
0.0
 10
63.88426033009509
 20
178.1360427805919
 30
0.0
 10
63.3957993182396
 20
178.429946640609
 30
0.0
  0
LINE
  5
9E
330
1F
100
AcDbEntity
  8
0
  6
Continuous
 62
     7
370
     0
100
AcDbLine
 10
63.3957991405
 20
178.4299462079
 30
0.0
 11
63.3957991405
 21
182.9188390611
 31
0.0
  0
SPLINE
  5
9F
330
1F
100
AcDbEntity
  8
0
  6
Continuous
 62
     7
370
     0
100
AcDbSpline
210
0.0
220
0.0
230
1.0
 70
     8
 71
     3
 72
    12
 73
     8
 74
     0
 42
0.00000001
 43
0.00000001
 12
1.0
 22
0.0
 32
0.0
 13
1.0
 23
0.0
 33
0.0
 40
0.0
 40
0.0
 40
0.0
 40
0.0
 40
0.5000000000000026
 40
0.5000000000000026
 40
0.7500000000000012
 40
0.7500000000000012
 40
1.0
 40
1.0
 40
1.0
 40
1.0
 10
63.39579931823963
 20
182.9188396416789
 30
0.0
 10
63.88482622596636
 20
183.2130839976145
 30
0.0
 10
64.38492105964174
 20
183.4631152688295
 30
0.0
 10
65.16202827019966
 20
183.730445150034
 30
0.0
 10
65.42560586674004
 20
183.8014117267433
 30
0.0
 10
65.96396350529015
 20
183.8985944298144
 30
0.0
 10
66.24118050648886
 20
183.924393141144
 30
0.0
 10
66.51431080756757
 20
183.924393141144
 30
0.0
  0
SPLINE
  5
A0
330
1F
100
AcDbEntity
  8
0
  6
Continuous
 62
     7
370
     0
100
AcDbSpline
210
0.0
220
0.0
230
1.0
 70
     8
 71
     3
 72
    10
 73
     6
 74
     0
 42
0.00000001
 43
0.00000001
 12
1.0
 22
0.0
 32
0.0
 13
1.0
 23
0.0
 33
0.0
 40
0.0
 40
0.0
 40
0.0
 40
0.0
 40
0.5
 40
0.5
 40
1.0
 40
1.0
 40
1.0
 40
1.0
 10
76.61591258123485
 20
177.424393141144
 30
0.0
 10
76.57265558012143
 20
177.424393141144
 30
0.0
 10
76.53013409921394
 20
177.5242027717452
 30
0.0
 10
76.44627104268682
 20
177.8839344404445
 30
0.0
 10
76.40617633577988
 20
178.1360427805919
 30
0.0
 10
76.36722347934032
 20
178.429946640609
 30
0.0
  0
LINE
  5
A1
330
1F
100
AcDbEntity
  8
0
  6
Continuous
 62
     7
370
     0
100
AcDbLine
 10
76.615913774
 20
177.4243934988
 30
0.0
 11
73.0000240757
 21
177.4243934988
 31
0.0
  0
SPLINE
  5
A2
330
1F
100
AcDbEntity
  8
0
  6
Continuous
 62
     7
370
     0
100
AcDbSpline
210
0.0
220
0.0
230
1.0
 70
     8
 71
     3
 72
    12
 73
     8
 74
     0
 42
0.00000001
 43
0.00000001
 12
1.0
 22
0.0
 32
0.0
 13
1.0
 23
0.0
 33
0.0
 40
0.0
 40
0.0
 40
0.0
 40
0.0
 40
0.5000000000000009
 40
0.5000000000000009
 40
0.7500000000000004
 40
0.7500000000000004
 40
1.0
 40
1.0
 40
1.0
 40
1.0
 10
76.36722347934032
 20
182.9188396416789
 30
0.0
 10
76.40622146376367
 20
183.2130839976145
 30
0.0
 10
76.44610207202003
 20
183.4631152688295
 30
0.0
 10
76.50807333456972
 20
183.730445150034
 30
0.0
 10
76.52909261764354
 20
183.8014117267433
 30
0.0
 10
76.57202453503018
 20
183.8985944298144
 30
0.0
 10
76.59413150731292
 20
183.924393141144
 30
0.0
 10
76.61591258123485
 20
183.924393141144
 30
0.0
  0
LINE
  5
A3
330
1F
100
AcDbEntity
  8
0
  6
Continuous
 62
     7
370
     0
100
AcDbLine
 10
73.0000240757
 20
183.9243917702
 30
0.0
 11
76.615913774
 21
183.9243917702
 31
0.0
  0
SPLINE
  5
A4
330
1F
100
AcDbEntity
  8
0
  6
Continuous
 62
     7
370
     0
100
AcDbSpline
210
0.0
220
0.0
230
1.0
 70
     8
 71
     3
 72
    12
 73
     8
 74
     0
 42
0.00000001
 43
0.00000001
 12
1.0
 22
0.0
 32
0.0
 13
1.0
 23
0.0
 33
0.0
 40
0.0
 40
0.0
 40
0.0
 40
0.0
 40
0.4999999999999996
 40
0.4999999999999996
 40
0.7499999999999998
 40
0.7499999999999998
 40
1.0
 40
1.0
 40
1.0
 40
1.0
 10
63.39579931823963
 20
178.4299466406091
 30
0.0
 10
63.43479730266298
 20
178.1357022846735
 30
0.0
 10
63.47467791091932
 20
177.8856710134585
 30
0.0
 10
63.53664917346902
 20
177.618341132254
 30
0.0
 10
63.55766845654284
 20
177.5473745555447
 30
0.0
 10
63.60060037392948
 20
177.4501918524736
 30
0.0
 10
63.62270734621221
 20
177.424393141144
 30
0.0
 10
63.64448842013415
 20
177.424393141144
 30
0.0
  0
LINE
  5
A5
330
1F
100
AcDbEntity
  8
0
  6
Continuous
 62
     7
370
     0
100
AcDbLine
 10
66.5143122925
 20
177.4243934988
 30
0.0
 11
63.6437507375
 21
177.4243934988
 31
0.0
  0
SPLINE
  5
A6
330
1F
100
AcDbEntity
  8
0
  6
Continuous
 62
     7
370
     0
100
AcDbSpline
210
0.0
220
0.0
230
1.0
 70
     8
 71
     3
 72
    10
 73
     6
 74
     0
 42
0.00000001
 43
0.00000001
 12
1.0
 22
0.0
 32
0.0
 13
1.0
 23
0.0
 33
0.0
 40
0.0
 40
0.0
 40
0.0
 40
0.0
 40
0.5
 40
0.5
 40
1.0
 40
1.0
 40
1.0
 40
1.0
 10
63.64448842013415
 20
183.924393141144
 30
0.0
 10
63.60123141902076
 20
183.924393141144
 30
0.0
 10
63.55870993811325
 20
183.8245835105428
 30
0.0
 10
63.47484688158612
 20
183.4648518418434
 30
0.0
 10
63.43475217467917
 20
183.212743501696
 30
0.0
 10
63.39579931823963
 20
182.918839641679
 30
0.0
  0
LINE
  5
A7
330
1F
100
AcDbEntity
  8
0
  6
Continuous
 62
     7
370
     0
100
AcDbLine
 10
66.5143122925
 20
183.9243917702
 30
0.0
 11
63.6437507375
 21
183.9243917702
 31
0.0
  0
SPLINE
  5
A8
330
1F
100
AcDbEntity
  8
0
  6
Continuous
 62
     7
370
     0
100
AcDbSpline
210
0.0
220
0.0
230
1.0
 70
     8
 71
     3
 72
    12
 73
     8
 74
     0
 42
0.00000001
 43
0.00000001
 12
1.0
 22
0.0
 32
0.0
 13
1.0
 23
0.0
 33
0.0
 40
0.0
 40
0.0
 40
0.0
 40
0.0
 40
0.5000000000000006
 40
0.5000000000000006
 40
0.7500000000000002
 40
0.7500000000000002
 40
1.0
 40
1.0
 40
1.0
 40
1.0
 10
76.86460168312937
 20
178.4299466406091
 30
0.0
 10
76.82560369870603
 20
178.1357022846735
 30
0.0
 10
76.78572309044968
 20
177.8856710134585
 30
0.0
 10
76.72375182789996
 20
177.618341132254
 30
0.0
 10
76.70273254482615
 20
177.5473745555447
 30
0.0
 10
76.65980062743952
 20
177.4501918524736
 30
0.0
 10
76.63769365515677
 20
177.424393141144
 30
0.0
 10
76.61591258123485
 20
177.424393141144
 30
0.0
  0
SPLINE
  5
A9
330
1F
100
AcDbEntity
  8
0
  6
Continuous
 62
     7
370
     0
100
AcDbSpline
210
0.0
220
0.0
230
1.0
 70
     8
 71
     3
 72
    10
 73
     6
 74
     0
 42
0.00000001
 43
0.00000001
 12
1.0
 22
0.0
 32
0.0
 13
1.0
 23
0.0
 33
0.0
 40
0.0
 40
0.0
 40
0.0
 40
0.0
 40
0.5
 40
0.5
 40
1.0
 40
1.0
 40
1.0
 40
1.0
 10
76.61591258123485
 20
183.924393141144
 30
0.0
 10
76.65916958234826
 20
183.924393141144
 30
0.0
 10
76.70169106325575
 20
183.8245835105428
 30
0.0
 10
76.78555411978286
 20
183.4648518418434
 30
0.0
 10
76.82564882668983
 20
183.212743501696
 30
0.0
 10
76.86460168312937
 20
182.918839641679
 30
0.0
  0
LINE
  5
AA
330
1F
100
AcDbEntity
  8
0
  6
Continuous
 62
     7
370
     0
100
AcDbLine
 10
76.8646029784
 20
178.4299462079
 30
0.0
 11
76.8646029784
 21
182.9188390611
 31
0.0
  0
CIRCLE
  5
AB
330
1F
100
AcDbEntity
  8
0
  6
Continuous
 62
     7
370
     0
100
AcDbCircle
 10
82.1302005007
 20
154.6743931411
 30
0.0
 40
2.099999999999994
  0
LINE
  5
AC
330
1F
100
AcDbEntity
  8
0
  6
Continuous
 62
     7
370
     0
100
AcDbLine
 10
78.9679242327
 20
150.1743931649
 30
0.0
 11
85.2924799575
 21
150.1743931649
 31
0.0
  0
ARC
  5
AD
330
1F
100
AcDbEntity
  8
0
  6
Continuous
 62
     7
370
     0
100
AcDbCircle
 10
82.1302005007
 20
154.6743931411
 30
0.0
 40
5.500000000000085
100
AcDbArc
 50
125.0968012276
 51
234.9031987724
  0
LINE
  5
AE
330
1F
100
AcDbEntity
  8
0
  6
Continuous
 62
     7
370
     0
100
AcDbLine
 10
85.2924799575
 20
159.1743928357
 30
0.0
 11
78.9679242327
 21
159.1743928357
 31
0.0
  0
ARC
  5
AF
330
1F
100
AcDbEntity
  8
0
  6
Continuous
 62
     7
370
     0
100
AcDbCircle
 10
82.1302005007
 20
154.6743931411
 30
0.0
 40
5.500000000000015
100
AcDbArc
 50
305.0968012276
 51
54.9031987724
  0
LINE
  5
B0
330
1F
100
AcDbEntity
  8
0
  6
Continuous
 62
     7
370
     0
100
AcDbLine
 10
85.4468261852
 20
149.6743931411
 30
0.0
 11
78.8135742797
 21
149.6743931411
 31
0.0
  0
SPLINE
  5
B1
330
1F
100
AcDbEntity
  8
0
  6
Continuous
 62
     7
370
     0
100
AcDbSpline
210
0.0
220
0.0
230
1.0
 70
     8
 71
     3
 72
     8
 73
     4
 74
     0
 42
0.00000001
 43
0.00000001
 12
1.0
 22
0.0
 32
0.0
 13
1.0
 23
0.0
 33
0.0
 40
0.0000000000000001
 40
0.0000000000000001
 40
0.0000000000000001
 40
0.0000000000000001
 40
0.000723756199695
 40
0.000723756199695
 40
0.000723756199695
 40
0.000723756199695
 10
78.96792284051598
 20
150.1743931411441
 30
0.0
 10
78.9152773235351
 20
150.0079133988874
 30
0.0
 10
78.86388024362867
 20
149.8412344033536
 30
0.0
 10
78.8135757103288
 20
149.674393141144
 30
0.0
  0
SPLINE
  5
B2
330
1F
100
AcDbEntity
  8
0
  6
Continuous
 62
     7
370
     0
100
AcDbSpline
210
0.0
220
0.0
230
1.0
 70
     8
 71
     3
 72
     8
 73
     4
 74
     0
 42
0.00000001
 43
0.00000001
 12
1.0
 22
0.0
 32
0.0
 13
1.0
 23
0.0
 33
0.0
 40
0.0000000000000001
 40
0.0000000000000001
 40
0.0000000000000001
 40
0.0000000000000001
 40
0.000723756199695
 40
0.000723756199695
 40
0.000723756199695
 40
0.000723756199695
 10
85.29247816085308
 20
150.174393141144
 30
0.0
 10
85.34512367783398
 20
150.0079133988873
 30
0.0
 10
85.39652075774035
 20
149.8412344033536
 30
0.0
 10
85.44682529104021
 20
149.674393141144
 30
0.0
  0
ARC
  5
B3
330
1F
100
AcDbEntity
  8
0
  6
Continuous
 62
     7
370
     0
100
AcDbCircle
 10
82.1302005007
 20
154.6743931411
 30
0.0
 40
6.000000000000003
100
AcDbArc
 50
123.5573097619
 51
236.4426902381
  0
SPLINE
  5
B4
330
1F
100
AcDbEntity
  8
0
  6
Continuous
 62
     7
370
     0
100
AcDbSpline
210
0.0
220
0.0
230
1.0
 70
     8
 71
     3
 72
     8
 73
     4
 74
     0
 42
0.00000001
 43
0.00000001
 12
1.0
 22
0.0
 32
0.0
 13
1.0
 23
0.0
 33
0.0
 40
0.0000000000000001
 40
0.0000000000000001
 40
0.0000000000000001
 40
0.0000000000000001
 40
0.000723756199695
 40
0.000723756199695
 40
0.000723756199695
 40
0.000723756199695
 10
78.96792284051593
 20
159.174393141144
 30
0.0
 10
78.91527732353504
 20
159.3408728834007
 30
0.0
 10
78.86388024362867
 20
159.5075518789344
 30
0.0
 10
78.8135757103288
 20
159.6743931411439
 30
0.0
  0
SPLINE
  5
B5
330
1F
100
AcDbEntity
  8
0
  6
Continuous
 62
     7
370
     0
100
AcDbSpline
210
0.0
220
0.0
230
1.0
 70
     8
 71
     3
 72
     8
 73
     4
 74
     0
 42
0.00000001
 43
0.00000001
 12
1.0
 22
0.0
 32
0.0
 13
1.0
 23
0.0
 33
0.0
 40
0.0
 40
0.0
 40
0.0
 40
0.0
 40
0.000723756199695
 40
0.000723756199695
 40
0.000723756199695
 40
0.000723756199695
 10
85.44682529103991
 20
159.674393141144
 30
0.0
 10
85.39652075774005
 20
159.5075518789344
 30
0.0
 10
85.34512367783405
 20
159.3408728834007
 30
0.0
 10
85.29247816085316
 20
159.174393141144
 30
0.0
  0
ARC
  5
B6
330
1F
100
AcDbEntity
  8
0
  6
Continuous
 62
     7
370
     0
100
AcDbCircle
 10
82.1302005007
 20
154.6743931411
 30
0.0
 40
6.000000000000003
100
AcDbArc
 50
303.5573097619
 51
56.4426902381
  0
LINE
  5
B7
330
1F
100
AcDbEntity
  8
0
  6
Continuous
 62
     7
370
     0
100
AcDbLine
 10
78.8135742797
 20
159.6743929176
 30
0.0
 11
85.4468261852
 21
159.6743929176
 31
0.0
  0
LINE
  5
B8
330
1F
100
AcDbEntity
  8
0
  6
Continuous
 62
     7
370
     0
100
AcDbLine
 10
82.0555677666
 20
127.6743932604
 30
0.0
 11
82.1302002325
 21
127.6743932604
 31
0.0
  0
LINE
  5
B9
330
1F
100
AcDbEntity
  8
0
  6
Continuous
 62
     7
370
     0
100
AcDbLine
 10
58.1302000238
 20
127.6743932604
 30
0.0
 11
82.0555677666
 21
127.6743932604
 31
0.0
  0
LINE
  5
BA
330
1F
100
AcDbEntity
  8
0
  6
Continuous
 62
     7
370
     0
100
AcDbLine
 10
82.5524581625
 20
127.1743922471
 30
0.0
 11
57.6302008732
 21
127.1743922471
 31
0.0
  0
LINE
  5
BB
330
1F
100
AcDbEntity
  8
0
  6
Continuous
 62
     7
370
     0
100
AcDbLine
 10
82.6302012457
 20
127.1743922471
 30
0.0
 11
82.5524581625
 21
127.1743922471
 31
0.0
  0
LINE
  5
BC
330
1F
100
AcDbEntity
  8
0
  6
Continuous
 62
     7
370
     0
100
AcDbLine
 10
82.5524581625
 20
115.1743940054
 30
0.0
 11
82.6302012457
 21
115.1743940054
 31
0.0
  0
LINE
  5
BD
330
1F
100
AcDbEntity
  8
0
  6
Continuous
 62
     7
370
     0
100
AcDbLine
 10
57.6302008732
 20
115.1743940054
 30
0.0
 11
82.5524581625
 21
115.1743940054
 31
0.0
  0
SPLINE
  5
BE
330
1F
100
AcDbEntity
  8
0
  6
Continuous
 62
     7
370
     0
100
AcDbSpline
210
0.0
220
0.0
230
1.0
 70
     8
 71
     3
 72
    58
 73
    54
 74
     0
 42
0.00000001
 43
0.00000001
 12
1.0
 22
0.0
 32
0.0
 13
1.0
 23
0.0
 33
0.0
 40
-0.0624999999999994
 40
-0.0624999999999994
 40
0.0
 40
0.0
 40
0.0312500000000013
 40
0.0312500000000013
 40
0.0625000000000026
 40
0.0625000000000026
 40
0.0937500000000038
 40
0.0937500000000038
 40
0.1250000000000051
 40
0.1250000000000051
 40
0.187500000000007
 40
0.187500000000007
 40
0.2500000000000089
 40
0.2500000000000089
 40
0.2812500000000093
 40
0.2812500000000093
 40
0.3125000000000098
 40
0.3125000000000098
 40
0.3437500000000093
 40
0.3437500000000093
 40
0.3750000000000088
 40
0.3750000000000088
 40
0.4062500000000083
 40
0.4062500000000083
 40
0.4375000000000078
 40
0.4375000000000078
 40
0.4687500000000073
 40
0.4687500000000073
 40
0.5000000000000068
 40
0.5000000000000068
 40
0.5625000000000063
 40
0.5625000000000063
 40
0.6250000000000059
 40
0.6250000000000059
 40
0.6562500000000052
 40
0.6562500000000052
 40
0.6875000000000047
 40
0.6875000000000047
 40
0.718750000000004
 40
0.718750000000004
 40
0.7500000000000034
 40
0.7500000000000034
 40
0.7812500000000028
 40
0.7812500000000028
 40
0.8125000000000022
 40
0.8125000000000022
 40
0.8437500000000016
 40
0.8437500000000016
 40
0.875000000000001
 40
0.875000000000001
 40
0.9375000000000006
 40
0.9375000000000006
 40
1.0
 40
1.0
 40
1.031250000000001
 40
1.031250000000001
 10
82.52815258437438
 20
120.824393141144
 30
0.0
 10
82.564610807631
 20
120.824393141144
 30
0.0
 10
82.5751387721324
 20
120.8136724543793
 30
0.0
 10
82.59323572591646
 20
120.7716888708766
 30
0.0
 10
82.60086317209864
 20
120.7399077545225
 30
0.0
 10
82.61305460661562
 20
120.6570472468101
 30
0.0
 10
82.61764499581628
 20
120.6063590256329
 30
0.0
 10
82.62451109868674
 20
120.4866250256223
 30
0.0
 10
82.62677055732226
 20
120.4170120946892
 30
0.0
 10
82.63091619510945
 20
120.188938526048
 30
0.0
 10
82.63037526239239
 20
120.0050464706432
 30
0.0
 10
82.62860945030326
 20
119.6080783050569
 30
0.0
 10
82.62749934737909
 20
119.3907860167701
 30
0.0
 10
82.62749555951918
 20
119.0675791791553
 30
0.0
 10
82.62773429524947
 20
118.9581289308185
 30
0.0
 10
82.62850929974469
 20
118.7464247606769
 30
0.0
 10
82.62904102181867
 20
118.6435152063031
 30
0.0
 10
82.62993179002088
 20
118.44360569357
 30
0.0
 10
82.6302807781818
 20
118.3471490873779
 30
0.0
 10
82.63008800882649
 20
118.1684903129259
 30
0.0
 10
82.62955446050998
 20
118.0850766883617
 30
0.0
 10
82.62676154912167
 20
117.9311339859452
 30
0.0
 10
82.62453907425149
 20
117.8629456039487
 30
0.0
 10
82.61771983023023
 20
117.7434401830316
 30
0.0
 10
82.61305065122816
 20
117.691706104472
 30
0.0
 10
82.60086148894685
 20
117.6088731385794
 30
0.0
 10
82.59339193203444
 20
117.5776082639101
 30
0.0
 10
82.57527091548288
 20
117.5352742664795
 30
0.0
 10
82.56451914352233
 20
117.5244339463771
 30
0.0
 10
82.52854403634687
 20
117.5243118836787
 30
0.0
 10
82.49847913068791
 20
117.5675539611304
 30
0.0
 10
82.43429284701433
 20
117.7319174468568
 30
0.0
 10
82.3996563520942
 20
117.8546053383836
 30
0.0
 10
82.3529709063666
 20
118.0825408531197
 30
0.0
 10
82.33800953995713
 20
118.1673106939515
 30
0.0
 10
82.31152966387863
 20
118.3463504460345
 30
0.0
 10
82.29988148544673
 20
118.4410086957403
 30
0.0
 10
82.28049553332878
 20
118.640768157644
 30
0.0
 10
82.27286215470717
 20
118.7455239578784
 30
0.0
 10
82.26269747344664
 20
118.9564705446869
 30
0.0
 10
82.26004659039718
 20
119.0638263178165
 30
0.0
 10
82.25999924785172
 20
119.2820217937569
 30
0.0
 10
82.26260011346729
 20
119.3893088665009
 30
0.0
 10
82.27267858713114
 20
119.6004121402278
 30
0.0
 10
82.28028016755312
 20
119.7053377962797
 30
0.0
 10
82.299579643537
 20
119.9051162614354
 30
0.0
 10
82.31119532191627
 20
119.9998910851984
 30
0.0
 10
82.33765037571206
 20
120.1793239565912
 30
0.0
 10
82.35258290075565
 20
120.2641462279557
 30
0.0
 10
82.39919568079016
 20
120.4923333689691
 30
0.0
 10
82.43384494314692
 20
120.6154150441452
 30
0.0
 10
82.49804746900092
 20
120.7804296103956
 30
0.0
 10
82.52815258437438
 20
120.824393141144
 30
0.0
 10
82.564610807631
 20
120.824393141144
 30
0.0
  0
LINE
  5
BF
330
1F
100
AcDbEntity
  8
0
  6
Continuous
 62
     7
370
     0
100
AcDbLine
 10
82.0555677666
 20
114.6743929921
 30
0.0
 11
58.1302000238
 21
114.6743929921
 31
0.0
  0
LINE
  5
C0
330
1F
100
AcDbEntity
  8
0
  6
Continuous
 62
     7
370
     0
100
AcDbLine
 10
82.1302002325
 20
114.6743929921
 30
0.0
 11
82.0555677666
 21
114.6743929921
 31
0.0
  0
LINE
  5
C1
330
1F
100
AcDbEntity
  8
0
  6
Continuous
 62
     7
370
     0
100
AcDbLine
 10
77.1302012755
 20
148.6743930936
 30
0.0
 11
63.1302008434
 21
148.6743930936
 31
0.0
  0
ARC
  5
C2
330
1F
100
AcDbEntity
  8
0
  6
Continuous
 62
     7
370
     0
100
AcDbCircle
 10
97.6225994912
 20
119.1743937297
 30
0.0
 40
15.39435762901944
100
AcDbArc
 50
175.4216238646
 51
184.5783761354
  0
ARC
  5
C3
330
1F
100
AcDbEntity
  8
0
  6
Continuous
 62
     7
370
     0
100
AcDbCircle
 10
67.2269090077
 20
119.1743918671
 30
0.0
 40
15.45093725184456
100
AcDbArc
 50
355.4992943763
 51
4.5007056237
  0
LINE
  5
C4
330
1F
100
AcDbEntity
  8
0
  6
Continuous
 62
     7
370
     0
100
AcDbLine
 10
82.5727088406
 20
119.5977720408
 30
0.0
 11
82.4720626726
 21
120.3164382814
 31
0.0
  0
LINE
  5
C5
330
1F
100
AcDbEntity
  8
0
  6
Continuous
 62
     7
370
     0
100
AcDbLine
 10
82.4720626726
 20
120.3164382814
 30
0.0
 11
82.3524361505
 21
119.8930609016
 31
0.0
  0
LINE
  5
C6
330
1F
100
AcDbEntity
  8
0
  6
Continuous
 62
     7
370
     0
100
AcDbLine
 10
82.3524361505
 20
119.8930609016
 30
0.0
 11
82.3334520711
 21
118.7510154186
 31
0.0
  0
LINE
  5
C7
330
1F
100
AcDbEntity
  8
0
  6
Continuous
 62
     7
370
     0
100
AcDbLine
 10
82.3334520711
 20
118.7510154186
 30
0.0
 11
82.4340945139
 21
118.0323473154
 31
0.0
  0
LINE
  5
C8
330
1F
100
AcDbEntity
  8
0
  6
Continuous
 62
     7
370
     0
100
AcDbLine
 10
82.4340945139
 20
118.0323473154
 30
0.0
 11
82.5537247612
 21
118.4557265578
 31
0.0
  0
LINE
  5
C9
330
1F
100
AcDbEntity
  8
0
  6
Continuous
 62
     7
370
     0
100
AcDbLine
 10
82.5537247612
 20
118.4557265578
 30
0.0
 11
82.5727088406
 21
119.5977720408
 31
0.0
  0
LINE
  5
CA
330
1F
100
AcDbEntity
  8
0
  6
Continuous
 62
     7
370
     0
100
AcDbLine
 10
82.3748065188
 20
118.4557265578
 30
0.0
 11
82.5537247612
 21
118.4557265578
 31
0.0
  0
LINE
  5
CB
330
1F
100
AcDbEntity
  8
0
  6
Continuous
 62
     7
370
     0
100
AcDbLine
 10
82.3475299432
 20
119.5977720408
 30
0.0
 11
82.5727088406
 21
119.5977720408
 31
0.0
  0
LWPOLYLINE
  5
CC
330
1F
100
AcDbEntity
  8
0
  6
Continuous
 62
     7
370
     0
100
AcDbPolyline
 90
       23
 70
   128
 43
0.0
 10
65.9592105105
 20
179.2118883668
 10
65.6280322029
 20
179.3650276004
 10
65.3461208596
 20
179.6242426126
 10
65.1363162353
 20
179.9685358046
 10
65.0156168296
 20
180.3700140654
 10
64.9937978043
 20
180.7961500226
 10
65.0726286723
 20
181.2124214112
 10
65.2457205607
 20
181.5851069032
 10
65.4990514769
 20
181.8840092956
 10
65.8121025219
 20
182.0849179267
 10
66.1595081939
 20
182.1715532778
 10
66.5131201996
 20
182.1368969022
 10
66.8442985072
 20
181.9837576686
 10
67.1262098505
 20
181.7245445191
 10
67.3360144748
 20
181.3802494644
 10
67.4567138805
 20
180.9787712036
 10
67.4785329058
 20
180.552637109
 10
67.3997057631
 20
180.1363638579
 10
67.2266101493
 20
179.7636802285
 10
66.9732792332
 20
179.4647759734
 10
66.6602281882
 20
179.2638673423
 10
66.3128262415
 20
179.1772319912
 10
65.9592105105
 20
179.2118883668
  0
LINE
  5
CD
330
1F
100
AcDbEntity
  8
0
  6
Continuous
 62
     7
370
     0
100
AcDbLine
 10
66.9397814228
 20
179.8892839788
 30
0.0
 11
67.1529835119
 21
181.0151225864
 31
0.0
  0
LINE
  5
CE
330
1F
100
AcDbEntity
  8
0
  6
Continuous
 62
     7
370
     0
100
AcDbLine
 10
67.1529835119
 20
181.0151225864
 30
0.0
 11
66.4493655815
 21
181.8002312421
 31
0.0
  0
LINE
  5
CF
330
1F
100
AcDbEntity
  8
0
  6
Continuous
 62
     7
370
     0
100
AcDbLine
 10
66.4493655815
 20
181.8002312421
 30
0.0
 11
65.5325492873
 21
181.4595012902
 31
0.0
  0
LINE
  5
D0
330
1F
100
AcDbEntity
  8
0
  6
Continuous
 62
     7
370
     0
100
AcDbLine
 10
65.5325492873
 20
181.4595012902
 30
0.0
 11
65.3193509235
 21
180.3336645453
 31
0.0
  0
LINE
  5
D1
330
1F
100
AcDbEntity
  8
0
  6
Continuous
 62
     7
370
     0
100
AcDbLine
 10
65.3193509235
 20
180.3336645453
 30
0.0
 11
66.0229651286
 21
179.5485558896
 31
0.0
  0
LINE
  5
D2
330
1F
100
AcDbEntity
  8
0
  6
Continuous
 62
     7
370
     0
100
AcDbLine
 10
66.0229651286
 20
179.5485558896
 30
0.0
 11
66.9397814228
 21
179.8892839788
 31
0.0
  0
LINE
  5
D3
330
1F
100
AcDbEntity
  8
0
  6
Continuous
 62
     7
370
     0
100
AcDbLine
 10
66.657851453
 20
181.5675980388
 30
0.0
 11
66.3669845118
 21
181.4595012902
 31
0.0
  0
LINE
  5
D4
330
1F
100
AcDbEntity
  8
0
  6
Continuous
 62
     7
370
     0
100
AcDbLine
 10
66.3669845118
 20
181.4595012902
 30
0.0
 11
65.5325492873
 21
181.4595012902
 31
0.0
  0
LINE
  5
D5
330
1F
100
AcDbEntity
  8
0
  6
Continuous
 62
     7
370
     0
100
AcDbLine
 10
66.153786148
 20
180.3336645453
 30
0.0
 11
65.3193509235
 21
180.3336645453
 31
0.0
  0
LINE
  5
D6
330
1F
100
AcDbEntity
  8
0
  6
Continuous
 62
     7
370
     0
100
AcDbLine
 10
66.153786148
 20
180.3336645453
 30
0.0
 11
66.6489182069
 21
179.7811872302
 31
0.0
  0
LINE
  5
D7
330
1F
100
AcDbEntity
  8
0
  6
Continuous
 62
     7
370
     0
100
AcDbLine
 10
66.3669845118
 20
181.4595012902
 30
0.0
 11
66.153786148
 21
180.3336645453
 31
0.0
  0
LINE
  5
D8
330
1F
100
AcDbEntity
  8
0
  6
Continuous
 62
     7
370
     0
100
AcDbLine
 10
86.7075501039
 20
181.6743946611
 30
0.0
 11
87.2848993196
 21
182.6743929623
 31
0.0
  0
LINE
  5
D9
330
1F
100
AcDbEntity
  8
0
  6
Continuous
 62
     7
370
     0
100
AcDbLine
 10
86.7075501039
 20
183.6743949889
 30
0.0
 11
85.5528516724
 21
183.6743949889
 31
0.0
  0
LINE
  5
DA
330
1F
100
AcDbEntity
  8
0
  6
Continuous
 62
     7
370
     0
100
AcDbLine
 10
84.9754987313
 20
182.6743929623
 30
0.0
 11
85.5528516724
 21
181.6743946611
 31
0.0
  0
LINE
  5
DB
330
1F
100
AcDbEntity
  8
0
  6
Continuous
 62
     7
370
     0
100
AcDbLine
 10
85.5528516724
 20
183.6743949889
 30
0.0
 11
84.9754987313
 21
182.6743929623
 31
0.0
  0
LINE
  5
DC
330
1F
100
AcDbEntity
  8
0
  6
Continuous
 62
     7
370
     0
100
AcDbLine
 10
87.2848993196
 20
182.6743929623
 30
0.0
 11
86.7075501039
 21
183.6743949889
 31
0.0
  0
LINE
  5
DD
330
1F
100
AcDbEntity
  8
0
  6
Continuous
 62
     7
370
     0
100
AcDbLine
 10
85.5528516724
 20
181.6743946611
 30
0.0
 11
86.7075501039
 21
181.6743946611
 31
0.0
  0
LINE
  5
DE
330
1F
100
AcDbEntity
  8
0
  6
Continuous
 62
     7
370
     0
100
AcDbLine
 10
55.284901525
 20
182.6743929623
 30
0.0
 11
54.7075504466
 21
183.6743949889
 31
0.0
  0
LINE
  5
DF
330
1F
100
AcDbEntity
  8
0
  6
Continuous
 62
     7
370
     0
100
AcDbLine
 10
53.5528501525
 20
183.6743949889
 30
0.0
 11
52.9754990741
 21
182.6743929623
 31
0.0
  0
LINE
  5
E0
330
1F
100
AcDbEntity
  8
0
  6
Continuous
 62
     7
370
     0
100
AcDbLine
 10
54.7075504466
 20
183.6743949889
 30
0.0
 11
53.5528501525
 21
183.6743949889
 31
0.0
  0
LINE
  5
E1
330
1F
100
AcDbEntity
  8
0
  6
Continuous
 62
     7
370
     0
100
AcDbLine
 10
54.7075504466
 20
181.6743946611
 30
0.0
 11
55.284901525
 21
182.6743929623
 31
0.0
  0
LINE
  5
E2
330
1F
100
AcDbEntity
  8
0
  6
Continuous
 62
     7
370
     0
100
AcDbLine
 10
52.9754990741
 20
182.6743929623
 30
0.0
 11
53.5528501525
 21
181.6743946611
 31
0.0
  0
LINE
  5
E3
330
1F
100
AcDbEntity
  8
0
  6
Continuous
 62
     7
370
     0
100
AcDbLine
 10
53.5528501525
 20
181.6743946611
 30
0.0
 11
54.7075504466
 21
181.6743946611
 31
0.0
  0
LINE
  5
E4
330
1F
100
AcDbEntity
  8
0
  6
Continuous
 62
     8
370
     0
100
AcDbLine
 10
77.0866638078
 20
129.6743935882
 30
0.0
 11
77.1302012755
 21
129.6743935882
 31
0.0
  0
LINE
  5
E5
330
1F
100
AcDbEntity
  8
0
  6
Continuous
 62
     8
370
     0
100
AcDbLine
 10
63.1302008434
 20
129.6743935882
 30
0.0
 11
77.0866638078
 21
129.6743935882
 31
0.0
  0
DIMENSION
  5
E6
330
1F
100
AcDbEntity
  8
0
  6
Continuous
 62
     7
370
     0
100
AcDbDimension
  2
_D
 10
86.1302005007
 20
213.6743931411
 30
0.0
 11
70.1302005007
 21
213.6743931411
 31
0.0
 70
   160
  1
<>
 71
     2
 42
-1.0
  3
SLDDIMSTYLE0
100
AcDbAlignedDimension
 13
54.1302005007
 23
198.6743931411
 33
0.0
 14
86.1302005007
 24
198.6743931411
 34
0.0
100
AcDbRotatedDimension
  0
DIMENSION
  5
F1
330
1F
100
AcDbEntity
  8
0
  6
Continuous
 62
     7
370
     0
100
AcDbDimension
  2
_D_1
 10
60.1302005007
 20
204.4445822885
 30
0.0
 11
70.1302005007
 21
204.4445822885
 31
0.0
 70
   160
  1
<>
 71
     2
 42
-1.0
  3
SLDDIMSTYLE0
100
AcDbAlignedDimension
 13
80.1302005007
 23
187.6743931411
 33
0.0
 14
60.1302005007
 24
187.6743931411
 34
0.0
100
AcDbRotatedDimension
  0
DIMENSION
  5
FB
330
1F
100
AcDbEntity
  8
0
  6
Continuous
 62
     7
370
     0
100
AcDbDimension
  2
_D_2
 10
27.8509640799
 20
175.6743931411
 30
0.0
 11
27.8509640799
 21
181.6743931411
 31
0.0
 70
   160
  1
<>
 71
     2
 42
-1.0
  3
SLDDIMSTYLE1
100
AcDbAlignedDimension
 13
34.6302005007
 23
187.6743931411
 33
0.0
 14
60.1302005007
 24
175.6743931411
 34
0.0
 50
90.0
100
AcDbRotatedDimension
  0
DIMENSION
  5
108
330
1F
100
AcDbEntity
  8
0
  6
Continuous
 62
     7
370
     0
100
AcDbDimension
  2
_D_3
 10
107.6302005007
 20
92.6743931411
 30
0.0
 11
70.1302005007
 21
92.6743931411
 31
0.0
 70
   160
  1
<>
 71
     2
 42
-1.0
  3
SLDDIMSTYLE0
100
AcDbAlignedDimension
 13
32.6302005007
 23
151.6743931411
 33
0.0
 14
107.6302005007
 24
151.6743931411
 34
0.0
100
AcDbRotatedDimension
  0
DIMENSION
  5
112
330
1F
100
AcDbEntity
  8
0
  6
Continuous
 62
     7
370
     0
100
AcDbDimension
  2
_D_4
 10
95.1302005007
 20
102.7875409282
 30
0.0
 11
70.1302005007
 21
102.7875409282
 31
0.0
 70
   160
  1
<>
 71
     2
 42
-1.0
  3
SLDDIMSTYLE0
100
AcDbAlignedDimension
 13
45.1302005007
 23
151.6743931411
 33
0.0
 14
95.1302005007
 24
151.6743931411
 34
0.0
100
AcDbRotatedDimension
  0
DIMENSION
  5
11C
330
1F
100
AcDbEntity
  8
0
  6
Continuous
 62
     7
370
     0
100
AcDbDimension
  2
_D_5
 10
128.1587871842
 20
149.6743931411
 30
0.0
 11
128.1587871842
 21
168.6743931411
 31
0.0
 70
   160
  1
<>
 71
     2
 42
-1.0
  3
SLDDIMSTYLE0
100
AcDbAlignedDimension
 13
105.6302005007
 23
187.6743931411
 33
0.0
 14
105.6302005007
 24
149.6743931411
 34
0.0
 50
90.0
100
AcDbRotatedDimension
  0
DIMENSION
  5
126
330
1F
100
AcDbEntity
  8
0
  6
Continuous
 62
     7
370
     0
100
AcDbDimension
  2
_D_6
 10
135.6302005007
 20
197.6743931411
 30
0.0
 11
135.6302005007
 21
156.1743931411
 31
0.0
 70
   160
  1
<>
 71
     2
 42
-1.0
  3
SLDDIMSTYLE0
100
AcDbAlignedDimension
 13
82.1302005007
 23
114.6743931411
 33
0.0
 14
73.6302005007
 24
197.6743931411
 34
0.0
 50
90.0
100
AcDbRotatedDimension
  0
DIMENSION
  5
130
330
1F
100
AcDbEntity
  8
0
  6
Continuous
 62
     7
370
     0
100
AcDbDimension
  2
_D_7
 10
113.1902022325
 20
154.6743931411
 30
0.0
 11
113.1902022325
 21
152.1743931411
 31
0.0
 70
   160
  1
<>
 71
     2
 42
-1.0
  3
SLDDIMSTYLE1
100
AcDbAlignedDimension
 13
105.6302005007
 23
149.6743931411
 33
0.0
 14
86.7302005007
 24
154.6743931411
 34
0.0
 50
90.0
100
AcDbRotatedDimension
  0
DIMENSION
  5
13C
330
1F
100
AcDbEntity
  8
0
  6
Continuous
 62
     7
370
     0
100
AcDbDimension
  2
_D_8
 10
120.7884491034
 20
159.6743931411
 30
0.0
 11
120.7884491034
 21
154.6743931411
 31
0.0
 70
   160
  1
<>
 71
     2
 42
-1.0
  3
SLDDIMSTYLE1
100
AcDbAlignedDimension
 13
105.6302005007
 23
149.6743931411
 33
0.0
 14
103.1302005007
 24
159.6743931411
 34
0.0
 50
90.0
100
AcDbRotatedDimension
  0
DIMENSION
  5
148
330
1F
100
AcDbEntity
  8
0
  6
Continuous
 62
     7
370
     0
100
AcDbDimension
  2
_D_9
 10
120.7884491034
 20
179.6743931411
 30
0.0
 11
120.7884491034
 21
169.6743931411
 31
0.0
 70
   160
  1
<>
 71
     2
 42
-1.0
  3
SLDDIMSTYLE0
100
AcDbAlignedDimension
 13
103.1302005007
 23
159.6743931411
 33
0.0
 14
103.1302005007
 24
179.6743931411
 34
0.0
 50
90.0
100
AcDbRotatedDimension
  0
DIMENSION
  5
152
330
1F
100
AcDbEntity
  8
0
  6
Continuous
 62
     7
370
     0
100
AcDbDimension
  2
_D_10
 10
120.7884491034
 20
179.6743931411
 30
0.0
 11
120.7884491034
 21
183.6743931411
 31
0.0
 70
   160
  1
<>
 71
     2
 42
-1.0
  3
SLDDIMSTYLE1
100
AcDbAlignedDimension
 13
105.6302005007
 23
187.6743931411
 33
0.0
 14
103.1302005007
 24
179.6743931411
 34
0.0
 50
90.0
100
AcDbRotatedDimension
  0
DIMENSION
  5
15E
330
1F
100
AcDbEntity
  8
0
  6
Continuous
 62
     7
370
     0
100
AcDbDimension
  2
_D_11
 10
128.1587871842
 20
187.6743931411
 30
0.0
 11
128.1587871842
 21
192.6743931411
 31
0.0
 70
   160
  1
<>
 71
     2
 42
-1.0
  3
SLDDIMSTYLE1
100
AcDbAlignedDimension
 13
73.6302005007
 23
197.6743931411
 33
0.0
 14
105.6302005007
 24
187.6743931411
 34
0.0
 50
90.0
100
AcDbRotatedDimension
  0
DIMENSION
  5
16A
330
1F
100
AcDbEntity
  8
0
  6
Continuous
 62
     7
370
     0
100
AcDbDimension
  2
_D_12
 10
92.3582933611
 20
174.9239688643
 30
0.0
 11
135.6302005007
 21
209.1053184179
 31
0.0
 70
   163
  1
4-%%c6.6,<>ザグリ深6.5
 71
     1
 42
-1.0
  3
SLDDIMSTYLE2
100
AcDbDiametricDimension
 15
97.9021076402
 25
184.424817418
 35
0.0
 40
0.0
  0
INSERT
  5
183
330
1F
100
AcDbEntity
  8
0
  6
Continuous
 62
     7
370
     0
100
AcDbBlockReference
  2
SW_CENTERMARKSYMBOL_0
 10
45.1302005007
 20
179.6743931411
 30
0.0
  0
INSERT
  5
18F
330
1F
100
AcDbEntity
  8
0
  6
Continuous
 62
     7
370
     0
100
AcDbBlockReference
  2
SW_CENTERMARKSYMBOL_1
 10
45.1302005007
 20
159.6743931411
 30
0.0
  0
INSERT
  5
19B
330
1F
100
AcDbEntity
  8
0
  6
Continuous
 62
     7
370
     0
100
AcDbBlockReference
  2
SW_CENTERMARKSYMBOL_2
 10
95.1302005007
 20
179.6743931411
 30
0.0
  0
INSERT
  5
1A7
330
1F
100
AcDbEntity
  8
0
  6
Continuous
 62
     7
370
     0
100
AcDbBlockReference
  2
SW_CENTERMARKSYMBOL_3
 10
95.1302005007
 20
159.6743931411
 30
0.0
  0
INSERT
  5
1B3
330
1F
100
AcDbEntity
  8
0
  6
Continuous
 62
     7
370
     0
100
AcDbBlockReference
  2
SW_CENTERMARKSYMBOL_4
 10
82.1302005007
 20
154.6743931411
 30
0.0
  0
LINE
  5
1B4
330
1F
100
AcDbEntity
  8
0
  6
CENTERX2
 62
     7
370
     0
100
AcDbLine
 10
70.1302005007
 20
111.884697464
 30
0.0
 11
70.1302005007
 21
199.6339303434
 31
0.0
  0
LINE
  5
1B5
330
1F
100
AcDbEntity
  8
0
  6
CENTERX2
 62
     7
370
     0
100
AcDbLine
 10
86.1302005007
 20
185.6743931411
 30
0.0
 11
86.1302005007
 21
193.6743931411
 31
0.0
  0
LINE
  5
1B6
330
1F
100
AcDbEntity
  8
0
  6
CENTERX2
 62
     7
370
     0
100
AcDbLine
 10
86.1302005007
 20
193.6743931411
 30
0.0
 11
86.1302005007
 21
198.6743931411
 31
0.0
  0
LINE
  5
1B7
330
1F
100
AcDbEntity
  8
0
  6
CENTERX2
 62
     7
370
     0
100
AcDbLine
 10
54.1302005007
 20
187.6743931411
 30
0.0
 11
54.1302005007
 21
193.6743931411
 31
0.0
  0
LINE
  5
1B8
330
1F
100
AcDbEntity
  8
0
  6
CENTERX2
 62
     7
370
     0
100
AcDbLine
 10
54.1302005007
 20
193.6743931411
 30
0.0
 11
54.1302005007
 21
198.6743931411
 31
0.0
  0
LINE
  5
1B9
330
1F
100
AcDbEntity
  8
0
  6
Continuous
 62
     7
370
     0
100
AcDbLine
 10
176.5656948158
 20
193.6743929027
 30
0.0
 11
176.5656948158
 21
187.6743919192
 31
0.0
  0
LINE
  5
1BA
330
1F
100
AcDbEntity
  8
0
  6
Continuous
 62
     7
370
     0
100
AcDbLine
 10
182.565694868
 20
187.6743919192
 30
0.0
 11
182.565694868
 21
193.6743929027
 31
0.0
  0
LINE
  5
1BB
330
1F
100
AcDbEntity
  8
0
  6
Continuous
 62
     7
370
     0
100
AcDbLine
 10
182.565694868
 20
193.6743929027
 30
0.0
 11
181.7618470708
 21
196.6743915318
 31
0.0
  0
LINE
  5
1BC
330
1F
100
AcDbEntity
  8
0
  6
Continuous
 62
     7
370
     0
100
AcDbLine
 10
177.369542613
 20
196.6743915318
 30
0.0
 11
176.5656948158
 21
193.6743929027
 31
0.0
  0
LINE
  5
1BD
330
1F
100
AcDbEntity
  8
0
  6
Continuous
 62
     7
370
     0
100
AcDbLine
 10
183.5656945662
 20
197.1743925451
 30
0.0
 11
183.0656949499
 21
197.6743935584
 31
0.0
  0
LINE
  5
1BE
330
1F
100
AcDbEntity
  8
0
  6
Continuous
 62
     7
370
     0
100
AcDbLine
 10
176.0656947339
 20
197.6743935584
 30
0.0
 11
175.5656946519
 21
197.1743925451
 31
0.0
  0
LINE
  5
1BF
330
1F
100
AcDbEntity
  8
0
  6
Continuous
 62
     7
370
     0
100
AcDbLine
 10
183.5656945662
 20
187.6743919192
 30
0.0
 11
183.5656945662
 21
197.1743925451
 31
0.0
  0
LINE
  5
1C0
330
1F
100
AcDbEntity
  8
0
  6
Continuous
 62
     7
370
     0
100
AcDbLine
 10
175.5656946519
 20
197.1743925451
 30
0.0
 11
175.5656946519
 21
187.6743919192
 31
0.0
  0
LINE
  5
1C1
330
1F
100
AcDbEntity
  8
0
  6
Continuous
 62
     7
370
     0
100
AcDbLine
 10
171.0656948456
 20
150.6743931886
 30
0.0
 11
171.5656939963
 21
151.1743931542
 31
0.0
  0
LINE
  5
1C2
330
1F
100
AcDbEntity
  8
0
  6
Continuous
 62
     7
370
     0
100
AcDbLine
 10
171.5656939963
 20
158.1743936031
 30
0.0
 11
171.0656948456
 21
158.6743927537
 31
0.0
  0
LINE
  5
1C3
330
1F
100
AcDbEntity
  8
0
  6
Continuous
 62
     7
370
     0
100
AcDbLine
 10
167.8656946936
 20
150.6743931886
 30
0.0
 11
171.0656948456
 21
150.6743931886
 31
0.0
  0
LINE
  5
1C4
330
1F
100
AcDbEntity
  8
0
  6
Continuous
 62
     7
370
     0
100
AcDbLine
 10
171.0656948456
 20
158.6743927537
 30
0.0
 11
167.8656946936
 21
158.6743927537
 31
0.0
  0
LINE
  5
1C5
330
1F
100
AcDbEntity
  8
0
  6
Continuous
 62
     7
370
     0
100
AcDbLine
 10
192.0656945625
 20
120.0178395002
 30
0.0
 11
192.0656945625
 21
127.1743922471
 31
0.0
  0
LINE
  5
1C6
330
1F
100
AcDbEntity
  8
0
  6
Continuous
 62
     7
370
     0
100
AcDbLine
 10
192.0656945625
 20
115.1743940054
 30
0.0
 11
192.0656945625
 21
118.3284631907
 31
0.0
  0
LINE
  5
1C7
330
1F
100
AcDbEntity
  8
0
  6
Continuous
 62
     7
370
     0
100
AcDbLine
 10
167.06569419
 20
127.1743922471
 30
0.0
 11
167.06569419
 21
115.1743940054
 31
0.0
  0
LINE
  5
1C8
330
1F
100
AcDbEntity
  8
0
  6
Continuous
 62
     7
370
     0
100
AcDbLine
 10
192.0656945625
 20
127.1743922471
 30
0.0
 11
191.5656949462
 21
127.6743932604
 31
0.0
  0
LINE
  5
1C9
330
1F
100
AcDbEntity
  8
0
  6
Continuous
 62
     7
370
     0
100
AcDbLine
 10
167.5656952033
 20
127.6743932604
 30
0.0
 11
167.06569419
 21
127.1743922471
 31
0.0
  0
LINE
  5
1CA
330
1F
100
AcDbEntity
  8
0
  6
Continuous
 62
     7
370
     0
100
AcDbLine
 10
167.06569419
 20
115.1743940054
 30
0.0
 11
167.5656952033
 21
114.6743929921
 31
0.0
  0
LINE
  5
1CB
330
1F
100
AcDbEntity
  8
0
  6
Continuous
 62
     7
370
     0
100
AcDbLine
 10
191.5656949462
 20
114.6743929921
 30
0.0
 11
192.0656945625
 21
115.1743940054
 31
0.0
  0
ARC
  5
1CC
330
1F
100
AcDbEntity
  8
0
  6
Continuous
 62
     7
370
     0
100
AcDbCircle
 10
170.5656947562
 20
129.6743931411
 30
0.0
 40
2.0
100
AcDbArc
 50
270.0
 51
0.0
  0
ARC
  5
1CD
330
1F
100
AcDbEntity
  8
0
  6
Continuous
 62
     7
370
     0
100
AcDbCircle
 10
188.5656947562
 20
129.6743931411
 30
0.0
 40
2.0
100
AcDbArc
 50
180.0
 51
270.0
  0
LINE
  5
1CE
330
1F
100
AcDbEntity
  8
0
  6
Continuous
 62
     7
370
     0
100
AcDbLine
 10
186.5656947087
 20
148.6743930936
 30
0.0
 11
185.5656946612
 21
149.6743931411
 31
0.0
  0
LINE
  5
1CF
330
1F
100
AcDbEntity
  8
0
  6
Continuous
 62
     7
370
     0
100
AcDbLine
 10
173.5656943241
 20
149.6743931411
 30
0.0
 11
172.5656950915
 21
148.6743930936
 31
0.0
  0
LINE
  5
1D0
330
1F
100
AcDbEntity
  8
0
  6
Continuous
 62
     7
370
     0
100
AcDbLine
 10
186.5656947087
 20
129.6743935882
 30
0.0
 11
186.5656947087
 21
148.6743930936
 31
0.0
  0
LINE
  5
1D1
330
1F
100
AcDbEntity
  8
0
  6
Continuous
 62
     7
370
     0
100
AcDbLine
 10
172.5656950915
 20
148.6743930936
 30
0.0
 11
172.5656950915
 21
129.6743935882
 31
0.0
  0
LINE
  5
1D2
330
1F
100
AcDbEntity
  8
0
  6
Continuous
 62
     7
370
     0
100
AcDbLine
 10
176.5656948158
 20
193.6743929027
 30
0.0
 11
182.565694868
 21
193.6743929027
 31
0.0
  0
LINE
  5
1D3
330
1F
100
AcDbEntity
  8
0
  6
Continuous
 62
     7
370
     0
100
AcDbLine
 10
177.369542613
 20
196.6743915318
 30
0.0
 11
181.7618470708
 21
196.6743915318
 31
0.0
  0
LINE
  5
1D4
330
1F
100
AcDbEntity
  8
0
  6
Continuous
 62
     7
370
     0
100
AcDbLine
 10
171.5656939963
 20
149.6743931411
 30
0.0
 11
187.5656947562
 21
149.6743931411
 31
0.0
  0
LINE
  5
1D5
330
1F
100
AcDbEntity
  8
0
  6
Continuous
 62
     7
370
     0
100
AcDbLine
 10
171.5656939963
 20
149.6743931411
 30
0.0
 11
171.5656939963
 21
151.6743932361
 31
0.0
  0
LINE
  5
1D6
330
1F
100
AcDbEntity
  8
0
  6
Continuous
 62
     7
370
     0
100
AcDbLine
 10
171.5656939963
 20
151.6743932361
 30
0.0
 11
187.5656947562
 21
151.6743932361
 31
0.0
  0
LINE
  5
1D7
330
1F
100
AcDbEntity
  8
0
  6
Continuous
 62
     7
370
     0
100
AcDbLine
 10
187.5656947562
 20
149.6743931411
 30
0.0
 11
187.5656947562
 21
151.6743932361
 31
0.0
  0
LINE
  5
1D8
330
1F
100
AcDbEntity
  8
0
  6
Continuous
 62
     7
370
     0
100
AcDbLine
 10
171.5656939963
 20
151.6743932361
 30
0.0
 11
171.5656939963
 21
185.6743915914
 31
0.0
  0
LINE
  5
1D9
330
1F
100
AcDbEntity
  8
0
  6
Continuous
 62
     7
370
     0
100
AcDbLine
 10
171.5656939963
 20
185.6743915914
 30
0.0
 11
187.5656947562
 21
185.6743915914
 31
0.0
  0
LINE
  5
1DA
330
1F
100
AcDbEntity
  8
0
  6
Continuous
 62
     7
370
     0
100
AcDbLine
 10
187.5656947562
 20
151.6743932361
 30
0.0
 11
187.5656947562
 21
185.6743915914
 31
0.0
  0
LINE
  5
1DB
330
1F
100
AcDbEntity
  8
0
  6
Continuous
 62
     7
370
     0
100
AcDbLine
 10
171.5656939963
 20
185.6743915914
 30
0.0
 11
171.5656939963
 21
186.674393618
 31
0.0
  0
LINE
  5
1DC
330
1F
100
AcDbEntity
  8
0
  6
Continuous
 62
     7
370
     0
100
AcDbLine
 10
172.5656950915
 20
187.6743919192
 30
0.0
 11
171.5656939963
 21
186.674393618
 31
0.0
  0
LINE
  5
1DD
330
1F
100
AcDbEntity
  8
0
  6
Continuous
 62
     7
370
     0
100
AcDbLine
 10
172.5656950915
 20
187.6743919192
 30
0.0
 11
187.5656947562
 21
187.6743919192
 31
0.0
  0
LINE
  5
1DE
330
1F
100
AcDbEntity
  8
0
  6
Continuous
 62
     7
370
     0
100
AcDbLine
 10
187.5656947562
 20
185.6743915914
 30
0.0
 11
187.5656947562
 21
187.6743919192
 31
0.0
  0
LINE
  5
1DF
330
1F
100
AcDbEntity
  8
0
  6
Continuous
 62
     7
370
     0
100
AcDbLine
 10
176.0656947339
 20
197.6743935584
 30
0.0
 11
183.0656949499
 21
197.6743935584
 31
0.0
  0
LINE
  5
1E0
330
1F
100
AcDbEntity
  8
0
  6
Continuous
 62
     7
370
     0
100
AcDbLine
 10
183.5656945662
 20
197.1743925451
 30
0.0
 11
175.5656946519
 21
197.1743925451
 31
0.0
  0
LINE
  5
1E1
330
1F
100
AcDbEntity
  8
0
  6
Continuous
 62
     7
370
     0
100
AcDbLine
 10
164.3656950513
 20
159.6743929176
 30
0.0
 11
164.3656950513
 21
149.6743931411
 31
0.0
  0
LINE
  5
1E2
330
1F
100
AcDbEntity
  8
0
  6
Continuous
 62
     7
370
     0
100
AcDbLine
 10
164.3656950513
 20
159.6743929176
 30
0.0
 11
167.365695543
 21
159.6743929176
 31
0.0
  0
LINE
  5
1E3
330
1F
100
AcDbEntity
  8
0
  6
Continuous
 62
     7
370
     0
100
AcDbLine
 10
167.365695543
 20
149.6743931411
 30
0.0
 11
167.365695543
 21
159.6743929176
 31
0.0
  0
LINE
  5
1E4
330
1F
100
AcDbEntity
  8
0
  6
Continuous
 62
     7
370
     0
100
AcDbLine
 10
167.365695543
 20
149.6743931411
 30
0.0
 11
164.3656950513
 21
149.6743931411
 31
0.0
  0
SPLINE
  5
1E5
330
1F
100
AcDbEntity
  8
0
  6
Continuous
 62
     7
370
     0
100
AcDbSpline
210
0.0
220
0.0
230
1.0
 70
    24
 71
     3
 72
     8
 73
     4
 74
     0
 42
0.00000001
 43
0.00000001
 12
1.0
 22
0.0
 32
0.0
 13
1.0
 23
0.0
 33
0.0
 40
0.0000000000000001
 40
0.0000000000000001
 40
0.0000000000000001
 40
0.0000000000000001
 40
0.000723756199695
 40
0.000723756199695
 40
0.000723756199695
 40
0.000723756199695
 10
167.8656947562264
 20
159.174393141144
 30
0.0
 10
167.6992150139697
 20
159.3408728834007
 30
0.0
 10
167.532536018436
 20
159.5075518789344
 30
0.0
 10
167.3656947562264
 20
159.6743931411439
 30
0.0
  0
LINE
  5
1E6
330
1F
100
AcDbEntity
  8
0
  6
Continuous
 62
     7
370
     0
100
AcDbLine
 10
167.8656946936
 20
159.1743928357
 30
0.0
 11
167.8656946936
 21
150.1743931649
 31
0.0
  0
SPLINE
  5
1E7
330
1F
100
AcDbEntity
  8
0
  6
Continuous
 62
     7
370
     0
100
AcDbSpline
210
0.0
220
0.0
230
1.0
 70
    24
 71
     3
 72
     8
 73
     4
 74
     0
 42
0.00000001
 43
0.00000001
 12
1.0
 22
0.0
 32
0.0
 13
1.0
 23
0.0
 33
0.0
 40
0.0000000000000001
 40
0.0000000000000001
 40
0.0000000000000001
 40
0.0000000000000001
 40
0.0007237561996951
 40
0.0007237561996951
 40
0.0007237561996951
 40
0.0007237561996951
 10
167.8656947562264
 20
150.1743931411441
 30
0.0
 10
167.6992150139697
 20
150.0079133988874
 30
0.0
 10
167.532536018436
 20
149.8412344033536
 30
0.0
 10
167.3656947562264
 20
149.674393141144
 30
0.0
  0
LINE
  5
1E8
330
1F
100
AcDbEntity
  8
0
  6
Continuous
 62
     7
370
     0
100
AcDbLine
 10
163.865694038
 20
150.1743931649
 30
0.0
 11
163.865694038
 21
159.1743928357
 31
0.0
  0
SPLINE
  5
1E9
330
1F
100
AcDbEntity
  8
0
  6
Continuous
 62
     7
370
     0
100
AcDbSpline
210
0.0
220
0.0
230
1.0
 70
    24
 71
     3
 72
     8
 73
     4
 74
     0
 42
0.00000001
 43
0.00000001
 12
1.0
 22
0.0
 32
0.0
 13
1.0
 23
0.0
 33
0.0
 40
0.0
 40
0.0
 40
0.0
 40
0.0
 40
0.000723756199695
 40
0.000723756199695
 40
0.000723756199695
 40
0.000723756199695
 10
164.3656947562264
 20
159.674393141144
 30
0.0
 10
164.1988534940168
 20
159.5075518789344
 30
0.0
 10
164.032174498483
 20
159.3408728834007
 30
0.0
 10
163.8656947562264
 20
159.174393141144
 30
0.0
  0
SPLINE
  5
1EA
330
1F
100
AcDbEntity
  8
0
  6
Continuous
 62
     7
370
     0
100
AcDbSpline
210
0.0
220
0.0
230
1.0
 70
    24
 71
     3
 72
     8
 73
     4
 74
     0
 42
0.00000001
 43
0.00000001
 12
1.0
 22
0.0
 32
0.0
 13
1.0
 23
0.0
 33
0.0
 40
0.0000000000000001
 40
0.0000000000000001
 40
0.0000000000000001
 40
0.0000000000000001
 40
0.000723756199695
 40
0.000723756199695
 40
0.000723756199695
 40
0.000723756199695
 10
163.8656947562264
 20
150.174393141144
 30
0.0
 10
164.032174498483
 20
150.0079133988873
 30
0.0
 10
164.1988534940168
 20
149.8412344033536
 30
0.0
 10
164.3656947562263
 20
149.674393141144
 30
0.0
  0
LINE
  5
1EB
330
1F
100
AcDbEntity
  8
0
  6
Continuous
 62
     7
370
     0
100
AcDbLine
 10
171.0656948456
 20
154.6743930294
 30
0.0
 11
171.0656948456
 21
158.6743927537
 31
0.0
  0
LINE
  5
1EC
330
1F
100
AcDbEntity
  8
0
  6
Continuous
 62
     7
370
     0
100
AcDbLine
 10
171.0656948456
 20
150.6743931886
 30
0.0
 11
171.0656948456
 21
154.6743930294
 31
0.0
  0
LINE
  5
1ED
330
1F
100
AcDbEntity
  8
0
  6
Continuous
 62
     7
370
     0
100
AcDbLine
 10
178.1737471068
 20
115.1743940054
 30
0.0
 11
192.0656945625
 21
115.1743940054
 31
0.0
  0
LINE
  5
1EE
330
1F
100
AcDbEntity
  8
0
  6
Continuous
 62
     7
370
     0
100
AcDbLine
 10
167.06569419
 20
115.1743940054
 30
0.0
 11
178.1737471068
 21
115.1743940054
 31
0.0
  0
LINE
  5
1EF
330
1F
100
AcDbEntity
  8
0
  6
Continuous
 62
     7
370
     0
100
AcDbLine
 10
178.1737471068
 20
127.1743922471
 30
0.0
 11
167.06569419
 21
127.1743922471
 31
0.0
  0
LINE
  5
1F0
330
1F
100
AcDbEntity
  8
0
  6
Continuous
 62
     7
370
     0
100
AcDbLine
 10
192.0656945625
 20
127.1743922471
 30
0.0
 11
178.1737471068
 21
127.1743922471
 31
0.0
  0
SPLINE
  5
1F1
330
1F
100
AcDbEntity
  8
0
  6
Continuous
 62
     7
370
     0
100
AcDbSpline
210
0.0
220
0.0
230
1.0
 70
     8
 71
     3
 72
    58
 73
    54
 74
     0
 42
0.00000001
 43
0.00000001
 12
1.0
 22
0.0
 32
0.0
 13
1.0
 23
0.0
 33
0.0
 40
-0.062500000000001
 40
-0.062500000000001
 40
0.0
 40
0.0
 40
0.0312499999999992
 40
0.0312499999999992
 40
0.0624999999999983
 40
0.0624999999999983
 40
0.0937499999999975
 40
0.0937499999999975
 40
0.1249999999999966
 40
0.1249999999999966
 40
0.1874999999999963
 40
0.1874999999999963
 40
0.2499999999999951
 40
0.2499999999999951
 40
0.2812499999999951
 40
0.2812499999999951
 40
0.3124999999999949
 40
0.3124999999999949
 40
0.3437499999999949
 40
0.3437499999999949
 40
0.3749999999999948
 40
0.3749999999999948
 40
0.4062499999999948
 40
0.4062499999999948
 40
0.4374999999999947
 40
0.4374999999999947
 40
0.4687499999999946
 40
0.4687499999999946
 40
0.4999999999999946
 40
0.4999999999999946
 40
0.5624999999999943
 40
0.5624999999999943
 40
0.6249999999999941
 40
0.6249999999999941
 40
0.6562499999999944
 40
0.6562499999999944
 40
0.6874999999999947
 40
0.6874999999999947
 40
0.718749999999995
 40
0.718749999999995
 40
0.7499999999999952
 40
0.7499999999999952
 40
0.7812499999999954
 40
0.7812499999999954
 40
0.8124999999999958
 40
0.8124999999999958
 40
0.8437499999999969
 40
0.8437499999999969
 40
0.874999999999998
 40
0.874999999999998
 40
0.937499999999999
 40
0.937499999999999
 40
1.0
 40
1.0
 40
1.031249999999999
 40
1.031249999999999
 10
192.0122578042584
 20
117.524393141144
 30
0.0
 10
191.9757995810018
 20
117.524393141144
 30
0.0
 10
191.9624334874561
 20
117.5351138279086
 30
0.0
 10
191.9335299162183
 20
117.5770974114114
 30
0.0
 10
191.9178053210307
 20
117.6088785277655
 30
0.0
 10
191.8855079993342
 20
117.6917390354779
 30
0.0
 10
191.8690021769314
 20
117.7424272566551
 30
0.0
 10
191.8359431660436
 20
117.8621612566657
 30
0.0
 10
191.8193197902744
 20
117.9317741875987
 30
0.0
 10
191.7726822806671
 20
118.1598477562399
 30
0.0
 10
191.7447716031825
 20
118.3437398116448
 30
0.0
 10
191.7063350171166
 20
118.7407079772311
 30
0.0
 10
191.695546408173
 20
118.9580002655178
 30
0.0
 10
191.695502412941
 20
119.2812071031327
 30
0.0
 10
191.6981324866059
 20
119.3906573514695
 30
0.0
 10
191.7082925838058
 20
119.602361521611
 30
0.0
 10
191.7157679974073
 20
119.7052710759849
 30
0.0
 10
191.7350800935913
 20
119.9051805887179
 30
0.0
 10
191.746923305617
 20
120.00163719491
 30
0.0
 10
191.7733120185302
 20
120.1802959693621
 30
0.0
 10
191.7879781877111
 20
120.2637095939262
 30
0.0
 10
191.8194443443398
 20
120.4176522963427
 30
0.0
 10
191.8357521282857
 20
120.4858406783392
 30
0.0
 10
191.8686973618451
 20
120.6053460992563
 30
0.0
 10
191.8855198209176
 20
120.6570801778159
 30
0.0
 10
191.9178084363393
 20
120.7399131437085
 30
0.0
 10
191.933243336048
 20
120.7711780183779
 30
0.0
 10
191.9622589447669
 20
120.8135120158085
 30
0.0
 10
191.9758805395286
 20
120.8243523359108
 30
0.0
 10
192.0118876708369
 20
120.8244743986093
 30
0.0
 10
192.030224073411
 20
120.7812323211575
 30
0.0
 10
192.054513211072
 20
120.6168688354311
 30
0.0
 10
192.0608410104558
 20
120.4941809439044
 30
0.0
 10
192.0650156951191
 20
120.2662454291683
 30
0.0
 10
192.0655776152732
 20
120.1814755883364
 30
0.0
 10
192.0657775112412
 20
120.0024358362534
 30
0.0
 10
192.0654360646605
 20
119.9077775865476
 30
0.0
 10
192.0645490298006
 20
119.708018124644
 30
0.0
 10
192.0640080161774
 20
119.6032623244095
 30
0.0
 10
192.0632334725902
 20
119.3923157376011
 30
0.0
 10
192.0629931240261
 20
119.2849599644715
 30
0.0
 10
192.0629890479781
 20
119.066764488531
 30
0.0
 10
192.0632251238729
 20
118.9594774157871
 30
0.0
 10
192.0639949327895
 20
118.7483741420601
 30
0.0
 10
192.0645355753316
 20
118.6434484860083
 30
0.0
 10
192.0654257582546
 20
118.4436700208525
 30
0.0
 10
192.065772283915
 20
118.3488951970896
 30
0.0
 10
192.0655878772394
 20
118.1694623256968
 30
0.0
 10
192.065036779519
 20
118.0846400543322
 30
0.0
 10
192.0609088929079
 20
117.8564529133188
 30
0.0
 10
192.0546229250821
 20
117.7333712381427
 30
0.0
 10
192.0304463874213
 20
117.5683566718924
 30
0.0
 10
192.0122578042584
 20
117.524393141144
 30
0.0
 10
191.9757995810018
 20
117.524393141144
 30
0.0
  0
SPLINE
  5
1F2
330
1F
100
AcDbEntity
  8
0
  6
Continuous
 62
     7
370
     0
100
AcDbSpline
210
0.0
220
0.0
230
1.0
 70
     8
 71
     3
 72
    58
 73
    54
 74
     0
 42
0.00000001
 43
0.00000001
 12
1.0
 22
0.0
 32
0.0
 13
1.0
 23
0.0
 33
0.0
 40
-0.0624999999999994
 40
-0.0624999999999994
 40
0.0
 40
0.0
 40
0.0312500000000013
 40
0.0312500000000013
 40
0.0625000000000026
 40
0.0625000000000026
 40
0.0937500000000038
 40
0.0937500000000038
 40
0.1250000000000051
 40
0.1250000000000051
 40
0.187500000000007
 40
0.187500000000007
 40
0.2500000000000089
 40
0.2500000000000089
 40
0.2812500000000093
 40
0.2812500000000093
 40
0.3125000000000098
 40
0.3125000000000098
 40
0.3437500000000093
 40
0.3437500000000093
 40
0.3750000000000088
 40
0.3750000000000088
 40
0.4062500000000083
 40
0.4062500000000083
 40
0.4375000000000078
 40
0.4375000000000078
 40
0.4687500000000073
 40
0.4687500000000073
 40
0.5000000000000068
 40
0.5000000000000068
 40
0.5625000000000063
 40
0.5625000000000063
 40
0.6250000000000059
 40
0.6250000000000059
 40
0.6562500000000052
 40
0.6562500000000052
 40
0.6875000000000047
 40
0.6875000000000047
 40
0.718750000000004
 40
0.718750000000004
 40
0.7500000000000034
 40
0.7500000000000034
 40
0.7812500000000028
 40
0.7812500000000028
 40
0.8125000000000022
 40
0.8125000000000022
 40
0.8437500000000016
 40
0.8437500000000016
 40
0.875000000000001
 40
0.875000000000001
 40
0.9375000000000006
 40
0.9375000000000006
 40
1.0
 40
1.0
 40
1.031250000000001
 40
1.031250000000001
 10
177.9568363523865
 20
120.824393141144
 30
0.0
 10
178.2822031797942
 20
120.824393141144
 30
0.0
 10
178.3889819474845
 20
120.8136724543793
 30
0.0
 10
178.5993125393817
 20
120.7716888708766
 30
0.0
 10
178.7039673708699
 20
120.7399077545225
 30
0.0
 10
178.9036109844015
 20
120.6570472468101
 30
0.0
 10
178.9984138058724
 20
120.6063590256329
 30
0.0
 10
179.1780346263692
 20
120.4866250256223
 30
0.0
 10
179.2630981242313
 20
120.4170120946892
 30
0.0
 10
179.4920826936542
 20
120.188938526048
 30
0.0
 10
179.6158056553463
 20
120.0050464706432
 30
0.0
 10
179.7816899032535
 20
119.6080783050569
 30
0.0
 10
179.8255438492584
 20
119.3907860167701
 30
0.0
 10
179.8257259391876
 20
119.0675791791553
 30
0.0
 10
179.8148946130079
 20
118.9581289308185
 30
0.0
 10
179.7724039196612
 20
118.7464247606769
 30
0.0
 10
179.7409712583784
 20
118.6435152063031
 30
0.0
 10
179.6576399536974
 20
118.44360569357
 30
0.0
 10
179.60566749186
 20
118.3471490873779
 30
0.0
 10
179.4855882816668
 20
118.1684903129259
 30
0.0
 10
179.4169724992593
 20
118.0850766883617
 30
0.0
 10
179.2624956707986
 20
117.9311339859452
 30
0.0
 10
179.1790210405708
 20
117.8629456039487
 30
0.0
 10
179.0001207579517
 20
117.7434401830316
 30
0.0
 10
178.9035401438914
 20
117.691706104472
 30
0.0
 10
178.7039458790033
 20
117.6088731385794
 30
0.0
 10
178.6012956390287
 20
117.5776082639101
 30
0.0
 10
178.3903528134557
 20
117.5352742664795
 30
0.0
 10
178.2814335050909
 20
117.5244339463771
 30
0.0
 10
177.9602334945108
 20
117.5243118836787
 30
0.0
 10
177.7449149060958
 20
117.5675539611304
 30
0.0
 10
177.3523563128274
 20
117.7319174468568
 30
0.0
 10
177.1711519995254
 20
117.8546053383836
 30
0.0
 10
176.9465863037521
 20
118.0825408531197
 30
0.0
 10
176.8781252428469
 20
118.1673106939515
 30
0.0
 10
176.7605474790751
 20
118.3463504460345
 30
0.0
 10
176.7107664607791
 20
118.4410086957403
 30
0.0
 10
176.6293566519324
 20
118.640768157644
 30
0.0
 10
176.5981671735462
 20
118.7455239578784
 30
0.0
 10
176.5568795070034
 20
118.9564705446869
 30
0.0
 10
176.5462852362234
 20
119.0638263178165
 30
0.0
 10
176.5460950538116
 20
119.2820217937569
 30
0.0
 10
176.5564882445689
 20
119.3893088665009
 30
0.0
 10
176.5974174588337
 20
119.6004121402278
 30
0.0
 10
176.6284685058636
 20
119.7053377962797
 30
0.0
 10
176.7094830633399
 20
119.9051162614354
 30
0.0
 10
176.7590979328131
 20
119.9998910851984
 30
0.0
 10
176.8764963416872
 20
120.1793239565912
 30
0.0
 10
176.9447814248323
 20
120.2641462279557
 30
0.0
 10
177.1688155002906
 20
120.4923333689691
 30
0.0
 10
177.3498870650635
 20
120.6154150441452
 30
0.0
 10
177.742008473156
 20
120.7804296103956
 30
0.0
 10
177.9568363523865
 20
120.824393141144
 30
0.0
 10
178.2822031797942
 20
120.824393141144
 30
0.0
  0
LINE
  5
1F3
330
1F
100
AcDbEntity
  8
0
  6
Continuous
 62
     7
370
     0
100
AcDbLine
 10
178.2294252956
 20
127.6743932604
 30
0.0
 11
191.5656949462
 21
127.6743932604
 31
0.0
  0
LINE
  5
1F4
330
1F
100
AcDbEntity
  8
0
  6
Continuous
 62
     7
370
     0
100
AcDbLine
 10
167.5656952033
 20
127.6743932604
 30
0.0
 11
178.2294252956
 21
127.6743932604
 31
0.0
  0
LINE
  5
1F5
330
1F
100
AcDbEntity
  8
0
  6
Continuous
 62
     7
370
     0
100
AcDbLine
 10
178.2294252956
 20
114.6743929921
 30
0.0
 11
167.5656952033
 21
114.6743929921
 31
0.0
  0
LINE
  5
1F6
330
1F
100
AcDbEntity
  8
0
  6
Continuous
 62
     7
370
     0
100
AcDbLine
 10
191.5656949462
 20
114.6743929921
 30
0.0
 11
178.2294252956
 21
114.6743929921
 31
0.0
  0
LINE
  5
1F7
330
1F
100
AcDbEntity
  8
0
  6
Continuous
 62
     7
370
     0
100
AcDbLine
 10
178.7862043896
 20
148.6743930936
 30
0.0
 11
172.5656950915
 21
148.6743930936
 31
0.0
  0
LINE
  5
1F8
330
1F
100
AcDbEntity
  8
0
  6
Continuous
 62
     7
370
     0
100
AcDbLine
 10
186.5656947087
 20
148.6743930936
 30
0.0
 11
178.7862043896
 21
148.6743930936
 31
0.0
  0
ARC
  5
1F9
330
1F
100
AcDbEntity
  8
0
  6
Continuous
 62
     7
370
     0
100
AcDbCircle
 10
207.0767461356
 20
119.1743937297
 30
0.0
 40
15.41295104310111
100
AcDbArc
 50
175.4271587531
 51
184.5728412469
  0
ARC
  5
1FA
330
1F
100
AcDbEntity
  8
0
  6
Continuous
 62
     7
370
     0
100
AcDbCircle
 10
176.6940827948
 20
119.1732286838
 30
0.0
 40
15.41926325291879
100
AcDbArc
 50
355.4943656131
 51
4.6183033787
  0
LINE
  5
1FB
330
1F
100
AcDbEntity
  8
0
  6
Continuous
 62
     7
370
     0
100
AcDbLine
 10
192.003987457
 20
119.6834462671
 30
0.0
 11
191.8971894378
 21
120.3264984279
 31
0.0
  0
LINE
  5
1FC
330
1F
100
AcDbEntity
  8
0
  6
Continuous
 62
     7
370
     0
100
AcDbLine
 10
191.8971894378
 20
120.3264984279
 30
0.0
 11
191.781776219
 21
119.8174468218
 31
0.0
  0
LINE
  5
1FD
330
1F
100
AcDbEntity
  8
0
  6
Continuous
 62
     7
370
     0
100
AcDbLine
 10
191.781776219
 20
119.8174468218
 30
0.0
 11
191.7731610196
 21
118.6653393297
 31
0.0
  0
LINE
  5
1FE
330
1F
100
AcDbEntity
  8
0
  6
Continuous
 62
     7
370
     0
100
AcDbLine
 10
191.7731610196
 20
118.6653393297
 30
0.0
 11
191.8799590388
 21
118.0222890316
 31
0.0
  0
LINE
  5
1FF
330
1F
100
AcDbEntity
  8
0
  6
Continuous
 62
     7
370
     0
100
AcDbLine
 10
191.8799590388
 20
118.0222890316
 30
0.0
 11
191.9953722575
 21
118.5313406377
 31
0.0
  0
LINE
  5
200
330
1F
100
AcDbEntity
  8
0
  6
Continuous
 62
     7
370
     0
100
AcDbLine
 10
191.9953722575
 20
118.5313406377
 30
0.0
 11
192.003987457
 21
119.6834462671
 31
0.0
  0
LINE
  5
201
330
1F
100
AcDbEntity
  8
0
  6
Continuous
 62
     7
370
     0
100
AcDbLine
 10
191.7954159038
 20
118.5313406377
 30
0.0
 11
191.9953722575
 21
118.5313406377
 31
0.0
  0
LINE
  5
202
330
1F
100
AcDbEntity
  8
0
  6
Continuous
 62
     7
370
     0
100
AcDbLine
 10
191.7807741159
 20
119.6834462671
 30
0.0
 11
192.003987457
 21
119.6834462671
 31
0.0
  0
ARC
  5
203
330
1F
100
AcDbEntity
  8
0
  6
Continuous
 62
     7
370
     0
100
AcDbCircle
 10
178.206222496
 20
119.1743937297
 30
0.0
 40
2.009105169595343
100
AcDbArc
 50
142.2928824858
 51
217.7071175142
  0
ARC
  5
204
330
1F
100
AcDbEntity
  8
0
  6
Continuous
 62
     7
370
     0
100
AcDbCircle
 10
178.1635463391
 20
119.1743937297
 30
0.0
 40
2.009103553954156
100
AcDbArc
 50
322.2928468658
 51
37.7071531342
  0
LINE
  5
205
330
1F
100
AcDbEntity
  8
0
  6
Continuous
 62
     7
370
     0
100
AcDbLine
 10
179.2524850065
 20
119.5977720408
 30
0.0
 11
178.3543082023
 21
120.3164382814
 31
0.0
  0
LINE
  5
206
330
1F
100
AcDbEntity
  8
0
  6
Continuous
 62
     7
370
     0
100
AcDbLine
 10
178.3543082023
 20
120.3164382814
 30
0.0
 11
177.2867061266
 21
119.8930609016
 31
0.0
  0
LINE
  5
207
330
1F
100
AcDbEntity
  8
0
  6
Continuous
 62
     7
370
     0
100
AcDbLine
 10
177.2867061266
 20
119.8930609016
 30
0.0
 11
177.1172817865
 21
118.7510154186
 31
0.0
  0
LINE
  5
208
330
1F
100
AcDbEntity
  8
0
  6
Continuous
 62
     7
370
     0
100
AcDbLine
 10
177.1172817865
 20
118.7510154186
 30
0.0
 11
178.0154585907
 21
118.0323473154
 31
0.0
  0
LINE
  5
209
330
1F
100
AcDbEntity
  8
0
  6
Continuous
 62
     7
370
     0
100
AcDbLine
 10
178.0154585907
 20
118.0323473154
 30
0.0
 11
179.083059735
 21
118.4557265578
 31
0.0
  0
LINE
  5
20A
330
1F
100
AcDbEntity
  8
0
  6
Continuous
 62
     7
370
     0
100
AcDbLine
 10
179.083059735
 20
118.4557265578
 30
0.0
 11
179.2524850065
 21
119.5977720408
 31
0.0
  0
LINE
  5
20B
330
1F
100
AcDbEntity
  8
0
  6
Continuous
 62
     7
370
     0
100
AcDbLine
 10
178.4096604282
 20
120.2721501677
 30
0.0
 11
177.4537397617
 21
119.8930609016
 31
0.0
  0
LINE
  5
20C
330
1F
100
AcDbEntity
  8
0
  6
Continuous
 62
     7
370
     0
100
AcDbLine
 10
177.4537397617
 20
119.8930609016
 30
0.0
 11
177.2867061266
 21
119.8930609016
 31
0.0
  0
LINE
  5
20D
330
1F
100
AcDbEntity
  8
0
  6
Continuous
 62
     7
370
     0
100
AcDbLine
 10
177.2843154216
 20
118.7510154186
 30
0.0
 11
177.1172817865
 21
118.7510154186
 31
0.0
  0
LINE
  5
20E
330
1F
100
AcDbEntity
  8
0
  6
Continuous
 62
     7
370
     0
100
AcDbLine
 10
177.2843154216
 20
118.7510154186
 30
0.0
 11
178.1271399999
 21
118.0766372918
 31
0.0
  0
LINE
  5
20F
330
1F
100
AcDbEntity
  8
0
  6
Continuous
 62
     7
370
     0
100
AcDbLine
 10
177.4537397617
 20
119.8930609016
 30
0.0
 11
177.2843154216
 21
118.7510154186
 31
0.0
  0
LINE
  5
210
330
1F
100
AcDbEntity
  8
0
  6
Continuous
 62
     8
370
     0
100
AcDbLine
 10
178.7862043896
 20
129.6743935882
 30
0.0
 11
186.5656947087
 21
129.6743935882
 31
0.0
  0
LINE
  5
211
330
1F
100
AcDbEntity
  8
0
  6
Continuous
 62
     8
370
     0
100
AcDbLine
 10
172.5656950915
 20
129.6743935882
 30
0.0
 11
178.7862043896
 21
129.6743935882
 31
0.0
  0
DIMENSION
  5
212
330
1F
100
AcDbEntity
  8
0
  6
Continuous
 62
     7
370
     0
100
AcDbDimension
  2
_D_13
 10
187.5656947562
 20
216.4258071384
 30
0.0
 11
179.5656947562
 21
216.4258071384
 31
0.0
 70
   160
  1
<>
 71
     2
 42
-1.0
  3
SLDDIMSTYLE0
100
AcDbAlignedDimension
 13
171.5656947562
 23
186.6743931411
 33
0.0
 14
187.5656947562
 24
187.6743931411
 34
0.0
100
AcDbRotatedDimension
  0
DIMENSION
  5
21C
330
1F
100
AcDbEntity
  8
0
  6
Continuous
 62
     7
370
     0
100
AcDbDimension
  2
_D_14
 10
179.5656947562
 20
207.6743931411
 30
0.0
 11
175.5656947562
 21
207.6743931411
 31
0.0
 70
   160
  1
<>
 71
     2
 42
-1.0
  3
SLDDIMSTYLE1
100
AcDbAlignedDimension
 13
171.5656947562
 23
186.6743931411
 33
0.0
 14
179.5656947562
 24
199.0464710098
 34
0.0
100
AcDbRotatedDimension
  0
DIMENSION
  5
228
330
1F
100
AcDbEntity
  8
0
  6
Continuous
 62
     7
370
     0
100
AcDbDimension
  2
_D_15
 10
147.8656947562
 20
149.6743931411
 30
0.0
 11
147.8656947562
 21
154.6743931411
 31
0.0
 70
   160
  1
%%c<>
 71
     2
 42
-1.0
  3
SLDDIMSTYLE1
100
AcDbAlignedDimension
 13
164.3656947562
 23
159.6743931411
 33
0.0
 14
164.3656947562
 24
149.6743931411
 34
0.0
 50
90.0
100
AcDbRotatedDimension
  0
DIMENSION
  5
235
330
1F
100
AcDbEntity
  8
0
  6
Continuous
 62
     7
370
     0
100
AcDbDimension
  2
_D_16
 10
155.7774250224
 20
158.6743931411
 30
0.0
 11
155.7774250224
 21
154.6743931411
 31
0.0
 70
   160
  1
%%c<>
 71
     2
 42
-1.0
  3
SLDDIMSTYLE1
100
AcDbAlignedDimension
 13
167.8656947562
 23
150.6743931411
 33
0.0
 14
167.8656947562
 24
158.6743931411
 34
0.0
 50
90.0
100
AcDbRotatedDimension
  0
DIMENSION
  5
242
330
1F
100
AcDbEntity
  8
0
  6
Continuous
 62
     7
370
     0
100
AcDbDimension
  2
_D_17
 10
167.0656947562
 20
101.8172394207
 30
0.0
 11
179.5656947562
 21
101.8172394207
 31
0.0
 70
   160
  1
%%c<>
 71
     2
 42
-1.0
  3
SLDDIMSTYLE0
100
AcDbAlignedDimension
 13
192.0656947562
 23
115.1743931411
 33
0.0
 14
167.0656947562
 24
115.1743931411
 34
0.0
100
AcDbRotatedDimension
  0
LINE
  5
24D
330
1F
100
AcDbEntity
  8
0
  6
CENTERX2
 62
     7
370
     0
100
AcDbLine
 10
179.5656947562
 20
111.5869714061
 30
0.0
 11
179.5656947562
 21
199.0464710098
 31
0.0
  0
LINE
  5
24E
330
1F
100
AcDbEntity
  8
0
  6
CENTERX2
 62
     7
370
     0
100
AcDbLine
 10
162.6585406393
 20
154.6743931411
 30
0.0
 11
188.8907510995
 21
154.6743931411
 31
0.0
  0
ENDSEC
  0
SECTION
  2
OBJECTS
  0
DICTIONARY
  5
C
330
0
100
AcDbDictionary
281
     1
  3
ACAD_GROUP
350
D
  3
ACAD_LAYOUT
350
1A
  3
ACAD_MLINESTYLE
350
17
  3
ACAD_PLOTSETTINGS
350
19
  3
ACAD_PLOTSTYLENAME
350
E
  0
DICTIONARY
  5
D
102
{ACAD_REACTORS
330
C
102
}
330
C
100
AcDbDictionary
281
     1
  0
DICTIONARY
  5
1A
102
{ACAD_REACTORS
330
C
102
}
330
C
100
AcDbDictionary
281
     1
  3
Layout1
350
1E
  3
Layout2
350
26
  3
Model
350
22
  0
DICTIONARY
  5
17
102
{ACAD_REACTORS
330
C
102
}
330
C
100
AcDbDictionary
281
     1
  3
Standard
350
18
  0
DICTIONARY
  5
19
102
{ACAD_REACTORS
330
C
102
}
330
C
100
AcDbDictionary
281
     1
  0
ACDBDICTIONARYWDFLT
  5
E
102
{ACAD_REACTORS
330
C
102
}
330
C
100
AcDbDictionary
281
     1
  3
Normal
350
F
100
AcDbDictionaryWithDefault
340
F
  0
LAYOUT
  5
1E
102
{ACAD_REACTORS
330
1A
102
}
330
1A
100
AcDbPlotSettings
  1

  2
none_device
  4

  6

 40
0.0
 41
0.0
 42
0.0
 43
0.0
 44
0.0
 45
0.0
 46
0.0
 47
0.0
 48
0.0
 49
0.0
140
0.0
141
0.0
142
1.0
143
1.0
 70
   688
 72
     0
 73
     0
 74
     5
  7

 75
    16
147
1.0
148
0.0
149
0.0
100
AcDbLayout
  1
Layout1
 70
     1
 71
     1
 10
0.0
 20
0.0
 11
420.0
 21
297.0
 12
0.0
 22
0.0
 32
0.0
 14
1.0000000000E+20
 24
1.0000000000E+20
 34
1.0000000000E+20
 15
-1.0000000000E+20
 25
-1.0000000000E+20
 35
-1.0000000000E+20
146
0.0
 13
0.0
 23
0.0
 33
0.0
 16
1.0
 26
0.0
 36
0.0
 17
0.0
 27
1.0
 37
0.0
 76
     0
330
1B
  0
LAYOUT
  5
26
102
{ACAD_REACTORS
330
1A
102
}
330
1A
100
AcDbPlotSettings
  1

  2
none_device
  4

  6

 40
0.0
 41
0.0
 42
0.0
 43
0.0
 44
0.0
 45
0.0
 46
0.0
 47
0.0
 48
0.0
 49
0.0
140
0.0
141
0.0
142
1.0
143
1.0
 70
   688
 72
     0
 73
     0
 74
     5
  7

 75
    16
147
1.0
148
0.0
149
0.0
100
AcDbLayout
  1
Layout2
 70
     1
 71
     2
 10
0.0
 20
0.0
 11
0.0
 21
0.0
 12
0.0
 22
0.0
 32
0.0
 14
0.0
 24
0.0
 34
0.0
 15
0.0
 25
0.0
 35
0.0
146
0.0
 13
0.0
 23
0.0
 33
0.0
 16
1.0
 26
0.0
 36
0.0
 17
0.0
 27
1.0
 37
0.0
 76
     0
330
23
  0
LAYOUT
  5
22
102
{ACAD_REACTORS
330
1A
102
}
330
1A
100
AcDbPlotSettings
  1

  2
none_device
  4

  6

 40
0.0
 41
0.0
 42
0.0
 43
0.0
 44
0.0
 45
0.0
 46
0.0
 47
0.0
 48
0.0
 49
0.0
140
0.0
141
0.0
142
1.0
143
1.0
 70
  1712
 72
     0
 73
     0
 74
     0
  7

 75
     0
147
1.0
148
0.0
149
0.0
100
AcDbLayout
  1
Model
 70
     1
 71
     0
 10
0.0
 20
0.0
 11
210.0
 21
297.0
 12
0.0
 22
0.0
 32
0.0
 14
0.0
 24
0.0
 34
0.0
 15
210.0
 25
297.0
 35
0.0
146
0.0
 13
0.0
 23
0.0
 33
0.0
 16
1.0
 26
0.0
 36
0.0
 17
0.0
 27
1.0
 37
0.0
 76
     0
330
1F
331
29
  0
MLINESTYLE
  5
18
102
{ACAD_REACTORS
330
17
102
}
330
17
100
AcDbMlineStyle
  2
Standard
 70
     0
  3

 62
   256
 51
90.0
 52
90.0
 71
     2
 49
0.5
 62
   256
  6
BYLAYER
 49
-0.5
 62
   256
  6
BYLAYER
  0
ACDBPLACEHOLDER
  5
F
102
{ACAD_REACTORS
330
E
102
}
330
E
  0
ENDSEC
  0
EOF
