  0
SECTION
  2
HEADER
  9
$ACADVER
  1
AC1015
  9
$ACADMAINTVER
 70
     6
  9
$DWGCODEPAGE
  3
DOS932
  9
$INSBASE
 10
0.0
 20
0.0
 30
0.0
  9
$EXTMIN
 10
0.0
 20
0.0
 30
0.0
  9
$EXTMAX
 10
210.0
 20
297.0
 30
0.0
  9
$LIMMIN
 10
0.0
 20
0.0
  9
$LIMMAX
 10
210.0
 20
297.0
  9
$ORTHOMODE
 70
     0
  9
$REGENMODE
 70
     1
  9
$FILLMODE
 70
     1
  9
$QTEXTMODE
 70
     0
  9
$MIRRTEXT
 70
     1
  9
$LTSCALE
 40
1.0
  9
$ATTMODE
 70
     1
  9
$TEXTSIZE
 40
3.5
  9
$TRACEWID
 40
1.0
  9
$TEXTSTYLE
  7
Standard
  9
$CLAYER
  8
0
  9
$CELTYPE
  6
ByLayer
  9
$CECOLOR
 62
   256
  9
$CELTSCALE
 40
1.0
  9
$DISPSILH
 70
     0
  9
$DIMSCALE
 40
1.0
  9
$DIMASZ
 40
2.0
  9
$DIMEXO
 40
1.0
  9
$DIMDLI
 40
3.75
  9
$DIMRND
 40
0.0
  9
$DIMDLE
 40
0.0
  9
$DIMEXE
 40
1.0
  9
$DIMTP
 40
0.0
  9
$DIMTM
 40
0.0
  9
$DIMTXT
 40
3.5
  9
$DIMCEN
 40
2.5
  9
$DIMTSZ
 40
0.0
  9
$DIMTOL
 70
     0
  9
$DIMLIM
 70
     0
  9
$DIMTIH
 70
     1
  9
$DIMTOH
 70
     1
  9
$DIMSE1
 70
     0
  9
$DIMSE2
 70
     0
  9
$DIMTAD
 70
     1
  9
$DIMZIN
 70
     0
  9
$DIMBLK
  1

  9
$DIMASO
 70
     1
  9
$DIMSHO
 70
     1
  9
$DIMPOST
  1

  9
$DIMAPOST
  1

  9
$DIMALT
 70
     0
  9
$DIMALTD
 70
     3
  9
$DIMALTF
 40
0.0393700787
  9
$DIMLFAC
 40
1.0
  9
$DIMTOFL
 70
     1
  9
$DIMTVP
 40
0.0
  9
$DIMTIX
 70
     0
  9
$DIMSOXD
 70
     0
  9
$DIMSAH
 70
     0
  9
$DIMBLK1
  1

  9
$DIMBLK2
  1

  9
$DIMSTYLE
  2
ISO-25
  9
$DIMCLRD
 70
     0
  9
$DIMCLRE
 70
     0
  9
$DIMCLRT
 70
     0
  9
$DIMTFAC
 40
1.0
  9
$DIMGAP
 40
1.524
  9
$DIMJUST
 70
     0
  9
$DIMSD1
 70
     0
  9
$DIMSD2
 70
     0
  9
$DIMTOLJ
 70
     0
  9
$DIMTZIN
 70
     0
  9
$DIMALTZ
 70
     0
  9
$DIMALTTZ
 70
     0
  9
$DIMUPT
 70
     0
  9
$DIMDEC
 70
     2
  9
$DIMTDEC
 70
     2
  9
$DIMALTU
 70
     2
  9
$DIMALTTD
 70
     3
  9
$DIMTXSTY
  7
Standard
  9
$DIMAUNIT
 70
     0
  9
$DIMADEC
 70
     2
  9
$DIMALTRND
 40
0.0
  9
$DIMAZIN
 70
     0
  9
$DIMDSEP
 70
    44
  9
$DIMATFIT
 70
     3
  9
$DIMFRAC
 70
     0
  9
$DIMLDRBLK
  1

  9
$DIMLUNIT
 70
     2
  9
$DIMLWD
 70
    -2
  9
$DIMLWE
 70
    -2
  9
$DIMTMOVE
 70
     0
  9
$LUNITS
 70
     2
  9
$LUPREC
 70
     2
  9
$SKETCHINC
 40
1.0
  9
$FILLETRAD
 40
10.0
  9
$AUNITS
 70
     0
  9
$AUPREC
 70
     2
  9
$MENU
  1
.
  9
$ELEVATION
 40
0.0
  9
$PELEVATION
 40
0.0
  9
$THICKNESS
 40
0.0
  9
$LIMCHECK
 70
     0
  9
$CHAMFERA
 40
10.0
  9
$CHAMFERB
 40
10.0
  9
$CHAMFERC
 40
20.0
  9
$CHAMFERD
 40
0.0
  9
$SKPOLY
 70
     0
  9
$TDCREATE
 40
2457168.435367998
  9
$TDUCREATE
 40
2457168.060367998
  9
$TDUPDATE
 40
2457168.435375035
  9
$TDUUPDATE
 40
2457168.060375035
  9
$TDINDWG
 40
0.0000000116
  9
$TDUSRTIMER
 40
0.0000000116
  9
$USRTIMER
 70
     1
  9
$ANGBASE
 50
0.0
  9
$ANGDIR
 70
     0
  9
$PDMODE
 70
     0
  9
$PDSIZE
 40
-1.0
  9
$PLINEWID
 40
0.0
  9
$SPLFRAME
 70
     0
  9
$SPLINETYPE
 70
     6
  9
$SPLINESEGS
 70
     8
  9
$HANDSEED
  5
36F
  9
$SURFTAB1
 70
     6
  9
$SURFTAB2
 70
     6
  9
$SURFTYPE
 70
     6
  9
$SURFU
 70
     6
  9
$SURFV
 70
     6
  9
$UCSBASE
  2

  9
$UCSNAME
  2

  9
$UCSORG
 10
0.0
 20
0.0
 30
0.0
  9
$UCSXDIR
 10
1.0
 20
0.0
 30
0.0
  9
$UCSYDIR
 10
0.0
 20
1.0
 30
0.0
  9
$UCSORTHOREF
  2

  9
$UCSORTHOVIEW
 70
     0
  9
$UCSORGTOP
 10
0.0
 20
0.0
 30
0.0
  9
$UCSORGBOTTOM
 10
0.0
 20
0.0
 30
0.0
  9
$UCSORGLEFT
 10
0.0
 20
0.0
 30
0.0
  9
$UCSORGRIGHT
 10
0.0
 20
0.0
 30
0.0
  9
$UCSORGFRONT
 10
0.0
 20
0.0
 30
0.0
  9
$UCSORGBACK
 10
0.0
 20
0.0
 30
0.0
  9
$PUCSBASE
  2

  9
$PUCSNAME
  2

  9
$PUCSORG
 10
0.0
 20
0.0
 30
0.0
  9
$PUCSXDIR
 10
1.0
 20
0.0
 30
0.0
  9
$PUCSYDIR
 10
0.0
 20
1.0
 30
0.0
  9
$PUCSORTHOREF
  2

  9
$PUCSORTHOVIEW
 70
     0
  9
$PUCSORGTOP
 10
0.0
 20
0.0
 30
0.0
  9
$PUCSORGBOTTOM
 10
0.0
 20
0.0
 30
0.0
  9
$PUCSORGLEFT
 10
0.0
 20
0.0
 30
0.0
  9
$PUCSORGRIGHT
 10
0.0
 20
0.0
 30
0.0
  9
$PUCSORGFRONT
 10
0.0
 20
0.0
 30
0.0
  9
$PUCSORGBACK
 10
0.0
 20
0.0
 30
0.0
  9
$USERI1
 70
     0
  9
$USERI2
 70
     0
  9
$USERI3
 70
     0
  9
$USERI4
 70
     0
  9
$USERI5
 70
     0
  9
$USERR1
 40
0.0
  9
$USERR2
 40
0.0
  9
$USERR3
 40
0.0
  9
$USERR4
 40
0.0
  9
$USERR5
 40
0.0
  9
$WORLDVIEW
 70
     1
  9
$SHADEDGE
 70
     3
  9
$SHADEDIF
 70
    70
  9
$TILEMODE
 70
     1
  9
$MAXACTVP
 70
    64
  9
$PINSBASE
 10
0.0
 20
0.0
 30
0.0
  9
$PLIMCHECK
 70
     0
  9
$PEXTMIN
 10
1.0000000000E+20
 20
1.0000000000E+20
 30
1.0000000000E+20
  9
$PEXTMAX
 10
-1.0000000000E+20
 20
-1.0000000000E+20
 30
-1.0000000000E+20
  9
$PLIMMIN
 10
0.0
 20
0.0
  9
$PLIMMAX
 10
420.0
 20
297.0
  9
$UNITMODE
 70
     0
  9
$VISRETAIN
 70
     1
  9
$PLINEGEN
 70
     0
  9
$PSLTSCALE
 70
     1
  9
$TREEDEPTH
 70
  3020
  9
$CMLSTYLE
  2
Standard
  9
$CMLJUST
 70
     0
  9
$CMLSCALE
 40
20.0
  9
$PROXYGRAPHICS
 70
     1
  9
$MEASUREMENT
 70
     1
  9
$CELWEIGHT
370
    -1
  9
$ENDCAPS
280
     0
  9
$JOINSTYLE
280
     0
  9
$LWDISPLAY
290
     1
  9
$INSUNITS
 70
     4
  9
$HYPERLINKBASE
  1

  9
$STYLESHEET
  1

  9
$XEDIT
290
     1
  9
$CEPSNTYPE
380
     0
  9
$PSTYLEMODE
290
     1
  9
$FINGERPRINTGUID
  2
{E820CA86-4FBF-4293-A411-CFD0429F1C3A}
  9
$VERSIONGUID
  2
{FAEB1C32-E019-11D5-929B-00C0DF256EC4}
  9
$EXTNAMES
290
     1
  9
$PSVPSCALE
 40
0.0
  9
$OLESTARTUP
290
     0
  0
ENDSEC
  0
SECTION
  2
CLASSES
  0
CLASS
  1
ACDBDICTIONARYWDFLT
  2
AcDbDictionaryWithDefault
  3
ObjectDBX Classes
 90
        0
280
     0
281
     0
  0
CLASS
  1
VISUALSTYLE
  2
AcDbVisualStyle
  3
ObjectDBX Classes
 90
     4095
280
     0
281
     0
  0
CLASS
  1
MATERIAL
  2
AcDbMaterial
  3
ObjectDBX Classes
 90
     1153
280
     0
281
     0
  0
CLASS
  1
ACDBPLACEHOLDER
  2
AcDbPlaceHolder
  3
ObjectDBX Classes
 90
        0
280
     0
281
     0
  0
CLASS
  1
LAYOUT
  2
AcDbLayout
  3
ObjectDBX Classes
 90
        0
280
     0
281
     0
  0
ENDSEC
  0
SECTION
  2
TABLES
  0
TABLE
  2
VPORT
  5
8
330
0
100
AcDbSymbolTable
 70
     1
  0
VPORT
  5
29
330
8
100
AcDbSymbolTableRecord
100
AcDbViewportTableRecord
  2
*Active
 70
     0
 10
0.0
 20
0.0
 11
1.0
 21
1.0
 12
105.0
 22
148.5
 13
0.0
 23
0.0
 14
10.0
 24
10.0
 15
10.0
 25
10.0
 16
0.0
 26
0.0
 36
1.0
 17
0.0
 27
0.0
 37
0.0
 40
297.0
 41
0.7070707071
 42
50.0
 43
0.0
 44
0.0
 50
0.0
 51
0.0
 71
     0
 72
  2000
 73
     1
 74
     3
 75
     0
 76
     0
 77
     0
 78
     0
281
     0
 65
     1
110
0.0
120
0.0
130
0.0
111
1.0
121
0.0
131
0.0
112
0.0
122
1.0
132
0.0
 79
     0
146
0.0
  0
ENDTAB
  0
TABLE
  2
LTYPE
  5
5
330
0
100
AcDbSymbolTable
 70
     6
  0
LTYPE
  5
14
330
5
100
AcDbSymbolTableRecord
100
AcDbLinetypeTableRecord
  2
ByBlock
 70
     0
  3

 72
    65
 73
     0
 40
0.0
  0
LTYPE
  5
15
330
5
100
AcDbSymbolTableRecord
100
AcDbLinetypeTableRecord
  2
ByLayer
 70
     0
  3

 72
    65
 73
     0
 40
0.0
  0
LTYPE
  5
16
330
5
100
AcDbSymbolTableRecord
100
AcDbLinetypeTableRecord
  2
Continuous
 70
     0
  3
Solid line
 72
    65
 73
     0
 40
0.0
  0
LTYPE
  5
3F
330
5
100
AcDbSymbolTableRecord
100
AcDbLinetypeTableRecord
  2
HIDDEN
 70
     0
  3
Hidden __ __ __ __ __ __ __ __ __ __ __ __ __ __
 72
    65
 73
     2
 40
1.905
 49
1.27
 74
     0
 49
-0.635
 74
     0
  0
LTYPE
  5
40
330
5
100
AcDbSymbolTableRecord
100
AcDbLinetypeTableRecord
  2
PHANTOM
 70
     0
  3
Phantom ______  __  __  ______  __  __  ______
 72
    65
 73
     6
 40
12.7
 49
6.35
 74
     0
 49
-1.27
 74
     0
 49
1.27
 74
     0
 49
-1.27
 74
     0
 49
1.27
 74
     0
 49
-1.27
 74
     0
  0
LTYPE
  5
41
330
5
100
AcDbSymbolTableRecord
100
AcDbLinetypeTableRecord
  2
CENTER
 70
     0
  3
Center ____ _ ____ _ ____ _ ____ _ ____ _ ____
 72
    65
 73
     4
 40
10.16
 49
6.35
 74
     0
 49
-1.27
 74
     0
 49
1.27
 74
     0
 49
-1.27
 74
     0
  0
LTYPE
  5
42
330
5
100
AcDbSymbolTableRecord
100
AcDbLinetypeTableRecord
  2
CENTERX2
 70
     0
  3
Center (2x) ________  __  ________  __  _____
 72
    65
 73
     4
 40
20.32
 49
12.7
 74
     0
 49
-2.54
 74
     0
 49
2.54
 74
     0
 49
-2.54
 74
     0
  0
LTYPE
  5
43
330
5
100
AcDbSymbolTableRecord
100
AcDbLinetypeTableRecord
  2
DOT2
 70
     0
  3
Dot (.5x) ........................................
 72
    65
 73
     2
 40
0.635
 49
0.0
 74
     0
 49
-0.635
 74
     0
  0
ENDTAB
  0
TABLE
  2
LAYER
  5
2
330
0
100
AcDbSymbolTable
 70
     1
  0
LAYER
  5
10
330
2
100
AcDbSymbolTableRecord
100
AcDbLayerTableRecord
  2
0
 70
     0
 62
     7
  6
Continuous
370
    -3
390
F
  0
ENDTAB
  0
TABLE
  2
STYLE
  5
3
330
0
100
AcDbSymbolTable
 70
     3
  0
STYLE
  5
11
330
3
100
AcDbSymbolTableRecord
100
AcDbTextStyleTableRecord
  2
Standard
 70
     0
 40
0.0
 41
1.0
 50
0.0
 71
     0
 42
3.5
  3
txt
  4
bigfont
  0
STYLE
  5
4C
330
3
100
AcDbSymbolTableRecord
100
AcDbTextStyleTableRecord
  2
SLDTEXTSTYLE0
 70
     0
 40
0.0
 41
0.7
 50
0.0
 71
     0
 42
0.2
  3
TXT
  4
bigfont
  0
STYLE
  5
155
330
3
100
AcDbSymbolTableRecord
100
AcDbTextStyleTableRecord
  2
SLDTEXTSTYLE1
 70
     0
 40
0.0
 41
0.75
 50
0.0
 71
     0
 42
0.2
  3
TXT
  4
bigfont
  0
ENDTAB
  0
TABLE
  2
VIEW
  5
6
330
0
100
AcDbSymbolTable
 70
     0
  0
ENDTAB
  0
TABLE
  2
UCS
  5
7
330
0
100
AcDbSymbolTable
 70
     0
  0
ENDTAB
  0
TABLE
  2
APPID
  5
9
330
0
100
AcDbSymbolTable
 70
     1
  0
APPID
  5
12
330
9
100
AcDbSymbolTableRecord
100
AcDbRegAppTableRecord
  2
ACAD
 70
     0
  0
ENDTAB
  0
TABLE
  2
DIMSTYLE
  5
A
330
0
100
AcDbSymbolTable
 70
     4
100
AcDbDimStyleTable
  0
DIMSTYLE
105
27
330
A
100
AcDbSymbolTableRecord
100
AcDbDimStyleTableRecord
  2
ISO-25
 70
     0
 41
2.5
 42
0.625
 43
3.75
 44
1.25
 73
     0
 74
     0
 77
     1
 78
     8
140
2.5
141
2.5
143
0.0393700787
147
0.625
171
     3
172
     1
178
     0
271
     2
272
     2
274
     3
278
    44
283
     0
284
     8
340
11
  0
DIMSTYLE
105
156
102
{ACAD_REACTORS
330
154
330
1AD
330
316
330
320
330
32A
330
334
102
}
330
A
100
AcDbSymbolTableRecord
100
AcDbDimStyleTableRecord
  2
SLDDIMSTYLE0
 70
     0
 41
2.0
 44
0.0
 45
0.000000001
 73
     0
 74
     0
 77
     3
 78
    12
 79
     3
140
3.5
147
0.875
173
     1
178
     0
271
     2
272
     2
276
     2
284
    12
340
155
  0
DIMSTYLE
105
33F
102
{ACAD_REACTORS
330
33E
102
}
330
A
100
AcDbSymbolTableRecord
100
AcDbDimStyleTableRecord
  2
SLDDIMSTYLE1
 70
     0
 41
2.0
 44
0.0
 45
0.000000001
 73
     0
 74
     0
 77
     3
 78
    12
 79
     3
140
3.5
147
0.875
172
     1
173
     1
178
     0
271
     1
272
     1
276
     2
284
    12
289
     0
340
155
  0
DIMSTYLE
105
34C
330
A
100
AcDbSymbolTableRecord
100
AcDbDimStyleTableRecord
  2
SLDDIMSTYLE2
 70
     0
 41
2.0
 44
0.0
 45
0.000000001
140
0.0
146
2.0
147
0.0
173
     1
178
     0
271
     0
272
     0
276
     2
340
11
  0
ENDTAB
  0
TABLE
  2
BLOCK_RECORD
  5
1
330
0
100
AcDbSymbolTable
 70
    11
  0
BLOCK_RECORD
  5
1F
330
1
100
AcDbSymbolTableRecord
100
AcDbBlockTableRecord
  2
*Model_Space
340
22
  0
BLOCK_RECORD
  5
1B
330
1
100
AcDbSymbolTableRecord
100
AcDbBlockTableRecord
  2
*Paper_Space
340
1E
  0
BLOCK_RECORD
  5
23
330
1
100
AcDbSymbolTableRecord
100
AcDbBlockTableRecord
  2
*Paper_Space0
340
26
  0
BLOCK_RECORD
  5
157
330
1
100
AcDbSymbolTableRecord
100
AcDbBlockTableRecord
  2
_D
340
0
  0
BLOCK_RECORD
  5
1AE
330
1
100
AcDbSymbolTableRecord
100
AcDbBlockTableRecord
  2
_D_1
340
0
  0
BLOCK_RECORD
  5
317
330
1
100
AcDbSymbolTableRecord
100
AcDbBlockTableRecord
  2
_D_2
340
0
  0
BLOCK_RECORD
  5
321
330
1
100
AcDbSymbolTableRecord
100
AcDbBlockTableRecord
  2
_D_3
340
0
  0
BLOCK_RECORD
  5
32B
330
1
100
AcDbSymbolTableRecord
100
AcDbBlockTableRecord
  2
_D_4
340
0
  0
BLOCK_RECORD
  5
335
330
1
100
AcDbSymbolTableRecord
100
AcDbBlockTableRecord
  2
_D_5
340
0
  0
BLOCK_RECORD
  5
340
330
1
100
AcDbSymbolTableRecord
100
AcDbBlockTableRecord
  2
_D_6
340
0
  0
BLOCK_RECORD
  5
350
330
1
100
AcDbSymbolTableRecord
100
AcDbBlockTableRecord
  2
SW_NOTE_0
340
0
102
{BLKREFS
331
355
102
}
  0
BLOCK_RECORD
  5
357
330
1
100
AcDbSymbolTableRecord
100
AcDbBlockTableRecord
  2
SW_CENTERMARKSYMBOL_0
340
0
102
{BLKREFS
331
362
102
}
  0
BLOCK_RECORD
  5
363
330
1
100
AcDbSymbolTableRecord
100
AcDbBlockTableRecord
  2
SW_CENTERMARKSYMBOL_1
340
0
102
{BLKREFS
331
36E
102
}
  0
ENDTAB
  0
ENDSEC
  0
SECTION
  2
BLOCKS
  0
BLOCK
  5
20
330
1F
100
AcDbEntity
  8
0
100
AcDbBlockBegin
  2
*Model_Space
 70
     0
 10
0.0
 20
0.0
 30
0.0
  3
*Model_Space
  1

  0
ENDBLK
  5
21
330
1F
100
AcDbEntity
  8
0
100
AcDbBlockEnd
  0
BLOCK
  5
1C
330
1B
100
AcDbEntity
 67
     1
  8
0
100
AcDbBlockBegin
  2
*Paper_Space
 70
     0
 10
0.0
 20
0.0
 30
0.0
  3
*Paper_Space
  1

  0
ENDBLK
  5
1D
330
1B
100
AcDbEntity
 67
     1
  8
0
100
AcDbBlockEnd
  0
BLOCK
  5
24
330
23
100
AcDbEntity
  8
0
100
AcDbBlockBegin
  2
*Paper_Space0
 70
     0
 10
0.0
 20
0.0
 30
0.0
  3
*Paper_Space0
  1

  0
ENDBLK
  5
25
330
23
100
AcDbEntity
  8
0
100
AcDbBlockEnd
  0
BLOCK
  5
158
330
157
100
AcDbEntity
  8
0
100
AcDbBlockBegin
  2
_D
 70
     0
 10
0.0
 20
0.0
 30
0.0
  3
_D
  1

  0
SOLID
  5
15A
330
157
100
AcDbEntity
  8
0
  6
Continuous
 62
     7
370
     0
100
AcDbTrace
 10
182.9114354038
 20
255.8844923292
 30
0.0
 11
182.1614354038
 21
253.8844923292
 31
0.0
 12
183.6614354038
 22
253.8844923292
 32
0.0
 13
183.6614354038
 23
253.8844923292
 33
0.0
  0
SOLID
  5
15B
330
157
100
AcDbEntity
  8
0
  6
Continuous
 62
     7
370
     0
100
AcDbTrace
 10
182.9114354038
 20
115.8844923292
 30
0.0
 11
183.6614354038
 21
117.8844923292
 31
0.0
 12
182.1614354038
 22
117.8844923292
 32
0.0
 13
182.1614354038
 23
117.8844923292
 33
0.0
  0
LINE
  5
15C
330
157
100
AcDbEntity
  8
0
  6
Continuous
 62
     7
370
     0
100
AcDbLine
 10
164.9114104038
 20
255.8844923292
 30
0.0
 11
183.9114354038
 21
255.8844923292
 31
0.0
  0
LINE
  5
15D
330
157
100
AcDbEntity
  8
0
  6
Continuous
 62
     7
370
     0
100
AcDbLine
 10
164.9114104038
 20
115.8844923292
 30
0.0
 11
183.9114354038
 21
115.8844923292
 31
0.0
  0
LINE
  5
15E
330
157
100
AcDbEntity
  8
0
  6
Continuous
 62
     7
370
     0
100
AcDbLine
 10
182.9114354038
 20
255.8844923292
 30
0.0
 11
182.9114354038
 21
115.8844923292
 31
0.0
  0
MTEXT
  5
15F
330
157
100
AcDbEntity
  8
0
  6
Continuous
 62
     7
370
     0
100
AcDbMText
 10
178.3996984892
 20
182.0053256553
 30
-19.4465810082
 40
3.5
 41
0.0
 71
     1
 72
     1
  1
140
  7
SLDTEXTSTYLE1
 11
-1.770233605404514E-14
 21
1.0
 31
0.0
 73
     1
 44
1.0
  0
ENDBLK
  5
159
330
157
100
AcDbEntity
  8
0
100
AcDbBlockEnd
  0
BLOCK
  5
1AF
330
1AE
100
AcDbEntity
  8
0
100
AcDbBlockBegin
  2
_D_1
 70
     0
 10
0.0
 20
0.0
 30
0.0
  3
_D_1
  1

  0
SOLID
  5
1B1
330
1AE
100
AcDbEntity
  8
0
  6
Continuous
 62
     7
370
     0
100
AcDbTrace
 10
141.9114104038
 20
59.5633927151
 30
0.0
 11
143.9114104038
 21
58.8133927151
 31
0.0
 12
143.9114104038
 22
60.3133927151
 32
0.0
 13
143.9114104038
 23
60.3133927151
 33
0.0
  0
SOLID
  5
1B2
330
1AE
100
AcDbEntity
  8
0
  6
Continuous
 62
     7
370
     0
100
AcDbTrace
 10
166.9114104038
 20
59.5633927151
 30
0.0
 11
164.9114104038
 21
60.3133927151
 31
0.0
 12
164.9114104038
 22
58.8133927151
 32
0.0
 13
164.9114104038
 23
58.8133927151
 33
0.0
  0
LINE
  5
1B3
330
1AE
100
AcDbEntity
  8
0
  6
Continuous
 62
     7
370
     0
100
AcDbLine
 10
141.9114104038
 20
68.5633927151
 30
0.0
 11
141.9114104038
 21
58.5633927151
 31
0.0
  0
LINE
  5
1B4
330
1AE
100
AcDbEntity
  8
0
  6
Continuous
 62
     7
370
     0
100
AcDbLine
 10
166.9114104038
 20
76.5633927151
 30
0.0
 11
166.9114104038
 21
58.5633927151
 31
0.0
  0
LINE
  5
1B5
330
1AE
100
AcDbEntity
  8
0
  6
Continuous
 62
     7
370
     0
100
AcDbLine
 10
141.9114104038
 20
59.5633927151
 30
0.0
 11
166.9114104038
 21
59.5633927151
 31
0.0
  0
MTEXT
  5
1B6
330
1AE
100
AcDbEntity
  8
0
  6
Continuous
 62
     7
370
     0
100
AcDbMText
 10
151.8252992103
 20
64.0751296296
 30
-2.4450915754
 40
3.5
 41
0.0
 71
     1
 72
     1
  1
25
  7
SLDTEXTSTYLE1
 73
     1
 44
1.0
  0
ENDBLK
  5
1B0
330
1AE
100
AcDbEntity
  8
0
100
AcDbBlockEnd
  0
BLOCK
  5
318
330
317
100
AcDbEntity
  8
0
100
AcDbBlockBegin
  2
_D_2
 70
     0
 10
0.0
 20
0.0
 30
0.0
  3
_D_2
  1

  0
SOLID
  5
31A
330
317
100
AcDbEntity
  8
0
  6
Continuous
 62
     7
370
     0
100
AcDbTrace
 10
70.4332670875
 20
271.8845173292
 30
0.0
 11
72.4332670875
 21
271.1345173292
 31
0.0
 12
72.4332670875
 22
272.6345173292
 32
0.0
 13
72.4332670875
 23
272.6345173292
 33
0.0
  0
SOLID
  5
31B
330
317
100
AcDbEntity
  8
0
  6
Continuous
 62
     7
370
     0
100
AcDbTrace
 10
93.4332670875
 20
271.8845173292
 30
0.0
 11
91.4332670875
 21
272.6345173292
 31
0.0
 12
91.4332670875
 22
271.1345173292
 32
0.0
 13
91.4332670875
 23
271.1345173292
 33
0.0
  0
LINE
  5
31C
330
317
100
AcDbEntity
  8
0
  6
Continuous
 62
     7
370
     0
100
AcDbLine
 10
70.4332670875
 20
256.8844923292
 30
0.0
 11
70.4332670875
 21
272.8845173292
 31
0.0
  0
LINE
  5
31D
330
317
100
AcDbEntity
  8
0
  6
Continuous
 62
     7
370
     0
100
AcDbLine
 10
93.4332670875
 20
252.6344923292
 30
0.0
 11
93.4332670875
 21
272.8845173292
 31
0.0
  0
LINE
  5
31E
330
317
100
AcDbEntity
  8
0
  6
Continuous
 62
     7
370
     0
100
AcDbLine
 10
70.4332670875
 20
271.8845173292
 30
0.0
 11
93.4332670875
 21
271.8845173292
 31
0.0
  0
MTEXT
  5
31F
330
317
100
AcDbEntity
  8
0
  6
Continuous
 62
     7
370
     0
100
AcDbMText
 10
79.6302021637
 20
276.3962542438
 30
-16.0441448112
 40
3.5
 41
0.0
 71
     1
 72
     1
  1
23
  7
SLDTEXTSTYLE1
 73
     1
 44
1.0
  0
ENDBLK
  5
319
330
317
100
AcDbEntity
  8
0
100
AcDbBlockEnd
  0
BLOCK
  5
322
330
321
100
AcDbEntity
  8
0
100
AcDbBlockBegin
  2
_D_3
 70
     0
 10
0.0
 20
0.0
 30
0.0
  3
_D_3
  1

  0
SOLID
  5
324
330
321
100
AcDbEntity
  8
0
  6
Continuous
 62
     7
370
     0
100
AcDbTrace
 10
113.9292876696
 20
255.8844923292
 30
0.0
 11
113.1792876696
 21
253.8844923292
 31
0.0
 12
114.6792876696
 22
253.8844923292
 32
0.0
 13
114.6792876696
 23
253.8844923292
 33
0.0
  0
SOLID
  5
325
330
321
100
AcDbEntity
  8
0
  6
Continuous
 62
     7
370
     0
100
AcDbTrace
 10
113.9292876696
 20
220.8844923292
 30
0.0
 11
114.6792876696
 21
222.8844923292
 31
0.0
 12
113.1792876696
 22
222.8844923292
 32
0.0
 13
113.1792876696
 23
222.8844923292
 33
0.0
  0
LINE
  5
326
330
321
100
AcDbEntity
  8
0
  6
Continuous
 62
     7
370
     0
100
AcDbLine
 10
84.4332670875
 20
255.8844923292
 30
0.0
 11
114.9292876696
 21
255.8844923292
 31
0.0
  0
LINE
  5
327
330
321
100
AcDbEntity
  8
0
  6
Continuous
 62
     7
370
     0
100
AcDbLine
 10
85.9332670875
 20
220.8844923292
 30
0.0
 11
114.9292876696
 21
220.8844923292
 31
0.0
  0
LINE
  5
328
330
321
100
AcDbEntity
  8
0
  6
Continuous
 62
     7
370
     0
100
AcDbLine
 10
113.9292876696
 20
255.8844923292
 30
0.0
 11
113.9292876696
 21
220.8844923292
 31
0.0
  0
MTEXT
  5
329
330
321
100
AcDbEntity
  8
0
  6
Continuous
 62
     7
370
     0
100
AcDbMText
 10
109.417550755
 20
235.7983811357
 30
-16.0441448112
 40
3.5
 41
0.0
 71
     1
 72
     1
  1
35
  7
SLDTEXTSTYLE1
 11
-7.044195017643634E-15
 21
1.0
 31
0.0
 73
     1
 44
1.0
  0
ENDBLK
  5
323
330
321
100
AcDbEntity
  8
0
100
AcDbBlockEnd
  0
BLOCK
  5
32C
330
32B
100
AcDbEntity
  8
0
100
AcDbBlockBegin
  2
_D_4
 70
     0
 10
0.0
 20
0.0
 30
0.0
  3
_D_4
  1

  0
SOLID
  5
32E
330
32B
100
AcDbEntity
  8
0
  6
Continuous
 62
     7
370
     0
100
AcDbTrace
 10
113.9292876696
 20
220.8844923292
 30
0.0
 11
113.1792876696
 21
218.8844923292
 31
0.0
 12
114.6792876696
 22
218.8844923292
 32
0.0
 13
114.6792876696
 23
218.8844923292
 33
0.0
  0
SOLID
  5
32F
330
32B
100
AcDbEntity
  8
0
  6
Continuous
 62
     7
370
     0
100
AcDbTrace
 10
113.9292876696
 20
150.8844923292
 30
0.0
 11
114.6792876696
 21
152.8844923292
 31
0.0
 12
113.1792876696
 22
152.8844923292
 32
0.0
 13
113.1792876696
 23
152.8844923292
 33
0.0
  0
LINE
  5
330
330
32B
100
AcDbEntity
  8
0
  6
Continuous
 62
     7
370
     0
100
AcDbLine
 10
85.9332670875
 20
220.8844923292
 30
0.0
 11
114.9292876696
 21
220.8844923292
 31
0.0
  0
LINE
  5
331
330
32B
100
AcDbEntity
  8
0
  6
Continuous
 62
     7
370
     0
100
AcDbLine
 10
85.9332670875
 20
150.8844923292
 30
0.0
 11
114.9292876696
 21
150.8844923292
 31
0.0
  0
LINE
  5
332
330
32B
100
AcDbEntity
  8
0
  6
Continuous
 62
     7
370
     0
100
AcDbLine
 10
113.9292876696
 20
220.8844923292
 30
0.0
 11
113.9292876696
 21
150.8844923292
 31
0.0
  0
MTEXT
  5
333
330
32B
100
AcDbEntity
  8
0
  6
Continuous
 62
     7
370
     0
100
AcDbMText
 10
109.417550755
 20
183.2983811357
 30
-16.0441448112
 40
3.5
 41
0.0
 71
     1
 72
     1
  1
70
  7
SLDTEXTSTYLE1
 11
-7.044195017643634E-15
 21
1.0
 31
0.0
 73
     1
 44
1.0
  0
ENDBLK
  5
32D
330
32B
100
AcDbEntity
  8
0
100
AcDbBlockEnd
  0
BLOCK
  5
336
330
335
100
AcDbEntity
  8
0
100
AcDbBlockBegin
  2
_D_5
 70
     0
 10
0.0
 20
0.0
 30
0.0
  3
_D_5
  1

  0
SOLID
  5
338
330
335
100
AcDbEntity
  8
0
  6
Continuous
 62
     7
370
     0
100
AcDbTrace
 10
113.9292876696
 20
150.8844923292
 30
0.0
 11
113.1792876696
 21
148.8844923292
 31
0.0
 12
114.6792876696
 22
148.8844923292
 32
0.0
 13
114.6792876696
 23
148.8844923292
 33
0.0
  0
SOLID
  5
339
330
335
100
AcDbEntity
  8
0
  6
Continuous
 62
     7
370
     0
100
AcDbTrace
 10
113.9292876696
 20
115.8844923292
 30
0.0
 11
114.6792876696
 21
117.8844923292
 31
0.0
 12
113.1792876696
 22
117.8844923292
 32
0.0
 13
113.1792876696
 23
117.8844923292
 33
0.0
  0
LINE
  5
33A
330
335
100
AcDbEntity
  8
0
  6
Continuous
 62
     7
370
     0
100
AcDbLine
 10
85.9332670875
 20
150.8844923292
 30
0.0
 11
114.9292876696
 21
150.8844923292
 31
0.0
  0
LINE
  5
33B
330
335
100
AcDbEntity
  8
0
  6
Continuous
 62
     7
370
     0
100
AcDbLine
 10
84.4332670875
 20
115.8844923292
 30
0.0
 11
114.9292876696
 21
115.8844923292
 31
0.0
  0
LINE
  5
33C
330
335
100
AcDbEntity
  8
0
  6
Continuous
 62
     7
370
     0
100
AcDbLine
 10
113.9292876696
 20
150.8844923292
 30
0.0
 11
113.9292876696
 21
115.8844923292
 31
0.0
  0
MTEXT
  5
33D
330
335
100
AcDbEntity
  8
0
  6
Continuous
 62
     7
370
     0
100
AcDbMText
 10
109.417550755
 20
130.7983811357
 30
-16.0441448112
 40
3.5
 41
0.0
 71
     1
 72
     1
  1
35
  7
SLDTEXTSTYLE1
 11
-7.044195017643634E-15
 21
1.0
 31
0.0
 73
     1
 44
1.0
  0
ENDBLK
  5
337
330
335
100
AcDbEntity
  8
0
100
AcDbBlockEnd
  0
BLOCK
  5
341
330
340
100
AcDbEntity
  8
0
100
AcDbBlockBegin
  2
_D_6
 70
     0
 10
0.0
 20
0.0
 30
0.0
  3
_D_6
  1

  0
SOLID
  5
343
330
340
100
AcDbEntity
  8
0
  6
Continuous
 62
     7
370
     0
100
AcDbTrace
 10
70.4332670875
 20
103.5205975003
 30
0.0
 11
68.4332670875
 21
104.2705975003
 31
0.0
 12
68.4332670875
 22
102.7705975003
 32
0.0
 13
68.4332670875
 23
102.7705975003
 33
0.0
  0
SOLID
  5
344
330
340
100
AcDbEntity
  8
0
  6
Continuous
 62
     7
370
     0
100
AcDbTrace
 10
76.9332670875
 20
103.5205975003
 30
0.0
 11
78.9332670875
 21
102.7705975003
 31
0.0
 12
78.9332670875
 22
104.2705975003
 32
0.0
 13
78.9332670875
 23
104.2705975003
 33
0.0
  0
LINE
  5
345
330
340
100
AcDbEntity
  8
0
  6
Continuous
 62
     7
370
     0
100
AcDbLine
 10
70.4332670875
 20
114.8844923292
 30
0.0
 11
70.4332670875
 21
102.5205975003
 31
0.0
  0
LINE
  5
346
330
340
100
AcDbEntity
  8
0
  6
Continuous
 62
     7
370
     0
100
AcDbLine
 10
76.9332670875
 20
141.8844923292
 30
0.0
 11
76.9332670875
 21
102.5205975003
 31
0.0
  0
LINE
  5
347
330
340
100
AcDbEntity
  8
0
  6
Continuous
 62
     7
370
     0
100
AcDbLine
 10
70.4332670875
 20
103.5205975003
 30
0.0
 11
60.0372720649
 21
103.5205975003
 31
0.0
  0
LINE
  5
348
330
340
100
AcDbEntity
  8
0
  6
Continuous
 62
     7
370
     0
100
AcDbLine
 10
70.4332670875
 20
103.5205975003
 30
0.0
 11
76.9332670875
 21
103.5205975003
 31
0.0
  0
LINE
  5
349
330
340
100
AcDbEntity
  8
0
  6
Continuous
 62
     7
370
     0
100
AcDbLine
 10
76.9332670875
 20
103.5205975003
 30
0.0
 11
81.9332670875
 21
103.5205975003
 31
0.0
  0
MTEXT
  5
34A
330
340
100
AcDbEntity
  8
0
  6
Continuous
 62
     7
370
     0
100
AcDbMText
 10
60.0372720649
 20
108.0323344149
 30
-16.0441448112
 40
3.5
 41
0.0
 71
     1
 72
     1
  1
6.5
  7
SLDTEXTSTYLE1
 73
     1
 44
1.0
  0
ENDBLK
  5
342
330
340
100
AcDbEntity
  8
0
100
AcDbBlockEnd
  0
BLOCK
  5
351
330
350
100
AcDbEntity
  8
0
100
AcDbBlockBegin
  2
SW_NOTE_0
 70
     0
 10
0.0
 20
0.0
 30
0.0
  3
SW_NOTE_0
  1

  0
MTEXT
  5
353
330
350
100
AcDbEntity
  8
0
  6
Continuous
 62
     0
370
     0
100
AcDbMText
 10
0.0856892892
 20
9.0546828637
 30
0.0
 40
3.5
 41
0.0
 71
     1
 72
     1
  1
2-φ6.6
  7
SLDTEXTSTYLE1
 73
     1
 44
1.0
  0
MTEXT
  5
354
330
350
100
AcDbEntity
  8
0
  6
Continuous
 62
     0
370
     0
100
AcDbMText
 10
4.0231892892
 20
4.5289883332
 30
0.0
 40
3.5
 41
0.0
 71
     1
 72
     1
  1
φ１１ザグリ 深6.5
  7
SLDTEXTSTYLE1
 73
     1
 44
1.0
  0
ENDBLK
  5
352
330
350
100
AcDbEntity
  8
0
100
AcDbBlockEnd
  0
BLOCK
  5
358
330
357
100
AcDbEntity
  8
0
100
AcDbBlockBegin
  2
SW_CENTERMARKSYMBOL_0
 70
     0
 10
0.0
 20
0.0
 30
0.0
  3
SW_CENTERMARKSYMBOL_0
  1

  0
LINE
  5
35A
330
357
100
AcDbEntity
  8
0
  6
Continuous
 62
     0
370
     0
100
AcDbLine
 10
0.0
 20
0.0
 30
0.0
 11
0.0
 21
2.5
 31
0.0
  0
LINE
  5
35B
330
357
100
AcDbEntity
  8
0
  6
Continuous
 62
     0
370
     0
100
AcDbLine
 10
0.0
 20
0.0
 30
0.0
 11
-2.5
 21
0.0
 31
0.0
  0
LINE
  5
35C
330
357
100
AcDbEntity
  8
0
  6
Continuous
 62
     0
370
     0
100
AcDbLine
 10
0.0
 20
0.0
 30
0.0
 11
0.0
 21
-2.5
 31
0.0
  0
LINE
  5
35D
330
357
100
AcDbEntity
  8
0
  6
Continuous
 62
     0
370
     0
100
AcDbLine
 10
0.0
 20
0.0
 30
0.0
 11
2.5
 21
0.0
 31
0.0
  0
LINE
  5
35E
330
357
100
AcDbEntity
  8
0
  6
Continuous
 62
     0
370
     0
100
AcDbLine
 10
0.0
 20
5.0
 30
0.0
 11
0.0
 21
8.0
 31
0.0
  0
LINE
  5
35F
330
357
100
AcDbEntity
  8
0
  6
Continuous
 62
     0
370
     0
100
AcDbLine
 10
-5.0
 20
0.0
 30
0.0
 11
-8.0
 21
0.0
 31
0.0
  0
LINE
  5
360
330
357
100
AcDbEntity
  8
0
  6
Continuous
 62
     0
370
     0
100
AcDbLine
 10
0.0
 20
-5.0
 30
0.0
 11
0.0
 21
-8.0
 31
0.0
  0
LINE
  5
361
330
357
100
AcDbEntity
  8
0
  6
Continuous
 62
     0
370
     0
100
AcDbLine
 10
5.0
 20
0.0
 30
0.0
 11
8.0
 21
0.0
 31
0.0
  0
ENDBLK
  5
359
330
357
100
AcDbEntity
  8
0
100
AcDbBlockEnd
  0
BLOCK
  5
364
330
363
100
AcDbEntity
  8
0
100
AcDbBlockBegin
  2
SW_CENTERMARKSYMBOL_1
 70
     0
 10
0.0
 20
0.0
 30
0.0
  3
SW_CENTERMARKSYMBOL_1
  1

  0
LINE
  5
366
330
363
100
AcDbEntity
  8
0
  6
Continuous
 62
     0
370
     0
100
AcDbLine
 10
0.0
 20
0.0
 30
0.0
 11
0.0
 21
2.5
 31
0.0
  0
LINE
  5
367
330
363
100
AcDbEntity
  8
0
  6
Continuous
 62
     0
370
     0
100
AcDbLine
 10
0.0
 20
0.0
 30
0.0
 11
-2.5
 21
0.0
 31
0.0
  0
LINE
  5
368
330
363
100
AcDbEntity
  8
0
  6
Continuous
 62
     0
370
     0
100
AcDbLine
 10
0.0
 20
0.0
 30
0.0
 11
0.0
 21
-2.5
 31
0.0
  0
LINE
  5
369
330
363
100
AcDbEntity
  8
0
  6
Continuous
 62
     0
370
     0
100
AcDbLine
 10
0.0
 20
0.0
 30
0.0
 11
2.5
 21
0.0
 31
0.0
  0
LINE
  5
36A
330
363
100
AcDbEntity
  8
0
  6
Continuous
 62
     0
370
     0
100
AcDbLine
 10
0.0
 20
5.0
 30
0.0
 11
0.0
 21
8.0
 31
0.0
  0
LINE
  5
36B
330
363
100
AcDbEntity
  8
0
  6
Continuous
 62
     0
370
     0
100
AcDbLine
 10
-5.0
 20
0.0
 30
0.0
 11
-8.0
 21
0.0
 31
0.0
  0
LINE
  5
36C
330
363
100
AcDbEntity
  8
0
  6
Continuous
 62
     0
370
     0
100
AcDbLine
 10
0.0
 20
-5.0
 30
0.0
 11
0.0
 21
-8.0
 31
0.0
  0
LINE
  5
36D
330
363
100
AcDbEntity
  8
0
  6
Continuous
 62
     0
370
     0
100
AcDbLine
 10
5.0
 20
0.0
 30
0.0
 11
8.0
 21
0.0
 31
0.0
  0
ENDBLK
  5
365
330
363
100
AcDbEntity
  8
0
100
AcDbBlockEnd
  0
ENDSEC
  0
SECTION
  2
ENTITIES
  0
LINE
  5
44
330
1F
100
AcDbEntity
  8
0
  6
Continuous
 62
     7
370
     0
100
AcDbLine
 10
20.2604743903
 20
285.0
 30
0.0
 11
196.7604743903
 21
285.0
 31
0.0
  0
LINE
  5
45
330
1F
100
AcDbEntity
  8
0
  6
Continuous
 62
     7
370
     0
100
AcDbLine
 10
20.2604743903
 20
285.0
 30
0.0
 11
20.2604743903
 21
10.0
 31
0.0
  0
LINE
  5
46
330
1F
100
AcDbEntity
  8
0
  6
Continuous
 62
     7
370
     0
100
AcDbLine
 10
20.2604743903
 20
10.0
 30
0.0
 11
196.7604743903
 21
10.0
 31
0.0
  0
LINE
  5
47
330
1F
100
AcDbEntity
  8
0
  6
Continuous
 62
     7
370
     0
100
AcDbLine
 10
196.7604743903
 20
285.0
 30
0.0
 11
196.7604743903
 21
10.0
 31
0.0
  0
LINE
  5
48
330
1F
100
AcDbEntity
  8
0
  6
Continuous
 62
     7
370
     0
100
AcDbLine
 10
127.0104743903
 20
50.75
 30
0.0
 11
196.7604743903
 21
50.75
 31
0.0
  0
LINE
  5
49
330
1F
100
AcDbEntity
  8
0
  6
Continuous
 62
     7
370
     0
100
AcDbLine
 10
127.0104743903
 20
50.75
 30
0.0
 11
127.0104743903
 21
10.0
 31
0.0
  0
LINE
  5
4A
330
1F
100
AcDbEntity
  8
0
  6
Continuous
 62
     7
370
     0
100
AcDbLine
 10
127.0104743903
 20
22.75
 30
0.0
 11
196.7604743903
 21
22.75
 31
0.0
  0
LINE
  5
4B
330
1F
100
AcDbEntity
  8
0
  6
Continuous
 62
     7
370
     0
100
AcDbLine
 10
127.0104743903
 20
36.75
 30
0.0
 11
196.7604743903
 21
36.75
 31
0.0
  0
MTEXT
  5
4D
330
1F
100
AcDbEntity
  8
0
  6
Continuous
 62
     7
370
     0
100
AcDbMText
 10
162.2068903629
 20
30.4171582345
 30
0.0
 40
4.2333333333
 41
0.0
 71
     2
 72
     1
  1
OX-LBIA3
  7
SLDTEXTSTYLE0
 73
     1
 44
1.0
  0
MTEXT
  5
4E
330
1F
100
AcDbEntity
  8
0
  6
Continuous
 62
     7
370
     0
100
AcDbMText
 10
160.411254093
 20
43.9409718514
 30
0.0
 40
4.2333333333
 41
0.0
 71
     2
 72
     1
  1
エア＾オプション(OX用）
  7
SLDTEXTSTYLE0
 73
     1
 44
1.0
  0
MTEXT
  5
4F
330
1F
100
AcDbEntity
  8
0
  6
Continuous
 62
     7
370
     0
100
AcDbMText
 10
162.5648164921
 20
16.8228189052
 30
0.0
 40
4.2333333333
 41
0.0
 71
     2
 72
     1
  1
140288
  7
SLDTEXTSTYLE0
 73
     1
 44
1.0
  0
ARC
  5
50
330
1F
100
AcDbEntity
  8
0
  6
Continuous
 62
     7
370
    15
100
AcDbCircle
 10
156.9114104038
 20
162.8844923292
 30
0.0
 40
2.750000000000007
100
AcDbArc
 50
196.3542099945
 51
265.4028466018
  0
LINE
  5
51
330
1F
100
AcDbEntity
  8
0
  6
Continuous
 62
     7
370
    15
100
AcDbLine
 10
154.272677723
 20
162.1101620768
 30
0.0
 11
155.0363119428
 21
162.1887861912
 31
0.0
  0
ARC
  5
52
330
1F
100
AcDbEntity
  8
0
  6
Continuous
 62
     7
370
    15
100
AcDbCircle
 10
156.9114104038
 20
162.8844923292
 30
0.0
 40
2.000000000000009
100
AcDbArc
 50
200.3560404841
 51
261.4010161122
  0
LINE
  5
53
330
1F
100
AcDbEntity
  8
0
  6
Continuous
 62
     7
370
    15
100
AcDbLine
 10
156.612375166
 20
160.9069734041
 30
0.0
 11
156.6909992804
 21
160.1433391843
 31
0.0
  0
ARC
  5
54
330
1F
100
AcDbEntity
  8
0
  6
Continuous
 62
     7
370
    15
100
AcDbCircle
 10
156.9114104038
 20
162.8844923292
 30
0.0
 40
2.999999999999989
100
AcDbArc
 50
15.472596525
 51
86.2844600713
  0
SPLINE
  5
55
330
1F
100
AcDbEntity
  8
0
  6
Continuous
 62
     7
370
    15
100
AcDbSpline
210
0.0
220
0.0
230
1.0
 70
    24
 71
     3
 72
     8
 73
     4
 74
     0
 42
0.00000001
 43
0.00000001
 12
1.0
 22
0.0
 32
0.0
 13
1.0
 23
0.0
 33
0.0
 40
0.0
 40
0.0
 40
0.0
 40
0.0
 40
1.0
 40
1.0
 40
1.0
 40
1.0
 10
159.8026848777806
 20
163.6848247077447
 30
0.0
 10
159.718607287588
 20
163.6761679774831
 30
0.0
 10
159.6344364227642
 20
163.6675016435528
 30
0.0
 10
159.5501435107159
 20
163.6588227434929
 30
0.0
  0
ARC
  5
56
330
1F
100
AcDbEntity
  8
0
  6
Continuous
 62
     7
370
    15
100
AcDbCircle
 10
156.9114104038
 20
162.8844923292
 30
0.0
 40
2.74999999999998
100
AcDbArc
 50
16.3542099945
 51
85.4028466018
  0
SPLINE
  5
57
330
1F
100
AcDbEntity
  8
0
  6
Continuous
 62
     7
370
    15
100
AcDbSpline
210
0.0
220
0.0
230
1.0
 70
    24
 71
     3
 72
    11
 73
     7
 74
     0
 42
0.00000001
 43
0.00000001
 12
1.0
 22
0.0
 32
0.0
 13
1.0
 23
0.0
 33
0.0
 40
0.0041333666424306
 40
0.0041333666424306
 40
0.0041333666424306
 40
0.0041333666424306
 40
0.0046138376121394
 40
0.0046138376121394
 40
0.0046138376121394
 40
0.0051650880369003
 40
0.0051650880369003
 40
0.0051650880369003
 40
0.0051650880369003
 10
157.1318212584621
 20
165.6256451988909
 30
0.0
 10
157.1277795072364
 20
165.6649002863133
 30
0.0
 10
157.1237404982993
 20
165.7041287395441
 30
0.0
 10
157.119703901573
 20
165.7433337644296
 30
0.0
 10
157.1150726633601
 20
165.7883141827606
 30
0.0
 10
157.1104445996748
 20
165.8332637688235
 30
0.0
 10
157.1058192942102
 20
165.8781865659556
 30
0.0
  0
ARC
  5
58
330
1F
100
AcDbEntity
  8
0
  6
Continuous
 62
     7
370
    15
100
AcDbCircle
 10
156.9114104038
 20
162.8844923292
 30
0.0
 40
3.000000000000009
100
AcDbArc
 50
195.472596525
 51
266.2844600713
  0
SPLINE
  5
59
330
1F
100
AcDbEntity
  8
0
  6
Continuous
 62
     7
370
    15
100
AcDbSpline
210
0.0
220
0.0
230
1.0
 70
    24
 71
     3
 72
     8
 73
     4
 74
     0
 42
0.00000001
 43
0.00000001
 12
1.0
 22
0.0
 32
0.0
 13
1.0
 23
0.0
 33
0.0
 40
0.0
 40
0.0
 40
0.0
 40
0.0
 40
1.0
 40
1.0
 40
1.0
 40
1.0
 10
154.0201359298468
 20
162.0841599506048
 30
0.0
 10
154.1042135200393
 20
162.0928166808663
 30
0.0
 10
154.1883843848631
 20
162.1014830147966
 30
0.0
 10
154.2726772969114
 20
162.1101619148566
 30
0.0
  0
SPLINE
  5
5A
330
1F
100
AcDbEntity
  8
0
  6
Continuous
 62
     7
370
    15
100
AcDbSpline
210
0.0
220
0.0
230
1.0
 70
    24
 71
     3
 72
    11
 73
     7
 74
     0
 42
0.00000001
 43
0.00000001
 12
1.0
 22
0.0
 32
0.0
 13
1.0
 23
0.0
 33
0.0
 40
0.0041333666424306
 40
0.0041333666424306
 40
0.0041333666424306
 40
0.0041333666424306
 40
0.0046138376121394
 40
0.0046138376121394
 40
0.0046138376121394
 40
0.0051650880369003
 40
0.0051650880369003
 40
0.0051650880369003
 40
0.0051650880369003
 10
156.6909995491653
 20
160.1433394594586
 30
0.0
 10
156.6950413003909
 20
160.1040843720362
 30
0.0
 10
156.699080309328
 20
160.0648559188054
 30
0.0
 10
156.7031169060544
 20
160.0256508939199
 30
0.0
 10
156.7077481442672
 20
159.9806704755889
 30
0.0
 10
156.7123762079525
 20
159.935720889526
 30
0.0
 10
156.7170015134171
 20
159.8907980923939
 30
0.0
  0
ARC
  5
5B
330
1F
100
AcDbEntity
  8
0
  6
Continuous
 62
     7
370
    15
100
AcDbCircle
 10
156.9114104038
 20
162.8844923292
 30
0.0
 40
2.000000000000004
100
AcDbArc
 50
20.3560404841
 51
81.4010161122
  0
LINE
  5
5C
330
1F
100
AcDbEntity
  8
0
  6
Continuous
 62
     7
370
    15
100
AcDbLine
 10
157.210446309
 20
164.8620098058
 30
0.0
 11
157.1318212633
 21
165.6256458883
 31
0.0
  0
LINE
  5
5D
330
1F
100
AcDbEntity
  8
0
  6
Continuous
 62
     7
370
    15
100
AcDbLine
 10
159.5501437519
 20
163.6588229958
 30
0.0
 11
158.7865086009
 21
163.5801988814
 31
0.0
  0
ARC
  5
5E
330
1F
100
AcDbEntity
  8
0
  6
Continuous
 62
     7
370
    15
100
AcDbCircle
 10
156.9114104038
 20
162.8844923292
 30
0.0
 40
2.000000000000004
100
AcDbArc
 50
110.3560404841
 51
171.4010161122
  0
ARC
  5
5F
330
1F
100
AcDbEntity
  8
0
  6
Continuous
 62
     7
370
    15
100
AcDbCircle
 10
156.9114104038
 20
162.8844923292
 30
0.0
 40
2.750000000000025
100
AcDbArc
 50
106.3542099945
 51
175.4028466018
  0
LINE
  5
60
330
1F
100
AcDbEntity
  8
0
  6
Continuous
 62
     7
370
    15
100
AcDbLine
 10
156.1370802779
 20
165.5232246194
 30
0.0
 11
156.2157043923
 21
164.7595903997
 31
0.0
  0
LINE
  5
61
330
1F
100
AcDbEntity
  8
0
  6
Continuous
 62
     7
370
    15
100
AcDbLine
 10
154.9338925366
 20
163.1835281078
 30
0.0
 11
154.1702583168
 21
163.1049039934
 31
0.0
  0
ARC
  5
62
330
1F
100
AcDbEntity
  8
0
  6
Continuous
 62
     7
370
    15
100
AcDbCircle
 10
156.9114104038
 20
162.8844923292
 30
0.0
 40
2.749999999999999
100
AcDbArc
 50
286.3542099945
 51
355.4028466018
  0
SPLINE
  5
63
330
1F
100
AcDbEntity
  8
0
  6
Continuous
 62
     7
370
    15
100
AcDbSpline
210
0.0
220
0.0
230
1.0
 70
    24
 71
     3
 72
    11
 73
     7
 74
     0
 42
0.00000001
 43
0.00000001
 12
1.0
 22
0.0
 32
0.0
 13
1.0
 23
0.0
 33
0.0
 40
0.0041996937790339
 40
0.0041996937790339
 40
0.0041996937790339
 40
0.0041996937790339
 40
0.0045714279294727
 40
0.0045714279294727
 40
0.0045714279294727
 40
0.0052314151081104
 40
0.0052314151081104
 40
0.0052314151081104
 40
0.0052314151081104
 10
159.6525632735298
 20
162.6640814745263
 30
0.0
 10
159.682934428065
 20
162.6672085252891
 30
0.0
 10
159.7132896285704
 20
162.6703339334057
 30
0.0
 10
159.7436303884355
 20
162.6734578546965
 30
0.0
 10
159.7974982134319
 20
162.6790041510367
 30
0.0
 10
159.8513206064928
 20
162.6845457696498
 30
0.0
 10
159.9051046405945
 20
162.6900834387782
 30
0.0
  0
ARC
  5
64
330
1F
100
AcDbEntity
  8
0
  6
Continuous
 62
     7
370
    15
100
AcDbCircle
 10
156.9114104038
 20
162.8844923292
 30
0.0
 40
3.000000000000017
100
AcDbArc
 50
285.472596525
 51
356.2844600713
  0
SPLINE
  5
65
330
1F
100
AcDbEntity
  8
0
  6
Continuous
 62
     7
370
    15
100
AcDbSpline
210
0.0
220
0.0
230
1.0
 70
    24
 71
     3
 72
     8
 73
     4
 74
     0
 42
0.00000001
 43
0.00000001
 12
1.0
 22
0.0
 32
0.0
 13
1.0
 23
0.0
 33
0.0
 40
0.0
 40
0.0
 40
0.0
 40
0.0
 40
1.0
 40
1.0
 40
1.0
 40
1.0
 10
157.7117427823836
 20
159.9932178552078
 30
0.0
 10
157.7030860514122
 20
160.0772954522941
 30
0.0
 10
157.6944197172221
 20
160.1614663196418
 30
0.0
 10
157.6857408181318
 20
160.2457592222725
 30
0.0
  0
ARC
  5
66
330
1F
100
AcDbEntity
  8
0
  6
Continuous
 62
     7
370
    15
100
AcDbCircle
 10
156.9114104038
 20
162.8844923292
 30
0.0
 40
3.000000000000005
100
AcDbArc
 50
105.472596525
 51
176.2844600713
  0
SPLINE
  5
67
330
1F
100
AcDbEntity
  8
0
  6
Continuous
 62
     7
370
    15
100
AcDbSpline
210
0.0
220
0.0
230
1.0
 70
    24
 71
     3
 72
     8
 73
     4
 74
     0
 42
0.00000001
 43
0.00000001
 12
1.0
 22
0.0
 32
0.0
 13
1.0
 23
0.0
 33
0.0
 40
0.0
 40
0.0
 40
0.0
 40
0.0
 40
1.0
 40
1.0
 40
1.0
 40
1.0
 10
156.1110780252437
 20
165.7757668031416
 30
0.0
 10
156.1197347562151
 20
165.6916892060553
 30
0.0
 10
156.1284010904052
 20
165.6075183387077
 30
0.0
 10
156.1370799894955
 20
165.523225436077
 30
0.0
  0
SPLINE
  5
68
330
1F
100
AcDbEntity
  8
0
  6
Continuous
 62
     7
370
    15
100
AcDbSpline
210
0.0
220
0.0
230
1.0
 70
    24
 71
     3
 72
    11
 73
     7
 74
     0
 42
0.00000001
 43
0.00000001
 12
1.0
 22
0.0
 32
0.0
 13
1.0
 23
0.0
 33
0.0
 40
0.0041996937790339
 40
0.0041996937790339
 40
0.0041996937790339
 40
0.0041996937790339
 40
0.0045714279294727
 40
0.0045714279294727
 40
0.0045714279294727
 40
0.0052314151081104
 40
0.0052314151081104
 40
0.0052314151081104
 40
0.0052314151081104
 10
154.1702575340975
 20
163.1049031838232
 30
0.0
 10
154.1398863795624
 20
163.1017761330604
 30
0.0
 10
154.1095311790569
 20
163.0986507249438
 30
0.0
 10
154.0791904191918
 20
163.095526803653
 30
0.0
 10
154.0253225941955
 20
163.0899805073128
 30
0.0
 10
153.9715002011345
 20
163.0844388886997
 30
0.0
 10
153.9177161670328
 20
163.0789012195713
 30
0.0
  0
LINE
  5
69
330
1F
100
AcDbEntity
  8
0
  6
Continuous
 62
     7
370
    15
100
AcDbLine
 10
158.888928007
 20
162.5854569648
 30
0.0
 11
159.6525631581
 21
162.6640810792
 31
0.0
  0
ARC
  5
6A
330
1F
100
AcDbEntity
  8
0
  6
Continuous
 62
     7
370
    15
100
AcDbCircle
 10
156.9114104038
 20
162.8844923292
 30
0.0
 40
2.00000000000002
100
AcDbArc
 50
290.3560404841
 51
351.4010161122
  0
LINE
  5
6B
330
1F
100
AcDbEntity
  8
0
  6
Continuous
 62
     7
370
    15
100
AcDbLine
 10
157.685741197
 20
160.2457585905
 30
0.0
 11
157.6071161513
 21
161.0093946729
 31
0.0
  0
ARC
  5
6C
330
1F
100
AcDbEntity
  8
0
  6
Continuous
 62
     7
370
    15
100
AcDbCircle
 10
156.9114104038
 20
162.8844923292
 30
0.0
 40
3.000000000000005
100
AcDbArc
 50
176.2844600713
 51
195.472596525
  0
ARC
  5
6D
330
1F
100
AcDbEntity
  8
0
  6
Continuous
 62
     7
370
    15
100
AcDbCircle
 10
156.9114104038
 20
162.8844923292
 30
0.0
 40
2.000000000000004
100
AcDbArc
 50
171.4010161122
 51
200.3560404841
  0
ARC
  5
6E
330
1F
100
AcDbEntity
  8
0
  6
Continuous
 62
     7
370
    15
100
AcDbCircle
 10
156.9114104038
 20
162.8844923292
 30
0.0
 40
3.000000000000017
100
AcDbArc
 50
266.2844600713
 51
285.472596525
  0
ARC
  5
6F
330
1F
100
AcDbEntity
  8
0
  6
Continuous
 62
     7
370
    15
100
AcDbCircle
 10
156.9114104038
 20
162.8844923292
 30
0.0
 40
2.00000000000002
100
AcDbArc
 50
261.4010161122
 51
290.3560404841
  0
ARC
  5
70
330
1F
100
AcDbEntity
  8
0
  6
Continuous
 62
     7
370
    15
100
AcDbCircle
 10
156.9114104038
 20
162.8844923292
 30
0.0
 40
3.000000000000007
100
AcDbArc
 50
356.2844600713
 51
15.472596525
  0
ARC
  5
71
330
1F
100
AcDbEntity
  8
0
  6
Continuous
 62
     7
370
    15
100
AcDbCircle
 10
156.9114104038
 20
162.8844923292
 30
0.0
 40
1.999999999999984
100
AcDbArc
 50
351.4010161122
 51
20.3560404841
  0
ARC
  5
72
330
1F
100
AcDbEntity
  8
0
  6
Continuous
 62
     7
370
    15
100
AcDbCircle
 10
156.9114104038
 20
162.8844923292
 30
0.0
 40
2.999999999999997
100
AcDbArc
 50
86.2844600713
 51
105.472596525
  0
ARC
  5
73
330
1F
100
AcDbEntity
  8
0
  6
Continuous
 62
     7
370
    15
100
AcDbCircle
 10
156.9114104038
 20
162.8844923292
 30
0.0
 40
2.000000000000004
100
AcDbArc
 50
81.4010161122
 51
110.3560404841
  0
CIRCLE
  5
74
330
1F
100
AcDbEntity
  8
0
  6
Continuous
 62
     7
370
    15
100
AcDbCircle
 10
156.9114104038
 20
162.8844923292
 30
0.0
 40
5.000000000000027
  0
CIRCLE
  5
75
330
1F
100
AcDbEntity
  8
0
  6
Continuous
 62
     7
370
    15
100
AcDbCircle
 10
156.9114104038
 20
162.8844923292
 30
0.0
 40
4.800000000000002
  0
ARC
  5
76
330
1F
100
AcDbEntity
  8
0
  6
Continuous
 62
     7
370
    15
100
AcDbCircle
 10
156.9114104038
 20
122.8844923292
 30
0.0
 40
3.000000000000004
100
AcDbArc
 50
19.7249234254
 51
90.5367869717
  0
SPLINE
  5
77
330
1F
100
AcDbEntity
  8
0
  6
Continuous
 62
     7
370
    15
100
AcDbSpline
210
0.0
220
0.0
230
1.0
 70
    24
 71
     3
 72
     8
 73
     4
 74
     0
 42
0.00000001
 43
0.00000001
 12
1.0
 22
0.0
 32
0.0
 13
1.0
 23
0.0
 33
0.0
 40
0.0
 40
0.0
 40
0.0
 40
0.0
 40
1.0
 40
1.0
 40
1.0
 40
1.0
 10
159.7353818659794
 20
123.897006616055
 30
0.0
 10
159.6521776145248
 20
123.8821394478215
 30
0.0
 10
159.56888105731
 20
123.8672557861367
 30
0.0
 10
159.4854637206112
 20
123.8523505432362
 30
0.0
  0
ARC
  5
78
330
1F
100
AcDbEntity
  8
0
  6
Continuous
 62
     7
370
    15
100
AcDbCircle
 10
156.9114104038
 20
122.8844923292
 30
0.0
 40
2.75
100
AcDbArc
 50
20.6065368949
 51
89.6551735021
  0
SPLINE
  5
79
330
1F
100
AcDbEntity
  8
0
  6
Continuous
 62
     7
370
    15
100
AcDbSpline
210
0.0
220
0.0
230
1.0
 70
    24
 71
     3
 72
    11
 73
     7
 74
     0
 42
0.00000001
 43
0.00000001
 12
1.0
 22
0.0
 32
0.0
 13
1.0
 23
0.0
 33
0.0
 40
0.0041333666424306
 40
0.0041333666424306
 40
0.0041333666424306
 40
0.0041333666424306
 40
0.0046138376121394
 40
0.0046138376121394
 40
0.0046138376121394
 40
0.0051650880369003
 40
0.0051650880369003
 40
0.0051650880369003
 40
0.0051650880369003
 10
156.9279607877106
 20
125.6344425259938
 30
0.0
 10
156.921019437615
 20
125.6732898592402
 30
0.0
 10
156.9140827971572
 20
125.7121108349522
 30
0.0
 10
156.9071502994579
 20
125.7509086256761
 30
0.0
 10
156.8991965576224
 20
125.7954218191297
 30
0.0
 10
156.8912482677571
 20
125.8399045005789
 30
0.0
 10
156.8833047148918
 20
125.8843606713619
 30
0.0
  0
LINE
  5
7A
330
1F
100
AcDbEntity
  8
0
  6
Continuous
 62
     7
370
    15
100
AcDbLine
 10
159.4854633991
 20
123.852347133
 30
0.0
 11
158.7297612537
 21
123.7173202608
 31
0.0
  0
ARC
  5
7B
330
1F
100
AcDbEntity
  8
0
  6
Continuous
 62
     7
370
    15
100
AcDbCircle
 10
156.9114104038
 20
122.8844923292
 30
0.0
 40
2.000000000000019
100
AcDbArc
 50
24.6083673844
 51
85.6533430126
  0
LINE
  5
7C
330
1F
100
AcDbEntity
  8
0
  6
Continuous
 62
     7
370
    15
100
AcDbLine
 10
157.0629918684
 20
124.878739116
 30
0.0
 11
156.9279603396
 21
125.6344440554
 31
0.0
  0
ARC
  5
7D
330
1F
100
AcDbEntity
  8
0
  6
Continuous
 62
     7
370
    15
100
AcDbCircle
 10
156.9114104038
 20
122.8844923292
 30
0.0
 40
2.749999999999999
100
AcDbArc
 50
290.6065368949
 51
359.6551735021
  0
SPLINE
  5
7E
330
1F
100
AcDbEntity
  8
0
  6
Continuous
 62
     7
370
    15
100
AcDbSpline
210
0.0
220
0.0
230
1.0
 70
    24
 71
     3
 72
    11
 73
     7
 74
     0
 42
0.00000001
 43
0.00000001
 12
1.0
 22
0.0
 32
0.0
 13
1.0
 23
0.0
 33
0.0
 40
0.0041996937790339
 40
0.0041996937790339
 40
0.0041996937790339
 40
0.0041996937790339
 40
0.0045714279294727
 40
0.0045714279294727
 40
0.0045714279294727
 40
0.0052314151081104
 40
0.0052314151081104
 40
0.0052314151081104
 40
0.0052314151081104
 10
159.6613606006321
 20
122.8679419453466
 30
0.0
 10
159.6914162810235
 20
122.8733123783346
 30
0.0
 10
159.7214561731044
 20
122.8786799902231
 30
0.0
 10
159.7514817745443
 20
122.8840450486199
 30
0.0
 10
159.8047900585477
 20
122.89357032182
 30
0.0
 10
159.8580533825307
 20
122.903087561438
 30
0.0
 10
159.9112787460002
 20
122.9125980181654
 30
0.0
  0
ARC
  5
7F
330
1F
100
AcDbEntity
  8
0
  6
Continuous
 62
     7
370
    15
100
AcDbCircle
 10
156.9114104038
 20
122.8844923292
 30
0.0
 40
3.000000000000004
100
AcDbArc
 50
289.7249234254
 51
0.5367869717
  0
SPLINE
  5
80
330
1F
100
AcDbEntity
  8
0
  6
Continuous
 62
     7
370
    15
100
AcDbSpline
210
0.0
220
0.0
230
1.0
 70
    24
 71
     3
 72
     8
 73
     4
 74
     0
 42
0.00000001
 43
0.00000001
 12
1.0
 22
0.0
 32
0.0
 13
1.0
 23
0.0
 33
0.0
 40
0.0
 40
0.0
 40
0.0
 40
0.0
 40
1.0
 40
1.0
 40
1.0
 40
1.0
 10
157.9239246906933
 20
120.0605208670779
 30
0.0
 10
157.9090575212408
 20
120.1437251253546
 30
0.0
 10
157.8941738591097
 20
120.227021685067
 30
0.0
 10
157.8792686178745
 20
120.310439012446
 30
0.0
  0
ARC
  5
81
330
1F
100
AcDbEntity
  8
0
  6
Continuous
 62
     7
370
    15
100
AcDbCircle
 10
156.9114104038
 20
122.8844923292
 30
0.0
 40
2.750000000000022
100
AcDbArc
 50
200.6065368949
 51
269.6551735021
  0
LINE
  5
82
330
1F
100
AcDbEntity
  8
0
  6
Continuous
 62
     7
370
    15
100
AcDbLine
 10
154.3373562132
 20
121.9166341398
 30
0.0
 11
155.0930602212
 21
122.0516684626
 31
0.0
  0
ARC
  5
83
330
1F
100
AcDbEntity
  8
0
  6
Continuous
 62
     7
370
    15
100
AcDbCircle
 10
156.9114104038
 20
122.8844923292
 30
0.0
 40
2.000000000000002
100
AcDbArc
 50
204.6083673844
 51
265.6533430126
  0
LINE
  5
84
330
1F
100
AcDbEntity
  8
0
  6
Continuous
 62
     7
370
    15
100
AcDbLine
 10
156.7598286752
 20
120.8902421568
 30
0.0
 11
156.894860204
 21
120.134544668
 31
0.0
  0
ARC
  5
85
330
1F
100
AcDbEntity
  8
0
  6
Continuous
 62
     7
370
    15
100
AcDbCircle
 10
156.9114104038
 20
122.8844923292
 30
0.0
 40
3.000000000000022
100
AcDbArc
 50
199.7249234254
 51
270.5367869717
  0
SPLINE
  5
86
330
1F
100
AcDbEntity
  8
0
  6
Continuous
 62
     7
370
    15
100
AcDbSpline
210
0.0
220
0.0
230
1.0
 70
    24
 71
     3
 72
     8
 73
     4
 74
     0
 42
0.00000001
 43
0.00000001
 12
1.0
 22
0.0
 32
0.0
 13
1.0
 23
0.0
 33
0.0
 40
0.0
 40
0.0
 40
0.0
 40
0.0
 40
1.0
 40
1.0
 40
1.0
 40
1.0
 10
154.0874389417162
 20
121.8719780423639
 30
0.0
 10
154.1706431931708
 20
121.8868452105974
 30
0.0
 10
154.2539397503855
 20
121.9017288722822
 30
0.0
 10
154.3373570870843
 20
121.9166341151828
 30
0.0
  0
SPLINE
  5
87
330
1F
100
AcDbEntity
  8
0
  6
Continuous
 62
     7
370
    15
100
AcDbSpline
210
0.0
220
0.0
230
1.0
 70
    24
 71
     3
 72
    11
 73
     7
 74
     0
 42
0.00000001
 43
0.00000001
 12
1.0
 22
0.0
 32
0.0
 13
1.0
 23
0.0
 33
0.0
 40
0.0041333666424306
 40
0.0041333666424306
 40
0.0041333666424306
 40
0.0041333666424306
 40
0.0046138376121394
 40
0.0046138376121394
 40
0.0046138376121394
 40
0.0051650880369003
 40
0.0051650880369003
 40
0.0051650880369003
 40
0.0051650880369003
 10
156.8948600199849
 20
120.1345421324252
 30
0.0
 10
156.9018013700806
 20
120.0956947991787
 30
0.0
 10
156.9087380105384
 20
120.0568738234667
 30
0.0
 10
156.9156705082377
 20
120.0180760327429
 30
0.0
 10
156.9236242500731
 20
119.9735628392893
 30
0.0
 10
156.9315725399384
 20
119.92908015784
 30
0.0
 10
156.9395160928037
 20
119.884623987057
 30
0.0
  0
LINE
  5
88
330
1F
100
AcDbEntity
  8
0
  6
Continuous
 62
     7
370
    15
100
AcDbLine
 10
154.9171622579
 20
123.0360764239
 30
0.0
 11
154.1614610438
 21
122.9010421012
 31
0.0
  0
ARC
  5
89
330
1F
100
AcDbEntity
  8
0
  6
Continuous
 62
     7
370
    15
100
AcDbCircle
 10
156.9114104038
 20
122.8844923292
 30
0.0
 40
2.750000000000015
100
AcDbArc
 50
110.6065368949
 51
179.6551735021
  0
LINE
  5
8A
330
1F
100
AcDbEntity
  8
0
  6
Continuous
 62
     7
370
    15
100
AcDbLine
 10
155.9435523783
 20
125.4585432981
 30
0.0
 11
156.0785829757
 21
124.7028458093
 31
0.0
  0
ARC
  5
8B
330
1F
100
AcDbEntity
  8
0
  6
Continuous
 62
     7
370
    15
100
AcDbCircle
 10
156.9114104038
 20
122.8844923292
 30
0.0
 40
2.000000000000014
100
AcDbArc
 50
114.6083673844
 51
175.6533430126
  0
ARC
  5
8C
330
1F
100
AcDbEntity
  8
0
  6
Continuous
 62
     7
370
    15
100
AcDbCircle
 10
156.9114104038
 20
122.8844923292
 30
0.0
 40
3.000000000000019
100
AcDbArc
 50
109.7249234254
 51
180.5367869717
  0
SPLINE
  5
8D
330
1F
100
AcDbEntity
  8
0
  6
Continuous
 62
     7
370
    15
100
AcDbSpline
210
0.0
220
0.0
230
1.0
 70
    24
 71
     3
 72
    11
 73
     7
 74
     0
 42
0.00000001
 43
0.00000001
 12
1.0
 22
0.0
 32
0.0
 13
1.0
 23
0.0
 33
0.0
 40
0.0041996937790339
 40
0.0041996937790339
 40
0.0041996937790339
 40
0.0041996937790339
 40
0.0045714279294727
 40
0.0045714279294727
 40
0.0045714279294727
 40
0.0052314151081104
 40
0.0052314151081104
 40
0.0052314151081104
 40
0.0052314151081104
 10
154.1614602070635
 20
122.9010427130724
 30
0.0
 10
154.131404526672
 20
122.8956722800844
 30
0.0
 10
154.1013646345911
 20
122.8903046681959
 30
0.0
 10
154.0713390331513
 20
122.884939609799
 30
0.0
 10
154.0180307491478
 20
122.8754143365989
 30
0.0
 10
153.9647674251648
 20
122.8658970969809
 30
0.0
 10
153.9115420616953
 20
122.8563866402535
 30
0.0
  0
SPLINE
  5
8E
330
1F
100
AcDbEntity
  8
0
  6
Continuous
 62
     7
370
    15
100
AcDbSpline
210
0.0
220
0.0
230
1.0
 70
    24
 71
     3
 72
     8
 73
     4
 74
     0
 42
0.00000001
 43
0.00000001
 12
1.0
 22
0.0
 32
0.0
 13
1.0
 23
0.0
 33
0.0
 40
0.0
 40
0.0
 40
0.0
 40
0.0
 40
1.0
 40
1.0
 40
1.0
 40
1.0
 10
155.8988961170022
 20
125.708463791341
 30
0.0
 10
155.9137632864548
 20
125.6252595330643
 30
0.0
 10
155.9286469485858
 20
125.5419629733519
 30
0.0
 10
155.9435521898211
 20
125.4585456459729
 30
0.0
  0
ARC
  5
8F
330
1F
100
AcDbEntity
  8
0
  6
Continuous
 62
     7
370
    15
100
AcDbCircle
 10
156.9114104038
 20
122.8844923292
 30
0.0
 40
2.000000000000019
100
AcDbArc
 50
294.6083673844
 51
355.6533430126
  0
LINE
  5
90
330
1F
100
AcDbEntity
  8
0
  6
Continuous
 62
     7
370
    15
100
AcDbLine
 10
158.9056582858
 20
122.7329122994
 30
0.0
 11
159.6613604312
 21
122.8679391716
 31
0.0
  0
LINE
  5
91
330
1F
100
AcDbEntity
  8
0
  6
Continuous
 62
     7
370
    15
100
AcDbLine
 10
157.8792681654
 20
120.3104379747
 30
0.0
 11
157.7442375679
 21
121.0661429141
 31
0.0
  0
ARC
  5
92
330
1F
100
AcDbEntity
  8
0
  6
Continuous
 62
     7
370
    15
100
AcDbCircle
 10
156.9114104038
 20
122.8844923292
 30
0.0
 40
3.000000000000022
100
AcDbArc
 50
180.5367869717
 51
199.7249234254
  0
ARC
  5
93
330
1F
100
AcDbEntity
  8
0
  6
Continuous
 62
     7
370
    15
100
AcDbCircle
 10
156.9114104038
 20
122.8844923292
 30
0.0
 40
2.000000000000014
100
AcDbArc
 50
175.6533430126
 51
204.6083673844
  0
ARC
  5
94
330
1F
100
AcDbEntity
  8
0
  6
Continuous
 62
     7
370
    15
100
AcDbCircle
 10
156.9114104038
 20
122.8844923292
 30
0.0
 40
3.000000000000004
100
AcDbArc
 50
270.5367869717
 51
289.7249234254
  0
ARC
  5
95
330
1F
100
AcDbEntity
  8
0
  6
Continuous
 62
     7
370
    15
100
AcDbCircle
 10
156.9114104038
 20
122.8844923292
 30
0.0
 40
2.000000000000019
100
AcDbArc
 50
265.6533430126
 51
294.6083673844
  0
ARC
  5
96
330
1F
100
AcDbEntity
  8
0
  6
Continuous
 62
     7
370
    15
100
AcDbCircle
 10
156.9114104038
 20
122.8844923292
 30
0.0
 40
3.000000000000004
100
AcDbArc
 50
90.5367869717
 51
109.7249234254
  0
ARC
  5
97
330
1F
100
AcDbEntity
  8
0
  6
Continuous
 62
     7
370
    15
100
AcDbCircle
 10
156.9114104038
 20
122.8844923292
 30
0.0
 40
1.999999999999993
100
AcDbArc
 50
85.6533430126
 51
114.6083673844
  0
ARC
  5
98
330
1F
100
AcDbEntity
  8
0
  6
Continuous
 62
     7
370
    15
100
AcDbCircle
 10
156.9114104038
 20
122.8844923292
 30
0.0
 40
2.999999999999996
100
AcDbArc
 50
0.5367869717
 51
19.7249234254
  0
ARC
  5
99
330
1F
100
AcDbEntity
  8
0
  6
Continuous
 62
     7
370
    15
100
AcDbCircle
 10
156.9114104038
 20
122.8844923292
 30
0.0
 40
2.000000000000019
100
AcDbArc
 50
355.6533430126
 51
24.6083673844
  0
CIRCLE
  5
9A
330
1F
100
AcDbEntity
  8
0
  6
Continuous
 62
     7
370
    15
100
AcDbCircle
 10
156.9114104038
 20
122.8844923292
 30
0.0
 40
4.799999999999989
  0
CIRCLE
  5
9B
330
1F
100
AcDbEntity
  8
0
  6
Continuous
 62
     7
370
    15
100
AcDbCircle
 10
156.9114104038
 20
122.8844923292
 30
0.0
 40
5.000000000000028
  0
ARC
  5
9C
330
1F
100
AcDbEntity
  8
0
  6
Continuous
 62
     7
370
    15
100
AcDbCircle
 10
156.9114104038
 20
248.8844923292
 30
0.0
 40
2.750000000000035
100
AcDbArc
 50
306.241671695
 51
15.2903083023
  0
SPLINE
  5
9D
330
1F
100
AcDbEntity
  8
0
  6
Continuous
 62
     7
370
    15
100
AcDbSpline
210
0.0
220
0.0
230
1.0
 70
    24
 71
     3
 72
    11
 73
     7
 74
     0
 42
0.00000001
 43
0.00000001
 12
1.0
 22
0.0
 32
0.0
 13
1.0
 23
0.0
 33
0.0
 40
0.0041996937790339
 40
0.0041996937790339
 40
0.0041996937790339
 40
0.0041996937790339
 40
0.0045714279294727
 40
0.0045714279294727
 40
0.0045714279294727
 40
0.0052314151081104
 40
0.0052314151081104
 40
0.0052314151081104
 40
0.0052314151081104
 10
159.564066011982
 20
249.6096945248948
 30
0.0
 10
159.5915621689011
 20
249.6229665567268
 30
0.0
 10
159.6190438820327
 20
249.6362316167333
 30
0.0
 10
159.6465125215054
 20
249.6494903662574
 30
0.0
 10
159.6952811044474
 20
249.673030317208
 30
0.0
 10
159.744008556137
 20
249.6965504146463
 30
0.0
 10
159.7927012800073
 20
249.7200537494248
 30
0.0
  0
ARC
  5
9E
330
1F
100
AcDbEntity
  8
0
  6
Continuous
 62
     7
370
    15
100
AcDbCircle
 10
156.9114104038
 20
248.8844923292
 30
0.0
 40
3.000000000000021
100
AcDbArc
 50
305.3600582255
 51
16.1719217718
  0
SPLINE
  5
9F
330
1F
100
AcDbEntity
  8
0
  6
Continuous
 62
     7
370
    15
100
AcDbSpline
210
0.0
220
0.0
230
1.0
 70
    24
 71
     3
 72
     8
 73
     4
 74
     0
 42
0.00000001
 43
0.00000001
 12
1.0
 22
0.0
 32
0.0
 13
1.0
 23
0.0
 33
0.0
 40
0.0
 40
0.0
 40
0.0
 40
0.0
 40
1.0
 40
1.0
 40
1.0
 40
1.0
 10
158.6475487841434
 20
246.4378980587061
 30
0.0
 10
158.6108073246248
 20
246.5140166929251
 30
0.0
 10
158.5740251065016
 20
246.5902197682455
 30
0.0
 10
158.5371895596134
 20
246.6665333267314
 30
0.0
  0
ARC
  5
A0
330
1F
100
AcDbEntity
  8
0
  6
Continuous
 62
     7
370
    15
100
AcDbCircle
 10
156.9114104038
 20
248.8844923292
 30
0.0
 40
2.749999999999978
100
AcDbArc
 50
36.241671695
 51
105.2903083023
  0
ARC
  5
A1
330
1F
100
AcDbEntity
  8
0
  6
Continuous
 62
     7
370
    15
100
AcDbCircle
 10
156.9114104038
 20
248.8844923292
 30
0.0
 40
2.000000000000032
100
AcDbArc
 50
40.2435021846
 51
101.2884778127
  0
LINE
  5
A2
330
1F
100
AcDbEntity
  8
0
  6
Continuous
 62
     7
370
    15
100
AcDbLine
 10
156.5199125294
 20
250.8458021257
 30
0.0
 11
156.1862084751
 21
251.5371489499
 31
0.0
  0
LINE
  5
A3
330
1F
100
AcDbEntity
  8
0
  6
Continuous
 62
     7
370
    15
100
AcDbLine
 10
159.1293694188
 20
250.5102726791
 30
0.0
 11
158.4380216633
 21
250.1765686248
 31
0.0
  0
ARC
  5
A4
330
1F
100
AcDbEntity
  8
0
  6
Continuous
 62
     7
370
    15
100
AcDbCircle
 10
156.9114104038
 20
248.8844923292
 30
0.0
 40
3.000000000000004
100
AcDbArc
 50
35.3600582255
 51
106.1719217718
  0
SPLINE
  5
A5
330
1F
100
AcDbEntity
  8
0
  6
Continuous
 62
     7
370
    15
100
AcDbSpline
210
0.0
220
0.0
230
1.0
 70
    24
 71
     3
 72
    11
 73
     7
 74
     0
 42
0.00000001
 43
0.00000001
 12
1.0
 22
0.0
 32
0.0
 13
1.0
 23
0.0
 33
0.0
 40
0.0041333666424306
 40
0.0041333666424306
 40
0.0041333666424306
 40
0.0041333666424306
 40
0.0046138376121394
 40
0.0046138376121394
 40
0.0046138376121394
 40
0.0051650880369003
 40
0.0051650880369003
 40
0.0051650880369003
 40
0.0051650880369003
 10
156.1862082081611
 20
251.5371479373451
 30
0.0
 10
156.1690539452491
 20
251.5726870553062
 30
0.0
 10
156.1519113213361
 20
251.6082020603245
 30
0.0
 10
156.1347789354845
 20
251.6436958547742
 30
0.0
 10
156.1151227336362
 20
251.6844183317313
 30
0.0
 10
156.095480005324
 20
251.7251128950678
 30
0.0
 10
156.0758489836311
 20
251.7657832053704
 30
0.0
  0
SPLINE
  5
A6
330
1F
100
AcDbEntity
  8
0
  6
Continuous
 62
     7
370
    15
100
AcDbSpline
210
0.0
220
0.0
230
1.0
 70
    24
 71
     3
 72
     8
 73
     4
 74
     0
 42
0.00000001
 43
0.00000001
 12
1.0
 22
0.0
 32
0.0
 13
1.0
 23
0.0
 33
0.0
 40
0.0
 40
0.0
 40
0.0
 40
0.0
 40
1.0
 40
1.0
 40
1.0
 40
1.0
 10
159.3580046743498
 20
250.6206307095065
 30
0.0
 10
159.2818860463721
 20
250.5838892530003
 30
0.0
 10
159.2056829733366
 20
250.54710703598
 30
0.0
 10
159.1293694063245
 20
250.5102714849764
 30
0.0
  0
ARC
  5
A7
330
1F
100
AcDbEntity
  8
0
  6
Continuous
 62
     7
370
    15
100
AcDbCircle
 10
156.9114104038
 20
248.8844923292
 30
0.0
 40
3.000000000000008
100
AcDbArc
 50
215.3600582255
 51
286.1719217718
  0
ARC
  5
A8
330
1F
100
AcDbEntity
  8
0
  6
Continuous
 62
     7
370
    15
100
AcDbCircle
 10
156.9114104038
 20
248.8844923292
 30
0.0
 40
2.750000000000027
100
AcDbArc
 50
216.241671695
 51
285.2903083023
  0
SPLINE
  5
A9
330
1F
100
AcDbEntity
  8
0
  6
Continuous
 62
     7
370
    15
100
AcDbSpline
210
0.0
220
0.0
230
1.0
 70
    24
 71
     3
 72
     8
 73
     4
 74
     0
 42
0.00000001
 43
0.00000001
 12
1.0
 22
0.0
 32
0.0
 13
1.0
 23
0.0
 33
0.0
 40
0.0
 40
0.0
 40
0.0
 40
0.0
 40
1.0
 40
1.0
 40
1.0
 40
1.0
 10
154.4648161333431
 20
247.1483539489125
 30
0.0
 10
154.5409347613208
 20
247.1850954054186
 30
0.0
 10
154.6171378343563
 20
247.2218776224389
 30
0.0
 10
154.6934514013683
 20
247.2587131734425
 30
0.0
  0
SPLINE
  5
AA
330
1F
100
AcDbEntity
  8
0
  6
Continuous
 62
     7
370
    15
100
AcDbSpline
210
0.0
220
0.0
230
1.0
 70
    24
 71
     3
 72
    11
 73
     7
 74
     0
 42
0.00000001
 43
0.00000001
 12
1.0
 22
0.0
 32
0.0
 13
1.0
 23
0.0
 33
0.0
 40
0.0041333666424306
 40
0.0041333666424306
 40
0.0041333666424306
 40
0.0041333666424306
 40
0.0046138376121394
 40
0.0046138376121394
 40
0.0046138376121394
 40
0.0051650880369003
 40
0.0051650880369003
 40
0.0051650880369003
 40
0.0051650880369003
 10
157.6366125995318
 20
246.2318367210739
 30
0.0
 10
157.6537668624438
 20
246.1962976031128
 30
0.0
 10
157.6709094863568
 20
246.1607825980944
 30
0.0
 10
157.6880418722084
 20
246.1252888036448
 30
0.0
 10
157.7076980740566
 20
246.0845663266877
 30
0.0
 10
157.7273408023688
 20
246.0438717633511
 30
0.0
 10
157.7469718240618
 20
246.0032014530487
 30
0.0
  0
ARC
  5
AB
330
1F
100
AcDbEntity
  8
0
  6
Continuous
 62
     7
370
    15
100
AcDbCircle
 10
156.9114104038
 20
248.8844923292
 30
0.0
 40
2.000000000000029
100
AcDbArc
 50
220.2435021846
 51
281.2884778127
  0
LINE
  5
AC
330
1F
100
AcDbEntity
  8
0
  6
Continuous
 62
     7
370
    15
100
AcDbLine
 10
154.6934511249
 20
247.2587126468
 30
0.0
 11
155.3847988804
 21
247.5924167011
 31
0.0
  0
LINE
  5
AD
330
1F
100
AcDbEntity
  8
0
  6
Continuous
 62
     7
370
    15
100
AcDbLine
 10
157.3029080142
 20
246.9231832002
 30
0.0
 11
157.6366129999
 21
246.231836376
 31
0.0
  0
ARC
  5
AE
330
1F
100
AcDbEntity
  8
0
  6
Continuous
 62
     7
370
    15
100
AcDbCircle
 10
156.9114104038
 20
248.8844923292
 30
0.0
 40
2.000000000000018
100
AcDbArc
 50
310.2435021846
 51
11.2884778127
  0
LINE
  5
AF
330
1F
100
AcDbEntity
  8
0
  6
Continuous
 62
     7
370
    15
100
AcDbLine
 10
158.8727183376
 20
249.275990871
 30
0.0
 11
159.5640660931
 21
249.6096949254
 31
0.0
  0
LINE
  5
B0
330
1F
100
AcDbEntity
  8
0
  6
Continuous
 62
     7
370
    15
100
AcDbLine
 10
158.5371898223
 20
246.6665330503
 30
0.0
 11
158.2034848367
 21
247.3578798745
 31
0.0
  0
ARC
  5
B1
330
1F
100
AcDbEntity
  8
0
  6
Continuous
 62
     7
370
    15
100
AcDbCircle
 10
156.9114104038
 20
248.8844923292
 30
0.0
 40
2.750000000000007
100
AcDbArc
 50
126.241671695
 51
195.2903083023
  0
ARC
  5
B2
330
1F
100
AcDbEntity
  8
0
  6
Continuous
 62
     7
370
    15
100
AcDbCircle
 10
156.9114104038
 20
248.8844923292
 30
0.0
 40
3.000000000000008
100
AcDbArc
 50
125.3600582255
 51
196.1719217718
  0
SPLINE
  5
B3
330
1F
100
AcDbEntity
  8
0
  6
Continuous
 62
     7
370
    15
100
AcDbSpline
210
0.0
220
0.0
230
1.0
 70
    24
 71
     3
 72
     8
 73
     4
 74
     0
 42
0.00000001
 43
0.00000001
 12
1.0
 22
0.0
 32
0.0
 13
1.0
 23
0.0
 33
0.0
 40
0.0
 40
0.0
 40
0.0
 40
0.0
 40
1.0
 40
1.0
 40
1.0
 40
1.0
 10
155.1752720235495
 20
251.3310865997128
 30
0.0
 10
155.2120134830681
 20
251.2549679654939
 30
0.0
 10
155.2487957011913
 20
251.1787648901735
 30
0.0
 10
155.2856312480795
 20
251.1024513316876
 30
0.0
  0
SPLINE
  5
B4
330
1F
100
AcDbEntity
  8
0
  6
Continuous
 62
     7
370
    15
100
AcDbSpline
210
0.0
220
0.0
230
1.0
 70
    24
 71
     3
 72
    11
 73
     7
 74
     0
 42
0.00000001
 43
0.00000001
 12
1.0
 22
0.0
 32
0.0
 13
1.0
 23
0.0
 33
0.0
 40
0.0041996937790339
 40
0.0041996937790339
 40
0.0041996937790339
 40
0.0041996937790339
 40
0.0045714279294727
 40
0.0045714279294727
 40
0.0045714279294727
 40
0.0052314151081104
 40
0.0052314151081104
 40
0.0052314151081104
 40
0.0052314151081104
 10
154.2587547957108
 20
248.1592901335241
 30
0.0
 10
154.2312586387917
 20
248.1460181016921
 30
0.0
 10
154.2037769256602
 20
248.1327530416856
 30
0.0
 10
154.1763082861874
 20
248.1194942921616
 30
0.0
 10
154.1275397032454
 20
248.095954341211
 30
0.0
 10
154.0788122515559
 20
248.0724342437727
 30
0.0
 10
154.0301195276856
 20
248.0489309089942
 30
0.0
  0
LINE
  5
B5
330
1F
100
AcDbEntity
  8
0
  6
Continuous
 62
     7
370
    15
100
AcDbLine
 10
155.2856316526
 20
251.1024522756
 30
0.0
 11
155.619335707
 21
250.4111054514
 31
0.0
  0
ARC
  5
B6
330
1F
100
AcDbEntity
  8
0
  6
Continuous
 62
     7
370
    15
100
AcDbCircle
 10
156.9114104038
 20
248.8844923292
 30
0.0
 40
1.999999999999995
100
AcDbArc
 50
130.2435021846
 51
191.2884778127
  0
LINE
  5
B7
330
1F
100
AcDbEntity
  8
0
  6
Continuous
 62
     7
370
    15
100
AcDbLine
 10
154.950102206
 20
248.4929944549
 30
0.0
 11
154.2587544505
 21
248.1592904005
 31
0.0
  0
ARC
  5
B8
330
1F
100
AcDbEntity
  8
0
  6
Continuous
 62
     7
370
    15
100
AcDbCircle
 10
156.9114104038
 20
248.8844923292
 30
0.0
 40
3.000000000000008
100
AcDbArc
 50
196.1719217718
 51
215.3600582255
  0
ARC
  5
B9
330
1F
100
AcDbEntity
  8
0
  6
Continuous
 62
     7
370
    15
100
AcDbCircle
 10
156.9114104038
 20
248.8844923292
 30
0.0
 40
1.999999999999995
100
AcDbArc
 50
191.2884778127
 51
220.2435021846
  0
ARC
  5
BA
330
1F
100
AcDbEntity
  8
0
  6
Continuous
 62
     7
370
    15
100
AcDbCircle
 10
156.9114104038
 20
248.8844923292
 30
0.0
 40
2.999999999999992
100
AcDbArc
 50
106.1719217718
 51
125.3600582255
  0
ARC
  5
BB
330
1F
100
AcDbEntity
  8
0
  6
Continuous
 62
     7
370
    15
100
AcDbCircle
 10
156.9114104038
 20
248.8844923292
 30
0.0
 40
1.99999999999997
100
AcDbArc
 50
101.2884778127
 51
130.2435021846
  0
ARC
  5
BC
330
1F
100
AcDbEntity
  8
0
  6
Continuous
 62
     7
370
    15
100
AcDbCircle
 10
156.9114104038
 20
248.8844923292
 30
0.0
 40
3.000000000000021
100
AcDbArc
 50
286.1719217718
 51
305.3600582255
  0
ARC
  5
BD
330
1F
100
AcDbEntity
  8
0
  6
Continuous
 62
     7
370
    15
100
AcDbCircle
 10
156.9114104038
 20
248.8844923292
 30
0.0
 40
2.000000000000029
100
AcDbArc
 50
281.2884778127
 51
310.2435021846
  0
ARC
  5
BE
330
1F
100
AcDbEntity
  8
0
  6
Continuous
 62
     7
370
    15
100
AcDbCircle
 10
156.9114104038
 20
248.8844923292
 30
0.0
 40
3.000000000000004
100
AcDbArc
 50
16.1719217718
 51
35.3600582255
  0
ARC
  5
BF
330
1F
100
AcDbEntity
  8
0
  6
Continuous
 62
     7
370
    15
100
AcDbCircle
 10
156.9114104038
 20
248.8844923292
 30
0.0
 40
2.000000000000032
100
AcDbArc
 50
11.2884778127
 51
40.2435021846
  0
CIRCLE
  5
C0
330
1F
100
AcDbEntity
  8
0
  6
Continuous
 62
     7
370
    15
100
AcDbCircle
 10
156.9114104038
 20
248.8844923292
 30
0.0
 40
4.999999999999998
  0
CIRCLE
  5
C1
330
1F
100
AcDbEntity
  8
0
  6
Continuous
 62
     7
370
    15
100
AcDbCircle
 10
156.9114104038
 20
248.8844923292
 30
0.0
 40
4.799999999999991
  0
ARC
  5
C2
330
1F
100
AcDbEntity
  8
0
  6
Continuous
 62
     7
370
    15
100
AcDbCircle
 10
156.9114104038
 20
208.8844923292
 30
0.0
 40
2.749999999999984
100
AcDbArc
 50
37.7234066373
 51
106.7720432446
  0
SPLINE
  5
C3
330
1F
100
AcDbEntity
  8
0
  6
Continuous
 62
     7
370
    15
100
AcDbSpline
210
0.0
220
0.0
230
1.0
 70
    24
 71
     3
 72
    11
 73
     7
 74
     0
 42
0.00000001
 43
0.00000001
 12
1.0
 22
0.0
 32
0.0
 13
1.0
 23
0.0
 33
0.0
 40
0.0041996937790339
 40
0.0041996937790339
 40
0.0041996937790339
 40
0.0041996937790339
 40
0.0045714279294727
 40
0.0045714279294727
 40
0.0045714279294727
 40
0.0052314151081104
 40
0.0052314151081104
 40
0.0052314151081104
 40
0.0052314151081104
 10
156.1178576148606
 20
211.5175084649542
 30
0.0
 10
156.1038790178714
 20
211.5446522358876
 30
0.0
 10
156.0899077638679
 20
211.5717817481425
 30
0.0
 10
156.0759431562989
 20
211.5988983542884
 30
0.0
 10
156.0511500054347
 20
211.6470419275163
 30
0.0
 10
156.0263777650274
 20
211.6951448966228
 30
0.0
 10
156.001623179676
 20
211.7432135829758
 30
0.0
  0
ARC
  5
C4
330
1F
100
AcDbEntity
  8
0
  6
Continuous
 62
     7
370
    15
100
AcDbCircle
 10
156.9114104038
 20
208.8844923292
 30
0.0
 40
2.999999999999968
100
AcDbArc
 50
36.8417931678
 51
107.6536567141
  0
SPLINE
  5
C5
330
1F
100
AcDbEntity
  8
0
  6
Continuous
 62
     7
370
    15
100
AcDbSpline
210
0.0
220
0.0
230
1.0
 70
    24
 71
     3
 72
     8
 73
     4
 74
     0
 42
0.00000001
 43
0.00000001
 12
1.0
 22
0.0
 32
0.0
 13
1.0
 23
0.0
 33
0.0
 40
0.0
 40
0.0
 40
0.0
 40
0.0
 40
1.0
 40
1.0
 40
1.0
 40
1.0
 10
159.3122930433017
 20
210.6833148750889
 30
0.0
 10
159.237149932318
 20
210.6446174049572
 30
0.0
 10
159.1619234624153
 20
210.6058770063489
 30
0.0
 10
159.0865879252802
 20
210.5670804399042
 30
0.0
  0
ARC
  5
C6
330
1F
100
AcDbEntity
  8
0
  6
Continuous
 62
     7
370
    15
100
AcDbCircle
 10
156.9114104038
 20
208.8844923292
 30
0.0
 40
1.999999999999977
100
AcDbArc
 50
41.7252371269
 51
102.770212755
  0
LINE
  5
C7
330
1F
100
AcDbEntity
  8
0
  6
Continuous
 62
     7
370
    15
100
AcDbLine
 10
156.4693277438
 20
210.8350220297
 30
0.0
 11
156.11785778
 21
211.5175082509
 31
0.0
  0
LINE
  5
C8
330
1F
100
AcDbEntity
  8
0
  6
Continuous
 62
     7
370
    15
100
AcDbLine
 10
159.086588185
 20
210.567080525
 30
0.0
 11
158.4041010325
 21
210.2156105612
 31
0.0
  0
ARC
  5
C9
330
1F
100
AcDbEntity
  8
0
  6
Continuous
 62
     7
370
    15
100
AcDbCircle
 10
156.9114104038
 20
208.8844923292
 30
0.0
 40
2.75000000000002
100
AcDbArc
 50
127.7234066373
 51
196.7720432446
  0
LINE
  5
CA
330
1F
100
AcDbEntity
  8
0
  6
Continuous
 62
     7
370
    15
100
AcDbLine
 10
155.2288219069
 20
211.0596700732
 30
0.0
 11
155.5802918707
 21
210.3771819894
 31
0.0
  0
ARC
  5
CB
330
1F
100
AcDbEntity
  8
0
  6
Continuous
 62
     7
370
    15
100
AcDbCircle
 10
156.9114104038
 20
208.8844923292
 30
0.0
 40
2.000000000000031
100
AcDbArc
 50
131.7252371269
 51
192.770212755
  0
LINE
  5
CC
330
1F
100
AcDbEntity
  8
0
  6
Continuous
 62
     7
370
    15
100
AcDbLine
 10
154.9608813335
 20
208.442409632
 30
0.0
 11
154.278394181
 21
208.0909396682
 31
0.0
  0
ARC
  5
CD
330
1F
100
AcDbEntity
  8
0
  6
Continuous
 62
     7
370
    15
100
AcDbCircle
 10
156.9114104038
 20
208.8844923292
 30
0.0
 40
2.750000000000019
100
AcDbArc
 50
307.7234066373
 51
16.7720432446
  0
LINE
  5
CE
330
1F
100
AcDbEntity
  8
0
  6
Continuous
 62
     7
370
    15
100
AcDbLine
 10
158.5939986367
 20
206.7093151782
 30
0.0
 11
158.242528673
 21
207.3918013994
 31
0.0
  0
ARC
  5
CF
330
1F
100
AcDbEntity
  8
0
  6
Continuous
 62
     7
370
    15
100
AcDbCircle
 10
156.9114104038
 20
208.8844923292
 30
0.0
 40
2.000000000000019
100
AcDbArc
 50
311.7252371269
 51
12.770212755
  0
LINE
  5
D0
330
1F
100
AcDbEntity
  8
0
  6
Continuous
 62
     7
370
    15
100
AcDbLine
 10
158.8619392101
 20
209.3265756194
 30
0.0
 11
159.5444263627
 21
209.6780455832
 31
0.0
  0
ARC
  5
D1
330
1F
100
AcDbEntity
  8
0
  6
Continuous
 62
     7
370
    15
100
AcDbCircle
 10
156.9114104038
 20
208.8844923292
 30
0.0
 40
3.000000000000023
100
AcDbArc
 50
126.8417931678
 51
197.6536567141
  0
SPLINE
  5
D2
330
1F
100
AcDbEntity
  8
0
  6
Continuous
 62
     7
370
    15
100
AcDbSpline
210
0.0
220
0.0
230
1.0
 70
    24
 71
     3
 72
     8
 73
     4
 74
     0
 42
0.00000001
 43
0.00000001
 12
1.0
 22
0.0
 32
0.0
 13
1.0
 23
0.0
 33
0.0
 40
0.0
 40
0.0
 40
0.0
 40
0.0
 40
1.0
 40
1.0
 40
1.0
 40
1.0
 10
155.1125878579674
 20
211.2853749686644
 30
0.0
 10
155.1512853249262
 20
211.2102318638418
 30
0.0
 10
155.1900257223729
 20
211.1350053961948
 30
0.0
 10
155.2288222931521
 20
211.0596698506428
 30
0.0
  0
SPLINE
  5
D3
330
1F
100
AcDbEntity
  8
0
  6
Continuous
 62
     7
370
    15
100
AcDbSpline
210
0.0
220
0.0
230
1.0
 70
    24
 71
     3
 72
    11
 73
     7
 74
     0
 42
0.00000001
 43
0.00000001
 12
1.0
 22
0.0
 32
0.0
 13
1.0
 23
0.0
 33
0.0
 40
0.0041333666424306
 40
0.0041333666424306
 40
0.0041333666424306
 40
0.0041333666424306
 40
0.0046138376121394
 40
0.0046138376121394
 40
0.0046138376121394
 40
0.0051650880369003
 40
0.0051650880369003
 40
0.0051650880369003
 40
0.0051650880369003
 10
154.2783942681021
 20
208.0909395402232
 30
0.0
 10
154.2433106133227
 20
208.0728720332334
 30
0.0
 10
154.2082507624588
 20
208.0548167848698
 30
0.0
 10
154.1732118503325
 20
208.0367723196127
 30
0.0
 10
154.1330112655884
 20
208.0160696775868
 30
0.0
 10
154.0928382367288
 20
207.9953812263895
 30
0.0
 10
154.0526891500805
 20
207.9747051050386
 30
0.0
  0
ARC
  5
D4
330
1F
100
AcDbEntity
  8
0
  6
Continuous
 62
     7
370
    15
100
AcDbCircle
 10
156.9114104038
 20
208.8844923292
 30
0.0
 40
3.000000000000014
100
AcDbArc
 50
306.8417931678
 51
17.6536567141
  0
SPLINE
  5
D5
330
1F
100
AcDbEntity
  8
0
  6
Continuous
 62
     7
370
    15
100
AcDbSpline
210
0.0
220
0.0
230
1.0
 70
    24
 71
     3
 72
     8
 73
     4
 74
     0
 42
0.00000001
 43
0.00000001
 12
1.0
 22
0.0
 32
0.0
 13
1.0
 23
0.0
 33
0.0
 40
0.0
 40
0.0
 40
0.0
 40
0.0
 40
1.0
 40
1.0
 40
1.0
 40
1.0
 10
158.7102329497263
 20
206.4836096897546
 30
0.0
 10
158.6715354827675
 20
206.5587527945772
 30
0.0
 10
158.6327950853209
 20
206.6339792622242
 30
0.0
 10
158.5939985145416
 20
206.7093148077762
 30
0.0
  0
SPLINE
  5
D6
330
1F
100
AcDbEntity
  8
0
  6
Continuous
 62
     7
370
    15
100
AcDbSpline
210
0.0
220
0.0
230
1.0
 70
    24
 71
     3
 72
    11
 73
     7
 74
     0
 42
0.00000001
 43
0.00000001
 12
1.0
 22
0.0
 32
0.0
 13
1.0
 23
0.0
 33
0.0
 40
0.0041333666424306
 40
0.0041333666424306
 40
0.0041333666424306
 40
0.0041333666424306
 40
0.0046138376121394
 40
0.0046138376121394
 40
0.0046138376121394
 40
0.0051650880369003
 40
0.0051650880369003
 40
0.0051650880369003
 40
0.0051650880369003
 10
159.5444265395916
 20
209.6780451181957
 30
0.0
 10
159.579510194371
 20
209.6961126251855
 30
0.0
 10
159.614570045235
 20
209.7141678735492
 30
0.0
 10
159.6496089573612
 20
209.7322123388062
 30
0.0
 10
159.6898095421053
 20
209.7529149808322
 30
0.0
 10
159.7299825709649
 20
209.7736034320294
 30
0.0
 10
159.7701316576132
 20
209.7942795533804
 30
0.0
  0
ARC
  5
D7
330
1F
100
AcDbEntity
  8
0
  6
Continuous
 62
     7
370
    15
100
AcDbCircle
 10
156.9114104038
 20
208.8844923292
 30
0.0
 40
2.750000000000031
100
AcDbArc
 50
217.7234066373
 51
286.7720432446
  0
ARC
  5
D8
330
1F
100
AcDbEntity
  8
0
  6
Continuous
 62
     7
370
    15
100
AcDbCircle
 10
156.9114104038
 20
208.8844923292
 30
0.0
 40
3.000000000000014
100
AcDbArc
 50
216.8417931678
 51
287.6536567141
  0
SPLINE
  5
D9
330
1F
100
AcDbEntity
  8
0
  6
Continuous
 62
     7
370
    15
100
AcDbSpline
210
0.0
220
0.0
230
1.0
 70
    24
 71
     3
 72
    11
 73
     7
 74
     0
 42
0.00000001
 43
0.00000001
 12
1.0
 22
0.0
 32
0.0
 13
1.0
 23
0.0
 33
0.0
 40
0.0041996937790339
 40
0.0041996937790339
 40
0.0041996937790339
 40
0.0041996937790339
 40
0.0045714279294727
 40
0.0045714279294727
 40
0.0045714279294727
 40
0.0052314151081104
 40
0.0052314151081104
 40
0.0052314151081104
 40
0.0052314151081104
 10
157.7049631928331
 20
206.2514761934647
 30
0.0
 10
157.7189417898223
 20
206.2243324225313
 30
0.0
 10
157.7329130438258
 20
206.1972029102765
 30
0.0
 10
157.7468776513948
 20
206.1700863041306
 30
0.0
 10
157.771670802259
 20
206.1219427309027
 30
0.0
 10
157.7964430426663
 20
206.0738397617962
 30
0.0
 10
157.8211976280178
 20
206.0257710754431
 30
0.0
  0
SPLINE
  5
DA
330
1F
100
AcDbEntity
  8
0
  6
Continuous
 62
     7
370
    15
100
AcDbSpline
210
0.0
220
0.0
230
1.0
 70
    24
 71
     3
 72
     8
 73
     4
 74
     0
 42
0.00000001
 43
0.00000001
 12
1.0
 22
0.0
 32
0.0
 13
1.0
 23
0.0
 33
0.0
 40
0.0
 40
0.0
 40
0.0
 40
0.0
 40
1.0
 40
1.0
 40
1.0
 40
1.0
 10
154.510527764392
 20
207.0856697833301
 30
0.0
 10
154.5856708753757
 20
207.1243672534618
 30
0.0
 10
154.6608973452784
 20
207.16310765207
 30
0.0
 10
154.7362328824136
 20
207.2019042185148
 30
0.0
  0
LINE
  5
DB
330
1F
100
AcDbEntity
  8
0
  6
Continuous
 62
     7
370
    15
100
AcDbLine
 10
157.3534937312
 20
206.9339632217
 30
0.0
 11
157.7049627636
 21
206.2514770005
 31
0.0
  0
ARC
  5
DC
330
1F
100
AcDbEntity
  8
0
  6
Continuous
 62
     7
370
    15
100
AcDbCircle
 10
156.9114104038
 20
208.8844923292
 30
0.0
 40
2.000000000000024
100
AcDbArc
 50
221.7252371269
 51
282.770212755
  0
LINE
  5
DD
330
1F
100
AcDbEntity
  8
0
  6
Continuous
 62
     7
370
    15
100
AcDbLine
 10
154.7362323587
 20
207.2019047264
 30
0.0
 11
155.4187204425
 21
207.5533746902
 31
0.0
  0
ARC
  5
DE
330
1F
100
AcDbEntity
  8
0
  6
Continuous
 62
     7
370
    15
100
AcDbCircle
 10
156.9114104038
 20
208.8844923292
 30
0.0
 40
3.000000000000014
100
AcDbArc
 50
287.6536567141
 51
306.8417931678
  0
ARC
  5
DF
330
1F
100
AcDbEntity
  8
0
  6
Continuous
 62
     7
370
    15
100
AcDbCircle
 10
156.9114104038
 20
208.8844923292
 30
0.0
 40
2.000000000000024
100
AcDbArc
 50
282.770212755
 51
311.7252371269
  0
ARC
  5
E0
330
1F
100
AcDbEntity
  8
0
  6
Continuous
 62
     7
370
    15
100
AcDbCircle
 10
156.9114104038
 20
208.8844923292
 30
0.0
 40
3.000000000000008
100
AcDbArc
 50
107.6536567141
 51
126.8417931678
  0
ARC
  5
E1
330
1F
100
AcDbEntity
  8
0
  6
Continuous
 62
     7
370
    15
100
AcDbCircle
 10
156.9114104038
 20
208.8844923292
 30
0.0
 40
1.999999999999977
100
AcDbArc
 50
102.770212755
 51
131.7252371269
  0
ARC
  5
E2
330
1F
100
AcDbEntity
  8
0
  6
Continuous
 62
     7
370
    15
100
AcDbCircle
 10
156.9114104038
 20
208.8844923292
 30
0.0
 40
2.999999999999978
100
AcDbArc
 50
17.6536567141
 51
36.8417931678
  0
ARC
  5
E3
330
1F
100
AcDbEntity
  8
0
  6
Continuous
 62
     7
370
    15
100
AcDbCircle
 10
156.9114104038
 20
208.8844923292
 30
0.0
 40
1.999999999999997
100
AcDbArc
 50
12.770212755
 51
41.7252371269
  0
ARC
  5
E4
330
1F
100
AcDbEntity
  8
0
  6
Continuous
 62
     7
370
    15
100
AcDbCircle
 10
156.9114104038
 20
208.8844923292
 30
0.0
 40
3.000000000000023
100
AcDbArc
 50
197.6536567141
 51
216.8417931678
  0
ARC
  5
E5
330
1F
100
AcDbEntity
  8
0
  6
Continuous
 62
     7
370
    15
100
AcDbCircle
 10
156.9114104038
 20
208.8844923292
 30
0.0
 40
2.000000000000031
100
AcDbArc
 50
192.770212755
 51
221.7252371269
  0
CIRCLE
  5
E6
330
1F
100
AcDbEntity
  8
0
  6
Continuous
 62
     7
370
    15
100
AcDbCircle
 10
156.9114104038
 20
208.8844923292
 30
0.0
 40
4.99999999999999
  0
CIRCLE
  5
E7
330
1F
100
AcDbEntity
  8
0
  6
Continuous
 62
     7
370
    15
100
AcDbCircle
 10
156.9114104038
 20
208.8844923292
 30
0.0
 40
4.799999999999999
  0
ARC
  5
E8
330
1F
100
AcDbEntity
  8
0
  6
Continuous
 62
     7
370
    15
100
AcDbCircle
 10
151.9114104038
 20
233.8844923292
 30
0.0
 40
1.250000000000008
100
AcDbArc
 50
312.8763230959
 51
85.7199661395
  0
LINE
  5
E9
330
1F
100
AcDbEntity
  8
0
  6
Continuous
 62
     7
370
    15
100
AcDbLine
 10
152.0046986376
 20
235.1310077284
 30
0.0
 11
151.7433378582
 21
235.8774180685
 31
0.0
  0
ARC
  5
EA
330
1F
100
AcDbEntity
  8
0
  6
Continuous
 62
     7
370
    15
100
AcDbCircle
 10
151.9114104038
 20
233.8844923292
 30
0.0
 40
2.000000000000028
100
AcDbArc
 50
303.7756568036
 51
94.8206324318
  0
LINE
  5
EB
330
1F
100
AcDbEntity
  8
0
  6
Continuous
 62
     7
370
    15
100
AcDbLine
 10
153.0232954507
 20
232.2220514689
 30
0.0
 11
152.7619328086
 21
232.968461809
 31
0.0
  0
ARC
  5
EC
330
1F
100
AcDbEntity
  8
0
  6
Continuous
 62
     7
370
    15
100
AcDbCircle
 10
151.9114104038
 20
233.8844923292
 30
0.0
 40
2.250000000000066
100
AcDbArc
 50
302.1377330246
 51
96.4585562108
  0
SPLINE
  5
ED
330
1F
100
AcDbEntity
  8
0
  6
Continuous
 62
     7
370
    15
100
AcDbSpline
210
0.0
220
0.0
230
1.0
 70
    24
 71
     3
 72
     8
 73
     4
 74
     0
 42
0.00000001
 43
0.00000001
 12
1.0
 22
0.0
 32
0.0
 13
1.0
 23
0.0
 33
0.0
 40
0.0
 40
0.0
 40
0.0
 40
0.0
 40
1.0
 40
1.0
 40
1.0
 40
1.0
 10
151.7433370461509
 20
235.8774176530249
 30
0.0
 10
151.7149000514077
 20
235.9586293935592
 30
0.0
 10
151.6865725530576
 20
236.0395284290155
 30
0.0
 10
151.6583202713581
 20
236.1202126571346
 30
0.0
  0
SPLINE
  5
EE
330
1F
100
AcDbEntity
  8
0
  6
Continuous
 62
     7
370
    15
100
AcDbSpline
210
0.0
220
0.0
230
1.0
 70
    24
 71
     3
 72
     8
 73
     4
 74
     0
 42
0.00000001
 43
0.00000001
 12
1.0
 22
0.0
 32
0.0
 13
1.0
 23
0.0
 33
0.0
 40
0.0
 40
0.0
 40
0.0
 40
0.0
 40
1.0
 40
1.0
 40
1.0
 40
1.0
 10
153.1083121902485
 20
231.9792558310915
 30
0.0
 10
153.0800598935581
 20
232.0599401020225
 30
0.0
 10
153.051732349279
 20
232.1408392686449
 30
0.0
 10
153.0232954154557
 20
232.2220508352013
 30
0.0
  0
ARC
  5
EF
330
1F
100
AcDbEntity
  8
0
  6
Continuous
 62
     7
370
    15
100
AcDbCircle
 10
151.9114104038
 20
233.8844923292
 30
0.0
 40
2.00000000000006
100
AcDbArc
 50
123.7756568036
 51
274.8206324318
  0
LINE
  5
F0
330
1F
100
AcDbEntity
  8
0
  6
Continuous
 62
     7
370
    15
100
AcDbLine
 10
150.7995262478
 20
235.5469326649
 30
0.0
 11
151.0608870272
 21
234.8005223248
 31
0.0
  0
LINE
  5
F1
330
1F
100
AcDbEntity
  8
0
  6
Continuous
 62
     7
370
    15
100
AcDbLine
 10
151.8181211983
 20
232.6379801307
 30
0.0
 11
152.0794838403
 21
231.8915660654
 31
0.0
  0
ARC
  5
F2
330
1F
100
AcDbEntity
  8
0
  6
Continuous
 62
     7
370
    15
100
AcDbCircle
 10
151.9114104038
 20
233.8844923292
 30
0.0
 40
1.250000000000075
100
AcDbArc
 50
132.8763230959
 51
265.7199661395
  0
ARC
  5
F3
330
1F
100
AcDbEntity
  8
0
  6
Continuous
 62
     7
370
    15
100
AcDbCircle
 10
151.9114104038
 20
233.8844923292
 30
0.0
 40
2.250000000000023
100
AcDbArc
 50
122.1377330246
 51
276.4585562108
  0
SPLINE
  5
F4
330
1F
100
AcDbEntity
  8
0
  6
Continuous
 62
     7
370
    15
100
AcDbSpline
210
0.0
220
0.0
230
1.0
 70
    24
 71
     3
 72
     8
 73
     4
 74
     0
 42
0.00000001
 43
0.00000001
 12
1.0
 22
0.0
 32
0.0
 13
1.0
 23
0.0
 33
0.0
 40
0.0
 40
0.0
 40
0.0
 40
0.0
 40
1.0
 40
1.0
 40
1.0
 40
1.0
 10
150.7145086173775
 20
235.7897288272576
 30
0.0
 10
150.7427609140679
 20
235.7090445563266
 30
0.0
 10
150.771088458347
 20
235.6281453897042
 30
0.0
 10
150.7995253921702
 20
235.5469338231478
 30
0.0
  0
SPLINE
  5
F5
330
1F
100
AcDbEntity
  8
0
  6
Continuous
 62
     7
370
    15
100
AcDbSpline
210
0.0
220
0.0
230
1.0
 70
    24
 71
     3
 72
     8
 73
     4
 74
     0
 42
0.00000001
 43
0.00000001
 12
1.0
 22
0.0
 32
0.0
 13
1.0
 23
0.0
 33
0.0
 40
0.0
 40
0.0
 40
0.0
 40
0.0
 40
1.0
 40
1.0
 40
1.0
 40
1.0
 10
152.0794837614752
 20
231.8915670053242
 30
0.0
 10
152.1079207562182
 20
231.8103552647899
 30
0.0
 10
152.1362482545684
 20
231.7294562293336
 30
0.0
 10
152.1645005362678
 20
231.6487720012144
 30
0.0
  0
ARC
  5
F6
330
1F
100
AcDbEntity
  8
0
  6
Continuous
 62
     7
370
    15
100
AcDbCircle
 10
151.9114104038
 20
233.8844923292
 30
0.0
 40
2.250000000000012
100
AcDbArc
 50
276.4585562108
 51
302.1377330246
  0
ARC
  5
F7
330
1F
100
AcDbEntity
  8
0
  6
Continuous
 62
     7
370
    15
100
AcDbCircle
 10
151.9114104038
 20
233.8844923292
 30
0.0
 40
1.249999999999982
100
AcDbArc
 50
265.7199661395
 51
312.8763230959
  0
ARC
  5
F8
330
1F
100
AcDbEntity
  8
0
  6
Continuous
 62
     7
370
    15
100
AcDbCircle
 10
151.9114104038
 20
233.8844923292
 30
0.0
 40
2.250000000000066
100
AcDbArc
 50
96.4585562108
 51
122.1377330246
  0
ARC
  5
F9
330
1F
100
AcDbEntity
  8
0
  6
Continuous
 62
     7
370
    15
100
AcDbCircle
 10
151.9114104038
 20
233.8844923292
 30
0.0
 40
1.250000000000058
100
AcDbArc
 50
85.7199661395
 51
132.8763230959
  0
CIRCLE
  5
FA
330
1F
100
AcDbEntity
  8
0
  6
Continuous
 62
     7
370
    15
100
AcDbCircle
 10
151.9114104038
 20
233.8844923292
 30
0.0
 40
4.050000000000031
  0
CIRCLE
  5
FB
330
1F
100
AcDbEntity
  8
0
  6
Continuous
 62
     7
370
    15
100
AcDbCircle
 10
151.9114104038
 20
233.8844923292
 30
0.0
 40
4.250000000000039
  0
ARC
  5
FC
330
1F
100
AcDbEntity
  8
0
  6
Continuous
 62
     7
370
    15
100
AcDbCircle
 10
151.9114104038
 20
193.8844923292
 30
0.0
 40
2.250000000000066
100
AcDbArc
 50
302.1377330246
 51
96.4585562108
  0
ARC
  5
FD
330
1F
100
AcDbEntity
  8
0
  6
Continuous
 62
     7
370
    15
100
AcDbCircle
 10
151.9114104038
 20
193.8844923292
 30
0.0
 40
2.000000000000026
100
AcDbArc
 50
303.7756568036
 51
94.8206324318
  0
SPLINE
  5
FE
330
1F
100
AcDbEntity
  8
0
  6
Continuous
 62
     7
370
    15
100
AcDbSpline
210
0.0
220
0.0
230
1.0
 70
    24
 71
     3
 72
     8
 73
     4
 74
     0
 42
0.00000001
 43
0.00000001
 12
1.0
 22
0.0
 32
0.0
 13
1.0
 23
0.0
 33
0.0
 40
0.0
 40
0.0
 40
0.0
 40
0.0
 40
1.0
 40
1.0
 40
1.0
 40
1.0
 10
151.7433370461513
 20
195.8774176530249
 30
0.0
 10
151.7149000514082
 20
195.9586293935592
 30
0.0
 10
151.686572553058
 20
196.0395284290155
 30
0.0
 10
151.6583202713586
 20
196.1202126571346
 30
0.0
  0
SPLINE
  5
FF
330
1F
100
AcDbEntity
  8
0
  6
Continuous
 62
     7
370
    15
100
AcDbSpline
210
0.0
220
0.0
230
1.0
 70
    24
 71
     3
 72
     8
 73
     4
 74
     0
 42
0.00000001
 43
0.00000001
 12
1.0
 22
0.0
 32
0.0
 13
1.0
 23
0.0
 33
0.0
 40
0.0
 40
0.0
 40
0.0
 40
0.0
 40
1.0
 40
1.0
 40
1.0
 40
1.0
 10
153.1083121902489
 20
191.9792558310915
 30
0.0
 10
153.0800598935585
 20
192.0599401020225
 30
0.0
 10
153.0517323492794
 20
192.1408392686449
 30
0.0
 10
153.0232954154562
 20
192.2220508352013
 30
0.0
  0
ARC
  5
100
330
1F
100
AcDbEntity
  8
0
  6
Continuous
 62
     7
370
    15
100
AcDbCircle
 10
151.9114104038
 20
193.8844923292
 30
0.0
 40
1.250000000000008
100
AcDbArc
 50
312.8763230959
 51
85.7199661395
  0
LINE
  5
101
330
1F
100
AcDbEntity
  8
0
  6
Continuous
 62
     7
370
    15
100
AcDbLine
 10
152.0046986376
 20
195.1310062941
 30
0.0
 11
151.7433378582
 21
195.8774175655
 31
0.0
  0
LINE
  5
102
330
1F
100
AcDbEntity
  8
0
  6
Continuous
 62
     7
370
    15
100
AcDbLine
 10
153.0232954507
 20
192.2220507331
 30
0.0
 11
152.7619328086
 21
192.9684622374
 31
0.0
  0
LINE
  5
103
330
1F
100
AcDbEntity
  8
0
  6
Continuous
 62
     7
370
    15
100
AcDbLine
 10
151.8181211983
 20
192.6379782308
 30
0.0
 11
152.0794838403
 21
191.8915669594
 31
0.0
  0
ARC
  5
104
330
1F
100
AcDbEntity
  8
0
  6
Continuous
 62
     7
370
    15
100
AcDbCircle
 10
151.9114104038
 20
193.8844923292
 30
0.0
 40
2.00000000000006
100
AcDbArc
 50
123.7756568036
 51
274.8206324318
  0
LINE
  5
105
330
1F
100
AcDbEntity
  8
0
  6
Continuous
 62
     7
370
    15
100
AcDbLine
 10
150.7995262478
 20
195.5469340246
 30
0.0
 11
151.0608870272
 21
194.8005222876
 31
0.0
  0
ARC
  5
106
330
1F
100
AcDbEntity
  8
0
  6
Continuous
 62
     7
370
    15
100
AcDbCircle
 10
151.9114104038
 20
193.8844923292
 30
0.0
 40
1.250000000000056
100
AcDbArc
 50
132.8763230959
 51
265.7199661395
  0
ARC
  5
107
330
1F
100
AcDbEntity
  8
0
  6
Continuous
 62
     7
370
    15
100
AcDbCircle
 10
151.9114104038
 20
193.8844923292
 30
0.0
 40
2.250000000000023
100
AcDbArc
 50
122.1377330246
 51
276.4585562108
  0
SPLINE
  5
108
330
1F
100
AcDbEntity
  8
0
  6
Continuous
 62
     7
370
    15
100
AcDbSpline
210
0.0
220
0.0
230
1.0
 70
    24
 71
     3
 72
     8
 73
     4
 74
     0
 42
0.00000001
 43
0.00000001
 12
1.0
 22
0.0
 32
0.0
 13
1.0
 23
0.0
 33
0.0
 40
0.0
 40
0.0
 40
0.0
 40
0.0
 40
1.0
 40
1.0
 40
1.0
 40
1.0
 10
150.714508617378
 20
195.7897288272576
 30
0.0
 10
150.7427609140684
 20
195.7090445563266
 30
0.0
 10
150.7710884583474
 20
195.6281453897043
 30
0.0
 10
150.7995253921707
 20
195.5469338231479
 30
0.0
  0
SPLINE
  5
109
330
1F
100
AcDbEntity
  8
0
  6
Continuous
 62
     7
370
    15
100
AcDbSpline
210
0.0
220
0.0
230
1.0
 70
    24
 71
     3
 72
     8
 73
     4
 74
     0
 42
0.00000001
 43
0.00000001
 12
1.0
 22
0.0
 32
0.0
 13
1.0
 23
0.0
 33
0.0
 40
0.0
 40
0.0
 40
0.0
 40
0.0
 40
1.0
 40
1.0
 40
1.0
 40
1.0
 10
152.0794837614756
 20
191.8915670053241
 30
0.0
 10
152.1079207562187
 20
191.8103552647899
 30
0.0
 10
152.1362482545688
 20
191.7294562293336
 30
0.0
 10
152.1645005362683
 20
191.6487720012144
 30
0.0
  0
ARC
  5
10A
330
1F
100
AcDbEntity
  8
0
  6
Continuous
 62
     7
370
    15
100
AcDbCircle
 10
151.9114104038
 20
193.8844923292
 30
0.0
 40
2.250000000000012
100
AcDbArc
 50
276.4585562108
 51
302.1377330246
  0
ARC
  5
10B
330
1F
100
AcDbEntity
  8
0
  6
Continuous
 62
     7
370
    15
100
AcDbCircle
 10
151.9114104038
 20
193.8844923292
 30
0.0
 40
1.249999999999982
100
AcDbArc
 50
265.7199661395
 51
312.8763230959
  0
ARC
  5
10C
330
1F
100
AcDbEntity
  8
0
  6
Continuous
 62
     7
370
    15
100
AcDbCircle
 10
151.9114104038
 20
193.8844923292
 30
0.0
 40
2.250000000000066
100
AcDbArc
 50
96.4585562108
 51
122.1377330246
  0
ARC
  5
10D
330
1F
100
AcDbEntity
  8
0
  6
Continuous
 62
     7
370
    15
100
AcDbCircle
 10
151.9114104038
 20
193.8844923292
 30
0.0
 40
1.250000000000058
100
AcDbArc
 50
85.7199661395
 51
132.8763230959
  0
CIRCLE
  5
10E
330
1F
100
AcDbEntity
  8
0
  6
Continuous
 62
     7
370
    15
100
AcDbCircle
 10
151.9114104038
 20
193.8844923292
 30
0.0
 40
4.050000000000049
  0
CIRCLE
  5
10F
330
1F
100
AcDbEntity
  8
0
  6
Continuous
 62
     7
370
    15
100
AcDbCircle
 10
151.9114104038
 20
193.8844923292
 30
0.0
 40
4.250000000000039
  0
ARC
  5
110
330
1F
100
AcDbEntity
  8
0
  6
Continuous
 62
     7
370
    15
100
AcDbCircle
 10
151.9114104038
 20
177.8844923292
 30
0.0
 40
2.250000000000062
100
AcDbArc
 50
302.1377330246
 51
96.4585562108
  0
ARC
  5
111
330
1F
100
AcDbEntity
  8
0
  6
Continuous
 62
     7
370
    15
100
AcDbCircle
 10
151.9114104038
 20
177.8844923292
 30
0.0
 40
2.000000000000026
100
AcDbArc
 50
303.7756568036
 51
94.8206324318
  0
SPLINE
  5
112
330
1F
100
AcDbEntity
  8
0
  6
Continuous
 62
     7
370
    15
100
AcDbSpline
210
0.0
220
0.0
230
1.0
 70
    24
 71
     3
 72
     8
 73
     4
 74
     0
 42
0.00000001
 43
0.00000001
 12
1.0
 22
0.0
 32
0.0
 13
1.0
 23
0.0
 33
0.0
 40
0.0
 40
0.0
 40
0.0
 40
0.0
 40
1.0
 40
1.0
 40
1.0
 40
1.0
 10
151.7433370461515
 20
179.8774176530249
 30
0.0
 10
151.7149000514083
 20
179.9586293935592
 30
0.0
 10
151.6865725530582
 20
180.0395284290155
 30
0.0
 10
151.6583202713587
 20
180.1202126571346
 30
0.0
  0
SPLINE
  5
113
330
1F
100
AcDbEntity
  8
0
  6
Continuous
 62
     7
370
    15
100
AcDbSpline
210
0.0
220
0.0
230
1.0
 70
    24
 71
     3
 72
     8
 73
     4
 74
     0
 42
0.00000001
 43
0.00000001
 12
1.0
 22
0.0
 32
0.0
 13
1.0
 23
0.0
 33
0.0
 40
0.0
 40
0.0
 40
0.0
 40
0.0
 40
1.0
 40
1.0
 40
1.0
 40
1.0
 10
153.1083121902491
 20
175.9792558310915
 30
0.0
 10
153.0800598935587
 20
176.0599401020225
 30
0.0
 10
153.0517323492796
 20
176.1408392686449
 30
0.0
 10
153.0232954154563
 20
176.2220508352013
 30
0.0
  0
LINE
  5
114
330
1F
100
AcDbEntity
  8
0
  6
Continuous
 62
     7
370
    15
100
AcDbLine
 10
152.0046986376
 20
179.1310059998
 30
0.0
 11
151.7433378582
 21
179.8774172712
 31
0.0
  0
LINE
  5
115
330
1F
100
AcDbEntity
  8
0
  6
Continuous
 62
     7
370
    15
100
AcDbLine
 10
153.0232954507
 20
176.2220506717
 30
0.0
 11
152.7619328086
 21
176.9684619431
 31
0.0
  0
ARC
  5
116
330
1F
100
AcDbEntity
  8
0
  6
Continuous
 62
     7
370
    15
100
AcDbCircle
 10
151.9114104038
 20
177.8844923292
 30
0.0
 40
1.250000000000037
100
AcDbArc
 50
312.8763230959
 51
85.7199661395
  0
ARC
  5
117
330
1F
100
AcDbEntity
  8
0
  6
Continuous
 62
     7
370
    15
100
AcDbCircle
 10
151.9114104038
 20
177.8844923292
 30
0.0
 40
2.000000000000036
100
AcDbArc
 50
123.7756568036
 51
274.8206324318
  0
SPLINE
  5
118
330
1F
100
AcDbEntity
  8
0
  6
Continuous
 62
     7
370
    15
100
AcDbSpline
210
0.0
220
0.0
230
1.0
 70
    24
 71
     3
 72
     8
 73
     4
 74
     0
 42
0.00000001
 43
0.00000001
 12
1.0
 22
0.0
 32
0.0
 13
1.0
 23
0.0
 33
0.0
 40
0.0
 40
0.0
 40
0.0
 40
0.0
 40
1.0
 40
1.0
 40
1.0
 40
1.0
 10
152.0794837614758
 20
175.8915670053241
 30
0.0
 10
152.1079207562189
 20
175.8103552647899
 30
0.0
 10
152.136248254569
 20
175.7294562293336
 30
0.0
 10
152.1645005362685
 20
175.6487720012144
 30
0.0
  0
ARC
  5
119
330
1F
100
AcDbEntity
  8
0
  6
Continuous
 62
     7
370
    15
100
AcDbCircle
 10
151.9114104038
 20
177.8844923292
 30
0.0
 40
2.250000000000032
100
AcDbArc
 50
122.1377330246
 51
276.4585562108
  0
SPLINE
  5
11A
330
1F
100
AcDbEntity
  8
0
  6
Continuous
 62
     7
370
    15
100
AcDbSpline
210
0.0
220
0.0
230
1.0
 70
    24
 71
     3
 72
     8
 73
     4
 74
     0
 42
0.00000001
 43
0.00000001
 12
1.0
 22
0.0
 32
0.0
 13
1.0
 23
0.0
 33
0.0
 40
0.0
 40
0.0
 40
0.0
 40
0.0
 40
1.0
 40
1.0
 40
1.0
 40
1.0
 10
150.7145086173782
 20
179.7897288272576
 30
0.0
 10
150.7427609140685
 20
179.7090445563266
 30
0.0
 10
150.7710884583476
 20
179.6281453897042
 30
0.0
 10
150.7995253921708
 20
179.5469338231479
 30
0.0
  0
LINE
  5
11B
330
1F
100
AcDbEntity
  8
0
  6
Continuous
 62
     7
370
    15
100
AcDbLine
 10
150.7995262478
 20
179.5469337303
 30
0.0
 11
151.0608870272
 21
178.800522459
 31
0.0
  0
LINE
  5
11C
330
1F
100
AcDbEntity
  8
0
  6
Continuous
 62
     7
370
    15
100
AcDbLine
 10
151.8181211983
 20
176.6379784022
 30
0.0
 11
152.0794838403
 21
175.8915671308
 31
0.0
  0
ARC
  5
11D
330
1F
100
AcDbEntity
  8
0
  6
Continuous
 62
     7
370
    15
100
AcDbCircle
 10
151.9114104038
 20
177.8844923292
 30
0.0
 40
1.250000000000037
100
AcDbArc
 50
132.8763230959
 51
265.7199661395
  0
ARC
  5
11E
330
1F
100
AcDbEntity
  8
0
  6
Continuous
 62
     7
370
    15
100
AcDbCircle
 10
151.9114104038
 20
177.8844923292
 30
0.0
 40
2.249999999999987
100
AcDbArc
 50
276.4585562108
 51
302.1377330246
  0
ARC
  5
11F
330
1F
100
AcDbEntity
  8
0
  6
Continuous
 62
     7
370
    15
100
AcDbCircle
 10
151.9114104038
 20
177.8844923292
 30
0.0
 40
1.249999999999952
100
AcDbArc
 50
265.7199661395
 51
312.8763230959
  0
ARC
  5
120
330
1F
100
AcDbEntity
  8
0
  6
Continuous
 62
     7
370
    15
100
AcDbCircle
 10
151.9114104038
 20
177.8844923292
 30
0.0
 40
2.250000000000062
100
AcDbArc
 50
96.4585562108
 51
122.1377330246
  0
ARC
  5
121
330
1F
100
AcDbEntity
  8
0
  6
Continuous
 62
     7
370
    15
100
AcDbCircle
 10
151.9114104038
 20
177.8844923292
 30
0.0
 40
1.250000000000038
100
AcDbArc
 50
85.7199661395
 51
132.8763230959
  0
CIRCLE
  5
122
330
1F
100
AcDbEntity
  8
0
  6
Continuous
 62
     7
370
    15
100
AcDbCircle
 10
151.9114104038
 20
177.8844923292
 30
0.0
 40
4.050000000000022
  0
CIRCLE
  5
123
330
1F
100
AcDbEntity
  8
0
  6
Continuous
 62
     7
370
    15
100
AcDbCircle
 10
151.9114104038
 20
177.8844923292
 30
0.0
 40
4.250000000000039
  0
ARC
  5
124
330
1F
100
AcDbEntity
  8
0
  6
Continuous
 62
     7
370
    15
100
AcDbCircle
 10
151.9114104038
 20
137.8844923292
 30
0.0
 40
2.250000000000066
100
AcDbArc
 50
302.1377330246
 51
96.4585562108
  0
ARC
  5
125
330
1F
100
AcDbEntity
  8
0
  6
Continuous
 62
     7
370
    15
100
AcDbCircle
 10
151.9114104038
 20
137.8844923292
 30
0.0
 40
1.999999999999998
100
AcDbArc
 50
303.7756568036
 51
94.8206324318
  0
SPLINE
  5
126
330
1F
100
AcDbEntity
  8
0
  6
Continuous
 62
     7
370
    15
100
AcDbSpline
210
0.0
220
0.0
230
1.0
 70
    24
 71
     3
 72
     8
 73
     4
 74
     0
 42
0.00000001
 43
0.00000001
 12
1.0
 22
0.0
 32
0.0
 13
1.0
 23
0.0
 33
0.0
 40
0.0
 40
0.0
 40
0.0
 40
0.0
 40
1.0
 40
1.0
 40
1.0
 40
1.0
 10
151.7433370461519
 20
139.8774176530249
 30
0.0
 10
151.7149000514088
 20
139.9586293935592
 30
0.0
 10
151.6865725530587
 20
140.0395284290155
 30
0.0
 10
151.6583202713592
 20
140.1202126571346
 30
0.0
  0
SPLINE
  5
127
330
1F
100
AcDbEntity
  8
0
  6
Continuous
 62
     7
370
    15
100
AcDbSpline
210
0.0
220
0.0
230
1.0
 70
    24
 71
     3
 72
     8
 73
     4
 74
     0
 42
0.00000001
 43
0.00000001
 12
1.0
 22
0.0
 32
0.0
 13
1.0
 23
0.0
 33
0.0
 40
0.0
 40
0.0
 40
0.0
 40
0.0
 40
1.0
 40
1.0
 40
1.0
 40
1.0
 10
153.1083121902495
 20
135.9792558310916
 30
0.0
 10
153.0800598935591
 20
136.0599401020225
 30
0.0
 10
153.0517323492801
 20
136.1408392686449
 30
0.0
 10
153.0232954154568
 20
136.2220508352012
 30
0.0
  0
ARC
  5
128
330
1F
100
AcDbEntity
  8
0
  6
Continuous
 62
     7
370
    15
100
AcDbCircle
 10
151.9114104038
 20
137.8844923292
 30
0.0
 40
1.250000000000008
100
AcDbArc
 50
312.8763230959
 51
85.7199661395
  0
LINE
  5
129
330
1F
100
AcDbEntity
  8
0
  6
Continuous
 62
     7
370
    15
100
AcDbLine
 10
152.0046986376
 20
139.1310068939
 30
0.0
 11
151.7433378582
 21
139.877417234
 31
0.0
  0
LINE
  5
12A
330
1F
100
AcDbEntity
  8
0
  6
Continuous
 62
     7
370
    15
100
AcDbLine
 10
153.0232954507
 20
136.2220506344
 30
0.0
 11
152.7619328086
 21
136.9684609745
 31
0.0
  0
LINE
  5
12B
330
1F
100
AcDbEntity
  8
0
  6
Continuous
 62
     7
370
    15
100
AcDbLine
 10
151.8181211983
 20
136.6379792963
 30
0.0
 11
152.0794838403
 21
135.8915652309
 31
0.0
  0
ARC
  5
12C
330
1F
100
AcDbEntity
  8
0
  6
Continuous
 62
     7
370
    15
100
AcDbCircle
 10
151.9114104038
 20
137.8844923292
 30
0.0
 40
2.000000000000036
100
AcDbArc
 50
123.7756568036
 51
274.8206324318
  0
LINE
  5
12D
330
1F
100
AcDbEntity
  8
0
  6
Continuous
 62
     7
370
    15
100
AcDbLine
 10
150.7995262478
 20
139.5469355557
 30
0.0
 11
151.0608870272
 21
138.8005214904
 31
0.0
  0
ARC
  5
12E
330
1F
100
AcDbEntity
  8
0
  6
Continuous
 62
     7
370
    15
100
AcDbCircle
 10
151.9114104038
 20
137.8844923292
 30
0.0
 40
1.250000000000075
100
AcDbArc
 50
132.8763230959
 51
265.7199661395
  0
SPLINE
  5
12F
330
1F
100
AcDbEntity
  8
0
  6
Continuous
 62
     7
370
    15
100
AcDbSpline
210
0.0
220
0.0
230
1.0
 70
    24
 71
     3
 72
     8
 73
     4
 74
     0
 42
0.00000001
 43
0.00000001
 12
1.0
 22
0.0
 32
0.0
 13
1.0
 23
0.0
 33
0.0
 40
0.0
 40
0.0
 40
0.0
 40
0.0
 40
1.0
 40
1.0
 40
1.0
 40
1.0
 10
152.0794837614762
 20
135.8915670053241
 30
0.0
 10
152.1079207562193
 20
135.8103552647899
 30
0.0
 10
152.1362482545694
 20
135.7294562293336
 30
0.0
 10
152.1645005362689
 20
135.6487720012144
 30
0.0
  0
ARC
  5
130
330
1F
100
AcDbEntity
  8
0
  6
Continuous
 62
     7
370
    15
100
AcDbCircle
 10
151.9114104038
 20
137.8844923292
 30
0.0
 40
2.250000000000038
100
AcDbArc
 50
122.1377330246
 51
276.4585562108
  0
SPLINE
  5
131
330
1F
100
AcDbEntity
  8
0
  6
Continuous
 62
     7
370
    15
100
AcDbSpline
210
0.0
220
0.0
230
1.0
 70
    24
 71
     3
 72
     8
 73
     4
 74
     0
 42
0.00000001
 43
0.00000001
 12
1.0
 22
0.0
 32
0.0
 13
1.0
 23
0.0
 33
0.0
 40
0.0
 40
0.0
 40
0.0
 40
0.0
 40
1.0
 40
1.0
 40
1.0
 40
1.0
 10
150.7145086173786
 20
139.7897288272576
 30
0.0
 10
150.742760914069
 20
139.7090445563266
 30
0.0
 10
150.771088458348
 20
139.6281453897042
 30
0.0
 10
150.7995253921713
 20
139.5469338231479
 30
0.0
  0
ARC
  5
132
330
1F
100
AcDbEntity
  8
0
  6
Continuous
 62
     7
370
    15
100
AcDbCircle
 10
151.9114104038
 20
137.8844923292
 30
0.0
 40
2.250000000000037
100
AcDbArc
 50
276.4585562108
 51
302.1377330246
  0
ARC
  5
133
330
1F
100
AcDbEntity
  8
0
  6
Continuous
 62
     7
370
    15
100
AcDbCircle
 10
151.9114104038
 20
137.8844923292
 30
0.0
 40
1.249999999999982
100
AcDbArc
 50
265.7199661395
 51
312.8763230959
  0
ARC
  5
134
330
1F
100
AcDbEntity
  8
0
  6
Continuous
 62
     7
370
    15
100
AcDbCircle
 10
151.9114104038
 20
137.8844923292
 30
0.0
 40
2.250000000000066
100
AcDbArc
 50
96.4585562108
 51
122.1377330246
  0
ARC
  5
135
330
1F
100
AcDbEntity
  8
0
  6
Continuous
 62
     7
370
    15
100
AcDbCircle
 10
151.9114104038
 20
137.8844923292
 30
0.0
 40
1.250000000000077
100
AcDbArc
 50
85.7199661395
 51
132.8763230959
  0
CIRCLE
  5
136
330
1F
100
AcDbEntity
  8
0
  6
Continuous
 62
     7
370
    15
100
AcDbCircle
 10
151.9114104038
 20
137.8844923292
 30
0.0
 40
4.050000000000058
  0
CIRCLE
  5
137
330
1F
100
AcDbEntity
  8
0
  6
Continuous
 62
     7
370
    15
100
AcDbCircle
 10
151.9114104038
 20
137.8844923292
 30
0.0
 40
4.250000000000039
  0
CIRCLE
  5
138
330
1F
100
AcDbEntity
  8
0
  6
Continuous
 62
     7
370
    15
100
AcDbCircle
 10
156.9114104038
 20
208.8844923292
 30
0.0
 40
3.499999999999968
  0
CIRCLE
  5
139
330
1F
100
AcDbEntity
  8
0
  6
Continuous
 62
     7
370
    15
100
AcDbCircle
 10
156.9114104038
 20
208.8844923292
 30
0.0
 40
4.499999999999998
  0
CIRCLE
  5
13A
330
1F
100
AcDbEntity
  8
0
  6
Continuous
 62
     7
370
    15
100
AcDbCircle
 10
156.9114104038
 20
122.8844923292
 30
0.0
 40
3.499999999999988
  0
CIRCLE
  5
13B
330
1F
100
AcDbEntity
  8
0
  6
Continuous
 62
     7
370
    15
100
AcDbCircle
 10
156.9114104038
 20
122.8844923292
 30
0.0
 40
4.499999999999978
  0
CIRCLE
  5
13C
330
1F
100
AcDbEntity
  8
0
  6
Continuous
 62
     7
370
    15
100
AcDbCircle
 10
156.9114104046
 20
162.8844923295
 30
0.0
 40
4.500000000000005
  0
CIRCLE
  5
13D
330
1F
100
AcDbEntity
  8
0
  6
Continuous
 62
     7
370
    15
100
AcDbCircle
 10
156.9114104046
 20
162.8844923295
 30
0.0
 40
3.49999999999999
  0
CIRCLE
  5
13E
330
1F
100
AcDbEntity
  8
0
  6
Continuous
 62
     7
370
    15
100
AcDbCircle
 10
156.9114104038
 20
248.8844923292
 30
0.0
 40
3.500000000000022
  0
CIRCLE
  5
13F
330
1F
100
AcDbEntity
  8
0
  6
Continuous
 62
     7
370
    15
100
AcDbCircle
 10
156.9114104038
 20
248.8844923292
 30
0.0
 40
4.500000000000013
  0
LINE
  5
140
330
1F
100
AcDbEntity
  8
0
  6
Continuous
 62
     7
370
    15
100
AcDbLine
 10
163.9114104879
 20
190.8844922364
 30
0.0
 11
163.9114104879
 21
255.884495673
 31
0.0
  0
LINE
  5
141
330
1F
100
AcDbEntity
  8
0
  6
Continuous
 62
     7
370
    15
100
AcDbLine
 10
166.911410514
 20
190.8844922364
 30
0.0
 11
163.9114104879
 21
190.8844922364
 31
0.0
  0
LINE
  5
142
330
1F
100
AcDbEntity
  8
0
  6
Continuous
 62
     7
370
    15
100
AcDbLine
 10
166.911410514
 20
190.8844922364
 30
0.0
 11
166.911410514
 21
180.8844922271
 31
0.0
  0
LINE
  5
143
330
1F
100
AcDbEntity
  8
0
  6
Continuous
 62
     7
370
    15
100
AcDbLine
 10
166.911410514
 20
180.8844922271
 30
0.0
 11
163.9114104879
 21
180.8844922271
 31
0.0
  0
LINE
  5
144
330
1F
100
AcDbEntity
  8
0
  6
Continuous
 62
     7
370
    15
100
AcDbLine
 10
163.9114104879
 20
115.8844950769
 30
0.0
 11
163.9114104879
 21
180.8844922271
 31
0.0
  0
LINE
  5
145
330
1F
100
AcDbEntity
  8
0
  6
Continuous
 62
     7
370
    15
100
AcDbLine
 10
141.9114101414
 20
115.8844950769
 30
0.0
 11
163.9114104879
 21
115.8844950769
 31
0.0
  0
LINE
  5
146
330
1F
100
AcDbEntity
  8
0
  6
Continuous
 62
     7
370
    15
100
AcDbLine
 10
141.9114101414
 20
255.884495673
 30
0.0
 11
141.9114101414
 21
115.8844950769
 31
0.0
  0
LINE
  5
147
330
1F
100
AcDbEntity
  8
0
  6
Continuous
 62
     7
370
    15
100
AcDbLine
 10
163.9114104879
 20
255.884495673
 30
0.0
 11
141.9114101414
 21
255.884495673
 31
0.0
  0
SPLINE
  5
148
330
1F
100
AcDbEntity
  8
0
  6
Continuous
 62
     7
370
    15
100
AcDbSpline
210
0.0
220
0.0
230
1.0
 70
    24
 71
     3
 72
    16
 73
    12
 74
     0
 42
0.00000001
 43
0.00000001
 12
1.0
 22
0.0
 32
0.0
 13
1.0
 23
0.0
 33
0.0
 40
0.0
 40
0.0
 40
0.0
 40
0.0
 40
0.2500000000000028
 40
0.2500000000000028
 40
0.3750000000000042
 40
0.3750000000000042
 40
0.5000000000000057
 40
0.5000000000000057
 40
0.7500000000000028
 40
0.7500000000000028
 40
1.0
 40
1.0
 40
1.0
 40
1.0
 10
155.9114104038128
 20
250.6218368355078
 30
0.0
 10
155.9114104038128
 20
250.3462497434424
 30
0.0
 10
155.9114104038128
 20
250.0683952240448
 30
0.0
 10
155.9114104038128
 20
249.6348749709738
 30
0.0
 10
155.9114104038128
 20
249.488351544689
 30
0.0
 10
155.9114104038128
 20
249.1880841636207
 30
0.0
 10
155.9114104038128
 20
249.0312643034394
 30
0.0
 10
155.9114104038128
 20
248.5685791071202
 30
0.0
 10
155.9114104038128
 20
248.2669914898377
 30
0.0
 10
155.9114104038128
 20
247.6951125724817
 30
0.0
 10
155.9114104038128
 20
247.4200020396092
 30
0.0
 10
155.9114104038128
 20
247.1471478228403
 30
0.0
  0
SPLINE
  5
149
330
1F
100
AcDbEntity
  8
0
  6
Continuous
 62
     7
370
    15
100
AcDbSpline
210
0.0
220
0.0
230
1.0
 70
    24
 71
     3
 72
    16
 73
    12
 74
     0
 42
0.00000001
 43
0.00000001
 12
1.0
 22
0.0
 32
0.0
 13
1.0
 23
0.0
 33
0.0
 40
0.0
 40
0.0
 40
0.0
 40
0.0
 40
0.249999999999998
 40
0.249999999999998
 40
0.3749999999999983
 40
0.3749999999999983
 40
0.4999999999999987
 40
0.4999999999999987
 40
0.7499999999999993
 40
0.7499999999999993
 40
1.0
 40
1.0
 40
1.0
 40
1.0
 10
155.9114104038132
 20
210.6218368355077
 30
0.0
 10
155.9114104038132
 20
210.3462497434423
 30
0.0
 10
155.9114104038132
 20
210.0683952240448
 30
0.0
 10
155.9114104038132
 20
209.6348749709738
 30
0.0
 10
155.9114104038132
 20
209.4883515446889
 30
0.0
 10
155.9114104038132
 20
209.1880841636207
 30
0.0
 10
155.9114104038132
 20
209.0312643034394
 30
0.0
 10
155.9114104038132
 20
208.5685791071202
 30
0.0
 10
155.9114104038132
 20
208.2669914898377
 30
0.0
 10
155.9114104038132
 20
207.6951125724817
 30
0.0
 10
155.9114104038132
 20
207.4200020396092
 30
0.0
 10
155.9114104038132
 20
207.1471478228403
 30
0.0
  0
SPLINE
  5
14A
330
1F
100
AcDbEntity
  8
0
  6
Continuous
 62
     7
370
    15
100
AcDbSpline
210
0.0
220
0.0
230
1.0
 70
    24
 71
     3
 72
    16
 73
    12
 74
     0
 42
0.00000001
 43
0.00000001
 12
1.0
 22
0.0
 32
0.0
 13
1.0
 23
0.0
 33
0.0
 40
0.0
 40
0.0
 40
0.0
 40
0.0
 40
0.2499999999999982
 40
0.2499999999999982
 40
0.3749999999999976
 40
0.3749999999999976
 40
0.4999999999999969
 40
0.4999999999999969
 40
0.7499999999999984
 40
0.7499999999999984
 40
1.0
 40
1.0
 40
1.0
 40
1.0
 10
155.9114104038137
 20
164.6218368355077
 30
0.0
 10
155.9114104038137
 20
164.3462497434424
 30
0.0
 10
155.9114104038137
 20
164.0683952240448
 30
0.0
 10
155.9114104038137
 20
163.6348749709738
 30
0.0
 10
155.9114104038137
 20
163.4883515446889
 30
0.0
 10
155.9114104038137
 20
163.1880841636207
 30
0.0
 10
155.9114104038137
 20
163.0312643034394
 30
0.0
 10
155.9114104038137
 20
162.5685791071202
 30
0.0
 10
155.9114104038138
 20
162.2669914898377
 30
0.0
 10
155.9114104038138
 20
161.6951125724817
 30
0.0
 10
155.9114104038138
 20
161.4200020396093
 30
0.0
 10
155.9114104038138
 20
161.1471478228403
 30
0.0
  0
SPLINE
  5
14B
330
1F
100
AcDbEntity
  8
0
  6
Continuous
 62
     7
370
    15
100
AcDbSpline
210
0.0
220
0.0
230
1.0
 70
    24
 71
     3
 72
    16
 73
    12
 74
     0
 42
0.00000001
 43
0.00000001
 12
1.0
 22
0.0
 32
0.0
 13
1.0
 23
0.0
 33
0.0
 40
0.0
 40
0.0
 40
0.0
 40
0.0
 40
0.2500000000000052
 40
0.2500000000000052
 40
0.375000000000008
 40
0.375000000000008
 40
0.5000000000000109
 40
0.5000000000000109
 40
0.7500000000000054
 40
0.7500000000000054
 40
1.0
 40
1.0
 40
1.0
 40
1.0
 10
155.9114104038142
 20
124.6218368355077
 30
0.0
 10
155.9114104038142
 20
124.3462497434424
 30
0.0
 10
155.9114104038142
 20
124.0683952240448
 30
0.0
 10
155.9114104038142
 20
123.6348749709738
 30
0.0
 10
155.9114104038142
 20
123.4883515446889
 30
0.0
 10
155.9114104038142
 20
123.1880841636207
 30
0.0
 10
155.9114104038142
 20
123.0312643034394
 30
0.0
 10
155.9114104038142
 20
122.5685791071203
 30
0.0
 10
155.9114104038142
 20
122.2669914898378
 30
0.0
 10
155.9114104038142
 20
121.6951125724818
 30
0.0
 10
155.9114104038142
 20
121.4200020396093
 30
0.0
 10
155.9114104038142
 20
121.1471478228404
 30
0.0
  0
CIRCLE
  5
14C
330
1F
100
AcDbEntity
  8
0
  6
Continuous
 62
     7
370
    15
100
AcDbCircle
 10
151.9114104038
 20
233.8844923292
 30
0.0
 40
2.749999999999993
  0
CIRCLE
  5
14D
330
1F
100
AcDbEntity
  8
0
  6
Continuous
 62
     7
370
    15
100
AcDbCircle
 10
151.9114104038
 20
233.8844923292
 30
0.0
 40
3.750000000000004
  0
CIRCLE
  5
14E
330
1F
100
AcDbEntity
  8
0
  6
Continuous
 62
     7
370
    15
100
AcDbCircle
 10
151.9114104038
 20
193.8844923292
 30
0.0
 40
2.749999999999996
  0
CIRCLE
  5
14F
330
1F
100
AcDbEntity
  8
0
  6
Continuous
 62
     7
370
    15
100
AcDbCircle
 10
151.9114104038
 20
193.8844923292
 30
0.0
 40
3.749999999999985
  0
CIRCLE
  5
150
330
1F
100
AcDbEntity
  8
0
  6
Continuous
 62
     7
370
    15
100
AcDbCircle
 10
151.9114104038
 20
177.8844923292
 30
0.0
 40
3.750000000000004
  0
CIRCLE
  5
151
330
1F
100
AcDbEntity
  8
0
  6
Continuous
 62
     7
370
    15
100
AcDbCircle
 10
151.9114104038
 20
177.8844923292
 30
0.0
 40
2.75
  0
CIRCLE
  5
152
330
1F
100
AcDbEntity
  8
0
  6
Continuous
 62
     7
370
    15
100
AcDbCircle
 10
151.9114104038
 20
137.8844923292
 30
0.0
 40
2.750000000000015
  0
CIRCLE
  5
153
330
1F
100
AcDbEntity
  8
0
  6
Continuous
 62
     7
370
    15
100
AcDbCircle
 10
151.9114104038
 20
137.8844923292
 30
0.0
 40
3.750000000000026
  0
DIMENSION
  5
154
330
1F
100
AcDbEntity
  8
0
  6
Continuous
 62
     7
370
     0
100
AcDbDimension
  2
_D
 10
182.9114354038
 20
115.8844923292
 30
0.0
 11
182.9114354038
 21
185.8844923292
 31
0.0
 70
   160
  1
<>
 71
     2
 42
-1.0
  3
SLDDIMSTYLE0
100
AcDbAlignedDimension
 13
163.9114104038
 23
255.8844923292
 33
0.0
 14
163.9114104038
 24
115.8844923292
 34
0.0
 50
90.0
100
AcDbRotatedDimension
  0
LINE
  5
160
330
1F
100
AcDbEntity
  8
0
  6
Continuous
 62
     7
370
    15
100
AcDbLine
 10
147.9114111249
 20
83.3633922808
 30
0.0
 11
147.9114111249
 21
82.5633936398
 31
0.0
  0
LINE
  5
161
330
1F
100
AcDbEntity
  8
0
  6
Continuous
 62
     7
370
    15
100
AcDbLine
 10
151.9114099179
 20
83.2633924506
 30
0.0
 11
152.1114095782
 21
83.0633927904
 31
0.0
  0
LINE
  5
162
330
1F
100
AcDbEntity
  8
0
  6
Continuous
 62
     7
370
    15
100
AcDbLine
 10
161.7114100341
 20
83.0633927904
 30
0.0
 11
161.9114106257
 21
83.2633924506
 31
0.0
  0
LINE
  5
163
330
1F
100
AcDbEntity
  8
0
  6
Continuous
 62
     7
370
    15
100
AcDbLine
 10
161.9114106257
 20
83.2633924506
 30
0.0
 11
161.9114106257
 21
84.863393458
 31
0.0
  0
LINE
  5
164
330
1F
100
AcDbEntity
  8
0
  6
Continuous
 62
     7
370
    15
100
AcDbLine
 10
151.9114099179
 20
84.863393458
 30
0.0
 11
151.9114099179
 21
83.2633924506
 31
0.0
  0
LINE
  5
165
330
1F
100
AcDbEntity
  8
0
  6
Continuous
 62
     7
370
    15
100
AcDbLine
 10
161.9114106257
 20
84.863393458
 30
0.0
 11
161.7114100341
 21
85.0633931182
 31
0.0
  0
LINE
  5
166
330
1F
100
AcDbEntity
  8
0
  6
Continuous
 62
     7
370
    15
100
AcDbLine
 10
152.1114095782
 20
85.0633931182
 30
0.0
 11
151.9114099179
 21
84.863393458
 31
0.0
  0
LINE
  5
167
330
1F
100
AcDbEntity
  8
0
  6
Continuous
 62
     7
370
    15
100
AcDbLine
 10
153.9114102457
 20
91.5633932523
 30
0.0
 11
153.9114102457
 21
91.063392239
 31
0.0
  0
LINE
  5
168
330
1F
100
AcDbEntity
  8
0
  6
Continuous
 62
     7
370
    15
100
AcDbLine
 10
159.9114102979
 20
91.063392239
 30
0.0
 11
159.9114102979
 21
91.5633932523
 31
0.0
  0
LINE
  5
169
330
1F
100
AcDbEntity
  8
0
  6
Continuous
 62
     7
370
    15
100
AcDbLine
 10
159.9114102979
 20
91.5633932523
 30
0.0
 11
159.8016185422
 21
92.0025584124
 31
0.0
  0
LINE
  5
16A
330
1F
100
AcDbEntity
  8
0
  6
Continuous
 62
     7
370
    15
100
AcDbLine
 10
154.0212020014
 20
92.0025584124
 30
0.0
 11
153.9114102457
 21
91.5633932523
 31
0.0
  0
LINE
  5
16B
330
1F
100
AcDbEntity
  8
0
  6
Continuous
 62
     7
370
    15
100
AcDbLine
 10
159.8016185422
 20
92.0025584124
 30
0.0
 11
159.6614107226
 21
92.5633934162
 31
0.0
  0
LINE
  5
16C
330
1F
100
AcDbEntity
  8
0
  6
Continuous
 62
     7
370
    15
100
AcDbLine
 10
147.6614106183
 20
83.563391941
 30
0.0
 11
147.8614102785
 21
83.3633922808
 31
0.0
  0
LINE
  5
16D
330
1F
100
AcDbEntity
  8
0
  6
Continuous
 62
     7
370
    15
100
AcDbLine
 10
147.6614106183
 20
85.1633929483
 30
0.0
 11
147.6614106183
 21
83.563391941
 31
0.0
  0
LINE
  5
16E
330
1F
100
AcDbEntity
  8
0
  6
Continuous
 62
     7
370
    15
100
AcDbLine
 10
147.8614102785
 20
85.3633926086
 30
0.0
 11
147.6614106183
 21
85.1633929483
 31
0.0
  0
LINE
  5
16F
330
1F
100
AcDbEntity
  8
0
  6
Continuous
 62
     7
370
    15
100
AcDbLine
 10
149.6614109461
 20
91.8633927427
 30
0.0
 11
149.6614109461
 21
90.8633925788
 31
0.0
  0
LINE
  5
170
330
1F
100
AcDbEntity
  8
0
  6
Continuous
 62
     7
370
    15
100
AcDbLine
 10
149.9114095901
 20
92.8633929066
 30
0.0
 11
149.6614109461
 21
91.8633927427
 31
0.0
  0
LINE
  5
171
330
1F
100
AcDbEntity
  8
0
  6
Continuous
 62
     7
370
    15
100
AcDbLine
 10
154.0739111339
 20
92.2133930795
 30
0.0
 11
153.9114102457
 21
92.8633929066
 31
0.0
  0
LINE
  5
172
330
1F
100
AcDbEntity
  8
0
  6
Continuous
 62
     7
370
    15
100
AcDbLine
 10
161.4114105438
 20
85.0633931182
 30
0.0
 11
161.4114105438
 21
90.0633920751
 31
0.0
  0
LINE
  5
173
330
1F
100
AcDbEntity
  8
0
  6
Continuous
 62
     7
370
    15
100
AcDbLine
 10
152.4114109312
 20
90.0633920751
 30
0.0
 11
152.4114109312
 21
85.0633931182
 31
0.0
  0
LINE
  5
174
330
1F
100
AcDbEntity
  8
0
  6
Continuous
 62
     7
370
    15
100
AcDbLine
 10
161.4114105438
 20
90.0633920751
 30
0.0
 11
160.4114103799
 21
91.063392239
 31
0.0
  0
LINE
  5
175
330
1F
100
AcDbEntity
  8
0
  6
Continuous
 62
     7
370
    15
100
AcDbLine
 10
153.4114110951
 20
91.063392239
 30
0.0
 11
152.4114109312
 21
90.0633920751
 31
0.0
  0
LINE
  5
176
330
1F
100
AcDbEntity
  8
0
  6
Continuous
 62
     7
370
    15
100
AcDbLine
 10
161.4114105438
 20
82.5633936398
 30
0.0
 11
161.4114105438
 21
83.0633927904
 31
0.0
  0
LINE
  5
177
330
1F
100
AcDbEntity
  8
0
  6
Continuous
 62
     7
370
    15
100
AcDbLine
 10
152.4114109312
 20
83.0633927904
 30
0.0
 11
152.4114109312
 21
82.5633936398
 31
0.0
  0
LINE
  5
178
330
1F
100
AcDbEntity
  8
0
  6
Continuous
 62
     7
370
    15
100
AcDbLine
 10
148.1614097689
 20
89.8633924149
 30
0.0
 11
148.1614097689
 21
85.3633926086
 31
0.0
  0
LINE
  5
179
330
1F
100
AcDbEntity
  8
0
  6
Continuous
 62
     7
370
    15
100
AcDbLine
 10
149.1614099328
 20
90.8633925788
 30
0.0
 11
148.1614097689
 21
89.8633924149
 31
0.0
  0
LINE
  5
17A
330
1F
100
AcDbEntity
  8
0
  6
Continuous
 62
     7
370
    15
100
AcDbLine
 10
152.1862487976
 20
83.0633927904
 30
0.0
 11
152.1114095782
 21
83.0633927904
 31
0.0
  0
LINE
  5
17B
330
1F
100
AcDbEntity
  8
0
  6
Continuous
 62
     7
370
    15
100
AcDbLine
 10
161.7114100341
 20
83.0633927904
 30
0.0
 11
152.1862487976
 21
83.0633927904
 31
0.0
  0
LINE
  5
17C
330
1F
100
AcDbEntity
  8
0
  6
Continuous
 62
     7
370
    15
100
AcDbLine
 10
151.9893672053
 20
83.2633924506
 30
0.0
 11
161.9114106257
 21
83.2633924506
 31
0.0
  0
LINE
  5
17D
330
1F
100
AcDbEntity
  8
0
  6
Continuous
 62
     7
370
    15
100
AcDbLine
 10
151.9114099179
 20
83.2633924506
 30
0.0
 11
151.9893672053
 21
83.2633924506
 31
0.0
  0
LINE
  5
17E
330
1F
100
AcDbEntity
  8
0
  6
Continuous
 62
     7
370
    15
100
AcDbLine
 10
151.9893672053
 20
84.863393458
 30
0.0
 11
151.9114099179
 21
84.863393458
 31
0.0
  0
LINE
  5
17F
330
1F
100
AcDbEntity
  8
0
  6
Continuous
 62
     7
370
    15
100
AcDbLine
 10
161.9114106257
 20
84.863393458
 30
0.0
 11
151.9893672053
 21
84.863393458
 31
0.0
  0
LINE
  5
180
330
1F
100
AcDbEntity
  8
0
  6
Continuous
 62
     7
370
    15
100
AcDbLine
 10
152.1862487976
 20
85.0633931182
 30
0.0
 11
161.7114100341
 21
85.0633931182
 31
0.0
  0
LINE
  5
181
330
1F
100
AcDbEntity
  8
0
  6
Continuous
 62
     7
370
    15
100
AcDbLine
 10
152.1114095782
 20
85.0633931182
 30
0.0
 11
152.1862487976
 21
85.0633931182
 31
0.0
  0
LINE
  5
182
330
1F
100
AcDbEntity
  8
0
  6
Continuous
 62
     7
370
    15
100
AcDbLine
 10
153.9115424935
 20
91.5633932523
 30
0.0
 11
154.0874395256
 21
91.5633932523
 31
0.0
  0
LINE
  5
183
330
1F
100
AcDbEntity
  8
0
  6
Continuous
 62
     7
370
    15
100
AcDbLine
 10
154.0874395256
 20
91.5633932523
 30
0.0
 11
156.9395161901
 21
91.5633932523
 31
0.0
  0
LINE
  5
184
330
1F
100
AcDbEntity
  8
0
  6
Continuous
 62
     7
370
    15
100
AcDbLine
 10
157.9239250828
 20
91.5633932523
 30
0.0
 11
156.9395161901
 21
91.5633932523
 31
0.0
  0
LINE
  5
185
330
1F
100
AcDbEntity
  8
0
  6
Continuous
 62
     7
370
    15
100
AcDbLine
 10
157.9239250828
 20
91.5633932523
 30
0.0
 11
159.9112789814
 21
91.5633932523
 31
0.0
  0
SPLINE
  5
186
330
1F
100
AcDbEntity
  8
0
  6
Continuous
 62
     7
370
    15
100
AcDbSpline
210
0.0
220
0.0
230
1.0
 70
     8
 71
     3
 72
     8
 73
     4
 74
     0
 42
0.00000001
 43
0.00000001
 12
1.0
 22
0.0
 32
0.0
 13
1.0
 23
0.0
 33
0.0
 40
0.0
 40
0.0
 40
0.0
 40
0.0
 40
1.0
 40
1.0
 40
1.0
 40
1.0
 10
154.0874389417161
 20
91.56339271507993
 30
0.0
 10
154.1706431931707
 20
91.89675225091617
 30
0.0
 10
154.2539397503855
 20
92.23008822929314
 30
0.0
 10
154.3373570870843
 20
92.56339271507993
 30
0.0
  0
LINE
  5
187
330
1F
100
AcDbEntity
  8
0
  6
Continuous
 62
     7
370
    15
100
AcDbLine
 10
154.3373562132
 20
92.5633934162
 30
0.0
 11
156.894860204
 21
92.5633934162
 31
0.0
  0
SPLINE
  5
188
330
1F
100
AcDbEntity
  8
0
  6
Continuous
 62
     7
370
    15
100
AcDbSpline
210
0.0
220
0.0
230
1.0
 70
     8
 71
     3
 72
    11
 73
     7
 74
     0
 42
0.00000001
 43
0.00000001
 12
1.0
 22
0.0
 32
0.0
 13
1.0
 23
0.0
 33
0.0
 40
0.0041333666424306
 40
0.0041333666424306
 40
0.0041333666424306
 40
0.0041333666424306
 40
0.0046138376121394
 40
0.0046138376121394
 40
0.0046138376121394
 40
0.0051650880369003
 40
0.0051650880369003
 40
0.0051650880369003
 40
0.0051650880369003
 10
156.8948600199849
 20
92.56339271507993
 30
0.0
 10
156.9018013700806
 20
92.4081732973389
 30
0.0
 10
156.9087380105383
 20
92.25294707049785
 30
0.0
 10
156.9156705082376
 20
92.0977148663778
 30
0.0
 10
156.9236242500731
 20
91.91961500544984
 30
0.0
 10
156.9315725399384
 20
91.74150727290822
 30
0.0
 10
156.9395160928037
 20
91.56339271507993
 30
0.0
  0
LINE
  5
189
330
1F
100
AcDbEntity
  8
0
  6
Continuous
 62
     7
370
    15
100
AcDbLine
 10
157.8792681654
 20
92.5633934162
 30
0.0
 11
159.6613604312
 21
92.5633934162
 31
0.0
  0
SPLINE
  5
18A
330
1F
100
AcDbEntity
  8
0
  6
Continuous
 62
     7
370
    15
100
AcDbSpline
210
0.0
220
0.0
230
1.0
 70
     8
 71
     3
 72
     9
 73
     5
 74
     0
 42
0.00000001
 43
0.00000001
 12
1.0
 22
0.0
 32
0.0
 13
1.0
 23
0.0
 33
0.0
 40
0.0
 40
0.0
 40
0.0
 40
0.0
 40
0.6428262882483883
 40
1.0
 40
1.0
 40
1.0
 40
1.0
 10
159.6613604311604
 20
92.56339341623884
 30
0.0
 10
159.6914133728914
 20
92.44330140167317
 30
0.0
 10
159.7381646372381
 20
92.25648263467329
 30
0.0
 10
159.7848250707853
 20
92.06964010442545
 30
0.0
 10
159.8014909510274
 20
92.00290486438375
 30
0.0
  0
SPLINE
  5
18B
330
1F
100
AcDbEntity
  8
0
  6
Continuous
 62
     7
370
    15
100
AcDbSpline
210
0.0
220
0.0
230
1.0
 70
     8
 71
     3
 72
     8
 73
     4
 74
     0
 42
0.00000001
 43
0.00000001
 12
1.0
 22
0.0
 32
0.0
 13
1.0
 23
0.0
 33
0.0
 40
0.0
 40
0.0
 40
0.0
 40
0.0
 40
1.0
 40
1.0
 40
1.0
 40
1.0
 10
157.9239246906933
 20
91.56339271507993
 30
0.0
 10
157.9090575212408
 20
91.89675227824927
 30
0.0
 10
157.8941738591097
 20
92.23008826653145
 30
0.0
 10
157.8792686178744
 20
92.56339271507993
 30
0.0
  0
LINE
  5
18C
330
1F
100
AcDbEntity
  8
0
  6
Continuous
 62
     7
370
    15
100
AcDbLine
 10
157.7442375679
 20
92.5633934162
 30
0.0
 11
157.7442375679
 21
91.5633932523
 31
0.0
  0
LINE
  5
18D
330
1F
100
AcDbEntity
  8
0
  6
Continuous
 62
     7
370
    15
100
AcDbLine
 10
157.8792681654
 20
92.5633934162
 30
0.0
 11
157.7442375679
 21
92.5633934162
 31
0.0
  0
LINE
  5
18E
330
1F
100
AcDbEntity
  8
0
  6
Continuous
 62
     7
370
    15
100
AcDbLine
 10
157.0629918684
 20
91.5633932523
 30
0.0
 11
157.0629918684
 21
92.5633934162
 31
0.0
  0
LINE
  5
18F
330
1F
100
AcDbEntity
  8
0
  6
Continuous
 62
     7
370
    15
100
AcDbLine
 10
157.7442375679
 20
92.5633934162
 30
0.0
 11
157.0629918684
 21
92.5633934162
 31
0.0
  0
LINE
  5
190
330
1F
100
AcDbEntity
  8
0
  6
Continuous
 62
     7
370
    15
100
AcDbLine
 10
154.3373562132
 20
92.5633934162
 30
0.0
 11
154.1614610438
 21
92.5633934162
 31
0.0
  0
SPLINE
  5
191
330
1F
100
AcDbEntity
  8
0
  6
Continuous
 62
     7
370
    15
100
AcDbSpline
210
0.0
220
0.0
230
1.0
 70
     8
 71
     3
 72
    11
 73
     7
 74
     0
 42
0.00000001
 43
0.00000001
 12
1.0
 22
0.0
 32
0.0
 13
1.0
 23
0.0
 33
0.0
 40
0.0041996937790339
 40
0.0041996937790339
 40
0.0041996937790339
 40
0.0041996937790339
 40
0.0045714279294727
 40
0.0045714279294727
 40
0.0045714279294727
 40
0.0052314151081104
 40
0.0052314151081104
 40
0.0052314151081104
 40
0.0052314151081104
 10
154.1614602070634
 20
92.56339271507993
 30
0.0
 10
154.131404526672
 20
92.44330145474616
 30
0.0
 10
154.1013646345911
 20
92.32320611592498
 30
0.0
 10
154.0713390331512
 20
92.20310709141019
 30
0.0
 10
154.0180307491478
 20
91.98987995855167
 30
0.0
 10
153.9647674251648
 20
91.77664122282705
 30
0.0
 10
153.9115420616953
 20
91.56339271507993
 30
0.0
  0
LINE
  5
192
330
1F
100
AcDbEntity
  8
0
  6
Continuous
 62
     7
370
    15
100
AcDbLine
 10
156.9279603396
 20
92.5633934162
 30
0.0
 11
156.9114107375
 21
92.1930436812
 31
0.0
  0
LINE
  5
193
330
1F
100
AcDbEntity
  8
0
  6
Continuous
 62
     7
370
    15
100
AcDbLine
 10
157.0629918684
 20
92.5633934162
 30
0.0
 11
156.9279603396
 21
92.5633934162
 31
0.0
  0
LINE
  5
194
330
1F
100
AcDbEntity
  8
0
  6
Continuous
 62
     7
370
    15
100
AcDbLine
 10
151.9114099179
 20
83.3633922808
 30
0.0
 11
147.8614102785
 21
83.3633922808
 31
0.0
  0
LINE
  5
195
330
1F
100
AcDbEntity
  8
0
  6
Continuous
 62
     7
370
    15
100
AcDbLine
 10
147.6614106183
 20
83.563391941
 30
0.0
 11
151.9114099179
 21
83.563391941
 31
0.0
  0
LINE
  5
196
330
1F
100
AcDbEntity
  8
0
  6
Continuous
 62
     7
370
    15
100
AcDbLine
 10
152.4114109312
 20
85.1633929483
 30
0.0
 11
147.6614106183
 21
85.1633929483
 31
0.0
  0
LINE
  5
197
330
1F
100
AcDbEntity
  8
0
  6
Continuous
 62
     7
370
    15
100
AcDbLine
 10
147.8614102785
 20
85.3633926086
 30
0.0
 11
152.4114109312
 21
85.3633926086
 31
0.0
  0
LINE
  5
198
330
1F
100
AcDbEntity
  8
0
  6
Continuous
 62
     7
370
    15
100
AcDbLine
 10
152.1645005529
 20
91.8633927427
 30
0.0
 11
153.1083121632
 21
91.8633927427
 31
0.0
  0
LINE
  5
199
330
1F
100
AcDbEntity
  8
0
  6
Continuous
 62
     7
370
    15
100
AcDbLine
 10
153.1083121632
 20
91.8633927427
 30
0.0
 11
153.9864096527
 21
91.8633927427
 31
0.0
  0
LINE
  5
19A
330
1F
100
AcDbEntity
  8
0
  6
Continuous
 62
     7
370
    15
100
AcDbLine
 10
149.6614109461
 20
91.8633927427
 30
0.0
 11
152.1645005529
 21
91.8633927427
 31
0.0
  0
LINE
  5
19B
330
1F
100
AcDbEntity
  8
0
  6
Continuous
 62
     7
370
    15
100
AcDbLine
 10
149.9114095901
 20
92.8633929066
 30
0.0
 11
152.0794838403
 21
92.8633929066
 31
0.0
  0
SPLINE
  5
19C
330
1F
100
AcDbEntity
  8
0
  6
Continuous
 62
     7
370
    15
100
AcDbSpline
210
0.0
220
0.0
230
1.0
 70
     8
 71
     3
 72
     8
 73
     4
 74
     0
 42
0.00000001
 43
0.00000001
 12
1.0
 22
0.0
 32
0.0
 13
1.0
 23
0.0
 33
0.0
 40
0.0
 40
0.0
 40
0.0
 40
0.0
 40
1.0
 40
1.0
 40
1.0
 40
1.0
 10
152.0794837614762
 20
92.86339271506202
 30
0.0
 10
152.1079207562193
 20
92.53013584407604
 30
0.0
 10
152.1362482545694
 20
92.1967931464739
 30
0.0
 10
152.1645005362689
 20
91.86339271506202
 30
0.0
  0
SPLINE
  5
19D
330
1F
100
AcDbEntity
  8
0
  6
Continuous
 62
     7
370
    15
100
AcDbSpline
210
0.0
220
0.0
230
1.0
 70
     8
 71
     3
 72
     8
 73
     4
 74
     0
 42
0.00000001
 43
0.00000001
 12
1.0
 22
0.0
 32
0.0
 13
1.0
 23
0.0
 33
0.0
 40
0.0
 40
0.0
 40
0.0
 40
0.0
 40
1.0
 40
1.0
 40
1.0
 40
1.0
 10
153.1083121902494
 20
91.86339271506205
 30
0.0
 10
153.0800598935591
 20
92.19679332337932
 30
0.0
 10
153.05173234928
 20
92.53013655800396
 30
0.0
 10
153.0232954154567
 20
92.86339271506203
 30
0.0
  0
LINE
  5
19E
330
1F
100
AcDbEntity
  8
0
  6
Continuous
 62
     7
370
    15
100
AcDbLine
 10
153.0232954507
 20
92.8633929066
 30
0.0
 11
153.9114102457
 21
92.8633929066
 31
0.0
  0
LINE
  5
19F
330
1F
100
AcDbEntity
  8
0
  6
Continuous
 62
     7
370
    15
100
AcDbLine
 10
152.7619328086
 20
92.8633929066
 30
0.0
 11
152.7619328086
 21
91.8633927427
 31
0.0
  0
LINE
  5
1A0
330
1F
100
AcDbEntity
  8
0
  6
Continuous
 62
     7
370
    15
100
AcDbLine
 10
153.0232954507
 20
92.8633929066
 30
0.0
 11
152.7619328086
 21
92.8633929066
 31
0.0
  0
LINE
  5
1A1
330
1F
100
AcDbEntity
  8
0
  6
Continuous
 62
     7
370
    15
100
AcDbLine
 10
152.7619328086
 20
92.8633929066
 30
0.0
 11
152.0794838403
 21
92.8633929066
 31
0.0
  0
LINE
  5
1A2
330
1F
100
AcDbEntity
  8
0
  6
Continuous
 62
     7
370
    15
100
AcDbLine
 10
161.4114105438
 20
90.0633920751
 30
0.0
 11
152.4114109312
 21
90.0633920751
 31
0.0
  0
LINE
  5
1A3
330
1F
100
AcDbEntity
  8
0
  6
Continuous
 62
     7
370
    15
100
AcDbLine
 10
160.4114103799
 20
91.063392239
 30
0.0
 11
153.4114110951
 21
91.063392239
 31
0.0
  0
LINE
  5
1A4
330
1F
100
AcDbEntity
  8
0
  6
Continuous
 62
     7
370
    15
100
AcDbLine
 10
141.9114101414
 20
82.5633936398
 30
0.0
 11
141.9114101414
 21
69.5633924402
 31
0.0
  0
LINE
  5
1A5
330
1F
100
AcDbEntity
  8
0
  6
Continuous
 62
     7
370
    15
100
AcDbLine
 10
141.9114101414
 20
69.5633924402
 30
0.0
 11
163.9114104879
 21
69.5633924402
 31
0.0
  0
LINE
  5
1A6
330
1F
100
AcDbEntity
  8
0
  6
Continuous
 62
     7
370
    15
100
AcDbLine
 10
163.9114104879
 20
82.5633936398
 30
0.0
 11
163.9114104879
 21
69.5633924402
 31
0.0
  0
LINE
  5
1A7
330
1F
100
AcDbEntity
  8
0
  6
Continuous
 62
     7
370
    15
100
AcDbLine
 10
141.9114101414
 20
82.5633936398
 30
0.0
 11
163.9114104879
 21
82.5633936398
 31
0.0
  0
LINE
  5
1A8
330
1F
100
AcDbEntity
  8
0
  6
Continuous
 62
     7
370
    15
100
AcDbLine
 10
166.911410514
 20
82.5633936398
 30
0.0
 11
166.911410514
 21
77.5633928202
 31
0.0
  0
LINE
  5
1A9
330
1F
100
AcDbEntity
  8
0
  6
Continuous
 62
     7
370
    15
100
AcDbLine
 10
166.911410514
 20
77.5633928202
 30
0.0
 11
163.9114104879
 21
77.5633928202
 31
0.0
  0
LINE
  5
1AA
330
1F
100
AcDbEntity
  8
0
  6
Continuous
 62
     7
370
    15
100
AcDbLine
 10
166.911410514
 20
82.5633936398
 30
0.0
 11
163.9114104879
 21
82.5633936398
 31
0.0
  0
LINE
  5
1AB
330
1F
100
AcDbEntity
  8
0
  6
Continuous
 62
     7
370
    15
100
AcDbLine
 10
152.4114109312
 20
89.8633924149
 30
0.0
 11
148.1614097689
 21
89.8633924149
 31
0.0
  0
LINE
  5
1AC
330
1F
100
AcDbEntity
  8
0
  6
Continuous
 62
     7
370
    15
100
AcDbLine
 10
153.2114095722
 20
90.8633925788
 30
0.0
 11
149.1614099328
 21
90.8633925788
 31
0.0
  0
DIMENSION
  5
1AD
330
1F
100
AcDbEntity
  8
0
  6
Continuous
 62
     7
370
     0
100
AcDbDimension
  2
_D_1
 10
166.9114104038
 20
59.5633927151
 30
0.0
 11
154.4114104038
 21
59.5633927151
 31
0.0
 70
   160
  1
<>
 71
     2
 42
-1.0
  3
SLDDIMSTYLE0
100
AcDbAlignedDimension
 13
141.9114104038
 23
69.5633927151
 33
0.0
 14
166.9114104038
 24
77.5633927151
 34
0.0
 50
0.0
100
AcDbRotatedDimension
  0
LINE
  5
1B7
330
1F
100
AcDbEntity
  8
0
  6
Continuous
 62
     7
370
    15
100
AcDbLine
 10
83.4332680122
 20
229.8844914113
 30
0.0
 11
84.2332666532
 21
229.8844914113
 31
0.0
  0
LINE
  5
1B8
330
1F
100
AcDbEntity
  8
0
  6
Continuous
 62
     7
370
    15
100
AcDbLine
 10
84.2332666532
 20
237.8844927226
 30
0.0
 11
83.4332680122
 21
237.8844927226
 31
0.0
  0
LINE
  5
1B9
330
1F
100
AcDbEntity
  8
0
  6
Continuous
 62
     7
370
    15
100
AcDbLine
 10
84.2332666532
 20
181.884492391
 30
0.0
 11
83.4332680122
 21
181.884492391
 31
0.0
  0
LINE
  5
1BA
330
1F
100
AcDbEntity
  8
0
  6
Continuous
 62
     7
370
    15
100
AcDbLine
 10
83.4332680122
 20
173.8844924767
 30
0.0
 11
84.2332666532
 21
173.8844924767
 31
0.0
  0
LINE
  5
1BB
330
1F
100
AcDbEntity
  8
0
  6
Continuous
 62
     7
370
    15
100
AcDbLine
 10
84.2332666532
 20
141.8844918881
 30
0.0
 11
83.4332680122
 21
141.8844918881
 31
0.0
  0
LINE
  5
1BC
330
1F
100
AcDbEntity
  8
0
  6
Continuous
 62
     7
370
    15
100
AcDbLine
 10
83.4332680122
 20
133.8844905768
 30
0.0
 11
84.2332666532
 21
133.8844905768
 31
0.0
  0
LINE
  5
1BD
330
1F
100
AcDbEntity
  8
0
  6
Continuous
 62
     7
370
    15
100
AcDbLine
 10
84.1332668231
 20
167.8844924245
 30
0.0
 11
83.9332671628
 21
167.6844927643
 31
0.0
  0
LINE
  5
1BE
330
1F
100
AcDbEntity
  8
0
  6
Continuous
 62
     7
370
    15
100
AcDbLine
 10
83.9332671628
 20
158.0844923083
 30
0.0
 11
84.1332668231
 21
157.884492648
 31
0.0
  0
LINE
  5
1BF
330
1F
100
AcDbEntity
  8
0
  6
Continuous
 62
     7
370
    15
100
AcDbLine
 10
84.1332668231
 20
157.884492648
 30
0.0
 11
85.7332678304
 21
157.884492648
 31
0.0
  0
LINE
  5
1C0
330
1F
100
AcDbEntity
  8
0
  6
Continuous
 62
     7
370
    15
100
AcDbLine
 10
85.7332678304
 20
167.8844924245
 30
0.0
 11
84.1332668231
 21
167.8844924245
 31
0.0
  0
LINE
  5
1C1
330
1F
100
AcDbEntity
  8
0
  6
Continuous
 62
     7
370
    15
100
AcDbLine
 10
85.7332678304
 20
157.884492648
 30
0.0
 11
85.9332674907
 21
158.0844923083
 31
0.0
  0
LINE
  5
1C2
330
1F
100
AcDbEntity
  8
0
  6
Continuous
 62
     7
370
    15
100
AcDbLine
 10
85.9332674907
 20
167.6844927643
 30
0.0
 11
85.7332678304
 21
167.8844924245
 31
0.0
  0
LINE
  5
1C3
330
1F
100
AcDbEntity
  8
0
  6
Continuous
 62
     7
370
    15
100
AcDbLine
 10
92.4332676248
 20
165.8844920967
 30
0.0
 11
91.9332666115
 21
165.8844920967
 31
0.0
  0
LINE
  5
1C4
330
1F
100
AcDbEntity
  8
0
  6
Continuous
 62
     7
370
    15
100
AcDbLine
 10
91.9332666115
 20
159.8844929759
 30
0.0
 11
92.4332676248
 21
159.8844929759
 31
0.0
  0
LINE
  5
1C5
330
1F
100
AcDbEntity
  8
0
  6
Continuous
 62
     7
370
    15
100
AcDbLine
 10
84.1332668231
 20
127.8844933186
 30
0.0
 11
83.9332671628
 21
127.6844936583
 31
0.0
  0
LINE
  5
1C6
330
1F
100
AcDbEntity
  8
0
  6
Continuous
 62
     7
370
    15
100
AcDbLine
 10
83.9332671628
 20
118.084495065
 30
0.0
 11
84.1332668231
 21
117.8844916795
 31
0.0
  0
LINE
  5
1C7
330
1F
100
AcDbEntity
  8
0
  6
Continuous
 62
     7
370
    15
100
AcDbLine
 10
84.1332668231
 20
117.8844916795
 30
0.0
 11
85.7332678304
 21
117.8844916795
 31
0.0
  0
LINE
  5
1C8
330
1F
100
AcDbEntity
  8
0
  6
Continuous
 62
     7
370
    15
100
AcDbLine
 10
85.7332678304
 20
127.8844933186
 30
0.0
 11
84.1332668231
 21
127.8844933186
 31
0.0
  0
LINE
  5
1C9
330
1F
100
AcDbEntity
  8
0
  6
Continuous
 62
     7
370
    15
100
AcDbLine
 10
85.7332678304
 20
117.8844916795
 30
0.0
 11
85.9332674907
 21
118.084495065
 31
0.0
  0
LINE
  5
1CA
330
1F
100
AcDbEntity
  8
0
  6
Continuous
 62
     7
370
    15
100
AcDbLine
 10
85.9332674907
 20
127.6844936583
 30
0.0
 11
85.7332678304
 21
127.8844933186
 31
0.0
  0
LINE
  5
1CB
330
1F
100
AcDbEntity
  8
0
  6
Continuous
 62
     7
370
    15
100
AcDbLine
 10
92.4332676248
 20
125.8844929908
 30
0.0
 11
91.9332666115
 21
125.8844929908
 31
0.0
  0
LINE
  5
1CC
330
1F
100
AcDbEntity
  8
0
  6
Continuous
 62
     7
370
    15
100
AcDbLine
 10
91.9332666115
 20
119.8844957326
 30
0.0
 11
92.4332676248
 21
119.8844957326
 31
0.0
  0
LINE
  5
1CD
330
1F
100
AcDbEntity
  8
0
  6
Continuous
 62
     7
370
    15
100
AcDbLine
 10
92.4332676248
 20
119.8844957326
 30
0.0
 11
92.8745953158
 21
119.9948239301
 31
0.0
  0
LINE
  5
1CE
330
1F
100
AcDbEntity
  8
0
  6
Continuous
 62
     7
370
    15
100
AcDbLine
 10
92.8745953158
 20
125.7741573427
 30
0.0
 11
92.4332676248
 21
125.8844929908
 31
0.0
  0
LINE
  5
1CF
330
1F
100
AcDbEntity
  8
0
  6
Continuous
 62
     7
370
    15
100
AcDbLine
 10
84.1332668231
 20
253.8844916199
 30
0.0
 11
83.9332671628
 21
253.6844956849
 31
0.0
  0
LINE
  5
1D0
330
1F
100
AcDbEntity
  8
0
  6
Continuous
 62
     7
370
    15
100
AcDbLine
 10
83.9332671628
 20
244.0844933663
 30
0.0
 11
84.1332668231
 21
243.884493706
 31
0.0
  0
LINE
  5
1D1
330
1F
100
AcDbEntity
  8
0
  6
Continuous
 62
     7
370
    15
100
AcDbLine
 10
84.1332668231
 20
243.884493706
 30
0.0
 11
85.7332678304
 21
243.884493706
 31
0.0
  0
LINE
  5
1D2
330
1F
100
AcDbEntity
  8
0
  6
Continuous
 62
     7
370
    15
100
AcDbLine
 10
85.7332678304
 20
253.8844916199
 30
0.0
 11
84.1332668231
 21
253.8844916199
 31
0.0
  0
LINE
  5
1D3
330
1F
100
AcDbEntity
  8
0
  6
Continuous
 62
     7
370
    15
100
AcDbLine
 10
85.7332678304
 20
243.884493706
 30
0.0
 11
85.9332674907
 21
244.0844933663
 31
0.0
  0
LINE
  5
1D4
330
1F
100
AcDbEntity
  8
0
  6
Continuous
 62
     7
370
    15
100
AcDbLine
 10
85.9332674907
 20
253.6844956849
 30
0.0
 11
85.7332678304
 21
253.8844916199
 31
0.0
  0
LINE
  5
1D5
330
1F
100
AcDbEntity
  8
0
  6
Continuous
 62
     7
370
    15
100
AcDbLine
 10
92.4332676248
 20
251.8844950173
 30
0.0
 11
91.9332666115
 21
251.8844950173
 31
0.0
  0
LINE
  5
1D6
330
1F
100
AcDbEntity
  8
0
  6
Continuous
 62
     7
370
    15
100
AcDbLine
 10
91.9332666115
 20
245.8844940339
 30
0.0
 11
92.4332676248
 21
245.8844940339
 31
0.0
  0
LINE
  5
1D7
330
1F
100
AcDbEntity
  8
0
  6
Continuous
 62
     7
370
    15
100
AcDbLine
 10
92.4332676248
 20
245.8844940339
 30
0.0
 11
93.4332677887
 21
246.1344908152
 31
0.0
  0
LINE
  5
1D8
330
1F
100
AcDbEntity
  8
0
  6
Continuous
 62
     7
370
    15
100
AcDbLine
 10
93.4332677887
 20
251.6344907854
 30
0.0
 11
92.4332676248
 21
251.8844950173
 31
0.0
  0
LINE
  5
1D9
330
1F
100
AcDbEntity
  8
0
  6
Continuous
 62
     7
370
    15
100
AcDbLine
 10
84.1332668231
 20
203.8844927375
 30
0.0
 11
85.7332678304
 21
203.8844927375
 31
0.0
  0
LINE
  5
1DA
330
1F
100
AcDbEntity
  8
0
  6
Continuous
 62
     7
370
    15
100
AcDbLine
 10
85.7332678304
 20
213.8844925139
 30
0.0
 11
84.1332668231
 21
213.8844925139
 31
0.0
  0
LINE
  5
1DB
330
1F
100
AcDbEntity
  8
0
  6
Continuous
 62
     7
370
    15
100
AcDbLine
 10
84.1332668231
 20
213.8844925139
 30
0.0
 11
83.9332671628
 21
213.6844928537
 31
0.0
  0
LINE
  5
1DC
330
1F
100
AcDbEntity
  8
0
  6
Continuous
 62
     7
370
    15
100
AcDbLine
 10
83.9332671628
 20
204.0844923977
 30
0.0
 11
84.1332668231
 21
203.8844927375
 31
0.0
  0
LINE
  5
1DD
330
1F
100
AcDbEntity
  8
0
  6
Continuous
 62
     7
370
    15
100
AcDbLine
 10
85.7332678304
 20
203.8844927375
 30
0.0
 11
85.9332674907
 21
204.0844923977
 31
0.0
  0
LINE
  5
1DE
330
1F
100
AcDbEntity
  8
0
  6
Continuous
 62
     7
370
    15
100
AcDbLine
 10
85.9332674907
 20
213.6844928537
 30
0.0
 11
85.7332678304
 21
213.8844925139
 31
0.0
  0
LINE
  5
1DF
330
1F
100
AcDbEntity
  8
0
  6
Continuous
 62
     7
370
    15
100
AcDbLine
 10
92.4332676248
 20
211.8844921861
 30
0.0
 11
91.9332666115
 21
211.8844921861
 31
0.0
  0
LINE
  5
1E0
330
1F
100
AcDbEntity
  8
0
  6
Continuous
 62
     7
370
    15
100
AcDbLine
 10
91.9332666115
 20
205.8844930653
 30
0.0
 11
92.4332676248
 21
205.8844930653
 31
0.0
  0
LINE
  5
1E1
330
1F
100
AcDbEntity
  8
0
  6
Continuous
 62
     7
370
    15
100
AcDbLine
 10
92.4332676248
 20
205.8844930653
 30
0.0
 11
93.4332677887
 21
206.1344917093
 31
0.0
  0
LINE
  5
1E2
330
1F
100
AcDbEntity
  8
0
  6
Continuous
 62
     7
370
    15
100
AcDbLine
 10
93.4332677887
 20
211.6344916795
 30
0.0
 11
92.4332676248
 21
211.8844921861
 31
0.0
  0
LINE
  5
1E3
330
1F
100
AcDbEntity
  8
0
  6
Continuous
 62
     7
370
    15
100
AcDbLine
 10
84.4332663135
 20
238.1344932292
 30
0.0
 11
84.2332666532
 21
237.9344935689
 31
0.0
  0
LINE
  5
1E4
330
1F
100
AcDbEntity
  8
0
  6
Continuous
 62
     7
370
    15
100
AcDbLine
 10
84.2332666532
 20
229.8344905649
 30
0.0
 11
84.4332663135
 21
229.6344909046
 31
0.0
  0
LINE
  5
1E5
330
1F
100
AcDbEntity
  8
0
  6
Continuous
 62
     7
370
    15
100
AcDbLine
 10
84.4332663135
 20
229.6344909046
 30
0.0
 11
86.0332673208
 21
229.6344909046
 31
0.0
  0
LINE
  5
1E6
330
1F
100
AcDbEntity
  8
0
  6
Continuous
 62
     7
370
    15
100
AcDbLine
 10
86.0332673208
 20
238.1344932292
 30
0.0
 11
84.4332663135
 21
238.1344932292
 31
0.0
  0
LINE
  5
1E7
330
1F
100
AcDbEntity
  8
0
  6
Continuous
 62
     7
370
    15
100
AcDbLine
 10
86.0332673208
 20
229.6344909046
 30
0.0
 11
86.233266981
 21
229.8344905649
 31
0.0
  0
LINE
  5
1E8
330
1F
100
AcDbEntity
  8
0
  6
Continuous
 62
     7
370
    15
100
AcDbLine
 10
86.233266981
 20
237.9344935689
 30
0.0
 11
86.0332673208
 21
238.1344932292
 31
0.0
  0
LINE
  5
1E9
330
1F
100
AcDbEntity
  8
0
  6
Continuous
 62
     7
370
    15
100
AcDbLine
 10
92.7332671152
 20
236.1344929014
 30
0.0
 11
91.7332669512
 21
236.1344929014
 31
0.0
  0
LINE
  5
1EA
330
1F
100
AcDbEntity
  8
0
  6
Continuous
 62
     7
370
    15
100
AcDbLine
 10
91.7332669512
 20
231.6344912324
 30
0.0
 11
92.7332671152
 21
231.6344912324
 31
0.0
  0
LINE
  5
1EB
330
1F
100
AcDbEntity
  8
0
  6
Continuous
 62
     7
370
    15
100
AcDbLine
 10
92.7332671152
 20
231.6344912324
 30
0.0
 11
93.7332672791
 21
231.8844917391
 31
0.0
  0
LINE
  5
1EC
330
1F
100
AcDbEntity
  8
0
  6
Continuous
 62
     7
370
    15
100
AcDbLine
 10
93.7332672791
 20
235.8844923947
 30
0.0
 11
92.7332671152
 21
236.1344929014
 31
0.0
  0
LINE
  5
1ED
330
1F
100
AcDbEntity
  8
0
  6
Continuous
 62
     7
370
    15
100
AcDbLine
 10
84.4332663135
 20
189.6344923808
 30
0.0
 11
86.0332673208
 21
189.6344923808
 31
0.0
  0
LINE
  5
1EE
330
1F
100
AcDbEntity
  8
0
  6
Continuous
 62
     7
370
    15
100
AcDbLine
 10
86.0332673208
 20
198.1344922606
 30
0.0
 11
84.4332663135
 21
198.1344922606
 31
0.0
  0
LINE
  5
1EF
330
1F
100
AcDbEntity
  8
0
  6
Continuous
 62
     7
370
    15
100
AcDbLine
 10
84.4332663135
 20
198.1344922606
 30
0.0
 11
84.2332666532
 21
197.9344926004
 31
0.0
  0
LINE
  5
1F0
330
1F
100
AcDbEntity
  8
0
  6
Continuous
 62
     7
370
    15
100
AcDbLine
 10
84.2332666532
 20
189.8344922738
 30
0.0
 11
84.4332663135
 21
189.6344923808
 31
0.0
  0
LINE
  5
1F1
330
1F
100
AcDbEntity
  8
0
  6
Continuous
 62
     7
370
    15
100
AcDbLine
 10
86.0332673208
 20
189.6344923808
 30
0.0
 11
86.233266981
 21
189.8344922738
 31
0.0
  0
LINE
  5
1F2
330
1F
100
AcDbEntity
  8
0
  6
Continuous
 62
     7
370
    15
100
AcDbLine
 10
86.233266981
 20
197.9344926004
 30
0.0
 11
86.0332673208
 21
198.1344922606
 31
0.0
  0
LINE
  5
1F3
330
1F
100
AcDbEntity
  8
0
  6
Continuous
 62
     7
370
    15
100
AcDbLine
 10
92.7332671152
 20
196.1344923985
 30
0.0
 11
91.7332669512
 21
196.1344923985
 31
0.0
  0
LINE
  5
1F4
330
1F
100
AcDbEntity
  8
0
  6
Continuous
 62
     7
370
    15
100
AcDbLine
 10
91.7332669512
 20
191.6344923593
 30
0.0
 11
92.7332671152
 21
191.6344923593
 31
0.0
  0
LINE
  5
1F5
330
1F
100
AcDbEntity
  8
0
  6
Continuous
 62
     7
370
    15
100
AcDbLine
 10
92.7332671152
 20
191.6344923593
 30
0.0
 11
93.7332672791
 21
191.8844924003
 31
0.0
  0
LINE
  5
1F6
330
1F
100
AcDbEntity
  8
0
  6
Continuous
 62
     7
370
    15
100
AcDbLine
 10
93.7332672791
 20
195.8844923575
 30
0.0
 11
92.7332671152
 21
196.1344923985
 31
0.0
  0
LINE
  5
1F7
330
1F
100
AcDbEntity
  8
0
  6
Continuous
 62
     7
370
    15
100
AcDbLine
 10
84.4332663135
 20
182.134492432
 30
0.0
 11
84.2332666532
 21
181.9344923061
 31
0.0
  0
LINE
  5
1F8
330
1F
100
AcDbEntity
  8
0
  6
Continuous
 62
     7
370
    15
100
AcDbLine
 10
84.2332666532
 20
173.8344925616
 30
0.0
 11
84.4332663135
 21
173.63449197
 31
0.0
  0
LINE
  5
1F9
330
1F
100
AcDbEntity
  8
0
  6
Continuous
 62
     7
370
    15
100
AcDbLine
 10
84.4332663135
 20
173.63449197
 30
0.0
 11
86.0332673208
 21
173.63449197
 31
0.0
  0
LINE
  5
1FA
330
1F
100
AcDbEntity
  8
0
  6
Continuous
 62
     7
370
    15
100
AcDbLine
 10
86.0332673208
 20
182.134492432
 30
0.0
 11
84.4332663135
 21
182.134492432
 31
0.0
  0
LINE
  5
1FB
330
1F
100
AcDbEntity
  8
0
  6
Continuous
 62
     7
370
    15
100
AcDbLine
 10
86.0332673208
 20
173.63449197
 30
0.0
 11
86.233266981
 21
173.8344925616
 31
0.0
  0
LINE
  5
1FC
330
1F
100
AcDbEntity
  8
0
  6
Continuous
 62
     7
370
    15
100
AcDbLine
 10
86.233266981
 20
181.9344923061
 30
0.0
 11
86.0332673208
 21
182.134492432
 31
0.0
  0
LINE
  5
1FD
330
1F
100
AcDbEntity
  8
0
  6
Continuous
 62
     7
370
    15
100
AcDbLine
 10
92.7332671152
 20
180.1344921042
 30
0.0
 11
91.7332669512
 21
180.1344921042
 31
0.0
  0
LINE
  5
1FE
330
1F
100
AcDbEntity
  8
0
  6
Continuous
 62
     7
370
    15
100
AcDbLine
 10
91.7332669512
 20
175.6344922979
 30
0.0
 11
92.7332671152
 21
175.6344922979
 31
0.0
  0
LINE
  5
1FF
330
1F
100
AcDbEntity
  8
0
  6
Continuous
 62
     7
370
    15
100
AcDbLine
 10
92.7332671152
 20
175.6344922979
 30
0.0
 11
93.7332672791
 21
175.8844918732
 31
0.0
  0
LINE
  5
200
330
1F
100
AcDbEntity
  8
0
  6
Continuous
 62
     7
370
    15
100
AcDbLine
 10
93.7332672791
 20
179.8844925288
 30
0.0
 11
92.7332671152
 21
180.1344921042
 31
0.0
  0
LINE
  5
201
330
1F
100
AcDbEntity
  8
0
  6
Continuous
 62
     7
370
    15
100
AcDbLine
 10
84.4332663135
 20
133.6344937954
 30
0.0
 11
86.0332673208
 21
133.6344937954
 31
0.0
  0
LINE
  5
202
330
1F
100
AcDbEntity
  8
0
  6
Continuous
 62
     7
370
    15
100
AcDbLine
 10
86.0332673208
 20
142.1344923947
 30
0.0
 11
84.4332663135
 21
142.1344923947
 31
0.0
  0
LINE
  5
203
330
1F
100
AcDbEntity
  8
0
  6
Continuous
 62
     7
370
    15
100
AcDbLine
 10
84.4332663135
 20
142.1344923947
 30
0.0
 11
84.2332666532
 21
141.9344927345
 31
0.0
  0
LINE
  5
204
330
1F
100
AcDbEntity
  8
0
  6
Continuous
 62
     7
370
    15
100
AcDbLine
 10
84.2332666532
 20
133.8344934557
 30
0.0
 11
84.4332663135
 21
133.6344937954
 31
0.0
  0
LINE
  5
205
330
1F
100
AcDbEntity
  8
0
  6
Continuous
 62
     7
370
    15
100
AcDbLine
 10
86.0332673208
 20
133.6344937954
 30
0.0
 11
86.233266981
 21
133.8344934557
 31
0.0
  0
LINE
  5
206
330
1F
100
AcDbEntity
  8
0
  6
Continuous
 62
     7
370
    15
100
AcDbLine
 10
86.233266981
 20
141.9344927345
 30
0.0
 11
86.0332673208
 21
142.1344923947
 31
0.0
  0
LINE
  5
207
330
1F
100
AcDbEntity
  8
0
  6
Continuous
 62
     7
370
    15
100
AcDbLine
 10
92.7332671152
 20
140.1344920669
 30
0.0
 11
91.7332669512
 21
140.1344920669
 31
0.0
  0
LINE
  5
208
330
1F
100
AcDbEntity
  8
0
  6
Continuous
 62
     7
370
    15
100
AcDbLine
 10
91.7332669512
 20
135.6344941233
 30
0.0
 11
92.7332671152
 21
135.6344941233
 31
0.0
  0
LINE
  5
209
330
1F
100
AcDbEntity
  8
0
  6
Continuous
 62
     7
370
    15
100
AcDbLine
 10
92.7332671152
 20
135.6344941233
 30
0.0
 11
93.7332672791
 21
135.8844909046
 31
0.0
  0
LINE
  5
20A
330
1F
100
AcDbEntity
  8
0
  6
Continuous
 62
     7
370
    15
100
AcDbLine
 10
93.7332672791
 20
139.8844915603
 30
0.0
 11
92.7332671152
 21
140.1344920669
 31
0.0
  0
LINE
  5
20B
330
1F
100
AcDbEntity
  8
0
  6
Continuous
 62
     7
370
    15
100
AcDbLine
 10
83.4332680122
 20
189.8844923053
 30
0.0
 11
84.2332666532
 21
189.8844923053
 31
0.0
  0
LINE
  5
20C
330
1F
100
AcDbEntity
  8
0
  6
Continuous
 62
     7
370
    15
100
AcDbLine
 10
84.2332666532
 20
197.8844926853
 30
0.0
 11
83.4332680122
 21
197.8844926853
 31
0.0
  0
LINE
  5
20D
330
1F
100
AcDbEntity
  8
0
  6
Continuous
 62
     7
370
    15
100
AcDbLine
 10
85.9332674907
 20
204.3844918881
 30
0.0
 11
90.9332664476
 21
204.3844918881
 31
0.0
  0
LINE
  5
20E
330
1F
100
AcDbEntity
  8
0
  6
Continuous
 62
     7
370
    15
100
AcDbLine
 10
90.9332664476
 20
213.3844915007
 30
0.0
 11
85.9332674907
 21
213.3844915007
 31
0.0
  0
LINE
  5
20F
330
1F
100
AcDbEntity
  8
0
  6
Continuous
 62
     7
370
    15
100
AcDbLine
 10
90.9332664476
 20
204.3844918881
 30
0.0
 11
91.9332666115
 21
205.384492052
 31
0.0
  0
LINE
  5
210
330
1F
100
AcDbEntity
  8
0
  6
Continuous
 62
     7
370
    15
100
AcDbLine
 10
91.9332666115
 20
212.3844931994
 30
0.0
 11
90.9332664476
 21
213.3844915007
 31
0.0
  0
LINE
  5
211
330
1F
100
AcDbEntity
  8
0
  6
Continuous
 62
     7
370
    15
100
AcDbLine
 10
85.9332674907
 20
118.3844926928
 30
0.0
 11
90.9332664476
 21
118.3844926928
 31
0.0
  0
LINE
  5
212
330
1F
100
AcDbEntity
  8
0
  6
Continuous
 62
     7
370
    15
100
AcDbLine
 10
90.9332664476
 20
127.3844923053
 30
0.0
 11
85.9332674907
 21
127.3844923053
 31
0.0
  0
LINE
  5
213
330
1F
100
AcDbEntity
  8
0
  6
Continuous
 62
     7
370
    15
100
AcDbLine
 10
90.9332664476
 20
118.3844926928
 30
0.0
 11
91.9332666115
 21
119.3844947193
 31
0.0
  0
LINE
  5
214
330
1F
100
AcDbEntity
  8
0
  6
Continuous
 62
     7
370
    15
100
AcDbLine
 10
91.9332666115
 20
126.3844940041
 30
0.0
 11
90.9332664476
 21
127.3844923053
 31
0.0
  0
LINE
  5
215
330
1F
100
AcDbEntity
  8
0
  6
Continuous
 62
     7
370
    15
100
AcDbLine
 10
85.9332674907
 20
158.3844917987
 30
0.0
 11
90.9332664476
 21
158.3844917987
 31
0.0
  0
LINE
  5
216
330
1F
100
AcDbEntity
  8
0
  6
Continuous
 62
     7
370
    15
100
AcDbLine
 10
90.9332664476
 20
167.3844914113
 30
0.0
 11
85.9332674907
 21
167.3844914113
 31
0.0
  0
LINE
  5
217
330
1F
100
AcDbEntity
  8
0
  6
Continuous
 62
     7
370
    15
100
AcDbLine
 10
90.9332664476
 20
158.3844917987
 30
0.0
 11
91.9332666115
 21
159.3844919626
 31
0.0
  0
LINE
  5
218
330
1F
100
AcDbEntity
  8
0
  6
Continuous
 62
     7
370
    15
100
AcDbLine
 10
91.9332666115
 20
166.38449311
 30
0.0
 11
90.9332664476
 21
167.3844914113
 31
0.0
  0
LINE
  5
219
330
1F
100
AcDbEntity
  8
0
  6
Continuous
 62
     7
370
    15
100
AcDbLine
 10
85.9332674907
 20
244.384490994
 30
0.0
 11
90.9332664476
 21
244.384490994
 31
0.0
  0
LINE
  5
21A
330
1F
100
AcDbEntity
  8
0
  6
Continuous
 62
     7
370
    15
100
AcDbLine
 10
90.9332664476
 20
253.3844906066
 30
0.0
 11
85.9332674907
 21
253.3844906066
 31
0.0
  0
LINE
  5
21B
330
1F
100
AcDbEntity
  8
0
  6
Continuous
 62
     7
370
    15
100
AcDbLine
 10
90.9332664476
 20
244.384490994
 30
0.0
 11
91.9332666115
 21
245.3844930206
 31
0.0
  0
LINE
  5
21C
330
1F
100
AcDbEntity
  8
0
  6
Continuous
 62
     7
370
    15
100
AcDbLine
 10
91.9332666115
 20
252.3844960306
 30
0.0
 11
90.9332664476
 21
253.3844906066
 31
0.0
  0
LINE
  5
21D
330
1F
100
AcDbEntity
  8
0
  6
Continuous
 62
     7
370
    15
100
AcDbLine
 10
83.4332680122
 20
244.384490994
 30
0.0
 11
83.9332671628
 21
244.384490994
 31
0.0
  0
LINE
  5
21E
330
1F
100
AcDbEntity
  8
0
  6
Continuous
 62
     7
370
    15
100
AcDbLine
 10
83.9332671628
 20
253.3844906066
 30
0.0
 11
83.4332680122
 21
253.3844906066
 31
0.0
  0
LINE
  5
21F
330
1F
100
AcDbEntity
  8
0
  6
Continuous
 62
     7
370
    15
100
AcDbLine
 10
83.4332680122
 20
204.3844918881
 30
0.0
 11
83.9332671628
 21
204.3844918881
 31
0.0
  0
LINE
  5
220
330
1F
100
AcDbEntity
  8
0
  6
Continuous
 62
     7
370
    15
100
AcDbLine
 10
83.9332671628
 20
213.3844915007
 30
0.0
 11
83.4332680122
 21
213.3844915007
 31
0.0
  0
LINE
  5
221
330
1F
100
AcDbEntity
  8
0
  6
Continuous
 62
     7
370
    15
100
AcDbLine
 10
83.9332671628
 20
167.3844914113
 30
0.0
 11
83.4332680122
 21
167.3844914113
 31
0.0
  0
LINE
  5
222
330
1F
100
AcDbEntity
  8
0
  6
Continuous
 62
     7
370
    15
100
AcDbLine
 10
83.4332680122
 20
158.3844917987
 30
0.0
 11
83.9332671628
 21
158.3844917987
 31
0.0
  0
LINE
  5
223
330
1F
100
AcDbEntity
  8
0
  6
Continuous
 62
     7
370
    15
100
AcDbLine
 10
83.4332680122
 20
118.3844926928
 30
0.0
 11
83.9332671628
 21
118.3844926928
 31
0.0
  0
LINE
  5
224
330
1F
100
AcDbEntity
  8
0
  6
Continuous
 62
     7
370
    15
100
AcDbLine
 10
83.9332671628
 20
127.3844923053
 30
0.0
 11
83.4332680122
 21
127.3844923053
 31
0.0
  0
LINE
  5
225
330
1F
100
AcDbEntity
  8
0
  6
Continuous
 62
     7
370
    15
100
AcDbLine
 10
86.233266981
 20
230.1344919179
 30
0.0
 11
90.7332667873
 21
230.1344919179
 31
0.0
  0
LINE
  5
226
330
1F
100
AcDbEntity
  8
0
  6
Continuous
 62
     7
370
    15
100
AcDbLine
 10
90.7332667873
 20
237.6344922159
 30
0.0
 11
86.233266981
 21
237.6344922159
 31
0.0
  0
LINE
  5
227
330
1F
100
AcDbEntity
  8
0
  6
Continuous
 62
     7
370
    15
100
AcDbLine
 10
90.7332667873
 20
230.1344919179
 30
0.0
 11
91.7332669512
 21
231.1344939445
 31
0.0
  0
LINE
  5
228
330
1F
100
AcDbEntity
  8
0
  6
Continuous
 62
     7
370
    15
100
AcDbLine
 10
91.7332669512
 20
236.6344939146
 30
0.0
 11
90.7332667873
 21
237.6344922159
 31
0.0
  0
LINE
  5
229
330
1F
100
AcDbEntity
  8
0
  6
Continuous
 62
     7
370
    15
100
AcDbLine
 10
86.233266981
 20
190.1344923463
 30
0.0
 11
90.7332667873
 21
190.1344923463
 31
0.0
  0
LINE
  5
22A
330
1F
100
AcDbEntity
  8
0
  6
Continuous
 62
     7
370
    15
100
AcDbLine
 10
90.7332667873
 20
197.6344921787
 30
0.0
 11
86.233266981
 21
197.6344921787
 31
0.0
  0
LINE
  5
22B
330
1F
100
AcDbEntity
  8
0
  6
Continuous
 62
     7
370
    15
100
AcDbLine
 10
90.7332667873
 20
190.1344923463
 30
0.0
 11
91.7332669512
 21
191.1344922774
 31
0.0
  0
LINE
  5
22C
330
1F
100
AcDbEntity
  8
0
  6
Continuous
 62
     7
370
    15
100
AcDbLine
 10
91.7332669512
 20
196.6344920148
 30
0.0
 11
90.7332667873
 21
197.6344921787
 31
0.0
  0
LINE
  5
22D
330
1F
100
AcDbEntity
  8
0
  6
Continuous
 62
     7
370
    15
100
AcDbLine
 10
86.233266981
 20
174.134492052
 30
0.0
 11
90.7332667873
 21
174.134492052
 31
0.0
  0
LINE
  5
22E
330
1F
100
AcDbEntity
  8
0
  6
Continuous
 62
     7
370
    15
100
AcDbLine
 10
90.7332667873
 20
181.63449235
 30
0.0
 11
86.233266981
 21
181.63449235
 31
0.0
  0
LINE
  5
22F
330
1F
100
AcDbEntity
  8
0
  6
Continuous
 62
     7
370
    15
100
AcDbLine
 10
90.7332667873
 20
174.134492052
 30
0.0
 11
91.7332669512
 21
175.1344922159
 31
0.0
  0
LINE
  5
230
330
1F
100
AcDbEntity
  8
0
  6
Continuous
 62
     7
370
    15
100
AcDbLine
 10
91.7332669512
 20
180.6344921861
 30
0.0
 11
90.7332667873
 21
181.63449235
 31
0.0
  0
LINE
  5
231
330
1F
100
AcDbEntity
  8
0
  6
Continuous
 62
     7
370
    15
100
AcDbLine
 10
86.233266981
 20
134.1344910834
 30
0.0
 11
90.7332667873
 21
134.1344910834
 31
0.0
  0
LINE
  5
232
330
1F
100
AcDbEntity
  8
0
  6
Continuous
 62
     7
370
    15
100
AcDbLine
 10
90.7332667873
 20
141.6344913815
 30
0.0
 11
86.233266981
 21
141.6344913815
 31
0.0
  0
LINE
  5
233
330
1F
100
AcDbEntity
  8
0
  6
Continuous
 62
     7
370
    15
100
AcDbLine
 10
90.7332667873
 20
134.1344910834
 30
0.0
 11
91.7332669512
 21
135.13449311
 31
0.0
  0
LINE
  5
234
330
1F
100
AcDbEntity
  8
0
  6
Continuous
 62
     7
370
    15
100
AcDbLine
 10
91.7332669512
 20
140.6344930802
 30
0.0
 11
90.7332667873
 21
141.6344913815
 31
0.0
  0
LINE
  5
235
330
1F
100
AcDbEntity
  8
0
  6
Continuous
 62
     7
370
    15
100
AcDbLine
 10
83.9332671628
 20
162.3928780828
 30
0.0
 11
83.9332671628
 21
167.6844927643
 31
0.0
  0
LINE
  5
236
330
1F
100
AcDbEntity
  8
0
  6
Continuous
 62
     7
370
    15
100
AcDbLine
 10
83.9332671628
 20
158.0844923083
 30
0.0
 11
83.9332671628
 21
162.3928780828
 31
0.0
  0
LINE
  5
237
330
1F
100
AcDbEntity
  8
0
  6
Continuous
 62
     7
370
    15
100
AcDbLine
 10
84.1332668231
 20
162.3723927114
 30
0.0
 11
84.1332668231
 21
157.884492648
 31
0.0
  0
LINE
  5
238
330
1F
100
AcDbEntity
  8
0
  6
Continuous
 62
     7
370
    15
100
AcDbLine
 10
84.1332668231
 20
167.8844924245
 30
0.0
 11
84.1332668231
 21
162.3723927114
 31
0.0
  0
LINE
  5
239
330
1F
100
AcDbEntity
  8
0
  6
Continuous
 62
     7
370
    15
100
AcDbLine
 10
85.7332678304
 20
162.3723927114
 30
0.0
 11
85.7332678304
 21
167.8844924245
 31
0.0
  0
LINE
  5
23A
330
1F
100
AcDbEntity
  8
0
  6
Continuous
 62
     7
370
    15
100
AcDbLine
 10
85.7332678304
 20
157.884492648
 30
0.0
 11
85.7332678304
 21
162.3723927114
 31
0.0
  0
LINE
  5
23B
330
1F
100
AcDbEntity
  8
0
  6
Continuous
 62
     7
370
    15
100
AcDbLine
 10
85.9332674907
 20
162.3928780828
 30
0.0
 11
85.9332674907
 21
158.0844923083
 31
0.0
  0
LINE
  5
23C
330
1F
100
AcDbEntity
  8
0
  6
Continuous
 62
     7
370
    15
100
AcDbLine
 10
85.9332674907
 20
167.6844927643
 30
0.0
 11
85.9332674907
 21
162.3928780828
 31
0.0
  0
LINE
  5
23D
330
1F
100
AcDbEntity
  8
0
  6
Continuous
 62
     7
370
    15
100
AcDbLine
 10
92.4332676248
 20
165.7757676367
 30
0.0
 11
92.4332676248
 21
165.8844920967
 31
0.0
  0
LINE
  5
23E
330
1F
100
AcDbEntity
  8
0
  6
Continuous
 62
     7
370
    15
100
AcDbLine
 10
92.4332676248
 20
165.7757676367
 30
0.0
 11
92.4332676248
 21
163.0789014671
 31
0.0
  0
LINE
  5
23F
330
1F
100
AcDbEntity
  8
0
  6
Continuous
 62
     7
370
    15
100
AcDbLine
 10
92.4332676248
 20
163.0789014671
 30
0.0
 11
92.4332676248
 21
162.0841595505
 31
0.0
  0
LINE
  5
240
330
1F
100
AcDbEntity
  8
0
  6
Continuous
 62
     7
370
    15
100
AcDbLine
 10
92.4332676248
 20
162.0841595505
 30
0.0
 11
92.4332676248
 21
159.8907980297
 31
0.0
  0
LINE
  5
241
330
1F
100
AcDbEntity
  8
0
  6
Continuous
 62
     7
370
    15
100
AcDbLine
 10
92.4332676248
 20
159.8844929759
 30
0.0
 11
92.4332676248
 21
159.8907980297
 31
0.0
  0
LINE
  5
242
330
1F
100
AcDbEntity
  8
0
  6
Continuous
 62
     7
370
    15
100
AcDbLine
 10
93.4332677887
 20
165.5232246194
 30
0.0
 11
93.4332677887
 21
163.1049039934
 31
0.0
  0
SPLINE
  5
243
330
1F
100
AcDbEntity
  8
0
  6
Continuous
 62
     7
370
    15
100
AcDbSpline
210
0.0
220
0.0
230
1.0
 70
     8
 71
     3
 72
    11
 73
     7
 74
     0
 42
0.00000001
 43
0.00000001
 12
1.0
 22
0.0
 32
0.0
 13
1.0
 23
0.0
 33
0.0
 40
0.0041996937790339
 40
0.0041996937790339
 40
0.0041996937790339
 40
0.0041996937790339
 40
0.0045714279294727
 40
0.0045714279294727
 40
0.0045714279294727
 40
0.0052314151081104
 40
0.0052314151081104
 40
0.0052314151081104
 40
0.0052314151081104
 10
93.43326708751863
 20
163.1049031838232
 30
0.0
 10
93.31317582718485
 20
163.1017761330604
 30
0.0
 10
93.19308048836366
 20
163.0986507249438
 30
0.0
 10
93.07298146384889
 20
163.095526803653
 30
0.0
 10
92.85975433099037
 20
163.0899805073128
 30
0.0
 10
92.64651559526574
 20
163.0844388886997
 30
0.0
 10
92.43326708751863
 20
163.0789012195713
 30
0.0
  0
SPLINE
  5
244
330
1F
100
AcDbEntity
  8
0
  6
Continuous
 62
     7
370
    15
100
AcDbSpline
210
0.0
220
0.0
230
1.0
 70
     8
 71
     3
 72
     8
 73
     4
 74
     0
 42
0.00000001
 43
0.00000001
 12
1.0
 22
0.0
 32
0.0
 13
1.0
 23
0.0
 33
0.0
 40
0.0
 40
0.0
 40
0.0
 40
0.0
 40
1.0
 40
1.0
 40
1.0
 40
1.0
 10
92.43326708751863
 20
165.7757668031416
 30
0.0
 10
92.76662665068797
 20
165.6916892060553
 30
0.0
 10
93.09996263897014
 20
165.6075183387077
 30
0.0
 10
93.43326708751863
 20
165.523225436077
 30
0.0
  0
LINE
  5
245
330
1F
100
AcDbEntity
  8
0
  6
Continuous
 62
     7
370
    15
100
AcDbLine
 10
93.4332677887
 20
162.1887861912
 30
0.0
 11
92.4332676248
 21
162.1887861912
 31
0.0
  0
LINE
  5
246
330
1F
100
AcDbEntity
  8
0
  6
Continuous
 62
     7
370
    15
100
AcDbLine
 10
93.4332677887
 20
162.1101620768
 30
0.0
 11
93.4332677887
 21
162.1887861912
 31
0.0
  0
SPLINE
  5
247
330
1F
100
AcDbEntity
  8
0
  6
Continuous
 62
     7
370
    15
100
AcDbSpline
210
0.0
220
0.0
230
1.0
 70
     8
 71
     3
 72
     8
 73
     4
 74
     0
 42
0.00000001
 43
0.00000001
 12
1.0
 22
0.0
 32
0.0
 13
1.0
 23
0.0
 33
0.0
 40
0.0
 40
0.0
 40
0.0
 40
0.0
 40
1.0
 40
1.0
 40
1.0
 40
1.0
 10
92.43326708751863
 20
162.0841599506048
 30
0.0
 10
92.76662662335485
 20
162.0928166808663
 30
0.0
 10
93.09996260173185
 20
162.1014830147966
 30
0.0
 10
93.43326708751863
 20
162.1101619148566
 30
0.0
  0
LINE
  5
248
330
1F
100
AcDbEntity
  8
0
  6
Continuous
 62
     7
370
    15
100
AcDbLine
 10
93.4332677887
 20
162.1101620768
 30
0.0
 11
93.4332677887
 21
160.1433391843
 31
0.0
  0
SPLINE
  5
249
330
1F
100
AcDbEntity
  8
0
  6
Continuous
 62
     7
370
    15
100
AcDbSpline
210
0.0
220
0.0
230
1.0
 70
     8
 71
     3
 72
    11
 73
     7
 74
     0
 42
0.00000001
 43
0.00000001
 12
1.0
 22
0.0
 32
0.0
 13
1.0
 23
0.0
 33
0.0
 40
0.0041333666424306
 40
0.0041333666424306
 40
0.0041333666424306
 40
0.0041333666424306
 40
0.0046138376121394
 40
0.0046138376121394
 40
0.0046138376121394
 40
0.0051650880369003
 40
0.0051650880369003
 40
0.0051650880369003
 40
0.0051650880369003
 10
93.43326708751863
 20
160.1433394594586
 30
0.0
 10
93.27804766977759
 20
160.1040843720362
 30
0.0
 10
93.12282144293656
 20
160.0648559188054
 30
0.0
 10
92.96758923881649
 20
160.0256508939199
 30
0.0
 10
92.78948937788854
 20
159.9806704755889
 30
0.0
 10
92.61138164534692
 20
159.935720889526
 30
0.0
 10
92.43326708751863
 20
159.8907980923939
 30
0.0
  0
LINE
  5
24A
330
1F
100
AcDbEntity
  8
0
  6
Continuous
 62
     7
370
    15
100
AcDbLine
 10
92.4332676248
 20
162.5854569648
 30
0.0
 11
93.4332677887
 21
162.5854569648
 31
0.0
  0
LINE
  5
24B
330
1F
100
AcDbEntity
  8
0
  6
Continuous
 62
     7
370
    15
100
AcDbLine
 10
93.4332677887
 20
162.1887861912
 30
0.0
 11
93.4332677887
 21
162.5854569648
 31
0.0
  0
LINE
  5
24C
330
1F
100
AcDbEntity
  8
0
  6
Continuous
 62
     7
370
    15
100
AcDbLine
 10
93.4332677887
 20
165.5232246194
 30
0.0
 11
93.4332677887
 21
165.6256458883
 31
0.0
  0
SPLINE
  5
24D
330
1F
100
AcDbEntity
  8
0
  6
Continuous
 62
     7
370
    15
100
AcDbSpline
210
0.0
220
0.0
230
1.0
 70
     8
 71
     3
 72
    11
 73
     7
 74
     0
 42
0.00000001
 43
0.00000001
 12
1.0
 22
0.0
 32
0.0
 13
1.0
 23
0.0
 33
0.0
 40
0.0041333666424306
 40
0.0041333666424306
 40
0.0041333666424306
 40
0.0041333666424306
 40
0.0046138376121394
 40
0.0046138376121394
 40
0.0046138376121394
 40
0.0051650880369003
 40
0.0051650880369003
 40
0.0051650880369003
 40
0.0051650880369003
 10
93.43326708751863
 20
165.6256451988909
 30
0.0
 10
93.27804766977759
 20
165.6649002863133
 30
0.0
 10
93.12282144293656
 20
165.7041287395441
 30
0.0
 10
92.96758923881649
 20
165.7433337644296
 30
0.0
 10
92.78948937788854
 20
165.7883141827606
 30
0.0
 10
92.61138164534692
 20
165.8332637688235
 30
0.0
 10
92.43326708751863
 20
165.8781865659556
 30
0.0
  0
SPLINE
  5
24E
330
1F
100
AcDbEntity
  8
0
  6
Continuous
 62
     7
370
    15
100
AcDbSpline
210
0.0
220
0.0
230
1.0
 70
     8
 71
     3
 72
    11
 73
     7
 74
     0
 42
0.00000001
 43
0.00000001
 12
1.0
 22
0.0
 32
0.0
 13
1.0
 23
0.0
 33
0.0
 40
0.0041996937790339
 40
0.0041996937790339
 40
0.0041996937790339
 40
0.0041996937790339
 40
0.0045714279294727
 40
0.0045714279294727
 40
0.0045714279294727
 40
0.0052314151081104
 40
0.0052314151081104
 40
0.0052314151081104
 40
0.0052314151081104
 10
93.43326708751863
 20
162.6640814745263
 30
0.0
 10
93.31317582718485
 20
162.6672085252891
 30
0.0
 10
93.19308048836366
 20
162.6703339334057
 30
0.0
 10
93.07298146384889
 20
162.6734578546965
 30
0.0
 10
92.85975433099037
 20
162.6790041510367
 30
0.0
 10
92.64651559526574
 20
162.6845457696498
 30
0.0
 10
92.43326708751863
 20
162.6900834387782
 30
0.0
  0
LINE
  5
24F
330
1F
100
AcDbEntity
  8
0
  6
Continuous
 62
     7
370
    15
100
AcDbLine
 10
93.4332677887
 20
162.5854569648
 30
0.0
 11
93.4332677887
 21
162.6640810792
 31
0.0
  0
LINE
  5
250
330
1F
100
AcDbEntity
  8
0
  6
Continuous
 62
     7
370
    15
100
AcDbLine
 10
83.9332671628
 20
122.0401871179
 30
0.0
 11
83.9332671628
 21
127.6844936583
 31
0.0
  0
LINE
  5
251
330
1F
100
AcDbEntity
  8
0
  6
Continuous
 62
     7
370
    15
100
AcDbLine
 10
83.9332671628
 20
118.084495065
 30
0.0
 11
83.9332671628
 21
122.0401871179
 31
0.0
  0
LINE
  5
252
330
1F
100
AcDbEntity
  8
0
  6
Continuous
 62
     7
370
    15
100
AcDbLine
 10
84.1332668231
 20
122.0050054763
 30
0.0
 11
84.1332668231
 21
117.8844916795
 31
0.0
  0
LINE
  5
253
330
1F
100
AcDbEntity
  8
0
  6
Continuous
 62
     7
370
    15
100
AcDbLine
 10
84.1332668231
 20
127.8844933186
 30
0.0
 11
84.1332668231
 21
122.0050054763
 31
0.0
  0
LINE
  5
254
330
1F
100
AcDbEntity
  8
0
  6
Continuous
 62
     7
370
    15
100
AcDbLine
 10
85.7332678304
 20
122.0050054763
 30
0.0
 11
85.7332678304
 21
127.8844933186
 31
0.0
  0
LINE
  5
255
330
1F
100
AcDbEntity
  8
0
  6
Continuous
 62
     7
370
    15
100
AcDbLine
 10
85.7332678304
 20
117.8844916795
 30
0.0
 11
85.7332678304
 21
122.0050054763
 31
0.0
  0
LINE
  5
256
330
1F
100
AcDbEntity
  8
0
  6
Continuous
 62
     7
370
    15
100
AcDbLine
 10
85.9332674907
 20
122.0401871179
 30
0.0
 11
85.9332674907
 21
118.084495065
 31
0.0
  0
LINE
  5
257
330
1F
100
AcDbEntity
  8
0
  6
Continuous
 62
     7
370
    15
100
AcDbLine
 10
85.9332674907
 20
127.6844936583
 30
0.0
 11
85.9332674907
 21
122.0401871179
 31
0.0
  0
LINE
  5
258
330
1F
100
AcDbEntity
  8
0
  6
Continuous
 62
     7
370
    15
100
AcDbLine
 10
92.4332676248
 20
125.7084655736
 30
0.0
 11
92.4332676248
 21
125.8843588803
 31
0.0
  0
LINE
  5
259
330
1F
100
AcDbEntity
  8
0
  6
Continuous
 62
     7
370
    15
100
AcDbLine
 10
92.4332676248
 20
125.7084655736
 30
0.0
 11
92.4332676248
 21
122.8563833211
 31
0.0
  0
LINE
  5
25A
330
1F
100
AcDbEntity
  8
0
  6
Continuous
 62
     7
370
    15
100
AcDbLine
 10
92.4332676248
 20
122.8563833211
 30
0.0
 11
92.4332676248
 21
121.8719753597
 31
0.0
  0
LINE
  5
25B
330
1F
100
AcDbEntity
  8
0
  6
Continuous
 62
     7
370
    15
100
AcDbLine
 10
92.4332676248
 20
121.8719753597
 30
0.0
 11
92.4332676248
 21
119.8846223925
 31
0.0
  0
LINE
  5
25C
330
1F
100
AcDbEntity
  8
0
  6
Continuous
 62
     7
370
    15
100
AcDbLine
 10
93.4332677887
 20
125.4585432981
 30
0.0
 11
93.4332677887
 21
122.9010421012
 31
0.0
  0
SPLINE
  5
25D
330
1F
100
AcDbEntity
  8
0
  6
Continuous
 62
     7
370
    15
100
AcDbSpline
210
0.0
220
0.0
230
1.0
 70
     8
 71
     3
 72
    11
 73
     7
 74
     0
 42
0.00000001
 43
0.00000001
 12
1.0
 22
0.0
 32
0.0
 13
1.0
 23
0.0
 33
0.0
 40
0.0041996937790339
 40
0.0041996937790339
 40
0.0041996937790339
 40
0.0041996937790339
 40
0.0045714279294727
 40
0.0045714279294727
 40
0.0045714279294727
 40
0.0052314151081104
 40
0.0052314151081104
 40
0.0052314151081104
 40
0.0052314151081104
 10
93.43326708752515
 20
122.9010427130724
 30
0.0
 10
93.31317582719137
 20
122.8956722800844
 30
0.0
 10
93.19308048837019
 20
122.8903046681959
 30
0.0
 10
93.07298146385541
 20
122.884939609799
 30
0.0
 10
92.85975433099688
 20
122.8754143365989
 30
0.0
 10
92.64651559527226
 20
122.8658970969809
 30
0.0
 10
92.43326708752515
 20
122.8563866402535
 30
0.0
  0
SPLINE
  5
25E
330
1F
100
AcDbEntity
  8
0
  6
Continuous
 62
     7
370
    15
100
AcDbSpline
210
0.0
220
0.0
230
1.0
 70
     8
 71
     3
 72
     8
 73
     4
 74
     0
 42
0.00000001
 43
0.00000001
 12
1.0
 22
0.0
 32
0.0
 13
1.0
 23
0.0
 33
0.0
 40
0.0
 40
0.0
 40
0.0
 40
0.0
 40
1.0
 40
1.0
 40
1.0
 40
1.0
 10
92.43326708752515
 20
125.708463791341
 30
0.0
 10
92.76662665069449
 20
125.6252595330643
 30
0.0
 10
93.09996263897668
 20
125.5419629733519
 30
0.0
 10
93.43326708752515
 20
125.4585456459729
 30
0.0
  0
LINE
  5
25F
330
1F
100
AcDbEntity
  8
0
  6
Continuous
 62
     7
370
    15
100
AcDbLine
 10
93.4332677887
 20
122.0516684626
 30
0.0
 11
92.4332676248
 21
122.0516684626
 31
0.0
  0
LINE
  5
260
330
1F
100
AcDbEntity
  8
0
  6
Continuous
 62
     7
370
    15
100
AcDbLine
 10
93.4332677887
 20
121.9166341398
 30
0.0
 11
93.4332677887
 21
122.0516684626
 31
0.0
  0
SPLINE
  5
261
330
1F
100
AcDbEntity
  8
0
  6
Continuous
 62
     7
370
    15
100
AcDbSpline
210
0.0
220
0.0
230
1.0
 70
     8
 71
     3
 72
     8
 73
     4
 74
     0
 42
0.00000001
 43
0.00000001
 12
1.0
 22
0.0
 32
0.0
 13
1.0
 23
0.0
 33
0.0
 40
0.0
 40
0.0
 40
0.0
 40
0.0
 40
1.0
 40
1.0
 40
1.0
 40
1.0
 10
92.43326708752515
 20
121.8719780423639
 30
0.0
 10
92.76662662336138
 20
121.8868452105974
 30
0.0
 10
93.09996260173835
 20
121.9017288722822
 30
0.0
 10
93.43326708752515
 20
121.9166341151828
 30
0.0
  0
LINE
  5
262
330
1F
100
AcDbEntity
  8
0
  6
Continuous
 62
     7
370
    15
100
AcDbLine
 10
93.4332677887
 20
121.9166341398
 30
0.0
 11
93.4332677887
 21
120.134544668
 31
0.0
  0
SPLINE
  5
263
330
1F
100
AcDbEntity
  8
0
  6
Continuous
 62
     7
370
    15
100
AcDbSpline
210
0.0
220
0.0
230
1.0
 70
     8
 71
     3
 72
     9
 73
     5
 74
     0
 42
0.00000001
 43
0.00000001
 12
1.0
 22
0.0
 32
0.0
 13
1.0
 23
0.0
 33
0.0
 40
0.0
 40
0.0
 40
0.0
 40
0.0
 40
0.8340720834906474
 40
1.0
 40
1.0
 40
1.0
 40
1.0
 10
93.43326778868406
 20
120.1345446680036
 30
0.0
 10
93.27804687908204
 20
120.0957024682112
 30
0.0
 10
93.09194676534557
 20
120.0491331122031
 30
0.0
 10
92.90582462655331
 20
120.0026487432664
 30
0.0
 10
92.87494176784723
 20
119.9949356887785
 30
0.0
  0
LINE
  5
264
330
1F
100
AcDbEntity
  8
0
  6
Continuous
 62
     7
370
    15
100
AcDbLine
 10
92.4332676248
 20
122.7329122994
 30
0.0
 11
93.4332677887
 21
122.7329122994
 31
0.0
  0
LINE
  5
265
330
1F
100
AcDbEntity
  8
0
  6
Continuous
 62
     7
370
    15
100
AcDbLine
 10
93.4332677887
 20
122.0516684626
 30
0.0
 11
93.4332677887
 21
122.7329122994
 31
0.0
  0
LINE
  5
266
330
1F
100
AcDbEntity
  8
0
  6
Continuous
 62
     7
370
    15
100
AcDbLine
 10
93.4332677887
 20
125.4585432981
 30
0.0
 11
93.4332677887
 21
125.6344440554
 31
0.0
  0
SPLINE
  5
267
330
1F
100
AcDbEntity
  8
0
  6
Continuous
 62
     7
370
    15
100
AcDbSpline
210
0.0
220
0.0
230
1.0
 70
     8
 71
     3
 72
    11
 73
     7
 74
     0
 42
0.00000001
 43
0.00000001
 12
1.0
 22
0.0
 32
0.0
 13
1.0
 23
0.0
 33
0.0
 40
0.0041333666424306
 40
0.0041333666424306
 40
0.0041333666424306
 40
0.0041333666424306
 40
0.0046138376121394
 40
0.0046138376121394
 40
0.0046138376121394
 40
0.0051650880369003
 40
0.0051650880369003
 40
0.0051650880369003
 40
0.0051650880369003
 10
93.43326708752514
 20
125.6344425259938
 30
0.0
 10
93.27804766978412
 20
125.6732898592402
 30
0.0
 10
93.12282144294308
 20
125.7121108349522
 30
0.0
 10
92.96758923882301
 20
125.7509086256761
 30
0.0
 10
92.78948937789507
 20
125.7954218191297
 30
0.0
 10
92.61138164535345
 20
125.8399045005789
 30
0.0
 10
92.43326708752515
 20
125.8843606713619
 30
0.0
  0
LWPOLYLINE
  5
268
330
1F
100
AcDbEntity
  8
0
  6
Continuous
 62
     7
370
    15
100
AcDbPolyline
 90
        3
 70
   128
 43
0.0
 10
93.4332677887
 20
122.8679391716
 10
93.0729819254
 20
122.8840473268
 10
93.0629608945
 20
122.8844943617
  0
LINE
  5
269
330
1F
100
AcDbEntity
  8
0
  6
Continuous
 62
     7
370
    15
100
AcDbLine
 10
93.4332677887
 20
122.7329122994
 30
0.0
 11
93.4332677887
 21
122.8679391716
 31
0.0
  0
LINE
  5
26A
330
1F
100
AcDbEntity
  8
0
  6
Continuous
 62
     7
370
    15
100
AcDbLine
 10
83.9332671628
 20
246.7979501162
 30
0.0
 11
83.9332671628
 21
253.6844956849
 31
0.0
  0
LINE
  5
26B
330
1F
100
AcDbEntity
  8
0
  6
Continuous
 62
     7
370
    15
100
AcDbLine
 10
83.9332671628
 20
244.0844933663
 30
0.0
 11
83.9332671628
 21
246.7979501162
 31
0.0
  0
LINE
  5
26C
330
1F
100
AcDbEntity
  8
0
  6
Continuous
 62
     7
370
    15
100
AcDbLine
 10
84.1332668231
 20
246.7110092912
 30
0.0
 11
84.1332668231
 21
243.884493706
 31
0.0
  0
LINE
  5
26D
330
1F
100
AcDbEntity
  8
0
  6
Continuous
 62
     7
370
    15
100
AcDbLine
 10
84.1332668231
 20
253.8844916199
 30
0.0
 11
84.1332668231
 21
246.7110092912
 31
0.0
  0
LINE
  5
26E
330
1F
100
AcDbEntity
  8
0
  6
Continuous
 62
     7
370
    15
100
AcDbLine
 10
85.7332678304
 20
246.7110092912
 30
0.0
 11
85.7332678304
 21
253.8844916199
 31
0.0
  0
LINE
  5
26F
330
1F
100
AcDbEntity
  8
0
  6
Continuous
 62
     7
370
    15
100
AcDbLine
 10
85.7332678304
 20
243.884493706
 30
0.0
 11
85.7332678304
 21
246.7110092912
 31
0.0
  0
LINE
  5
270
330
1F
100
AcDbEntity
  8
0
  6
Continuous
 62
     7
370
    15
100
AcDbLine
 10
85.9332674907
 20
246.7979501162
 30
0.0
 11
85.9332674907
 21
244.0844933663
 31
0.0
  0
LINE
  5
271
330
1F
100
AcDbEntity
  8
0
  6
Continuous
 62
     7
370
    15
100
AcDbLine
 10
85.9332674907
 20
253.6844956849
 30
0.0
 11
85.9332674907
 21
246.7979501162
 31
0.0
  0
LINE
  5
272
330
1F
100
AcDbEntity
  8
0
  6
Continuous
 62
     7
370
    15
100
AcDbLine
 10
92.4332676248
 20
251.3310882423
 30
0.0
 11
92.4332676248
 21
251.7657849167
 31
0.0
  0
LINE
  5
273
330
1F
100
AcDbEntity
  8
0
  6
Continuous
 62
     7
370
    15
100
AcDbLine
 10
92.4332676248
 20
251.3310882423
 30
0.0
 11
92.4332676248
 21
248.0489324007
 31
0.0
  0
LINE
  5
274
330
1F
100
AcDbEntity
  8
0
  6
Continuous
 62
     7
370
    15
100
AcDbLine
 10
92.4332676248
 20
248.0489324007
 30
0.0
 11
92.4332676248
 21
247.148354647
 31
0.0
  0
LINE
  5
275
330
1F
100
AcDbEntity
  8
0
  6
Continuous
 62
     7
370
    15
100
AcDbLine
 10
92.4332676248
 20
247.148354647
 30
0.0
 11
92.4332676248
 21
245.8844940339
 31
0.0
  0
LINE
  5
276
330
1F
100
AcDbEntity
  8
0
  6
Continuous
 62
     7
370
    15
100
AcDbLine
 10
92.4332676248
 20
251.8844950173
 30
0.0
 11
92.4332676248
 21
251.7657849167
 31
0.0
  0
LINE
  5
277
330
1F
100
AcDbEntity
  8
0
  6
Continuous
 62
     7
370
    15
100
AcDbLine
 10
93.4332677887
 20
251.1024522756
 30
0.0
 11
93.4332677887
 21
248.1592904005
 31
0.0
  0
SPLINE
  5
278
330
1F
100
AcDbEntity
  8
0
  6
Continuous
 62
     7
370
    15
100
AcDbSpline
210
0.0
220
0.0
230
1.0
 70
     8
 71
     3
 72
    11
 73
     7
 74
     0
 42
0.00000001
 43
0.00000001
 12
1.0
 22
0.0
 32
0.0
 13
1.0
 23
0.0
 33
0.0
 40
0.0041996937790339
 40
0.0041996937790339
 40
0.0041996937790339
 40
0.0041996937790339
 40
0.0045714279294727
 40
0.0045714279294727
 40
0.0045714279294727
 40
0.0052314151081104
 40
0.0052314151081104
 40
0.0052314151081104
 40
0.0052314151081104
 10
93.43326708752515
 20
248.1592901335241
 30
0.0
 10
93.31317582719137
 20
248.1460181016921
 30
0.0
 10
93.19308048837019
 20
248.1327530416856
 30
0.0
 10
93.07298146385541
 20
248.1194942921616
 30
0.0
 10
92.85975433099688
 20
248.095954341211
 30
0.0
 10
92.64651559527226
 20
248.0724342437727
 30
0.0
 10
92.43326708752515
 20
248.0489309089942
 30
0.0
  0
SPLINE
  5
279
330
1F
100
AcDbEntity
  8
0
  6
Continuous
 62
     7
370
    15
100
AcDbSpline
210
0.0
220
0.0
230
1.0
 70
     8
 71
     3
 72
     8
 73
     4
 74
     0
 42
0.00000001
 43
0.00000001
 12
1.0
 22
0.0
 32
0.0
 13
1.0
 23
0.0
 33
0.0
 40
0.0
 40
0.0
 40
0.0
 40
0.0
 40
1.0
 40
1.0
 40
1.0
 40
1.0
 10
92.43326708752515
 20
251.3310865997128
 30
0.0
 10
92.76662665069449
 20
251.2549679654939
 30
0.0
 10
93.09996263897666
 20
251.1787648901735
 30
0.0
 10
93.43326708752515
 20
251.1024513316876
 30
0.0
  0
LINE
  5
27A
330
1F
100
AcDbEntity
  8
0
  6
Continuous
 62
     7
370
    15
100
AcDbLine
 10
93.4332677887
 20
247.5924167011
 30
0.0
 11
92.4332676248
 21
247.5924167011
 31
0.0
  0
LINE
  5
27B
330
1F
100
AcDbEntity
  8
0
  6
Continuous
 62
     7
370
    15
100
AcDbLine
 10
93.4332677887
 20
247.2587126468
 30
0.0
 11
93.4332677887
 21
247.5924167011
 31
0.0
  0
SPLINE
  5
27C
330
1F
100
AcDbEntity
  8
0
  6
Continuous
 62
     7
370
    15
100
AcDbSpline
210
0.0
220
0.0
230
1.0
 70
     8
 71
     3
 72
     8
 73
     4
 74
     0
 42
0.00000001
 43
0.00000001
 12
1.0
 22
0.0
 32
0.0
 13
1.0
 23
0.0
 33
0.0
 40
0.0
 40
0.0
 40
0.0
 40
0.0
 40
1.0
 40
1.0
 40
1.0
 40
1.0
 10
92.43326708752515
 20
247.1483539489125
 30
0.0
 10
92.76662662336138
 20
247.1850954054186
 30
0.0
 10
93.09996260173835
 20
247.2218776224389
 30
0.0
 10
93.43326708752515
 20
247.2587131734425
 30
0.0
  0
LINE
  5
27D
330
1F
100
AcDbEntity
  8
0
  6
Continuous
 62
     7
370
    15
100
AcDbLine
 10
93.4332677887
 20
247.2587126468
 30
0.0
 11
93.4332677887
 21
246.1344908152
 31
0.0
  0
LINE
  5
27E
330
1F
100
AcDbEntity
  8
0
  6
Continuous
 62
     7
370
    15
100
AcDbLine
 10
93.4332677887
 20
247.5924167011
 30
0.0
 11
93.4332677887
 21
248.1592904005
 31
0.0
  0
LINE
  5
27F
330
1F
100
AcDbEntity
  8
0
  6
Continuous
 62
     7
370
    15
100
AcDbLine
 10
93.4332677887
 20
251.6344907854
 30
0.0
 11
93.4332677887
 21
251.5371489499
 31
0.0
  0
SPLINE
  5
280
330
1F
100
AcDbEntity
  8
0
  6
Continuous
 62
     7
370
    15
100
AcDbSpline
210
0.0
220
0.0
230
1.0
 70
     8
 71
     3
 72
    11
 73
     7
 74
     0
 42
0.00000001
 43
0.00000001
 12
1.0
 22
0.0
 32
0.0
 13
1.0
 23
0.0
 33
0.0
 40
0.0041333666424306
 40
0.0041333666424306
 40
0.0041333666424306
 40
0.0041333666424306
 40
0.0046138376121394
 40
0.0046138376121394
 40
0.0046138376121394
 40
0.0051650880369003
 40
0.0051650880369003
 40
0.0051650880369003
 40
0.0051650880369003
 10
93.43326708752515
 20
251.5371479373451
 30
0.0
 10
93.27804766978412
 20
251.5726870553062
 30
0.0
 10
93.12282144294308
 20
251.6082020603245
 30
0.0
 10
92.96758923882301
 20
251.6436958547742
 30
0.0
 10
92.78948937789507
 20
251.6844183317313
 30
0.0
 10
92.61138164535345
 20
251.7251128950678
 30
0.0
 10
92.43326708752515
 20
251.7657832053704
 30
0.0
  0
LINE
  5
281
330
1F
100
AcDbEntity
  8
0
  6
Continuous
 62
     7
370
    15
100
AcDbLine
 10
93.4332677887
 20
251.1024522756
 30
0.0
 11
93.4332677887
 21
251.5371489499
 31
0.0
  0
LINE
  5
282
330
1F
100
AcDbEntity
  8
0
  6
Continuous
 62
     7
370
    15
100
AcDbLine
 10
84.1332668231
 20
213.8844925139
 30
0.0
 11
84.1332668231
 21
203.8844927375
 31
0.0
  0
LINE
  5
283
330
1F
100
AcDbEntity
  8
0
  6
Continuous
 62
     7
370
    15
100
AcDbLine
 10
85.7332678304
 20
203.8844927375
 30
0.0
 11
85.7332678304
 21
213.8844925139
 31
0.0
  0
LINE
  5
284
330
1F
100
AcDbEntity
  8
0
  6
Continuous
 62
     7
370
    15
100
AcDbLine
 10
83.9332671628
 20
204.0844923977
 30
0.0
 11
83.9332671628
 21
213.6844928537
 31
0.0
  0
LINE
  5
285
330
1F
100
AcDbEntity
  8
0
  6
Continuous
 62
     7
370
    15
100
AcDbLine
 10
85.9332674907
 20
213.6844928537
 30
0.0
 11
85.9332674907
 21
204.0844923977
 31
0.0
  0
LINE
  5
286
330
1F
100
AcDbEntity
  8
0
  6
Continuous
 62
     7
370
    15
100
AcDbLine
 10
92.4332676248
 20
207.0856700812
 30
0.0
 11
92.4332676248
 21
207.974705023
 31
0.0
  0
LINE
  5
287
330
1F
100
AcDbEntity
  8
0
  6
Continuous
 62
     7
370
    15
100
AcDbLine
 10
92.4332676248
 20
207.0856700812
 30
0.0
 11
92.4332676248
 21
205.8844930653
 31
0.0
  0
LINE
  5
288
330
1F
100
AcDbEntity
  8
0
  6
Continuous
 62
     7
370
    15
100
AcDbLine
 10
92.4332676248
 20
211.8844921861
 30
0.0
 11
92.4332676248
 21
211.7432142768
 31
0.0
  0
LINE
  5
289
330
1F
100
AcDbEntity
  8
0
  6
Continuous
 62
     7
370
    15
100
AcDbLine
 10
92.4332676248
 20
211.7432142768
 30
0.0
 11
92.4332676248
 21
211.2853742365
 31
0.0
  0
LINE
  5
28A
330
1F
100
AcDbEntity
  8
0
  6
Continuous
 62
     7
370
    15
100
AcDbLine
 10
92.4332676248
 20
211.2853742365
 30
0.0
 11
92.4332676248
 21
207.974705023
 31
0.0
  0
SPLINE
  5
28B
330
1F
100
AcDbEntity
  8
0
  6
Continuous
 62
     7
370
    15
100
AcDbSpline
210
0.0
220
0.0
230
1.0
 70
     8
 71
     3
 72
     8
 73
     4
 74
     0
 42
0.00000001
 43
0.00000001
 12
1.0
 22
0.0
 32
0.0
 13
1.0
 23
0.0
 33
0.0
 40
0.0
 40
0.0
 40
0.0
 40
0.0
 40
1.0
 40
1.0
 40
1.0
 40
1.0
 10
92.43326708752963
 20
211.2853749686644
 30
0.0
 10
92.76662662336585
 20
211.2102318638418
 30
0.0
 10
93.09996260174283
 20
211.1350053961948
 30
0.0
 10
93.43326708752963
 20
211.0596698506428
 30
0.0
  0
LINE
  5
28C
330
1F
100
AcDbEntity
  8
0
  6
Continuous
 62
     7
370
    15
100
AcDbLine
 10
93.4332677887
 20
211.0596700732
 30
0.0
 11
93.4332677887
 21
208.0909396682
 31
0.0
  0
SPLINE
  5
28D
330
1F
100
AcDbEntity
  8
0
  6
Continuous
 62
     7
370
    15
100
AcDbSpline
210
0.0
220
0.0
230
1.0
 70
     8
 71
     3
 72
    11
 73
     7
 74
     0
 42
0.00000001
 43
0.00000001
 12
1.0
 22
0.0
 32
0.0
 13
1.0
 23
0.0
 33
0.0
 40
0.0041333666424306
 40
0.0041333666424306
 40
0.0041333666424306
 40
0.0041333666424306
 40
0.0046138376121394
 40
0.0046138376121394
 40
0.0046138376121394
 40
0.0051650880369003
 40
0.0051650880369003
 40
0.0051650880369003
 40
0.0051650880369003
 10
93.43326708752963
 20
208.0909395402232
 30
0.0
 10
93.27804766978859
 20
208.0728720332334
 30
0.0
 10
93.12282144294755
 20
208.0548167848698
 30
0.0
 10
92.96758923882747
 20
208.0367723196127
 30
0.0
 10
92.78948937789953
 20
208.0160696775868
 30
0.0
 10
92.61138164535791
 20
207.9953812263895
 30
0.0
 10
92.43326708752963
 20
207.9747051050386
 30
0.0
  0
LINE
  5
28E
330
1F
100
AcDbEntity
  8
0
  6
Continuous
 62
     7
370
    15
100
AcDbLine
 10
93.4332677887
 20
207.5533746902
 30
0.0
 11
92.4332676248
 21
207.5533746902
 31
0.0
  0
LINE
  5
28F
330
1F
100
AcDbEntity
  8
0
  6
Continuous
 62
     7
370
    15
100
AcDbLine
 10
93.4332677887
 20
207.2019047264
 30
0.0
 11
93.4332677887
 21
207.5533746902
 31
0.0
  0
SPLINE
  5
290
330
1F
100
AcDbEntity
  8
0
  6
Continuous
 62
     7
370
    15
100
AcDbSpline
210
0.0
220
0.0
230
1.0
 70
     8
 71
     3
 72
     8
 73
     4
 74
     0
 42
0.00000001
 43
0.00000001
 12
1.0
 22
0.0
 32
0.0
 13
1.0
 23
0.0
 33
0.0
 40
0.0
 40
0.0
 40
0.0
 40
0.0
 40
1.0
 40
1.0
 40
1.0
 40
1.0
 10
92.43326708752963
 20
207.0856697833301
 30
0.0
 10
92.76662665069895
 20
207.1243672534618
 30
0.0
 10
93.09996263898114
 20
207.16310765207
 30
0.0
 10
93.43326708752963
 20
207.2019042185148
 30
0.0
  0
LINE
  5
291
330
1F
100
AcDbEntity
  8
0
  6
Continuous
 62
     7
370
    15
100
AcDbLine
 10
93.4332677887
 20
207.2019047264
 30
0.0
 11
93.4332677887
 21
206.1344917093
 31
0.0
  0
LINE
  5
292
330
1F
100
AcDbEntity
  8
0
  6
Continuous
 62
     7
370
    15
100
AcDbLine
 10
93.4332677887
 20
207.5533746902
 30
0.0
 11
93.4332677887
 21
208.0909396682
 31
0.0
  0
LINE
  5
293
330
1F
100
AcDbEntity
  8
0
  6
Continuous
 62
     7
370
    15
100
AcDbLine
 10
93.4332677887
 20
211.6344916795
 30
0.0
 11
93.4332677887
 21
211.5175082509
 31
0.0
  0
SPLINE
  5
294
330
1F
100
AcDbEntity
  8
0
  6
Continuous
 62
     7
370
    15
100
AcDbSpline
210
0.0
220
0.0
230
1.0
 70
     8
 71
     3
 72
    11
 73
     7
 74
     0
 42
0.00000001
 43
0.00000001
 12
1.0
 22
0.0
 32
0.0
 13
1.0
 23
0.0
 33
0.0
 40
0.0041996937790339
 40
0.0041996937790339
 40
0.0041996937790339
 40
0.0041996937790339
 40
0.0045714279294727
 40
0.0045714279294727
 40
0.0045714279294727
 40
0.0052314151081104
 40
0.0052314151081104
 40
0.0052314151081104
 40
0.0052314151081104
 10
93.43326708752963
 20
211.5175084649542
 30
0.0
 10
93.31317582719583
 20
211.5446522358876
 30
0.0
 10
93.19308048837466
 20
211.5717817481425
 30
0.0
 10
93.07298146385988
 20
211.5988983542884
 30
0.0
 10
92.85975433100135
 20
211.6470419275163
 30
0.0
 10
92.64651559527672
 20
211.6951448966228
 30
0.0
 10
92.43326708752963
 20
211.7432135829758
 30
0.0
  0
LINE
  5
295
330
1F
100
AcDbEntity
  8
0
  6
Continuous
 62
     7
370
    15
100
AcDbLine
 10
93.4332677887
 20
211.0596700732
 30
0.0
 11
93.4332677887
 21
211.5175082509
 31
0.0
  0
LINE
  5
296
330
1F
100
AcDbEntity
  8
0
  6
Continuous
 62
     7
370
    15
100
AcDbLine
 10
84.2332666532
 20
229.8344905649
 30
0.0
 11
84.2332666532
 21
237.9344935689
 31
0.0
  0
LINE
  5
297
330
1F
100
AcDbEntity
  8
0
  6
Continuous
 62
     7
370
    15
100
AcDbLine
 10
84.4332663135
 20
238.1344932292
 30
0.0
 11
84.4332663135
 21
229.6344909046
 31
0.0
  0
LINE
  5
298
330
1F
100
AcDbEntity
  8
0
  6
Continuous
 62
     7
370
    15
100
AcDbLine
 10
86.0332673208
 20
237.8956909452
 30
0.0
 11
86.0332673208
 21
238.1344932292
 31
0.0
  0
LINE
  5
299
330
1F
100
AcDbEntity
  8
0
  6
Continuous
 62
     7
370
    15
100
AcDbLine
 10
86.0332673208
 20
229.6344909046
 30
0.0
 11
86.0332673208
 21
237.8956909452
 31
0.0
  0
LINE
  5
29A
330
1F
100
AcDbEntity
  8
0
  6
Continuous
 62
     7
370
    15
100
AcDbLine
 10
86.233266981
 20
237.7069304858
 30
0.0
 11
86.233266981
 21
229.8344905649
 31
0.0
  0
LINE
  5
29B
330
1F
100
AcDbEntity
  8
0
  6
Continuous
 62
     7
370
    15
100
AcDbLine
 10
86.233266981
 20
237.9344935689
 30
0.0
 11
86.233266981
 21
237.7069304858
 31
0.0
  0
LINE
  5
29C
330
1F
100
AcDbEntity
  8
0
  6
Continuous
 62
     7
370
    15
100
AcDbLine
 10
92.7332671152
 20
236.1344929014
 30
0.0
 11
92.7332671152
 21
236.1202138637
 31
0.0
  0
LINE
  5
29D
330
1F
100
AcDbEntity
  8
0
  6
Continuous
 62
     7
370
    15
100
AcDbLine
 10
92.7332671152
 20
236.1202138637
 30
0.0
 11
92.7332671152
 21
235.7897284601
 31
0.0
  0
LINE
  5
29E
330
1F
100
AcDbEntity
  8
0
  6
Continuous
 62
     7
370
    15
100
AcDbLine
 10
92.7332671152
 20
235.7897284601
 30
0.0
 11
92.7332671152
 21
231.6344912324
 31
0.0
  0
LINE
  5
29F
330
1F
100
AcDbEntity
  8
0
  6
Continuous
 62
     7
370
    15
100
AcDbLine
 10
93.7332672791
 20
235.5469326649
 30
0.0
 11
93.7332672791
 21
231.8844917391
 31
0.0
  0
SPLINE
  5
2A0
330
1F
100
AcDbEntity
  8
0
  6
Continuous
 62
     7
370
    15
100
AcDbSpline
210
0.0
220
0.0
230
1.0
 70
     8
 71
     3
 72
     8
 73
     4
 74
     0
 42
0.00000001
 43
0.00000001
 12
1.0
 22
0.0
 32
0.0
 13
1.0
 23
0.0
 33
0.0
 40
0.0
 40
0.0
 40
0.0
 40
0.0
 40
1.0
 40
1.0
 40
1.0
 40
1.0
 10
92.73326708750724
 20
235.7897288272576
 30
0.0
 10
93.06666769582452
 20
235.7090445563266
 30
0.0
 10
93.40001093044917
 20
235.6281453897042
 30
0.0
 10
93.73326708750724
 20
235.5469338231478
 30
0.0
  0
LINE
  5
2A1
330
1F
100
AcDbEntity
  8
0
  6
Continuous
 62
     7
370
    15
100
AcDbLine
 10
93.7332672791
 20
235.8844923947
 30
0.0
 11
93.7332672791
 21
235.8774180685
 31
0.0
  0
SPLINE
  5
2A2
330
1F
100
AcDbEntity
  8
0
  6
Continuous
 62
     7
370
    15
100
AcDbSpline
210
0.0
220
0.0
230
1.0
 70
     8
 71
     3
 72
     8
 73
     4
 74
     0
 42
0.00000001
 43
0.00000001
 12
1.0
 22
0.0
 32
0.0
 13
1.0
 23
0.0
 33
0.0
 40
0.0
 40
0.0
 40
0.0
 40
0.0
 40
1.0
 40
1.0
 40
1.0
 40
1.0
 10
93.73326708750723
 20
235.8774176530249
 30
0.0
 10
93.40001021652125
 20
235.9586293935592
 30
0.0
 10
93.06666751891909
 20
236.0395284290155
 30
0.0
 10
92.73326708750723
 20
236.1202126571346
 30
0.0
  0
LINE
  5
2A3
330
1F
100
AcDbEntity
  8
0
  6
Continuous
 62
     7
370
    15
100
AcDbLine
 10
93.7332672791
 20
235.5469326649
 30
0.0
 11
93.7332672791
 21
235.8774180685
 31
0.0
  0
LINE
  5
2A4
330
1F
100
AcDbEntity
  8
0
  6
Continuous
 62
     7
370
    15
100
AcDbLine
 10
86.0332673208
 20
197.8956918393
 30
0.0
 11
86.0332673208
 21
198.1344922606
 31
0.0
  0
LINE
  5
2A5
330
1F
100
AcDbEntity
  8
0
  6
Continuous
 62
     7
370
    15
100
AcDbLine
 10
86.0332673208
 20
189.6344923808
 30
0.0
 11
86.0332673208
 21
197.8956918393
 31
0.0
  0
LINE
  5
2A6
330
1F
100
AcDbEntity
  8
0
  6
Continuous
 62
     7
370
    15
100
AcDbLine
 10
84.4332663135
 20
198.1344922606
 30
0.0
 11
84.4332663135
 21
189.6344923808
 31
0.0
  0
LINE
  5
2A7
330
1F
100
AcDbEntity
  8
0
  6
Continuous
 62
     7
370
    15
100
AcDbLine
 10
84.2332666532
 20
189.8344922738
 30
0.0
 11
84.2332666532
 21
197.9344926004
 31
0.0
  0
LINE
  5
2A8
330
1F
100
AcDbEntity
  8
0
  6
Continuous
 62
     7
370
    15
100
AcDbLine
 10
86.233266981
 20
197.7069295172
 30
0.0
 11
86.233266981
 21
189.8344922738
 31
0.0
  0
LINE
  5
2A9
330
1F
100
AcDbEntity
  8
0
  6
Continuous
 62
     7
370
    15
100
AcDbLine
 10
86.233266981
 20
197.9344926004
 30
0.0
 11
86.233266981
 21
197.7069295172
 31
0.0
  0
LINE
  5
2AA
330
1F
100
AcDbEntity
  8
0
  6
Continuous
 62
     7
370
    15
100
AcDbLine
 10
92.7332671152
 20
196.1344923985
 30
0.0
 11
92.7332671152
 21
196.1202124294
 31
0.0
  0
LINE
  5
2AB
330
1F
100
AcDbEntity
  8
0
  6
Continuous
 62
     7
370
    15
100
AcDbLine
 10
92.7332671152
 20
196.1202124294
 30
0.0
 11
92.7332671152
 21
195.7897288885
 31
0.0
  0
LINE
  5
2AC
330
1F
100
AcDbEntity
  8
0
  6
Continuous
 62
     7
370
    15
100
AcDbLine
 10
92.7332671152
 20
195.7897288885
 30
0.0
 11
92.7332671152
 21
191.6344923593
 31
0.0
  0
LINE
  5
2AD
330
1F
100
AcDbEntity
  8
0
  6
Continuous
 62
     7
370
    15
100
AcDbLine
 10
93.7332672791
 20
195.5469340246
 30
0.0
 11
93.7332672791
 21
191.8844924003
 31
0.0
  0
SPLINE
  5
2AE
330
1F
100
AcDbEntity
  8
0
  6
Continuous
 62
     7
370
    15
100
AcDbSpline
210
0.0
220
0.0
230
1.0
 70
     8
 71
     3
 72
     8
 73
     4
 74
     0
 42
0.00000001
 43
0.00000001
 12
1.0
 22
0.0
 32
0.0
 13
1.0
 23
0.0
 33
0.0
 40
0.0
 40
0.0
 40
0.0
 40
0.0
 40
1.0
 40
1.0
 40
1.0
 40
1.0
 10
92.73326708750724
 20
195.7897288272576
 30
0.0
 10
93.06666769582452
 20
195.7090445563266
 30
0.0
 10
93.40001093044917
 20
195.6281453897043
 30
0.0
 10
93.73326708750724
 20
195.5469338231479
 30
0.0
  0
LINE
  5
2AF
330
1F
100
AcDbEntity
  8
0
  6
Continuous
 62
     7
370
    15
100
AcDbLine
 10
93.7332672791
 20
195.8844923575
 30
0.0
 11
93.7332672791
 21
195.8774175655
 31
0.0
  0
SPLINE
  5
2B0
330
1F
100
AcDbEntity
  8
0
  6
Continuous
 62
     7
370
    15
100
AcDbSpline
210
0.0
220
0.0
230
1.0
 70
     8
 71
     3
 72
     8
 73
     4
 74
     0
 42
0.00000001
 43
0.00000001
 12
1.0
 22
0.0
 32
0.0
 13
1.0
 23
0.0
 33
0.0
 40
0.0
 40
0.0
 40
0.0
 40
0.0
 40
1.0
 40
1.0
 40
1.0
 40
1.0
 10
93.73326708750723
 20
195.8774176530249
 30
0.0
 10
93.40001021652125
 20
195.9586293935592
 30
0.0
 10
93.06666751891909
 20
196.0395284290155
 30
0.0
 10
92.73326708750723
 20
196.1202126571346
 30
0.0
  0
LINE
  5
2B1
330
1F
100
AcDbEntity
  8
0
  6
Continuous
 62
     7
370
    15
100
AcDbLine
 10
93.7332672791
 20
195.5469340246
 30
0.0
 11
93.7332672791
 21
195.8774175655
 31
0.0
  0
LINE
  5
2B2
330
1F
100
AcDbEntity
  8
0
  6
Continuous
 62
     7
370
    15
100
AcDbLine
 10
84.2332666532
 20
173.8344925616
 30
0.0
 11
84.2332666532
 21
181.9344923061
 31
0.0
  0
LINE
  5
2B3
330
1F
100
AcDbEntity
  8
0
  6
Continuous
 62
     7
370
    15
100
AcDbLine
 10
84.4332663135
 20
182.134492432
 30
0.0
 11
84.4332663135
 21
173.63449197
 31
0.0
  0
LINE
  5
2B4
330
1F
100
AcDbEntity
  8
0
  6
Continuous
 62
     7
370
    15
100
AcDbLine
 10
86.0332673208
 20
181.8956920106
 30
0.0
 11
86.0332673208
 21
182.134492432
 31
0.0
  0
LINE
  5
2B5
330
1F
100
AcDbEntity
  8
0
  6
Continuous
 62
     7
370
    15
100
AcDbLine
 10
86.0332673208
 20
173.63449197
 30
0.0
 11
86.0332673208
 21
181.8956920106
 31
0.0
  0
LINE
  5
2B6
330
1F
100
AcDbEntity
  8
0
  6
Continuous
 62
     7
370
    15
100
AcDbLine
 10
86.233266981
 20
181.7069296886
 30
0.0
 11
86.233266981
 21
173.8344925616
 31
0.0
  0
LINE
  5
2B7
330
1F
100
AcDbEntity
  8
0
  6
Continuous
 62
     7
370
    15
100
AcDbLine
 10
86.233266981
 20
181.9344923061
 30
0.0
 11
86.233266981
 21
181.7069296886
 31
0.0
  0
LINE
  5
2B8
330
1F
100
AcDbEntity
  8
0
  6
Continuous
 62
     7
370
    15
100
AcDbLine
 10
92.7332671152
 20
180.1344921042
 30
0.0
 11
92.7332671152
 21
180.1202130664
 31
0.0
  0
LINE
  5
2B9
330
1F
100
AcDbEntity
  8
0
  6
Continuous
 62
     7
370
    15
100
AcDbLine
 10
92.7332671152
 20
180.1202130664
 30
0.0
 11
92.7332671152
 21
179.7897285942
 31
0.0
  0
LINE
  5
2BA
330
1F
100
AcDbEntity
  8
0
  6
Continuous
 62
     7
370
    15
100
AcDbLine
 10
92.7332671152
 20
179.7897285942
 30
0.0
 11
92.7332671152
 21
175.6344922979
 31
0.0
  0
LINE
  5
2BB
330
1F
100
AcDbEntity
  8
0
  6
Continuous
 62
     7
370
    15
100
AcDbLine
 10
93.7332672791
 20
179.5469337303
 30
0.0
 11
93.7332672791
 21
175.8844918732
 31
0.0
  0
SPLINE
  5
2BC
330
1F
100
AcDbEntity
  8
0
  6
Continuous
 62
     7
370
    15
100
AcDbSpline
210
0.0
220
0.0
230
1.0
 70
     8
 71
     3
 72
     8
 73
     4
 74
     0
 42
0.00000001
 43
0.00000001
 12
1.0
 22
0.0
 32
0.0
 13
1.0
 23
0.0
 33
0.0
 40
0.0
 40
0.0
 40
0.0
 40
0.0
 40
1.0
 40
1.0
 40
1.0
 40
1.0
 10
92.73326708750724
 20
179.7897288272576
 30
0.0
 10
93.06666769582452
 20
179.7090445563266
 30
0.0
 10
93.40001093044917
 20
179.6281453897042
 30
0.0
 10
93.73326708750724
 20
179.5469338231479
 30
0.0
  0
LINE
  5
2BD
330
1F
100
AcDbEntity
  8
0
  6
Continuous
 62
     7
370
    15
100
AcDbLine
 10
93.7332672791
 20
179.5469337303
 30
0.0
 11
93.7332672791
 21
179.8774172712
 31
0.0
  0
SPLINE
  5
2BE
330
1F
100
AcDbEntity
  8
0
  6
Continuous
 62
     7
370
    15
100
AcDbSpline
210
0.0
220
0.0
230
1.0
 70
     8
 71
     3
 72
     8
 73
     4
 74
     0
 42
0.00000001
 43
0.00000001
 12
1.0
 22
0.0
 32
0.0
 13
1.0
 23
0.0
 33
0.0
 40
0.0
 40
0.0
 40
0.0
 40
0.0
 40
1.0
 40
1.0
 40
1.0
 40
1.0
 10
93.73326708750723
 20
179.8774176530249
 30
0.0
 10
93.40001021652125
 20
179.9586293935592
 30
0.0
 10
93.06666751891909
 20
180.0395284290155
 30
0.0
 10
92.73326708750723
 20
180.1202126571346
 30
0.0
  0
LINE
  5
2BF
330
1F
100
AcDbEntity
  8
0
  6
Continuous
 62
     7
370
    15
100
AcDbLine
 10
93.7332672791
 20
179.8844925288
 30
0.0
 11
93.7332672791
 21
179.8774172712
 31
0.0
  0
LINE
  5
2C0
330
1F
100
AcDbEntity
  8
0
  6
Continuous
 62
     7
370
    15
100
AcDbLine
 10
86.0332673208
 20
141.8956901107
 30
0.0
 11
86.0332673208
 21
142.1344923947
 31
0.0
  0
LINE
  5
2C1
330
1F
100
AcDbEntity
  8
0
  6
Continuous
 62
     7
370
    15
100
AcDbLine
 10
86.0332673208
 20
133.6344937954
 30
0.0
 11
86.0332673208
 21
141.8956901107
 31
0.0
  0
LINE
  5
2C2
330
1F
100
AcDbEntity
  8
0
  6
Continuous
 62
     7
370
    15
100
AcDbLine
 10
84.4332663135
 20
142.1344923947
 30
0.0
 11
84.4332663135
 21
133.6344937954
 31
0.0
  0
LINE
  5
2C3
330
1F
100
AcDbEntity
  8
0
  6
Continuous
 62
     7
370
    15
100
AcDbLine
 10
84.2332666532
 20
133.8344934557
 30
0.0
 11
84.2332666532
 21
141.9344927345
 31
0.0
  0
LINE
  5
2C4
330
1F
100
AcDbEntity
  8
0
  6
Continuous
 62
     7
370
    15
100
AcDbLine
 10
86.233266981
 20
141.7069296513
 30
0.0
 11
86.233266981
 21
133.8344934557
 31
0.0
  0
LINE
  5
2C5
330
1F
100
AcDbEntity
  8
0
  6
Continuous
 62
     7
370
    15
100
AcDbLine
 10
86.233266981
 20
141.9344927345
 30
0.0
 11
86.233266981
 21
141.7069296513
 31
0.0
  0
LINE
  5
2C6
330
1F
100
AcDbEntity
  8
0
  6
Continuous
 62
     7
370
    15
100
AcDbLine
 10
92.7332671152
 20
140.1344920669
 30
0.0
 11
92.7332671152
 21
140.1202130292
 31
0.0
  0
LINE
  5
2C7
330
1F
100
AcDbEntity
  8
0
  6
Continuous
 62
     7
370
    15
100
AcDbLine
 10
92.7332671152
 20
140.1202130292
 30
0.0
 11
92.7332671152
 21
139.7897276257
 31
0.0
  0
LINE
  5
2C8
330
1F
100
AcDbEntity
  8
0
  6
Continuous
 62
     7
370
    15
100
AcDbLine
 10
92.7332671152
 20
139.7897276257
 30
0.0
 11
92.7332671152
 21
135.6344941233
 31
0.0
  0
LINE
  5
2C9
330
1F
100
AcDbEntity
  8
0
  6
Continuous
 62
     7
370
    15
100
AcDbLine
 10
93.7332672791
 20
139.5469355557
 30
0.0
 11
93.7332672791
 21
135.8844909046
 31
0.0
  0
SPLINE
  5
2CA
330
1F
100
AcDbEntity
  8
0
  6
Continuous
 62
     7
370
    15
100
AcDbSpline
210
0.0
220
0.0
230
1.0
 70
     8
 71
     3
 72
     8
 73
     4
 74
     0
 42
0.00000001
 43
0.00000001
 12
1.0
 22
0.0
 32
0.0
 13
1.0
 23
0.0
 33
0.0
 40
0.0
 40
0.0
 40
0.0
 40
0.0
 40
1.0
 40
1.0
 40
1.0
 40
1.0
 10
92.73326708750724
 20
139.7897288272576
 30
0.0
 10
93.06666769582452
 20
139.7090445563266
 30
0.0
 10
93.40001093044917
 20
139.6281453897042
 30
0.0
 10
93.73326708750724
 20
139.5469338231479
 30
0.0
  0
LINE
  5
2CB
330
1F
100
AcDbEntity
  8
0
  6
Continuous
 62
     7
370
    15
100
AcDbLine
 10
93.7332672791
 20
139.5469355557
 30
0.0
 11
93.7332672791
 21
139.877417234
 31
0.0
  0
SPLINE
  5
2CC
330
1F
100
AcDbEntity
  8
0
  6
Continuous
 62
     7
370
    15
100
AcDbSpline
210
0.0
220
0.0
230
1.0
 70
     8
 71
     3
 72
     8
 73
     4
 74
     0
 42
0.00000001
 43
0.00000001
 12
1.0
 22
0.0
 32
0.0
 13
1.0
 23
0.0
 33
0.0
 40
0.0
 40
0.0
 40
0.0
 40
0.0
 40
1.0
 40
1.0
 40
1.0
 40
1.0
 10
93.73326708750723
 20
139.8774176530249
 30
0.0
 10
93.40001021652125
 20
139.9586293935592
 30
0.0
 10
93.06666751891909
 20
140.0395284290155
 30
0.0
 10
92.73326708750723
 20
140.1202126571346
 30
0.0
  0
LINE
  5
2CD
330
1F
100
AcDbEntity
  8
0
  6
Continuous
 62
     7
370
    15
100
AcDbLine
 10
93.7332672791
 20
139.8844915603
 30
0.0
 11
93.7332672791
 21
139.877417234
 31
0.0
  0
LINE
  5
2CE
330
1F
100
AcDbEntity
  8
0
  6
Continuous
 62
     7
370
    15
100
AcDbLine
 10
90.9332664476
 20
204.3844918881
 30
0.0
 11
90.9332664476
 21
213.3844915007
 31
0.0
  0
LINE
  5
2CF
330
1F
100
AcDbEntity
  8
0
  6
Continuous
 62
     7
370
    15
100
AcDbLine
 10
91.9332666115
 20
205.384492052
 30
0.0
 11
91.9332666115
 21
212.3844931994
 31
0.0
  0
LINE
  5
2D0
330
1F
100
AcDbEntity
  8
0
  6
Continuous
 62
     7
370
    15
100
AcDbLine
 10
90.9332664476
 20
118.3844926928
 30
0.0
 11
90.9332664476
 21
127.3844923053
 31
0.0
  0
LINE
  5
2D1
330
1F
100
AcDbEntity
  8
0
  6
Continuous
 62
     7
370
    15
100
AcDbLine
 10
91.9332666115
 20
119.3844947193
 30
0.0
 11
91.9332666115
 21
126.3844940041
 31
0.0
  0
LINE
  5
2D2
330
1F
100
AcDbEntity
  8
0
  6
Continuous
 62
     7
370
    15
100
AcDbLine
 10
90.9332664476
 20
158.3844917987
 30
0.0
 11
90.9332664476
 21
167.3844914113
 31
0.0
  0
LINE
  5
2D3
330
1F
100
AcDbEntity
  8
0
  6
Continuous
 62
     7
370
    15
100
AcDbLine
 10
91.9332666115
 20
159.3844919626
 30
0.0
 11
91.9332666115
 21
166.38449311
 31
0.0
  0
LINE
  5
2D4
330
1F
100
AcDbEntity
  8
0
  6
Continuous
 62
     7
370
    15
100
AcDbLine
 10
90.9332664476
 20
244.384490994
 30
0.0
 11
90.9332664476
 21
253.3844906066
 31
0.0
  0
LINE
  5
2D5
330
1F
100
AcDbEntity
  8
0
  6
Continuous
 62
     7
370
    15
100
AcDbLine
 10
91.9332666115
 20
245.3844930206
 30
0.0
 11
91.9332666115
 21
252.3844960306
 31
0.0
  0
LINE
  5
2D6
330
1F
100
AcDbEntity
  8
0
  6
Continuous
 62
     7
370
    15
100
AcDbLine
 10
83.4332680122
 20
255.884495673
 30
0.0
 11
83.4332680122
 21
115.8844950769
 31
0.0
  0
LINE
  5
2D7
330
1F
100
AcDbEntity
  8
0
  6
Continuous
 62
     7
370
    15
100
AcDbLine
 10
83.4332680122
 20
115.8844950769
 30
0.0
 11
70.4332668127
 21
115.8844950769
 31
0.0
  0
LINE
  5
2D8
330
1F
100
AcDbEntity
  8
0
  6
Continuous
 62
     7
370
    15
100
AcDbLine
 10
70.4332668127
 20
255.884495673
 30
0.0
 11
70.4332668127
 21
115.8844950769
 31
0.0
  0
CIRCLE
  5
2D9
330
1F
100
AcDbEntity
  8
0
  6
Continuous
 62
     7
370
    15
100
AcDbCircle
 10
76.9332670875
 20
162.8844923292
 30
0.0
 40
4.882729999999995
  0
CIRCLE
  5
2DA
330
1F
100
AcDbEntity
  8
0
  6
Continuous
 62
     7
370
    15
100
AcDbCircle
 10
76.9332670875
 20
208.8844923292
 30
0.0
 40
4.882729999999981
  0
CIRCLE
  5
2DB
330
1F
100
AcDbEntity
  8
0
  6
Continuous
 62
     7
370
    15
100
AcDbCircle
 10
76.9332670875
 20
122.8844923292
 30
0.0
 40
4.882729999999995
  0
CIRCLE
  5
2DC
330
1F
100
AcDbEntity
  8
0
  6
Continuous
 62
     7
370
    15
100
AcDbCircle
 10
76.9332670875
 20
248.8844923292
 30
0.0
 40
4.882729999999981
  0
CIRCLE
  5
2DD
330
1F
100
AcDbEntity
  8
0
  6
Continuous
 62
     7
370
    15
100
AcDbCircle
 10
76.9332670875
 20
150.8844923292
 30
0.0
 40
5.499999999999986
  0
CIRCLE
  5
2DE
330
1F
100
AcDbEntity
  8
0
  6
Continuous
 62
     7
370
    15
100
AcDbCircle
 10
76.9332670875
 20
220.8844923292
 30
0.0
 40
5.499999999999972
  0
CIRCLE
  5
2DF
330
1F
100
AcDbEntity
  8
0
  6
Continuous
 62
     7
370
    15
100
AcDbCircle
 10
76.9332670875
 20
233.8844923292
 30
0.0
 40
2.099999999999994
  0
CIRCLE
  5
2E0
330
1F
100
AcDbEntity
  8
0
  6
Continuous
 62
     7
370
    15
100
AcDbCircle
 10
76.9332670875
 20
177.8844923292
 30
0.0
 40
2.09999999999998
  0
CIRCLE
  5
2E1
330
1F
100
AcDbEntity
  8
0
  6
Continuous
 62
     7
370
    15
100
AcDbCircle
 10
76.9332670875
 20
193.8844923292
 30
0.0
 40
2.09999999999998
  0
CIRCLE
  5
2E2
330
1F
100
AcDbEntity
  8
0
  6
Continuous
 62
     7
370
    15
100
AcDbCircle
 10
76.9332670875
 20
137.8844923292
 30
0.0
 40
2.099999999999994
  0
LINE
  5
2E3
330
1F
100
AcDbEntity
  8
0
  6
Continuous
 62
     7
370
    15
100
AcDbLine
 10
83.4332680122
 20
255.884495673
 30
0.0
 11
70.4332668127
 21
255.884495673
 31
0.0
  0
CIRCLE
  5
2E4
330
1F
100
AcDbEntity
  8
0
  6
Continuous
 62
     7
370
    15
100
AcDbCircle
 10
76.9332670875
 20
248.8844923292
 30
0.0
 40
4.632997031477487
  0
CIRCLE
  5
2E5
330
1F
100
AcDbEntity
  8
0
  6
Continuous
 62
     7
370
    15
100
AcDbCircle
 10
76.9332670875
 20
208.8844923292
 30
0.0
 40
4.632997031477487
  0
CIRCLE
  5
2E6
330
1F
100
AcDbEntity
  8
0
  6
Continuous
 62
     7
370
    15
100
AcDbCircle
 10
76.9332670875
 20
162.8844923292
 30
0.0
 40
4.632997031477501
  0
CIRCLE
  5
2E7
330
1F
100
AcDbEntity
  8
0
  6
Continuous
 62
     7
370
    15
100
AcDbCircle
 10
76.9332670875
 20
122.8844923292
 30
0.0
 40
4.632997031477501
  0
CIRCLE
  5
2E8
330
1F
100
AcDbEntity
  8
0
  6
Continuous
 62
     7
370
    15
100
AcDbCircle
 10
76.9332670875
 20
220.8844923292
 30
0.0
 40
3.299999999999997
  0
CIRCLE
  5
2E9
330
1F
100
AcDbEntity
  8
0
  6
Continuous
 62
     7
370
    15
100
AcDbCircle
 10
76.9332670875
 20
150.8844923292
 30
0.0
 40
3.299999999999997
  0
LINE
  5
2EA
330
1F
100
AcDbEntity
  8
0
  6
Continuous
 62
     7
370
    15
100
AcDbLine
 10
75.4332667009
 20
232.4147979889
 30
0.0
 11
75.4332667009
 21
235.3541861449
 31
0.0
  0
LINE
  5
2EB
330
1F
100
AcDbEntity
  8
0
  6
Continuous
 62
     7
370
    15
100
AcDbLine
 10
75.4332667009
 20
192.4147984173
 30
0.0
 11
75.4332667009
 21
195.3541861076
 31
0.0
  0
LINE
  5
2EC
330
1F
100
AcDbEntity
  8
0
  6
Continuous
 62
     7
370
    15
100
AcDbLine
 10
75.4332667009
 20
176.414798123
 30
0.0
 11
75.4332667009
 21
179.354186279
 31
0.0
  0
LINE
  5
2ED
330
1F
100
AcDbEntity
  8
0
  6
Continuous
 62
     7
370
    15
100
AcDbLine
 10
75.4332667009
 20
136.4147971545
 30
0.0
 11
75.4332667009
 21
139.3541853104
 31
0.0
  0
CIRCLE
  5
2EE
330
1F
100
AcDbEntity
  8
0
  6
Continuous
 62
     7
370
    15
100
AcDbCircle
 10
76.9332670875
 20
248.8844923292
 30
0.0
 40
3.949999999999989
  0
CIRCLE
  5
2EF
330
1F
100
AcDbEntity
  8
0
  6
Continuous
 62
     7
370
    15
100
AcDbCircle
 10
76.9332670875
 20
208.8844923292
 30
0.0
 40
3.949999999999989
  0
CIRCLE
  5
2F0
330
1F
100
AcDbEntity
  8
0
  6
Continuous
 62
     7
370
    15
100
AcDbCircle
 10
76.9332670875
 20
162.8844923292
 30
0.0
 40
3.950000000000003
  0
CIRCLE
  5
2F1
330
1F
100
AcDbEntity
  8
0
  6
Continuous
 62
     7
370
    15
100
AcDbCircle
 10
76.9332670875
 20
122.8844923292
 30
0.0
 40
3.949999999999989
  0
CIRCLE
  5
2F2
330
1F
100
AcDbEntity
  8
0
  6
Continuous
 62
     7
370
    15
100
AcDbCircle
 10
76.9332670875
 20
248.8844923292
 30
0.0
 40
2.5
  0
CIRCLE
  5
2F3
330
1F
100
AcDbEntity
  8
0
  6
Continuous
 62
     7
370
    15
100
AcDbCircle
 10
76.9332670875
 20
208.8844923292
 30
0.0
 40
2.499999999999986
  0
CIRCLE
  5
2F4
330
1F
100
AcDbEntity
  8
0
  6
Continuous
 62
     7
370
    15
100
AcDbCircle
 10
76.9332670875
 20
162.8844923292
 30
0.0
 40
2.5
  0
CIRCLE
  5
2F5
330
1F
100
AcDbEntity
  8
0
  6
Continuous
 62
     7
370
    15
100
AcDbCircle
 10
76.9332670875
 20
122.8844923292
 30
0.0
 40
2.499999999999986
  0
LINE
  5
2F6
330
1F
100
AcDbEntity
  8
0
  6
Continuous
 62
     7
370
    15
100
AcDbLine
 10
75.9332667829
 20
251.1757808898
 30
0.0
 11
77.9332671107
 21
251.1757808898
 31
0.0
  0
LINE
  5
2F7
330
1F
100
AcDbEntity
  8
0
  6
Continuous
 62
     7
370
    15
100
AcDbLine
 10
77.9332671107
 20
246.5932044361
 30
0.0
 11
75.9332667829
 21
246.5932044361
 31
0.0
  0
LINE
  5
2F8
330
1F
100
AcDbEntity
  8
0
  6
Continuous
 62
     7
370
    15
100
AcDbLine
 10
75.4332667009
 20
246.8844923351
 30
0.0
 11
75.4332667009
 21
250.8844929908
 31
0.0
  0
LINE
  5
2F9
330
1F
100
AcDbEntity
  8
0
  6
Continuous
 62
     7
370
    15
100
AcDbLine
 10
75.9332667829
 20
211.1757799212
 30
0.0
 11
77.9332671107
 21
211.1757799212
 31
0.0
  0
LINE
  5
2FA
330
1F
100
AcDbEntity
  8
0
  6
Continuous
 62
     7
370
    15
100
AcDbLine
 10
77.9332671107
 20
206.5932053302
 30
0.0
 11
75.9332667829
 21
206.5932053302
 31
0.0
  0
LINE
  5
2FB
330
1F
100
AcDbEntity
  8
0
  6
Continuous
 62
     7
370
    15
100
AcDbLine
 10
75.4332667009
 20
206.8844932292
 30
0.0
 11
75.4332667009
 21
210.8844920222
 31
0.0
  0
LINE
  5
2FC
330
1F
100
AcDbEntity
  8
0
  6
Continuous
 62
     7
370
    15
100
AcDbLine
 10
75.9332667829
 20
165.1757798318
 30
0.0
 11
77.9332671107
 21
165.1757798318
 31
0.0
  0
LINE
  5
2FD
330
1F
100
AcDbEntity
  8
0
  6
Continuous
 62
     7
370
    15
100
AcDbLine
 10
77.9332671107
 20
160.5932052408
 30
0.0
 11
75.9332667829
 21
160.5932052408
 31
0.0
  0
LINE
  5
2FE
330
1F
100
AcDbEntity
  8
0
  6
Continuous
 62
     7
370
    15
100
AcDbLine
 10
75.4332667009
 20
160.8844931398
 30
0.0
 11
75.4332667009
 21
164.8844919328
 31
0.0
  0
LINE
  5
2FF
330
1F
100
AcDbEntity
  8
0
  6
Continuous
 62
     7
370
    15
100
AcDbLine
 10
75.9332667829
 20
125.1757788632
 30
0.0
 11
77.9332671107
 21
125.1757788632
 31
0.0
  0
LINE
  5
300
330
1F
100
AcDbEntity
  8
0
  6
Continuous
 62
     7
370
    15
100
AcDbLine
 10
77.9332671107
 20
120.5932024096
 30
0.0
 11
75.9332667829
 21
120.5932024096
 31
0.0
  0
LINE
  5
301
330
1F
100
AcDbEntity
  8
0
  6
Continuous
 62
     7
370
    15
100
AcDbLine
 10
75.4332667009
 20
120.8844903086
 30
0.0
 11
75.4332667009
 21
124.8844909642
 31
0.0
  0
SPLINE
  5
302
330
1F
100
AcDbEntity
  8
0
  6
Continuous
 62
     7
370
    15
100
AcDbSpline
210
0.0
220
0.0
230
1.0
 70
     8
 71
     3
 72
    16
 73
    12
 74
     0
 42
0.00000001
 43
0.00000001
 12
1.0
 22
0.0
 32
0.0
 13
1.0
 23
0.0
 33
0.0
 40
0.0
 40
0.0
 40
0.0
 40
0.0
 40
0.2500000000000028
 40
0.2500000000000028
 40
0.3750000000000042
 40
0.3750000000000042
 40
0.5000000000000057
 40
0.5000000000000057
 40
0.7500000000000028
 40
0.7500000000000028
 40
1.0
 40
1.0
 40
1.0
 40
1.0
 10
75.13559246001996
 20
250.6218368355078
 30
0.0
 10
74.99207860953189
 20
250.3462497434424
 30
0.0
 10
74.85324427209139
 20
250.0683952240448
 30
0.0
 10
74.6795376028245
 20
249.6348749709738
 30
0.0
 10
74.62820550935679
 20
249.488351544689
 30
0.0
 10
74.55365932307308
 20
249.1880841636207
 30
0.0
 10
74.53130189619343
 20
249.0312643034394
 30
0.0
 10
74.53337479402803
 20
248.5685791071202
 30
0.0
 10
74.6256983487881
 20
248.2669914898377
 30
0.0
 10
74.85605190812356
 20
247.6951125724817
 30
0.0
 10
74.99350177290987
 20
247.4200020396092
 30
0.0
 10
75.13559246002066
 20
247.1471478228403
 30
0.0
  0
SPLINE
  5
303
330
1F
100
AcDbEntity
  8
0
  6
Continuous
 62
     7
370
    15
100
AcDbSpline
210
0.0
220
0.0
230
1.0
 70
     8
 71
     3
 72
    16
 73
    12
 74
     0
 42
0.00000001
 43
0.00000001
 12
1.0
 22
0.0
 32
0.0
 13
1.0
 23
0.0
 33
0.0
 40
0.0
 40
0.0
 40
0.0
 40
0.0
 40
0.249999999999998
 40
0.249999999999998
 40
0.3749999999999983
 40
0.3749999999999983
 40
0.4999999999999987
 40
0.4999999999999987
 40
0.7499999999999993
 40
0.7499999999999993
 40
1.0
 40
1.0
 40
1.0
 40
1.0
 10
75.13559246001994
 20
210.6218368355077
 30
0.0
 10
74.99207860953186
 20
210.3462497434423
 30
0.0
 10
74.85324427209137
 20
210.0683952240448
 30
0.0
 10
74.6795376028245
 20
209.6348749709738
 30
0.0
 10
74.62820550935677
 20
209.4883515446889
 30
0.0
 10
74.55365932307308
 20
209.1880841636207
 30
0.0
 10
74.53130189619343
 20
209.0312643034394
 30
0.0
 10
74.53337479402802
 20
208.5685791071202
 30
0.0
 10
74.62569834878809
 20
208.2669914898377
 30
0.0
 10
74.85605190812355
 20
207.6951125724817
 30
0.0
 10
74.99350177290984
 20
207.4200020396092
 30
0.0
 10
75.13559246002063
 20
207.1471478228403
 30
0.0
  0
SPLINE
  5
304
330
1F
100
AcDbEntity
  8
0
  6
Continuous
 62
     7
370
    15
100
AcDbSpline
210
0.0
220
0.0
230
1.0
 70
     8
 71
     3
 72
    16
 73
    12
 74
     0
 42
0.00000001
 43
0.00000001
 12
1.0
 22
0.0
 32
0.0
 13
1.0
 23
0.0
 33
0.0
 40
0.0
 40
0.0
 40
0.0
 40
0.0
 40
0.2499999999999982
 40
0.2499999999999982
 40
0.3749999999999976
 40
0.3749999999999976
 40
0.4999999999999969
 40
0.4999999999999969
 40
0.7499999999999984
 40
0.7499999999999984
 40
1.0
 40
1.0
 40
1.0
 40
1.0
 10
75.13559246001992
 20
164.6218368355077
 30
0.0
 10
74.99207860953186
 20
164.3462497434424
 30
0.0
 10
74.85324427209137
 20
164.0683952240448
 30
0.0
 10
74.67953760282448
 20
163.6348749709738
 30
0.0
 10
74.62820550935677
 20
163.4883515446889
 30
0.0
 10
74.55365932307306
 20
163.1880841636207
 30
0.0
 10
74.53130189619341
 20
163.0312643034394
 30
0.0
 10
74.53337479402799
 20
162.5685791071202
 30
0.0
 10
74.62569834878806
 20
162.2669914898377
 30
0.0
 10
74.8560519081235
 20
161.6951125724817
 30
0.0
 10
74.9935017729098
 20
161.4200020396093
 30
0.0
 10
75.13559246002058
 20
161.1471478228403
 30
0.0
  0
SPLINE
  5
305
330
1F
100
AcDbEntity
  8
0
  6
Continuous
 62
     7
370
    15
100
AcDbSpline
210
0.0
220
0.0
230
1.0
 70
     8
 71
     3
 72
    16
 73
    12
 74
     0
 42
0.00000001
 43
0.00000001
 12
1.0
 22
0.0
 32
0.0
 13
1.0
 23
0.0
 33
0.0
 40
0.0
 40
0.0
 40
0.0
 40
0.0
 40
0.2500000000000052
 40
0.2500000000000052
 40
0.375000000000008
 40
0.375000000000008
 40
0.5000000000000109
 40
0.5000000000000109
 40
0.7500000000000054
 40
0.7500000000000054
 40
1.0
 40
1.0
 40
1.0
 40
1.0
 10
75.13559246001992
 20
124.6218368355077
 30
0.0
 10
74.99207860953186
 20
124.3462497434424
 30
0.0
 10
74.85324427209137
 20
124.0683952240448
 30
0.0
 10
74.67953760282448
 20
123.6348749709738
 30
0.0
 10
74.62820550935677
 20
123.4883515446889
 30
0.0
 10
74.55365932307306
 20
123.1880841636207
 30
0.0
 10
74.53130189619341
 20
123.0312643034394
 30
0.0
 10
74.53337479402798
 20
122.5685791071203
 30
0.0
 10
74.62569834878805
 20
122.2669914898378
 30
0.0
 10
74.85605190812348
 20
121.6951125724818
 30
0.0
 10
74.99350177290978
 20
121.4200020396093
 30
0.0
 10
75.13559246002056
 20
121.1471478228404
 30
0.0
  0
LINE
  5
306
330
1F
100
AcDbEntity
  8
0
  6
Continuous
 62
     7
370
    15
100
AcDbLine
 10
90.7332667873
 20
236.7469306264
 30
0.0
 11
90.7332667873
 21
237.6344922159
 31
0.0
  0
LINE
  5
307
330
1F
100
AcDbEntity
  8
0
  6
Continuous
 62
     7
370
    15
100
AcDbLine
 10
90.7332667873
 20
230.1344919179
 30
0.0
 11
90.7332667873
 21
236.7469306264
 31
0.0
  0
LINE
  5
308
330
1F
100
AcDbEntity
  8
0
  6
Continuous
 62
     7
370
    15
100
AcDbLine
 10
91.7332669512
 20
235.983614919
 30
0.0
 11
91.7332669512
 21
236.6344939146
 31
0.0
  0
LINE
  5
309
330
1F
100
AcDbEntity
  8
0
  6
Continuous
 62
     7
370
    15
100
AcDbLine
 10
91.7332669512
 20
231.1344939445
 30
0.0
 11
91.7332669512
 21
235.983614919
 31
0.0
  0
LINE
  5
30A
330
1F
100
AcDbEntity
  8
0
  6
Continuous
 62
     7
370
    15
100
AcDbLine
 10
90.7332667873
 20
196.7469324518
 30
0.0
 11
90.7332667873
 21
197.6344921787
 31
0.0
  0
LINE
  5
30B
330
1F
100
AcDbEntity
  8
0
  6
Continuous
 62
     7
370
    15
100
AcDbLine
 10
90.7332667873
 20
190.1344923463
 30
0.0
 11
90.7332667873
 21
196.7469324518
 31
0.0
  0
LINE
  5
30C
330
1F
100
AcDbEntity
  8
0
  6
Continuous
 62
     7
370
    15
100
AcDbLine
 10
91.7332669512
 20
195.9836148817
 30
0.0
 11
91.7332669512
 21
196.6344920148
 31
0.0
  0
LINE
  5
30D
330
1F
100
AcDbEntity
  8
0
  6
Continuous
 62
     7
370
    15
100
AcDbLine
 10
91.7332669512
 20
191.1344922774
 30
0.0
 11
91.7332669512
 21
195.9836148817
 31
0.0
  0
LINE
  5
30E
330
1F
100
AcDbEntity
  8
0
  6
Continuous
 62
     7
370
    15
100
AcDbLine
 10
90.7332667873
 20
180.7469321575
 30
0.0
 11
90.7332667873
 21
181.63449235
 31
0.0
  0
LINE
  5
30F
330
1F
100
AcDbEntity
  8
0
  6
Continuous
 62
     7
370
    15
100
AcDbLine
 10
90.7332667873
 20
174.134492052
 30
0.0
 11
90.7332667873
 21
180.7469321575
 31
0.0
  0
LINE
  5
310
330
1F
100
AcDbEntity
  8
0
  6
Continuous
 62
     7
370
    15
100
AcDbLine
 10
91.7332669512
 20
179.9836150531
 30
0.0
 11
91.7332669512
 21
180.6344921861
 31
0.0
  0
LINE
  5
311
330
1F
100
AcDbEntity
  8
0
  6
Continuous
 62
     7
370
    15
100
AcDbLine
 10
91.7332669512
 20
175.1344922159
 30
0.0
 11
91.7332669512
 21
179.9836150531
 31
0.0
  0
LINE
  5
312
330
1F
100
AcDbEntity
  8
0
  6
Continuous
 62
     7
370
    15
100
AcDbLine
 10
90.7332667873
 20
140.7469335173
 30
0.0
 11
90.7332667873
 21
141.6344913815
 31
0.0
  0
LINE
  5
313
330
1F
100
AcDbEntity
  8
0
  6
Continuous
 62
     7
370
    15
100
AcDbLine
 10
90.7332667873
 20
134.1344910834
 30
0.0
 11
90.7332667873
 21
140.7469335173
 31
0.0
  0
LINE
  5
314
330
1F
100
AcDbEntity
  8
0
  6
Continuous
 62
     7
370
    15
100
AcDbLine
 10
91.7332669512
 20
139.9836140845
 30
0.0
 11
91.7332669512
 21
140.6344930802
 31
0.0
  0
LINE
  5
315
330
1F
100
AcDbEntity
  8
0
  6
Continuous
 62
     7
370
    15
100
AcDbLine
 10
91.7332669512
 20
135.13449311
 30
0.0
 11
91.7332669512
 21
139.9836140845
 31
0.0
  0
DIMENSION
  5
316
330
1F
100
AcDbEntity
  8
0
  6
Continuous
 62
     7
370
     0
100
AcDbDimension
  2
_D_2
 10
93.4332670875
 20
271.8845173292
 30
0.0
 11
82.2163133572
 21
271.8845173292
 31
0.0
 70
   160
  1
<>
 71
     2
 42
-1.0
  3
SLDDIMSTYLE0
100
AcDbAlignedDimension
 13
70.4332670875
 23
255.8844923292
 33
0.0
 14
93.4332670875
 24
251.6344923292
 34
0.0
100
AcDbRotatedDimension
  0
DIMENSION
  5
320
330
1F
100
AcDbEntity
  8
0
  6
Continuous
 62
     7
370
     0
100
AcDbDimension
  2
_D_3
 10
113.9292876696
 20
220.8844923292
 30
0.0
 11
113.9292876696
 21
238.3844923292
 31
0.0
 70
   160
  1
<>
 71
     2
 42
-1.0
  3
SLDDIMSTYLE0
100
AcDbAlignedDimension
 13
83.4332670875
 23
255.8844923292
 33
0.0
 14
84.9332670875
 24
220.8844923292
 34
0.0
 50
90.0
100
AcDbRotatedDimension
  0
DIMENSION
  5
32A
330
1F
100
AcDbEntity
  8
0
  6
Continuous
 62
     7
370
     0
100
AcDbDimension
  2
_D_4
 10
113.9292876696
 20
150.8844923292
 30
0.0
 11
113.9292876696
 21
185.8844923292
 31
0.0
 70
   160
  1
<>
 71
     2
 42
-1.0
  3
SLDDIMSTYLE0
100
AcDbAlignedDimension
 13
84.9332670875
 23
220.8844923292
 33
0.0
 14
84.9332670875
 24
150.8844923292
 34
0.0
 50
90.0
100
AcDbRotatedDimension
  0
DIMENSION
  5
334
330
1F
100
AcDbEntity
  8
0
  6
Continuous
 62
     7
370
     0
100
AcDbDimension
  2
_D_5
 10
113.9292876696
 20
115.8844923292
 30
0.0
 11
113.9292876696
 21
133.3844923292
 31
0.0
 70
   160
  1
<>
 71
     2
 42
-1.0
  3
SLDDIMSTYLE0
100
AcDbAlignedDimension
 13
84.9332670875
 23
150.8844923292
 33
0.0
 14
83.4332670875
 24
115.8844923292
 34
0.0
 50
90.0
100
AcDbRotatedDimension
  0
DIMENSION
  5
33E
330
1F
100
AcDbEntity
  8
0
  6
Continuous
 62
     7
370
     0
100
AcDbDimension
  2
_D_6
 10
76.9332670875
 20
103.5205975003
 30
0.0
 11
63.2699108822
 21
103.5205975003
 31
0.0
 70
   160
  1
<>
 71
     2
 42
-1.0
  3
SLDDIMSTYLE1
100
AcDbAlignedDimension
 13
70.4332670875
 23
115.8844923292
 33
0.0
 14
76.9332670875
 24
142.8844923292
 34
0.0
 50
0.0
100
AcDbRotatedDimension
  0
MTEXT
  5
34B
330
1F
100
AcDbEntity
  8
0
  6
Continuous
 62
     7
370
     0
100
AcDbMText
 10
42.2472360164
 20
275.370559996
 30
0.0
 40
3.5
 41
0.0
 71
     1
 72
     1
  1
4-Rc1/8
  7
SLDTEXTSTYLE1
 73
     1
 44
1.0
  0
LEADER
  5
34D
330
1F
100
AcDbEntity
  8
0
  6
Continuous
 62
     7
370
     0
100
AcDbLeader
  3
SLDDIMSTYLE2
 76
     3
 10
74.6568423308
 20
253.2040921463
 30
0.0
 10
59.9417077176
 20
270.8538587849
 30
0.0
 10
42.2003284072
 20
270.8538587849
 30
0.0
  0
MTEXT
  5
34E
330
1F
100
AcDbEntity
  8
0
  6
Continuous
 62
     7
370
     0
100
AcDbMText
 10
45.343763902
 20
254.4515696343
 30
0.0
 40
3.5
 41
0.0
 71
     1
 72
     1
  1
4-M5
  7
SLDTEXTSTYLE1
 73
     1
 44
1.0
  0
LEADER
  5
34F
330
1F
100
AcDbEntity
  8
0
  6
Continuous
 62
     7
370
     0
100
AcDbLeader
  3
SLDDIMSTYLE2
 76
     3
 10
75.6298700751
 20
235.5310512343
 30
0.0
 10
56.8218390805
 20
249.8357963875
 30
0.0
 10
45.3201970443
 20
249.8357963875
 30
0.0
  0
INSERT
  5
355
102
{ACAD_REACTORS
330
356
102
}
330
1F
100
AcDbEntity
  8
0
  6
Continuous
 62
     7
370
     0
100
AcDbBlockReference
  2
SW_NOTE_0
 10
24.4663382594
 20
126.8472906404
 30
0.0
  0
LEADER
  5
356
330
1F
100
AcDbEntity
  8
0
  6
Continuous
 62
     7
370
     0
100
AcDbLeader
  3
SLDDIMSTYLE2
 73
     2
 76
     3
 10
74.3379987639
 20
148.8462130725
 30
0.0
 10
62.5689655172
 20
126.8472906404
 30
0.0
 10
24.4663382594
 20
126.8472906404
 30
0.0
340
355
  0
INSERT
  5
362
330
1F
100
AcDbEntity
  8
0
  6
Continuous
 62
     7
370
     0
100
AcDbBlockReference
  2
SW_CENTERMARKSYMBOL_0
 10
76.9332670875
 20
220.8844923292
 30
0.0
  0
INSERT
  5
36E
330
1F
100
AcDbEntity
  8
0
  6
Continuous
 62
     7
370
     0
100
AcDbBlockReference
  2
SW_CENTERMARKSYMBOL_1
 10
76.9332670875
 20
150.8844923292
 30
0.0
  0
ENDSEC
  0
SECTION
  2
OBJECTS
  0
DICTIONARY
  5
C
330
0
100
AcDbDictionary
281
     1
  3
ACAD_GROUP
350
D
  3
ACAD_LAYOUT
350
1A
  3
ACAD_MLINESTYLE
350
17
  3
ACAD_PLOTSETTINGS
350
19
  3
ACAD_PLOTSTYLENAME
350
E
  0
DICTIONARY
  5
D
102
{ACAD_REACTORS
330
C
102
}
330
C
100
AcDbDictionary
281
     1
  0
DICTIONARY
  5
1A
102
{ACAD_REACTORS
330
C
102
}
330
C
100
AcDbDictionary
281
     1
  3
Layout1
350
1E
  3
Layout2
350
26
  3
Model
350
22
  0
DICTIONARY
  5
17
102
{ACAD_REACTORS
330
C
102
}
330
C
100
AcDbDictionary
281
     1
  3
Standard
350
18
  0
DICTIONARY
  5
19
102
{ACAD_REACTORS
330
C
102
}
330
C
100
AcDbDictionary
281
     1
  0
ACDBDICTIONARYWDFLT
  5
E
102
{ACAD_REACTORS
330
C
102
}
330
C
100
AcDbDictionary
281
     1
  3
Normal
350
F
100
AcDbDictionaryWithDefault
340
F
  0
LAYOUT
  5
1E
102
{ACAD_REACTORS
330
1A
102
}
330
1A
100
AcDbPlotSettings
  1

  2
none_device
  4

  6

 40
0.0
 41
0.0
 42
0.0
 43
0.0
 44
0.0
 45
0.0
 46
0.0
 47
0.0
 48
0.0
 49
0.0
140
0.0
141
0.0
142
1.0
143
1.0
 70
   688
 72
     0
 73
     0
 74
     5
  7

 75
    16
147
1.0
148
0.0
149
0.0
100
AcDbLayout
  1
Layout1
 70
     1
 71
     1
 10
0.0
 20
0.0
 11
420.0
 21
297.0
 12
0.0
 22
0.0
 32
0.0
 14
1.0000000000E+20
 24
1.0000000000E+20
 34
1.0000000000E+20
 15
-1.0000000000E+20
 25
-1.0000000000E+20
 35
-1.0000000000E+20
146
0.0
 13
0.0
 23
0.0
 33
0.0
 16
1.0
 26
0.0
 36
0.0
 17
0.0
 27
1.0
 37
0.0
 76
     0
330
1B
  0
LAYOUT
  5
26
102
{ACAD_REACTORS
330
1A
102
}
330
1A
100
AcDbPlotSettings
  1

  2
none_device
  4

  6

 40
0.0
 41
0.0
 42
0.0
 43
0.0
 44
0.0
 45
0.0
 46
0.0
 47
0.0
 48
0.0
 49
0.0
140
0.0
141
0.0
142
1.0
143
1.0
 70
   688
 72
     0
 73
     0
 74
     5
  7

 75
    16
147
1.0
148
0.0
149
0.0
100
AcDbLayout
  1
Layout2
 70
     1
 71
     2
 10
0.0
 20
0.0
 11
0.0
 21
0.0
 12
0.0
 22
0.0
 32
0.0
 14
0.0
 24
0.0
 34
0.0
 15
0.0
 25
0.0
 35
0.0
146
0.0
 13
0.0
 23
0.0
 33
0.0
 16
1.0
 26
0.0
 36
0.0
 17
0.0
 27
1.0
 37
0.0
 76
     0
330
23
  0
LAYOUT
  5
22
102
{ACAD_REACTORS
330
1A
102
}
330
1A
100
AcDbPlotSettings
  1

  2
none_device
  4

  6

 40
0.0
 41
0.0
 42
0.0
 43
0.0
 44
0.0
 45
0.0
 46
0.0
 47
0.0
 48
0.0
 49
0.0
140
0.0
141
0.0
142
1.0
143
1.0
 70
  1712
 72
     0
 73
     0
 74
     0
  7

 75
     0
147
1.0
148
0.0
149
0.0
100
AcDbLayout
  1
Model
 70
     1
 71
     0
 10
0.0
 20
0.0
 11
210.0
 21
297.0
 12
0.0
 22
0.0
 32
0.0
 14
0.0
 24
0.0
 34
0.0
 15
210.0
 25
297.0
 35
0.0
146
0.0
 13
0.0
 23
0.0
 33
0.0
 16
1.0
 26
0.0
 36
0.0
 17
0.0
 27
1.0
 37
0.0
 76
     0
330
1F
331
29
  0
MLINESTYLE
  5
18
102
{ACAD_REACTORS
330
17
102
}
330
17
100
AcDbMlineStyle
  2
Standard
 70
     0
  3

 62
   256
 51
90.0
 52
90.0
 71
     2
 49
0.5
 62
   256
  6
BYLAYER
 49
-0.5
 62
   256
  6
BYLAYER
  0
ACDBPLACEHOLDER
  5
F
102
{ACAD_REACTORS
330
E
102
}
330
E
  0
ENDSEC
  0
EOF
