  0
SECTION
  2
HEADER
  9
$ACADVER
  1
AC1015
  9
$ACADMAINTVER
 70
     6
  9
$DWGCODEPAGE
  3
DOS932
  9
$INSBASE
 10
0.0
 20
0.0
 30
0.0
  9
$EXTMIN
 10
0.0
 20
0.0
 30
0.0
  9
$EXTMAX
 10
210.0
 20
297.0
 30
0.0
  9
$LIMMIN
 10
0.0
 20
0.0
  9
$LIMMAX
 10
210.0
 20
297.0
  9
$ORTHOMODE
 70
     0
  9
$REGENMODE
 70
     1
  9
$FILLMODE
 70
     1
  9
$QTEXTMODE
 70
     0
  9
$MIRRTEXT
 70
     1
  9
$LTSCALE
 40
1.0
  9
$ATTMODE
 70
     1
  9
$TEXTSIZE
 40
3.5
  9
$TRACEWID
 40
1.0
  9
$TEXTSTYLE
  7
Standard
  9
$CLAYER
  8
0
  9
$CELTYPE
  6
ByLayer
  9
$CECOLOR
 62
   256
  9
$CELTSCALE
 40
1.0
  9
$DISPSILH
 70
     0
  9
$DIMSCALE
 40
1.0
  9
$DIMASZ
 40
2.0
  9
$DIMEXO
 40
1.0
  9
$DIMDLI
 40
3.75
  9
$DIMRND
 40
0.0
  9
$DIMDLE
 40
0.0
  9
$DIMEXE
 40
1.0
  9
$DIMTP
 40
0.0
  9
$DIMTM
 40
0.0
  9
$DIMTXT
 40
3.5
  9
$DIMCEN
 40
2.5
  9
$DIMTSZ
 40
0.0
  9
$DIMTOL
 70
     0
  9
$DIMLIM
 70
     0
  9
$DIMTIH
 70
     1
  9
$DIMTOH
 70
     1
  9
$DIMSE1
 70
     0
  9
$DIMSE2
 70
     0
  9
$DIMTAD
 70
     1
  9
$DIMZIN
 70
     0
  9
$DIMBLK
  1

  9
$DIMASO
 70
     1
  9
$DIMSHO
 70
     1
  9
$DIMPOST
  1

  9
$DIMAPOST
  1

  9
$DIMALT
 70
     0
  9
$DIMALTD
 70
     3
  9
$DIMALTF
 40
0.0393700787
  9
$DIMLFAC
 40
1.0
  9
$DIMTOFL
 70
     1
  9
$DIMTVP
 40
0.0
  9
$DIMTIX
 70
     0
  9
$DIMSOXD
 70
     0
  9
$DIMSAH
 70
     0
  9
$DIMBLK1
  1

  9
$DIMBLK2
  1

  9
$DIMSTYLE
  2
ISO-25
  9
$DIMCLRD
 70
     0
  9
$DIMCLRE
 70
     0
  9
$DIMCLRT
 70
     0
  9
$DIMTFAC
 40
1.0
  9
$DIMGAP
 40
1.524
  9
$DIMJUST
 70
     0
  9
$DIMSD1
 70
     0
  9
$DIMSD2
 70
     0
  9
$DIMTOLJ
 70
     0
  9
$DIMTZIN
 70
     0
  9
$DIMALTZ
 70
     0
  9
$DIMALTTZ
 70
     0
  9
$DIMUPT
 70
     0
  9
$DIMDEC
 70
     2
  9
$DIMTDEC
 70
     2
  9
$DIMALTU
 70
     2
  9
$DIMALTTD
 70
     3
  9
$DIMTXSTY
  7
Standard
  9
$DIMAUNIT
 70
     0
  9
$DIMADEC
 70
     2
  9
$DIMALTRND
 40
0.0
  9
$DIMAZIN
 70
     0
  9
$DIMDSEP
 70
    44
  9
$DIMATFIT
 70
     3
  9
$DIMFRAC
 70
     0
  9
$DIMLDRBLK
  1

  9
$DIMLUNIT
 70
     2
  9
$DIMLWD
 70
    -2
  9
$DIMLWE
 70
    -2
  9
$DIMTMOVE
 70
     0
  9
$LUNITS
 70
     2
  9
$LUPREC
 70
     2
  9
$SKETCHINC
 40
1.0
  9
$FILLETRAD
 40
10.0
  9
$AUNITS
 70
     0
  9
$AUPREC
 70
     2
  9
$MENU
  1
.
  9
$ELEVATION
 40
0.0
  9
$PELEVATION
 40
0.0
  9
$THICKNESS
 40
0.0
  9
$LIMCHECK
 70
     0
  9
$CHAMFERA
 40
10.0
  9
$CHAMFERB
 40
10.0
  9
$CHAMFERC
 40
20.0
  9
$CHAMFERD
 40
0.0
  9
$SKPOLY
 70
     0
  9
$TDCREATE
 40
2457703.754352604
  9
$TDUCREATE
 40
2457703.379352604
  9
$TDUPDATE
 40
2457703.75435441
  9
$TDUUPDATE
 40
2457703.37935441
  9
$TDINDWG
 40
0.0000000116
  9
$TDUSRTIMER
 40
0.0000000116
  9
$USRTIMER
 70
     1
  9
$ANGBASE
 50
0.0
  9
$ANGDIR
 70
     0
  9
$PDMODE
 70
     0
  9
$PDSIZE
 40
-1.0
  9
$PLINEWID
 40
0.0
  9
$SPLFRAME
 70
     0
  9
$SPLINETYPE
 70
     6
  9
$SPLINESEGS
 70
     8
  9
$HANDSEED
  5
177
  9
$SURFTAB1
 70
     6
  9
$SURFTAB2
 70
     6
  9
$SURFTYPE
 70
     6
  9
$SURFU
 70
     6
  9
$SURFV
 70
     6
  9
$UCSBASE
  2

  9
$UCSNAME
  2

  9
$UCSORG
 10
0.0
 20
0.0
 30
0.0
  9
$UCSXDIR
 10
1.0
 20
0.0
 30
0.0
  9
$UCSYDIR
 10
0.0
 20
1.0
 30
0.0
  9
$UCSORTHOREF
  2

  9
$UCSORTHOVIEW
 70
     0
  9
$UCSORGTOP
 10
0.0
 20
0.0
 30
0.0
  9
$UCSORGBOTTOM
 10
0.0
 20
0.0
 30
0.0
  9
$UCSORGLEFT
 10
0.0
 20
0.0
 30
0.0
  9
$UCSORGRIGHT
 10
0.0
 20
0.0
 30
0.0
  9
$UCSORGFRONT
 10
0.0
 20
0.0
 30
0.0
  9
$UCSORGBACK
 10
0.0
 20
0.0
 30
0.0
  9
$PUCSBASE
  2

  9
$PUCSNAME
  2

  9
$PUCSORG
 10
0.0
 20
0.0
 30
0.0
  9
$PUCSXDIR
 10
1.0
 20
0.0
 30
0.0
  9
$PUCSYDIR
 10
0.0
 20
1.0
 30
0.0
  9
$PUCSORTHOREF
  2

  9
$PUCSORTHOVIEW
 70
     0
  9
$PUCSORGTOP
 10
0.0
 20
0.0
 30
0.0
  9
$PUCSORGBOTTOM
 10
0.0
 20
0.0
 30
0.0
  9
$PUCSORGLEFT
 10
0.0
 20
0.0
 30
0.0
  9
$PUCSORGRIGHT
 10
0.0
 20
0.0
 30
0.0
  9
$PUCSORGFRONT
 10
0.0
 20
0.0
 30
0.0
  9
$PUCSORGBACK
 10
0.0
 20
0.0
 30
0.0
  9
$USERI1
 70
     0
  9
$USERI2
 70
     0
  9
$USERI3
 70
     0
  9
$USERI4
 70
     0
  9
$USERI5
 70
     0
  9
$USERR1
 40
0.0
  9
$USERR2
 40
0.0
  9
$USERR3
 40
0.0
  9
$USERR4
 40
0.0
  9
$USERR5
 40
0.0
  9
$WORLDVIEW
 70
     1
  9
$SHADEDGE
 70
     3
  9
$SHADEDIF
 70
    70
  9
$TILEMODE
 70
     1
  9
$MAXACTVP
 70
    64
  9
$PINSBASE
 10
0.0
 20
0.0
 30
0.0
  9
$PLIMCHECK
 70
     0
  9
$PEXTMIN
 10
1.0000000000E+20
 20
1.0000000000E+20
 30
1.0000000000E+20
  9
$PEXTMAX
 10
-1.0000000000E+20
 20
-1.0000000000E+20
 30
-1.0000000000E+20
  9
$PLIMMIN
 10
0.0
 20
0.0
  9
$PLIMMAX
 10
420.0
 20
297.0
  9
$UNITMODE
 70
     0
  9
$VISRETAIN
 70
     1
  9
$PLINEGEN
 70
     0
  9
$PSLTSCALE
 70
     1
  9
$TREEDEPTH
 70
  3020
  9
$CMLSTYLE
  2
Standard
  9
$CMLJUST
 70
     0
  9
$CMLSCALE
 40
20.0
  9
$PROXYGRAPHICS
 70
     1
  9
$MEASUREMENT
 70
     1
  9
$CELWEIGHT
370
    -1
  9
$ENDCAPS
280
     0
  9
$JOINSTYLE
280
     0
  9
$LWDISPLAY
290
     1
  9
$INSUNITS
 70
     4
  9
$HYPERLINKBASE
  1

  9
$STYLESHEET
  1

  9
$XEDIT
290
     1
  9
$CEPSNTYPE
380
     0
  9
$PSTYLEMODE
290
     1
  9
$FINGERPRINTGUID
  2
{69C125B3-ABFD-455B-A474-442C256DC781}
  9
$VERSIONGUID
  2
{FAEB1C32-E019-11D5-929B-00C0DF256EC4}
  9
$EXTNAMES
290
     1
  9
$PSVPSCALE
 40
0.0
  9
$OLESTARTUP
290
     0
  0
ENDSEC
  0
SECTION
  2
CLASSES
  0
CLASS
  1
ACDBDICTIONARYWDFLT
  2
AcDbDictionaryWithDefault
  3
ObjectDBX Classes
 90
        0
280
     0
281
     0
  0
CLASS
  1
VISUALSTYLE
  2
AcDbVisualStyle
  3
ObjectDBX Classes
 90
     4095
280
     0
281
     0
  0
CLASS
  1
MATERIAL
  2
AcDbMaterial
  3
ObjectDBX Classes
 90
     1153
280
     0
281
     0
  0
CLASS
  1
ACDBPLACEHOLDER
  2
AcDbPlaceHolder
  3
ObjectDBX Classes
 90
        0
280
     0
281
     0
  0
CLASS
  1
LAYOUT
  2
AcDbLayout
  3
ObjectDBX Classes
 90
        0
280
     0
281
     0
  0
ENDSEC
  0
SECTION
  2
TABLES
  0
TABLE
  2
VPORT
  5
8
330
0
100
AcDbSymbolTable
 70
     1
  0
VPORT
  5
29
330
8
100
AcDbSymbolTableRecord
100
AcDbViewportTableRecord
  2
*Active
 70
     0
 10
0.0
 20
0.0
 11
1.0
 21
1.0
 12
105.0
 22
148.5
 13
0.0
 23
0.0
 14
10.0
 24
10.0
 15
10.0
 25
10.0
 16
0.0
 26
0.0
 36
1.0
 17
0.0
 27
0.0
 37
0.0
 40
297.0
 41
0.7070707071
 42
50.0
 43
0.0
 44
0.0
 50
0.0
 51
0.0
 71
     0
 72
  2000
 73
     1
 74
     3
 75
     0
 76
     0
 77
     0
 78
     0
281
     0
 65
     1
110
0.0
120
0.0
130
0.0
111
1.0
121
0.0
131
0.0
112
0.0
122
1.0
132
0.0
 79
     0
146
0.0
  0
ENDTAB
  0
TABLE
  2
LTYPE
  5
5
330
0
100
AcDbSymbolTable
 70
     6
  0
LTYPE
  5
14
330
5
100
AcDbSymbolTableRecord
100
AcDbLinetypeTableRecord
  2
ByBlock
 70
     0
  3

 72
    65
 73
     0
 40
0.0
  0
LTYPE
  5
15
330
5
100
AcDbSymbolTableRecord
100
AcDbLinetypeTableRecord
  2
ByLayer
 70
     0
  3

 72
    65
 73
     0
 40
0.0
  0
LTYPE
  5
16
330
5
100
AcDbSymbolTableRecord
100
AcDbLinetypeTableRecord
  2
Continuous
 70
     0
  3
Solid line
 72
    65
 73
     0
 40
0.0
  0
LTYPE
  5
3F
330
5
100
AcDbSymbolTableRecord
100
AcDbLinetypeTableRecord
  2
HIDDEN
 70
     0
  3
Hidden __ __ __ __ __ __ __ __ __ __ __ __ __ __
 72
    65
 73
     2
 40
1.905
 49
1.27
 74
     0
 49
-0.635
 74
     0
  0
LTYPE
  5
40
330
5
100
AcDbSymbolTableRecord
100
AcDbLinetypeTableRecord
  2
PHANTOM
 70
     0
  3
Phantom ______  __  __  ______  __  __  ______
 72
    65
 73
     6
 40
12.7
 49
6.35
 74
     0
 49
-1.27
 74
     0
 49
1.27
 74
     0
 49
-1.27
 74
     0
 49
1.27
 74
     0
 49
-1.27
 74
     0
  0
LTYPE
  5
41
330
5
100
AcDbSymbolTableRecord
100
AcDbLinetypeTableRecord
  2
CENTER
 70
     0
  3
Center ____ _ ____ _ ____ _ ____ _ ____ _ ____
 72
    65
 73
     4
 40
10.16
 49
6.35
 74
     0
 49
-1.27
 74
     0
 49
1.27
 74
     0
 49
-1.27
 74
     0
  0
LTYPE
  5
42
330
5
100
AcDbSymbolTableRecord
100
AcDbLinetypeTableRecord
  2
CENTERX2
 70
     0
  3
Center (2x) ________  __  ________  __  _____
 72
    65
 73
     4
 40
20.32
 49
12.7
 74
     0
 49
-2.54
 74
     0
 49
2.54
 74
     0
 49
-2.54
 74
     0
  0
LTYPE
  5
43
330
5
100
AcDbSymbolTableRecord
100
AcDbLinetypeTableRecord
  2
DOT2
 70
     0
  3
Dot (.5x) ........................................
 72
    65
 73
     2
 40
0.635
 49
0.0
 74
     0
 49
-0.635
 74
     0
  0
ENDTAB
  0
TABLE
  2
LAYER
  5
2
330
0
100
AcDbSymbolTable
 70
     1
  0
LAYER
  5
10
330
2
100
AcDbSymbolTableRecord
100
AcDbLayerTableRecord
  2
0
 70
     0
 62
     7
  6
Continuous
370
    -3
390
F
  0
ENDTAB
  0
TABLE
  2
STYLE
  5
3
330
0
100
AcDbSymbolTable
 70
     3
  0
STYLE
  5
11
330
3
100
AcDbSymbolTableRecord
100
AcDbTextStyleTableRecord
  2
Standard
 70
     0
 40
0.0
 41
1.0
 50
0.0
 71
     0
 42
3.5
  3
txt
  4
bigfont
  0
STYLE
  5
4C
330
3
100
AcDbSymbolTableRecord
100
AcDbTextStyleTableRecord
  2
SLDTEXTSTYLE0
 70
     0
 40
0.0
 41
0.7
 50
0.0
 71
     0
 42
0.2
  3
TXT
  4
bigfont
  0
STYLE
  5
77
330
3
100
AcDbSymbolTableRecord
100
AcDbTextStyleTableRecord
  2
SLDTEXTSTYLE1
 70
     0
 40
0.0
 41
0.75
 50
0.0
 71
     0
 42
0.2
  3
TXT
  4
bigfont
  0
ENDTAB
  0
TABLE
  2
VIEW
  5
6
330
0
100
AcDbSymbolTable
 70
     0
  0
ENDTAB
  0
TABLE
  2
UCS
  5
7
330
0
100
AcDbSymbolTable
 70
     0
  0
ENDTAB
  0
TABLE
  2
APPID
  5
9
330
0
100
AcDbSymbolTable
 70
     1
  0
APPID
  5
12
330
9
100
AcDbSymbolTableRecord
100
AcDbRegAppTableRecord
  2
ACAD
 70
     0
  0
ENDTAB
  0
TABLE
  2
DIMSTYLE
  5
A
330
0
100
AcDbSymbolTable
 70
     5
100
AcDbDimStyleTable
  0
DIMSTYLE
105
27
330
A
100
AcDbSymbolTableRecord
100
AcDbDimStyleTableRecord
  2
ISO-25
 70
     0
 41
2.5
 42
0.625
 43
3.75
 44
1.25
 73
     0
 74
     0
 77
     1
 78
     8
140
2.5
141
2.5
143
0.0393700787
147
0.625
171
     3
172
     1
178
     0
271
     2
272
     2
274
     3
278
    44
283
     0
284
     8
340
11
  0
DIMSTYLE
105
78
102
{ACAD_REACTORS
330
76
330
DC
330
16D
102
}
330
A
100
AcDbSymbolTableRecord
100
AcDbDimStyleTableRecord
  2
SLDDIMSTYLE0
 70
     0
 41
2.0
 44
0.0
 45
0.000000001
 73
     0
 74
     0
 77
     3
 78
    12
 79
     3
140
3.5
147
0.875
173
     1
178
     0
271
     2
272
     2
276
     2
284
    12
340
77
  0
DIMSTYLE
105
D2
102
{ACAD_REACTORS
330
D1
330
E6
330
F0
102
}
330
A
100
AcDbSymbolTableRecord
100
AcDbDimStyleTableRecord
  2
SLDDIMSTYLE1
 70
     0
 41
2.0
 44
0.0
 45
0.000000001
 73
     0
 74
     0
 77
     3
 78
    12
 79
     3
140
3.5
147
0.875
173
     1
178
     0
271
     1
272
     1
276
     2
284
    12
340
77
  0
DIMSTYLE
105
FB
102
{ACAD_REACTORS
330
FA
102
}
330
A
100
AcDbSymbolTableRecord
100
AcDbDimStyleTableRecord
  2
SLDDIMSTYLE2
 70
     0
 41
2.0
 44
0.0
 45
0.000000001
 73
     0
 74
     0
 77
     3
 78
    12
 79
     3
140
3.5
147
0.875
172
     1
173
     1
178
     0
271
     1
272
     1
276
     2
284
    12
289
     0
340
77
  0
DIMSTYLE
105
108
330
A
100
AcDbSymbolTableRecord
100
AcDbDimStyleTableRecord
  2
SLDDIMSTYLE3
 70
     0
 41
2.0
 44
0.0
 45
0.000000001
140
0.0
146
2.0
147
0.0
173
     1
178
     0
271
     0
272
     0
276
     2
340
11
  0
ENDTAB
  0
TABLE
  2
BLOCK_RECORD
  5
1
330
0
100
AcDbSymbolTable
 70
    15
  0
BLOCK_RECORD
  5
1F
330
1
100
AcDbSymbolTableRecord
100
AcDbBlockTableRecord
  2
*Model_Space
340
22
  0
BLOCK_RECORD
  5
1B
330
1
100
AcDbSymbolTableRecord
100
AcDbBlockTableRecord
  2
*Paper_Space
340
1E
  0
BLOCK_RECORD
  5
23
330
1
100
AcDbSymbolTableRecord
100
AcDbBlockTableRecord
  2
*Paper_Space0
340
26
  0
BLOCK_RECORD
  5
79
330
1
100
AcDbSymbolTableRecord
100
AcDbBlockTableRecord
  2
_D
340
0
  0
BLOCK_RECORD
  5
D3
330
1
100
AcDbSymbolTableRecord
100
AcDbBlockTableRecord
  2
_D_1
340
0
  0
BLOCK_RECORD
  5
DD
330
1
100
AcDbSymbolTableRecord
100
AcDbBlockTableRecord
  2
_D_2
340
0
  0
BLOCK_RECORD
  5
E7
330
1
100
AcDbSymbolTableRecord
100
AcDbBlockTableRecord
  2
_D_3
340
0
  0
BLOCK_RECORD
  5
F1
330
1
100
AcDbSymbolTableRecord
100
AcDbBlockTableRecord
  2
_D_4
340
0
  0
BLOCK_RECORD
  5
FC
330
1
100
AcDbSymbolTableRecord
100
AcDbBlockTableRecord
  2
_D_5
340
0
  0
BLOCK_RECORD
  5
10C
330
1
100
AcDbSymbolTableRecord
100
AcDbBlockTableRecord
  2
SW_CENTERMARKSYMBOL_0
340
0
102
{BLKREFS
331
117
102
}
  0
BLOCK_RECORD
  5
118
330
1
100
AcDbSymbolTableRecord
100
AcDbBlockTableRecord
  2
SW_CENTERMARKSYMBOL_1
340
0
102
{BLKREFS
331
123
102
}
  0
BLOCK_RECORD
  5
124
330
1
100
AcDbSymbolTableRecord
100
AcDbBlockTableRecord
  2
SW_CENTERMARKSYMBOL_2
340
0
102
{BLKREFS
331
12F
102
}
  0
BLOCK_RECORD
  5
130
330
1
100
AcDbSymbolTableRecord
100
AcDbBlockTableRecord
  2
SW_CENTERMARKSYMBOL_3
340
0
102
{BLKREFS
331
13B
102
}
  0
BLOCK_RECORD
  5
13C
330
1
100
AcDbSymbolTableRecord
100
AcDbBlockTableRecord
  2
SW_CENTERMARKSYMBOL_4
340
0
102
{BLKREFS
331
147
102
}
  0
BLOCK_RECORD
  5
148
330
1
100
AcDbSymbolTableRecord
100
AcDbBlockTableRecord
  2
SW_CENTERMARKSYMBOL_5
340
0
102
{BLKREFS
331
153
102
}
  0
BLOCK_RECORD
  5
154
330
1
100
AcDbSymbolTableRecord
100
AcDbBlockTableRecord
  2
SW_CENTERMARKSYMBOL_6
340
0
102
{BLKREFS
331
15F
102
}
  0
BLOCK_RECORD
  5
16E
330
1
100
AcDbSymbolTableRecord
100
AcDbBlockTableRecord
  2
_D_6
340
0
  0
ENDTAB
  0
ENDSEC
  0
SECTION
  2
BLOCKS
  0
BLOCK
  5
20
330
1F
100
AcDbEntity
  8
0
100
AcDbBlockBegin
  2
*Model_Space
 70
     0
 10
0.0
 20
0.0
 30
0.0
  3
*Model_Space
  1

  0
ENDBLK
  5
21
330
1F
100
AcDbEntity
  8
0
100
AcDbBlockEnd
  0
BLOCK
  5
1C
330
1B
100
AcDbEntity
 67
     1
  8
0
100
AcDbBlockBegin
  2
*Paper_Space
 70
     0
 10
0.0
 20
0.0
 30
0.0
  3
*Paper_Space
  1

  0
ENDBLK
  5
1D
330
1B
100
AcDbEntity
 67
     1
  8
0
100
AcDbBlockEnd
  0
BLOCK
  5
24
330
23
100
AcDbEntity
  8
0
100
AcDbBlockBegin
  2
*Paper_Space0
 70
     0
 10
0.0
 20
0.0
 30
0.0
  3
*Paper_Space0
  1

  0
ENDBLK
  5
25
330
23
100
AcDbEntity
  8
0
100
AcDbBlockEnd
  0
BLOCK
  5
7A
330
79
100
AcDbEntity
  8
0
100
AcDbBlockBegin
  2
_D
 70
     0
 10
0.0
 20
0.0
 30
0.0
  3
_D
  1

  0
SOLID
  5
7C
330
79
100
AcDbEntity
  8
0
  6
Continuous
 62
     7
370
     0
100
AcDbTrace
 10
46.0219886066
 20
196.4244532883
 30
0.0
 11
48.0219886066
 21
195.6744532883
 31
0.0
 12
48.0219886066
 22
197.1744532883
 32
0.0
 13
48.0219886066
 23
197.1744532883
 33
0.0
  0
SOLID
  5
7D
330
79
100
AcDbEntity
  8
0
  6
Continuous
 62
     7
370
     0
100
AcDbTrace
 10
126.0219886066
 20
196.4244532883
 30
0.0
 11
124.0219886066
 21
197.1744532883
 31
0.0
 12
124.0219886066
 22
195.6744532883
 32
0.0
 13
124.0219886066
 23
195.6744532883
 33
0.0
  0
LINE
  5
7E
330
79
100
AcDbEntity
  8
0
  6
Continuous
 62
     7
370
     0
100
AcDbLine
 10
46.0219886066
 20
184.4244532883
 30
0.0
 11
46.0219886066
 21
197.4244532883
 31
0.0
  0
LINE
  5
7F
330
79
100
AcDbEntity
  8
0
  6
Continuous
 62
     7
370
     0
100
AcDbLine
 10
126.0219886066
 20
184.4244532883
 30
0.0
 11
126.0219886066
 21
197.4244532883
 31
0.0
  0
LINE
  5
80
330
79
100
AcDbEntity
  8
0
  6
Continuous
 62
     7
370
     0
100
AcDbLine
 10
46.0219886066
 20
196.4244532883
 30
0.0
 11
126.0219886066
 21
196.4244532883
 31
0.0
  0
MTEXT
  5
81
330
79
100
AcDbEntity
  8
0
  6
Continuous
 62
     7
370
     0
100
AcDbMText
 10
86.3269454928
 20
200.9361902029
 30
18.6305128049
 40
3.5
 41
0.0
 71
     1
 72
     1
  1
80
  7
SLDTEXTSTYLE1
 73
     1
 44
1.0
  0
ENDBLK
  5
7B
330
79
100
AcDbEntity
  8
0
100
AcDbBlockEnd
  0
BLOCK
  5
D4
330
D3
100
AcDbEntity
  8
0
100
AcDbBlockBegin
  2
_D_1
 70
     0
 10
0.0
 20
0.0
 30
0.0
  3
_D_1
  1

  0
SOLID
  5
D6
330
D3
100
AcDbEntity
  8
0
  6
Continuous
 62
     7
370
     0
100
AcDbTrace
 10
46.0219886066
 20
122.9506156562
 30
0.0
 11
48.0219886066
 21
122.2006156562
 31
0.0
 12
48.0219886066
 22
123.7006156562
 32
0.0
 13
48.0219886066
 23
123.7006156562
 33
0.0
  0
SOLID
  5
D7
330
D3
100
AcDbEntity
  8
0
  6
Continuous
 62
     7
370
     0
100
AcDbTrace
 10
73.5219886066
 20
122.9506156562
 30
0.0
 11
71.5219886066
 21
123.7006156562
 31
0.0
 12
71.5219886066
 22
122.2006156562
 32
0.0
 13
71.5219886066
 23
122.2006156562
 33
0.0
  0
LINE
  5
D8
330
D3
100
AcDbEntity
  8
0
  6
Continuous
 62
     7
370
     0
100
AcDbLine
 10
46.0219886066
 20
117.2516662701
 30
0.0
 11
46.0219886066
 21
123.9506156562
 31
0.0
  0
LINE
  5
D9
330
D3
100
AcDbEntity
  8
0
  6
Continuous
 62
     7
370
     0
100
AcDbLine
 10
73.5219886066
 20
114.2016662701
 30
0.0
 11
73.5219886066
 21
123.9506156562
 31
0.0
  0
LINE
  5
DA
330
D3
100
AcDbEntity
  8
0
  6
Continuous
 62
     7
370
     0
100
AcDbLine
 10
46.0219886066
 20
122.9506156562
 30
0.0
 11
73.5219886066
 21
122.9506156562
 31
0.0
  0
MTEXT
  5
DB
330
D3
100
AcDbEntity
  8
0
  6
Continuous
 62
     7
370
     0
100
AcDbMText
 10
57.4477778896
 20
127.4623525708
 30
-0.4
 40
3.5
 41
0.0
 71
     1
 72
     1
  1
27.5
  7
SLDTEXTSTYLE1
 73
     1
 44
1.0
  0
ENDBLK
  5
D5
330
D3
100
AcDbEntity
  8
0
100
AcDbBlockEnd
  0
BLOCK
  5
DE
330
DD
100
AcDbEntity
  8
0
100
AcDbBlockBegin
  2
_D_2
 70
     0
 10
0.0
 20
0.0
 30
0.0
  3
_D_2
  1

  0
SOLID
  5
E0
330
DD
100
AcDbEntity
  8
0
  6
Continuous
 62
     7
370
     0
100
AcDbTrace
 10
73.5219886066
 20
122.9506156562
 30
0.0
 11
75.5219886066
 21
122.2006156562
 31
0.0
 12
75.5219886066
 22
123.7006156562
 32
0.0
 13
75.5219886066
 23
123.7006156562
 33
0.0
  0
SOLID
  5
E1
330
DD
100
AcDbEntity
  8
0
  6
Continuous
 62
     7
370
     0
100
AcDbTrace
 10
98.5219886066
 20
122.9506156562
 30
0.0
 11
96.5219886066
 21
123.7006156562
 31
0.0
 12
96.5219886066
 22
122.2006156562
 32
0.0
 13
96.5219886066
 23
122.2006156562
 33
0.0
  0
LINE
  5
E2
330
DD
100
AcDbEntity
  8
0
  6
Continuous
 62
     7
370
     0
100
AcDbLine
 10
73.5219886066
 20
114.2016662701
 30
0.0
 11
73.5219886066
 21
123.9506156562
 31
0.0
  0
LINE
  5
E3
330
DD
100
AcDbEntity
  8
0
  6
Continuous
 62
     7
370
     0
100
AcDbLine
 10
98.5219886066
 20
114.2016662701
 30
0.0
 11
98.5219886066
 21
123.9506156562
 31
0.0
  0
LINE
  5
E4
330
DD
100
AcDbEntity
  8
0
  6
Continuous
 62
     7
370
     0
100
AcDbLine
 10
73.5219886066
 20
122.9506156562
 30
0.0
 11
98.5219886066
 21
122.9506156562
 31
0.0
  0
MTEXT
  5
E5
330
DD
100
AcDbEntity
  8
0
  6
Continuous
 62
     7
370
     0
100
AcDbMText
 10
83.7468199789
 20
127.4623525708
 30
-0.4
 40
3.5
 41
0.0
 71
     1
 72
     1
  1
25
  7
SLDTEXTSTYLE1
 73
     1
 44
1.0
  0
ENDBLK
  5
DF
330
DD
100
AcDbEntity
  8
0
100
AcDbBlockEnd
  0
BLOCK
  5
E8
330
E7
100
AcDbEntity
  8
0
100
AcDbBlockBegin
  2
_D_3
 70
     0
 10
0.0
 20
0.0
 30
0.0
  3
_D_3
  1

  0
SOLID
  5
EA
330
E7
100
AcDbEntity
  8
0
  6
Continuous
 62
     7
370
     0
100
AcDbTrace
 10
98.5219886066
 20
122.9506156562
 30
0.0
 11
100.5219886066
 21
122.2006156562
 31
0.0
 12
100.5219886066
 22
123.7006156562
 32
0.0
 13
100.5219886066
 23
123.7006156562
 33
0.0
  0
SOLID
  5
EB
330
E7
100
AcDbEntity
  8
0
  6
Continuous
 62
     7
370
     0
100
AcDbTrace
 10
126.0219886066
 20
122.9506156562
 30
0.0
 11
124.0219886066
 21
123.7006156562
 31
0.0
 12
124.0219886066
 22
122.2006156562
 32
0.0
 13
124.0219886066
 23
122.2006156562
 33
0.0
  0
LINE
  5
EC
330
E7
100
AcDbEntity
  8
0
  6
Continuous
 62
     7
370
     0
100
AcDbLine
 10
98.5219886066
 20
114.2016662701
 30
0.0
 11
98.5219886066
 21
123.9506156562
 31
0.0
  0
LINE
  5
ED
330
E7
100
AcDbEntity
  8
0
  6
Continuous
 62
     7
370
     0
100
AcDbLine
 10
126.0219886066
 20
117.2516662701
 30
0.0
 11
126.0219886066
 21
123.9506156562
 31
0.0
  0
LINE
  5
EE
330
E7
100
AcDbEntity
  8
0
  6
Continuous
 62
     7
370
     0
100
AcDbLine
 10
98.5219886066
 20
122.9506156562
 30
0.0
 11
126.0219886066
 21
122.9506156562
 31
0.0
  0
MTEXT
  5
EF
330
E7
100
AcDbEntity
  8
0
  6
Continuous
 62
     7
370
     0
100
AcDbMText
 10
108.8474013813
 20
127.4623525708
 30
-0.4
 40
3.5
 41
0.0
 71
     1
 72
     1
  1
27.5
  7
SLDTEXTSTYLE1
 73
     1
 44
1.0
  0
ENDBLK
  5
E9
330
E7
100
AcDbEntity
  8
0
100
AcDbBlockEnd
  0
BLOCK
  5
F2
330
F1
100
AcDbEntity
  8
0
100
AcDbBlockBegin
  2
_D_4
 70
     0
 10
0.0
 20
0.0
 30
0.0
  3
_D_4
  1

  0
SOLID
  5
F4
330
F1
100
AcDbEntity
  8
0
  6
Continuous
 62
     7
370
     0
100
AcDbTrace
 10
41.1368954908
 20
116.2516662701
 30
0.0
 11
40.3868954908
 21
114.2516662701
 31
0.0
 12
41.8868954908
 22
114.2516662701
 32
0.0
 13
41.8868954908
 23
114.2516662701
 33
0.0
  0
SOLID
  5
F5
330
F1
100
AcDbEntity
  8
0
  6
Continuous
 62
     7
370
     0
100
AcDbTrace
 10
41.1368954908
 20
92.4516662701
 30
0.0
 11
41.8868954908
 21
94.4516662701
 31
0.0
 12
40.3868954908
 22
94.4516662701
 32
0.0
 13
40.3868954908
 23
94.4516662701
 33
0.0
  0
LINE
  5
F6
330
F1
100
AcDbEntity
  8
0
  6
Continuous
 62
     7
370
     0
100
AcDbLine
 10
45.0219886066
 20
116.2516662701
 30
0.0
 11
40.1368954908
 21
116.2516662701
 31
0.0
  0
LINE
  5
F7
330
F1
100
AcDbEntity
  8
0
  6
Continuous
 62
     7
370
     0
100
AcDbLine
 10
45.0219886066
 20
92.4516662701
 30
0.0
 11
40.1368954908
 21
92.4516662701
 31
0.0
  0
LINE
  5
F8
330
F1
100
AcDbEntity
  8
0
  6
Continuous
 62
     7
370
     0
100
AcDbLine
 10
41.1368954908
 20
116.2516662701
 30
0.0
 11
41.1368954908
 21
92.4516662701
 31
0.0
  0
MTEXT
  5
F9
330
F1
100
AcDbEntity
  8
0
  6
Continuous
 62
     7
370
     0
100
AcDbMText
 10
36.6251585762
 20
100.3801546061
 30
-0.4
 40
3.5
 41
0.0
 71
     1
 72
     1
  1
23.8
  7
SLDTEXTSTYLE1
 11
-7.044195017643634E-15
 21
1.0
 31
0.0
 73
     1
 44
1.0
  0
ENDBLK
  5
F3
330
F1
100
AcDbEntity
  8
0
100
AcDbBlockEnd
  0
BLOCK
  5
FD
330
FC
100
AcDbEntity
  8
0
100
AcDbBlockBegin
  2
_D_5
 70
     0
 10
0.0
 20
0.0
 30
0.0
  3
_D_5
  1

  0
SOLID
  5
FF
330
FC
100
AcDbEntity
  8
0
  6
Continuous
 62
     7
370
     0
100
AcDbTrace
 10
136.0219886066
 20
116.2516662701
 30
0.0
 11
136.7719886066
 21
118.2516662701
 31
0.0
 12
135.2719886066
 22
118.2516662701
 32
0.0
 13
135.2719886066
 23
118.2516662701
 33
0.0
  0
SOLID
  5
100
330
FC
100
AcDbEntity
  8
0
  6
Continuous
 62
     7
370
     0
100
AcDbTrace
 10
136.0219886066
 20
108.4516662701
 30
0.0
 11
135.2719886066
 21
106.4516662701
 31
0.0
 12
136.7719886066
 22
106.4516662701
 32
0.0
 13
136.7719886066
 23
106.4516662701
 33
0.0
  0
LINE
  5
101
330
FC
100
AcDbEntity
  8
0
  6
Continuous
 62
     7
370
     0
100
AcDbLine
 10
127.0219886066
 20
116.2516662701
 30
0.0
 11
137.0219886066
 21
116.2516662701
 31
0.0
  0
LINE
  5
102
330
FC
100
AcDbEntity
  8
0
  6
Continuous
 62
     7
370
     0
100
AcDbLine
 10
104.2719886066
 20
108.4516662701
 30
0.0
 11
137.0219886066
 21
108.4516662701
 31
0.0
  0
LINE
  5
103
330
FC
100
AcDbEntity
  8
0
  6
Continuous
 62
     7
370
     0
100
AcDbLine
 10
136.0219886066
 20
116.2516662701
 30
0.0
 11
136.0219886066
 21
127.3787039522
 31
0.0
  0
LINE
  5
104
330
FC
100
AcDbEntity
  8
0
  6
Continuous
 62
     7
370
     0
100
AcDbLine
 10
136.0219886066
 20
116.2516662701
 30
0.0
 11
136.0219886066
 21
108.4516662701
 31
0.0
  0
LINE
  5
105
330
FC
100
AcDbEntity
  8
0
  6
Continuous
 62
     7
370
     0
100
AcDbLine
 10
136.0219886066
 20
108.4516662701
 30
0.0
 11
136.0219886066
 21
103.4516662701
 31
0.0
  0
MTEXT
  5
106
330
FC
100
AcDbEntity
  8
0
  6
Continuous
 62
     7
370
     0
100
AcDbMText
 10
131.510251692
 20
120.9134263177
 30
-0.4
 40
3.5
 41
0.0
 71
     1
 72
     1
  1
7.8
  7
SLDTEXTSTYLE1
 11
-7.044195017643634E-15
 21
1.0
 31
0.0
 73
     1
 44
1.0
  0
ENDBLK
  5
FE
330
FC
100
AcDbEntity
  8
0
100
AcDbBlockEnd
  0
BLOCK
  5
10D
330
10C
100
AcDbEntity
  8
0
100
AcDbBlockBegin
  2
SW_CENTERMARKSYMBOL_0
 70
     0
 10
0.0
 20
0.0
 30
0.0
  3
SW_CENTERMARKSYMBOL_0
  1

  0
LINE
  5
10F
330
10C
100
AcDbEntity
  8
0
  6
Continuous
 62
     0
370
     0
100
AcDbLine
 10
0.0
 20
0.0
 30
0.0
 11
0.0
 21
2.5
 31
0.0
  0
LINE
  5
110
330
10C
100
AcDbEntity
  8
0
  6
Continuous
 62
     0
370
     0
100
AcDbLine
 10
0.0
 20
0.0
 30
0.0
 11
-2.5
 21
0.0
 31
0.0
  0
LINE
  5
111
330
10C
100
AcDbEntity
  8
0
  6
Continuous
 62
     0
370
     0
100
AcDbLine
 10
0.0
 20
0.0
 30
0.0
 11
0.0
 21
-2.5
 31
0.0
  0
LINE
  5
112
330
10C
100
AcDbEntity
  8
0
  6
Continuous
 62
     0
370
     0
100
AcDbLine
 10
0.0
 20
0.0
 30
0.0
 11
2.5
 21
0.0
 31
0.0
  0
LINE
  5
113
330
10C
100
AcDbEntity
  8
0
  6
Continuous
 62
     0
370
     0
100
AcDbLine
 10
0.0
 20
2.5
 30
0.0
 11
0.0
 21
4.75
 31
0.0
  0
LINE
  5
114
330
10C
100
AcDbEntity
  8
0
  6
Continuous
 62
     0
370
     0
100
AcDbLine
 10
-2.5
 20
0.0
 30
0.0
 11
-4.75
 21
0.0
 31
0.0
  0
LINE
  5
115
330
10C
100
AcDbEntity
  8
0
  6
Continuous
 62
     0
370
     0
100
AcDbLine
 10
0.0
 20
-2.5
 30
0.0
 11
0.0
 21
-4.75
 31
0.0
  0
LINE
  5
116
330
10C
100
AcDbEntity
  8
0
  6
Continuous
 62
     0
370
     0
100
AcDbLine
 10
2.5
 20
0.0
 30
0.0
 11
4.75
 21
0.0
 31
0.0
  0
ENDBLK
  5
10E
330
10C
100
AcDbEntity
  8
0
100
AcDbBlockEnd
  0
BLOCK
  5
119
330
118
100
AcDbEntity
  8
0
100
AcDbBlockBegin
  2
SW_CENTERMARKSYMBOL_1
 70
     0
 10
0.0
 20
0.0
 30
0.0
  3
SW_CENTERMARKSYMBOL_1
  1

  0
LINE
  5
11B
330
118
100
AcDbEntity
  8
0
  6
Continuous
 62
     0
370
     0
100
AcDbLine
 10
0.0
 20
0.0
 30
0.0
 11
0.0
 21
2.5
 31
0.0
  0
LINE
  5
11C
330
118
100
AcDbEntity
  8
0
  6
Continuous
 62
     0
370
     0
100
AcDbLine
 10
0.0
 20
0.0
 30
0.0
 11
-2.5
 21
0.0
 31
0.0
  0
LINE
  5
11D
330
118
100
AcDbEntity
  8
0
  6
Continuous
 62
     0
370
     0
100
AcDbLine
 10
0.0
 20
0.0
 30
0.0
 11
0.0
 21
-2.5
 31
0.0
  0
LINE
  5
11E
330
118
100
AcDbEntity
  8
0
  6
Continuous
 62
     0
370
     0
100
AcDbLine
 10
0.0
 20
0.0
 30
0.0
 11
2.5
 21
0.0
 31
0.0
  0
LINE
  5
11F
330
118
100
AcDbEntity
  8
0
  6
Continuous
 62
     0
370
     0
100
AcDbLine
 10
0.0
 20
2.5
 30
0.0
 11
0.0
 21
4.75
 31
0.0
  0
LINE
  5
120
330
118
100
AcDbEntity
  8
0
  6
Continuous
 62
     0
370
     0
100
AcDbLine
 10
-2.5
 20
0.0
 30
0.0
 11
-4.75
 21
0.0
 31
0.0
  0
LINE
  5
121
330
118
100
AcDbEntity
  8
0
  6
Continuous
 62
     0
370
     0
100
AcDbLine
 10
0.0
 20
-2.5
 30
0.0
 11
0.0
 21
-4.75
 31
0.0
  0
LINE
  5
122
330
118
100
AcDbEntity
  8
0
  6
Continuous
 62
     0
370
     0
100
AcDbLine
 10
2.5
 20
0.0
 30
0.0
 11
4.75
 21
0.0
 31
0.0
  0
ENDBLK
  5
11A
330
118
100
AcDbEntity
  8
0
100
AcDbBlockEnd
  0
BLOCK
  5
125
330
124
100
AcDbEntity
  8
0
100
AcDbBlockBegin
  2
SW_CENTERMARKSYMBOL_2
 70
     0
 10
0.0
 20
0.0
 30
0.0
  3
SW_CENTERMARKSYMBOL_2
  1

  0
LINE
  5
127
330
124
100
AcDbEntity
  8
0
  6
Continuous
 62
     0
370
     0
100
AcDbLine
 10
0.0
 20
0.0
 30
0.0
 11
0.0
 21
2.5
 31
0.0
  0
LINE
  5
128
330
124
100
AcDbEntity
  8
0
  6
Continuous
 62
     0
370
     0
100
AcDbLine
 10
0.0
 20
0.0
 30
0.0
 11
-2.5
 21
0.0
 31
0.0
  0
LINE
  5
129
330
124
100
AcDbEntity
  8
0
  6
Continuous
 62
     0
370
     0
100
AcDbLine
 10
0.0
 20
0.0
 30
0.0
 11
0.0
 21
-2.5
 31
0.0
  0
LINE
  5
12A
330
124
100
AcDbEntity
  8
0
  6
Continuous
 62
     0
370
     0
100
AcDbLine
 10
0.0
 20
0.0
 30
0.0
 11
2.5
 21
0.0
 31
0.0
  0
LINE
  5
12B
330
124
100
AcDbEntity
  8
0
  6
Continuous
 62
     0
370
     0
100
AcDbLine
 10
0.0
 20
2.5
 30
0.0
 11
0.0
 21
4.6
 31
0.0
  0
LINE
  5
12C
330
124
100
AcDbEntity
  8
0
  6
Continuous
 62
     0
370
     0
100
AcDbLine
 10
-2.5
 20
0.0
 30
0.0
 11
-4.6
 21
0.0
 31
0.0
  0
LINE
  5
12D
330
124
100
AcDbEntity
  8
0
  6
Continuous
 62
     0
370
     0
100
AcDbLine
 10
0.0
 20
-2.5
 30
0.0
 11
0.0
 21
-4.6
 31
0.0
  0
LINE
  5
12E
330
124
100
AcDbEntity
  8
0
  6
Continuous
 62
     0
370
     0
100
AcDbLine
 10
2.5
 20
0.0
 30
0.0
 11
4.6
 21
0.0
 31
0.0
  0
ENDBLK
  5
126
330
124
100
AcDbEntity
  8
0
100
AcDbBlockEnd
  0
BLOCK
  5
131
330
130
100
AcDbEntity
  8
0
100
AcDbBlockBegin
  2
SW_CENTERMARKSYMBOL_3
 70
     0
 10
0.0
 20
0.0
 30
0.0
  3
SW_CENTERMARKSYMBOL_3
  1

  0
LINE
  5
133
330
130
100
AcDbEntity
  8
0
  6
Continuous
 62
     0
370
     0
100
AcDbLine
 10
0.0
 20
0.0
 30
0.0
 11
0.0
 21
2.5
 31
0.0
  0
LINE
  5
134
330
130
100
AcDbEntity
  8
0
  6
Continuous
 62
     0
370
     0
100
AcDbLine
 10
0.0
 20
0.0
 30
0.0
 11
-2.5
 21
0.0
 31
0.0
  0
LINE
  5
135
330
130
100
AcDbEntity
  8
0
  6
Continuous
 62
     0
370
     0
100
AcDbLine
 10
0.0
 20
0.0
 30
0.0
 11
0.0
 21
-2.5
 31
0.0
  0
LINE
  5
136
330
130
100
AcDbEntity
  8
0
  6
Continuous
 62
     0
370
     0
100
AcDbLine
 10
0.0
 20
0.0
 30
0.0
 11
2.5
 21
0.0
 31
0.0
  0
LINE
  5
137
330
130
100
AcDbEntity
  8
0
  6
Continuous
 62
     0
370
     0
100
AcDbLine
 10
0.0
 20
2.5
 30
0.0
 11
0.0
 21
4.6
 31
0.0
  0
LINE
  5
138
330
130
100
AcDbEntity
  8
0
  6
Continuous
 62
     0
370
     0
100
AcDbLine
 10
-2.5
 20
0.0
 30
0.0
 11
-4.6
 21
0.0
 31
0.0
  0
LINE
  5
139
330
130
100
AcDbEntity
  8
0
  6
Continuous
 62
     0
370
     0
100
AcDbLine
 10
0.0
 20
-2.5
 30
0.0
 11
0.0
 21
-4.6
 31
0.0
  0
LINE
  5
13A
330
130
100
AcDbEntity
  8
0
  6
Continuous
 62
     0
370
     0
100
AcDbLine
 10
2.5
 20
0.0
 30
0.0
 11
4.6
 21
0.0
 31
0.0
  0
ENDBLK
  5
132
330
130
100
AcDbEntity
  8
0
100
AcDbBlockEnd
  0
BLOCK
  5
13D
330
13C
100
AcDbEntity
  8
0
100
AcDbBlockBegin
  2
SW_CENTERMARKSYMBOL_4
 70
     0
 10
0.0
 20
0.0
 30
0.0
  3
SW_CENTERMARKSYMBOL_4
  1

  0
LINE
  5
13F
330
13C
100
AcDbEntity
  8
0
  6
Continuous
 62
     0
370
     0
100
AcDbLine
 10
0.0
 20
0.0
 30
0.0
 11
0.0
 21
2.5
 31
0.0
  0
LINE
  5
140
330
13C
100
AcDbEntity
  8
0
  6
Continuous
 62
     0
370
     0
100
AcDbLine
 10
0.0
 20
0.0
 30
0.0
 11
-2.5
 21
0.0
 31
0.0
  0
LINE
  5
141
330
13C
100
AcDbEntity
  8
0
  6
Continuous
 62
     0
370
     0
100
AcDbLine
 10
0.0
 20
0.0
 30
0.0
 11
0.0
 21
-2.5
 31
0.0
  0
LINE
  5
142
330
13C
100
AcDbEntity
  8
0
  6
Continuous
 62
     0
370
     0
100
AcDbLine
 10
0.0
 20
0.0
 30
0.0
 11
2.5
 21
0.0
 31
0.0
  0
LINE
  5
143
330
13C
100
AcDbEntity
  8
0
  6
Continuous
 62
     0
370
     0
100
AcDbLine
 10
0.0
 20
2.5
 30
0.0
 11
0.0
 21
4.6
 31
0.0
  0
LINE
  5
144
330
13C
100
AcDbEntity
  8
0
  6
Continuous
 62
     0
370
     0
100
AcDbLine
 10
-2.5
 20
0.0
 30
0.0
 11
-4.6
 21
0.0
 31
0.0
  0
LINE
  5
145
330
13C
100
AcDbEntity
  8
0
  6
Continuous
 62
     0
370
     0
100
AcDbLine
 10
0.0
 20
-2.5
 30
0.0
 11
0.0
 21
-4.6
 31
0.0
  0
LINE
  5
146
330
13C
100
AcDbEntity
  8
0
  6
Continuous
 62
     0
370
     0
100
AcDbLine
 10
2.5
 20
0.0
 30
0.0
 11
4.6
 21
0.0
 31
0.0
  0
ENDBLK
  5
13E
330
13C
100
AcDbEntity
  8
0
100
AcDbBlockEnd
  0
BLOCK
  5
149
330
148
100
AcDbEntity
  8
0
100
AcDbBlockBegin
  2
SW_CENTERMARKSYMBOL_5
 70
     0
 10
0.0
 20
0.0
 30
0.0
  3
SW_CENTERMARKSYMBOL_5
  1

  0
LINE
  5
14B
330
148
100
AcDbEntity
  8
0
  6
Continuous
 62
     0
370
     0
100
AcDbLine
 10
0.0
 20
0.0
 30
0.0
 11
0.0
 21
2.5
 31
0.0
  0
LINE
  5
14C
330
148
100
AcDbEntity
  8
0
  6
Continuous
 62
     0
370
     0
100
AcDbLine
 10
0.0
 20
0.0
 30
0.0
 11
-2.5
 21
0.0
 31
0.0
  0
LINE
  5
14D
330
148
100
AcDbEntity
  8
0
  6
Continuous
 62
     0
370
     0
100
AcDbLine
 10
0.0
 20
0.0
 30
0.0
 11
0.0
 21
-2.5
 31
0.0
  0
LINE
  5
14E
330
148
100
AcDbEntity
  8
0
  6
Continuous
 62
     0
370
     0
100
AcDbLine
 10
0.0
 20
0.0
 30
0.0
 11
2.5
 21
0.0
 31
0.0
  0
LINE
  5
14F
330
148
100
AcDbEntity
  8
0
  6
Continuous
 62
     0
370
     0
100
AcDbLine
 10
0.0
 20
2.5
 30
0.0
 11
0.0
 21
4.6
 31
0.0
  0
LINE
  5
150
330
148
100
AcDbEntity
  8
0
  6
Continuous
 62
     0
370
     0
100
AcDbLine
 10
-2.5
 20
0.0
 30
0.0
 11
-4.6
 21
0.0
 31
0.0
  0
LINE
  5
151
330
148
100
AcDbEntity
  8
0
  6
Continuous
 62
     0
370
     0
100
AcDbLine
 10
0.0
 20
-2.5
 30
0.0
 11
0.0
 21
-4.6
 31
0.0
  0
LINE
  5
152
330
148
100
AcDbEntity
  8
0
  6
Continuous
 62
     0
370
     0
100
AcDbLine
 10
2.5
 20
0.0
 30
0.0
 11
4.6
 21
0.0
 31
0.0
  0
ENDBLK
  5
14A
330
148
100
AcDbEntity
  8
0
100
AcDbBlockEnd
  0
BLOCK
  5
155
330
154
100
AcDbEntity
  8
0
100
AcDbBlockBegin
  2
SW_CENTERMARKSYMBOL_6
 70
     0
 10
0.0
 20
0.0
 30
0.0
  3
SW_CENTERMARKSYMBOL_6
  1

  0
LINE
  5
157
330
154
100
AcDbEntity
  8
0
  6
Continuous
 62
     0
370
     0
100
AcDbLine
 10
0.0
 20
0.0
 30
0.0
 11
0.0
 21
2.5
 31
0.0
  0
LINE
  5
158
330
154
100
AcDbEntity
  8
0
  6
Continuous
 62
     0
370
     0
100
AcDbLine
 10
0.0
 20
0.0
 30
0.0
 11
-2.5
 21
0.0
 31
0.0
  0
LINE
  5
159
330
154
100
AcDbEntity
  8
0
  6
Continuous
 62
     0
370
     0
100
AcDbLine
 10
0.0
 20
0.0
 30
0.0
 11
0.0
 21
-2.5
 31
0.0
  0
LINE
  5
15A
330
154
100
AcDbEntity
  8
0
  6
Continuous
 62
     0
370
     0
100
AcDbLine
 10
0.0
 20
0.0
 30
0.0
 11
2.5
 21
0.0
 31
0.0
  0
LINE
  5
15B
330
154
100
AcDbEntity
  8
0
  6
Continuous
 62
     0
370
     0
100
AcDbLine
 10
0.0
 20
2.5
 30
0.0
 11
0.0
 21
4.6
 31
0.0
  0
LINE
  5
15C
330
154
100
AcDbEntity
  8
0
  6
Continuous
 62
     0
370
     0
100
AcDbLine
 10
-2.5
 20
0.0
 30
0.0
 11
-4.6
 21
0.0
 31
0.0
  0
LINE
  5
15D
330
154
100
AcDbEntity
  8
0
  6
Continuous
 62
     0
370
     0
100
AcDbLine
 10
0.0
 20
-2.5
 30
0.0
 11
0.0
 21
-4.6
 31
0.0
  0
LINE
  5
15E
330
154
100
AcDbEntity
  8
0
  6
Continuous
 62
     0
370
     0
100
AcDbLine
 10
2.5
 20
0.0
 30
0.0
 11
4.6
 21
0.0
 31
0.0
  0
ENDBLK
  5
156
330
154
100
AcDbEntity
  8
0
100
AcDbBlockEnd
  0
BLOCK
  5
16F
330
16E
100
AcDbEntity
  8
0
100
AcDbBlockBegin
  2
_D_6
 70
     0
 10
0.0
 20
0.0
 30
0.0
  3
_D_6
  1

  0
SOLID
  5
171
330
16E
100
AcDbEntity
  8
0
  6
Continuous
 62
     7
370
     0
100
AcDbTrace
 10
187.2747843597
 20
186.4244532883
 30
0.0
 11
186.5247843597
 21
184.4244532883
 31
0.0
 12
188.0247843597
 22
184.4244532883
 32
0.0
 13
188.0247843597
 23
184.4244532883
 33
0.0
  0
SOLID
  5
172
330
16E
100
AcDbEntity
  8
0
  6
Continuous
 62
     7
370
     0
100
AcDbTrace
 10
187.2747843597
 20
167.4244532883
 30
0.0
 11
188.0247843597
 21
169.4244532883
 31
0.0
 12
186.5247843597
 22
169.4244532883
 32
0.0
 13
186.5247843597
 23
169.4244532883
 33
0.0
  0
LINE
  5
173
330
16E
100
AcDbEntity
  8
0
  6
Continuous
 62
     7
370
     0
100
AcDbLine
 10
157.4395073388
 20
186.4244532883
 30
0.0
 11
188.2747843597
 21
186.4244532883
 31
0.0
  0
LINE
  5
174
330
16E
100
AcDbEntity
  8
0
  6
Continuous
 62
     7
370
     0
100
AcDbLine
 10
176.4395073388
 20
167.4244532883
 30
0.0
 11
188.2747843597
 21
167.4244532883
 31
0.0
  0
LINE
  5
175
330
16E
100
AcDbEntity
  8
0
  6
Continuous
 62
     7
370
     0
100
AcDbLine
 10
187.2747843597
 20
186.4244532883
 30
0.0
 11
187.2747843597
 21
167.4244532883
 31
0.0
  0
MTEXT
  5
176
330
16E
100
AcDbEntity
  8
0
  6
Continuous
 62
     7
370
     0
100
AcDbMText
 10
182.7630474451
 20
174.5187486661
 30
-50.5860353267
 40
3.5
 41
0.0
 71
     1
 72
     1
  1
19
  7
SLDTEXTSTYLE1
 11
-7.044195017643634E-15
 21
1.0
 31
0.0
 73
     1
 44
1.0
  0
ENDBLK
  5
170
330
16E
100
AcDbEntity
  8
0
100
AcDbBlockEnd
  0
ENDSEC
  0
SECTION
  2
ENTITIES
  0
LINE
  5
44
330
1F
100
AcDbEntity
  8
0
  6
Continuous
 62
     7
370
     0
100
AcDbLine
 10
20.2604743903
 20
285.0
 30
0.0
 11
196.7604743903
 21
285.0
 31
0.0
  0
LINE
  5
45
330
1F
100
AcDbEntity
  8
0
  6
Continuous
 62
     7
370
     0
100
AcDbLine
 10
20.2604743903
 20
285.0
 30
0.0
 11
20.2604743903
 21
10.0
 31
0.0
  0
LINE
  5
46
330
1F
100
AcDbEntity
  8
0
  6
Continuous
 62
     7
370
     0
100
AcDbLine
 10
20.2604743903
 20
10.0
 30
0.0
 11
196.7604743903
 21
10.0
 31
0.0
  0
LINE
  5
47
330
1F
100
AcDbEntity
  8
0
  6
Continuous
 62
     7
370
     0
100
AcDbLine
 10
196.7604743903
 20
285.0
 30
0.0
 11
196.7604743903
 21
10.0
 31
0.0
  0
LINE
  5
48
330
1F
100
AcDbEntity
  8
0
  6
Continuous
 62
     7
370
     0
100
AcDbLine
 10
127.0104743903
 20
50.75
 30
0.0
 11
196.7604743903
 21
50.75
 31
0.0
  0
LINE
  5
49
330
1F
100
AcDbEntity
  8
0
  6
Continuous
 62
     7
370
     0
100
AcDbLine
 10
127.0104743903
 20
50.75
 30
0.0
 11
127.0104743903
 21
10.0
 31
0.0
  0
LINE
  5
4A
330
1F
100
AcDbEntity
  8
0
  6
Continuous
 62
     7
370
     0
100
AcDbLine
 10
127.0104743903
 20
22.75
 30
0.0
 11
196.7604743903
 21
22.75
 31
0.0
  0
LINE
  5
4B
330
1F
100
AcDbEntity
  8
0
  6
Continuous
 62
     7
370
     0
100
AcDbLine
 10
127.0104743903
 20
36.75
 30
0.0
 11
196.7604743903
 21
36.75
 31
0.0
  0
MTEXT
  5
4D
330
1F
100
AcDbEntity
  8
0
  6
Continuous
 62
     7
370
     0
100
AcDbMText
 10
162.3043943796
 20
30.4171582345
 30
0.0
 40
4.2333333333
 41
0.0
 71
     2
 72
     1
  1
OX-20BA
  7
SLDTEXTSTYLE0
 73
     1
 44
1.0
  0
MTEXT
  5
4E
330
1F
100
AcDbEntity
  8
0
  6
Continuous
 62
     7
370
     0
100
AcDbMText
 10
160.3171784291
 20
43.9409718514
 30
0.0
 40
4.2333333333
 41
0.0
 71
     2
 72
     1
  1
エアーオプション(OX用)
  7
SLDTEXTSTYLE0
 73
     1
 44
1.0
  0
MTEXT
  5
4F
330
1F
100
AcDbEntity
  8
0
  6
Continuous
 62
     7
370
     0
100
AcDbMText
 10
162.5751057439
 20
16.8228189052
 30
0.0
 40
4.2333333333
 41
0.0
 71
     2
 72
     1
  1
140296
  7
SLDTEXTSTYLE0
 73
     1
 44
1.0
  0
LINE
  5
50
330
1F
100
AcDbEntity
  8
0
  6
Continuous
 62
     7
370
    15
100
AcDbLine
 10
73.0219883169
 20
185.4244536683
 30
0.0
 11
73.0219883169
 21
183.4244533405
 31
0.0
  0
LINE
  5
51
330
1F
100
AcDbEntity
  8
0
  6
Continuous
 62
     7
370
    15
100
AcDbLine
 10
74.0219903435
 20
186.4244529009
 30
0.0
 11
73.0219883169
 21
185.4244536683
 31
0.0
  0
LINE
  5
52
330
1F
100
AcDbEntity
  8
0
  6
Continuous
 62
     7
370
    15
100
AcDbLine
 10
77.0219889726
 20
186.4244529009
 30
0.0
 11
74.0219903435
 21
186.4244529009
 31
0.0
  0
LINE
  5
53
330
1F
100
AcDbEntity
  8
0
  6
Continuous
 62
     7
370
    15
100
AcDbLine
 10
78.0219872739
 20
185.4244536683
 30
0.0
 11
77.0219889726
 21
186.4244529009
 31
0.0
  0
LINE
  5
54
330
1F
100
AcDbEntity
  8
0
  6
Continuous
 62
     7
370
    15
100
AcDbLine
 10
78.0219872739
 20
183.4244533405
 30
0.0
 11
78.0219872739
 21
185.4244536683
 31
0.0
  0
LINE
  5
55
330
1F
100
AcDbEntity
  8
0
  6
Continuous
 62
     7
370
    15
100
AcDbLine
 10
94.0219898965
 20
185.4244536683
 30
0.0
 11
94.0219898965
 21
183.4244533405
 31
0.0
  0
LINE
  5
56
330
1F
100
AcDbEntity
  8
0
  6
Continuous
 62
     7
370
    15
100
AcDbLine
 10
95.0219881977
 20
186.4244529009
 30
0.0
 11
94.0219898965
 21
185.4244536683
 31
0.0
  0
LINE
  5
57
330
1F
100
AcDbEntity
  8
0
  6
Continuous
 62
     7
370
    15
100
AcDbLine
 10
98.0219868268
 20
186.4244529009
 30
0.0
 11
95.0219881977
 21
186.4244529009
 31
0.0
  0
LINE
  5
58
330
1F
100
AcDbEntity
  8
0
  6
Continuous
 62
     7
370
    15
100
AcDbLine
 10
99.0219888534
 20
185.4244536683
 30
0.0
 11
98.0219868268
 21
186.4244529009
 31
0.0
  0
LINE
  5
59
330
1F
100
AcDbEntity
  8
0
  6
Continuous
 62
     7
370
    15
100
AcDbLine
 10
99.0219888534
 20
183.4244533405
 30
0.0
 11
99.0219888534
 21
185.4244536683
 31
0.0
  0
LINE
  5
5A
330
1F
100
AcDbEntity
  8
0
  6
Continuous
 62
     7
370
    15
100
AcDbLine
 10
126.0219914164
 20
168.4244536758
 30
0.0
 11
126.0219914164
 21
183.4244533405
 31
0.0
  0
LINE
  5
5B
330
1F
100
AcDbEntity
  8
0
  6
Continuous
 62
     7
370
    15
100
AcDbLine
 10
125.0219893898
 20
167.4244535118
 30
0.0
 11
126.0219914164
 21
168.4244536758
 31
0.0
  0
LINE
  5
5C
330
1F
100
AcDbEntity
  8
0
  6
Continuous
 62
     7
370
    15
100
AcDbLine
 10
46.0219885479
 20
168.4244536758
 30
0.0
 11
47.0219887118
 21
167.4244535118
 31
0.0
  0
CIRCLE
  5
5D
330
1F
100
AcDbEntity
  8
0
  6
Continuous
 62
     7
370
    15
100
AcDbCircle
 10
53.0219886066
 20
175.9244532883
 30
0.0
 40
5.499999999999986
  0
CIRCLE
  5
5E
330
1F
100
AcDbEntity
  8
0
  6
Continuous
 62
     7
370
    15
100
AcDbCircle
 10
65.0219886066
 20
175.9244532883
 30
0.0
 40
5.499999999999986
  0
CIRCLE
  5
5F
330
1F
100
AcDbEntity
  8
0
  6
Continuous
 62
     7
370
    15
100
AcDbCircle
 10
86.0219886066
 20
175.9244532883
 30
0.0
 40
5.499999999999986
  0
CIRCLE
  5
60
330
1F
100
AcDbEntity
  8
0
  6
Continuous
 62
     7
370
    15
100
AcDbCircle
 10
107.0219886066
 20
175.9244532883
 30
0.0
 40
5.5
  0
CIRCLE
  5
61
330
1F
100
AcDbEntity
  8
0
  6
Continuous
 62
     7
370
    15
100
AcDbCircle
 10
119.0219886066
 20
175.9244532883
 30
0.0
 40
5.499999999999986
  0
LINE
  5
62
330
1F
100
AcDbEntity
  8
0
  6
Continuous
 62
     7
370
    15
100
AcDbLine
 10
46.0219885479
 20
183.4244533405
 30
0.0
 11
46.0219885479
 21
168.4244536758
 31
0.0
  0
LINE
  5
63
330
1F
100
AcDbEntity
  8
0
  6
Continuous
 62
     7
370
    15
100
AcDbLine
 10
126.0219914164
 20
183.4244533405
 30
0.0
 11
99.0219888534
 21
183.4244533405
 31
0.0
  0
LINE
  5
64
330
1F
100
AcDbEntity
  8
0
  6
Continuous
 62
     7
370
    15
100
AcDbLine
 10
94.0219898965
 20
183.4244533405
 30
0.0
 11
78.0219872739
 21
183.4244533405
 31
0.0
  0
LINE
  5
65
330
1F
100
AcDbEntity
  8
0
  6
Continuous
 62
     7
370
    15
100
AcDbLine
 10
73.0219883169
 20
183.4244533405
 30
0.0
 11
46.0219885479
 21
183.4244533405
 31
0.0
  0
LINE
  5
66
330
1F
100
AcDbEntity
  8
0
  6
Continuous
 62
     7
370
    15
100
AcDbLine
 10
47.0219887118
 20
167.4244535118
 30
0.0
 11
125.0219893898
 21
167.4244535118
 31
0.0
  0
CIRCLE
  5
67
330
1F
100
AcDbEntity
  8
0
  6
Continuous
 62
     7
370
    15
100
AcDbCircle
 10
53.0219886066
 20
175.9244532883
 30
0.0
 40
5.000000000000028
  0
CIRCLE
  5
68
330
1F
100
AcDbEntity
  8
0
  6
Continuous
 62
     7
370
    15
100
AcDbCircle
 10
65.0219886066
 20
175.9244532883
 30
0.0
 40
5.000000000000028
  0
CIRCLE
  5
69
330
1F
100
AcDbEntity
  8
0
  6
Continuous
 62
     7
370
    15
100
AcDbCircle
 10
86.0219886066
 20
175.9244532883
 30
0.0
 40
5.000000000000028
  0
CIRCLE
  5
6A
330
1F
100
AcDbEntity
  8
0
  6
Continuous
 62
     7
370
    15
100
AcDbCircle
 10
107.0219886066
 20
175.9244532883
 30
0.0
 40
5.0
  0
CIRCLE
  5
6B
330
1F
100
AcDbEntity
  8
0
  6
Continuous
 62
     7
370
    15
100
AcDbCircle
 10
119.0219886066
 20
175.9244532883
 30
0.0
 40
5.000000000000028
  0
CIRCLE
  5
6C
330
1F
100
AcDbEntity
  8
0
  6
Continuous
 62
     7
370
    15
100
AcDbCircle
 10
53.0219886066
 20
175.9244532883
 30
0.0
 40
3.500000000000028
  0
CIRCLE
  5
6D
330
1F
100
AcDbEntity
  8
0
  6
Continuous
 62
     7
370
    15
100
AcDbCircle
 10
53.0219886066
 20
175.9244532883
 30
0.0
 40
2.5
  0
CIRCLE
  5
6E
330
1F
100
AcDbEntity
  8
0
  6
Continuous
 62
     7
370
    15
100
AcDbCircle
 10
65.0219886066
 20
175.9244532883
 30
0.0
 40
2.499999999999972
  0
CIRCLE
  5
6F
330
1F
100
AcDbEntity
  8
0
  6
Continuous
 62
     7
370
    15
100
AcDbCircle
 10
65.0219886066
 20
175.9244532883
 30
0.0
 40
3.500000000000028
  0
CIRCLE
  5
70
330
1F
100
AcDbEntity
  8
0
  6
Continuous
 62
     7
370
    15
100
AcDbCircle
 10
86.0219886066
 20
175.9244532883
 30
0.0
 40
2.499999999999972
  0
CIRCLE
  5
71
330
1F
100
AcDbEntity
  8
0
  6
Continuous
 62
     7
370
    15
100
AcDbCircle
 10
86.0219886066
 20
175.9244532883
 30
0.0
 40
3.499999999999972
  0
CIRCLE
  5
72
330
1F
100
AcDbEntity
  8
0
  6
Continuous
 62
     7
370
    15
100
AcDbCircle
 10
107.0219886066
 20
175.9244532883
 30
0.0
 40
2.5
  0
CIRCLE
  5
73
330
1F
100
AcDbEntity
  8
0
  6
Continuous
 62
     7
370
    15
100
AcDbCircle
 10
107.0219886066
 20
175.9244532883
 30
0.0
 40
3.500000000000028
  0
CIRCLE
  5
74
330
1F
100
AcDbEntity
  8
0
  6
Continuous
 62
     7
370
    15
100
AcDbCircle
 10
119.0219886066
 20
175.9244532883
 30
0.0
 40
3.499999999999972
  0
CIRCLE
  5
75
330
1F
100
AcDbEntity
  8
0
  6
Continuous
 62
     7
370
    15
100
AcDbCircle
 10
119.0219886066
 20
175.9244532883
 30
0.0
 40
2.5
  0
DIMENSION
  5
76
330
1F
100
AcDbEntity
  8
0
  6
Continuous
 62
     7
370
     0
100
AcDbDimension
  2
_D
 10
126.0219886066
 20
196.4244532883
 30
0.0
 11
88.9130566864
 21
196.4244532883
 31
0.0
 70
   160
  1
<>
 71
     2
 42
-1.0
  3
SLDDIMSTYLE0
100
AcDbAlignedDimension
 13
46.0219886066
 23
183.4244532883
 33
0.0
 14
126.0219886066
 24
183.4244532883
 34
0.0
 50
0.0
100
AcDbRotatedDimension
  0
SPLINE
  5
82
330
1F
100
AcDbEntity
  8
0
  6
Continuous
 62
     7
370
    15
100
AcDbSpline
210
0.0
220
0.0
230
1.0
 70
     8
 71
     3
 72
    10
 73
     6
 74
     0
 42
0.00000001
 43
0.00000001
 12
1.0
 22
0.0
 32
0.0
 13
1.0
 23
0.0
 33
0.0
 40
0.0
 40
0.0
 40
0.0
 40
0.0
 40
0.4240849467025159
 40
0.7780460784126564
 40
1.0
 40
1.0
 40
1.0
 40
1.0
 10
107.9482910479818
 20
105.2618763381799
 30
0.0
 10
108.1279306647159
 20
105.2345897363154
 30
0.0
 10
108.4575059076342
 20
105.1845284602927
 30
0.0
 10
108.835733757682
 20
105.1144903160818
 30
0.0
 10
109.0232277700279
 20
105.073522778181
 30
0.0
 10
109.0954867448125
 20
105.0577341551145
 30
0.0
  0
SPLINE
  5
83
330
1F
100
AcDbEntity
  8
0
  6
Continuous
 62
     7
370
    15
100
AcDbSpline
210
0.0
220
0.0
230
1.0
 70
     8
 71
     3
 72
    16
 73
    12
 74
     0
 42
0.00000001
 43
0.00000001
 12
1.0
 22
0.0
 32
0.0
 13
1.0
 23
0.0
 33
0.0
 40
0.0
 40
0.0
 40
0.0
 40
0.0
 40
0.0401984972976742
 40
0.1308697505940547
 40
0.3037664512043382
 40
0.4595690953512144
 40
0.5952202235446358
 40
0.7209647110000047
 40
0.840204249550413
 40
0.963372082962328
 40
1.0
 40
1.0
 40
1.0
 40
1.0
 10
109.0495166625295
 20
104.7213236773571
 30
0.0
 10
109.0111001054314
 20
104.7138395013962
 30
0.0
 10
108.8860316181972
 20
104.6894741069847
 30
0.0
 10
108.549457799211
 20
104.6302201256261
 30
0.0
 10
108.0361844536308
 20
104.5418257082262
 30
0.0
 10
107.414570733571
 20
104.4410747037144
 30
0.0
 10
106.8419123763453
 20
104.3521021934773
 30
0.0
 10
106.3227346688628
 20
104.2746186478199
 30
0.0
 10
105.84240043276
 20
104.2060175651965
 30
0.0
 10
105.4915217564881
 20
104.1494488812552
 30
0.0
 10
105.3183581270799
 20
104.1151815713789
 30
0.0
 10
105.2786660637174
 20
104.1073269183
 30
0.0
  0
SPLINE
  5
84
330
1F
100
AcDbEntity
  8
0
  6
Continuous
 62
     7
370
    15
100
AcDbSpline
210
0.0
220
0.0
230
1.0
 70
     8
 71
     3
 72
     9
 73
     5
 74
     0
 42
0.00000001
 43
0.00000001
 12
1.0
 22
0.0
 32
0.0
 13
1.0
 23
0.0
 33
0.0
 40
0.0
 40
0.0
 40
0.0
 40
0.0
 40
0.1478024605051005
 40
0.9999999999999999
 40
0.9999999999999999
 40
0.9999999999999999
 40
0.9999999999999999
 10
106.3727465714727
 20
107.1226215893587
 30
0.0
 10
106.3543446316964
 20
107.1198731307949
 30
0.0
 10
106.2298410225316
 20
107.1012776449387
 30
0.0
 10
106.1120220059642
 20
107.0841062733166
 30
0.0
 10
106.0116169299398
 20
107.0694728726705
 30
0.0
  0
SPLINE
  5
85
330
1F
100
AcDbEntity
  8
0
  6
Continuous
 62
     7
370
    15
100
AcDbSpline
210
0.0
220
0.0
230
1.0
 70
     8
 71
     3
 72
    13
 73
     9
 74
     0
 42
0.00000001
 43
0.00000001
 12
1.0
 22
0.0
 32
0.0
 13
1.0
 23
0.0
 33
0.0
 40
0.0
 40
0.0
 40
0.0
 40
0.0
 40
0.0298780363171706
 40
0.2053326295289641
 40
0.369098731531343
 40
0.5592120085913889
 40
0.7718224223907891
 40
1.0
 40
1.0
 40
1.0
 40
1.0
 10
105.004015311173
 20
105.7366552734932
 30
0.0
 10
105.0267443130836
 20
105.7322358952486
 30
0.0
 10
105.1829462026361
 20
105.7018643358123
 30
0.0
 10
105.5143923681702
 20
105.6455152823364
 30
0.0
 10
106.0195221977686
 20
105.5596127930301
 30
0.0
 10
106.5996238881803
 20
105.4657931748786
 30
0.0
 10
107.2670076825276
 20
105.3616813509873
 30
0.0
 10
107.7159119911298
 20
105.2959188466592
 30
0.0
 10
107.9482910479818
 20
105.2618763381799
 30
0.0
  0
SPLINE
  5
86
330
1F
100
AcDbEntity
  8
0
  6
Continuous
 62
     7
370
    15
100
AcDbSpline
210
0.0
220
0.0
230
1.0
 70
     8
 71
     3
 72
    14
 73
    10
 74
     0
 42
0.00000001
 43
0.00000001
 12
1.0
 22
0.0
 32
0.0
 13
1.0
 23
0.0
 33
0.0
 40
0.0
 40
0.0
 40
0.0
 40
0.0
 40
0.1029687603402015
 40
0.2491106427023522
 40
0.397754315610596
 40
0.5459515499021237
 40
0.6939586307870471
 40
0.8486854267998329
 40
0.9999999999999999
 40
0.9999999999999999
 40
0.9999999999999999
 40
0.9999999999999999
 10
105.572166785172
 20
103.7582504535278
 30
0.0
 10
105.6759465017267
 20
103.7760644466729
 30
0.0
 10
105.9270190775737
 20
103.8191615497828
 30
0.0
 10
106.3734267268191
 20
103.8813347455666
 30
0.0
 10
106.8836953341752
 20
103.9587042636833
 30
0.0
 10
107.4026400936373
 20
104.0392528850611
 30
0.0
 10
107.9164587340603
 20
104.1220978871554
 30
0.0
 10
108.4125179926001
 20
104.2047171957756
 30
0.0
 10
108.7083750065514
 20
104.2567442355051
 30
0.0
 10
108.8546541775976
 20
104.2824677163919
 30
0.0
  0
SPLINE
  5
87
330
1F
100
AcDbEntity
  8
0
  6
Continuous
 62
     7
370
    15
100
AcDbSpline
210
0.0
220
0.0
230
1.0
 70
     8
 71
     3
 72
    18
 73
    14
 74
     0
 42
0.00000001
 43
0.00000001
 12
1.0
 22
0.0
 32
0.0
 13
1.0
 23
0.0
 33
0.0
 40
0.0
 40
0.0
 40
0.0
 40
0.0
 40
0.1142840273816051
 40
0.2071725904654302
 40
0.3031977083373133
 40
0.4275483769224059
 40
0.5409961014625797
 40
0.6411071390086908
 40
0.7264634292823879
 40
0.7964765323823123
 40
0.8601782128910223
 40
0.999897793352779
 40
1.0
 40
1.0
 40
1.0
 40
1.0
 10
109.086993082932
 20
105.4592701578697
 30
0.0
 10
108.9622057512434
 20
105.4866128288688
 30
0.0
 10
108.7359929080709
 20
105.5361792653246
 30
0.0
 10
108.3430475731423
 20
105.6032424094215
 30
0.0
 10
107.9179989288578
 20
105.667306272898
 30
0.0
 10
107.445279859205
 20
105.7351345369981
 30
0.0
 10
106.9563699054319
 20
105.8100757788348
 30
0.0
 10
106.526847876604
 20
105.8777612301213
 30
0.0
 10
106.1692673279486
 20
105.9359603668928
 30
0.0
 10
105.8721435166666
 20
105.9853555221597
 30
0.0
 10
105.5220563154451
 20
106.0458560326046
 30
0.0
 10
105.2587824373576
 20
106.0888011167449
 30
0.0
 10
105.1228918001124
 20
106.1168304619395
 30
0.0
 10
105.1227924670492
 20
106.1168509507736
 30
0.0
  0
SPLINE
  5
88
330
1F
100
AcDbEntity
  8
0
  6
Continuous
 62
     7
370
    15
100
AcDbSpline
210
0.0
220
0.0
230
1.0
 70
     8
 71
     3
 72
    14
 73
    10
 74
     0
 42
0.00000001
 43
0.00000001
 12
1.0
 22
0.0
 32
0.0
 13
1.0
 23
0.0
 33
0.0
 40
0.0
 40
0.0
 40
0.0
 40
0.0
 40
0.0038487236324317
 40
0.1838916919447873
 40
0.3611247683499686
 40
0.5413916981726413
 40
0.721117404213565
 40
0.9006123039342969
 40
1.0
 40
1.0
 40
1.0
 40
1.0
 10
105.4238108243261
 20
106.5732567543348
 30
0.0
 10
105.4266930331641
 20
106.5738231881244
 30
0.0
 10
105.5644047294001
 20
106.6008873470232
 30
0.0
 10
105.8839241106262
 20
106.651484791383
 30
0.0
 10
106.371187947131
 20
106.7214842416765
 30
0.0
 10
106.8845998174653
 20
106.7986864469994
 30
0.0
 10
107.4012774753918
 20
106.8791703379598
 30
0.0
 10
107.8371991210906
 20
106.9490170468426
 30
0.0
 10
108.0831233383493
 20
106.9903274389597
 30
0.0
 10
108.1707653846059
 20
107.0050495648941
 30
0.0
  0
SPLINE
  5
89
330
1F
100
AcDbEntity
  8
0
  6
Continuous
 62
     7
370
    15
100
AcDbSpline
210
0.0
220
0.0
230
1.0
 70
     8
 71
     3
 72
    10
 73
     6
 74
     0
 42
0.00000001
 43
0.00000001
 12
1.0
 22
0.0
 32
0.0
 13
1.0
 23
0.0
 33
0.0
 40
0.0
 40
0.0
 40
0.0
 40
0.0
 40
0.4240863413553234
 40
0.7780466159027917
 40
1.0
 40
1.0
 40
1.0
 40
1.0
 10
86.9482857431684
 20
105.2618763381799
 30
0.0
 10
87.12792669902126
 20
105.2345897862489
 30
0.0
 10
87.45750354257667
 20
105.1845287318849
 30
0.0
 10
87.83573216077971
 20
105.1144903024891
 30
0.0
 10
88.02322618567021
 20
105.0735227743998
 30
0.0
 10
88.09548516528945
 20
105.0577341551145
 30
0.0
  0
SPLINE
  5
8A
330
1F
100
AcDbEntity
  8
0
  6
Continuous
 62
     7
370
    15
100
AcDbSpline
210
0.0
220
0.0
230
1.0
 70
     8
 71
     3
 72
    16
 73
    12
 74
     0
 42
0.00000001
 43
0.00000001
 12
1.0
 22
0.0
 32
0.0
 13
1.0
 23
0.0
 33
0.0
 40
0.0
 40
0.0
 40
0.0
 40
0.0
 40
0.0401985017420226
 40
0.1308697650630225
 40
0.3037664847887759
 40
0.4595682852771712
 40
0.5952203148379953
 40
0.7209648161956825
 40
0.8402035200287556
 40
0.9633713670581141
 40
1.0
 40
1.0
 40
1.0
 40
1.0
 10
88.04951508300643
 20
104.7213236773571
 30
0.0
 10
88.01109852566077
 20
104.7138395021073
 30
0.0
 10
87.8860300376206
 20
104.6894741100112
 30
0.0
 10
87.5494562350342
 20
104.6302200815397
 30
0.0
 10
87.03618381910023
 20
104.5418262018234
 30
0.0
 10
86.41457064777613
 20
104.4410739258531
 30
0.0
 10
85.84191195656607
 20
104.352102562656
 30
0.0
 10
85.32273423806679
 20
104.2746189028648
 30
0.0
 10
84.84240111321351
 20
104.2060173935779
 30
0.0
 10
84.49152446153171
 20
104.1494482801527
 30
0.0
 10
84.31835783023485
 20
104.1151815550083
 30
0.0
 10
84.27866448419432
 20
104.1073269183
 30
0.0
  0
SPLINE
  5
8B
330
1F
100
AcDbEntity
  8
0
  6
Continuous
 62
     7
370
    15
100
AcDbSpline
210
0.0
220
0.0
230
1.0
 70
     8
 71
     3
 72
     9
 73
     5
 74
     0
 42
0.00000001
 43
0.00000001
 12
1.0
 22
0.0
 32
0.0
 13
1.0
 23
0.0
 33
0.0
 40
0.0
 40
0.0
 40
0.0
 40
0.0
 40
0.1478120079516613
 40
1.0
 40
1.0
 40
1.0
 40
1.0
 10
85.3727487172399
 20
107.1226215893587
 30
0.0
 10
85.35434552399062
 20
107.1198731446779
 30
0.0
 10
85.2298414765569
 20
107.1012789538615
 30
0.0
 10
85.11202276604439
 20
107.0841067870364
 30
0.0
 10
85.011619075707
 20
107.0694728726705
 30
0.0
  0
SPLINE
  5
8C
330
1F
100
AcDbEntity
  8
0
  6
Continuous
 62
     7
370
    15
100
AcDbSpline
210
0.0
220
0.0
230
1.0
 70
     8
 71
     3
 72
    13
 73
     9
 74
     0
 42
0.00000001
 43
0.00000001
 12
1.0
 22
0.0
 32
0.0
 13
1.0
 23
0.0
 33
0.0
 40
0.0
 40
0.0
 40
0.0
 40
0.0
 40
0.0298780734416976
 40
0.205333847472609
 40
0.3690990932931745
 40
0.5592137337260193
 40
0.7718244117014501
 40
0.9999999999999999
 40
0.9999999999999999
 40
0.9999999999999999
 40
0.9999999999999999
 10
84.00401373164992
 20
105.7366552734932
 30
0.0
 10
84.0267427261111
 20
105.7322358914828
 30
0.0
 10
84.18294529690276
 20
105.7018641637537
 30
0.0
 10
84.51439341831117
 20
105.6455160294393
 30
0.0
 10
85.01952224516687
 20
105.5596120034213
 30
0.0
 10
85.59962509704125
 20
105.4657936236049
 30
0.0
 10
86.26700748005767
 20
105.3616818836073
 30
0.0
 10
86.71590916232488
 20
105.2959189205599
 30
0.0
 10
86.9482857431684
 20
105.2618763381799
 30
0.0
  0
SPLINE
  5
8D
330
1F
100
AcDbEntity
  8
0
  6
Continuous
 62
     7
370
    15
100
AcDbSpline
210
0.0
220
0.0
230
1.0
 70
     8
 71
     3
 72
    14
 73
    10
 74
     0
 42
0.00000001
 43
0.00000001
 12
1.0
 22
0.0
 32
0.0
 13
1.0
 23
0.0
 33
0.0
 40
0.0
 40
0.0
 40
0.0
 40
0.0
 40
0.1029696762296123
 40
0.2491105543778233
 40
0.3977542182216059
 40
0.5459514434758969
 40
0.6939595390149784
 40
0.8486863255923472
 40
1.0
 40
1.0
 40
1.0
 40
1.0
 10
84.57216520564894
 20
103.7582504535278
 30
0.0
 10
84.67594623036263
 20
103.7760643823115
 30
0.0
 10
84.92701964874142
 20
103.8191609310958
 30
0.0
 10
85.37342598872596
 20
103.8813351758492
 30
0.0
 10
85.88369385508415
 20
103.9587041455203
 30
0.0
 10
86.40263961325967
 20
104.0392532845184
 30
0.0
 10
86.91645975827558
 20
104.1220975126734
 30
0.0
 10
87.41251947648806
 20
104.2047169651242
 30
0.0
 10
87.70837473147746
 20
104.2567442103561
 30
0.0
 10
87.85465259807448
 20
104.2824677163919
 30
0.0
  0
SPLINE
  5
8E
330
1F
100
AcDbEntity
  8
0
  6
Continuous
 62
     7
370
    15
100
AcDbSpline
210
0.0
220
0.0
230
1.0
 70
     8
 71
     3
 72
    18
 73
    14
 74
     0
 42
0.00000001
 43
0.00000001
 12
1.0
 22
0.0
 32
0.0
 13
1.0
 23
0.0
 33
0.0
 40
0.0
 40
0.0
 40
0.0
 40
0.0
 40
0.1142846176632479
 40
0.2071731244312784
 40
0.3031973927148156
 40
0.4275488094972658
 40
0.5409956242018841
 40
0.6411066010534119
 40
0.7264628395779256
 40
0.7964759002308209
 40
0.8601782976611465
 40
0.9998977934147442
 40
1.0
 40
1.0
 40
1.0
 40
1.0
 10
88.08699522869925
 20
105.4592701578697
 30
0.0
 10
87.96220656370693
 20
105.4866128093697
 30
0.0
 10
87.7359918889005
 20
105.5361790822183
 30
0.0
 10
87.34304693619302
 20
105.6032420538965
 30
0.0
 10
86.91799913104556
 20
105.6673070255756
 30
0.0
 10
86.44528047973904
 20
105.7351337165073
 30
0.0
 10
85.95637089420877
 20
105.810076189893
 30
0.0
 10
85.526850045373
 20
105.8777612032612
 30
0.0
 10
85.16926937022927
 20
105.9359603132622
 30
0.0
 10
84.87214494470378
 20
105.9853558739908
 30
0.0
 10
84.52205502771368
 20
106.0458554344188
 30
0.0
 10
84.25878085796346
 20
106.088801116815
 30
0.0
 10
84.12289022058941
 20
106.1168304619396
 30
0.0
 10
84.12279088752608
 20
106.1168509507736
 30
0.0
  0
SPLINE
  5
8F
330
1F
100
AcDbEntity
  8
0
  6
Continuous
 62
     7
370
    15
100
AcDbSpline
210
0.0
220
0.0
230
1.0
 70
     8
 71
     3
 72
    14
 73
    10
 74
     0
 42
0.00000001
 43
0.00000001
 12
1.0
 22
0.0
 32
0.0
 13
1.0
 23
0.0
 33
0.0
 40
0.0
 40
0.0
 40
0.0
 40
0.0
 40
0.0038487237340703
 40
0.1838928151598417
 40
0.3611246891973646
 40
0.5413916237805965
 40
0.7211173345677865
 40
0.9006134804931014
 40
0.9999999999999999
 40
0.9999999999999999
 40
0.9999999999999999
 40
0.9999999999999999
 10
84.423809244803
 20
106.5732567543348
 30
0.0
 10
84.42669145355404
 20
106.5738231881894
 30
0.0
 10
84.564403983142
 20
106.6008875147845
 30
0.0
 10
84.88392474661589
 20
106.6514840639372
 30
0.0
 10
85.37118721699888
 20
106.7214846762379
 30
0.0
 10
85.88459837177354
 20
106.7986862997166
 30
0.0
 10
86.40127685602909
 20
106.8791708484684
 30
0.0
 10
86.83719940903498
 20
106.9490163133994
 30
0.0
 10
87.0831230305377
 20
106.990327377456
 30
0.0
 10
87.17076380508284
 20
107.0050495648941
 30
0.0
  0
SPLINE
  5
90
330
1F
100
AcDbEntity
  8
0
  6
Continuous
 62
     7
370
    15
100
AcDbSpline
210
0.0
220
0.0
230
1.0
 70
     8
 71
     3
 72
    10
 73
     6
 74
     0
 42
0.00000001
 43
0.00000001
 12
1.0
 22
0.0
 32
0.0
 13
1.0
 23
0.0
 33
0.0
 40
0.0
 40
0.0
 40
0.0
 40
0.0
 40
0.4240851812697774
 40
0.7780465893524761
 40
0.9999999999999999
 40
0.9999999999999999
 40
0.9999999999999999
 40
0.9999999999999999
 10
65.94828788893561
 20
105.2618763381799
 30
0.0
 10
66.12792807168181
 20
105.2345897259337
 30
0.0
 10
66.45750438717069
 20
105.1845284256788
 30
0.0
 10
66.83573407010132
 20
105.1144904298742
 30
0.0
 10
67.0232283644863
 20
105.0735227882431
 30
0.0
 10
67.09548731105666
 20
105.0577341551145
 30
0.0
  0
SPLINE
  5
91
330
1F
100
AcDbEntity
  8
0
  6
Continuous
 62
     7
370
    15
100
AcDbSpline
210
0.0
220
0.0
230
1.0
 70
     8
 71
     3
 72
    16
 73
    12
 74
     0
 42
0.00000001
 43
0.00000001
 12
1.0
 22
0.0
 32
0.0
 13
1.0
 23
0.0
 33
0.0
 40
0.0
 40
0.0
 40
0.0
 40
0.0
 40
0.0401985039808821
 40
0.1308697723518272
 40
0.3037661062764652
 40
0.4595683458842448
 40
0.5952194966303674
 40
0.7209644447243935
 40
0.8402031551984781
 40
0.9633710090876821
 40
1.0
 40
1.0
 40
1.0
 40
1.0
 10
67.04951350348334
 20
104.7213236773571
 30
0.0
 10
67.01109694741761
 20
104.7138395008511
 30
0.0
 10
66.88602846354433
 20
104.689474104665
 30
0.0
 10
66.54945501430475
 20
104.6302202365524
 30
0.0
 10
66.036183269567
 20
104.54182573007
 30
0.0
 10
65.41457072095912
 20
104.4410745883534
 30
0.0
 10
64.84191235169321
 20
104.352101976948
 30
0.0
 10
64.32273513840407
 20
104.2746191065502
 30
0.0
 10
63.84240113653605
 20
104.2060174385831
 30
0.0
 10
63.49152502798226
 20
104.1494479768317
 30
0.0
 10
63.31835689274568
 20
104.1151815463054
 30
0.0
 10
63.27866290467124
 20
104.1073269183
 30
0.0
  0
SPLINE
  5
92
330
1F
100
AcDbEntity
  8
0
  6
Continuous
 62
     7
370
    15
100
AcDbSpline
210
0.0
220
0.0
230
1.0
 70
     8
 71
     3
 72
     9
 73
     5
 74
     0
 42
0.00000001
 43
0.00000001
 12
1.0
 22
0.0
 32
0.0
 13
1.0
 23
0.0
 33
0.0
 40
0.0
 40
0.0
 40
0.0
 40
0.0
 40
0.1478120079516613
 40
1.0
 40
1.0
 40
1.0
 40
1.0
 10
64.37274900036196
 20
107.1226215893587
 30
0.0
 10
64.35434580711268
 20
107.1198731446779
 30
0.0
 10
64.22984175967896
 20
107.1012789538615
 30
0.0
 10
64.11202304916645
 20
107.0841067870364
 30
0.0
 10
64.01161935882907
 20
107.0694728726705
 30
0.0
  0
SPLINE
  5
93
330
1F
100
AcDbEntity
  8
0
  6
Continuous
 62
     7
370
    15
100
AcDbSpline
210
0.0
220
0.0
230
1.0
 70
     8
 71
     3
 72
    13
 73
     9
 74
     0
 42
0.00000001
 43
0.00000001
 12
1.0
 22
0.0
 32
0.0
 13
1.0
 23
0.0
 33
0.0
 40
0.0
 40
0.0
 40
0.0
 40
0.0
 40
0.0298784696022099
 40
0.2053340724452425
 40
0.3690996883169004
 40
0.5592130161104069
 40
0.7718240661200858
 40
1.0
 40
1.0
 40
1.0
 40
1.0
 10
63.00401215212684
 20
105.7366552734932
 30
0.0
 10
63.02674178718032
 20
105.7322358975315
 30
0.0
 10
63.18294686036055
 20
105.7018645807951
 30
0.0
 10
63.51439339855023
 20
105.6455156582911
 30
0.0
 10
64.0195231941001
 20
105.5596126117251
 30
0.0
 10
64.59962505134465
 20
105.4657929861087
 30
0.0
 10
65.26700782297034
 20
105.3616820018501
 30
0.0
 10
65.71591071053578
 20
105.2959189583455
 30
0.0
 10
65.94828788893561
 20
105.2618763381799
 30
0.0
  0
SPLINE
  5
94
330
1F
100
AcDbEntity
  8
0
  6
Continuous
 62
     7
370
    15
100
AcDbSpline
210
0.0
220
0.0
230
1.0
 70
     8
 71
     3
 72
    14
 73
    10
 74
     0
 42
0.00000001
 43
0.00000001
 12
1.0
 22
0.0
 32
0.0
 13
1.0
 23
0.0
 33
0.0
 40
0.0
 40
0.0
 40
0.0
 40
0.0
 40
0.1029701436206913
 40
0.249111030718469
 40
0.3977547036650871
 40
0.545951415670276
 40
0.6939595202732715
 40
0.8486863163260021
 40
1.0
 40
1.0
 40
1.0
 40
1.0
 10
63.57216362612586
 20
103.7582504535278
 30
0.0
 10
63.67594529401702
 20
103.7760643649744
 30
0.0
 10
63.92701960885222
 20
103.8191607586042
 30
0.0
 10
64.37342620720882
 20
103.8813352335424
 30
0.0
 10
64.88369356858516
 20
103.9587039414056
 30
0.0
 10
65.40263861096176
 20
104.0392534852006
 30
0.0
 10
65.91645818378164
 20
104.1220974833231
 30
0.0
 10
66.41251789571736
 20
104.2047169724053
 30
0.0
 10
66.70837315154161
 20
104.256744212765
 30
0.0
 10
66.8546510185514
 20
104.2824677163919
 30
0.0
  0
SPLINE
  5
95
330
1F
100
AcDbEntity
  8
0
  6
Continuous
 62
     7
370
    15
100
AcDbSpline
210
0.0
220
0.0
230
1.0
 70
     8
 71
     3
 72
    18
 73
    14
 74
     0
 42
0.00000001
 43
0.00000001
 12
1.0
 22
0.0
 32
0.0
 13
1.0
 23
0.0
 33
0.0
 40
0.0
 40
0.0
 40
0.0
 40
0.0
 40
0.1142839612002716
 40
0.2071728429179553
 40
0.3031975094965406
 40
0.427548517864603
 40
0.5409953356524155
 40
0.6411067332897769
 40
0.7264629741340547
 40
0.7964756426362419
 40
0.8601776640264217
 40
0.999897509116832
 40
1.0
 40
1.0
 40
1.0
 40
1.0
 10
67.08699364917616
 20
105.4592701578697
 30
0.0
 10
66.96220638447147
 20
105.4866128776175
 30
0.0
 10
66.73599325607351
 20
105.5361794915479
 30
0.0
 10
66.34304705130637
 20
105.6032420466335
 30
0.0
 10
65.91799855646826
 20
105.667306710452
 30
0.0
 10
65.44528044726395
 20
105.7351339180629
 30
0.0
 10
64.95636984903317
 20
105.8100762490494
 30
0.0
 10
64.52685130202217
 20
105.8777614272275
 30
0.0
 10
64.16926176988517
 20
105.935959077728
 30
0.0
 10
63.87216398107311
 20
105.9853589732851
 30
0.0
 10
63.52196112077991
 20
106.0458400018399
 30
0.0
 10
63.25925075003227
 20
106.0888787769691
 30
0.0
 10
63.12288926205709
 20
106.1168304619664
 30
0.0
 10
63.122789308003
 20
106.1168509507736
 30
0.0
  0
SPLINE
  5
96
330
1F
100
AcDbEntity
  8
0
  6
Continuous
 62
     7
370
    15
100
AcDbSpline
210
0.0
220
0.0
230
1.0
 70
     8
 71
     3
 72
    14
 73
    10
 74
     0
 42
0.00000001
 43
0.00000001
 12
1.0
 22
0.0
 32
0.0
 13
1.0
 23
0.0
 33
0.0
 40
0.0
 40
0.0
 40
0.0
 40
0.0
 40
0.0038482313650357
 40
0.1838925262705537
 40
0.3611246006095502
 40
0.5413917389243783
 40
0.7211170193840245
 40
0.9006133681698165
 40
1.0
 40
1.0
 40
1.0
 40
1.0
 10
63.42381139057021
 20
106.5732567543348
 30
0.0
 10
63.42669297637512
 20
106.5738231890226
 30
0.0
 10
63.56439314122032
 20
106.6008909757065
 30
0.0
 10
63.88393022596325
 20
106.6514825325069
 30
0.0
 10
64.37118608632113
 20
106.7214851173898
 30
0.0
 10
64.88459844581809
 20
106.7986859920168
 30
0.0
 10
65.4012757598689
 20
106.8791710793516
 30
0.0
 10
65.83719784436738
 20
106.9490162965847
 30
0.0
 10
66.08312145491776
 20
106.9903273730381
 30
0.0
 10
66.17076222555976
 20
107.0050495648941
 30
0.0
  0
SPLINE
  5
97
330
1F
100
AcDbEntity
  8
0
  6
Continuous
 62
     7
370
    15
100
AcDbSpline
210
0.0
220
0.0
230
1.0
 70
     8
 71
     3
 72
    10
 73
     6
 74
     0
 42
0.00000001
 43
0.00000001
 12
1.0
 22
0.0
 32
0.0
 13
1.0
 23
0.0
 33
0.0
 40
0.0
 40
0.0
 40
0.0
 40
0.0
 40
0.4240877360032444
 40
0.7780471533910436
 40
1.0
 40
1.0
 40
1.0
 40
1.0
 10
119.9482855643545
 20
105.2618763381799
 30
0.0
 10
120.1279278593261
 20
105.2345898361827
 30
0.0
 10
120.4575063035144
 20
105.1845290034762
 30
0.0
 10
120.8357356898774
 20
105.1144902888967
 30
0.0
 10
121.0232297273121
 20
105.0735227706186
 30
0.0
 10
121.0954887117658
 20
105.0577341551145
 30
0.0
  0
SPLINE
  5
98
330
1F
100
AcDbEntity
  8
0
  6
Continuous
 62
     7
370
    15
100
AcDbSpline
210
0.0
220
0.0
230
1.0
 70
     8
 71
     3
 72
    16
 73
    12
 74
     0
 42
0.00000001
 43
0.00000001
 12
1.0
 22
0.0
 32
0.0
 13
1.0
 23
0.0
 33
0.0
 40
0.0
 40
0.0
 40
0.0
 40
0.0
 40
0.0401985036491731
 40
0.1308697712719193
 40
0.3037649174795838
 40
0.4595675862438064
 40
0.5952187358705663
 40
0.7209632431939907
 40
0.8402028005846507
 40
0.9633706534575012
 40
1.0
 40
1.0
 40
1.0
 40
1.0
 10
121.0495111789022
 20
104.7213236773571
 30
0.0
 10
121.0110946263465
 20
104.713839498268
 30
0.0
 10
120.8860261539006
 20
104.6894740936725
 30
0.0
 10
120.5494537865423
 20
104.6302206280838
 30
0.0
 10
120.0361849438763
 20
104.5418250167104
 30
0.0
 10
119.4145725862234
 20
104.441074771829
 30
0.0
 10
118.8419142873336
 20
104.352102204025
 30
0.0
 10
118.32273692819
 20
104.2746185562051
 30
0.0
 10
117.8424013273162
 20
104.2060179073084
 30
0.0
 10
117.4915248588547
 20
104.1494476579415
 30
0.0
 10
117.3183552119708
 20
104.1151815346984
 30
0.0
 10
117.2786605800901
 20
104.1073269183
 30
0.0
  0
SPLINE
  5
99
330
1F
100
AcDbEntity
  8
0
  6
Continuous
 62
     7
370
    15
100
AcDbSpline
210
0.0
220
0.0
230
1.0
 70
     8
 71
     3
 72
     9
 73
     5
 74
     0
 42
0.00000001
 43
0.00000001
 12
1.0
 22
0.0
 32
0.0
 13
1.0
 23
0.0
 33
0.0
 40
0.0
 40
0.0
 40
0.0
 40
0.0
 40
0.1478024605051005
 40
0.9999999999999999
 40
0.9999999999999999
 40
0.9999999999999999
 40
0.9999999999999999
 10
118.372748538426
 20
107.1226215893587
 30
0.0
 10
118.3543465986497
 20
107.1198731307949
 30
0.0
 10
118.2298429894849
 20
107.1012776449387
 30
0.0
 10
118.1120239729175
 20
107.0841062733166
 30
0.0
 10
118.0116188968931
 20
107.0694728726705
 30
0.0
  0
SPLINE
  5
9A
330
1F
100
AcDbEntity
  8
0
  6
Continuous
 62
     7
370
    15
100
AcDbSpline
210
0.0
220
0.0
230
1.0
 70
     8
 71
     3
 72
    13
 73
     9
 74
     0
 42
0.00000001
 43
0.00000001
 12
1.0
 22
0.0
 32
0.0
 13
1.0
 23
0.0
 33
0.0
 40
0.0
 40
0.0
 40
0.0
 40
0.0
 40
0.02987975467443
 40
0.2053344481668361
 40
0.3691006437693009
 40
0.5592140294880917
 40
0.7718245648044163
 40
1.0
 40
1.0
 40
1.0
 40
1.0
 10
117.0040098275457
 20
105.7366552734932
 30
0.0
 10
117.0267413893299
 20
105.7322359167633
 30
0.0
 10
117.1829532707793
 20
105.7018659828308
 30
0.0
 10
117.5143918061634
 20
105.6455147500268
 30
0.0
 10
118.0195249449557
 20
105.5596129672555
 30
0.0
 10
118.5996255759492
 20
105.4657930658017
 30
0.0
 10
119.2670074530118
 20
105.3616819891569
 30
0.0
 10
119.7159090352774
 20
105.2959189565617
 30
0.0
 10
119.9482855643545
 20
105.2618763381799
 30
0.0
  0
SPLINE
  5
9B
330
1F
100
AcDbEntity
  8
0
  6
Continuous
 62
     7
370
    15
100
AcDbSpline
210
0.0
220
0.0
230
1.0
 70
     8
 71
     3
 72
    14
 73
    10
 74
     0
 42
0.00000001
 43
0.00000001
 12
1.0
 22
0.0
 32
0.0
 13
1.0
 23
0.0
 33
0.0
 40
0.0
 40
0.0
 40
0.0
 40
0.0
 40
0.1029706003850784
 40
0.2491124766515602
 40
0.3977540724987502
 40
0.5459513006088791
 40
0.6939604226804512
 40
0.8486872122394861
 40
1.0
 40
1.0
 40
1.0
 40
1.0
 10
117.5721613015447
 20
103.7582504535278
 30
0.0
 10
117.6759435859298
 20
103.7760644005487
 30
0.0
 10
117.9270197358117
 20
103.8191609392183
 30
0.0
 10
118.3734262122909
 20
103.8813341706962
 30
0.0
 10
118.8836922457733
 20
103.9587048876721
 30
0.0
 10
119.4026368673727
 20
104.0392535545047
 30
0.0
 10
119.9164584413491
 20
104.1220971744809
 30
0.0
 10
120.4125186399104
 20
104.2047167254687
 30
0.0
 10
120.7083721331815
 20
104.2567441822288
 30
0.0
 10
120.8546486939702
 20
104.2824677163919
 30
0.0
  0
SPLINE
  5
9C
330
1F
100
AcDbEntity
  8
0
  6
Continuous
 62
     7
370
    15
100
AcDbSpline
210
0.0
220
0.0
230
1.0
 70
     8
 71
     3
 72
    18
 73
    14
 74
     0
 42
0.00000001
 43
0.00000001
 12
1.0
 22
0.0
 32
0.0
 13
1.0
 23
0.0
 33
0.0
 40
0.0
 40
0.0
 40
0.0
 40
0.0
 40
0.1142838967535061
 40
0.2071723536645202
 40
0.3031973617784705
 40
0.4275478882291648
 40
0.5409954830971444
 40
0.6411064062150642
 40
0.7264625989254344
 40
0.7964756219994901
 40
0.8601772296963678
 40
0.9998966504568642
 40
1.0
 40
1.0
 40
1.0
 40
1.0
 10
121.0869950498853
 20
105.4592701578697
 30
0.0
 10
120.9622077133708
 20
105.4866128280633
 30
0.0
 10
120.7359948614501
 20
105.5361792630589
 30
0.0
 10
120.3430495833461
 20
105.6032424166407
 30
0.0
 10
119.9180007051573
 20
105.667306241075
 30
0.0
 10
119.4452827386054
 20
105.7351346892993
 30
0.0
 10
118.9563689726597
 20
105.810075294827
 30
0.0
 10
118.5268587002168
 20
105.8777627084309
 30
0.0
 10
118.1692435833553
 20
105.9359560752493
 30
0.0
 10
117.8722199468879
 20
105.9853679511984
 30
0.0
 10
117.5216808397731
 20
106.0457930317569
 30
0.0
 10
117.2606382131355
 20
106.0891110332854
 30
0.0
 10
117.1228888004495
 20
106.1168304620485
 30
0.0
 10
117.1227869834218
 20
106.1168509507736
 30
0.0
  0
SPLINE
  5
9D
330
1F
100
AcDbEntity
  8
0
  6
Continuous
 62
     7
370
    15
100
AcDbSpline
210
0.0
220
0.0
230
1.0
 70
     8
 71
     3
 72
    14
 73
    10
 74
     0
 42
0.00000001
 43
0.00000001
 12
1.0
 22
0.0
 32
0.0
 13
1.0
 23
0.0
 33
0.0
 40
0.0
 40
0.0
 40
0.0
 40
0.0
 40
0.0038467452360997
 40
0.1838923349825478
 40
0.361125790093287
 40
0.5413905936688702
 40
0.7211166837415174
 40
0.9006144499354374
 40
1.0
 40
1.0
 40
1.0
 40
1.0
 10
117.4238127912794
 20
106.5732567543348
 30
0.0
 10
117.4266925081859
 20
106.5738231915458
 30
0.0
 10
117.564356385965
 20
106.6009015278921
 30
0.0
 10
117.8839456474291
 20
106.6514780745427
 30
0.0
 10
118.371181825822
 20
106.7214853324029
 30
0.0
 10
118.8845983065061
 20
106.7986865665565
 30
0.0
 10
119.4012735596545
 20
106.879171348282
 30
0.0
 10
119.8371974165019
 20
106.9490155812879
 30
0.0
 10
120.0831204097277
 20
106.9903273163063
 30
0.0
 10
120.1707599009786
 20
107.0050495648941
 30
0.0
  0
SPLINE
  5
9E
330
1F
100
AcDbEntity
  8
0
  6
Continuous
 62
     7
370
    15
100
AcDbSpline
210
0.0
220
0.0
230
1.0
 70
     8
 71
     3
 72
    10
 73
     6
 74
     0
 42
0.00000001
 43
0.00000001
 12
1.0
 22
0.0
 32
0.0
 13
1.0
 23
0.0
 33
0.0
 40
0.0
 40
0.0
 40
0.0
 40
0.0
 40
0.4240852331835105
 40
0.7780455934016143
 40
1.0
 40
1.0
 40
1.0
 40
1.0
 10
53.94828778462749
 20
105.2618763381799
 30
0.0
 10
54.12792812460643
 20
105.234589773162
 30
0.0
 10
54.45750426633761
 20
105.1845286297641
 30
0.0
 10
54.83573229672441
 20
105.1144901489404
 30
0.0
 10
55.0232275571262
 20
105.0735227622575
 30
0.0
 10
55.09548720674854
 20
105.0577341551145
 30
0.0
  0
SPLINE
  5
9F
330
1F
100
AcDbEntity
  8
0
  6
Continuous
 62
     7
370
    15
100
AcDbSpline
210
0.0
220
0.0
230
1.0
 70
     8
 71
     3
 72
    16
 73
    12
 74
     0
 42
0.00000001
 43
0.00000001
 12
1.0
 22
0.0
 32
0.0
 13
1.0
 23
0.0
 33
0.0
 40
0.0
 40
0.0
 40
0.0
 40
0.0
 40
0.0401988064629459
 40
0.1308700462587819
 40
0.3037663256950281
 40
0.459568516201631
 40
0.5952196241972055
 40
0.7209645326626296
 40
0.8402032055585573
 40
0.9633710206313323
 40
1.0
 40
1.0
 40
1.0
 40
1.0
 10
55.04951526182037
 20
104.7213236773571
 30
0.0
 10
55.01109804134443
 20
104.713839511022
 30
0.0
 10
54.88602807377078
 20
104.6894742802936
 30
0.0
 10
54.54945535721044
 20
104.6302201561128
 30
0.0
 10
54.03618303063042
 20
104.5418257542854
 30
0.0
 10
53.41457064626723
 20
104.4410745830264
 30
0.0
 10
52.84191224051249
 20
104.3521019781842
 30
0.0
 10
52.32273503577765
 20
104.2746191062478
 30
0.0
 10
51.84240103175683
 20
104.2060174386678
 30
0.0
 10
51.49152492370327
 20
104.1494479768265
 30
0.0
 10
51.31835678844298
 20
104.1151815463044
 30
0.0
 10
51.27866280036312
 20
104.1073269183
 30
0.0
  0
SPLINE
  5
A0
330
1F
100
AcDbEntity
  8
0
  6
Continuous
 62
     7
370
    15
100
AcDbSpline
210
0.0
220
0.0
230
1.0
 70
     8
 71
     3
 72
     9
 73
     5
 74
     0
 42
0.00000001
 43
0.00000001
 12
1.0
 22
0.0
 32
0.0
 13
1.0
 23
0.0
 33
0.0
 40
0.0
 40
0.0
 40
0.0
 40
0.0
 40
0.1478120079516613
 40
1.0
 40
1.0
 40
1.0
 40
1.0
 10
52.37274889605384
 20
107.1226215893587
 30
0.0
 10
52.35434570280455
 20
107.1198731446779
 30
0.0
 10
52.22984165537083
 20
107.1012789538615
 30
0.0
 10
52.11202294485832
 20
107.0841067870364
 30
0.0
 10
52.01161925452094
 20
107.0694728726705
 30
0.0
  0
SPLINE
  5
A1
330
1F
100
AcDbEntity
  8
0
  6
Continuous
 62
     7
370
    15
100
AcDbSpline
210
0.0
220
0.0
230
1.0
 70
     8
 71
     3
 72
    13
 73
     9
 74
     0
 42
0.00000001
 43
0.00000001
 12
1.0
 22
0.0
 32
0.0
 13
1.0
 23
0.0
 33
0.0
 40
0.0
 40
0.0
 40
0.0
 40
0.0
 40
0.0298780569978875
 40
0.2053337344642924
 40
0.3690994199874308
 40
0.5592128286384158
 40
0.7718239690741244
 40
1.0
 40
1.0
 40
1.0
 40
1.0
 10
51.00401391046386
 20
105.7366552734932
 30
0.0
 10
51.02674290555142
 20
105.7322358921569
 30
0.0
 10
51.18294548064794
 20
105.7018641690605
 30
0.0
 10
51.51439392604045
 20
105.645515790498
 30
0.0
 10
52.01952289643511
 20
105.5596125712643
 30
0.0
 10
52.59962500890684
 20
105.4657929990554
 30
0.0
 10
53.26700770109794
 20
105.3616819981747
 30
0.0
 10
53.71591060023667
 20
105.2959189570918
 30
0.0
 10
53.94828778462749
 20
105.2618763381799
 30
0.0
  0
SPLINE
  5
A2
330
1F
100
AcDbEntity
  8
0
  6
Continuous
 62
     7
370
    15
100
AcDbSpline
210
0.0
220
0.0
230
1.0
 70
     8
 71
     3
 72
    14
 73
    10
 74
     0
 42
0.00000001
 43
0.00000001
 12
1.0
 22
0.0
 32
0.0
 13
1.0
 23
0.0
 33
0.0
 40
0.0
 40
0.0
 40
0.0
 40
0.0
 40
0.1029701425410898
 40
0.2491110281066377
 40
0.3977546994947855
 40
0.5459519322707825
 40
0.6939595234819856
 40
0.8486863179124666
 40
1.0
 40
1.0
 40
1.0
 40
1.0
 10
51.57216352181774
 20
103.7582504535278
 30
0.0
 10
51.67594518934234
 20
103.7760643666663
 30
0.0
 10
51.92701950329074
 20
103.8191607643893
 30
0.0
 10
52.37342611050799
 20
103.8813351984293
 30
0.0
 10
52.88369403724252
 20
103.958704165089
 30
0.0
 10
53.40263923860208
 20
104.0392530914504
 30
0.0
 10
53.9164585969362
 20
104.1220977127529
 30
0.0
 10
54.41251780176279
 20
104.204716938594
 30
0.0
 10
54.70837305065891
 20
104.2567442015787
 30
0.0
 10
54.85465091424327
 20
104.2824677163919
 30
0.0
  0
SPLINE
  5
A3
330
1F
100
AcDbEntity
  8
0
  6
Continuous
 62
     7
370
    15
100
AcDbSpline
210
0.0
220
0.0
230
1.0
 70
     8
 71
     3
 72
    18
 73
    14
 74
     0
 42
0.00000001
 43
0.00000001
 12
1.0
 22
0.0
 32
0.0
 13
1.0
 23
0.0
 33
0.0
 40
0.0
 40
0.0
 40
0.0
 40
0.0
 40
0.1142842532952886
 40
0.2071731043797012
 40
0.3031977392908837
 40
0.4275487066499676
 40
0.5409954870248299
 40
0.6411068516470496
 40
0.7264630643422013
 40
0.7964757097553274
 40
0.860177710137597
 40
0.9998975091506318
 40
1.0
 40
1.0
 40
1.0
 40
1.0
 10
55.08699540751319
 20
105.4592701578697
 30
0.0
 10
54.96220746664287
 20
105.4866128563696
 30
0.0
 10
54.73599340517936
 20
105.5361793676517
 30
0.0
 10
54.34304699074285
 20
105.6032420594443
 30
0.0
 10
53.91799843627765
 20
105.6673067058007
 30
0.0
 10
53.44528034723275
 20
105.7351339193154
 30
0.0
 10
52.95636974376138
 20
105.8100762487672
 30
0.0
 10
52.52685119792007
 20
105.8777614272879
 30
0.0
 10
52.16926166553577
 20
105.9359590777159
 30
0.0
 10
51.87216387677387
 20
105.9853589732877
 30
0.0
 10
51.52196101646626
 20
106.0458400018385
 30
0.0
 10
51.25925064572343
 20
106.0888787769678
 30
0.0
 10
51.12288915774896
 20
106.1168304619664
 30
0.0
 10
51.12278920369487
 20
106.1168509507736
 30
0.0
  0
SPLINE
  5
A4
330
1F
100
AcDbEntity
  8
0
  6
Continuous
 62
     7
370
    15
100
AcDbSpline
210
0.0
220
0.0
230
1.0
 70
     8
 71
     3
 72
    14
 73
    10
 74
     0
 42
0.00000001
 43
0.00000001
 12
1.0
 22
0.0
 32
0.0
 13
1.0
 23
0.0
 33
0.0
 40
0.0
 40
0.0
 40
0.0
 40
0.0
 40
0.0038482290472221
 40
0.1838924155109437
 40
0.3611243831019616
 40
0.5413914128407734
 40
0.7211172184978534
 40
0.9006128384392743
 40
1.0
 40
1.0
 40
1.0
 40
1.0
 10
51.42381128626209
 20
106.5732567543348
 30
0.0
 10
51.42669287206724
 20
106.5738231890217
 30
0.0
 10
51.5643930369248
 20
106.6008909756655
 30
0.0
 10
51.88393011825203
 20
106.6514825436695
 30
0.0
 10
52.37118599384507
 20
106.7214850785783
 30
0.0
 10
52.88459890211962
 20
106.7986862298695
 30
0.0
 10
53.40127644130411
 20
106.8791706321197
 30
0.0
 10
53.83719866830701
 20
106.9490166752546
 30
0.0
 10
54.08312257722529
 20
106.9903274069288
 30
0.0
 10
54.17076398389678
 20
107.0050495648941
 30
0.0
  0
ARC
  5
A5
330
1F
100
AcDbEntity
  8
0
  6
Continuous
 62
     7
370
    15
100
AcDbCircle
 10
107.0219886066
 20
110.2016662701
 30
0.0
 40
3.174999999999999
100
AcDbArc
 50
253.726292351
 51
286.273707649
  0
ARC
  5
A6
330
1F
100
AcDbEntity
  8
0
  6
Continuous
 62
     7
370
    15
100
AcDbCircle
 10
86.0219886066
 20
110.2016662701
 30
0.0
 40
3.175000000000004
100
AcDbArc
 50
253.7262923515
 51
286.2737076485
  0
ARC
  5
A7
330
1F
100
AcDbEntity
  8
0
  6
Continuous
 62
     7
370
    15
100
AcDbCircle
 10
65.0219886066
 20
110.2016662701
 30
0.0
 40
3.174999999999999
100
AcDbArc
 50
253.726292351
 51
286.273707649
  0
ARC
  5
A8
330
1F
100
AcDbEntity
  8
0
  6
Continuous
 62
     7
370
    15
100
AcDbCircle
 10
119.0219886066
 20
110.2016662701
 30
0.0
 40
3.174999999999986
100
AcDbArc
 50
253.7262923493
 51
286.2737076507
  0
ARC
  5
A9
330
1F
100
AcDbEntity
  8
0
  6
Continuous
 62
     7
370
    15
100
AcDbCircle
 10
53.0219886066
 20
110.2016662701
 30
0.0
 40
3.174999999999986
100
AcDbArc
 50
253.726292351
 51
286.273707649
  0
LINE
  5
AA
330
1F
100
AcDbEntity
  8
0
  6
Continuous
 62
     7
370
    15
100
AcDbLine
 10
47.0219887118
 20
92.4516665721
 30
0.0
 11
46.0219885479
 21
92.4516665721
 31
0.0
  0
LINE
  5
AB
330
1F
100
AcDbEntity
  8
0
  6
Continuous
 62
     7
370
    15
100
AcDbLine
 10
46.0219885479
 20
92.4516665721
 30
0.0
 11
46.0219885479
 21
116.2516661892
 31
0.0
  0
LINE
  5
AC
330
1F
100
AcDbEntity
  8
0
  6
Continuous
 62
     7
370
    15
100
AcDbLine
 10
46.0219885479
 20
116.2516661892
 30
0.0
 11
47.0219887118
 21
116.2516661892
 31
0.0
  0
LINE
  5
AD
330
1F
100
AcDbEntity
  8
0
  6
Continuous
 62
     7
370
    15
100
AcDbLine
 10
47.0219887118
 20
116.2516661892
 30
0.0
 11
47.0219887118
 21
92.4516665721
 31
0.0
  0
LINE
  5
AE
330
1F
100
AcDbEntity
  8
0
  6
Continuous
 62
     7
370
    15
100
AcDbLine
 10
93.5852815654
 20
92.4516665721
 30
0.0
 11
93.5852815654
 21
105.6516665006
 31
0.0
  0
LINE
  5
AF
330
1F
100
AcDbEntity
  8
0
  6
Continuous
 62
     7
370
    15
100
AcDbLine
 10
93.5852815654
 20
92.4516665721
 30
0.0
 11
78.458695605
 21
92.4516665721
 31
0.0
  0
LINE
  5
B0
330
1F
100
AcDbEntity
  8
0
  6
Continuous
 62
     7
370
    15
100
AcDbLine
 10
78.458695605
 20
105.6516665006
 30
0.0
 11
78.458695605
 21
92.4516665721
 31
0.0
  0
LINE
  5
B1
330
1F
100
AcDbEntity
  8
0
  6
Continuous
 62
     7
370
    15
100
AcDbLine
 10
77.3785588588
 20
105.6516665006
 30
0.0
 11
78.458695605
 21
105.6516665006
 31
0.0
  0
LINE
  5
B2
330
1F
100
AcDbEntity
  8
0
  6
Continuous
 62
     7
370
    15
100
AcDbLine
 10
76.8289258029
 20
106.2012995565
 30
0.0
 11
77.3785588588
 21
105.6516665006
 31
0.0
  0
ARC
  5
B3
330
1F
100
AcDbEntity
  8
0
  6
Continuous
 62
     7
370
    15
100
AcDbCircle
 10
73.5219886066
 20
108.4516662701
 30
0.0
 40
4.000000000000002
100
AcDbArc
 50
325.7647644286
 51
267.7523305739
  0
LINE
  5
B4
330
1F
100
AcDbEntity
  8
0
  6
Continuous
 62
     7
370
    15
100
AcDbLine
 10
73.3651136305
 20
92.4516665721
 30
0.0
 11
73.3651136305
 21
104.4547437662
 31
0.0
  0
LINE
  5
B5
330
1F
100
AcDbEntity
  8
0
  6
Continuous
 62
     7
370
    15
100
AcDbLine
 10
47.0219887118
 20
116.2516661892
 30
0.0
 11
125.0219893898
 21
116.2516661892
 31
0.0
  0
LINE
  5
B6
330
1F
100
AcDbEntity
  8
0
  6
Continuous
 62
     7
370
    15
100
AcDbLine
 10
125.0219893898
 20
92.4516665721
 30
0.0
 11
125.0219893898
 21
116.2516661892
 31
0.0
  0
LINE
  5
B7
330
1F
100
AcDbEntity
  8
0
  6
Continuous
 62
     7
370
    15
100
AcDbLine
 10
125.0219893898
 20
92.4516665721
 30
0.0
 11
98.6788672652
 21
92.4516665721
 31
0.0
  0
LINE
  5
B8
330
1F
100
AcDbEntity
  8
0
  6
Continuous
 62
     7
370
    15
100
AcDbLine
 10
98.6788672652
 20
104.4547437662
 30
0.0
 11
98.6788672652
 21
92.4516665721
 31
0.0
  0
ARC
  5
B9
330
1F
100
AcDbEntity
  8
0
  6
Continuous
 62
     7
370
    15
100
AcDbCircle
 10
98.5219886066
 20
108.4516662701
 30
0.0
 40
3.99999999999999
100
AcDbArc
 50
272.2476694261
 51
214.2352355714
  0
LINE
  5
BA
330
1F
100
AcDbEntity
  8
0
  6
Continuous
 62
     7
370
    15
100
AcDbLine
 10
94.6654183115
 20
105.6516665006
 30
0.0
 11
95.2150513675
 21
106.2012995565
 31
0.0
  0
LINE
  5
BB
330
1F
100
AcDbEntity
  8
0
  6
Continuous
 62
     7
370
    15
100
AcDbLine
 10
93.5852815654
 20
105.6516665006
 30
0.0
 11
94.6654183115
 21
105.6516665006
 31
0.0
  0
CIRCLE
  5
BC
330
1F
100
AcDbEntity
  8
0
  6
Continuous
 62
     7
370
    15
100
AcDbCircle
 10
65.0219886066
 20
105.2516662701
 30
0.0
 40
2.09999999999998
  0
CIRCLE
  5
BD
330
1F
100
AcDbEntity
  8
0
  6
Continuous
 62
     7
370
    15
100
AcDbCircle
 10
107.0219886066
 20
105.2516662701
 30
0.0
 40
2.099999999999994
  0
CIRCLE
  5
BE
330
1F
100
AcDbEntity
  8
0
  6
Continuous
 62
     7
370
    15
100
AcDbCircle
 10
86.0219886066
 20
105.2516662701
 30
0.0
 40
2.099999999999994
  0
CIRCLE
  5
BF
330
1F
100
AcDbEntity
  8
0
  6
Continuous
 62
     7
370
    15
100
AcDbCircle
 10
53.0219886066
 20
105.2516662701
 30
0.0
 40
2.099999999999987
  0
CIRCLE
  5
C0
330
1F
100
AcDbEntity
  8
0
  6
Continuous
 62
     7
370
    15
100
AcDbCircle
 10
119.0219886066
 20
105.2516662701
 30
0.0
 40
2.099999999999994
  0
LINE
  5
C1
330
1F
100
AcDbEntity
  8
0
  6
Continuous
 62
     7
370
    15
100
AcDbLine
 10
73.3651136305
 20
92.4516665721
 30
0.0
 11
47.0219887118
 21
92.4516665721
 31
0.0
  0
ARC
  5
C2
330
1F
100
AcDbEntity
  8
0
  6
Continuous
 62
     7
370
    15
100
AcDbCircle
 10
73.5219886066
 20
108.4516662701
 30
0.0
 40
3.999999999999983
100
AcDbArc
 50
267.7523305739
 51
283.1825151504
  0
LINE
  5
C3
330
1F
100
AcDbEntity
  8
0
  6
Continuous
 62
     7
370
    15
100
AcDbLine
 10
74.4342048909
 20
104.5570719028
 30
0.0
 11
74.4342048909
 21
105.6516665006
 31
0.0
  0
LINE
  5
C4
330
1F
100
AcDbEntity
  8
0
  6
Continuous
 62
     7
370
    15
100
AcDbLine
 10
76.4751983132
 20
92.4516665721
 30
0.0
 11
76.4751983132
 21
105.6516665006
 31
0.0
  0
LINE
  5
C5
330
1F
100
AcDbEntity
  8
0
  6
Continuous
 62
     7
370
    15
100
AcDbLine
 10
73.3651136305
 20
92.4516665721
 30
0.0
 11
76.4751983132
 21
92.4516665721
 31
0.0
  0
LINE
  5
C6
330
1F
100
AcDbEntity
  8
0
  6
Continuous
 62
     7
370
    15
100
AcDbLine
 10
97.6097722794
 20
105.6516665006
 30
0.0
 11
97.6097722794
 21
104.5570719028
 31
0.0
  0
ARC
  5
C7
330
1F
100
AcDbEntity
  8
0
  6
Continuous
 62
     7
370
    15
100
AcDbCircle
 10
98.5219886066
 20
108.4516662701
 30
0.0
 40
3.999999999999984
100
AcDbArc
 50
256.8174848496
 51
272.2476694261
  0
LINE
  5
C8
330
1F
100
AcDbEntity
  8
0
  6
Continuous
 62
     7
370
    15
100
AcDbLine
 10
95.5687788572
 20
92.4516665721
 30
0.0
 11
98.6788672652
 21
92.4516665721
 31
0.0
  0
LINE
  5
C9
330
1F
100
AcDbEntity
  8
0
  6
Continuous
 62
     7
370
    15
100
AcDbLine
 10
95.5687788572
 20
105.6516665006
 30
0.0
 11
95.5687788572
 21
92.4516665721
 31
0.0
  0
LINE
  5
CA
330
1F
100
AcDbEntity
  8
0
  6
Continuous
 62
     7
370
    15
100
AcDbLine
 10
126.0219914164
 20
116.2516661892
 30
0.0
 11
126.0219914164
 21
92.4516665721
 31
0.0
  0
LINE
  5
CB
330
1F
100
AcDbEntity
  8
0
  6
Continuous
 62
     7
370
    15
100
AcDbLine
 10
126.0219914164
 20
92.4516665721
 30
0.0
 11
125.0219893898
 21
92.4516665721
 31
0.0
  0
LINE
  5
CC
330
1F
100
AcDbEntity
  8
0
  6
Continuous
 62
     7
370
    15
100
AcDbLine
 10
125.0219893898
 20
116.2516661892
 30
0.0
 11
126.0219914164
 21
116.2516661892
 31
0.0
  0
CIRCLE
  5
CD
330
1F
100
AcDbEntity
  8
0
  6
Continuous
 62
     7
370
    15
100
AcDbCircle
 10
73.5219886066
 20
108.4516662701
 30
0.0
 40
2.25
  0
LINE
  5
CE
330
1F
100
AcDbEntity
  8
0
  6
Continuous
 62
     7
370
    15
100
AcDbLine
 10
74.4342048909
 20
105.6516665006
 30
0.0
 11
77.3785588588
 21
105.6516665006
 31
0.0
  0
CIRCLE
  5
CF
330
1F
100
AcDbEntity
  8
0
  6
Continuous
 62
     7
370
    15
100
AcDbCircle
 10
98.5219886066
 20
108.4516662701
 30
0.0
 40
2.25
  0
LINE
  5
D0
330
1F
100
AcDbEntity
  8
0
  6
Continuous
 62
     7
370
    15
100
AcDbLine
 10
94.6654183115
 20
105.6516665006
 30
0.0
 11
97.6097722794
 21
105.6516665006
 31
0.0
  0
DIMENSION
  5
D1
330
1F
100
AcDbEntity
  8
0
  6
Continuous
 62
     7
370
     0
100
AcDbDimension
  2
_D_1
 10
73.5219886066
 20
122.9506156562
 30
0.0
 11
61.9734724201
 21
122.9506156562
 31
0.0
 70
   160
  1
<>
 71
     2
 42
-1.0
  3
SLDDIMSTYLE1
100
AcDbAlignedDimension
 13
46.0219886066
 23
116.2516662701
 33
0.0
 14
73.5219886066
 24
113.2016662701
 34
0.0
100
AcDbRotatedDimension
  0
DIMENSION
  5
DC
330
1F
100
AcDbEntity
  8
0
  6
Continuous
 62
     7
370
     0
100
AcDbDimension
  2
_D_2
 10
98.5219886066
 20
122.9506156562
 30
0.0
 11
86.3329311724
 21
122.9506156562
 31
0.0
 70
   160
  1
<>
 71
     2
 42
-1.0
  3
SLDDIMSTYLE0
100
AcDbAlignedDimension
 13
73.5219886066
 23
113.2016662701
 33
0.0
 14
98.5219886066
 24
113.2016662701
 34
0.0
100
AcDbRotatedDimension
  0
DIMENSION
  5
E6
330
1F
100
AcDbEntity
  8
0
  6
Continuous
 62
     7
370
     0
100
AcDbDimension
  2
_D_3
 10
126.0219886066
 20
122.9506156562
 30
0.0
 11
113.3730959118
 21
122.9506156562
 31
0.0
 70
   160
  1
<>
 71
     2
 42
-1.0
  3
SLDDIMSTYLE1
100
AcDbAlignedDimension
 13
98.5219886066
 23
113.2016662701
 33
0.0
 14
126.0219886066
 24
116.2516662701
 34
0.0
100
AcDbRotatedDimension
  0
DIMENSION
  5
F0
330
1F
100
AcDbEntity
  8
0
  6
Continuous
 62
     7
370
     0
100
AcDbDimension
  2
_D_4
 10
41.1368954908
 20
92.4516662701
 30
0.0
 11
41.1368954908
 21
104.9058491366
 31
0.0
 70
   160
  1
<>
 71
     2
 42
-1.0
  3
SLDDIMSTYLE1
100
AcDbAlignedDimension
 13
46.0219886066
 23
116.2516662701
 33
0.0
 14
46.0219886066
 24
92.4516662701
 34
0.0
 50
90.0
100
AcDbRotatedDimension
  0
DIMENSION
  5
FA
330
1F
100
AcDbEntity
  8
0
  6
Continuous
 62
     7
370
     0
100
AcDbDimension
  2
_D_5
 10
136.0219886066
 20
108.4516662701
 30
0.0
 11
136.0219886066
 21
124.146065135
 31
0.0
 70
   160
  1
<>
 71
     2
 42
-1.0
  3
SLDDIMSTYLE2
100
AcDbAlignedDimension
 13
126.0219886066
 23
116.2516662701
 33
0.0
 14
103.2719886066
 24
108.4516662701
 34
0.0
 50
90.0
100
AcDbRotatedDimension
  0
MTEXT
  5
107
330
1F
100
AcDbEntity
  8
0
  6
Continuous
 62
     7
370
     0
100
AcDbMText
 10
119.7934207055
 20
86.3243548669
 30
0.0
 40
3.5
 41
0.0
 71
     1
 72
     1
  1
2-φ4.5,φ8ザグリ 深5.5
  7
SLDTEXTSTYLE1
 73
     1
 44
1.0
  0
LEADER
  5
109
330
1F
100
AcDbEntity
  8
0
  6
Continuous
 62
     7
370
     0
100
AcDbLeader
  3
SLDDIMSTYLE3
 76
     3
 10
101.0561548347
 20
105.3568316172
 30
0.0
 10
119.2115384615
 20
81.8509615385
 30
0.0
 10
164.7836538462
 20
81.8509615385
 30
0.0
  0
MTEXT
  5
10A
330
1F
100
AcDbEntity
  8
0
  6
Continuous
 62
     7
370
     0
100
AcDbMText
 10
79.5851054061
 20
85.8266255814
 30
0.0
 40
3.5
 41
0.0
 71
     1
 72
     1
  1
5-M5
  7
SLDTEXTSTYLE1
 73
     1
 44
1.0
  0
LEADER
  5
10B
330
1F
100
AcDbEntity
  8
0
  6
Continuous
 62
     7
370
     0
100
AcDbLeader
  3
SLDDIMSTYLE3
 76
     3
 10
66.6009767741
 20
103.8671821182
 30
0.0
 10
79.0673076923
 20
81.3701923077
 30
0.0
 10
90.5048076923
 20
81.3701923077
 30
0.0
  0
INSERT
  5
117
330
1F
100
AcDbEntity
  8
0
  6
Continuous
 62
     7
370
     0
100
AcDbBlockReference
  2
SW_CENTERMARKSYMBOL_0
 10
98.5219886066
 20
108.4516662701
 30
0.0
  0
INSERT
  5
123
330
1F
100
AcDbEntity
  8
0
  6
Continuous
 62
     7
370
     0
100
AcDbBlockReference
  2
SW_CENTERMARKSYMBOL_1
 10
73.5219886066
 20
108.4516662701
 30
0.0
  0
INSERT
  5
12F
330
1F
100
AcDbEntity
  8
0
  6
Continuous
 62
     7
370
     0
100
AcDbBlockReference
  2
SW_CENTERMARKSYMBOL_2
 10
119.0219886066
 20
105.2516662701
 30
0.0
  0
INSERT
  5
13B
330
1F
100
AcDbEntity
  8
0
  6
Continuous
 62
     7
370
     0
100
AcDbBlockReference
  2
SW_CENTERMARKSYMBOL_3
 10
53.0219886066
 20
105.2516662701
 30
0.0
  0
INSERT
  5
147
330
1F
100
AcDbEntity
  8
0
  6
Continuous
 62
     7
370
     0
100
AcDbBlockReference
  2
SW_CENTERMARKSYMBOL_4
 10
86.0219886066
 20
105.2516662701
 30
0.0
  0
INSERT
  5
153
330
1F
100
AcDbEntity
  8
0
  6
Continuous
 62
     7
370
     0
100
AcDbBlockReference
  2
SW_CENTERMARKSYMBOL_5
 10
107.0219886066
 20
105.2516662701
 30
0.0
  0
INSERT
  5
15F
330
1F
100
AcDbEntity
  8
0
  6
Continuous
 62
     7
370
     0
100
AcDbBlockReference
  2
SW_CENTERMARKSYMBOL_6
 10
65.0219886066
 20
105.2516662701
 30
0.0
  0
LINE
  5
160
330
1F
100
AcDbEntity
  8
0
  6
Continuous
 62
     7
370
    15
100
AcDbLine
 10
175.4395070367
 20
168.4244536758
 30
0.0
 11
175.4395070367
 21
167.4244535118
 31
0.0
  0
LINE
  5
161
330
1F
100
AcDbEntity
  8
0
  6
Continuous
 62
     7
370
    15
100
AcDbLine
 10
175.4395070367
 20
167.4244535118
 30
0.0
 11
151.6395074197
 21
167.4244535118
 31
0.0
  0
LINE
  5
162
330
1F
100
AcDbEntity
  8
0
  6
Continuous
 62
     7
370
    15
100
AcDbLine
 10
151.6395074197
 20
167.4244535118
 30
0.0
 11
151.6395074197
 21
168.4244536758
 31
0.0
  0
LINE
  5
163
330
1F
100
AcDbEntity
  8
0
  6
Continuous
 62
     7
370
    15
100
AcDbLine
 10
151.6395074197
 20
168.4244536758
 30
0.0
 11
175.4395070367
 21
168.4244536758
 31
0.0
  0
LINE
  5
164
330
1F
100
AcDbEntity
  8
0
  6
Continuous
 62
     7
370
    15
100
AcDbLine
 10
175.4395070367
 20
168.4244536758
 30
0.0
 11
175.4395070367
 21
183.4244533405
 31
0.0
  0
LINE
  5
165
330
1F
100
AcDbEntity
  8
0
  6
Continuous
 62
     7
370
    15
100
AcDbLine
 10
151.6395074197
 20
168.4244536758
 30
0.0
 11
151.6395074197
 21
183.4244533405
 31
0.0
  0
LINE
  5
166
330
1F
100
AcDbEntity
  8
0
  6
Continuous
 62
     7
370
    15
100
AcDbLine
 10
151.6395074197
 20
183.4244533405
 30
0.0
 11
175.4395070367
 21
183.4244533405
 31
0.0
  0
LINE
  5
167
330
1F
100
AcDbEntity
  8
0
  6
Continuous
 62
     7
370
    15
100
AcDbLine
 10
156.4395076476
 20
185.4244536683
 30
0.0
 11
151.6395074197
 21
185.4244536683
 31
0.0
  0
LINE
  5
168
330
1F
100
AcDbEntity
  8
0
  6
Continuous
 62
     7
370
    15
100
AcDbLine
 10
156.4395076476
 20
183.4244533405
 30
0.0
 11
156.4395076476
 21
185.4244536683
 31
0.0
  0
LINE
  5
169
330
1F
100
AcDbEntity
  8
0
  6
Continuous
 62
     7
370
    15
100
AcDbLine
 10
151.6395074197
 20
183.4244533405
 30
0.0
 11
151.6395074197
 21
185.4244536683
 31
0.0
  0
LINE
  5
16A
330
1F
100
AcDbEntity
  8
0
  6
Continuous
 62
     7
370
    15
100
AcDbLine
 10
151.6395074197
 20
186.4244529009
 30
0.0
 11
156.4395076476
 21
186.4244529009
 31
0.0
  0
LINE
  5
16B
330
1F
100
AcDbEntity
  8
0
  6
Continuous
 62
     7
370
    15
100
AcDbLine
 10
156.4395076476
 20
186.4244529009
 30
0.0
 11
156.4395076476
 21
185.4244536683
 31
0.0
  0
LINE
  5
16C
330
1F
100
AcDbEntity
  8
0
  6
Continuous
 62
     7
370
    15
100
AcDbLine
 10
151.6395074197
 20
185.4244536683
 30
0.0
 11
151.6395074197
 21
186.4244529009
 31
0.0
  0
DIMENSION
  5
16D
330
1F
100
AcDbEntity
  8
0
  6
Continuous
 62
     7
370
     0
100
AcDbDimension
  2
_D_6
 10
187.2747843597
 20
167.4244532883
 30
0.0
 11
187.2747843597
 21
177.1048598596
 31
0.0
 70
   160
  1
<>
 71
     2
 42
-1.0
  3
SLDDIMSTYLE0
100
AcDbAlignedDimension
 13
156.4395073388
 23
186.4244532883
 33
0.0
 14
175.4395073388
 24
167.4244532883
 34
0.0
 50
90.0
100
AcDbRotatedDimension
  0
ENDSEC
  0
SECTION
  2
OBJECTS
  0
DICTIONARY
  5
C
330
0
100
AcDbDictionary
281
     1
  3
ACAD_GROUP
350
D
  3
ACAD_LAYOUT
350
1A
  3
ACAD_MLINESTYLE
350
17
  3
ACAD_PLOTSETTINGS
350
19
  3
ACAD_PLOTSTYLENAME
350
E
  0
DICTIONARY
  5
D
102
{ACAD_REACTORS
330
C
102
}
330
C
100
AcDbDictionary
281
     1
  0
DICTIONARY
  5
1A
102
{ACAD_REACTORS
330
C
102
}
330
C
100
AcDbDictionary
281
     1
  3
Layout1
350
1E
  3
Layout2
350
26
  3
Model
350
22
  0
DICTIONARY
  5
17
102
{ACAD_REACTORS
330
C
102
}
330
C
100
AcDbDictionary
281
     1
  3
Standard
350
18
  0
DICTIONARY
  5
19
102
{ACAD_REACTORS
330
C
102
}
330
C
100
AcDbDictionary
281
     1
  0
ACDBDICTIONARYWDFLT
  5
E
102
{ACAD_REACTORS
330
C
102
}
330
C
100
AcDbDictionary
281
     1
  3
Normal
350
F
100
AcDbDictionaryWithDefault
340
F
  0
LAYOUT
  5
1E
102
{ACAD_REACTORS
330
1A
102
}
330
1A
100
AcDbPlotSettings
  1

  2
none_device
  4

  6

 40
0.0
 41
0.0
 42
0.0
 43
0.0
 44
0.0
 45
0.0
 46
0.0
 47
0.0
 48
0.0
 49
0.0
140
0.0
141
0.0
142
1.0
143
1.0
 70
   688
 72
     0
 73
     0
 74
     5
  7

 75
    16
147
1.0
148
0.0
149
0.0
100
AcDbLayout
  1
Layout1
 70
     1
 71
     1
 10
0.0
 20
0.0
 11
420.0
 21
297.0
 12
0.0
 22
0.0
 32
0.0
 14
1.0000000000E+20
 24
1.0000000000E+20
 34
1.0000000000E+20
 15
-1.0000000000E+20
 25
-1.0000000000E+20
 35
-1.0000000000E+20
146
0.0
 13
0.0
 23
0.0
 33
0.0
 16
1.0
 26
0.0
 36
0.0
 17
0.0
 27
1.0
 37
0.0
 76
     0
330
1B
  0
LAYOUT
  5
26
102
{ACAD_REACTORS
330
1A
102
}
330
1A
100
AcDbPlotSettings
  1

  2
none_device
  4

  6

 40
0.0
 41
0.0
 42
0.0
 43
0.0
 44
0.0
 45
0.0
 46
0.0
 47
0.0
 48
0.0
 49
0.0
140
0.0
141
0.0
142
1.0
143
1.0
 70
   688
 72
     0
 73
     0
 74
     5
  7

 75
    16
147
1.0
148
0.0
149
0.0
100
AcDbLayout
  1
Layout2
 70
     1
 71
     2
 10
0.0
 20
0.0
 11
0.0
 21
0.0
 12
0.0
 22
0.0
 32
0.0
 14
0.0
 24
0.0
 34
0.0
 15
0.0
 25
0.0
 35
0.0
146
0.0
 13
0.0
 23
0.0
 33
0.0
 16
1.0
 26
0.0
 36
0.0
 17
0.0
 27
1.0
 37
0.0
 76
     0
330
23
  0
LAYOUT
  5
22
102
{ACAD_REACTORS
330
1A
102
}
330
1A
100
AcDbPlotSettings
  1

  2
none_device
  4

  6

 40
0.0
 41
0.0
 42
0.0
 43
0.0
 44
0.0
 45
0.0
 46
0.0
 47
0.0
 48
0.0
 49
0.0
140
0.0
141
0.0
142
1.0
143
1.0
 70
  1712
 72
     0
 73
     0
 74
     0
  7

 75
     0
147
1.0
148
0.0
149
0.0
100
AcDbLayout
  1
Model
 70
     1
 71
     0
 10
0.0
 20
0.0
 11
210.0
 21
297.0
 12
0.0
 22
0.0
 32
0.0
 14
0.0
 24
0.0
 34
0.0
 15
210.0
 25
297.0
 35
0.0
146
0.0
 13
0.0
 23
0.0
 33
0.0
 16
1.0
 26
0.0
 36
0.0
 17
0.0
 27
1.0
 37
0.0
 76
     0
330
1F
331
29
  0
MLINESTYLE
  5
18
102
{ACAD_REACTORS
330
17
102
}
330
17
100
AcDbMlineStyle
  2
Standard
 70
     0
  3

 62
   256
 51
90.0
 52
90.0
 71
     2
 49
0.5
 62
   256
  6
BYLAYER
 49
-0.5
 62
   256
  6
BYLAYER
  0
ACDBPLACEHOLDER
  5
F
102
{ACAD_REACTORS
330
E
102
}
330
E
  0
ENDSEC
  0
EOF
