  0
SECTION
  2
HEADER
  9
$ACADVER
  1
AC1015
  9
$ACADMAINTVER
 70
     6
  9
$DWGCODEPAGE
  3
DOS932
  9
$INSBASE
 10
0.0
 20
0.0
 30
0.0
  9
$EXTMIN
 10
0.0
 20
0.0
 30
0.0
  9
$EXTMAX
 10
210.0
 20
297.0
 30
0.0
  9
$LIMMIN
 10
0.0
 20
0.0
  9
$LIMMAX
 10
210.0
 20
297.0
  9
$ORTHOMODE
 70
     0
  9
$REGENMODE
 70
     1
  9
$FILLMODE
 70
     1
  9
$QTEXTMODE
 70
     0
  9
$MIRRTEXT
 70
     1
  9
$LTSCALE
 40
1.0
  9
$ATTMODE
 70
     1
  9
$TEXTSIZE
 40
3.5
  9
$TRACEWID
 40
1.0
  9
$TEXTSTYLE
  7
STANDARD
  9
$CLAYER
  8
0
  9
$CELTYPE
  6
ByLayer
  9
$CECOLOR
 62
   256
  9
$CELTSCALE
 40
1.0
  9
$DISPSILH
 70
     0
  9
$DIMSCALE
 40
1.0
  9
$DIMASZ
 40
3.0
  9
$DIMEXO
 40
1.0
  9
$DIMDLI
 40
3.75
  9
$DIMRND
 40
0.0
  9
$DIMDLE
 40
0.0
  9
$DIMEXE
 40
1.0
  9
$DIMTP
 40
0.0
  9
$DIMTM
 40
0.0
  9
$DIMTXT
 40
3.5
  9
$DIMCEN
 40
2.5
  9
$DIMTSZ
 40
0.0
  9
$DIMTOL
 70
     0
  9
$DIMLIM
 70
     0
  9
$DIMTIH
 70
     1
  9
$DIMTOH
 70
     1
  9
$DIMSE1
 70
     0
  9
$DIMSE2
 70
     0
  9
$DIMTAD
 70
     1
  9
$DIMZIN
 70
     0
  9
$DIMBLK
  1

  9
$DIMASO
 70
     1
  9
$DIMSHO
 70
     1
  9
$DIMPOST
  1

  9
$DIMAPOST
  1

  9
$DIMALT
 70
     0
  9
$DIMALTD
 70
     3
  9
$DIMALTF
 40
0.0393700787
  9
$DIMLFAC
 40
1.0
  9
$DIMTOFL
 70
     1
  9
$DIMTVP
 40
0.0
  9
$DIMTIX
 70
     0
  9
$DIMSOXD
 70
     0
  9
$DIMSAH
 70
     0
  9
$DIMBLK1
  1

  9
$DIMBLK2
  1

  9
$DIMSTYLE
  2
ISO-25
  9
$DIMCLRD
 70
     0
  9
$DIMCLRE
 70
     0
  9
$DIMCLRT
 70
     0
  9
$DIMTFAC
 40
1.0
  9
$DIMGAP
 40
1.524
  9
$DIMJUST
 70
     0
  9
$DIMSD1
 70
     0
  9
$DIMSD2
 70
     0
  9
$DIMTOLJ
 70
     0
  9
$DIMTZIN
 70
     0
  9
$DIMALTZ
 70
     0
  9
$DIMALTTZ
 70
     0
  9
$DIMUPT
 70
     0
  9
$DIMDEC
 70
     1
  9
$DIMTDEC
 70
     3
  9
$DIMALTU
 70
     2
  9
$DIMALTTD
 70
     3
  9
$DIMTXSTY
  7
STANDARD
  9
$DIMAUNIT
 70
     0
  9
$DIMADEC
 70
     2
  9
$DIMALTRND
 40
0.0
  9
$DIMAZIN
 70
     0
  9
$DIMDSEP
 70
    44
  9
$DIMATFIT
 70
     3
  9
$DIMFRAC
 70
     0
  9
$DIMLDRBLK
  1

  9
$DIMLUNIT
 70
     2
  9
$DIMLWD
 70
    -2
  9
$DIMLWE
 70
    -2
  9
$DIMTMOVE
 70
     0
  9
$LUNITS
 70
     2
  9
$LUPREC
 70
     1
  9
$SKETCHINC
 40
1.0
  9
$FILLETRAD
 40
10.0
  9
$AUNITS
 70
     0
  9
$AUPREC
 70
     2
  9
$MENU
  1
.
  9
$ELEVATION
 40
0.0
  9
$PELEVATION
 40
0.0
  9
$THICKNESS
 40
0.0
  9
$LIMCHECK
 70
     0
  9
$CHAMFERA
 40
0.0
  9
$CHAMFERB
 40
0.0
  9
$CHAMFERC
 40
0.0
  9
$CHAMFERD
 40
0.0
  9
$SKPOLY
 70
     0
  9
$TDCREATE
 40
2459282.678722871
  9
$TDUCREATE
 40
2459282.303722871
  9
$TDUPDATE
 40
2459282.678725405
  9
$TDUUPDATE
 40
2459282.303725405
  9
$TDINDWG
 40
0.0000000116
  9
$TDUSRTIMER
 40
0.0000000116
  9
$USRTIMER
 70
     1
  9
$ANGBASE
 50
0.0
  9
$ANGDIR
 70
     0
  9
$PDMODE
 70
     0
  9
$PDSIZE
 40
-1.0
  9
$PLINEWID
 40
0.0
  9
$SPLFRAME
 70
     0
  9
$SPLINETYPE
 70
     6
  9
$SPLINESEGS
 70
     8
  9
$HANDSEED
  5
3E5
  9
$SURFTAB1
 70
     6
  9
$SURFTAB2
 70
     6
  9
$SURFTYPE
 70
     6
  9
$SURFU
 70
     6
  9
$SURFV
 70
     6
  9
$UCSBASE
  2

  9
$UCSNAME
  2

  9
$UCSORG
 10
0.0
 20
0.0
 30
0.0
  9
$UCSXDIR
 10
1.0
 20
0.0
 30
0.0
  9
$UCSYDIR
 10
0.0
 20
1.0
 30
0.0
  9
$UCSORTHOREF
  2

  9
$UCSORTHOVIEW
 70
     0
  9
$UCSORGTOP
 10
0.0
 20
0.0
 30
0.0
  9
$UCSORGBOTTOM
 10
0.0
 20
0.0
 30
0.0
  9
$UCSORGLEFT
 10
0.0
 20
0.0
 30
0.0
  9
$UCSORGRIGHT
 10
0.0
 20
0.0
 30
0.0
  9
$UCSORGFRONT
 10
0.0
 20
0.0
 30
0.0
  9
$UCSORGBACK
 10
0.0
 20
0.0
 30
0.0
  9
$PUCSBASE
  2

  9
$PUCSNAME
  2

  9
$PUCSORG
 10
0.0
 20
0.0
 30
0.0
  9
$PUCSXDIR
 10
1.0
 20
0.0
 30
0.0
  9
$PUCSYDIR
 10
0.0
 20
1.0
 30
0.0
  9
$PUCSORTHOREF
  2

  9
$PUCSORTHOVIEW
 70
     0
  9
$PUCSORGTOP
 10
0.0
 20
0.0
 30
0.0
  9
$PUCSORGBOTTOM
 10
0.0
 20
0.0
 30
0.0
  9
$PUCSORGLEFT
 10
0.0
 20
0.0
 30
0.0
  9
$PUCSORGRIGHT
 10
0.0
 20
0.0
 30
0.0
  9
$PUCSORGFRONT
 10
0.0
 20
0.0
 30
0.0
  9
$PUCSORGBACK
 10
0.0
 20
0.0
 30
0.0
  9
$USERI1
 70
     0
  9
$USERI2
 70
     0
  9
$USERI3
 70
     0
  9
$USERI4
 70
     0
  9
$USERI5
 70
     0
  9
$USERR1
 40
0.0
  9
$USERR2
 40
0.0
  9
$USERR3
 40
0.0
  9
$USERR4
 40
0.0
  9
$USERR5
 40
0.0
  9
$WORLDVIEW
 70
     1
  9
$SHADEDGE
 70
     3
  9
$SHADEDIF
 70
    70
  9
$TILEMODE
 70
     1
  9
$MAXACTVP
 70
    64
  9
$PINSBASE
 10
0.0
 20
0.0
 30
0.0
  9
$PLIMCHECK
 70
     0
  9
$PEXTMIN
 10
1.0000000000E+20
 20
1.0000000000E+20
 30
1.0000000000E+20
  9
$PEXTMAX
 10
-1.0000000000E+20
 20
-1.0000000000E+20
 30
-1.0000000000E+20
  9
$PLIMMIN
 10
0.0
 20
0.0
  9
$PLIMMAX
 10
420.0
 20
297.0
  9
$UNITMODE
 70
     0
  9
$VISRETAIN
 70
     1
  9
$PLINEGEN
 70
     0
  9
$PSLTSCALE
 70
     1
  9
$TREEDEPTH
 70
  3020
  9
$CMLSTYLE
  2
Standard
  9
$CMLJUST
 70
     0
  9
$CMLSCALE
 40
20.0
  9
$PROXYGRAPHICS
 70
     1
  9
$MEASUREMENT
 70
     1
  9
$CELWEIGHT
370
    -1
  9
$ENDCAPS
280
     0
  9
$JOINSTYLE
280
     0
  9
$LWDISPLAY
290
     1
  9
$INSUNITS
 70
     4
  9
$HYPERLINKBASE
  1

  9
$STYLESHEET
  1

  9
$XEDIT
290
     1
  9
$CEPSNTYPE
380
     0
  9
$PSTYLEMODE
290
     1
  9
$FINGERPRINTGUID
  2
{1F2FC40F-1A76-49E0-944A-418250C2A3D2}
  9
$VERSIONGUID
  2
{FAEB1C32-E019-11D5-929B-00C0DF256EC4}
  9
$EXTNAMES
290
     1
  9
$PSVPSCALE
 40
0.0
  9
$OLESTARTUP
290
     0
  0
ENDSEC
  0
SECTION
  2
CLASSES
  0
CLASS
  1
ACDBDICTIONARYWDFLT
  2
AcDbDictionaryWithDefault
  3
ObjectDBX Classes
 90
        0
280
     0
281
     0
  0
CLASS
  1
VISUALSTYLE
  2
AcDbVisualStyle
  3
ObjectDBX Classes
 90
     4095
280
     0
281
     0
  0
CLASS
  1
MATERIAL
  2
AcDbMaterial
  3
ObjectDBX Classes
 90
     1153
280
     0
281
     0
  0
CLASS
  1
SCALE
  2
AcDbScale
  3
ObjectDBX Classes
 90
     1153
280
     0
281
     0
  0
CLASS
  1
TABLESTYLE
  2
AcDbTableStyle
  3
ObjectDBX Classes
 90
     4095
280
     0
281
     0
  0
CLASS
  1
MLEADERSTYLE
  2
AcDbMLeaderStyle
  3
ACDB_MLEADERSTYLE_CLASS
 90
     4095
280
     0
281
     0
  0
CLASS
  1
SUN
  2
AcDbSun
  3
SCENEOE
 90
     1153
280
     0
281
     0
  0
CLASS
  1
ACDBPLACEHOLDER
  2
AcDbPlaceHolder
  3
ObjectDBX Classes
 90
        0
280
     0
281
     0
  0
CLASS
  1
LAYOUT
  2
AcDbLayout
  3
ObjectDBX Classes
 90
        0
280
     0
281
     0
  0
ENDSEC
  0
SECTION
  2
TABLES
  0
TABLE
  2
VPORT
  5
8
330
0
100
AcDbSymbolTable
 70
     1
  0
VPORT
  5
29
330
8
100
AcDbSymbolTableRecord
100
AcDbViewportTableRecord
  2
*Active
 70
     0
 10
0.0
 20
0.0
 11
1.0
 21
1.0
 12
105.0
 22
148.5
 13
0.0
 23
0.0
 14
10.0
 24
10.0
 15
10.0
 25
10.0
 16
0.0
 26
0.0
 36
1.0
 17
0.0
 27
0.0
 37
0.0
 40
297.0
 41
0.7070707071
 42
50.0
 43
0.0
 44
0.0
 50
0.0
 51
0.0
 71
     0
 72
  2000
 73
     1
 74
     3
 75
     0
 76
     0
 77
     0
 78
     0
281
     0
 65
     1
110
0.0
120
0.0
130
0.0
111
1.0
121
0.0
131
0.0
112
0.0
122
1.0
132
0.0
 79
     0
146
0.0
  0
ENDTAB
  0
TABLE
  2
LTYPE
  5
5
330
0
100
AcDbSymbolTable
 70
     8
  0
LTYPE
  5
14
330
5
100
AcDbSymbolTableRecord
100
AcDbLinetypeTableRecord
  2
ByBlock
 70
     0
  3

 72
    65
 73
     0
 40
0.0
  0
LTYPE
  5
15
330
5
100
AcDbSymbolTableRecord
100
AcDbLinetypeTableRecord
  2
ByLayer
 70
     0
  3

 72
    65
 73
     0
 40
0.0
  0
LTYPE
  5
16
330
5
100
AcDbSymbolTableRecord
100
AcDbLinetypeTableRecord
  2
Continuous
 70
     0
  3
Solid line
 72
    65
 73
     0
 40
0.0
  0
LTYPE
  5
6E
330
5
100
AcDbSymbolTableRecord
100
AcDbLinetypeTableRecord
  2
SLD-実線
 70
     0
  3
SolidWorks Line Style
 72
    65
 73
     0
 40
0.0
  0
LTYPE
  5
6F
330
5
100
AcDbSymbolTableRecord
100
AcDbLinetypeTableRecord
  2
SLD-破線
 70
     0
  3
SolidWorks Line Style
 72
    65
 73
     2
 40
1.905
 49
1.27
 74
     0
 49
-0.635
 74
     0
  0
LTYPE
  5
70
330
5
100
AcDbSymbolTableRecord
100
AcDbLinetypeTableRecord
  2
SLD-2点鎖線
 70
     0
  3
SolidWorks Line Style
 72
    65
 73
     6
 40
12.7
 49
6.35
 74
     0
 49
-1.27
 74
     0
 49
1.27
 74
     0
 49
-1.27
 74
     0
 49
1.27
 74
     0
 49
-1.27
 74
     0
  0
LTYPE
  5
71
330
5
100
AcDbSymbolTableRecord
100
AcDbLinetypeTableRecord
  2
SLD-鎖線
 70
     0
  3
SolidWorks Line Style
 72
    65
 73
     4
 40
10.16
 49
6.35
 74
     0
 49
-1.27
 74
     0
 49
1.27
 74
     0
 49
-1.27
 74
     0
  0
LTYPE
  5
72
330
5
100
AcDbSymbolTableRecord
100
AcDbLinetypeTableRecord
  2
SLD-1点鎖線(中心線)
 70
     0
  3
SolidWorks Line Style
 72
    65
 73
     4
 40
34.29
 49
30.48
 74
     0
 49
-1.27
 74
     0
 49
1.27
 74
     0
 49
-1.27
 74
     0
  0
LTYPE
  5
73
330
5
100
AcDbSymbolTableRecord
100
AcDbLinetypeTableRecord
  2
SLD-点線
 70
     0
  3
SolidWorks Line Style
 72
    65
 73
     2
 40
0.635
 49
0.0
 74
     0
 49
-0.635
 74
     0
  0
LTYPE
  5
74
330
5
100
AcDbSymbolTableRecord
100
AcDbLinetypeTableRecord
  2
SLD-細-太鎖線(切断面)
 70
     0
  3
SolidWorks Line Style
 72
    65
 73
     4
 40
10.16
 49
6.35
 74
     0
 49
-1.27
 74
     0
 49
1.27
 74
     0
 49
-1.27
 74
     0
  0
ENDTAB
  0
TABLE
  2
LAYER
  5
2
330
0
100
AcDbSymbolTable
 70
     1
  0
LAYER
  5
10
330
2
100
AcDbSymbolTableRecord
100
AcDbLayerTableRecord
  2
0
 70
     0
 62
     7
  6
Continuous
370
    -3
390
F
  0
ENDTAB
  0
TABLE
  2
STYLE
  5
3
330
0
100
AcDbSymbolTable
 70
     3
  0
STYLE
  5
11
330
3
100
AcDbSymbolTableRecord
100
AcDbTextStyleTableRecord
  2
STANDARD
 70
     0
 40
0.0
 41
1.0
 50
0.0
 71
     0
 42
3.5
  3
MSGOTHIC.TTC
  4

1001
ACAD
1000
ＭＳ ゴシック
1071
    32817
  0
STYLE
  5
7D
330
3
100
AcDbSymbolTableRecord
100
AcDbTextStyleTableRecord
  2
SLDTEXTSTYLE0
 70
     0
 40
0.0
 41
1.0
 50
0.0
 71
     0
 42
3.5
  3
MSGOTHIC.TTC
  4
bigfont
1001
ACAD
1000
ＭＳ ゴシック
1071
      305
  0
STYLE
  5
80
330
3
100
AcDbSymbolTableRecord
100
AcDbTextStyleTableRecord
  2
SLDTEXTSTYLE1
 70
     0
 40
0.0
 41
1.0
 50
0.0
 71
     0
 42
3.5
  3
MSGOTHIC.TTC
  4

1001
ACAD
1000
ＭＳ ゴシック
1071
      305
  0
ENDTAB
  0
TABLE
  2
VIEW
  5
6
330
0
100
AcDbSymbolTable
 70
     0
  0
ENDTAB
  0
TABLE
  2
UCS
  5
7
330
0
100
AcDbSymbolTable
 70
     0
  0
ENDTAB
  0
TABLE
  2
APPID
  5
9
330
0
100
AcDbSymbolTable
 70
     1
  0
APPID
  5
12
330
9
100
AcDbSymbolTableRecord
100
AcDbRegAppTableRecord
  2
ACAD
 70
     0
  0
ENDTAB
  0
TABLE
  2
DIMSTYLE
  5
A
330
0
100
AcDbSymbolTable
 70
     4
100
AcDbDimStyleTable
  0
DIMSTYLE
105
27
330
A
100
AcDbSymbolTableRecord
100
AcDbDimStyleTableRecord
  2
ISO-25
 70
     0
 41
2.5
 42
0.625
 43
3.75
 44
1.25
 73
     0
 74
     0
 77
     1
 78
     8
140
2.5
141
2.5
143
0.0393700787
147
0.625
171
     3
172
     1
178
     0
271
     2
272
     2
274
     3
278
    44
283
     0
284
     8
340
11
  0
DIMSTYLE
105
1DB
102
{ACAD_REACTORS
330
1DA
330
1E7
330
1F1
330
214
330
3D1
330
3DB
102
}
330
A
100
AcDbSymbolTableRecord
100
AcDbDimStyleTableRecord
  2
SLDDIMSTYLE0
 70
     0
 41
3.0
 44
0.0
 45
0.000000001
 73
     0
 74
     0
 77
     3
 78
    12
 79
     3
140
3.5
147
0.875
173
     1
178
     0
271
     1
272
     3
276
     2
284
    12
340
80
  0
DIMSTYLE
105
1FC
102
{ACAD_REACTORS
330
1FB
330
208
102
}
330
A
100
AcDbSymbolTableRecord
100
AcDbDimStyleTableRecord
  2
SLDDIMSTYLE1
 70
     0
 41
3.0
 44
0.0
 45
0.000000001
 73
     0
 74
     0
 77
     3
 78
    12
 79
     3
140
3.5
147
0.875
172
     1
173
     1
178
     0
271
     1
272
     3
276
     2
284
    12
289
     0
340
80
  0
DIMSTYLE
105
225
330
A
100
AcDbSymbolTableRecord
100
AcDbDimStyleTableRecord
  2
SLDDIMSTYLE2
 70
     0
 41
3.0
 44
0.0
 45
0.000000001
146
3.0
147
0.0
173
     1
178
     0
271
     0
272
     0
276
     2
340
11
  0
ENDTAB
  0
TABLE
  2
BLOCK_RECORD
  5
1
330
0
100
AcDbSymbolTable
 70
    12
  0
BLOCK_RECORD
  5
1F
330
1
100
AcDbSymbolTableRecord
100
AcDbBlockTableRecord
  2
*Model_Space
340
22
  0
BLOCK_RECORD
  5
1B
330
1
100
AcDbSymbolTableRecord
100
AcDbBlockTableRecord
  2
*Paper_Space
340
1E
  0
BLOCK_RECORD
  5
23
330
1
100
AcDbSymbolTableRecord
100
AcDbBlockTableRecord
  2
*Paper_Space0
340
26
  0
BLOCK_RECORD
  5
1DC
330
1
100
AcDbSymbolTableRecord
100
AcDbBlockTableRecord
  2
_D
340
0
  0
BLOCK_RECORD
  5
1E8
330
1
100
AcDbSymbolTableRecord
100
AcDbBlockTableRecord
  2
_D_1
340
0
  0
BLOCK_RECORD
  5
1F2
330
1
100
AcDbSymbolTableRecord
100
AcDbBlockTableRecord
  2
_D_2
340
0
  0
BLOCK_RECORD
  5
1FD
330
1
100
AcDbSymbolTableRecord
100
AcDbBlockTableRecord
  2
_D_3
340
0
  0
BLOCK_RECORD
  5
209
330
1
100
AcDbSymbolTableRecord
100
AcDbBlockTableRecord
  2
_D_4
340
0
  0
BLOCK_RECORD
  5
215
330
1
100
AcDbSymbolTableRecord
100
AcDbBlockTableRecord
  2
_D_5
340
0
  0
BLOCK_RECORD
  5
21E
330
1
100
AcDbSymbolTableRecord
100
AcDbBlockTableRecord
  2
SW_NOTE_0
340
0
102
{BLKREFS
331
224
102
}
  0
BLOCK_RECORD
  5
227
330
1
100
AcDbSymbolTableRecord
100
AcDbBlockTableRecord
  2
SW_CENTERMARKSYMBOL_0
340
0
102
{BLKREFS
331
232
102
}
  0
BLOCK_RECORD
  5
233
330
1
100
AcDbSymbolTableRecord
100
AcDbBlockTableRecord
  2
SW_CENTERMARKSYMBOL_1
340
0
102
{BLKREFS
331
23E
102
}
  0
BLOCK_RECORD
  5
3D2
330
1
100
AcDbSymbolTableRecord
100
AcDbBlockTableRecord
  2
_D_6
340
0
  0
BLOCK_RECORD
  5
3DC
330
1
100
AcDbSymbolTableRecord
100
AcDbBlockTableRecord
  2
_D_7
340
0
  0
ENDTAB
  0
ENDSEC
  0
SECTION
  2
BLOCKS
  0
BLOCK
  5
20
330
1F
100
AcDbEntity
  8
0
100
AcDbBlockBegin
  2
*Model_Space
 70
     0
 10
0.0
 20
0.0
 30
0.0
  3
*Model_Space
  1

  0
ENDBLK
  5
21
330
1F
100
AcDbEntity
  8
0
100
AcDbBlockEnd
  0
BLOCK
  5
1C
330
1B
100
AcDbEntity
 67
     1
  8
0
100
AcDbBlockBegin
  2
*Paper_Space
 70
     0
 10
0.0
 20
0.0
 30
0.0
  3
*Paper_Space
  1

  0
ENDBLK
  5
1D
330
1B
100
AcDbEntity
 67
     1
  8
0
100
AcDbBlockEnd
  0
BLOCK
  5
24
330
23
100
AcDbEntity
  8
0
100
AcDbBlockBegin
  2
*Paper_Space0
 70
     0
 10
0.0
 20
0.0
 30
0.0
  3
*Paper_Space0
  1

  0
ENDBLK
  5
25
330
23
100
AcDbEntity
  8
0
100
AcDbBlockEnd
  0
BLOCK
  5
1DD
330
1DC
100
AcDbEntity
  8
0
100
AcDbBlockBegin
  2
_D
 70
     0
 10
0.0
 20
0.0
 30
0.0
  3
_D
  1

  0
ARC
  5
1DF
330
1DC
100
AcDbEntity
  8
0
  6
SLD-実線
 62
     7
370
    18
100
AcDbCircle
 10
78.9956691661
 20
213.0882459016
 30
0.0
 40
4.554435549315966
100
AcDbArc
 50
153.4349488229
 51
206.5650511771
  0
ARC
  5
1E0
330
1DC
100
AcDbEntity
  8
0
  6
SLD-実線
 62
     7
370
    18
100
AcDbCircle
 10
78.9956691661
 20
213.0882459016
 30
0.0
 40
4.554435549315966
100
AcDbArc
 50
333.4349488229
 51
26.5650511771
  0
SOLID
  5
1E1
330
1DC
100
AcDbEntity
  8
0
  6
SLD-実線
 62
     7
370
    18
100
AcDbTrace
 10
102.9538137391
 20
211.0514404041
 30
0.0
 11
99.9538137391
 21
211.8014404041
 31
0.0
 12
99.9538137391
 22
210.3014404041
 32
0.0
 13
99.9538137391
 23
210.3014404041
 33
0.0
  0
SOLID
  5
1E2
330
1DC
100
AcDbEntity
  8
0
  6
SLD-実線
 62
     7
370
    18
100
AcDbTrace
 10
55.0375247094
 20
211.0514404041
 30
0.0
 11
58.0375247094
 21
210.3014404041
 31
0.0
 12
58.0375247094
 22
211.8014404041
 32
0.0
 13
58.0375247094
 23
211.8014404041
 33
0.0
  0
LINE
  5
1E3
330
1DC
100
AcDbEntity
  8
0
  6
SLD-実線
 62
     7
370
    18
100
AcDbLine
 10
102.9538137391
 20
167.4816568258
 30
0.0
 11
102.9538137391
 21
212.0514404041
 31
0.0
  0
LINE
  5
1E4
330
1DC
100
AcDbEntity
  8
0
  6
SLD-実線
 62
     7
370
    18
100
AcDbLine
 10
55.0375247094
 20
185.0454845832
 30
0.0
 11
55.0375247094
 21
212.0514404041
 31
0.0
  0
LINE
  5
1E5
330
1DC
100
AcDbEntity
  8
0
  6
SLD-実線
 62
     7
370
    18
100
AcDbLine
 10
102.9538137391
 20
211.0514404041
 30
0.0
 11
55.0375247094
 21
211.0514404041
 31
0.0
  0
MTEXT
  5
1E6
330
1DC
100
AcDbEntity
  8
0
  6
SLD-実線
 62
     7
370
    18
100
AcDbMText
 10
74.9220581711
 20
215.124167444
 30
0.0
 40
3.5
 41
0.0
 71
     1
 72
     1
  1
47.9
  7
SLDTEXTSTYLE1
 73
     1
 44
1.0
  0
ENDBLK
  5
1DE
330
1DC
100
AcDbEntity
  8
0
100
AcDbBlockEnd
  0
BLOCK
  5
1E9
330
1E8
100
AcDbEntity
  8
0
100
AcDbBlockBegin
  2
_D_1
 70
     0
 10
0.0
 20
0.0
 30
0.0
  3
_D_1
  1

  0
SOLID
  5
1EB
330
1E8
100
AcDbEntity
  8
0
  6
SLD-実線
 62
     7
370
    18
100
AcDbTrace
 10
55.0375247094
 20
199.0514404041
 30
0.0
 11
58.0375247094
 21
198.3014404041
 31
0.0
 12
58.0375247094
 22
199.8014404041
 32
0.0
 13
58.0375247094
 23
199.8014404041
 33
0.0
  0
SOLID
  5
1EC
330
1E8
100
AcDbEntity
  8
0
  6
SLD-実線
 62
     7
370
    18
100
AcDbTrace
 10
100.0375247094
 20
199.0514404041
 30
0.0
 11
97.0375247094
 21
199.8014404041
 31
0.0
 12
97.0375247094
 22
198.3014404041
 32
0.0
 13
97.0375247094
 23
198.3014404041
 33
0.0
  0
LINE
  5
1ED
330
1E8
100
AcDbEntity
  8
0
  6
SLD-実線
 62
     7
370
    18
100
AcDbLine
 10
55.0375247094
 20
185.0454845832
 30
0.0
 11
55.0375247094
 21
200.0514404041
 31
0.0
  0
LINE
  5
1EE
330
1E8
100
AcDbEntity
  8
0
  6
SLD-実線
 62
     7
370
    18
100
AcDbLine
 10
100.0375247094
 20
186.0453322783
 30
0.0
 11
100.0375247094
 21
200.0514404041
 31
0.0
  0
LINE
  5
1EF
330
1E8
100
AcDbEntity
  8
0
  6
SLD-実線
 62
     7
370
    18
100
AcDbLine
 10
55.0375247094
 20
199.0514404041
 30
0.0
 11
100.0375247094
 21
199.0514404041
 31
0.0
  0
MTEXT
  5
1F0
330
1E8
100
AcDbEntity
  8
0
  6
SLD-実線
 62
     7
370
    18
100
AcDbMText
 10
75.5007192119
 20
203.124167444
 30
0.0
 40
3.5
 41
0.0
 71
     1
 72
     1
  1
45
  7
SLDTEXTSTYLE1
 73
     1
 44
1.0
  0
ENDBLK
  5
1EA
330
1E8
100
AcDbEntity
  8
0
100
AcDbBlockEnd
  0
BLOCK
  5
1F3
330
1F2
100
AcDbEntity
  8
0
100
AcDbBlockBegin
  2
_D_2
 70
     0
 10
0.0
 20
0.0
 30
0.0
  3
_D_2
  1

  0
SOLID
  5
1F5
330
1F2
100
AcDbEntity
  8
0
  6
SLD-実線
 62
     7
370
    18
100
AcDbTrace
 10
39.0306783815
 20
189.0447230589
 30
0.0
 11
38.2806783815
 21
186.0447230589
 31
0.0
 12
39.7806783815
 22
186.0447230589
 32
0.0
 13
39.7806783815
 23
186.0447230589
 33
0.0
  0
SOLID
  5
1F6
330
1F2
100
AcDbEntity
  8
0
  6
SLD-実線
 62
     7
370
    18
100
AcDbTrace
 10
39.0306783815
 20
134.5447230589
 30
0.0
 11
39.7806783815
 21
137.5447230589
 31
0.0
 12
38.2806783815
 22
137.5447230589
 32
0.0
 13
38.2806783815
 23
137.5447230589
 33
0.0
  0
LINE
  5
1F7
330
1F2
100
AcDbEntity
  8
0
  6
SLD-実線
 62
     7
370
    18
100
AcDbLine
 10
59.0367631852
 20
189.0447230589
 30
0.0
 11
38.0306783815
 21
189.0447230589
 31
0.0
  0
LINE
  5
1F8
330
1F2
100
AcDbEntity
  8
0
  6
SLD-実線
 62
     7
370
    18
100
AcDbLine
 10
65.9481137808
 20
134.5447230589
 30
0.0
 11
38.0306783815
 21
134.5447230589
 31
0.0
  0
LINE
  5
1F9
330
1F2
100
AcDbEntity
  8
0
  6
SLD-実線
 62
     7
370
    18
100
AcDbLine
 10
39.0306783815
 20
189.0447230589
 30
0.0
 11
39.0306783815
 21
134.5447230589
 31
0.0
  0
MTEXT
  5
1FA
330
1F2
100
AcDbEntity
  8
0
  6
SLD-実線
 62
     7
370
    18
100
AcDbMText
 10
34.9579513416
 20
157.721112064
 30
0.0
 40
3.5
 41
0.0
 71
     1
 72
     1
  1
54.5
  7
SLDTEXTSTYLE1
 11
-6.156016597943509E-15
 21
1.0
 31
0.0
 73
     1
 44
1.0
  0
ENDBLK
  5
1F4
330
1F2
100
AcDbEntity
  8
0
100
AcDbBlockEnd
  0
BLOCK
  5
1FE
330
1FD
100
AcDbEntity
  8
0
100
AcDbBlockBegin
  2
_D_3
 70
     0
 10
0.0
 20
0.0
 30
0.0
  3
_D_3
  1

  0
SOLID
  5
200
330
1FD
100
AcDbEntity
  8
0
  6
SLD-実線
 62
     7
370
    18
100
AcDbTrace
 10
48.3529273297
 20
138.5447230589
 30
0.0
 11
49.1029273297
 21
141.5447230589
 31
0.0
 12
47.6029273297
 22
141.5447230589
 32
0.0
 13
47.6029273297
 23
141.5447230589
 33
0.0
  0
SOLID
  5
201
330
1FD
100
AcDbEntity
  8
0
  6
SLD-実線
 62
     7
370
    18
100
AcDbTrace
 10
48.3529273297
 20
134.5447230589
 30
0.0
 11
47.6029273297
 21
131.5447230589
 31
0.0
 12
49.1029273297
 22
131.5447230589
 32
0.0
 13
49.1029273297
 23
131.5447230589
 33
0.0
  0
LINE
  5
202
330
1FD
100
AcDbEntity
  8
0
  6
SLD-実線
 62
     7
370
    18
100
AcDbLine
 10
63.7875247094
 20
138.5447230589
 30
0.0
 11
47.3529273297
 21
138.5447230589
 31
0.0
  0
LINE
  5
203
330
1FD
100
AcDbEntity
  8
0
  6
SLD-実線
 62
     7
370
    18
100
AcDbLine
 10
65.9481137808
 20
134.5447230589
 30
0.0
 11
47.3529273297
 21
134.5447230589
 31
0.0
  0
LINE
  5
204
330
1FD
100
AcDbEntity
  8
0
  6
SLD-実線
 62
     7
370
    18
100
AcDbLine
 10
48.3529273297
 20
138.5447230589
 30
0.0
 11
48.3529273297
 21
143.5447230589
 31
0.0
  0
LINE
  5
205
330
1FD
100
AcDbEntity
  8
0
  6
SLD-実線
 62
     7
370
    18
100
AcDbLine
 10
48.3529273297
 20
138.5447230589
 30
0.0
 11
48.3529273297
 21
134.5447230589
 31
0.0
  0
LINE
  5
206
330
1FD
100
AcDbEntity
  8
0
  6
SLD-実線
 62
     7
370
    18
100
AcDbLine
 10
48.3529273297
 20
134.5447230589
 30
0.0
 11
48.3529273297
 21
129.5447230589
 31
0.0
  0
MTEXT
  5
207
330
1FD
100
AcDbEntity
  8
0
  6
SLD-実線
 62
     7
370
    18
100
AcDbMText
 10
44.2802002898
 20
135.5263203102
 30
0.0
 40
3.5
 41
0.0
 71
     1
 72
     1
  1
4
  7
SLDTEXTSTYLE1
 11
-7.044195017643634E-15
 21
1.0
 31
0.0
 73
     1
 44
1.0
  0
ENDBLK
  5
1FF
330
1FD
100
AcDbEntity
  8
0
100
AcDbBlockEnd
  0
BLOCK
  5
20A
330
209
100
AcDbEntity
  8
0
100
AcDbBlockBegin
  2
_D_4
 70
     0
 10
0.0
 20
0.0
 30
0.0
  3
_D_4
  1

  0
SOLID
  5
20C
330
209
100
AcDbEntity
  8
0
  6
SLD-実線
 62
     7
370
    18
100
AcDbTrace
 10
55.0375247094
 20
120.7475155488
 30
0.0
 11
52.0375247094
 21
121.4975155488
 31
0.0
 12
52.0375247094
 22
119.9975155488
 32
0.0
 13
52.0375247094
 23
119.9975155488
 33
0.0
  0
SOLID
  5
20D
330
209
100
AcDbEntity
  8
0
  6
SLD-実線
 62
     7
370
    18
100
AcDbTrace
 10
69.5375247094
 20
120.7475155488
 30
0.0
 11
72.5375247094
 21
119.9975155488
 31
0.0
 12
72.5375247094
 22
121.4975155488
 32
0.0
 13
72.5375247094
 23
121.4975155488
 33
0.0
  0
LINE
  5
20E
330
209
100
AcDbEntity
  8
0
  6
SLD-実線
 62
     7
370
    18
100
AcDbLine
 10
55.0375247094
 20
147.0441138396
 30
0.0
 11
55.0375247094
 21
119.7475155488
 31
0.0
  0
LINE
  5
20F
330
209
100
AcDbEntity
  8
0
  6
SLD-実線
 62
     7
370
    18
100
AcDbLine
 10
69.5375247094
 20
132.7947230589
 30
0.0
 11
69.5375247094
 21
119.7475155488
 31
0.0
  0
LINE
  5
210
330
209
100
AcDbEntity
  8
0
  6
SLD-実線
 62
     7
370
    18
100
AcDbLine
 10
55.0375247094
 20
120.7475155488
 30
0.0
 11
50.0375247094
 21
120.7475155488
 31
0.0
  0
LINE
  5
211
330
209
100
AcDbEntity
  8
0
  6
SLD-実線
 62
     7
370
    18
100
AcDbLine
 10
55.0375247094
 20
120.7475155488
 30
0.0
 11
69.5375247094
 21
120.7475155488
 31
0.0
  0
LINE
  5
212
330
209
100
AcDbEntity
  8
0
  6
SLD-実線
 62
     7
370
    18
100
AcDbLine
 10
69.5375247094
 20
120.7475155488
 30
0.0
 11
74.5375247094
 21
120.7475155488
 31
0.0
  0
MTEXT
  5
213
330
209
100
AcDbEntity
  8
0
  6
SLD-実線
 62
     7
370
    18
100
AcDbMText
 10
58.2139137144
 20
124.8202425887
 30
0.0
 40
3.5
 41
0.0
 71
     1
 72
     1
  1
14.5
  7
SLDTEXTSTYLE1
 73
     1
 44
1.0
  0
ENDBLK
  5
20B
330
209
100
AcDbEntity
  8
0
100
AcDbBlockEnd
  0
BLOCK
  5
216
330
215
100
AcDbEntity
  8
0
100
AcDbBlockBegin
  2
_D_5
 70
     0
 10
0.0
 20
0.0
 30
0.0
  3
_D_5
  1

  0
SOLID
  5
218
330
215
100
AcDbEntity
  8
0
  6
SLD-実線
 62
     7
370
    18
100
AcDbTrace
 10
69.5375247094
 20
120.7475155488
 30
0.0
 11
72.5375247094
 21
119.9975155488
 31
0.0
 12
72.5375247094
 22
121.4975155488
 32
0.0
 13
72.5375247094
 23
121.4975155488
 33
0.0
  0
SOLID
  5
219
330
215
100
AcDbEntity
  8
0
  6
SLD-実線
 62
     7
370
    18
100
AcDbTrace
 10
85.5375247094
 20
120.7475155488
 30
0.0
 11
82.5375247094
 21
121.4975155488
 31
0.0
 12
82.5375247094
 22
119.9975155488
 32
0.0
 13
82.5375247094
 23
119.9975155488
 33
0.0
  0
LINE
  5
21A
330
215
100
AcDbEntity
  8
0
  6
SLD-実線
 62
     7
370
    18
100
AcDbLine
 10
69.5375247094
 20
132.7947230589
 30
0.0
 11
69.5375247094
 21
119.7475155488
 31
0.0
  0
LINE
  5
21B
330
215
100
AcDbEntity
  8
0
  6
SLD-実線
 62
     7
370
    18
100
AcDbLine
 10
85.5375247094
 20
133.0447230589
 30
0.0
 11
85.5375247094
 21
119.7475155488
 31
0.0
  0
LINE
  5
21C
330
215
100
AcDbEntity
  8
0
  6
SLD-実線
 62
     7
370
    18
100
AcDbLine
 10
69.5375247094
 20
120.7475155488
 30
0.0
 11
85.5375247094
 21
120.7475155488
 31
0.0
  0
MTEXT
  5
21D
330
215
100
AcDbEntity
  8
0
  6
SLD-実線
 62
     7
370
    18
100
AcDbMText
 10
75.5007192119
 20
124.8202425887
 30
0.0
 40
3.5
 41
0.0
 71
     1
 72
     1
  1
16
  7
SLDTEXTSTYLE1
 73
     1
 44
1.0
  0
ENDBLK
  5
217
330
215
100
AcDbEntity
  8
0
100
AcDbBlockEnd
  0
BLOCK
  5
21F
330
21E
100
AcDbEntity
  8
0
100
AcDbBlockBegin
  2
SW_NOTE_0
 70
     0
 10
0.0
 20
0.0
 30
0.0
  3
SW_NOTE_0
  1

  0
LINE
  5
221
330
21E
100
AcDbEntity
  8
0
  6
SLD-実線
 62
     0
370
     0
100
AcDbLine
 10
28.3883720145
 20
0.0
 30
0.0
 11
0.0
 21
0.0
 31
0.0
  0
MTEXT
  5
222
330
21E
100
AcDbEntity
  8
0
  6
Continuous
 62
     0
370
     0
100
AcDbMText
 10
0.4215868153
 20
8.685717415
 30
0.0
 40
3.5
 41
0.0
 71
     1
 72
     1
  1
十字穴付皿ネジ
  7
SLDTEXTSTYLE0
 73
     1
 44
1.0
  0
MTEXT
  5
223
330
21E
100
AcDbEntity
  8
0
  6
Continuous
 62
     0
370
     0
100
AcDbMText
 10
0.4215868153
 20
4.1857176087
 30
0.0
 40
3.5
 41
0.0
 71
     1
 72
     1
  1
M4*30 2ヶ
  7
SLDTEXTSTYLE0
 73
     1
 44
1.0
  0
ENDBLK
  5
220
330
21E
100
AcDbEntity
  8
0
100
AcDbBlockEnd
  0
BLOCK
  5
228
330
227
100
AcDbEntity
  8
0
100
AcDbBlockBegin
  2
SW_CENTERMARKSYMBOL_0
 70
     0
 10
0.0
 20
0.0
 30
0.0
  3
SW_CENTERMARKSYMBOL_0
  1

  0
LINE
  5
22A
330
227
100
AcDbEntity
  8
0
  6
SLD-実線
 62
     0
370
    18
100
AcDbLine
 10
0.0
 20
0.0
 30
0.0
 11
0.0
 21
2.5
 31
0.0
  0
LINE
  5
22B
330
227
100
AcDbEntity
  8
0
  6
SLD-実線
 62
     0
370
    18
100
AcDbLine
 10
0.0
 20
0.0
 30
0.0
 11
-2.5
 21
0.0
 31
0.0
  0
LINE
  5
22C
330
227
100
AcDbEntity
  8
0
  6
SLD-実線
 62
     0
370
    18
100
AcDbLine
 10
0.0
 20
0.0
 30
0.0
 11
0.0
 21
-2.5
 31
0.0
  0
LINE
  5
22D
330
227
100
AcDbEntity
  8
0
  6
SLD-実線
 62
     0
370
    18
100
AcDbLine
 10
0.0
 20
0.0
 30
0.0
 11
2.5
 21
0.0
 31
0.0
  0
LINE
  5
22E
330
227
100
AcDbEntity
  8
0
  6
SLD-実線
 62
     0
370
    18
100
AcDbLine
 10
0.0
 20
2.5
 30
0.0
 11
0.0
 21
4.5
 31
0.0
  0
LINE
  5
22F
330
227
100
AcDbEntity
  8
0
  6
SLD-実線
 62
     0
370
    18
100
AcDbLine
 10
-2.5
 20
0.0
 30
0.0
 11
-4.5
 21
0.0
 31
0.0
  0
LINE
  5
230
330
227
100
AcDbEntity
  8
0
  6
SLD-実線
 62
     0
370
    18
100
AcDbLine
 10
0.0
 20
-2.5
 30
0.0
 11
0.0
 21
-4.5
 31
0.0
  0
LINE
  5
231
330
227
100
AcDbEntity
  8
0
  6
SLD-実線
 62
     0
370
    18
100
AcDbLine
 10
2.5
 20
0.0
 30
0.0
 11
4.5
 21
0.0
 31
0.0
  0
ENDBLK
  5
229
330
227
100
AcDbEntity
  8
0
100
AcDbBlockEnd
  0
BLOCK
  5
234
330
233
100
AcDbEntity
  8
0
100
AcDbBlockBegin
  2
SW_CENTERMARKSYMBOL_1
 70
     0
 10
0.0
 20
0.0
 30
0.0
  3
SW_CENTERMARKSYMBOL_1
  1

  0
LINE
  5
236
330
233
100
AcDbEntity
  8
0
  6
SLD-実線
 62
     0
370
    18
100
AcDbLine
 10
0.0
 20
0.0
 30
0.0
 11
0.0
 21
2.5
 31
0.0
  0
LINE
  5
237
330
233
100
AcDbEntity
  8
0
  6
SLD-実線
 62
     0
370
    18
100
AcDbLine
 10
0.0
 20
0.0
 30
0.0
 11
-2.5
 21
0.0
 31
0.0
  0
LINE
  5
238
330
233
100
AcDbEntity
  8
0
  6
SLD-実線
 62
     0
370
    18
100
AcDbLine
 10
0.0
 20
0.0
 30
0.0
 11
0.0
 21
-2.5
 31
0.0
  0
LINE
  5
239
330
233
100
AcDbEntity
  8
0
  6
SLD-実線
 62
     0
370
    18
100
AcDbLine
 10
0.0
 20
0.0
 30
0.0
 11
2.5
 21
0.0
 31
0.0
  0
LINE
  5
23A
330
233
100
AcDbEntity
  8
0
  6
SLD-実線
 62
     0
370
    18
100
AcDbLine
 10
0.0
 20
2.5
 30
0.0
 11
0.0
 21
4.75
 31
0.0
  0
LINE
  5
23B
330
233
100
AcDbEntity
  8
0
  6
SLD-実線
 62
     0
370
    18
100
AcDbLine
 10
-2.5
 20
0.0
 30
0.0
 11
-4.75
 21
0.0
 31
0.0
  0
LINE
  5
23C
330
233
100
AcDbEntity
  8
0
  6
SLD-実線
 62
     0
370
    18
100
AcDbLine
 10
0.0
 20
-2.5
 30
0.0
 11
0.0
 21
-4.75
 31
0.0
  0
LINE
  5
23D
330
233
100
AcDbEntity
  8
0
  6
SLD-実線
 62
     0
370
    18
100
AcDbLine
 10
2.5
 20
0.0
 30
0.0
 11
4.75
 21
0.0
 31
0.0
  0
ENDBLK
  5
235
330
233
100
AcDbEntity
  8
0
100
AcDbBlockEnd
  0
BLOCK
  5
3D3
330
3D2
100
AcDbEntity
  8
0
100
AcDbBlockBegin
  2
_D_6
 70
     0
 10
0.0
 20
0.0
 30
0.0
  3
_D_6
  1

  0
SOLID
  5
3D5
330
3D2
100
AcDbEntity
  8
0
  6
SLD-実線
 62
     7
370
    18
100
AcDbTrace
 10
143.72341424
 20
199.0514404041
 30
0.0
 11
146.72341424
 21
198.3014404041
 31
0.0
 12
146.72341424
 22
199.8014404041
 32
0.0
 13
146.72341424
 23
199.8014404041
 33
0.0
  0
SOLID
  5
3D6
330
3D2
100
AcDbEntity
  8
0
  6
SLD-実線
 62
     7
370
    18
100
AcDbTrace
 10
172.72341424
 20
199.0514404041
 30
0.0
 11
169.72341424
 21
199.8014404041
 31
0.0
 12
169.72341424
 22
198.3014404041
 32
0.0
 13
169.72341424
 23
198.3014404041
 33
0.0
  0
LINE
  5
3D7
330
3D2
100
AcDbEntity
  8
0
  6
SLD-実線
 62
     7
370
    18
100
AcDbLine
 10
143.72341424
 20
185.6434088356
 30
0.0
 11
143.72341424
 21
200.0514404041
 31
0.0
  0
LINE
  5
3D8
330
3D2
100
AcDbEntity
  8
0
  6
SLD-実線
 62
     7
370
    18
100
AcDbLine
 10
172.72341424
 20
186.0447230589
 30
0.0
 11
172.72341424
 21
200.0514404041
 31
0.0
  0
LINE
  5
3D9
330
3D2
100
AcDbEntity
  8
0
  6
SLD-実線
 62
     7
370
    18
100
AcDbLine
 10
143.72341424
 20
199.0514404041
 30
0.0
 11
172.72341424
 21
199.0514404041
 31
0.0
  0
MTEXT
  5
3DA
330
3D2
100
AcDbEntity
  8
0
  6
SLD-実線
 62
     7
370
    18
100
AcDbMText
 10
156.1866087425
 20
203.124167444
 30
0.0
 40
3.5
 41
0.0
 71
     1
 72
     1
  1
29
  7
SLDTEXTSTYLE1
 73
     1
 44
1.0
  0
ENDBLK
  5
3D4
330
3D2
100
AcDbEntity
  8
0
100
AcDbBlockEnd
  0
BLOCK
  5
3DD
330
3DC
100
AcDbEntity
  8
0
100
AcDbBlockBegin
  2
_D_7
 70
     0
 10
0.0
 20
0.0
 30
0.0
  3
_D_7
  1

  0
SOLID
  5
3DF
330
3DC
100
AcDbEntity
  8
0
  6
SLD-実線
 62
     7
370
    18
100
AcDbTrace
 10
149.72341424
 20
120.5844176934
 30
0.0
 11
152.72341424
 21
119.8344176934
 31
0.0
 12
152.72341424
 22
121.3344176934
 32
0.0
 13
152.72341424
 23
121.3344176934
 33
0.0
  0
SOLID
  5
3E0
330
3DC
100
AcDbEntity
  8
0
  6
SLD-実線
 62
     7
370
    18
100
AcDbTrace
 10
172.72341424
 20
120.5844176934
 30
0.0
 11
169.72341424
 21
121.3344176934
 31
0.0
 12
169.72341424
 22
119.8344176934
 32
0.0
 13
169.72341424
 23
119.8344176934
 33
0.0
  0
LINE
  5
3E1
330
3DC
100
AcDbEntity
  8
0
  6
SLD-実線
 62
     7
370
    18
100
AcDbLine
 10
149.72341424
 20
135.2760666629
 30
0.0
 11
149.72341424
 21
119.5844176934
 31
0.0
  0
LINE
  5
3E2
330
3DC
100
AcDbEntity
  8
0
  6
SLD-実線
 62
     7
370
    18
100
AcDbLine
 10
172.72341424
 20
141.0447230589
 30
0.0
 11
172.72341424
 21
119.5844176934
 31
0.0
  0
LINE
  5
3E3
330
3DC
100
AcDbEntity
  8
0
  6
SLD-実線
 62
     7
370
    18
100
AcDbLine
 10
149.72341424
 20
120.5844176934
 30
0.0
 11
172.72341424
 21
120.5844176934
 31
0.0
  0
MTEXT
  5
3E4
330
3DC
100
AcDbEntity
  8
0
  6
SLD-実線
 62
     7
370
    18
100
AcDbMText
 10
159.1866087425
 20
124.6571447333
 30
0.0
 40
3.5
 41
0.0
 71
     1
 72
     1
  1
23
  7
SLDTEXTSTYLE1
 73
     1
 44
1.0
  0
ENDBLK
  5
3DE
330
3DC
100
AcDbEntity
  8
0
100
AcDbBlockEnd
  0
ENDSEC
  0
SECTION
  2
ENTITIES
  0
LINE
  5
75
330
1F
100
AcDbEntity
  8
0
  6
SLD-実線
 62
     7
370
    18
100
AcDbLine
 10
20.2604743903
 20
285.0
 30
0.0
 11
196.7604743903
 21
285.0
 31
0.0
  0
LINE
  5
76
330
1F
100
AcDbEntity
  8
0
  6
SLD-実線
 62
     7
370
    18
100
AcDbLine
 10
20.2604743903
 20
285.0
 30
0.0
 11
20.2604743903
 21
10.0
 31
0.0
  0
LINE
  5
77
330
1F
100
AcDbEntity
  8
0
  6
SLD-実線
 62
     7
370
    18
100
AcDbLine
 10
20.2604743903
 20
10.0
 30
0.0
 11
196.7604743903
 21
10.0
 31
0.0
  0
LINE
  5
78
330
1F
100
AcDbEntity
  8
0
  6
SLD-実線
 62
     7
370
    18
100
AcDbLine
 10
196.7604743903
 20
285.0
 30
0.0
 11
196.7604743903
 21
10.0
 31
0.0
  0
LINE
  5
79
330
1F
100
AcDbEntity
  8
0
  6
SLD-実線
 62
     7
370
    18
100
AcDbLine
 10
127.0104743903
 20
50.75
 30
0.0
 11
196.7604743903
 21
50.75
 31
0.0
  0
LINE
  5
7A
330
1F
100
AcDbEntity
  8
0
  6
SLD-実線
 62
     7
370
    18
100
AcDbLine
 10
127.0104743903
 20
50.75
 30
0.0
 11
127.0104743903
 21
10.0
 31
0.0
  0
LINE
  5
7B
330
1F
100
AcDbEntity
  8
0
  6
SLD-実線
 62
     7
370
    18
100
AcDbLine
 10
127.0104743903
 20
22.75
 30
0.0
 11
196.7604743903
 21
22.75
 31
0.0
  0
LINE
  5
7C
330
1F
100
AcDbEntity
  8
0
  6
SLD-実線
 62
     7
370
    18
100
AcDbLine
 10
127.0104743903
 20
36.75
 30
0.0
 11
196.7604743903
 21
36.75
 31
0.0
  0
MTEXT
  5
7E
330
1F
100
AcDbEntity
  8
0
  6
Continuous
 62
     7
370
     0
100
AcDbMText
 10
95.6191297539
 20
119.1733624156
 30
0.0
 40
3.5
 41
0.0
 71
     1
 72
     1
  1
(裏側ヨリ取付)
  7
SLDTEXTSTYLE0
 73
     1
 44
1.0
  0
MTEXT
  5
7F
330
1F
100
AcDbEntity
  8
0
  6
Continuous
 62
     7
370
     0
100
AcDbMText
 10
130.6195884277
 20
44.5554840705
 30
0.0
 40
2.9104166667
 41
0.0
 71
     1
 72
     1
  1
ワイヤレスコネクター12P・ツール側
  7
SLDTEXTSTYLE0
 73
     1
 44
1.0
  0
MTEXT
  5
81
330
1F
100
AcDbEntity
  8
0
  6
Continuous
 62
     7
370
     0
100
AcDbMText
 10
150.2721214551
 20
30.3168154892
 30
0.0
 40
3.175
 41
0.0
 71
     1
 72
     1
  1
OXR-RS12T1-20I
  7
SLDTEXTSTYLE1
 73
     1
 44
1.0
  0
MTEXT
  5
82
330
1F
100
AcDbEntity
  8
0
  6
Continuous
 62
     7
370
     0
100
AcDbMText
 10
157.6804567943
 20
18.0838710149
 30
0.0
 40
3.7041666667
 41
0.0
 71
     1
 72
     1
  1
140379
  7
SLDTEXTSTYLE1
 73
     1
 44
1.0
  0
LINE
  5
83
330
1F
100
AcDbEntity
  8
0
  6
SLD-実線
 62
     7
370
    18
100
AcDbLine
 10
102.9531860391
 20
166.4770474604
 30
0.0
 11
102.9538137391
 21
166.4816568258
 31
0.0
  0
SPLINE
  5
84
330
1F
100
AcDbEntity
  8
0
  6
SLD-実線
 62
     7
370
    18
100
AcDbSpline
210
0.0
220
0.0
230
1.0
 70
     8
 71
     3
 72
    27
 73
    23
 74
     0
 42
0.000000001
 43
0.00000001
 40
0.0
 40
0.0
 40
0.0
 40
0.0
 40
0.008011689152492
 40
0.0586687734222483
 40
0.1093336540365301
 40
0.1600102078459796
 40
0.2107038078081328
 40
0.2614178550482783
 40
0.3121368976301515
 40
0.3575656013135717
 40
0.3964110558583527
 40
0.4269034408958735
 40
0.4538113504354319
 40
0.4802062022023613
 40
0.510900880622395
 40
0.5573180229607535
 40
0.6820043656190675
 40
0.7461645046857657
 40
0.8122941770299217
 40
0.8774523464855076
 40
0.944983156094948
 40
0.9999999999999999
 40
0.9999999999999999
 40
0.9999999999999999
 40
0.9999999999999999
 10
99.83187974240404
 20
156.4863987038408
 30
0.0
 10
99.85621499963044
 20
156.4848870004461
 30
0.0
 10
100.0344195786167
 20
156.4738169523885
 30
0.0
 10
100.3670757265186
 20
156.5218265746353
 30
0.0
 10
100.8159773932608
 20
156.633899799233
 30
0.0
 10
101.2417705625412
 20
156.82023279888
 30
0.0
 10
101.6340360250067
 20
157.067909296745
 30
0.0
 10
101.9834059680801
 20
157.3731276619198
 30
0.0
 10
102.2710251318912
 20
157.7152259327374
 30
0.0
 10
102.4858620839228
 20
158.0626138339102
 30
0.0
 10
102.6279380398291
 20
158.3741695776114
 30
0.0
 10
102.7167988131958
 20
158.6360218386943
 30
0.0
 10
102.7710710407913
 20
158.8492382307855
 30
0.0
 10
102.8051791745939
 20
159.0284538286569
 30
0.0
 10
102.8288314557924
 20
159.1958526946353
 30
0.0
 10
102.8528984662026
 20
159.4355517909609
 30
0.0
 10
102.8666262195655
 20
159.6746139739725
 30
0.0
 10
102.8807611882353
 20
160.0035738299087
 30
0.0
 10
102.8904977311339
 20
160.2904592310738
 30
0.0
 10
102.8997781891382
 20
160.6230779783573
 30
0.0
 10
102.9079920425833
 20
160.9702360691514
 30
0.0
 10
102.9128306718418
 20
161.2271465451584
 30
0.0
 10
102.9150029379195
 20
161.3424845638858
 30
0.0
  0
SPLINE
  5
85
330
1F
100
AcDbEntity
  8
0
  6
SLD-実線
 62
     7
370
    18
100
AcDbSpline
210
0.0
220
0.0
230
1.0
 70
     8
 71
     3
 72
    28
 73
    24
 74
     0
 42
0.000000001
 43
0.00000001
 40
0.0
 40
0.0
 40
0.0
 40
0.0
 40
0.028955017560354
 40
0.0932334443523625
 40
0.156626293079287
 40
0.21902245873436
 40
0.2804685395630335
 40
0.3414971777637852
 40
0.4046917623882619
 40
0.4572439065341015
 40
0.4898912266501135
 40
0.5157586848569014
 40
0.5409189022150315
 40
0.5685769728487061
 40
0.6014420467606431
 40
0.6420468457863607
 40
0.6899560893585609
 40
0.7417290200821073
 40
0.7947449417274882
 40
0.8480902238840113
 40
0.9015249416016029
 40
0.9549865378801772
 40
1.0
 40
1.0
 40
1.0
 40
1.0
 10
102.9092204094249
 20
171.8649422147155
 30
0.0
 10
102.9074568396458
 20
171.9987689143859
 30
0.0
 10
102.9038231635473
 20
172.1756097192177
 30
0.0
 10
102.8971407669311
 20
172.4384132334179
 30
0.0
 10
102.88861694758
 20
172.7314622332471
 30
0.0
 10
102.8796225330107
 20
172.9867280336364
 30
0.0
 10
102.8700405483528
 20
173.2100252244994
 30
0.0
 10
102.8592873965425
 20
173.409670581556
 30
0.0
 10
102.8467198493805
 20
173.5868017747098
 30
0.0
 10
102.8309022044461
 20
173.7501492528127
 30
0.0
 10
102.8082060636334
 20
173.9153936554365
 30
0.0
 10
102.778287037033
 20
174.0786197458681
 30
0.0
 10
102.7345462421812
 20
174.2620092290413
 30
0.0
 10
102.6674015230961
 20
174.479520925998
 30
0.0
 10
102.5626078075893
 20
174.7412023001426
 30
0.0
 10
102.4018976688996
 20
175.0471471248985
 30
0.0
 10
102.171098648038
 20
175.3776174704944
 30
0.0
 10
101.8700660794717
 20
175.6991673095905
 30
0.0
 10
101.5113054007102
 20
175.9819305727652
 30
0.0
 10
101.1091409416917
 20
176.2097308228935
 30
0.0
 10
100.6755059274274
 20
176.3717809865281
 30
0.0
 10
100.2455029901934
 20
176.4674920558139
 30
0.0
 10
99.96131687110613
 20
176.4739589183916
 30
0.0
 10
99.83141391583433
 20
176.4769149549598
 30
0.0
  0
CIRCLE
  5
86
330
1F
100
AcDbEntity
  8
0
  6
SLD-実線
 62
     7
370
    18
100
AcDbCircle
 10
69.5375247094
 20
138.5447230589
 30
0.0
 40
1.999999999999988
  0
LINE
  5
87
330
1F
100
AcDbEntity
  8
0
  6
SLD-実線
 62
     7
370
    18
100
AcDbLine
 10
71.6402773852
 20
137.7441412803
 30
0.0
 11
71.4393887609
 21
137.9259233097
 31
0.0
  0
LINE
  5
88
330
1F
100
AcDbEntity
  8
0
  6
SLD-実線
 62
     7
370
    18
100
AcDbLine
 10
71.0955126421
 20
136.9214012789
 30
0.0
 11
70.8792424384
 21
137.0615529623
 31
0.0
  0
LINE
  5
89
330
1F
100
AcDbEntity
  8
0
  6
SLD-実線
 62
     7
370
    18
100
AcDbLine
 10
71.0955126421
 20
136.9214012789
 30
0.0
 11
71.6402773852
 21
137.7441412803
 31
0.0
  0
LINE
  5
8A
330
1F
100
AcDbEntity
  8
0
  6
SLD-実線
 62
     7
370
    18
100
AcDbLine
 10
67.4347720335
 20
139.3453048375
 30
0.0
 11
67.6356606579
 21
139.1635228082
 31
0.0
  0
LINE
  5
8B
330
1F
100
AcDbEntity
  8
0
  6
SLD-実線
 62
     7
370
    18
100
AcDbLine
 10
67.9795367767
 20
140.168044839
 30
0.0
 11
68.1958069803
 21
140.0278931556
 31
0.0
  0
LINE
  5
8C
330
1F
100
AcDbEntity
  8
0
  6
SLD-実線
 62
     7
370
    18
100
AcDbLine
 10
70.338106488
 20
140.6474757348
 30
0.0
 11
70.1563244586
 21
140.4465871104
 31
0.0
  0
LINE
  5
8D
330
1F
100
AcDbEntity
  8
0
  6
SLD-実線
 62
     7
370
    18
100
AcDbLine
 10
68.7369429308
 20
136.4419703831
 30
0.0
 11
68.9187249601
 21
136.6428590075
 31
0.0
  0
LINE
  5
8E
330
1F
100
AcDbEntity
  8
0
  6
SLD-実線
 62
     7
370
    18
100
AcDbLine
 10
67.9142029294
 20
136.9867351262
 30
0.0
 11
68.0543546127
 21
137.2030053299
 31
0.0
  0
LINE
  5
8F
330
1F
100
AcDbEntity
  8
0
  6
SLD-実線
 62
     7
370
    18
100
AcDbLine
 10
67.9142029294
 20
136.9867351262
 30
0.0
 11
68.7369429308
 21
136.4419703831
 31
0.0
  0
LINE
  5
90
330
1F
100
AcDbEntity
  8
0
  6
SLD-実線
 62
     7
370
    18
100
AcDbLine
 10
71.1608464894
 20
140.1027109917
 30
0.0
 11
71.020694806
 21
139.886440788
 31
0.0
  0
LINE
  5
91
330
1F
100
AcDbEntity
  8
0
  6
SLD-実線
 62
     7
370
    18
100
AcDbLine
 10
67.9795367767
 20
140.168044839
 30
0.0
 11
67.4347720335
 21
139.3453048375
 31
0.0
  0
LINE
  5
92
330
1F
100
AcDbEntity
  8
0
  6
SLD-実線
 62
     7
370
    18
100
AcDbLine
 10
71.1608464894
 20
140.1027109917
 30
0.0
 11
70.338106488
 21
140.6474757348
 31
0.0
  0
ARC
  5
93
330
1F
100
AcDbEntity
  8
0
  6
SLD-実線
 62
     7
370
    18
100
AcDbCircle
 10
69.628038078
 20
138.5146071873
 30
0.0
 40
4.200000000000019
100
AcDbArc
 50
250.9458581547
 51
289.0541418453
  0
CIRCLE
  5
94
330
1F
100
AcDbEntity
  8
0
  6
SLD-実線
 62
     7
370
    18
100
AcDbCircle
 10
85.5375247094
 20
138.5447230589
 30
0.0
 40
2.000000000000013
  0
LINE
  5
95
330
1F
100
AcDbEntity
  8
0
  6
SLD-実線
 62
     7
370
    18
100
AcDbLine
 10
83.8416135299
 20
137.0660800082
 30
0.0
 11
83.9919389246
 21
137.2754064783
 31
0.0
  0
LINE
  5
96
330
1F
100
AcDbEntity
  8
0
  6
SLD-実線
 62
     7
370
    18
100
AcDbLine
 10
83.4754270985
 20
139.4448638497
 30
0.0
 11
83.6674003827
 21
139.25369062
 31
0.0
  0
LINE
  5
97
330
1F
100
AcDbEntity
  8
0
  6
SLD-実線
 62
     7
370
    18
100
AcDbLine
 10
87.2334358888
 20
140.0233661096
 30
0.0
 11
87.0831104942
 21
139.8140396396
 31
0.0
  0
LINE
  5
98
330
1F
100
AcDbEntity
  8
0
  6
SLD-実線
 62
     7
370
    18
100
AcDbLine
 10
87.2334358888
 20
140.0233661096
 30
0.0
 11
86.4376655002
 21
140.6068206698
 31
0.0
  0
LINE
  5
99
330
1F
100
AcDbEntity
  8
0
  6
SLD-実線
 62
     7
370
    18
100
AcDbLine
 10
86.4376655002
 20
140.6068206698
 30
0.0
 11
86.2464922705
 21
140.4148473856
 31
0.0
  0
LINE
  5
9A
330
1F
100
AcDbEntity
  8
0
  6
SLD-実線
 62
     7
370
    18
100
AcDbLine
 10
87.0161677601
 20
136.8488118795
 30
0.0
 11
86.80684129
 21
136.9991372741
 31
0.0
  0
LINE
  5
9B
330
1F
100
AcDbEntity
  8
0
  6
SLD-実線
 62
     7
370
    18
100
AcDbLine
 10
87.5996223203
 20
137.6445822682
 30
0.0
 11
87.4076490361
 21
137.8357554979
 31
0.0
  0
LINE
  5
9C
330
1F
100
AcDbEntity
  8
0
  6
SLD-実線
 62
     7
370
    18
100
AcDbLine
 10
84.6373839186
 20
136.4826254481
 30
0.0
 11
84.8285571483
 21
136.6745987322
 31
0.0
  0
LINE
  5
9D
330
1F
100
AcDbEntity
  8
0
  6
SLD-実線
 62
     7
370
    18
100
AcDbLine
 10
83.8416135299
 20
137.0660800082
 30
0.0
 11
84.6373839186
 21
136.4826254481
 31
0.0
  0
LINE
  5
9E
330
1F
100
AcDbEntity
  8
0
  6
SLD-実線
 62
     7
370
    18
100
AcDbLine
 10
87.0161677601
 20
136.8488118795
 30
0.0
 11
87.5996223203
 21
137.6445822682
 31
0.0
  0
LINE
  5
9F
330
1F
100
AcDbEntity
  8
0
  6
SLD-実線
 62
     7
370
    18
100
AcDbLine
 10
84.0588816587
 20
140.2406342384
 30
0.0
 11
84.2682081288
 21
140.0903088437
 31
0.0
  0
LINE
  5
A0
330
1F
100
AcDbEntity
  8
0
  6
SLD-実線
 62
     7
370
    18
100
AcDbLine
 10
84.0588816587
 20
140.2406342384
 30
0.0
 11
83.4754270985
 21
139.4448638497
 31
0.0
  0
ARC
  5
A1
330
1F
100
AcDbEntity
  8
0
  6
SLD-実線
 62
     7
370
    18
100
AcDbCircle
 10
85.4470113408
 20
138.5146071873
 30
0.0
 40
4.199999999999993
100
AcDbArc
 50
250.9458581547
 51
289.0541418453
  0
LINE
  5
A2
330
1F
100
AcDbEntity
  8
0
  6
SLD-実線
 62
     7
370
    18
100
AcDbLine
 10
93.2055181008
 20
141.3332803263
 30
0.0
 11
90.8454850579
 21
136.2760666629
 31
0.0
  0
LINE
  5
A3
330
1F
100
AcDbEntity
  8
0
  6
SLD-実線
 62
     7
370
    18
100
AcDbLine
 10
93.5375247094
 20
142.0447230589
 30
0.0
 11
93.2055181008
 21
141.3332803263
 31
0.0
  0
ARC
  5
A4
330
1F
100
AcDbEntity
  8
0
  6
SLD-実線
 62
     7
370
    18
100
AcDbCircle
 10
92.7524265308
 20
141.5447230589
 30
0.0
 40
0.5000000000000109
100
AcDbArc
 50
334.9831065219
 51
90.0
  0
ARC
  5
A5
330
1F
100
AcDbEntity
  8
0
  6
SLD-実線
 62
     7
370
    18
100
AcDbCircle
 10
88.1269356379
 20
137.5447230589
 30
0.0
 40
3.000000000000003
100
AcDbArc
 50
270.0
 51
334.9831065219
  0
LINE
  5
A6
330
1F
100
AcDbEntity
  8
0
  6
SLD-実線
 62
     7
370
    18
100
AcDbLine
 10
70.9991762941
 20
134.5447230589
 30
0.0
 11
66.9481137808
 21
134.5447230589
 31
0.0
  0
LINE
  5
A7
330
1F
100
AcDbEntity
  8
0
  6
SLD-実線
 62
     7
370
    18
100
AcDbLine
 10
88.1269356379
 20
134.5447230589
 30
0.0
 11
84.0758731247
 21
134.5447230589
 31
0.0
  0
LINE
  5
A8
330
1F
100
AcDbEntity
  8
0
  6
SLD-実線
 62
     7
370
    18
100
AcDbLine
 10
62.322622888
 20
142.0447230589
 30
0.0
 11
92.7524265308
 21
142.0447230589
 31
0.0
  0
ARC
  5
A9
330
1F
100
AcDbEntity
  8
0
  6
SLD-実線
 62
     7
370
    18
100
AcDbCircle
 10
66.9481137808
 20
137.5447230589
 30
0.0
 40
3.000000000000003
100
AcDbArc
 50
205.0168934781
 51
270.0
  0
ARC
  5
AA
330
1F
100
AcDbEntity
  8
0
  6
SLD-実線
 62
     7
370
    18
100
AcDbCircle
 10
77.5375247094
 20
135.0447230589
 30
0.0
 40
4.000000000000004
100
AcDbArc
 50
20.9248324276
 51
159.0751675724
  0
ARC
  5
AB
330
1F
100
AcDbEntity
  8
0
  6
SLD-実線
 62
     7
370
    18
100
AcDbCircle
 10
84.0758731247
 20
137.5447230589
 30
0.0
 40
3.000000000000004
100
AcDbArc
 50
200.9248324276
 51
270.0
  0
ARC
  5
AC
330
1F
100
AcDbEntity
  8
0
  6
SLD-実線
 62
     7
370
    18
100
AcDbCircle
 10
70.9991762941
 20
137.5447230589
 30
0.0
 40
3.0
100
AcDbArc
 50
270.0
 51
339.0751675724
  0
LINE
  5
AD
330
1F
100
AcDbEntity
  8
0
  6
SLD-実線
 62
     7
370
    18
100
AcDbLine
 10
64.2295643608
 20
136.2760666629
 30
0.0
 11
61.869531318
 21
141.3332803263
 31
0.0
  0
ARC
  5
AE
330
1F
100
AcDbEntity
  8
0
  6
SLD-実線
 62
     7
370
    18
100
AcDbCircle
 10
62.322622888
 20
141.5447230589
 30
0.0
 40
0.5000000000000109
100
AcDbArc
 50
90.0
 51
205.0168934781
  0
CIRCLE
  5
AF
330
1F
100
AcDbEntity
  8
0
  6
SLD-実線
 62
     7
370
    18
100
AcDbCircle
 10
69.5375247094
 20
138.5447230589
 30
0.0
 40
2.25
  0
CIRCLE
  5
B0
330
1F
100
AcDbEntity
  8
0
  6
SLD-実線
 62
     7
370
    18
100
AcDbCircle
 10
85.5375247094
 20
138.5447230589
 30
0.0
 40
2.25
  0
LINE
  5
B1
330
1F
100
AcDbEntity
  8
0
  6
SLD-実線
 62
     7
370
    18
100
AcDbLine
 10
61.869531318
 20
141.3332803263
 30
0.0
 11
61.5375247094
 21
142.0447230589
 31
0.0
  0
LINE
  5
B2
330
1F
100
AcDbEntity
  8
0
  6
SLD-実線
 62
     7
370
    18
100
AcDbLine
 10
61.5375247094
 20
142.0447230589
 30
0.0
 11
59.0375247094
 21
142.0447230589
 31
0.0
  0
LINE
  5
B3
330
1F
100
AcDbEntity
  8
0
  6
SLD-実線
 62
     7
370
    18
100
AcDbLine
 10
96.0375247094
 20
142.0447230589
 30
0.0
 11
93.5375247094
 21
142.0447230589
 31
0.0
  0
LINE
  5
B4
330
1F
100
AcDbEntity
  8
0
  6
SLD-実線
 62
     7
370
    18
100
AcDbLine
 10
61.4353171394
 20
184.921464938
 30
0.0
 11
61.4120701542
 21
185.0985849191
 31
0.0
  0
LINE
  5
B5
330
1F
100
AcDbEntity
  8
0
  6
SLD-実線
 62
     7
370
    18
100
AcDbLine
 10
59.8121262888
 20
185.7620452628
 30
0.0
 11
59.6703651684
 21
185.653354114
 31
0.0
  0
LWPOLYLINE
  5
B6
330
1F
100
AcDbEntity
  8
0
  6
SLD-実線
 62
     7
370
    18
100
AcDbPolyline
 90
        3
 70
   128
 43
0.0
 10
58.5793477545
 20
184.816875873
 10
58.5509260773
 20
184.7606312285
 10
58.437580844
 20
184.7081834027
  0
LINE
  5
B7
330
1F
100
AcDbEntity
  8
0
  6
SLD-実線
 62
     7
370
    18
100
AcDbLine
 10
61.6374685747
 20
183.3812627152
 30
0.0
 11
61.6142215895
 21
183.5583826963
 31
0.0
  0
ARC
  5
B8
330
1F
100
AcDbEntity
  8
0
  6
SLD-実線
 62
     7
370
    18
100
AcDbCircle
 10
59.0375247094
 20
185.0447230589
 30
0.0
 40
4.000000000000007
100
AcDbArc
 50
90.0
 51
180.0
  0
ARC
  5
B9
330
1F
100
AcDbEntity
  8
0
  6
SLD-実線
 62
     7
370
    18
100
AcDbCircle
 10
59.0375247094
 20
146.0447230589
 30
0.0
 40
4.0
100
AcDbArc
 50
180.0
 51
270.0
  0
LINE
  5
BA
330
1F
100
AcDbEntity
  8
0
  6
SLD-実線
 62
     7
370
    18
100
AcDbLine
 10
55.0375247094
 20
146.0447230589
 30
0.0
 11
55.0375247094
 21
148.0441138396
 31
0.0
  0
LINE
  5
BB
330
1F
100
AcDbEntity
  8
0
  6
SLD-実線
 62
     7
370
    18
100
AcDbLine
 10
55.0375247094
 20
165.8447230589
 30
0.0
 11
55.0375247094
 21
167.2447230589
 31
0.0
  0
LINE
  5
BC
330
1F
100
AcDbEntity
  8
0
  6
SLD-実線
 62
     7
370
    18
100
AcDbLine
 10
55.0375247094
 20
184.0454845832
 30
0.0
 11
55.0375247094
 21
185.0447230589
 31
0.0
  0
LINE
  5
BD
330
1F
100
AcDbEntity
  8
0
  6
SLD-実線
 62
     7
370
    18
100
AcDbLine
 10
59.0375247094
 20
189.0447230589
 30
0.0
 11
60.0367631852
 21
189.0447230589
 31
0.0
  0
LINE
  5
BE
330
1F
100
AcDbEntity
  8
0
  6
SLD-実線
 62
     7
370
    18
100
AcDbLine
 10
76.8375247094
 20
189.0447230589
 30
0.0
 11
78.2375247094
 21
189.0447230589
 31
0.0
  0
LINE
  5
BF
330
1F
100
AcDbEntity
  8
0
  6
SLD-実線
 62
     7
370
    18
100
AcDbLine
 10
100.0375247094
 20
149.0439615347
 30
0.0
 11
100.0375247094
 21
146.0447230589
 31
0.0
  0
ARC
  5
C0
330
1F
100
AcDbEntity
  8
0
  6
SLD-実線
 62
     7
370
    18
100
AcDbCircle
 10
96.0375247094
 20
146.0447230589
 30
0.0
 40
4.0
100
AcDbArc
 50
270.0
 51
0.0
  0
LWPOLYLINE
  5
C1
330
1F
100
AcDbEntity
  8
0
  6
SLD-実線
 62
     7
370
    18
100
AcDbPolyline
 90
        3
 70
   128
 43
0.0
 10
96.4120701542
 20
150.0985849191
 10
96.3275466555
 20
150.073481232
 10
96.2470562584
 20
150.1670124298
  0
LINE
  5
C2
330
1F
100
AcDbEntity
  8
0
  6
SLD-実線
 62
     7
370
    18
100
AcDbLine
 10
94.9771401846
 20
150.6936177521
 30
0.0
 11
94.8121262888
 21
150.7620452628
 31
0.0
  0
LINE
  5
C3
330
1F
100
AcDbEntity
  8
0
  6
SLD-実線
 62
     7
370
    18
100
AcDbLine
 10
95.26292313
 20
147.327400855
 30
0.0
 11
95.4046842504
 21
147.4360920038
 31
0.0
  0
LWPOLYLINE
  5
C4
330
1F
100
AcDbEntity
  8
0
  6
SLD-実線
 62
     7
370
    18
100
AcDbPolyline
 90
        3
 70
   128
 43
0.0
 10
96.6374685747
 20
148.3812627152
 10
96.5241233414
 20
148.3288148894
 10
96.6142215895
 20
148.5583826963
  0
LINE
  5
C5
330
1F
100
AcDbEntity
  8
0
  6
SLD-実線
 62
     7
370
    18
100
AcDbLine
 10
93.437580844
 20
149.7081834027
 30
0.0
 11
93.6629792646
 21
147.9908611988
 31
0.0
  0
LINE
  5
C6
330
1F
100
AcDbEntity
  8
0
  6
SLD-実線
 62
     7
370
    18
100
AcDbLine
 10
94.8121262888
 20
150.7620452628
 30
0.0
 11
93.437580844
 21
149.7081834027
 31
0.0
  0
CIRCLE
  5
C7
330
1F
100
AcDbEntity
  8
0
  6
SLD-実線
 62
     7
370
    18
100
AcDbCircle
 10
95.0375247094
 20
149.0447230589
 30
0.0
 40
3.099999999999994
  0
CIRCLE
  5
C8
330
1F
100
AcDbEntity
  8
0
  6
SLD-実線
 62
     7
370
    18
100
AcDbCircle
 10
95.0375247094
 20
149.0447230589
 30
0.0
 40
3.500000000000012
  0
LINE
  5
C9
330
1F
100
AcDbEntity
  8
0
  6
SLD-実線
 62
     7
370
    18
100
AcDbLine
 10
93.6629792646
 20
147.9908611988
 30
0.0
 11
95.26292313
 21
147.327400855
 31
0.0
  0
LINE
  5
CA
330
1F
100
AcDbEntity
  8
0
  6
SLD-実線
 62
     7
370
    18
100
AcDbLine
 10
95.26292313
 20
147.327400855
 30
0.0
 11
96.6374685747
 21
148.3812627152
 31
0.0
  0
LINE
  5
CB
330
1F
100
AcDbEntity
  8
0
  6
SLD-実線
 62
     7
370
    18
100
AcDbLine
 10
96.4120701542
 20
150.0985849191
 30
0.0
 11
94.8121262888
 21
150.7620452628
 31
0.0
  0
LINE
  5
CC
330
1F
100
AcDbEntity
  8
0
  6
SLD-実線
 62
     7
370
    18
100
AcDbLine
 10
96.6374685747
 20
148.3812627152
 30
0.0
 11
96.4120701542
 21
150.0985849191
 31
0.0
  0
SPLINE
  5
CD
330
1F
100
AcDbEntity
  8
0
  6
SLD-実線
 62
     7
370
    18
100
AcDbSpline
210
0.0
220
0.0
230
1.0
 70
    24
 71
     3
 72
     8
 73
     4
 74
     0
 42
0.000000001
 43
0.00000001
 40
0.0
 40
0.0
 40
0.0
 40
0.0
 40
1.0
 40
1.0
 40
1.0
 40
1.0
 10
93.43758084403474
 20
149.7081834026907
 30
0.0
 10
93.49091230621303
 20
149.6860680578989
 30
0.0
 10
94.02422692799577
 20
149.4649146099808
 30
0.0
 10
95.03752470938295
 20
149.0447230589363
 30
0.0
  0
SPLINE
  5
CE
330
1F
100
AcDbEntity
  8
0
  6
SLD-実線
 62
     7
370
    18
100
AcDbSpline
210
0.0
220
0.0
230
1.0
 70
    24
 71
     3
 72
     8
 73
     4
 74
     0
 42
0.000000001
 43
0.00000001
 40
0.0
 40
0.0
 40
0.0
 40
0.0
 40
1.0
 40
1.0
 40
1.0
 40
1.0
 10
94.8121262888037
 20
150.7620452628341
 30
0.0
 10
94.81963956948967
 20
150.7048011893708
 30
0.0
 10
94.89477237634941
 20
150.1323604547383
 30
0.0
 10
95.03752470938295
 20
149.0447230589363
 30
0.0
  0
SPLINE
  5
CF
330
1F
100
AcDbEntity
  8
0
  6
SLD-実線
 62
     7
370
    18
100
AcDbSpline
210
0.0
220
0.0
230
1.0
 70
    24
 71
     3
 72
     8
 73
     4
 74
     0
 42
0.000000001
 43
0.00000001
 40
0.0
 40
0.0
 40
0.0
 40
0.0
 40
1.0
 40
1.0
 40
1.0
 40
1.0
 10
93.662979264614
 20
147.9908611987929
 30
0.0
 10
93.70879744610629
 20
148.0259899274644
 30
0.0
 10
94.16697926102928
 20
148.3772772141788
 30
0.0
 10
95.03752470938295
 20
149.0447230589363
 30
0.0
  0
SPLINE
  5
D0
330
1F
100
AcDbEntity
  8
0
  6
SLD-実線
 62
     7
370
    18
100
AcDbSpline
210
0.0
220
0.0
230
1.0
 70
    24
 71
     3
 72
     8
 73
     4
 74
     0
 42
0.000000001
 43
0.00000001
 40
0.0
 40
0.0
 40
0.0
 40
0.0
 40
1.0
 40
1.0
 40
1.0
 40
1.0
 10
95.26292312996219
 20
147.3274008550385
 30
0.0
 10
95.25540984927622
 20
147.3846449285018
 30
0.0
 10
95.18027704241646
 20
147.9570856631344
 30
0.0
 10
95.03752470938295
 20
149.0447230589363
 30
0.0
  0
LINE
  5
D1
330
1F
100
AcDbEntity
  8
0
  6
SLD-実線
 62
     7
370
    18
100
AcDbLine
 10
59.8121262888
 20
185.7620452628
 30
0.0
 11
58.437580844
 21
184.7081834027
 31
0.0
  0
LINE
  5
D2
330
1F
100
AcDbEntity
  8
0
  6
SLD-実線
 62
     7
370
    18
100
AcDbLine
 10
60.26292313
 20
182.327400855
 30
0.0
 11
61.6374685747
 21
183.3812627152
 31
0.0
  0
LINE
  5
D3
330
1F
100
AcDbEntity
  8
0
  6
SLD-実線
 62
     7
370
    18
100
AcDbLine
 10
61.6374685747
 20
183.3812627152
 30
0.0
 11
61.4120701542
 21
185.0985849191
 31
0.0
  0
LINE
  5
D4
330
1F
100
AcDbEntity
  8
0
  6
SLD-実線
 62
     7
370
    18
100
AcDbLine
 10
61.4120701542
 20
185.0985849191
 30
0.0
 11
59.8121262888
 21
185.7620452628
 31
0.0
  0
LINE
  5
D5
330
1F
100
AcDbEntity
  8
0
  6
SLD-実線
 62
     7
370
    18
100
AcDbLine
 10
58.437580844
 20
184.7081834027
 30
0.0
 11
58.6629792646
 21
182.9908611988
 31
0.0
  0
LINE
  5
D6
330
1F
100
AcDbEntity
  8
0
  6
SLD-実線
 62
     7
370
    18
100
AcDbLine
 10
58.6629792646
 20
182.9908611988
 30
0.0
 11
60.26292313
 21
182.327400855
 31
0.0
  0
CIRCLE
  5
D7
330
1F
100
AcDbEntity
  8
0
  6
SLD-実線
 62
     7
370
    18
100
AcDbCircle
 10
60.0375247094
 20
184.0447230589
 30
0.0
 40
3.100000000000003
  0
CIRCLE
  5
D8
330
1F
100
AcDbEntity
  8
0
  6
SLD-実線
 62
     7
370
    18
100
AcDbCircle
 10
60.0375247094
 20
184.0447230589
 30
0.0
 40
3.500000000000001
  0
SPLINE
  5
D9
330
1F
100
AcDbEntity
  8
0
  6
SLD-実線
 62
     7
370
    18
100
AcDbSpline
210
0.0
220
0.0
230
1.0
 70
    24
 71
     3
 72
     8
 73
     4
 74
     0
 42
0.000000001
 43
0.00000001
 40
0.0
 40
0.0
 40
0.0
 40
0.0
 40
1.0
 40
1.0
 40
1.0
 40
1.0
 10
58.66297926461399
 20
182.9908611987929
 30
0.0
 10
58.70879744610629
 20
183.0259899274644
 30
0.0
 10
59.16697926102928
 20
183.3772772141788
 30
0.0
 10
60.03752470938294
 20
184.0447230589363
 30
0.0
  0
SPLINE
  5
DA
330
1F
100
AcDbEntity
  8
0
  6
SLD-実線
 62
     7
370
    18
100
AcDbSpline
210
0.0
220
0.0
230
1.0
 70
    24
 71
     3
 72
     8
 73
     4
 74
     0
 42
0.000000001
 43
0.00000001
 40
0.0
 40
0.0
 40
0.0
 40
0.0
 40
1.0
 40
1.0
 40
1.0
 40
1.0
 10
60.26292312996219
 20
182.3274008550385
 30
0.0
 10
60.25540984927621
 20
182.3846449285018
 30
0.0
 10
60.18027704241646
 20
182.9570856631344
 30
0.0
 10
60.03752470938294
 20
184.0447230589363
 30
0.0
  0
SPLINE
  5
DB
330
1F
100
AcDbEntity
  8
0
  6
SLD-実線
 62
     7
370
    18
100
AcDbSpline
210
0.0
220
0.0
230
1.0
 70
    24
 71
     3
 72
     8
 73
     4
 74
     0
 42
0.000000001
 43
0.00000001
 40
0.0
 40
0.0
 40
0.0
 40
0.0
 40
1.0
 40
1.0
 40
1.0
 40
1.0
 10
59.8121262888037
 20
185.7620452628341
 30
0.0
 10
59.81963956948967
 20
185.7048011893709
 30
0.0
 10
59.89477237634942
 20
185.1323604547383
 30
0.0
 10
60.03752470938294
 20
184.0447230589363
 30
0.0
  0
SPLINE
  5
DC
330
1F
100
AcDbEntity
  8
0
  6
SLD-実線
 62
     7
370
    18
100
AcDbSpline
210
0.0
220
0.0
230
1.0
 70
    24
 71
     3
 72
     8
 73
     4
 74
     0
 42
0.000000001
 43
0.00000001
 40
0.0
 40
0.0
 40
0.0
 40
0.0
 40
1.0
 40
1.0
 40
1.0
 40
1.0
 10
61.41207015415188
 20
185.0985849190797
 30
0.0
 10
61.3662519726596
 20
185.0634561904083
 30
0.0
 10
60.90807015773662
 20
184.7121689036938
 30
0.0
 10
60.03752470938294
 20
184.0447230589363
 30
0.0
  0
SPLINE
  5
DD
330
1F
100
AcDbEntity
  8
0
  6
SLD-実線
 62
     7
370
    18
100
AcDbSpline
210
0.0
220
0.0
230
1.0
 70
    24
 71
     3
 72
     8
 73
     4
 74
     0
 42
0.000000001
 43
0.00000001
 40
0.0
 40
0.0
 40
0.0
 40
0.0
 40
1.0
 40
1.0
 40
1.0
 40
1.0
 10
61.63746857473114
 20
183.3812627151819
 30
0.0
 10
61.58413711255287
 20
183.4033780599738
 30
0.0
 10
61.05082249077013
 20
183.6245315078919
 30
0.0
 10
60.03752470938294
 20
184.0447230589363
 30
0.0
  0
SPLINE
  5
DE
330
1F
100
AcDbEntity
  8
0
  6
SLD-実線
 62
     7
370
    18
100
AcDbSpline
210
0.0
220
0.0
230
1.0
 70
    24
 71
     3
 72
     8
 73
     4
 74
     0
 42
0.000000001
 43
0.00000001
 40
0.0
 40
0.0
 40
0.0
 40
0.0
 40
1.0
 40
1.0
 40
1.0
 40
1.0
 10
58.43758084403474
 20
184.7081834026907
 30
0.0
 10
58.49091230621303
 20
184.6860680578989
 30
0.0
 10
59.02422692799576
 20
184.4649146099808
 30
0.0
 10
60.03752470938294
 20
184.0447230589363
 30
0.0
  0
LINE
  5
DF
330
1F
100
AcDbEntity
  8
0
  6
SLD-実線
 62
     7
370
    18
100
AcDbLine
 10
78.2375247094
 20
186.2448296886
 30
0.0
 11
78.2375247094
 21
187.1430280735
 31
0.0
  0
LINE
  5
E0
330
1F
100
AcDbEntity
  8
0
  6
SLD-実線
 62
     7
370
    18
100
AcDbLine
 10
78.2375247094
 20
187.1430280735
 30
0.0
 11
95.6362104861
 21
187.1430280735
 31
0.0
  0
SPLINE
  5
E1
330
1F
100
AcDbEntity
  8
0
  6
SLD-実線
 62
     7
370
    18
100
AcDbSpline
210
0.0
220
0.0
230
1.0
 70
     8
 71
     3
 72
    10
 73
     6
 74
     0
 42
0.000000001
 43
0.00000001
 40
0.0
 40
0.0
 40
0.0
 40
0.0
 40
0.5
 40
0.5
 40
1.0
 40
1.0
 40
1.0
 40
1.0
 10
95.63621048607735
 20
187.1430280735214
 30
0.0
 10
95.96350513019286
 20
187.1430280735163
 30
0.0
 10
96.29053323344317
 20
187.0779753960894
 30
0.0
 10
96.89512856860313
 20
186.8275661461568
 30
0.0
 10
97.17235741733141
 20
186.6423496857789
 30
0.0
 10
97.4037543767825
 20
186.4109527263356
 30
0.0
  0
SPLINE
  5
E2
330
1F
100
AcDbEntity
  8
0
  6
SLD-実線
 62
     7
370
    18
100
AcDbSpline
210
0.0
220
0.0
230
1.0
 70
     8
 71
     3
 72
    10
 73
     6
 74
     0
 42
0.000000001
 43
0.00000001
 40
0.0
 40
0.0
 40
0.0
 40
0.0
 40
0.5
 40
0.5
 40
1.0
 40
1.0
 40
1.0
 40
1.0
 10
97.4037543767825
 20
186.4109527263356
 30
0.0
 10
97.63515133622631
 20
186.1795557668854
 30
0.0
 10
97.82036779660372
 20
185.9023269181557
 30
0.0
 10
98.07077704653629
 20
185.2977315829967
 30
0.0
 10
98.13582972396264
 20
184.9707034797455
 30
0.0
 10
98.13582972396831
 20
184.6434088356305
 30
0.0
  0
LINE
  5
E3
330
1F
100
AcDbEntity
  8
0
  6
SLD-実線
 62
     7
370
    18
100
AcDbLine
 10
98.135829724
 20
184.6434088356
 30
0.0
 11
98.135829724
 21
167.2447230589
 31
0.0
  0
LINE
  5
E4
330
1F
100
AcDbEntity
  8
0
  6
SLD-実線
 62
     7
370
    18
100
AcDbLine
 10
98.135829724
 20
167.2447230589
 30
0.0
 11
97.2376821137
 21
167.2447230589
 31
0.0
  0
SPLINE
  5
E5
330
1F
100
AcDbEntity
  8
0
  6
SLD-実線
 62
     7
370
    18
100
AcDbSpline
210
0.0
220
0.0
230
1.0
 70
     8
 71
     3
 72
    10
 73
     6
 74
     0
 42
0.000000001
 43
0.00000001
 40
0.0
 40
0.0
 40
0.0
 40
0.0
 40
0.5
 40
0.5
 40
1.0
 40
1.0
 40
1.0
 40
1.0
 10
97.23768211373928
 20
167.2447230589362
 30
0.0
 10
97.05389587984865
 20
167.2447230589362
 30
0.0
 10
96.87226750983908
 20
167.1692818050869
 30
0.0
 10
96.61308259010062
 20
166.9101138064468
 30
0.0
 10
96.5376364106861
 20
166.7284972941931
 30
0.0
 10
96.53763641068605
 20
166.5447230589362
 30
0.0
  0
SPLINE
  5
E6
330
1F
100
AcDbEntity
  8
0
  6
SLD-実線
 62
     7
370
    18
100
AcDbSpline
210
0.0
220
0.0
230
1.0
 70
     8
 71
     3
 72
    10
 73
     6
 74
     0
 42
0.000000001
 43
0.00000001
 40
0.0
 40
0.0
 40
0.0
 40
0.0
 40
0.5
 40
0.5
 40
1.0
 40
1.0
 40
1.0
 40
1.0
 10
96.53763641068605
 20
166.5447230589362
 30
0.0
 10
96.53763641068609
 20
166.3609488236794
 30
0.0
 10
96.61308259010057
 20
166.1793323114257
 30
0.0
 10
96.87226750983908
 20
165.9201643127855
 30
0.0
 10
97.05389587984861
 20
165.8447230589362
 30
0.0
 10
97.23768211373928
 20
165.8447230589362
 30
0.0
  0
LINE
  5
E7
330
1F
100
AcDbEntity
  8
0
  6
SLD-実線
 62
     7
370
    18
100
AcDbLine
 10
97.2376821137
 20
165.8447230589
 30
0.0
 11
98.135829724
 21
165.8447230589
 31
0.0
  0
LINE
  5
E8
330
1F
100
AcDbEntity
  8
0
  6
SLD-実線
 62
     7
370
    18
100
AcDbLine
 10
98.135829724
 20
165.8447230589
 30
0.0
 11
98.135829724
 21
154.6871360505
 31
0.0
  0
LINE
  5
E9
330
1F
100
AcDbEntity
  8
0
  6
SLD-実線
 62
     7
370
    18
100
AcDbLine
 10
98.135829724
 20
154.6871360505
 30
0.0
 11
94.7511147493
 21
154.5097506551
 31
0.0
  0
SPLINE
  5
EA
330
1F
100
AcDbEntity
  8
0
  6
SLD-実線
 62
     7
370
    18
100
AcDbSpline
210
0.0
220
0.0
230
1.0
 70
     8
 71
     3
 72
    10
 73
     6
 74
     0
 42
0.000000001
 43
0.00000001
 40
0.0
 40
0.0
 40
0.0
 40
0.0
 40
0.4999999999999999
 40
0.4999999999999999
 40
0.9999999999999999
 40
0.9999999999999999
 40
0.9999999999999999
 40
0.9999999999999999
 10
94.75111474934647
 20
154.5097506551323
 30
0.0
 10
93.40065441658338
 20
154.4389760280824
 30
0.0
 10
92.12409353959896
 20
153.8706145071063
 30
0.0
 10
90.21163326121372
 20
151.9581542287211
 30
0.0
 10
89.64327174023762
 20
150.6815933517367
 30
0.0
 10
89.57249711318767
 20
149.3311330189736
 30
0.0
  0
LINE
  5
EB
330
1F
100
AcDbEntity
  8
0
  6
SLD-実線
 62
     7
370
    18
100
AcDbLine
 10
89.5724971132
 20
149.331133019
 30
0.0
 11
89.3951117179
 21
145.9464180444
 31
0.0
  0
LINE
  5
EC
330
1F
100
AcDbEntity
  8
0
  6
SLD-実線
 62
     7
370
    18
100
AcDbLine
 10
89.3951117179
 20
145.9464180444
 30
0.0
 11
78.2375247094
 21
145.9464180444
 31
0.0
  0
LINE
  5
ED
330
1F
100
AcDbEntity
  8
0
  6
SLD-実線
 62
     7
370
    18
100
AcDbLine
 10
78.2375247094
 20
145.9464180444
 30
0.0
 11
78.2375247094
 21
146.8446164293
 31
0.0
  0
SPLINE
  5
EE
330
1F
100
AcDbEntity
  8
0
  6
SLD-実線
 62
     7
370
    18
100
AcDbSpline
210
0.0
220
0.0
230
1.0
 70
     8
 71
     3
 72
    10
 73
     6
 74
     0
 42
0.000000001
 43
0.00000001
 40
0.0
 40
0.0
 40
0.0
 40
0.0
 40
0.5
 40
0.5
 40
1.0
 40
1.0
 40
1.0
 40
1.0
 10
78.23752470938314
 20
146.8446164293054
 30
0.0
 10
78.23752470938314
 20
147.0284026631961
 30
0.0
 10
78.1620834555338
 20
147.2100310332056
 30
0.0
 10
77.90291545689365
 20
147.4692159529441
 30
0.0
 10
77.72129894464
 20
147.5446621323586
 30
0.0
 10
77.53752470938315
 20
147.5446621323587
 30
0.0
  0
SPLINE
  5
EF
330
1F
100
AcDbEntity
  8
0
  6
SLD-実線
 62
     7
370
    18
100
AcDbSpline
210
0.0
220
0.0
230
1.0
 70
     8
 71
     3
 72
    10
 73
     6
 74
     0
 42
0.000000001
 43
0.00000001
 40
0.0
 40
0.0
 40
0.0
 40
0.0
 40
0.5
 40
0.5
 40
1.0
 40
1.0
 40
1.0
 40
1.0
 10
77.53752470938315
 20
147.5446621323587
 30
0.0
 10
77.35375047412634
 20
147.5446621323586
 30
0.0
 10
77.17213396187255
 20
147.469215952944
 30
0.0
 10
76.91296596323258
 20
147.2100310332057
 30
0.0
 10
76.83752470938316
 20
147.0284026631961
 30
0.0
 10
76.83752470938315
 20
146.8446164293054
 30
0.0
  0
LINE
  5
F0
330
1F
100
AcDbEntity
  8
0
  6
SLD-実線
 62
     7
370
    18
100
AcDbLine
 10
76.8375247094
 20
146.8446164293
 30
0.0
 11
76.8375247094
 21
145.9464180444
 31
0.0
  0
LINE
  5
F1
330
1F
100
AcDbEntity
  8
0
  6
SLD-実線
 62
     7
370
    18
100
AcDbLine
 10
76.8375247094
 20
145.9464180444
 30
0.0
 11
59.4388389327
 21
145.9464180444
 31
0.0
  0
SPLINE
  5
F2
330
1F
100
AcDbEntity
  8
0
  6
SLD-実線
 62
     7
370
    18
100
AcDbSpline
210
0.0
220
0.0
230
1.0
 70
     8
 71
     3
 72
    10
 73
     6
 74
     0
 42
0.000000001
 43
0.00000001
 40
0.0
 40
0.0
 40
0.0
 40
0.0
 40
0.5
 40
0.5
 40
1.0
 40
1.0
 40
1.0
 40
1.0
 10
59.43883893268898
 20
145.946418044351
 30
0.0
 10
59.11154428857294
 20
145.9464180443562
 30
0.0
 10
58.78451618532387
 20
146.011470721783
 30
0.0
 10
58.17992085016249
 20
146.2618799717157
 30
0.0
 10
57.90269200143527
 20
146.4470964320934
 30
0.0
 10
57.67129504198383
 20
146.6784933915368
 30
0.0
  0
SPLINE
  5
F3
330
1F
100
AcDbEntity
  8
0
  6
SLD-実線
 62
     7
370
    18
100
AcDbSpline
210
0.0
220
0.0
230
1.0
 70
     8
 71
     3
 72
    10
 73
     6
 74
     0
 42
0.000000001
 43
0.00000001
 40
0.0
 40
0.0
 40
0.0
 40
0.0
 40
0.5
 40
0.5
 40
1.0
 40
1.0
 40
1.0
 40
1.0
 10
57.67129504198383
 20
146.6784933915368
 30
0.0
 10
57.43989808254138
 20
146.9098903509884
 30
0.0
 10
57.25468162216261
 20
147.1871191997168
 30
0.0
 10
57.00427237223005
 20
147.7917145348757
 30
0.0
 10
56.93921969480368
 20
148.1187426381269
 30
0.0
 10
56.93921969479801
 20
148.446037282242
 30
0.0
  0
LINE
  5
F4
330
1F
100
AcDbEntity
  8
0
  6
SLD-実線
 62
     7
370
    18
100
AcDbLine
 10
56.9392196948
 20
148.4460372822
 30
0.0
 11
56.9392196948
 21
165.8447230589
 31
0.0
  0
LINE
  5
F5
330
1F
100
AcDbEntity
  8
0
  6
SLD-実線
 62
     7
370
    18
100
AcDbLine
 10
56.9392196948
 20
165.8447230589
 30
0.0
 11
57.8374180798
 21
165.8447230589
 31
0.0
  0
SPLINE
  5
F6
330
1F
100
AcDbEntity
  8
0
  6
SLD-実線
 62
     7
370
    18
100
AcDbSpline
210
0.0
220
0.0
230
1.0
 70
     8
 71
     3
 72
    10
 73
     6
 74
     0
 42
0.000000001
 43
0.00000001
 40
0.0
 40
0.0
 40
0.0
 40
0.0
 40
0.5
 40
0.5
 40
1.0
 40
1.0
 40
1.0
 40
1.0
 10
57.8374180797524
 20
165.8447230589362
 30
0.0
 10
58.02120431364317
 20
165.8447230589362
 30
0.0
 10
58.20283268365247
 20
165.9201643127855
 30
0.0
 10
58.4620176033912
 20
166.1793323114258
 30
0.0
 10
58.53746378280553
 20
166.3609488236793
 30
0.0
 10
58.53746378280562
 20
166.5447230589362
 30
0.0
  0
SPLINE
  5
F7
330
1F
100
AcDbEntity
  8
0
  6
SLD-実線
 62
     7
370
    18
100
AcDbSpline
210
0.0
220
0.0
230
1.0
 70
     8
 71
     3
 72
    10
 73
     6
 74
     0
 42
0.000000001
 43
0.00000001
 40
0.0
 40
0.0
 40
0.0
 40
0.0
 40
0.5
 40
0.5
 40
1.0
 40
1.0
 40
1.0
 40
1.0
 10
58.53746378280562
 20
166.5447230589362
 30
0.0
 10
58.53746378280553
 20
166.7284972941932
 30
0.0
 10
58.4620176033912
 20
166.9101138064466
 30
0.0
 10
58.20283268365247
 20
167.169281805087
 30
0.0
 10
58.02120431364314
 20
167.2447230589362
 30
0.0
 10
57.8374180797524
 20
167.2447230589362
 30
0.0
  0
LINE
  5
F8
330
1F
100
AcDbEntity
  8
0
  6
SLD-実線
 62
     7
370
    18
100
AcDbLine
 10
57.8374180798
 20
167.2447230589
 30
0.0
 11
56.9392196948
 21
167.2447230589
 31
0.0
  0
LINE
  5
F9
330
1F
100
AcDbEntity
  8
0
  6
SLD-実線
 62
     7
370
    18
100
AcDbLine
 10
56.9392196948
 20
167.2447230589
 30
0.0
 11
56.9392196948
 21
178.4023100674
 31
0.0
  0
LINE
  5
FA
330
1F
100
AcDbEntity
  8
0
  6
SLD-実線
 62
     7
370
    18
100
AcDbLine
 10
56.9392196948
 20
178.4023100674
 30
0.0
 11
60.3239346694
 21
178.5796954627
 31
0.0
  0
SPLINE
  5
FB
330
1F
100
AcDbEntity
  8
0
  6
SLD-実線
 62
     7
370
    18
100
AcDbSpline
210
0.0
220
0.0
230
1.0
 70
     8
 71
     3
 72
    10
 73
     6
 74
     0
 42
0.000000001
 43
0.00000001
 40
0.0
 40
0.0
 40
0.0
 40
0.0
 40
0.4999999999999999
 40
0.4999999999999999
 40
1.0
 40
1.0
 40
1.0
 40
1.0
 10
60.32393466942022
 20
178.5796954627404
 30
0.0
 10
61.67439500218333
 20
178.6504700897904
 30
0.0
 10
62.95095587916774
 20
179.2188316107664
 30
0.0
 10
64.86341615755296
 20
181.1312918891517
 30
0.0
 10
65.43177767852904
 20
182.4078527661361
 30
0.0
 10
65.50255230557899
 20
183.7583130988992
 30
0.0
  0
LINE
  5
FC
330
1F
100
AcDbEntity
  8
0
  6
SLD-実線
 62
     7
370
    18
100
AcDbLine
 10
65.5025523056
 20
183.7583130989
 30
0.0
 11
65.6799377009
 21
187.1430280735
 31
0.0
  0
LINE
  5
FD
330
1F
100
AcDbEntity
  8
0
  6
SLD-実線
 62
     7
370
    18
100
AcDbLine
 10
65.6799377009
 20
187.1430280735
 30
0.0
 11
76.8375247094
 21
187.1430280735
 31
0.0
  0
LINE
  5
FE
330
1F
100
AcDbEntity
  8
0
  6
SLD-実線
 62
     7
370
    18
100
AcDbLine
 10
76.8375247094
 20
187.1430280735
 30
0.0
 11
76.8375247094
 21
186.2448296886
 31
0.0
  0
SPLINE
  5
FF
330
1F
100
AcDbEntity
  8
0
  6
SLD-実線
 62
     7
370
    18
100
AcDbSpline
210
0.0
220
0.0
230
1.0
 70
     8
 71
     3
 72
    10
 73
     6
 74
     0
 42
0.000000001
 43
0.00000001
 40
0.0
 40
0.0
 40
0.0
 40
0.0
 40
0.5
 40
0.5
 40
1.0
 40
1.0
 40
1.0
 40
1.0
 10
76.83752470938315
 20
186.2448296885671
 30
0.0
 10
76.83752470938315
 20
186.0610434546765
 30
0.0
 10
76.91296596323258
 20
185.8794150846668
 30
0.0
 10
77.17213396187255
 20
185.6202301649284
 30
0.0
 10
77.35375047412634
 20
185.5447839855139
 30
0.0
 10
77.53752470938315
 20
185.5447839855138
 30
0.0
  0
SPLINE
  5
100
330
1F
100
AcDbEntity
  8
0
  6
SLD-実線
 62
     7
370
    18
100
AcDbSpline
210
0.0
220
0.0
230
1.0
 70
     8
 71
     3
 72
    10
 73
     6
 74
     0
 42
0.000000001
 43
0.00000001
 40
0.0
 40
0.0
 40
0.0
 40
0.0
 40
0.5
 40
0.5
 40
1.0
 40
1.0
 40
1.0
 40
1.0
 10
77.53752470938315
 20
185.5447839855138
 30
0.0
 10
77.72129894463991
 20
185.5447839855139
 30
0.0
 10
77.90291545689375
 20
185.6202301649284
 30
0.0
 10
78.1620834555337
 20
185.8794150846668
 30
0.0
 10
78.23752470938314
 20
186.0610434546765
 30
0.0
 10
78.23752470938314
 20
186.2448296885671
 30
0.0
  0
LINE
  5
101
330
1F
100
AcDbEntity
  8
0
  6
SLD-実線
 62
     7
370
    18
100
AcDbLine
 10
57.8374180798
 20
167.2447230589
 30
0.0
 11
57.8374180798
 21
167.0447230589
 31
0.0
  0
LINE
  5
102
330
1F
100
AcDbEntity
  8
0
  6
SLD-実線
 62
     7
370
    18
100
AcDbLine
 10
57.8374180798
 20
167.0447230589
 30
0.0
 11
56.9392196948
 21
167.0447230589
 31
0.0
  0
LINE
  5
103
330
1F
100
AcDbEntity
  8
0
  6
SLD-実線
 62
     7
370
    18
100
AcDbLine
 10
56.9392196948
 20
167.2447230589
 30
0.0
 11
56.9392196948
 21
167.0447230589
 31
0.0
  0
LINE
  5
104
330
1F
100
AcDbEntity
  8
0
  6
SLD-実線
 62
     7
370
    18
100
AcDbLine
 10
76.8375247094
 20
145.9464180444
 30
0.0
 11
77.0375247094
 21
145.9464180444
 31
0.0
  0
LINE
  5
105
330
1F
100
AcDbEntity
  8
0
  6
SLD-実線
 62
     7
370
    18
100
AcDbLine
 10
76.8375247094
 20
146.8446164293
 30
0.0
 11
77.0375247094
 21
146.8446164293
 31
0.0
  0
LINE
  5
106
330
1F
100
AcDbEntity
  8
0
  6
SLD-実線
 62
     7
370
    18
100
AcDbLine
 10
77.0375247094
 20
146.8446164293
 30
0.0
 11
77.0375247094
 21
145.9464180444
 31
0.0
  0
LINE
  5
107
330
1F
100
AcDbEntity
  8
0
  6
SLD-実線
 62
     7
370
    18
100
AcDbLine
 10
76.8375247094
 20
186.2448296886
 30
0.0
 11
77.0375247094
 21
186.2448296886
 31
0.0
  0
LINE
  5
108
330
1F
100
AcDbEntity
  8
0
  6
SLD-実線
 62
     7
370
    18
100
AcDbLine
 10
77.0375247094
 20
187.1430280735
 30
0.0
 11
76.8375247094
 21
187.1430280735
 31
0.0
  0
LINE
  5
109
330
1F
100
AcDbEntity
  8
0
  6
SLD-実線
 62
     7
370
    18
100
AcDbLine
 10
77.0375247094
 20
187.1430280735
 30
0.0
 11
77.0375247094
 21
186.2448296886
 31
0.0
  0
LINE
  5
10A
330
1F
100
AcDbEntity
  8
0
  6
SLD-実線
 62
     7
370
    18
100
AcDbLine
 10
78.2375247094
 20
187.1430280735
 30
0.0
 11
78.0375247094
 21
187.1430280735
 31
0.0
  0
LINE
  5
10B
330
1F
100
AcDbEntity
  8
0
  6
SLD-実線
 62
     7
370
    18
100
AcDbLine
 10
78.2375247094
 20
186.2448296886
 30
0.0
 11
78.0375247094
 21
186.2448296886
 31
0.0
  0
LINE
  5
10C
330
1F
100
AcDbEntity
  8
0
  6
SLD-実線
 62
     7
370
    18
100
AcDbLine
 10
78.0375247094
 20
186.2448296886
 30
0.0
 11
78.0375247094
 21
187.1430280735
 31
0.0
  0
LINE
  5
10D
330
1F
100
AcDbEntity
  8
0
  6
SLD-実線
 62
     7
370
    18
100
AcDbLine
 10
78.2375247094
 20
146.8446164293
 30
0.0
 11
78.0375247094
 21
146.8446164293
 31
0.0
  0
LINE
  5
10E
330
1F
100
AcDbEntity
  8
0
  6
SLD-実線
 62
     7
370
    18
100
AcDbLine
 10
78.0375247094
 20
145.9464180444
 30
0.0
 11
78.2375247094
 21
145.9464180444
 31
0.0
  0
LINE
  5
10F
330
1F
100
AcDbEntity
  8
0
  6
SLD-実線
 62
     7
370
    18
100
AcDbLine
 10
78.0375247094
 20
145.9464180444
 30
0.0
 11
78.0375247094
 21
146.8446164293
 31
0.0
  0
LINE
  5
110
330
1F
100
AcDbEntity
  8
0
  6
SLD-実線
 62
     7
370
    18
100
AcDbLine
 10
97.2376821137
 20
165.8447230589
 30
0.0
 11
97.2376821137
 21
166.0447230589
 31
0.0
  0
LINE
  5
111
330
1F
100
AcDbEntity
  8
0
  6
SLD-実線
 62
     7
370
    18
100
AcDbLine
 10
97.2376821137
 20
166.0447230589
 30
0.0
 11
98.1358804987
 21
166.0447230589
 31
0.0
  0
LINE
  5
112
330
1F
100
AcDbEntity
  8
0
  6
SLD-実線
 62
     7
370
    18
100
AcDbLine
 10
98.1358804987
 20
165.8447230654
 30
0.0
 11
98.1358804987
 21
166.0447230589
 31
0.0
  0
LINE
  5
113
330
1F
100
AcDbEntity
  8
0
  6
SLD-実線
 62
     7
370
    18
100
AcDbLine
 10
56.9392196948
 20
166.0447230589
 30
0.0
 11
56.9392196948
 21
165.8447230589
 31
0.0
  0
LINE
  5
114
330
1F
100
AcDbEntity
  8
0
  6
SLD-実線
 62
     7
370
    18
100
AcDbLine
 10
56.9392196948
 20
166.0447230589
 30
0.0
 11
57.8374180798
 21
166.0447230589
 31
0.0
  0
LINE
  5
115
330
1F
100
AcDbEntity
  8
0
  6
SLD-実線
 62
     7
370
    18
100
AcDbLine
 10
57.8374180798
 20
165.8447230589
 30
0.0
 11
57.8374180798
 21
166.0447230589
 31
0.0
  0
LINE
  5
116
330
1F
100
AcDbEntity
  8
0
  6
SLD-実線
 62
     7
370
    18
100
AcDbLine
 10
98.1358804987
 20
167.0447230589
 30
0.0
 11
98.1358804987
 21
167.2447230589
 31
0.0
  0
LINE
  5
117
330
1F
100
AcDbEntity
  8
0
  6
SLD-実線
 62
     7
370
    18
100
AcDbLine
 10
98.1358804987
 20
167.0447230589
 30
0.0
 11
97.2376821137
 21
167.0447230589
 31
0.0
  0
LINE
  5
118
330
1F
100
AcDbEntity
  8
0
  6
SLD-実線
 62
     7
370
    18
100
AcDbLine
 10
97.2376821137
 20
167.2447230589
 30
0.0
 11
97.2376821137
 21
167.0447230589
 31
0.0
  0
LINE
  5
119
330
1F
100
AcDbEntity
  8
0
  6
SLD-実線
 62
     7
370
    18
100
AcDbLine
 10
77.5375247094
 20
185.5447839855
 30
0.0
 11
77.5375247094
 21
185.7447535245
 31
0.0
  0
SPLINE
  5
11A
330
1F
100
AcDbEntity
  8
0
  6
SLD-実線
 62
     7
370
    18
100
AcDbSpline
210
0.0
220
0.0
230
1.0
 70
     8
 71
     3
 72
    16
 73
    12
 74
     0
 42
0.000000001
 43
0.00000001
 40
0.0
 40
0.0
 40
0.0
 40
0.0
 40
0.080763739871993
 40
0.1604037029070763
 40
0.2401161380838641
 40
0.3686076909843531
 40
0.5000906780877306
 40
0.6285759607418344
 40
0.7600525191643951
 40
0.8779722524383478
 40
1.0
 40
1.0
 40
1.0
 40
1.0
 10
77.03752470938313
 20
186.2448296885671
 30
0.0
 10
77.03839815899632
 20
186.2237067073635
 30
0.0
 10
77.04013290471856
 20
186.181754658005
 30
0.0
 10
77.05232759569303
 20
186.1199324880652
 30
0.0
 10
77.07525234229392
 20
186.0481126287451
 30
0.0
 10
77.11636532867075
 20
185.9685977535507
 30
0.0
 10
77.18100962772213
 20
185.8893953668145
 30
0.0
 10
77.26064798162311
 20
185.8239370816413
 30
0.0
 10
77.34903177605248
 20
185.7784629897747
 30
0.0
 10
77.44273617889529
 20
185.7500199021564
 30
0.0
 10
77.50556995125969
 20
185.7465289062489
 30
0.0
 10
77.53752470938315
 20
185.7447535245451
 30
0.0
  0
LINE
  5
11B
330
1F
100
AcDbEntity
  8
0
  6
SLD-実線
 62
     7
370
    18
100
AcDbLine
 10
77.5375247094
 20
147.5446621324
 30
0.0
 11
77.5375247094
 21
147.3446925933
 31
0.0
  0
SPLINE
  5
11C
330
1F
100
AcDbEntity
  8
0
  6
SLD-実線
 62
     7
370
    18
100
AcDbSpline
210
0.0
220
0.0
230
1.0
 70
     8
 71
     3
 72
    16
 73
    12
 74
     0
 42
0.000000001
 43
0.00000001
 40
0.0
 40
0.0
 40
0.0
 40
0.0
 40
0.0807637398721272
 40
0.1604037029072112
 40
0.2401161380838653
 40
0.3686076909846114
 40
0.5000906780877362
 40
0.6285759607422321
 40
0.7600525191644217
 40
0.8779722524386576
 40
1.0
 40
1.0
 40
1.0
 40
1.0
 10
78.03752470938315
 20
146.8446164293054
 30
0.0
 10
78.03665125976997
 20
146.865739410509
 30
0.0
 10
78.03491651404772
 20
146.9076914598676
 30
0.0
 10
78.02272182307327
 20
146.9695136298074
 30
0.0
 10
77.99979707647229
 20
147.0413334891274
 30
0.0
 10
77.95868409009546
 20
147.1208483643219
 30
0.0
 10
77.89403979104402
 20
147.2000507510581
 30
0.0
 10
77.81440143714312
 20
147.2655090362314
 30
0.0
 10
77.72601764271361
 20
147.3109831280979
 30
0.0
 10
77.63231323987091
 20
147.3394262157161
 30
0.0
 10
77.5694794675065
 20
147.3429172116236
 30
0.0
 10
77.53752470938313
 20
147.3446925933274
 30
0.0
  0
SPLINE
  5
11D
330
1F
100
AcDbEntity
  8
0
  6
SLD-実線
 62
     7
370
    18
100
AcDbSpline
210
0.0
220
0.0
230
1.0
 70
     8
 71
     3
 72
    16
 73
    12
 74
     0
 42
0.000000001
 43
0.00000001
 40
0.0
 40
0.0
 40
0.0
 40
0.0
 40
0.0807515450406692
 40
0.1603802254965704
 40
0.2400827958879123
 40
0.3685630178342508
 40
0.5000419277463157
 40
0.6285310846048942
 40
0.760019148263366
 40
0.8779540128461683
 40
1.0
 40
1.0
 40
1.0
 40
1.0
 10
77.53752470938313
 20
147.3446925933274
 30
0.0
 10
77.5164049117393
 20
147.3438190051289
 30
0.0
 10
77.47445899099124
 20
147.342083976131
 30
0.0
 10
77.412645986077
 20
147.3298873166726
 30
0.0
 10
77.34083620656398
 20
147.3069587051854
 30
0.0
 10
77.26133233902394
 20
147.2658383470858
 30
0.0
 10
77.18214228443703
 20
147.2011835858611
 30
0.0
 10
77.11669458419414
 20
147.1215328244774
 30
0.0
 10
77.07122832062133
 20
147.03313617703
 30
0.0
 10
77.04279015662706
 20
146.9394183973242
 30
0.0
 10
77.03929978967459
 20
146.8765759376293
 30
0.0
 10
77.03752470938315
 20
146.8446164293054
 30
0.0
  0
SPLINE
  5
11E
330
1F
100
AcDbEntity
  8
0
  6
SLD-実線
 62
     7
370
    18
100
AcDbSpline
210
0.0
220
0.0
230
1.0
 70
     8
 71
     3
 72
    16
 73
    12
 74
     0
 42
0.000000001
 43
0.00000001
 40
0.0
 40
0.0
 40
0.0
 40
0.0
 40
0.0807515450408553
 40
0.1603802254967515
 40
0.2400827958879056
 40
0.3685630178343653
 40
0.5000419277463085
 40
0.6285310846050349
 40
0.7600191482633611
 40
0.8779540128464046
 40
1.0
 40
1.0
 40
1.0
 40
1.0
 10
77.53752470938315
 20
185.7447535245451
 30
0.0
 10
77.55864450702703
 20
185.7456271127436
 30
0.0
 10
77.60059042777513
 20
185.7473621417415
 30
0.0
 10
77.66240343268937
 20
185.7595588011999
 30
0.0
 10
77.73421321220236
 20
185.7824874126871
 30
0.0
 10
77.81371707974233
 20
185.8236077707868
 30
0.0
 10
77.89290713432928
 20
185.8882625320114
 30
0.0
 10
77.95835483457222
 20
185.9679132933951
 30
0.0
 10
78.00382109814498
 20
186.0563099408426
 30
0.0
 10
78.03225926213918
 20
186.1500277205483
 30
0.0
 10
78.03574962909168
 20
186.2128701802433
 30
0.0
 10
78.03752470938315
 20
186.2448296885671
 30
0.0
  0
LINE
  5
11F
330
1F
100
AcDbEntity
  8
0
  6
SLD-実線
 62
     7
370
    18
100
AcDbLine
 10
58.5374637828
 20
166.5447230589
 30
0.0
 11
58.3374942438
 21
166.5447230589
 31
0.0
  0
SPLINE
  5
120
330
1F
100
AcDbEntity
  8
0
  6
SLD-実線
 62
     7
370
    18
100
AcDbSpline
210
0.0
220
0.0
230
1.0
 70
     8
 71
     3
 72
    16
 73
    12
 74
     0
 42
0.000000001
 43
0.00000001
 40
0.0
 40
0.0
 40
0.0
 40
0.0
 40
0.0807515450407075
 40
0.1603802254966026
 40
0.2400827958879056
 40
0.3685630178340983
 40
0.500041927746301
 40
0.6285310846052917
 40
0.7600191482633817
 40
0.8779540128467748
 40
1.0
 40
1.0
 40
1.0
 40
1.0
 10
58.33749424377434
 20
166.5447230589362
 30
0.0
 10
58.33662065557583
 20
166.56584285658
 30
0.0
 10
58.33488562657794
 20
166.6077887773281
 30
0.0
 10
58.32268896711957
 20
166.6696017822424
 30
0.0
 10
58.29976035563238
 20
166.7414115617553
 30
0.0
 10
58.25863999753273
 20
166.8209154292954
 30
0.0
 10
58.19398523630804
 20
166.9001054838824
 30
0.0
 10
58.11433447492437
 20
166.9655531841254
 30
0.0
 10
58.0259378274767
 20
167.0110194476981
 30
0.0
 10
57.93222004777099
 20
167.0394576116922
 30
0.0
 10
57.86937758807608
 20
167.0429479786447
 30
0.0
 10
57.8374180797524
 20
167.0447230589362
 30
0.0
  0
SPLINE
  5
121
330
1F
100
AcDbEntity
  8
0
  6
SLD-実線
 62
     7
370
    18
100
AcDbSpline
210
0.0
220
0.0
230
1.0
 70
     8
 71
     3
 72
    16
 73
    12
 74
     0
 42
0.000000001
 43
0.00000001
 40
0.0
 40
0.0
 40
0.0
 40
0.0
 40
0.0807637398720114
 40
0.1604037029070954
 40
0.2401161380838585
 40
0.3686076909843032
 40
0.5000906780877331
 40
0.6285759607420552
 40
0.7600525191644114
 40
0.8779722524386552
 40
1.0
 40
1.0
 40
1.0
 40
1.0
 10
57.8374180797524
 20
166.0447230589362
 30
0.0
 10
57.85854106095597
 20
166.0455965085494
 30
0.0
 10
57.90049311031449
 20
166.0473312542717
 30
0.0
 10
57.96231528025433
 20
166.0595259452461
 30
0.0
 10
58.0341351395743
 20
166.082450691847
 30
0.0
 10
58.11365001476875
 20
166.1235636782238
 30
0.0
 10
58.19285240150493
 20
166.1882079772752
 30
0.0
 10
58.2583106866783
 20
166.2678463311762
 30
0.0
 10
58.30378477854482
 20
166.3562301256057
 30
0.0
 10
58.33222786616304
 20
166.4499345284484
 30
0.0
 10
58.33571886207057
 20
166.5127683008129
 30
0.0
 10
58.33749424377434
 20
166.5447230589362
 30
0.0
  0
SPLINE
  5
122
330
1F
100
AcDbEntity
  8
0
  6
SLD-実線
 62
     7
370
    18
100
AcDbSpline
210
0.0
220
0.0
230
1.0
 70
     8
 71
     3
 72
    16
 73
    12
 74
     0
 42
0.000000001
 43
0.00000001
 40
0.0
 40
0.0
 40
0.0
 40
0.0
 40
0.0807637398720504
 40
0.1604037029071379
 40
0.2401161380838651
 40
0.3686076909844231
 40
0.5000906780877311
 40
0.6285759607418923
 40
0.7600525191644067
 40
0.8779722524383922
 40
1.0
 40
1.0
 40
1.0
 40
1.0
 10
97.23768211373928
 20
167.0447230589362
 30
0.0
 10
97.2165591325357
 20
167.043849609323
 30
0.0
 10
97.17460708317715
 20
167.0421148636008
 30
0.0
 10
97.11278491323735
 20
167.0299201726264
 30
0.0
 10
97.04096505391733
 20
167.0069954260254
 30
0.0
 10
96.9614501787229
 20
166.9658824396486
 30
0.0
 10
96.88224779198676
 20
166.9012381405972
 30
0.0
 10
96.81678950681349
 20
166.8215997866963
 30
0.0
 10
96.77131541494688
 20
166.7332159922668
 30
0.0
 10
96.7428723273286
 20
166.6395115894241
 30
0.0
 10
96.7393813314211
 20
166.5766778170596
 30
0.0
 10
96.73760594971733
 20
166.5447230589362
 30
0.0
  0
LINE
  5
123
330
1F
100
AcDbEntity
  8
0
  6
SLD-実線
 62
     7
370
    18
100
AcDbLine
 10
96.5376364107
 20
166.5447230589
 30
0.0
 11
96.7376059497
 21
166.5447230589
 31
0.0
  0
SPLINE
  5
124
330
1F
100
AcDbEntity
  8
0
  6
SLD-実線
 62
     7
370
    18
100
AcDbSpline
210
0.0
220
0.0
230
1.0
 70
     8
 71
     3
 72
    16
 73
    12
 74
     0
 42
0.000000001
 43
0.00000001
 40
0.0
 40
0.0
 40
0.0
 40
0.0
 40
0.0807515450406055
 40
0.1603802254965047
 40
0.2400827958878987
 40
0.3685630178341159
 40
0.5000419277463118
 40
0.6285310846051818
 40
0.7600191482633659
 40
0.877954012846524
 40
1.0
 40
1.0
 40
1.0
 40
1.0
 10
96.73760594971733
 20
166.5447230589362
 30
0.0
 10
96.73847953791584
 20
166.5236032612924
 30
0.0
 10
96.74021456691372
 20
166.4816573405444
 30
0.0
 10
96.75241122637212
 20
166.4198443356302
 30
0.0
 10
96.77533983785925
 20
166.3480345561171
 30
0.0
 10
96.81646019595892
 20
166.268530688577
 30
0.0
 10
96.88111495718361
 20
166.1893406339901
 30
0.0
 10
96.96076571856734
 20
166.1238929337471
 30
0.0
 10
97.0491623660149
 20
166.0784266701744
 30
0.0
 10
97.14288014572061
 20
166.0499885061802
 30
0.0
 10
97.20572260541552
 20
166.0464981392277
 30
0.0
 10
97.23768211373928
 20
166.0447230589362
 30
0.0
  0
SPLINE
  5
125
330
1F
100
AcDbEntity
  8
0
  6
SLD-実線
 62
     7
370
    18
100
AcDbSpline
210
0.0
220
0.0
230
1.0
 70
     8
 71
     3
 72
    24
 73
    20
 74
     0
 42
0.000000001
 43
0.00000001
 40
0.0
 40
0.0
 40
0.0
 40
0.0
 40
0.0538950619037164
 40
0.105571071449523
 40
0.1550272202002624
 40
0.2022629458051928
 40
0.2472779003534915
 40
0.2900719207554622
 40
0.3306450012201038
 40
0.3689972679235563
 40
0.405128956001833
 40
0.4390403890610954
 40
0.4707319614921439
 40
0.5002041240260905
 40
0.6046598703401797
 40
0.7068577315991071
 40
0.8068066382350543
 40
0.9045169589686265
 40
1.0
 40
1.0
 40
1.0
 40
1.0
 10
56.93921969479801
 20
178.4023100674144
 30
0.0
 10
56.93703723277338
 20
178.4440991685649
 30
0.0
 10
56.93276216848736
 20
178.5259567641875
 30
0.0
 10
56.92658902115181
 20
178.6453371098868
 30
0.0
 10
56.92076375566109
 20
178.7581123681498
 30
0.0
 10
56.91529302159521
 20
178.8638543134752
 30
0.0
 10
56.91017514611215
 20
178.9623039281928
 30
0.0
 10
56.90541051378541
 20
179.0533500516403
 30
0.0
 10
56.90099892655499
 20
179.1370080049647
 30
0.0
 10
56.89694042226442
 20
179.2133987576478
 30
0.0
 10
56.89323453108104
 20
179.2827295570347
 30
0.0
 10
56.88988230306676
 20
179.3452742965573
 30
0.0
 10
56.88687955077226
 20
179.4013606603059
 30
0.0
 10
56.88193442357733
 20
179.4949819769275
 30
0.0
 10
56.87569412364894
 20
179.6152730278016
 30
0.0
 10
56.8691711789709
 20
179.7406249614898
 30
0.0
 10
56.86449047041432
 20
179.8299639193216
 30
0.0
 10
56.86146714294966
 20
179.8864935055492
 30
0.0
 10
56.86097229061415
 20
179.8955501226172
 30
0.0
 10
56.86072771696304
 20
179.9000262253736
 30
0.0
  0
LINE
  5
126
330
1F
100
AcDbEntity
  8
0
  6
SLD-実線
 62
     7
370
    18
100
AcDbLine
 10
60.2454426916
 20
180.0774116207
 30
0.0
 11
56.860727717
 21
179.9000262254
 31
0.0
  0
LINE
  5
127
330
1F
100
AcDbEntity
  8
0
  6
SLD-実線
 62
     7
370
    18
100
AcDbLine
 10
60.2454426916
 20
180.0774116207
 30
0.0
 11
60.3239346694
 21
178.5796954627
 31
0.0
  0
LINE
  5
128
330
1F
100
AcDbEntity
  8
0
  6
SLD-実線
 62
     7
370
    18
100
AcDbLine
 10
64.1822215429
 20
187.2215200514
 30
0.0
 11
64.0048361476
 21
183.8368050767
 31
0.0
  0
SPLINE
  5
129
330
1F
100
AcDbEntity
  8
0
  6
SLD-実線
 62
     7
370
    18
100
AcDbSpline
210
0.0
220
0.0
230
1.0
 70
     8
 71
     3
 72
    17
 73
    13
 74
     0
 42
0.000000001
 43
0.00000001
 40
0.0
 40
0.0
 40
0.0
 40
0.0
 40
0.0242985660362737
 40
0.0574854405833882
 40
0.1168451996790279
 40
0.2403839653712893
 40
0.3482140561246846
 40
0.5001133211548341
 40
0.6286204411080787
 40
0.7955946128060062
 40
0.8798693059589826
 40
1.0
 40
1.0
 40
1.0
 40
1.0
 10
64.18222154294584
 20
187.2215200513564
 30
0.0
 10
64.18277815159702
 20
187.221841534081
 30
0.0
 10
64.18409497389423
 20
187.2226020964959
 30
0.0
 10
64.19151799742531
 20
187.2203667451865
 30
0.0
 10
64.2169050739291
 20
187.2202070680754
 30
0.0
 10
64.28276985164428
 20
187.2159617275431
 30
0.0
 10
64.418859014423
 20
187.20971070909
 30
0.0
 10
64.60888279248711
 20
187.1989586666816
 30
0.0
 10
64.88049791222214
 20
187.185162540178
 30
0.0
 10
65.1490775162945
 20
187.1707820953941
 30
0.0
 10
65.42818772385303
 20
187.156303461163
 30
0.0
 10
65.58674960498368
 20
187.1479421081181
 30
0.0
 10
65.67993770090503
 20
187.1430280735215
 30
0.0
  0
LINE
  5
12A
330
1F
100
AcDbEntity
  8
0
  6
SLD-実線
 62
     7
370
    18
100
AcDbLine
 10
64.0048361476
 20
183.8368050767
 30
0.0
 11
65.5025523056
 21
183.7583130989
 31
0.0
  0
LINE
  5
12B
330
1F
100
AcDbEntity
  8
0
  6
SLD-実線
 62
     7
370
    18
100
AcDbLine
 10
91.0702132711
 20
149.2526410411
 30
0.0
 11
89.5724971132
 21
149.331133019
 31
0.0
  0
LINE
  5
12C
330
1F
100
AcDbEntity
  8
0
  6
SLD-実線
 62
     7
370
    18
100
AcDbLine
 10
90.8928278758
 20
145.8679260665
 30
0.0
 11
91.0702132711
 21
149.2526410411
 31
0.0
  0
SPLINE
  5
12D
330
1F
100
AcDbEntity
  8
0
  6
SLD-実線
 62
     7
370
    18
100
AcDbSpline
210
0.0
220
0.0
230
1.0
 70
     8
 71
     3
 72
    17
 73
    13
 74
     0
 42
0.000000001
 43
0.00000001
 40
0.0
 40
0.0
 40
0.0
 40
0.0
 40
0.024298566036608
 40
0.057485440583219
 40
0.1168451996786946
 40
0.2403839653706035
 40
0.3482140561033185
 40
0.5001133211533594
 40
0.6286204410430212
 40
0.7955946128034801
 40
0.8798693073570719
 40
1.0
 40
1.0
 40
1.0
 40
1.0
 10
90.89282787582084
 20
145.8679260665161
 30
0.0
 10
90.89227126716965
 20
145.8676045837917
 30
0.0
 10
90.89095444487246
 20
145.8668440213775
 30
0.0
 10
90.88353142134127
 20
145.8690793726855
 30
0.0
 10
90.85814434483756
 20
145.8692390497968
 30
0.0
 10
90.79227956712727
 20
145.8734843903344
 30
0.0
 10
90.65619040435173
 20
145.8797354087625
 30
0.0
 10
90.46616662632292
 20
145.890487451188
 30
0.0
 10
90.19455150658798
 20
145.9042835777103
 30
0.0
 10
89.92597190153334
 20
145.9186640225186
 30
0.0
 10
89.64686169381912
 20
145.9331426567823
 30
0.0
 10
89.48829981269404
 20
145.9415040098174
 30
0.0
 10
89.39511171786164
 20
145.946418044351
 30
0.0
  0
SPLINE
  5
12E
330
1F
100
AcDbEntity
  8
0
  6
SLD-実線
 62
     7
370
    18
100
AcDbSpline
210
0.0
220
0.0
230
1.0
 70
     8
 71
     3
 72
    24
 73
    20
 74
     0
 42
0.000000001
 43
0.00000001
 40
0.0
 40
0.0
 40
0.0
 40
0.0
 40
0.0538950620191047
 40
0.1055710716593215
 40
0.1550272204834854
 40
0.2022629461408532
 40
0.2472779007206028
 40
0.2900719211330383
 40
0.330645001587167
 40
0.3689972682591327
 40
0.4051289562849596
 40
0.4390403892708131
 40
0.4707319616075049
 40
0.5002041240261512
 40
0.6046598707872994
 40
0.7068577322698083
 40
0.8068066389058007
 40
0.9045169594158218
 40
1.0
 40
1.0
 40
1.0
 40
1.0
 10
98.13582972396831
 20
154.6871360504583
 30
0.0
 10
98.13801218600027
 20
154.6453469492184
 30
0.0
 10
98.14228725029997
 20
154.5634893534333
 30
0.0
 10
98.1484603976533
 20
154.4441090075196
 30
0.0
 10
98.15428566315789
 20
154.3313337490981
 30
0.0
 10
98.15975639723368
 20
154.2255918036698
 30
0.0
 10
98.16487427272274
 20
154.1271421889031
 30
0.0
 10
98.16963890505151
 20
154.0360960654568
 30
0.0
 10
98.17405049228002
 20
153.9524381121794
 30
0.0
 10
98.17810899656473
 20
153.8760473595843
 30
0.0
 10
98.18181488773838
 20
153.8067165603209
 30
0.0
 10
98.18516711573885
 20
153.7441718209518
 30
0.0
 10
98.18816986801609
 20
153.688085457382
 30
0.0
 10
98.19311499519489
 20
153.5944641406333
 30
0.0
 10
98.1993552951097
 20
153.4741730895178
 30
0.0
 10
98.20587823979108
 20
153.3488211557306
 30
0.0
 10
98.21055894834888
 20
153.2594821981231
 30
0.0
 10
98.2135822758157
 20
153.202952612227
 30
0.0
 10
98.21407712815206
 20
153.1938959952199
 30
0.0
 10
98.21432170180327
 20
153.1894198924991
 30
0.0
  0
LINE
  5
12F
330
1F
100
AcDbEntity
  8
0
  6
SLD-実線
 62
     7
370
    18
100
AcDbLine
 10
94.8296067272
 20
153.0120344972
 30
0.0
 11
98.2143217018
 21
153.1894198925
 31
0.0
  0
LINE
  5
130
330
1F
100
AcDbEntity
  8
0
  6
SLD-実線
 62
     7
370
    18
100
AcDbLine
 10
94.8296067272
 20
153.0120344972
 30
0.0
 11
94.7511147493
 21
154.5097506551
 31
0.0
  0
LINE
  5
131
330
1F
100
AcDbEntity
  8
0
  6
SLD-実線
 62
     7
370
    18
100
AcDbLine
 10
76.8375247094
 20
144.4466465016
 30
0.0
 11
76.8375247094
 21
145.9464180444
 31
0.0
  0
LINE
  5
132
330
1F
100
AcDbEntity
  8
0
  6
SLD-実線
 62
     7
370
    18
100
AcDbLine
 10
76.8375247094
 20
144.4466465016
 30
0.0
 11
59.4388389327
 21
144.4466465016
 31
0.0
  0
LINE
  5
133
330
1F
100
AcDbEntity
  8
0
  6
SLD-実線
 62
     7
370
    18
100
AcDbLine
 10
59.4388389327
 20
144.4466465016
 30
0.0
 11
59.4388389327
 21
145.9464180444
 31
0.0
  0
LINE
  5
134
330
1F
100
AcDbEntity
  8
0
  6
SLD-実線
 62
     7
370
    18
100
AcDbLine
 10
78.2375247094
 20
188.6427996163
 30
0.0
 11
78.2375247094
 21
187.1430280735
 31
0.0
  0
LINE
  5
135
330
1F
100
AcDbEntity
  8
0
  6
SLD-実線
 62
     7
370
    18
100
AcDbLine
 10
78.2375247094
 20
188.6427996163
 30
0.0
 11
95.6362104861
 21
188.6427996163
 31
0.0
  0
LINE
  5
136
330
1F
100
AcDbEntity
  8
0
  6
SLD-実線
 62
     7
370
    18
100
AcDbLine
 10
95.6362104861
 20
188.6427996163
 30
0.0
 11
95.6362104861
 21
187.1430280735
 31
0.0
  0
LINE
  5
137
330
1F
100
AcDbEntity
  8
0
  6
SLD-実線
 62
     7
370
    18
100
AcDbLine
 10
56.9392196948
 20
165.8447230589
 30
0.0
 11
55.4394481521
 21
165.8447230589
 31
0.0
  0
LINE
  5
138
330
1F
100
AcDbEntity
  8
0
  6
SLD-実線
 62
     7
370
    18
100
AcDbLine
 10
55.4394481521
 20
148.4460372822
 30
0.0
 11
56.9392196948
 21
148.4460372822
 31
0.0
  0
LINE
  5
139
330
1F
100
AcDbEntity
  8
0
  6
SLD-実線
 62
     7
370
    18
100
AcDbLine
 10
55.4394481521
 20
148.4460372822
 30
0.0
 11
55.4394481521
 21
165.8447230589
 31
0.0
  0
SPLINE
  5
13A
330
1F
100
AcDbEntity
  8
0
  6
SLD-実線
 62
     7
370
    18
100
AcDbSpline
210
0.0
220
0.0
230
1.0
 70
    24
 71
     3
 72
    14
 73
    10
 74
     0
 42
0.000000001
 43
0.00000001
 40
0.0
 40
0.0
 40
0.0
 40
0.0
 40
0.25
 40
0.25
 40
0.5
 40
0.5
 40
0.75
 40
0.75
 40
1.0
 40
1.0
 40
1.0
 40
1.0
 10
98.13588049869368
 20
167.2447230589362
 30
0.0
 10
98.33004414663965
 20
167.2447230589362
 30
0.0
 10
98.52413344120941
 20
167.2447230589362
 30
0.0
 10
98.88354234951571
 20
167.2447230589362
 30
0.0
 10
99.04872672197831
 20
167.2447230589362
 30
0.0
 10
99.32569673365235
 20
167.2447230589362
 30
0.0
 10
99.43737815236075
 20
167.2447230589362
 30
0.0
 10
99.59066494742933
 20
167.2447230589362
 30
0.0
 10
99.63221264380168
 20
167.2447230589362
 30
0.0
 10
99.6356012667029
 20
167.2447230589362
 30
0.0
  0
LINE
  5
13B
330
1F
100
AcDbEntity
  8
0
  6
SLD-実線
 62
     7
370
    18
100
AcDbLine
 10
99.6356012667
 20
184.6434088356
 30
0.0
 11
98.135829724
 21
184.6434088356
 31
0.0
  0
LINE
  5
13C
330
1F
100
AcDbEntity
  8
0
  6
SLD-実線
 62
     7
370
    18
100
AcDbLine
 10
99.6356012667
 20
184.6434088356
 30
0.0
 11
99.6356012667
 21
167.2447230589
 31
0.0
  0
LINE
  5
13D
330
1F
100
AcDbEntity
  8
0
  6
SLD-実線
 62
     7
370
    18
100
AcDbLine
 10
98.1358804987
 20
166.0447230589
 30
0.0
 11
99.4356825024
 21
166.0447230589
 31
0.0
  0
ARC
  5
13E
330
1F
100
AcDbEntity
  8
0
  6
SLD-実線
 62
     7
370
    18
100
AcDbCircle
 10
99.6356672821
 20
166.0447078348
 30
0.0
 40
0.1999847803126371
100
AcDbArc
 50
179.9956382732
 51
269.9810865336
  0
SPLINE
  5
13F
330
1F
100
AcDbEntity
  8
0
  6
SLD-実線
 62
     7
370
    18
100
AcDbSpline
210
0.0
220
0.0
230
1.0
 70
    24
 71
     3
 72
    14
 73
    10
 74
     0
 42
0.000000001
 43
0.00000001
 40
0.0
 40
0.0
 40
0.0
 40
0.0
 40
0.25
 40
0.25
 40
0.5
 40
0.5
 40
0.75
 40
0.75
 40
1.0
 40
1.0
 40
1.0
 40
1.0
 10
99.63560126670295
 20
165.8447230653794
 30
0.0
 10
99.63221264380168
 20
165.8447230653794
 30
0.0
 10
99.59066494742933
 20
165.8447230653794
 30
0.0
 10
99.43737815236075
 20
165.8447230653794
 30
0.0
 10
99.32569673365235
 20
165.8447230653794
 30
0.0
 10
99.04872672197831
 20
165.8447230653794
 30
0.0
 10
98.88354234951572
 20
165.8447230653794
 30
0.0
 10
98.52413344120941
 20
165.8447230653794
 30
0.0
 10
98.33004414663964
 20
165.8447230653794
 30
0.0
 10
98.13588049869362
 20
165.8447230653794
 30
0.0
  0
ARC
  5
140
330
1F
100
AcDbEntity
  8
0
  6
SLD-実線
 62
     7
370
    18
100
AcDbCircle
 10
99.6356672821
 20
167.0447382831
 30
0.0
 40
0.1999847803125061
100
AcDbArc
 50
90.0189090356
 51
180.0043617254
  0
LINE
  5
141
330
1F
100
AcDbEntity
  8
0
  6
SLD-実線
 62
     7
370
    18
100
AcDbLine
 10
99.4356825024
 20
167.0447230589
 30
0.0
 11
98.1358804987
 21
167.0447230589
 31
0.0
  0
LINE
  5
142
330
1F
100
AcDbEntity
  8
0
  6
SLD-実線
 62
     7
370
    18
100
AcDbLine
 10
55.4394481521
 20
167.2447230589
 30
0.0
 11
56.9392196948
 21
167.2447230589
 31
0.0
  0
LINE
  5
143
330
1F
100
AcDbEntity
  8
0
  6
SLD-実線
 62
     7
370
    18
100
AcDbLine
 10
55.4394481521
 20
167.2447230589
 30
0.0
 11
55.4394481521
 21
178.4023100674
 31
0.0
  0
LINE
  5
144
330
1F
100
AcDbEntity
  8
0
  6
SLD-実線
 62
     7
370
    18
100
AcDbLine
 10
56.9392196948
 20
178.4023100674
 30
0.0
 11
55.4394481521
 21
178.4023100674
 31
0.0
  0
LINE
  5
145
330
1F
100
AcDbEntity
  8
0
  6
SLD-実線
 62
     7
370
    18
100
AcDbLine
 10
98.135829724
 20
154.6871360505
 30
0.0
 11
99.6356012667
 21
154.6871360505
 31
0.0
  0
LINE
  5
146
330
1F
100
AcDbEntity
  8
0
  6
SLD-実線
 62
     7
370
    18
100
AcDbLine
 10
99.6356012667
 20
165.8447230654
 30
0.0
 11
99.6356012667
 21
154.6871360505
 31
0.0
  0
LINE
  5
147
330
1F
100
AcDbEntity
  8
0
  6
SLD-実線
 62
     7
370
    18
100
AcDbLine
 10
89.3951117179
 20
144.4466465016
 30
0.0
 11
78.2375247094
 21
144.4466465016
 31
0.0
  0
LINE
  5
148
330
1F
100
AcDbEntity
  8
0
  6
SLD-実線
 62
     7
370
    18
100
AcDbLine
 10
78.2375247094
 20
145.9464180444
 30
0.0
 11
78.2375247094
 21
144.4466465016
 31
0.0
  0
LINE
  5
149
330
1F
100
AcDbEntity
  8
0
  6
SLD-実線
 62
     7
370
    18
100
AcDbLine
 10
89.3951117179
 20
144.4466465016
 30
0.0
 11
89.3951117179
 21
145.9464180444
 31
0.0
  0
LINE
  5
14A
330
1F
100
AcDbEntity
  8
0
  6
SLD-実線
 62
     7
370
    18
100
AcDbLine
 10
65.6799377009
 20
188.6427996163
 30
0.0
 11
76.8375247094
 21
188.6427996163
 31
0.0
  0
LINE
  5
14B
330
1F
100
AcDbEntity
  8
0
  6
SLD-実線
 62
     7
370
    18
100
AcDbLine
 10
76.8375247094
 20
187.1430280735
 30
0.0
 11
76.8375247094
 21
188.6427996163
 31
0.0
  0
LINE
  5
14C
330
1F
100
AcDbEntity
  8
0
  6
SLD-実線
 62
     7
370
    18
100
AcDbLine
 10
65.6799377009
 20
188.6427996163
 30
0.0
 11
65.6799377009
 21
187.1430280735
 31
0.0
  0
ARC
  5
14D
330
1F
100
AcDbEntity
  8
0
  6
SLD-実線
 62
     7
370
    18
100
AcDbCircle
 10
60.0375247094
 20
184.0447230589
 30
0.0
 40
3.972755962210186
100
AcDbArc
 50
273.0
 51
357.0
  0
ARC
  5
14E
330
1F
100
AcDbEntity
  8
0
  6
SLD-実線
 62
     7
370
    18
100
AcDbCircle
 10
95.0375247094
 20
149.0447230589
 30
0.0
 40
3.972755962211462
100
AcDbArc
 50
93.0
 51
177.0
  0
LINE
  5
14F
330
1F
100
AcDbEntity
  8
0
  6
SLD-実線
 62
     7
370
    18
100
AcDbLine
 10
56.6109578838
 20
145.6181562333
 30
0.0
 11
57.671295042
 21
146.6784933915
 31
0.0
  0
SPLINE
  5
150
330
1F
100
AcDbEntity
  8
0
  6
SLD-実線
 62
     7
370
    18
100
AcDbSpline
210
0.0
220
0.0
230
1.0
 70
     8
 71
     3
 72
    22
 73
    18
 74
     0
 42
0.000000001
 43
0.00000001
 40
0.0
 40
0.0
 40
0.0
 40
0.0
 40
0.0632595334284371
 40
0.1270056477980459
 40
0.1912383808718514
 40
0.255957769490833
 40
0.321163849600844
 40
0.3868566562785484
 40
0.4530362237564277
 40
0.51970258544685
 40
0.5868557739652941
 40
0.6544958211527263
 40
0.7226227580971935
 40
0.7912366151546417
 40
0.8603374219690159
 40
0.9299252074916519
 40
0.9999999999999999
 40
0.9999999999999999
 40
0.9999999999999999
 40
0.9999999999999999
 10
56.61095788377798
 20
145.618156233331
 30
0.0
 10
56.56479626896532
 20
145.6656622346031
 30
0.0
 10
56.47211797251029
 20
145.7610396447556
 30
0.0
 10
56.34185694535528
 20
145.9132420546347
 30
0.0
 10
56.21793951809059
 20
146.072516575385
 30
0.0
 10
56.10150872636957
 20
146.2392451827197
 30
0.0
 10
55.99288140388935
 20
146.4129559136611
 30
0.0
 10
55.89258872669164
 20
146.5933652839472
 30
0.0
 10
55.80109153571952
 20
146.7800954069327
 30
0.0
 10
55.71885398581512
 20
146.9727504382779
 30
0.0
 10
55.64632268228002
 20
147.1708958355252
 30
0.0
 10
55.58392125418464
 20
147.3740641437866
 30
0.0
 10
55.53207875125157
 20
147.581753804356
 30
0.0
 10
55.49110518646935
 20
147.7934300539644
 30
0.0
 10
55.46165025135267
 20
148.0085255428286
 30
0.0
 10
55.44296040441683
 20
148.2264410421317
 30
0.0
 10
55.44062162131341
 20
148.3726685691616
 30
0.0
 10
55.43944815206341
 20
148.446037282242
 30
0.0
  0
SPLINE
  5
151
330
1F
100
AcDbEntity
  8
0
  6
SLD-実線
 62
     7
370
    18
100
AcDbSpline
210
0.0
220
0.0
230
1.0
 70
     8
 71
     3
 72
    23
 73
    19
 74
     0
 42
0.000000001
 43
0.00000001
 40
0.0
 40
0.0
 40
0.0
 40
0.0
 40
0.0657102124300875
 40
0.1309922785070715
 40
0.1958462217298739
 40
0.2602720661146308
 40
0.3242698362081805
 40
0.3878395571020067
 40
0.4509812544466491
 40
0.5136949544666168
 40
0.5759806839757818
 40
0.6378384703933356
 40
0.699268341760281
 40
0.7602703267565011
 40
0.8208444547184354
 40
0.8809907556573696
 40
0.9407092602783871
 40
0.9999999999999999
 40
0.9999999999999999
 40
0.9999999999999999
 40
0.9999999999999999
 10
59.43883893268898
 20
144.4466465016164
 30
0.0
 10
59.37004005200627
 20
144.4476788348063
 30
0.0
 10
59.23289056175079
 20
144.449736774839
 30
0.0
 10
59.02838411857525
 20
144.4661833704909
 30
0.0
 10
58.8262887680623
 20
144.4921252579632
 30
0.0
 10
58.62710227066808
 20
144.5282480220325
 30
0.0
 10
58.43129787951724
 20
144.5740047331639
 30
0.0
 10
58.23932385079046
 20
144.629149878426
 30
0.0
 10
58.05160284519737
 20
144.6933347551209
 30
0.0
 10
57.86853163103214
 20
144.7662172498158
 30
0.0
 10
57.69048043346992
 20
144.8474347033064
 30
0.0
 10
57.51779409351515
 20
144.9366146249479
 30
0.0
 10
57.35078708328204
 20
145.0333695186897
 30
0.0
 10
57.18976171102121
 20
145.1373172968271
 30
0.0
 10
57.03494115991431
 20
145.2480157115937
 30
0.0
 10
56.88671748366365
 20
145.3652117610014
 30
0.0
 10
56.74473701463884
 20
145.4879283828229
 30
0.0
 10
56.65544394287486
 20
145.5748510943569
 30
0.0
 10
56.61095788377798
 20
145.618156233331
 30
0.0
  0
LINE
  5
152
330
1F
100
AcDbEntity
  8
0
  6
SLD-実線
 62
     7
370
    18
100
AcDbLine
 10
98.464091535
 20
187.4712898845
 30
0.0
 11
97.4037543768
 21
186.4109527263
 31
0.0
  0
SPLINE
  5
153
330
1F
100
AcDbEntity
  8
0
  6
SLD-実線
 62
     7
370
    18
100
AcDbSpline
210
0.0
220
0.0
230
1.0
 70
     8
 71
     3
 72
    23
 73
    19
 74
     0
 42
0.000000001
 43
0.00000001
 40
0.0
 40
0.0
 40
0.0
 40
0.0
 40
0.0657102124237629
 40
0.130992278495267
 40
0.1958462217134334
 40
0.2602720660943943
 40
0.3242698361849929
 40
0.3878395570767107
 40
0.45098125442009
 40
0.5136949544396354
 40
0.57598068394922
 40
0.6378384703680389
 40
0.6992683417370923
 40
0.7602703267362666
 40
0.8208444547019937
 40
0.8809907556455648
 40
0.9407092602720645
 40
1.0
 40
1.0
 40
1.0
 40
1.0
 10
95.63621048607735
 20
188.642799616256
 30
0.0
 10
95.70500936675344
 20
188.6417672830663
 30
0.0
 10
95.84215885699653
 20
188.639709343034
 30
0.0
 10
96.04666530015501
 20
188.623262747385
 30
0.0
 10
96.2487606506538
 20
188.5973208599167
 30
0.0
 10
96.44794714803679
 20
188.5611980958525
 30
0.0
 10
96.64375153917938
 20
188.5154413847266
 30
0.0
 10
96.83572556790085
 20
188.46029623947
 30
0.0
 10
97.02344657349146
 20
188.3961113627801
 30
0.0
 10
97.20651778765702
 20
188.3232288680896
 30
0.0
 10
97.38456898522213
 20
188.2420114146022
 30
0.0
 10
97.55725532518225
 20
188.1528314929623
 30
0.0
 10
97.72426233542298
 20
188.0560765992205
 30
0.0
 10
97.88528770769334
 20
187.9521288210807
 30
0.0
 10
98.04010825881154
 20
187.8414304063095
 30
0.0
 10
98.18833193507493
 20
187.7242343568943
 30
0.0
 10
98.33031240411368
 20
187.6015177350626
 30
0.0
 10
98.41960547588666
 20
187.5145950235201
 30
0.0
 10
98.46409153498836
 20
187.4712898845414
 30
0.0
  0
SPLINE
  5
154
330
1F
100
AcDbEntity
  8
0
  6
SLD-実線
 62
     7
370
    18
100
AcDbSpline
210
0.0
220
0.0
230
1.0
 70
     8
 71
     3
 72
    22
 73
    18
 74
     0
 42
0.000000001
 43
0.00000001
 40
0.0
 40
0.0
 40
0.0
 40
0.0
 40
0.0632587549321642
 40
0.1270042020255444
 40
0.1912363790423291
 40
0.2559553228224233
 40
0.3211610693103961
 40
0.3868536535814183
 40
0.4530331098662886
 40
0.5196994715755034
 40
0.5868527713225041
 40
0.654493040946055
 40
0.7226203115318467
 40
0.7912346134333234
 40
0.8603359762917971
 40
0.9299244290558341
 40
1.0
 40
1.0
 40
1.0
 40
1.0
 10
98.46409153498836
 20
187.4712898845414
 30
0.0
 10
98.51025258976031
 20
187.4237844762086
 30
0.0
 10
98.60292984735506
 20
187.3284081684756
 30
0.0
 10
98.73318964694027
 20
187.1762074718565
 30
0.0
 10
98.85710621502834
 20
187.0169344975087
 30
0.0
 10
98.97353649711633
 20
186.8502072408056
 30
0.0
 10
99.08216361965815
 20
186.6764976222296
 30
0.0
 10
99.18245636655953
 20
186.4960890909921
 30
0.0
 10
99.27395385204089
 20
186.3093595017517
 30
0.0
 10
99.3561918730353
 20
186.1167046714571
 30
0.0
 10
99.42872377270245
 20
185.9185591199398
 30
0.0
 10
99.49112586762432
 20
185.7153902846741
 30
0.0
 10
99.5429690509776
 20
185.5076997125258
 30
0.0
 10
99.58394325203435
 20
185.2960221608438
 30
0.0
 10
99.61339871411585
 20
185.0809249797193
 30
0.0
 10
99.632088938267
 20
184.8630074047915
 30
0.0
 10
99.63442777144134
 20
184.7167783638685
 30
0.0
 10
99.63560126670293
 20
184.6434088356304
 30
0.0
  0
SPLINE
  5
155
330
1F
100
AcDbEntity
  8
0
  6
SLD-実線
 62
     7
370
    18
100
AcDbSpline
210
0.0
220
0.0
230
1.0
 70
     8
 71
     3
 72
    14
 73
    10
 74
     0
 42
0.000000001
 43
0.00000001
 40
0.0
 40
0.0
 40
0.0
 40
0.0
 40
0.25
 40
0.25
 40
0.5
 40
0.5
 40
0.75
 40
0.75
 40
1.0
 40
1.0
 40
1.0
 40
1.0
 10
55.43944815206341
 20
178.4023100674144
 30
0.0
 10
55.43950299554727
 20
178.592052472594
 30
0.0
 10
55.47599041482707
 20
178.781729707633
 30
0.0
 10
55.61668560919719
 20
179.1342089851516
 30
0.0
 10
55.72084506021581
 20
179.2968899628433
 30
0.0
 10
55.98210098846201
 20
179.572196267641
 30
0.0
 10
56.13910773305683
 20
179.684727036282
 30
0.0
 10
56.48374053243977
 20
179.8436767528228
 30
0.0
 10
56.67124821744151
 20
179.8900411068359
 30
0.0
 10
56.86072771696304
 20
179.9000262253736
 30
0.0
  0
SPLINE
  5
156
330
1F
100
AcDbEntity
  8
0
  6
SLD-実線
 62
     7
370
    18
100
AcDbSpline
210
0.0
220
0.0
230
1.0
 70
     8
 71
     3
 72
    14
 73
    10
 74
     0
 42
0.000000001
 43
0.00000001
 40
0.0
 40
0.0
 40
0.0
 40
0.0
 40
0.25
 40
0.25
 40
0.5
 40
0.5
 40
0.75
 40
0.75
 40
1.0
 40
1.0
 40
1.0
 40
1.0
 10
99.63560126670295
 20
154.6871360504583
 30
0.0
 10
99.63554642321905
 20
154.4973936452787
 30
0.0
 10
99.59905900393926
 20
154.3077164102396
 30
0.0
 10
99.45836380956912
 20
153.955237132721
 30
0.0
 10
99.35420435855049
 20
153.7925561550293
 30
0.0
 10
99.09294843030432
 20
153.5172498502316
 30
0.0
 10
98.9359416857095
 20
153.4047190815906
 30
0.0
 10
98.59130888632653
 20
153.2457693650498
 30
0.0
 10
98.4038012013248
 20
153.1994050110367
 30
0.0
 10
98.21432170180327
 20
153.1894198924991
 30
0.0
  0
SPLINE
  5
157
330
1F
100
AcDbEntity
  8
0
  6
SLD-実線
 62
     7
370
    18
100
AcDbSpline
210
0.0
220
0.0
230
1.0
 70
     8
 71
     3
 72
    14
 73
    10
 74
     0
 42
0.000000001
 43
0.00000001
 40
0.0
 40
0.0
 40
0.0
 40
0.0
 40
0.25
 40
0.25
 40
0.5
 40
0.5
 40
0.75
 40
0.75
 40
1.0
 40
1.0
 40
1.0
 40
1.0
 10
90.89282787582084
 20
145.8679260665161
 30
0.0
 10
90.88284275728317
 20
145.6784465669945
 30
0.0
 10
90.8364784032701
 20
145.4909388819928
 30
0.0
 10
90.67752868672929
 20
145.1463060826099
 30
0.0
 10
90.56499791808825
 20
144.9892993380151
 30
0.0
 10
90.28969161329059
 20
144.7280434097688
 30
0.0
 10
90.12701063559894
 20
144.6238839587502
 30
0.0
 10
89.77453135808028
 20
144.4831887643801
 30
0.0
 10
89.58485412304124
 20
144.4467013451003
 30
0.0
 10
89.39511171786164
 20
144.4466465016164
 30
0.0
  0
SPLINE
  5
158
330
1F
100
AcDbEntity
  8
0
  6
SLD-実線
 62
     7
370
    18
100
AcDbSpline
210
0.0
220
0.0
230
1.0
 70
     8
 71
     3
 72
    14
 73
    10
 74
     0
 42
0.000000001
 43
0.00000001
 40
0.0
 40
0.0
 40
0.0
 40
0.0
 40
0.25
 40
0.25
 40
0.5
 40
0.5
 40
0.75
 40
0.75
 40
1.0
 40
1.0
 40
1.0
 40
1.0
 10
64.18222154294584
 20
187.2215200513564
 30
0.0
 10
64.19220666148351
 20
187.410999550878
 30
0.0
 10
64.23857101549659
 20
187.5985072358797
 30
0.0
 10
64.39752073203738
 20
187.9431400352626
 30
0.0
 10
64.51005150067843
 20
188.1001467798575
 30
0.0
 10
64.7853578054761
 20
188.3614027081036
 30
0.0
 10
64.94803878316773
 20
188.4655621591223
 30
0.0
 10
65.3005180606864
 20
188.6062573534924
 30
0.0
 10
65.49019529572544
 20
188.6427447727722
 30
0.0
 10
65.67993770090503
 20
188.642799616256
 30
0.0
  0
ARC
  5
159
330
1F
100
AcDbEntity
  8
0
  6
SLD-実線
 62
     7
370
    18
100
AcDbCircle
 10
78.0375399387
 20
144.44663127
 30
0.0
 40
0.1999847712555081
100
AcDbArc
 50
0.004363877
 51
90.0043632123
  0
LINE
  5
15A
330
1F
100
AcDbEntity
  8
0
  6
SLD-実線
 62
     7
370
    18
100
AcDbLine
 10
78.0375247094
 20
144.6466160406
 30
0.0
 11
78.0375247094
 21
145.9464180444
 31
0.0
  0
ARC
  5
15B
330
1F
100
AcDbEntity
  8
0
  6
SLD-実線
 62
     7
370
    18
100
AcDbCircle
 10
77.0375094801
 20
144.44663127
 30
0.0
 40
0.199984771255502
100
AcDbArc
 50
89.9956367877
 51
179.995636123
  0
LINE
  5
15C
330
1F
100
AcDbEntity
  8
0
  6
SLD-実線
 62
     7
370
    18
100
AcDbLine
 10
77.0375247094
 20
145.9464180444
 30
0.0
 11
77.0375247094
 21
144.6466160406
 31
0.0
  0
ARC
  5
15D
330
1F
100
AcDbEntity
  8
0
  6
SLD-実線
 62
     7
370
    18
100
AcDbCircle
 10
77.0375094801
 20
188.6428148479
 30
0.0
 40
0.1999847712555508
100
AcDbArc
 50
180.004363877
 51
270.0043632123
  0
LINE
  5
15E
330
1F
100
AcDbEntity
  8
0
  6
SLD-実線
 62
     7
370
    18
100
AcDbLine
 10
77.0375247094
 20
188.4428300772
 30
0.0
 11
77.0375247094
 21
187.1430280735
 31
0.0
  0
ARC
  5
15F
330
1F
100
AcDbEntity
  8
0
  6
SLD-実線
 62
     7
370
    18
100
AcDbCircle
 10
55.4394329204
 20
166.0447078296
 30
0.0
 40
0.1999847712555934
100
AcDbArc
 50
270.004363877
 51
0.0043632123
  0
LINE
  5
160
330
1F
100
AcDbEntity
  8
0
  6
SLD-実線
 62
     7
370
    18
100
AcDbLine
 10
55.6394176911
 20
166.0447230589
 30
0.0
 11
56.9392196948
 21
166.0447230589
 31
0.0
  0
LINE
  5
161
330
1F
100
AcDbEntity
  8
0
  6
SLD-実線
 62
     7
370
    18
100
AcDbLine
 10
56.9392196948
 20
167.0447230589
 30
0.0
 11
55.6394176911
 21
167.0447230589
 31
0.0
  0
ARC
  5
162
330
1F
100
AcDbEntity
  8
0
  6
SLD-実線
 62
     7
370
    18
100
AcDbCircle
 10
55.4394329204
 20
167.0447382883
 30
0.0
 40
0.1999847712554949
100
AcDbArc
 50
359.9956367877
 51
89.995636123
  0
ARC
  5
163
330
1F
100
AcDbEntity
  8
0
  6
SLD-実線
 62
     7
370
    18
100
AcDbCircle
 10
78.0375399387
 20
188.6428148479
 30
0.0
 40
0.1999847712555873
100
AcDbArc
 50
269.9956367877
 51
359.995636123
  0
LINE
  5
164
330
1F
100
AcDbEntity
  8
0
  6
SLD-実線
 62
     7
370
    18
100
AcDbLine
 10
78.0375247094
 20
187.1430280735
 30
0.0
 11
78.0375247094
 21
188.4428300772
 31
0.0
  0
LINE
  5
165
330
1F
100
AcDbEntity
  8
0
  6
SLD-実線
 62
     7
370
    18
100
AcDbLine
 10
78.0375247094
 20
145.9464180444
 30
0.0
 11
77.0375247094
 21
145.9464180444
 31
0.0
  0
LINE
  5
166
330
1F
100
AcDbEntity
  8
0
  6
SLD-実線
 62
     7
370
    18
100
AcDbLine
 10
77.0375247094
 20
187.1430280735
 30
0.0
 11
78.0375247094
 21
187.1430280735
 31
0.0
  0
LINE
  5
167
330
1F
100
AcDbEntity
  8
0
  6
SLD-実線
 62
     7
370
    18
100
AcDbLine
 10
98.1358804987
 20
167.0447230589
 30
0.0
 11
98.1358804987
 21
166.0447230589
 31
0.0
  0
LINE
  5
168
330
1F
100
AcDbEntity
  8
0
  6
SLD-実線
 62
     7
370
    18
100
AcDbLine
 10
56.9392196948
 20
166.0447230589
 30
0.0
 11
56.9392196948
 21
167.0447230589
 31
0.0
  0
LINE
  5
169
330
1F
100
AcDbEntity
  8
0
  6
SLD-実線
 62
     7
370
    18
100
AcDbLine
 10
99.4356825024
 20
166.0447230589
 30
0.0
 11
99.4356825024
 21
167.0447230589
 31
0.0
  0
LINE
  5
16A
330
1F
100
AcDbEntity
  8
0
  6
SLD-実線
 62
     7
370
    18
100
AcDbLine
 10
78.0375247094
 20
188.4428300772
 30
0.0
 11
77.0375247094
 21
188.4428300772
 31
0.0
  0
LINE
  5
16B
330
1F
100
AcDbEntity
  8
0
  6
SLD-実線
 62
     7
370
    18
100
AcDbLine
 10
55.6394176911
 20
166.0447230589
 30
0.0
 11
55.6394176911
 21
167.0447230589
 31
0.0
  0
LINE
  5
16C
330
1F
100
AcDbEntity
  8
0
  6
SLD-実線
 62
     7
370
    18
100
AcDbLine
 10
78.0375247094
 20
144.6466160406
 30
0.0
 11
77.0375247094
 21
144.6466160406
 31
0.0
  0
LINE
  5
16D
330
1F
100
AcDbEntity
  8
0
  6
SLD-実線
 62
     7
370
    18
100
AcDbLine
 10
96.0381339288
 20
189.0447230589
 30
0.0
 11
95.6362104861
 21
188.6427996163
 31
0.0
  0
SPLINE
  5
16E
330
1F
100
AcDbEntity
  8
0
  6
SLD-実線
 62
     7
370
    18
100
AcDbSpline
210
0.0
220
0.0
230
1.0
 70
     8
 71
     3
 72
    31
 73
    27
 74
     0
 42
0.000000001
 43
0.00000001
 40
0.0
 40
0.0
 40
0.0
 40
0.0
 40
0.0328617967588424
 40
0.0655091590456773
 40
0.0979421183721745
 40
0.1301607069034756
 40
0.1621649574754416
 40
0.1939549036124799
 40
0.2255305795459671
 40
0.2568920202333008
 40
0.2880392613775847
 40
0.3189723394479954
 40
0.3496912917008588
 40
0.3801961562014365
 40
0.4104869718464874
 40
0.4405637783876237
 40
0.4704266164554747
 40
0.5000755275847348
 40
0.5595693035331438
 40
0.6199187342788737
 40
0.6811241210555878
 40
0.7431857511190411
 40
0.8061038984829335
 40
0.8698788246059679
 40
0.9345107790338874
 40
0.9999999999999999
 40
0.9999999999999999
 40
0.9999999999999999
 40
0.9999999999999999
 10
100.0375247093832
 20
185.0453322783107
 30
0.0
 10
100.0365001207243
 20
185.1141386327355
 30
0.0
 10
100.0344576291983
 20
185.2513023565709
 30
0.0
 10
100.018032503035
 20
185.4558300553244
 30
0.0
 10
99.99211069363417
 20
185.6579451765454
 30
0.0
 10
99.95600652203527
 20
185.857150034784
 30
0.0
 10
99.91026692879163
 20
186.0529713557395
 30
0.0
 10
99.85513741974799
 20
186.2449608918577
 30
0.0
 10
99.79096667507706
 20
186.4326959631032
 30
0.0
 10
99.71809686221728
 20
186.6157798593098
 30
0.0
 10
99.63689040911194
 20
186.7938421303556
 30
0.0
 10
99.547720631277
 20
186.9665387515397
 30
0.0
 10
99.45097195037062
 20
187.1335522189731
 30
0.0
 10
99.34703778281866
 20
187.2945914022351
 30
0.0
 10
99.23631851609952
 20
187.4493918173687
 30
0.0
 10
99.11922170822284
 20
187.5977138986934
 30
0.0
 10
98.99615371607621
 20
187.7393482384658
 30
0.0
 10
98.82408072403183
 20
187.9196310408327
 30
0.0
 10
98.59231225757291
 20
188.1306929155543
 30
0.0
 10
98.28886410989884
 20
188.3587496730753
 30
0.0
 10
97.96043425617914
 20
188.5596781879864
 30
0.0
 10
97.60926100629204
 20
188.730215359714
 30
0.0
 10
97.23798772726659
 20
188.8675895411548
 30
0.0
 10
96.84968564774321
 20
188.967978168212
 30
0.0
 10
96.44784072395015
 20
189.0325588182231
 30
0.0
 10
96.17530137660779
 20
189.0406505420212
 30
0.0
 10
96.03813392875762
 20
189.0447230589363
 30
0.0
  0
LINE
  5
16F
330
1F
100
AcDbEntity
  8
0
  6
SLD-実線
 62
     7
370
    18
100
AcDbLine
 10
100.0375247094
 20
185.0453322783
 30
0.0
 11
99.6356012667
 21
184.6434088356
 31
0.0
  0
LINE
  5
170
330
1F
100
AcDbEntity
  8
0
  6
SLD-実線
 62
     7
370
    18
100
AcDbLine
 10
59.03691549
 20
144.0447230589
 30
0.0
 11
59.4388389327
 21
144.4466465016
 31
0.0
  0
SPLINE
  5
171
330
1F
100
AcDbEntity
  8
0
  6
SLD-実線
 62
     7
370
    18
100
AcDbSpline
210
0.0
220
0.0
230
1.0
 70
     8
 71
     3
 72
    31
 73
    27
 74
     0
 42
0.000000001
 43
0.00000001
 40
0.0
 40
0.0
 40
0.0
 40
0.0
 40
0.0328614859120121
 40
0.0655085787918903
 40
0.0979413101532013
 40
0.1301597121628856
 40
0.1621638176585055
 40
0.1939536601660625
 40
0.2255292739184171
 40
0.2568906938743279
 40
0.288037955738135
 40
0.3189710959801194
 40
0.3496901518575677
 40
0.3801951614365546
 40
0.4104861636144959
 40
0.4405631981434837
 40
0.4704263056544621
 40
0.5000755276822453
 40
0.5595693036160693
 40
0.6199187343478982
 40
0.681124121111397
 40
0.7431857511623176
 40
0.8061038985143651
 40
0.8698788246262369
 40
0.9345107790436804
 40
1.0
 40
1.0
 40
1.0
 40
1.0
 10
55.03752470938313
 20
148.0441138395617
 30
0.0
 10
55.03854927854257
 20
147.9753081361228
 30
0.0
 10
55.04059173242579
 20
147.8381456274909
 30
0.0
 10
55.05701657395256
 20
147.6336196068174
 30
0.0
 10
55.08293798156141
 20
147.4315058789213
 30
0.0
 10
55.11904166131355
 20
147.2323021237579
 30
0.0
 10
55.16478071869243
 20
147.036481614436
 30
0.0
 10
55.21990968844038
 20
146.844492601444
 30
0.0
 10
55.28407993082413
 20
146.6567577716964
 30
0.0
 10
55.35694931711129
 20
146.4736738459776
 30
0.0
 10
55.43815545634686
 20
146.2956112885448
 30
0.0
 10
55.52732506797854
 20
146.1229141415157
 30
0.0
 10
55.62407376307942
 20
145.9558999292284
 30
0.0
 10
55.72800815552665
 20
145.7948598053269
 30
0.0
 10
55.83872788555063
 20
145.6400582795001
 30
0.0
 10
55.95582542010512
 20
145.4917349454014
 30
0.0
 10
56.07889442445177
 20
145.3500992406905
 30
0.0
 10
56.25096821295884
 20
145.1698155157813
 30
0.0
 10
56.48273716109568
 20
144.958753202404
 30
0.0
 10
56.78618530886577
 20
144.7306964447941
 30
0.0
 10
57.11461516254715
 20
144.5297679299102
 30
0.0
 10
57.46578841243817
 20
144.359230758173
 30
0.0
 10
57.83706169146249
 20
144.2218565767294
 30
0.0
 10
58.22536377099338
 20
144.1214679496662
 30
0.0
 10
58.62720869479918
 20
144.0568872996504
 30
0.0
 10
58.89974804215227
 20
144.0487955758516
 30
0.0
 10
59.0369154900087
 20
144.0447230589362
 30
0.0
  0
LINE
  5
172
330
1F
100
AcDbEntity
  8
0
  6
SLD-実線
 62
     7
370
    18
100
AcDbLine
 10
55.0375247094
 20
148.0441138396
 30
0.0
 11
55.4394481521
 21
148.4460372822
 31
0.0
  0
LINE
  5
173
330
1F
100
AcDbEntity
  8
0
  6
SLD-実線
 62
     7
370
    18
100
AcDbLine
 10
55.4394481521
 20
178.4023100674
 30
0.0
 11
55.1615470602
 21
178.6660283566
 31
0.0
  0
SPLINE
  5
174
330
1F
100
AcDbEntity
  8
0
  6
SLD-実線
 62
     7
370
    18
100
AcDbSpline
210
0.0
220
0.0
230
1.0
 70
     8
 71
     3
 72
    15
 73
    11
 74
     0
 42
0.000000001
 43
0.00000001
 40
0.0
 40
0.0
 40
0.0
 40
0.0
 40
0.128671565676852
 40
0.243022108151667
 40
0.3430531547723259
 40
0.428767937931414
 40
0.500172626580537
 40
0.6907398879005744
 40
0.8571712215246443
 40
1.0
 40
1.0
 40
1.0
 40
1.0
 10
55.16154706023974
 20
178.6660283566064
 30
0.0
 10
55.16275355032538
 20
178.7052884712484
 30
0.0
 10
55.1650322492947
 20
178.7794390870149
 30
0.0
 10
55.17846534368643
 20
178.8838511094232
 30
0.0
 10
55.19584439823887
 20
178.9749520628449
 30
0.0
 10
55.2153758472713
 20
179.0527434367293
 30
0.0
 10
55.24706516318251
 20
179.1573566905209
 30
0.0
 10
55.29805425720325
 20
179.2845907153847
 30
0.0
 10
55.37480302078824
 20
179.429950782528
 30
0.0
 10
55.43411069540666
 20
179.5149181202794
 30
0.0
 10
55.46150136878661
 20
179.5541594598074
 30
0.0
  0
SPLINE
  5
175
330
1F
100
AcDbEntity
  8
0
  6
SLD-実線
 62
     7
370
    18
100
AcDbSpline
210
0.0
220
0.0
230
1.0
 70
     8
 71
     3
 72
    18
 73
    14
 74
     0
 42
0.000000001
 43
0.00000001
 40
0.0
 40
0.0
 40
0.0
 40
0.0
 40
0.0949700581388953
 40
0.1891271497001349
 40
0.2824715180399841
 40
0.3750034133458311
 40
0.4667230928726019
 40
0.5576308211894873
 40
0.6477268704376219
 40
0.7370115205992399
 40
0.8254850597789182
 40
0.9131477844975879
 40
0.9999999999999999
 40
0.9999999999999999
 40
0.9999999999999999
 40
0.9999999999999999
 10
56.58797175475153
 20
180.1588619688725
 30
0.0
 10
56.54626915284543
 20
180.155665829981
 30
0.0
 10
56.46322093335237
 20
180.149300911917
 30
0.0
 10
56.34073520485817
 20
180.1267449406591
 30
0.0
 10
56.22148007324922
 20
180.0951793878354
 30
0.0
 10
56.10624144967996
 20
180.0541363971234
 30
0.0
 10
55.99568393394783
 20
180.0043820324647
 30
0.0
 10
55.89042145581471
 20
179.9464144992371
 30
0.0
 10
55.79101613656753
 20
179.8808380131309
 30
0.0
 10
55.69790484950281
 20
179.8083090720041
 30
0.0
 10
55.61168497336192
 20
179.729344627876
 30
0.0
 10
55.53205698823784
 20
179.6450925177094
 30
0.0
 10
55.48494697674194
 20
179.5843764835162
 30
0.0
 10
55.46150136878665
 20
179.5541594598074
 30
0.0
  0
LINE
  5
176
330
1F
100
AcDbEntity
  8
0
  6
SLD-実線
 62
     7
370
    18
100
AcDbLine
 10
56.860727717
 20
179.9000262254
 30
0.0
 11
56.5879717548
 21
180.1588619689
 31
0.0
  0
LINE
  5
177
330
1F
100
AcDbEntity
  8
0
  6
SLD-実線
 62
     7
370
    18
100
AcDbLine
 10
63.9233857994
 20
187.4942760136
 30
0.0
 11
64.1822215429
 21
187.2215200514
 31
0.0
  0
SPLINE
  5
178
330
1F
100
AcDbEntity
  8
0
  6
SLD-実線
 62
     7
370
    18
100
AcDbSpline
210
0.0
220
0.0
230
1.0
 70
     8
 71
     3
 72
    16
 73
    12
 74
     0
 42
0.000000001
 43
0.00000001
 40
0.0
 40
0.0
 40
0.0
 40
0.0
 40
0.0841746784289137
 40
0.1674221851446367
 40
0.2501908643459219
 40
0.3329368439197696
 40
0.4161166251836899
 40
0.5001796425168794
 40
0.6671290114212082
 40
0.8325170897642122
 40
1.0
 40
1.0
 40
1.0
 40
1.0
 10
63.92338579944688
 20
187.4942760135679
 30
0.0
 10
63.92610121012425
 20
187.5312355720507
 30
0.0
 10
63.93150212162937
 20
187.6047475849108
 30
0.0
 10
63.94961207599479
 20
187.7135003011409
 30
0.0
 10
63.97503262878042
 20
187.8200639066323
 30
0.0
 10
64.00845539098019
 20
187.924394519263
 30
0.0
 10
64.04971087272355
 20
188.0264837629366
 30
0.0
 10
64.11460399875095
 20
188.1586018375277
 30
0.0
 10
64.21303096377054
 20
188.3138272370622
 30
0.0
 10
64.35640913187841
 20
188.4822270213308
 30
0.0
 10
64.47062232653883
 20
188.5743799604178
 30
0.0
 10
64.52808830851198
 20
188.6207463995328
 30
0.0
  0
SPLINE
  5
179
330
1F
100
AcDbEntity
  8
0
  6
SLD-実線
 62
     7
370
    18
100
AcDbSpline
210
0.0
220
0.0
230
1.0
 70
     8
 71
     3
 72
    16
 73
    12
 74
     0
 42
0.000000001
 43
0.00000001
 40
0.0
 40
0.0
 40
0.0
 40
0.0
 40
0.1284112357970414
 40
0.2426004943287563
 40
0.342578333033722
 40
0.4283616137647796
 40
0.4999783297867536
 40
0.6337262092559085
 40
0.7495118506225353
 40
0.8794812540354772
 40
1.0
 40
1.0
 40
1.0
 40
1.0
 10
65.41621941171299
 20
188.9207007080797
 30
0.0
 10
65.37697440719496
 20
188.9195011791362
 30
0.0
 10
65.30283091471233
 20
188.9172349731235
 30
0.0
 10
65.19826333443773
 20
188.9039010333022
 30
0.0
 10
65.10719499635641
 20
188.8865702502444
 30
0.0
 10
65.02955205866601
 20
188.8669838263753
 30
0.0
 10
64.94212896084797
 20
188.8403329710272
 30
0.0
 10
64.84634310379838
 20
188.8043187153406
 30
0.0
 10
64.73521143643157
 20
188.7519513086624
 30
0.0
 10
64.62962551741451
 20
188.6924919253937
 30
0.0
 10
64.56107189248122
 20
188.6440523836368
 30
0.0
 10
64.52808830851201
 20
188.6207463995328
 30
0.0
  0
LINE
  5
17A
330
1F
100
AcDbEntity
  8
0
  6
SLD-実線
 62
     7
370
    18
100
AcDbLine
 10
65.4162194117
 20
188.9207007081
 30
0.0
 11
65.6799377009
 21
188.6427996163
 31
0.0
  0
LINE
  5
17B
330
1F
100
AcDbEntity
  8
0
  6
SLD-実線
 62
     7
370
    18
100
AcDbLine
 10
99.6356012667
 20
154.6871360505
 30
0.0
 11
99.9135023585
 21
154.4234177613
 31
0.0
  0
SPLINE
  5
17C
330
1F
100
AcDbEntity
  8
0
  6
SLD-実線
 62
     7
370
    18
100
AcDbSpline
210
0.0
220
0.0
230
1.0
 70
     8
 71
     3
 72
    15
 73
    11
 74
     0
 42
0.000000001
 43
0.00000001
 40
0.0
 40
0.0
 40
0.0
 40
0.0
 40
0.1286715300489804
 40
0.2430220408508676
 40
0.3430530597530946
 40
0.4287678191473346
 40
0.5001724879834162
 40
0.6907715363844946
 40
0.8572028238907323
 40
1.0
 40
1.0
 40
1.0
 40
1.0
 10
99.91350235852664
 20
154.4234177612662
 30
0.0
 10
99.91229586834591
 20
154.384157646693
 30
0.0
 10
99.9100171691972
 20
154.3100070310598
 30
0.0
 10
99.89658407597446
 20
154.2055950076903
 30
0.0
 10
99.87920501776881
 20
154.114494057221
 30
0.0
 10
99.85967357956157
 20
154.036702674594
 30
0.0
 10
99.82798131177411
 20
153.9320798810583
 30
0.0
 10
99.77698745909589
 20
153.8048362119847
 30
0.0
 10
99.7002387116353
 20
153.659474911257
 30
0.0
 10
99.64093406659372
 20
153.5745183526932
 30
0.0
 10
99.6135480499797
 20
153.5352866580653
 30
0.0
  0
SPLINE
  5
17D
330
1F
100
AcDbEntity
  8
0
  6
SLD-実線
 62
     7
370
    18
100
AcDbSpline
210
0.0
220
0.0
230
1.0
 70
     8
 71
     3
 72
    18
 73
    14
 74
     0
 42
0.000000001
 43
0.00000001
 40
0.0
 40
0.0
 40
0.0
 40
0.0
 40
0.0949700581309782
 40
0.189127149685878
 40
0.2824715180209758
 40
0.3750034133236547
 40
0.4667230928488412
 40
0.5576308211657298
 40
0.6477268704154526
 40
0.7370115205802336
 40
0.8254850597646652
 40
0.9131477844896736
 40
1.0
 40
1.0
 40
1.0
 40
1.0
 10
98.48707766401475
 20
152.9305841490001
 30
0.0
 10
98.5287802659174
 20
152.9337802878913
 30
0.0
 10
98.6118284854042
 20
152.9401452059547
 30
0.0
 10
98.73431421389039
 20
152.9627011772097
 30
0.0
 10
98.8535693454937
 20
152.9942667300301
 30
0.0
 10
98.96880796905977
 20
153.0353097207386
 30
0.0
 10
99.07936548479096
 20
153.0850640853942
 30
0.0
 10
99.18462796292532
 20
153.1430316186196
 30
0.0
 10
99.28403328217559
 20
153.208608104725
 30
0.0
 10
99.37714456924493
 20
153.2811370458527
 30
0.0
 10
99.46336444539159
 20
153.3601014899837
 30
0.0
 10
99.5429924305223
 20
153.4443536001557
 30
0.0
 10
99.59010244202219
 20
153.5050696343537
 30
0.0
 10
99.61354804997967
 20
153.5352866580652
 30
0.0
  0
LINE
  5
17E
330
1F
100
AcDbEntity
  8
0
  6
SLD-実線
 62
     7
370
    18
100
AcDbLine
 10
98.2143217018
 20
153.1894198925
 30
0.0
 11
98.487077664
 21
152.930584149
 31
0.0
  0
LINE
  5
17F
330
1F
100
AcDbEntity
  8
0
  6
SLD-実線
 62
     7
370
    18
100
AcDbLine
 10
91.1516636193
 20
145.5951701043
 30
0.0
 11
90.8928278758
 21
145.8679260665
 31
0.0
  0
SPLINE
  5
180
330
1F
100
AcDbEntity
  8
0
  6
SLD-実線
 62
     7
370
    18
100
AcDbSpline
210
0.0
220
0.0
230
1.0
 70
     8
 71
     3
 72
    16
 73
    12
 74
     0
 42
0.000000001
 43
0.00000001
 40
0.0
 40
0.0
 40
0.0
 40
0.0
 40
0.0841746784291526
 40
0.1674221851450159
 40
0.2501908643463488
 40
0.332936843920149
 40
0.4161166251839344
 40
0.5001796425169075
 40
0.667129011421582
 40
0.8325170897645853
 40
0.9999999999999999
 40
0.9999999999999999
 40
0.9999999999999999
 40
0.9999999999999999
 10
91.15166361931975
 20
145.5951701043046
 30
0.0
 10
91.14894820864237
 20
145.5582105458217
 30
0.0
 10
91.14354729713723
 20
145.4846985329614
 30
0.0
 10
91.12543734277182
 20
145.375945816731
 30
0.0
 10
91.10001678998619
 20
145.2693822112396
 30
0.0
 10
91.06659402778642
 20
145.165051598609
 30
0.0
 10
91.02533854604307
 20
145.0629623549355
 30
0.0
 10
90.96044542001549
 20
144.9308442803446
 30
0.0
 10
90.86201845499572
 20
144.77561888081
 30
0.0
 10
90.71864028688792
 20
144.6072190965415
 30
0.0
 10
90.60442709222764
 20
144.5150661574546
 30
0.0
 10
90.54696111025463
 20
144.4686997183397
 30
0.0
  0
SPLINE
  5
181
330
1F
100
AcDbEntity
  8
0
  6
SLD-実線
 62
     7
370
    18
100
AcDbSpline
210
0.0
220
0.0
230
1.0
 70
     8
 71
     3
 72
    16
 73
    12
 74
     0
 42
0.000000001
 43
0.00000001
 40
0.0
 40
0.0
 40
0.0
 40
0.0
 40
0.1284117235705669
 40
0.2426012262687373
 40
0.3425790651600624
 40
0.4283621017060673
 40
0.4999783288551476
 40
0.633726208643784
 40
0.7495118501562191
 40
0.8794812538565302
 40
1.0
 40
1.0
 40
1.0
 40
1.0
 10
89.6588300070537
 20
144.1687454097927
 30
0.0
 10
89.69807516605283
 20
144.169944946629
 30
0.0
 10
89.77221889244758
 20
144.1722111657822
 30
0.0
 10
89.87678669737387
 20
144.1855451770833
 30
0.0
 10
89.96785502750694
 20
144.2028760026547
 30
0.0
 10
90.04549773178884
 20
144.222462400178
 30
0.0
 10
90.13292060167998
 20
144.2491132011926
 30
0.0
 10
90.22870631558625
 20
144.2851274026812
 30
0.0
 10
90.33983798219762
 20
144.3374948091874
 30
0.0
 10
90.44542390140708
 20
144.3969541924968
 30
0.0
 10
90.51397752631169
 20
144.4453937342475
 30
0.0
 10
90.54696111025466
 20
144.4686997183397
 30
0.0
  0
LINE
  5
182
330
1F
100
AcDbEntity
  8
0
  6
SLD-実線
 62
     7
370
    18
100
AcDbLine
 10
89.6588300071
 20
144.1687454098
 30
0.0
 11
89.3951117179
 21
144.4466465016
 31
0.0
  0
LINE
  5
183
330
1F
100
AcDbEntity
  8
0
  6
SLD-実線
 62
     7
370
    18
100
AcDbLine
 10
56.5879717548
 20
180.1588619689
 30
0.0
 11
60.2311677475
 21
180.3497937803
 31
0.0
  0
LINE
  5
184
330
1F
100
AcDbEntity
  8
0
  6
SLD-実線
 62
     7
370
    18
100
AcDbLine
 10
60.2311677475
 20
180.3497937803
 30
0.0
 11
60.2454426916
 21
180.0774116207
 31
0.0
  0
LINE
  5
185
330
1F
100
AcDbEntity
  8
0
  6
SLD-実線
 62
     7
370
    18
100
AcDbLine
 10
98.487077664
 20
152.930584149
 30
0.0
 11
94.8438816713
 21
152.7396523375
 31
0.0
  0
LINE
  5
186
330
1F
100
AcDbEntity
  8
0
  6
SLD-実線
 62
     7
370
    18
100
AcDbLine
 10
94.8438816713
 20
152.7396523375
 30
0.0
 11
94.8296067272
 21
153.0120344972
 31
0.0
  0
LINE
  5
187
330
1F
100
AcDbEntity
  8
0
  6
SLD-実線
 62
     7
370
    18
100
AcDbLine
 10
91.0702132711
 20
149.2526410411
 30
0.0
 11
91.3425954308
 21
149.238366097
 31
0.0
  0
LINE
  5
188
330
1F
100
AcDbEntity
  8
0
  6
SLD-実線
 62
     7
370
    18
100
AcDbLine
 10
91.3425954308
 20
149.238366097
 30
0.0
 11
91.1516636193
 21
145.5951701043
 31
0.0
  0
LINE
  5
189
330
1F
100
AcDbEntity
  8
0
  6
SLD-実線
 62
     7
370
    18
100
AcDbLine
 10
64.0048361476
 20
183.8368050767
 30
0.0
 11
63.732453988
 21
183.8510800208
 31
0.0
  0
LINE
  5
18A
330
1F
100
AcDbEntity
  8
0
  6
SLD-実線
 62
     7
370
    18
100
AcDbLine
 10
63.732453988
 20
183.8510800208
 30
0.0
 11
63.9233857994
 21
187.4942760136
 31
0.0
  0
LINE
  5
18B
330
1F
100
AcDbEntity
  8
0
  6
SLD-実線
 62
     7
370
    18
100
AcDbLine
 10
78.2375247094
 20
189.0447230589
 30
0.0
 11
78.2375247094
 21
188.6427996163
 31
0.0
  0
LINE
  5
18C
330
1F
100
AcDbEntity
  8
0
  6
SLD-実線
 62
     7
370
    18
100
AcDbLine
 10
78.2375247094
 20
189.0447230589
 30
0.0
 11
96.0381339288
 21
189.0447230589
 31
0.0
  0
LINE
  5
18D
330
1F
100
AcDbEntity
  8
0
  6
SLD-実線
 62
     7
370
    18
100
AcDbLine
 10
76.8375247094
 20
144.0447230589
 30
0.0
 11
76.8375247094
 21
144.4466465016
 31
0.0
  0
LINE
  5
18E
330
1F
100
AcDbEntity
  8
0
  6
SLD-実線
 62
     7
370
    18
100
AcDbLine
 10
76.8375247094
 20
144.0447230589
 30
0.0
 11
59.03691549
 21
144.0447230589
 31
0.0
  0
LINE
  5
18F
330
1F
100
AcDbEntity
  8
0
  6
SLD-実線
 62
     7
370
    18
100
AcDbLine
 10
100.0375247094
 20
185.0453322783
 30
0.0
 11
99.8314139158
 21
176.476914955
 31
0.0
  0
SPLINE
  5
190
330
1F
100
AcDbEntity
  8
0
  6
SLD-実線
 62
     7
370
    18
100
AcDbSpline
210
0.0
220
0.0
230
1.0
 70
     8
 71
     3
 72
    20
 73
    16
 74
     0
 42
0.000000001
 43
0.00000001
 40
0.0
 40
0.0
 40
0.0
 40
0.0
 40
0.0777628697981068
 40
0.1576703518451202
 40
0.2396464693879468
 40
0.3246566692512948
 40
0.4105825540826779
 40
0.4972427443352341
 40
0.5838728939478761
 40
0.6697981263055155
 40
0.7548390127577953
 40
0.8367843518142835
 40
0.9167153066364433
 40
0.9944856397853324
 40
1.0
 40
1.0
 40
1.0
 40
1.0
 10
99.65763167219235
 20
167.244723052493
 30
0.0
 10
99.65837959836338
 20
167.6320635756376
 30
0.0
 10
99.65989607766573
 20
168.4174270367167
 30
0.0
 10
99.66529251983944
 20
169.5809972402365
 30
0.0
 10
99.6731743384023
 20
170.7340674324918
 30
0.0
 10
99.68381165086724
 20
171.847947778035
 30
0.0
 10
99.69708138445155
 20
172.8937356110665
 30
0.0
 10
99.71270492795584
 20
173.8381768723338
 30
0.0
 10
99.73033107875685
 20
174.658586423832
 30
0.0
 10
99.74954122547288
 20
175.3374384608765
 30
0.0
 10
99.76973544103323
 20
175.8585925503289
 30
0.0
 10
99.79040635482659
 20
176.2265730106235
 30
0.0
 10
99.81105703333343
 20
176.4260034442023
 30
0.0
 10
99.82534581336974
 20
176.5043004099477
 30
0.0
 10
99.83260879597576
 20
176.4785327319289
 30
0.0
 10
99.83141391583433
 20
176.4769149549598
 30
0.0
  0
LINE
  5
191
330
1F
100
AcDbEntity
  8
0
  6
SLD-実線
 62
     7
370
    18
100
AcDbLine
 10
60.0367631852
 20
189.0447230589
 30
0.0
 11
60.160785536
 21
188.9207007081
 31
0.0
  0
LINE
  5
192
330
1F
100
AcDbEntity
  8
0
  6
SLD-実線
 62
     7
370
    18
100
AcDbLine
 10
60.0367631852
 20
189.0447230589
 30
0.0
 11
76.8375247094
 21
189.0447230589
 31
0.0
  0
LINE
  5
193
330
1F
100
AcDbEntity
  8
0
  6
SLD-実線
 62
     7
370
    18
100
AcDbLine
 10
76.8375247094
 20
188.6427996163
 30
0.0
 11
76.8375247094
 21
189.0447230589
 31
0.0
  0
LINE
  5
194
330
1F
100
AcDbEntity
  8
0
  6
SLD-実線
 62
     7
370
    18
100
AcDbLine
 10
60.160785536
 20
188.9207007081
 30
0.0
 11
65.4162194117
 21
188.9207007081
 31
0.0
  0
LINE
  5
195
330
1F
100
AcDbEntity
  8
0
  6
SLD-実線
 62
     7
370
    18
100
AcDbLine
 10
55.0375247094
 20
167.2447230589
 30
0.0
 11
55.4394481521
 21
167.2447230589
 31
0.0
  0
LINE
  5
196
330
1F
100
AcDbEntity
  8
0
  6
SLD-実線
 62
     7
370
    18
100
AcDbLine
 10
55.0375247094
 20
167.2447230589
 30
0.0
 11
55.0375247094
 21
184.0454845832
 31
0.0
  0
LINE
  5
197
330
1F
100
AcDbEntity
  8
0
  6
SLD-実線
 62
     7
370
    18
100
AcDbLine
 10
55.0375247094
 20
184.0454845832
 30
0.0
 11
55.1615470602
 21
183.9214622323
 31
0.0
  0
LINE
  5
198
330
1F
100
AcDbEntity
  8
0
  6
SLD-実線
 62
     7
370
    18
100
AcDbLine
 10
55.1615470602
 20
178.6660283566
 30
0.0
 11
55.1615470602
 21
183.9214622323
 31
0.0
  0
LINE
  5
199
330
1F
100
AcDbEntity
  8
0
  6
SLD-実線
 62
     7
370
    18
100
AcDbLine
 10
99.6574771981
 20
165.8447230654
 30
0.0
 11
99.6356012667
 21
165.8447230654
 31
0.0
  0
LINE
  5
19A
330
1F
100
AcDbEntity
  8
0
  6
SLD-実線
 62
     7
370
    18
100
AcDbLine
 10
99.4356825024
 20
166.0447230589
 30
0.0
 11
99.5097994914
 21
166.0447230589
 31
0.0
  0
SPLINE
  5
19B
330
1F
100
AcDbEntity
  8
0
  6
SLD-実線
 62
     7
370
    18
100
AcDbSpline
210
0.0
220
0.0
230
1.0
 70
     8
 71
     3
 72
    11
 73
     7
 74
     0
 42
0.000000001
 43
0.00000001
 40
0.0
 40
0.0
 40
0.0
 40
0.0
 40
0.3010416340950529
 40
0.6021414493904006
 40
0.895731914528223
 40
1.0
 40
1.0
 40
1.0
 40
1.0
 10
99.50979949139881
 20
166.0447230589362
 30
0.0
 10
99.5128233480859
 20
166.0185183418812
 30
0.0
 10
99.51887164586967
 20
165.9661038432826
 30
0.0
 10
99.56491394931314
 20
165.9006894619712
 30
0.0
 10
99.61550958673844
 20
165.8643629651519
 30
0.0
 10
99.64875996482965
 20
165.8550751473113
 30
0.0
 10
99.65747399965302
 20
165.8526410586559
 30
0.0
  0
LINE
  5
19C
330
1F
100
AcDbEntity
  8
0
  6
SLD-実線
 62
     7
370
    18
100
AcDbLine
 10
55.0375247094
 20
148.0441138396
 30
0.0
 11
55.0375247094
 21
165.8447230589
 31
0.0
  0
LINE
  5
19D
330
1F
100
AcDbEntity
  8
0
  6
SLD-実線
 62
     7
370
    18
100
AcDbLine
 10
55.4394481521
 20
165.8447230589
 30
0.0
 11
55.0375247094
 21
165.8447230589
 31
0.0
  0
LINE
  5
19E
330
1F
100
AcDbEntity
  8
0
  6
SLD-実線
 62
     7
370
    18
100
AcDbLine
 10
95.0382862336
 20
144.0447230589
 30
0.0
 11
94.9142638827
 21
144.1687454098
 31
0.0
  0
LINE
  5
19F
330
1F
100
AcDbEntity
  8
0
  6
SLD-実線
 62
     7
370
    18
100
AcDbLine
 10
95.0382862336
 20
144.0447230589
 30
0.0
 11
78.2375247094
 21
144.0447230589
 31
0.0
  0
LINE
  5
1A0
330
1F
100
AcDbEntity
  8
0
  6
SLD-実線
 62
     7
370
    18
100
AcDbLine
 10
78.2375247094
 20
144.4466465016
 30
0.0
 11
78.2375247094
 21
144.0447230589
 31
0.0
  0
LINE
  5
1A1
330
1F
100
AcDbEntity
  8
0
  6
SLD-実線
 62
     7
370
    18
100
AcDbLine
 10
94.9142638827
 20
144.1687454098
 30
0.0
 11
89.6588300071
 21
144.1687454098
 31
0.0
  0
LINE
  5
1A2
330
1F
100
AcDbEntity
  8
0
  6
SLD-実線
 62
     7
370
    18
100
AcDbLine
 10
99.9135023585
 20
154.4234177613
 30
0.0
 11
99.9135023585
 21
149.1679838856
 31
0.0
  0
SPLINE
  5
1A3
330
1F
100
AcDbEntity
  8
0
  6
SLD-実線
 62
     7
370
    18
100
AcDbSpline
210
0.0
220
0.0
230
1.0
 70
     8
 71
     3
 72
    19
 73
    15
 74
     0
 42
0.000000001
 43
0.00000001
 40
0.0
 40
0.0
 40
0.0
 40
0.0
 40
0.078065864513609
 40
0.1583888824145952
 40
0.240802339762412
 40
0.3263225682210109
 40
0.412780577880308
 40
0.4999905519106511
 40
0.5871706733736258
 40
0.6736280455464138
 40
0.7591787575268051
 40
0.8415616599636856
 40
0.9218775971772892
 40
1.0
 40
1.0
 40
1.0
 40
1.0
 10
99.83187974240404
 20
156.4863987038408
 30
0.0
 10
99.82479839777295
 20
156.4950210211365
 30
0.0
 10
99.81091348203167
 20
156.5221017879549
 30
0.0
 10
99.79009874822076
 20
156.7449867968539
 30
0.0
 10
99.76927233793022
 20
157.1130812704319
 30
0.0
 10
99.74893115291152
 20
157.6443463132815
 30
0.0
 10
99.729599277597
 20
158.3338758747358
 30
0.0
 10
99.71189314259986
 20
159.1678092834835
 30
0.0
 10
99.69624090105744
 20
160.1271637178965
 30
0.0
 10
99.6829984249481
 20
161.1886196868098
 30
0.0
 10
99.67244975751797
 20
162.3179402668644
 30
0.0
 10
99.66471231047686
 20
163.4853568391756
 30
0.0
 10
99.65950250226602
 20
164.6614643007671
 30
0.0
 10
99.65814603955216
 20
165.4539607743275
 30
0.0
 10
99.65747719811822
 20
165.8447230653794
 30
0.0
  0
LINE
  5
1A4
330
1F
100
AcDbEntity
  8
0
  6
SLD-実線
 62
     7
370
    18
100
AcDbLine
 10
99.8318797424
 20
156.4863987038
 30
0.0
 11
100.0375247094
 21
149.0439615347
 31
0.0
  0
LINE
  5
1A5
330
1F
100
AcDbEntity
  8
0
  6
SLD-実線
 62
     7
370
    18
100
AcDbLine
 10
100.0375247094
 20
149.0439615347
 30
0.0
 11
99.9135023585
 21
149.1679838856
 31
0.0
  0
LINE
  5
1A6
330
1F
100
AcDbEntity
  8
0
  6
SLD-実線
 62
     7
370
    18
100
AcDbLine
 10
99.5099571373
 20
167.0447230589
 30
0.0
 11
99.4356825024
 21
167.0447230589
 31
0.0
  0
SPLINE
  5
1A7
330
1F
100
AcDbEntity
  8
0
  6
SLD-実線
 62
     7
370
    18
100
AcDbSpline
210
0.0
220
0.0
230
1.0
 70
     8
 71
     3
 72
    11
 73
     7
 74
     0
 42
0.000000001
 43
0.00000001
 40
0.0
 40
0.0
 40
0.0
 40
0.0
 40
0.1686350343094833
 40
0.3455834309321145
 40
0.672653306580081
 40
0.9999999999999999
 40
0.9999999999999999
 40
0.9999999999999999
 40
0.9999999999999999
 10
99.63560128216825
 20
167.244723052493
 30
0.0
 10
99.62494031470223
 20
167.2252530604748
 30
0.0
 10
99.59985637933946
 20
167.2136805727189
 30
0.0
 10
99.55842947745322
 20
167.1792931641857
 30
0.0
 10
99.51897509249696
 20
167.1231197273229
 30
0.0
 10
99.51296396993854
 20
167.0708626499681
 30
0.0
 10
99.50995713730893
 20
167.0447230589362
 30
0.0
  0
SPLINE
  5
1A8
330
1F
100
AcDbEntity
  8
0
  6
SLD-実線
 62
     7
370
    18
100
AcDbSpline
210
0.0
220
0.0
230
1.0
 70
     8
 71
     3
 72
    22
 73
    18
 74
     0
 42
0.000000001
 43
0.00000001
 40
0.0
 40
0.0
 40
0.0
 40
0.0
 40
0.0347329060197743
 40
0.0692406118135754
 40
0.10361094151001
 40
0.1379327738248609
 40
0.1722953637908825
 40
0.2067876500388847
 40
0.2414975742360418
 40
0.3707126395115534
 40
0.500025517693254
 40
0.6292405405355948
 40
0.7585533821292626
 40
0.8190987033558523
 40
0.8792033746401913
 40
0.9393449218731836
 40
1.0
 40
1.0
 40
1.0
 40
1.0
 10
60.23116774748196
 20
180.3497937803443
 30
0.0
 10
60.29379251165305
 20
180.3539862290144
 30
0.0
 10
60.41863599533444
 20
180.3623439434754
 30
0.0
 10
60.6043628056277
 20
180.3866708919791
 30
0.0
 10
60.78794691216173
 20
180.4196006621266
 30
0.0
 10
60.96934210217869
 20
180.4619676421733
 30
0.0
 10
61.14855216561133
 20
180.5135446638984
 30
0.0
 10
61.32558612862972
 20
180.5744049939222
 30
0.0
 10
61.65838295771931
 20
180.7078073155325
 30
0.0
 10
62.12697647151646
 20
180.9627718425172
 30
0.0
 10
62.66897336022095
 20
181.4130048458672
 30
0.0
 10
63.11942270593325
 20
181.9551504373526
 30
0.0
 10
63.39669372832721
 20
182.4649117424713
 30
0.0
 10
63.55736999655995
 20
182.8874751930137
 30
0.0
 10
63.64548333883614
 20
183.2023893946337
 30
0.0
 10
63.70707392475995
 20
183.5240210919474
 30
0.0
 10
63.72397002399126
 20
183.7417518387222
 30
0.0
 10
63.73245398797503
 20
183.8510800208374
 30
0.0
  0
SPLINE
  5
1A9
330
1F
100
AcDbEntity
  8
0
  6
SLD-実線
 62
     7
370
    18
100
AcDbSpline
210
0.0
220
0.0
230
1.0
 70
     8
 71
     3
 72
    13
 73
     9
 74
     0
 42
0.000000001
 43
0.00000001
 40
0.0
 40
0.0
 40
0.0
 40
0.0
 40
0.1281386196779285
 40
0.2510761536452936
 40
0.3737244853611287
 40
0.5010289782004786
 40
0.7483364250330423
 40
1.0
 40
1.0
 40
1.0
 40
1.0
 10
77.03752470938315
 20
144.2447535245449
 30
0.0
 10
77.02412497245655
 20
144.2439941915266
 30
0.0
 10
76.99786938756058
 20
144.2425063464564
 30
0.0
 10
76.96021234633726
 20
144.2309482458524
 30
0.0
 10
76.92569685395422
 20
144.2123408031685
 30
0.0
 10
76.88575228719033
 20
144.17904663176
 30
0.0
 10
76.84574124977081
 20
144.1238611244426
 30
0.0
 10
76.8402794504206
 20
144.0712555003759
 30
0.0
 10
76.8375247093832
 20
144.0447230589361
 30
0.0
  0
LINE
  5
1AA
330
1F
100
AcDbEntity
  8
0
  6
SLD-実線
 62
     7
370
    18
100
AcDbLine
 10
77.0375247094
 20
144.6466160406
 30
0.0
 11
77.0375247094
 21
144.2447535245
 31
0.0
  0
SPLINE
  5
1AB
330
1F
100
AcDbEntity
  8
0
  6
SLD-実線
 62
     7
370
    18
100
AcDbSpline
210
0.0
220
0.0
230
1.0
 70
     8
 71
     3
 72
    13
 73
     9
 74
     0
 42
0.000000001
 43
0.00000001
 40
0.0
 40
0.0
 40
0.0
 40
0.0
 40
0.1281578478598667
 40
0.2511110920653157
 40
0.3737697774103629
 40
0.5010780350288608
 40
0.7483718277712206
 40
1.0
 40
1.0
 40
1.0
 40
1.0
 10
78.23752470938314
 20
144.0447230589362
 30
0.0
 10
78.23676550339933
 20
144.0581247879285
 30
0.0
 10
78.23527792345865
 20
144.0843839898348
 30
0.0
 10
78.22372185662358
 20
144.1220463941806
 30
0.0
 10
78.20511752362675
 20
144.1565670644448
 30
0.0
 10
78.17182964542528
 20
144.1965166229996
 30
0.0
 10
78.11665413901476
 20
144.2365347356898
 30
0.0
 10
78.06405350840784
 20
144.2419981072649
 30
0.0
 10
78.0375247093832
 20
144.2447535245449
 30
0.0
  0
LINE
  5
1AC
330
1F
100
AcDbEntity
  8
0
  6
SLD-実線
 62
     7
370
    18
100
AcDbLine
 10
78.0375247094
 20
144.2447535245
 30
0.0
 11
78.0375247094
 21
144.6466160406
 31
0.0
  0
SPLINE
  5
1AD
330
1F
100
AcDbEntity
  8
0
  6
SLD-実線
 62
     7
370
    18
100
AcDbSpline
210
0.0
220
0.0
230
1.0
 70
     8
 71
     3
 72
    13
 73
     9
 74
     0
 42
0.000000001
 43
0.00000001
 40
0.0
 40
0.0
 40
0.0
 40
0.0
 40
0.1281578478602197
 40
0.2511110920657869
 40
0.3737697774107309
 40
0.5010780350289576
 40
0.7483718277717314
 40
1.0
 40
1.0
 40
1.0
 40
1.0
 10
55.03752470938313
 20
165.8447230589362
 30
0.0
 10
55.05092643837552
 20
165.8454822649201
 30
0.0
 10
55.07718564028188
 20
165.8469698448608
 30
0.0
 10
55.11484804462771
 20
165.8585259116958
 30
0.0
 10
55.14936871489184
 20
165.8771302446926
 30
0.0
 10
55.18931827344667
 20
165.9104181228942
 30
0.0
 10
55.22933638613678
 20
165.9655936293048
 30
0.0
 10
55.23479975771191
 20
166.0181942599116
 30
0.0
 10
55.23755517499193
 20
166.0447230589362
 30
0.0
  0
LINE
  5
1AE
330
1F
100
AcDbEntity
  8
0
  6
SLD-実線
 62
     7
370
    18
100
AcDbLine
 10
55.237555175
 20
166.0447230589
 30
0.0
 11
55.6394176911
 21
166.0447230589
 31
0.0
  0
SPLINE
  5
1AF
330
1F
100
AcDbEntity
  8
0
  6
SLD-実線
 62
     7
370
    18
100
AcDbSpline
210
0.0
220
0.0
230
1.0
 70
     8
 71
     3
 72
    13
 73
     9
 74
     0
 42
0.000000001
 43
0.00000001
 40
0.0
 40
0.0
 40
0.0
 40
0.0
 40
0.1281578478598421
 40
0.2511110920653248
 40
0.3737697774103912
 40
0.5010780350288959
 40
0.748371827771226
 40
1.0
 40
1.0
 40
1.0
 40
1.0
 10
76.83752470938316
 20
189.0447230589363
 30
0.0
 10
76.8382839153671
 20
189.0313213299439
 30
0.0
 10
76.83977149530776
 20
189.0050621280377
 30
0.0
 10
76.85132756214283
 20
188.9673997236918
 30
0.0
 10
76.86993189513964
 20
188.9328790534277
 30
0.0
 10
76.90321977334114
 20
188.8929294948728
 30
0.0
 10
76.95839527975167
 20
188.8529113821826
 30
0.0
 10
77.01099591035856
 20
188.8474480106075
 30
0.0
 10
77.0375247093832
 20
188.8446925933275
 30
0.0
  0
LINE
  5
1B0
330
1F
100
AcDbEntity
  8
0
  6
SLD-実線
 62
     7
370
    18
100
AcDbLine
 10
77.0375247094
 20
188.8446925933
 30
0.0
 11
77.0375247094
 21
188.4428300772
 31
0.0
  0
SPLINE
  5
1B1
330
1F
100
AcDbEntity
  8
0
  6
SLD-実線
 62
     7
370
    18
100
AcDbSpline
210
0.0
220
0.0
230
1.0
 70
     8
 71
     3
 72
    13
 73
     9
 74
     0
 42
0.000000001
 43
0.00000001
 40
0.0
 40
0.0
 40
0.0
 40
0.0
 40
0.1281386196777662
 40
0.2510761536450606
 40
0.373724485360962
 40
0.5010289782004468
 40
0.7483364250327985
 40
1.0
 40
1.0
 40
1.0
 40
1.0
 10
78.03752470938315
 20
188.8446925933275
 30
0.0
 10
78.05092444630985
 20
188.8454519263459
 30
0.0
 10
78.07718003120578
 20
188.846939771416
 30
0.0
 10
78.11483707242908
 20
188.8584978720201
 30
0.0
 10
78.14935256481215
 20
188.877105314704
 30
0.0
 10
78.18929713157605
 20
188.9103994861124
 30
0.0
 10
78.22930816899562
 20
188.9655849934298
 30
0.0
 10
78.23476996834582
 20
189.0181906174965
 30
0.0
 10
78.23752470938321
 20
189.0447230589363
 30
0.0
  0
LINE
  5
1B2
330
1F
100
AcDbEntity
  8
0
  6
SLD-実線
 62
     7
370
    18
100
AcDbLine
 10
78.0375247094
 20
188.4428300772
 30
0.0
 11
78.0375247094
 21
188.8446925933
 31
0.0
  0
SPLINE
  5
1B3
330
1F
100
AcDbEntity
  8
0
  6
SLD-実線
 62
     7
370
    18
100
AcDbSpline
210
0.0
220
0.0
230
1.0
 70
     8
 71
     3
 72
    22
 73
    18
 74
     0
 42
0.000000001
 43
0.00000001
 40
0.0
 40
0.0
 40
0.0
 40
0.0
 40
0.0347329060202251
 40
0.0692406118143258
 40
0.1036109415109094
 40
0.1379327738257604
 40
0.1722953637916353
 40
0.206787650039348
 40
0.2414975742360783
 40
0.3707126395120575
 40
0.5000255176932413
 40
0.6292405405354765
 40
0.758553382129275
 40
0.8190987033560793
 40
0.8792033746404914
 40
0.9393449218734086
 40
1.0
 40
1.0
 40
1.0
 40
1.0
 10
94.84388167128472
 20
152.7396523375284
 30
0.0
 10
94.7812569071128
 20
152.7354598888582
 30
0.0
 10
94.65641342343007
 20
152.7271021743972
 30
0.0
 10
94.4706866131352
 20
152.7027752258935
 30
0.0
 10
94.28710250660033
 20
152.6698454557459
 30
0.0
 10
94.10570731658333
 20
152.6274784756992
 30
0.0
 10
93.92649725315152
 20
152.5759014539742
 30
0.0
 10
93.74946329013471
 20
152.5150411239505
 30
0.0
 10
93.41666646104619
 20
152.3816388023387
 30
0.0
 10
92.94807294725062
 20
152.1266742753534
 30
0.0
 10
92.40607605854515
 20
151.6764412720052
 30
0.0
 10
91.95562671283264
 20
151.1342956805209
 30
0.0
 10
91.67835569043922
 20
150.6245343754014
 30
0.0
 10
91.51767942220677
 20
150.201970924858
 30
0.0
 10
91.42956607993051
 20
149.8870567232377
 30
0.0
 10
91.36797549400667
 20
149.5654250259244
 30
0.0
 10
91.35107939477538
 20
149.3476942791501
 30
0.0
 10
91.34259543079163
 20
149.2383660970353
 30
0.0
  0
LINE
  5
1B4
330
1F
100
AcDbEntity
  8
0
  6
SLD-実線
 62
     7
370
    18
100
AcDbLine
 10
55.6394176911
 20
167.0447230589
 30
0.0
 11
55.237555175
 21
167.0447230589
 31
0.0
  0
SPLINE
  5
1B5
330
1F
100
AcDbEntity
  8
0
  6
SLD-実線
 62
     7
370
    18
100
AcDbSpline
210
0.0
220
0.0
230
1.0
 70
     8
 71
     3
 72
    13
 73
     9
 74
     0
 42
0.000000001
 43
0.00000001
 40
0.0
 40
0.0
 40
0.0
 40
0.0
 40
0.1281386196777638
 40
0.251076153645064
 40
0.3737244853609497
 40
0.501028978200431
 40
0.748336425032793
 40
0.9999999999999999
 40
0.9999999999999999
 40
0.9999999999999999
 40
0.9999999999999999
 10
55.23755517499193
 20
167.0447230589362
 30
0.0
 10
55.23679584197357
 20
167.0581227958629
 30
0.0
 10
55.23530799690339
 20
167.0843783807588
 30
0.0
 10
55.22374989629935
 20
167.1220354219821
 30
0.0
 10
55.20514245361546
 20
167.1565509143651
 30
0.0
 10
55.17184828220702
 20
167.1964954811291
 30
0.0
 10
55.11666277488961
 20
167.2365065185487
 30
0.0
 10
55.06405715082286
 20
167.2419683178988
 30
0.0
 10
55.03752470938313
 20
167.2447230589362
 30
0.0
  0
SPLINE
  5
1B6
330
1F
100
AcDbEntity
  8
0
  6
SLD-実線
 62
     7
370
    18
100
AcDbSpline
210
0.0
220
0.0
230
1.0
 70
     8
 71
     3
 72
     9
 73
     5
 74
     0
 42
0.000000001
 43
0.00000001
 40
0.0
 40
0.0
 40
0.0
 40
0.0
 40
0.4999999999998918
 40
1.0
 40
1.0
 40
1.0
 40
1.0
 10
99.50979949139881
 20
166.0447230589362
 30
0.0
 10
99.50971468396727
 20
166.1378443282313
 30
0.0
 10
99.5095450691042
 20
166.3240868668216
 30
0.0
 10
99.50956827360258
 20
166.5105780695275
 30
0.0
 10
99.50957987585177
 20
166.6038236708804
 30
0.0
  0
SPLINE
  5
1B7
330
1F
100
AcDbEntity
  8
0
  6
SLD-実線
 62
     7
370
    18
100
AcDbSpline
210
0.0
220
0.0
230
1.0
 70
     8
 71
     3
 72
     9
 73
     5
 74
     0
 42
0.000000001
 43
0.00000001
 40
0.0
 40
0.0
 40
0.0
 40
0.0
 40
0.5000000000000121
 40
1.0
 40
1.0
 40
1.0
 40
1.0
 10
99.50957987585177
 20
166.6038236708804
 30
0.0
 10
99.50961275617837
 20
166.6773911704953
 30
0.0
 10
99.50967851683157
 20
166.8245261697251
 30
0.0
 10
99.50986426381647
 20
166.9713240958658
 30
0.0
 10
99.50995713730893
 20
167.0447230589362
 30
0.0
  0
LINE
  5
1B8
330
1F
100
AcDbEntity
  8
0
  6
SLD-実線
 62
     7
370
    18
100
AcDbLine
 10
78.0375247094
 20
188.8446925933
 30
0.0
 11
77.0375247094
 21
188.8446925933
 31
0.0
  0
LINE
  5
1B9
330
1F
100
AcDbEntity
  8
0
  6
SLD-実線
 62
     7
370
    18
100
AcDbLine
 10
77.0375247094
 20
144.2447535245
 30
0.0
 11
78.0375247094
 21
144.2447535245
 31
0.0
  0
LINE
  5
1BA
330
1F
100
AcDbEntity
  8
0
  6
SLD-実線
 62
     7
370
    18
100
AcDbLine
 10
55.237555175
 20
167.0447230589
 30
0.0
 11
55.237555175
 21
166.0447230589
 31
0.0
  0
SPLINE
  5
1BB
330
1F
100
AcDbEntity
  8
0
  6
SLD-実線
 62
     7
370
    18
100
AcDbSpline
210
0.0
220
0.0
230
1.0
 70
     8
 71
     3
 72
    15
 73
    11
 74
     0
 42
0.000000001
 43
0.00000001
 40
0.0
 40
0.0
 40
0.0
 40
0.0
 40
0.153463271696931
 40
0.3115978669459747
 40
0.4741535139013937
 40
0.601315163012581
 40
0.7283821319658041
 40
0.8582495452674654
 40
0.988020263712766
 40
1.0
 40
1.0
 40
1.0
 40
1.0
 10
102.9533382180097
 20
166.3594899807584
 30
0.0
 10
102.9530763188271
 20
166.0750354308548
 30
0.0
 10
102.9525445484189
 20
165.4974677170106
 30
0.0
 10
102.9493461035812
 20
164.6343051013538
 30
0.0
 10
102.9446693563402
 20
163.8463272791478
 30
0.0
 10
102.9388429435464
 20
163.1483992823892
 30
0.0
 10
102.9324147359971
 20
162.5364319997901
 30
0.0
 10
102.9247071613728
 20
161.9733834725799
 30
0.0
 10
102.9190747499164
 20
161.5796157284915
 30
0.0
 10
102.9154457286081
 20
161.4187726697714
 30
0.0
 10
102.9151390296396
 20
161.4051793629228
 30
0.0
  0
SPLINE
  5
1BC
330
1F
100
AcDbEntity
  8
0
  6
SLD-実線
 62
     7
370
    18
100
AcDbSpline
210
0.0
220
0.0
230
1.0
 70
     8
 71
     3
 72
    14
 73
    10
 74
     0
 42
0.000000001
 43
0.00000001
 40
0.0
 40
0.0
 40
0.0
 40
0.0
 40
0.0648411850395157
 40
0.1757233274851502
 40
0.3972734609581112
 40
0.5059262865971473
 40
0.6144982131212183
 40
0.8227851276908966
 40
1.0
 40
1.0
 40
1.0
 40
1.0
 10
102.7583872214358
 20
160.8716260952185
 30
0.0
 10
102.756404455734
 20
160.9547576572499
 30
0.0
 10
102.7510310470504
 20
161.1800489545989
 30
0.0
 10
102.7401369270597
 20
161.7779067104702
 30
0.0
 10
102.7296969505749
 20
162.5333620050977
 30
0.0
 10
102.7215577604675
 20
163.3654477768801
 30
0.0
 10
102.7151649948133
 20
164.2133292236774
 30
0.0
 10
102.7100009010529
 20
165.2554680034889
 30
0.0
 10
102.709454910777
 20
166.093362295193
 30
0.0
 10
102.7092039194709
 20
166.4785416509493
 30
0.0
  0
SPLINE
  5
1BD
330
1F
100
AcDbEntity
  8
0
  6
SLD-実線
 62
     7
370
    18
100
AcDbSpline
210
0.0
220
0.0
230
1.0
 70
     8
 71
     3
 72
    15
 73
    11
 74
     0
 42
0.000000001
 43
0.00000001
 40
0.0
 40
0.0
 40
0.0
 40
0.0
 40
0.1265799898655561
 40
0.2570129934334623
 40
0.3910925807971227
 40
0.495978395353068
 40
0.6007861155622143
 40
0.7079037058409035
 40
0.8149415400001355
 40
1.0
 40
1.0
 40
1.0
 40
1.0
 10
102.7090417410922
 20
166.6038236708804
 30
0.0
 10
102.7093036936017
 20
166.8882747677005
 30
0.0
 10
102.7098355722869
 20
167.4658354702792
 30
0.0
 10
102.713033178262
 20
168.3290524048579
 30
0.0
 10
102.7177129779935
 20
169.1168325689367
 30
0.0
 10
102.7235302752014
 20
169.8153508279174
 30
0.0
 10
102.7299907983753
 20
170.4252255744392
 30
0.0
 10
102.7375749753217
 20
170.9962644808424
 30
0.0
 10
102.7481861050357
 20
171.6607138035828
 30
0.0
 10
102.7575395611437
 20
172.0439510010733
 30
0.0
 10
102.7634654705702
 20
172.2867520464835
 30
0.0
  0
SPLINE
  5
1BE
330
1F
100
AcDbEntity
  8
0
  6
SLD-実線
 62
     7
370
    18
100
AcDbSpline
210
0.0
220
0.0
230
1.0
 70
     8
 71
     3
 72
    14
 73
    10
 74
     0
 42
0.000000001
 43
0.00000001
 40
0.0
 40
0.0
 40
0.0
 40
0.0
 40
0.0075492961092121
 40
0.125075002782
 40
0.35989943370703
 40
0.4750622528395962
 40
0.5901393257346714
 40
0.8109058647398214
 40
1.0
 40
1.0
 40
1.0
 40
1.0
 10
102.9092204094249
 20
171.8649422147155
 30
0.0
 10
102.9094359097555
 20
171.8556482900896
 30
0.0
 10
102.9130062697012
 20
171.7016686830353
 30
0.0
 10
102.9221737526265
 20
171.180517080369
 30
0.0
 10
102.9326938904724
 20
170.430716584692
 30
0.0
 10
102.9408201387089
 20
169.5977258388976
 30
0.0
 10
102.9472165007416
 20
168.7500645024904
 30
0.0
 10
102.9523879840715
 20
167.7052924722153
 30
0.0
 10
102.9529340876608
 20
166.8648128221511
 30
0.0
 10
102.9531860390981
 20
166.477047460379
 30
0.0
  0
SPLINE
  5
1BF
330
1F
100
AcDbEntity
  8
0
  6
SLD-実線
 62
     7
370
    18
100
AcDbSpline
210
0.0
220
0.0
230
1.0
 70
     8
 71
     3
 72
     8
 73
     4
 74
     0
 42
0.000000001
 43
0.00000001
 40
0.0
 40
0.0
 40
0.0
 40
0.0
 40
0.9999999999999999
 40
0.9999999999999999
 40
0.9999999999999999
 40
0.9999999999999999
 10
99.65763167219235
 20
167.244723052493
 30
0.0
 10
99.6573692906117
 20
167.0482750058968
 30
0.0
 10
99.65720942095669
 20
166.8531733682054
 30
0.0
 10
99.65714941056928
 20
166.6561808901923
 30
0.0
  0
SPLINE
  5
1C0
330
1F
100
AcDbEntity
  8
0
  6
SLD-実線
 62
     7
370
    18
100
AcDbSpline
210
0.0
220
0.0
230
1.0
 70
     8
 71
     3
 72
     8
 73
     4
 74
     0
 42
0.000000001
 43
0.00000001
 40
0.0
 40
0.0
 40
0.0
 40
0.0
 40
1.0
 40
1.0
 40
1.0
 40
1.0
 10
99.65714941056928
 20
166.6561808901923
 30
0.0
 10
99.65706684587836
 20
166.3851507607837
 30
0.0
 10
99.65717587440528
 20
166.1152440739685
 30
0.0
 10
99.65747719811822
 20
165.8447230653794
 30
0.0
  0
LINE
  5
1C1
330
1F
100
AcDbEntity
  8
0
  6
SLD-実線
 62
     7
370
    18
100
AcDbLine
 10
99.61354805
 20
153.5352866581
 30
0.0
 11
99.61354805
 21
149.1679838856
 31
0.0
  0
SPLINE
  5
1C2
330
1F
100
AcDbEntity
  8
0
  6
SLD-実線
 62
     7
370
    18
100
AcDbSpline
210
0.0
220
0.0
230
1.0
 70
     8
 71
     3
 72
    10
 73
     6
 74
     0
 42
0.000000001
 43
0.00000001
 40
0.0
 40
0.0
 40
0.0
 40
0.0
 40
0.5
 40
0.5
 40
1.0
 40
1.0
 40
1.0
 40
1.0
 10
99.6135480499797
 20
149.1679838855747
 30
0.0
 10
99.61354804997865
 20
148.5526699464764
 30
0.0
 10
99.49124902090794
 20
147.9378571313933
 30
0.0
 10
99.02047962203375
 20
146.8012178795599
 30
0.0
 10
98.67227268680098
 20
146.2800276605811
 30
0.0
 10
98.23724639727035
 20
145.845001371049
 30
0.0
  0
SPLINE
  5
1C3
330
1F
100
AcDbEntity
  8
0
  6
SLD-実線
 62
     7
370
    18
100
AcDbSpline
210
0.0
220
0.0
230
1.0
 70
     8
 71
     3
 72
    10
 73
     6
 74
     0
 42
0.000000001
 43
0.00000001
 40
0.0
 40
0.0
 40
0.0
 40
0.0
 40
0.5
 40
0.5
 40
1.0
 40
1.0
 40
1.0
 40
1.0
 10
98.23724639727034
 20
145.8450013710491
 30
0.0
 10
97.80222010773642
 20
145.4099750815203
 30
0.0
 10
97.28102988875953
 20
145.0617681462854
 30
0.0
 10
96.14439063692595
 20
144.5909987474116
 30
0.0
 10
95.52957782184308
 20
144.4686997183429
 30
0.0
 10
94.91426388274462
 20
144.4686997183396
 30
0.0
  0
LINE
  5
1C4
330
1F
100
AcDbEntity
  8
0
  6
SLD-実線
 62
     7
370
    18
100
AcDbLine
 10
94.9142638827
 20
144.4686997183
 30
0.0
 11
90.5469611103
 21
144.4686997183
 31
0.0
  0
LINE
  5
1C5
330
1F
100
AcDbEntity
  8
0
  6
SLD-実線
 62
     7
370
    18
100
AcDbLine
 10
55.4615013688
 20
179.5541594598
 30
0.0
 11
55.4615013688
 21
183.9214622323
 31
0.0
  0
SPLINE
  5
1C6
330
1F
100
AcDbEntity
  8
0
  6
SLD-実線
 62
     7
370
    18
100
AcDbSpline
210
0.0
220
0.0
230
1.0
 70
     8
 71
     3
 72
    10
 73
     6
 74
     0
 42
0.000000001
 43
0.00000001
 40
0.0
 40
0.0
 40
0.0
 40
0.0
 40
0.5
 40
0.5
 40
1.0
 40
1.0
 40
1.0
 40
1.0
 10
55.46150136878661
 20
183.9214622322977
 30
0.0
 10
55.46150136878661
 20
184.5367761713961
 30
0.0
 10
55.58380039785996
 20
185.1515889864792
 30
0.0
 10
56.05456979673095
 20
186.2882282383126
 30
0.0
 10
56.40277673196678
 20
186.8094184572911
 30
0.0
 10
56.83780302149596
 20
187.2444447468235
 30
0.0
  0
SPLINE
  5
1C7
330
1F
100
AcDbEntity
  8
0
  6
SLD-実線
 62
     7
370
    18
100
AcDbSpline
210
0.0
220
0.0
230
1.0
 70
     8
 71
     3
 72
    10
 73
     6
 74
     0
 42
0.000000001
 43
0.00000001
 40
0.0
 40
0.0
 40
0.0
 40
0.0
 40
0.5000000000000003
 40
0.5000000000000003
 40
1.0
 40
1.0
 40
1.0
 40
1.0
 10
56.83780302149596
 20
187.2444447468235
 30
0.0
 10
57.27282931102531
 20
187.679471036355
 30
0.0
 10
57.79401953000806
 20
188.0276779715881
 30
0.0
 10
58.93065878183899
 20
188.4984473704598
 30
0.0
 10
59.54547159692422
 20
188.6207463995339
 30
0.0
 10
60.16078553602164
 20
188.6207463995328
 30
0.0
  0
LINE
  5
1C8
330
1F
100
AcDbEntity
  8
0
  6
SLD-実線
 62
     7
370
    18
100
AcDbLine
 10
60.160785536
 20
188.6207463995
 30
0.0
 11
64.5280883085
 21
188.6207463995
 31
0.0
  0
LINE
  5
1C9
330
1F
100
AcDbEntity
  8
0
  6
SLD-実線
 62
     7
370
    18
100
AcDbLine
 10
60.160785536
 20
188.9207007081
 30
0.0
 11
60.160785536
 21
188.6207463995
 31
0.0
  0
LINE
  5
1CA
330
1F
100
AcDbEntity
  8
0
  6
SLD-実線
 62
     7
370
    18
100
AcDbLine
 10
94.9142638827
 20
144.1687454098
 30
0.0
 11
94.9142638827
 21
144.4686997183
 31
0.0
  0
LINE
  5
1CB
330
1F
100
AcDbEntity
  8
0
  6
SLD-実線
 62
     7
370
    18
100
AcDbLine
 10
55.1615470602
 20
183.9214622323
 30
0.0
 11
55.4615013688
 21
183.9214622323
 31
0.0
  0
LINE
  5
1CC
330
1F
100
AcDbEntity
  8
0
  6
SLD-実線
 62
     7
370
    18
100
AcDbLine
 10
99.9135023585
 20
149.1679838856
 30
0.0
 11
99.61354805
 21
149.1679838856
 31
0.0
  0
SPLINE
  5
1CD
330
1F
100
AcDbEntity
  8
0
  6
SLD-実線
 62
     7
370
    18
100
AcDbSpline
210
0.0
220
0.0
230
1.0
 70
     8
 71
     3
 72
    25
 73
    21
 74
     0
 42
0.000000001
 43
0.00000001
 40
0.0
 40
0.0
 40
0.0
 40
0.0
 40
0.058432444741963
 40
0.1165262081099071
 40
0.1742813291985527
 40
0.2316978478183753
 40
0.2887758045123537
 40
0.3455152405732366
 40
0.4019161980613
 40
0.4579787198226509
 40
0.5137028495080811
 40
0.5690886315924756
 40
0.624136111394833
 40
0.6788453350988747
 40
0.7332163497743069
 40
0.7872492033987308
 40
0.8409439448802353
 40
0.8943006240807055
 40
0.9473192918398488
 40
1.0
 40
1.0
 40
1.0
 40
1.0
 10
55.16154706023968
 20
183.9214622322977
 30
0.0
 10
55.16256110858042
 20
183.9979395858695
 30
0.0
 10
55.16458332771757
 20
184.1504510212092
 30
0.0
 10
55.18083904958922
 20
184.3780740658838
 30
0.0
 10
55.20652841071009
 20
184.6034272232464
 30
0.0
 10
55.24236603719294
 20
184.8260677446841
 30
0.0
 10
55.28785032165739
 20
185.0455717581139
 30
0.0
 10
55.34278193708925
 20
185.2615346979216
 30
0.0
 10
55.40686217323854
 20
185.4735717344273
 30
0.0
 10
55.47980126081242
 20
185.6813180961723
 30
0.0
 10
55.56129120566619
 20
185.8844293552198
 30
0.0
 10
55.65101469653528
 20
186.0825815173451
 30
0.0
 10
55.74864399219454
 20
186.2754714910864
 30
0.0
 10
55.85384397827872
 20
186.4628158329011
 30
0.0
 10
55.96626839671377
 20
186.6443555561885
 30
0.0
 10
56.08557888007992
 20
186.8198382233094
 30
0.0
 10
56.21138014267692
 20
186.9890837479739
 30
0.0
 10
56.34346483343597
 20
187.1517404466776
 30
0.0
 10
56.48091348984111
 20
187.3081859492943
 30
0.0
 10
56.57756456614112
 20
187.4071756041293
 30
0.0
 10
56.62573558985476
 20
187.4565121784646
 30
0.0
  0
LINE
  5
1CE
330
1F
100
AcDbEntity
  8
0
  6
SLD-実線
 62
     7
370
    18
100
AcDbLine
 10
56.6257355899
 20
187.4565121785
 30
0.0
 11
56.8378030215
 21
187.2444447468
 31
0.0
  0
SPLINE
  5
1CF
330
1F
100
AcDbEntity
  8
0
  6
SLD-実線
 62
     7
370
    18
100
AcDbSpline
210
0.0
220
0.0
230
1.0
 70
     8
 71
     3
 72
    25
 73
    21
 74
     0
 42
0.000000001
 43
0.00000001
 40
0.0
 40
0.0
 40
0.0
 40
0.0
 40
0.0584329704913492
 40
0.1165271977652513
 40
0.174282720914238
 40
0.2316995797466825
 40
0.2887778148035732
 40
0.3455174673757657
 40
0.401918579521763
 40
0.4579811940860176
 40
0.5137053547177883
 40
0.5690911058905657
 40
0.6241384929220831
 40
0.6788475619949517
 40
0.7332183601779163
 40
0.7872509354477768
 40
0.8409453367119971
 40
0.8943016138320077
 40
0.9473198176472514
 40
1.0
 40
1.0
 40
1.0
 40
1.0
 10
99.91350235852661
 20
149.1679838855747
 30
0.0
 10
99.91248829182283
 20
149.0915058438085
 30
0.0
 10
99.91046603708642
 20
148.9389931130222
 30
0.0
 10
99.89421004428891
 20
148.7113682588719
 30
0.0
 10
99.86852029434675
 20
148.4860135559549
 30
0.0
 10
99.83268218165678
 20
148.263371758447
 30
0.0
 10
99.78719735252162
 20
148.0438667407866
 30
0.0
 10
99.73226516786188
 20
147.8279030678469
 30
0.0
 10
99.66818437213546
 20
147.6158655655819
 30
0.0
 10
99.59524476763812
 20
147.4081189988661
 30
0.0
 10
99.5137543804233
 20
147.205007786332
 30
0.0
 10
99.42403055232744
 20
147.0068559103253
 30
0.0
 10
99.32640105366345
 20
146.8139664480132
 30
0.0
 10
99.22120102626256
 20
146.6266228263792
 30
0.0
 10
99.10877675386737
 20
146.4450840134148
 30
0.0
 10
98.98946662785679
 20
146.2696024260717
 30
0.0
 10
98.86366595521642
 20
146.1003581289129
 30
0.0
 10
98.7315821091727
 20
145.9377027792274
 30
0.0
 10
98.59413456015439
 20
145.7812587316569
 30
0.0
 10
98.4974843775002
 20
145.6822700154698
 30
0.0
 10
98.44931382891151
 20
145.6329339394078
 30
0.0
  0
LINE
  5
1D0
330
1F
100
AcDbEntity
  8
0
  6
SLD-実線
 62
     7
370
    18
100
AcDbLine
 10
98.4493138289
 20
145.6329339394
 30
0.0
 11
98.2372463973
 21
145.845001371
 31
0.0
  0
SPLINE
  5
1D1
330
1F
100
AcDbEntity
  8
0
  6
SLD-実線
 62
     7
370
    18
100
AcDbSpline
210
0.0
220
0.0
230
1.0
 70
     8
 71
     3
 72
    23
 73
    19
 74
     0
 42
0.000000001
 43
0.00000001
 40
0.0
 40
0.0
 40
0.0
 40
0.0
 40
0.0592890999650823
 40
0.1190060010953137
 40
0.1791507765849809
 40
0.2397234980295194
 40
0.3007242354697873
 40
0.3621530574348031
 40
0.4240100309830487
 40
0.4862952217423349
 40
0.549008693948354
 40
0.6121505104819129
 40
0.6757207329049426
 40
0.7397194214953109
 40
0.8041466352804819
 40
0.8690024320700906
 40
0.934286868487436
 40
1.0
 40
1.0
 40
1.0
 40
1.0
 10
98.44931382891151
 20
145.6329339394078
 30
0.0
 10
98.39370613459892
 20
145.5788026951789
 30
0.0
 10
98.2820895080323
 20
145.4701496221216
 30
0.0
 10
98.10461154072792
 20
145.3167562983677
 30
0.0
 10
97.91932811510671
 20
145.170265112883
 30
0.0
 10
97.72579699954181
 20
145.0318975406887
 30
0.0
 10
97.52450829933052
 20
144.9019697964105
 30
0.0
 10
97.31574098099816
 20
144.7810347029338
 30
0.0
 10
97.0998729316038
 20
144.6695698692248
 30
0.0
 10
96.87729723938723
 20
144.5680596687221
 30
0.0
 10
96.64844495498166
 20
144.4769697171639
 30
0.0
 10
96.41377885930477
 20
144.3967533414709
 30
0.0
 10
96.1737949120855
 20
144.327838186096
 30
0.0
 10
95.92902144049998
 20
144.270660133492
 30
0.0
 10
95.6800187600924
 20
144.2255260729579
 30
0.0
 10
95.42737845656067
 20
144.1931196914907
 30
0.0
 10
95.17172266090168
 20
144.1725839147293
 30
0.0
 10
95.00027050361503
 20
144.1700276998788
 30
0.0
 10
94.91426388274462
 20
144.1687454097927
 30
0.0
  0
SPLINE
  5
1D2
330
1F
100
AcDbEntity
  8
0
  6
SLD-実線
 62
     7
370
    18
100
AcDbSpline
210
0.0
220
0.0
230
1.0
 70
     8
 71
     3
 72
    23
 73
    19
 74
     0
 42
0.000000001
 43
0.00000001
 40
0.0
 40
0.0
 40
0.0
 40
0.0
 40
0.0592891000016641
 40
0.119006001163603
 40
0.1791507766800988
 40
0.2397234981465881
 40
0.3007242356039265
 40
0.3621530575811375
 40
0.4240100311366968
 40
0.4862952218984223
 40
0.5490086941020007
 40
0.6121505106282423
 40
0.6757207330390773
 40
0.7397194216123721
 40
0.8041466353755933
 40
0.8690024321383734
 40
0.934286868524018
 40
1.0
 40
1.0
 40
1.0
 40
1.0
 10
56.62573558985476
 20
187.4565121784646
 30
0.0
 10
56.68134328420214
 20
187.5106434227266
 30
0.0
 10
56.79295991083374
 20
187.6192964958452
 30
0.0
 10
56.970437878239
 20
187.7726898196732
 30
0.0
 10
57.15572130395225
 20
187.9191810052115
 30
0.0
 10
57.34925241959886
 20
188.0575485774397
 30
0.0
 10
57.55054111987936
 20
188.1874763217345
 30
0.0
 10
57.75930843826648
 20
188.3084114152123
 30
0.0
 10
57.97517648769955
 20
188.419876248909
 30
0.0
 10
58.19775217993715
 20
188.5213864493886
 30
0.0
 10
58.42660446434492
 20
188.6124764009155
 30
0.0
 10
58.66127056000403
 20
188.6926927765715
 30
0.0
 10
58.90125450718482
 20
188.7616079319067
 30
0.0
 10
59.14602797871064
 20
188.8187859844712
 30
0.0
 10
59.39503065903708
 20
188.8639200449692
 30
0.0
 10
59.64767096246631
 20
188.8963264264069
 30
0.0
 10
59.90332675800187
 20
188.9168622031473
 30
0.0
 10
60.07477891519915
 20
188.9194184179951
 30
0.0
 10
60.16078553602164
 20
188.9207007080797
 30
0.0
  0
ELLIPSE
  5
1D3
330
1F
100
AcDbEntity
  8
0
  6
SLD-実線
 62
     7
370
    18
100
AcDbEllipse
 10
95.0367630692
 20
149.0454846992
 30
0.0
 11
3.536610945847912
 21
-3.536610945847912
 31
0.0
210
0.0
220
0.0
230
1.0
 40
0.9996954599
 41
5.497939437029731
 42
7.068431177329458
  0
ELLIPSE
  5
1D4
330
1F
100
AcDbEntity
  8
0
  6
SLD-実線
 62
     7
370
    18
100
AcDbEllipse
 10
60.0382863496
 20
184.0439614187
 30
0.0
 11
-3.536610945847904
 21
3.536610945847883
 31
0.0
210
0.0
220
0.0
230
1.0
 40
0.9996954599
 41
5.49793943702973
 42
7.068431177329453
  0
SPLINE
  5
1D5
330
1F
100
AcDbEntity
  8
0
  6
SLD-実線
 62
     8
370
    18
100
AcDbSpline
210
0.0
220
0.0
230
1.0
 70
     8
 71
     3
 72
    18
 73
    14
 74
     0
 42
0.000000001
 43
0.00000001
 40
0.0
 40
0.0
 40
0.0
 40
0.0
 40
0.1407045153711987
 40
0.2130515284727226
 40
0.2853446744931183
 40
0.4240335309257964
 40
0.5548844673175726
 40
0.6421833790131128
 40
0.7321642367876852
 40
0.8246482231723051
 40
0.8969952406101278
 40
0.9692883909668601
 40
1.0
 40
1.0
 40
1.0
 40
1.0
 10
102.9151390296396
 20
161.4051793629228
 30
0.0
 10
102.9090495745327
 20
161.1051321185836
 30
0.0
 10
102.8998290622082
 20
160.6508075089444
 30
0.0
 10
102.8855620446882
 20
160.2010516196286
 30
0.0
 10
102.8707852847629
 20
159.8312182280572
 30
0.0
 10
102.8518754534448
 20
159.540616197274
 30
0.0
 10
102.8315257958712
 20
159.4542020373374
 30
0.0
 10
102.814015655781
 20
159.532958258486
 30
0.0
 10
102.7989512971101
 20
159.7102699649347
 30
0.0
 10
102.7851904726771
 20
159.9791126339111
 30
0.0
 10
102.7730358152465
 20
160.3149311609413
 30
0.0
 10
102.7643917020301
 20
160.6039585854799
 30
0.0
 10
102.7597663140827
 20
160.8101489551577
 30
0.0
 10
102.7583872214358
 20
160.8716260952185
 30
0.0
  0
LINE
  5
1D6
330
1F
100
AcDbEntity
  8
0
  6
SLD-実線
 62
     8
370
    18
100
AcDbLine
 10
102.7092039195
 20
166.4785416509
 30
0.0
 11
102.7090417411
 21
166.6038236709
 31
0.0
  0
SPLINE
  5
1D7
330
1F
100
AcDbEntity
  8
0
  6
SLD-実線
 62
     8
370
    18
100
AcDbSpline
210
0.0
220
0.0
230
1.0
 70
     8
 71
     3
 72
    18
 73
    14
 74
     0
 42
0.000000001
 43
0.00000001
 40
0.0
 40
0.0
 40
0.0
 40
0.0
 40
0.0216571269931514
 40
0.1005008375049966
 40
0.1792858437216384
 40
0.3304288360740975
 40
0.4730300701391763
 40
0.5681683464380398
 40
0.666229405187238
 40
0.7670183712678577
 40
0.8458620865068028
 40
0.9246470974477753
 40
0.9999999999999999
 40
0.9999999999999999
 40
0.9999999999999999
 40
0.9999999999999999
 10
102.7634654705702
 20
172.2867520464835
 30
0.0
 10
102.764344707
 20
172.327541766467
 30
0.0
 10
102.7684248418021
 20
172.5168282318989
 30
0.0
 10
102.7768811363156
 20
172.7570289963456
 30
0.0
 10
102.7915597631617
 20
173.1349863143258
 30
0.0
 10
102.8105156134396
 20
173.4217679633145
 30
0.0
 10
102.8308524894925
 20
173.5092799676479
 30
0.0
 10
102.8483642878872
 20
173.4302847692952
 30
0.0
 10
102.8634302858023
 20
173.2531939656764
 30
0.0
 10
102.8771834212893
 20
172.9837087542163
 30
0.0
 10
102.8893614156238
 20
172.6497737891109
 30
0.0
 10
102.8998190493551
 20
172.2908757604687
 30
0.0
 10
102.9061334895149
 20
172.0047967392665
 30
0.0
 10
102.9092204094249
 20
171.8649422147155
 30
0.0
  0
LINE
  5
1D8
330
1F
100
AcDbEntity
  8
0
  6
SLD-実線
 62
     8
370
    18
100
AcDbLine
 10
102.9531860391
 20
166.4770474604
 30
0.0
 11
102.953338218
 21
166.3594899808
 31
0.0
  0
POINT
  5
1D9
330
1F
100
AcDbEntity
  8
0
  6
Continuous
 62
     7
370
     0
100
AcDbPoint
 10
102.9538137391
 20
166.4816568258
 30
0.0
  0
DIMENSION
  5
1DA
330
1F
100
AcDbEntity
  8
0
  6
SLD-実線
 62
     7
370
    18
100
AcDbDimension
  2
_D
 10
55.0375247094
 20
211.0514404041
 30
0.0
 11
78.9956692243
 21
211.0514404041
 31
0.0
 70
   160
  1
(<>)
 71
     2
 42
-1.0
  3
SLDDIMSTYLE0
100
AcDbAlignedDimension
 13
102.9538137391
 23
166.4816568258
 33
0.0
 14
55.0375247094
 24
184.0454845832
 34
0.0
 50
0.0
100
AcDbRotatedDimension
  0
DIMENSION
  5
1E7
330
1F
100
AcDbEntity
  8
0
  6
SLD-実線
 62
     7
370
    18
100
AcDbDimension
  2
_D_1
 10
100.0375247094
 20
199.0514404041
 30
0.0
 11
77.5375247094
 21
199.0514404041
 31
0.0
 70
   160
  1
<>
 71
     2
 42
-1.0
  3
SLDDIMSTYLE0
100
AcDbAlignedDimension
 13
55.0375247094
 23
184.0454845832
 33
0.0
 14
100.0375247094
 24
185.0453322783
 34
0.0
 50
0.0
100
AcDbRotatedDimension
  0
DIMENSION
  5
1F1
330
1F
100
AcDbEntity
  8
0
  6
SLD-実線
 62
     7
370
    18
100
AcDbDimension
  2
_D_2
 10
39.0306783815
 20
134.5447230589
 30
0.0
 11
39.0306783815
 21
161.7947230589
 31
0.0
 70
   160
  1
<>
 71
     2
 42
-1.0
  3
SLDDIMSTYLE0
100
AcDbAlignedDimension
 13
60.0367631852
 23
189.0447230589
 33
0.0
 14
66.9481137808
 24
134.5447230589
 34
0.0
 50
90.0
100
AcDbRotatedDimension
  0
DIMENSION
  5
1FB
330
1F
100
AcDbEntity
  8
0
  6
SLD-実線
 62
     7
370
    18
100
AcDbDimension
  2
_D_3
 10
48.3529273297
 20
134.5447230589
 30
0.0
 11
48.3529273297
 21
136.5447230589
 31
0.0
 70
   160
  1
<>
 71
     2
 42
-1.0
  3
SLDDIMSTYLE1
100
AcDbAlignedDimension
 13
64.7875247094
 23
138.5447230589
 33
0.0
 14
66.9481137808
 24
134.5447230589
 34
0.0
 50
90.0
100
AcDbRotatedDimension
  0
DIMENSION
  5
208
330
1F
100
AcDbEntity
  8
0
  6
SLD-実線
 62
     7
370
    18
100
AcDbDimension
  2
_D_4
 10
69.5375247094
 20
120.7475155488
 30
0.0
 11
62.2875247094
 21
120.7475155488
 31
0.0
 70
   160
  1
<>
 71
     2
 42
-1.0
  3
SLDDIMSTYLE1
100
AcDbAlignedDimension
 13
55.0375247094
 23
148.0441138396
 33
0.0
 14
69.5375247094
 24
133.7947230589
 34
0.0
100
AcDbRotatedDimension
  0
DIMENSION
  5
214
330
1F
100
AcDbEntity
  8
0
  6
SLD-実線
 62
     7
370
    18
100
AcDbDimension
  2
_D_5
 10
85.5375247094
 20
120.7475155488
 30
0.0
 11
77.5375247094
 21
120.7475155488
 31
0.0
 70
   160
  1
<>
 71
     2
 42
-1.0
  3
SLDDIMSTYLE0
100
AcDbAlignedDimension
 13
69.5375247094
 23
133.7947230589
 33
0.0
 14
85.5375247094
 24
134.0447230589
 34
0.0
100
AcDbRotatedDimension
  0
INSERT
  5
224
330
1F
100
AcDbEntity
  8
0
  6
Continuous
 62
     7
370
     0
100
AcDbBlockReference
  2
SW_NOTE_0
 10
96.1370558376
 20
120.060914093
 30
0.0
  0
LEADER
  5
226
330
1F
100
AcDbEntity
  8
0
  6
Continuous
 62
     7
370
     0
100
AcDbLeader
  3
SLDDIMSTYLE2
 76
     2
 10
87.014226813
 20
137.1958898976
 30
0.0
 10
96.1370558376
 20
120.060914093
 30
0.0
  0
INSERT
  5
232
330
1F
100
AcDbEntity
  8
0
  6
SLD-実線
 62
     7
370
    18
100
AcDbBlockReference
  2
SW_CENTERMARKSYMBOL_0
 10
85.5375247094
 20
138.5447230589
 30
0.0
  0
INSERT
  5
23E
330
1F
100
AcDbEntity
  8
0
  6
SLD-実線
 62
     7
370
    18
100
AcDbBlockReference
  2
SW_CENTERMARKSYMBOL_1
 10
69.5375247094
 20
138.5447230589
 30
0.0
  0
LINE
  5
23F
330
1F
100
AcDbEntity
  8
0
  6
SLD-実線
 62
     7
370
    18
100
AcDbLine
 10
149.72341424
 20
140.5447230589
 30
0.0
 11
142.72341424
 21
140.5447230589
 31
0.0
  0
LINE
  5
240
330
1F
100
AcDbEntity
  8
0
  6
SLD-実線
 62
     7
370
    18
100
AcDbLine
 10
142.72341424
 20
136.5447230589
 30
0.0
 11
149.72341424
 21
136.5447230589
 31
0.0
  0
LINE
  5
241
330
1F
100
AcDbEntity
  8
0
  6
SLD-実線
 62
     7
370
    18
100
AcDbLine
 10
172.22341424
 20
134.3447230589
 30
0.0
 11
172.72341424
 21
134.3447230589
 31
0.0
  0
LINE
  5
242
330
1F
100
AcDbEntity
  8
0
  6
SLD-実線
 62
     7
370
    18
100
AcDbLine
 10
172.0234283822
 20
134.5447089168
 30
0.0
 11
172.22341424
 21
134.3447230589
 31
0.0
  0
LINE
  5
243
330
1F
100
AcDbEntity
  8
0
  6
SLD-実線
 62
     7
370
    18
100
AcDbLine
 10
160.52341424
 20
152.5447230589
 30
0.0
 11
156.92341424
 21
152.5447230589
 31
0.0
  0
LINE
  5
244
330
1F
100
AcDbEntity
  8
0
  6
SLD-実線
 62
     7
370
    18
100
AcDbLine
 10
156.92341424
 20
145.5447230589
 30
0.0
 11
160.52341424
 21
145.5447230589
 31
0.0
  0
LINE
  5
245
330
1F
100
AcDbEntity
  8
0
  6
SLD-実線
 62
     7
370
    18
100
AcDbLine
 10
156.92341424
 20
152.5447230589
 30
0.0
 11
156.52341424
 21
152.1447230589
 31
0.0
  0
LINE
  5
246
330
1F
100
AcDbEntity
  8
0
  6
SLD-実線
 62
     7
370
    18
100
AcDbLine
 10
156.52341424
 20
145.9447230589
 30
0.0
 11
156.92341424
 21
145.5447230589
 31
0.0
  0
SPLINE
  5
247
330
1F
100
AcDbEntity
  8
0
  6
SLD-実線
 62
     7
370
    18
100
AcDbSpline
210
0.0
220
0.0
230
1.0
 70
     8
 71
     3
 72
     9
 73
     5
 74
     0
 42
0.000000001
 43
0.00000001
 40
0.0
 40
0.0
 40
0.0
 40
0.0
 40
0.4022824588254403
 40
1.0
 40
1.0
 40
1.0
 40
1.0
 10
146.4593567155719
 20
167.244723052493
 30
0.0
 10
146.4504090999503
 20
167.0827458491332
 30
0.0
 10
146.432038166352
 20
166.8518255728083
 30
0.0
 10
146.4306049144771
 20
166.6201395973781
 30
0.0
 10
146.4297482346906
 20
166.4816568258194
 30
0.0
  0
LINE
  5
248
330
1F
100
AcDbEntity
  8
0
  6
SLD-実線
 62
     7
370
    18
100
AcDbLine
 10
146.4297482347
 20
166.4816568258
 30
0.0
 11
146.4505069018
 21
165.8447230654
 31
0.0
  0
LINE
  5
249
330
1F
100
AcDbEntity
  8
0
  6
SLD-実線
 62
     7
370
    18
100
AcDbLine
 10
168.5181785181
 20
189.0389653038
 30
0.0
 11
168.2163991754
 21
189.0442361952
 31
0.0
  0
SPLINE
  5
24A
330
1F
100
AcDbEntity
  8
0
  6
SLD-実線
 62
     7
370
    18
100
AcDbSpline
210
0.0
220
0.0
230
1.0
 70
     8
 71
     3
 72
    11
 73
     7
 74
     0
 42
0.000000001
 43
0.00000001
 40
0.0
 40
0.0
 40
0.0
 40
0.0
 40
0.2353557163243434
 40
0.4871509211899685
 40
0.7458343381362331
 40
1.0
 40
1.0
 40
1.0
 40
1.0
 10
145.1947977573424
 20
188.6233637780428
 30
0.0
 10
145.057366351164
 20
188.6128607737602
 30
0.0
 10
144.7729040182925
 20
188.5911211351765
 30
0.0
 10
144.3735284566002
 20
188.3993797565035
 30
0.0
 10
144.029551294456
 20
188.0984439682085
 30
0.0
 10
143.893867254388
 20
187.8252210952431
 30
0.0
 10
143.826622863644
 20
187.6898130868974
 30
0.0
  0
SPLINE
  5
24B
330
1F
100
AcDbEntity
  8
0
  6
SLD-実線
 62
     7
370
    18
100
AcDbSpline
210
0.0
220
0.0
230
1.0
 70
     8
 71
     3
 72
    11
 73
     7
 74
     0
 42
0.000000001
 43
0.00000001
 40
0.0
 40
0.0
 40
0.0
 40
0.0
 40
0.2491244233257448
 40
0.501855185535597
 40
0.7534636595313142
 40
1.0
 40
1.0
 40
1.0
 40
1.0
 10
160.8234142400304
 20
144.4686997183397
 30
0.0
 10
160.8574657070384
 20
144.3325449554881
 30
0.0
 10
160.8844780009946
 20
144.2785648577164
 30
0.0
 10
160.9542009263078
 20
144.2214643865386
 30
0.0
 10
161.0355279399266
 20
144.1894235925131
 30
0.0
 10
161.0904898170663
 20
144.1918129911564
 30
0.0
 10
161.1176909434494
 20
144.1929955259944
 30
0.0
  0
LINE
  5
24C
330
1F
100
AcDbEntity
  8
0
  6
SLD-実線
 62
     7
370
    18
100
AcDbLine
 10
168.22341424
 20
144.0453323711
 30
0.0
 11
168.4802086829
 21
144.0498147348
 31
0.0
  0
LINE
  5
24D
330
1F
100
AcDbEntity
  8
0
  6
SLD-実線
 62
     7
370
    18
100
AcDbLine
 10
142.72341424
 20
140.5447230589
 30
0.0
 11
142.72341424
 21
136.5447230589
 31
0.0
  0
LINE
  5
24E
330
1F
100
AcDbEntity
  8
0
  6
SLD-実線
 62
     7
370
    18
100
AcDbLine
 10
172.72341424
 20
134.5447230589
 30
0.0
 11
172.72341424
 21
134.3447230589
 31
0.0
  0
LINE
  5
24F
330
1F
100
AcDbEntity
  8
0
  6
SLD-実線
 62
     7
370
    18
100
AcDbLine
 10
172.22341424
 20
134.5447230589
 30
0.0
 11
172.22341424
 21
134.3447230589
 31
0.0
  0
LINE
  5
250
330
1F
100
AcDbEntity
  8
0
  6
SLD-実線
 62
     7
370
    18
100
AcDbLine
 10
172.72341424
 20
142.0447230589
 30
0.0
 11
168.72341424
 21
142.0447230589
 31
0.0
  0
LINE
  5
251
330
1F
100
AcDbEntity
  8
0
  6
SLD-実線
 62
     7
370
    18
100
AcDbLine
 10
168.72341424
 20
142.0447230589
 30
0.0
 11
168.72341424
 21
146.0447230589
 31
0.0
  0
LINE
  5
252
330
1F
100
AcDbEntity
  8
0
  6
SLD-実線
 62
     7
370
    18
100
AcDbLine
 10
168.72341424
 20
146.0447230589
 30
0.0
 11
172.72341424
 21
146.0447230589
 31
0.0
  0
LINE
  5
253
330
1F
100
AcDbEntity
  8
0
  6
SLD-実線
 62
     7
370
    18
100
AcDbLine
 10
172.72341424
 20
146.0447230589
 30
0.0
 11
172.72341424
 21
142.0447230589
 31
0.0
  0
LINE
  5
254
330
1F
100
AcDbEntity
  8
0
  6
SLD-実線
 62
     7
370
    18
100
AcDbLine
 10
172.72341424
 20
185.0447230589
 30
0.0
 11
168.72341424
 21
185.0447230589
 31
0.0
  0
LINE
  5
255
330
1F
100
AcDbEntity
  8
0
  6
SLD-実線
 62
     7
370
    18
100
AcDbLine
 10
172.72341424
 20
185.0447230589
 30
0.0
 11
172.72341424
 21
146.0447230589
 31
0.0
  0
LINE
  5
256
330
1F
100
AcDbEntity
  8
0
  6
SLD-実線
 62
     7
370
    18
100
AcDbLine
 10
168.72341424
 20
185.0447230589
 30
0.0
 11
168.72341424
 21
146.0447230589
 31
0.0
  0
LINE
  5
257
330
1F
100
AcDbEntity
  8
0
  6
SLD-実線
 62
     7
370
    18
100
AcDbLine
 10
172.72341424
 20
136.2760666629
 30
0.0
 11
172.72341424
 21
134.5447230589
 31
0.0
  0
LINE
  5
258
330
1F
100
AcDbEntity
  8
0
  6
SLD-実線
 62
     7
370
    18
100
AcDbLine
 10
172.72341424
 20
142.0447230589
 30
0.0
 11
172.72341424
 21
136.2760666629
 31
0.0
  0
LINE
  5
259
330
1F
100
AcDbEntity
  8
0
  6
SLD-実線
 62
     7
370
    18
100
AcDbLine
 10
172.72341424
 20
189.0447230589
 30
0.0
 11
172.72341424
 21
185.0447230589
 31
0.0
  0
LINE
  5
25A
330
1F
100
AcDbEntity
  8
0
  6
SLD-実線
 62
     7
370
    18
100
AcDbLine
 10
168.72341424
 20
185.0447230589
 30
0.0
 11
168.72341424
 21
189.0447230589
 31
0.0
  0
LINE
  5
25B
330
1F
100
AcDbEntity
  8
0
  6
SLD-実線
 62
     7
370
    18
100
AcDbLine
 10
168.72341424
 20
189.0447230589
 30
0.0
 11
172.72341424
 21
189.0447230589
 31
0.0
  0
LINE
  5
25C
330
1F
100
AcDbEntity
  8
0
  6
SLD-実線
 62
     7
370
    18
100
AcDbLine
 10
168.72341424
 20
142.0447230589
 30
0.0
 11
168.72341424
 21
141.3332803263
 31
0.0
  0
LINE
  5
25D
330
1F
100
AcDbEntity
  8
0
  6
SLD-実線
 62
     7
370
    18
100
AcDbLine
 10
149.72341424
 20
136.2760666629
 30
0.0
 11
172.72341424
 21
136.2760666629
 31
0.0
  0
LINE
  5
25E
330
1F
100
AcDbEntity
  8
0
  6
SLD-実線
 62
     7
370
    18
100
AcDbLine
 10
149.72341424
 20
141.3332803263
 30
0.0
 11
149.72341424
 21
136.2760666629
 31
0.0
  0
LINE
  5
25F
330
1F
100
AcDbEntity
  8
0
  6
SLD-実線
 62
     7
370
    18
100
AcDbLine
 10
168.72341424
 20
141.3332803263
 30
0.0
 11
149.72341424
 21
141.3332803263
 31
0.0
  0
LINE
  5
260
330
1F
100
AcDbEntity
  8
0
  6
SLD-実線
 62
     7
370
    18
100
AcDbLine
 10
149.72341424
 20
142.0447230589
 30
0.0
 11
168.72341424
 21
142.0447230589
 31
0.0
  0
LINE
  5
261
330
1F
100
AcDbEntity
  8
0
  6
SLD-実線
 62
     7
370
    18
100
AcDbLine
 10
149.72341424
 20
141.3332803263
 30
0.0
 11
149.72341424
 21
142.0447230589
 31
0.0
  0
LINE
  5
262
330
1F
100
AcDbEntity
  8
0
  6
SLD-実線
 62
     7
370
    18
100
AcDbLine
 10
149.72341424
 20
136.2760666629
 30
0.0
 11
149.72341424
 21
134.5447230589
 31
0.0
  0
LINE
  5
263
330
1F
100
AcDbEntity
  8
0
  6
SLD-実線
 62
     7
370
    18
100
AcDbLine
 10
149.72341424
 20
134.5447230589
 30
0.0
 11
172.72341424
 21
134.5447230589
 31
0.0
  0
LINE
  5
264
330
1F
100
AcDbEntity
  8
0
  6
SLD-実線
 62
     7
370
    18
100
AcDbLine
 10
172.92341424
 20
182.0447230589
 30
0.0
 11
172.92341424
 21
181.5447230589
 31
0.0
  0
LINE
  5
265
330
1F
100
AcDbEntity
  8
0
  6
SLD-実線
 62
     7
370
    18
100
AcDbLine
 10
172.92341424
 20
182.0447230589
 30
0.0
 11
172.92341424
 21
185.0447230589
 31
0.0
  0
LINE
  5
266
330
1F
100
AcDbEntity
  8
0
  6
SLD-実線
 62
     7
370
    18
100
AcDbLine
 10
172.92341424
 20
185.5447230589
 30
0.0
 11
172.92341424
 21
185.0447230589
 31
0.0
  0
LINE
  5
267
330
1F
100
AcDbEntity
  8
0
  6
SLD-実線
 62
     7
370
    18
100
AcDbLine
 10
172.92341424
 20
185.0447230589
 30
0.0
 11
172.72341424
 21
185.0447230589
 31
0.0
  0
LINE
  5
268
330
1F
100
AcDbEntity
  8
0
  6
SLD-実線
 62
     7
370
    18
100
AcDbLine
 10
172.72341424
 20
182.0447230589
 30
0.0
 11
172.92341424
 21
182.0447230589
 31
0.0
  0
LINE
  5
269
330
1F
100
AcDbEntity
  8
0
  6
SLD-実線
 62
     7
370
    18
100
AcDbLine
 10
172.72341424
 20
185.5447230589
 30
0.0
 11
172.92341424
 21
185.5447230589
 31
0.0
  0
LINE
  5
26A
330
1F
100
AcDbEntity
  8
0
  6
SLD-実線
 62
     7
370
    18
100
AcDbLine
 10
172.92341424
 20
181.5447230589
 30
0.0
 11
172.92341424
 21
181.5447230589
 31
0.0
  0
SPLINE
  5
26B
330
1F
100
AcDbEntity
  8
0
  6
SLD-実線
 62
     7
370
    18
100
AcDbSpline
210
0.0
220
0.0
230
1.0
 70
    24
 71
     3
 72
    23
 73
    19
 74
     0
 42
0.000000001
 43
0.00000001
 40
0.0
 40
0.0
 40
0.0
 40
0.0
 40
0.0440793286751639
 40
0.0893633000314139
 40
0.1367162385176004
 40
0.185823417089045
 40
0.2372944302463601
 40
0.2915121887979073
 40
0.3485009794901187
 40
0.4080365559422285
 40
0.4707535587072594
 40
0.5362649958261627
 40
0.6051487410552384
 40
0.6774251000096135
 40
0.752769336007125
 40
0.8316909001507695
 40
0.9142191633457031
 40
1.0
 40
1.0
 40
1.0
 40
1.0
 10
172.9734142400304
 20
182.6548925504617
 30
0.0
 10
172.9734142400304
 20
182.6651438049228
 30
0.0
 10
172.9734142400304
 20
182.6859264700775
 30
0.0
 10
172.9734142400304
 20
182.7207976192689
 30
0.0
 10
172.9734142400304
 20
182.7586951965748
 30
0.0
 10
172.9734142400304
 20
182.8000428161785
 30
0.0
 10
172.9734142400304
 20
182.8449632753906
 30
0.0
 10
172.9734142400304
 20
182.8932182687663
 30
0.0
 10
172.9734142400304
 20
182.9450272782809
 30
0.0
 10
172.9734142400304
 20
183.00024857172
 30
0.0
 10
172.9734142400304
 20
183.0586615688735
 30
0.0
 10
172.9734142400304
 20
183.1205911222158
 30
0.0
 10
172.9734142400304
 20
183.1858490929639
 30
0.0
 10
172.9734142400304
 20
183.2545867075159
 30
0.0
 10
172.9734142400304
 20
183.3267475710385
 30
0.0
 10
172.9734142400304
 20
183.4022958368868
 30
0.0
 10
172.9734142400304
 20
183.4812930826066
 30
0.0
 10
172.9734142400304
 20
183.5350975498186
 30
0.0
 10
172.9734142400304
 20
183.5625196691058
 30
0.0
  0
SPLINE
  5
26C
330
1F
100
AcDbEntity
  8
0
  6
SLD-実線
 62
     7
370
    18
100
AcDbSpline
210
0.0
220
0.0
230
1.0
 70
    24
 71
     3
 72
    23
 73
    19
 74
     0
 42
0.000000001
 43
0.00000001
 40
0.0
 40
0.0
 40
0.0
 40
0.0
 40
0.0854659829657969
 40
0.1676446297253732
 40
0.2461789565979258
 40
0.3215145575780775
 40
0.3933378556686157
 40
0.4621495370220769
 40
0.5275570302750708
 40
0.5901470881262291
 40
0.64993083361654
 40
0.7067515302568759
 40
0.7607879204922292
 40
0.8128204109454343
 40
0.8620996046054547
 40
0.9099690979100281
 40
0.9557470545256426
 40
0.9999999999999999
 40
0.9999999999999999
 40
0.9999999999999999
 40
0.9999999999999999
 10
172.9734142400304
 20
183.5625196691058
 30
0.0
 10
172.9734142400304
 20
183.5895463014319
 30
0.0
 10
172.9734142400304
 20
183.642560022351
 30
0.0
 10
172.9734142400304
 20
183.7203719536911
 30
0.0
 10
172.9734142400304
 20
183.7948632153802
 30
0.0
 10
172.9734142400304
 20
183.8659759141551
 30
0.0
 10
172.9734142400304
 20
183.9337835259644
 30
0.0
 10
172.9734142400304
 20
183.9981228977872
 30
0.0
 10
172.9734142400304
 20
184.0592663293107
 30
0.0
 10
172.9734142400304
 20
184.1169991577189
 30
0.0
 10
172.9734142400304
 20
184.1715991633837
 30
0.0
 10
172.9734142400304
 20
184.2227477042479
 30
0.0
 10
172.9734142400304
 20
184.2703694883841
 30
0.0
 10
172.9734142400304
 20
184.3150495449491
 30
0.0
 10
172.9734142400304
 20
184.3561281862635
 30
0.0
 10
172.9734142400304
 20
184.3939529128183
 30
0.0
 10
172.9734142400304
 20
184.4288027538402
 30
0.0
 10
172.9734142400304
 20
184.4493628867109
 30
0.0
 10
172.9734142400304
 20
184.4594688216482
 30
0.0
  0
SPLINE
  5
26D
330
1F
100
AcDbEntity
  8
0
  6
SLD-実線
 62
     7
370
    18
100
AcDbSpline
210
0.0
220
0.0
230
1.0
 70
    24
 71
     3
 72
    15
 73
    11
 74
     0
 42
0.000000001
 43
0.00000001
 40
0.0
 40
0.0
 40
0.0
 40
0.0
 40
0.1213168683304946
 40
0.2417533089794416
 40
0.361524158072824
 40
0.4816915395533748
 40
0.6047742771873866
 40
0.7314271915847952
 40
0.8632374624087975
 40
1.0
 40
1.0
 40
1.0
 40
1.0
 10
172.9734142400304
 20
184.4594688216482
 30
0.0
 10
172.9734142400304
 20
184.4705257828512
 30
0.0
 10
172.9734142400304
 20
184.4925594620492
 30
0.0
 10
172.9734142400304
 20
184.5211058637714
 30
0.0
 10
172.9734142400304
 20
184.5448728268562
 30
0.0
 10
172.9734142400304
 20
184.5642901871748
 30
0.0
 10
172.9734142400304
 20
184.5799996869674
 30
0.0
 10
172.9734142400304
 20
184.5902647832705
 30
0.0
 10
172.9734142400304
 20
184.5974322823642
 30
0.0
 10
172.9734142400304
 20
184.5979955526842
 30
0.0
 10
172.9734142400304
 20
184.5982823809702
 30
0.0
  0
SPLINE
  5
26E
330
1F
100
AcDbEntity
  8
0
  6
SLD-実線
 62
     7
370
    18
100
AcDbSpline
210
0.0
220
0.0
230
1.0
 70
    24
 71
     3
 72
    15
 73
    11
 74
     0
 42
0.000000001
 43
0.00000001
 40
0.0
 40
0.0
 40
0.0
 40
0.0
 40
0.1368844905311045
 40
0.2688122982940917
 40
0.3955781507484417
 40
0.5184631752654505
 40
0.6387377115685868
 40
0.7586153618914487
 40
0.8785749518344921
 40
1.0
 40
1.0
 40
1.0
 40
1.0
 10
172.9734142400304
 20
182.5168699515917
 30
0.0
 10
172.9734142400304
 20
182.5171601122487
 30
0.0
 10
172.9734142400304
 20
182.5177299266432
 30
0.0
 10
172.9734142400304
 20
182.5248503213096
 30
0.0
 10
172.9734142400304
 20
182.5352763397288
 30
0.0
 10
172.9734142400304
 20
182.5503614775917
 30
0.0
 10
172.9734142400304
 20
182.5698938175497
 30
0.0
 10
172.9734142400304
 20
182.5936932368931
 30
0.0
 10
172.9734142400304
 20
182.6217665788906
 30
0.0
 10
172.9734142400304
 20
182.643805959211
 30
0.0
 10
172.9734142400304
 20
182.6548925504617
 30
0.0
  0
LINE
  5
26F
330
1F
100
AcDbEntity
  8
0
  6
SLD-実線
 62
     7
370
    18
100
AcDbLine
 10
172.97341424
 20
183.5625196691
 30
0.0
 11
172.92341424
 21
183.5625196691
 31
0.0
  0
LINE
  5
270
330
1F
100
AcDbEntity
  8
0
  6
SLD-実線
 62
     7
370
    18
100
AcDbLine
 10
172.97341424
 20
182.6548925505
 30
0.0
 11
172.92341424
 21
182.6548925505
 31
0.0
  0
LINE
  5
271
330
1F
100
AcDbEntity
  8
0
  6
SLD-実線
 62
     7
370
    18
100
AcDbLine
 10
172.97341424
 20
184.4594688216
 30
0.0
 11
172.92341424
 21
184.4594688216
 31
0.0
  0
LINE
  5
272
330
1F
100
AcDbEntity
  8
0
  6
SLD-実線
 62
     7
370
    18
100
AcDbLine
 10
172.97341424
 20
184.598282381
 30
0.0
 11
172.97341424
 21
184.598282381
 31
0.0
  0
LINE
  5
273
330
1F
100
AcDbEntity
  8
0
  6
SLD-実線
 62
     7
370
    18
100
AcDbLine
 10
172.97341424
 20
183.6052315335
 30
0.0
 11
172.97341424
 21
183.6052315335
 31
0.0
  0
LINE
  5
274
330
1F
100
AcDbEntity
  8
0
  6
SLD-実線
 62
     7
370
    18
100
AcDbLine
 10
172.97341424
 20
182.5168699516
 30
0.0
 11
172.92341424
 21
182.5168699516
 31
0.0
  0
LINE
  5
275
330
1F
100
AcDbEntity
  8
0
  6
SLD-実線
 62
     7
370
    18
100
AcDbLine
 10
172.97341424
 20
182.5168699516
 30
0.0
 11
172.92341424
 21
182.498282381
 31
0.0
  0
LINE
  5
276
330
1F
100
AcDbEntity
  8
0
  6
SLD-実線
 62
     7
370
    18
100
AcDbLine
 10
160.52341424
 20
147.7040515307
 30
0.0
 11
160.52341424
 21
152.5447230589
 31
0.0
  0
LINE
  5
277
330
1F
100
AcDbEntity
  8
0
  6
SLD-実線
 62
     7
370
    18
100
AcDbLine
 10
160.52341424
 20
145.5447230589
 30
0.0
 11
160.52341424
 21
147.7040515307
 31
0.0
  0
LINE
  5
278
330
1F
100
AcDbEntity
  8
0
  6
SLD-実線
 62
     7
370
    18
100
AcDbLine
 10
156.92341424
 20
147.7040515307
 30
0.0
 11
156.92341424
 21
145.5447230589
 31
0.0
  0
LINE
  5
279
330
1F
100
AcDbEntity
  8
0
  6
SLD-実線
 62
     7
370
    18
100
AcDbLine
 10
156.92341424
 20
152.5447230589
 30
0.0
 11
156.92341424
 21
147.7040515307
 31
0.0
  0
LINE
  5
27A
330
1F
100
AcDbEntity
  8
0
  6
SLD-実線
 62
     7
370
    18
100
AcDbLine
 10
156.52341424
 20
147.8572711339
 30
0.0
 11
156.52341424
 21
152.1447230589
 31
0.0
  0
LINE
  5
27B
330
1F
100
AcDbEntity
  8
0
  6
SLD-実線
 62
     7
370
    18
100
AcDbLine
 10
156.52341424
 20
145.9447230589
 30
0.0
 11
156.52341424
 21
147.8572711339
 31
0.0
  0
SPLINE
  5
27C
330
1F
100
AcDbEntity
  8
0
  6
SLD-実線
 62
     7
370
    18
100
AcDbSpline
210
0.0
220
0.0
230
1.0
 70
     8
 71
     3
 72
    34
 73
    30
 74
     0
 42
0.000000001
 43
0.00000001
 40
0.0
 40
0.0
 40
0.0
 40
0.0
 40
0.0098015252685165
 40
0.0195853713599643
 40
0.0293598792260679
 40
0.0391334137269294
 40
0.0489143422199798
 40
0.0587110131169948
 40
0.0896386723450302
 40
0.1205837381315873
 40
0.1526697158581926
 40
0.1847730472704914
 40
0.2501083076574883
 40
0.3154435680444851
 40
0.3795588159283118
 40
0.4413652401644167
 40
0.5000030896625064
 40
0.5586409391605963
 40
0.6204473633967011
 40
0.6845626112805279
 40
0.7498978716675248
 40
0.8152331320545216
 40
0.8473191073248484
 40
0.8794224370302912
 40
0.9103500979456051
 40
0.9412951654228705
 40
0.9608631672535338
 40
0.9804091170862306
 40
1.0
 40
1.0
 40
1.0
 40
1.0
 10
146.4593567155719
 20
167.244723052493
 30
0.0
 10
146.4676234622059
 20
167.3419277251926
 30
0.0
 10
146.4841420446032
 20
167.5361617408779
 30
0.0
 10
146.5196421987668
 20
167.8262613278463
 30
0.0
 10
146.5629630910781
 20
168.1149839959664
 30
0.0
 10
146.6148713794216
 20
168.4022685361555
 30
0.0
 10
146.6751658842547
 20
168.6881366711185
 30
0.0
 10
146.7932221964178
 20
169.1767637627669
 30
0.0
 10
147.0026715275385
 20
169.8597982678436
 30
0.0
 10
147.3590951818571
 20
170.725663677137
 30
0.0
 10
147.8004236668616
 20
171.5650372422519
 30
0.0
 10
148.5080993891548
 20
172.6443567459659
 30
0.0
 10
149.5904993814634
 20
173.8646046115584
 30
0.0
 10
151.1438776599333
 20
175.044263146376
 30
0.0
 10
152.8631722177442
 20
175.8876202304689
 30
0.0
 10
154.6444320548136
 20
176.3762034877446
 30
0.0
 10
156.4286820958841
 20
176.5329963924082
 30
0.0
 10
158.2129321668918
 20
176.3762034930487
 30
0.0
 10
159.9941919080682
 20
175.8876202075549
 30
0.0
 10
161.7134868365612
 20
175.0442632364557
 30
0.0
 10
163.2668636980164
 20
173.8646042685958
 30
0.0
 10
164.3491526833639
 20
172.6444878616512
 30
0.0
 10
165.0568468843649
 20
171.5651849792914
 30
0.0
 10
165.4981355312509
 20
170.7259821838281
 30
0.0
 10
165.8545890100097
 20
169.8599443773482
 30
0.0
 10
166.0928061378982
 20
169.0838682345781
 30
0.0
 10
166.2462620756696
 20
168.4034413082565
 30
0.0
 10
166.3435992775193
 20
167.8268313467589
 30
0.0
 10
166.3798575404426
 20
167.4389076092715
 30
0.0
 10
166.3980074859988
 20
167.244723052493
 30
0.0
  0
SPLINE
  5
27D
330
1F
100
AcDbEntity
  8
0
  6
SLD-実線
 62
     7
370
    18
100
AcDbSpline
210
0.0
220
0.0
230
1.0
 70
     8
 71
     3
 72
    34
 73
    30
 74
     0
 42
0.000000001
 43
0.00000001
 40
0.0
 40
0.0
 40
0.0
 40
0.0
 40
0.0097908585072768
 40
0.0195638245975182
 40
0.0293273528938632
 40
0.0390899225395594
 40
0.0488600151737993
 40
0.0586460928751669
 40
0.0895674253979167
 40
0.1205059424210368
 40
0.1526064645973217
 40
0.1847241301852896
 40
0.25011005427665
 40
0.3154959783680097
 40
0.3796387404448819
 40
0.4414312017300345
 40
0.5000031321549075
 40
0.5585750625797802
 40
0.6203675238649333
 40
0.6845102859418051
 40
0.749896210033165
 40
0.8152821341245248
 40
0.8473826538653176
 40
0.8795003177435302
 40
0.9104216519911652
 40
0.9413601707394421
 40
0.9609068148334616
 40
0.9804307916417528
 40
1.0
 40
1.0
 40
1.0
 40
1.0
 10
166.4068572997793
 20
165.8447230653794
 30
0.0
 10
166.3997624931858
 20
165.7467072521811
 30
0.0
 10
166.3855858454847
 20
165.5508547459101
 30
0.0
 10
166.3534260290186
 20
165.2582108828491
 30
0.0
 10
166.3133137489418
 20
164.9668686542903
 30
0.0
 10
166.2644704252376
 20
164.6768803525464
 30
0.0
 10
166.2071004129694
 20
164.3882264703288
 30
0.0
 10
166.0937657188981
 20
163.8944123707262
 30
0.0
 10
165.8901884892604
 20
163.2035395897226
 30
0.0
 10
165.5396745281161
 20
162.326704096256
 30
0.0
 10
165.1024949486982
 20
161.475865051721
 30
0.0
 10
164.3977301345435
 20
160.3806718271988
 30
0.0
 10
163.3142103396631
 20
159.1412197477201
 30
0.0
 10
161.7529679248063
 20
157.9422022125237
 30
0.0
 10
160.0215106318267
 20
157.0850006308277
 30
0.0
 10
158.2265628999847
 20
156.5887140713421
 30
0.0
 10
156.4286821057395
 20
156.4295604433563
 30
0.0
 10
154.6308012812246
 20
156.5887140661943
 30
0.0
 10
152.835853646451
 20
157.085000653096
 30
0.0
 10
151.1043959778948
 20
157.9422021249084
 30
0.0
 10
149.5431549994209
 20
159.1412200814202
 30
0.0
 10
148.4597447897799
 20
160.3805403850366
 30
0.0
 10
147.7549613112473
 20
161.475717039483
 30
0.0
 10
147.3178192107152
 20
162.3263855027366
 30
0.0
 10
146.9672783474499
 20
163.203393423808
 30
0.0
 10
146.7357511878513
 20
163.9883044267355
 30
0.0
 10
146.5890554180344
 20
164.675735506491
 30
0.0
 10
146.4979672741975
 20
165.2577102858811
 30
0.0
 10
146.4663392240095
 20
165.6489012671076
 30
0.0
 10
146.4505069017913
 20
165.8447230653795
 30
0.0
  0
SPLINE
  5
27E
330
1F
100
AcDbEntity
  8
0
  6
SLD-実線
 62
     7
370
    18
100
AcDbSpline
210
0.0
220
0.0
230
1.0
 70
     8
 71
     3
 72
    14
 73
    10
 74
     0
 42
0.000000001
 43
0.00000001
 40
0.0
 40
0.0
 40
0.0
 40
0.0
 40
0.25
 40
0.25
 40
0.5
 40
0.5
 40
0.75
 40
0.75
 40
1.0
 40
1.0
 40
1.0
 40
1.0
 10
163.3741927760403
 20
166.3594899807584
 30
0.0
 10
163.3417979658213
 20
164.5033098410483
 30
0.0
 10
162.5734171269368
 20
162.7358857080446
 30
0.0
 10
159.9029686247534
 20
160.1566707388532
 30
0.0
 10
158.110074077499
 20
159.4503232148676
 30
0.0
 10
154.3982792085304
 20
159.5151227045818
 30
0.0
 10
152.6311242627828
 20
160.2836205894165
 30
0.0
 10
150.052302120524
 20
162.9544758757966
 30
0.0
 10
149.3460621766876
 20
164.7476435311703
 30
0.0
 10
149.3784569869066
 20
166.6038236708805
 30
0.0
  0
SPLINE
  5
27F
330
1F
100
AcDbEntity
  8
0
  6
SLD-実線
 62
     7
370
    18
100
AcDbSpline
210
0.0
220
0.0
230
1.0
 70
     8
 71
     3
 72
    14
 73
    10
 74
     0
 42
0.000000001
 43
0.00000001
 40
0.0
 40
0.0
 40
0.0
 40
0.0
 40
0.25
 40
0.25
 40
0.5
 40
0.5
 40
0.75
 40
0.75
 40
1.0
 40
1.0
 40
1.0
 40
1.0
 10
149.3784569869066
 20
166.6038236708805
 30
0.0
 10
149.4108517971256
 20
168.4600038105906
 30
0.0
 10
150.1792326360101
 20
170.2274279435944
 30
0.0
 10
152.8496811381935
 20
172.8066429127857
 30
0.0
 10
154.642575685448
 20
173.5129904367714
 30
0.0
 10
158.3543705544166
 20
173.4481909470571
 30
0.0
 10
160.1215255001641
 20
172.6796930622225
 30
0.0
 10
162.7003476424229
 20
170.0088377758424
 30
0.0
 10
163.4065875862594
 20
168.2156701204686
 30
0.0
 10
163.3741927760403
 20
166.3594899807584
 30
0.0
  0
SPLINE
  5
280
330
1F
100
AcDbEntity
  8
0
  6
SLD-実線
 62
     7
370
    18
100
AcDbSpline
210
0.0
220
0.0
230
1.0
 70
     8
 71
     3
 72
     8
 73
     4
 74
     0
 42
0.000000001
 43
0.00000001
 40
0.0
 40
0.0
 40
0.0
 40
0.0
 40
1.0
 40
1.0
 40
1.0
 40
1.0
 10
166.4068572997793
 20
165.8447230653794
 30
0.0
 10
166.4167276331222
 20
165.9993983687061
 30
0.0
 10
166.4229316992418
 20
166.1521663590383
 30
0.0
 10
166.4256362358808
 20
166.3071327614466
 30
0.0
  0
SPLINE
  5
281
330
1F
100
AcDbEntity
  8
0
  6
SLD-実線
 62
     7
370
    18
100
AcDbSpline
210
0.0
220
0.0
230
1.0
 70
     8
 71
     3
 72
     8
 73
     4
 74
     0
 42
0.000000001
 43
0.00000001
 40
0.0
 40
0.0
 40
0.0
 40
0.0
 40
0.9999999999999999
 40
0.9999999999999999
 40
0.9999999999999999
 40
0.9999999999999999
 10
166.4256362358808
 20
166.3071327614466
 30
0.0
 10
166.4311007034228
 20
166.6202395849456
 30
0.0
 10
166.4218996102341
 20
166.9324815675758
 30
0.0
 10
166.3980074859988
 20
167.244723052493
 30
0.0
  0
LINE
  5
282
330
1F
100
AcDbEntity
  8
0
  6
SLD-実線
 62
     7
370
    18
100
AcDbLine
 10
146.4317279657
 20
166.6561808902
 30
0.0
 11
146.4346766269
 21
166.7189926877
 31
0.0
  0
LINE
  5
283
330
1F
100
AcDbEntity
  8
0
  6
SLD-実線
 62
     7
370
    18
100
AcDbLine
 10
146.4526344048
 20
167.1015257188
 30
0.0
 11
146.4593567156
 21
167.2447230525
 31
0.0
  0
LINE
  5
284
330
1F
100
AcDbEntity
  8
0
  6
SLD-実線
 62
     7
370
    18
100
AcDbLine
 10
146.4505069018
 20
165.8447230654
 30
0.0
 11
146.4426818035
 21
166.1828538952
 31
0.0
  0
LINE
  5
285
330
1F
100
AcDbEntity
  8
0
  6
SLD-実線
 62
     7
370
    18
100
AcDbLine
 10
168.22341424
 20
149.0439615347
 30
0.0
 11
168.22341424
 21
144.0447230589
 31
0.0
  0
LINE
  5
286
330
1F
100
AcDbEntity
  8
0
  6
SLD-実線
 62
     7
370
    18
100
AcDbLine
 10
168.22341424
 20
165.8447230654
 30
0.0
 11
168.22341424
 21
149.0439615347
 31
0.0
  0
SPLINE
  5
287
330
1F
100
AcDbEntity
  8
0
  6
SLD-実線
 62
     7
370
    18
100
AcDbSpline
210
0.0
220
0.0
230
1.0
 70
    24
 71
     3
 72
    13
 73
     9
 74
     0
 42
0.000000001
 43
0.00000001
 40
0.0
 40
0.0
 40
0.0
 40
0.0
 40
0.1281377364457024
 40
0.2510760410891594
 40
0.3737251181731591
 40
0.50102864359284
 40
0.7483362646727028
 40
1.0
 40
1.0
 40
1.0
 40
1.0
 10
168.2234142400304
 20
166.0447230589363
 30
0.0
 10
168.2234142400304
 20
166.0313255821476
 30
0.0
 10
168.2234142400304
 20
166.0050742566133
 30
0.0
 10
168.2234142400304
 20
165.96742282197
 30
0.0
 10
168.2234142400304
 20
165.9329113883488
 30
0.0
 10
168.2234142400304
 20
165.8929694414364
 30
0.0
 10
168.2234142400304
 20
165.8529573123632
 30
0.0
 10
168.2234142400304
 20
165.8474837428063
 30
0.0
 10
168.2234142400304
 20
165.8447230653794
 30
0.0
  0
LINE
  5
288
330
1F
100
AcDbEntity
  8
0
  6
SLD-実線
 62
     7
370
    18
100
AcDbLine
 10
168.22341424
 20
166.0447230589
 30
0.0
 11
168.22341424
 21
167.0447230589
 31
0.0
  0
SPLINE
  5
289
330
1F
100
AcDbEntity
  8
0
  6
SLD-実線
 62
     7
370
    18
100
AcDbSpline
210
0.0
220
0.0
230
1.0
 70
    24
 71
     3
 72
    13
 73
     9
 74
     0
 42
0.000000001
 43
0.00000001
 40
0.0
 40
0.0
 40
0.0
 40
0.0
 40
0.1281569636027036
 40
0.2511109768707248
 40
0.3737704061977454
 40
0.5010776958249736
 40
0.7483716646743855
 40
1.0
 40
1.0
 40
1.0
 40
1.0
 10
168.2234142400304
 20
167.244723052493
 30
0.0
 10
168.2234142400304
 20
167.2439606649357
 30
0.0
 10
168.2234142400304
 20
167.242466841433
 30
0.0
 10
168.2234142400304
 20
167.2309047895841
 30
0.0
 10
168.2234142400304
 20
167.2122975789031
 30
0.0
 10
168.2234142400304
 20
167.1790095290942
 30
0.0
 10
168.2234142400304
 20
167.1238394325845
 30
0.0
 10
168.2234142400304
 20
167.0712474802749
 30
0.0
 10
168.2234142400304
 20
167.0447230589363
 30
0.0
  0
LINE
  5
28A
330
1F
100
AcDbEntity
  8
0
  6
SLD-実線
 62
     7
370
    18
100
AcDbLine
 10
168.22341424
 20
185.0453322783
 30
0.0
 11
168.22341424
 21
167.2447230525
 31
0.0
  0
LINE
  5
28B
330
1F
100
AcDbEntity
  8
0
  6
SLD-実線
 62
     7
370
    18
100
AcDbLine
 10
168.5181785181
 20
185.0492588764
 30
0.0
 11
168.72341424
 21
185.0528412792
 31
0.0
  0
SPLINE
  5
28C
330
1F
100
AcDbEntity
  8
0
  6
SLD-実線
 62
     7
370
    18
100
AcDbSpline
210
0.0
220
0.0
230
1.0
 70
     8
 71
     3
 72
    13
 73
     9
 74
     0
 42
0.000000001
 43
0.00000001
 40
0.0
 40
0.0
 40
0.0
 40
0.0
 40
0.1219416306734369
 40
0.2437624525312272
 40
0.499651975705223
 40
0.6563824104637964
 40
0.8910440640905213
 40
1.0
 40
1.0
 40
1.0
 40
1.0
 10
168.2234142400304
 20
185.0453322783107
 30
0.0
 10
168.2244296581012
 20
184.7681735794521
 30
0.0
 10
168.2264594882577
 20
184.8058929089822
 30
0.0
 10
168.2489174489768
 20
184.8804173927626
 30
0.0
 10
168.295062920197
 20
184.9520593587544
 30
0.0
 10
168.3740960109757
 20
185.0146928509484
 30
0.0
 10
168.4481734318059
 20
185.0444771026034
 30
0.0
 10
168.5013249699647
 20
185.0481076763864
 30
0.0
 10
168.5181785180992
 20
185.0492588763729
 30
0.0
  0
SPLINE
  5
28D
330
1F
100
AcDbEntity
  8
0
  6
SLD-実線
 62
     7
370
    18
100
AcDbSpline
210
0.0
220
0.0
230
1.0
 70
     8
 71
     3
 72
    31
 73
    27
 74
     0
 42
0.000000001
 43
0.00000001
 40
0.0
 40
0.0
 40
0.0
 40
0.0
 40
0.0328617967588424
 40
0.0655091590456773
 40
0.0979421183721745
 40
0.1301607069034756
 40
0.1621649574754416
 40
0.1939549036124799
 40
0.2255305795459671
 40
0.2568920202333008
 40
0.2880392613775847
 40
0.3189723394479954
 40
0.3496912917008588
 40
0.3801961562014365
 40
0.4104869718464874
 40
0.4405637783876237
 40
0.4704266164554747
 40
0.5000755275847348
 40
0.5595693035331438
 40
0.6199187342788737
 40
0.6811241210555878
 40
0.7431857511190411
 40
0.8061038984829335
 40
0.8698788246059679
 40
0.9345107790338874
 40
0.9999999999999999
 40
0.9999999999999999
 40
0.9999999999999999
 40
0.9999999999999999
 10
168.2234142400304
 20
185.0453322783107
 30
0.0
 10
168.2234127735302
 20
185.1141386327355
 30
0.0
 10
168.223409850099
 20
185.2513023565709
 30
0.0
 10
168.2233917972142
 20
185.4558300553245
 30
0.0
 10
168.223369985658
 20
185.6579451765455
 30
0.0
 10
168.2233470076667
 20
185.857150034784
 30
0.0
 10
168.2233263699678
 20
186.0529713557395
 30
0.0
 10
168.2233103402306
 20
186.2449608918577
 30
0.0
 10
168.2233005475684
 20
186.4326959631033
 30
0.0
 10
168.2232978547529
 20
186.6157798593098
 30
0.0
 10
168.2233024257269
 20
186.7938421303557
 30
0.0
 10
168.2233137431271
 20
186.9665387515397
 30
0.0
 10
168.2233306407345
 20
187.1335522189731
 30
0.0
 10
168.2233513330236
 20
187.2945914022351
 30
0.0
 10
168.2233734476669
 20
187.4493918173687
 30
0.0
 10
168.2233940541917
 20
187.5977138986934
 30
0.0
 10
168.2234097089356
 20
187.7393482384658
 30
0.0
 10
168.223418717691
 20
187.9196310408327
 30
0.0
 10
168.2233964044047
 20
188.1306929155543
 30
0.0
 10
168.2233505333687
 20
188.3587496730753
 30
0.0
 10
168.2233109567343
 20
188.5596781879865
 30
0.0
 10
168.2232942603521
 20
188.730215359714
 30
0.0
 10
168.2233075632663
 20
188.8675895411548
 30
0.0
 10
168.2233453760605
 20
188.967978168212
 30
0.0
 10
168.2233971075523
 20
189.0325588182231
 30
0.0
 10
168.2234085041766
 20
189.0406505420212
 30
0.0
 10
168.2234142400304
 20
189.0447230589363
 30
0.0
  0
LINE
  5
28E
330
1F
100
AcDbEntity
  8
0
  6
SLD-実線
 62
     7
370
    18
100
AcDbLine
 10
168.72341424
 20
189.0353766722
 30
0.0
 11
168.5181785181
 21
189.0389653038
 31
0.0
  0
SPLINE
  5
28F
330
1F
100
AcDbEntity
  8
0
  6
SLD-実線
 62
     7
370
    18
100
AcDbSpline
210
0.0
220
0.0
230
1.0
 70
    24
 71
     3
 72
    14
 73
    10
 74
     0
 42
0.000000001
 43
0.00000001
 40
0.0
 40
0.0
 40
0.0
 40
0.0
 40
0.25
 40
0.25
 40
0.5
 40
0.5
 40
0.75
 40
0.75
 40
1.0
 40
1.0
 40
1.0
 40
1.0
 10
168.7234142400148
 20
185.0528412792248
 30
0.0
 10
168.7234142400148
 20
185.5738417880167
 30
0.0
 10
168.7234142400148
 20
186.094413694692
 30
0.0
 10
168.7234142400148
 20
187.0566628612285
 30
0.0
 10
168.7234142400148
 20
187.4979657005952
 30
0.0
 10
168.7234142400148
 20
188.2347734476412
 30
0.0
 10
168.7234142400148
 20
188.5299916562714
 30
0.0
 10
168.7234142400148
 20
188.9298014281803
 30
0.0
 10
168.7234142400148
 20
189.0342374215943
 30
0.0
 10
168.7234142400148
 20
189.0353766722373
 30
0.0
  0
SPLINE
  5
290
330
1F
100
AcDbEntity
  8
0
  6
SLD-実線
 62
     7
370
    18
100
AcDbSpline
210
0.0
220
0.0
230
1.0
 70
     8
 71
     3
 72
    22
 73
    18
 74
     0
 42
0.000000001
 43
0.00000001
 40
0.0
 40
0.0
 40
0.0
 40
0.0
 40
0.0632587549321642
 40
0.1270042020255444
 40
0.1912363790423291
 40
0.2559553228224233
 40
0.3211610693103961
 40
0.3868536535814183
 40
0.4530331098662886
 40
0.5196994715755034
 40
0.5868527713225041
 40
0.654493040946055
 40
0.7226203115318467
 40
0.7912346134333234
 40
0.8603359762917971
 40
0.9299244290558341
 40
1.0
 40
1.0
 40
1.0
 40
1.0
 10
145.1863977321459
 20
187.4712898845414
 30
0.0
 10
145.1864055991362
 20
187.4237844762086
 30
0.0
 10
145.1864213936431
 20
187.3284081684757
 30
0.0
 10
145.1865534840367
 20
187.1762074718565
 30
0.0
 10
145.1867708738128
 20
187.0169344975088
 30
0.0
 10
145.1870852150258
 20
186.8502072408056
 30
0.0
 10
145.1874978575221
 20
186.6764976222296
 30
0.0
 10
145.188012026944
 20
186.4960890909922
 30
0.0
 10
145.1886294691099
 20
186.3093595017517
 30
0.0
 10
145.189351301272
 20
186.1167046714571
 30
0.0
 10
145.1901777401778
 20
185.9185591199398
 30
0.0
 10
145.1911080793805
 20
185.7153902846742
 30
0.0
 10
145.1921408167926
 20
185.5076997125258
 30
0.0
 10
145.1932729317857
 20
185.2960221608438
 30
0.0
 10
145.1945024608474
 20
185.0809249797193
 30
0.0
 10
145.1958186225825
 20
184.8630074047915
 30
0.0
 10
145.1967621974482
 20
184.7167783638685
 30
0.0
 10
145.1972356303745
 20
184.6434088356305
 30
0.0
  0
LINE
  5
291
330
1F
100
AcDbEntity
  8
0
  6
SLD-実線
 62
     7
370
    18
100
AcDbLine
 10
145.1972356304
 20
188.6427996163
 30
0.0
 11
145.1949304881
 21
188.6028451354
 31
0.0
  0
LINE
  5
292
330
1F
100
AcDbEntity
  8
0
  6
SLD-実線
 62
     7
370
    18
100
AcDbLine
 10
168.22341424
 20
189.0447230589
 30
0.0
 11
145.1972356304
 21
188.6427996163
 31
0.0
  0
LINE
  5
293
330
1F
100
AcDbEntity
  8
0
  6
SLD-実線
 62
     7
370
    18
100
AcDbLine
 10
168.22341424
 20
185.0453322783
 30
0.0
 11
145.1972356304
 21
184.6434088356
 31
0.0
  0
LINE
  5
294
330
1F
100
AcDbEntity
  8
0
  6
SLD-実線
 62
     7
370
    18
100
AcDbLine
 10
166.398007486
 20
167.2447230525
 30
0.0
 11
168.22341424
 21
167.2447230525
 31
0.0
  0
LINE
  5
295
330
1F
100
AcDbEntity
  8
0
  6
SLD-実線
 62
     7
370
    18
100
AcDbLine
 10
145.1972365164
 20
167.2447230525
 30
0.0
 11
146.4593567156
 21
167.2447230525
 31
0.0
  0
LINE
  5
296
330
1F
100
AcDbEntity
  8
0
  6
SLD-実線
 62
     7
370
    18
100
AcDbLine
 10
145.1972356304
 20
184.6434088356
 30
0.0
 11
145.1972356304
 21
167.2447230589
 31
0.0
  0
LINE
  5
297
330
1F
100
AcDbEntity
  8
0
  6
SLD-実線
 62
     7
370
    18
100
AcDbLine
 10
168.22341424
 20
165.8447230654
 30
0.0
 11
166.4068572998
 21
165.8447230654
 31
0.0
  0
LINE
  5
298
330
1F
100
AcDbEntity
  8
0
  6
SLD-実線
 62
     7
370
    18
100
AcDbLine
 10
161.1181785181
 20
154.4234177613
 30
0.0
 11
161.1181785181
 21
149.1679838856
 31
0.0
  0
LINE
  5
299
330
1F
100
AcDbEntity
  8
0
  6
SLD-実線
 62
     7
370
    18
100
AcDbLine
 10
145.1972356304
 20
154.6871360505
 30
0.0
 11
161.1181785181
 21
154.4234177613
 31
0.0
  0
LINE
  5
29A
330
1F
100
AcDbEntity
  8
0
  6
SLD-実線
 62
     7
370
    18
100
AcDbLine
 10
145.1972356304
 20
165.8447230654
 30
0.0
 11
145.1972356304
 21
154.6871360505
 31
0.0
  0
LINE
  5
29B
330
1F
100
AcDbEntity
  8
0
  6
SLD-実線
 62
     7
370
    18
100
AcDbLine
 10
146.4505069018
 20
165.8447230654
 30
0.0
 11
145.1972356304
 21
165.8447230654
 31
0.0
  0
LINE
  5
29C
330
1F
100
AcDbEntity
  8
0
  6
SLD-実線
 62
     7
370
    18
100
AcDbLine
 10
168.22341424
 20
149.0439615347
 30
0.0
 11
161.1181785181
 21
149.1679838856
 31
0.0
  0
SPLINE
  5
29D
330
1F
100
AcDbEntity
  8
0
  6
SLD-実線
 62
     7
370
    18
100
AcDbSpline
210
0.0
220
0.0
230
1.0
 70
     8
 71
     3
 72
    23
 73
    19
 74
     0
 42
0.000000001
 43
0.00000001
 40
0.0
 40
0.0
 40
0.0
 40
0.0
 40
0.0592890999650823
 40
0.1190060010953137
 40
0.1791507765849809
 40
0.2397234980295194
 40
0.3007242354697873
 40
0.3621530574348031
 40
0.4240100309830487
 40
0.4862952217423349
 40
0.549008693948354
 40
0.6121505104819129
 40
0.6757207329049426
 40
0.7397194214953109
 40
0.8041466352804819
 40
0.8690024320700906
 40
0.934286868487436
 40
1.0
 40
1.0
 40
1.0
 40
1.0
 10
161.1160109384535
 20
145.6329339394079
 30
0.0
 10
161.1160109512901
 20
145.5788026951789
 30
0.0
 10
161.1160109770561
 20
145.4701496221216
 30
0.0
 10
161.116016905154
 20
145.3167562983677
 30
0.0
 10
161.1160335438643
 20
145.170265112883
 30
0.0
 10
161.116065236323
 20
145.0318975406888
 30
0.0
 10
161.1161156355359
 20
144.9019697964106
 30
0.0
 10
161.1161877100146
 20
144.7810347029338
 30
0.0
 10
161.1162836911593
 20
144.6695698692248
 30
0.0
 10
161.116405037359
 20
144.5680596687221
 30
0.0
 10
161.1165523950708
 20
144.4769697171639
 30
0.0
 10
161.1167255614341
 20
144.3967533414709
 30
0.0
 10
161.1169234515386
 20
144.327838186096
 30
0.0
 10
161.1171440545287
 20
144.2706601334921
 30
0.0
 10
161.1173844407534
 20
144.225526072958
 30
0.0
 10
161.1176405862689
 20
144.1931196914908
 30
0.0
 10
161.1179078969168
 20
144.1725839147293
 30
0.0
 10
161.1180881144486
 20
144.1700276998788
 30
0.0
 10
161.1181785180992
 20
144.1687454097927
 30
0.0
  0
SPLINE
  5
29E
330
1F
100
AcDbEntity
  8
0
  6
SLD-実線
 62
     7
370
    18
100
AcDbSpline
210
0.0
220
0.0
230
1.0
 70
     8
 71
     3
 72
    25
 73
    21
 74
     0
 42
0.000000001
 43
0.00000001
 40
0.0
 40
0.0
 40
0.0
 40
0.0
 40
0.0584329704913492
 40
0.1165271977652513
 40
0.174282720914238
 40
0.2316995797466825
 40
0.2887778148035732
 40
0.3455174673757657
 40
0.401918579521763
 40
0.4579811940860176
 40
0.5137053547177883
 40
0.5690911058905657
 40
0.6241384929220831
 40
0.6788475619949517
 40
0.7332183601779163
 40
0.7872509354477768
 40
0.8409453367119971
 40
0.8943016138320077
 40
0.9473198176472514
 40
1.0
 40
1.0
 40
1.0
 40
1.0
 10
161.1181785180992
 20
149.1679838855748
 30
0.0
 10
161.1180981653941
 20
149.0915058438085
 30
0.0
 10
161.1179379257986
 20
148.9389931130222
 30
0.0
 10
161.1176993599976
 20
148.7113682588719
 30
0.0
 10
161.1174686291482
 20
148.486013555955
 30
0.0
 10
161.1172491270615
 20
148.263371758447
 30
0.0
 10
161.117043960628
 20
148.0438667407866
 30
0.0
 10
161.1168555261277
 20
147.8279030678469
 30
0.0
 10
161.1166856411624
 20
147.6158655655819
 30
0.0
 10
161.1165355305552
 20
147.4081189988662
 30
0.0
 10
161.1164058524256
 20
147.205007786332
 30
0.0
 10
161.1162967148515
 20
147.0068559103253
 30
0.0
 10
161.1162076961266
 20
146.8139664480132
 30
0.0
 10
161.1161378650987
 20
146.6266228263792
 30
0.0
 10
161.1160858021104
 20
146.4450840134148
 30
0.0
 10
161.11604962131
 20
146.2696024260717
 30
0.0
 10
161.1160269901785
 20
146.100358128913
 30
0.0
 10
161.1160151613996
 20
145.9377027792274
 30
0.0
 10
161.1160109606562
 20
145.7812587316569
 30
0.0
 10
161.1160109458386
 20
145.6822700154698
 30
0.0
 10
161.1160109384535
 20
145.6329339394079
 30
0.0
  0
LINE
  5
29F
330
1F
100
AcDbEntity
  8
0
  6
SLD-実線
 62
     7
370
    18
100
AcDbLine
 10
168.22341424
 20
144.0447230589
 30
0.0
 11
161.1181785181
 21
144.1687454098
 31
0.0
  0
SPLINE
  5
2A0
330
1F
100
AcDbEntity
  8
0
  6
SLD-実線
 62
     7
370
    18
100
AcDbSpline
210
0.0
220
0.0
230
1.0
 70
     8
 71
     3
 72
    15
 73
    11
 74
     0
 42
0.000000001
 43
0.00000001
 40
0.0
 40
0.0
 40
0.0
 40
0.0
 40
0.1286715300489804
 40
0.2430220408508676
 40
0.3430530597530946
 40
0.4287678191473346
 40
0.5001724879834162
 40
0.6907715363844946
 40
0.8572028238907323
 40
1.0
 40
1.0
 40
1.0
 40
1.0
 10
161.1181785180992
 20
154.4234177612662
 30
0.0
 10
161.1004641833199
 20
154.3841576466931
 30
0.0
 10
161.0670071024198
 20
154.3100070310598
 30
0.0
 10
161.0208184888578
 20
154.2055950076903
 30
0.0
 10
160.9821245260866
 20
154.114494057221
 30
0.0
 10
160.9507675701127
 20
154.0367026745941
 30
0.0
 10
160.9106879809405
 20
153.9320798810583
 30
0.0
 10
160.8674253118701
 20
153.8048362119848
 30
0.0
 10
160.8308135216294
 20
153.659474911257
 30
0.0
 10
160.8257517103523
 20
153.5745183526933
 30
0.0
 10
160.8234142400304
 20
153.5352866580653
 30
0.0
  0
LINE
  5
2A1
330
1F
100
AcDbEntity
  8
0
  6
SLD-実線
 62
     7
370
    18
100
AcDbLine
 10
161.1181785181
 20
149.1679838856
 30
0.0
 11
160.82341424
 21
149.1679838856
 31
0.0
  0
LINE
  5
2A2
330
1F
100
AcDbEntity
  8
0
  6
SLD-実線
 62
     7
370
    18
100
AcDbLine
 10
160.82341424
 20
153.5352866581
 30
0.0
 11
160.82341424
 21
149.1679838856
 31
0.0
  0
SPLINE
  5
2A3
330
1F
100
AcDbEntity
  8
0
  6
SLD-実線
 62
     7
370
    18
100
AcDbSpline
210
0.0
220
0.0
230
1.0
 70
     8
 71
     3
 72
    14
 73
    10
 74
     0
 42
0.000000001
 43
0.00000001
 40
0.0
 40
0.0
 40
0.0
 40
0.0
 40
0.25
 40
0.25
 40
0.5
 40
0.5
 40
0.75
 40
0.75
 40
1.0
 40
1.0
 40
1.0
 40
1.0
 10
145.1972356303745
 20
154.6871360504583
 30
0.0
 10
145.194093649289
 20
154.4973936452787
 30
0.0
 10
145.1915886806732
 20
154.3077164102397
 30
0.0
 10
145.1882059737385
 20
153.955237132721
 30
0.0
 10
145.1873293972658
 20
153.7925561550294
 30
0.0
 10
145.1873293972658
 20
153.5172498502317
 30
0.0
 10
145.1882059737385
 20
153.4047190815906
 30
0.0
 10
145.1915886806732
 20
153.2457693650498
 30
0.0
 10
145.194093649289
 20
153.1994050110368
 30
0.0
 10
145.1972356303745
 20
153.1894198924991
 30
0.0
  0
LINE
  5
2A4
330
1F
100
AcDbEntity
  8
0
  6
SLD-実線
 62
     7
370
    18
100
AcDbLine
 10
145.1972356304
 20
153.1894198925
 30
0.0
 11
160.82341424
 21
152.930584149
 31
0.0
  0
ARC
  5
2A5
330
1F
100
AcDbEntity
  8
0
  6
SLD-実線
 62
     7
370
    18
100
AcDbCircle
 10
161.0837292052
 20
145.8962802851
 30
0.0
 40
0.2653175608530858
100
AcDbArc
 50
191.1438971937
 51
276.9886115516
  0
SPLINE
  5
2A6
330
1F
100
AcDbEntity
  8
0
  6
SLD-実線
 62
     7
370
    18
100
AcDbSpline
210
0.0
220
0.0
230
1.0
 70
    24
 71
     3
 72
    10
 73
     6
 74
     0
 42
0.000000001
 43
0.00000001
 40
0.0
 40
0.0
 40
0.0
 40
0.0
 40
0.5
 40
0.5
 40
1.0
 40
1.0
 40
1.0
 40
1.0
 10
160.8234142400304
 20
149.1679838855748
 30
0.0
 10
160.8234142400304
 20
148.5526699464764
 30
0.0
 10
160.8234142400304
 20
147.9378571313933
 30
0.0
 10
160.8234142400304
 20
146.8012178795599
 30
0.0
 10
160.8234142400304
 20
146.2800276605811
 30
0.0
 10
160.8234142400304
 20
145.8450013710491
 30
0.0
  0
ARC
  5
2A7
330
1F
100
AcDbEntity
  8
0
  6
SLD-実線
 62
     7
370
    18
100
AcDbCircle
 10
142.331469843
 20
165.9947553208
 30
0.0
 40
2.869690440798357
100
AcDbArc
 50
357.0031137011
 51
0.997698272
  0
ARC
  5
2A8
330
1F
100
AcDbEntity
  8
0
  6
SLD-実線
 62
     7
370
    18
100
AcDbCircle
 10
142.331470729
 20
167.0946907971
 30
0.0
 40
2.869690440784785
100
AcDbArc
 50
359.002301728
 51
2.9968862989
  0
ARC
  5
2A9
330
1F
100
AcDbEntity
  8
0
  6
SLD-実線
 62
     7
370
    18
100
AcDbCircle
 10
143.72341424
 20
166.0447230589
 30
0.0
 40
0.2000000000000171
100
AcDbArc
 50
270.0000002462
 51
0.0
  0
LINE
  5
2AA
330
1F
100
AcDbEntity
  8
0
  6
SLD-実線
 62
     7
370
    18
100
AcDbLine
 10
143.92341424
 20
166.0447230589
 30
0.0
 11
145.2007261117
 21
166.0447230589
 31
0.0
  0
SPLINE
  5
2AB
330
1F
100
AcDbEntity
  8
0
  6
SLD-実線
 62
     7
370
    18
100
AcDbSpline
210
0.0
220
0.0
230
1.0
 70
     8
 71
     3
 72
    14
 73
    10
 74
     0
 42
0.000000001
 43
0.00000001
 40
0.0
 40
0.0
 40
0.0
 40
0.0
 40
0.25
 40
0.25
 40
0.5
 40
0.5
 40
0.75
 40
0.75
 40
1.0
 40
1.0
 40
1.0
 40
1.0
 10
145.1972356303745
 20
165.8447230653794
 30
0.0
 10
145.0031015543813
 20
165.8447230653794
 30
0.0
 10
144.8097066200811
 20
165.8447230653794
 30
0.0
 10
144.452913616555
 20
165.8447230653794
 30
0.0
 10
144.2896498042692
 20
165.8447230653794
 30
0.0
 10
144.0174629171109
 20
165.8447230653794
 30
0.0
 10
143.908642262909
 20
165.8447230653794
 30
0.0
 10
143.7615935446633
 20
165.8447230653794
 30
0.0
 10
143.7234208132937
 20
165.8447230653794
 30
0.0
 10
143.7234142408898
 20
165.8447230589362
 30
0.0
  0
LINE
  5
2AC
330
1F
100
AcDbEntity
  8
0
  6
SLD-実線
 62
     7
370
    18
100
AcDbLine
 10
145.2007261117
 20
167.0447230589
 30
0.0
 11
143.92341424
 21
167.0447230589
 31
0.0
  0
ARC
  5
2AD
330
1F
100
AcDbEntity
  8
0
  6
SLD-実線
 62
     7
370
    18
100
AcDbCircle
 10
143.72341424
 20
167.0447230589
 30
0.0
 40
0.2000000000000171
100
AcDbArc
 50
0.0
 51
89.9999997538
  0
SPLINE
  5
2AE
330
1F
100
AcDbEntity
  8
0
  6
SLD-実線
 62
     7
370
    18
100
AcDbSpline
210
0.0
220
0.0
230
1.0
 70
    24
 71
     3
 72
    14
 73
    10
 74
     0
 42
0.000000001
 43
0.00000001
 40
0.0
 40
0.0
 40
0.0
 40
0.0
 40
0.25
 40
0.25
 40
0.5
 40
0.5
 40
0.75
 40
0.75
 40
1.0
 40
1.0
 40
1.0
 40
1.0
 10
143.7234142408898
 20
167.2447230589363
 30
0.0
 10
143.7234208132937
 20
167.2447230589362
 30
0.0
 10
143.7615935446633
 20
167.2447230589362
 30
0.0
 10
143.908642262909
 20
167.2447230589362
 30
0.0
 10
144.0174629171109
 20
167.2447230589362
 30
0.0
 10
144.2896498042692
 20
167.2447230589362
 30
0.0
 10
144.452913616555
 20
167.2447230589362
 30
0.0
 10
144.8097066200811
 20
167.2447230589362
 30
0.0
 10
145.0031015543813
 20
167.2447230589362
 30
0.0
 10
145.1972356303745
 20
167.2447230589362
 30
0.0
  0
LINE
  5
2AF
330
1F
100
AcDbEntity
  8
0
  6
SLD-実線
 62
     7
370
    18
100
AcDbLine
 10
143.72341424
 20
184.6434088356
 30
0.0
 11
143.72341424
 21
167.2447230589
 31
0.0
  0
LINE
  5
2B0
330
1F
100
AcDbEntity
  8
0
  6
SLD-実線
 62
     7
370
    18
100
AcDbLine
 10
145.1972356304
 20
184.6434088356
 30
0.0
 11
143.72341424
 21
184.6434088356
 31
0.0
  0
LINE
  5
2B1
330
1F
100
AcDbEntity
  8
0
  6
SLD-実線
 62
     7
370
    18
100
AcDbLine
 10
143.72341424
 20
154.6871360505
 30
0.0
 11
145.1972356304
 21
154.6871360505
 31
0.0
  0
LINE
  5
2B2
330
1F
100
AcDbEntity
  8
0
  6
SLD-実線
 62
     7
370
    18
100
AcDbLine
 10
143.72341424
 20
165.8447230589
 30
0.0
 11
143.72341424
 21
154.6871360505
 31
0.0
  0
SPLINE
  5
2B3
330
1F
100
AcDbEntity
  8
0
  6
SLD-実線
 62
     7
370
    18
100
AcDbSpline
210
0.0
220
0.0
230
1.0
 70
    24
 71
     3
 72
    10
 73
     6
 74
     0
 42
0.000000001
 43
0.00000001
 40
0.0
 40
0.0
 40
0.0
 40
0.0
 40
0.5
 40
0.5
 40
1.0
 40
1.0
 40
1.0
 40
1.0
 10
143.7234142400304
 20
186.4109527263356
 30
0.0
 10
143.7234142400304
 20
186.1795557668854
 30
0.0
 10
143.7234142400304
 20
185.9023269181558
 30
0.0
 10
143.7234142400304
 20
185.2977315829968
 30
0.0
 10
143.7234142400304
 20
184.9707034797456
 30
0.0
 10
143.7234142400304
 20
184.6434088356305
 30
0.0
  0
ARC
  5
2B4
330
1F
100
AcDbEntity
  8
0
  6
SLD-実線
 62
     7
370
    18
100
AcDbCircle
 10
145.0249890657
 20
186.1545581561
 30
0.0
 40
1.326587804263748
100
AcDbArc
 50
83.0113884483
 51
168.8561028063
  0
SPLINE
  5
2B5
330
1F
100
AcDbEntity
  8
0
  6
SLD-実線
 62
     7
370
    18
100
AcDbSpline
210
0.0
220
0.0
230
1.0
 70
     8
 71
     3
 72
     9
 73
     5
 74
     0
 42
0.000000001
 43
0.00000001
 40
0.0
 40
0.0
 40
0.0
 40
0.0
 40
0.7167352456498007
 40
1.0
 40
1.0
 40
1.0
 40
1.0
 10
143.7234142400304
 20
154.6871360504583
 30
0.0
 10
143.7359469831522
 20
154.4879812396347
 30
0.0
 10
143.7534328584429
 20
154.2101173951644
 30
0.0
 10
143.9151462149242
 20
153.9911777067822
 30
0.0
 10
143.960953909123
 20
153.9291598097351
 30
0.0
  0
SPLINE
  5
2B6
330
1F
100
AcDbEntity
  8
0
  6
SLD-実線
 62
     7
370
    18
100
AcDbSpline
210
0.0
220
0.0
230
1.0
 70
    24
 71
     3
 72
    10
 73
     6
 74
     0
 42
0.000000001
 43
0.00000001
 40
0.0
 40
0.0
 40
0.0
 40
0.0
 40
0.5
 40
0.5
 40
1.0
 40
1.0
 40
1.0
 40
1.0
 10
160.8234142400304
 20
145.8450013710491
 30
0.0
 10
160.8234142400304
 20
145.4099750815203
 30
0.0
 10
160.8234142400304
 20
145.0617681462855
 30
0.0
 10
160.8234142400304
 20
144.5909987474116
 30
0.0
 10
160.8234142400304
 20
144.4686997183429
 30
0.0
 10
160.8234142400304
 20
144.4686997183397
 30
0.0
  0
LINE
  5
2B7
330
1F
100
AcDbEntity
  8
0
  6
SLD-実線
 62
     7
370
    18
100
AcDbLine
 10
145.2007261117
 20
166.0447230589
 30
0.0
 11
145.2007261117
 21
167.0447230589
 31
0.0
  0
LINE
  5
2B8
330
1F
100
AcDbEntity
  8
0
  6
SLD-実線
 62
     7
370
    18
100
AcDbLine
 10
143.92341424
 20
167.0447230589
 30
0.0
 11
143.92341424
 21
166.0447230589
 31
0.0
  0
LINE
  5
2B9
330
1F
100
AcDbEntity
  8
0
  6
SLD-実線
 62
     7
370
    18
100
AcDbLine
 10
160.82341424
 20
152.930584149
 30
0.0
 11
145.1972356304
 21
153.0120344972
 31
0.0
  0
LINE
  5
2BA
330
1F
100
AcDbEntity
  8
0
  6
SLD-実線
 62
     7
370
    18
100
AcDbLine
 10
145.1972356304
 20
153.0120344972
 30
0.0
 11
145.1972356304
 21
153.1894198925
 31
0.0
  0
SPLINE
  5
2BB
330
1F
100
AcDbEntity
  8
0
  6
SLD-実線
 62
     7
370
    18
100
AcDbSpline
210
0.0
220
0.0
230
1.0
 70
    24
 71
     3
 72
    10
 73
     6
 74
     0
 42
0.000000001
 43
0.00000001
 40
0.0
 40
0.0
 40
0.0
 40
0.0
 40
0.5
 40
0.5
 40
1.0
 40
1.0
 40
1.0
 40
1.0
 10
143.7234142400304
 20
187.1430280735215
 30
0.0
 10
143.7234142400304
 20
187.1430280735163
 30
0.0
 10
143.7234142400304
 20
187.0779753960894
 30
0.0
 10
143.7234142400304
 20
186.8275661461568
 30
0.0
 10
143.7234142400304
 20
186.6423496857789
 30
0.0
 10
143.7234142400304
 20
186.4109527263356
 30
0.0
  0
LINE
  5
2BC
330
1F
100
AcDbEntity
  8
0
  6
SLD-実線
 62
     7
370
    18
100
AcDbLine
 10
145.1972356304
 20
188.6427996163
 30
0.0
 11
145.1947977573
 21
188.623363778
 31
0.0
  0
ARC
  5
2BD
330
1F
100
AcDbEntity
  8
0
  6
SLD-実線
 62
     7
370
    18
100
AcDbCircle
 10
145.22341424
 20
187.1430280735
 30
0.0
 40
1.499999999999993
100
AcDbArc
 50
158.6217486792
 51
180.0
  0
ARC
  5
2BE
330
1F
100
AcDbEntity
  8
0
  6
SLD-実線
 62
     7
370
    18
100
AcDbCircle
 10
161.12341424
 20
144.4686997183
 30
0.0
 40
0.3000000000000264
100
AcDbArc
 50
236.2084713689
 51
269.0
  0
ARC
  5
2BF
330
1F
100
AcDbEntity
  8
0
  6
SLD-実線
 62
     7
370
    18
100
AcDbCircle
 10
161.12341424
 20
144.4686997183
 30
0.0
 40
0.2999999999999829
100
AcDbArc
 50
180.0
 51
236.2084713689
  0
LINE
  5
2C0
330
1F
100
AcDbEntity
  8
0
  6
SLD-実線
 62
     7
370
    18
100
AcDbLine
 10
143.72341424
 20
154.6871360505
 30
0.0
 11
143.72341424
 21
154.5097506551
 31
0.0
  0
ARC
  5
2C1
330
1F
100
AcDbEntity
  8
0
  6
SLD-実線
 62
     7
370
    18
100
AcDbCircle
 10
145.222344867
 20
154.5107551381
 30
0.0
 40
1.498930963511125
100
AcDbArc
 50
180.0383957912
 51
269.0401688864
  0
SPLINE
  5
2C2
330
1F
100
AcDbEntity
  8
0
  6
SLD-実線
 62
     7
370
    18
100
AcDbSpline
210
0.0
220
0.0
230
1.0
 70
     8
 71
     3
 72
    10
 73
     6
 74
     0
 42
0.000000001
 43
0.00000001
 40
0.0
 40
0.0
 40
0.0
 40
0.0
 40
0.5
 40
0.5
 40
1.0
 40
1.0
 40
1.0
 40
1.0
 10
143.7234142400304
 20
167.2447230589362
 30
0.0
 10
143.7243306122155
 20
167.2447230589362
 30
0.0
 10
143.7252362251259
 20
167.1692818050869
 30
0.0
 10
143.7265285409108
 20
166.9101138064468
 30
0.0
 10
143.7269047213215
 20
166.7284972941931
 30
0.0
 10
143.7269047213179
 20
166.5447230589363
 30
0.0
  0
SPLINE
  5
2C3
330
1F
100
AcDbEntity
  8
0
  6
SLD-実線
 62
     7
370
    18
100
AcDbSpline
210
0.0
220
0.0
230
1.0
 70
     8
 71
     3
 72
    10
 73
     6
 74
     0
 42
0.000000001
 43
0.00000001
 40
0.0
 40
0.0
 40
0.0
 40
0.0
 40
0.5
 40
0.5
 40
1.0
 40
1.0
 40
1.0
 40
1.0
 10
143.7269047213179
 20
166.5447230589363
 30
0.0
 10
143.7269047213215
 20
166.3609488236794
 30
0.0
 10
143.7265285409108
 20
166.1793323114258
 30
0.0
 10
143.7252362251259
 20
165.9201643127856
 30
0.0
 10
143.7243306122155
 20
165.8447230589363
 30
0.0
 10
143.7234142400304
 20
165.8447230589362
 30
0.0
  0
SPLINE
  5
2C4
330
1F
100
AcDbEntity
  8
0
  6
SLD-実線
 62
     7
370
    18
100
AcDbSpline
210
0.0
220
0.0
230
1.0
 70
    24
 71
     3
 72
    10
 73
     6
 74
     0
 42
0.000000001
 43
0.00000001
 40
0.0
 40
0.0
 40
0.0
 40
0.0
 40
0.4999999999999999
 40
0.4999999999999999
 40
0.9999999999999999
 40
0.9999999999999999
 40
0.9999999999999999
 40
0.9999999999999999
 10
143.7234142400304
 20
154.5097506551323
 30
0.0
 10
143.7234142400304
 20
154.4389760280824
 30
0.0
 10
143.7234142400304
 20
153.8706145071064
 30
0.0
 10
143.7234142400304
 20
151.9581542287211
 30
0.0
 10
143.7234142400304
 20
150.6815933517367
 30
0.0
 10
143.7234142400304
 20
149.3311330189736
 30
0.0
  0
LINE
  5
2C5
330
1F
100
AcDbEntity
  8
0
  6
SLD-実線
 62
     7
370
    18
100
AcDbLine
 10
143.72341424
 20
149.331133019
 30
0.0
 11
143.72341424
 21
145.9464180444
 31
0.0
  0
LINE
  5
2C6
330
1F
100
AcDbEntity
  8
0
  6
SLD-実線
 62
     7
370
    18
100
AcDbLine
 10
143.7269047213
 20
166.5447230589
 30
0.0
 11
143.92341424
 21
166.5447230589
 31
0.0
  0
LINE
  5
2C7
330
1F
100
AcDbEntity
  8
0
  6
SLD-実線
 62
     7
370
    18
100
AcDbLine
 10
161.1181785181
 20
144.1687454098
 30
0.0
 11
145.1972356304
 21
144.4466465016
 31
0.0
  0
LINE
  5
2C8
330
1F
100
AcDbEntity
  8
0
  6
SLD-実線
 62
     7
370
    18
100
AcDbLine
 10
145.1972356304
 20
149.2526410411
 30
0.0
 11
145.1972356304
 21
153.0120344972
 31
0.0
  0
ARC
  5
2C9
330
1F
100
AcDbEntity
  8
0
  6
SLD-実線
 62
     7
370
    18
100
AcDbCircle
 10
144.8340664417
 20
156.3095242701
 30
0.0
 40
7.066221958466749
100
AcDbArc
 50
260.956884956
 51
272.9460202903
  0
LINE
  5
2CA
330
1F
100
AcDbEntity
  8
0
  6
SLD-実線
 62
     7
370
    18
100
AcDbLine
 10
145.1972356304
 20
145.8679260665
 30
0.0
 11
145.1972356304
 21
149.2526410411
 31
0.0
  0
SPLINE
  5
2CB
330
1F
100
AcDbEntity
  8
0
  6
SLD-実線
 62
     7
370
    18
100
AcDbSpline
210
0.0
220
0.0
230
1.0
 70
     8
 71
     3
 72
    14
 73
    10
 74
     0
 42
0.000000001
 43
0.00000001
 40
0.0
 40
0.0
 40
0.0
 40
0.0
 40
0.25
 40
0.25
 40
0.5
 40
0.5
 40
0.75
 40
0.75
 40
1.0
 40
1.0
 40
1.0
 40
1.0
 10
145.1972356303745
 20
145.8679260665161
 30
0.0
 10
145.194093649289
 20
145.6784465669946
 30
0.0
 10
145.1915886806732
 20
145.4909388819928
 30
0.0
 10
145.1882059737385
 20
145.1463060826099
 30
0.0
 10
145.1873293972658
 20
144.9892993380151
 30
0.0
 10
145.1873293972658
 20
144.7280434097689
 30
0.0
 10
145.1882059737385
 20
144.6238839587502
 30
0.0
 10
145.1915886806732
 20
144.4831887643801
 30
0.0
 10
145.194093649289
 20
144.4467013451003
 30
0.0
 10
145.1972356303745
 20
144.4466465016165
 30
0.0
  0
SPLINE
  5
2CC
330
1F
100
AcDbEntity
  8
0
  6
SLD-実線
 62
     7
370
    18
100
AcDbSpline
210
0.0
220
0.0
230
1.0
 70
     8
 71
     3
 72
    17
 73
    13
 74
     0
 42
0.000000001
 43
0.00000001
 40
0.0
 40
0.0
 40
0.0
 40
0.0
 40
0.024298566036608
 40
0.057485440583219
 40
0.1168451996786946
 40
0.2403839653706035
 40
0.3482140561033185
 40
0.5001133211533594
 40
0.6286204410430212
 40
0.7955946128034801
 40
0.8798693073570719
 40
1.0
 40
1.0
 40
1.0
 40
1.0
 10
145.1972356303745
 20
145.8679260665161
 30
0.0
 10
145.1784013334031
 20
145.8676045837918
 30
0.0
 10
145.1338432365241
 20
145.8668440213775
 30
0.0
 10
145.0435011765339
 20
145.8690793726855
 30
0.0
 10
144.8776898580705
 20
145.8692390497968
 30
0.0
 10
144.6604687281881
 20
145.8734843903344
 30
0.0
 10
144.3949868557898
 20
145.8797354087625
 30
0.0
 10
144.1578058930435
 20
145.8904874511881
 30
0.0
 10
143.9389890746309
 20
145.9042835777104
 30
0.0
 10
143.8109592965108
 20
145.9186640225186
 30
0.0
 10
143.7367731556193
 20
145.9331426567823
 30
0.0
 10
143.7283591934034
 20
145.9415040098175
 30
0.0
 10
143.7234142400304
 20
145.9464180443511
 30
0.0
  0
ARC
  5
2CD
330
1F
100
AcDbEntity
  8
0
  6
SLD-実線
 62
     7
370
    18
100
AcDbCircle
 10
145.22341424
 20
145.9464180444
 30
0.0
 40
1.500000000000085
100
AcDbArc
 50
180.0
 51
269.0
  0
LINE
  5
2CE
330
1F
100
AcDbEntity
  8
0
  6
SLD-実線
 62
     7
370
    18
100
AcDbLine
 10
168.5181785181
 20
144.050480814
 30
0.0
 11
168.5181785181
 21
144.050480814
 31
0.0
  0
SPLINE
  5
2CF
330
1F
100
AcDbEntity
  8
0
  6
SLD-実線
 62
     7
370
    18
100
AcDbSpline
210
0.0
220
0.0
230
1.0
 70
     8
 71
     3
 72
    14
 73
    10
 74
     0
 42
0.000000001
 43
0.00000001
 40
0.0
 40
0.0
 40
0.0
 40
0.0
 40
0.1025055785356411
 40
0.2036076483972704
 40
0.3059030581728464
 40
0.5003011694474337
 40
0.7562284737227009
 40
0.8780283540070222
 40
0.9999999999999999
 40
0.9999999999999999
 40
0.9999999999999999
 40
0.9999999999999999
 10
168.5181785180935
 20
144.0504808140318
 30
0.0
 10
168.5022964605825
 20
144.0502020297539
 30
0.0
 10
168.4707498030359
 20
144.0496482783176
 30
0.0
 10
168.4246889026146
 20
144.0488480324152
 30
0.0
 10
168.3680978519693
 20
144.0479709840436
 30
0.0
 10
168.298319100916
 20
144.047342033058
 30
0.0
 10
168.2489824033503
 20
144.0488423887276
 30
0.0
 10
168.2264590531821
 20
144.05231681878
 30
0.0
 10
168.2244296543977
 20
144.0549124774658
 30
0.0
 10
168.2234142400304
 20
144.0562112212822
 30
0.0
  0
SPLINE
  5
2D0
330
1F
100
AcDbEntity
  8
0
  6
SLD-実線
 62
     7
370
    18
100
AcDbSpline
210
0.0
220
0.0
230
1.0
 70
     8
 71
     3
 72
    15
 73
    11
 74
     0
 42
0.000000001
 43
0.00000001
 40
0.0
 40
0.0
 40
0.0
 40
0.0
 40
0.1221419407097732
 40
0.2288536542882072
 40
0.3201198942176888
 40
0.3959277133476513
 40
0.4562665423567907
 40
0.501128400054211
 40
0.7572766014273833
 40
1.0
 40
1.0
 40
1.0
 40
1.0
 10
168.5181785180935
 20
148.0401872414996
 30
0.0
 10
168.4992450965031
 20
148.041547590625
 30
0.0
 10
168.4637701180045
 20
148.0440964355724
 30
0.0
 10
168.4160332410114
 20
148.0588411675004
 30
0.0
 10
168.3775825307833
 20
148.0769894580636
 30
0.0
 10
168.3479124527244
 20
148.0961484789174
 30
0.0
 10
168.3260291843189
 20
148.1137722543542
 30
0.0
 10
168.28552793504
 20
148.1523157907237
 30
0.0
 10
168.2359516188635
 20
148.2250560177594
 30
0.0
 10
168.2275177132275
 20
148.3024741553378
 30
0.0
 10
168.2234142400304
 20
148.3401415500466
 30
0.0
  0
LINE
  5
2D1
330
1F
100
AcDbEntity
  8
0
  6
SLD-実線
 62
     7
370
    18
100
AcDbLine
 10
168.5181785181
 20
148.0401872415
 30
0.0
 11
168.72341424
 21
148.0366048386
 31
0.0
  0
SPLINE
  5
2D2
330
1F
100
AcDbEntity
  8
0
  6
SLD-実線
 62
     8
370
    18
100
AcDbSpline
210
0.0
220
0.0
230
1.0
 70
     8
 71
     3
 72
    11
 73
     7
 74
     0
 42
0.000000001
 43
0.00000001
 40
0.0
 40
0.0
 40
0.0
 40
0.0
 40
0.1547944654910453
 40
0.4443296427465602
 40
0.7260647626967828
 40
1.0
 40
1.0
 40
1.0
 40
1.0
 10
145.194930488114
 20
188.602845135402
 30
0.0
 10
145.1940632554317
 20
188.5926905364032
 30
0.0
 10
145.1915739081113
 20
188.5635422762824
 30
0.0
 10
145.1888308604596
 20
188.341885675221
 30
0.0
 10
145.1867361400721
 20
187.9805935060717
 30
0.0
 10
145.1865094742269
 20
187.6394616149862
 30
0.0
 10
145.1863977321459
 20
187.4712898845414
 30
0.0
  0
LINE
  5
2D3
330
1F
100
AcDbEntity
  8
0
  6
SLD-実線
 62
     8
370
    18
100
AcDbLine
 10
168.22341424
 20
167.0447230589
 30
0.0
 11
166.4039010515
 21
167.0447230589
 31
0.0
  0
LINE
  5
2D4
330
1F
100
AcDbEntity
  8
0
  6
SLD-実線
 62
     8
370
    18
100
AcDbLine
 10
166.4149795064
 20
166.0447230589
 30
0.0
 11
168.22341424
 21
166.0447230589
 31
0.0
  0
LINE
  5
2D5
330
1F
100
AcDbEntity
  8
0
  6
SLD-実線
 62
     8
370
    18
100
AcDbLine
 10
145.2007261117
 20
166.0447230589
 30
0.0
 11
146.4458784578
 21
166.0447230589
 31
0.0
  0
LINE
  5
2D6
330
1F
100
AcDbEntity
  8
0
  6
SLD-実線
 62
     8
370
    18
100
AcDbLine
 10
146.4486759012
 20
167.0447230589
 30
0.0
 11
145.2007261117
 21
167.0447230589
 31
0.0
  0
SPLINE
  5
2D7
330
1F
100
AcDbEntity
  8
0
  6
SLD-実線
 62
     8
370
    18
100
AcDbSpline
210
0.0
220
0.0
230
1.0
 70
     8
 71
     3
 72
    10
 73
     6
 74
     0
 42
0.000000001
 43
0.00000001
 40
0.0
 40
0.0
 40
0.0
 40
0.0
 40
0.2321822142958759
 40
0.6160911071479376
 40
1.0
 40
1.0
 40
1.0
 40
1.0
 10
143.960953909123
 20
153.9291598097351
 30
0.0
 10
144.0194934305754
 20
153.8275139563358
 30
0.0
 10
144.1748269417699
 20
153.5577986099311
 30
0.0
 10
144.620850456767
 20
153.2684779471421
 30
0.0
 10
145.005107239172
 20
153.2157725773801
 30
0.0
 10
145.1972356303745
 20
153.1894198924991
 30
0.0
  0
LINE
  5
2D8
330
1F
100
AcDbEntity
  8
0
  6
SLD-実線
 62
     8
370
    18
100
AcDbLine
 10
145.1972356304
 20
149.2526410411
 30
0.0
 11
156.52341424
 21
149.2422942653
 31
0.0
  0
LINE
  5
2D9
330
1F
100
AcDbEntity
  8
0
  6
SLD-実線
 62
     8
370
    18
100
AcDbLine
 10
160.52341424
 20
149.2386401553
 30
0.0
 11
160.82341424
 21
149.1679838856
 31
0.0
  0
LINE
  5
2DA
330
1F
100
AcDbEntity
  8
0
  6
SLD-実線
 62
     8
370
    18
100
AcDbLine
 10
160.82341424
 20
145.845001371
 30
0.0
 11
160.52341424
 21
145.6004066238
 31
0.0
  0
LINE
  5
2DB
330
1F
100
AcDbEntity
  8
0
  6
SLD-実線
 62
     8
370
    18
100
AcDbLine
 10
156.8027868831
 20
145.6653504159
 30
0.0
 11
145.1972356304
 21
145.8679260665
 31
0.0
  0
LINE
  5
2DC
330
1F
100
AcDbEntity
  8
0
  6
SLD-破線
 62
     7
370
    18
100
AcDbLine
 10
172.72341424
 20
136.916108847
 30
0.0
 11
170.21341424
 21
137.5966809876
 31
0.0
  0
LINE
  5
2DD
330
1F
100
AcDbEntity
  8
0
  6
SLD-破線
 62
     7
370
    18
100
AcDbLine
 10
172.72341424
 20
137.6296258128
 30
0.0
 11
170.21341424
 21
138.461051335
 31
0.0
  0
SPLINE
  5
2DE
330
1F
100
AcDbEntity
  8
0
  6
SLD-破線
 62
     7
370
    18
100
AcDbSpline
210
0.0
220
0.0
230
1.0
 70
     8
 71
     3
 72
     8
 73
     4
 74
     0
 42
0.000000001
 43
0.00000001
 40
0.0
 40
0.0
 40
0.0
 40
0.0
 40
1.0
 40
1.0
 40
1.0
 40
1.0
 10
172.7234142400304
 20
138.4939961601696
 30
0.0
 10
171.886536656054
 20
138.5307863457905
 30
0.0
 10
171.0497762573289
 20
138.5685227656842
 30
0.0
 10
170.2134142400304
 20
138.6084746130792
 30
0.0
  0
LINE
  5
2DF
330
1F
100
AcDbEntity
  8
0
  6
SLD-破線
 62
     7
370
    18
100
AcDbLine
 10
172.72341424
 20
140.1108778242
 30
0.0
 11
170.21341424
 21
139.0606765571
 31
0.0
  0
SPLINE
  5
2E0
330
1F
100
AcDbEntity
  8
0
  6
SLD-破線
 62
     7
370
    18
100
AcDbSpline
210
0.0
220
0.0
230
1.0
 70
     8
 71
     3
 72
     8
 73
     4
 74
     0
 42
0.000000001
 43
0.00000001
 40
0.0
 40
0.0
 40
0.0
 40
0.0
 40
1.0
 40
1.0
 40
1.0
 40
1.0
 10
172.7234142400304
 20
139.0098388940657
 30
0.0
 10
171.886536656054
 20
138.953067396599
 30
0.0
 10
171.0497762573289
 20
138.8948357505706
 30
0.0
 10
170.2134142400304
 20
138.8331854445202
 30
0.0
  0
LINE
  5
2E1
330
1F
100
AcDbEntity
  8
0
  6
SLD-破線
 62
     7
370
    18
100
AcDbLine
 10
172.72341424
 20
140.6710241466
 30
0.0
 11
170.21341424
 21
139.6208228796
 31
0.0
  0
LINE
  5
2E2
330
1F
100
AcDbEntity
  8
0
  6
SLD-破線
 62
     7
370
    18
100
AcDbLine
 10
170.21341424
 20
139.6155957615
 30
0.0
 11
170.21341424
 21
139.6208228796
 31
0.0
  0
SPLINE
  5
2E3
330
1F
100
AcDbEntity
  8
0
  6
SLD-破線
 62
     7
370
    18
100
AcDbSpline
210
0.0
220
0.0
230
1.0
 70
     8
 71
     3
 72
     8
 73
     4
 74
     0
 42
0.000000001
 43
0.00000001
 40
0.0
 40
0.0
 40
0.0
 40
0.0
 40
1.0
 40
1.0
 40
1.0
 40
1.0
 10
172.7234142400304
 20
137.6296258127779
 30
0.0
 10
171.886536656054
 20
137.6664159983988
 30
0.0
 10
171.0497762573289
 20
137.7041524182924
 30
0.0
 10
170.2134142400304
 20
137.7441042656875
 30
0.0
  0
SPLINE
  5
2E4
330
1F
100
AcDbEntity
  8
0
  6
SLD-破線
 62
     7
370
    18
100
AcDbSpline
210
0.0
220
0.0
230
1.0
 70
     8
 71
     3
 72
     9
 73
     5
 74
     0
 42
0.000000001
 43
0.00000001
 40
0.0
 40
0.0
 40
0.0
 40
0.0
 40
0.6094298353371203
 40
1.0
 40
1.0
 40
1.0
 40
1.0
 10
170.2134142400305
 20
139.3954086494405
 30
0.0
 10
170.3194035192055
 20
139.4011809251794
 30
0.0
 10
170.493318994014
 20
139.4140604360893
 30
0.0
 10
170.6673104910764
 20
139.4261936327467
 30
0.0
 10
170.735266378734
 20
139.430932497363
 30
0.0
  0
LINE
  5
2E5
330
1F
100
AcDbEntity
  8
0
  6
SLD-破線
 62
     7
370
    18
100
AcDbLine
 10
172.72341424
 20
139.5699852165
 30
0.0
 11
172.72341424
 21
139.5699852165
 31
0.0
  0
SPLINE
  5
2E6
330
1F
100
AcDbEntity
  8
0
  6
SLD-破線
 62
     7
370
    18
100
AcDbSpline
210
0.0
220
0.0
230
1.0
 70
     8
 71
     3
 72
     9
 73
     5
 74
     0
 42
0.000000001
 43
0.00000001
 40
0.0
 40
0.0
 40
0.0
 40
0.0
 40
0.6094298353372722
 40
1.0
 40
1.0
 40
1.0
 40
1.0
 10
170.2134142400305
 20
137.6940374684322
 30
0.0
 10
170.3194035192055
 20
137.6882651926933
 30
0.0
 10
170.4933189940139
 20
137.6753856817833
 30
0.0
 10
170.6673104910763
 20
137.663252485126
 30
0.0
 10
170.7352663787339
 20
137.6585136205097
 30
0.0
  0
LINE
  5
2E7
330
1F
100
AcDbEntity
  8
0
  6
SLD-破線
 62
     7
370
    18
100
AcDbLine
 10
172.72341424
 20
137.5194609014
 30
0.0
 11
172.72341424
 21
137.5194609014
 31
0.0
  0
LINE
  5
2E8
330
1F
100
AcDbEntity
  8
0
  6
SLD-破線
 62
     7
370
    18
100
AcDbLine
 10
172.72341424
 20
136.4732944875
 30
0.0
 11
170.21341424
 21
137.4686232383
 31
0.0
  0
LINE
  5
2E9
330
1F
100
AcDbEntity
  8
0
  6
SLD-破線
 62
     7
370
    18
100
AcDbLine
 10
170.21341424
 20
137.4686232383
 30
0.0
 11
170.21341424
 21
137.4738503564
 31
0.0
  0
SPLINE
  5
2EA
330
1F
100
AcDbEntity
  8
0
  6
SLD-破線
 62
     7
370
    18
100
AcDbSpline
210
0.0
220
0.0
230
1.0
 70
     8
 71
     3
 72
     8
 73
     4
 74
     0
 42
0.000000001
 43
0.00000001
 40
0.0
 40
0.0
 40
0.0
 40
0.0
 40
1.0
 40
1.0
 40
1.0
 40
1.0
 10
172.7234142400304
 20
139.4598203050948
 30
0.0
 10
171.886536656054
 20
139.4230301194739
 30
0.0
 10
171.0497762573289
 20
139.3852936995802
 30
0.0
 10
170.2134142400304
 20
139.3453418521852
 30
0.0
  0
LINE
  5
2EB
330
1F
100
AcDbEntity
  8
0
  6
SLD-破線
 62
     7
370
    18
100
AcDbLine
 10
172.72341424
 20
136.9785682937
 30
0.0
 11
170.21341424
 21
138.0287695608
 31
0.0
  0
LINE
  5
2EC
330
1F
100
AcDbEntity
  8
0
  6
SLD-破線
 62
     7
370
    18
100
AcDbLine
 10
172.72341424
 20
140.1733372709
 30
0.0
 11
170.21341424
 21
139.4927651303
 31
0.0
  0
LINE
  5
2ED
330
1F
100
AcDbEntity
  8
0
  6
SLD-破線
 62
     7
370
    18
100
AcDbLine
 10
172.72341424
 20
139.4598203051
 30
0.0
 11
170.21341424
 21
138.6283947829
 31
0.0
  0
SPLINE
  5
2EE
330
1F
100
AcDbEntity
  8
0
  6
SLD-破線
 62
     7
370
    18
100
AcDbSpline
210
0.0
220
0.0
230
1.0
 70
     8
 71
     3
 72
     8
 73
     4
 74
     0
 42
0.000000001
 43
0.00000001
 40
0.0
 40
0.0
 40
0.0
 40
0.0
 40
1.0
 40
1.0
 40
1.0
 40
1.0
 10
172.7234142400304
 20
138.079607223807
 30
0.0
 10
171.886536656054
 20
138.1363787212736
 30
0.0
 10
171.0497762573289
 20
138.194610367302
 30
0.0
 10
170.2134142400304
 20
138.2562606733524
 30
0.0
  0
SPLINE
  5
2EF
330
1F
100
AcDbEntity
  8
0
  6
SLD-破線
 62
     7
370
    18
100
AcDbSpline
210
0.0
220
0.0
230
1.0
 70
     8
 71
     3
 72
     8
 73
     4
 74
     0
 42
0.000000001
 43
0.00000001
 40
0.0
 40
0.0
 40
0.0
 40
0.0
 40
1.0
 40
1.0
 40
1.0
 40
1.0
 10
172.7234142400304
 20
138.595449957703
 30
0.0
 10
171.886536656054
 20
138.5586597720821
 30
0.0
 10
171.0497762573289
 20
138.5209233521885
 30
0.0
 10
170.2134142400304
 20
138.4809715047935
 30
0.0
  0
LINE
  5
2F0
330
1F
100
AcDbEntity
  8
0
  6
SLD-破線
 62
     7
370
    18
100
AcDbLine
 10
169.6092006777
 20
136.5447230589
 30
0.0
 11
169.6092006777
 21
140.5447230589
 31
0.0
  0
LINE
  5
2F1
330
1F
100
AcDbEntity
  8
0
  6
SLD-破線
 62
     7
370
    18
100
AcDbLine
 10
172.22341424
 20
142.7447230589
 30
0.0
 11
172.22341424
 21
134.5447230589
 31
0.0
  0
LINE
  5
2F2
330
1F
100
AcDbEntity
  8
0
  6
SLD-破線
 62
     7
370
    18
100
AcDbLine
 10
170.3163074588
 20
140.8376162777
 30
0.0
 11
170.3163074588
 21
136.2518298401
 31
0.0
  0
LINE
  5
2F3
330
1F
100
AcDbEntity
  8
0
  6
SLD-破線
 62
     7
370
    18
100
AcDbLine
 10
172.72341424
 20
137.6296258128
 30
0.0
 11
170.21341424
 21
138.4097288506
 31
0.0
  0
SPLINE
  5
2F4
330
1F
100
AcDbEntity
  8
0
  6
SLD-破線
 62
     7
370
    18
100
AcDbSpline
210
0.0
220
0.0
230
1.0
 70
     8
 71
     3
 72
     8
 73
     4
 74
     0
 42
0.000000001
 43
0.00000001
 40
0.0
 40
0.0
 40
0.0
 40
0.0
 40
1.0
 40
1.0
 40
1.0
 40
1.0
 10
172.7234142400304
 20
138.4939961601696
 30
0.0
 10
171.886536656054
 20
138.4845259759501
 30
0.0
 10
171.0497762573289
 20
138.5250017096518
 30
0.0
 10
170.2134142400305
 20
138.5678536903276
 30
0.0
  0
LINE
  5
2F5
330
1F
100
AcDbEntity
  8
0
  6
SLD-破線
 62
     7
370
    18
100
AcDbLine
 10
170.21341424
 20
138.4097288506
 30
0.0
 11
170.21341424
 21
138.5678536903
 31
0.0
  0
LINE
  5
2F6
330
1F
100
AcDbEntity
  8
0
  6
SLD-破線
 62
     7
370
    18
100
AcDbLine
 10
172.72341424
 20
136.916108847
 30
0.0
 11
170.21341424
 21
137.5731106269
 31
0.0
  0
LINE
  5
2F7
330
1F
100
AcDbEntity
  8
0
  6
SLD-破線
 62
     7
370
    18
100
AcDbLine
 10
170.21341424
 20
137.5731106269
 30
0.0
 11
170.21341424
 21
138.4097288506
 31
0.0
  0
LINE
  5
2F8
330
1F
100
AcDbEntity
  8
0
  6
SLD-破線
 62
     7
370
    18
100
AcDbLine
 10
172.72341424
 20
140.1108778242
 30
0.0
 11
170.21341424
 21
139.0147880154
 31
0.0
  0
LINE
  5
2F9
330
1F
100
AcDbEntity
  8
0
  6
SLD-破線
 62
     7
370
    18
100
AcDbLine
 10
172.72341424
 20
140.6710241466
 30
0.0
 11
170.21341424
 21
139.6155957615
 31
0.0
  0
LINE
  5
2FA
330
1F
100
AcDbEntity
  8
0
  6
SLD-破線
 62
     7
370
    18
100
AcDbLine
 10
170.21341424
 20
139.0147880154
 30
0.0
 11
170.21341424
 21
139.6155957615
 31
0.0
  0
SPLINE
  5
2FB
330
1F
100
AcDbEntity
  8
0
  6
SLD-破線
 62
     7
370
    18
100
AcDbSpline
210
0.0
220
0.0
230
1.0
 70
     8
 71
     3
 72
     8
 73
     4
 74
     0
 42
0.000000001
 43
0.00000001
 40
0.0
 40
0.0
 40
0.0
 40
0.0
 40
1.0
 40
1.0
 40
1.0
 40
1.0
 10
172.7234142400304
 20
139.0098388940657
 30
0.0
 10
171.886536656054
 20
138.910633835434
 30
0.0
 10
171.0497762573289
 20
138.8542718183758
 30
0.0
 10
170.2134142400305
 20
138.7946009033624
 30
0.0
  0
LINE
  5
2FC
330
1F
100
AcDbEntity
  8
0
  6
SLD-破線
 62
     7
370
    18
100
AcDbLine
 10
170.21341424
 20
138.7946009034
 30
0.0
 11
170.21341424
 21
139.0147880154
 31
0.0
  0
SPLINE
  5
2FD
330
1F
100
AcDbEntity
  8
0
  6
SLD-破線
 62
     7
370
    18
100
AcDbSpline
210
0.0
220
0.0
230
1.0
 70
     8
 71
     3
 72
     8
 73
     4
 74
     0
 42
0.000000001
 43
0.00000001
 40
0.0
 40
0.0
 40
0.0
 40
0.0
 40
1.0
 40
1.0
 40
1.0
 40
1.0
 10
172.7234142400304
 20
137.6296258127779
 30
0.0
 10
171.886536656054
 20
137.6479077522348
 30
0.0
 10
171.0497762573289
 20
137.6883834859366
 30
0.0
 10
170.2134142400305
 20
137.7312354666124
 30
0.0
  0
LINE
  5
2FE
330
1F
100
AcDbEntity
  8
0
  6
SLD-破線
 62
     7
370
    18
100
AcDbLine
 10
170.21341424
 20
138.7946009034
 30
0.0
 11
170.21341424
 21
138.5678536903
 31
0.0
  0
SPLINE
  5
2FF
330
1F
100
AcDbEntity
  8
0
  6
SLD-破線
 62
     7
370
    18
100
AcDbSpline
210
0.0
220
0.0
230
1.0
 70
     8
 71
     3
 72
     8
 73
     4
 74
     0
 42
0.000000001
 43
0.00000001
 40
0.0
 40
0.0
 40
0.0
 40
0.0
 40
1.0
 40
1.0
 40
1.0
 40
1.0
 10
172.7234142400304
 20
139.5699852165118
 30
0.0
 10
171.886536656054
 20
139.5114415815122
 30
0.0
 10
171.0497762573289
 20
139.455079564454
 30
0.0
 10
170.2134142400305
 20
139.3954086494405
 30
0.0
  0
SPLINE
  5
300
330
1F
100
AcDbEntity
  8
0
  6
SLD-破線
 62
     7
370
    18
100
AcDbSpline
210
0.0
220
0.0
230
1.0
 70
     8
 71
     3
 72
     8
 73
     4
 74
     0
 42
0.000000001
 43
0.00000001
 40
0.0
 40
0.0
 40
0.0
 40
0.0
 40
1.0
 40
1.0
 40
1.0
 40
1.0
 10
172.7234142400304
 20
137.5194609013608
 30
0.0
 10
171.886536656054
 20
137.5780045363605
 30
0.0
 10
171.0497762573289
 20
137.6343665534187
 30
0.0
 10
170.2134142400305
 20
137.6940374684322
 30
0.0
  0
SPLINE
  5
301
330
1F
100
AcDbEntity
  8
0
  6
SLD-破線
 62
     7
370
    18
100
AcDbSpline
210
0.0
220
0.0
230
1.0
 70
     8
 71
     3
 72
     8
 73
     4
 74
     0
 42
0.000000001
 43
0.00000001
 40
0.0
 40
0.0
 40
0.0
 40
0.0
 40
1.0
 40
1.0
 40
1.0
 40
1.0
 10
172.7234142400304
 20
139.4598203050948
 30
0.0
 10
171.886536656054
 20
139.4415383656379
 30
0.0
 10
171.0497762573289
 20
139.4010626319361
 30
0.0
 10
170.2134142400305
 20
139.3582106512603
 30
0.0
  0
LINE
  5
302
330
1F
100
AcDbEntity
  8
0
  6
SLD-破線
 62
     7
370
    18
100
AcDbLine
 10
172.72341424
 20
136.4732944875
 30
0.0
 11
170.21341424
 21
137.4738503564
 31
0.0
  0
LINE
  5
303
330
1F
100
AcDbEntity
  8
0
  6
SLD-破線
 62
     7
370
    18
100
AcDbLine
 10
170.21341424
 20
137.4738503564
 30
0.0
 11
170.21341424
 21
137.5731106269
 31
0.0
  0
LINE
  5
304
330
1F
100
AcDbEntity
  8
0
  6
SLD-破線
 62
     7
370
    18
100
AcDbLine
 10
172.72341424
 20
136.9785682937
 30
0.0
 11
170.21341424
 21
138.0746581025
 31
0.0
  0
LINE
  5
305
330
1F
100
AcDbEntity
  8
0
  6
SLD-破線
 62
     7
370
    18
100
AcDbLine
 10
172.72341424
 20
140.1733372709
 30
0.0
 11
170.21341424
 21
139.516335491
 31
0.0
  0
LINE
  5
306
330
1F
100
AcDbEntity
  8
0
  6
SLD-破線
 62
     7
370
    18
100
AcDbLine
 10
172.72341424
 20
139.4598203051
 30
0.0
 11
170.21341424
 21
138.6797172672
 31
0.0
  0
SPLINE
  5
307
330
1F
100
AcDbEntity
  8
0
  6
SLD-破線
 62
     7
370
    18
100
AcDbSpline
210
0.0
220
0.0
230
1.0
 70
     8
 71
     3
 72
     8
 73
     4
 74
     0
 42
0.000000001
 43
0.00000001
 40
0.0
 40
0.0
 40
0.0
 40
0.0
 40
1.0
 40
1.0
 40
1.0
 40
1.0
 10
172.7234142400304
 20
138.079607223807
 30
0.0
 10
171.886536656054
 20
138.1788122824387
 30
0.0
 10
171.0497762573289
 20
138.2351742994968
 30
0.0
 10
170.2134142400305
 20
138.2948452145103
 30
0.0
  0
SPLINE
  5
308
330
1F
100
AcDbEntity
  8
0
  6
SLD-破線
 62
     7
370
    18
100
AcDbSpline
210
0.0
220
0.0
230
1.0
 70
     8
 71
     3
 72
     8
 73
     4
 74
     0
 42
0.000000001
 43
0.00000001
 40
0.0
 40
0.0
 40
0.0
 40
0.0
 40
1.0
 40
1.0
 40
1.0
 40
1.0
 10
172.7234142400304
 20
138.595449957703
 30
0.0
 10
171.886536656054
 20
138.6049201419226
 30
0.0
 10
171.0497762573289
 20
138.5644444082208
 30
0.0
 10
170.2134142400305
 20
138.521592427545
 30
0.0
  0
LINE
  5
309
330
1F
100
AcDbEntity
  8
0
  6
SLD-破線
 62
     7
370
    18
100
AcDbLine
 10
170.27341424
 20
140.7947230589
 30
0.0
 11
170.27341424
 21
136.2947230589
 31
0.0
  0
SPLINE
  5
30A
330
1F
100
AcDbEntity
  8
0
  6
SLD-破線
 62
     7
370
    18
100
AcDbSpline
210
0.0
220
0.0
230
1.0
 70
     8
 71
     3
 72
    12
 73
     8
 74
     0
 42
0.000000001
 43
0.00000001
 40
0.0
 40
0.0
 40
0.0
 40
0.0
 40
0.5000000000000001
 40
0.5000000000000001
 40
0.75
 40
0.75
 40
1.0
 40
1.0
 40
1.0
 40
1.0
 10
172.2234142400304
 20
134.5447230589363
 30
0.0
 10
172.3854261442757
 20
134.5447230589363
 30
0.0
 10
172.4736632895008
 20
134.5890539733331
 30
0.0
 10
172.5857569438829
 20
134.7266394085258
 30
0.0
 10
172.6192982184998
 20
134.7843280793594
 30
0.0
 10
172.6775787822859
 20
134.921013583937
 30
0.0
 10
172.7025831803094
 20
135.0002994817729
 30
0.0
 10
172.7234142400304
 20
135.091169679849
 30
0.0
  0
LINE
  5
30B
330
1F
100
AcDbEntity
  8
0
  6
SLD-破線
 62
     7
370
    18
100
AcDbLine
 10
149.72341424
 20
136.5447230589
 30
0.0
 11
172.72341424
 21
136.4732944875
 31
0.0
  0
LINE
  5
30C
330
1F
100
AcDbEntity
  8
0
  6
SLD-破線
 62
     7
370
    18
100
AcDbLine
 10
149.72341424
 20
136.2760666629
 30
0.0
 11
172.72341424
 21
136.2760666629
 31
0.0
  0
LINE
  5
30D
330
1F
100
AcDbEntity
  8
0
  6
SLD-破線
 62
     7
370
    18
100
AcDbLine
 10
149.72341424
 20
141.3332803263
 30
0.0
 11
168.72341424
 21
141.3332803263
 31
0.0
  0
LINE
  5
30E
330
1F
100
AcDbEntity
  8
0
  6
SLD-破線
 62
     7
370
    18
100
AcDbLine
 10
172.72341424
 20
146.0447230589
 30
0.0
 11
168.72341424
 21
146.0447230589
 31
0.0
  0
LINE
  5
30F
330
1F
100
AcDbEntity
  8
0
  6
SLD-破線
 62
     7
370
    18
100
AcDbLine
 10
168.72341424
 20
185.0447230589
 30
0.0
 11
172.72341424
 21
185.0447230589
 31
0.0
  0
LINE
  5
310
330
1F
100
AcDbEntity
  8
0
  6
SLD-破線
 62
     7
370
    18
100
AcDbLine
 10
172.52341424
 20
151.0447230589
 30
0.0
 11
172.52341424
 21
147.0447230589
 31
0.0
  0
LINE
  5
311
330
1F
100
AcDbEntity
  8
0
  6
SLD-破線
 62
     7
370
    18
100
AcDbLine
 10
172.97341424
 20
183.5625196691
 30
0.0
 11
172.92341424
 21
183.5625196691
 31
0.0
  0
LINE
  5
312
330
1F
100
AcDbEntity
  8
0
  6
SLD-破線
 62
     7
370
    18
100
AcDbLine
 10
172.97341424
 20
184.2992993301
 30
0.0
 11
172.92341424
 21
184.2992993301
 31
0.0
  0
LINE
  5
313
330
1F
100
AcDbEntity
  8
0
  6
SLD-破線
 62
     7
370
    18
100
AcDbLine
 10
172.97341424
 20
182.7830281437
 30
0.0
 11
172.92341424
 21
182.815062042
 31
0.0
  0
LINE
  5
314
330
1F
100
AcDbEntity
  8
0
  6
SLD-破線
 62
     7
370
    18
100
AcDbLine
 10
172.97341424
 20
184.3961919855
 30
0.0
 11
172.92341424
 21
184.395401025
 31
0.0
  0
LINE
  5
315
330
1F
100
AcDbEntity
  8
0
  6
SLD-破線
 62
     7
370
    18
100
AcDbLine
 10
172.97341424
 20
183.5625196691
 30
0.0
 11
172.92341424
 21
183.5625196691
 31
0.0
  0
LINE
  5
316
330
1F
100
AcDbEntity
  8
0
  6
SLD-破線
 62
     7
370
    18
100
AcDbLine
 10
172.97341424
 20
183.6052315335
 30
0.0
 11
172.92341424
 21
183.6479433979
 31
0.0
  0
LINE
  5
317
330
1F
100
AcDbEntity
  8
0
  6
SLD-破線
 62
     7
370
    18
100
AcDbLine
 10
172.97341424
 20
183.3703162793
 30
0.0
 11
172.92341424
 21
183.3703162793
 31
0.0
  0
LINE
  5
318
330
1F
100
AcDbEntity
  8
0
  6
SLD-破線
 62
     7
370
    18
100
AcDbLine
 10
172.97341424
 20
183.8294688216
 30
0.0
 11
172.92341424
 21
183.8294688216
 31
0.0
  0
LINE
  5
319
330
1F
100
AcDbEntity
  8
0
  6
SLD-破線
 62
     7
370
    18
100
AcDbLine
 10
172.97341424
 20
184.3961919855
 30
0.0
 11
172.92341424
 21
184.3961919855
 31
0.0
  0
LINE
  5
31A
330
1F
100
AcDbEntity
  8
0
  6
SLD-破線
 62
     7
370
    18
100
AcDbLine
 10
172.97341424
 20
183.5091298386
 30
0.0
 11
172.92341424
 21
183.4778869007
 31
0.0
  0
LINE
  5
31B
330
1F
100
AcDbEntity
  8
0
  6
SLD-破線
 62
     7
370
    18
100
AcDbLine
 10
172.97341424
 20
183.6799772962
 30
0.0
 11
172.92341424
 21
183.6799772962
 31
0.0
  0
LINE
  5
31C
330
1F
100
AcDbEntity
  8
0
  6
SLD-破線
 62
     7
370
    18
100
AcDbLine
 10
172.97341424
 20
183.7760789911
 30
0.0
 11
172.92341424
 21
183.8187908555
 31
0.0
  0
LINE
  5
31D
330
1F
100
AcDbEntity
  8
0
  6
SLD-破線
 62
     7
370
    18
100
AcDbLine
 10
172.97341424
 20
183.6799772962
 30
0.0
 11
172.92341424
 21
183.6479433979
 31
0.0
  0
LINE
  5
31E
330
1F
100
AcDbEntity
  8
0
  6
SLD-破線
 62
     7
370
    18
100
AcDbLine
 10
172.97341424
 20
183.5091298386
 30
0.0
 11
172.92341424
 21
183.5091298386
 31
0.0
  0
LINE
  5
31F
330
1F
100
AcDbEntity
  8
0
  6
SLD-破線
 62
     7
370
    18
100
AcDbLine
 10
172.97341424
 20
183.3703162793
 30
0.0
 11
172.92341424
 21
183.3857400081
 31
0.0
  0
LINE
  5
320
330
1F
100
AcDbEntity
  8
0
  6
SLD-破線
 62
     7
370
    18
100
AcDbLine
 10
172.97341424
 20
184.3961919855
 30
0.0
 11
172.92341424
 21
184.4274349233
 31
0.0
  0
LINE
  5
321
330
1F
100
AcDbEntity
  8
0
  6
SLD-破線
 62
     7
370
    18
100
AcDbLine
 10
172.97341424
 20
183.0606552623
 30
0.0
 11
172.92341424
 21
183.0606552623
 31
0.0
  0
LINE
  5
322
330
1F
100
AcDbEntity
  8
0
  6
SLD-破線
 62
     7
370
    18
100
AcDbLine
 10
172.97341424
 20
183.8294688216
 30
0.0
 11
172.92341424
 21
183.8187908555
 31
0.0
  0
LINE
  5
323
330
1F
100
AcDbEntity
  8
0
  6
SLD-破線
 62
     7
370
    18
100
AcDbLine
 10
172.97341424
 20
184.0857400081
 30
0.0
 11
172.92341424
 21
184.0857400081
 31
0.0
  0
LINE
  5
324
330
1F
100
AcDbEntity
  8
0
  6
SLD-破線
 62
     7
370
    18
100
AcDbLine
 10
172.97341424
 20
184.2992993301
 30
0.0
 11
172.92341424
 21
184.3099772962
 31
0.0
  0
LINE
  5
325
330
1F
100
AcDbEntity
  8
0
  6
SLD-破線
 62
     7
370
    18
100
AcDbLine
 10
172.97341424
 20
183.5091298386
 30
0.0
 11
172.92341424
 21
183.4984518725
 31
0.0
  0
LINE
  5
326
330
1F
100
AcDbEntity
  8
0
  6
SLD-破線
 62
     7
370
    18
100
AcDbLine
 10
172.97341424
 20
184.173141138
 30
0.0
 11
172.92341424
 21
184.173141138
 31
0.0
  0
LINE
  5
327
330
1F
100
AcDbEntity
  8
0
  6
SLD-破線
 62
     7
370
    18
100
AcDbLine
 10
172.97341424
 20
182.6869264488
 30
0.0
 11
172.92341424
 21
182.6869264488
 31
0.0
  0
LINE
  5
328
330
1F
100
AcDbEntity
  8
0
  6
SLD-破線
 62
     7
370
    18
100
AcDbLine
 10
172.97341424
 20
184.4594688216
 30
0.0
 11
172.92341424
 21
184.4701467877
 31
0.0
  0
LINE
  5
329
330
1F
100
AcDbEntity
  8
0
  6
SLD-破線
 62
     7
370
    18
100
AcDbLine
 10
172.97341424
 20
184.3313332284
 30
0.0
 11
172.92341424
 21
184.3313332284
 31
0.0
  0
LINE
  5
32A
330
1F
100
AcDbEntity
  8
0
  6
SLD-破線
 62
     7
370
    18
100
AcDbLine
 10
172.97341424
 20
183.9148925505
 30
0.0
 11
172.92341424
 21
183.9148925505
 31
0.0
  0
LINE
  5
32B
330
1F
100
AcDbEntity
  8
0
  6
SLD-破線
 62
     7
370
    18
100
AcDbLine
 10
172.97341424
 20
182.6869264488
 30
0.0
 11
172.92341424
 21
182.7189603471
 31
0.0
  0
LINE
  5
32C
330
1F
100
AcDbEntity
  8
0
  6
SLD-破線
 62
     7
370
    18
100
AcDbLine
 10
172.97341424
 20
182.7830281437
 30
0.0
 11
172.92341424
 21
182.7830281437
 31
0.0
  0
LINE
  5
32D
330
1F
100
AcDbEntity
  8
0
  6
SLD-破線
 62
     7
370
    18
100
AcDbLine
 10
172.97341424
 20
184.4594688216
 30
0.0
 11
172.92341424
 21
184.4487908555
 31
0.0
  0
LINE
  5
32E
330
1F
100
AcDbEntity
  8
0
  6
SLD-破線
 62
     7
370
    18
100
AcDbLine
 10
172.97341424
 20
182.6548925505
 30
0.0
 11
172.92341424
 21
182.6655705166
 31
0.0
  0
LINE
  5
32F
330
1F
100
AcDbEntity
  8
0
  6
SLD-破線
 62
     7
370
    18
100
AcDbLine
 10
172.97341424
 20
184.3313332284
 30
0.0
 11
172.92341424
 21
184.3455705166
 31
0.0
  0
LINE
  5
330
330
1F
100
AcDbEntity
  8
0
  6
SLD-破線
 62
     7
370
    18
100
AcDbLine
 10
172.97341424
 20
182.7830281437
 30
0.0
 11
172.92341424
 21
182.7509942454
 31
0.0
  0
LINE
  5
331
330
1F
100
AcDbEntity
  8
0
  6
SLD-破線
 62
     7
370
    18
100
AcDbLine
 10
172.92341424
 20
182.0447230589
 30
0.0
 11
172.72341424
 21
182.0447230589
 31
0.0
  0
LINE
  5
332
330
1F
100
AcDbEntity
  8
0
  6
SLD-破線
 62
     7
370
    18
100
AcDbLine
 10
172.72341424
 20
185.0447230589
 30
0.0
 11
172.92341424
 21
185.0447230589
 31
0.0
  0
LINE
  5
333
330
1F
100
AcDbEntity
  8
0
  6
SLD-破線
 62
     7
370
    18
100
AcDbLine
 10
158.52341424
 20
147.327400855
 30
0.0
 11
156.52341424
 21
147.327400855
 31
0.0
  0
LINE
  5
334
330
1F
100
AcDbEntity
  8
0
  6
SLD-破線
 62
     7
370
    18
100
AcDbLine
 10
158.52341424
 20
148.3812627152
 30
0.0
 11
156.52341424
 21
147.8572711339
 31
0.0
  0
LINE
  5
335
330
1F
100
AcDbEntity
  8
0
  6
SLD-破線
 62
     7
370
    18
100
AcDbLine
 10
158.52341424
 20
147.327400855
 30
0.0
 11
158.52341424
 21
148.3812627152
 31
0.0
  0
LINE
  5
336
330
1F
100
AcDbEntity
  8
0
  6
SLD-破線
 62
     7
370
    18
100
AcDbLine
 10
158.52341424
 20
150.7620452628
 30
0.0
 11
156.52341424
 21
150.7620452628
 31
0.0
  0
LINE
  5
337
330
1F
100
AcDbEntity
  8
0
  6
SLD-破線
 62
     7
370
    18
100
AcDbLine
 10
158.52341424
 20
150.0985849191
 30
0.0
 11
158.52341424
 21
150.7620452628
 31
0.0
  0
LINE
  5
338
330
1F
100
AcDbEntity
  8
0
  6
SLD-破線
 62
     7
370
    18
100
AcDbLine
 10
158.52341424
 20
150.0985849191
 30
0.0
 11
156.52341424
 21
150.0985849191
 31
0.0
  0
SPLINE
  5
339
330
1F
100
AcDbEntity
  8
0
  6
SLD-破線
 62
     7
370
    18
100
AcDbSpline
210
0.0
220
0.0
230
1.0
 70
     8
 71
     3
 72
     8
 73
     4
 74
     0
 42
0.000000001
 43
0.00000001
 40
0.0
 40
0.0
 40
0.0
 40
0.0
 40
1.0
 40
1.0
 40
1.0
 40
1.0
 10
158.5234142400304
 20
147.9908611987929
 30
0.0
 10
159.1900809066971
 20
148.0259899274644
 30
0.0
 10
159.5234142400304
 20
148.3772772141788
 30
0.0
 10
159.5234142400304
 20
149.0447230589363
 30
0.0
  0
SPLINE
  5
33A
330
1F
100
AcDbEntity
  8
0
  6
SLD-破線
 62
     7
370
    18
100
AcDbSpline
210
0.0
220
0.0
230
1.0
 70
     8
 71
     3
 72
     8
 73
     4
 74
     0
 42
0.000000001
 43
0.00000001
 40
0.0
 40
0.0
 40
0.0
 40
0.0
 40
1.0
 40
1.0
 40
1.0
 40
1.0
 10
158.5234142400304
 20
147.3274008550386
 30
0.0
 10
159.1900809066971
 20
147.3846449285018
 30
0.0
 10
159.5234142400304
 20
147.9570856631344
 30
0.0
 10
159.5234142400304
 20
149.0447230589363
 30
0.0
  0
LINE
  5
33B
330
1F
100
AcDbEntity
  8
0
  6
SLD-破線
 62
     7
370
    18
100
AcDbLine
 10
158.52341424
 20
147.9908611988
 30
0.0
 11
156.52341424
 21
147.8572711339
 31
0.0
  0
SPLINE
  5
33C
330
1F
100
AcDbEntity
  8
0
  6
SLD-破線
 62
     7
370
    18
100
AcDbSpline
210
0.0
220
0.0
230
1.0
 70
     8
 71
     3
 72
     8
 73
     4
 74
     0
 42
0.000000001
 43
0.00000001
 40
0.0
 40
0.0
 40
0.0
 40
0.0
 40
1.0
 40
1.0
 40
1.0
 40
1.0
 10
158.5234142400304
 20
149.7081834026907
 30
0.0
 10
159.1900809066971
 20
149.6860680578989
 30
0.0
 10
159.5234142400304
 20
149.4649146099808
 30
0.0
 10
159.5234142400304
 20
149.0447230589363
 30
0.0
  0
LINE
  5
33D
330
1F
100
AcDbEntity
  8
0
  6
SLD-破線
 62
     7
370
    18
100
AcDbLine
 10
158.52341424
 20
149.7081834027
 30
0.0
 11
158.52341424
 21
148.3812627152
 31
0.0
  0
LINE
  5
33E
330
1F
100
AcDbEntity
  8
0
  6
SLD-破線
 62
     7
370
    18
100
AcDbLine
 10
158.52341424
 20
150.0985849191
 30
0.0
 11
158.52341424
 21
149.7081834027
 31
0.0
  0
SPLINE
  5
33F
330
1F
100
AcDbEntity
  8
0
  6
SLD-破線
 62
     7
370
    18
100
AcDbSpline
210
0.0
220
0.0
230
1.0
 70
     8
 71
     3
 72
     8
 73
     4
 74
     0
 42
0.000000001
 43
0.00000001
 40
0.0
 40
0.0
 40
0.0
 40
0.0
 40
1.0
 40
1.0
 40
1.0
 40
1.0
 10
158.5234142400304
 20
150.7620452628341
 30
0.0
 10
159.1900809066971
 20
150.7048011893709
 30
0.0
 10
159.5234142400304
 20
150.1323604547383
 30
0.0
 10
159.5234142400304
 20
149.0447230589363
 30
0.0
  0
LINE
  5
340
330
1F
100
AcDbEntity
  8
0
  6
SLD-破線
 62
     7
370
    18
100
AcDbLine
 10
158.52341424
 20
149.7081834027
 30
0.0
 11
156.52341424
 21
150.0985849191
 31
0.0
  0
LINE
  5
341
330
1F
100
AcDbEntity
  8
0
  6
SLD-破線
 62
     7
370
    18
100
AcDbLine
 10
172.52341424
 20
186.0447230589
 30
0.0
 11
172.72341424
 21
182.0447230589
 31
0.0
  0
LINE
  5
342
330
1F
100
AcDbEntity
  8
0
  6
SLD-破線
 62
     7
370
    18
100
AcDbLine
 10
160.52341424
 20
182.7040515307
 30
0.0
 11
160.52341424
 21
187.5447230589
 31
0.0
  0
LINE
  5
343
330
1F
100
AcDbEntity
  8
0
  6
SLD-破線
 62
     7
370
    18
100
AcDbLine
 10
160.52341424
 20
180.5447230589
 30
0.0
 11
160.52341424
 21
182.7040515307
 31
0.0
  0
LINE
  5
344
330
1F
100
AcDbEntity
  8
0
  6
SLD-破線
 62
     7
370
    18
100
AcDbLine
 10
156.92341424
 20
182.7040515307
 30
0.0
 11
156.92341424
 21
180.5447230589
 31
0.0
  0
LINE
  5
345
330
1F
100
AcDbEntity
  8
0
  6
SLD-破線
 62
     7
370
    18
100
AcDbLine
 10
156.92341424
 20
187.5447230589
 30
0.0
 11
156.92341424
 21
182.7040515307
 31
0.0
  0
LINE
  5
346
330
1F
100
AcDbEntity
  8
0
  6
SLD-破線
 62
     7
370
    18
100
AcDbLine
 10
156.52341424
 20
182.8572711339
 30
0.0
 11
156.52341424
 21
187.1447230589
 31
0.0
  0
LINE
  5
347
330
1F
100
AcDbEntity
  8
0
  6
SLD-破線
 62
     7
370
    18
100
AcDbLine
 10
156.52341424
 20
180.9447230589
 30
0.0
 11
156.52341424
 21
182.8572711339
 31
0.0
  0
SPLINE
  5
348
330
1F
100
AcDbEntity
  8
0
  6
SLD-破線
 62
     7
370
    18
100
AcDbSpline
210
0.0
220
0.0
230
1.0
 70
     8
 71
     3
 72
     8
 73
     4
 74
     0
 42
0.000000001
 43
0.00000001
 40
0.0
 40
0.0
 40
0.0
 40
0.0
 40
1.0
 40
1.0
 40
1.0
 40
1.0
 10
158.5234142400304
 20
182.3274008550386
 30
0.0
 10
159.1900809066971
 20
182.3846449285018
 30
0.0
 10
159.5234142400304
 20
182.9570856631344
 30
0.0
 10
159.5234142400304
 20
184.0447230589363
 30
0.0
  0
LINE
  5
349
330
1F
100
AcDbEntity
  8
0
  6
SLD-破線
 62
     7
370
    18
100
AcDbLine
 10
158.52341424
 20
182.327400855
 30
0.0
 11
158.52341424
 21
183.3812627152
 31
0.0
  0
SPLINE
  5
34A
330
1F
100
AcDbEntity
  8
0
  6
SLD-破線
 62
     7
370
    18
100
AcDbSpline
210
0.0
220
0.0
230
1.0
 70
     8
 71
     3
 72
     8
 73
     4
 74
     0
 42
0.000000001
 43
0.00000001
 40
0.0
 40
0.0
 40
0.0
 40
0.0
 40
1.0
 40
1.0
 40
1.0
 40
1.0
 10
158.5234142400304
 20
183.3812627151819
 30
0.0
 10
159.1900809066971
 20
183.4033780599738
 30
0.0
 10
159.5234142400304
 20
183.6245315078919
 30
0.0
 10
159.5234142400304
 20
184.0447230589363
 30
0.0
  0
LINE
  5
34B
330
1F
100
AcDbEntity
  8
0
  6
SLD-破線
 62
     7
370
    18
100
AcDbLine
 10
158.52341424
 20
182.327400855
 30
0.0
 11
156.52341424
 21
182.327400855
 31
0.0
  0
LINE
  5
34C
330
1F
100
AcDbEntity
  8
0
  6
SLD-破線
 62
     7
370
    18
100
AcDbLine
 10
158.52341424
 20
183.3812627152
 30
0.0
 11
156.52341424
 21
182.8572711339
 31
0.0
  0
LINE
  5
34D
330
1F
100
AcDbEntity
  8
0
  6
SLD-破線
 62
     7
370
    18
100
AcDbLine
 10
158.52341424
 20
185.0985849191
 30
0.0
 11
156.52341424
 21
185.0985849191
 31
0.0
  0
LINE
  5
34E
330
1F
100
AcDbEntity
  8
0
  6
SLD-破線
 62
     7
370
    18
100
AcDbLine
 10
158.52341424
 20
183.3812627152
 30
0.0
 11
158.52341424
 21
185.0985849191
 31
0.0
  0
LINE
  5
34F
330
1F
100
AcDbEntity
  8
0
  6
SLD-破線
 62
     7
370
    18
100
AcDbLine
 10
158.52341424
 20
185.0985849191
 30
0.0
 11
158.52341424
 21
185.7620452628
 31
0.0
  0
SPLINE
  5
350
330
1F
100
AcDbEntity
  8
0
  6
SLD-破線
 62
     7
370
    18
100
AcDbSpline
210
0.0
220
0.0
230
1.0
 70
     8
 71
     3
 72
     8
 73
     4
 74
     0
 42
0.000000001
 43
0.00000001
 40
0.0
 40
0.0
 40
0.0
 40
0.0
 40
1.0
 40
1.0
 40
1.0
 40
1.0
 10
158.5234142400304
 20
185.7620452628341
 30
0.0
 10
159.1900809066971
 20
185.7048011893709
 30
0.0
 10
159.5234142400304
 20
185.1323604547383
 30
0.0
 10
159.5234142400304
 20
184.0447230589363
 30
0.0
  0
SPLINE
  5
351
330
1F
100
AcDbEntity
  8
0
  6
SLD-破線
 62
     7
370
    18
100
AcDbSpline
210
0.0
220
0.0
230
1.0
 70
     8
 71
     3
 72
     8
 73
     4
 74
     0
 42
0.000000001
 43
0.00000001
 40
0.0
 40
0.0
 40
0.0
 40
0.0
 40
1.0
 40
1.0
 40
1.0
 40
1.0
 10
158.5234142400304
 20
185.0985849190798
 30
0.0
 10
159.1900809066971
 20
185.0634561904083
 30
0.0
 10
159.5234142400304
 20
184.7121689036939
 30
0.0
 10
159.5234142400304
 20
184.0447230589363
 30
0.0
  0
LINE
  5
352
330
1F
100
AcDbEntity
  8
0
  6
SLD-破線
 62
     7
370
    18
100
AcDbLine
 10
158.52341424
 20
185.7620452628
 30
0.0
 11
156.52341424
 21
185.7620452628
 31
0.0
  0
SPLINE
  5
353
330
1F
100
AcDbEntity
  8
0
  6
SLD-破線
 62
     7
370
    18
100
AcDbSpline
210
0.0
220
0.0
230
1.0
 70
     8
 71
     3
 72
     8
 73
     4
 74
     0
 42
0.000000001
 43
0.00000001
 40
0.0
 40
0.0
 40
0.0
 40
0.0
 40
1.0
 40
1.0
 40
1.0
 40
1.0
 10
158.5234142400304
 20
182.9908611987929
 30
0.0
 10
159.1900809066971
 20
183.0259899274644
 30
0.0
 10
159.5234142400304
 20
183.3772772141788
 30
0.0
 10
159.5234142400304
 20
184.0447230589363
 30
0.0
  0
LINE
  5
354
330
1F
100
AcDbEntity
  8
0
  6
SLD-破線
 62
     7
370
    18
100
AcDbLine
 10
158.52341424
 20
182.9908611988
 30
0.0
 11
156.52341424
 21
182.8572711339
 31
0.0
  0
SPLINE
  5
355
330
1F
100
AcDbEntity
  8
0
  6
SLD-破線
 62
     7
370
    18
100
AcDbSpline
210
0.0
220
0.0
230
1.0
 70
     8
 71
     3
 72
     8
 73
     4
 74
     0
 42
0.000000001
 43
0.00000001
 40
0.0
 40
0.0
 40
0.0
 40
0.0
 40
1.0
 40
1.0
 40
1.0
 40
1.0
 10
158.5234142400304
 20
184.7081834026907
 30
0.0
 10
159.1900809066971
 20
184.686068057899
 30
0.0
 10
159.5234142400304
 20
184.4649146099808
 30
0.0
 10
159.5234142400304
 20
184.0447230589363
 30
0.0
  0
LINE
  5
356
330
1F
100
AcDbEntity
  8
0
  6
SLD-破線
 62
     7
370
    18
100
AcDbLine
 10
158.52341424
 20
184.7081834027
 30
0.0
 11
156.52341424
 21
185.0985849191
 31
0.0
  0
LINE
  5
357
330
1F
100
AcDbEntity
  8
0
  6
SLD-破線
 62
     7
370
    18
100
AcDbLine
 10
146.4346766269
 20
166.7189926877
 30
0.0
 11
146.4526344048
 21
167.1015257188
 31
0.0
  0
LINE
  5
358
330
1F
100
AcDbEntity
  8
0
  6
SLD-破線
 62
     7
370
    18
100
AcDbLine
 10
146.4426818035
 20
166.1828538952
 30
0.0
 11
146.4317279657
 21
166.6561808902
 31
0.0
  0
SPLINE
  5
359
330
1F
100
AcDbEntity
  8
0
  6
SLD-破線
 62
     7
370
    18
100
AcDbSpline
210
0.0
220
0.0
230
1.0
 70
     8
 71
     3
 72
    14
 73
    10
 74
     0
 42
0.000000001
 43
0.00000001
 40
0.0
 40
0.0
 40
0.0
 40
0.0
 40
0.1025055570390611
 40
0.2036076056738425
 40
0.3059029939446199
 40
0.5003010648193525
 40
0.756214971152506
 40
0.8780216018729112
 40
0.9999999999999999
 40
0.9999999999999999
 40
0.9999999999999999
 40
0.9999999999999999
 10
168.5181785180992
 20
189.0389653038404
 30
0.0
 10
168.5022964606173
 20
189.0392440881211
 30
0.0
 10
168.4707498031434
 20
189.0397978395624
 30
0.0
 10
168.4246889023808
 20
189.0405980854244
 30
0.0
 10
168.3680978536023
 20
189.0414751339949
 30
0.0
 10
168.2983207721975
 20
189.0421040681779
 30
0.0
 10
168.2489840284145
 20
189.0406038004706
 30
0.0
 10
168.2264593894819
 20
189.0371295001419
 30
0.0
 10
168.2244297665286
 20
189.0345337074268
 30
0.0
 10
168.2234142400304
 20
189.0332348965903
 30
0.0
  0
SPLINE
  5
35A
330
1F
100
AcDbEntity
  8
0
  6
SLD-破線
 62
     7
370
    18
100
AcDbSpline
210
0.0
220
0.0
230
1.0
 70
     8
 71
     3
 72
    13
 73
     9
 74
     0
 42
0.000000001
 43
0.00000001
 40
0.0
 40
0.0
 40
0.0
 40
0.0
 40
0.125350003531472
 40
0.250705918503307
 40
0.3760677869729172
 40
0.5014356509917264
 40
0.7444544216030364
 40
1.0
 40
1.0
 40
1.0
 40
1.0
 10
163.4084262962288
 20
167.0447230589363
 30
0.0
 10
163.4073564194425
 20
167.057802262098
 30
0.0
 10
163.4052166154151
 20
167.0839612852298
 30
0.0
 10
163.4017998444738
 20
167.1216774968671
 30
0.0
 10
163.3982867676278
 20
167.1565044872746
 30
0.0
 10
163.3932980110664
 20
167.1962871485341
 30
0.0
 10
163.3880646177768
 20
167.2354116529616
 30
0.0
 10
163.3866383548172
 20
167.2415676942456
 30
0.0
 10
163.3859073053676
 20
167.244723052493
 30
0.0
  0
LINE
  5
35B
330
1F
100
AcDbEntity
  8
0
  6
SLD-破線
 62
     7
370
    18
100
AcDbLine
 10
163.3859073054
 20
167.2447230525
 30
0.0
 11
166.398007486
 21
167.2447230525
 31
0.0
  0
SPLINE
  5
35C
330
1F
100
AcDbEntity
  8
0
  6
SLD-破線
 62
     7
370
    18
100
AcDbSpline
210
0.0
220
0.0
230
1.0
 70
     8
 71
     3
 72
    13
 73
     9
 74
     0
 42
0.000000001
 43
0.00000001
 40
0.0
 40
0.0
 40
0.0
 40
0.0
 40
0.1150751889773306
 40
0.2369858872691829
 40
0.3657573275596513
 40
0.5014101953055818
 40
0.7506490393838904
 40
1.0
 40
1.0
 40
1.0
 40
1.0
 10
163.3985826892323
 20
165.8447230653794
 30
0.0
 10
163.398858214863
 20
165.8453577994558
 30
0.0
 10
163.39942563245
 20
165.8466649710504
 30
0.0
 10
163.4010906264361
 20
165.8575455830354
 30
0.0
 10
163.4033121379797
 20
165.875930192356
 30
0.0
 10
163.4069425662694
 20
165.9098519114675
 30
0.0
 10
163.4118055592688
 20
165.9663295758919
 30
0.0
 10
163.4155734535778
 20
166.0185879808528
 30
0.0
 10
163.4174578243703
 20
166.0447230589363
 30
0.0
  0
LINE
  5
35D
330
1F
100
AcDbEntity
  8
0
  6
SLD-破線
 62
     7
370
    18
100
AcDbLine
 10
166.4068572998
 20
165.8447230654
 30
0.0
 11
163.3985826892
 21
165.8447230654
 31
0.0
  0
SPLINE
  5
35E
330
1F
100
AcDbEntity
  8
0
  6
SLD-破線
 62
     7
370
    18
100
AcDbSpline
210
0.0
220
0.0
230
1.0
 70
     8
 71
     3
 72
    11
 73
     7
 74
     0
 42
0.000000001
 43
0.00000001
 40
0.0
 40
0.0
 40
0.0
 40
0.0
 40
0.250159311037336
 40
0.5000000000000069
 40
0.749840688962677
 40
1.0
 40
1.0
 40
1.0
 40
1.0
 10
163.4084262962288
 20
167.0447230589363
 30
0.0
 10
163.4142815033665
 20
166.9614624116071
 30
0.0
 10
163.4259844600013
 20
166.7950471640918
 30
0.0
 10
163.4320825133282
 20
166.5448959791456
 30
0.0
 10
163.4305035813253
 20
166.2946754381655
 30
0.0
 10
163.4218082570368
 20
166.1280759068715
 30
0.0
 10
163.4174578243703
 20
166.0447230589363
 30
0.0
  0
SPLINE
  5
35F
330
1F
100
AcDbEntity
  8
0
  6
SLD-破線
 62
     7
370
    18
100
AcDbSpline
210
0.0
220
0.0
230
1.0
 70
     8
 71
     3
 72
    13
 73
     9
 74
     0
 42
0.000000001
 43
0.00000001
 40
0.0
 40
0.0
 40
0.0
 40
0.0
 40
0.1253408321837891
 40
0.2506933942087791
 40
0.3760579531055205
 40
0.5014347758279628
 40
0.7447517151704784
 40
1.0
 40
1.0
 40
1.0
 40
1.0
 10
149.4468855677629
 20
166.0447230589363
 30
0.0
 10
149.4476958512119
 20
166.0316379118389
 30
0.0
 10
149.4493164939392
 20
166.0054663930895
 30
0.0
 10
149.451660394021
 20
165.967734622524
 30
0.0
 10
149.4539077735589
 20
165.9328967923802
 30
0.0
 10
149.4569578686406
 20
165.8930806605411
 30
0.0
 10
149.4595254910215
 20
165.8540030571794
 30
0.0
 10
149.4590334304594
 20
165.8478653571557
 30
0.0
 10
149.4587815123384
 20
165.8447230653794
 30
0.0
  0
LINE
  5
360
330
1F
100
AcDbEntity
  8
0
  6
SLD-破線
 62
     7
370
    18
100
AcDbLine
 10
149.4587815123
 20
165.8447230654
 30
0.0
 11
146.4505069018
 21
165.8447230654
 31
0.0
  0
SPLINE
  5
361
330
1F
100
AcDbEntity
  8
0
  6
SLD-破線
 62
     7
370
    18
100
AcDbSpline
210
0.0
220
0.0
230
1.0
 70
     8
 71
     3
 72
    13
 73
     9
 74
     0
 42
0.000000001
 43
0.00000001
 40
0.0
 40
0.0
 40
0.0
 40
0.0
 40
0.1159213809343084
 40
0.2381034622223251
 40
0.3665859110107837
 40
0.5014022817629119
 40
0.7505956876304332
 40
1.0
 40
1.0
 40
1.0
 40
1.0
 10
149.4714568962031
 20
167.244723052493
 30
0.0
 10
149.4715897290709
 20
167.2440781229467
 30
0.0
 10
149.4718625688651
 20
167.2427534323966
 30
0.0
 10
149.4712761333112
 20
167.2317730080387
 30
0.0
 10
149.469980934972
 20
167.2133551851412
 30
0.0
 10
149.4671843529101
 20
167.1794681829192
 30
0.0
 10
149.4627296595004
 20
167.123065573671
 30
0.0
 10
149.4581885907261
 20
167.0708445936611
 30
0.0
 10
149.4559170959045
 20
167.0447230589363
 30
0.0
  0
LINE
  5
362
330
1F
100
AcDbEntity
  8
0
  6
SLD-破線
 62
     7
370
    18
100
AcDbLine
 10
146.4593567156
 20
167.2447230525
 30
0.0
 11
149.4714568962
 21
167.2447230525
 31
0.0
  0
SPLINE
  5
363
330
1F
100
AcDbEntity
  8
0
  6
SLD-破線
 62
     7
370
    18
100
AcDbSpline
210
0.0
220
0.0
230
1.0
 70
     8
 71
     3
 72
     9
 73
     5
 74
     0
 42
0.000000001
 43
0.00000001
 40
0.0
 40
0.0
 40
0.0
 40
0.0
 40
0.4999999999998918
 40
1.0
 40
1.0
 40
1.0
 40
1.0
 10
149.4468855677629
 20
166.0447230589363
 30
0.0
 10
149.4420269532643
 20
166.1378443282314
 30
0.0
 10
149.4323097242672
 20
166.3240868668217
 30
0.0
 10
149.4336391090889
 20
166.5105780695275
 30
0.0
 10
149.4343038014998
 20
166.6038236708805
 30
0.0
  0
SPLINE
  5
364
330
1F
100
AcDbEntity
  8
0
  6
SLD-破線
 62
     7
370
    18
100
AcDbSpline
210
0.0
220
0.0
230
1.0
 70
     8
 71
     3
 72
     9
 73
     5
 74
     0
 42
0.000000001
 43
0.00000001
 40
0.0
 40
0.0
 40
0.0
 40
0.0
 40
0.5000000000000121
 40
1.0
 40
1.0
 40
1.0
 40
1.0
 10
149.4343038014998
 20
166.6038236708805
 30
0.0
 10
149.4361875141489
 20
166.6773911704954
 30
0.0
 10
149.4399549394472
 20
166.8245261697251
 30
0.0
 10
149.4505963770854
 20
166.9713240958659
 30
0.0
 10
149.4559170959045
 20
167.0447230589363
 30
0.0
  0
LINE
  5
365
330
1F
100
AcDbEntity
  8
0
  6
SLD-破線
 62
     7
370
    18
100
AcDbLine
 10
168.5181785181
 20
188.0413886254
 30
0.0
 11
168.5181785181
 21
189.0389653038
 31
0.0
  0
LINE
  5
366
330
1F
100
AcDbEntity
  8
0
  6
SLD-破線
 62
     7
370
    18
100
AcDbLine
 10
168.5181785181
 20
188.0413886254
 30
0.0
 11
168.5181785181
 21
188.0413886254
 31
0.0
  0
SPLINE
  5
367
330
1F
100
AcDbEntity
  8
0
  6
SLD-破線
 62
     7
370
    18
100
AcDbSpline
210
0.0
220
0.0
230
1.0
 70
    11
 71
     3
 72
    13
 73
     9
 74
     0
 42
0.000000001
 43
0.00000001
 40
0.0
 40
0.0
 40
0.0
 40
0.0
 40
0.1202507335407504
 40
0.2438641285581336
 40
0.3708749756890133
 40
0.5013152457360173
 40
0.6821496206705707
 40
1.0
 40
1.0
 40
1.0
 40
1.0
 10
168.5181785180935
 20
188.0413886253835
 30
0.0
 10
168.2244126715226
 20
188.023425161787
 30
0.0
 10
168.2264374543958
 20
188.0269460277558
 30
0.0
 10
168.2430303970354
 20
188.0310168922558
 30
0.0
 10
168.2699717412996
 20
188.0343014415279
 30
0.0
 10
168.3126518764783
 20
188.0370169399701
 30
0.0
 10
168.3906683907967
 20
188.0390717820621
 30
0.0
 10
168.4685430025359
 20
188.0404867541739
 30
0.0
 10
168.5181785180993
 20
188.0413886253833
 30
0.0
  0
LINE
  5
368
330
1F
100
AcDbEntity
  8
0
  6
SLD-破線
 62
     7
370
    18
100
AcDbLine
 10
143.72341424
 20
146.8446164293
 30
0.0
 11
143.92341424
 21
146.8446164293
 31
0.0
  0
LINE
  5
369
330
1F
100
AcDbEntity
  8
0
  6
SLD-破線
 62
     7
370
    18
100
AcDbLine
 10
143.92341424
 20
145.9464180444
 30
0.0
 11
143.72341424
 21
145.9464180444
 31
0.0
  0
LINE
  5
36A
330
1F
100
AcDbEntity
  8
0
  6
SLD-破線
 62
     7
370
    18
100
AcDbLine
 10
143.92341424
 20
145.9464180444
 30
0.0
 11
143.92341424
 21
146.8446164293
 31
0.0
  0
LINE
  5
36B
330
1F
100
AcDbEntity
  8
0
  6
SLD-破線
 62
     7
370
    18
100
AcDbLine
 10
143.72341424
 20
187.1430280735
 30
0.0
 11
143.92341424
 21
187.1430280735
 31
0.0
  0
LINE
  5
36C
330
1F
100
AcDbEntity
  8
0
  6
SLD-破線
 62
     7
370
    18
100
AcDbLine
 10
143.72341424
 20
186.2448296886
 30
0.0
 11
143.92341424
 21
186.2448296886
 31
0.0
  0
LINE
  5
36D
330
1F
100
AcDbEntity
  8
0
  6
SLD-破線
 62
     7
370
    18
100
AcDbLine
 10
143.92341424
 20
186.2448296886
 30
0.0
 11
143.92341424
 21
187.1430280735
 31
0.0
  0
LINE
  5
36E
330
1F
100
AcDbEntity
  8
0
  6
SLD-破線
 62
     7
370
    18
100
AcDbLine
 10
168.22341424
 20
144.0562112213
 30
0.0
 11
145.2007261117
 21
144.6466160406
 31
0.0
  0
LINE
  5
36F
330
1F
100
AcDbEntity
  8
0
  6
SLD-破線
 62
     7
370
    18
100
AcDbLine
 10
145.1972356304
 20
144.4466465016
 30
0.0
 11
145.2007261117
 21
144.6466160406
 31
0.0
  0
ARC
  5
370
330
1F
100
AcDbEntity
  8
0
  6
SLD-破線
 62
     7
370
    18
100
AcDbCircle
 10
143.72341424
 20
147.3446925933
 30
0.0
 40
0.2000000000000416
100
AcDbArc
 50
57.0260935112
 51
78.6227780224
  0
ARC
  5
371
330
1F
100
AcDbEntity
  8
0
  6
SLD-破線
 62
     7
370
    18
100
AcDbCircle
 10
143.72341424
 20
147.3446925933
 30
0.0
 40
0.200000000000018
100
AcDbArc
 50
20.1299542728
 51
57.0260935112
  0
SPLINE
  5
372
330
1F
100
AcDbEntity
  8
0
  6
SLD-破線
 62
     7
370
    18
100
AcDbSpline
210
0.0
220
0.0
230
1.0
 70
    24
 71
     3
 72
    16
 73
    12
 74
     0
 42
0.000000001
 43
0.00000001
 40
0.0
 40
0.0
 40
0.0
 40
0.0
 40
0.0807637398721272
 40
0.1604037029072112
 40
0.2401161380838653
 40
0.3686076909846114
 40
0.5000906780877362
 40
0.6285759607422321
 40
0.7600525191644217
 40
0.8779722524386576
 40
1.0
 40
1.0
 40
1.0
 40
1.0
 10
143.9234142400304
 20
146.8446164293055
 30
0.0
 10
143.9234142400304
 20
146.8657394105091
 30
0.0
 10
143.9234142400304
 20
146.9076914598676
 30
0.0
 10
143.9234142400304
 20
146.9695136298075
 30
0.0
 10
143.9234142400304
 20
147.0413334891275
 30
0.0
 10
143.9234142400304
 20
147.1208483643219
 30
0.0
 10
143.9234142400304
 20
147.2000507510581
 30
0.0
 10
143.9234142400304
 20
147.2655090362314
 30
0.0
 10
143.9234142400304
 20
147.3109831280979
 30
0.0
 10
143.9234142400304
 20
147.3394262157161
 30
0.0
 10
143.9234142400304
 20
147.3429172116236
 30
0.0
 10
143.9234142400304
 20
147.3446925933274
 30
0.0
  0
ARC
  5
373
330
1F
100
AcDbEntity
  8
0
  6
SLD-破線
 62
     7
370
    18
100
AcDbCircle
 10
143.72341424
 20
185.7447535245
 30
0.0
 40
0.1999999999999971
100
AcDbArc
 50
281.3772223066
 51
302.9739064894
  0
ARC
  5
374
330
1F
100
AcDbEntity
  8
0
  6
SLD-破線
 62
     7
370
    18
100
AcDbCircle
 10
143.72341424
 20
185.7447535245
 30
0.0
 40
0.2000000000000005
100
AcDbArc
 50
302.9739064894
 51
339.8700457272
  0
SPLINE
  5
375
330
1F
100
AcDbEntity
  8
0
  6
SLD-破線
 62
     7
370
    18
100
AcDbSpline
210
0.0
220
0.0
230
1.0
 70
    24
 71
     3
 72
    16
 73
    12
 74
     0
 42
0.000000001
 43
0.00000001
 40
0.0
 40
0.0
 40
0.0
 40
0.0
 40
0.0807515450408553
 40
0.1603802254967515
 40
0.2400827958879056
 40
0.3685630178343653
 40
0.5000419277463085
 40
0.6285310846050349
 40
0.7600191482633611
 40
0.8779540128464046
 40
1.0
 40
1.0
 40
1.0
 40
1.0
 10
143.9234142400304
 20
185.7447535245451
 30
0.0
 10
143.9234142400304
 20
185.7456271127436
 30
0.0
 10
143.9234142400304
 20
185.7473621417415
 30
0.0
 10
143.9234142400304
 20
185.7595588011999
 30
0.0
 10
143.9234142400304
 20
185.7824874126871
 30
0.0
 10
143.9234142400304
 20
185.8236077707868
 30
0.0
 10
143.9234142400304
 20
185.8882625320114
 30
0.0
 10
143.9234142400304
 20
185.9679132933951
 30
0.0
 10
143.9234142400304
 20
186.0563099408426
 30
0.0
 10
143.9234142400304
 20
186.1500277205484
 30
0.0
 10
143.9234142400304
 20
186.2128701802433
 30
0.0
 10
143.9234142400304
 20
186.2448296885671
 30
0.0
  0
LINE
  5
376
330
1F
100
AcDbEntity
  8
0
  6
SLD-破線
 62
     7
370
    18
100
AcDbLine
 10
145.1972356304
 20
188.6427996163
 30
0.0
 11
145.2007261117
 21
188.4428300772
 31
0.0
  0
LINE
  5
377
330
1F
100
AcDbEntity
  8
0
  6
SLD-破線
 62
     7
370
    18
100
AcDbLine
 10
145.2007261117
 20
188.4428300772
 30
0.0
 11
168.22341424
 21
189.0332348966
 31
0.0
  0
ARC
  5
378
330
1F
100
AcDbEntity
  8
0
  6
SLD-破線
 62
     7
370
    18
100
AcDbCircle
 10
145.22341424
 20
145.9464180444
 30
0.0
 40
1.30000000000004
100
AcDbArc
 50
180.0
 51
269.0
  0
ARC
  5
379
330
1F
100
AcDbEntity
  8
0
  6
SLD-破線
 62
     7
370
    18
100
AcDbCircle
 10
145.22341424
 20
187.1430280735
 30
0.0
 40
1.299999999999983
100
AcDbArc
 50
91.0
 51
180.0
  0
LINE
  5
37A
330
1F
100
AcDbEntity
  8
0
  6
SLD-破線
 62
     7
370
    18
100
AcDbLine
 10
143.72341424
 20
146.8446164293
 30
0.0
 11
143.92341424
 21
146.8446164293
 31
0.0
  0
LINE
  5
37B
330
1F
100
AcDbEntity
  8
0
  6
SLD-破線
 62
     7
370
    18
100
AcDbLine
 10
143.72341424
 20
186.2448296886
 30
0.0
 11
143.92341424
 21
186.2448296886
 31
0.0
  0
LINE
  5
37C
330
1F
100
AcDbEntity
  8
0
  6
SLD-破線
 62
     7
370
    18
100
AcDbLine
 10
145.1972356304
 20
188.6427996163
 30
0.0
 11
145.2007261117
 21
188.4428300772
 31
0.0
  0
LINE
  5
37D
330
1F
100
AcDbEntity
  8
0
  6
SLD-破線
 62
     7
370
    18
100
AcDbLine
 10
145.1972356304
 20
144.4466465016
 30
0.0
 11
145.2007261117
 21
144.6466160406
 31
0.0
  0
LINE
  5
37E
330
1F
100
AcDbEntity
  8
0
  6
SLD-破線
 62
     7
370
    18
100
AcDbLine
 10
143.72341424
 20
145.9464180444
 30
0.0
 11
143.92341424
 21
145.9464180444
 31
0.0
  0
LINE
  5
37F
330
1F
100
AcDbEntity
  8
0
  6
SLD-破線
 62
     7
370
    18
100
AcDbLine
 10
143.92341424
 20
187.1430280735
 30
0.0
 11
143.72341424
 21
187.1430280735
 31
0.0
  0
LINE
  5
380
330
1F
100
AcDbEntity
  8
0
  6
SLD-破線
 62
     7
370
    18
100
AcDbLine
 10
145.1972356304
 20
187.2215200514
 30
0.0
 11
145.1972356304
 21
183.8368050767
 31
0.0
  0
SPLINE
  5
381
330
1F
100
AcDbEntity
  8
0
  6
SLD-破線
 62
     7
370
    18
100
AcDbSpline
210
0.0
220
0.0
230
1.0
 70
     8
 71
     3
 72
    17
 73
    13
 74
     0
 42
0.000000001
 43
0.00000001
 40
0.0
 40
0.0
 40
0.0
 40
0.0
 40
0.0242985660362737
 40
0.0574854405833882
 40
0.1168451996790279
 40
0.2403839653712893
 40
0.3482140561246846
 40
0.5001133211548341
 40
0.6286204411080787
 40
0.7955946128060062
 40
0.8798693059589826
 40
1.0
 40
1.0
 40
1.0
 40
1.0
 10
145.1972356303745
 20
187.2215200513564
 30
0.0
 10
145.1784013334034
 20
187.2218415340811
 30
0.0
 10
145.1338432365245
 20
187.222602096496
 30
0.0
 10
145.0435011765342
 20
187.2203667451866
 30
0.0
 10
144.8776898580705
 20
187.2202070680754
 30
0.0
 10
144.660468728173
 20
187.2159617275431
 30
0.0
 10
144.3949868557762
 20
187.20971070909
 30
0.0
 10
144.1578058929951
 20
187.1989586666816
 30
0.0
 10
143.9389890746042
 20
187.185162540178
 30
0.0
 10
143.8109592969696
 20
187.1707820953941
 30
0.0
 10
143.73677315581
 20
187.156303461163
 30
0.0
 10
143.7283591935102
 20
187.1479421081181
 30
0.0
 10
143.7234142400304
 20
187.1430280735215
 30
0.0
  0
ARC
  5
382
330
1F
100
AcDbEntity
  8
0
  6
SLD-破線
 62
     7
370
    18
100
AcDbCircle
 10
144.8340664417
 20
176.7799218478
 30
0.0
 40
7.06622195847345
100
AcDbArc
 50
87.0539797097
 51
99.043115044
  0
SPLINE
  5
383
330
1F
100
AcDbEntity
  8
0
  6
SLD-破線
 62
     7
370
    18
100
AcDbSpline
210
0.0
220
0.0
230
1.0
 70
     8
 71
     3
 72
    14
 73
    10
 74
     0
 42
0.000000001
 43
0.00000001
 40
0.0
 40
0.0
 40
0.0
 40
0.0
 40
0.25
 40
0.25
 40
0.5
 40
0.5
 40
0.75
 40
0.75
 40
1.0
 40
1.0
 40
1.0
 40
1.0
 10
145.1972356303745
 20
187.2215200513564
 30
0.0
 10
145.194093649289
 20
187.410999550878
 30
0.0
 10
145.1915886806732
 20
187.5985072358797
 30
0.0
 10
145.1882059737385
 20
187.9431400352626
 30
0.0
 10
145.1873293972658
 20
188.1001467798575
 30
0.0
 10
145.1873293972658
 20
188.3614027081037
 30
0.0
 10
145.1882059737385
 20
188.4655621591223
 30
0.0
 10
145.1915886806731
 20
188.6062573534924
 30
0.0
 10
145.194093649289
 20
188.6427447727722
 30
0.0
 10
145.1972356303745
 20
188.6427996162561
 30
0.0
  0
LINE
  5
384
330
1F
100
AcDbEntity
  8
0
  6
SLD-破線
 62
     7
370
    18
100
AcDbLine
 10
160.82341424
 20
187.4942760136
 30
0.0
 11
145.1972356304
 21
187.2215200514
 31
0.0
  0
SPLINE
  5
385
330
1F
100
AcDbEntity
  8
0
  6
SLD-破線
 62
     7
370
    18
100
AcDbSpline
210
0.0
220
0.0
230
1.0
 70
    24
 71
     3
 72
    16
 73
    12
 74
     0
 42
0.000000001
 43
0.00000001
 40
0.0
 40
0.0
 40
0.0
 40
0.0
 40
0.0841746784289137
 40
0.1674221851446367
 40
0.2501908643459219
 40
0.3329368439197696
 40
0.4161166251836899
 40
0.5001796425168794
 40
0.6671290114212082
 40
0.8325170897642122
 40
1.0
 40
1.0
 40
1.0
 40
1.0
 10
160.8234142400304
 20
187.4942760135679
 30
0.0
 10
160.8234142400304
 20
187.5312355720507
 30
0.0
 10
160.8234142400304
 20
187.6047475849108
 30
0.0
 10
160.8234142400304
 20
187.713500301141
 30
0.0
 10
160.8234142400304
 20
187.8200639066323
 30
0.0
 10
160.8234142400304
 20
187.924394519263
 30
0.0
 10
160.8234142400304
 20
188.0264837629366
 30
0.0
 10
160.8234142400304
 20
188.1586018375277
 30
0.0
 10
160.8234142400304
 20
188.3138272370623
 30
0.0
 10
160.8234142400304
 20
188.4822270213308
 30
0.0
 10
160.8234142400304
 20
188.5743799604178
 30
0.0
 10
160.8234142400304
 20
188.6207463995328
 30
0.0
  0
SPLINE
  5
386
330
1F
100
AcDbEntity
  8
0
  6
SLD-破線
 62
     7
370
    18
100
AcDbSpline
210
0.0
220
0.0
230
1.0
 70
     8
 71
     3
 72
    16
 73
    12
 74
     0
 42
0.000000001
 43
0.00000001
 40
0.0
 40
0.0
 40
0.0
 40
0.0
 40
0.1284112357970414
 40
0.2426004943287563
 40
0.342578333033722
 40
0.4283616137647796
 40
0.4999783297867536
 40
0.6337262092559085
 40
0.7495118506225353
 40
0.8794812540354772
 40
1.0
 40
1.0
 40
1.0
 40
1.0
 10
161.1181785180992
 20
188.9207007080797
 30
0.0
 10
161.1006099311868
 20
188.9195011791362
 30
0.0
 10
161.0674185375899
 20
188.9172349731236
 30
0.0
 10
161.0218647192719
 20
188.9039010333022
 30
0.0
 10
160.9831272893246
 20
188.8865702502444
 30
0.0
 10
160.9511448000966
 20
188.8669838263753
 30
0.0
 10
160.9171654028442
 20
188.8403329710273
 30
0.0
 10
160.8834606259452
 20
188.8043187153406
 30
0.0
 10
160.8506413345718
 20
188.7519513086625
 30
0.0
 10
160.8281801092288
 20
188.6924919253937
 30
0.0
 10
160.8249623961063
 20
188.6440523836368
 30
0.0
 10
160.8234142400304
 20
188.6207463995328
 30
0.0
  0
LINE
  5
387
330
1F
100
AcDbEntity
  8
0
  6
SLD-破線
 62
     7
370
    18
100
AcDbLine
 10
145.1972356304
 20
183.8368050767
 30
0.0
 11
145.1972356304
 21
180.0774116207
 31
0.0
  0
ARC
  5
388
330
1F
100
AcDbEntity
  8
0
  6
SLD-破線
 62
     7
370
    18
100
AcDbCircle
 10
145.222344867
 20
178.5786909797
 30
0.0
 40
1.498930963511108
100
AcDbArc
 50
90.9598311136
 51
179.9616042088
  0
SPLINE
  5
389
330
1F
100
AcDbEntity
  8
0
  6
SLD-破線
 62
     7
370
    18
100
AcDbSpline
210
0.0
220
0.0
230
1.0
 70
     8
 71
     3
 72
    18
 73
    14
 74
     0
 42
0.000000001
 43
0.00000001
 40
0.0
 40
0.0
 40
0.0
 40
0.0
 40
0.0949700581388953
 40
0.1891271497001349
 40
0.2824715180399841
 40
0.3750034133458311
 40
0.4667230928726019
 40
0.5576308211894873
 40
0.6477268704376219
 40
0.7370115205992399
 40
0.8254850597789182
 40
0.9131477844975879
 40
0.9999999999999999
 40
0.9999999999999999
 40
0.9999999999999999
 40
0.9999999999999999
 10
160.8234142400304
 20
180.1588619688725
 30
0.0
 10
160.8234125621672
 20
180.155665829981
 30
0.0
 10
160.8234092208036
 20
180.149300911917
 30
0.0
 10
160.8233912217143
 20
180.1267449406592
 30
0.0
 10
160.8233730978066
 20
180.0951793878355
 30
0.0
 10
160.8233583966795
 20
180.0541363971234
 30
0.0
 10
160.8233507409809
 20
180.0043820324647
 30
0.0
 10
160.8233514546147
 20
179.9464144992371
 30
0.0
 10
160.8233602544878
 20
179.880838013131
 30
0.0
 10
160.8233753456894
 20
179.8083090720041
 30
0.0
 10
160.8233929427437
 20
179.729344627876
 30
0.0
 10
160.8234096830639
 20
179.6450925177094
 30
0.0
 10
160.823412725752
 20
179.5843764835162
 30
0.0
 10
160.8234142400304
 20
179.5541594598074
 30
0.0
  0
LINE
  5
38A
330
1F
100
AcDbEntity
  8
0
  6
SLD-破線
 62
     7
370
    18
100
AcDbLine
 10
160.82341424
 20
183.8510800208
 30
0.0
 11
160.82341424
 21
187.4942760136
 31
0.0
  0
SPLINE
  5
38B
330
1F
100
AcDbEntity
  8
0
  6
SLD-破線
 62
     7
370
    18
100
AcDbSpline
210
0.0
220
0.0
230
1.0
 70
    24
 71
     3
 72
    22
 73
    18
 74
     0
 42
0.000000001
 43
0.00000001
 40
0.0
 40
0.0
 40
0.0
 40
0.0
 40
0.0347329060197743
 40
0.0692406118135754
 40
0.10361094151001
 40
0.1379327738248609
 40
0.1722953637908825
 40
0.2067876500388847
 40
0.2414975742360418
 40
0.3707126395115534
 40
0.500025517693254
 40
0.6292405405355948
 40
0.7585533821292626
 40
0.8190987033558523
 40
0.8792033746401913
 40
0.9393449218731836
 40
1.0
 40
1.0
 40
1.0
 40
1.0
 10
160.8234142400304
 20
180.3497937803444
 30
0.0
 10
160.8234142400304
 20
180.3539862290145
 30
0.0
 10
160.8234142400304
 20
180.3623439434754
 30
0.0
 10
160.8234142400304
 20
180.3866708919791
 30
0.0
 10
160.8234142400304
 20
180.4196006621266
 30
0.0
 10
160.8234142400304
 20
180.4619676421733
 30
0.0
 10
160.8234142400304
 20
180.5135446638985
 30
0.0
 10
160.8234142400304
 20
180.5744049939222
 30
0.0
 10
160.8234142400304
 20
180.7078073155326
 30
0.0
 10
160.8234142400304
 20
180.9627718425172
 30
0.0
 10
160.8234142400304
 20
181.4130048458672
 30
0.0
 10
160.8234142400304
 20
181.9551504373526
 30
0.0
 10
160.8234142400304
 20
182.4649117424713
 30
0.0
 10
160.8234142400304
 20
182.8874751930137
 30
0.0
 10
160.8234142400304
 20
183.2023893946337
 30
0.0
 10
160.8234142400304
 20
183.5240210919474
 30
0.0
 10
160.8234142400304
 20
183.7417518387222
 30
0.0
 10
160.8234142400304
 20
183.8510800208374
 30
0.0
  0
LINE
  5
38C
330
1F
100
AcDbEntity
  8
0
  6
SLD-破線
 62
     7
370
    18
100
AcDbLine
 10
160.82341424
 20
180.1588619689
 30
0.0
 11
160.82341424
 21
180.3497937803
 31
0.0
  0
LINE
  5
38D
330
1F
100
AcDbEntity
  8
0
  6
SLD-破線
 62
     7
370
    18
100
AcDbLine
 10
145.1972356304
 20
183.8368050767
 30
0.0
 11
160.82341424
 21
183.8510800208
 31
0.0
  0
LINE
  5
38E
330
1F
100
AcDbEntity
  8
0
  6
SLD-破線
 62
     7
370
    18
100
AcDbLine
 10
160.82341424
 20
180.3497937803
 30
0.0
 11
145.1972356304
 21
180.0774116207
 31
0.0
  0
SPLINE
  5
38F
330
1F
100
AcDbEntity
  8
0
  6
SLD-破線
 62
     7
370
    18
100
AcDbSpline
210
0.0
220
0.0
230
1.0
 70
     8
 71
     3
 72
     9
 73
     5
 74
     0
 42
0.000000001
 43
0.00000001
 40
0.0
 40
0.0
 40
0.0
 40
0.0
 40
0.9574813225802531
 40
1.0
 40
1.0
 40
1.0
 40
1.0
 10
143.7234142400304
 20
178.4023100674144
 30
0.0
 10
143.7276514415693
 20
178.6048540228243
 30
0.0
 10
143.732076803651
 20
178.8163923062698
 30
0.0
 10
143.8444655449892
 20
178.9838221371614
 30
0.0
 10
143.8492441656277
 20
178.9909410321315
 30
0.0
  0
LINE
  5
390
330
1F
100
AcDbEntity
  8
0
  6
SLD-破線
 62
     7
370
    18
100
AcDbLine
 10
145.1972356304
 20
180.0774116207
 30
0.0
 11
145.1972356304
 21
179.9000262254
 31
0.0
  0
LINE
  5
391
330
1F
100
AcDbEntity
  8
0
  6
SLD-破線
 62
     7
370
    18
100
AcDbLine
 10
145.1972356304
 20
179.9000262254
 30
0.0
 11
160.82341424
 21
180.1588619689
 31
0.0
  0
SPLINE
  5
392
330
1F
100
AcDbEntity
  8
0
  6
SLD-破線
 62
     7
370
    18
100
AcDbSpline
210
0.0
220
0.0
230
1.0
 70
     8
 71
     3
 72
    23
 73
    19
 74
     0
 42
0.000000001
 43
0.00000001
 40
0.0
 40
0.0
 40
0.0
 40
0.0
 40
0.0592891000016641
 40
0.119006001163603
 40
0.1791507766800988
 40
0.2397234981465881
 40
0.3007242356039265
 40
0.3621530575811375
 40
0.4240100311366968
 40
0.4862952218984223
 40
0.5490086941020007
 40
0.6121505106282423
 40
0.6757207330390773
 40
0.7397194216123721
 40
0.8041466353755933
 40
0.8690024321383734
 40
0.934286868524018
 40
1.0
 40
1.0
 40
1.0
 40
1.0
 10
161.1160109384535
 20
187.4565121784646
 30
0.0
 10
161.1160109512901
 20
187.5106434227266
 30
0.0
 10
161.1160109770562
 20
187.6192964958453
 30
0.0
 10
161.1160169051546
 20
187.7726898196732
 30
0.0
 10
161.1160335438656
 20
187.9191810052115
 30
0.0
 10
161.1160652363251
 20
188.0575485774397
 30
0.0
 10
161.1161156355389
 20
188.1874763217345
 30
0.0
 10
161.1161877100186
 20
188.3084114152123
 30
0.0
 10
161.1162836911641
 20
188.419876248909
 30
0.0
 10
161.1164050373646
 20
188.5213864493887
 30
0.0
 10
161.1165523950771
 20
188.6124764009155
 30
0.0
 10
161.1167255614407
 20
188.6926927765715
 30
0.0
 10
161.1169234515453
 20
188.7616079319067
 30
0.0
 10
161.117144054535
 20
188.8187859844713
 30
0.0
 10
161.1173844407589
 20
188.8639200449692
 30
0.0
 10
161.1176405862732
 20
188.8963264264069
 30
0.0
 10
161.1179078969193
 20
188.9168622031474
 30
0.0
 10
161.1180881144494
 20
188.9194184179951
 30
0.0
 10
161.1181785180992
 20
188.9207007080797
 30
0.0
  0
SPLINE
  5
393
330
1F
100
AcDbEntity
  8
0
  6
SLD-破線
 62
     7
370
    18
100
AcDbSpline
210
0.0
220
0.0
230
1.0
 70
     8
 71
     3
 72
    25
 73
    21
 74
     0
 42
0.000000001
 43
0.00000001
 40
0.0
 40
0.0
 40
0.0
 40
0.0
 40
0.058432444741963
 40
0.1165262081099071
 40
0.1742813291985527
 40
0.2316978478183753
 40
0.2887758045123537
 40
0.3455152405732366
 40
0.4019161980613
 40
0.4579787198226509
 40
0.5137028495080811
 40
0.5690886315924756
 40
0.624136111394833
 40
0.6788453350988747
 40
0.7332163497743069
 40
0.7872492033987308
 40
0.8409439448802353
 40
0.8943006240807055
 40
0.9473192918398488
 40
1.0
 40
1.0
 40
1.0
 40
1.0
 10
161.1181785180992
 20
183.9214622322978
 30
0.0
 10
161.1180981773346
 20
183.9979395858696
 30
0.0
 10
161.1179379614698
 20
184.1504510212093
 30
0.0
 10
161.1176994222013
 20
184.3780740658839
 30
0.0
 10
161.1174687115212
 20
184.6034272232464
 30
0.0
 10
161.1172492231118
 20
184.8260677446841
 30
0.0
 10
161.1170440646123
 20
185.0455717581139
 30
0.0
 10
161.1168556328761
 20
185.2615346979216
 30
0.0
 10
161.1166857461759
 20
185.4735717344273
 30
0.0
 10
161.1165356300232
 20
185.6813180961723
 30
0.0
 10
161.1164059432576
 20
185.8844293552198
 30
0.0
 10
161.1162967946978
 20
186.0825815173452
 30
0.0
 10
161.1162077633945
 20
186.2754714910865
 30
0.0
 10
161.1161379189642
 20
186.4628158329011
 30
0.0
 10
161.1160858425213
 20
186.6443555561885
 30
0.0
 10
161.1160496489967
 20
186.8198382233094
 30
0.0
 10
161.1160270066118
 20
186.989083747974
 30
0.0
 10
161.1160151689236
 20
187.1517404466777
 30
0.0
 10
161.116010961951
 20
187.3081859492943
 30
0.0
 10
161.1160109462693
 20
187.4071756041293
 30
0.0
 10
161.1160109384535
 20
187.4565121784646
 30
0.0
  0
LINE
  5
394
330
1F
100
AcDbEntity
  8
0
  6
SLD-破線
 62
     7
370
    18
100
AcDbLine
 10
168.22341424
 20
184.0454845832
 30
0.0
 11
161.1181785181
 21
183.9214622323
 31
0.0
  0
ARC
  5
395
330
1F
100
AcDbEntity
  8
0
  6
SLD-破線
 62
     7
370
    18
100
AcDbCircle
 10
161.0837292052
 20
187.1931658328
 30
0.0
 40
0.2653175608531715
100
AcDbArc
 50
83.0113884484
 51
168.8561028062
  0
SPLINE
  5
396
330
1F
100
AcDbEntity
  8
0
  6
SLD-破線
 62
     7
370
    18
100
AcDbSpline
210
0.0
220
0.0
230
1.0
 70
     8
 71
     3
 72
    22
 73
    18
 74
     0
 42
0.000000001
 43
0.00000001
 40
0.0
 40
0.0
 40
0.0
 40
0.0
 40
0.0632595334284371
 40
0.1270056477980459
 40
0.1912383808718514
 40
0.255957769490833
 40
0.321163849600844
 40
0.3868566562785484
 40
0.4530362237564277
 40
0.51970258544685
 40
0.5868557739652941
 40
0.6544958211527263
 40
0.7226227580971935
 40
0.7912366151546417
 40
0.8603374219690159
 40
0.9299252074916519
 40
0.9999999999999999
 40
0.9999999999999999
 40
0.9999999999999999
 40
0.9999999999999999
 10
145.1863977321458
 20
145.618156233331
 30
0.0
 10
145.186405599741
 20
145.6656622346031
 30
0.0
 10
145.1864213954473
 20
145.7610396447556
 30
0.0
 10
145.1865534945022
 20
145.9132420546348
 30
0.0
 10
145.1867708963945
 20
146.072516575385
 30
0.0
 10
145.1870852524283
 20
146.2392451827197
 30
0.0
 10
145.1874979109793
 20
146.4129559136611
 30
0.0
 10
145.1880120963908
 20
146.5933652839472
 30
0.0
 10
145.1886295531365
 20
146.7800954069328
 30
0.0
 10
145.1893513971504
 20
146.9727504382779
 30
0.0
 10
145.1901778438843
 20
147.1708958355253
 30
0.0
 10
145.1911081856416
 20
147.3740641437866
 30
0.0
 10
145.1921409191226
 20
147.581753804356
 30
0.0
 10
145.193273022619
 20
147.7934300539644
 30
0.0
 10
145.1945025313773
 20
148.0085255428287
 30
0.0
 10
145.195818663797
 20
148.2264410421317
 30
0.0
 10
145.196762211457
 20
148.3726685691616
 30
0.0
 10
145.1972356303745
 20
148.446037282242
 30
0.0
  0
SPLINE
  5
397
330
1F
100
AcDbEntity
  8
0
  6
SLD-破線
 62
     7
370
    18
100
AcDbSpline
210
0.0
220
0.0
230
1.0
 70
     8
 71
     3
 72
    23
 73
    19
 74
     0
 42
0.000000001
 43
0.00000001
 40
0.0
 40
0.0
 40
0.0
 40
0.0
 40
0.0657102124300875
 40
0.1309922785070715
 40
0.1958462217298739
 40
0.2602720661146308
 40
0.3242698362081805
 40
0.3878395571020067
 40
0.4509812544466491
 40
0.5136949544666168
 40
0.5759806839757818
 40
0.6378384703933356
 40
0.699268341760281
 40
0.7602703267565011
 40
0.8208444547184354
 40
0.8809907556573696
 40
0.9407092602783871
 40
0.9999999999999999
 40
0.9999999999999999
 40
0.9999999999999999
 40
0.9999999999999999
 10
145.1972356303745
 20
144.4466465016165
 30
0.0
 10
145.1967913051299
 20
144.4476788348063
 30
0.0
 10
145.1959055497195
 20
144.4497367748391
 30
0.0
 10
145.1946637561386
 20
144.466183370491
 30
0.0
 10
145.193497518966
 20
144.4921252579633
 30
0.0
 10
145.192416201516
 20
144.5282480220325
 30
0.0
 10
145.1914215138276
 20
144.5740047331639
 30
0.0
 10
145.1905162000099
 20
144.629149878426
 30
0.0
 10
145.1897017623419
 20
144.693334755121
 30
0.0
 10
145.1889790976194
 20
144.7662172498158
 30
0.0
 10
145.1883483580417
 20
144.8474347033064
 30
0.0
 10
145.1878090380503
 20
144.9366146249479
 30
0.0
 10
145.187359934819
 20
145.0333695186897
 30
0.0
 10
145.1869993947663
 20
145.1373172968271
 30
0.0
 10
145.1867245577498
 20
145.2480157115937
 30
0.0
 10
145.1865342933783
 20
145.3652117610015
 30
0.0
 10
145.1864185102481
 20
145.4879283828229
 30
0.0
 10
145.1864046415635
 20
145.5748510943569
 30
0.0
 10
145.1863977321458
 20
145.618156233331
 30
0.0
  0
LINE
  5
398
330
1F
100
AcDbEntity
  8
0
  6
SLD-破線
 62
     7
370
    18
100
AcDbLine
 10
168.5181785181
 20
148.0401872415
 30
0.0
 11
145.1972356304
 21
148.4460372822
 31
0.0
  0
ARC
  5
399
330
1F
100
AcDbEntity
  8
0
  6
SLD-破線
 62
     7
370
    18
100
AcDbCircle
 10
145.0467551864
 20
146.9373738658
 30
0.0
 40
1.32658780426477
100
AcDbArc
 50
184.0094969544
 51
276.0424033047
  0
LINE
  5
39A
330
1F
100
AcDbEntity
  8
0
  6
SLD-破線
 62
     7
370
    18
100
AcDbLine
 10
143.7269047213
 20
166.5447230589
 30
0.0
 11
143.92341424
 21
166.5447230589
 31
0.0
  0
LINE
  5
39B
330
1F
100
AcDbEntity
  8
0
  6
SLD-破線
 62
     7
370
    18
100
AcDbLine
 10
145.1972356304
 20
148.4460372822
 30
0.0
 11
143.72341424
 21
148.4460372822
 31
0.0
  0
SPLINE
  5
39C
330
1F
100
AcDbEntity
  8
0
  6
SLD-破線
 62
     7
370
    18
100
AcDbSpline
210
0.0
220
0.0
230
1.0
 70
     8
 71
     3
 72
    14
 73
    10
 74
     0
 42
0.000000001
 43
0.00000001
 40
0.0
 40
0.0
 40
0.0
 40
0.0
 40
0.25
 40
0.25
 40
0.5
 40
0.5
 40
0.75
 40
0.75
 40
1.0
 40
1.0
 40
1.0
 40
1.0
 10
145.1972356303745
 20
178.4023100674144
 30
0.0
 10
145.194093649289
 20
178.592052472594
 30
0.0
 10
145.1915886806732
 20
178.781729707633
 30
0.0
 10
145.1882059737385
 20
179.1342089851517
 30
0.0
 10
145.1873293972658
 20
179.2968899628433
 30
0.0
 10
145.1873293972658
 20
179.572196267641
 30
0.0
 10
145.1882059737385
 20
179.6847270362821
 30
0.0
 10
145.1915886806731
 20
179.8436767528229
 30
0.0
 10
145.194093649289
 20
179.8900411068359
 30
0.0
 10
145.1972356303745
 20
179.9000262253736
 30
0.0
  0
LINE
  5
39D
330
1F
100
AcDbEntity
  8
0
  6
SLD-破線
 62
     7
370
    18
100
AcDbLine
 10
143.72341424
 20
178.4023100674
 30
0.0
 11
145.1972356304
 21
178.4023100674
 31
0.0
  0
ARC
  5
39E
330
1F
100
AcDbEntity
  8
0
  6
SLD-破線
 62
     7
370
    18
100
AcDbCircle
 10
142.3331738258
 20
165.9947382883
 30
0.0
 40
2.867987899141656
100
AcDbArc
 50
357.0016736235
 51
0.9986309243
  0
LINE
  5
39F
330
1F
100
AcDbEntity
  8
0
  6
SLD-破線
 62
     7
370
    18
100
AcDbLine
 10
145.2007261117
 20
166.0447230589
 30
0.0
 11
143.92341424
 21
166.0447230589
 31
0.0
  0
LINE
  5
3A0
330
1F
100
AcDbEntity
  8
0
  6
SLD-破線
 62
     7
370
    18
100
AcDbLine
 10
143.92341424
 20
167.0447230589
 30
0.0
 11
145.2007261117
 21
167.0447230589
 31
0.0
  0
ARC
  5
3A1
330
1F
100
AcDbEntity
  8
0
  6
SLD-破線
 62
     7
370
    18
100
AcDbCircle
 10
142.3331738258
 20
167.0947078296
 30
0.0
 40
2.867987899152357
100
AcDbArc
 50
359.0013690757
 51
2.9983263765
  0
LINE
  5
3A2
330
1F
100
AcDbEntity
  8
0
  6
SLD-破線
 62
     7
370
    18
100
AcDbLine
 10
145.1972356304
 20
148.4460372822
 30
0.0
 11
145.1972356304
 21
165.8447230589
 31
0.0
  0
LINE
  5
3A3
330
1F
100
AcDbEntity
  8
0
  6
SLD-破線
 62
     7
370
    18
100
AcDbLine
 10
145.1972356304
 20
167.2447230589
 30
0.0
 11
145.1972356304
 21
178.4023100674
 31
0.0
  0
LINE
  5
3A4
330
1F
100
AcDbEntity
  8
0
  6
SLD-破線
 62
     7
370
    18
100
AcDbLine
 10
145.2007261117
 20
166.0447230589
 30
0.0
 11
145.2007261117
 21
167.0447230589
 31
0.0
  0
LINE
  5
3A5
330
1F
100
AcDbEntity
  8
0
  6
SLD-破線
 62
     7
370
    18
100
AcDbLine
 10
145.1972356304
 20
178.4023100674
 30
0.0
 11
161.1181785181
 21
178.6660283566
 31
0.0
  0
SPLINE
  5
3A6
330
1F
100
AcDbEntity
  8
0
  6
SLD-破線
 62
     7
370
    18
100
AcDbSpline
210
0.0
220
0.0
230
1.0
 70
     8
 71
     3
 72
    15
 73
    11
 74
     0
 42
0.000000001
 43
0.00000001
 40
0.0
 40
0.0
 40
0.0
 40
0.0
 40
0.128671565676852
 40
0.243022108151667
 40
0.3430531547723259
 40
0.428767937931414
 40
0.500172626580537
 40
0.6907398879005744
 40
0.8571712215246443
 40
1.0
 40
1.0
 40
1.0
 40
1.0
 10
161.1181785180992
 20
178.6660283566064
 30
0.0
 10
161.1004641834668
 20
178.7052884712485
 30
0.0
 10
161.0670071028427
 20
178.7794390870149
 30
0.0
 10
161.0208184875242
 20
178.8838511094232
 30
0.0
 10
160.9821245302315
 20
178.9749520628449
 30
0.0
 10
160.9507675580013
 20
179.0527434367293
 30
0.0
 10
160.9106917137171
 20
179.157356690521
 30
0.0
 10
160.8674307916525
 20
179.2845907153847
 30
0.0
 10
160.8308151159092
 20
179.429950782528
 30
0.0
 10
160.8257524042354
 20
179.5149181202795
 30
0.0
 10
160.8234142400304
 20
179.5541594598074
 30
0.0
  0
LINE
  5
3A7
330
1F
100
AcDbEntity
  8
0
  6
SLD-破線
 62
     7
370
    18
100
AcDbLine
 10
161.1181785181
 20
183.9214622323
 30
0.0
 11
160.82341424
 21
183.8510800208
 31
0.0
  0
LINE
  5
3A8
330
1F
100
AcDbEntity
  8
0
  6
SLD-破線
 62
     7
370
    18
100
AcDbLine
 10
145.2007261117
 20
167.0447230589
 30
0.0
 11
168.22341424
 21
167.0447230589
 31
0.0
  0
LINE
  5
3A9
330
1F
100
AcDbEntity
  8
0
  6
SLD-破線
 62
     7
370
    18
100
AcDbLine
 10
163.3859073054
 20
167.2447230525
 30
0.0
 11
149.4714568962
 21
167.2447230589
 31
0.0
  0
LINE
  5
3AA
330
1F
100
AcDbEntity
  8
0
  6
SLD-破線
 62
     7
370
    18
100
AcDbLine
 10
168.22341424
 20
166.0447230589
 30
0.0
 11
145.2007261117
 21
166.0447230589
 31
0.0
  0
LINE
  5
3AB
330
1F
100
AcDbEntity
  8
0
  6
SLD-破線
 62
     7
370
    18
100
AcDbLine
 10
149.4587815123
 20
165.8447230654
 30
0.0
 11
163.3985826892
 21
165.8447230589
 31
0.0
  0
LINE
  5
3AC
330
1F
100
AcDbEntity
  8
0
  6
SLD-破線
 62
     7
370
    18
100
AcDbLine
 10
161.1181785181
 20
178.6660283566
 30
0.0
 11
161.1181785181
 21
183.9214622323
 31
0.0
  0
LINE
  5
3AD
330
1F
100
AcDbEntity
  8
0
  6
SLD-破線
 62
     7
370
    18
100
AcDbLine
 10
169.6092006777
 20
140.5447230589
 30
0.0
 11
149.72341424
 21
140.5447230589
 31
0.0
  0
LINE
  5
3AE
330
1F
100
AcDbEntity
  8
0
  6
SLD-破線
 62
     7
370
    18
100
AcDbLine
 10
149.72341424
 20
136.5447230589
 30
0.0
 11
169.6092006777
 21
136.5447230589
 31
0.0
  0
LINE
  5
3AF
330
1F
100
AcDbEntity
  8
0
  6
SLD-破線
 62
     7
370
    18
100
AcDbLine
 10
172.72341424
 20
142.7447230589
 30
0.0
 11
172.22341424
 21
142.7447230589
 31
0.0
  0
LINE
  5
3B0
330
1F
100
AcDbEntity
  8
0
  6
SLD-破線
 62
     7
370
    18
100
AcDbLine
 10
172.22341424
 20
142.7447230589
 30
0.0
 11
170.3163074588
 21
140.8376162777
 31
0.0
  0
LINE
  5
3B1
330
1F
100
AcDbEntity
  8
0
  6
SLD-破線
 62
     7
370
    18
100
AcDbLine
 10
170.3163074588
 20
136.2518298401
 30
0.0
 11
172.0234283822
 21
134.5447089168
 31
0.0
  0
LINE
  5
3B2
330
1F
100
AcDbEntity
  8
0
  6
SLD-破線
 62
     7
370
    18
100
AcDbLine
 10
170.7352663787
 20
137.6585136205
 30
0.0
 11
172.72341424
 21
137.518206761
 31
0.0
  0
LINE
  5
3B3
330
1F
100
AcDbEntity
  8
0
  6
SLD-破線
 62
     7
370
    18
100
AcDbLine
 10
172.72341424
 20
139.5699852165
 30
0.0
 11
170.673514678
 21
139.4278964157
 31
0.0
  0
LINE
  5
3B4
330
1F
100
AcDbEntity
  8
0
  6
SLD-破線
 62
     7
370
    18
100
AcDbLine
 10
172.72341424
 20
185.5447230589
 30
0.0
 11
168.72341424
 21
185.6947230589
 31
0.0
  0
LINE
  5
3B5
330
1F
100
AcDbEntity
  8
0
  6
SLD-破線
 62
     7
370
    18
100
AcDbLine
 10
168.72341424
 20
182.3947230589
 30
0.0
 11
172.92341424
 21
182.498282381
 31
0.0
  0
LINE
  5
3B6
330
1F
100
AcDbEntity
  8
0
  6
SLD-破線
 62
     7
370
    18
100
AcDbLine
 10
172.52341424
 20
151.0447230589
 30
0.0
 11
168.72341424
 21
150.6947230589
 31
0.0
  0
LINE
  5
3B7
330
1F
100
AcDbEntity
  8
0
  6
SLD-破線
 62
     7
370
    18
100
AcDbLine
 10
168.72341424
 20
147.3947230589
 30
0.0
 11
172.52341424
 21
147.0447230589
 31
0.0
  0
LINE
  5
3B8
330
1F
100
AcDbEntity
  8
0
  6
SLD-破線
 62
     7
370
    18
100
AcDbLine
 10
172.72341424
 20
179.0447230589
 30
0.0
 11
168.72341424
 21
179.0447230589
 31
0.0
  0
LINE
  5
3B9
330
1F
100
AcDbEntity
  8
0
  6
SLD-破線
 62
     7
370
    18
100
AcDbLine
 10
168.22341424
 20
149.0439615347
 30
0.0
 11
172.72341424
 21
149.0447230589
 31
0.0
  0
LINE
  5
3BA
330
1F
100
AcDbEntity
  8
0
  6
SLD-破線
 62
     7
370
    18
100
AcDbLine
 10
172.72341424
 20
142.7447230589
 30
0.0
 11
170.27341424
 21
140.7947230589
 31
0.0
  0
LINE
  5
3BB
330
1F
100
AcDbEntity
  8
0
  6
SLD-破線
 62
     7
370
    18
100
AcDbLine
 10
170.27341424
 20
136.2947230589
 30
0.0
 11
172.0234283822
 21
134.5447089168
 31
0.0
  0
LINE
  5
3BC
330
1F
100
AcDbEntity
  8
0
  6
SLD-破線
 62
     7
370
    18
100
AcDbLine
 10
170.27341424
 20
140.7947230589
 30
0.0
 11
149.72341424
 21
140.5447230589
 31
0.0
  0
LINE
  5
3BD
330
1F
100
AcDbEntity
  8
0
  6
SLD-破線
 62
     7
370
    18
100
AcDbLine
 10
149.72341424
 20
136.2760666629
 30
0.0
 11
170.27341424
 21
136.2947230589
 31
0.0
  0
LINE
  5
3BE
330
1F
100
AcDbEntity
  8
0
  6
SLD-破線
 62
     7
370
    18
100
AcDbLine
 10
172.72341424
 20
139.0098388941
 30
0.0
 11
149.72341424
 21
139.0447230589
 31
0.0
  0
LINE
  5
3BF
330
1F
100
AcDbEntity
  8
0
  6
SLD-破線
 62
     7
370
    18
100
AcDbLine
 10
160.52341424
 20
187.5447230589
 30
0.0
 11
156.92341424
 21
187.5447230589
 31
0.0
  0
LINE
  5
3C0
330
1F
100
AcDbEntity
  8
0
  6
SLD-破線
 62
     7
370
    18
100
AcDbLine
 10
156.92341424
 20
180.5447230589
 30
0.0
 11
160.52341424
 21
180.5447230589
 31
0.0
  0
LINE
  5
3C1
330
1F
100
AcDbEntity
  8
0
  6
SLD-破線
 62
     7
370
    18
100
AcDbLine
 10
156.92341424
 20
187.5447230589
 30
0.0
 11
156.52341424
 21
187.1447230589
 31
0.0
  0
LINE
  5
3C2
330
1F
100
AcDbEntity
  8
0
  6
SLD-破線
 62
     7
370
    18
100
AcDbLine
 10
156.52341424
 20
180.9447230589
 30
0.0
 11
156.92341424
 21
180.5447230589
 31
0.0
  0
SPLINE
  5
3C3
330
1F
100
AcDbEntity
  8
0
  6
SLD-破線
 62
     7
370
    18
100
AcDbSpline
210
0.0
220
0.0
230
1.0
 70
     8
 71
     3
 72
    11
 73
     7
 74
     0
 42
0.000000001
 43
0.00000001
 40
0.0
 40
0.0
 40
0.0
 40
0.0
 40
0.2492695384463461
 40
0.5053705968863031
 40
0.7584425549725332
 40
1.0
 40
1.0
 40
1.0
 40
1.0
 10
143.9111971316788
 20
147.4135227146709
 30
0.0
 10
143.9006564922932
 20
147.4355622493661
 30
0.0
 10
143.8824148650441
 20
147.4719893509517
 30
0.0
 10
143.8362829211009
 20
147.5100550614421
 30
0.0
 10
143.7826151366407
 20
147.5321182306072
 30
0.0
 10
143.7451381335495
 20
147.531265314934
 30
0.0
 10
143.7268358469144
 20
147.5308487846397
 30
0.0
  0
SPLINE
  5
3C4
330
1F
100
AcDbEntity
  8
0
  6
SLD-破線
 62
     7
370
    18
100
AcDbSpline
210
0.0
220
0.0
230
1.0
 70
     8
 71
     3
 72
    11
 73
     7
 74
     0
 42
0.000000001
 43
0.00000001
 40
0.0
 40
0.0
 40
0.0
 40
0.0
 40
0.2415574450280987
 40
0.4946294031147891
 40
0.7507304615546262
 40
1.0
 40
1.0
 40
1.0
 40
1.0
 10
143.7268358469138
 20
185.5585973332329
 30
0.0
 10
143.7451381335496
 20
185.5581808029386
 30
0.0
 10
143.782615136642
 20
185.5573278872655
 30
0.0
 10
143.8362829211038
 20
185.579391056432
 30
0.0
 10
143.8824148650475
 20
185.6174567669245
 30
0.0
 10
143.9006564922959
 20
185.6538838685117
 30
0.0
 10
143.9096540122005
 20
185.6718512113993
 30
0.0
  0
LINE
  5
3C5
330
1F
100
AcDbEntity
  8
0
  6
SLD-破線
 62
     7
370
    18
100
AcDbLine
 10
168.22341424
 20
144.0453323711
 30
0.0
 11
168.22341424
 21
144.0453323711
 31
0.0
  0
LINE
  5
3C6
330
1F
100
AcDbEntity
  8
0
  6
SLD-破線
 62
     7
370
    18
100
AcDbLine
 10
166.4039010515
 20
167.0447230589
 30
0.0
 11
163.4084262962
 21
167.0447230589
 31
0.0
  0
LINE
  5
3C7
330
1F
100
AcDbEntity
  8
0
  6
SLD-破線
 62
     7
370
    18
100
AcDbLine
 10
163.4174578244
 20
166.0447230589
 30
0.0
 11
166.4149795064
 21
166.0447230589
 31
0.0
  0
LINE
  5
3C8
330
1F
100
AcDbEntity
  8
0
  6
SLD-破線
 62
     7
370
    18
100
AcDbLine
 10
146.4458784578
 20
166.0447230589
 30
0.0
 11
149.4468855678
 21
166.0447230589
 31
0.0
  0
LINE
  5
3C9
330
1F
100
AcDbEntity
  8
0
  6
SLD-破線
 62
     7
370
    18
100
AcDbLine
 10
149.4559170959
 20
167.0447230589
 30
0.0
 11
146.4486759012
 21
167.0447230589
 31
0.0
  0
LINE
  5
3CA
330
1F
100
AcDbEntity
  8
0
  6
SLD-破線
 62
     7
370
    18
100
AcDbLine
 10
156.52341424
 20
149.2422942653
 30
0.0
 11
160.52341424
 21
149.2386401553
 31
0.0
  0
LINE
  5
3CB
330
1F
100
AcDbEntity
  8
0
  6
SLD-破線
 62
     7
370
    18
100
AcDbLine
 10
160.52341424
 20
145.6004066238
 30
0.0
 11
156.8027868831
 21
145.6653504159
 31
0.0
  0
LINE
  5
3CC
330
1F
100
AcDbEntity
  8
0
  6
SLD-破線
 62
     7
370
    18
100
AcDbLine
 10
143.7268358469
 20
147.5308487846
 30
0.0
 11
143.7628677633
 21
147.5407625286
 31
0.0
  0
LWPOLYLINE
  5
3CD
330
1F
100
AcDbEntity
  8
0
  6
SLD-破線
 62
     7
370
    18
100
AcDbPolyline
 90
        3
 70
   128
 43
0.0
 10
143.9111971317
 20
147.4135227147
 10
143.9196559534
 20
147.3832826169
 10
143.92341424
 20
147.3446925933
  0
LINE
  5
3CE
330
1F
100
AcDbEntity
  8
0
  6
SLD-破線
 62
     7
370
    18
100
AcDbLine
 10
143.7268358469
 20
185.5585973332
 30
0.0
 11
143.7628677645
 21
185.5486835895
 31
0.0
  0
LWPOLYLINE
  5
3CF
330
1F
100
AcDbEntity
  8
0
  6
SLD-破線
 62
     7
370
    18
100
AcDbPolyline
 90
        3
 70
   128
 43
0.0
 10
143.9111971317
 20
185.6759234032
 10
143.9196559534
 20
185.706163501
 10
143.92341424
 20
185.7447535245
  0
SPLINE
  5
3D0
330
1F
100
AcDbEntity
  8
0
  6
SLD-破線
 62
     7
370
    18
100
AcDbSpline
210
0.0
220
0.0
230
1.0
 70
     8
 71
     3
 72
    10
 73
     6
 74
     0
 42
0.000000001
 43
0.00000001
 40
0.0
 40
0.0
 40
0.0
 40
0.0
 40
0.323316890481133
 40
0.6616584452405669
 40
1.0
 40
1.0
 40
1.0
 40
1.0
 10
143.8492441656277
 20
178.9909410321315
 30
0.0
 10
143.9392623172147
 20
179.1534441145381
 30
0.0
 10
144.123481799636
 20
179.486001862115
 30
0.0
 10
144.6186281777032
 20
179.822669746872
 30
0.0
 10
145.004366479484
 20
179.8742407325397
 30
0.0
 10
145.1972356303745
 20
179.9000262253736
 30
0.0
  0
DIMENSION
  5
3D1
330
1F
100
AcDbEntity
  8
0
  6
SLD-実線
 62
     7
370
    18
100
AcDbDimension
  2
_D_6
 10
172.72341424
 20
199.0514404041
 30
0.0
 11
158.22341424
 21
199.0514404041
 31
0.0
 70
   160
  1
<>
 71
     2
 42
-1.0
  3
SLDDIMSTYLE0
100
AcDbAlignedDimension
 13
143.72341424
 23
184.6434088356
 33
0.0
 14
172.72341424
 24
185.0447230589
 34
0.0
100
AcDbRotatedDimension
  0
DIMENSION
  5
3DB
330
1F
100
AcDbEntity
  8
0
  6
SLD-実線
 62
     7
370
    18
100
AcDbDimension
  2
_D_7
 10
172.72341424
 20
120.5844176934
 30
0.0
 11
161.22341424
 21
120.5844176934
 31
0.0
 70
   160
  1
<>
 71
     2
 42
-1.0
  3
SLDDIMSTYLE0
100
AcDbAlignedDimension
 13
149.72341424
 23
136.2760666629
 33
0.0
 14
172.72341424
 24
142.0447230589
 34
0.0
 50
0.0
100
AcDbRotatedDimension
  0
ENDSEC
  0
SECTION
  2
OBJECTS
  0
DICTIONARY
  5
C
330
0
100
AcDbDictionary
281
     1
  3
ACAD_GROUP
350
D
  3
ACAD_LAYOUT
350
1A
  3
ACAD_MLINESTYLE
350
17
  3
ACAD_PLOTSETTINGS
350
19
  3
ACAD_PLOTSTYLENAME
350
E
  3
ACAD_SCALELIST
350
47
  0
DICTIONARY
  5
D
102
{ACAD_REACTORS
330
C
102
}
330
C
100
AcDbDictionary
281
     1
  0
DICTIONARY
  5
1A
102
{ACAD_REACTORS
330
C
102
}
330
C
100
AcDbDictionary
281
     1
  3
Layout1
350
1E
  3
Layout2
350
26
  3
Model
350
22
  0
DICTIONARY
  5
17
102
{ACAD_REACTORS
330
C
102
}
330
C
100
AcDbDictionary
281
     1
  3
Standard
350
18
  0
DICTIONARY
  5
19
102
{ACAD_REACTORS
330
C
102
}
330
C
100
AcDbDictionary
281
     1
  0
ACDBDICTIONARYWDFLT
  5
E
102
{ACAD_REACTORS
330
C
102
}
330
C
100
AcDbDictionary
281
     1
  3
Normal
350
F
100
AcDbDictionaryWithDefault
340
F
  0
DICTIONARY
  5
47
102
{ACAD_REACTORS
330
C
102
}
330
C
100
AcDbDictionary
281
     1
  3
A0
350
48
  3
A1
350
49
  3
A2
350
4A
  3
A3
350
4B
  3
A4
350
4C
  3
A5
350
4D
  3
A6
350
4E
  3
A7
350
4F
  3
A8
350
50
  3
A9
350
51
  3
B0
350
52
  3
B1
350
53
  3
B2
350
54
  3
B3
350
55
  3
B4
350
56
  3
B5
350
57
  3
B6
350
58
  3
B7
350
59
  3
B8
350
5A
  3
B9
350
5B
  3
C0
350
5C
  3
C1
350
5D
  3
C2
350
5E
  3
C3
350
5F
  3
C4
350
60
  3
C5
350
61
  3
C6
350
62
  3
C7
350
63
  3
C8
350
64
  3
C9
350
65
  3
D0
350
66
  3
D1
350
67
  3
D2
350
68
  0
LAYOUT
  5
1E
102
{ACAD_REACTORS
330
1A
102
}
330
1A
100
AcDbPlotSettings
  1

  2
none_device
  4

  6

 40
0.0
 41
0.0
 42
0.0
 43
0.0
 44
0.0
 45
0.0
 46
0.0
 47
0.0
 48
0.0
 49
0.0
140
0.0
141
0.0
142
1.0
143
1.0
 70
   688
 72
     1
 73
     0
 74
     5
  7

 75
    16
147
1.0
148
0.0
149
0.0
100
AcDbLayout
  1
Layout1
 70
     1
 71
     1
 10
0.0
 20
0.0
 11
420.0
 21
297.0
 12
0.0
 22
0.0
 32
0.0
 14
1.0000000000E+20
 24
1.0000000000E+20
 34
1.0000000000E+20
 15
-1.0000000000E+20
 25
-1.0000000000E+20
 35
-1.0000000000E+20
146
0.0
 13
0.0
 23
0.0
 33
0.0
 16
1.0
 26
0.0
 36
0.0
 17
0.0
 27
1.0
 37
0.0
 76
     0
330
1B
  0
LAYOUT
  5
26
102
{ACAD_REACTORS
330
1A
102
}
330
1A
100
AcDbPlotSettings
  1

  2
none_device
  4

  6

 40
0.0
 41
0.0
 42
0.0
 43
0.0
 44
0.0
 45
0.0
 46
0.0
 47
0.0
 48
0.0
 49
0.0
140
0.0
141
0.0
142
1.0
143
1.0
 70
   688
 72
     1
 73
     0
 74
     5
  7

 75
    16
147
1.0
148
0.0
149
0.0
100
AcDbLayout
  1
Layout2
 70
     1
 71
     2
 10
0.0
 20
0.0
 11
0.0
 21
0.0
 12
0.0
 22
0.0
 32
0.0
 14
0.0
 24
0.0
 34
0.0
 15
0.0
 25
0.0
 35
0.0
146
0.0
 13
0.0
 23
0.0
 33
0.0
 16
1.0
 26
0.0
 36
0.0
 17
0.0
 27
1.0
 37
0.0
 76
     0
330
23
  0
LAYOUT
  5
22
102
{ACAD_REACTORS
330
1A
102
}
330
1A
100
AcDbPlotSettings
  1

  2
none_device
  4
Letter_(8.50_x_11.00_Inches)
  6

 40
6.35
 41
6.35
 42
6.35000508
 43
6.35000508
 44
215.9
 45
279.4
 46
0.0
 47
0.0
 48
0.0
 49
0.0
140
0.0
141
0.0
142
1.0
143
1.0
 70
  1712
 72
     1
 73
     0
 74
     0
  7

 75
     0
147
1.0
148
0.0
149
0.0
100
AcDbLayout
  1
Model
 70
     1
 71
     0
 10
0.0
 20
0.0
 11
210.0
 21
297.0
 12
0.0
 22
0.0
 32
0.0
 14
0.0
 24
0.0
 34
0.0
 15
210.0
 25
297.0
 35
0.0
146
0.0
 13
0.0
 23
0.0
 33
0.0
 16
1.0
 26
0.0
 36
0.0
 17
0.0
 27
1.0
 37
0.0
 76
     0
330
1F
331
29
  0
MLINESTYLE
  5
18
102
{ACAD_REACTORS
330
17
102
}
330
17
100
AcDbMlineStyle
  2
Standard
 70
     0
  3

 62
   256
 51
90.0
 52
90.0
 71
     2
 49
0.5
 62
   256
  6
BYLAYER
 49
-0.5
 62
   256
  6
BYLAYER
  0
ACDBPLACEHOLDER
  5
F
102
{ACAD_REACTORS
330
E
102
}
330
E
  0
SCALE
  5
48
102
{ACAD_REACTORS
330
47
102
}
330
47
100
AcDbScale
 70
     0
300
1:1
140
1.0
141
1.0
290
     1
  0
SCALE
  5
49
102
{ACAD_REACTORS
330
47
102
}
330
47
100
AcDbScale
 70
     0
300
1:2
140
1.0
141
2.0
290
     0
  0
SCALE
  5
4A
102
{ACAD_REACTORS
330
47
102
}
330
47
100
AcDbScale
 70
     0
300
1:4
140
1.0
141
4.0
290
     0
  0
SCALE
  5
4B
102
{ACAD_REACTORS
330
47
102
}
330
47
100
AcDbScale
 70
     0
300
1:5
140
1.0
141
5.0
290
     0
  0
SCALE
  5
4C
102
{ACAD_REACTORS
330
47
102
}
330
47
100
AcDbScale
 70
     0
300
1:8
140
1.0
141
8.0
290
     0
  0
SCALE
  5
4D
102
{ACAD_REACTORS
330
47
102
}
330
47
100
AcDbScale
 70
     0
300
1:10
140
1.0
141
10.0
290
     0
  0
SCALE
  5
4E
102
{ACAD_REACTORS
330
47
102
}
330
47
100
AcDbScale
 70
     0
300
1:16
140
1.0
141
16.0
290
     0
  0
SCALE
  5
4F
102
{ACAD_REACTORS
330
47
102
}
330
47
100
AcDbScale
 70
     0
300
1:20
140
1.0
141
20.0
290
     0
  0
SCALE
  5
50
102
{ACAD_REACTORS
330
47
102
}
330
47
100
AcDbScale
 70
     0
300
1:30
140
1.0
141
30.0
290
     0
  0
SCALE
  5
51
102
{ACAD_REACTORS
330
47
102
}
330
47
100
AcDbScale
 70
     0
300
1:40
140
1.0
141
40.0
290
     0
  0
SCALE
  5
52
102
{ACAD_REACTORS
330
47
102
}
330
47
100
AcDbScale
 70
     0
300
1:50
140
1.0
141
50.0
290
     0
  0
SCALE
  5
53
102
{ACAD_REACTORS
330
47
102
}
330
47
100
AcDbScale
 70
     0
300
1:100
140
1.0
141
100.0
290
     0
  0
SCALE
  5
54
102
{ACAD_REACTORS
330
47
102
}
330
47
100
AcDbScale
 70
     0
300
2:1
140
2.0
141
1.0
290
     0
  0
SCALE
  5
55
102
{ACAD_REACTORS
330
47
102
}
330
47
100
AcDbScale
 70
     0
300
4:1
140
4.0
141
1.0
290
     0
  0
SCALE
  5
56
102
{ACAD_REACTORS
330
47
102
}
330
47
100
AcDbScale
 70
     0
300
8:1
140
8.0
141
1.0
290
     0
  0
SCALE
  5
57
102
{ACAD_REACTORS
330
47
102
}
330
47
100
AcDbScale
 70
     0
300
10:1
140
10.0
141
1.0
290
     0
  0
SCALE
  5
58
102
{ACAD_REACTORS
330
47
102
}
330
47
100
AcDbScale
 70
     0
300
100:1
140
100.0
141
1.0
290
     0
  0
SCALE
  5
59
102
{ACAD_REACTORS
330
47
102
}
330
47
100
AcDbScale
 70
     0
300
1/128" = 1'-0"
140
0.0078125
141
12.0
290
     0
  0
SCALE
  5
5A
102
{ACAD_REACTORS
330
47
102
}
330
47
100
AcDbScale
 70
     0
300
1/64" = 1'-0"
140
0.015625
141
12.0
290
     0
  0
SCALE
  5
5B
102
{ACAD_REACTORS
330
47
102
}
330
47
100
AcDbScale
 70
     0
300
1/32" = 1'-0"
140
0.03125
141
12.0
290
     0
  0
SCALE
  5
5C
102
{ACAD_REACTORS
330
47
102
}
330
47
100
AcDbScale
 70
     0
300
1/16" = 1'-0"
140
0.0625
141
12.0
290
     0
  0
SCALE
  5
5D
102
{ACAD_REACTORS
330
47
102
}
330
47
100
AcDbScale
 70
     0
300
3/32" = 1'-0"
140
0.09375
141
12.0
290
     0
  0
SCALE
  5
5E
102
{ACAD_REACTORS
330
47
102
}
330
47
100
AcDbScale
 70
     0
300
1/8" = 1'-0"
140
0.125
141
12.0
290
     0
  0
SCALE
  5
5F
102
{ACAD_REACTORS
330
47
102
}
330
47
100
AcDbScale
 70
     0
300
3/16" = 1'-0"
140
0.1875
141
12.0
290
     0
  0
SCALE
  5
60
102
{ACAD_REACTORS
330
47
102
}
330
47
100
AcDbScale
 70
     0
300
1/4" = 1'-0"
140
0.25
141
12.0
290
     0
  0
SCALE
  5
61
102
{ACAD_REACTORS
330
47
102
}
330
47
100
AcDbScale
 70
     0
300
3/8" = 1'-0"
140
0.375
141
12.0
290
     0
  0
SCALE
  5
62
102
{ACAD_REACTORS
330
47
102
}
330
47
100
AcDbScale
 70
     0
300
1/2" = 1'-0"
140
0.5
141
12.0
290
     0
  0
SCALE
  5
63
102
{ACAD_REACTORS
330
47
102
}
330
47
100
AcDbScale
 70
     0
300
3/4" = 1'-0"
140
0.75
141
12.0
290
     0
  0
SCALE
  5
64
102
{ACAD_REACTORS
330
47
102
}
330
47
100
AcDbScale
 70
     0
300
1" = 1'-0"
140
1.0
141
12.0
290
     0
  0
SCALE
  5
65
102
{ACAD_REACTORS
330
47
102
}
330
47
100
AcDbScale
 70
     0
300
1-1/2" = 1'-0"
140
1.5
141
12.0
290
     0
  0
SCALE
  5
66
102
{ACAD_REACTORS
330
47
102
}
330
47
100
AcDbScale
 70
     0
300
3" = 1'-0"
140
3.0
141
12.0
290
     0
  0
SCALE
  5
67
102
{ACAD_REACTORS
330
47
102
}
330
47
100
AcDbScale
 70
     0
300
6" = 1'-0"
140
6.0
141
12.0
290
     0
  0
SCALE
  5
68
102
{ACAD_REACTORS
330
47
102
}
330
47
100
AcDbScale
 70
     0
300
1'-0" = 1'-0"
140
12.0
141
12.0
290
     0
  0
ENDSEC
  0
EOF
