  0
SECTION
  2
HEADER
  9
$ACADVER
  1
AC1015
  9
$ACADMAINTVER
 70
     6
  9
$DWGCODEPAGE
  3
DOS932
  9
$INSBASE
 10
0.0
 20
0.0
 30
0.0
  9
$EXTMIN
 10
0.0
 20
0.0
 30
0.0
  9
$EXTMAX
 10
210.0
 20
297.0
 30
0.0
  9
$LIMMIN
 10
0.0
 20
0.0
  9
$LIMMAX
 10
210.0
 20
297.0
  9
$ORTHOMODE
 70
     0
  9
$REGENMODE
 70
     1
  9
$FILLMODE
 70
     1
  9
$QTEXTMODE
 70
     0
  9
$MIRRTEXT
 70
     1
  9
$LTSCALE
 40
1.0
  9
$ATTMODE
 70
     1
  9
$TEXTSIZE
 40
3.5
  9
$TRACEWID
 40
1.0
  9
$TEXTSTYLE
  7
Standard
  9
$CLAYER
  8
0
  9
$CELTYPE
  6
ByLayer
  9
$CECOLOR
 62
   256
  9
$CELTSCALE
 40
1.0
  9
$DISPSILH
 70
     0
  9
$DIMSCALE
 40
1.0
  9
$DIMASZ
 40
3.0
  9
$DIMEXO
 40
1.0
  9
$DIMDLI
 40
3.75
  9
$DIMRND
 40
0.0
  9
$DIMDLE
 40
0.0
  9
$DIMEXE
 40
1.0
  9
$DIMTP
 40
0.0
  9
$DIMTM
 40
0.0
  9
$DIMTXT
 40
3.5
  9
$DIMCEN
 40
2.5
  9
$DIMTSZ
 40
0.0
  9
$DIMTOL
 70
     0
  9
$DIMLIM
 70
     0
  9
$DIMTIH
 70
     1
  9
$DIMTOH
 70
     1
  9
$DIMSE1
 70
     0
  9
$DIMSE2
 70
     0
  9
$DIMTAD
 70
     1
  9
$DIMZIN
 70
     0
  9
$DIMBLK
  1

  9
$DIMASO
 70
     1
  9
$DIMSHO
 70
     1
  9
$DIMPOST
  1

  9
$DIMAPOST
  1

  9
$DIMALT
 70
     0
  9
$DIMALTD
 70
     3
  9
$DIMALTF
 40
0.0393700787
  9
$DIMLFAC
 40
1.0
  9
$DIMTOFL
 70
     1
  9
$DIMTVP
 40
0.0
  9
$DIMTIX
 70
     0
  9
$DIMSOXD
 70
     0
  9
$DIMSAH
 70
     0
  9
$DIMBLK1
  1

  9
$DIMBLK2
  1

  9
$DIMSTYLE
  2
ISO-25
  9
$DIMCLRD
 70
     0
  9
$DIMCLRE
 70
     0
  9
$DIMCLRT
 70
     0
  9
$DIMTFAC
 40
1.0
  9
$DIMGAP
 40
1.524
  9
$DIMJUST
 70
     0
  9
$DIMSD1
 70
     0
  9
$DIMSD2
 70
     0
  9
$DIMTOLJ
 70
     0
  9
$DIMTZIN
 70
     0
  9
$DIMALTZ
 70
     0
  9
$DIMALTTZ
 70
     0
  9
$DIMUPT
 70
     0
  9
$DIMDEC
 70
     1
  9
$DIMTDEC
 70
     3
  9
$DIMALTU
 70
     2
  9
$DIMALTTD
 70
     3
  9
$DIMTXSTY
  7
Standard
  9
$DIMAUNIT
 70
     0
  9
$DIMADEC
 70
     2
  9
$DIMALTRND
 40
0.0
  9
$DIMAZIN
 70
     0
  9
$DIMDSEP
 70
    44
  9
$DIMATFIT
 70
     3
  9
$DIMFRAC
 70
     0
  9
$DIMLDRBLK
  1

  9
$DIMLUNIT
 70
     2
  9
$DIMLWD
 70
    -2
  9
$DIMLWE
 70
    -2
  9
$DIMTMOVE
 70
     0
  9
$LUNITS
 70
     2
  9
$LUPREC
 70
     1
  9
$SKETCHINC
 40
1.0
  9
$FILLETRAD
 40
10.0
  9
$AUNITS
 70
     0
  9
$AUPREC
 70
     2
  9
$MENU
  1
.
  9
$ELEVATION
 40
0.0
  9
$PELEVATION
 40
0.0
  9
$THICKNESS
 40
0.0
  9
$LIMCHECK
 70
     0
  9
$CHAMFERA
 40
10.0
  9
$CHAMFERB
 40
10.0
  9
$CHAMFERC
 40
20.0
  9
$CHAMFERD
 40
0.0
  9
$SKPOLY
 70
     0
  9
$TDCREATE
 40
2456028.844263773
  9
$TDUCREATE
 40
2456028.469263773
  9
$TDUPDATE
 40
2456028.844263785
  9
$TDUUPDATE
 40
2456028.469263785
  9
$TDINDWG
 40
0.0000000116
  9
$TDUSRTIMER
 40
0.0000000116
  9
$USRTIMER
 70
     1
  9
$ANGBASE
 50
0.0
  9
$ANGDIR
 70
     0
  9
$PDMODE
 70
     0
  9
$PDSIZE
 40
-1.0
  9
$PLINEWID
 40
0.0
  9
$SPLFRAME
 70
     0
  9
$SPLINETYPE
 70
     6
  9
$SPLINESEGS
 70
     8
  9
$HANDSEED
  5
314
  9
$SURFTAB1
 70
     6
  9
$SURFTAB2
 70
     6
  9
$SURFTYPE
 70
     6
  9
$SURFU
 70
     6
  9
$SURFV
 70
     6
  9
$UCSBASE
  2

  9
$UCSNAME
  2

  9
$UCSORG
 10
0.0
 20
0.0
 30
0.0
  9
$UCSXDIR
 10
1.0
 20
0.0
 30
0.0
  9
$UCSYDIR
 10
0.0
 20
1.0
 30
0.0
  9
$UCSORTHOREF
  2

  9
$UCSORTHOVIEW
 70
     0
  9
$UCSORGTOP
 10
0.0
 20
0.0
 30
0.0
  9
$UCSORGBOTTOM
 10
0.0
 20
0.0
 30
0.0
  9
$UCSORGLEFT
 10
0.0
 20
0.0
 30
0.0
  9
$UCSORGRIGHT
 10
0.0
 20
0.0
 30
0.0
  9
$UCSORGFRONT
 10
0.0
 20
0.0
 30
0.0
  9
$UCSORGBACK
 10
0.0
 20
0.0
 30
0.0
  9
$PUCSBASE
  2

  9
$PUCSNAME
  2

  9
$PUCSORG
 10
0.0
 20
0.0
 30
0.0
  9
$PUCSXDIR
 10
1.0
 20
0.0
 30
0.0
  9
$PUCSYDIR
 10
0.0
 20
1.0
 30
0.0
  9
$PUCSORTHOREF
  2

  9
$PUCSORTHOVIEW
 70
     0
  9
$PUCSORGTOP
 10
0.0
 20
0.0
 30
0.0
  9
$PUCSORGBOTTOM
 10
0.0
 20
0.0
 30
0.0
  9
$PUCSORGLEFT
 10
0.0
 20
0.0
 30
0.0
  9
$PUCSORGRIGHT
 10
0.0
 20
0.0
 30
0.0
  9
$PUCSORGFRONT
 10
0.0
 20
0.0
 30
0.0
  9
$PUCSORGBACK
 10
0.0
 20
0.0
 30
0.0
  9
$USERI1
 70
     0
  9
$USERI2
 70
     0
  9
$USERI3
 70
     0
  9
$USERI4
 70
     0
  9
$USERI5
 70
     0
  9
$USERR1
 40
0.0
  9
$USERR2
 40
0.0
  9
$USERR3
 40
0.0
  9
$USERR4
 40
0.0
  9
$USERR5
 40
0.0
  9
$WORLDVIEW
 70
     1
  9
$SHADEDGE
 70
     3
  9
$SHADEDIF
 70
    70
  9
$TILEMODE
 70
     1
  9
$MAXACTVP
 70
    64
  9
$PINSBASE
 10
0.0
 20
0.0
 30
0.0
  9
$PLIMCHECK
 70
     0
  9
$PEXTMIN
 10
1.0000000000E+20
 20
1.0000000000E+20
 30
1.0000000000E+20
  9
$PEXTMAX
 10
-1.0000000000E+20
 20
-1.0000000000E+20
 30
-1.0000000000E+20
  9
$PLIMMIN
 10
0.0
 20
0.0
  9
$PLIMMAX
 10
420.0
 20
297.0
  9
$UNITMODE
 70
     0
  9
$VISRETAIN
 70
     1
  9
$PLINEGEN
 70
     0
  9
$PSLTSCALE
 70
     1
  9
$TREEDEPTH
 70
  3020
  9
$CMLSTYLE
  2
Standard
  9
$CMLJUST
 70
     0
  9
$CMLSCALE
 40
20.0
  9
$PROXYGRAPHICS
 70
     1
  9
$MEASUREMENT
 70
     1
  9
$CELWEIGHT
370
    -1
  9
$ENDCAPS
280
     0
  9
$JOINSTYLE
280
     0
  9
$LWDISPLAY
290
     1
  9
$INSUNITS
 70
     4
  9
$HYPERLINKBASE
  1

  9
$STYLESHEET
  1

  9
$XEDIT
290
     1
  9
$CEPSNTYPE
380
     0
  9
$PSTYLEMODE
290
     1
  9
$FINGERPRINTGUID
  2
{D3C8834E-908F-4F35-ADE6-DD54A8C2CDC5}
  9
$VERSIONGUID
  2
{FAEB1C32-E019-11D5-929B-00C0DF256EC4}
  9
$EXTNAMES
290
     1
  9
$PSVPSCALE
 40
0.0
  9
$OLESTARTUP
290
     0
  0
ENDSEC
  0
SECTION
  2
CLASSES
  0
CLASS
  1
ACDBDICTIONARYWDFLT
  2
AcDbDictionaryWithDefault
  3
ObjectDBX Classes
 90
        0
280
     0
281
     0
  0
CLASS
  1
VISUALSTYLE
  2
AcDbVisualStyle
  3
ObjectDBX Classes
 90
     4095
280
     0
281
     0
  0
CLASS
  1
MATERIAL
  2
AcDbMaterial
  3
ObjectDBX Classes
 90
     1153
280
     0
281
     0
  0
CLASS
  1
SCALE
  2
AcDbScale
  3
ObjectDBX Classes
 90
     1153
280
     0
281
     0
  0
CLASS
  1
DICTIONARYVAR
  2
AcDbDictionaryVar
  3
ObjectDBX Classes
 90
        0
280
     0
281
     0
  0
CLASS
  1
ACDBPLACEHOLDER
  2
AcDbPlaceHolder
  3
ObjectDBX Classes
 90
        0
280
     0
281
     0
  0
CLASS
  1
LAYOUT
  2
AcDbLayout
  3
ObjectDBX Classes
 90
        0
280
     0
281
     0
  0
ENDSEC
  0
SECTION
  2
TABLES
  0
TABLE
  2
VPORT
  5
8
330
0
100
AcDbSymbolTable
 70
     1
  0
VPORT
  5
29
330
8
100
AcDbSymbolTableRecord
100
AcDbViewportTableRecord
  2
*Active
 70
     0
 10
0.0
 20
0.0
 11
1.0
 21
1.0
 12
105.0
 22
148.5
 13
0.0
 23
0.0
 14
10.0
 24
10.0
 15
10.0
 25
10.0
 16
0.0
 26
0.0
 36
1.0
 17
0.0
 27
0.0
 37
0.0
 40
297.0
 41
0.7070707071
 42
50.0
 43
0.0
 44
0.0
 50
0.0
 51
0.0
 71
     0
 72
  2000
 73
     1
 74
     3
 75
     0
 76
     0
 77
     0
 78
     0
281
     0
 65
     1
110
0.0
120
0.0
130
0.0
111
1.0
121
0.0
131
0.0
112
0.0
122
1.0
132
0.0
 79
     0
146
0.0
  0
ENDTAB
  0
TABLE
  2
LTYPE
  5
5
330
0
100
AcDbSymbolTable
 70
     6
  0
LTYPE
  5
14
330
5
100
AcDbSymbolTableRecord
100
AcDbLinetypeTableRecord
  2
ByBlock
 70
     0
  3

 72
    65
 73
     0
 40
0.0
  0
LTYPE
  5
15
330
5
100
AcDbSymbolTableRecord
100
AcDbLinetypeTableRecord
  2
ByLayer
 70
     0
  3

 72
    65
 73
     0
 40
0.0
  0
LTYPE
  5
16
330
5
100
AcDbSymbolTableRecord
100
AcDbLinetypeTableRecord
  2
Continuous
 70
     0
  3
Solid line
 72
    65
 73
     0
 40
0.0
  0
LTYPE
  5
3F
330
5
100
AcDbSymbolTableRecord
100
AcDbLinetypeTableRecord
  2
HIDDEN
 70
     0
  3
Hidden __ __ __ __ __ __ __ __ __ __ __ __ __ __
 72
    65
 73
     2
 40
1.905
 49
1.27
 74
     0
 49
-0.635
 74
     0
  0
LTYPE
  5
40
330
5
100
AcDbSymbolTableRecord
100
AcDbLinetypeTableRecord
  2
PHANTOM
 70
     0
  3
Phantom ______  __  __  ______  __  __  ______
 72
    65
 73
     6
 40
12.7
 49
6.35
 74
     0
 49
-1.27
 74
     0
 49
1.27
 74
     0
 49
-1.27
 74
     0
 49
1.27
 74
     0
 49
-1.27
 74
     0
  0
LTYPE
  5
41
330
5
100
AcDbSymbolTableRecord
100
AcDbLinetypeTableRecord
  2
CENTER
 70
     0
  3
Center ____ _ ____ _ ____ _ ____ _ ____ _ ____
 72
    65
 73
     4
 40
10.16
 49
6.35
 74
     0
 49
-1.27
 74
     0
 49
1.27
 74
     0
 49
-1.27
 74
     0
  0
LTYPE
  5
42
330
5
100
AcDbSymbolTableRecord
100
AcDbLinetypeTableRecord
  2
CENTERX2
 70
     0
  3
Center (2x) ________  __  ________  __  _____
 72
    65
 73
     4
 40
20.32
 49
12.7
 74
     0
 49
-2.54
 74
     0
 49
2.54
 74
     0
 49
-2.54
 74
     0
  0
LTYPE
  5
43
330
5
100
AcDbSymbolTableRecord
100
AcDbLinetypeTableRecord
  2
DOT2
 70
     0
  3
Dot (.5x) ........................................
 72
    65
 73
     2
 40
0.635
 49
0.0
 74
     0
 49
-0.635
 74
     0
  0
ENDTAB
  0
TABLE
  2
LAYER
  5
2
330
0
100
AcDbSymbolTable
 70
     1
  0
LAYER
  5
10
330
2
100
AcDbSymbolTableRecord
100
AcDbLayerTableRecord
  2
0
 70
     0
 62
     7
  6
Continuous
370
    -3
390
F
  0
ENDTAB
  0
TABLE
  2
STYLE
  5
3
330
0
100
AcDbSymbolTable
 70
     2
  0
STYLE
  5
11
330
3
100
AcDbSymbolTableRecord
100
AcDbTextStyleTableRecord
  2
Standard
 70
     0
 40
0.0
 41
1.0
 50
0.0
 71
     0
 42
2.5
  3
txt
  4
bigfont
  0
STYLE
  5
4C
330
3
100
AcDbSymbolTableRecord
100
AcDbTextStyleTableRecord
  2
SLDTEXTSTYLE0
 70
     0
 40
0.0
 41
0.7
 50
0.0
 71
     0
 42
0.2
  3
TXT
  4
bigfont
  0
ENDTAB
  0
TABLE
  2
VIEW
  5
6
330
0
100
AcDbSymbolTable
 70
     0
  0
ENDTAB
  0
TABLE
  2
UCS
  5
7
330
0
100
AcDbSymbolTable
 70
     0
  0
ENDTAB
  0
TABLE
  2
APPID
  5
9
330
0
100
AcDbSymbolTable
 70
     1
  0
APPID
  5
12
330
9
100
AcDbSymbolTableRecord
100
AcDbRegAppTableRecord
  2
ACAD
 70
     0
  0
ENDTAB
  0
TABLE
  2
DIMSTYLE
  5
A
330
0
100
AcDbSymbolTable
 70
     7
100
AcDbDimStyleTable
  0
DIMSTYLE
105
27
330
A
100
AcDbSymbolTableRecord
100
AcDbDimStyleTableRecord
  2
ISO-25
 70
     0
 41
2.5
 42
0.625
 43
3.75
 44
1.25
 73
     0
 74
     0
 77
     1
 78
     8
140
2.5
141
2.5
143
0.0393700787
147
0.625
171
     3
172
     1
271
     2
272
     2
274
     3
278
    44
283
     0
284
     8
340
11
  0
DIMSTYLE
105
17E
102
{ACAD_REACTORS
330
17D
330
190
330
1BC
330
2CF
330
2E6
102
}
330
A
100
AcDbSymbolTableRecord
100
AcDbDimStyleTableRecord
  2
SLDDIMSTYLE0
 70
     0
 41
3.0
 44
0.0
 45
0.000000001
 73
     0
 74
     0
 77
     3
 78
    12
140
3.5
147
0.875
173
     1
271
     1
272
     3
276
     2
284
    12
340
4C
341
17F
343
17F
344
17F
  0
DIMSTYLE
105
19D
102
{ACAD_REACTORS
330
19C
330
1B2
330
24A
102
}
330
A
100
AcDbSymbolTableRecord
100
AcDbDimStyleTableRecord
  2
SLDDIMSTYLE1
 70
     0
 41
3.0
 44
0.0
 45
0.000000001
 73
     0
 74
     0
 77
     3
 78
    12
140
3.5
147
0.875
173
     1
271
     1
272
     3
276
     2
284
    12
340
4C
341
17F
343
17F
344
17F
  0
DIMSTYLE
105
1A8
102
{ACAD_REACTORS
330
1A7
102
}
330
A
100
AcDbSymbolTableRecord
100
AcDbDimStyleTableRecord
  2
SLDDIMSTYLE2
 70
     0
 41
3.0
 44
0.0
 45
0.000000001
 78
    12
140
3.5
141
0.0
147
0.875
173
     1
271
     1
272
     3
276
     2
284
    12
340
4C
341
17F
343
17F
344
17F
  0
DIMSTYLE
105
1C9
330
A
100
AcDbSymbolTableRecord
100
AcDbDimStyleTableRecord
  2
SLDDIMSTYLE3
 70
     0
 41
3.0
 44
0.0
 45
0.000000001
140
0.0
146
3.0
147
0.0
173
     1
271
     0
272
     0
276
     2
340
11
341
17F
343
17F
344
17F
  0
DIMSTYLE
105
242
102
{ACAD_REACTORS
330
241
330
254
330
2F2
102
}
330
A
100
AcDbSymbolTableRecord
100
AcDbDimStyleTableRecord
  2
SLDDIMSTYLE4
 70
     0
  3
<>
 41
3.0
 44
0.0
 45
0.000000001
 78
    12
140
3.5
141
0.0
147
0.875
173
     1
271
     1
272
     3
276
     2
284
    12
340
4C
341
17F
343
17F
344
17F
  0
DIMSTYLE
105
2DC
102
{ACAD_REACTORS
330
2DB
102
}
330
A
100
AcDbSymbolTableRecord
100
AcDbDimStyleTableRecord
  2
SLDDIMSTYLE5
 70
     0
 41
3.0
 44
0.0
 45
0.000000001
 73
     0
 74
     0
 77
     3
 78
    12
140
3.5
147
0.875
173
     1
271
     0
272
     3
276
     2
284
    12
340
4C
341
17F
343
17F
344
17F
  0
ENDTAB
  0
TABLE
  2
BLOCK_RECORD
  5
1
330
0
100
AcDbSymbolTable
 70
    24
  0
BLOCK_RECORD
  5
1F
330
1
100
AcDbSymbolTableRecord
100
AcDbBlockTableRecord
  2
*Model_Space
340
22
  0
BLOCK_RECORD
  5
1B
330
1
100
AcDbSymbolTableRecord
100
AcDbBlockTableRecord
  2
*Paper_Space
340
1E
  0
BLOCK_RECORD
  5
23
330
1
100
AcDbSymbolTableRecord
100
AcDbBlockTableRecord
  2
*Paper_Space0
340
26
  0
BLOCK_RECORD
  5
B3
330
1
100
AcDbSymbolTableRecord
100
AcDbBlockTableRecord
  2
SW_CENTERMARKSYMBOL_0
340
0
102
{BLKREFS
331
BE
102
}
  0
BLOCK_RECORD
  5
17F
330
1
100
AcDbSymbolTableRecord
100
AcDbBlockTableRecord
  2
_OPEN30
340
0
102
{BLKREFS
331
188
331
189
331
194
331
195
331
1A1
331
1A2
331
1AC
331
1B6
331
1B7
331
1C0
331
1C1
331
246
331
24E
331
24F
331
258
331
2D3
331
2D4
331
2E0
331
2E1
331
2EA
331
2EB
331
2F6
102
}
  0
BLOCK_RECORD
  5
185
330
1
100
AcDbSymbolTableRecord
100
AcDbBlockTableRecord
  2
*D3
340
0
  0
BLOCK_RECORD
  5
191
330
1
100
AcDbSymbolTableRecord
100
AcDbBlockTableRecord
  2
*D4
340
0
  0
BLOCK_RECORD
  5
19E
330
1
100
AcDbSymbolTableRecord
100
AcDbBlockTableRecord
  2
*D5
340
0
  0
BLOCK_RECORD
  5
1A9
330
1
100
AcDbSymbolTableRecord
100
AcDbBlockTableRecord
  2
*D6
340
0
  0
BLOCK_RECORD
  5
1B3
330
1
100
AcDbSymbolTableRecord
100
AcDbBlockTableRecord
  2
*D7
340
0
  0
BLOCK_RECORD
  5
1BD
330
1
100
AcDbSymbolTableRecord
100
AcDbBlockTableRecord
  2
*D8
340
0
  0
BLOCK_RECORD
  5
1CB
330
1
100
AcDbSymbolTableRecord
100
AcDbBlockTableRecord
  2
SW_CENTERMARKSYMBOL_1
340
0
102
{BLKREFS
331
1D6
102
}
  0
BLOCK_RECORD
  5
1D7
330
1
100
AcDbSymbolTableRecord
100
AcDbBlockTableRecord
  2
SW_CENTERMARKSYMBOL_2
340
0
102
{BLKREFS
331
1E2
102
}
  0
BLOCK_RECORD
  5
1E3
330
1
100
AcDbSymbolTableRecord
100
AcDbBlockTableRecord
  2
SW_CENTERMARKSYMBOL_3
340
0
102
{BLKREFS
331
1EE
102
}
  0
BLOCK_RECORD
  5
243
330
1
100
AcDbSymbolTableRecord
100
AcDbBlockTableRecord
  2
*D12
340
0
  0
BLOCK_RECORD
  5
24B
330
1
100
AcDbSymbolTableRecord
100
AcDbBlockTableRecord
  2
*D13
340
0
  0
BLOCK_RECORD
  5
255
330
1
100
AcDbSymbolTableRecord
100
AcDbBlockTableRecord
  2
*D14
340
0
  0
BLOCK_RECORD
  5
25C
330
1
100
AcDbSymbolTableRecord
100
AcDbBlockTableRecord
  2
SW_CENTERMARKSYMBOL_4
340
0
102
{BLKREFS
331
267
102
}
  0
BLOCK_RECORD
  5
268
330
1
100
AcDbSymbolTableRecord
100
AcDbBlockTableRecord
  2
SW_CENTERMARKSYMBOL_5
340
0
102
{BLKREFS
331
273
102
}
  0
BLOCK_RECORD
  5
274
330
1
100
AcDbSymbolTableRecord
100
AcDbBlockTableRecord
  2
SW_CENTERMARKSYMBOL_6
340
0
102
{BLKREFS
331
27F
102
}
  0
BLOCK_RECORD
  5
2D0
330
1
100
AcDbSymbolTableRecord
100
AcDbBlockTableRecord
  2
*D18
340
0
  0
BLOCK_RECORD
  5
2DD
330
1
100
AcDbSymbolTableRecord
100
AcDbBlockTableRecord
  2
*D19
340
0
  0
BLOCK_RECORD
  5
2E7
330
1
100
AcDbSymbolTableRecord
100
AcDbBlockTableRecord
  2
*D20
340
0
  0
BLOCK_RECORD
  5
2F3
330
1
100
AcDbSymbolTableRecord
100
AcDbBlockTableRecord
  2
*D21
340
0
  0
BLOCK_RECORD
  5
2FA
330
1
100
AcDbSymbolTableRecord
100
AcDbBlockTableRecord
  2
SW_CENTERMARKSYMBOL_7
340
0
102
{BLKREFS
331
305
102
}
  0
BLOCK_RECORD
  5
306
330
1
100
AcDbSymbolTableRecord
100
AcDbBlockTableRecord
  2
SW_CENTERMARKSYMBOL_8
340
0
102
{BLKREFS
331
311
102
}
  0
ENDTAB
  0
ENDSEC
  0
SECTION
  2
BLOCKS
  0
BLOCK
  5
20
330
1F
100
AcDbEntity
  8
0
100
AcDbBlockBegin
  2
*Model_Space
 70
     0
 10
0.0
 20
0.0
 30
0.0
  3
*Model_Space
  1

  0
ENDBLK
  5
21
330
1F
100
AcDbEntity
  8
0
100
AcDbBlockEnd
  0
BLOCK
  5
1C
330
1B
100
AcDbEntity
 67
     1
  8
0
100
AcDbBlockBegin
  2
*Paper_Space
 70
     0
 10
0.0
 20
0.0
 30
0.0
  3
*Paper_Space
  1

  0
ENDBLK
  5
1D
330
1B
100
AcDbEntity
 67
     1
  8
0
100
AcDbBlockEnd
  0
BLOCK
  5
24
330
23
100
AcDbEntity
  8
0
100
AcDbBlockBegin
  2
*Paper_Space0
 70
     0
 10
0.0
 20
0.0
 30
0.0
  3
*Paper_Space0
  1

  0
ENDBLK
  5
25
330
23
100
AcDbEntity
  8
0
100
AcDbBlockEnd
  0
BLOCK
  5
B4
330
B3
100
AcDbEntity
  8
0
100
AcDbBlockBegin
  2
SW_CENTERMARKSYMBOL_0
 70
     0
 10
0.0
 20
0.0
 30
0.0
  3
SW_CENTERMARKSYMBOL_0
  1

  0
LINE
  5
B6
330
B3
100
AcDbEntity
  8
0
  6
Continuous
 62
     0
370
     0
100
AcDbLine
 10
0.0
 20
0.0
 30
0.0
 11
0.0
 21
2.5
 31
0.0
  0
LINE
  5
B7
330
B3
100
AcDbEntity
  8
0
  6
Continuous
 62
     0
370
     0
100
AcDbLine
 10
0.0
 20
0.0
 30
0.0
 11
-2.5
 21
0.0
 31
0.0
  0
LINE
  5
B8
330
B3
100
AcDbEntity
  8
0
  6
Continuous
 62
     0
370
     0
100
AcDbLine
 10
0.0
 20
0.0
 30
0.0
 11
0.0
 21
-2.5
 31
0.0
  0
LINE
  5
B9
330
B3
100
AcDbEntity
  8
0
  6
Continuous
 62
     0
370
     0
100
AcDbLine
 10
0.0
 20
0.0
 30
0.0
 11
2.5
 21
0.0
 31
0.0
  0
LINE
  5
BA
330
B3
100
AcDbEntity
  8
0
  6
Continuous
 62
     0
370
     0
100
AcDbLine
 10
0.0
 20
5.0
 30
0.0
 11
0.0
 21
10.5
 31
0.0
  0
LINE
  5
BB
330
B3
100
AcDbEntity
  8
0
  6
Continuous
 62
     0
370
     0
100
AcDbLine
 10
-5.0
 20
0.0
 30
0.0
 11
-10.5
 21
0.0
 31
0.0
  0
LINE
  5
BC
330
B3
100
AcDbEntity
  8
0
  6
Continuous
 62
     0
370
     0
100
AcDbLine
 10
0.0
 20
-5.0
 30
0.0
 11
0.0
 21
-10.5
 31
0.0
  0
LINE
  5
BD
330
B3
100
AcDbEntity
  8
0
  6
Continuous
 62
     0
370
     0
100
AcDbLine
 10
5.0
 20
0.0
 30
0.0
 11
10.5
 21
0.0
 31
0.0
  0
ENDBLK
  5
B5
330
B3
100
AcDbEntity
  8
0
100
AcDbBlockEnd
  0
BLOCK
  5
180
330
17F
100
AcDbEntity
  8
0
100
AcDbBlockBegin
  2
_OPEN30
 70
     0
 10
0.0
 20
0.0
 30
0.0
  3
_OPEN30
  1

  0
LINE
  5
182
330
17F
100
AcDbEntity
  8
0
  6
ByBlock
 62
     0
370
    -2
100
AcDbLine
 10
-1.0
 20
0.267949
 30
0.0
 11
0.0
 21
0.0
 31
0.0
  0
LINE
  5
183
330
17F
100
AcDbEntity
  8
0
  6
ByBlock
 62
     0
370
    -2
100
AcDbLine
 10
0.0
 20
0.0
 30
0.0
 11
-1.0
 21
-0.267949
 31
0.0
  0
LINE
  5
184
330
17F
100
AcDbEntity
  8
0
  6
ByBlock
 62
     0
370
    -2
100
AcDbLine
 10
0.0
 20
0.0
 30
0.0
 11
-1.0
 21
0.0
 31
0.0
  0
ENDBLK
  5
181
330
17F
100
AcDbEntity
  8
0
100
AcDbBlockEnd
  0
BLOCK
  5
186
330
185
100
AcDbEntity
  8
0
100
AcDbBlockBegin
  2
*D3
 70
     1
 10
0.0
 20
0.0
 30
0.0
  3
*D3
  1

  0
INSERT
  5
188
330
185
100
AcDbEntity
  8
0
  6
Continuous
 62
     7
370
     0
100
AcDbBlockReference
  2
_OPEN30
 10
129.0594386706
 20
139.7135634907
 30
0.0
 41
3.0
 42
3.0
 50
270.0
  0
INSERT
  5
189
330
185
100
AcDbEntity
  8
0
  6
Continuous
 62
     7
370
     0
100
AcDbBlockReference
  2
_OPEN30
 10
129.0594386706
 20
123.7135634907
 30
0.0
 41
3.0
 42
3.0
 50
90.0
  0
LINE
  5
18A
330
185
100
AcDbEntity
  8
0
  6
Continuous
 62
     7
370
     0
100
AcDbLine
 10
121.2070227665
 20
139.7135634907
 30
0.0
 11
130.0594386706
 21
139.7135634907
 31
0.0
  0
LINE
  5
18B
330
185
100
AcDbEntity
  8
0
  6
Continuous
 62
     7
370
     0
100
AcDbLine
 10
121.2070227665
 20
123.7135634907
 30
0.0
 11
130.0594386706
 21
123.7135634907
 31
0.0
  0
LINE
  5
18C
330
185
100
AcDbEntity
  8
0
  6
Continuous
 62
     7
370
     0
100
AcDbLine
 10
129.0594386706
 20
139.7135634907
 30
0.0
 11
129.0594386706
 21
144.7135634907
 31
0.0
  0
LINE
  5
18D
330
185
100
AcDbEntity
  8
0
  6
Continuous
 62
     7
370
     0
100
AcDbLine
 10
129.0594386706
 20
139.7135634907
 30
0.0
 11
129.0594386706
 21
123.7135634907
 31
0.0
  0
LINE
  5
18E
330
185
100
AcDbEntity
  8
0
  6
Continuous
 62
     7
370
     0
100
AcDbLine
 10
129.0594386706
 20
123.7135634907
 30
0.0
 11
129.0594386706
 21
118.7135634907
 31
0.0
  0
MTEXT
  5
18F
330
185
100
AcDbEntity
  8
0
  6
Continuous
 62
     7
370
     0
100
AcDbMText
 10
124.5477018142
 20
129.6781476043
 30
0.0
 40
3.5
 41
0.0
 71
     1
 72
     1
  1
16
  7
SLDTEXTSTYLE0
 11
-7.044195017643634E-15
 21
1.0
 31
0.0
 73
     1
 44
1.0
  0
ENDBLK
  5
187
330
185
100
AcDbEntity
  8
0
100
AcDbBlockEnd
  0
BLOCK
  5
192
330
191
100
AcDbEntity
  8
0
100
AcDbBlockBegin
  2
*D4
 70
     1
 10
0.0
 20
0.0
 30
0.0
  3
*D4
  1

  0
INSERT
  5
194
330
191
100
AcDbEntity
  8
0
  6
Continuous
 62
     7
370
     0
100
AcDbBlockReference
  2
_OPEN30
 10
86.3360723176
 20
139.7135634907
 30
0.0
 41
3.0
 42
3.0
 50
270.0
  0
INSERT
  5
195
330
191
100
AcDbEntity
  8
0
  6
Continuous
 62
     7
370
     0
100
AcDbBlockReference
  2
_OPEN30
 10
86.3360723176
 20
131.7135634907
 30
0.0
 41
3.0
 42
3.0
 50
90.0
  0
LINE
  5
196
330
191
100
AcDbEntity
  8
0
  6
Continuous
 62
     7
370
     0
100
AcDbLine
 10
110.7070227665
 20
139.7135634907
 30
0.0
 11
85.3360723176
 21
139.7135634907
 31
0.0
  0
LINE
  5
197
330
191
100
AcDbEntity
  8
0
  6
Continuous
 62
     7
370
     0
100
AcDbLine
 10
96.7070227665
 20
131.7135634907
 30
0.0
 11
85.3360723176
 21
131.7135634907
 31
0.0
  0
LINE
  5
198
330
191
100
AcDbEntity
  8
0
  6
Continuous
 62
     7
370
     0
100
AcDbLine
 10
86.3360723176
 20
139.7135634907
 30
0.0
 11
86.3360723176
 21
144.7135634907
 31
0.0
  0
LINE
  5
199
330
191
100
AcDbEntity
  8
0
  6
Continuous
 62
     7
370
     0
100
AcDbLine
 10
86.3360723176
 20
139.7135634907
 30
0.0
 11
86.3360723176
 21
131.7135634907
 31
0.0
  0
LINE
  5
19A
330
191
100
AcDbEntity
  8
0
  6
Continuous
 62
     7
370
     0
100
AcDbLine
 10
86.3360723176
 20
131.7135634907
 30
0.0
 11
86.3360723176
 21
126.7135634907
 31
0.0
  0
MTEXT
  5
19B
330
191
100
AcDbEntity
  8
0
  6
Continuous
 62
     7
370
     0
100
AcDbMText
 10
81.8243354612
 20
134.6967782202
 30
0.0
 40
3.5
 41
0.0
 71
     1
 72
     1
  1
8
  7
SLDTEXTSTYLE0
 11
-7.044195017643634E-15
 21
1.0
 31
0.0
 73
     1
 44
1.0
  0
ENDBLK
  5
193
330
191
100
AcDbEntity
  8
0
100
AcDbBlockEnd
  0
BLOCK
  5
19F
330
19E
100
AcDbEntity
  8
0
100
AcDbBlockBegin
  2
*D5
 70
     1
 10
0.0
 20
0.0
 30
0.0
  3
*D5
  1

  0
INSERT
  5
1A1
330
19E
100
AcDbEntity
  8
0
  6
Continuous
 62
     7
370
     0
100
AcDbBlockReference
  2
_OPEN30
 10
77.9570227665
 20
151.7135634907
 30
0.0
 41
3.0
 42
3.0
 50
90.0
  0
INSERT
  5
1A2
330
19E
100
AcDbEntity
  8
0
  6
Continuous
 62
     7
370
     0
100
AcDbBlockReference
  2
_OPEN30
 10
77.9570227665
 20
111.7135634907
 30
0.0
 41
3.0
 42
3.0
 50
270.0
  0
LINE
  5
1A3
330
19E
100
AcDbEntity
  8
0
  6
Continuous
 62
     7
370
     0
100
AcDbLine
 10
93.9570227665
 20
151.7135634907
 30
0.0
 11
76.9570227665
 21
151.7135634907
 31
0.0
  0
LINE
  5
1A4
330
19E
100
AcDbEntity
  8
0
  6
Continuous
 62
     7
370
     0
100
AcDbLine
 10
93.9570227665
 20
111.7135634907
 30
0.0
 11
76.9570227665
 21
111.7135634907
 31
0.0
  0
LINE
  5
1A5
330
19E
100
AcDbEntity
  8
0
  6
Continuous
 62
     7
370
     0
100
AcDbLine
 10
77.9570227665
 20
151.7135634907
 30
0.0
 11
77.9570227665
 21
111.7135634907
 31
0.0
  0
MTEXT
  5
1A6
330
19E
100
AcDbEntity
  8
0
  6
Continuous
 62
     7
370
     0
100
AcDbMText
 10
73.4452859102
 20
129.6781476043
 30
0.0
 40
3.5
 41
0.0
 71
     1
 72
     1
  1
40
  7
SLDTEXTSTYLE0
 11
-7.044195017643634E-15
 21
1.0
 31
0.0
 73
     1
 44
1.0
  0
ENDBLK
  5
1A0
330
19E
100
AcDbEntity
  8
0
100
AcDbBlockEnd
  0
BLOCK
  5
1AA
330
1A9
100
AcDbEntity
  8
0
100
AcDbBlockBegin
  2
*D6
 70
     1
 10
0.0
 20
0.0
 30
0.0
  3
*D6
  1

  0
INSERT
  5
1AC
330
1A9
100
AcDbEntity
  8
0
  6
Continuous
 62
     7
370
     0
100
AcDbBlockReference
  2
_OPEN30
 10
117.1944872313
 20
122.4761542219
 30
0.0
 41
3.0
 42
3.0
 50
135.0012778396
  0
LINE
  5
1AD
330
1A9
100
AcDbEntity
  8
0
  6
Continuous
 62
     7
370
     0
100
AcDbLine
 10
117.1944872313
 20
122.4761542219
 30
0.0
 11
129.8112247613
 21
109.8599794491
 31
0.0
  0
LINE
  5
1AE
330
1A9
100
AcDbEntity
  8
0
  6
Continuous
 62
     7
370
     0
100
AcDbLine
 10
129.8112247613
 20
109.8599794491
 30
0.0
 11
148.6241840167
 21
109.8599794491
 31
0.0
  0
MTEXT
  5
1AF
330
1A9
100
AcDbEntity
  8
0
  6
Continuous
 62
     7
370
     0
100
AcDbMText
 10
132.9862247613
 20
114.3717163054
 30
0.0
 40
3.5
 41
0.0
 71
     1
 72
     1
  1
3-
  7
SLDTEXTSTYLE0
 73
     1
 44
1.0
  0
MTEXT
  5
1B0
330
1A9
100
AcDbEntity
  8
0
  6
Continuous
 62
     7
370
     0
100
AcDbMText
 10
137.0598357563
 20
114.3717163054
 30
0.0
 40
3.5
 41
0.0
 71
     1
 72
     1
  1
%%c
  7
SLDTEXTSTYLE0
 73
     1
 44
1.0
  0
MTEXT
  5
1B1
330
1A9
100
AcDbEntity
  8
0
  6
Continuous
 62
     7
370
     0
100
AcDbMText
 10
140.9285910123
 20
114.3717163054
 30
0.0
 40
3.5
 41
0.0
 71
     1
 72
     1
  1
3.5
  7
SLDTEXTSTYLE0
 73
     1
 44
1.0
  0
ENDBLK
  5
1AB
330
1A9
100
AcDbEntity
  8
0
100
AcDbBlockEnd
  0
BLOCK
  5
1B4
330
1B3
100
AcDbEntity
  8
0
100
AcDbBlockBegin
  2
*D7
 70
     1
 10
0.0
 20
0.0
 30
0.0
  3
*D7
  1

  0
INSERT
  5
1B6
330
1B3
100
AcDbEntity
  8
0
  6
Continuous
 62
     7
370
     0
100
AcDbBlockReference
  2
_OPEN30
 10
93.9570227665
 20
87.246351801
 30
0.0
 41
3.0
 42
3.0
 50
180.0
  0
INSERT
  5
1B7
330
1B3
100
AcDbEntity
  8
0
  6
Continuous
 62
     7
370
     0
100
AcDbBlockReference
  2
_OPEN30
 10
123.9570227665
 20
87.246351801
 30
0.0
 41
3.0
 42
3.0
 50
360.0
  0
LINE
  5
1B8
330
1B3
100
AcDbEntity
  8
0
  6
Continuous
 62
     7
370
     0
100
AcDbLine
 10
93.9570227665
 20
111.7135634907
 30
0.0
 11
93.9570227665
 21
86.246351801
 31
0.0
  0
LINE
  5
1B9
330
1B3
100
AcDbEntity
  8
0
  6
Continuous
 62
     7
370
     0
100
AcDbLine
 10
123.9570227665
 20
111.7135634907
 30
0.0
 11
123.9570227665
 21
86.246351801
 31
0.0
  0
LINE
  5
1BA
330
1B3
100
AcDbEntity
  8
0
  6
Continuous
 62
     7
370
     0
100
AcDbLine
 10
93.9570227665
 20
87.246351801
 30
0.0
 11
123.9570227665
 21
87.246351801
 31
0.0
  0
MTEXT
  5
1BB
330
1B3
100
AcDbEntity
  8
0
  6
Continuous
 62
     7
370
     0
100
AcDbMText
 10
106.9216068802
 20
91.7580886574
 30
0.0
 40
3.5
 41
0.0
 71
     1
 72
     1
  1
30
  7
SLDTEXTSTYLE0
 73
     1
 44
1.0
  0
ENDBLK
  5
1B5
330
1B3
100
AcDbEntity
  8
0
100
AcDbBlockEnd
  0
BLOCK
  5
1BE
330
1BD
100
AcDbEntity
  8
0
100
AcDbBlockBegin
  2
*D8
 70
     1
 10
0.0
 20
0.0
 30
0.0
  3
*D8
  1

  0
INSERT
  5
1C0
330
1BD
100
AcDbEntity
  8
0
  6
Continuous
 62
     7
370
     0
100
AcDbBlockReference
  2
_OPEN30
 10
115.9570227665
 20
95.0743099287
 30
0.0
 41
3.0
 42
3.0
 50
180.0
  0
INSERT
  5
1C1
330
1BD
100
AcDbEntity
  8
0
  6
Continuous
 62
     7
370
     0
100
AcDbBlockReference
  2
_OPEN30
 10
101.9570227665
 20
95.0743099287
 30
0.0
 41
3.0
 42
3.0
 50
360.0
  0
LINE
  5
1C2
330
1BD
100
AcDbEntity
  8
0
  6
Continuous
 62
     7
370
     0
100
AcDbLine
 10
115.9570227665
 20
118.4635634907
 30
0.0
 11
115.9570227665
 21
94.0743099287
 31
0.0
  0
LINE
  5
1C3
330
1BD
100
AcDbEntity
  8
0
  6
Continuous
 62
     7
370
     0
100
AcDbLine
 10
101.9570227665
 20
126.4635634907
 30
0.0
 11
101.9570227665
 21
94.0743099287
 31
0.0
  0
LINE
  5
1C4
330
1BD
100
AcDbEntity
  8
0
  6
Continuous
 62
     7
370
     0
100
AcDbLine
 10
115.9570227665
 20
95.0743099287
 30
0.0
 11
120.9570227665
 21
95.0743099287
 31
0.0
  0
LINE
  5
1C5
330
1BD
100
AcDbEntity
  8
0
  6
Continuous
 62
     7
370
     0
100
AcDbLine
 10
115.9570227665
 20
95.0743099287
 30
0.0
 11
101.9570227665
 21
95.0743099287
 31
0.0
  0
LINE
  5
1C6
330
1BD
100
AcDbEntity
  8
0
  6
Continuous
 62
     7
370
     0
100
AcDbLine
 10
101.9570227665
 20
95.0743099287
 30
0.0
 11
96.9570227665
 21
95.0743099287
 31
0.0
  0
MTEXT
  5
1C7
330
1BD
100
AcDbEntity
  8
0
  6
Continuous
 62
     7
370
     0
100
AcDbMText
 10
106.9216068802
 20
99.586046785
 30
0.0
 40
3.5
 41
0.0
 71
     1
 72
     1
  1
14
  7
SLDTEXTSTYLE0
 73
     1
 44
1.0
  0
ENDBLK
  5
1BF
330
1BD
100
AcDbEntity
  8
0
100
AcDbBlockEnd
  0
BLOCK
  5
1CC
330
1CB
100
AcDbEntity
  8
0
100
AcDbBlockBegin
  2
SW_CENTERMARKSYMBOL_1
 70
     0
 10
0.0
 20
0.0
 30
0.0
  3
SW_CENTERMARKSYMBOL_1
  1

  0
LINE
  5
1CE
330
1CB
100
AcDbEntity
  8
0
  6
Continuous
 62
     0
370
     0
100
AcDbLine
 10
0.0
 20
0.0
 30
0.0
 11
0.0
 21
2.5
 31
0.0
  0
LINE
  5
1CF
330
1CB
100
AcDbEntity
  8
0
  6
Continuous
 62
     0
370
     0
100
AcDbLine
 10
0.0
 20
0.0
 30
0.0
 11
-2.5
 21
0.0
 31
0.0
  0
LINE
  5
1D0
330
1CB
100
AcDbEntity
  8
0
  6
Continuous
 62
     0
370
     0
100
AcDbLine
 10
0.0
 20
0.0
 30
0.0
 11
0.0
 21
-2.5
 31
0.0
  0
LINE
  5
1D1
330
1CB
100
AcDbEntity
  8
0
  6
Continuous
 62
     0
370
     0
100
AcDbLine
 10
0.0
 20
0.0
 30
0.0
 11
2.5
 21
0.0
 31
0.0
  0
LINE
  5
1D2
330
1CB
100
AcDbEntity
  8
0
  6
Continuous
 62
     0
370
     0
100
AcDbLine
 10
0.0
 20
2.5
 30
0.0
 11
0.0
 21
4.25
 31
0.0
  0
LINE
  5
1D3
330
1CB
100
AcDbEntity
  8
0
  6
Continuous
 62
     0
370
     0
100
AcDbLine
 10
-2.5
 20
0.0
 30
0.0
 11
-4.25
 21
0.0
 31
0.0
  0
LINE
  5
1D4
330
1CB
100
AcDbEntity
  8
0
  6
Continuous
 62
     0
370
     0
100
AcDbLine
 10
0.0
 20
-2.5
 30
0.0
 11
0.0
 21
-4.25
 31
0.0
  0
LINE
  5
1D5
330
1CB
100
AcDbEntity
  8
0
  6
Continuous
 62
     0
370
     0
100
AcDbLine
 10
2.5
 20
0.0
 30
0.0
 11
4.25
 21
0.0
 31
0.0
  0
ENDBLK
  5
1CD
330
1CB
100
AcDbEntity
  8
0
100
AcDbBlockEnd
  0
BLOCK
  5
1D8
330
1D7
100
AcDbEntity
  8
0
100
AcDbBlockBegin
  2
SW_CENTERMARKSYMBOL_2
 70
     0
 10
0.0
 20
0.0
 30
0.0
  3
SW_CENTERMARKSYMBOL_2
  1

  0
LINE
  5
1DA
330
1D7
100
AcDbEntity
  8
0
  6
Continuous
 62
     0
370
     0
100
AcDbLine
 10
0.0
 20
0.0
 30
0.0
 11
0.0
 21
2.5
 31
0.0
  0
LINE
  5
1DB
330
1D7
100
AcDbEntity
  8
0
  6
Continuous
 62
     0
370
     0
100
AcDbLine
 10
0.0
 20
0.0
 30
0.0
 11
-2.5
 21
0.0
 31
0.0
  0
LINE
  5
1DC
330
1D7
100
AcDbEntity
  8
0
  6
Continuous
 62
     0
370
     0
100
AcDbLine
 10
0.0
 20
0.0
 30
0.0
 11
0.0
 21
-2.5
 31
0.0
  0
LINE
  5
1DD
330
1D7
100
AcDbEntity
  8
0
  6
Continuous
 62
     0
370
     0
100
AcDbLine
 10
0.0
 20
0.0
 30
0.0
 11
2.5
 21
0.0
 31
0.0
  0
LINE
  5
1DE
330
1D7
100
AcDbEntity
  8
0
  6
Continuous
 62
     0
370
     0
100
AcDbLine
 10
0.0
 20
2.5
 30
0.0
 11
0.0
 21
4.25
 31
0.0
  0
LINE
  5
1DF
330
1D7
100
AcDbEntity
  8
0
  6
Continuous
 62
     0
370
     0
100
AcDbLine
 10
-2.5
 20
0.0
 30
0.0
 11
-4.25
 21
0.0
 31
0.0
  0
LINE
  5
1E0
330
1D7
100
AcDbEntity
  8
0
  6
Continuous
 62
     0
370
     0
100
AcDbLine
 10
0.0
 20
-2.5
 30
0.0
 11
0.0
 21
-4.25
 31
0.0
  0
LINE
  5
1E1
330
1D7
100
AcDbEntity
  8
0
  6
Continuous
 62
     0
370
     0
100
AcDbLine
 10
2.5
 20
0.0
 30
0.0
 11
4.25
 21
0.0
 31
0.0
  0
ENDBLK
  5
1D9
330
1D7
100
AcDbEntity
  8
0
100
AcDbBlockEnd
  0
BLOCK
  5
1E4
330
1E3
100
AcDbEntity
  8
0
100
AcDbBlockBegin
  2
SW_CENTERMARKSYMBOL_3
 70
     0
 10
0.0
 20
0.0
 30
0.0
  3
SW_CENTERMARKSYMBOL_3
  1

  0
LINE
  5
1E6
330
1E3
100
AcDbEntity
  8
0
  6
Continuous
 62
     0
370
     0
100
AcDbLine
 10
0.0
 20
0.0
 30
0.0
 11
0.0
 21
2.5
 31
0.0
  0
LINE
  5
1E7
330
1E3
100
AcDbEntity
  8
0
  6
Continuous
 62
     0
370
     0
100
AcDbLine
 10
0.0
 20
0.0
 30
0.0
 11
-2.5
 21
0.0
 31
0.0
  0
LINE
  5
1E8
330
1E3
100
AcDbEntity
  8
0
  6
Continuous
 62
     0
370
     0
100
AcDbLine
 10
0.0
 20
0.0
 30
0.0
 11
0.0
 21
-2.5
 31
0.0
  0
LINE
  5
1E9
330
1E3
100
AcDbEntity
  8
0
  6
Continuous
 62
     0
370
     0
100
AcDbLine
 10
0.0
 20
0.0
 30
0.0
 11
2.5
 21
0.0
 31
0.0
  0
LINE
  5
1EA
330
1E3
100
AcDbEntity
  8
0
  6
Continuous
 62
     0
370
     0
100
AcDbLine
 10
0.0
 20
2.5
 30
0.0
 11
0.0
 21
4.25
 31
0.0
  0
LINE
  5
1EB
330
1E3
100
AcDbEntity
  8
0
  6
Continuous
 62
     0
370
     0
100
AcDbLine
 10
-2.5
 20
0.0
 30
0.0
 11
-4.25
 21
0.0
 31
0.0
  0
LINE
  5
1EC
330
1E3
100
AcDbEntity
  8
0
  6
Continuous
 62
     0
370
     0
100
AcDbLine
 10
0.0
 20
-2.5
 30
0.0
 11
0.0
 21
-4.25
 31
0.0
  0
LINE
  5
1ED
330
1E3
100
AcDbEntity
  8
0
  6
Continuous
 62
     0
370
     0
100
AcDbLine
 10
2.5
 20
0.0
 30
0.0
 11
4.25
 21
0.0
 31
0.0
  0
ENDBLK
  5
1E5
330
1E3
100
AcDbEntity
  8
0
100
AcDbBlockEnd
  0
BLOCK
  5
244
330
243
100
AcDbEntity
  8
0
100
AcDbBlockBegin
  2
*D12
 70
     1
 10
0.0
 20
0.0
 30
0.0
  3
*D12
  1

  0
INSERT
  5
246
330
243
100
AcDbEntity
  8
0
  6
Continuous
 62
     7
370
     0
100
AcDbBlockReference
  2
_OPEN30
 10
159.5405905293
 20
135.7420470681
 30
0.0
 41
3.0
 42
3.0
 50
298.3297729272
  0
LINE
  5
247
330
243
100
AcDbEntity
  8
0
  6
Continuous
 62
     7
370
     0
100
AcDbLine
 10
159.5405905293
 20
135.7420470681
 30
0.0
 11
145.7916370523
 21
161.2448682778
 31
0.0
  0
LINE
  5
248
330
243
100
AcDbEntity
  8
0
  6
Continuous
 62
     7
370
     0
100
AcDbLine
 10
145.7916370523
 20
161.2448682778
 30
0.0
 11
128.8092603529
 21
161.2448682778
 31
0.0
  0
MTEXT
  5
249
330
243
100
AcDbEntity
  8
0
  6
Continuous
 62
     7
370
     0
100
AcDbMText
 10
130.3967603529
 20
165.7566051341
 30
0.0
 40
3.5
 41
0.0
 71
     1
 72
     1
  1
PT 1/8
  7
SLDTEXTSTYLE0
 73
     1
 44
1.0
  0
ENDBLK
  5
245
330
243
100
AcDbEntity
  8
0
100
AcDbBlockEnd
  0
BLOCK
  5
24C
330
24B
100
AcDbEntity
  8
0
100
AcDbBlockBegin
  2
*D13
 70
     1
 10
0.0
 20
0.0
 30
0.0
  3
*D13
  1

  0
INSERT
  5
24E
330
24B
100
AcDbEntity
  8
0
  6
Continuous
 62
     7
370
     0
100
AcDbBlockReference
  2
_OPEN30
 10
182.4097521548
 20
144.7135634907
 30
0.0
 41
3.0
 42
3.0
 50
90.0
  0
INSERT
  5
24F
330
24B
100
AcDbEntity
  8
0
  6
Continuous
 62
     7
370
     0
100
AcDbBlockReference
  2
_OPEN30
 10
182.4097521548
 20
118.7135634907
 30
0.0
 41
3.0
 42
3.0
 50
270.0
  0
LINE
  5
250
330
24B
100
AcDbEntity
  8
0
  6
Continuous
 62
     7
370
     0
100
AcDbLine
 10
167.3124064563
 20
144.7135634907
 30
0.0
 11
183.4097521548
 21
144.7135634907
 31
0.0
  0
LINE
  5
251
330
24B
100
AcDbEntity
  8
0
  6
Continuous
 62
     7
370
     0
100
AcDbLine
 10
167.3124064563
 20
118.7135634907
 30
0.0
 11
183.4097521548
 21
118.7135634907
 31
0.0
  0
LINE
  5
252
330
24B
100
AcDbEntity
  8
0
  6
Continuous
 62
     7
370
     0
100
AcDbLine
 10
182.4097521548
 20
144.7135634907
 30
0.0
 11
182.4097521548
 21
118.7135634907
 31
0.0
  0
MTEXT
  5
253
330
24B
100
AcDbEntity
  8
0
  6
Continuous
 62
     7
370
     0
100
AcDbMText
 10
177.8980152984
 20
129.6781476043
 30
0.0
 40
3.5
 41
0.0
 71
     1
 72
     1
  1
26
  7
SLDTEXTSTYLE0
 11
-6.156016597943509E-15
 21
1.0
 31
0.0
 73
     1
 44
1.0
  0
ENDBLK
  5
24D
330
24B
100
AcDbEntity
  8
0
100
AcDbBlockEnd
  0
BLOCK
  5
256
330
255
100
AcDbEntity
  8
0
100
AcDbBlockBegin
  2
*D14
 70
     1
 10
0.0
 20
0.0
 30
0.0
  3
*D14
  1

  0
INSERT
  5
258
330
255
100
AcDbEntity
  8
0
  6
Continuous
 62
     7
370
     0
100
AcDbBlockReference
  2
_OPEN30
 10
163.1967013007
 20
117.2280101207
 30
0.0
 41
3.0
 42
3.0
 50
134.9757199035
  0
LINE
  5
259
330
255
100
AcDbEntity
  8
0
  6
Continuous
 62
     7
370
     0
100
AcDbLine
 10
163.1967013007
 20
117.2280101207
 30
0.0
 11
174.5541321343
 21
105.8609493827
 31
0.0
  0
LINE
  5
25A
330
255
100
AcDbEntity
  8
0
  6
Continuous
 62
     7
370
     0
100
AcDbLine
 10
174.5541321343
 20
105.8609493827
 30
0.0
 11
187.4619863703
 21
105.8609493827
 31
0.0
  0
MTEXT
  5
25B
330
255
100
AcDbEntity
  8
0
  6
Continuous
 62
     7
370
     0
100
AcDbMText
 10
177.7291321343
 20
110.372686239
 30
0.0
 40
3.5
 41
0.0
 71
     1
 72
     1
  1
2-M5
  7
SLDTEXTSTYLE0
 73
     1
 44
1.0
  0
ENDBLK
  5
257
330
255
100
AcDbEntity
  8
0
100
AcDbBlockEnd
  0
BLOCK
  5
25D
330
25C
100
AcDbEntity
  8
0
100
AcDbBlockBegin
  2
SW_CENTERMARKSYMBOL_4
 70
     0
 10
0.0
 20
0.0
 30
0.0
  3
SW_CENTERMARKSYMBOL_4
  1

  0
LINE
  5
25F
330
25C
100
AcDbEntity
  8
0
  6
Continuous
 62
     0
370
     0
100
AcDbLine
 10
0.0
 20
0.0
 30
0.0
 11
0.0
 21
2.5
 31
0.0
  0
LINE
  5
260
330
25C
100
AcDbEntity
  8
0
  6
Continuous
 62
     0
370
     0
100
AcDbLine
 10
0.0
 20
0.0
 30
0.0
 11
-2.5
 21
0.0
 31
0.0
  0
LINE
  5
261
330
25C
100
AcDbEntity
  8
0
  6
Continuous
 62
     0
370
     0
100
AcDbLine
 10
0.0
 20
0.0
 30
0.0
 11
0.0
 21
-2.5
 31
0.0
  0
LINE
  5
262
330
25C
100
AcDbEntity
  8
0
  6
Continuous
 62
     0
370
     0
100
AcDbLine
 10
0.0
 20
0.0
 30
0.0
 11
2.5
 21
0.0
 31
0.0
  0
LINE
  5
263
330
25C
100
AcDbEntity
  8
0
  6
Continuous
 62
     0
370
     0
100
AcDbLine
 10
0.0
 20
5.0
 30
0.0
 11
0.0
 21
7.0766215
 31
0.0
  0
LINE
  5
264
330
25C
100
AcDbEntity
  8
0
  6
Continuous
 62
     0
370
     0
100
AcDbLine
 10
-5.0
 20
0.0
 30
0.0
 11
-7.0766215
 21
0.0
 31
0.0
  0
LINE
  5
265
330
25C
100
AcDbEntity
  8
0
  6
Continuous
 62
     0
370
     0
100
AcDbLine
 10
0.0
 20
-5.0
 30
0.0
 11
0.0
 21
-7.0766215
 31
0.0
  0
LINE
  5
266
330
25C
100
AcDbEntity
  8
0
  6
Continuous
 62
     0
370
     0
100
AcDbLine
 10
5.0
 20
0.0
 30
0.0
 11
7.0766215
 21
0.0
 31
0.0
  0
ENDBLK
  5
25E
330
25C
100
AcDbEntity
  8
0
100
AcDbBlockEnd
  0
BLOCK
  5
269
330
268
100
AcDbEntity
  8
0
100
AcDbBlockBegin
  2
SW_CENTERMARKSYMBOL_5
 70
     0
 10
0.0
 20
0.0
 30
0.0
  3
SW_CENTERMARKSYMBOL_5
  1

  0
LINE
  5
26B
330
268
100
AcDbEntity
  8
0
  6
Continuous
 62
     0
370
     0
100
AcDbLine
 10
0.0
 20
0.0
 30
0.0
 11
0.0
 21
2.5
 31
0.0
  0
LINE
  5
26C
330
268
100
AcDbEntity
  8
0
  6
Continuous
 62
     0
370
     0
100
AcDbLine
 10
0.0
 20
0.0
 30
0.0
 11
-2.5
 21
0.0
 31
0.0
  0
LINE
  5
26D
330
268
100
AcDbEntity
  8
0
  6
Continuous
 62
     0
370
     0
100
AcDbLine
 10
0.0
 20
0.0
 30
0.0
 11
0.0
 21
-2.5
 31
0.0
  0
LINE
  5
26E
330
268
100
AcDbEntity
  8
0
  6
Continuous
 62
     0
370
     0
100
AcDbLine
 10
0.0
 20
0.0
 30
0.0
 11
2.5
 21
0.0
 31
0.0
  0
LINE
  5
26F
330
268
100
AcDbEntity
  8
0
  6
Continuous
 62
     0
370
     0
100
AcDbLine
 10
0.0
 20
2.5
 30
0.0
 11
0.0
 21
4.6
 31
0.0
  0
LINE
  5
270
330
268
100
AcDbEntity
  8
0
  6
Continuous
 62
     0
370
     0
100
AcDbLine
 10
-2.5
 20
0.0
 30
0.0
 11
-4.6
 21
0.0
 31
0.0
  0
LINE
  5
271
330
268
100
AcDbEntity
  8
0
  6
Continuous
 62
     0
370
     0
100
AcDbLine
 10
0.0
 20
-2.5
 30
0.0
 11
0.0
 21
-4.6
 31
0.0
  0
LINE
  5
272
330
268
100
AcDbEntity
  8
0
  6
Continuous
 62
     0
370
     0
100
AcDbLine
 10
2.5
 20
0.0
 30
0.0
 11
4.6
 21
0.0
 31
0.0
  0
ENDBLK
  5
26A
330
268
100
AcDbEntity
  8
0
100
AcDbBlockEnd
  0
BLOCK
  5
275
330
274
100
AcDbEntity
  8
0
100
AcDbBlockBegin
  2
SW_CENTERMARKSYMBOL_6
 70
     0
 10
0.0
 20
0.0
 30
0.0
  3
SW_CENTERMARKSYMBOL_6
  1

  0
LINE
  5
277
330
274
100
AcDbEntity
  8
0
  6
Continuous
 62
     0
370
     0
100
AcDbLine
 10
0.0
 20
0.0
 30
0.0
 11
0.0
 21
2.5
 31
0.0
  0
LINE
  5
278
330
274
100
AcDbEntity
  8
0
  6
Continuous
 62
     0
370
     0
100
AcDbLine
 10
0.0
 20
0.0
 30
0.0
 11
-2.5
 21
0.0
 31
0.0
  0
LINE
  5
279
330
274
100
AcDbEntity
  8
0
  6
Continuous
 62
     0
370
     0
100
AcDbLine
 10
0.0
 20
0.0
 30
0.0
 11
0.0
 21
-2.5
 31
0.0
  0
LINE
  5
27A
330
274
100
AcDbEntity
  8
0
  6
Continuous
 62
     0
370
     0
100
AcDbLine
 10
0.0
 20
0.0
 30
0.0
 11
2.5
 21
0.0
 31
0.0
  0
LINE
  5
27B
330
274
100
AcDbEntity
  8
0
  6
Continuous
 62
     0
370
     0
100
AcDbLine
 10
0.0
 20
2.5
 30
0.0
 11
0.0
 21
4.6
 31
0.0
  0
LINE
  5
27C
330
274
100
AcDbEntity
  8
0
  6
Continuous
 62
     0
370
     0
100
AcDbLine
 10
-2.5
 20
0.0
 30
0.0
 11
-4.6
 21
0.0
 31
0.0
  0
LINE
  5
27D
330
274
100
AcDbEntity
  8
0
  6
Continuous
 62
     0
370
     0
100
AcDbLine
 10
0.0
 20
-2.5
 30
0.0
 11
0.0
 21
-4.6
 31
0.0
  0
LINE
  5
27E
330
274
100
AcDbEntity
  8
0
  6
Continuous
 62
     0
370
     0
100
AcDbLine
 10
2.5
 20
0.0
 30
0.0
 11
4.6
 21
0.0
 31
0.0
  0
ENDBLK
  5
276
330
274
100
AcDbEntity
  8
0
100
AcDbBlockEnd
  0
BLOCK
  5
2D1
330
2D0
100
AcDbEntity
  8
0
100
AcDbBlockBegin
  2
*D18
 70
     1
 10
0.0
 20
0.0
 30
0.0
  3
*D18
  1

  0
INSERT
  5
2D3
330
2D0
100
AcDbEntity
  8
0
  6
Continuous
 62
     7
370
     0
100
AcDbBlockReference
  2
_OPEN30
 10
36.0402143887
 20
138.7135634907
 30
0.0
 41
3.0
 42
3.0
 50
270.0
  0
INSERT
  5
2D4
330
2D0
100
AcDbEntity
  8
0
  6
Continuous
 62
     7
370
     0
100
AcDbBlockReference
  2
_OPEN30
 10
36.0402143887
 20
124.7135634907
 30
0.0
 41
3.0
 42
3.0
 50
90.0
  0
LINE
  5
2D5
330
2D0
100
AcDbEntity
  8
0
  6
Continuous
 62
     7
370
     0
100
AcDbLine
 10
44.8597811847
 20
138.7135634907
 30
0.0
 11
35.0402143887
 21
138.7135634907
 31
0.0
  0
LINE
  5
2D6
330
2D0
100
AcDbEntity
  8
0
  6
Continuous
 62
     7
370
     0
100
AcDbLine
 10
44.8597811847
 20
124.7135634907
 30
0.0
 11
35.0402143887
 21
124.7135634907
 31
0.0
  0
LINE
  5
2D7
330
2D0
100
AcDbEntity
  8
0
  6
Continuous
 62
     7
370
     0
100
AcDbLine
 10
36.0402143887
 20
138.7135634907
 30
0.0
 11
36.0402143887
 21
143.7135634907
 31
0.0
  0
LINE
  5
2D8
330
2D0
100
AcDbEntity
  8
0
  6
Continuous
 62
     7
370
     0
100
AcDbLine
 10
36.0402143887
 20
138.7135634907
 30
0.0
 11
36.0402143887
 21
124.7135634907
 31
0.0
  0
LINE
  5
2D9
330
2D0
100
AcDbEntity
  8
0
  6
Continuous
 62
     7
370
     0
100
AcDbLine
 10
36.0402143887
 20
124.7135634907
 30
0.0
 11
36.0402143887
 21
119.7135634907
 31
0.0
  0
MTEXT
  5
2DA
330
2D0
100
AcDbEntity
  8
0
  6
Continuous
 62
     7
370
     0
100
AcDbMText
 10
31.5284775323
 20
129.6781476043
 30
0.0
 40
3.5
 41
0.0
 71
     1
 72
     1
  1
14
  7
SLDTEXTSTYLE0
 11
-7.044195017643634E-15
 21
1.0
 31
0.0
 73
     1
 44
1.0
  0
ENDBLK
  5
2D2
330
2D0
100
AcDbEntity
  8
0
100
AcDbBlockEnd
  0
BLOCK
  5
2DE
330
2DD
100
AcDbEntity
  8
0
100
AcDbBlockBegin
  2
*D19
 70
     1
 10
0.0
 20
0.0
 30
0.0
  3
*D19
  1

  0
INSERT
  5
2E0
330
2DD
100
AcDbEntity
  8
0
  6
Continuous
 62
     7
370
     0
100
AcDbBlockReference
  2
_OPEN30
 10
29.7517396321
 20
101.4135634907
 30
0.0
 41
3.0
 42
3.0
 50
270.0
  0
INSERT
  5
2E1
330
2DD
100
AcDbEntity
  8
0
  6
Continuous
 62
     7
370
     0
100
AcDbBlockReference
  2
_OPEN30
 10
29.7517396321
 20
164.3135634907
 30
0.0
 41
3.0
 42
3.0
 50
90.0
  0
LINE
  5
2E2
330
2DD
100
AcDbEntity
  8
0
  6
Continuous
 62
     7
370
     0
100
AcDbLine
 10
51.9364026847
 20
101.4135634907
 30
0.0
 11
28.7517396321
 21
101.4135634907
 31
0.0
  0
LINE
  5
2E3
330
2DD
100
AcDbEntity
  8
0
  6
Continuous
 62
     7
370
     0
100
AcDbLine
 10
51.9364026847
 20
164.3135634907
 30
0.0
 11
28.7517396321
 21
164.3135634907
 31
0.0
  0
LINE
  5
2E4
330
2DD
100
AcDbEntity
  8
0
  6
Continuous
 62
     7
370
     0
100
AcDbLine
 10
29.7517396321
 20
101.4135634907
 30
0.0
 11
29.7517396321
 21
164.3135634907
 31
0.0
  0
MTEXT
  5
2E5
330
2DD
100
AcDbEntity
  8
0
  6
Continuous
 62
     7
370
     0
100
AcDbMText
 10
25.2400027757
 20
130.8281476043
 30
0.0
 40
3.5
 41
0.0
 71
     1
 72
     1
  1
63
  7
SLDTEXTSTYLE0
 11
1.615544574432587E-15
 21
1.0
 31
0.0
 73
     1
 44
1.0
  0
ENDBLK
  5
2DF
330
2DD
100
AcDbEntity
  8
0
100
AcDbBlockEnd
  0
BLOCK
  5
2E8
330
2E7
100
AcDbEntity
  8
0
100
AcDbBlockBegin
  2
*D20
 70
     1
 10
0.0
 20
0.0
 30
0.0
  3
*D20
  1

  0
INSERT
  5
2EA
330
2E7
100
AcDbEntity
  8
0
  6
Continuous
 62
     7
370
     0
100
AcDbBlockReference
  2
_OPEN30
 10
44.6864026847
 20
178.8090631705
 30
0.0
 41
3.0
 42
3.0
 50
0.0
  0
INSERT
  5
2EB
330
2E7
100
AcDbEntity
  8
0
  6
Continuous
 62
     7
370
     0
100
AcDbBlockReference
  2
_OPEN30
 10
61.1864026847
 20
178.8090631705
 30
0.0
 41
3.0
 42
3.0
 50
180.0
  0
LINE
  5
2EC
330
2E7
100
AcDbEntity
  8
0
  6
Continuous
 62
     7
370
     0
100
AcDbLine
 10
44.6864026847
 20
152.2135634907
 30
0.0
 11
44.6864026847
 21
179.8090631705
 31
0.0
  0
LINE
  5
2ED
330
2E7
100
AcDbEntity
  8
0
  6
Continuous
 62
     7
370
     0
100
AcDbLine
 10
61.1864026847
 20
152.2135634907
 30
0.0
 11
61.1864026847
 21
179.8090631705
 31
0.0
  0
LINE
  5
2EE
330
2E7
100
AcDbEntity
  8
0
  6
Continuous
 62
     7
370
     0
100
AcDbLine
 10
44.6864026847
 20
178.8090631705
 30
0.0
 11
39.6864026847
 21
178.8090631705
 31
0.0
  0
LINE
  5
2EF
330
2E7
100
AcDbEntity
  8
0
  6
Continuous
 62
     7
370
     0
100
AcDbLine
 10
44.6864026847
 20
178.8090631705
 30
0.0
 11
61.1864026847
 21
178.8090631705
 31
0.0
  0
LINE
  5
2F0
330
2E7
100
AcDbEntity
  8
0
  6
Continuous
 62
     7
370
     0
100
AcDbLine
 10
61.1864026847
 20
178.8090631705
 30
0.0
 11
66.1864026847
 21
178.8090631705
 31
0.0
  0
MTEXT
  5
2F1
330
2E7
100
AcDbEntity
  8
0
  6
Continuous
 62
     7
370
     0
100
AcDbMText
 10
48.8637255667
 20
183.3208000269
 30
0.0
 40
3.5
 41
0.0
 71
     1
 72
     1
  1
16.5
  7
SLDTEXTSTYLE0
 73
     1
 44
1.0
  0
ENDBLK
  5
2E9
330
2E7
100
AcDbEntity
  8
0
100
AcDbBlockEnd
  0
BLOCK
  5
2F4
330
2F3
100
AcDbEntity
  8
0
100
AcDbBlockBegin
  2
*D21
 70
     1
 10
0.0
 20
0.0
 30
0.0
  3
*D21
  1

  0
INSERT
  5
2F6
330
2F3
100
AcDbEntity
  8
0
  6
Continuous
 62
     7
370
     0
100
AcDbBlockReference
  2
_OPEN30
 10
55.224299408
 20
142.6772729828
 30
0.0
 41
3.0
 42
3.0
 50
240.0059849744
  0
LINE
  5
2F7
330
2F3
100
AcDbEntity
  8
0
  6
Continuous
 62
     7
370
     0
100
AcDbLine
 10
55.224299408
 20
142.6772729828
 30
0.0
 11
71.1352161064
 21
170.2424383614
 31
0.0
  0
LINE
  5
2F8
330
2F3
100
AcDbEntity
  8
0
  6
Continuous
 62
     7
370
     0
100
AcDbLine
 10
71.1352161064
 20
170.2424383614
 30
0.0
 11
92.1921152691
 21
170.2424383614
 31
0.0
  0
MTEXT
  5
2F9
330
2F3
100
AcDbEntity
  8
0
  6
Continuous
 62
     7
370
     0
100
AcDbMText
 10
74.3102161064
 20
174.7541752177
 30
0.0
 40
3.5
 41
0.0
 71
     1
 72
     1
  1
2-PT 1/8
  7
SLDTEXTSTYLE0
 73
     1
 44
1.0
  0
ENDBLK
  5
2F5
330
2F3
100
AcDbEntity
  8
0
100
AcDbBlockEnd
  0
BLOCK
  5
2FB
330
2FA
100
AcDbEntity
  8
0
100
AcDbBlockBegin
  2
SW_CENTERMARKSYMBOL_7
 70
     0
 10
0.0
 20
0.0
 30
0.0
  3
SW_CENTERMARKSYMBOL_7
  1

  0
LINE
  5
2FD
330
2FA
100
AcDbEntity
  8
0
  6
Continuous
 62
     0
370
     0
100
AcDbLine
 10
0.0
 20
0.0
 30
0.0
 11
0.0
 21
2.5
 31
0.0
  0
LINE
  5
2FE
330
2FA
100
AcDbEntity
  8
0
  6
Continuous
 62
     0
370
     0
100
AcDbLine
 10
0.0
 20
0.0
 30
0.0
 11
-2.5
 21
0.0
 31
0.0
  0
LINE
  5
2FF
330
2FA
100
AcDbEntity
  8
0
  6
Continuous
 62
     0
370
     0
100
AcDbLine
 10
0.0
 20
0.0
 30
0.0
 11
0.0
 21
-2.5
 31
0.0
  0
LINE
  5
300
330
2FA
100
AcDbEntity
  8
0
  6
Continuous
 62
     0
370
     0
100
AcDbLine
 10
0.0
 20
0.0
 30
0.0
 11
2.5
 21
0.0
 31
0.0
  0
LINE
  5
301
330
2FA
100
AcDbEntity
  8
0
  6
Continuous
 62
     0
370
     0
100
AcDbLine
 10
0.0
 20
5.0
 30
0.0
 11
0.0
 21
7.0766215
 31
0.0
  0
LINE
  5
302
330
2FA
100
AcDbEntity
  8
0
  6
Continuous
 62
     0
370
     0
100
AcDbLine
 10
-5.0
 20
0.0
 30
0.0
 11
-7.0766215
 21
0.0
 31
0.0
  0
LINE
  5
303
330
2FA
100
AcDbEntity
  8
0
  6
Continuous
 62
     0
370
     0
100
AcDbLine
 10
0.0
 20
-5.0
 30
0.0
 11
0.0
 21
-7.0766215
 31
0.0
  0
LINE
  5
304
330
2FA
100
AcDbEntity
  8
0
  6
Continuous
 62
     0
370
     0
100
AcDbLine
 10
5.0
 20
0.0
 30
0.0
 11
7.0766215
 21
0.0
 31
0.0
  0
ENDBLK
  5
2FC
330
2FA
100
AcDbEntity
  8
0
100
AcDbBlockEnd
  0
BLOCK
  5
307
330
306
100
AcDbEntity
  8
0
100
AcDbBlockBegin
  2
SW_CENTERMARKSYMBOL_8
 70
     0
 10
0.0
 20
0.0
 30
0.0
  3
SW_CENTERMARKSYMBOL_8
  1

  0
LINE
  5
309
330
306
100
AcDbEntity
  8
0
  6
Continuous
 62
     0
370
     0
100
AcDbLine
 10
0.0
 20
0.0
 30
0.0
 11
0.0
 21
2.5
 31
0.0
  0
LINE
  5
30A
330
306
100
AcDbEntity
  8
0
  6
Continuous
 62
     0
370
     0
100
AcDbLine
 10
0.0
 20
0.0
 30
0.0
 11
-2.5
 21
0.0
 31
0.0
  0
LINE
  5
30B
330
306
100
AcDbEntity
  8
0
  6
Continuous
 62
     0
370
     0
100
AcDbLine
 10
0.0
 20
0.0
 30
0.0
 11
0.0
 21
-2.5
 31
0.0
  0
LINE
  5
30C
330
306
100
AcDbEntity
  8
0
  6
Continuous
 62
     0
370
     0
100
AcDbLine
 10
0.0
 20
0.0
 30
0.0
 11
2.5
 21
0.0
 31
0.0
  0
LINE
  5
30D
330
306
100
AcDbEntity
  8
0
  6
Continuous
 62
     0
370
     0
100
AcDbLine
 10
0.0
 20
5.0
 30
0.0
 11
0.0
 21
7.0766215
 31
0.0
  0
LINE
  5
30E
330
306
100
AcDbEntity
  8
0
  6
Continuous
 62
     0
370
     0
100
AcDbLine
 10
-5.0
 20
0.0
 30
0.0
 11
-7.0766215
 21
0.0
 31
0.0
  0
LINE
  5
30F
330
306
100
AcDbEntity
  8
0
  6
Continuous
 62
     0
370
     0
100
AcDbLine
 10
0.0
 20
-5.0
 30
0.0
 11
0.0
 21
-7.0766215
 31
0.0
  0
LINE
  5
310
330
306
100
AcDbEntity
  8
0
  6
Continuous
 62
     0
370
     0
100
AcDbLine
 10
5.0
 20
0.0
 30
0.0
 11
7.0766215
 21
0.0
 31
0.0
  0
ENDBLK
  5
308
330
306
100
AcDbEntity
  8
0
100
AcDbBlockEnd
  0
ENDSEC
  0
SECTION
  2
ENTITIES
  0
LINE
  5
44
330
1F
100
AcDbEntity
  8
0
  6
Continuous
 62
     7
370
     0
100
AcDbLine
 10
20.2604743903
 20
285.0
 30
0.0
 11
196.7604743903
 21
285.0
 31
0.0
  0
LINE
  5
45
330
1F
100
AcDbEntity
  8
0
  6
Continuous
 62
     7
370
     0
100
AcDbLine
 10
20.2604743903
 20
285.0
 30
0.0
 11
20.2604743903
 21
10.0
 31
0.0
  0
LINE
  5
46
330
1F
100
AcDbEntity
  8
0
  6
Continuous
 62
     7
370
     0
100
AcDbLine
 10
20.2604743903
 20
10.0
 30
0.0
 11
196.7604743903
 21
10.0
 31
0.0
  0
LINE
  5
47
330
1F
100
AcDbEntity
  8
0
  6
Continuous
 62
     7
370
     0
100
AcDbLine
 10
196.7604743903
 20
285.0
 30
0.0
 11
196.7604743903
 21
10.0
 31
0.0
  0
LINE
  5
48
330
1F
100
AcDbEntity
  8
0
  6
Continuous
 62
     7
370
     0
100
AcDbLine
 10
127.0104743903
 20
50.75
 30
0.0
 11
196.7604743903
 21
50.75
 31
0.0
  0
LINE
  5
49
330
1F
100
AcDbEntity
  8
0
  6
Continuous
 62
     7
370
     0
100
AcDbLine
 10
127.0104743903
 20
50.75
 30
0.0
 11
127.0104743903
 21
10.0
 31
0.0
  0
LINE
  5
4A
330
1F
100
AcDbEntity
  8
0
  6
Continuous
 62
     7
370
     0
100
AcDbLine
 10
127.0104743903
 20
22.75
 30
0.0
 11
196.7604743903
 21
22.75
 31
0.0
  0
LINE
  5
4B
330
1F
100
AcDbEntity
  8
0
  6
Continuous
 62
     7
370
     0
100
AcDbLine
 10
127.0104743903
 20
36.75
 30
0.0
 11
196.7604743903
 21
36.75
 31
0.0
  0
MTEXT
  5
6F
330
1F
100
AcDbEntity
  8
0
  6
Continuous
 62
     7
370
     0
100
AcDbMText
 10
155.4492362309
 20
30.4171580599
 30
0.0
 40
4.2333333333
 41
0.0
 71
     1
 72
     1
  1
PBW1-E
  7
SLDTEXTSTYLE0
 73
     1
 44
1.0
  0
MTEXT
  5
70
330
1F
100
AcDbEntity
  8
0
  6
Continuous
 62
     7
370
     0
100
AcDbMText
 10
148.0929392039
 20
43.9409718514
 30
0.0
 40
4.2333333333
 41
0.0
 71
     1
 72
     1
  1
手動押ボタン
  7
SLDTEXTSTYLE0
 73
     1
 44
1.0
  0
MTEXT
  5
71
330
1F
100
AcDbEntity
  8
0
  6
Continuous
 62
     7
370
     0
100
AcDbMText
 10
155.44115512
 20
16.8228189052
 30
0.0
 40
4.2333333333
 41
0.0
 71
     1
 72
     1
  1
152306
  7
SLDTEXTSTYLE0
 73
     1
 44
1.0
  0
CIRCLE
  5
72
330
1F
100
AcDbEntity
  8
0
  6
Continuous
 62
     7
370
     0
100
AcDbCircle
 10
108.9570227665
 20
219.3718032288
 30
0.0
 40
5.499999999999983
  0
CIRCLE
  5
73
330
1F
100
AcDbEntity
  8
0
  6
Continuous
 62
     7
370
     0
100
AcDbCircle
 10
108.9570227665
 20
219.3718032288
 30
0.0
 40
5.999999999999998
  0
CIRCLE
  5
74
330
1F
100
AcDbEntity
  8
0
  6
Continuous
 62
     7
370
     0
100
AcDbCircle
 10
108.9570227665
 20
219.3718032288
 30
0.0
 40
7.599999999999996
  0
LINE
  5
75
330
1F
100
AcDbEntity
  8
0
  6
Continuous
 62
     7
370
     0
100
AcDbLine
 10
115.1595282023
 20
216.6052298928
 30
0.0
 11
115.6155437817
 21
218.0342327412
 31
0.0
  0
LINE
  5
76
330
1F
100
AcDbEntity
  8
0
  6
Continuous
 62
     7
370
     0
100
AcDbLine
 10
115.6155437817
 20
218.0342327412
 30
0.0
 11
114.9522176599
 21
218.245909906
 31
0.0
  0
ARC
  5
77
330
1F
100
AcDbEntity
  8
0
  6
Continuous
 62
     7
370
     0
100
AcDbCircle
 10
108.9570227665
 20
219.3718032288
 30
0.0
 40
6.100000000000003
100
AcDbArc
 50
349.363780664
 51
11.2389135565
  0
LINE
  5
78
330
1F
100
AcDbEntity
  8
0
  6
Continuous
 62
     7
370
     0
100
AcDbLine
 10
115.6011059535
 20
220.7793394411
 30
0.0
 11
115.1300839735
 21
222.2034664666
 31
0.0
  0
LINE
  5
79
330
1F
100
AcDbEntity
  8
0
  6
Continuous
 62
     7
370
     0
100
AcDbLine
 10
113.0985737433
 20
223.8503691117
 30
0.0
 11
113.5048702014
 21
224.4158178875
 31
0.0
  0
LINE
  5
7A
330
1F
100
AcDbEntity
  8
0
  6
Continuous
 62
     7
370
     0
100
AcDbLine
 10
113.5048702014
 20
224.4158178875
 30
0.0
 11
112.2867240226
 21
225.2911013859
 31
0.0
  0
LINE
  5
7B
330
1F
100
AcDbEntity
  8
0
  6
Continuous
 62
     7
370
     0
100
AcDbLine
 10
112.2867240226
 20
225.2911013859
 30
0.0
 11
111.8804280301
 21
224.72565261
 31
0.0
  0
LINE
  5
7C
330
1F
100
AcDbEntity
  8
0
  6
Continuous
 62
     7
370
     0
100
AcDbLine
 10
105.9774631755
 20
224.694605575
 30
0.0
 11
105.5652416432
 21
225.2557493122
 31
0.0
  0
LINE
  5
7D
330
1F
100
AcDbEntity
  8
0
  6
Continuous
 62
     7
370
     0
100
AcDbLine
 10
104.356370273
 20
224.3677011067
 30
0.0
 11
104.7685913397
 21
223.8065573694
 31
0.0
  0
ARC
  5
7E
330
1F
100
AcDbEntity
  8
0
  6
Continuous
 62
     7
370
     0
100
AcDbCircle
 10
108.9570227665
 20
219.3718032288
 30
0.0
 40
6.100000000000033
100
AcDbArc
 50
133.363780664
 51
155.2389135565
  0
LINE
  5
7F
330
1F
100
AcDbEntity
  8
0
  6
Continuous
 62
     7
370
     0
100
AcDbLine
 10
103.4178434526
 20
221.9266995164
 30
0.0
 11
102.7545173308
 21
222.1383765647
 31
0.0
  0
LINE
  5
80
330
1F
100
AcDbEntity
  8
0
  6
Continuous
 62
     7
370
     0
100
AcDbLine
 10
102.7545173308
 20
222.1383765647
 30
0.0
 11
102.2985017513
 21
220.7093737163
 31
0.0
  0
LINE
  5
81
330
1F
100
AcDbEntity
  8
0
  6
Continuous
 62
     7
370
     0
100
AcDbLine
 10
102.9740025876
 20
218.182909892
 30
0.0
 11
102.3129395796
 21
217.9642670164
 31
0.0
  0
LINE
  5
82
330
1F
100
AcDbEntity
  8
0
  6
Continuous
 62
     7
370
     0
100
AcDbLine
 10
102.3129395796
 20
217.9642670164
 30
0.0
 11
102.7839615596
 21
216.5401399909
 31
0.0
  0
LINE
  5
83
330
1F
100
AcDbEntity
  8
0
  6
Continuous
 62
     7
370
     0
100
AcDbLine
 10
102.7839615596
 20
216.5401399909
 30
0.0
 11
103.4450245676
 21
216.7587828664
 31
0.0
  0
LINE
  5
84
330
1F
100
AcDbEntity
  8
0
  6
Continuous
 62
     7
370
     0
100
AcDbLine
 10
104.8154717898
 20
214.8932373459
 30
0.0
 11
104.4091753317
 21
214.32778857
 31
0.0
  0
LINE
  5
85
330
1F
100
AcDbEntity
  8
0
  6
Continuous
 62
     7
370
     0
100
AcDbLine
 10
104.4091753317
 20
214.32778857
 30
0.0
 11
105.6273215105
 21
213.4525050717
 31
0.0
  0
LINE
  5
86
330
1F
100
AcDbEntity
  8
0
  6
Continuous
 62
     7
370
     0
100
AcDbLine
 10
108.2388725369
 20
213.3142246241
 30
0.0
 11
108.2425346137
 21
212.6179520348
 31
0.0
  0
LINE
  5
87
330
1F
100
AcDbEntity
  8
0
  6
Continuous
 62
     7
370
     0
100
AcDbLine
 10
108.2425346137
 20
212.6179520348
 30
0.0
 11
109.7425138466
 21
212.6258412684
 31
0.0
  0
LINE
  5
88
330
1F
100
AcDbEntity
  8
0
  6
Continuous
 62
     7
370
     0
100
AcDbLine
 10
109.7425138466
 20
212.6258412684
 30
0.0
 11
109.7388517698
 21
213.3221138576
 31
0.0
  0
LINE
  5
89
330
1F
100
AcDbEntity
  8
0
  6
Continuous
 62
     7
370
     0
100
AcDbLine
 10
111.9365823576
 20
214.0490008826
 30
0.0
 11
112.3488038899
 21
213.4878571453
 31
0.0
  0
LINE
  5
8A
330
1F
100
AcDbEntity
  8
0
  6
Continuous
 62
     7
370
     0
100
AcDbLine
 10
113.5576752601
 20
214.3759053508
 30
0.0
 11
113.1454541934
 21
214.9370490881
 31
0.0
  0
LINE
  5
8B
330
1F
100
AcDbEntity
  8
0
  6
Continuous
 62
     7
370
     0
100
AcDbLine
 10
114.4962020805
 20
216.8169069411
 30
0.0
 11
115.1595282023
 21
216.6052298928
 31
0.0
  0
LINE
  5
8C
330
1F
100
AcDbEntity
  8
0
  6
Continuous
 62
     7
370
     0
100
AcDbLine
 10
105.5652416432
 20
225.2557493122
 30
0.0
 11
104.356370273
 21
224.3677011067
 31
0.0
  0
LINE
  5
8D
330
1F
100
AcDbEntity
  8
0
  6
Continuous
 62
     7
370
     0
100
AcDbLine
 10
109.6751729962
 20
225.4293818334
 30
0.0
 11
109.6715109194
 21
226.1256544227
 31
0.0
  0
LINE
  5
8E
330
1F
100
AcDbEntity
  8
0
  6
Continuous
 62
     7
370
     0
100
AcDbLine
 10
108.1715316865
 20
226.1177651892
 30
0.0
 11
108.1751937633
 21
225.4214925999
 31
0.0
  0
LINE
  5
8F
330
1F
100
AcDbEntity
  8
0
  6
Continuous
 62
     7
370
     0
100
AcDbLine
 10
109.6715109194
 20
226.1256544227
 30
0.0
 11
108.1715316865
 21
226.1177651892
 31
0.0
  0
ARC
  5
90
330
1F
100
AcDbEntity
  8
0
  6
Continuous
 62
     7
370
     0
100
AcDbCircle
 10
108.9570227665
 20
219.3718032288
 30
0.0
 40
6.10000000000001
100
AcDbArc
 50
61.363780664
 51
83.2389135565
  0
ARC
  5
91
330
1F
100
AcDbEntity
  8
0
  6
Continuous
 62
     7
370
     0
100
AcDbCircle
 10
108.9570227665
 20
219.3718032288
 30
0.0
 40
6.100000000000005
100
AcDbArc
 50
97.363780664
 51
119.2389135565
  0
LINE
  5
92
330
1F
100
AcDbEntity
  8
0
  6
Continuous
 62
     7
370
     0
100
AcDbLine
 10
115.1300839735
 20
222.2034664666
 30
0.0
 11
114.4690209655
 21
221.9848235911
 31
0.0
  0
ARC
  5
93
330
1F
100
AcDbEntity
  8
0
  6
Continuous
 62
     7
370
     0
100
AcDbCircle
 10
108.9570227665
 20
219.3718032288
 30
0.0
 40
6.100000000000017
100
AcDbArc
 50
169.363780664
 51
191.2389135565
  0
LINE
  5
94
330
1F
100
AcDbEntity
  8
0
  6
Continuous
 62
     7
370
     0
100
AcDbLine
 10
114.9400429455
 20
220.5606965656
 30
0.0
 11
115.6011059535
 21
220.7793394411
 31
0.0
  0
LINE
  5
95
330
1F
100
AcDbEntity
  8
0
  6
Continuous
 62
     7
370
     0
100
AcDbLine
 10
102.2985017513
 20
220.7093737163
 30
0.0
 11
102.9618278732
 21
220.4976965515
 31
0.0
  0
ARC
  5
96
330
1F
100
AcDbEntity
  8
0
  6
Continuous
 62
     7
370
     0
100
AcDbCircle
 10
108.9570227665
 20
219.3718032288
 30
0.0
 40
6.100000000000001
100
AcDbArc
 50
277.363780664
 51
299.2389135565
  0
ARC
  5
97
330
1F
100
AcDbEntity
  8
0
  6
Continuous
 62
     7
370
     0
100
AcDbCircle
 10
108.9570227665
 20
219.3718032288
 30
0.0
 40
6.100000000000008
100
AcDbArc
 50
313.363780664
 51
335.2389135565
  0
LINE
  5
98
330
1F
100
AcDbEntity
  8
0
  6
Continuous
 62
     7
370
     0
100
AcDbLine
 10
105.6273215105
 20
213.4525050717
 30
0.0
 11
106.033617503
 21
214.0179538476
 31
0.0
  0
LINE
  5
99
330
1F
100
AcDbEntity
  8
0
  6
Continuous
 62
     7
370
     0
100
AcDbLine
 10
112.3488038899
 20
213.4878571453
 30
0.0
 11
113.5576752601
 21
214.3759053508
 31
0.0
  0
ARC
  5
9A
330
1F
100
AcDbEntity
  8
0
  6
Continuous
 62
     7
370
     0
100
AcDbCircle
 10
108.9570227665
 20
219.3718032288
 30
0.0
 40
6.10000000000001
100
AcDbArc
 50
241.363780664
 51
263.2389135565
  0
ARC
  5
9B
330
1F
100
AcDbEntity
  8
0
  6
Continuous
 62
     7
370
     0
100
AcDbCircle
 10
108.9570227665
 20
219.3718032288
 30
0.0
 40
6.100000000000012
100
AcDbArc
 50
25.363780664
 51
47.2389135565
  0
ARC
  5
9C
330
1F
100
AcDbEntity
  8
0
  6
Continuous
 62
     7
370
     0
100
AcDbCircle
 10
108.9570227665
 20
219.3718032288
 30
0.0
 40
6.100000000000012
100
AcDbArc
 50
205.363780664
 51
227.2389135565
  0
CIRCLE
  5
9D
330
1F
100
AcDbEntity
  8
0
  6
Continuous
 62
     7
370
     0
100
AcDbCircle
 10
108.9570227665
 20
219.3718032288
 30
0.0
 40
4.570000000000014
  0
CIRCLE
  5
9E
330
1F
100
AcDbEntity
  8
0
  6
Continuous
 62
     7
370
     0
100
AcDbCircle
 10
108.9570227665
 20
219.3718032288
 30
0.0
 40
5.250000000000015
  0
LINE
  5
9F
330
1F
100
AcDbEntity
  8
0
  6
Continuous
 62
     7
370
     0
100
AcDbLine
 10
123.9570224313
 20
226.6218030201
 30
0.0
 11
123.9570224313
 21
212.1218034374
 31
0.0
  0
LINE
  5
A0
330
1F
100
AcDbEntity
  8
0
  6
Continuous
 62
     7
370
     0
100
AcDbLine
 10
123.9570224313
 20
212.1218034374
 30
0.0
 11
123.207022774
 21
211.3718028488
 31
0.0
  0
LINE
  5
A1
330
1F
100
AcDbEntity
  8
0
  6
Continuous
 62
     7
370
     0
100
AcDbLine
 10
122.9570231987
 20
211.6218033554
 30
0.0
 11
123.207022774
 21
211.3718028488
 31
0.0
  0
LINE
  5
A2
330
1F
100
AcDbEntity
  8
0
  6
Continuous
 62
     7
370
     0
100
AcDbLine
 10
122.9570231987
 20
211.6218033554
 30
0.0
 11
122.9570231987
 21
227.1218031021
 31
0.0
  0
LINE
  5
A3
330
1F
100
AcDbEntity
  8
0
  6
Continuous
 62
     7
370
     0
100
AcDbLine
 10
123.207022774
 20
227.3718036087
 30
0.0
 11
122.9570231987
 21
227.1218031021
 31
0.0
  0
LINE
  5
A4
330
1F
100
AcDbEntity
  8
0
  6
Continuous
 62
     7
370
     0
100
AcDbLine
 10
123.207022774
 20
227.3718036087
 30
0.0
 11
123.9570224313
 21
226.6218030201
 31
0.0
  0
LINE
  5
A5
330
1F
100
AcDbEntity
  8
0
  6
Continuous
 62
     7
370
     0
100
AcDbLine
 10
94.7070227591
 20
211.3718028488
 30
0.0
 11
94.9570223344
 21
211.6218033554
 31
0.0
  0
LINE
  5
A6
330
1F
100
AcDbEntity
  8
0
  6
Continuous
 62
     7
370
     0
100
AcDbLine
 10
94.7070227591
 20
211.3718028488
 30
0.0
 11
93.9570231018
 21
212.1218034374
 31
0.0
  0
LINE
  5
A7
330
1F
100
AcDbEntity
  8
0
  6
Continuous
 62
     7
370
     0
100
AcDbLine
 10
93.9570231018
 20
212.1218034374
 30
0.0
 11
93.9570231018
 21
226.6218030201
 31
0.0
  0
LINE
  5
A8
330
1F
100
AcDbEntity
  8
0
  6
Continuous
 62
     7
370
     0
100
AcDbLine
 10
93.9570231018
 20
226.6218030201
 30
0.0
 11
94.7070227591
 21
227.3718036087
 31
0.0
  0
LINE
  5
A9
330
1F
100
AcDbEntity
  8
0
  6
Continuous
 62
     7
370
     0
100
AcDbLine
 10
94.9570223344
 20
227.1218031021
 30
0.0
 11
94.7070227591
 21
227.3718036087
 31
0.0
  0
LINE
  5
AA
330
1F
100
AcDbEntity
  8
0
  6
Continuous
 62
     7
370
     0
100
AcDbLine
 10
94.9570223344
 20
227.1218031021
 30
0.0
 11
94.9570223344
 21
211.6218033554
 31
0.0
  0
LINE
  5
AB
330
1F
100
AcDbEntity
  8
0
  6
Continuous
 62
     7
370
     0
100
AcDbLine
 10
94.9570223344
 20
211.6218033554
 30
0.0
 11
122.9570231987
 21
211.6218033554
 31
0.0
  0
LINE
  5
AC
330
1F
100
AcDbEntity
  8
0
  6
Continuous
 62
     7
370
     0
100
AcDbLine
 10
123.207022774
 20
211.3718028488
 30
0.0
 11
122.9570231987
 21
211.1218032735
 31
0.0
  0
LINE
  5
AD
330
1F
100
AcDbEntity
  8
0
  6
Continuous
 62
     7
370
     0
100
AcDbLine
 10
122.9570231987
 20
211.1218032735
 30
0.0
 11
94.9570223344
 21
211.1218032735
 31
0.0
  0
LINE
  5
AE
330
1F
100
AcDbEntity
  8
0
  6
Continuous
 62
     7
370
     0
100
AcDbLine
 10
94.9570223344
 20
211.1218032735
 30
0.0
 11
94.7070227591
 21
211.3718028488
 31
0.0
  0
LINE
  5
AF
330
1F
100
AcDbEntity
  8
0
  6
Continuous
 62
     7
370
     0
100
AcDbLine
 10
122.9570231987
 20
227.1218031021
 30
0.0
 11
94.9570223344
 21
227.1218031021
 31
0.0
  0
LINE
  5
B0
330
1F
100
AcDbEntity
  8
0
  6
Continuous
 62
     7
370
     0
100
AcDbLine
 10
94.7070227591
 20
227.3718036087
 30
0.0
 11
94.9570223344
 21
227.6218031841
 31
0.0
  0
LINE
  5
B1
330
1F
100
AcDbEntity
  8
0
  6
Continuous
 62
     7
370
     0
100
AcDbLine
 10
94.9570223344
 20
227.6218031841
 30
0.0
 11
122.9570231987
 21
227.6218031841
 31
0.0
  0
LINE
  5
B2
330
1F
100
AcDbEntity
  8
0
  6
Continuous
 62
     7
370
     0
100
AcDbLine
 10
122.9570231987
 20
227.6218031841
 30
0.0
 11
123.207022774
 21
227.3718036087
 31
0.0
  0
INSERT
  5
BE
330
1F
100
AcDbEntity
  8
0
  6
Continuous
 62
     7
370
     0
100
AcDbBlockReference
  2
SW_CENTERMARKSYMBOL_0
 10
108.9570227665
 20
219.3718032288
 30
0.0
  0
LINE
  5
BF
330
1F
100
AcDbEntity
  8
0
  6
Continuous
 62
     7
370
     0
100
AcDbLine
 10
114.9570228187
 20
152.9135642834
 30
0.0
 11
114.9570228187
 21
158.4135642536
 31
0.0
  0
LINE
  5
C0
330
1F
100
AcDbEntity
  8
0
  6
Continuous
 62
     7
370
     0
100
AcDbLine
 10
102.9570227144
 20
158.4135642536
 30
0.0
 11
102.9570227144
 21
152.9135642834
 31
0.0
  0
LINE
  5
C1
330
1F
100
AcDbEntity
  8
0
  6
Continuous
 62
     7
370
     0
100
AcDbLine
 10
114.9570228187
 20
158.4135642536
 30
0.0
 11
114.4570227367
 21
158.9135652669
 31
0.0
  0
LINE
  5
C2
330
1F
100
AcDbEntity
  8
0
  6
Continuous
 62
     7
370
     0
100
AcDbLine
 10
103.4570227963
 20
158.9135652669
 30
0.0
 11
102.9570227144
 21
158.4135642536
 31
0.0
  0
LINE
  5
C3
330
1F
100
AcDbEntity
  8
0
  6
Continuous
 62
     7
370
     0
100
AcDbLine
 10
114.4570227367
 20
152.2135636099
 30
0.0
 11
114.4570227367
 21
152.9135642834
 31
0.0
  0
LINE
  5
C4
330
1F
100
AcDbEntity
  8
0
  6
Continuous
 62
     7
370
     0
100
AcDbLine
 10
103.4570227963
 20
152.9135642834
 30
0.0
 11
103.4570227963
 21
152.2135636099
 31
0.0
  0
LINE
  5
C5
330
1F
100
AcDbEntity
  8
0
  6
Continuous
 62
     7
370
     0
100
AcDbLine
 10
102.9570227144
 20
110.5135634337
 30
0.0
 11
102.9570227144
 21
105.0135636963
 31
0.0
  0
LINE
  5
C6
330
1F
100
AcDbEntity
  8
0
  6
Continuous
 62
     7
370
     0
100
AcDbLine
 10
114.9570228187
 20
105.0135636963
 30
0.0
 11
114.9570228187
 21
110.5135634337
 31
0.0
  0
LINE
  5
C7
330
1F
100
AcDbEntity
  8
0
  6
Continuous
 62
     7
370
     0
100
AcDbLine
 10
102.9570227144
 20
105.0135636963
 30
0.0
 11
103.4570227963
 21
104.5135636144
 31
0.0
  0
LINE
  5
C8
330
1F
100
AcDbEntity
  8
0
  6
Continuous
 62
     7
370
     0
100
AcDbLine
 10
114.4570227367
 20
104.5135636144
 30
0.0
 11
114.9570228187
 21
105.0135636963
 31
0.0
  0
LINE
  5
C9
330
1F
100
AcDbEntity
  8
0
  6
Continuous
 62
     7
370
     0
100
AcDbLine
 10
103.4570227963
 20
111.2135634669
 30
0.0
 11
103.4570227963
 21
110.5135634337
 31
0.0
  0
LINE
  5
CA
330
1F
100
AcDbEntity
  8
0
  6
Continuous
 62
     7
370
     0
100
AcDbLine
 10
114.4570227367
 20
110.5135634337
 30
0.0
 11
114.4570227367
 21
111.2135634669
 31
0.0
  0
LINE
  5
CB
330
1F
100
AcDbEntity
  8
0
  6
Continuous
 62
     7
370
     0
100
AcDbLine
 10
116.5570228947
 20
151.7135625966
 30
0.0
 11
116.5570228947
 21
152.2135636099
 31
0.0
  0
LINE
  5
CC
330
1F
100
AcDbEntity
  8
0
  6
Continuous
 62
     7
370
     0
100
AcDbLine
 10
101.3570226384
 20
152.2135636099
 30
0.0
 11
101.3570226384
 21
151.7135625966
 31
0.0
  0
LINE
  5
CD
330
1F
100
AcDbEntity
  8
0
  6
Continuous
 62
     7
370
     0
100
AcDbLine
 10
116.5570228947
 20
111.2135634669
 30
0.0
 11
116.5570228947
 21
111.7135634907
 31
0.0
  0
LINE
  5
CE
330
1F
100
AcDbEntity
  8
0
  6
Continuous
 62
     7
370
     0
100
AcDbLine
 10
101.3570226384
 20
111.7135634907
 30
0.0
 11
101.3570226384
 21
111.2135634669
 31
0.0
  0
ARC
  5
CF
330
1F
100
AcDbEntity
  8
0
  6
Continuous
 62
     7
370
     0
100
AcDbCircle
 10
113.2070227665
 20
162.6152027282
 30
0.0
 40
1.0
100
AcDbArc
 50
360.0
 51
71.3370751151
  0
ARC
  5
D0
330
1F
100
AcDbEntity
  8
0
  6
Continuous
 62
     7
370
     0
100
AcDbCircle
 10
104.7070227665
 20
162.6152027282
 30
0.0
 40
1.0
100
AcDbArc
 50
108.6629248849
 51
180.0
  0
LINE
  5
D1
330
1F
100
AcDbEntity
  8
0
  6
Continuous
 62
     7
370
     0
100
AcDbLine
 10
103.7070228373
 20
162.6152036973
 30
0.0
 11
103.7070228373
 21
161.3135649152
 31
0.0
  0
LINE
  5
D2
330
1F
100
AcDbEntity
  8
0
  6
Continuous
 62
     7
370
     0
100
AcDbLine
 10
114.2070226958
 20
161.3135649152
 30
0.0
 11
114.2070226958
 21
162.6152036973
 31
0.0
  0
ARC
  5
D3
330
1F
100
AcDbEntity
  8
0
  6
Continuous
 62
     7
370
     0
100
AcDbCircle
 10
108.9570227665
 20
150.0323134907
 30
0.0
 40
14.28124999999999
100
AcDbArc
 50
71.3370751151
 51
108.6629248849
  0
LINE
  5
D4
330
1F
100
AcDbEntity
  8
0
  6
Continuous
 62
     7
370
     0
100
AcDbLine
 10
104.4570229603
 20
161.3135649152
 30
0.0
 11
104.4570229603
 21
158.9135652669
 31
0.0
  0
LINE
  5
D5
330
1F
100
AcDbEntity
  8
0
  6
Continuous
 62
     7
370
     0
100
AcDbLine
 10
113.4570225728
 20
158.9135652669
 30
0.0
 11
113.4570225728
 21
161.3135649152
 31
0.0
  0
ARC
  5
D6
330
1F
100
AcDbEntity
  8
0
  6
Continuous
 62
     7
370
     0
100
AcDbCircle
 10
104.7070227665
 20
103.1119242532
 30
0.0
 40
1.000000000000007
100
AcDbArc
 50
180.0
 51
251.3370751151
  0
ARC
  5
D7
330
1F
100
AcDbEntity
  8
0
  6
Continuous
 62
     7
370
     0
100
AcDbCircle
 10
113.2070227665
 20
103.1119242532
 30
0.0
 40
1.0
100
AcDbArc
 50
288.6629248849
 51
0.0
  0
LINE
  5
D8
330
1F
100
AcDbEntity
  8
0
  6
Continuous
 62
     7
370
     0
100
AcDbLine
 10
114.2070226958
 20
103.1119240709
 30
0.0
 11
114.2070226958
 21
104.4135633186
 31
0.0
  0
LINE
  5
D9
330
1F
100
AcDbEntity
  8
0
  6
Continuous
 62
     7
370
     0
100
AcDbLine
 10
103.7070228373
 20
104.4135633186
 30
0.0
 11
103.7070228373
 21
103.1119240709
 31
0.0
  0
ARC
  5
DA
330
1F
100
AcDbEntity
  8
0
  6
Continuous
 62
     7
370
     0
100
AcDbCircle
 10
108.9570227665
 20
115.6948134907
 30
0.0
 40
14.28125
100
AcDbArc
 50
251.3370751151
 51
288.6629248849
  0
LINE
  5
DB
330
1F
100
AcDbEntity
  8
0
  6
Continuous
 62
     7
370
     0
100
AcDbLine
 10
113.4570225728
 20
104.4135633186
 30
0.0
 11
113.4570225728
 21
104.5135636144
 31
0.0
  0
LINE
  5
DC
330
1F
100
AcDbEntity
  8
0
  6
Continuous
 62
     7
370
     0
100
AcDbLine
 10
104.4570229603
 20
104.5135636144
 30
0.0
 11
104.4570229603
 21
104.4135633186
 31
0.0
  0
LINE
  5
DD
330
1F
100
AcDbEntity
  8
0
  6
Continuous
 62
     7
370
     0
100
AcDbLine
 10
114.9570228187
 20
152.9135642834
 30
0.0
 11
102.9570227144
 21
152.9135642834
 31
0.0
  0
LINE
  5
DE
330
1F
100
AcDbEntity
  8
0
  6
Continuous
 62
     7
370
     0
100
AcDbLine
 10
105.5666847275
 20
158.4135642536
 30
0.0
 11
102.9570227144
 21
158.4135642536
 31
0.0
  0
LINE
  5
DF
330
1F
100
AcDbEntity
  8
0
  6
Continuous
 62
     7
370
     0
100
AcDbLine
 10
114.9570228187
 20
158.4135642536
 30
0.0
 11
105.5666847275
 21
158.4135642536
 31
0.0
  0
LINE
  5
E0
330
1F
100
AcDbEntity
  8
0
  6
Continuous
 62
     7
370
     0
100
AcDbLine
 10
105.8492128392
 20
158.9135652669
 30
0.0
 11
114.4570227367
 21
158.9135652669
 31
0.0
  0
LINE
  5
E1
330
1F
100
AcDbEntity
  8
0
  6
Continuous
 62
     7
370
     0
100
AcDbLine
 10
103.4570227963
 20
158.9135652669
 30
0.0
 11
105.8492128392
 21
158.9135652669
 31
0.0
  0
LINE
  5
E2
330
1F
100
AcDbEntity
  8
0
  6
Continuous
 62
     7
370
     0
100
AcDbLine
 10
102.9570227144
 20
105.0135636963
 30
0.0
 11
114.9570228187
 21
105.0135636963
 31
0.0
  0
LINE
  5
E3
330
1F
100
AcDbEntity
  8
0
  6
Continuous
 62
     7
370
     0
100
AcDbLine
 10
111.1085259942
 20
110.5135634337
 30
0.0
 11
114.9570228187
 21
110.5135634337
 31
0.0
  0
LINE
  5
E4
330
1F
100
AcDbEntity
  8
0
  6
Continuous
 62
     7
370
     0
100
AcDbLine
 10
102.9570227144
 20
110.5135634337
 30
0.0
 11
111.1085259942
 21
110.5135634337
 31
0.0
  0
LINE
  5
E5
330
1F
100
AcDbEntity
  8
0
  6
Continuous
 62
     7
370
     0
100
AcDbLine
 10
114.4570227367
 20
104.5135636144
 30
0.0
 11
103.4570227963
 21
104.5135636144
 31
0.0
  0
LINE
  5
E6
330
1F
100
AcDbEntity
  8
0
  6
Continuous
 62
     7
370
     0
100
AcDbLine
 10
111.3435350014
 20
152.2135636099
 30
0.0
 11
116.5570228947
 21
152.2135636099
 31
0.0
  0
LINE
  5
E7
330
1F
100
AcDbEntity
  8
0
  6
Continuous
 62
     7
370
     0
100
AcDbLine
 10
101.3570226384
 20
152.2135636099
 30
0.0
 11
111.3435350014
 21
152.2135636099
 31
0.0
  0
LINE
  5
E8
330
1F
100
AcDbEntity
  8
0
  6
Continuous
 62
     7
370
     0
100
AcDbLine
 10
108.6138858697
 20
111.2135634669
 30
0.0
 11
116.5570228947
 21
111.2135634669
 31
0.0
  0
LINE
  5
E9
330
1F
100
AcDbEntity
  8
0
  6
Continuous
 62
     7
370
     0
100
AcDbLine
 10
101.3570226384
 20
111.2135634669
 30
0.0
 11
108.6138858697
 21
111.2135634669
 31
0.0
  0
LINE
  5
EA
330
1F
100
AcDbEntity
  8
0
  6
Continuous
 62
     7
370
     0
100
AcDbLine
 10
103.7070228373
 20
161.3135649152
 30
0.0
 11
114.2070226958
 21
161.3135649152
 31
0.0
  0
LINE
  5
EB
330
1F
100
AcDbEntity
  8
0
  6
Continuous
 62
     7
370
     0
100
AcDbLine
 10
107.3938726801
 20
104.4135633186
 30
0.0
 11
103.7070228373
 21
104.4135633186
 31
0.0
  0
LINE
  5
EC
330
1F
100
AcDbEntity
  8
0
  6
Continuous
 62
     7
370
     0
100
AcDbLine
 10
114.2070226958
 20
104.4135633186
 30
0.0
 11
107.3938726801
 21
104.4135633186
 31
0.0
  0
LINE
  5
ED
330
1F
100
AcDbEntity
  8
0
  6
Continuous
 62
     7
370
     0
100
AcDbLine
 10
94.7070227591
 20
111.9635635026
 30
0.0
 11
94.9570223344
 21
112.2135635144
 31
0.0
  0
LINE
  5
EE
330
1F
100
AcDbEntity
  8
0
  6
Continuous
 62
     7
370
     0
100
AcDbLine
 10
93.9570231018
 20
112.7135635382
 30
0.0
 11
94.7070227591
 21
111.9635635026
 31
0.0
  0
LINE
  5
EF
330
1F
100
AcDbEntity
  8
0
  6
Continuous
 62
     7
370
     0
100
AcDbLine
 10
93.9570231018
 20
112.7135635382
 30
0.0
 11
93.9570231018
 21
150.7135642954
 31
0.0
  0
LINE
  5
F0
330
1F
100
AcDbEntity
  8
0
  6
Continuous
 62
     7
370
     0
100
AcDbLine
 10
94.7070227591
 20
151.46356209
 30
0.0
 11
93.9570231018
 21
150.7135642954
 31
0.0
  0
LINE
  5
F1
330
1F
100
AcDbEntity
  8
0
  6
Continuous
 62
     7
370
     0
100
AcDbLine
 10
94.9570223344
 20
151.2135653086
 30
0.0
 11
94.7070227591
 21
151.46356209
 31
0.0
  0
LINE
  5
F2
330
1F
100
AcDbEntity
  8
0
  6
Continuous
 62
     7
370
     0
100
AcDbLine
 10
94.9570223344
 20
151.2135653086
 30
0.0
 11
94.9570223344
 21
112.2135635144
 31
0.0
  0
LINE
  5
F3
330
1F
100
AcDbEntity
  8
0
  6
Continuous
 62
     7
370
     0
100
AcDbLine
 10
94.9570223344
 20
112.2135635144
 30
0.0
 11
122.9570231987
 21
112.2135635144
 31
0.0
  0
LINE
  5
F4
330
1F
100
AcDbEntity
  8
0
  6
Continuous
 62
     7
370
     0
100
AcDbLine
 10
122.9570231987
 20
112.2135635144
 30
0.0
 11
123.207022774
 21
111.9635635026
 31
0.0
  0
LINE
  5
F5
330
1F
100
AcDbEntity
  8
0
  6
Continuous
 62
     7
370
     0
100
AcDbLine
 10
123.207022774
 20
111.9635635026
 30
0.0
 11
122.9570231987
 21
111.7135634907
 31
0.0
  0
LINE
  5
F6
330
1F
100
AcDbEntity
  8
0
  6
Continuous
 62
     7
370
     0
100
AcDbLine
 10
122.9570231987
 20
111.7135634907
 30
0.0
 11
94.9570223344
 21
111.7135634907
 31
0.0
  0
LINE
  5
F7
330
1F
100
AcDbEntity
  8
0
  6
Continuous
 62
     7
370
     0
100
AcDbLine
 10
94.9570223344
 20
111.7135634907
 30
0.0
 11
94.7070227591
 21
111.9635635026
 31
0.0
  0
LINE
  5
F8
330
1F
100
AcDbEntity
  8
0
  6
Continuous
 62
     7
370
     0
100
AcDbLine
 10
110.2272930909
 20
127.3216115572
 30
0.0
 11
110.2272930909
 21
127.1391794347
 31
0.0
  0
LINE
  5
F9
330
1F
100
AcDbEntity
  8
0
  6
Continuous
 62
     7
370
     0
100
AcDbLine
 10
109.9878034908
 20
127.3216115572
 30
0.0
 11
110.2272930909
 21
127.3216115572
 31
0.0
  0
LINE
  5
FA
330
1F
100
AcDbEntity
  8
0
  6
Continuous
 62
     7
370
     0
100
AcDbLine
 10
109.9878034908
 20
126.7270170413
 30
0.0
 11
109.9878034908
 21
127.3216115572
 31
0.0
  0
LINE
  5
FB
330
1F
100
AcDbEntity
  8
0
  6
Continuous
 62
     7
370
     0
100
AcDbLine
 10
107.2881038887
 20
126.7270170413
 30
0.0
 11
109.9878034908
 21
126.7270170413
 31
0.0
  0
LINE
  5
FC
330
1F
100
AcDbEntity
  8
0
  6
Continuous
 62
     7
370
     0
100
AcDbLine
 10
107.2881038887
 20
126.2472871952
 30
0.0
 11
107.2881038887
 21
126.7270170413
 31
0.0
  0
LINE
  5
FD
330
1F
100
AcDbEntity
  8
0
  6
Continuous
 62
     7
370
     0
100
AcDbLine
 10
110.7948606256
 20
126.2472871952
 30
0.0
 11
107.2881038887
 21
126.2472871952
 31
0.0
  0
LINE
  5
FE
330
1F
100
AcDbEntity
  8
0
  6
Continuous
 62
     7
370
     0
100
AcDbLine
 10
110.7948606256
 20
126.4905309566
 30
0.0
 11
110.7948606256
 21
126.2472871952
 31
0.0
  0
SPLINE
  5
FF
330
1F
100
AcDbEntity
  8
0
  6
Continuous
 62
     7
370
     0
100
AcDbSpline
210
0.0
220
0.0
230
1.0
 70
     8
 71
     3
 72
    11
 73
     7
 74
     0
 42
0.00000001
 43
0.00000001
 40
0.0
 40
0.0
 40
0.0
 40
0.0
 40
0.2682823389612936
 40
0.5197997967341369
 40
0.76046563126196
 40
1.0
 40
1.0
 40
1.0
 40
1.0
 10
110.3894551989773
 20
126.6932336007224
 30
0.0
 10
110.4198492125987
 20
126.665065039475
 30
0.0
 10
110.4787379272396
 20
126.6104881617447
 30
0.0
 10
110.5795106056926
 20
126.5494503052331
 30
0.0
 10
110.6847258569835
 20
126.5064459353216
 30
0.0
 10
110.7582067347195
 20
126.4958275706569
 30
0.0
 10
110.7948606043827
 20
126.4905308980197
 30
0.0
  0
SPLINE
  5
100
330
1F
100
AcDbEntity
  8
0
  6
Continuous
 62
     7
370
     0
100
AcDbSpline
210
0.0
220
0.0
230
1.0
 70
     8
 71
     3
 72
    15
 73
    11
 74
     0
 42
0.00000001
 43
0.00000001
 40
0.0
 40
0.0
 40
0.0
 40
0.0
 40
0.1417962611116225
 40
0.2768819513476986
 40
0.4055805706087828
 40
0.5298229690785596
 40
0.648557202450143
 40
0.7672114666371241
 40
0.8821786188665557
 40
1.0
 40
1.0
 40
1.0
 40
1.0
 10
110.2272930368152
 20
127.1391795466684
 30
0.0
 10
110.2275300918852
 20
127.1161185681185
 30
0.0
 10
110.227992983289
 20
127.0710879820451
 30
0.0
 10
110.2372783818437
 20
127.0057625199484
 30
0.0
 10
110.2482874027302
 20
126.9436087159809
 30
0.0
 10
110.2667885644212
 20
126.8859963826389
 30
0.0
 10
110.2891775557263
 20
126.8315531532995
 30
0.0
 10
110.3179554689663
 20
126.7819557224234
 30
0.0
 10
110.3503213100438
 20
126.7347347180195
 30
0.0
 10
110.3763043762178
 20
126.7071799232774
 30
0.0
 10
110.3894551989773
 20
126.6932336007224
 30
0.0
  0
LINE
  5
101
330
1F
100
AcDbEntity
  8
0
  6
Continuous
 62
     7
370
     0
100
AcDbLine
 10
107.2693350613
 20
133.0821229406
 30
0.0
 11
107.2693350613
 21
134.6969878562
 31
0.0
  0
SPLINE
  5
102
330
1F
100
AcDbEntity
  8
0
  6
Continuous
 62
     7
370
     0
100
AcDbSpline
210
0.0
220
0.0
230
1.0
 70
     8
 71
     3
 72
    15
 73
    11
 74
     0
 42
0.00000001
 43
0.00000001
 40
0.0
 40
0.0
 40
0.0
 40
0.0
 40
0.1086277469152503
 40
0.2195300404679344
 40
0.3340583594962473
 40
0.4525037346025783
 40
0.5781660321028786
 40
0.7098017975268086
 40
0.8504665399585447
 40
0.9999999999999999
 40
0.9999999999999999
 40
0.9999999999999999
 40
0.9999999999999999
 10
107.511076820599
 20
132.3523927598816
 30
0.0
 10
107.4917987964322
 20
132.3734928012755
 30
0.0
 10
107.452839087282
 20
132.4161346959353
 30
0.0
 10
107.4030491146666
 20
132.4888811509431
 30
0.0
 10
107.3620782988754
 20
132.569676755256
 30
0.0
 10
107.3281692374823
 20
132.6577833258533
 30
0.0
 10
107.3011045825176
 20
132.7529463489069
 30
0.0
 10
107.2827108337965
 20
132.8560626437136
 30
0.0
 10
107.2713139159569
 20
132.9664985395877
 30
0.0
 10
107.2700079946001
 20
133.0428038533052
 30
0.0
 10
107.2693350788572
 20
133.0821224896113
 30
0.0
  0
SPLINE
  5
103
330
1F
100
AcDbEntity
  8
0
  6
Continuous
 62
     7
370
     0
100
AcDbSpline
210
0.0
220
0.0
230
1.0
 70
     8
 71
     3
 72
    15
 73
    11
 74
     0
 42
0.00000001
 43
0.00000001
 40
0.0
 40
0.0
 40
0.0
 40
0.0
 40
0.1319114978615545
 40
0.2585593955794493
 40
0.3829282045992124
 40
0.5051155152535456
 40
0.6266776175559876
 40
0.7489849223246622
 40
0.8728415720964459
 40
1.0
 40
1.0
 40
1.0
 40
1.0
 10
108.261076820599
 20
132.0483387058275
 30
0.0
 10
108.2244916906946
 20
132.0491065587298
 30
0.0
 10
108.1527812694757
 20
132.0506116252745
 30
0.0
 10
108.0474071421368
 20
132.0653640236977
 30
0.0
 10
107.9466530777555
 20
132.0894116758959
 30
0.0
 10
107.8499015265804
 20
132.1223984856475
 30
0.0
 10
107.7577495041072
 20
132.1654203403068
 30
0.0
 10
107.6705628694073
 20
132.2184971586535
 30
0.0
 10
107.587008671888
 20
132.2799770277626
 30
0.0
 10
107.5366084210292
 20
132.3280434320839
 30
0.0
 10
107.511076820599
 20
132.3523927598816
 30
0.0
  0
SPLINE
  5
104
330
1F
100
AcDbEntity
  8
0
  6
Continuous
 62
     7
370
     0
100
AcDbSpline
210
0.0
220
0.0
230
1.0
 70
     8
 71
     3
 72
    15
 73
    11
 74
     0
 42
0.00000001
 43
0.00000001
 40
0.0
 40
0.0
 40
0.0
 40
0.0
 40
0.12638128895889
 40
0.2491049464973167
 40
0.3706105362999234
 40
0.491391755942431
 40
0.6138158455532664
 40
0.7388355742356975
 40
0.8671181754268791
 40
1.0
 40
1.0
 40
1.0
 40
1.0
 10
108.8691849287071
 20
132.2915819490708
 30
0.0
 10
108.8485012829156
 20
132.2721822324592
 30
0.0
 10
108.8077326017231
 20
132.2339442511217
 30
0.0
 10
108.7412280579825
 20
132.183656378588
 30
0.0
 10
108.6700836102136
 20
132.1429135682338
 30
0.0
 10
108.596261109481
 20
132.1072997090236
 30
0.0
 10
108.5175406377611
 20
132.0817135714056
 30
0.0
 10
108.435591474161
 20
132.0616810439082
 30
0.0
 10
108.3494751171001
 20
132.0504707620639
 30
0.0
 10
108.2908868414231
 20
132.0490576862075
 30
0.0
 10
108.261076820599
 20
132.0483387058275
 30
0.0
  0
SPLINE
  5
105
330
1F
100
AcDbEntity
  8
0
  6
Continuous
 62
     7
370
     0
100
AcDbSpline
210
0.0
220
0.0
230
1.0
 70
     8
 71
     3
 72
    11
 73
     7
 74
     0
 42
0.00000001
 43
0.00000001
 40
0.0
 40
0.0
 40
0.0
 40
0.0
 40
0.275886418446538
 40
0.5310076877713119
 40
0.7722766677115258
 40
1.0
 40
1.0
 40
1.0
 40
1.0
 10
109.09215790168
 20
132.6767170842059
 30
0.0
 10
109.0782384244791
 20
132.6378231647313
 30
0.0
 10
109.0514471476736
 20
132.5629627552743
 30
0.0
 10
108.9988201980499
 20
132.4598329096601
 30
0.0
 10
108.9394551471393
 20
132.3687472471314
 30
0.0
 10
108.8921529335566
 20
132.316803628747
 30
0.0
 10
108.8691849287071
 20
132.2915819490708
 30
0.0
  0
SPLINE
  5
106
330
1F
100
AcDbEntity
  8
0
  6
Continuous
 62
     7
370
     0
100
AcDbSpline
210
0.0
220
0.0
230
1.0
 70
     8
 71
     3
 72
    11
 73
     7
 74
     0
 42
0.00000001
 43
0.00000001
 40
0.0
 40
0.0
 40
0.0
 40
0.0
 40
0.2409277974217344
 40
0.4854864172424176
 40
0.7380410464993904
 40
1.0
 40
1.0
 40
1.0
 40
1.0
 10
109.2745903341125
 20
132.3726630301519
 30
0.0
 10
109.2550167257031
 20
132.3937254917032
 30
0.0
 10
109.2155745313158
 20
132.4361678296411
 30
0.0
 10
109.1658842794706
 20
132.5091901604306
 30
0.0
 10
109.1246273026101
 20
132.5899756077043
 30
0.0
 10
109.1031121207815
 20
132.6474530660361
 30
0.0
 10
109.09215790168
 20
132.6767170842059
 30
0.0
  0
SPLINE
  5
107
330
1F
100
AcDbEntity
  8
0
  6
Continuous
 62
     7
370
     0
100
AcDbSpline
210
0.0
220
0.0
230
1.0
 70
     8
 71
     3
 72
    15
 73
    11
 74
     0
 42
0.00000001
 43
0.00000001
 40
0.0
 40
0.0
 40
0.0
 40
0.0
 40
0.1312072932871418
 40
0.2585055422472042
 40
0.3817646425439876
 40
0.5033692670500676
 40
0.6250492974901243
 40
0.7476118725723034
 40
0.872246213897163
 40
1.0
 40
1.0
 40
1.0
 40
1.0
 10
109.8218876314098
 20
132.1496900571789
 30
0.0
 10
109.7953267135845
 20
132.1504471331717
 30
0.0
 10
109.742996204411
 20
132.1519387296764
 30
0.0
 10
109.6663052199195
 20
132.1626402280311
 30
0.0
 10
109.5929108551623
 20
132.179982738472
 30
0.0
 10
109.5225389910632
 20
132.2039266329884
 30
0.0
 10
109.4555231358874
 20
132.2357934312492
 30
0.0
 10
109.3915255344417
 20
132.2743778533775
 30
0.0
 10
109.3300111427584
 20
132.3191772385089
 30
0.0
 10
109.2932155313912
 20
132.3546881314577
 30
0.0
 10
109.2745903341125
 20
132.3726630301519
 30
0.0
  0
SPLINE
  5
108
330
1F
100
AcDbEntity
  8
0
  6
Continuous
 62
     7
370
     0
100
AcDbSpline
210
0.0
220
0.0
230
1.0
 70
     8
 71
     3
 72
    15
 73
    11
 74
     0
 42
0.00000001
 43
0.00000001
 40
0.0
 40
0.0
 40
0.0
 40
0.0
 40
0.1195027114365303
 40
0.2380939422658863
 40
0.3566476293726322
 40
0.4775806195769122
 40
0.6003630199241485
 40
0.7278327340041404
 40
0.860647150029581
 40
0.9999999999999999
 40
0.9999999999999999
 40
0.9999999999999999
 40
0.9999999999999999
 10
110.4705362800584
 20
132.3929333004222
 30
0.0
 10
110.4499247427783
 20
132.37343919813
 30
0.0
 10
110.4088588781782
 20
132.3345996805168
 30
0.0
 10
110.3400406685613
 20
132.2848955491482
 30
0.0
 10
110.2656420218681
 20
132.243664793184
 30
0.0
 10
110.1869463523401
 20
132.2087208231369
 30
0.0
 10
110.1026296744144
 20
132.1828240598548
 30
0.0
 10
110.0138637267428
 20
132.1629246523676
 30
0.0
 10
109.9195189507729
 20
132.1517848532298
 30
0.0
 10
109.8549484759998
 20
132.1503994169124
 30
0.0
 10
109.8218876314098
 20
132.1496900571789
 30
0.0
  0
SPLINE
  5
109
330
1F
100
AcDbEntity
  8
0
  6
Continuous
 62
     7
370
     0
100
AcDbSpline
210
0.0
220
0.0
230
1.0
 70
     8
 71
     3
 72
    15
 73
    11
 74
     0
 42
0.00000001
 43
0.00000001
 40
0.0
 40
0.0
 40
0.0
 40
0.0
 40
0.1342477572737672
 40
0.2634617725756845
 40
0.3884666271730278
 40
0.5118790511869563
 40
0.6324080741525899
 40
0.7535525248235476
 40
0.8755084805282757
 40
1.0
 40
1.0
 40
1.0
 40
1.0
 10
110.7340497935719
 20
133.0618522193411
 30
0.0
 10
110.7335069942765
 20
133.0287684628895
 30
0.0
 10
110.7324417484398
 20
132.9638414555772
 30
0.0
 10
110.7188015852299
 20
132.868972640574
 30
0.0
 10
110.6990991017292
 20
132.7779793889056
 30
0.0
 10
110.6695677853618
 20
132.6918517134813
 30
0.0
 10
110.6324323886217
 20
132.6098617183454
 30
0.0
 10
110.5875928688242
 20
132.5321374403749
 30
0.0
 10
110.5328813625645
 20
132.459733082119
 30
0.0
 10
110.4914600280729
 20
132.4153520982401
 30
0.0
 10
110.4705362800584
 20
132.3929333004222
 30
0.0
  0
LINE
  5
10A
330
1F
100
AcDbEntity
  8
0
  6
Continuous
 62
     7
370
     0
100
AcDbLine
 10
110.7340498017
 20
134.6969878562
 30
0.0
 11
110.7340498017
 21
133.0618517734
 31
0.0
  0
LINE
  5
10B
330
1F
100
AcDbEntity
  8
0
  6
Continuous
 62
     7
370
     0
100
AcDbLine
 10
107.2693350613
 20
134.6969878562
 30
0.0
 11
110.7340498017
 21
134.6969878562
 31
0.0
  0
LINE
  5
10C
330
1F
100
AcDbEntity
  8
0
  6
Continuous
 62
     7
370
     0
100
AcDbLine
 10
115.5178336082
 20
132.6422425248
 30
0.0
 11
115.5178336082
 21
133.1219723709
 31
0.0
  0
LINE
  5
10D
330
1F
100
AcDbEntity
  8
0
  6
Continuous
 62
     7
370
     0
100
AcDbLine
 10
116.8774434952
 20
132.6422425248
 30
0.0
 11
115.5178336082
 21
132.6422425248
 31
0.0
  0
LINE
  5
10E
330
1F
100
AcDbEntity
  8
0
  6
Continuous
 62
     7
370
     0
100
AcDbLine
 10
116.8774434952
 20
131.4868362882
 30
0.0
 11
116.8774434952
 21
132.6422425248
 31
0.0
  0
SPLINE
  5
10F
330
1F
100
AcDbEntity
  8
0
  6
Continuous
 62
     7
370
     0
100
AcDbSpline
210
0.0
220
0.0
230
1.0
 70
     8
 71
     3
 72
    15
 73
    11
 74
     0
 42
0.00000001
 43
0.00000001
 40
0.0
 40
0.0
 40
0.0
 40
0.0
 40
0.1134379491612216
 40
0.2278316283988328
 40
0.3439746828196724
 40
0.4632843510369729
 40
0.5879523799245381
 40
0.7182886416687878
 40
0.8554134642482749
 40
1.0
 40
1.0
 40
1.0
 40
1.0
 10
117.1394551989774
 20
130.7368367639684
 30
0.0
 10
117.1183256823384
 20
130.7593558367844
 30
0.0
 10
117.0758886300228
 20
130.8045837086529
 30
0.0
 10
117.0229447194939
 20
130.8820749632413
 30
0.0
 10
116.9775799329307
 20
130.9658291977516
 30
0.0
 10
116.9406557553572
 20
131.0567238614941
 30
0.0
 10
116.9122418578481
 20
131.1546295332299
 30
0.0
 10
116.8924984581603
 20
131.2594884704552
 30
0.0
 10
116.8790145880913
 20
131.3708716408109
 30
0.0
 10
116.8779761556903
 20
131.447505123681
 30
0.0
 10
116.8774431869653
 20
131.4868367639684
 30
0.0
  0
SPLINE
  5
110
330
1F
100
AcDbEntity
  8
0
  6
Continuous
 62
     7
370
     0
100
AcDbSpline
210
0.0
220
0.0
230
1.0
 70
     8
 71
     3
 72
    15
 73
    11
 74
     0
 42
0.00000001
 43
0.00000001
 40
0.0
 40
0.0
 40
0.0
 40
0.0
 40
0.1474010611502679
 40
0.2856974574838583
 40
0.4173170259111317
 40
0.5418311731195031
 40
0.660776113804498
 40
0.7757147634118131
 40
0.8886130455433348
 40
1.0
 40
1.0
 40
1.0
 40
1.0
 10
117.9097254692476
 20
130.4733232504549
 30
0.0
 10
117.8686397007949
 20
130.473830047727
 30
0.0
 10
117.7890059485403
 20
130.4748123384309
 30
0.0
 10
117.6734215945689
 20
130.4885026473975
 30
0.0
 10
117.565095632258
 20
130.507665869925
 30
0.0
 10
117.4647748829551
 20
130.5375288561907
 30
0.0
 10
117.3716971407555
 20
130.5740389044959
 30
0.0
 10
117.286110491751
 20
130.6192780364699
 30
0.0
 10
117.2082126949393
 20
130.6733417904528
 30
0.0
 10
117.1622711732391
 20
130.7157670658764
 30
0.0
 10
117.1394551989774
 20
130.7368367639684
 30
0.0
  0
SPLINE
  5
111
330
1F
100
AcDbEntity
  8
0
  6
Continuous
 62
     7
370
     0
100
AcDbSpline
210
0.0
220
0.0
230
1.0
 70
     8
 71
     3
 72
    15
 73
    11
 74
     0
 42
0.00000001
 43
0.00000001
 40
0.0
 40
0.0
 40
0.0
 40
0.0
 40
0.1158731642777332
 40
0.2315336360112879
 40
0.3480327938015026
 40
0.4681532545268209
 40
0.5926256813316269
 40
0.7213353501006585
 40
0.8571563944872238
 40
1.0
 40
1.0
 40
1.0
 40
1.0
 10
118.7002660097882
 20
130.7571070342387
 30
0.0
 10
118.6760708386766
 20
130.7341323352988
 30
0.0
 10
118.6277249082249
 20
130.6882251089364
 30
0.0
 10
118.5446174110222
 20
130.6318661597964
 30
0.0
 10
118.4561682308811
 20
130.5823465446023
 30
0.0
 10
118.3604360233978
 20
130.5415272544887
 30
0.0
 10
118.2572701909455
 20
130.5111902448305
 30
0.0
 10
118.1474300000927
 20
130.4896112185932
 30
0.0
 10
118.0309516368408
 20
130.4757009354282
 30
0.0
 10
117.9508074234897
 20
130.4741290166291
 30
0.0
 10
117.9097254692476
 20
130.4733232504549
 30
0.0
  0
SPLINE
  5
112
330
1F
100
AcDbEntity
  8
0
  6
Continuous
 62
     7
370
     0
100
AcDbSpline
210
0.0
220
0.0
230
1.0
 70
     8
 71
     3
 72
    15
 73
    11
 74
     0
 42
0.00000001
 43
0.00000001
 40
0.0
 40
0.0
 40
0.0
 40
0.0
 40
0.1354445824934112
 40
0.266256755880299
 40
0.3914793001254326
 40
0.514257283110598
 40
0.6353709597957455
 40
0.7562290499621916
 40
0.8764476079351743
 40
1.0
 40
1.0
 40
1.0
 40
1.0
 10
118.9840497935719
 20
131.4868367639684
 30
0.0
 10
118.9832259514003
 20
131.4505056733902
 30
0.0
 10
118.9816064437024
 20
131.3790860703549
 30
0.0
 10
118.967674289244
 20
131.2748410011624
 30
0.0
 10
118.9460107194846
 20
131.1755047852824
 30
0.0
 10
118.9154976024209
 20
131.0811138000761
 30
0.0
 10
118.8742460382671
 20
130.9922245483748
 30
0.0
 10
118.8256455942516
 20
130.9080248481648
 30
0.0
 10
118.7681729287514
 20
130.8285692025004
 30
0.0
 10
118.7231070909665
 20
130.7811439543547
 30
0.0
 10
118.7002660097882
 20
130.7571070342387
 30
0.0
  0
LINE
  5
113
330
1F
100
AcDbEntity
  8
0
  6
Continuous
 62
     7
370
     0
100
AcDbLine
 10
118.9840495241
 20
133.1219723709
 30
0.0
 11
118.9840495241
 21
131.4868362882
 31
0.0
  0
LINE
  5
114
330
1F
100
AcDbEntity
  8
0
  6
Continuous
 62
     7
370
     0
100
AcDbLine
 10
115.5178336082
 20
133.1219723709
 30
0.0
 11
118.9840495241
 21
133.1219723709
 31
0.0
  0
LINE
  5
115
330
1F
100
AcDbEntity
  8
0
  6
Continuous
 62
     7
370
     0
100
AcDbLine
 10
99.0193349896
 20
138.4676168003
 30
0.0
 11
99.0193349896
 21
140.0824817159
 31
0.0
  0
SPLINE
  5
116
330
1F
100
AcDbEntity
  8
0
  6
Continuous
 62
     7
370
     0
100
AcDbSpline
210
0.0
220
0.0
230
1.0
 70
     8
 71
     3
 72
    15
 73
    11
 74
     0
 42
0.00000001
 43
0.00000001
 40
0.0
 40
0.0
 40
0.0
 40
0.0
 40
0.108627746915251
 40
0.2195300404679381
 40
0.3340583594962499
 40
0.4525037346025803
 40
0.5781660321028801
 40
0.7098017975268054
 40
0.8504665399585453
 40
1.0
 40
1.0
 40
1.0
 40
1.0
 10
99.26107682059897
 20
137.7378878150194
 30
0.0
 10
99.24179879643225
 20
137.7589878564134
 30
0.0
 10
99.20283908728203
 20
137.8016297510732
 30
0.0
 10
99.1530491146666
 20
137.8743762060809
 30
0.0
 10
99.11207829887542
 20
137.9551718103939
 30
0.0
 10
99.07816923748226
 20
138.0432783809911
 30
0.0
 10
99.05110458251762
 20
138.1384414040448
 30
0.0
 10
99.0327108337965
 20
138.2415576988515
 30
0.0
 10
99.02131391595687
 20
138.3519935947255
 30
0.0
 10
99.02000799460015
 20
138.4282989084431
 30
0.0
 10
99.01933507885722
 20
138.4676175447492
 30
0.0
  0
SPLINE
  5
117
330
1F
100
AcDbEntity
  8
0
  6
Continuous
 62
     7
370
     0
100
AcDbSpline
210
0.0
220
0.0
230
1.0
 70
     8
 71
     3
 72
    15
 73
    11
 74
     0
 42
0.00000001
 43
0.00000001
 40
0.0
 40
0.0
 40
0.0
 40
0.0
 40
0.1319114978615548
 40
0.2585593955794497
 40
0.3829282045992113
 40
0.5051155152535467
 40
0.6266776175559878
 40
0.7489849223246648
 40
0.8728415720964486
 40
0.9999999999999999
 40
0.9999999999999999
 40
0.9999999999999999
 40
0.9999999999999999
 10
100.011076820599
 20
137.4338337609654
 30
0.0
 10
99.97449169069458
 20
137.4346016138676
 30
0.0
 10
99.90278126947565
 20
137.4361066804124
 30
0.0
 10
99.79740714213675
 20
137.4508590788355
 30
0.0
 10
99.69665307775547
 20
137.4749067310337
 30
0.0
 10
99.59990152658035
 20
137.5078935407853
 30
0.0
 10
99.50774950410724
 20
137.5509153954446
 30
0.0
 10
99.42056286940733
 20
137.6039922137914
 30
0.0
 10
99.33700867188804
 20
137.6654720829005
 30
0.0
 10
99.28660842102917
 20
137.7135384872218
 30
0.0
 10
99.26107682059897
 20
137.7378878150194
 30
0.0
  0
SPLINE
  5
118
330
1F
100
AcDbEntity
  8
0
  6
Continuous
 62
     7
370
     0
100
AcDbSpline
210
0.0
220
0.0
230
1.0
 70
     8
 71
     3
 72
    15
 73
    11
 74
     0
 42
0.00000001
 43
0.00000001
 40
0.0
 40
0.0
 40
0.0
 40
0.0
 40
0.1263812889588906
 40
0.249104946497317
 40
0.3706105362999238
 40
0.49139175594243
 40
0.6138158455532644
 40
0.7388355742356979
 40
0.8671181754268775
 40
0.9999999999999999
 40
0.9999999999999999
 40
0.9999999999999999
 40
0.9999999999999999
 10
100.6191849287071
 20
137.6770770042087
 30
0.0
 10
100.5985012829156
 20
137.657677287597
 30
0.0
 10
100.5577326017231
 20
137.6194393062596
 30
0.0
 10
100.4912280579825
 20
137.5691514337258
 30
0.0
 10
100.4200836102136
 20
137.5284086233717
 30
0.0
 10
100.346261109481
 20
137.4927947641615
 30
0.0
 10
100.2675406377611
 20
137.4672086265435
 30
0.0
 10
100.185591474161
 20
137.447176099046
 30
0.0
 10
100.0994751171001
 20
137.4359658172017
 30
0.0
 10
100.0408868414231
 20
137.4345527413453
 30
0.0
 10
100.011076820599
 20
137.4338337609654
 30
0.0
  0
SPLINE
  5
119
330
1F
100
AcDbEntity
  8
0
  6
Continuous
 62
     7
370
     0
100
AcDbSpline
210
0.0
220
0.0
230
1.0
 70
     8
 71
     3
 72
    11
 73
     7
 74
     0
 42
0.00000001
 43
0.00000001
 40
0.0
 40
0.0
 40
0.0
 40
0.0
 40
0.2758864184465378
 40
0.5310076877713126
 40
0.7722766677115264
 40
1.0
 40
1.0
 40
1.0
 40
1.0
 10
100.8421579016801
 20
138.0622121393438
 30
0.0
 10
100.8282384244791
 20
138.0233182198693
 30
0.0
 10
100.8014471476736
 20
137.9484578104122
 30
0.0
 10
100.7488201980498
 20
137.8453279647979
 30
0.0
 10
100.6894551471393
 20
137.7542423022693
 30
0.0
 10
100.6421529335566
 20
137.7022986838848
 30
0.0
 10
100.6191849287071
 20
137.6770770042087
 30
0.0
  0
SPLINE
  5
11A
330
1F
100
AcDbEntity
  8
0
  6
Continuous
 62
     7
370
     0
100
AcDbSpline
210
0.0
220
0.0
230
1.0
 70
     8
 71
     3
 72
    11
 73
     7
 74
     0
 42
0.00000001
 43
0.00000001
 40
0.0
 40
0.0
 40
0.0
 40
0.0
 40
0.2409277974217333
 40
0.4854864172424163
 40
0.7380410464993906
 40
1.0
 40
1.0
 40
1.0
 40
1.0
 10
101.0245903341125
 20
137.7581580852898
 30
0.0
 10
101.0050167257031
 20
137.779220546841
 30
0.0
 10
100.9655745313158
 20
137.821662884779
 30
0.0
 10
100.9158842794706
 20
137.8946852155685
 30
0.0
 10
100.8746273026101
 20
137.9754706628422
 30
0.0
 10
100.8531121207815
 20
138.0329481211739
 30
0.0
 10
100.8421579016801
 20
138.0622121393438
 30
0.0
  0
SPLINE
  5
11B
330
1F
100
AcDbEntity
  8
0
  6
Continuous
 62
     7
370
     0
100
AcDbSpline
210
0.0
220
0.0
230
1.0
 70
     8
 71
     3
 72
    15
 73
    11
 74
     0
 42
0.00000001
 43
0.00000001
 40
0.0
 40
0.0
 40
0.0
 40
0.0
 40
0.1312072932871431
 40
0.2585055422472054
 40
0.3817646425439873
 40
0.5033692670500678
 40
0.6250492974901237
 40
0.7476118725723022
 40
0.8722462138971576
 40
1.0
 40
1.0
 40
1.0
 40
1.0
 10
101.5718876314098
 20
137.5351851123168
 30
0.0
 10
101.5453267135845
 20
137.5359421883096
 30
0.0
 10
101.492996204411
 20
137.5374337848142
 30
0.0
 10
101.4163052199194
 20
137.548135283169
 30
0.0
 10
101.3429108551623
 20
137.5654777936099
 30
0.0
 10
101.2725389910632
 20
137.5894216881262
 30
0.0
 10
101.2055231358874
 20
137.621288486387
 30
0.0
 10
101.1415255344417
 20
137.6598729085153
 30
0.0
 10
101.0800111427584
 20
137.7046722936468
 30
0.0
 10
101.0432155313911
 20
137.7401831865956
 30
0.0
 10
101.0245903341125
 20
137.7581580852898
 30
0.0
  0
SPLINE
  5
11C
330
1F
100
AcDbEntity
  8
0
  6
Continuous
 62
     7
370
     0
100
AcDbSpline
210
0.0
220
0.0
230
1.0
 70
     8
 71
     3
 72
    15
 73
    11
 74
     0
 42
0.00000001
 43
0.00000001
 40
0.0
 40
0.0
 40
0.0
 40
0.0
 40
0.1195027114365311
 40
0.2380939422658889
 40
0.3566476293726334
 40
0.4775806195769141
 40
0.6003630199241495
 40
0.7278327340041417
 40
0.8606471500295819
 40
1.0
 40
1.0
 40
1.0
 40
1.0
 10
102.2205362800584
 20
137.77842835556
 30
0.0
 10
102.1999247427783
 20
137.7589342532679
 30
0.0
 10
102.1588588781782
 20
137.7200947356546
 30
0.0
 10
102.0900406685613
 20
137.6703906042861
 30
0.0
 10
102.0156420218681
 20
137.6291598483218
 30
0.0
 10
101.9369463523401
 20
137.5942158782747
 30
0.0
 10
101.8526296744144
 20
137.5683191149926
 30
0.0
 10
101.7638637267428
 20
137.5484197075055
 30
0.0
 10
101.6695189507729
 20
137.5372799083677
 30
0.0
 10
101.6049484759998
 20
137.5358944720503
 30
0.0
 10
101.5718876314098
 20
137.5351851123168
 30
0.0
  0
SPLINE
  5
11D
330
1F
100
AcDbEntity
  8
0
  6
Continuous
 62
     7
370
     0
100
AcDbSpline
210
0.0
220
0.0
230
1.0
 70
     8
 71
     3
 72
    15
 73
    11
 74
     0
 42
0.00000001
 43
0.00000001
 40
0.0
 40
0.0
 40
0.0
 40
0.0
 40
0.1342477572737626
 40
0.2634617725756846
 40
0.388466627173028
 40
0.5118790511869565
 40
0.6324080741525906
 40
0.7535525248235482
 40
0.8755084805282726
 40
1.0
 40
1.0
 40
1.0
 40
1.0
 10
102.4840497935719
 20
138.4473472744789
 30
0.0
 10
102.4835069942765
 20
138.4142635180274
 30
0.0
 10
102.4824417484398
 20
138.349336510715
 30
0.0
 10
102.4688015852299
 20
138.2544676957118
 30
0.0
 10
102.4490991017292
 20
138.1634744440435
 30
0.0
 10
102.4195677853618
 20
138.0773467686191
 30
0.0
 10
102.3824323886217
 20
137.9953567734832
 30
0.0
 10
102.3375928688242
 20
137.9176324955127
 30
0.0
 10
102.2828813625645
 20
137.8452281372568
 30
0.0
 10
102.2414600280729
 20
137.800847153378
 30
0.0
 10
102.2205362800584
 20
137.77842835556
 30
0.0
  0
LINE
  5
11E
330
1F
100
AcDbEntity
  8
0
  6
Continuous
 62
     7
370
     0
100
AcDbLine
 10
102.4840496135
 20
140.0824817159
 30
0.0
 11
102.4840496135
 21
138.4473474957
 31
0.0
  0
LINE
  5
11F
330
1F
100
AcDbEntity
  8
0
  6
Continuous
 62
     7
370
     0
100
AcDbLine
 10
99.0193349896
 20
140.0824817159
 30
0.0
 11
102.4840496135
 21
140.0824817159
 31
0.0
  0
CIRCLE
  5
120
330
1F
100
AcDbEntity
  8
0
  6
Continuous
 62
     7
370
     0
100
AcDbCircle
 10
115.9570227665
 20
123.7135634907
 30
0.0
 40
1.75
  0
CIRCLE
  5
121
330
1F
100
AcDbEntity
  8
0
  6
Continuous
 62
     7
370
     0
100
AcDbCircle
 10
115.9570227665
 20
139.7135634907
 30
0.0
 40
1.75
  0
CIRCLE
  5
122
330
1F
100
AcDbEntity
  8
0
  6
Continuous
 62
     7
370
     0
100
AcDbCircle
 10
101.9570227665
 20
131.7135634907
 30
0.0
 40
1.75
  0
LINE
  5
123
330
1F
100
AcDbEntity
  8
0
  6
Continuous
 62
     7
370
     0
100
AcDbLine
 10
122.9570231987
 20
151.2135653086
 30
0.0
 11
94.9570223344
 21
151.2135653086
 31
0.0
  0
LINE
  5
124
330
1F
100
AcDbEntity
  8
0
  6
Continuous
 62
     7
370
     0
100
AcDbLine
 10
122.9570231987
 20
112.2135635144
 30
0.0
 11
122.9570231987
 21
151.2135653086
 31
0.0
  0
LINE
  5
125
330
1F
100
AcDbEntity
  8
0
  6
Continuous
 62
     7
370
     0
100
AcDbLine
 10
100.0733891157
 20
124.4393945001
 30
0.0
 11
99.0178336976
 21
124.8650694527
 31
0.0
  0
LINE
  5
126
330
1F
100
AcDbEntity
  8
0
  6
Continuous
 62
     7
370
     0
100
AcDbLine
 10
100.0733891157
 20
123.101556141
 30
0.0
 11
100.0733891157
 21
124.4393945001
 31
0.0
  0
LINE
  5
127
330
1F
100
AcDbEntity
  8
0
  6
Continuous
 62
     7
370
     0
100
AcDbLine
 10
99.0178336976
 20
122.6758802571
 30
0.0
 11
100.0733891157
 21
123.101556141
 31
0.0
  0
LINE
  5
128
330
1F
100
AcDbEntity
  8
0
  6
Continuous
 62
     7
370
     0
100
AcDbLine
 10
99.0178336976
 20
122.189394597
 30
0.0
 11
99.0178336976
 21
122.6758802571
 31
0.0
  0
LINE
  5
129
330
1F
100
AcDbEntity
  8
0
  6
Continuous
 62
     7
370
     0
100
AcDbLine
 10
102.5245905509
 20
123.5677724965
 30
0.0
 11
99.0178336976
 21
122.189394597
 31
0.0
  0
LINE
  5
12A
330
1F
100
AcDbEntity
  8
0
  6
Continuous
 62
     7
370
     0
100
AcDbLine
 10
102.5245905509
 20
123.9731781446
 30
0.0
 11
102.5245905509
 21
123.5677724965
 31
0.0
  0
LINE
  5
12B
330
1F
100
AcDbEntity
  8
0
  6
Continuous
 62
     7
370
     0
100
AcDbLine
 10
99.0178336976
 20
125.3515560441
 30
0.0
 11
102.5245905509
 21
123.9731781446
 31
0.0
  0
LINE
  5
12C
330
1F
100
AcDbEntity
  8
0
  6
Continuous
 62
     7
370
     0
100
AcDbLine
 10
99.0178336976
 20
124.8650694527
 30
0.0
 11
99.0178336976
 21
125.3515560441
 31
0.0
  0
LINE
  5
12D
330
1F
100
AcDbEntity
  8
0
  6
Continuous
 62
     7
370
     0
100
AcDbLine
 10
107.2678335365
 20
137.4567462393
 30
0.0
 11
107.2678335365
 21
137.9364760854
 31
0.0
  0
LINE
  5
12E
330
1F
100
AcDbEntity
  8
0
  6
Continuous
 62
     7
370
     0
100
AcDbLine
 10
108.6274431906
 20
137.4567462393
 30
0.0
 11
107.2678335365
 21
137.4567462393
 31
0.0
  0
LINE
  5
12F
330
1F
100
AcDbEntity
  8
0
  6
Continuous
 62
     7
370
     0
100
AcDbLine
 10
108.6274431906
 20
136.3013418652
 30
0.0
 11
108.6274431906
 21
137.4567462393
 31
0.0
  0
SPLINE
  5
130
330
1F
100
AcDbEntity
  8
0
  6
Continuous
 62
     7
370
     0
100
AcDbSpline
210
0.0
220
0.0
230
1.0
 70
     8
 71
     3
 72
    15
 73
    11
 74
     0
 42
0.00000001
 43
0.00000001
 40
0.0
 40
0.0
 40
0.0
 40
0.0
 40
0.1134379491612221
 40
0.227831628398833
 40
0.3439746828196728
 40
0.4632843510369731
 40
0.5879523799245384
 40
0.7182886416687921
 40
0.855413464248275
 40
1.0
 40
1.0
 40
1.0
 40
1.0
 10
108.8894551989773
 20
135.5513417088305
 30
0.0
 10
108.8683256823384
 20
135.5738607816465
 30
0.0
 10
108.8258886300228
 20
135.619088653515
 30
0.0
 10
108.7729447194939
 20
135.6965799081035
 30
0.0
 10
108.7275799329306
 20
135.7803341426137
 30
0.0
 10
108.6906557553572
 20
135.8712288063563
 30
0.0
 10
108.662241857848
 20
135.969134478092
 30
0.0
 10
108.6424984581602
 20
136.0739934153173
 30
0.0
 10
108.6290145880913
 20
136.1853765856731
 30
0.0
 10
108.6279761556903
 20
136.2620100685431
 30
0.0
 10
108.6274431869653
 20
136.3013417088305
 30
0.0
  0
SPLINE
  5
131
330
1F
100
AcDbEntity
  8
0
  6
Continuous
 62
     7
370
     0
100
AcDbSpline
210
0.0
220
0.0
230
1.0
 70
     8
 71
     3
 72
    15
 73
    11
 74
     0
 42
0.00000001
 43
0.00000001
 40
0.0
 40
0.0
 40
0.0
 40
0.0
 40
0.1474010611502688
 40
0.2856974574838591
 40
0.4173170259111323
 40
0.5418311731195028
 40
0.6607761138044992
 40
0.7757147634118132
 40
0.8886130455433351
 40
0.9999999999999999
 40
0.9999999999999999
 40
0.9999999999999999
 40
0.9999999999999999
 10
109.6597254692476
 20
135.287828195317
 30
0.0
 10
109.6186397007949
 20
135.2883349925892
 30
0.0
 10
109.5390059485403
 20
135.2893172832931
 30
0.0
 10
109.4234215945689
 20
135.3030075922596
 30
0.0
 10
109.3150956322579
 20
135.3221708147871
 30
0.0
 10
109.2147748829551
 20
135.3520338010528
 30
0.0
 10
109.1216971407555
 20
135.3885438493581
 30
0.0
 10
109.036110491751
 20
135.4337829813321
 30
0.0
 10
108.9582126949393
 20
135.487846735315
 30
0.0
 10
108.9122711732391
 20
135.5302720107385
 30
0.0
 10
108.8894551989773
 20
135.5513417088305
 30
0.0
  0
SPLINE
  5
132
330
1F
100
AcDbEntity
  8
0
  6
Continuous
 62
     7
370
     0
100
AcDbSpline
210
0.0
220
0.0
230
1.0
 70
     8
 71
     3
 72
    15
 73
    11
 74
     0
 42
0.00000001
 43
0.00000001
 40
0.0
 40
0.0
 40
0.0
 40
0.0
 40
0.1158731642777302
 40
0.2315336360112854
 40
0.3480327938015011
 40
0.4681532545268191
 40
0.5926256813316251
 40
0.7213353501006572
 40
0.8571563944872235
 40
1.0
 40
1.0
 40
1.0
 40
1.0
 10
110.4502660097882
 20
135.5716119791008
 30
0.0
 10
110.4260708386766
 20
135.5486372801609
 30
0.0
 10
110.3777249082249
 20
135.5027300537985
 30
0.0
 10
110.2946174110222
 20
135.4463711046586
 30
0.0
 10
110.2061682308811
 20
135.3968514894644
 30
0.0
 10
110.1104360233978
 20
135.3560321993508
 30
0.0
 10
110.0072701909455
 20
135.3256951896927
 30
0.0
 10
109.8974300000927
 20
135.3041161634553
 30
0.0
 10
109.7809516368408
 20
135.2902058802904
 30
0.0
 10
109.7008074234897
 20
135.2886339614913
 30
0.0
 10
109.6597254692476
 20
135.287828195317
 30
0.0
  0
SPLINE
  5
133
330
1F
100
AcDbEntity
  8
0
  6
Continuous
 62
     7
370
     0
100
AcDbSpline
210
0.0
220
0.0
230
1.0
 70
     8
 71
     3
 72
    15
 73
    11
 74
     0
 42
0.00000001
 43
0.00000001
 40
0.0
 40
0.0
 40
0.0
 40
0.0
 40
0.135444582493415
 40
0.2662567558802978
 40
0.3914793001254309
 40
0.5142572831105963
 40
0.6353709597957428
 40
0.7562290499621884
 40
0.8764476079351714
 40
1.0
 40
1.0
 40
1.0
 40
1.0
 10
110.7340497935719
 20
136.3013417088305
 30
0.0
 10
110.7332259514003
 20
136.2650106182523
 30
0.0
 10
110.7316064437024
 20
136.193591015217
 30
0.0
 10
110.717674289244
 20
136.0893459460245
 30
0.0
 10
110.6960107194846
 20
135.9900097301446
 30
0.0
 10
110.6654976024209
 20
135.8956187449383
 30
0.0
 10
110.6242460382671
 20
135.806729493237
 30
0.0
 10
110.5756455942516
 20
135.722529793027
 30
0.0
 10
110.5181729287514
 20
135.6430741473625
 30
0.0
 10
110.4731070909665
 20
135.5956488992169
 30
0.0
 10
110.4502660097882
 20
135.5716119791008
 30
0.0
  0
LINE
  5
134
330
1F
100
AcDbEntity
  8
0
  6
Continuous
 62
     7
370
     0
100
AcDbLine
 10
110.7340498017
 20
137.9364760854
 30
0.0
 11
110.7340498017
 21
136.3013418652
 31
0.0
  0
LINE
  5
135
330
1F
100
AcDbEntity
  8
0
  6
Continuous
 62
     7
370
     0
100
AcDbLine
 10
107.2678335365
 20
137.9364760854
 30
0.0
 11
110.7340498017
 21
137.9364760854
 31
0.0
  0
LINE
  5
136
330
1F
100
AcDbEntity
  8
0
  6
Continuous
 62
     7
370
     0
100
AcDbLine
 10
107.2272930648
 20
130.4965367802
 30
0.0
 11
107.2272930648
 21
130.9019414969
 31
0.0
  0
LINE
  5
137
330
1F
100
AcDbEntity
  8
0
  6
Continuous
 62
     7
370
     0
100
AcDbLine
 10
110.0448606191
 20
129.7870775946
 30
0.0
 11
107.2272930648
 21
130.4965367802
 31
0.0
  0
LINE
  5
138
330
1F
100
AcDbEntity
  8
0
  6
Continuous
 62
     7
370
     0
100
AcDbLine
 10
107.2272930648
 20
129.077618409
 30
0.0
 11
110.0448606191
 21
129.7870775946
 31
0.0
  0
LINE
  5
139
330
1F
100
AcDbEntity
  8
0
  6
Continuous
 62
     7
370
     0
100
AcDbLine
 10
107.2272930648
 20
128.6722118296
 30
0.0
 11
107.2272930648
 21
129.077618409
 31
0.0
  0
LINE
  5
13A
330
1F
100
AcDbEntity
  8
0
  6
Continuous
 62
     7
370
     0
100
AcDbLine
 10
110.7340498017
 20
127.9019428678
 30
0.0
 11
107.2272930648
 21
128.6722118296
 31
0.0
  0
LINE
  5
13B
330
1F
100
AcDbEntity
  8
0
  6
Continuous
 62
     7
370
     0
100
AcDbLine
 10
110.7340498017
 20
128.3478880562
 30
0.0
 11
110.7340498017
 21
127.9019428678
 31
0.0
  0
LINE
  5
13C
330
1F
100
AcDbEntity
  8
0
  6
Continuous
 62
     7
370
     0
100
AcDbLine
 10
108.1597254849
 20
128.8951853551
 30
0.0
 11
110.7340498017
 21
128.3478880562
 31
0.0
  0
LINE
  5
13D
330
1F
100
AcDbEntity
  8
0
  6
Continuous
 62
     7
370
     0
100
AcDbLine
 10
110.7340498017
 20
129.5641040691
 30
0.0
 11
108.1597254849
 21
128.8951853551
 31
0.0
  0
LINE
  5
13E
330
1F
100
AcDbEntity
  8
0
  6
Continuous
 62
     7
370
     0
100
AcDbLine
 10
110.7340498017
 20
130.0100511201
 30
0.0
 11
110.7340498017
 21
129.5641040691
 31
0.0
  0
LINE
  5
13F
330
1F
100
AcDbEntity
  8
0
  6
Continuous
 62
     7
370
     0
100
AcDbLine
 10
108.1597254849
 20
130.678969834
 30
0.0
 11
110.7340498017
 21
130.0100511201
 31
0.0
  0
LINE
  5
140
330
1F
100
AcDbEntity
  8
0
  6
Continuous
 62
     7
370
     0
100
AcDbLine
 10
110.7340498017
 20
131.2262671329
 30
0.0
 11
108.1597254849
 21
130.678969834
 31
0.0
  0
LINE
  5
141
330
1F
100
AcDbEntity
  8
0
  6
Continuous
 62
     7
370
     0
100
AcDbLine
 10
110.7340498017
 20
131.6722123213
 30
0.0
 11
110.7340498017
 21
131.2262671329
 31
0.0
  0
LINE
  5
142
330
1F
100
AcDbEntity
  8
0
  6
Continuous
 62
     7
370
     0
100
AcDbLine
 10
107.2272930648
 20
130.9019414969
 30
0.0
 11
110.7340498017
 21
131.6722123213
 31
0.0
  0
LINE
  5
143
330
1F
100
AcDbEntity
  8
0
  6
Continuous
 62
     7
370
     0
100
AcDbLine
 10
101.8556713713
 20
123.7704748549
 30
0.0
 11
100.4570223046
 21
124.297501918
 31
0.0
  0
LINE
  5
144
330
1F
100
AcDbEntity
  8
0
  6
Continuous
 62
     7
370
     0
100
AcDbLine
 10
100.4570223046
 20
124.297501918
 30
0.0
 11
100.4570223046
 21
123.2434477918
 31
0.0
  0
LINE
  5
145
330
1F
100
AcDbEntity
  8
0
  6
Continuous
 62
     7
370
     0
100
AcDbLine
 10
100.4570223046
 20
123.2434477918
 30
0.0
 11
101.8556713713
 21
123.7704748549
 31
0.0
  0
SPLINE
  5
146
330
1F
100
AcDbEntity
  8
0
  6
Continuous
 62
     7
370
     0
100
AcDbSpline
210
0.0
220
0.0
230
1.0
 70
     8
 71
     3
 72
    15
 73
    11
 74
     0
 42
0.00000001
 43
0.00000001
 40
0.0
 40
0.0
 40
0.0
 40
0.0
 40
0.1193492950655687
 40
0.239053563744875
 40
0.3573649108366715
 40
0.4774641898633409
 40
0.6014125335766661
 40
0.729256145587601
 40
0.8608123139691183
 40
1.0
 40
1.0
 40
1.0
 40
1.0
 10
100.4570227665449
 20
138.082482409614
 30
0.0
 10
100.4716583732198
 20
138.0979324181201
 30
0.0
 10
100.5009731163968
 20
138.1288783871868
 30
0.0
 10
100.5381148498215
 20
138.1808212255918
 30
0.0
 10
100.5699420686777
 20
138.2361912897011
 30
0.0
 10
100.596600873871
 20
138.2951273440324
 30
0.0
 10
100.6166820761787
 20
138.358404799641
 30
0.0
 10
100.630844243765
 20
138.4253023558326
 30
0.0
 10
100.6391696161535
 20
138.4959364469289
 30
0.0
 10
100.6403499159125
 20
138.5441715419024
 30
0.0
 10
100.6409567004788
 20
138.5689688961005
 30
0.0
  0
SPLINE
  5
147
330
1F
100
AcDbEntity
  8
0
  6
Continuous
 62
     7
370
     0
100
AcDbSpline
210
0.0
220
0.0
230
1.0
 70
     8
 71
     3
 72
    15
 73
    11
 74
     0
 42
0.00000001
 43
0.00000001
 40
0.0
 40
0.0
 40
0.0
 40
0.0
 40
0.1417592153651985
 40
0.2766250878862754
 40
0.4055938754298268
 40
0.5298038142821764
 40
0.6485070271016883
 40
0.7663781392393265
 40
0.8822094009264979
 40
0.9999999999999999
 40
0.9999999999999999
 40
0.9999999999999999
 40
0.9999999999999999
 10
100.011076820599
 20
137.9203202474519
 30
0.0
 10
100.0341214959885
 20
137.920673364337
 30
0.0
 10
100.0790902504961
 20
137.921362427049
 30
0.0
 10
100.1446617755063
 20
137.9290329109131
 30
0.0
 10
100.2065296601317
 20
137.9416375779354
 30
0.0
 10
100.264317077582
 20
137.9596643470661
 30
0.0
 10
100.318436122775
 20
137.9824332105142
 30
0.0
 10
100.3687714930456
 20
138.0099841241311
 30
0.0
 10
100.4152595269404
 20
138.0434795118533
 30
0.0
 10
100.4430240682216
 20
138.0694089554315
 30
0.0
 10
100.4570227665449
 20
138.082482409614
 30
0.0
  0
SPLINE
  5
148
330
1F
100
AcDbEntity
  8
0
  6
Continuous
 62
     7
370
     0
100
AcDbSpline
210
0.0
220
0.0
230
1.0
 70
     8
 71
     3
 72
    15
 73
    11
 74
     0
 42
0.00000001
 43
0.00000001
 40
0.0
 40
0.0
 40
0.0
 40
0.0
 40
0.1277118540336128
 40
0.2523621141955288
 40
0.3748537650566257
 40
0.4969693854038479
 40
0.6192731655242167
 40
0.7424854443019973
 40
0.8694478780376639
 40
1.0
 40
1.0
 40
1.0
 40
1.0
 10
99.56513087465302
 20
138.1027526798843
 30
0.0
 10
99.58032573748055
 20
138.0881117013323
 30
0.0
 10
99.61035120173429
 20
138.0591807275459
 30
0.0
 10
99.66052974156074
 20
138.0227619855631
 30
0.0
 10
99.71235711701678
 20
137.9905333443993
 30
0.0
 10
99.767557027024
 20
137.9653347698083
 30
0.0
 10
99.82470232912345
 20
137.9447165429688
 30
0.0
 10
99.88461562554843
 20
137.9304187128596
 30
0.0
 10
99.94703225783
 20
137.9221965549948
 30
0.0
 10
99.98953115834307
 20
137.9209514686963
 30
0.0
 10
100.011076820599
 20
137.9203202474519
 30
0.0
  0
LINE
  5
149
330
1F
100
AcDbEntity
  8
0
  6
Continuous
 62
     7
370
     0
100
AcDbLine
 10
99.4029691098
 20
139.6027518697
 30
0.0
 11
99.4029691098
 21
138.5689689108
 31
0.0
  0
LINE
  5
14A
330
1F
100
AcDbEntity
  8
0
  6
Continuous
 62
     7
370
     0
100
AcDbLine
 10
100.6409566505
 20
139.6027518697
 30
0.0
 11
99.4029691098
 21
139.6027518697
 31
0.0
  0
LINE
  5
14B
330
1F
100
AcDbEntity
  8
0
  6
Continuous
 62
     7
370
     0
100
AcDbLine
 10
100.6409566505
 20
138.5689689108
 30
0.0
 11
100.6409566505
 21
139.6027518697
 31
0.0
  0
SPLINE
  5
14C
330
1F
100
AcDbEntity
  8
0
  6
Continuous
 62
     7
370
     0
100
AcDbSpline
210
0.0
220
0.0
230
1.0
 70
     8
 71
     3
 72
    15
 73
    11
 74
     0
 42
0.00000001
 43
0.00000001
 40
0.0
 40
0.0
 40
0.0
 40
0.0
 40
0.1452459980297234
 40
0.2839773123111032
 40
0.4135645357275246
 40
0.5387150251446068
 40
0.657005250215895
 40
0.7736984629726825
 40
0.8866940707303832
 40
1.0
 40
1.0
 40
1.0
 40
1.0
 10
99.40296871249085
 20
138.5689688961005
 30
0.0
 10
99.40321474058123
 20
138.5444099710461
 30
0.0
 10
99.40369576172337
 20
138.4963936564845
 30
0.0
 10
99.41282560896452
 20
138.4270406011258
 30
0.0
 10
99.42398987518894
 20
138.3614322869943
 30
0.0
 10
99.44235741643236
 20
138.3010343546894
 30
0.0
 10
99.46464665793528
 20
138.2442720290263
 30
0.0
 10
99.49370030830444
 20
138.1930734876116
 30
0.0
 10
99.52552716442827
 20
138.1444209556155
 30
0.0
 10
99.55191757507964
 20
138.1166547968026
 30
0.0
 10
99.56513087465302
 20
138.1027526798843
 30
0.0
  0
LINE
  5
14D
330
1F
100
AcDbEntity
  8
0
  6
Continuous
 62
     7
370
     0
100
AcDbLine
 10
94.7070227591
 20
151.46356209
 30
0.0
 11
94.9570223344
 21
151.7135625966
 31
0.0
  0
LINE
  5
14E
330
1F
100
AcDbEntity
  8
0
  6
Continuous
 62
     7
370
     0
100
AcDbLine
 10
94.9570223344
 20
151.7135625966
 30
0.0
 11
122.9570231987
 21
151.7135625966
 31
0.0
  0
LINE
  5
14F
330
1F
100
AcDbEntity
  8
0
  6
Continuous
 62
     7
370
     0
100
AcDbLine
 10
122.9570231987
 20
151.7135625966
 30
0.0
 11
123.207022774
 21
151.46356209
 31
0.0
  0
LINE
  5
150
330
1F
100
AcDbEntity
  8
0
  6
Continuous
 62
     7
370
     0
100
AcDbLine
 10
123.207022774
 20
151.46356209
 30
0.0
 11
122.9570231987
 21
151.2135653086
 31
0.0
  0
SPLINE
  5
151
330
1F
100
AcDbEntity
  8
0
  6
Continuous
 62
     7
370
     0
100
AcDbSpline
210
0.0
220
0.0
230
1.0
 70
     8
 71
     3
 72
    11
 73
     7
 74
     0
 42
0.00000001
 43
0.00000001
 40
0.0
 40
0.0
 40
0.0
 40
0.0
 40
0.2499695538886802
 40
0.4922399851273401
 40
0.7405148106356056
 40
1.0
 40
1.0
 40
1.0
 40
1.0
 10
101.9772930368152
 20
138.1635634906951
 30
0.0
 10
101.9963391891749
 20
138.1843359816073
 30
0.0
 10
102.0338448678004
 20
138.2252411656931
 30
0.0
 10
102.0722744072649
 20
138.2998866362869
 30
0.0
 10
102.0966085163044
 20
138.3812503814545
 30
0.0
 10
102.0991284006615
 20
138.4384078480334
 30
0.0
 10
102.1004161599383
 20
138.4676175447492
 30
0.0
  0
SPLINE
  5
152
330
1F
100
AcDbEntity
  8
0
  6
Continuous
 62
     7
370
     0
100
AcDbSpline
210
0.0
220
0.0
230
1.0
 70
     8
 71
     3
 72
    11
 73
     7
 74
     0
 42
0.00000001
 43
0.00000001
 40
0.0
 40
0.0
 40
0.0
 40
0.0
 40
0.2512883906177701
 40
0.4965258042891532
 40
0.7416445481409148
 40
0.9999999999999999
 40
0.9999999999999999
 40
0.9999999999999999
 40
0.9999999999999999
 10
101.5921579016801
 20
138.001401328533
 30
0.0
 10
101.6281984093164
 20
138.0030653474874
 30
0.0
 10
101.6994115759777
 20
138.0063533161344
 30
0.0
 10
101.8013240219939
 20
138.039068108483
 30
0.0
 10
101.8967327639247
 20
138.0896056603061
 30
0.0
 10
101.9499730371658
 20
138.1384825441218
 30
0.0
 10
101.9772930368152
 20
138.1635634906951
 30
0.0
  0
SPLINE
  5
153
330
1F
100
AcDbEntity
  8
0
  6
Continuous
 62
     7
370
     0
100
AcDbSpline
210
0.0
220
0.0
230
1.0
 70
     8
 71
     3
 72
    15
 73
    11
 74
     0
 42
0.00000001
 43
0.00000001
 40
0.0
 40
0.0
 40
0.0
 40
0.0
 40
0.1214714656714601
 40
0.240796038275624
 40
0.3607440567242927
 40
0.4814082529252899
 40
0.6046454459252693
 40
0.7311066188644313
 40
0.861995140844609
 40
1.0
 40
1.0
 40
1.0
 40
1.0
 10
101.1664822260044
 20
138.1635634906951
 30
0.0
 10
101.1802236828683
 20
138.1504846382949
 30
0.0
 10
101.2074637293654
 20
138.124558089819
 30
0.0
 10
101.2530865904919
 20
138.0912992542313
 30
0.0
 10
101.3020040992743
 20
138.0634705521693
 30
0.0
 10
101.3542605946387
 20
138.041049822923
 30
0.0
 10
101.4091825904034
 20
138.0227784881708
 30
0.0
 10
101.4673116218339
 20
138.0101743866095
 30
0.0
 10
101.5286321578898
 20
138.0024258260702
 30
0.0
 10
101.5706123149549
 20
138.00174880027
 30
0.0
 10
101.5921579016801
 20
138.001401328533
 30
0.0
  0
SPLINE
  5
154
330
1F
100
AcDbEntity
  8
0
  6
Continuous
 62
     7
370
     0
100
AcDbSpline
210
0.0
220
0.0
230
1.0
 70
     8
 71
     3
 72
    11
 73
     7
 74
     0
 42
0.00000001
 43
0.00000001
 40
0.0
 40
0.0
 40
0.0
 40
0.0
 40
0.2562600332085413
 40
0.5016208045865235
 40
0.7449078564687249
 40
1.0
 40
1.0
 40
1.0
 40
1.0
 10
101.0245903341125
 20
138.5081580852898
 30
0.0
 10
101.026287066258
 20
138.4754344353333
 30
0.0
 10
101.0296083650706
 20
138.4113789389898
 30
0.0
 10
101.0568387528138
 20
138.3195188091386
 30
0.0
 10
101.1019017826778
 20
138.2350910158124
 30
0.0
 10
101.1446181379271
 20
138.1877795540815
 30
0.0
 10
101.1664822260044
 20
138.1635634906951
 30
0.0
  0
LINE
  5
155
330
1F
100
AcDbEntity
  8
0
  6
Continuous
 62
     7
370
     0
100
AcDbLine
 10
101.0245907707
 20
139.6027518697
 30
0.0
 11
101.0245907707
 21
138.5081572719
 31
0.0
  0
LINE
  5
156
330
1F
100
AcDbEntity
  8
0
  6
Continuous
 62
     7
370
     0
100
AcDbLine
 10
102.100415959
 20
139.6027518697
 30
0.0
 11
101.0245907707
 21
139.6027518697
 31
0.0
  0
LINE
  5
157
330
1F
100
AcDbEntity
  8
0
  6
Continuous
 62
     7
370
     0
100
AcDbLine
 10
102.100415959
 20
138.4676168003
 30
0.0
 11
102.100415959
 21
139.6027518697
 31
0.0
  0
SPLINE
  5
158
330
1F
100
AcDbEntity
  8
0
  6
Continuous
 62
     7
370
     0
100
AcDbSpline
210
0.0
220
0.0
230
1.0
 70
     8
 71
     3
 72
    15
 73
    11
 74
     0
 42
0.00000001
 43
0.00000001
 40
0.0
 40
0.0
 40
0.0
 40
0.0
 40
0.1193492950655733
 40
0.2390535637448744
 40
0.3573649108366705
 40
0.4774641898633399
 40
0.6014125335766659
 40
0.7292561455876071
 40
0.8608123139691182
 40
1.0
 40
1.0
 40
1.0
 40
1.0
 10
108.7070227665449
 20
132.6969873544762
 30
0.0
 10
108.7216583732198
 20
132.7124373629822
 30
0.0
 10
108.7509731163968
 20
132.743383332049
 30
0.0
 10
108.7881148498215
 20
132.795326170454
 30
0.0
 10
108.8199420686778
 20
132.8506962345632
 30
0.0
 10
108.846600873871
 20
132.9096322888946
 30
0.0
 10
108.8666820761787
 20
132.9729097445031
 30
0.0
 10
108.880844243765
 20
133.0398073006947
 30
0.0
 10
108.8891696161535
 20
133.1104413917911
 30
0.0
 10
108.8903499159125
 20
133.1586764867645
 30
0.0
 10
108.8909567004789
 20
133.1834738409627
 30
0.0
  0
SPLINE
  5
159
330
1F
100
AcDbEntity
  8
0
  6
Continuous
 62
     7
370
     0
100
AcDbSpline
210
0.0
220
0.0
230
1.0
 70
     8
 71
     3
 72
    15
 73
    11
 74
     0
 42
0.00000001
 43
0.00000001
 40
0.0
 40
0.0
 40
0.0
 40
0.0
 40
0.1417592153651974
 40
0.2766250878862752
 40
0.4055938754298274
 40
0.5298038142821757
 40
0.6485070271016868
 40
0.7663781392393259
 40
0.8822094009264984
 40
1.0
 40
1.0
 40
1.0
 40
1.0
 10
108.261076820599
 20
132.534825192314
 30
0.0
 10
108.2841214959885
 20
132.5351783091992
 30
0.0
 10
108.3290902504961
 20
132.5358673719111
 30
0.0
 10
108.3946617755063
 20
132.5435378557752
 30
0.0
 10
108.4565296601317
 20
132.5561425227975
 30
0.0
 10
108.514317077582
 20
132.5741692919283
 30
0.0
 10
108.568436122775
 20
132.5969381553764
 30
0.0
 10
108.6187714930456
 20
132.6244890689932
 30
0.0
 10
108.6652595269404
 20
132.6579844567155
 30
0.0
 10
108.6930240682216
 20
132.6839139002936
 30
0.0
 10
108.7070227665449
 20
132.6969873544762
 30
0.0
  0
SPLINE
  5
15A
330
1F
100
AcDbEntity
  8
0
  6
Continuous
 62
     7
370
     0
100
AcDbSpline
210
0.0
220
0.0
230
1.0
 70
     8
 71
     3
 72
    15
 73
    11
 74
     0
 42
0.00000001
 43
0.00000001
 40
0.0
 40
0.0
 40
0.0
 40
0.0
 40
0.1277118540336141
 40
0.2523621141955301
 40
0.3748537650566252
 40
0.4969693854038502
 40
0.6192731655242179
 40
0.7424854443019976
 40
0.8694478780376612
 40
1.0
 40
1.0
 40
1.0
 40
1.0
 10
107.815130874653
 20
132.7172576247465
 30
0.0
 10
107.8303257374805
 20
132.7026166461945
 30
0.0
 10
107.8603512017343
 20
132.673685672408
 30
0.0
 10
107.9105297415607
 20
132.6372669304252
 30
0.0
 10
107.9623571170168
 20
132.6050382892614
 30
0.0
 10
108.017557027024
 20
132.5798397146704
 30
0.0
 10
108.0747023291235
 20
132.559221487831
 30
0.0
 10
108.1346156255484
 20
132.5449236577217
 30
0.0
 10
108.19703225783
 20
132.536701499857
 30
0.0
 10
108.2395311583431
 20
132.5354564135584
 30
0.0
 10
108.261076820599
 20
132.534825192314
 30
0.0
  0
SPLINE
  5
15B
330
1F
100
AcDbEntity
  8
0
  6
Continuous
 62
     7
370
     0
100
AcDbSpline
210
0.0
220
0.0
230
1.0
 70
     8
 71
     3
 72
    15
 73
    11
 74
     0
 42
0.00000001
 43
0.00000001
 40
0.0
 40
0.0
 40
0.0
 40
0.0
 40
0.1452459980297237
 40
0.2839773123111033
 40
0.4135645357275251
 40
0.5387150251446077
 40
0.6570052502158962
 40
0.7736984629726825
 40
0.8866940707303831
 40
1.0
 40
1.0
 40
1.0
 40
1.0
 10
107.6529687124909
 20
133.1834738409627
 30
0.0
 10
107.6532147405812
 20
133.1589149159083
 30
0.0
 10
107.6536957617234
 20
133.1108986013466
 30
0.0
 10
107.6628256089645
 20
133.041545545988
 30
0.0
 10
107.673989875189
 20
132.9759372318565
 30
0.0
 10
107.6923574164324
 20
132.9155392995515
 30
0.0
 10
107.7146466579353
 20
132.8587769738885
 30
0.0
 10
107.7437003083045
 20
132.8075784324737
 30
0.0
 10
107.7755271644283
 20
132.7589259004776
 30
0.0
 10
107.8019175750796
 20
132.7311597416648
 30
0.0
 10
107.815130874653
 20
132.7172576247465
 30
0.0
  0
LINE
  5
15C
330
1F
100
AcDbEntity
  8
0
  6
Continuous
 62
     7
370
     0
100
AcDbLine
 10
107.6529687158
 20
134.2172580101
 30
0.0
 11
107.6529687158
 21
133.1834731885
 31
0.0
  0
LINE
  5
15D
330
1F
100
AcDbEntity
  8
0
  6
Continuous
 62
     7
370
     0
100
AcDbLine
 10
108.8909567003
 20
134.2172580101
 30
0.0
 11
107.6529687158
 21
134.2172580101
 31
0.0
  0
LINE
  5
15E
330
1F
100
AcDbEntity
  8
0
  6
Continuous
 62
     7
370
     0
100
AcDbLine
 10
108.8909567003
 20
133.1834731885
 30
0.0
 11
108.8909567003
 21
134.2172580101
 31
0.0
  0
SPLINE
  5
15F
330
1F
100
AcDbEntity
  8
0
  6
Continuous
 62
     7
370
     0
100
AcDbSpline
210
0.0
220
0.0
230
1.0
 70
     8
 71
     3
 72
    11
 73
     7
 74
     0
 42
0.00000001
 43
0.00000001
 40
0.0
 40
0.0
 40
0.0
 40
0.0
 40
0.2499695538886876
 40
0.4922399851273394
 40
0.7405148106355951
 40
1.0
 40
1.0
 40
1.0
 40
1.0
 10
110.2272930368152
 20
132.7780684355573
 30
0.0
 10
110.2463391891749
 20
132.7988409264694
 30
0.0
 10
110.2838448678004
 20
132.8397461105552
 30
0.0
 10
110.3222744072649
 20
132.914391581149
 30
0.0
 10
110.3466085163044
 20
132.9957553263167
 30
0.0
 10
110.3491284006615
 20
133.0529127928956
 30
0.0
 10
110.3504161599383
 20
133.0821224896113
 30
0.0
  0
SPLINE
  5
160
330
1F
100
AcDbEntity
  8
0
  6
Continuous
 62
     7
370
     0
100
AcDbSpline
210
0.0
220
0.0
230
1.0
 70
     8
 71
     3
 72
    11
 73
     7
 74
     0
 42
0.00000001
 43
0.00000001
 40
0.0
 40
0.0
 40
0.0
 40
0.0
 40
0.2512883906177709
 40
0.4965258042891519
 40
0.7416445481409134
 40
1.0
 40
1.0
 40
1.0
 40
1.0
 10
109.84215790168
 20
132.6159062733951
 30
0.0
 10
109.8781984093164
 20
132.6175702923495
 30
0.0
 10
109.9494115759778
 20
132.6208582609965
 30
0.0
 10
110.0513240219939
 20
132.6535730533451
 30
0.0
 10
110.1467327639247
 20
132.7041106051683
 30
0.0
 10
110.1999730371658
 20
132.752987488984
 30
0.0
 10
110.2272930368152
 20
132.7780684355573
 30
0.0
  0
SPLINE
  5
161
330
1F
100
AcDbEntity
  8
0
  6
Continuous
 62
     7
370
     0
100
AcDbSpline
210
0.0
220
0.0
230
1.0
 70
     8
 71
     3
 72
    15
 73
    11
 74
     0
 42
0.00000001
 43
0.00000001
 40
0.0
 40
0.0
 40
0.0
 40
0.0
 40
0.1214714656714607
 40
0.2407960382756238
 40
0.3607440567242969
 40
0.4814082529252894
 40
0.6046454459252696
 40
0.7311066188644315
 40
0.8619951408446083
 40
1.0
 40
1.0
 40
1.0
 40
1.0
 10
109.4164822260044
 20
132.7780684355573
 30
0.0
 10
109.4302236828683
 20
132.764989583157
 30
0.0
 10
109.4574637293654
 20
132.7390630346812
 30
0.0
 10
109.503086590492
 20
132.7058041990934
 30
0.0
 10
109.5520040992743
 20
132.6779754970315
 30
0.0
 10
109.6042605946387
 20
132.6555547677851
 30
0.0
 10
109.6591825904034
 20
132.637283433033
 30
0.0
 10
109.7173116218339
 20
132.6246793314716
 30
0.0
 10
109.7786321578898
 20
132.6169307709323
 30
0.0
 10
109.8206123149549
 20
132.6162537451321
 30
0.0
 10
109.84215790168
 20
132.6159062733951
 30
0.0
  0
SPLINE
  5
162
330
1F
100
AcDbEntity
  8
0
  6
Continuous
 62
     7
370
     0
100
AcDbSpline
210
0.0
220
0.0
230
1.0
 70
     8
 71
     3
 72
    11
 73
     7
 74
     0
 42
0.00000001
 43
0.00000001
 40
0.0
 40
0.0
 40
0.0
 40
0.0
 40
0.2562600332085405
 40
0.5016208045865217
 40
0.744907856468731
 40
1.0
 40
1.0
 40
1.0
 40
1.0
 10
109.2745903341125
 20
133.1226630301518
 30
0.0
 10
109.276287066258
 20
133.0899393801954
 30
0.0
 10
109.2796083650706
 20
133.0258838838519
 30
0.0
 10
109.3068387528138
 20
132.9340237540007
 30
0.0
 10
109.3519017826778
 20
132.8495959606746
 30
0.0
 10
109.3946181379271
 20
132.8022844989436
 30
0.0
 10
109.4164822260044
 20
132.7780684355573
 30
0.0
  0
LINE
  5
163
330
1F
100
AcDbEntity
  8
0
  6
Continuous
 62
     7
370
     0
100
AcDbLine
 10
109.2745903476
 20
134.2172580101
 30
0.0
 11
109.2745903476
 21
133.1226634123
 31
0.0
  0
LINE
  5
164
330
1F
100
AcDbEntity
  8
0
  6
Continuous
 62
     7
370
     0
100
AcDbLine
 10
110.3504161471
 20
134.2172580101
 30
0.0
 11
109.2745903476
 21
134.2172580101
 31
0.0
  0
LINE
  5
165
330
1F
100
AcDbEntity
  8
0
  6
Continuous
 62
     7
370
     0
100
AcDbLine
 10
110.3504161471
 20
133.0821229406
 30
0.0
 11
110.3504161471
 21
134.2172580101
 31
0.0
  0
SPLINE
  5
166
330
1F
100
AcDbEntity
  8
0
  6
Continuous
 62
     7
370
     0
100
AcDbSpline
210
0.0
220
0.0
230
1.0
 70
     8
 71
     3
 72
    15
 73
    11
 74
     0
 42
0.00000001
 43
0.00000001
 40
0.0
 40
0.0
 40
0.0
 40
0.0
 40
0.1238293196962745
 40
0.2456784877591816
 40
0.3659129908554835
 40
0.487866720580703
 40
0.6095501489246116
 40
0.7350748476280462
 40
0.865781316635207
 40
1.0
 40
1.0
 40
1.0
 40
1.0
 10
110.1664822260044
 20
135.9364768439657
 30
0.0
 10
110.1810563662972
 20
135.9519742169117
 30
0.0
 10
110.2099715921606
 20
135.9827211446906
 30
0.0
 10
110.2475877304617
 20
136.0332360733966
 30
0.0
 10
110.2794246675877
 20
136.0871452176285
 30
0.0
 10
110.3055764861097
 20
136.143999300977
 30
0.0
 10
110.3262089623972
 20
136.2040582157613
 30
0.0
 10
110.3403672409777
 20
136.267502297766
 30
0.0
 10
110.3485300209128
 20
136.3341606127558
 30
0.0
 10
110.3497819146513
 20
136.3796478969156
 30
0.0
 10
110.3504161599383
 20
136.4026930601819
 30
0.0
  0
SPLINE
  5
167
330
1F
100
AcDbEntity
  8
0
  6
Continuous
 62
     7
370
     0
100
AcDbSpline
210
0.0
220
0.0
230
1.0
 70
     8
 71
     3
 72
    15
 73
    11
 74
     0
 42
0.00000001
 43
0.00000001
 40
0.0
 40
0.0
 40
0.0
 40
0.0
 40
0.1527009802673787
 40
0.295010759856878
 40
0.4290822225063872
 40
0.5545181512910669
 40
0.6733023867450129
 40
0.7858491108012822
 40
0.8937899750808966
 40
1.0
 40
1.0
 40
1.0
 40
1.0
 10
109.6597254692476
 20
135.7743146818035
 30
0.0
 10
109.6875227120278
 20
135.7746521263708
 30
0.0
 10
109.7412256136082
 20
135.7753040526259
 30
0.0
 10
109.8190174865463
 20
135.7829833837711
 30
0.0
 10
109.8911810768913
 20
135.7953491819983
 30
0.0
 10
109.9576245451586
 20
135.8136662716241
 30
0.0
 10
110.0188000643902
 20
135.835741518579
 30
0.0
 10
110.0740023119435
 20
135.8636888017146
 30
0.0
 10
110.1236792592549
 20
135.8967835930793
 30
0.0
 10
110.1522916554175
 20
135.9233172449635
 30
0.0
 10
110.1664822260044
 20
135.9364768439657
 30
0.0
  0
SPLINE
  5
168
330
1F
100
AcDbEntity
  8
0
  6
Continuous
 62
     7
370
     0
100
AcDbSpline
210
0.0
220
0.0
230
1.0
 70
     8
 71
     3
 72
    15
 73
    11
 74
     0
 42
0.00000001
 43
0.00000001
 40
0.0
 40
0.0
 40
0.0
 40
0.0
 40
0.1195207678016621
 40
0.2385769889400692
 40
0.3570583175167614
 40
0.4780520139443328
 40
0.600839870927913
 40
0.7288671597165908
 40
0.8606123388176885
 40
1.0
 40
1.0
 40
1.0
 40
1.0
 10
109.1732389827611
 20
135.956747114236
 30
0.0
 10
109.1886441798104
 20
135.9420462219081
 30
0.0
 10
109.2193946978472
 20
135.912701575862
 30
0.0
 10
109.2718668917977
 20
135.8765950169823
 30
0.0
 10
109.3268790048237
 20
135.8441286897945
 30
0.0
 10
109.3864767770827
 20
135.8192335925369
 30
0.0
 10
109.4493203335833
 20
135.7983483204528
 30
0.0
 10
109.5160797048803
 20
135.7844807187614
 30
0.0
 10
109.5866874075456
 20
135.7760872916303
 30
0.0
 10
109.6349262093773
 20
135.7749165517151
 30
0.0
 10
109.6597254692476
 20
135.7743146818035
 30
0.0
  0
SPLINE
  5
169
330
1F
100
AcDbEntity
  8
0
  6
Continuous
 62
     7
370
     0
100
AcDbSpline
210
0.0
220
0.0
230
1.0
 70
     8
 71
     3
 72
    15
 73
    11
 74
     0
 42
0.00000001
 43
0.00000001
 40
0.0
 40
0.0
 40
0.0
 40
0.0
 40
0.1417962611116261
 40
0.2768819513477021
 40
0.4055805706087828
 40
0.5298229690785662
 40
0.6485572024501433
 40
0.7672114666371244
 40
0.8821786188665556
 40
1.0
 40
1.0
 40
1.0
 40
1.0
 10
109.011076820599
 20
136.4026930601819
 30
0.0
 10
109.011313875669
 20
136.379632081632
 30
0.0
 10
109.0117767670728
 20
136.3346014955586
 30
0.0
 10
109.0210621656275
 20
136.2692760334619
 30
0.0
 10
109.032071186514
 20
136.2071222294944
 30
0.0
 10
109.050572348205
 20
136.1495098961524
 30
0.0
 10
109.0729613395101
 20
136.095066666813
 30
0.0
 10
109.1017392527501
 20
136.0454692359369
 30
0.0
 10
109.1341050938276
 20
135.998248231533
 30
0.0
 10
109.1600881600016
 20
135.9706934367909
 30
0.0
 10
109.1732389827611
 20
135.956747114236
 30
0.0
  0
LINE
  5
16A
330
1F
100
AcDbEntity
  8
0
  6
Continuous
 62
     7
370
     0
100
AcDbLine
 10
109.0110768197
 20
137.4567462393
 30
0.0
 11
109.0110768197
 21
136.4026939758
 31
0.0
  0
LINE
  5
16B
330
1F
100
AcDbEntity
  8
0
  6
Continuous
 62
     7
370
     0
100
AcDbLine
 10
110.3504161471
 20
137.4567462393
 30
0.0
 11
109.0110768197
 21
137.4567462393
 31
0.0
  0
LINE
  5
16C
330
1F
100
AcDbEntity
  8
0
  6
Continuous
 62
     7
370
     0
100
AcDbLine
 10
110.3504161471
 20
136.4026939758
 30
0.0
 11
110.3504161471
 21
137.4567462393
 31
0.0
  0
LINE
  5
16D
330
1F
100
AcDbEntity
  8
0
  6
Continuous
 62
     7
370
     0
100
AcDbLine
 10
123.9570224313
 20
150.7135642954
 30
0.0
 11
123.9570224313
 21
112.7135635382
 31
0.0
  0
LINE
  5
16E
330
1F
100
AcDbEntity
  8
0
  6
Continuous
 62
     7
370
     0
100
AcDbLine
 10
123.207022774
 20
111.9635635026
 30
0.0
 11
123.9570224313
 21
112.7135635382
 31
0.0
  0
LINE
  5
16F
330
1F
100
AcDbEntity
  8
0
  6
Continuous
 62
     7
370
     0
100
AcDbLine
 10
123.9570224313
 20
150.7135642954
 30
0.0
 11
123.207022774
 21
151.46356209
 31
0.0
  0
SPLINE
  5
170
330
1F
100
AcDbEntity
  8
0
  6
Continuous
 62
     7
370
     0
100
AcDbSpline
210
0.0
220
0.0
230
1.0
 70
     8
 71
     3
 72
    15
 73
    11
 74
     0
 42
0.00000001
 43
0.00000001
 40
0.0
 40
0.0
 40
0.0
 40
0.0
 40
0.1238293196962746
 40
0.2456784877591804
 40
0.3659129908554829
 40
0.4878667205807026
 40
0.6095501489246171
 40
0.7350748476280456
 40
0.8657813166352069
 40
1.0
 40
1.0
 40
1.0
 40
1.0
 10
118.4164822260044
 20
131.1219718991036
 30
0.0
 10
118.4310563662972
 20
131.1374692720495
 30
0.0
 10
118.4599715921606
 20
131.1682161998285
 30
0.0
 10
118.4975877304617
 20
131.2187311285344
 30
0.0
 10
118.5294246675877
 20
131.2726402727664
 30
0.0
 10
118.5555764861097
 20
131.3294943561149
 30
0.0
 10
118.5762089623972
 20
131.3895532708992
 30
0.0
 10
118.5903672409777
 20
131.4529973529039
 30
0.0
 10
118.5985300209128
 20
131.5196556678937
 30
0.0
 10
118.5997819146513
 20
131.5651429520534
 30
0.0
 10
118.6004161599383
 20
131.5881881153198
 30
0.0
  0
SPLINE
  5
171
330
1F
100
AcDbEntity
  8
0
  6
Continuous
 62
     7
370
     0
100
AcDbSpline
210
0.0
220
0.0
230
1.0
 70
     8
 71
     3
 72
    15
 73
    11
 74
     0
 42
0.00000001
 43
0.00000001
 40
0.0
 40
0.0
 40
0.0
 40
0.0
 40
0.1527009802673807
 40
0.2950107598568787
 40
0.4290822225063867
 40
0.5545181512910686
 40
0.6733023867450112
 40
0.7858491108012831
 40
0.8937899750808926
 40
1.0
 40
1.0
 40
1.0
 40
1.0
 10
117.9097254692476
 20
130.9598097369414
 30
0.0
 10
117.9375227120279
 20
130.9601471815087
 30
0.0
 10
117.9912256136082
 20
130.9607991077638
 30
0.0
 10
118.0690174865463
 20
130.9684784389089
 30
0.0
 10
118.1411810768913
 20
130.9808442371362
 30
0.0
 10
118.2076245451586
 20
130.999161326762
 30
0.0
 10
118.2688000643902
 20
131.0212365737169
 30
0.0
 10
118.3240023119435
 20
131.0491838568525
 30
0.0
 10
118.3736792592549
 20
131.0822786482172
 30
0.0
 10
118.4022916554175
 20
131.1088123001014
 30
0.0
 10
118.4164822260044
 20
131.1219718991036
 30
0.0
  0
SPLINE
  5
172
330
1F
100
AcDbEntity
  8
0
  6
Continuous
 62
     7
370
     0
100
AcDbSpline
210
0.0
220
0.0
230
1.0
 70
     8
 71
     3
 72
    15
 73
    11
 74
     0
 42
0.00000001
 43
0.00000001
 40
0.0
 40
0.0
 40
0.0
 40
0.0
 40
0.1195207678016627
 40
0.2385769889400748
 40
0.3570583175167639
 40
0.4780520139443323
 40
0.6008398709279169
 40
0.7288671597165925
 40
0.8606123388176903
 40
1.0
 40
1.0
 40
1.0
 40
1.0
 10
117.4232389827611
 20
131.1422421693738
 30
0.0
 10
117.4386441798104
 20
131.127541277046
 30
0.0
 10
117.4693946978472
 20
131.0981966309999
 30
0.0
 10
117.5218668917977
 20
131.0620900721202
 30
0.0
 10
117.5768790048237
 20
131.0296237449324
 30
0.0
 10
117.6364767770827
 20
131.0047286476748
 30
0.0
 10
117.6993203335833
 20
130.9838433755907
 30
0.0
 10
117.7660797048803
 20
130.9699757738993
 30
0.0
 10
117.8366874075456
 20
130.9615823467681
 30
0.0
 10
117.8849262093773
 20
130.960411606853
 30
0.0
 10
117.9097254692476
 20
130.9598097369414
 30
0.0
  0
SPLINE
  5
173
330
1F
100
AcDbEntity
  8
0
  6
Continuous
 62
     7
370
     0
100
AcDbSpline
210
0.0
220
0.0
230
1.0
 70
     8
 71
     3
 72
    15
 73
    11
 74
     0
 42
0.00000001
 43
0.00000001
 40
0.0
 40
0.0
 40
0.0
 40
0.0
 40
0.1417962611116262
 40
0.2768819513477025
 40
0.4055805706087833
 40
0.5298229690785595
 40
0.6485572024501431
 40
0.7672114666371238
 40
0.8821786188665555
 40
1.0
 40
1.0
 40
1.0
 40
1.0
 10
117.261076820599
 20
131.5881881153198
 30
0.0
 10
117.261313875669
 20
131.5651271367699
 30
0.0
 10
117.2617767670727
 20
131.5200965506965
 30
0.0
 10
117.2710621656275
 20
131.4547710885998
 30
0.0
 10
117.282071186514
 20
131.3926172846323
 30
0.0
 10
117.3005723482049
 20
131.3350049512903
 30
0.0
 10
117.3229613395101
 20
131.2805617219509
 30
0.0
 10
117.3517392527501
 20
131.2309642910748
 30
0.0
 10
117.3841050938276
 20
131.1837432866708
 30
0.0
 10
117.4100881600016
 20
131.1561884919287
 30
0.0
 10
117.4232389827611
 20
131.1422421693738
 30
0.0
  0
LINE
  5
174
330
1F
100
AcDbEntity
  8
0
  6
Continuous
 62
     7
370
     0
100
AcDbLine
 10
117.2610766841
 20
132.6422425248
 30
0.0
 11
117.2610766841
 21
131.5881883987
 31
0.0
  0
LINE
  5
175
330
1F
100
AcDbEntity
  8
0
  6
Continuous
 62
     7
370
     0
100
AcDbLine
 10
118.6004163352
 20
132.6422425248
 30
0.0
 11
117.2610766841
 21
132.6422425248
 31
0.0
  0
LINE
  5
176
330
1F
100
AcDbEntity
  8
0
  6
Continuous
 62
     7
370
     0
100
AcDbLine
 10
118.6004163352
 20
131.5881883987
 30
0.0
 11
118.6004163352
 21
132.6422425248
 31
0.0
  0
LINE
  5
177
330
1F
100
AcDbEntity
  8
0
  6
Continuous
 62
    18
370
     0
100
AcDbLine
 10
113.0286165168
 20
163.562619526
 30
0.0
 11
113.5270226402
 21
163.562619526
 31
0.0
  0
LINE
  5
178
330
1F
100
AcDbEntity
  8
0
  6
Continuous
 62
    18
370
     0
100
AcDbLine
 10
104.3870228929
 20
163.562619526
 30
0.0
 11
113.0286165168
 21
163.562619526
 31
0.0
  0
LINE
  5
179
330
1F
100
AcDbEntity
  8
0
  6
Continuous
 62
    18
370
     0
100
AcDbLine
 10
113.6344553558
 20
162.6152036973
 30
0.0
 11
103.7070228373
 21
162.6152036973
 31
0.0
  0
LINE
  5
17A
330
1F
100
AcDbEntity
  8
0
  6
Continuous
 62
    18
370
     0
100
AcDbLine
 10
114.2070226958
 20
162.6152036973
 30
0.0
 11
113.6344553558
 21
162.6152036973
 31
0.0
  0
LINE
  5
17B
330
1F
100
AcDbEntity
  8
0
  6
Continuous
 62
    18
370
     0
100
AcDbLine
 10
113.5270226402
 20
102.1645063796
 30
0.0
 11
104.3870228929
 21
102.1645063796
 31
0.0
  0
LINE
  5
17C
330
1F
100
AcDbEntity
  8
0
  6
Continuous
 62
    18
370
     0
100
AcDbLine
 10
103.7070228373
 20
103.1119240709
 30
0.0
 11
114.2070226958
 21
103.1119240709
 31
0.0
  0
DIMENSION
  5
17D
330
1F
100
AcDbEntity
  8
0
  6
Continuous
 62
     7
370
     0
100
AcDbDimension
  2
*D3
 10
129.0594386706
 20
123.7135634907
 30
0.0
 11
129.0594386706
 21
131.7135634907
 31
0.0
 70
   160
 71
     2
 42
-1.0
  3
SLDDIMSTYLE0
100
AcDbAlignedDimension
 13
120.2070227665
 23
139.7135634907
 33
0.0
 14
120.2070227665
 24
123.7135634907
 34
0.0
 50
90.0
100
AcDbRotatedDimension
  0
DIMENSION
  5
190
330
1F
100
AcDbEntity
  8
0
  6
Continuous
 62
     7
370
     0
100
AcDbDimension
  2
*D4
 10
86.3360723176
 20
131.7135634907
 30
0.0
 11
86.3360723176
 21
135.7135634907
 31
0.0
 70
   160
 71
     2
 42
-1.0
  3
SLDDIMSTYLE0
100
AcDbAlignedDimension
 13
111.7070227665
 23
139.7135634907
 33
0.0
 14
97.7070227665
 24
131.7135634907
 34
0.0
 50
90.0
100
AcDbRotatedDimension
  0
DIMENSION
  5
19C
330
1F
100
AcDbEntity
  8
0
  6
Continuous
 62
     7
370
     0
100
AcDbDimension
  2
*D5
 10
77.9570227665
 20
111.7135634907
 30
0.0
 11
77.9570227665
 21
131.7135634907
 31
0.0
 70
   160
 71
     2
 42
-1.0
  3
SLDDIMSTYLE1
100
AcDbAlignedDimension
 13
94.9570227665
 23
151.7135634907
 33
0.0
 14
94.9570227665
 24
111.7135634907
 34
0.0
 50
90.0
100
AcDbRotatedDimension
  0
DIMENSION
  5
1A7
330
1F
100
AcDbEntity
  8
0
  6
Continuous
 62
     7
370
     0
100
AcDbDimension
  2
*D6
 10
114.7195583018
 20
124.9509727595
 30
0.0
 11
140.011454389
 21
111.8953953354
 31
0.0
 70
   163
  1
3-<>
 71
     1
 42
-1.0
  3
SLDDIMSTYLE2
100
AcDbDiametricDimension
 15
117.1944872313
 25
122.4761542219
 35
0.0
 40
0.0
  0
DIMENSION
  5
1B2
330
1F
100
AcDbEntity
  8
0
  6
Continuous
 62
     7
370
     0
100
AcDbDimension
  2
*D7
 10
123.9570227665
 20
87.246351801
 30
0.0
 11
108.9570227665
 21
87.246351801
 31
0.0
 70
   160
 71
     2
 42
-1.0
  3
SLDDIMSTYLE1
100
AcDbAlignedDimension
 13
93.9570227665
 23
112.7135634907
 33
0.0
 14
123.9570227665
 24
112.7135634907
 34
0.0
100
AcDbRotatedDimension
  0
DIMENSION
  5
1BC
330
1F
100
AcDbEntity
  8
0
  6
Continuous
 62
     7
370
     0
100
AcDbDimension
  2
*D8
 10
101.9570227665
 20
95.0743099287
 30
0.0
 11
108.9570227665
 21
95.0743099287
 31
0.0
 70
   160
 71
     2
 42
-1.0
  3
SLDDIMSTYLE0
100
AcDbAlignedDimension
 13
115.9570227665
 23
119.4635634907
 33
0.0
 14
101.9570227665
 24
127.4635634907
 34
0.0
100
AcDbRotatedDimension
  0
MTEXT
  5
1C8
330
1F
100
AcDbEntity
  8
0
  6
Continuous
 62
     7
370
     0
100
AcDbMText
 10
132.2218433422
 20
189.3832726414
 30
0.0
 40
3.5
 41
0.0
 71
     1
 72
     1
  1
M12 P=1
  7
SLDTEXTSTYLE0
 73
     1
 44
1.0
  0
LEADER
  5
1CA
330
1F
100
AcDbEntity
  8
0
  6
Continuous
 62
     7
370
     0
100
AcDbLeader
  3
SLDDIMSTYLE3
 76
     3
 10
114.9570227665
 20
156.0307780336
 30
0.0
 10
131.7209949643
 20
184.8699921138
 30
0.0
 10
146.4781328954
 20
184.8699921138
 30
0.0
  0
INSERT
  5
1D6
330
1F
100
AcDbEntity
  8
0
  6
Continuous
 62
     7
370
     0
100
AcDbBlockReference
  2
SW_CENTERMARKSYMBOL_1
 10
101.9570227665
 20
131.7135634907
 30
0.0
  0
INSERT
  5
1E2
330
1F
100
AcDbEntity
  8
0
  6
Continuous
 62
     7
370
     0
100
AcDbBlockReference
  2
SW_CENTERMARKSYMBOL_2
 10
115.9570227665
 20
139.7135634907
 30
0.0
  0
INSERT
  5
1EE
330
1F
100
AcDbEntity
  8
0
  6
Continuous
 62
     7
370
     0
100
AcDbBlockReference
  2
SW_CENTERMARKSYMBOL_3
 10
115.9570227665
 20
123.7135634907
 30
0.0
  0
LINE
  5
1EF
330
1F
100
AcDbEntity
  8
0
  6
Continuous
 62
     7
370
     0
100
AcDbLine
 10
167.7124065085
 20
152.9135642834
 30
0.0
 11
167.7124065085
 21
158.4135642536
 31
0.0
  0
LINE
  5
1F0
330
1F
100
AcDbEntity
  8
0
  6
Continuous
 62
     7
370
     0
100
AcDbLine
 10
155.7124064042
 20
158.4135642536
 30
0.0
 11
155.7124064042
 21
152.9135642834
 31
0.0
  0
LINE
  5
1F1
330
1F
100
AcDbEntity
  8
0
  6
Continuous
 62
     7
370
     0
100
AcDbLine
 10
167.7124065085
 20
158.4135642536
 30
0.0
 11
167.2124064265
 21
158.9135652669
 31
0.0
  0
LINE
  5
1F2
330
1F
100
AcDbEntity
  8
0
  6
Continuous
 62
     7
370
     0
100
AcDbLine
 10
156.2124064861
 20
158.9135652669
 30
0.0
 11
155.7124064042
 21
158.4135642536
 31
0.0
  0
LINE
  5
1F3
330
1F
100
AcDbEntity
  8
0
  6
Continuous
 62
     7
370
     0
100
AcDbLine
 10
167.2124064265
 20
152.2135636099
 30
0.0
 11
167.2124064265
 21
152.9135642834
 31
0.0
  0
LINE
  5
1F4
330
1F
100
AcDbEntity
  8
0
  6
Continuous
 62
     7
370
     0
100
AcDbLine
 10
156.2124064861
 20
152.9135642834
 30
0.0
 11
156.2124064861
 21
152.2135636099
 31
0.0
  0
LINE
  5
1F5
330
1F
100
AcDbEntity
  8
0
  6
Continuous
 62
     7
370
     0
100
AcDbLine
 10
155.7124064042
 20
110.5135634337
 30
0.0
 11
155.7124064042
 21
105.0135636963
 31
0.0
  0
LINE
  5
1F6
330
1F
100
AcDbEntity
  8
0
  6
Continuous
 62
     7
370
     0
100
AcDbLine
 10
167.7124065085
 20
105.0135636963
 30
0.0
 11
167.7124065085
 21
110.5135634337
 31
0.0
  0
LINE
  5
1F7
330
1F
100
AcDbEntity
  8
0
  6
Continuous
 62
     7
370
     0
100
AcDbLine
 10
155.7124064042
 20
105.0135636963
 30
0.0
 11
156.2124064861
 21
104.5135636144
 31
0.0
  0
LINE
  5
1F8
330
1F
100
AcDbEntity
  8
0
  6
Continuous
 62
     7
370
     0
100
AcDbLine
 10
167.2124064265
 20
104.5135636144
 30
0.0
 11
167.7124065085
 21
105.0135636963
 31
0.0
  0
LINE
  5
1F9
330
1F
100
AcDbEntity
  8
0
  6
Continuous
 62
     7
370
     0
100
AcDbLine
 10
156.2124064861
 20
111.2135634669
 30
0.0
 11
156.2124064861
 21
110.5135634337
 31
0.0
  0
LINE
  5
1FA
330
1F
100
AcDbEntity
  8
0
  6
Continuous
 62
     7
370
     0
100
AcDbLine
 10
167.2124064265
 20
110.5135634337
 30
0.0
 11
167.2124064265
 21
111.2135634669
 31
0.0
  0
LINE
  5
1FB
330
1F
100
AcDbEntity
  8
0
  6
Continuous
 62
     7
370
     0
100
AcDbLine
 10
169.3124065845
 20
151.7135625966
 30
0.0
 11
169.3124065845
 21
152.2135636099
 31
0.0
  0
LINE
  5
1FC
330
1F
100
AcDbEntity
  8
0
  6
Continuous
 62
     7
370
     0
100
AcDbLine
 10
154.1124063282
 20
152.2135636099
 30
0.0
 11
154.1124063282
 21
151.7135625966
 31
0.0
  0
LINE
  5
1FD
330
1F
100
AcDbEntity
  8
0
  6
Continuous
 62
     7
370
     0
100
AcDbLine
 10
169.3124065845
 20
111.2135634669
 30
0.0
 11
169.3124065845
 21
111.7135634907
 31
0.0
  0
LINE
  5
1FE
330
1F
100
AcDbEntity
  8
0
  6
Continuous
 62
     7
370
     0
100
AcDbLine
 10
154.1124063282
 20
111.7135634907
 30
0.0
 11
154.1124063282
 21
111.2135634669
 31
0.0
  0
ARC
  5
1FF
330
1F
100
AcDbEntity
  8
0
  6
Continuous
 62
     7
370
     0
100
AcDbCircle
 10
165.9624064563
 20
162.6152027282
 30
0.0
 40
1.0
100
AcDbArc
 50
0.0
 51
71.3370751151
  0
ARC
  5
200
330
1F
100
AcDbEntity
  8
0
  6
Continuous
 62
     7
370
     0
100
AcDbCircle
 10
157.4624064563
 20
162.6152027282
 30
0.0
 40
1.000000000000016
100
AcDbArc
 50
108.6629248849
 51
180.0
  0
LINE
  5
201
330
1F
100
AcDbEntity
  8
0
  6
Continuous
 62
     7
370
     0
100
AcDbLine
 10
156.4624065271
 20
162.6152036973
 30
0.0
 11
156.4624065271
 21
161.3135649152
 31
0.0
  0
LINE
  5
202
330
1F
100
AcDbEntity
  8
0
  6
Continuous
 62
     7
370
     0
100
AcDbLine
 10
166.9624063855
 20
161.3135649152
 30
0.0
 11
166.9624063855
 21
162.6152036973
 31
0.0
  0
ARC
  5
203
330
1F
100
AcDbEntity
  8
0
  6
Continuous
 62
     7
370
     0
100
AcDbCircle
 10
161.7124064563
 20
150.0323134907
 30
0.0
 40
14.28125
100
AcDbArc
 50
71.3370751151
 51
108.6629248849
  0
LINE
  5
204
330
1F
100
AcDbEntity
  8
0
  6
Continuous
 62
     7
370
     0
100
AcDbLine
 10
157.21240665
 20
161.3135649152
 30
0.0
 11
157.21240665
 21
158.9135652669
 31
0.0
  0
LINE
  5
205
330
1F
100
AcDbEntity
  8
0
  6
Continuous
 62
     7
370
     0
100
AcDbLine
 10
166.2124062626
 20
158.9135652669
 30
0.0
 11
166.2124062626
 21
161.3135649152
 31
0.0
  0
LINE
  5
206
330
1F
100
AcDbEntity
  8
0
  6
Continuous
 62
     7
370
     0
100
AcDbLine
 10
166.9624063855
 20
103.1119240709
 30
0.0
 11
166.9624063855
 21
104.4135633186
 31
0.0
  0
LINE
  5
207
330
1F
100
AcDbEntity
  8
0
  6
Continuous
 62
     7
370
     0
100
AcDbLine
 10
156.4624065271
 20
104.4135633186
 30
0.0
 11
156.4624065271
 21
103.1119240709
 31
0.0
  0
ARC
  5
208
330
1F
100
AcDbEntity
  8
0
  6
Continuous
 62
     7
370
     0
100
AcDbCircle
 10
157.4624064563
 20
103.1119242532
 30
0.0
 40
1.0
100
AcDbArc
 50
180.0
 51
251.3370751151
  0
ARC
  5
209
330
1F
100
AcDbEntity
  8
0
  6
Continuous
 62
     7
370
     0
100
AcDbCircle
 10
165.9624064563
 20
103.1119242532
 30
0.0
 40
1.0
100
AcDbArc
 50
288.6629248849
 51
0.0
  0
ARC
  5
20A
330
1F
100
AcDbEntity
  8
0
  6
Continuous
 62
     7
370
     0
100
AcDbCircle
 10
161.7124064563
 20
115.6948134907
 30
0.0
 40
14.28124999999999
100
AcDbArc
 50
251.3370751151
 51
288.6629248849
  0
LINE
  5
20B
330
1F
100
AcDbEntity
  8
0
  6
Continuous
 62
     7
370
     0
100
AcDbLine
 10
166.2124062626
 20
104.4135633186
 30
0.0
 11
166.2124062626
 21
104.5135636144
 31
0.0
  0
LINE
  5
20C
330
1F
100
AcDbEntity
  8
0
  6
Continuous
 62
     7
370
     0
100
AcDbLine
 10
157.21240665
 20
104.5135636144
 30
0.0
 11
157.21240665
 21
104.4135633186
 31
0.0
  0
LINE
  5
20D
330
1F
100
AcDbEntity
  8
0
  6
Continuous
 62
     7
370
     0
100
AcDbLine
 10
167.7124065085
 20
158.4135642536
 30
0.0
 11
155.7124064042
 21
158.4135642536
 31
0.0
  0
LINE
  5
20E
330
1F
100
AcDbEntity
  8
0
  6
Continuous
 62
     7
370
     0
100
AcDbLine
 10
166.6627202852
 20
152.9135642834
 30
0.0
 11
155.7124064042
 21
152.9135642834
 31
0.0
  0
LINE
  5
20F
330
1F
100
AcDbEntity
  8
0
  6
Continuous
 62
     7
370
     0
100
AcDbLine
 10
167.7124065085
 20
152.9135642834
 30
0.0
 11
166.6627202852
 21
152.9135642834
 31
0.0
  0
LINE
  5
210
330
1F
100
AcDbEntity
  8
0
  6
Continuous
 62
     7
370
     0
100
AcDbLine
 10
156.2124064861
 20
158.9135652669
 30
0.0
 11
167.2124064265
 21
158.9135652669
 31
0.0
  0
LINE
  5
211
330
1F
100
AcDbEntity
  8
0
  6
Continuous
 62
     7
370
     0
100
AcDbLine
 10
160.7584672368
 20
144.4135619589
 30
0.0
 11
162.6663456758
 21
144.4135619589
 31
0.0
  0
LINE
  5
212
330
1F
100
AcDbEntity
  8
0
  6
Continuous
 62
     7
370
     0
100
AcDbLine
 10
155.7124064042
 20
105.0135636963
 30
0.0
 11
167.7124065085
 21
105.0135636963
 31
0.0
  0
LINE
  5
213
330
1F
100
AcDbEntity
  8
0
  6
Continuous
 62
     7
370
     0
100
AcDbLine
 10
156.1114213167
 20
110.5135634337
 30
0.0
 11
167.7124065085
 21
110.5135634337
 31
0.0
  0
LINE
  5
214
330
1F
100
AcDbEntity
  8
0
  6
Continuous
 62
     7
370
     0
100
AcDbLine
 10
155.7124064042
 20
110.5135634337
 30
0.0
 11
156.1114213167
 21
110.5135634337
 31
0.0
  0
LINE
  5
215
330
1F
100
AcDbEntity
  8
0
  6
Continuous
 62
     7
370
     0
100
AcDbLine
 10
167.2124064265
 20
104.5135636144
 30
0.0
 11
156.2124064861
 21
104.5135636144
 31
0.0
  0
LINE
  5
216
330
1F
100
AcDbEntity
  8
0
  6
Continuous
 62
     7
370
     0
100
AcDbLine
 10
162.6663456758
 20
119.0135636628
 30
0.0
 11
160.7584672368
 21
119.0135636628
 31
0.0
  0
LINE
  5
217
330
1F
100
AcDbEntity
  8
0
  6
Continuous
 62
     7
370
     0
100
AcDbLine
 10
154.496828813
 20
152.2135636099
 30
0.0
 11
169.3124065845
 21
152.2135636099
 31
0.0
  0
LINE
  5
218
330
1F
100
AcDbEntity
  8
0
  6
Continuous
 62
     7
370
     0
100
AcDbLine
 10
154.1124063282
 20
152.2135636099
 30
0.0
 11
154.496828813
 21
152.2135636099
 31
0.0
  0
LINE
  5
219
330
1F
100
AcDbEntity
  8
0
  6
Continuous
 62
     7
370
     0
100
AcDbLine
 10
154.1124063282
 20
111.2135634669
 30
0.0
 11
169.3124065845
 21
111.2135634669
 31
0.0
  0
LINE
  5
21A
330
1F
100
AcDbEntity
  8
0
  6
Continuous
 62
     7
370
     0
100
AcDbLine
 10
156.4624065271
 20
161.3135649152
 30
0.0
 11
166.9624063855
 21
161.3135649152
 31
0.0
  0
LINE
  5
21B
330
1F
100
AcDbEntity
  8
0
  6
Continuous
 62
     7
370
     0
100
AcDbLine
 10
166.9624063855
 20
104.4135633186
 30
0.0
 11
156.4624065271
 21
104.4135633186
 31
0.0
  0
LINE
  5
21C
330
1F
100
AcDbEntity
  8
0
  6
Continuous
 62
     7
370
     0
100
AcDbLine
 10
161.0585716174
 20
130.3635644056
 30
0.0
 11
162.3662412952
 21
130.3635644056
 31
0.0
  0
LINE
  5
21D
330
1F
100
AcDbEntity
  8
0
  6
Continuous
 62
     7
370
     0
100
AcDbLine
 10
154.4624066649
 20
150.7135642954
 30
0.0
 11
154.4624066649
 21
112.7135635382
 31
0.0
  0
LINE
  5
21E
330
1F
100
AcDbEntity
  8
0
  6
Continuous
 62
     7
370
     0
100
AcDbLine
 10
153.7124060763
 20
111.9635635026
 30
0.0
 11
154.4624066649
 21
112.7135635382
 31
0.0
  0
LINE
  5
21F
330
1F
100
AcDbEntity
  8
0
  6
Continuous
 62
     7
370
     0
100
AcDbLine
 10
153.462406501
 20
112.2135635144
 30
0.0
 11
153.7124060763
 21
111.9635635026
 31
0.0
  0
LINE
  5
220
330
1F
100
AcDbEntity
  8
0
  6
Continuous
 62
     7
370
     0
100
AcDbLine
 10
153.462406501
 20
112.2135635144
 30
0.0
 11
153.462406501
 21
151.2135653086
 31
0.0
  0
LINE
  5
221
330
1F
100
AcDbEntity
  8
0
  6
Continuous
 62
     7
370
     0
100
AcDbLine
 10
153.7124060763
 20
151.46356209
 30
0.0
 11
153.462406501
 21
151.2135653086
 31
0.0
  0
LINE
  5
222
330
1F
100
AcDbEntity
  8
0
  6
Continuous
 62
     7
370
     0
100
AcDbLine
 10
154.4624066649
 20
150.7135642954
 30
0.0
 11
153.7124060763
 21
151.46356209
 31
0.0
  0
LINE
  5
223
330
1F
100
AcDbEntity
  8
0
  6
Continuous
 62
     7
370
     0
100
AcDbLine
 10
168.9624062477
 20
150.7135642954
 30
0.0
 11
154.4624066649
 21
150.7135642954
 31
0.0
  0
LINE
  5
224
330
1F
100
AcDbEntity
  8
0
  6
Continuous
 62
     7
370
     0
100
AcDbLine
 10
153.962406583
 20
151.7135625966
 30
0.0
 11
153.7124060763
 21
151.46356209
 31
0.0
  0
LINE
  5
225
330
1F
100
AcDbEntity
  8
0
  6
Continuous
 62
     7
370
     0
100
AcDbLine
 10
153.962406583
 20
151.7135625966
 30
0.0
 11
169.4624063297
 21
151.7135625966
 31
0.0
  0
LINE
  5
226
330
1F
100
AcDbEntity
  8
0
  6
Continuous
 62
     7
370
     0
100
AcDbLine
 10
169.7124068363
 20
151.46356209
 30
0.0
 11
169.4624063297
 21
151.7135625966
 31
0.0
  0
LINE
  5
227
330
1F
100
AcDbEntity
  8
0
  6
Continuous
 62
     7
370
     0
100
AcDbLine
 10
169.7124068363
 20
151.46356209
 30
0.0
 11
168.9624062477
 21
150.7135642954
 31
0.0
  0
LINE
  5
228
330
1F
100
AcDbEntity
  8
0
  6
Continuous
 62
     7
370
     0
100
AcDbLine
 10
154.4624066649
 20
112.7135635382
 30
0.0
 11
168.9624062477
 21
112.7135635382
 31
0.0
  0
LINE
  5
229
330
1F
100
AcDbEntity
  8
0
  6
Continuous
 62
     7
370
     0
100
AcDbLine
 10
168.9624062477
 20
112.7135635382
 30
0.0
 11
169.7124068363
 21
111.9635635026
 31
0.0
  0
LINE
  5
22A
330
1F
100
AcDbEntity
  8
0
  6
Continuous
 62
     7
370
     0
100
AcDbLine
 10
169.4624063297
 20
111.7135634907
 30
0.0
 11
169.7124068363
 21
111.9635635026
 31
0.0
  0
LINE
  5
22B
330
1F
100
AcDbEntity
  8
0
  6
Continuous
 62
     7
370
     0
100
AcDbLine
 10
169.4624063297
 20
111.7135634907
 30
0.0
 11
153.962406583
 21
111.7135634907
 31
0.0
  0
LINE
  5
22C
330
1F
100
AcDbEntity
  8
0
  6
Continuous
 62
     7
370
     0
100
AcDbLine
 10
153.7124060763
 20
111.9635635026
 30
0.0
 11
153.962406583
 21
111.7135634907
 31
0.0
  0
LINE
  5
22D
330
1F
100
AcDbEntity
  8
0
  6
Continuous
 62
     7
370
     0
100
AcDbLine
 10
168.9624062477
 20
112.7135635382
 30
0.0
 11
168.9624062477
 21
150.7135642954
 31
0.0
  0
CIRCLE
  5
22E
330
1F
100
AcDbEntity
  8
0
  6
Continuous
 62
     7
370
     0
100
AcDbCircle
 10
161.7124064563
 20
131.7135634907
 30
0.0
 40
4.576621500000016
  0
CIRCLE
  5
22F
330
1F
100
AcDbEntity
  8
0
  6
Continuous
 62
     7
370
     0
100
AcDbCircle
 10
161.7124064563
 20
118.7135634907
 30
0.0
 40
2.09999999999998
  0
CIRCLE
  5
230
330
1F
100
AcDbEntity
  8
0
  6
Continuous
 62
     7
370
     0
100
AcDbCircle
 10
161.7124064563
 20
144.7135634907
 30
0.0
 40
2.099999999999994
  0
CIRCLE
  5
231
330
1F
100
AcDbEntity
  8
0
  6
Continuous
 62
     7
370
     0
100
AcDbCircle
 10
161.7124064563
 20
131.7135634907
 30
0.0
 40
4.342496842010178
  0
LINE
  5
232
330
1F
100
AcDbEntity
  8
0
  6
Continuous
 62
     7
370
     0
100
AcDbLine
 10
169.7124068363
 20
111.9635635026
 30
0.0
 11
169.9624064116
 21
112.2135635144
 31
0.0
  0
LINE
  5
233
330
1F
100
AcDbEntity
  8
0
  6
Continuous
 62
     7
370
     0
100
AcDbLine
 10
169.9624064116
 20
151.2135653086
 30
0.0
 11
169.7124068363
 21
151.46356209
 31
0.0
  0
LINE
  5
234
330
1F
100
AcDbEntity
  8
0
  6
Continuous
 62
     7
370
     0
100
AcDbLine
 10
169.9624064116
 20
151.2135653086
 30
0.0
 11
169.9624064116
 21
112.2135635144
 31
0.0
  0
CIRCLE
  5
235
330
1F
100
AcDbEntity
  8
0
  6
Continuous
 62
     7
370
     0
100
AcDbCircle
 10
161.7124064563
 20
131.7135634907
 30
0.0
 40
3.950000000000017
  0
CIRCLE
  5
236
330
1F
100
AcDbEntity
  8
0
  6
Continuous
 62
     7
370
     0
100
AcDbCircle
 10
161.7124064563
 20
131.7135634907
 30
0.0
 40
1.5
  0
CIRCLE
  5
237
330
1F
100
AcDbEntity
  8
0
  6
Continuous
 62
     7
370
     0
100
AcDbCircle
 10
161.7124064563
 20
118.7135634907
 30
0.0
 40
1.0
  0
CIRCLE
  5
238
330
1F
100
AcDbEntity
  8
0
  6
Continuous
 62
     7
370
     0
100
AcDbCircle
 10
161.7124064563
 20
144.7135634907
 30
0.0
 40
1.0
  0
LINE
  5
239
330
1F
100
AcDbEntity
  8
0
  6
Continuous
 62
    18
370
     0
100
AcDbLine
 10
159.6370691171
 20
163.562619526
 30
0.0
 11
166.28240633
 21
163.562619526
 31
0.0
  0
LINE
  5
23A
330
1F
100
AcDbEntity
  8
0
  6
Continuous
 62
    18
370
     0
100
AcDbLine
 10
157.1424065827
 20
163.562619526
 30
0.0
 11
159.6370691171
 21
163.562619526
 31
0.0
  0
LINE
  5
23B
330
1F
100
AcDbEntity
  8
0
  6
Continuous
 62
    18
370
     0
100
AcDbLine
 10
159.3282660673
 20
162.6152036973
 30
0.0
 11
156.4624065271
 21
162.6152036973
 31
0.0
  0
LINE
  5
23C
330
1F
100
AcDbEntity
  8
0
  6
Continuous
 62
    18
370
     0
100
AcDbLine
 10
166.9624063855
 20
162.6152036973
 30
0.0
 11
159.3282660673
 21
162.6152036973
 31
0.0
  0
LINE
  5
23D
330
1F
100
AcDbEntity
  8
0
  6
Continuous
 62
    18
370
     0
100
AcDbLine
 10
166.7242984025
 20
103.1119240709
 30
0.0
 11
166.9624063855
 21
103.1119240709
 31
0.0
  0
LINE
  5
23E
330
1F
100
AcDbEntity
  8
0
  6
Continuous
 62
    18
370
     0
100
AcDbLine
 10
156.4624065271
 20
103.1119240709
 30
0.0
 11
166.7242984025
 21
103.1119240709
 31
0.0
  0
LINE
  5
23F
330
1F
100
AcDbEntity
  8
0
  6
Continuous
 62
    18
370
     0
100
AcDbLine
 10
166.075139094
 20
102.1645063796
 30
0.0
 11
157.1424065827
 21
102.1645063796
 31
0.0
  0
LINE
  5
240
330
1F
100
AcDbEntity
  8
0
  6
Continuous
 62
    18
370
     0
100
AcDbLine
 10
166.28240633
 20
102.1645063796
 30
0.0
 11
166.075139094
 21
102.1645063796
 31
0.0
  0
DIMENSION
  5
241
330
1F
100
AcDbEntity
  8
0
  6
Continuous
 62
     7
370
     0
100
AcDbDimension
  2
*D12
 10
163.8842223834
 20
127.6850799133
 30
0.0
 11
136.5066987026
 21
163.2802841641
 31
0.0
 70
   163
  1
PT 1/8
 71
     1
 42
-1.0
  3
SLDDIMSTYLE4
100
AcDbDiametricDimension
 15
159.5405905293
 25
135.7420470681
 35
0.0
 40
0.0
  0
DIMENSION
  5
24A
330
1F
100
AcDbEntity
  8
0
  6
Continuous
 62
     7
370
     0
100
AcDbDimension
  2
*D13
 10
182.4097521548
 20
118.7135634907
 30
0.0
 11
182.4097521548
 21
131.7135634907
 31
0.0
 70
   160
 71
     2
 42
-1.0
  3
SLDDIMSTYLE1
100
AcDbAlignedDimension
 13
166.3124064563
 23
144.7135634907
 33
0.0
 14
166.3124064563
 24
118.7135634907
 34
0.0
 50
90.0
100
AcDbRotatedDimension
  0
DIMENSION
  5
254
330
1F
100
AcDbEntity
  8
0
  6
Continuous
 62
     7
370
     0
100
AcDbDimension
  2
*D14
 10
160.228111612
 20
120.1991168607
 30
0.0
 11
181.8018092523
 21
107.896365269
 31
0.0
 70
   163
  1
2-M5
 71
     1
 42
-1.0
  3
SLDDIMSTYLE4
100
AcDbDiametricDimension
 15
163.1967013007
 25
117.2280101207
 35
0.0
 40
0.0
  0
INSERT
  5
267
330
1F
100
AcDbEntity
  8
0
  6
Continuous
 62
     7
370
     0
100
AcDbBlockReference
  2
SW_CENTERMARKSYMBOL_4
 10
161.7124064563
 20
131.7135634907
 30
0.0
  0
INSERT
  5
273
330
1F
100
AcDbEntity
  8
0
  6
Continuous
 62
     7
370
     0
100
AcDbBlockReference
  2
SW_CENTERMARKSYMBOL_5
 10
161.7124064563
 20
144.7135634907
 30
0.0
  0
INSERT
  5
27F
330
1F
100
AcDbEntity
  8
0
  6
Continuous
 62
     7
370
     0
100
AcDbBlockReference
  2
SW_CENTERMARKSYMBOL_6
 10
161.7124064563
 20
118.7135634907
 30
0.0
  0
LINE
  5
280
330
1F
100
AcDbEntity
  8
0
  6
Continuous
 62
     7
370
     0
100
AcDbLine
 10
58.9364027369
 20
152.9135642834
 30
0.0
 11
58.9364027369
 21
158.4135642536
 31
0.0
  0
LINE
  5
281
330
1F
100
AcDbEntity
  8
0
  6
Continuous
 62
     7
370
     0
100
AcDbLine
 10
46.9364026325
 20
158.4135642536
 30
0.0
 11
46.9364026325
 21
152.9135642834
 31
0.0
  0
LINE
  5
282
330
1F
100
AcDbEntity
  8
0
  6
Continuous
 62
     7
370
     0
100
AcDbLine
 10
58.9364027369
 20
158.4135642536
 30
0.0
 11
58.4364026549
 21
158.9135652669
 31
0.0
  0
LINE
  5
283
330
1F
100
AcDbEntity
  8
0
  6
Continuous
 62
     7
370
     0
100
AcDbLine
 10
47.4364027145
 20
158.9135652669
 30
0.0
 11
46.9364026325
 21
158.4135642536
 31
0.0
  0
LINE
  5
284
330
1F
100
AcDbEntity
  8
0
  6
Continuous
 62
     7
370
     0
100
AcDbLine
 10
58.4364026549
 20
152.2135636099
 30
0.0
 11
58.4364026549
 21
152.9135642834
 31
0.0
  0
LINE
  5
285
330
1F
100
AcDbEntity
  8
0
  6
Continuous
 62
     7
370
     0
100
AcDbLine
 10
47.4364027145
 20
152.9135642834
 30
0.0
 11
47.4364027145
 21
152.2135636099
 31
0.0
  0
LINE
  5
286
330
1F
100
AcDbEntity
  8
0
  6
Continuous
 62
     7
370
     0
100
AcDbLine
 10
46.9364026325
 20
105.0135636963
 30
0.0
 11
47.4364027145
 21
104.5135636144
 31
0.0
  0
LINE
  5
287
330
1F
100
AcDbEntity
  8
0
  6
Continuous
 62
     7
370
     0
100
AcDbLine
 10
58.4364026549
 20
104.5135636144
 30
0.0
 11
58.9364027369
 21
105.0135636963
 31
0.0
  0
LINE
  5
288
330
1F
100
AcDbEntity
  8
0
  6
Continuous
 62
     7
370
     0
100
AcDbLine
 10
46.9364026325
 20
110.5135634337
 30
0.0
 11
46.9364026325
 21
105.0135636963
 31
0.0
  0
LINE
  5
289
330
1F
100
AcDbEntity
  8
0
  6
Continuous
 62
     7
370
     0
100
AcDbLine
 10
58.9364027369
 20
105.0135636963
 30
0.0
 11
58.9364027369
 21
110.5135634337
 31
0.0
  0
LINE
  5
28A
330
1F
100
AcDbEntity
  8
0
  6
Continuous
 62
     7
370
     0
100
AcDbLine
 10
47.4364027145
 20
111.2135634669
 30
0.0
 11
47.4364027145
 21
110.5135634337
 31
0.0
  0
LINE
  5
28B
330
1F
100
AcDbEntity
  8
0
  6
Continuous
 62
     7
370
     0
100
AcDbLine
 10
58.4364026549
 20
110.5135634337
 30
0.0
 11
58.4364026549
 21
111.2135634669
 31
0.0
  0
LINE
  5
28C
330
1F
100
AcDbEntity
  8
0
  6
Continuous
 62
     7
370
     0
100
AcDbLine
 10
60.5364028128
 20
151.7135625966
 30
0.0
 11
60.5364028128
 21
152.2135636099
 31
0.0
  0
LINE
  5
28D
330
1F
100
AcDbEntity
  8
0
  6
Continuous
 62
     7
370
     0
100
AcDbLine
 10
45.3364025565
 20
152.2135636099
 30
0.0
 11
45.3364025565
 21
151.7135625966
 31
0.0
  0
LINE
  5
28E
330
1F
100
AcDbEntity
  8
0
  6
Continuous
 62
     7
370
     0
100
AcDbLine
 10
60.5364028128
 20
111.2135634669
 30
0.0
 11
60.5364028128
 21
111.7135634907
 31
0.0
  0
LINE
  5
28F
330
1F
100
AcDbEntity
  8
0
  6
Continuous
 62
     7
370
     0
100
AcDbLine
 10
45.3364025565
 20
111.7135634907
 30
0.0
 11
45.3364025565
 21
111.2135634669
 31
0.0
  0
LINE
  5
290
330
1F
100
AcDbEntity
  8
0
  6
Continuous
 62
     7
370
     0
100
AcDbLine
 10
47.6864027555
 20
162.6152036973
 30
0.0
 11
47.6864027555
 21
161.3135649152
 31
0.0
  0
LINE
  5
291
330
1F
100
AcDbEntity
  8
0
  6
Continuous
 62
     7
370
     0
100
AcDbLine
 10
58.1864026139
 20
161.3135649152
 30
0.0
 11
58.1864026139
 21
162.6152036973
 31
0.0
  0
ARC
  5
292
330
1F
100
AcDbEntity
  8
0
  6
Continuous
 62
     7
370
     0
100
AcDbCircle
 10
57.1864026847
 20
162.6152027282
 30
0.0
 40
1.000000000000021
100
AcDbArc
 50
0.0
 51
71.3370751151
  0
ARC
  5
293
330
1F
100
AcDbEntity
  8
0
  6
Continuous
 62
     7
370
     0
100
AcDbCircle
 10
48.6864026847
 20
162.6152027282
 30
0.0
 40
1.0
100
AcDbArc
 50
108.6629248849
 51
180.0
  0
ARC
  5
294
330
1F
100
AcDbEntity
  8
0
  6
Continuous
 62
     7
370
     0
100
AcDbCircle
 10
52.9364026847
 20
150.0323134907
 30
0.0
 40
14.28125000000001
100
AcDbArc
 50
71.3370751151
 51
108.6629248849
  0
LINE
  5
295
330
1F
100
AcDbEntity
  8
0
  6
Continuous
 62
     7
370
     0
100
AcDbLine
 10
48.4364028784
 20
161.3135649152
 30
0.0
 11
48.4364028784
 21
158.9135652669
 31
0.0
  0
LINE
  5
296
330
1F
100
AcDbEntity
  8
0
  6
Continuous
 62
     7
370
     0
100
AcDbLine
 10
57.436402491
 20
158.9135652669
 30
0.0
 11
57.436402491
 21
161.3135649152
 31
0.0
  0
ARC
  5
297
330
1F
100
AcDbEntity
  8
0
  6
Continuous
 62
     7
370
     0
100
AcDbCircle
 10
48.6864026847
 20
103.1119242532
 30
0.0
 40
1.000000000000007
100
AcDbArc
 50
180.0
 51
251.3370751151
  0
ARC
  5
298
330
1F
100
AcDbEntity
  8
0
  6
Continuous
 62
     7
370
     0
100
AcDbCircle
 10
57.1864026847
 20
103.1119242532
 30
0.0
 40
1.0
100
AcDbArc
 50
288.6629248849
 51
0.0
  0
LINE
  5
299
330
1F
100
AcDbEntity
  8
0
  6
Continuous
 62
     7
370
     0
100
AcDbLine
 10
58.1864026139
 20
103.1119240709
 30
0.0
 11
58.1864026139
 21
104.4135633186
 31
0.0
  0
LINE
  5
29A
330
1F
100
AcDbEntity
  8
0
  6
Continuous
 62
     7
370
     0
100
AcDbLine
 10
47.6864027555
 20
104.4135633186
 30
0.0
 11
47.6864027555
 21
103.1119240709
 31
0.0
  0
ARC
  5
29B
330
1F
100
AcDbEntity
  8
0
  6
Continuous
 62
     7
370
     0
100
AcDbCircle
 10
52.9364026847
 20
115.6948134907
 30
0.0
 40
14.28124999999999
100
AcDbArc
 50
251.3370751151
 51
288.6629248849
  0
LINE
  5
29C
330
1F
100
AcDbEntity
  8
0
  6
Continuous
 62
     7
370
     0
100
AcDbLine
 10
57.436402491
 20
104.4135633186
 30
0.0
 11
57.436402491
 21
104.5135636144
 31
0.0
  0
LINE
  5
29D
330
1F
100
AcDbEntity
  8
0
  6
Continuous
 62
     7
370
     0
100
AcDbLine
 10
48.4364028784
 20
104.5135636144
 30
0.0
 11
48.4364028784
 21
104.4135633186
 31
0.0
  0
LINE
  5
29E
330
1F
100
AcDbEntity
  8
0
  6
Continuous
 62
     7
370
     0
100
AcDbLine
 10
58.9364027369
 20
152.9135642834
 30
0.0
 11
46.9364026325
 21
152.9135642834
 31
0.0
  0
LINE
  5
29F
330
1F
100
AcDbEntity
  8
0
  6
Continuous
 62
     7
370
     0
100
AcDbLine
 10
57.8867165136
 20
158.4135642536
 30
0.0
 11
46.9364026325
 21
158.4135642536
 31
0.0
  0
LINE
  5
2A0
330
1F
100
AcDbEntity
  8
0
  6
Continuous
 62
     7
370
     0
100
AcDbLine
 10
58.9364027369
 20
158.4135642536
 30
0.0
 11
57.8867165136
 21
158.4135642536
 31
0.0
  0
LINE
  5
2A1
330
1F
100
AcDbEntity
  8
0
  6
Continuous
 62
     7
370
     0
100
AcDbLine
 10
57.4741904388
 20
158.9135652669
 30
0.0
 11
58.4364026549
 21
158.9135652669
 31
0.0
  0
LINE
  5
2A2
330
1F
100
AcDbEntity
  8
0
  6
Continuous
 62
     7
370
     0
100
AcDbLine
 10
47.4364027145
 20
158.9135652669
 30
0.0
 11
57.4741904388
 21
158.9135652669
 31
0.0
  0
LINE
  5
2A3
330
1F
100
AcDbEntity
  8
0
  6
Continuous
 62
     7
370
     0
100
AcDbLine
 10
47.8021661515
 20
104.5135636144
 30
0.0
 11
47.4364027145
 21
104.5135636144
 31
0.0
  0
LINE
  5
2A4
330
1F
100
AcDbEntity
  8
0
  6
Continuous
 62
     7
370
     0
100
AcDbLine
 10
58.4364026549
 20
104.5135636144
 30
0.0
 11
47.8021661515
 21
104.5135636144
 31
0.0
  0
LINE
  5
2A5
330
1F
100
AcDbEntity
  8
0
  6
Continuous
 62
     7
370
     0
100
AcDbLine
 10
47.3354175451
 20
105.0135636963
 30
0.0
 11
58.9364027369
 21
105.0135636963
 31
0.0
  0
LINE
  5
2A6
330
1F
100
AcDbEntity
  8
0
  6
Continuous
 62
     7
370
     0
100
AcDbLine
 10
46.9364026325
 20
105.0135636963
 30
0.0
 11
47.3354175451
 21
105.0135636963
 31
0.0
  0
LINE
  5
2A7
330
1F
100
AcDbEntity
  8
0
  6
Continuous
 62
     7
370
     0
100
AcDbLine
 10
46.9364026325
 20
110.5135634337
 30
0.0
 11
58.9364027369
 21
110.5135634337
 31
0.0
  0
LINE
  5
2A8
330
1F
100
AcDbEntity
  8
0
  6
Continuous
 62
     7
370
     0
100
AcDbLine
 10
45.3364025565
 20
152.2135636099
 30
0.0
 11
60.5364028128
 21
152.2135636099
 31
0.0
  0
LINE
  5
2A9
330
1F
100
AcDbEntity
  8
0
  6
Continuous
 62
     7
370
     0
100
AcDbLine
 10
60.5286523464
 20
111.2135634669
 30
0.0
 11
60.5364028128
 21
111.2135634669
 31
0.0
  0
LINE
  5
2AA
330
1F
100
AcDbEntity
  8
0
  6
Continuous
 62
     7
370
     0
100
AcDbLine
 10
45.3364025565
 20
111.2135634669
 30
0.0
 11
60.5286523464
 21
111.2135634669
 31
0.0
  0
LINE
  5
2AB
330
1F
100
AcDbEntity
  8
0
  6
Continuous
 62
     7
370
     0
100
AcDbLine
 10
50.5522622957
 20
161.3135649152
 30
0.0
 11
58.1864026139
 21
161.3135649152
 31
0.0
  0
LINE
  5
2AC
330
1F
100
AcDbEntity
  8
0
  6
Continuous
 62
     7
370
     0
100
AcDbLine
 10
47.6864027555
 20
161.3135649152
 30
0.0
 11
50.5522622957
 21
161.3135649152
 31
0.0
  0
LINE
  5
2AD
330
1F
100
AcDbEntity
  8
0
  6
Continuous
 62
     7
370
     0
100
AcDbLine
 10
57.9482946309
 20
104.4135633186
 30
0.0
 11
47.6864027555
 21
104.4135633186
 31
0.0
  0
LINE
  5
2AE
330
1F
100
AcDbEntity
  8
0
  6
Continuous
 62
     7
370
     0
100
AcDbLine
 10
58.1864026139
 20
104.4135633186
 30
0.0
 11
57.9482946309
 21
104.4135633186
 31
0.0
  0
LINE
  5
2AF
330
1F
100
AcDbEntity
  8
0
  6
Continuous
 62
     7
370
     0
100
AcDbLine
 10
45.6864028933
 20
150.7135642954
 30
0.0
 11
45.6864028933
 21
112.7135635382
 31
0.0
  0
LINE
  5
2B0
330
1F
100
AcDbEntity
  8
0
  6
Continuous
 62
     7
370
     0
100
AcDbLine
 10
44.9364023047
 20
111.9635635026
 30
0.0
 11
45.6864028933
 21
112.7135635382
 31
0.0
  0
LINE
  5
2B1
330
1F
100
AcDbEntity
  8
0
  6
Continuous
 62
     7
370
     0
100
AcDbLine
 10
44.6864027294
 20
112.2135635144
 30
0.0
 11
44.9364023047
 21
111.9635635026
 31
0.0
  0
LINE
  5
2B2
330
1F
100
AcDbEntity
  8
0
  6
Continuous
 62
     7
370
     0
100
AcDbLine
 10
44.6864027294
 20
112.2135635144
 30
0.0
 11
44.6864027294
 21
151.2135653086
 31
0.0
  0
LINE
  5
2B3
330
1F
100
AcDbEntity
  8
0
  6
Continuous
 62
     7
370
     0
100
AcDbLine
 10
44.9364023047
 20
151.46356209
 30
0.0
 11
44.6864027294
 21
151.2135653086
 31
0.0
  0
LINE
  5
2B4
330
1F
100
AcDbEntity
  8
0
  6
Continuous
 62
     7
370
     0
100
AcDbLine
 10
45.6864028933
 20
150.7135642954
 30
0.0
 11
44.9364023047
 21
151.46356209
 31
0.0
  0
LINE
  5
2B5
330
1F
100
AcDbEntity
  8
0
  6
Continuous
 62
     7
370
     0
100
AcDbLine
 10
44.9364023047
 20
111.9635635026
 30
0.0
 11
45.1864028114
 21
111.7135634907
 31
0.0
  0
LINE
  5
2B6
330
1F
100
AcDbEntity
  8
0
  6
Continuous
 62
     7
370
     0
100
AcDbLine
 10
45.6864028933
 20
112.7135635382
 30
0.0
 11
60.1864024761
 21
112.7135635382
 31
0.0
  0
LINE
  5
2B7
330
1F
100
AcDbEntity
  8
0
  6
Continuous
 62
     7
370
     0
100
AcDbLine
 10
60.1864024761
 20
112.7135635382
 30
0.0
 11
60.9364030647
 21
111.9635635026
 31
0.0
  0
LINE
  5
2B8
330
1F
100
AcDbEntity
  8
0
  6
Continuous
 62
     7
370
     0
100
AcDbLine
 10
60.686402558
 20
111.7135634907
 30
0.0
 11
60.9364030647
 21
111.9635635026
 31
0.0
  0
LINE
  5
2B9
330
1F
100
AcDbEntity
  8
0
  6
Continuous
 62
     7
370
     0
100
AcDbLine
 10
60.686402558
 20
111.7135634907
 30
0.0
 11
45.1864028114
 21
111.7135634907
 31
0.0
  0
LINE
  5
2BA
330
1F
100
AcDbEntity
  8
0
  6
Continuous
 62
     7
370
     0
100
AcDbLine
 10
60.9364030647
 20
151.46356209
 30
0.0
 11
60.686402558
 21
151.7135625966
 31
0.0
  0
LINE
  5
2BB
330
1F
100
AcDbEntity
  8
0
  6
Continuous
 62
     7
370
     0
100
AcDbLine
 10
60.9364030647
 20
151.46356209
 30
0.0
 11
60.1864024761
 21
150.7135642954
 31
0.0
  0
LINE
  5
2BC
330
1F
100
AcDbEntity
  8
0
  6
Continuous
 62
     7
370
     0
100
AcDbLine
 10
60.1864024761
 20
150.7135642954
 30
0.0
 11
45.6864028933
 21
150.7135642954
 31
0.0
  0
LINE
  5
2BD
330
1F
100
AcDbEntity
  8
0
  6
Continuous
 62
     7
370
     0
100
AcDbLine
 10
45.1864028114
 20
151.7135625966
 30
0.0
 11
44.9364023047
 21
151.46356209
 31
0.0
  0
LINE
  5
2BE
330
1F
100
AcDbEntity
  8
0
  6
Continuous
 62
     7
370
     0
100
AcDbLine
 10
45.1864028114
 20
151.7135625966
 30
0.0
 11
60.686402558
 21
151.7135625966
 31
0.0
  0
LINE
  5
2BF
330
1F
100
AcDbEntity
  8
0
  6
Continuous
 62
     7
370
     0
100
AcDbLine
 10
60.1864024761
 20
112.7135635382
 30
0.0
 11
60.1864024761
 21
150.7135642954
 31
0.0
  0
CIRCLE
  5
2C0
330
1F
100
AcDbEntity
  8
0
  6
Continuous
 62
     7
370
     0
100
AcDbCircle
 10
52.9364026847
 20
124.7135634907
 30
0.0
 40
4.576621500000002
  0
CIRCLE
  5
2C1
330
1F
100
AcDbEntity
  8
0
  6
Continuous
 62
     7
370
     0
100
AcDbCircle
 10
52.9364026847
 20
138.7135634907
 30
0.0
 40
4.576621499999987
  0
CIRCLE
  5
2C2
330
1F
100
AcDbEntity
  8
0
  6
Continuous
 62
     7
370
     0
100
AcDbCircle
 10
52.9364026847
 20
138.7135634907
 30
0.0
 40
4.342496842010149
  0
CIRCLE
  5
2C3
330
1F
100
AcDbEntity
  8
0
  6
Continuous
 62
     7
370
     0
100
AcDbCircle
 10
52.9364026847
 20
124.7135634907
 30
0.0
 40
4.342496842010149
  0
LINE
  5
2C4
330
1F
100
AcDbEntity
  8
0
  6
Continuous
 62
     7
370
     0
100
AcDbLine
 10
60.9364030647
 20
111.9635635026
 30
0.0
 11
61.18640264
 21
112.2135635144
 31
0.0
  0
LINE
  5
2C5
330
1F
100
AcDbEntity
  8
0
  6
Continuous
 62
     7
370
     0
100
AcDbLine
 10
61.18640264
 20
151.2135653086
 30
0.0
 11
60.9364030647
 21
151.46356209
 31
0.0
  0
LINE
  5
2C6
330
1F
100
AcDbEntity
  8
0
  6
Continuous
 62
     7
370
     0
100
AcDbLine
 10
61.18640264
 20
151.2135653086
 30
0.0
 11
61.18640264
 21
112.2135635144
 31
0.0
  0
CIRCLE
  5
2C7
330
1F
100
AcDbEntity
  8
0
  6
Continuous
 62
     7
370
     0
100
AcDbCircle
 10
52.9364026847
 20
124.7135634907
 30
0.0
 40
3.950000000000003
  0
CIRCLE
  5
2C8
330
1F
100
AcDbEntity
  8
0
  6
Continuous
 62
     7
370
     0
100
AcDbCircle
 10
52.9364026847
 20
138.7135634907
 30
0.0
 40
3.949999999999989
  0
CIRCLE
  5
2C9
330
1F
100
AcDbEntity
  8
0
  6
Continuous
 62
     7
370
     0
100
AcDbCircle
 10
52.9364026847
 20
138.7135634907
 30
0.0
 40
1.5
  0
CIRCLE
  5
2CA
330
1F
100
AcDbEntity
  8
0
  6
Continuous
 62
     7
370
     0
100
AcDbCircle
 10
52.9364026847
 20
124.7135634907
 30
0.0
 40
1.5
  0
LINE
  5
2CB
330
1F
100
AcDbEntity
  8
0
  6
Continuous
 62
    18
370
     0
100
AcDbLine
 10
58.1864026139
 20
162.6152036973
 30
0.0
 11
47.6864027555
 21
162.6152036973
 31
0.0
  0
LINE
  5
2CC
330
1F
100
AcDbEntity
  8
0
  6
Continuous
 62
    18
370
     0
100
AcDbLine
 10
48.3664028111
 20
163.562619526
 30
0.0
 11
57.5064025583
 21
163.562619526
 31
0.0
  0
LINE
  5
2CD
330
1F
100
AcDbEntity
  8
0
  6
Continuous
 62
    18
370
     0
100
AcDbLine
 10
57.5064025583
 20
102.1645063796
 30
0.0
 11
48.3664028111
 21
102.1645063796
 31
0.0
  0
LINE
  5
2CE
330
1F
100
AcDbEntity
  8
0
  6
Continuous
 62
    18
370
     0
100
AcDbLine
 10
47.6864027555
 20
103.1119240709
 30
0.0
 11
58.1864026139
 21
103.1119240709
 31
0.0
  0
DIMENSION
  5
2CF
330
1F
100
AcDbEntity
  8
0
  6
Continuous
 62
     7
370
     0
100
AcDbDimension
  2
*D18
 10
36.0402143887
 20
124.7135634907
 30
0.0
 11
36.0402143887
 21
131.7135634907
 31
0.0
 70
   160
 71
     2
 42
-1.0
  3
SLDDIMSTYLE0
100
AcDbAlignedDimension
 13
45.8597811847
 23
138.7135634907
 33
0.0
 14
45.8597811847
 24
124.7135634907
 34
0.0
 50
90.0
100
AcDbRotatedDimension
  0
DIMENSION
  5
2DB
330
1F
100
AcDbEntity
  8
0
  6
Continuous
 62
     7
370
     0
100
AcDbDimension
  2
*D19
 10
29.7517396321
 20
164.3135634907
 30
0.0
 11
29.7517396321
 21
132.8635634907
 31
0.0
 70
   160
 71
     2
 42
-1.0
  3
SLDDIMSTYLE5
100
AcDbAlignedDimension
 13
52.9364026847
 23
101.4135634907
 33
0.0
 14
52.9364026847
 24
164.3135634907
 34
0.0
 50
90.0
100
AcDbRotatedDimension
  0
DIMENSION
  5
2E6
330
1F
100
AcDbEntity
  8
0
  6
Continuous
 62
     7
370
     0
100
AcDbDimension
  2
*D20
 10
61.1864026847
 20
178.8090631705
 30
0.0
 11
52.9364026847
 21
178.8090631705
 31
0.0
 70
   160
 71
     2
 42
-1.0
  3
SLDDIMSTYLE0
100
AcDbAlignedDimension
 13
44.6864026847
 23
151.2135634907
 33
0.0
 14
61.1864026847
 24
151.2135634907
 34
0.0
 50
0.0
100
AcDbRotatedDimension
  0
DIMENSION
  5
2F2
330
1F
100
AcDbEntity
  8
0
  6
Continuous
 62
     7
370
     0
100
AcDbDimension
  2
*D21
 10
50.6485059614
 20
134.7498539986
 30
0.0
 11
82.4574156878
 21
172.2778542477
 31
0.0
 70
   163
  1
2-PT 1/8
 71
     1
 42
-1.0
  3
SLDDIMSTYLE4
100
AcDbDiametricDimension
 15
55.224299408
 25
142.6772729828
 35
0.0
 40
0.0
  0
INSERT
  5
305
330
1F
100
AcDbEntity
  8
0
  6
Continuous
 62
     7
370
     0
100
AcDbBlockReference
  2
SW_CENTERMARKSYMBOL_7
 10
52.9364026847
 20
138.7135634907
 30
0.0
  0
INSERT
  5
311
330
1F
100
AcDbEntity
  8
0
  6
Continuous
 62
     7
370
     0
100
AcDbBlockReference
  2
SW_CENTERMARKSYMBOL_8
 10
52.9364026847
 20
124.7135634907
 30
0.0
  0
ENDSEC
  0
SECTION
  2
OBJECTS
  0
DICTIONARY
  5
C
330
0
100
AcDbDictionary
281
     1
  3
ACAD_GROUP
350
D
  3
ACAD_LAYOUT
350
1A
  3
ACAD_MLINESTYLE
350
17
  3
ACAD_PLOTSETTINGS
350
19
  3
ACAD_PLOTSTYLENAME
350
E
  3
ACAD_SCALELIST
350
4D
  3
AcDbVariableDictionary
350
312
  0
DICTIONARY
  5
D
102
{ACAD_REACTORS
330
C
102
}
330
C
100
AcDbDictionary
281
     1
  0
DICTIONARY
  5
1A
102
{ACAD_REACTORS
330
C
102
}
330
C
100
AcDbDictionary
281
     1
  3
Layout1
350
1E
  3
Layout2
350
26
  3
Model
350
22
  0
DICTIONARY
  5
17
102
{ACAD_REACTORS
330
C
102
}
330
C
100
AcDbDictionary
281
     1
  3
Standard
350
18
  0
DICTIONARY
  5
19
102
{ACAD_REACTORS
330
C
102
}
330
C
100
AcDbDictionary
281
     1
  0
ACDBDICTIONARYWDFLT
  5
E
102
{ACAD_REACTORS
330
C
102
}
330
C
100
AcDbDictionary
281
     1
  3
Normal
350
F
100
AcDbDictionaryWithDefault
340
F
  0
DICTIONARY
  5
4D
102
{ACAD_REACTORS
330
C
102
}
330
C
100
AcDbDictionary
281
     1
  3
A0
350
4E
  3
A1
350
4F
  3
A2
350
50
  3
A3
350
51
  3
A4
350
52
  3
A5
350
53
  3
A6
350
54
  3
A7
350
55
  3
A8
350
56
  3
A9
350
57
  3
B0
350
58
  3
B1
350
59
  3
B2
350
5A
  3
B3
350
5B
  3
B4
350
5C
  3
B5
350
5D
  3
B6
350
5E
  3
B7
350
5F
  3
B8
350
60
  3
B9
350
61
  3
C0
350
62
  3
C1
350
63
  3
C2
350
64
  3
C3
350
65
  3
C4
350
66
  3
C5
350
67
  3
C6
350
68
  3
C7
350
69
  3
C8
350
6A
  3
C9
350
6B
  3
D0
350
6C
  3
D1
350
6D
  3
D2
350
6E
  0
DICTIONARY
  5
312
102
{ACAD_REACTORS
330
C
102
}
330
C
100
AcDbDictionary
281
     1
  3
CANNOSCALE
350
313
  0
LAYOUT
  5
1E
102
{ACAD_REACTORS
330
1A
102
}
330
1A
100
AcDbPlotSettings
  1

  2
none_device
  4

  6

 40
0.0
 41
0.0
 42
0.0
 43
0.0
 44
0.0
 45
0.0
 46
0.0
 47
0.0
 48
0.0
 49
0.0
140
0.0
141
0.0
142
1.0
143
1.0
 70
   688
 72
     0
 73
     0
 74
     5
  7

 75
    16
147
1.0
148
0.0
149
0.0
100
AcDbLayout
  1
Layout1
 70
     1
 71
     1
 10
0.0
 20
0.0
 11
420.0
 21
297.0
 12
0.0
 22
0.0
 32
0.0
 14
1.0000000000E+20
 24
1.0000000000E+20
 34
1.0000000000E+20
 15
-1.0000000000E+20
 25
-1.0000000000E+20
 35
-1.0000000000E+20
146
0.0
 13
0.0
 23
0.0
 33
0.0
 16
1.0
 26
0.0
 36
0.0
 17
0.0
 27
1.0
 37
0.0
 76
     0
330
1B
  0
LAYOUT
  5
26
102
{ACAD_REACTORS
330
1A
102
}
330
1A
100
AcDbPlotSettings
  1

  2
none_device
  4

  6

 40
0.0
 41
0.0
 42
0.0
 43
0.0
 44
0.0
 45
0.0
 46
0.0
 47
0.0
 48
0.0
 49
0.0
140
0.0
141
0.0
142
1.0
143
1.0
 70
   688
 72
     0
 73
     0
 74
     5
  7

 75
    16
147
1.0
148
0.0
149
0.0
100
AcDbLayout
  1
Layout2
 70
     1
 71
     2
 10
0.0
 20
0.0
 11
0.0
 21
0.0
 12
0.0
 22
0.0
 32
0.0
 14
0.0
 24
0.0
 34
0.0
 15
0.0
 25
0.0
 35
0.0
146
0.0
 13
0.0
 23
0.0
 33
0.0
 16
1.0
 26
0.0
 36
0.0
 17
0.0
 27
1.0
 37
0.0
 76
     0
330
23
  0
LAYOUT
  5
22
102
{ACAD_REACTORS
330
1A
102
}
330
1A
100
AcDbPlotSettings
  1

  2
none_device
  4

  6

 40
0.0
 41
0.0
 42
0.0
 43
0.0
 44
0.0
 45
0.0
 46
0.0
 47
0.0
 48
0.0
 49
0.0
140
0.0
141
0.0
142
1.0
143
1.0
 70
  1712
 72
     0
 73
     0
 74
     0
  7

 75
     0
147
1.0
148
0.0
149
0.0
100
AcDbLayout
  1
Model
 70
     1
 71
     0
 10
0.0
 20
0.0
 11
210.0
 21
297.0
 12
0.0
 22
0.0
 32
0.0
 14
0.0
 24
0.0
 34
0.0
 15
210.0
 25
297.0
 35
0.0
146
0.0
 13
0.0
 23
0.0
 33
0.0
 16
1.0
 26
0.0
 36
0.0
 17
0.0
 27
1.0
 37
0.0
 76
     0
330
1F
331
29
  0
MLINESTYLE
  5
18
102
{ACAD_REACTORS
330
17
102
}
330
17
100
AcDbMlineStyle
  2
Standard
 70
     0
  3

 62
   256
 51
90.0
 52
90.0
 71
     2
 49
0.5
 62
   256
  6
BYLAYER
 49
-0.5
 62
   256
  6
BYLAYER
  0
ACDBPLACEHOLDER
  5
F
102
{ACAD_REACTORS
330
E
102
}
330
E
  0
SCALE
  5
4E
102
{ACAD_REACTORS
330
4D
102
}
330
4D
100
AcDbScale
 70
     0
300
1:1
140
1.0
141
1.0
290
     1
  0
SCALE
  5
4F
102
{ACAD_REACTORS
330
4D
102
}
330
4D
100
AcDbScale
 70
     0
300
1:2
140
1.0
141
2.0
290
     0
  0
SCALE
  5
50
102
{ACAD_REACTORS
330
4D
102
}
330
4D
100
AcDbScale
 70
     0
300
1:4
140
1.0
141
4.0
290
     0
  0
SCALE
  5
51
102
{ACAD_REACTORS
330
4D
102
}
330
4D
100
AcDbScale
 70
     0
300
1:5
140
1.0
141
5.0
290
     0
  0
SCALE
  5
52
102
{ACAD_REACTORS
330
4D
102
}
330
4D
100
AcDbScale
 70
     0
300
1:8
140
1.0
141
8.0
290
     0
  0
SCALE
  5
53
102
{ACAD_REACTORS
330
4D
102
}
330
4D
100
AcDbScale
 70
     0
300
1:10
140
1.0
141
10.0
290
     0
  0
SCALE
  5
54
102
{ACAD_REACTORS
330
4D
102
}
330
4D
100
AcDbScale
 70
     0
300
1:16
140
1.0
141
16.0
290
     0
  0
SCALE
  5
55
102
{ACAD_REACTORS
330
4D
102
}
330
4D
100
AcDbScale
 70
     0
300
1:20
140
1.0
141
20.0
290
     0
  0
SCALE
  5
56
102
{ACAD_REACTORS
330
4D
102
}
330
4D
100
AcDbScale
 70
     0
300
1:30
140
1.0
141
30.0
290
     0
  0
SCALE
  5
57
102
{ACAD_REACTORS
330
4D
102
}
330
4D
100
AcDbScale
 70
     0
300
1:40
140
1.0
141
40.0
290
     0
  0
SCALE
  5
58
102
{ACAD_REACTORS
330
4D
102
}
330
4D
100
AcDbScale
 70
     0
300
1:50
140
1.0
141
50.0
290
     0
  0
SCALE
  5
59
102
{ACAD_REACTORS
330
4D
102
}
330
4D
100
AcDbScale
 70
     0
300
1:100
140
1.0
141
100.0
290
     0
  0
SCALE
  5
5A
102
{ACAD_REACTORS
330
4D
102
}
330
4D
100
AcDbScale
 70
     0
300
2:1
140
2.0
141
1.0
290
     0
  0
SCALE
  5
5B
102
{ACAD_REACTORS
330
4D
102
}
330
4D
100
AcDbScale
 70
     0
300
4:1
140
4.0
141
1.0
290
     0
  0
SCALE
  5
5C
102
{ACAD_REACTORS
330
4D
102
}
330
4D
100
AcDbScale
 70
     0
300
8:1
140
8.0
141
1.0
290
     0
  0
SCALE
  5
5D
102
{ACAD_REACTORS
330
4D
102
}
330
4D
100
AcDbScale
 70
     0
300
10:1
140
10.0
141
1.0
290
     0
  0
SCALE
  5
5E
102
{ACAD_REACTORS
330
4D
102
}
330
4D
100
AcDbScale
 70
     0
300
100:1
140
100.0
141
1.0
290
     0
  0
SCALE
  5
5F
102
{ACAD_REACTORS
330
4D
102
}
330
4D
100
AcDbScale
 70
     0
300
1/128" = 1'-0"
140
0.0078125
141
12.0
290
     0
  0
SCALE
  5
60
102
{ACAD_REACTORS
330
4D
102
}
330
4D
100
AcDbScale
 70
     0
300
1/64" = 1'-0"
140
0.015625
141
12.0
290
     0
  0
SCALE
  5
61
102
{ACAD_REACTORS
330
4D
102
}
330
4D
100
AcDbScale
 70
     0
300
1/32" = 1'-0"
140
0.03125
141
12.0
290
     0
  0
SCALE
  5
62
102
{ACAD_REACTORS
330
4D
102
}
330
4D
100
AcDbScale
 70
     0
300
1/16" = 1'-0"
140
0.0625
141
12.0
290
     0
  0
SCALE
  5
63
102
{ACAD_REACTORS
330
4D
102
}
330
4D
100
AcDbScale
 70
     0
300
3/32" = 1'-0"
140
0.09375
141
12.0
290
     0
  0
SCALE
  5
64
102
{ACAD_REACTORS
330
4D
102
}
330
4D
100
AcDbScale
 70
     0
300
1/8" = 1'-0"
140
0.125
141
12.0
290
     0
  0
SCALE
  5
65
102
{ACAD_REACTORS
330
4D
102
}
330
4D
100
AcDbScale
 70
     0
300
3/16" = 1'-0"
140
0.1875
141
12.0
290
     0
  0
SCALE
  5
66
102
{ACAD_REACTORS
330
4D
102
}
330
4D
100
AcDbScale
 70
     0
300
1/4" = 1'-0"
140
0.25
141
12.0
290
     0
  0
SCALE
  5
67
102
{ACAD_REACTORS
330
4D
102
}
330
4D
100
AcDbScale
 70
     0
300
3/8" = 1'-0"
140
0.375
141
12.0
290
     0
  0
SCALE
  5
68
102
{ACAD_REACTORS
330
4D
102
}
330
4D
100
AcDbScale
 70
     0
300
1/2" = 1'-0"
140
0.5
141
12.0
290
     0
  0
SCALE
  5
69
102
{ACAD_REACTORS
330
4D
102
}
330
4D
100
AcDbScale
 70
     0
300
3/4" = 1'-0"
140
0.75
141
12.0
290
     0
  0
SCALE
  5
6A
102
{ACAD_REACTORS
330
4D
102
}
330
4D
100
AcDbScale
 70
     0
300
1" = 1'-0"
140
1.0
141
12.0
290
     0
  0
SCALE
  5
6B
102
{ACAD_REACTORS
330
4D
102
}
330
4D
100
AcDbScale
 70
     0
300
1-1/2" = 1'-0"
140
1.5
141
12.0
290
     0
  0
SCALE
  5
6C
102
{ACAD_REACTORS
330
4D
102
}
330
4D
100
AcDbScale
 70
     0
300
3" = 1'-0"
140
3.0
141
12.0
290
     0
  0
SCALE
  5
6D
102
{ACAD_REACTORS
330
4D
102
}
330
4D
100
AcDbScale
 70
     0
300
6" = 1'-0"
140
6.0
141
12.0
290
     0
  0
SCALE
  5
6E
102
{ACAD_REACTORS
330
4D
102
}
330
4D
100
AcDbScale
 70
     0
300
1'-0" = 1'-0"
140
12.0
141
12.0
290
     0
  0
DICTIONARYVAR
  5
313
102
{ACAD_REACTORS
330
312
102
}
330
312
100
DictionaryVariables
280
     0
  1
1:1
  0
ENDSEC
  0
EOF
