  0
SECTION
  2
HEADER
  9
$ACADVER
  1
AC1015
  9
$ACADMAINTVER
 70
     6
  9
$DWGCODEPAGE
  3
DOS932
  9
$INSBASE
 10
0.0
 20
0.0
 30
0.0
  9
$EXTMIN
 10
0.0
 20
0.0
 30
0.0
  9
$EXTMAX
 10
210.0
 20
297.0
 30
0.0
  9
$LIMMIN
 10
0.0
 20
0.0
  9
$LIMMAX
 10
0.0
 20
0.0
  9
$ORTHOMODE
 70
     0
  9
$REGENMODE
 70
     1
  9
$FILLMODE
 70
     1
  9
$QTEXTMODE
 70
     0
  9
$MIRRTEXT
 70
     1
  9
$LTSCALE
 40
1.0
  9
$ATTMODE
 70
     1
  9
$TEXTSIZE
 40
3.5
  9
$TRACEWID
 40
1.0
  9
$TEXTSTYLE
  7
Standard
  9
$CLAYER
  8
0
  9
$CELTYPE
  6
ByLayer
  9
$CECOLOR
 62
   256
  9
$CELTSCALE
 40
1.0
  9
$DISPSILH
 70
     0
  9
$DIMSCALE
 40
1.0
  9
$DIMASZ
 40
3.0
  9
$DIMEXO
 40
1.0
  9
$DIMDLI
 40
3.75
  9
$DIMRND
 40
0.0
  9
$DIMDLE
 40
0.0
  9
$DIMEXE
 40
1.0
  9
$DIMTP
 40
0.0
  9
$DIMTM
 40
0.0
  9
$DIMTXT
 40
3.0
  9
$DIMCEN
 40
2.5
  9
$DIMTSZ
 40
0.0
  9
$DIMTOL
 70
     0
  9
$DIMLIM
 70
     0
  9
$DIMTIH
 70
     1
  9
$DIMTOH
 70
     1
  9
$DIMSE1
 70
     0
  9
$DIMSE2
 70
     0
  9
$DIMTAD
 70
     1
  9
$DIMZIN
 70
     1
  9
$DIMBLK
  1

  9
$DIMASO
 70
     1
  9
$DIMSHO
 70
     1
  9
$DIMPOST
  1

  9
$DIMAPOST
  1

  9
$DIMALT
 70
     0
  9
$DIMALTD
 70
     3
  9
$DIMALTF
 40
0.0393700787
  9
$DIMLFAC
 40
1.0
  9
$DIMTOFL
 70
     1
  9
$DIMTVP
 40
0.0
  9
$DIMTIX
 70
     0
  9
$DIMSOXD
 70
     0
  9
$DIMSAH
 70
     0
  9
$DIMBLK1
  1

  9
$DIMBLK2
  1

  9
$DIMSTYLE
  2
ISO-25
  9
$DIMCLRD
 70
     0
  9
$DIMCLRE
 70
     0
  9
$DIMCLRT
 70
     0
  9
$DIMTFAC
 40
1.0
  9
$DIMGAP
 40
1.524
  9
$DIMJUST
 70
     0
  9
$DIMSD1
 70
     0
  9
$DIMSD2
 70
     0
  9
$DIMTOLJ
 70
     0
  9
$DIMTZIN
 70
     1
  9
$DIMALTZ
 70
     0
  9
$DIMALTTZ
 70
     0
  9
$DIMUPT
 70
     0
  9
$DIMDEC
 70
     2
  9
$DIMTDEC
 70
     2
  9
$DIMALTU
 70
     2
  9
$DIMALTTD
 70
     3
  9
$DIMTXSTY
  7
Standard
  9
$DIMAUNIT
 70
     0
  9
$DIMADEC
 70
     0
  9
$DIMALTRND
 40
0.0
  9
$DIMAZIN
 70
     0
  9
$DIMDSEP
 70
    44
  9
$DIMATFIT
 70
     3
  9
$DIMFRAC
 70
     0
  9
$DIMLDRBLK
  1

  9
$DIMLUNIT
 70
     2
  9
$DIMLWD
 70
    -2
  9
$DIMLWE
 70
    -2
  9
$DIMTMOVE
 70
     0
  9
$LUNITS
 70
     2
  9
$LUPREC
 70
     1
  9
$SKETCHINC
 40
1.0
  9
$FILLETRAD
 40
10.0
  9
$AUNITS
 70
     0
  9
$AUPREC
 70
     0
  9
$MENU
  1
.
  9
$ELEVATION
 40
0.0
  9
$PELEVATION
 40
0.0
  9
$THICKNESS
 40
0.0
  9
$LIMCHECK
 70
     0
  9
$CHAMFERA
 40
10.0
  9
$CHAMFERB
 40
10.0
  9
$CHAMFERC
 40
20.0
  9
$CHAMFERD
 40
0.0
  9
$SKPOLY
 70
     0
  9
$TDCREATE
 40
2454358.495004155
  9
$TDUCREATE
 40
2454358.120004155
  9
$TDUPDATE
 40
2454358.495004167
  9
$TDUUPDATE
 40
2454358.120004167
  9
$TDINDWG
 40
0.0000000116
  9
$TDUSRTIMER
 40
0.0000000116
  9
$USRTIMER
 70
     1
  9
$ANGBASE
 50
0.0
  9
$ANGDIR
 70
     0
  9
$PDMODE
 70
     0
  9
$PDSIZE
 40
-1.0
  9
$PLINEWID
 40
0.0
  9
$SPLFRAME
 70
     0
  9
$SPLINETYPE
 70
     6
  9
$SPLINESEGS
 70
     8
  9
$HANDSEED
  5
313
  9
$SURFTAB1
 70
     6
  9
$SURFTAB2
 70
     6
  9
$SURFTYPE
 70
     6
  9
$SURFU
 70
     6
  9
$SURFV
 70
     6
  9
$UCSBASE
  2

  9
$UCSNAME
  2

  9
$UCSORG
 10
0.0
 20
0.0
 30
0.0
  9
$UCSXDIR
 10
1.0
 20
0.0
 30
0.0
  9
$UCSYDIR
 10
0.0
 20
1.0
 30
0.0
  9
$UCSORTHOREF
  2

  9
$UCSORTHOVIEW
 70
     0
  9
$UCSORGTOP
 10
0.0
 20
0.0
 30
0.0
  9
$UCSORGBOTTOM
 10
0.0
 20
0.0
 30
0.0
  9
$UCSORGLEFT
 10
0.0
 20
0.0
 30
0.0
  9
$UCSORGRIGHT
 10
0.0
 20
0.0
 30
0.0
  9
$UCSORGFRONT
 10
0.0
 20
0.0
 30
0.0
  9
$UCSORGBACK
 10
0.0
 20
0.0
 30
0.0
  9
$PUCSBASE
  2

  9
$PUCSNAME
  2

  9
$PUCSORG
 10
0.0
 20
0.0
 30
0.0
  9
$PUCSXDIR
 10
1.0
 20
0.0
 30
0.0
  9
$PUCSYDIR
 10
0.0
 20
1.0
 30
0.0
  9
$PUCSORTHOREF
  2

  9
$PUCSORTHOVIEW
 70
     0
  9
$PUCSORGTOP
 10
0.0
 20
0.0
 30
0.0
  9
$PUCSORGBOTTOM
 10
0.0
 20
0.0
 30
0.0
  9
$PUCSORGLEFT
 10
0.0
 20
0.0
 30
0.0
  9
$PUCSORGRIGHT
 10
0.0
 20
0.0
 30
0.0
  9
$PUCSORGFRONT
 10
0.0
 20
0.0
 30
0.0
  9
$PUCSORGBACK
 10
0.0
 20
0.0
 30
0.0
  9
$USERI1
 70
     0
  9
$USERI2
 70
     0
  9
$USERI3
 70
     0
  9
$USERI4
 70
     0
  9
$USERI5
 70
     0
  9
$USERR1
 40
0.0
  9
$USERR2
 40
0.0
  9
$USERR3
 40
0.0
  9
$USERR4
 40
0.0
  9
$USERR5
 40
0.0
  9
$WORLDVIEW
 70
     1
  9
$SHADEDGE
 70
     3
  9
$SHADEDIF
 70
    70
  9
$TILEMODE
 70
     1
  9
$MAXACTVP
 70
    64
  9
$PINSBASE
 10
0.0
 20
0.0
 30
0.0
  9
$PLIMCHECK
 70
     0
  9
$PEXTMIN
 10
1.0000000000E+20
 20
1.0000000000E+20
 30
1.0000000000E+20
  9
$PEXTMAX
 10
-1.0000000000E+20
 20
-1.0000000000E+20
 30
-1.0000000000E+20
  9
$PLIMMIN
 10
0.0
 20
0.0
  9
$PLIMMAX
 10
420.0
 20
297.0
  9
$UNITMODE
 70
     0
  9
$VISRETAIN
 70
     1
  9
$PLINEGEN
 70
     0
  9
$PSLTSCALE
 70
     1
  9
$TREEDEPTH
 70
  3020
  9
$CMLSTYLE
  2
Standard
  9
$CMLJUST
 70
     0
  9
$CMLSCALE
 40
20.0
  9
$PROXYGRAPHICS
 70
     1
  9
$MEASUREMENT
 70
     1
  9
$CELWEIGHT
370
    -1
  9
$ENDCAPS
280
     0
  9
$JOINSTYLE
280
     0
  9
$LWDISPLAY
290
     1
  9
$INSUNITS
 70
     4
  9
$HYPERLINKBASE
  1

  9
$STYLESHEET
  1

  9
$XEDIT
290
     1
  9
$CEPSNTYPE
380
     0
  9
$PSTYLEMODE
290
     1
  9
$FINGERPRINTGUID
  2
{B907AE88-412D-4404-8F9D-8A617CD0DBD3}
  9
$VERSIONGUID
  2
{FAEB1C32-E019-11D5-929B-00C0DF256EC4}
  9
$EXTNAMES
290
     1
  9
$PSVPSCALE
 40
0.0
  9
$OLESTARTUP
290
     0
  0
ENDSEC
  0
SECTION
  2
CLASSES
  0
CLASS
  1
ACDBDICTIONARYWDFLT
  2
AcDbDictionaryWithDefault
  3
ObjectDBX Classes
 90
        0
280
     0
281
     0
  0
CLASS
  1
ACDBPLACEHOLDER
  2
AcDbPlaceHolder
  3
ObjectDBX Classes
 90
        0
280
     0
281
     0
  0
CLASS
  1
LAYOUT
  2
AcDbLayout
  3
ObjectDBX Classes
 90
        0
280
     0
281
     0
  0
ENDSEC
  0
SECTION
  2
TABLES
  0
TABLE
  2
VPORT
  5
8
330
0
100
AcDbSymbolTable
 70
     1
  0
VPORT
  5
29
330
8
100
AcDbSymbolTableRecord
100
AcDbViewportTableRecord
  2
*Active
 70
     0
 10
0.0
 20
0.0
 11
1.0
 21
1.0
 12
105.0
 22
148.5
 13
0.0
 23
0.0
 14
10.0
 24
10.0
 15
10.0
 25
10.0
 16
0.0
 26
0.0
 36
1.0
 17
0.0
 27
0.0
 37
0.0
 40
297.0
 41
1.9729729729
 42
50.0
 43
0.0
 44
0.0
 50
0.0
 51
0.0
 71
     0
 72
  2000
 73
     1
 74
     3
 75
     0
 76
     0
 77
     0
 78
     0
281
     0
 65
     1
110
0.0
120
0.0
130
0.0
111
1.0
121
0.0
131
0.0
112
0.0
122
1.0
132
0.0
 79
     0
146
0.0
  0
ENDTAB
  0
TABLE
  2
LTYPE
  5
5
330
0
100
AcDbSymbolTable
 70
     6
  0
LTYPE
  5
14
330
5
100
AcDbSymbolTableRecord
100
AcDbLinetypeTableRecord
  2
ByBlock
 70
     0
  3

 72
    65
 73
     0
 40
0.0
  0
LTYPE
  5
15
330
5
100
AcDbSymbolTableRecord
100
AcDbLinetypeTableRecord
  2
ByLayer
 70
     0
  3

 72
    65
 73
     0
 40
0.0
  0
LTYPE
  5
16
330
5
100
AcDbSymbolTableRecord
100
AcDbLinetypeTableRecord
  2
Continuous
 70
     0
  3
Solid line
 72
    65
 73
     0
 40
0.0
  0
LTYPE
  5
2A
330
5
100
AcDbSymbolTableRecord
100
AcDbLinetypeTableRecord
  2
HIDDEN
 70
     0
  3
Hidden __ __ __ __ __ __ __ __ __ __ __ __ __ __
 72
    65
 73
     2
 40
1.905
 49
1.27
 74
     0
 49
-0.635
 74
     0
  0
LTYPE
  5
2B
330
5
100
AcDbSymbolTableRecord
100
AcDbLinetypeTableRecord
  2
PHANTOM
 70
     0
  3
Phantom ______  __  __  ______  __  __  ______
 72
    65
 73
     6
 40
12.7
 49
6.35
 74
     0
 49
-1.27
 74
     0
 49
1.27
 74
     0
 49
-1.27
 74
     0
 49
1.27
 74
     0
 49
-1.27
 74
     0
  0
LTYPE
  5
2C
330
5
100
AcDbSymbolTableRecord
100
AcDbLinetypeTableRecord
  2
CENTER
 70
     0
  3
Center ____ _ ____ _ ____ _ ____ _ ____ _ ____
 72
    65
 73
     4
 40
10.16
 49
6.35
 74
     0
 49
-1.27
 74
     0
 49
1.27
 74
     0
 49
-1.27
 74
     0
  0
LTYPE
  5
2D
330
5
100
AcDbSymbolTableRecord
100
AcDbLinetypeTableRecord
  2
CENTERX2
 70
     0
  3
Center (2x) ________  __  ________  __  _____
 72
    65
 73
     4
 40
20.32
 49
12.7
 74
     0
 49
-2.54
 74
     0
 49
2.54
 74
     0
 49
-2.54
 74
     0
  0
LTYPE
  5
2E
330
5
100
AcDbSymbolTableRecord
100
AcDbLinetypeTableRecord
  2
DOT2
 70
     0
  3
Dot (.5x) ........................................
 72
    65
 73
     2
 40
0.635
 49
0.0
 74
     0
 49
-0.635
 74
     0
  0
ENDTAB
  0
TABLE
  2
LAYER
  5
2
330
0
100
AcDbSymbolTable
 70
    15
  0
LAYER
  5
10
330
2
100
AcDbSymbolTableRecord
100
AcDbLayerTableRecord
  2
0
 70
     0
 62
     7
  6
Continuous
370
    -3
390
F
  0
LAYER
  5
2F
330
2
100
AcDbSymbolTableRecord
100
AcDbLayerTableRecord
  2
SLD-0_0
 70
     0
 62
   179
  6
Continuous
370
     0
390
F
  0
LAYER
  5
30
330
2
100
AcDbSymbolTableRecord
100
AcDbLayerTableRecord
  2
SLD-0
 70
     0
 62
   179
  6
Continuous
370
     0
390
F
  0
LAYER
  5
31
330
2
100
AcDbSymbolTableRecord
100
AcDbLayerTableRecord
  2
SLD-DEFPOINTS
 70
     0
 62
   179
  6
Continuous
370
     0
390
F
  0
LAYER
  5
32
330
2
100
AcDbSymbolTableRecord
100
AcDbLayerTableRecord
  2
1
 70
     0
 62
    14
  6
Continuous
370
     0
390
F
  0
LAYER
  5
33
330
2
100
AcDbSymbolTableRecord
100
AcDbLayerTableRecord
  2
2
 70
     0
 62
     5
  6
Continuous
370
     0
390
F
  0
LAYER
  5
34
330
2
100
AcDbSymbolTableRecord
100
AcDbLayerTableRecord
  2
3
 70
     0
 62
     6
  6
HIDDEN
370
     0
390
F
  0
LAYER
  5
35
330
2
100
AcDbSymbolTableRecord
100
AcDbLayerTableRecord
  2
4
 70
     0
 62
     3
  6
Continuous
370
     0
390
F
  0
LAYER
  5
36
330
2
100
AcDbSymbolTableRecord
100
AcDbLayerTableRecord
  2
5
 70
     0
 62
     3
  6
Continuous
370
     0
390
F
  0
LAYER
  5
37
330
2
100
AcDbSymbolTableRecord
100
AcDbLayerTableRecord
  2
6
 70
     0
 62
     2
  6
Continuous
370
     0
390
F
  0
LAYER
  5
38
330
2
100
AcDbSymbolTableRecord
100
AcDbLayerTableRecord
  2
7
 70
     0
 62
     4
  6
CENTERX2
370
     0
390
F
  0
LAYER
  5
39
330
2
100
AcDbSymbolTableRecord
100
AcDbLayerTableRecord
  2
8
 70
     0
 62
     1
  6
Continuous
370
     0
390
F
  0
LAYER
  5
3A
330
2
100
AcDbSymbolTableRecord
100
AcDbLayerTableRecord
  2
SLD-DEFPOINTS_0
 70
     0
 62
   179
  6
Continuous
370
     0
390
F
  0
LAYER
  5
3B
330
2
100
AcDbSymbolTableRecord
100
AcDbLayerTableRecord
  2
SLD-DEFPOINTS_1
 70
     0
 62
   179
  6
Continuous
370
     0
390
F
  0
LAYER
  5
1C9
330
2
100
AcDbSymbolTableRecord
100
AcDbLayerTableRecord
  2
Defpoints
 70
     0
 62
     7
  6
Continuous
290
     0
370
    -3
390
F
  0
ENDTAB
  0
TABLE
  2
STYLE
  5
3
330
0
100
AcDbSymbolTable
 70
     3
  0
STYLE
  5
11
330
3
100
AcDbSymbolTableRecord
100
AcDbTextStyleTableRecord
  2
Standard
 70
     0
 40
0.0
 41
1.0
 50
0.0
 71
     0
 42
2.5
  3
txt
  4
bigfont
  0
STYLE
  5
3F
330
3
100
AcDbSymbolTableRecord
100
AcDbTextStyleTableRecord
  2
SLDTEXTSTYLE0
 70
     0
 40
0.0
 41
0.7
 50
0.0
 71
     0
 42
0.2
  3
TXT
  4
bigfont
  0
STYLE
  5
2D4
330
3
100
AcDbSymbolTableRecord
100
AcDbTextStyleTableRecord
  2
SLDTEXTSTYLE1
 70
     0
 40
0.0
 41
0.5157894737
 50
0.0
 71
     0
 42
0.2
  3
TXT
  4
bigfont
  0
ENDTAB
  0
TABLE
  2
VIEW
  5
6
330
0
100
AcDbSymbolTable
 70
     0
  0
ENDTAB
  0
TABLE
  2
UCS
  5
7
330
0
100
AcDbSymbolTable
 70
     0
  0
ENDTAB
  0
TABLE
  2
APPID
  5
9
330
0
100
AcDbSymbolTable
 70
     1
  0
APPID
  5
12
330
9
100
AcDbSymbolTableRecord
100
AcDbRegAppTableRecord
  2
ACAD
 70
     0
  0
ENDTAB
  0
TABLE
  2
DIMSTYLE
  5
A
330
0
100
AcDbSymbolTable
 70
     7
100
AcDbDimStyleTable
  0
DIMSTYLE
105
27
330
A
100
AcDbSymbolTableRecord
100
AcDbDimStyleTableRecord
  2
ISO-25
 70
     0
 41
2.5
 42
0.625
 43
3.75
 44
1.25
 73
     0
 74
     0
 77
     1
 78
     8
140
2.5
141
2.5
143
0.0393700787
147
0.625
171
     3
172
     1
271
     2
272
     2
274
     3
278
    44
283
     0
284
     8
340
11
  0
DIMSTYLE
105
1D7
102
{ACAD_REACTORS
330
1C8
330
1E4
330
222
330
296
102
}
330
A
100
AcDbSymbolTableRecord
100
AcDbDimStyleTableRecord
  2
SLDDIMSTYLE0
 70
     0
 41
3.0
 44
0.0
 73
     0
 74
     0
 77
     3
 78
    12
140
3.0
147
0.75
173
     1
271
     1
272
     3
284
    12
340
3F
341
1D8
343
1D8
344
1D8
  0
DIMSTYLE
105
205
102
{ACAD_REACTORS
330
1F8
102
}
330
A
100
AcDbSymbolTableRecord
100
AcDbDimStyleTableRecord
  2
SLDDIMSTYLE1
 70
     0
 41
3.0
 44
0.0
 78
    12
140
3.0
147
0.75
172
     1
173
     1
271
     1
272
     3
284
    12
340
3F
341
1D8
343
1D8
344
1D8
  0
DIMSTYLE
105
21A
102
{ACAD_REACTORS
330
20D
102
}
330
A
100
AcDbSymbolTableRecord
100
AcDbDimStyleTableRecord
  2
SLDDIMSTYLE2
 70
     0
 41
3.0
 44
0.0
 78
     4
140
3.0
147
0.75
172
     1
173
     1
271
     1
272
     3
284
    12
340
3F
341
1D8
343
1D8
344
1D8
  0
DIMSTYLE
105
242
102
{ACAD_REACTORS
330
235
330
249
330
25C
330
26F
330
2AA
330
2C0
102
}
330
A
100
AcDbSymbolTableRecord
100
AcDbDimStyleTableRecord
  2
SLDDIMSTYLE3
 70
     0
 41
3.0
 44
0.0
 73
     0
 74
     0
 77
     3
 78
     4
140
3.0
147
0.75
173
     1
271
     1
272
     3
284
    12
340
3F
341
1D8
343
1D8
344
1D8
  0
DIMSTYLE
105
290
102
{ACAD_REACTORS
330
283
102
}
330
A
100
AcDbSymbolTableRecord
100
AcDbDimStyleTableRecord
  2
SLDDIMSTYLE4
 70
     0
  3
<>
 41
3.0
 44
0.0
 78
    12
140
3.0
147
0.75
172
     1
173
     1
271
     1
272
     3
284
    12
340
3F
341
1D8
343
1D8
344
1D8
  0
DIMSTYLE
105
2D9
330
A
100
AcDbSymbolTableRecord
100
AcDbDimStyleTableRecord
  2
SLDDIMSTYLE5
 70
     0
 41
3.0
 44
0.0
140
3.0
147
0.75
173
     1
271
     0
272
     0
340
11
341
1D8
343
1D8
344
1D8
  0
ENDTAB
  0
TABLE
  2
BLOCK_RECORD
  5
1
330
0
100
AcDbSymbolTable
 70
    21
  0
BLOCK_RECORD
  5
1F
330
1
100
AcDbSymbolTableRecord
100
AcDbBlockTableRecord
  2
*Model_Space
340
22
  0
BLOCK_RECORD
  5
1B
330
1
100
AcDbSymbolTableRecord
100
AcDbBlockTableRecord
  2
*Paper_Space
340
1E
  0
BLOCK_RECORD
  5
23
330
1
100
AcDbSymbolTableRecord
100
AcDbBlockTableRecord
  2
*Paper_Space0
340
26
  0
BLOCK_RECORD
  5
3C
330
1
100
AcDbSymbolTableRecord
100
AcDbBlockTableRecord
  2
注記
340
0
  0
BLOCK_RECORD
  5
1CA
330
1
100
AcDbSymbolTableRecord
100
AcDbBlockTableRecord
  2
*D2
340
0
  0
BLOCK_RECORD
  5
1D8
330
1
100
AcDbSymbolTableRecord
100
AcDbBlockTableRecord
  2
_Open30
340
0
102
{BLKREFS
331
1CF
331
1CE
331
1DE
331
1DF
331
1EA
331
1E9
331
1F2
331
1F3
331
1FF
331
1FE
331
206
331
214
331
213
331
21B
331
228
331
227
331
230
331
231
331
23B
331
23A
331
243
331
244
331
24F
331
24E
331
256
331
257
331
262
331
261
331
269
331
26A
331
275
331
274
331
27D
331
27E
331
28A
331
289
331
291
331
29C
331
29B
331
2A4
331
2A5
331
2B0
331
2AF
331
2B8
331
2B9
331
2C6
331
2C5
331
2CE
331
2CF
102
}
  0
BLOCK_RECORD
  5
1E5
330
1
100
AcDbSymbolTableRecord
100
AcDbBlockTableRecord
  2
*D4
340
0
  0
BLOCK_RECORD
  5
1F9
330
1
100
AcDbSymbolTableRecord
100
AcDbBlockTableRecord
  2
*D5
340
0
  0
BLOCK_RECORD
  5
20E
330
1
100
AcDbSymbolTableRecord
100
AcDbBlockTableRecord
  2
*D6
340
0
  0
BLOCK_RECORD
  5
223
330
1
100
AcDbSymbolTableRecord
100
AcDbBlockTableRecord
  2
*D7
340
0
  0
BLOCK_RECORD
  5
236
330
1
100
AcDbSymbolTableRecord
100
AcDbBlockTableRecord
  2
*D8
340
0
  0
BLOCK_RECORD
  5
24A
330
1
100
AcDbSymbolTableRecord
100
AcDbBlockTableRecord
  2
*D9
340
0
  0
BLOCK_RECORD
  5
25D
330
1
100
AcDbSymbolTableRecord
100
AcDbBlockTableRecord
  2
*D10
340
0
  0
BLOCK_RECORD
  5
270
330
1
100
AcDbSymbolTableRecord
100
AcDbBlockTableRecord
  2
*D11
340
0
  0
BLOCK_RECORD
  5
284
330
1
100
AcDbSymbolTableRecord
100
AcDbBlockTableRecord
  2
*D12
340
0
  0
BLOCK_RECORD
  5
297
330
1
100
AcDbSymbolTableRecord
100
AcDbBlockTableRecord
  2
*D13
340
0
  0
BLOCK_RECORD
  5
2AB
330
1
100
AcDbSymbolTableRecord
100
AcDbBlockTableRecord
  2
*D14
340
0
  0
BLOCK_RECORD
  5
2C1
330
1
100
AcDbSymbolTableRecord
100
AcDbBlockTableRecord
  2
*D15
340
0
  0
BLOCK_RECORD
  5
2DB
330
1
100
AcDbSymbolTableRecord
100
AcDbBlockTableRecord
  2
SW_CENTERMARKSYMBOL_0
340
0
102
{BLKREFS
331
2E6
102
}
  0
BLOCK_RECORD
  5
2E7
330
1
100
AcDbSymbolTableRecord
100
AcDbBlockTableRecord
  2
SW_CENTERMARKSYMBOL_1
340
0
102
{BLKREFS
331
2F2
102
}
  0
BLOCK_RECORD
  5
2F3
330
1
100
AcDbSymbolTableRecord
100
AcDbBlockTableRecord
  2
SW_CENTERMARKSYMBOL_2
340
0
102
{BLKREFS
331
2FA
102
}
  0
BLOCK_RECORD
  5
2FB
330
1
100
AcDbSymbolTableRecord
100
AcDbBlockTableRecord
  2
SW_CENTERMARKSYMBOL_3
340
0
102
{BLKREFS
331
306
102
}
  0
BLOCK_RECORD
  5
307
330
1
100
AcDbSymbolTableRecord
100
AcDbBlockTableRecord
  2
SW_CENTERMARKSYMBOL_4
340
0
102
{BLKREFS
331
312
102
}
  0
ENDTAB
  0
ENDSEC
  0
SECTION
  2
BLOCKS
  0
BLOCK
  5
20
330
1F
100
AcDbEntity
  8
0
100
AcDbBlockBegin
  2
*Model_Space
 70
     0
 71
     0
 10
0.0
 20
0.0
 30
0.0
  3
*Model_Space
  1

  0
ENDBLK
  5
21
330
1F
100
AcDbEntity
  8
0
100
AcDbBlockEnd
  0
BLOCK
  5
1C
330
1B
100
AcDbEntity
 67
     1
  8
0
100
AcDbBlockBegin
  2
*Paper_Space
 70
     0
 71
     0
 10
0.0
 20
0.0
 30
0.0
  3
*Paper_Space
  1

  0
ENDBLK
  5
1D
330
1B
100
AcDbEntity
 67
     1
  8
0
100
AcDbBlockEnd
  0
BLOCK
  5
24
330
23
100
AcDbEntity
  8
0
100
AcDbBlockBegin
  2
*Paper_Space0
 70
     0
 71
     0
 10
0.0
 20
0.0
 30
0.0
  3
*Paper_Space0
  1

  0
ENDBLK
  5
25
330
23
100
AcDbEntity
  8
0
100
AcDbBlockEnd
  0
BLOCK
  5
3D
330
3C
100
AcDbEntity
  8
0
100
AcDbBlockBegin
  2
注記
 70
     0
 71
     0
 10
0.0
 20
0.0
 30
0.0
  3
注記
  1

  0
MTEXT
  5
40
330
3C
100
AcDbEntity
  8
0
  6
Continuous
 62
     7
370
     0
100
AcDbMText
 10
0.2636785918
 20
9.0739778448
 30
0.0
 40
3.5
 41
0.0
 71
     1
 72
     1
  1
１．特記ナキ角部ハ、バリ　カエリノ無キコト。
  7
SLDTEXTSTYLE0
 73
     1
 44
1.0
  0
MTEXT
  5
41
330
3C
100
AcDbEntity
  8
0
  6
Continuous
 62
     7
370
     0
100
AcDbMText
 10
0.2636785918
 20
3.5759549983
 30
0.0
 40
3.5
 41
0.0
 71
     1
 72
     1
  1
２．特記ナキ隅部ハ、Ｒ０．４ＭＡＸトスル。
  7
SLDTEXTSTYLE0
 73
     1
 44
1.0
  0
ENDBLK
  5
3E
330
3C
100
AcDbEntity
  8
0
100
AcDbBlockEnd
  0
BLOCK
  5
1D5
330
1CA
100
AcDbEntity
  8
0
100
AcDbBlockBegin
  2
*D2
 70
     1
 71
     0
 10
0.0
 20
0.0
 30
0.0
  3
*D2
  1

  0
INSERT
  5
1DE
330
1CA
100
AcDbEntity
  8
SLD-0_0
100
AcDbBlockReference
  2
_Open30
 10
26.9033119875
 20
177.5332823684
 30
0.1
 41
3.0
 42
3.0
 50
90.0
  0
INSERT
  5
1DF
330
1CA
100
AcDbEntity
  8
SLD-0_0
100
AcDbBlockReference
  2
_Open30
 10
26.9033119875
 20
115.2332823684
 30
0.1
 41
3.0
 42
3.0
 50
270.0
  0
LINE
  5
1E0
330
1CA
100
AcDbEntity
  8
SLD-0_0
100
AcDbLine
 10
102.5405709465
 20
177.5332823684
 30
0.0
 11
25.9033119875
 21
177.5332823684
 31
0.0
  0
LINE
  5
1E1
330
1CA
100
AcDbEntity
  8
SLD-0_0
100
AcDbLine
 10
102.5405709465
 20
115.2332823684
 30
0.0
 11
25.9033119875
 21
115.2332823684
 31
0.0
  0
LINE
  5
1E2
330
1CA
100
AcDbEntity
  8
SLD-0_0
100
AcDbLine
 10
26.9033119875
 20
177.5332823684
 30
0.0
 11
26.9033119875
 21
115.2332823684
 31
0.0
  0
MTEXT
  5
1E3
330
1CA
100
AcDbEntity
  8
SLD-0_0
100
AcDbMText
 10
23.4124029548
 20
142.8927590067
 30
0.0
 40
3.0
 41
0.0
 71
     1
 72
     1
  1
62.3
  7
SLDTEXTSTYLE0
 11
-8.820553879310134E-15
 21
1.0
 31
0.0
 73
     1
 44
1.0
  0
ENDBLK
  5
1D6
330
1CA
100
AcDbEntity
  8
0
100
AcDbBlockEnd
  0
BLOCK
  5
1D9
330
1D8
100
AcDbEntity
  8
0
100
AcDbBlockBegin
  2
_Open30
 70
     0
 71
     0
 10
0.0
 20
0.0
 30
0.0
  3
_Open30
  1

  0
LINE
  5
1DB
330
1D8
100
AcDbEntity
  8
0
  6
ByBlock
 62
     0
370
    -2
100
AcDbLine
 10
-1.0
 20
0.267949
 30
0.0
 11
0.0
 21
0.0
 31
0.0
  0
LINE
  5
1DC
330
1D8
100
AcDbEntity
  8
0
  6
ByBlock
 62
     0
370
    -2
100
AcDbLine
 10
0.0
 20
0.0
 30
0.0
 11
-1.0
 21
-0.267949
 31
0.0
  0
LINE
  5
1DD
330
1D8
100
AcDbEntity
  8
0
  6
ByBlock
 62
     0
370
    -2
100
AcDbLine
 10
0.0
 20
0.0
 30
0.0
 11
-1.0
 21
0.0
 31
0.0
  0
ENDBLK
  5
1DA
330
1D8
100
AcDbEntity
  8
0
100
AcDbBlockEnd
  0
BLOCK
  5
1F0
330
1E5
100
AcDbEntity
  8
0
100
AcDbBlockBegin
  2
*D4
 70
     1
 71
     0
 10
0.0
 20
0.0
 30
0.0
  3
*D4
  1

  0
INSERT
  5
1F2
330
1E5
100
AcDbEntity
  8
SLD-0_0
100
AcDbBlockReference
  2
_Open30
 10
33.7232970836
 20
176.5332823684
 30
0.1
 41
3.0
 42
3.0
 50
90.0
  0
INSERT
  5
1F3
330
1E5
100
AcDbEntity
  8
SLD-0_0
100
AcDbBlockReference
  2
_Open30
 10
33.7232970836
 20
116.2332823684
 30
0.1
 41
3.0
 42
3.0
 50
270.0
  0
LINE
  5
1F4
330
1E5
100
AcDbEntity
  8
SLD-0_0
100
AcDbLine
 10
52.740267105
 20
176.5332823684
 30
0.0
 11
32.7232970836
 21
176.5332823684
 31
0.0
  0
LINE
  5
1F5
330
1E5
100
AcDbEntity
  8
SLD-0_0
100
AcDbLine
 10
52.740267105
 20
116.2332823684
 30
0.0
 11
32.7232970836
 21
116.2332823684
 31
0.0
  0
LINE
  5
1F6
330
1E5
100
AcDbEntity
  8
SLD-0_0
100
AcDbLine
 10
33.7232970836
 20
176.5332823684
 30
0.0
 11
33.7232970836
 21
116.2332823684
 31
0.0
  0
MTEXT
  5
1F7
330
1E5
100
AcDbEntity
  8
SLD-0_0
100
AcDbMText
 10
30.2323880509
 20
142.8927590067
 30
0.0
 40
3.0
 41
0.0
 71
     1
 72
     1
  1
60.3
  7
SLDTEXTSTYLE0
 11
-7.044197039909883E-15
 21
1.0
 31
0.0
 73
     1
 44
1.0
  0
ENDBLK
  5
1F1
330
1E5
100
AcDbEntity
  8
0
100
AcDbBlockEnd
  0
BLOCK
  5
203
330
1F9
100
AcDbEntity
  8
0
100
AcDbBlockBegin
  2
*D5
 70
     1
 71
     0
 10
0.0
 20
0.0
 30
0.0
  3
*D5
  1

  0
INSERT
  5
206
330
1F9
100
AcDbEntity
  8
SLD-0_0
100
AcDbBlockReference
  2
_Open30
 10
50.3367515513
 20
171.4027768499
 30
0.1
 41
3.0
 42
3.0
 50
254.6268556292
  0
LINE
  5
207
330
1F9
100
AcDbEntity
  8
SLD-0_0
100
AcDbLine
 10
50.3367515513
 20
171.4027768499
 30
0.0
 11
53.4245384121
 21
182.6334746429
 31
0.0
  0
LINE
  5
208
330
1F9
100
AcDbEntity
  8
SLD-0_0
100
AcDbLine
 10
49.1437826587
 20
167.0637878869
 30
0.0
 11
50.3367515513
 21
171.4027768499
 31
0.0
  0
LINE
  5
209
330
1F9
100
AcDbEntity
  8
SLD-0_0
100
AcDbLine
 10
53.4245384121
 20
182.6334746429
 30
0.0
 11
73.719948509
 21
182.6334746429
 31
0.0
  0
MTEXT
  5
20A
330
1F9
100
AcDbEntity
  8
SLD-0_0
100
AcDbMText
 10
56.5995384121
 20
186.1243839085
 30
0.0
 40
3.0
 41
0.0
 71
     1
 72
     1
  1
%%c
  7
SLDTEXTSTYLE0
 73
     1
 44
1.0
  0
MTEXT
  5
20B
330
1F9
100
AcDbEntity
  8
SLD-0_0
100
AcDbMText
 10
59.9164281152
 20
186.1243836756
 30
0.0
 40
3.0
 41
0.0
 71
     1
 72
     1
  1
4.5
  7
SLDTEXTSTYLE0
 73
     1
 44
1.0
  0
MTEXT
  5
20C
330
1F9
100
AcDbEntity
  8
SLD-0_0
100
AcDbMText
 10
65.1514017855
 20
186.1243836756
 30
0.0
 40
3.0
 41
0.0
 71
     1
 72
     1
  1
(2x)
  7
SLDTEXTSTYLE0
 73
     1
 44
1.0
  0
ENDBLK
  5
204
330
1F9
100
AcDbEntity
  8
0
100
AcDbBlockEnd
  0
BLOCK
  5
218
330
20E
100
AcDbEntity
  8
0
100
AcDbBlockBegin
  2
*D6
 70
     1
 71
     0
 10
0.0
 20
0.0
 30
0.0
  3
*D6
  1

  0
INSERT
  5
21B
330
20E
100
AcDbEntity
  8
SLD-0_0
100
AcDbBlockReference
  2
_Open30
 10
48.6596318126
 20
173.0845454553
 30
0.1
 41
3.0
 42
3.0
 50
285.6737179667
  0
LINE
  5
21C
330
20E
100
AcDbEntity
  8
SLD-0_0
100
AcDbLine
 10
48.6596318126
 20
173.0845454553
 30
0.0
 11
46.107594056
 21
182.1797220402
 31
0.0
  0
LINE
  5
21D
330
20E
100
AcDbEntity
  8
SLD-0_0
100
AcDbLine
 10
50.8209023974
 20
165.3820192815
 30
0.0
 11
48.6596318126
 21
173.0845454553
 31
0.0
  0
LINE
  5
21E
330
20E
100
AcDbEntity
  8
SLD-0_0
100
AcDbLine
 10
46.107594056
 20
182.1797220402
 30
0.0
 11
22.3200378529
 21
182.1797220402
 31
0.0
  0
MTEXT
  5
21F
330
20E
100
AcDbEntity
  8
SLD-0_0
100
AcDbMText
 10
23.9075378529
 20
185.6706313058
 30
0.0
 40
3.0
 41
0.0
 71
     1
 72
     1
  1
%%c
  7
SLDTEXTSTYLE0
 73
     1
 44
1.0
  0
MTEXT
  5
220
330
20E
100
AcDbEntity
  8
SLD-0_0
100
AcDbMText
 10
27.224427556
 20
185.6706310729
 30
0.0
 40
3.0
 41
0.0
 71
     1
 72
     1
  1
8.0
  7
SLDTEXTSTYLE0
 73
     1
 44
1.0
  0
MTEXT
  5
221
330
20E
100
AcDbEntity
  8
SLD-0_0
100
AcDbMText
 10
32.4594012264
 20
185.6706310729
 30
0.0
 40
3.0
 41
0.0
 71
     1
 72
     1
  1
x4(2x)
  7
SLDTEXTSTYLE0
 73
     1
 44
1.0
  0
ENDBLK
  5
219
330
20E
100
AcDbEntity
  8
0
100
AcDbBlockEnd
  0
BLOCK
  5
22E
330
223
100
AcDbEntity
  8
0
100
AcDbBlockBegin
  2
*D7
 70
     1
 71
     0
 10
0.0
 20
0.0
 30
0.0
  3
*D7
  1

  0
INSERT
  5
230
330
223
100
AcDbEntity
  8
SLD-0_0
100
AcDbBlockReference
  2
_Open30
 10
66.6728003819
 20
176.5332823684
 30
0.1
 41
3.0
 42
3.0
 50
90.0
  0
INSERT
  5
231
330
223
100
AcDbEntity
  8
SLD-0_0
100
AcDbBlockReference
  2
_Open30
 10
66.6728003819
 20
152.7332823684
 30
0.1
 41
3.0
 42
3.0
 50
270.0
  0
LINE
  5
232
330
223
100
AcDbEntity
  8
SLD-0_0
100
AcDbLine
 10
83.240267105
 20
152.7332823684
 30
0.0
 11
65.6728003819
 21
152.7332823684
 31
0.0
  0
LINE
  5
233
330
223
100
AcDbEntity
  8
SLD-0_0
100
AcDbLine
 10
66.6728003819
 20
176.5332823684
 30
0.0
 11
66.6728003819
 21
152.7332823684
 31
0.0
  0
MTEXT
  5
234
330
223
100
AcDbEntity
  8
SLD-0_0
100
AcDbMText
 10
63.1818913492
 20
161.1427590067
 30
0.0
 40
3.0
 41
0.0
 71
     1
 72
     1
  1
23.8
  7
SLDTEXTSTYLE0
 11
-7.044197039909883E-15
 21
1.0
 31
0.0
 73
     1
 44
1.0
  0
ENDBLK
  5
22F
330
223
100
AcDbEntity
  8
0
100
AcDbBlockEnd
  0
BLOCK
  5
240
330
236
100
AcDbEntity
  8
0
100
AcDbBlockBegin
  2
*D8
 70
     1
 71
     0
 10
0.0
 20
0.0
 30
0.0
  3
*D8
  1

  0
INSERT
  5
243
330
236
100
AcDbEntity
  8
SLD-0_0
100
AcDbBlockReference
  2
_Open30
 10
75.740267105
 20
191.5509257063
 30
0.1
 41
3.0
 42
3.0
 50
180.0
  0
INSERT
  5
244
330
236
100
AcDbEntity
  8
SLD-0_0
100
AcDbBlockReference
  2
_Open30
 10
103.740267105
 20
191.5509257063
 30
0.1
 41
3.0
 42
3.0
 50
0.0
  0
LINE
  5
245
330
236
100
AcDbEntity
  8
SLD-0_0
100
AcDbLine
 10
75.740267105
 20
162.2332823684
 30
0.0
 11
75.740267105
 21
192.5509257063
 31
0.0
  0
LINE
  5
246
330
236
100
AcDbEntity
  8
SLD-0_0
100
AcDbLine
 10
103.740267105
 20
179.3832823684
 30
0.0
 11
103.740267105
 21
192.5509257063
 31
0.0
  0
LINE
  5
247
330
236
100
AcDbEntity
  8
SLD-0_0
100
AcDbLine
 10
75.740267105
 20
191.5509257063
 30
0.0
 11
103.740267105
 21
191.5509257063
 31
0.0
  0
MTEXT
  5
248
330
236
100
AcDbEntity
  8
SLD-0_0
100
AcDbMText
 10
86.2497437433
 20
195.041834739
 30
0.0
 40
3.0
 41
0.0
 71
     1
 72
     1
  1
28.0
  7
SLDTEXTSTYLE0
 73
     1
 44
1.0
  0
ENDBLK
  5
241
330
236
100
AcDbEntity
  8
0
100
AcDbBlockEnd
  0
BLOCK
  5
254
330
24A
100
AcDbEntity
  8
0
100
AcDbBlockBegin
  2
*D9
 70
     1
 71
     0
 10
0.0
 20
0.0
 30
0.0
  3
*D9
  1

  0
INSERT
  5
256
330
24A
100
AcDbEntity
  8
SLD-0_0
100
AcDbBlockReference
  2
_Open30
 10
157.740267105
 20
100.0108704489
 30
0.1
 41
3.0
 42
3.0
 50
0.0
  0
INSERT
  5
257
330
24A
100
AcDbEntity
  8
SLD-0_0
100
AcDbBlockReference
  2
_Open30
 10
49.740267105
 20
100.0108704489
 30
0.1
 41
3.0
 42
3.0
 50
180.0
  0
LINE
  5
258
330
24A
100
AcDbEntity
  8
SLD-0_0
100
AcDbLine
 10
157.740267105
 20
122.2332823684
 30
0.0
 11
157.740267105
 21
99.0108704489
 31
0.0
  0
LINE
  5
259
330
24A
100
AcDbEntity
  8
SLD-0_0
100
AcDbLine
 10
49.740267105
 20
117.2332823684
 30
0.0
 11
49.740267105
 21
99.0108704489
 31
0.0
  0
LINE
  5
25A
330
24A
100
AcDbEntity
  8
SLD-0_0
100
AcDbLine
 10
157.740267105
 20
100.0108704489
 30
0.0
 11
49.740267105
 21
100.0108704489
 31
0.0
  0
MTEXT
  5
25B
330
24A
100
AcDbEntity
  8
SLD-0_0
100
AcDbMText
 10
99.3767072167
 20
103.5017794816
 30
0.0
 40
3.0
 41
0.0
 71
     1
 72
     1
  1
108.0
  7
SLDTEXTSTYLE0
 73
     1
 44
1.0
  0
ENDBLK
  5
255
330
24A
100
AcDbEntity
  8
0
100
AcDbBlockEnd
  0
BLOCK
  5
267
330
25D
100
AcDbEntity
  8
0
100
AcDbBlockBegin
  2
*D10
 70
     1
 71
     0
 10
0.0
 20
0.0
 30
0.0
  3
*D10
  1

  0
INSERT
  5
269
330
25D
100
AcDbEntity
  8
SLD-0_0
100
AcDbBlockReference
  2
_Open30
 10
43.740267105
 20
91.7599896042
 30
0.1
 41
3.0
 42
3.0
 50
180.0
  0
INSERT
  5
26A
330
25D
100
AcDbEntity
  8
SLD-0_0
100
AcDbBlockReference
  2
_Open30
 10
163.740267105
 20
91.7599896042
 30
0.1
 41
3.0
 42
3.0
 50
0.0
  0
LINE
  5
26B
330
25D
100
AcDbEntity
  8
SLD-0_0
100
AcDbLine
 10
43.740267105
 20
116.2332823684
 30
0.0
 11
43.740267105
 21
90.7599896042
 31
0.0
  0
LINE
  5
26C
330
25D
100
AcDbEntity
  8
SLD-0_0
100
AcDbLine
 10
163.740267105
 20
116.2332823684
 30
0.0
 11
163.740267105
 21
90.7599896042
 31
0.0
  0
LINE
  5
26D
330
25D
100
AcDbEntity
  8
SLD-0_0
100
AcDbLine
 10
43.740267105
 20
91.7599896042
 30
0.0
 11
163.740267105
 21
91.7599896042
 31
0.0
  0
MTEXT
  5
26E
330
25D
100
AcDbEntity
  8
SLD-0_0
100
AcDbMText
 10
99.3767072167
 20
95.2508986369
 30
0.0
 40
3.0
 41
0.0
 71
     1
 72
     1
  1
120.0
  7
SLDTEXTSTYLE0
 73
     1
 44
1.0
  0
ENDBLK
  5
268
330
25D
100
AcDbEntity
  8
0
100
AcDbBlockEnd
  0
BLOCK
  5
27B
330
270
100
AcDbEntity
  8
0
100
AcDbBlockBegin
  2
*D11
 70
     1
 71
     0
 10
0.0
 20
0.0
 30
0.0
  3
*D11
  1

  0
INSERT
  5
27D
330
270
100
AcDbEntity
  8
SLD-0_0
100
AcDbBlockReference
  2
_Open30
 10
177.1381292159
 20
169.2332823684
 30
0.1
 41
3.0
 42
3.0
 50
90.0
  0
INSERT
  5
27E
330
270
100
AcDbEntity
  8
SLD-0_0
100
AcDbBlockReference
  2
_Open30
 10
177.1381292159
 20
123.2332823684
 30
0.1
 41
3.0
 42
3.0
 50
270.0
  0
LINE
  5
27F
330
270
100
AcDbEntity
  8
SLD-0_0
100
AcDbLine
 10
158.740267105
 20
169.2332823684
 30
0.0
 11
178.1381292159
 21
169.2332823684
 31
0.0
  0
LINE
  5
280
330
270
100
AcDbEntity
  8
SLD-0_0
100
AcDbLine
 10
165.240267105
 20
123.2332823684
 30
0.0
 11
178.1381292159
 21
123.2332823684
 31
0.0
  0
LINE
  5
281
330
270
100
AcDbEntity
  8
SLD-0_0
100
AcDbLine
 10
177.1381292159
 20
169.2332823684
 30
0.0
 11
177.1381292159
 21
123.2332823684
 31
0.0
  0
MTEXT
  5
282
330
270
100
AcDbEntity
  8
SLD-0_0
100
AcDbMText
 10
173.6472201832
 20
142.7427590067
 30
0.0
 40
3.0
 41
0.0
 71
     1
 72
     1
  1
46.0
  7
SLDTEXTSTYLE0
 11
-7.044197039909883E-15
 21
1.0
 31
0.0
 73
     1
 44
1.0
  0
ENDBLK
  5
27C
330
270
100
AcDbEntity
  8
0
100
AcDbBlockEnd
  0
BLOCK
  5
28E
330
284
100
AcDbEntity
  8
0
100
AcDbBlockBegin
  2
*D12
 70
     1
 71
     0
 10
0.0
 20
0.0
 30
0.0
  3
*D12
  1

  0
INSERT
  5
291
330
284
100
AcDbEntity
  8
SLD-0_0
100
AcDbBlockReference
  2
_Open30
 10
159.2478926443
 20
171.2275404343
 30
0.1
 41
3.0
 42
3.0
 50
232.9113329705
  0
LINE
  5
292
330
284
100
AcDbEntity
  8
SLD-0_0
100
AcDbLine
 10
159.2478926443
 20
171.2275404343
 30
0.0
 11
166.4820897876
 21
180.7967972735
 31
0.0
  0
LINE
  5
293
330
284
100
AcDbEntity
  8
SLD-0_0
100
AcDbLine
 10
156.2326415657
 20
167.2390243025
 30
0.0
 11
159.2478926443
 21
171.2275404343
 31
0.0
  0
LINE
  5
294
330
284
100
AcDbEntity
  8
SLD-0_0
100
AcDbLine
 10
166.4820897876
 20
180.7967972735
 30
0.0
 11
181.7177826172
 21
180.7967972735
 31
0.0
  0
MTEXT
  5
295
330
284
100
AcDbEntity
  8
SLD-0_0
100
AcDbMText
 10
169.6570897876
 20
184.2877063062
 30
0.0
 40
3.0
 41
0.0
 71
     1
 72
     1
  1
M6(2x)
  7
SLDTEXTSTYLE0
 73
     1
 44
1.0
  0
ENDBLK
  5
28F
330
284
100
AcDbEntity
  8
0
100
AcDbBlockEnd
  0
BLOCK
  5
2A2
330
297
100
AcDbEntity
  8
0
100
AcDbBlockBegin
  2
*D13
 70
     1
 71
     0
 10
0.0
 20
0.0
 30
0.0
  3
*D13
  1

  0
INSERT
  5
2A4
330
297
100
AcDbEntity
  8
SLD-0_0
100
AcDbBlockReference
  2
_Open30
 10
181.0758612493
 20
212.6384100962
 30
0.1
 41
3.0
 42
3.0
 50
270.0
  0
INSERT
  5
2A5
330
297
100
AcDbEntity
  8
SLD-0_0
100
AcDbBlockReference
  2
_Open30
 10
181.0758612493
 20
276.1384100962
 30
0.1
 41
3.0
 42
3.0
 50
90.0
  0
LINE
  5
2A6
330
297
100
AcDbEntity
  8
SLD-0_0
100
AcDbLine
 10
164.7402671051
 20
212.6384100962
 30
0.0
 11
182.0758612493
 21
212.6384100962
 31
0.0
  0
LINE
  5
2A7
330
297
100
AcDbEntity
  8
SLD-0_0
100
AcDbLine
 10
145.7859781549
 20
276.1384100962
 30
0.0
 11
182.0758612493
 21
276.1384100962
 31
0.0
  0
LINE
  5
2A8
330
297
100
AcDbEntity
  8
SLD-0_0
100
AcDbLine
 10
181.0758612493
 20
212.6384100962
 30
0.0
 11
181.0758612493
 21
276.1384100962
 31
0.0
  0
MTEXT
  5
2A9
330
297
100
AcDbEntity
  8
SLD-0_0
100
AcDbMText
 10
177.5849522166
 20
240.8978867345
 30
0.0
 40
3.0
 41
0.0
 71
     1
 72
     1
  1
63.5
  7
SLDTEXTSTYLE0
 11
6.123031769111886E-17
 21
1.0
 31
0.0
 73
     1
 44
1.0
  0
ENDBLK
  5
2A3
330
297
100
AcDbEntity
  8
0
100
AcDbBlockEnd
  0
BLOCK
  5
2B6
330
2AB
100
AcDbEntity
  8
0
100
AcDbBlockBegin
  2
*D14
 70
     1
 71
     0
 10
0.0
 20
0.0
 30
0.0
  3
*D14
  1

  0
INSERT
  5
2B8
330
2AB
100
AcDbEntity
  8
SLD-0_0
100
AcDbBlockReference
  2
_Open30
 10
33.3637694989
 20
212.6384100962
 30
0.1
 41
3.0
 42
3.0
 50
90.0
  0
INSERT
  5
2B9
330
2AB
100
AcDbEntity
  8
SLD-0_0
100
AcDbBlockReference
  2
_Open30
 10
33.3637694989
 20
222.6384100962
 30
0.1
 41
3.0
 42
3.0
 50
270.0
  0
LINE
  5
2BA
330
2AB
100
AcDbEntity
  8
SLD-0_0
100
AcDbLine
 10
42.740267105
 20
212.6384100962
 30
0.0
 11
32.3637694989
 21
212.6384100962
 31
0.0
  0
LINE
  5
2BB
330
2AB
100
AcDbEntity
  8
SLD-0_0
100
AcDbLine
 10
42.740267105
 20
222.6384100962
 30
0.0
 11
32.3637694989
 21
222.6384100962
 31
0.0
  0
LINE
  5
2BC
330
2AB
100
AcDbEntity
  8
SLD-0_0
100
AcDbLine
 10
33.3637694989
 20
212.6384100962
 30
0.0
 11
33.3637694989
 21
207.6384100962
 31
0.0
  0
LINE
  5
2BD
330
2AB
100
AcDbEntity
  8
SLD-0_0
100
AcDbLine
 10
33.3637694989
 20
212.6384100962
 30
0.0
 11
33.3637694989
 21
222.6384100962
 31
0.0
  0
LINE
  5
2BE
330
2AB
100
AcDbEntity
  8
SLD-0_0
100
AcDbLine
 10
33.3637694989
 20
222.6384100962
 30
0.0
 11
33.3637694989
 21
227.6384100962
 31
0.0
  0
MTEXT
  5
2BF
330
2AB
100
AcDbEntity
  8
SLD-0_0
100
AcDbMText
 10
29.8728604662
 20
214.1478867345
 30
0.0
 40
3.0
 41
0.0
 71
     1
 72
     1
  1
10.0
  7
SLDTEXTSTYLE0
 11
-6.049034970839751E-16
 21
1.0
 31
0.0
 73
     1
 44
1.0
  0
ENDBLK
  5
2B7
330
2AB
100
AcDbEntity
  8
0
100
AcDbBlockEnd
  0
BLOCK
  5
2CC
330
2C1
100
AcDbEntity
  8
0
100
AcDbBlockBegin
  2
*D15
 70
     1
 71
     0
 10
0.0
 20
0.0
 30
0.0
  3
*D15
  1

  0
INSERT
  5
2CE
330
2C1
100
AcDbEntity
  8
SLD-0_0
100
AcDbBlockReference
  2
_Open30
 10
25.967325692
 20
212.6384100962
 30
0.1
 41
3.0
 42
3.0
 50
270.0
  0
INSERT
  5
2CF
330
2C1
100
AcDbEntity
  8
SLD-0_0
100
AcDbBlockReference
  2
_Open30
 10
25.967325692
 20
254.6384100962
 30
0.1
 41
3.0
 42
3.0
 50
90.0
  0
LINE
  5
2D0
330
2C1
100
AcDbEntity
  8
SLD-0_0
100
AcDbLine
 10
42.740267105
 20
212.6384100962
 30
0.0
 11
24.967325692
 21
212.6384100962
 31
0.0
  0
LINE
  5
2D1
330
2C1
100
AcDbEntity
  8
SLD-0_0
100
AcDbLine
 10
42.740267105
 20
254.6384100962
 30
0.0
 11
24.967325692
 21
254.6384100962
 31
0.0
  0
LINE
  5
2D2
330
2C1
100
AcDbEntity
  8
SLD-0_0
100
AcDbLine
 10
25.967325692
 20
212.6384100962
 30
0.0
 11
25.967325692
 21
254.6384100962
 31
0.0
  0
MTEXT
  5
2D3
330
2C1
100
AcDbEntity
  8
SLD-0_0
100
AcDbMText
 10
22.4764166593
 20
230.1478867345
 30
0.0
 40
3.0
 41
0.0
 71
     1
 72
     1
  1
42.0
  7
SLDTEXTSTYLE0
 11
6.123031769111886E-17
 21
1.0
 31
0.0
 73
     1
 44
1.0
  0
ENDBLK
  5
2CD
330
2C1
100
AcDbEntity
  8
0
100
AcDbBlockEnd
  0
BLOCK
  5
2DC
330
2DB
100
AcDbEntity
  8
0
100
AcDbBlockBegin
  2
SW_CENTERMARKSYMBOL_0
 70
     0
 71
     0
 10
0.0
 20
0.0
 30
0.0
  3
SW_CENTERMARKSYMBOL_0
  1

  0
LINE
  5
2DE
330
2DB
100
AcDbEntity
  8
SLD-0_0
100
AcDbLine
 10
0.0
 20
0.0
 30
0.0
 11
0.0
 21
2.5
 31
0.0
  0
LINE
  5
2DF
330
2DB
100
AcDbEntity
  8
SLD-0_0
100
AcDbLine
 10
0.0
 20
0.0
 30
0.0
 11
-2.5
 21
0.0
 31
0.0
  0
LINE
  5
2E0
330
2DB
100
AcDbEntity
  8
SLD-0_0
100
AcDbLine
 10
0.0
 20
0.0
 30
0.0
 11
0.0
 21
-2.5
 31
0.0
  0
LINE
  5
2E1
330
2DB
100
AcDbEntity
  8
SLD-0_0
100
AcDbLine
 10
0.0
 20
0.0
 30
0.0
 11
2.5
 21
0.0
 31
0.0
  0
LINE
  5
2E2
330
2DB
100
AcDbEntity
  8
SLD-0_0
100
AcDbLine
 10
0.0
 20
5.0
 30
0.0
 11
0.0
 21
8.5
 31
0.0
  0
LINE
  5
2E3
330
2DB
100
AcDbEntity
  8
SLD-0_0
100
AcDbLine
 10
-5.0
 20
0.0
 30
0.0
 11
-8.5
 21
0.0
 31
0.0
  0
LINE
  5
2E4
330
2DB
100
AcDbEntity
  8
SLD-0_0
100
AcDbLine
 10
0.0
 20
-5.0
 30
0.0
 11
0.0
 21
-8.5
 31
0.0
  0
LINE
  5
2E5
330
2DB
100
AcDbEntity
  8
SLD-0_0
100
AcDbLine
 10
5.0
 20
0.0
 30
0.0
 11
8.5
 21
0.0
 31
0.0
  0
ENDBLK
  5
2DD
330
2DB
100
AcDbEntity
  8
0
100
AcDbBlockEnd
  0
BLOCK
  5
2E8
330
2E7
100
AcDbEntity
  8
0
100
AcDbBlockBegin
  2
SW_CENTERMARKSYMBOL_1
 70
     0
 71
     0
 10
0.0
 20
0.0
 30
0.0
  3
SW_CENTERMARKSYMBOL_1
  1

  0
LINE
  5
2EA
330
2E7
100
AcDbEntity
  8
SLD-0_0
100
AcDbLine
 10
0.0
 20
0.0
 30
0.0
 11
0.0
 21
2.5
 31
0.0
  0
LINE
  5
2EB
330
2E7
100
AcDbEntity
  8
SLD-0_0
100
AcDbLine
 10
0.0
 20
0.0
 30
0.0
 11
-2.5
 21
0.0
 31
0.0
  0
LINE
  5
2EC
330
2E7
100
AcDbEntity
  8
SLD-0_0
100
AcDbLine
 10
0.0
 20
0.0
 30
0.0
 11
0.0
 21
-2.5
 31
0.0
  0
LINE
  5
2ED
330
2E7
100
AcDbEntity
  8
SLD-0_0
100
AcDbLine
 10
0.0
 20
0.0
 30
0.0
 11
2.5
 21
0.0
 31
0.0
  0
LINE
  5
2EE
330
2E7
100
AcDbEntity
  8
SLD-0_0
100
AcDbLine
 10
0.0
 20
5.0
 30
0.0
 11
0.0
 21
6.5
 31
0.0
  0
LINE
  5
2EF
330
2E7
100
AcDbEntity
  8
SLD-0_0
100
AcDbLine
 10
-5.0
 20
0.0
 30
0.0
 11
-6.5
 21
0.0
 31
0.0
  0
LINE
  5
2F0
330
2E7
100
AcDbEntity
  8
SLD-0_0
100
AcDbLine
 10
0.0
 20
-5.0
 30
0.0
 11
0.0
 21
-6.5
 31
0.0
  0
LINE
  5
2F1
330
2E7
100
AcDbEntity
  8
SLD-0_0
100
AcDbLine
 10
5.0
 20
0.0
 30
0.0
 11
6.5
 21
0.0
 31
0.0
  0
ENDBLK
  5
2E9
330
2E7
100
AcDbEntity
  8
0
100
AcDbBlockEnd
  0
BLOCK
  5
2F4
330
2F3
100
AcDbEntity
  8
0
100
AcDbBlockBegin
  2
SW_CENTERMARKSYMBOL_2
 70
     0
 71
     0
 10
0.0
 20
0.0
 30
0.0
  3
SW_CENTERMARKSYMBOL_2
  1

  0
LINE
  5
2F6
330
2F3
100
AcDbEntity
  8
SLD-0_0
100
AcDbLine
 10
0.0
 20
0.0
 30
0.0
 11
0.0
 21
2.5
 31
0.0
  0
LINE
  5
2F7
330
2F3
100
AcDbEntity
  8
SLD-0_0
100
AcDbLine
 10
0.0
 20
0.0
 30
0.0
 11
-2.5
 21
0.0
 31
0.0
  0
LINE
  5
2F8
330
2F3
100
AcDbEntity
  8
SLD-0_0
100
AcDbLine
 10
0.0
 20
0.0
 30
0.0
 11
0.0
 21
-2.5
 31
0.0
  0
LINE
  5
2F9
330
2F3
100
AcDbEntity
  8
SLD-0_0
100
AcDbLine
 10
0.0
 20
0.0
 30
0.0
 11
2.5
 21
0.0
 31
0.0
  0
ENDBLK
  5
2F5
330
2F3
100
AcDbEntity
  8
0
100
AcDbBlockEnd
  0
BLOCK
  5
2FC
330
2FB
100
AcDbEntity
  8
0
100
AcDbBlockBegin
  2
SW_CENTERMARKSYMBOL_3
 70
     0
 71
     0
 10
0.0
 20
0.0
 30
0.0
  3
SW_CENTERMARKSYMBOL_3
  1

  0
LINE
  5
2FE
330
2FB
100
AcDbEntity
  8
SLD-0_0
100
AcDbLine
 10
0.0
 20
0.0
 30
0.0
 11
0.0
 21
2.5
 31
0.0
  0
LINE
  5
2FF
330
2FB
100
AcDbEntity
  8
SLD-0_0
100
AcDbLine
 10
0.0
 20
0.0
 30
0.0
 11
-2.5
 21
0.0
 31
0.0
  0
LINE
  5
300
330
2FB
100
AcDbEntity
  8
SLD-0_0
100
AcDbLine
 10
0.0
 20
0.0
 30
0.0
 11
0.0
 21
-2.5
 31
0.0
  0
LINE
  5
301
330
2FB
100
AcDbEntity
  8
SLD-0_0
100
AcDbLine
 10
0.0
 20
0.0
 30
0.0
 11
2.5
 21
0.0
 31
0.0
  0
LINE
  5
302
330
2FB
100
AcDbEntity
  8
SLD-0_0
100
AcDbLine
 10
0.0
 20
5.0
 30
0.0
 11
0.0
 21
6.5
 31
0.0
  0
LINE
  5
303
330
2FB
100
AcDbEntity
  8
SLD-0_0
100
AcDbLine
 10
-5.0
 20
0.0
 30
0.0
 11
-6.5
 21
0.0
 31
0.0
  0
LINE
  5
304
330
2FB
100
AcDbEntity
  8
SLD-0_0
100
AcDbLine
 10
0.0
 20
-5.0
 30
0.0
 11
0.0
 21
-6.5
 31
0.0
  0
LINE
  5
305
330
2FB
100
AcDbEntity
  8
SLD-0_0
100
AcDbLine
 10
5.0
 20
0.0
 30
0.0
 11
6.5
 21
0.0
 31
0.0
  0
ENDBLK
  5
2FD
330
2FB
100
AcDbEntity
  8
0
100
AcDbBlockEnd
  0
BLOCK
  5
308
330
307
100
AcDbEntity
  8
0
100
AcDbBlockBegin
  2
SW_CENTERMARKSYMBOL_4
 70
     0
 71
     0
 10
0.0
 20
0.0
 30
0.0
  3
SW_CENTERMARKSYMBOL_4
  1

  0
LINE
  5
30A
330
307
100
AcDbEntity
  8
SLD-0_0
100
AcDbLine
 10
0.0
 20
0.0
 30
0.0
 11
0.0
 21
2.5
 31
0.0
  0
LINE
  5
30B
330
307
100
AcDbEntity
  8
SLD-0_0
100
AcDbLine
 10
0.0
 20
0.0
 30
0.0
 11
-2.5
 21
0.0
 31
0.0
  0
LINE
  5
30C
330
307
100
AcDbEntity
  8
SLD-0_0
100
AcDbLine
 10
0.0
 20
0.0
 30
0.0
 11
0.0
 21
-2.5
 31
0.0
  0
LINE
  5
30D
330
307
100
AcDbEntity
  8
SLD-0_0
100
AcDbLine
 10
0.0
 20
0.0
 30
0.0
 11
2.5
 21
0.0
 31
0.0
  0
LINE
  5
30E
330
307
100
AcDbEntity
  8
SLD-0_0
100
AcDbLine
 10
0.0
 20
2.5
 30
0.0
 11
0.0
 21
5.0
 31
0.0
  0
LINE
  5
30F
330
307
100
AcDbEntity
  8
SLD-0_0
100
AcDbLine
 10
-2.5
 20
0.0
 30
0.0
 11
-5.0
 21
0.0
 31
0.0
  0
LINE
  5
310
330
307
100
AcDbEntity
  8
SLD-0_0
100
AcDbLine
 10
0.0
 20
-2.5
 30
0.0
 11
0.0
 21
-5.0
 31
0.0
  0
LINE
  5
311
330
307
100
AcDbEntity
  8
SLD-0_0
100
AcDbLine
 10
2.5
 20
0.0
 30
0.0
 11
5.0
 21
0.0
 31
0.0
  0
ENDBLK
  5
309
330
307
100
AcDbEntity
  8
0
100
AcDbBlockEnd
  0
ENDSEC
  0
SECTION
  2
ENTITIES
  0
LINE
  5
42
330
1F
100
AcDbEntity
  8
SLD-0
100
AcDbLine
 10
138.8563836284
 20
160.6631073909
 30
0.0
 11
130.1353999938
 21
169.3840910255
 31
0.0
  0
LINE
  5
43
330
1F
100
AcDbEntity
  8
SLD-0
100
AcDbLine
 10
120.5894584478
 20
159.8381494795
 30
0.0
 11
129.3104420824
 21
151.1171658449
 31
0.0
  0
LINE
  5
44
330
1F
100
AcDbEntity
  8
SLD-0
100
AcDbLine
 10
129.1925909522
 20
170.3269000671
 30
0.0
 11
128.2497819107
 21
171.2697091087
 31
0.0
  0
LINE
  5
45
330
1F
100
AcDbEntity
  8
SLD-0
100
AcDbLine
 10
118.7038403647
 20
161.7237675627
 30
0.0
 11
119.6466494063
 21
160.7809585212
 31
0.0
  0
LINE
  5
46
330
1F
100
AcDbEntity
  8
SLD-0
100
AcDbLine
 10
121.0608629686
 20
162.1951720835
 30
0.0
 11
122.0036720102
 21
161.2523630419
 31
0.0
  0
LINE
  5
47
330
1F
100
AcDbEntity
  8
SLD-0
100
AcDbLine
 10
128.7211864315
 20
167.9698774632
 30
0.0
 11
127.77837739
 21
168.9126865047
 31
0.0
  0
LINE
  5
48
330
1F
100
AcDbEntity
  8
SLD-0
100
AcDbLine
 10
101.740267105
 20
119.2332823684
 30
0.0
 11
101.740267105
 21
117.2332823684
 31
0.0
  0
LINE
  5
49
330
1F
100
AcDbEntity
  8
SLD-0
100
AcDbLine
 10
105.740267105
 20
117.2332823684
 30
0.0
 11
105.740267105
 21
119.2332823684
 31
0.0
  0
LINE
  5
4A
330
1F
100
AcDbEntity
  8
SLD-0
100
AcDbLine
 10
105.740267105
 20
173.2332823684
 30
0.0
 11
105.740267105
 21
175.5332823684
 31
0.0
  0
LINE
  5
4B
330
1F
100
AcDbEntity
  8
SLD-0
100
AcDbLine
 10
101.740267105
 20
175.5332823684
 30
0.0
 11
101.740267105
 21
173.2332823684
 31
0.0
  0
LINE
  5
4C
330
1F
100
AcDbEntity
  8
SLD-0
100
AcDbLine
 10
107.740267105
 20
119.2332823684
 30
0.0
 11
99.740267105
 21
119.2332823684
 31
0.0
  0
LINE
  5
4D
330
1F
100
AcDbEntity
  8
SLD-0
100
AcDbLine
 10
99.740267105
 20
119.2332823684
 30
0.0
 11
99.740267105
 21
117.2332823684
 31
0.0
  0
LINE
  5
4E
330
1F
100
AcDbEntity
  8
SLD-0
100
AcDbLine
 10
43.740267105
 20
117.2332823684
 30
0.0
 11
43.740267105
 21
175.2332823684
 31
0.0
  0
LINE
  5
4F
330
1F
100
AcDbEntity
  8
SLD-0
100
AcDbLine
 10
43.740267105
 20
175.2332823684
 30
0.0
 11
99.740267105
 21
175.2332823684
 31
0.0
  0
LINE
  5
50
330
1F
100
AcDbEntity
  8
SLD-0
100
AcDbLine
 10
99.740267105
 20
173.2332823684
 30
0.0
 11
99.740267105
 21
175.2332823684
 31
0.0
  0
LINE
  5
51
330
1F
100
AcDbEntity
  8
SLD-0
100
AcDbLine
 10
107.740267105
 20
173.2332823684
 30
0.0
 11
107.740267105
 21
175.2332823684
 31
0.0
  0
LINE
  5
52
330
1F
100
AcDbEntity
  8
SLD-0
100
AcDbLine
 10
107.740267105
 20
175.2332823684
 30
0.0
 11
163.740267105
 21
175.2332823684
 31
0.0
  0
LINE
  5
53
330
1F
100
AcDbEntity
  8
SLD-0
100
AcDbLine
 10
107.740267105
 20
119.2332823684
 30
0.0
 11
107.740267105
 21
117.2332823684
 31
0.0
  0
LINE
  5
54
330
1F
100
AcDbEntity
  8
SLD-0
100
AcDbLine
 10
99.740267105
 20
173.2332823684
 30
0.0
 11
107.740267105
 21
173.2332823684
 31
0.0
  0
LINE
  5
55
330
1F
100
AcDbEntity
  8
SLD-0
100
AcDbLine
 10
163.740267105
 20
175.2332823684
 30
0.0
 11
163.740267105
 21
117.2332823684
 31
0.0
  0
LINE
  5
56
330
1F
100
AcDbEntity
  8
SLD-0
100
AcDbLine
 10
99.740267105
 20
117.2332823684
 30
0.0
 11
43.740267105
 21
117.2332823684
 31
0.0
  0
LINE
  5
57
330
1F
100
AcDbEntity
  8
SLD-0
100
AcDbLine
 10
163.740267105
 20
117.2332823684
 30
0.0
 11
107.740267105
 21
117.2332823684
 31
0.0
  0
LINE
  5
58
330
1F
100
AcDbEntity
  8
SLD-0
100
AcDbLine
 10
107.740267105
 20
175.2332823684
 30
0.0
 11
105.740267105
 21
175.2332823684
 31
0.0
  0
LINE
  5
59
330
1F
100
AcDbEntity
  8
SLD-0
100
AcDbLine
 10
101.740267105
 20
175.2332823684
 30
0.0
 11
99.740267105
 21
175.2332823684
 31
0.0
  0
LINE
  5
5A
330
1F
100
AcDbEntity
  8
SLD-0
100
AcDbLine
 10
101.490267105
 20
176.5332823684
 30
0.0
 11
105.990267105
 21
176.5332823684
 31
0.0
  0
LINE
  5
5B
330
1F
100
AcDbEntity
  8
SLD-0
100
AcDbLine
 10
105.990267105
 20
176.5332823684
 30
0.0
 11
153.740267105
 21
176.5332823684
 31
0.0
  0
LINE
  5
5C
330
1F
100
AcDbEntity
  8
SLD-0
100
AcDbLine
 10
53.740267105
 20
176.5332823684
 30
0.0
 11
101.490267105
 21
176.5332823684
 31
0.0
  0
LINE
  5
5D
330
1F
100
AcDbEntity
  8
SLD-0
100
AcDbLine
 10
53.740267105
 20
175.5332823684
 30
0.0
 11
153.740267105
 21
175.5332823684
 31
0.0
  0
LINE
  5
5E
330
1F
100
AcDbEntity
  8
SLD-0
100
AcDbLine
 10
43.740267105
 20
175.5332823684
 30
0.0
 11
43.740267105
 21
176.5332823684
 31
0.0
  0
LINE
  5
5F
330
1F
100
AcDbEntity
  8
SLD-0
100
AcDbLine
 10
43.740267105
 20
176.5332823684
 30
0.0
 11
53.740267105
 21
176.5332823684
 31
0.0
  0
LINE
  5
60
330
1F
100
AcDbEntity
  8
SLD-0
100
AcDbLine
 10
53.740267105
 20
175.5332823684
 30
0.0
 11
43.740267105
 21
175.5332823684
 31
0.0
  0
LINE
  5
61
330
1F
100
AcDbEntity
  8
SLD-0
100
AcDbLine
 10
153.740267105
 20
116.2332823684
 30
0.0
 11
105.990267105
 21
116.2332823684
 31
0.0
  0
LINE
  5
62
330
1F
100
AcDbEntity
  8
SLD-0
100
AcDbLine
 10
105.990267105
 20
116.2332823684
 30
0.0
 11
101.490267105
 21
116.2332823684
 31
0.0
  0
LINE
  5
63
330
1F
100
AcDbEntity
  8
SLD-0
100
AcDbLine
 10
101.490267105
 20
116.2332823684
 30
0.0
 11
53.740267105
 21
116.2332823684
 31
0.0
  0
LINE
  5
64
330
1F
100
AcDbEntity
  8
SLD-0
100
AcDbLine
 10
107.740267105
 20
117.2332823684
 30
0.0
 11
99.740267105
 21
117.2332823684
 31
0.0
  0
LINE
  5
65
330
1F
100
AcDbEntity
  8
SLD-0
100
AcDbLine
 10
163.740267105
 20
117.2332823684
 30
0.0
 11
163.740267105
 21
116.2332823684
 31
0.0
  0
LINE
  5
66
330
1F
100
AcDbEntity
  8
SLD-0
100
AcDbLine
 10
163.740267105
 20
116.2332823684
 30
0.0
 11
153.740267105
 21
116.2332823684
 31
0.0
  0
LINE
  5
67
330
1F
100
AcDbEntity
  8
SLD-0
100
AcDbLine
 10
163.740267105
 20
176.5332823684
 30
0.0
 11
163.740267105
 21
175.5332823684
 31
0.0
  0
LINE
  5
68
330
1F
100
AcDbEntity
  8
SLD-0
100
AcDbLine
 10
153.740267105
 20
176.5332823684
 30
0.0
 11
163.740267105
 21
176.5332823684
 31
0.0
  0
LINE
  5
69
330
1F
100
AcDbEntity
  8
SLD-0
100
AcDbLine
 10
163.740267105
 20
175.5332823684
 30
0.0
 11
153.740267105
 21
175.5332823684
 31
0.0
  0
LINE
  5
6A
330
1F
100
AcDbEntity
  8
SLD-0
100
AcDbLine
 10
103.9399632634
 20
115.2332823684
 30
0.0
 11
103.5405709465
 21
115.2332823684
 31
0.0
  0
LINE
  5
6B
330
1F
100
AcDbEntity
  8
SLD-0
100
AcDbLine
 10
103.5405709465
 20
115.2332823684
 30
0.0
 11
101.490267105
 21
116.2332823684
 31
0.0
  0
LINE
  5
6C
330
1F
100
AcDbEntity
  8
SLD-0
100
AcDbLine
 10
103.9399632634
 20
115.2332823684
 30
0.0
 11
105.990267105
 21
116.2332823684
 31
0.0
  0
LINE
  5
6D
330
1F
100
AcDbEntity
  8
SLD-0
100
AcDbLine
 10
103.5405709465
 20
177.5332823684
 30
0.0
 11
103.9399632634
 21
177.5332823684
 31
0.0
  0
LINE
  5
6E
330
1F
100
AcDbEntity
  8
SLD-0
100
AcDbLine
 10
103.9399632634
 20
177.5332823684
 30
0.0
 11
105.990267105
 21
176.5332823684
 31
0.0
  0
LINE
  5
6F
330
1F
100
AcDbEntity
  8
SLD-0
100
AcDbLine
 10
103.5405709465
 20
177.5332823684
 30
0.0
 11
101.490267105
 21
176.5332823684
 31
0.0
  0
LINE
  5
70
330
1F
100
AcDbEntity
  8
SLD-0
100
AcDbLine
 10
43.740267105
 20
116.2332823684
 30
0.0
 11
43.740267105
 21
117.2332823684
 31
0.0
  0
LINE
  5
71
330
1F
100
AcDbEntity
  8
SLD-0
100
AcDbLine
 10
53.740267105
 20
116.2332823684
 30
0.0
 11
43.740267105
 21
116.2332823684
 31
0.0
  0
LINE
  5
72
330
1F
100
AcDbEntity
  8
SLD-0
100
AcDbLine
 10
43.740267105
 20
175.5332823684
 30
0.0
 11
43.740267105
 21
175.2332823684
 31
0.0
  0
LINE
  5
73
330
1F
100
AcDbEntity
  8
SLD-0
100
AcDbLine
 10
163.740267105
 20
175.2332823684
 30
0.0
 11
163.740267105
 21
175.5332823684
 31
0.0
  0
LINE
  5
74
330
1F
100
AcDbEntity
  8
SLD-0
100
AcDbLine
 10
79.2043687201
 20
158.7332823684
 30
0.0
 11
75.740267105
 21
158.7332823684
 31
0.0
  0
LINE
  5
75
330
1F
100
AcDbEntity
  8
SLD-0
100
AcDbLine
 10
80.9364195277
 20
155.7332823684
 30
0.0
 11
79.2043687201
 21
158.7332823684
 31
0.0
  0
LINE
  5
76
330
1F
100
AcDbEntity
  8
SLD-0
100
AcDbLine
 10
72.2761654898
 20
158.7332823684
 30
0.0
 11
70.5441146823
 21
155.7332823684
 31
0.0
  0
LINE
  5
77
330
1F
100
AcDbEntity
  8
SLD-0
100
AcDbLine
 10
75.740267105
 20
158.7332823684
 30
0.0
 11
72.2761654898
 21
158.7332823684
 31
0.0
  0
LINE
  5
78
330
1F
100
AcDbEntity
  8
SLD-0
100
AcDbLine
 10
82.6684703352
 20
152.7332823684
 30
0.0
 11
80.9364195277
 21
155.7332823684
 31
0.0
  0
LINE
  5
79
330
1F
100
AcDbEntity
  8
SLD-0
100
AcDbLine
 10
80.9364195277
 20
149.7332823684
 30
0.0
 11
82.6684703352
 21
152.7332823684
 31
0.0
  0
LINE
  5
7A
330
1F
100
AcDbEntity
  8
SLD-0
100
AcDbLine
 10
68.8120638747
 20
152.7332823684
 30
0.0
 11
70.5441146823
 21
149.7332823684
 31
0.0
  0
LINE
  5
7B
330
1F
100
AcDbEntity
  8
SLD-0
100
AcDbLine
 10
70.5441146823
 20
155.7332823684
 30
0.0
 11
68.8120638747
 21
152.7332823684
 31
0.0
  0
LINE
  5
7C
330
1F
100
AcDbEntity
  8
SLD-0
100
AcDbLine
 10
72.2761654898
 20
146.7332823684
 30
0.0
 11
75.740267105
 21
146.7332823684
 31
0.0
  0
LINE
  5
7D
330
1F
100
AcDbEntity
  8
SLD-0
100
AcDbLine
 10
70.5441146823
 20
149.7332823684
 30
0.0
 11
72.2761654898
 21
146.7332823684
 31
0.0
  0
LINE
  5
7E
330
1F
100
AcDbEntity
  8
SLD-0
100
AcDbLine
 10
75.740267105
 20
146.7332823684
 30
0.0
 11
79.2043687201
 21
146.7332823684
 31
0.0
  0
LINE
  5
7F
330
1F
100
AcDbEntity
  8
SLD-0
100
AcDbLine
 10
79.2043687201
 20
146.7332823684
 30
0.0
 11
80.9364195277
 21
149.7332823684
 31
0.0
  0
LINE
  5
80
330
1F
100
AcDbEntity
  8
SLD-0
100
AcDbLine
 10
150.4428324045
 20
149.6221391689
 30
0.0
 11
140.3514103045
 21
139.5307170689
 31
0.0
  0
LINE
  5
81
330
1F
100
AcDbEntity
  8
SLD-0
100
AcDbLine
 10
140.3514103045
 20
160.9358476679
 30
0.0
 11
150.4428324045
 21
150.8444255679
 31
0.0
  0
LINE
  5
82
330
1F
100
AcDbEntity
  8
SLD-0
100
AcDbLine
 10
129.0377018055
 20
150.8444255679
 30
0.0
 11
139.1291239055
 21
160.9358476679
 31
0.0
  0
LINE
  5
83
330
1F
100
AcDbEntity
  8
SLD-0
100
AcDbLine
 10
139.1291239055
 20
139.5307170689
 30
0.0
 11
129.0377018055
 21
149.6221391689
 31
0.0
  0
LINE
  5
84
330
1F
100
AcDbEntity
  8
SLD-0
100
AcDbLine
 10
120.5894584478
 20
159.8381494795
 30
0.0
 11
130.1353999938
 21
169.3840910255
 31
0.0
  0
LINE
  5
85
330
1F
100
AcDbEntity
  8
SLD-0
100
AcDbLine
 10
119.6466494063
 20
160.7809585212
 30
0.0
 11
129.1925909522
 21
170.3269000671
 31
0.0
  0
LINE
  5
86
330
1F
100
AcDbEntity
  8
SLD-0
100
AcDbLine
 10
118.7038403647
 20
161.7237675627
 30
0.0
 11
128.2497819107
 21
171.2697091087
 31
0.0
  0
LINE
  5
87
330
1F
100
AcDbEntity
  8
SLD-0
100
AcDbLine
 10
138.296891432
 20
127.7332823684
 30
0.0
 11
141.1836427779
 21
127.7332823684
 31
0.0
  0
LINE
  5
88
330
1F
100
AcDbEntity
  8
SLD-0
100
AcDbLine
 10
141.1836427779
 20
127.7332823684
 30
0.0
 11
142.6270184509
 21
130.2332823684
 31
0.0
  0
LINE
  5
89
330
1F
100
AcDbEntity
  8
SLD-0
100
AcDbLine
 10
142.6270184509
 20
130.2332823684
 30
0.0
 11
141.1836427779
 21
132.7332823684
 31
0.0
  0
LINE
  5
8A
330
1F
100
AcDbEntity
  8
SLD-0
100
AcDbLine
 10
138.296891432
 20
132.7332823684
 30
0.0
 11
136.853515759
 21
130.2332823684
 31
0.0
  0
LINE
  5
8B
330
1F
100
AcDbEntity
  8
SLD-0
100
AcDbLine
 10
141.1836427779
 20
132.7332823684
 30
0.0
 11
138.296891432
 21
132.7332823684
 31
0.0
  0
LINE
  5
8C
330
1F
100
AcDbEntity
  8
SLD-0
100
AcDbLine
 10
136.853515759
 20
130.2332823684
 30
0.0
 11
138.296891432
 21
127.7332823684
 31
0.0
  0
LINE
  5
8D
330
1F
100
AcDbEntity
  8
SLD-0
100
AcDbLine
 10
62.853515759
 20
130.2332823684
 30
0.0
 11
64.296891432
 21
127.7332823684
 31
0.0
  0
LINE
  5
8E
330
1F
100
AcDbEntity
  8
SLD-0
100
AcDbLine
 10
67.1836427779
 20
127.7332823684
 30
0.0
 11
68.6270184509
 21
130.2332823684
 31
0.0
  0
LINE
  5
8F
330
1F
100
AcDbEntity
  8
SLD-0
100
AcDbLine
 10
68.6270184509
 20
130.2332823684
 30
0.0
 11
67.1836427779
 21
132.7332823684
 31
0.0
  0
LINE
  5
90
330
1F
100
AcDbEntity
  8
SLD-0
100
AcDbLine
 10
64.296891432
 20
132.7332823684
 30
0.0
 11
62.853515759
 21
130.2332823684
 31
0.0
  0
LINE
  5
91
330
1F
100
AcDbEntity
  8
SLD-0
100
AcDbLine
 10
67.1836427779
 20
132.7332823684
 30
0.0
 11
64.296891432
 21
132.7332823684
 31
0.0
  0
LINE
  5
92
330
1F
100
AcDbEntity
  8
SLD-0
100
AcDbLine
 10
64.296891432
 20
127.7332823684
 30
0.0
 11
67.1836427779
 21
127.7332823684
 31
0.0
  0
LINE
  5
93
330
1F
100
AcDbEntity
  8
SLD-0
100
AcDbLine
 10
53.853515759
 20
150.2332823684
 30
0.0
 11
55.296891432
 21
147.7332823684
 31
0.0
  0
LINE
  5
94
330
1F
100
AcDbEntity
  8
SLD-0
100
AcDbLine
 10
58.1836427779
 20
147.7332823684
 30
0.0
 11
59.6270184509
 21
150.2332823684
 31
0.0
  0
LINE
  5
95
330
1F
100
AcDbEntity
  8
SLD-0
100
AcDbLine
 10
59.6270184509
 20
150.2332823684
 30
0.0
 11
58.1836427779
 21
152.7332823684
 31
0.0
  0
LINE
  5
96
330
1F
100
AcDbEntity
  8
SLD-0
100
AcDbLine
 10
58.1836427779
 20
152.7332823684
 30
0.0
 11
55.296891432
 21
152.7332823684
 31
0.0
  0
LINE
  5
97
330
1F
100
AcDbEntity
  8
SLD-0
100
AcDbLine
 10
55.296891432
 20
152.7332823684
 30
0.0
 11
53.853515759
 21
150.2332823684
 31
0.0
  0
LINE
  5
98
330
1F
100
AcDbEntity
  8
SLD-0
100
AcDbLine
 10
55.296891432
 20
147.7332823684
 30
0.0
 11
58.1836427779
 21
147.7332823684
 31
0.0
  0
LINE
  5
99
330
1F
100
AcDbEntity
  8
7
 62
     7
100
AcDbLine
 10
103.740267105
 20
178.3832823684
 30
0.0
 11
103.740267105
 21
114.3832823684
 31
0.0
  0
LINE
  5
9A
330
1F
100
AcDbEntity
  8
SLD-0
100
AcDbLine
 10
80.3776197308
 20
259.6384100962
 30
0.0
 11
79.240267105
 21
272.6384100962
 31
0.0
  0
LINE
  5
9B
330
1F
100
AcDbEntity
  8
SLD-0
100
AcDbLine
 10
72.240267105
 20
272.6384100962
 30
0.0
 11
71.1029144791
 21
259.6384100962
 31
0.0
  0
LINE
  5
9C
330
1F
100
AcDbEntity
  8
SLD-0
100
AcDbLine
 10
81.740267105
 20
254.6384100962
 30
0.0
 11
82.6684703352
 21
254.8871214022
 31
0.0
  0
LINE
  5
9D
330
1F
100
AcDbEntity
  8
SLD-0
100
AcDbLine
 10
69.740267105
 20
259.6384100962
 30
0.0
 11
68.8120638747
 21
259.3896987902
 31
0.0
  0
LINE
  5
9E
330
1F
100
AcDbEntity
  8
SLD-0
100
AcDbLine
 10
82.6684703352
 20
259.3896987902
 30
0.0
 11
81.740267105
 21
259.6384100962
 31
0.0
  0
LINE
  5
9F
330
1F
100
AcDbEntity
  8
SLD-0
100
AcDbLine
 10
146.490267105
 20
259.1384100962
 30
0.0
 11
146.490267105
 21
259.8103911241
 31
0.0
  0
LINE
  5
A0
330
1F
100
AcDbEntity
  8
SLD-0
100
AcDbLine
 10
132.990267105
 20
259.8103911241
 30
0.0
 11
132.990267105
 21
259.1384100962
 31
0.0
  0
LINE
  5
A1
330
1F
100
AcDbEntity
  8
SLD-0
100
AcDbLine
 10
146.740267105
 20
254.6384100962
 30
0.0
 11
146.9884701481
 21
254.7049159012
 31
0.0
  0
LINE
  5
A2
330
1F
100
AcDbEntity
  8
SLD-0
100
AcDbLine
 10
146.9885491156
 20
259.071883132
 30
0.0
 11
146.740267105
 21
259.1384100962
 31
0.0
  0
LINE
  5
A3
330
1F
100
AcDbEntity
  8
SLD-0
100
AcDbLine
 10
132.4920640618
 20
254.7049159012
 30
0.0
 11
132.740267105
 21
254.6384100962
 31
0.0
  0
LINE
  5
A4
330
1F
100
AcDbEntity
  8
SLD-0
100
AcDbLine
 10
132.740267105
 20
259.1384100962
 30
0.0
 11
132.4919850943
 21
259.071883132
 31
0.0
  0
LINE
  5
A5
330
1F
100
AcDbEntity
  8
SLD-0
100
AcDbLine
 10
131.4122481328
 20
274.8884100962
 30
0.0
 11
125.3624292208
 21
274.8884100962
 31
0.0
  0
LINE
  5
A6
330
1F
100
AcDbEntity
  8
SLD-0
100
AcDbLine
 10
125.3624292208
 20
261.3884100962
 30
0.0
 11
131.4122481328
 21
261.3884100962
 31
0.0
  0
LINE
  5
A7
330
1F
100
AcDbEntity
  8
SLD-0
100
AcDbLine
 10
124.4196201792
 20
274.8884100962
 30
0.0
 11
123.4768111377
 21
274.8884100962
 31
0.0
  0
LINE
  5
A8
330
1F
100
AcDbEntity
  8
SLD-0
100
AcDbLine
 10
123.4768111377
 20
261.3884100962
 30
0.0
 11
124.4196201792
 21
261.3884100962
 31
0.0
  0
LINE
  5
A9
330
1F
100
AcDbEntity
  8
SLD-0
100
AcDbLine
 10
132.740267105
 20
257.6384100962
 30
0.0
 11
132.740267105
 21
254.6384100962
 31
0.0
  0
LINE
  5
AA
330
1F
100
AcDbEntity
  8
SLD-0
100
AcDbLine
 10
146.740267105
 20
254.6384100962
 30
0.0
 11
146.740267105
 21
257.6384100962
 31
0.0
  0
LINE
  5
AB
330
1F
100
AcDbEntity
  8
SLD-0
100
AcDbLine
 10
58.740267105
 20
257.6384100962
 30
0.0
 11
58.740267105
 21
254.6384100962
 31
0.0
  0
LINE
  5
AC
330
1F
100
AcDbEntity
  8
SLD-0
100
AcDbLine
 10
72.740267105
 20
254.6384100962
 30
0.0
 11
72.740267105
 21
257.6384100962
 31
0.0
  0
LINE
  5
AD
330
1F
100
AcDbEntity
  8
SLD-0
100
AcDbLine
 10
49.740267105
 20
257.6384100962
 30
0.0
 11
49.740267105
 21
254.6384100962
 31
0.0
  0
LINE
  5
AE
330
1F
100
AcDbEntity
  8
SLD-0
100
AcDbLine
 10
99.740267105
 20
254.6384100962
 30
0.0
 11
43.740267105
 21
254.6384100962
 31
0.0
  0
LINE
  5
AF
330
1F
100
AcDbEntity
  8
SLD-0
100
AcDbLine
 10
99.740267105
 20
254.6384100962
 30
0.0
 11
99.740267105
 21
248.6384100962
 31
0.0
  0
LINE
  5
B0
330
1F
100
AcDbEntity
  8
SLD-0
100
AcDbLine
 10
107.740267105
 20
248.6384100962
 30
0.0
 11
107.740267105
 21
254.6384100962
 31
0.0
  0
LINE
  5
B1
330
1F
100
AcDbEntity
  8
SLD-0
100
AcDbLine
 10
163.7402671051
 20
254.6384100962
 30
0.0
 11
107.740267105
 21
254.6384100962
 31
0.0
  0
LINE
  5
B2
330
1F
100
AcDbEntity
  8
SLD-0
100
AcDbLine
 10
163.7402671051
 20
238.6384100962
 30
0.0
 11
163.7402671051
 21
254.6384100962
 31
0.0
  0
LINE
  5
B3
330
1F
100
AcDbEntity
  8
SLD-0
100
AcDbLine
 10
43.740267105
 20
238.6384100962
 30
0.0
 11
43.740267105
 21
254.6384100962
 31
0.0
  0
LINE
  5
B4
330
1F
100
AcDbEntity
  8
SLD-0
100
AcDbLine
 10
107.740267105
 20
254.6384100962
 30
0.0
 11
99.740267105
 21
254.6384100962
 31
0.0
  0
LINE
  5
B5
330
1F
100
AcDbEntity
  8
SLD-0
100
AcDbLine
 10
103.5405709466
 20
246.5881062546
 30
0.0
 11
101.490267105
 21
248.6384100962
 31
0.0
  0
LINE
  5
B6
330
1F
100
AcDbEntity
  8
SLD-0
100
AcDbLine
 10
103.5405709466
 20
246.5881062546
 30
0.0
 11
103.5405709466
 21
245.9340747217
 31
0.0
  0
LINE
  5
B7
330
1F
100
AcDbEntity
  8
SLD-0
100
AcDbLine
 10
101.490267105
 20
248.6384100962
 30
0.0
 11
101.490267105
 21
241.6384100962
 31
0.0
  0
LINE
  5
B8
330
1F
100
AcDbEntity
  8
SLD-0
100
AcDbLine
 10
103.9399632635
 20
245.9340747217
 30
0.0
 11
103.9399632635
 21
246.5881062546
 31
0.0
  0
LINE
  5
B9
330
1F
100
AcDbEntity
  8
SLD-0
100
AcDbLine
 10
103.9399632635
 20
246.5881062546
 30
0.0
 11
105.9902671051
 21
248.6384100962
 31
0.0
  0
LINE
  5
BA
330
1F
100
AcDbEntity
  8
SLD-0
100
AcDbLine
 10
105.9902671051
 20
241.6384100962
 30
0.0
 11
105.9902671051
 21
248.6384100962
 31
0.0
  0
LINE
  5
BB
330
1F
100
AcDbEntity
  8
SLD-0
100
AcDbLine
 10
103.9399632635
 20
246.5881062546
 30
0.0
 11
103.5405709466
 21
246.5881062546
 31
0.0
  0
LINE
  5
BC
330
1F
100
AcDbEntity
  8
SLD-0
100
AcDbLine
 10
105.9902671051
 20
248.6384100962
 30
0.0
 11
101.490267105
 21
248.6384100962
 31
0.0
  0
LINE
  5
BD
330
1F
100
AcDbEntity
  8
SLD-0
100
AcDbLine
 10
153.7402671051
 20
248.6384100962
 30
0.0
 11
105.9902671051
 21
248.6384100962
 31
0.0
  0
LINE
  5
BE
330
1F
100
AcDbEntity
  8
SLD-0
100
AcDbLine
 10
163.7402671051
 20
224.3750100962
 30
0.0
 11
163.7402671051
 21
238.6384100962
 31
0.0
  0
LINE
  5
BF
330
1F
100
AcDbEntity
  8
SLD-0
100
AcDbLine
 10
43.740267105
 20
238.6384100962
 30
0.0
 11
43.740267105
 21
224.3750100962
 31
0.0
  0
LINE
  5
C0
330
1F
100
AcDbEntity
  8
SLD-0
100
AcDbLine
 10
101.490267105
 20
248.6384100962
 30
0.0
 11
53.740267105
 21
248.6384100962
 31
0.0
  0
LINE
  5
C1
330
1F
100
AcDbEntity
  8
SLD-0
100
AcDbLine
 10
43.740267105
 20
222.6384100962
 30
0.0
 11
43.740267105
 21
224.3750100962
 31
0.0
  0
LINE
  5
C2
330
1F
100
AcDbEntity
  8
SLD-0
100
AcDbLine
 10
163.7402671051
 20
224.3750100962
 30
0.0
 11
163.7402671051
 21
222.6384100962
 31
0.0
  0
LINE
  5
C3
330
1F
100
AcDbEntity
  8
SLD-0
100
AcDbLine
 10
75.740267105
 20
259.6384100962
 30
0.0
 11
79.2043687201
 21
259.3896987902
 31
0.0
  0
LINE
  5
C4
330
1F
100
AcDbEntity
  8
SLD-0
100
AcDbLine
 10
79.2043687201
 20
259.3896987902
 30
0.0
 11
79.2043687201
 21
254.8871214022
 31
0.0
  0
LINE
  5
C5
330
1F
100
AcDbEntity
  8
SLD-0
100
AcDbLine
 10
79.2043687201
 20
254.8871214022
 30
0.0
 11
75.740267105
 21
254.6384100962
 31
0.0
  0
LINE
  5
C6
330
1F
100
AcDbEntity
  8
SLD-0
100
AcDbLine
 10
75.740267105
 20
254.6384100962
 30
0.0
 11
74.0082162974
 21
254.704057112
 31
0.0
  0
LINE
  5
C7
330
1F
100
AcDbEntity
  8
SLD-0
100
AcDbLine
 10
74.0082162974
 20
254.704057112
 30
0.0
 11
72.740267105
 21
254.8380694735
 31
0.0
  0
LINE
  5
C8
330
1F
100
AcDbEntity
  8
SLD-0
100
AcDbLine
 10
72.2761654898
 20
259.3896987902
 30
0.0
 11
72.2761654898
 21
257.6384100962
 31
0.0
  0
LINE
  5
C9
330
1F
100
AcDbEntity
  8
SLD-0
100
AcDbLine
 10
72.2761654898
 20
259.3896987902
 30
0.0
 11
74.0004285306
 21
259.5721831262
 31
0.0
  0
LINE
  5
CA
330
1F
100
AcDbEntity
  8
SLD-0
100
AcDbLine
 10
74.0004285306
 20
259.5721831262
 30
0.0
 11
75.740267105
 21
259.6384100962
 31
0.0
  0
LINE
  5
CB
330
1F
100
AcDbEntity
  8
SLD-0
100
AcDbLine
 10
80.9364195277
 20
254.6384100962
 30
0.0
 11
79.2043687201
 21
254.8871214022
 31
0.0
  0
LINE
  5
CC
330
1F
100
AcDbEntity
  8
SLD-0
100
AcDbLine
 10
70.5441146822
 20
259.6384100962
 30
0.0
 11
71.410140086
 21
259.5727630804
 31
0.0
  0
LINE
  5
CD
330
1F
100
AcDbEntity
  8
SLD-0
100
AcDbLine
 10
71.410140086
 20
259.5727630804
 30
0.0
 11
72.2761654898
 21
259.3896987902
 31
0.0
  0
LINE
  5
CE
330
1F
100
AcDbEntity
  8
SLD-0
100
AcDbLine
 10
70.5441146822
 20
259.6384100962
 30
0.0
 11
75.740267105
 21
259.6384100962
 31
0.0
  0
LINE
  5
CF
330
1F
100
AcDbEntity
  8
SLD-0
100
AcDbLine
 10
79.2043687201
 20
259.3896987902
 30
0.0
 11
80.9364195277
 21
259.6384100962
 31
0.0
  0
LINE
  5
D0
330
1F
100
AcDbEntity
  8
SLD-0
100
AcDbLine
 10
75.740267105
 20
259.6384100962
 30
0.0
 11
80.9364195277
 21
259.6384100962
 31
0.0
  0
LINE
  5
D1
330
1F
100
AcDbEntity
  8
SLD-0
100
AcDbLine
 10
72.240267105
 20
272.6384100962
 30
0.0
 11
79.240267105
 21
272.6384100962
 31
0.0
  0
LINE
  5
D2
330
1F
100
AcDbEntity
  8
SLD-0
100
AcDbLine
 10
68.8120638747
 20
259.3896987902
 30
0.0
 11
68.8120638747
 21
257.6384100962
 31
0.0
  0
LINE
  5
D3
330
1F
100
AcDbEntity
  8
SLD-0
100
AcDbLine
 10
68.8120638747
 20
259.3896987902
 30
0.0
 11
70.5441146822
 21
259.6384100962
 31
0.0
  0
LINE
  5
D4
330
1F
100
AcDbEntity
  8
SLD-0
100
AcDbLine
 10
80.9364195277
 20
259.6384100962
 30
0.0
 11
82.2936540157
 21
259.4815353737
 31
0.0
  0
LINE
  5
D5
330
1F
100
AcDbEntity
  8
SLD-0
100
AcDbLine
 10
82.2936540157
 20
259.4815353737
 30
0.0
 11
82.6684703352
 21
259.3896987902
 31
0.0
  0
LINE
  5
D6
330
1F
100
AcDbEntity
  8
SLD-0
100
AcDbLine
 10
82.6684703352
 20
259.3896987902
 30
0.0
 11
82.6684703352
 21
254.8871214022
 31
0.0
  0
LINE
  5
D7
330
1F
100
AcDbEntity
  8
SLD-0
100
AcDbLine
 10
82.6684703352
 20
254.8871214022
 30
0.0
 11
82.2936540157
 21
254.7952848187
 31
0.0
  0
LINE
  5
D8
330
1F
100
AcDbEntity
  8
SLD-0
100
AcDbLine
 10
82.2936540157
 20
254.7952848187
 30
0.0
 11
80.9364195277
 21
254.6384100962
 31
0.0
  0
LINE
  5
D9
330
1F
100
AcDbEntity
  8
SLD-0
100
AcDbLine
 10
69.740267105
 20
259.6384100962
 30
0.0
 11
70.5441146822
 21
259.6384100962
 31
0.0
  0
LINE
  5
DA
330
1F
100
AcDbEntity
  8
SLD-0
100
AcDbLine
 10
80.9364195277
 20
259.6384100962
 30
0.0
 11
81.740267105
 21
259.6384100962
 31
0.0
  0
LINE
  5
DB
330
1F
100
AcDbEntity
  8
SLD-0
100
AcDbLine
 10
163.7402671051
 20
212.6384100962
 30
0.0
 11
163.7402671051
 21
222.6384100962
 31
0.0
  0
LINE
  5
DC
330
1F
100
AcDbEntity
  8
SLD-0
100
AcDbLine
 10
163.7402671051
 20
222.6384100962
 30
0.0
 11
43.740267105
 21
222.6384100962
 31
0.0
  0
LINE
  5
DD
330
1F
100
AcDbEntity
  8
SLD-0
100
AcDbLine
 10
43.740267105
 20
212.6384100962
 30
0.0
 11
43.740267105
 21
222.6384100962
 31
0.0
  0
LINE
  5
DE
330
1F
100
AcDbEntity
  8
SLD-0
100
AcDbLine
 10
163.7402671051
 20
212.6384100962
 30
0.0
 11
43.740267105
 21
212.6384100962
 31
0.0
  0
LINE
  5
DF
330
1F
100
AcDbEntity
  8
SLD-0
100
AcDbLine
 10
146.490267105
 20
259.8103911241
 30
0.0
 11
132.990267105
 21
259.8103911241
 31
0.0
  0
LINE
  5
E0
330
1F
100
AcDbEntity
  8
SLD-0
100
AcDbLine
 10
144.7859781549
 20
276.1384100962
 30
0.0
 11
132.6045541063
 21
276.1384100962
 31
0.0
  0
LINE
  5
E1
330
1F
100
AcDbEntity
  8
SLD-0
100
AcDbLine
 10
146.8759801037
 20
276.1384100962
 30
0.0
 11
144.7859781549
 21
276.1384100962
 31
0.0
  0
LINE
  5
E2
330
1F
100
AcDbEntity
  8
SLD-0
100
AcDbLine
 10
140.3514103045
 20
268.1384100962
 30
0.0
 11
140.4051805899
 21
267.099441951
 31
0.0
  0
LINE
  5
E3
330
1F
100
AcDbEntity
  8
SLD-0
100
AcDbLine
 10
140.4051805899
 20
267.099441951
 30
0.0
 11
140.565345426
 21
266.0826176079
 31
0.0
  0
LINE
  5
E4
330
1F
100
AcDbEntity
  8
SLD-0
100
AcDbLine
 10
140.565345426
 20
266.0826176079
 30
0.0
 11
140.8284911773
 21
265.1096089126
 31
0.0
  0
LINE
  5
E5
330
1F
100
AcDbEntity
  8
SLD-0
100
AcDbLine
 10
140.8284911773
 20
265.1096089126
 30
0.0
 11
141.189009349
 21
264.2011538561
 31
0.0
  0
LINE
  5
E6
330
1F
100
AcDbEntity
  8
SLD-0
100
AcDbLine
 10
141.189009349
 20
264.2011538561
 30
0.0
 11
141.6392161222
 21
263.3766145807
 31
0.0
  0
LINE
  5
E7
330
1F
100
AcDbEntity
  8
SLD-0
100
AcDbLine
 10
141.6392161222
 20
263.3766145807
 30
0.0
 11
142.1695161212
 21
262.6535647095
 31
0.0
  0
LINE
  5
E8
330
1F
100
AcDbEntity
  8
SLD-0
100
AcDbLine
 10
142.1695161212
 20
262.6535647095
 30
0.0
 11
142.7686069221
 21
262.0474147951
 31
0.0
  0
LINE
  5
E9
330
1F
100
AcDbEntity
  8
SLD-0
100
AcDbLine
 10
142.7686069221
 20
262.0474147951
 30
0.0
 11
143.4237199446
 21
261.5710838708
 31
0.0
  0
LINE
  5
EA
330
1F
100
AcDbEntity
  8
SLD-0
100
AcDbLine
 10
143.4237199446
 20
261.5710838708
 30
0.0
 11
144.120892592
 21
261.2347241031
 31
0.0
  0
LINE
  5
EB
330
1F
100
AcDbEntity
  8
SLD-0
100
AcDbLine
 10
144.120892592
 20
261.2347241031
 30
0.0
 11
144.8452658398
 21
261.0455044164
 31
0.0
  0
LINE
  5
EC
330
1F
100
AcDbEntity
  8
SLD-0
100
AcDbLine
 10
144.8452658398
 20
261.0455044164
 30
0.0
 11
145.5814009298
 21
261.0074577
 31
0.0
  0
LINE
  5
ED
330
1F
100
AcDbEntity
  8
SLD-0
100
AcDbLine
 10
145.5814009298
 20
261.0074577
 30
0.0
 11
146.3136084205
 21
261.1213948536
 31
0.0
  0
LINE
  5
EE
330
1F
100
AcDbEntity
  8
SLD-0
100
AcDbLine
 10
146.3136084205
 20
261.1213948536
 30
0.0
 11
147.0262825806
 21
261.3848875044
 31
0.0
  0
LINE
  5
EF
330
1F
100
AcDbEntity
  8
SLD-0
100
AcDbLine
 10
147.0262825806
 20
261.3848875044
 30
0.0
 11
147.7042339977
 21
261.7923197641
 31
0.0
  0
LINE
  5
F0
330
1F
100
AcDbEntity
  8
SLD-0
100
AcDbLine
 10
147.7042339977
 20
261.7923197641
 30
0.0
 11
148.3330133142
 21
262.3350079215
 31
0.0
  0
LINE
  5
F1
330
1F
100
AcDbEntity
  8
SLD-0
100
AcDbLine
 10
148.3330133142
 20
262.3350079215
 30
0.0
 11
148.8992191908
 21
263.0013855207
 31
0.0
  0
LINE
  5
F2
330
1F
100
AcDbEntity
  8
SLD-0
100
AcDbLine
 10
148.8992191908
 20
263.0013855207
 30
0.0
 11
149.3907839321
 21
263.77724988
 31
0.0
  0
LINE
  5
F3
330
1F
100
AcDbEntity
  8
SLD-0
100
AcDbLine
 10
149.3907839321
 20
263.77724988
 30
0.0
 11
149.7972306893
 21
264.6460647978
 31
0.0
  0
LINE
  5
F4
330
1F
100
AcDbEntity
  8
SLD-0
100
AcDbLine
 10
149.7972306893
 20
264.6460647978
 30
0.0
 11
150.1098967551
 21
265.5893129923
 31
0.0
  0
LINE
  5
F5
330
1F
100
AcDbEntity
  8
SLD-0
100
AcDbLine
 10
150.1098967551
 20
265.5893129923
 30
0.0
 11
150.3221181955
 21
266.586890766
 31
0.0
  0
LINE
  5
F6
330
1F
100
AcDbEntity
  8
SLD-0
100
AcDbLine
 10
150.3221181955
 20
266.586890766
 30
0.0
 11
150.4293718786
 21
267.6175364805
 31
0.0
  0
LINE
  5
F7
330
1F
100
AcDbEntity
  8
SLD-0
100
AcDbLine
 10
150.4293718786
 20
267.6175364805
 30
0.0
 11
150.4293718786
 21
268.6592837119
 31
0.0
  0
LINE
  5
F8
330
1F
100
AcDbEntity
  8
SLD-0
100
AcDbLine
 10
150.4293718786
 20
268.6592837119
 30
0.0
 11
150.3221181955
 21
269.6899294264
 31
0.0
  0
LINE
  5
F9
330
1F
100
AcDbEntity
  8
SLD-0
100
AcDbLine
 10
150.3221181955
 20
269.6899294264
 30
0.0
 11
150.1098967551
 21
270.6875072001
 31
0.0
  0
LINE
  5
FA
330
1F
100
AcDbEntity
  8
SLD-0
100
AcDbLine
 10
150.1098967551
 20
270.6875072001
 30
0.0
 11
149.7972306893
 21
271.6307553946
 31
0.0
  0
LINE
  5
FB
330
1F
100
AcDbEntity
  8
SLD-0
100
AcDbLine
 10
149.7972306893
 20
271.6307553946
 30
0.0
 11
149.3907839321
 21
272.4995703124
 31
0.0
  0
LINE
  5
FC
330
1F
100
AcDbEntity
  8
SLD-0
100
AcDbLine
 10
149.3907839321
 20
272.4995703124
 30
0.0
 11
148.8992191908
 21
273.2754346717
 31
0.0
  0
LINE
  5
FD
330
1F
100
AcDbEntity
  8
SLD-0
100
AcDbLine
 10
148.8992191908
 20
273.2754346717
 30
0.0
 11
148.3330133142
 21
273.9418122709
 31
0.0
  0
LINE
  5
FE
330
1F
100
AcDbEntity
  8
SLD-0
100
AcDbLine
 10
148.3330133142
 20
273.9418122709
 30
0.0
 11
147.7042339977
 21
274.4845004283
 31
0.0
  0
LINE
  5
FF
330
1F
100
AcDbEntity
  8
SLD-0
100
AcDbLine
 10
147.7042339977
 20
274.4845004283
 30
0.0
 11
147.0262825806
 21
274.891932688
 31
0.0
  0
LINE
  5
100
330
1F
100
AcDbEntity
  8
SLD-0
100
AcDbLine
 10
147.0262825806
 20
274.891932688
 30
0.0
 11
146.3136084205
 21
275.1554253388
 31
0.0
  0
LINE
  5
101
330
1F
100
AcDbEntity
  8
SLD-0
100
AcDbLine
 10
146.3136084205
 20
275.1554253388
 30
0.0
 11
145.5814009298
 21
275.2693624924
 31
0.0
  0
LINE
  5
102
330
1F
100
AcDbEntity
  8
SLD-0
100
AcDbLine
 10
145.5814009298
 20
275.2693624924
 30
0.0
 11
144.8452658398
 21
275.231315776
 31
0.0
  0
LINE
  5
103
330
1F
100
AcDbEntity
  8
SLD-0
100
AcDbLine
 10
144.8452658398
 20
275.231315776
 30
0.0
 11
144.120892592
 21
275.0420960893
 31
0.0
  0
LINE
  5
104
330
1F
100
AcDbEntity
  8
SLD-0
100
AcDbLine
 10
144.120892592
 20
275.0420960893
 30
0.0
 11
143.4237199446
 21
274.7057363216
 31
0.0
  0
LINE
  5
105
330
1F
100
AcDbEntity
  8
SLD-0
100
AcDbLine
 10
143.4237199446
 20
274.7057363216
 30
0.0
 11
142.7686069221
 21
274.2294053973
 31
0.0
  0
LINE
  5
106
330
1F
100
AcDbEntity
  8
SLD-0
100
AcDbLine
 10
142.7686069221
 20
274.2294053973
 30
0.0
 11
142.1695161212
 21
273.6232554829
 31
0.0
  0
LINE
  5
107
330
1F
100
AcDbEntity
  8
SLD-0
100
AcDbLine
 10
142.1695161212
 20
273.6232554829
 30
0.0
 11
141.6392161222
 21
272.9002056117
 31
0.0
  0
LINE
  5
108
330
1F
100
AcDbEntity
  8
SLD-0
100
AcDbLine
 10
141.6392161222
 20
272.9002056117
 30
0.0
 11
141.189009349
 21
272.0756663363
 31
0.0
  0
LINE
  5
109
330
1F
100
AcDbEntity
  8
SLD-0
100
AcDbLine
 10
141.189009349
 20
272.0756663363
 30
0.0
 11
140.8284911773
 21
271.1672112798
 31
0.0
  0
LINE
  5
10A
330
1F
100
AcDbEntity
  8
SLD-0
100
AcDbLine
 10
140.8284911773
 20
271.1672112798
 30
0.0
 11
140.565345426
 21
270.1942025845
 31
0.0
  0
LINE
  5
10B
330
1F
100
AcDbEntity
  8
SLD-0
100
AcDbLine
 10
140.565345426
 20
270.1942025845
 30
0.0
 11
140.4051805899
 21
269.1773782414
 31
0.0
  0
LINE
  5
10C
330
1F
100
AcDbEntity
  8
SLD-0
100
AcDbLine
 10
140.4051805899
 20
269.1773782414
 30
0.0
 11
140.3514103045
 21
268.1384100962
 31
0.0
  0
LINE
  5
10D
330
1F
100
AcDbEntity
  8
SLD-0
100
AcDbLine
 10
129.0377018055
 20
268.1384100962
 30
0.0
 11
129.0914720909
 21
267.099441951
 31
0.0
  0
LINE
  5
10E
330
1F
100
AcDbEntity
  8
SLD-0
100
AcDbLine
 10
129.0914720909
 20
267.099441951
 30
0.0
 11
129.251636927
 21
266.0826176079
 31
0.0
  0
LINE
  5
10F
330
1F
100
AcDbEntity
  8
SLD-0
100
AcDbLine
 10
129.251636927
 20
266.0826176079
 30
0.0
 11
129.5147826783
 21
265.1096089126
 31
0.0
  0
LINE
  5
110
330
1F
100
AcDbEntity
  8
SLD-0
100
AcDbLine
 10
129.5147826783
 20
265.1096089126
 30
0.0
 11
129.8753008501
 21
264.2011538561
 31
0.0
  0
LINE
  5
111
330
1F
100
AcDbEntity
  8
SLD-0
100
AcDbLine
 10
129.8753008501
 20
264.2011538561
 30
0.0
 11
130.3255076233
 21
263.3766145807
 31
0.0
  0
LINE
  5
112
330
1F
100
AcDbEntity
  8
SLD-0
100
AcDbLine
 10
130.3255076233
 20
263.3766145807
 30
0.0
 11
130.8558076222
 21
262.6535647095
 31
0.0
  0
LINE
  5
113
330
1F
100
AcDbEntity
  8
SLD-0
100
AcDbLine
 10
130.8558076222
 20
262.6535647095
 30
0.0
 11
131.4548984231
 21
262.0474147951
 31
0.0
  0
LINE
  5
114
330
1F
100
AcDbEntity
  8
SLD-0
100
AcDbLine
 10
131.4548984231
 20
262.0474147951
 30
0.0
 11
132.1100114456
 21
261.5710838708
 31
0.0
  0
LINE
  5
115
330
1F
100
AcDbEntity
  8
SLD-0
100
AcDbLine
 10
132.1100114456
 20
261.5710838708
 30
0.0
 11
132.807184093
 21
261.2347241031
 31
0.0
  0
LINE
  5
116
330
1F
100
AcDbEntity
  8
SLD-0
100
AcDbLine
 10
132.807184093
 20
261.2347241031
 30
0.0
 11
133.5315573408
 21
261.0455044164
 31
0.0
  0
LINE
  5
117
330
1F
100
AcDbEntity
  8
SLD-0
100
AcDbLine
 10
133.5315573408
 20
261.0455044164
 30
0.0
 11
134.2676924308
 21
261.0074577
 31
0.0
  0
LINE
  5
118
330
1F
100
AcDbEntity
  8
SLD-0
100
AcDbLine
 10
134.2676924308
 20
261.0074577
 30
0.0
 11
134.9998999215
 21
261.1213948536
 31
0.0
  0
LINE
  5
119
330
1F
100
AcDbEntity
  8
SLD-0
100
AcDbLine
 10
134.9998999215
 20
261.1213948536
 30
0.0
 11
135.7125740816
 21
261.3848875044
 31
0.0
  0
LINE
  5
11A
330
1F
100
AcDbEntity
  8
SLD-0
100
AcDbLine
 10
135.7125740816
 20
261.3848875044
 30
0.0
 11
136.3905254987
 21
261.7923197641
 31
0.0
  0
LINE
  5
11B
330
1F
100
AcDbEntity
  8
SLD-0
100
AcDbLine
 10
136.3905254987
 20
261.7923197641
 30
0.0
 11
137.0193048152
 21
262.3350079215
 31
0.0
  0
LINE
  5
11C
330
1F
100
AcDbEntity
  8
SLD-0
100
AcDbLine
 10
137.0193048152
 20
262.3350079215
 30
0.0
 11
137.5855106918
 21
263.0013855207
 31
0.0
  0
LINE
  5
11D
330
1F
100
AcDbEntity
  8
SLD-0
100
AcDbLine
 10
137.5855106918
 20
263.0013855207
 30
0.0
 11
138.0770754332
 21
263.77724988
 31
0.0
  0
LINE
  5
11E
330
1F
100
AcDbEntity
  8
SLD-0
100
AcDbLine
 10
138.0770754332
 20
263.77724988
 30
0.0
 11
138.4835221903
 21
264.6460647978
 31
0.0
  0
LINE
  5
11F
330
1F
100
AcDbEntity
  8
SLD-0
100
AcDbLine
 10
138.4835221903
 20
264.6460647978
 30
0.0
 11
138.7961882562
 21
265.5893129923
 31
0.0
  0
LINE
  5
120
330
1F
100
AcDbEntity
  8
SLD-0
100
AcDbLine
 10
138.7961882562
 20
265.5893129923
 30
0.0
 11
139.0084096965
 21
266.586890766
 31
0.0
  0
LINE
  5
121
330
1F
100
AcDbEntity
  8
SLD-0
100
AcDbLine
 10
139.0084096965
 20
266.586890766
 30
0.0
 11
139.1156633797
 21
267.6175364805
 31
0.0
  0
LINE
  5
122
330
1F
100
AcDbEntity
  8
SLD-0
100
AcDbLine
 10
139.1156633797
 20
267.6175364805
 30
0.0
 11
139.1156633797
 21
268.6592837119
 31
0.0
  0
LINE
  5
123
330
1F
100
AcDbEntity
  8
SLD-0
100
AcDbLine
 10
139.1156633797
 20
268.6592837119
 30
0.0
 11
139.0084096965
 21
269.6899294264
 31
0.0
  0
LINE
  5
124
330
1F
100
AcDbEntity
  8
SLD-0
100
AcDbLine
 10
139.0084096965
 20
269.6899294264
 30
0.0
 11
138.7961882562
 21
270.6875072001
 31
0.0
  0
LINE
  5
125
330
1F
100
AcDbEntity
  8
SLD-0
100
AcDbLine
 10
138.7961882562
 20
270.6875072001
 30
0.0
 11
138.4835221903
 21
271.6307553946
 31
0.0
  0
LINE
  5
126
330
1F
100
AcDbEntity
  8
SLD-0
100
AcDbLine
 10
138.4835221903
 20
271.6307553946
 30
0.0
 11
138.0770754332
 21
272.4995703124
 31
0.0
  0
LINE
  5
127
330
1F
100
AcDbEntity
  8
SLD-0
100
AcDbLine
 10
138.0770754332
 20
272.4995703124
 30
0.0
 11
137.5855106918
 21
273.2754346717
 31
0.0
  0
LINE
  5
128
330
1F
100
AcDbEntity
  8
SLD-0
100
AcDbLine
 10
137.5855106918
 20
273.2754346717
 30
0.0
 11
137.0193048152
 21
273.9418122709
 31
0.0
  0
LINE
  5
129
330
1F
100
AcDbEntity
  8
SLD-0
100
AcDbLine
 10
137.0193048152
 20
273.9418122709
 30
0.0
 11
136.3905254987
 21
274.4845004283
 31
0.0
  0
LINE
  5
12A
330
1F
100
AcDbEntity
  8
SLD-0
100
AcDbLine
 10
136.3905254987
 20
274.4845004283
 30
0.0
 11
135.7125740816
 21
274.891932688
 31
0.0
  0
LINE
  5
12B
330
1F
100
AcDbEntity
  8
SLD-0
100
AcDbLine
 10
135.7125740816
 20
274.891932688
 30
0.0
 11
134.9998999215
 21
275.1554253388
 31
0.0
  0
LINE
  5
12C
330
1F
100
AcDbEntity
  8
SLD-0
100
AcDbLine
 10
134.9998999215
 20
275.1554253388
 30
0.0
 11
134.2676924308
 21
275.2693624924
 31
0.0
  0
LINE
  5
12D
330
1F
100
AcDbEntity
  8
SLD-0
100
AcDbLine
 10
134.2676924308
 20
275.2693624924
 30
0.0
 11
133.5315573408
 21
275.231315776
 31
0.0
  0
LINE
  5
12E
330
1F
100
AcDbEntity
  8
SLD-0
100
AcDbLine
 10
133.5315573408
 20
275.231315776
 30
0.0
 11
132.807184093
 21
275.0420960893
 31
0.0
  0
LINE
  5
12F
330
1F
100
AcDbEntity
  8
SLD-0
100
AcDbLine
 10
132.807184093
 20
275.0420960893
 30
0.0
 11
132.1100114456
 21
274.7057363216
 31
0.0
  0
LINE
  5
130
330
1F
100
AcDbEntity
  8
SLD-0
100
AcDbLine
 10
132.1100114456
 20
274.7057363216
 30
0.0
 11
131.4548984231
 21
274.2294053973
 31
0.0
  0
LINE
  5
131
330
1F
100
AcDbEntity
  8
SLD-0
100
AcDbLine
 10
131.4548984231
 20
274.2294053973
 30
0.0
 11
130.8558076222
 21
273.6232554829
 31
0.0
  0
LINE
  5
132
330
1F
100
AcDbEntity
  8
SLD-0
100
AcDbLine
 10
130.8558076222
 20
273.6232554829
 30
0.0
 11
130.3255076233
 21
272.9002056117
 31
0.0
  0
LINE
  5
133
330
1F
100
AcDbEntity
  8
SLD-0
100
AcDbLine
 10
130.3255076233
 20
272.9002056117
 30
0.0
 11
129.8753008501
 21
272.0756663363
 31
0.0
  0
LINE
  5
134
330
1F
100
AcDbEntity
  8
SLD-0
100
AcDbLine
 10
129.8753008501
 20
272.0756663363
 30
0.0
 11
129.5147826783
 21
271.1672112798
 31
0.0
  0
LINE
  5
135
330
1F
100
AcDbEntity
  8
SLD-0
100
AcDbLine
 10
129.5147826783
 20
271.1672112798
 30
0.0
 11
129.251636927
 21
270.1942025845
 31
0.0
  0
LINE
  5
136
330
1F
100
AcDbEntity
  8
SLD-0
100
AcDbLine
 10
129.251636927
 20
270.1942025845
 30
0.0
 11
129.0914720909
 21
269.1773782414
 31
0.0
  0
LINE
  5
137
330
1F
100
AcDbEntity
  8
SLD-0
100
AcDbLine
 10
129.0914720909
 20
269.1773782414
 30
0.0
 11
129.0377018055
 21
268.1384100962
 31
0.0
  0
LINE
  5
138
330
1F
100
AcDbEntity
  8
SLD-0
100
AcDbLine
 10
137.9285337892
 20
259.1384100962
 30
0.0
 11
139.8804051646
 21
259.0618219111
 31
0.0
  0
LINE
  5
139
330
1F
100
AcDbEntity
  8
SLD-0
100
AcDbLine
 10
139.8804051646
 20
259.0618219111
 30
0.0
 11
141.83227654
 21
258.8482469059
 31
0.0
  0
LINE
  5
13A
330
1F
100
AcDbEntity
  8
SLD-0
100
AcDbLine
 10
141.83227654
 20
258.8482469059
 30
0.0
 11
141.83227654
 21
257.6384100962
 31
0.0
  0
LINE
  5
13B
330
1F
100
AcDbEntity
  8
SLD-0
100
AcDbLine
 10
134.0247910385
 20
258.8482469059
 30
0.0
 11
134.0247910385
 21
257.6384100962
 31
0.0
  0
LINE
  5
13C
330
1F
100
AcDbEntity
  8
SLD-0
100
AcDbLine
 10
134.0247910385
 20
258.8482469059
 30
0.0
 11
135.9678862746
 21
259.0611452978
 31
0.0
  0
LINE
  5
13D
330
1F
100
AcDbEntity
  8
SLD-0
100
AcDbLine
 10
135.9678862746
 20
259.0611452978
 30
0.0
 11
137.9285337892
 21
259.1384100962
 31
0.0
  0
LINE
  5
13E
330
1F
100
AcDbEntity
  8
SLD-0
100
AcDbLine
 10
141.83227654
 20
258.8482469059
 30
0.0
 11
143.2547209768
 21
259.0611452978
 31
0.0
  0
LINE
  5
13F
330
1F
100
AcDbEntity
  8
SLD-0
100
AcDbLine
 10
143.2547209768
 20
259.0611452978
 30
0.0
 11
144.6900145733
 21
259.1384100962
 31
0.0
  0
LINE
  5
140
330
1F
100
AcDbEntity
  8
SLD-0
100
AcDbLine
 10
137.9285337892
 20
259.1384100962
 30
0.0
 11
144.6900145733
 21
259.1384100962
 31
0.0
  0
LINE
  5
141
330
1F
100
AcDbEntity
  8
SLD-0
100
AcDbLine
 10
132.9787863209
 20
259.1384100962
 30
0.0
 11
133.5017886797
 21
259.0618219111
 31
0.0
  0
LINE
  5
142
330
1F
100
AcDbEntity
  8
SLD-0
100
AcDbLine
 10
133.5017886797
 20
259.0618219111
 30
0.0
 11
134.0247910385
 21
258.8482469059
 31
0.0
  0
LINE
  5
143
330
1F
100
AcDbEntity
  8
SLD-0
100
AcDbLine
 10
132.9787863209
 20
259.1384100962
 30
0.0
 11
137.9285337892
 21
259.1384100962
 31
0.0
  0
LINE
  5
144
330
1F
100
AcDbEntity
  8
SLD-0
100
AcDbLine
 10
144.6900145733
 20
259.1384100962
 30
0.0
 11
146.9045292919
 21
258.9592466015
 31
0.0
  0
LINE
  5
145
330
1F
100
AcDbEntity
  8
SLD-0
100
AcDbLine
 10
146.9045292919
 20
258.9592466015
 30
0.0
 11
147.5477526065
 21
258.8482469059
 31
0.0
  0
LINE
  5
146
330
1F
100
AcDbEntity
  8
SLD-0
100
AcDbLine
 10
147.5477526065
 20
258.8482469059
 30
0.0
 11
147.5477526065
 21
254.9285732865
 31
0.0
  0
LINE
  5
147
330
1F
100
AcDbEntity
  8
SLD-0
100
AcDbLine
 10
132.4932938036
 20
254.7095053602
 30
0.0
 11
132.4557839622
 21
254.7149982813
 31
0.0
  0
LINE
  5
148
330
1F
100
AcDbEntity
  8
SLD-0
100
AcDbLine
 10
132.4557839622
 20
254.7149982813
 30
0.0
 11
131.9327816034
 21
254.9285732865
 31
0.0
  0
LINE
  5
149
330
1F
100
AcDbEntity
  8
SLD-0
100
AcDbLine
 10
131.9327816034
 20
258.8482469059
 30
0.0
 11
131.9327816034
 21
254.9285732865
 31
0.0
  0
LINE
  5
14A
330
1F
100
AcDbEntity
  8
SLD-0
100
AcDbLine
 10
131.9327816034
 20
258.8482469059
 30
0.0
 11
132.4534324027
 21
259.0611452978
 31
0.0
  0
LINE
  5
14B
330
1F
100
AcDbEntity
  8
SLD-0
100
AcDbLine
 10
132.4534324027
 20
259.0611452978
 30
0.0
 11
132.9787863209
 21
259.1384100962
 31
0.0
  0
LINE
  5
14C
330
1F
100
AcDbEntity
  8
SLD-0
100
AcDbLine
 10
146.9872404063
 20
254.7095053602
 30
0.0
 11
147.0247502477
 21
254.7149982813
 31
0.0
  0
LINE
  5
14D
330
1F
100
AcDbEntity
  8
SLD-0
100
AcDbLine
 10
147.0247502477
 20
254.7149982813
 30
0.0
 11
147.5477526065
 21
254.9285732865
 31
0.0
  0
LINE
  5
14E
330
1F
100
AcDbEntity
  8
SLD-0
100
AcDbLine
 10
147.5477526065
 20
258.8482469059
 30
0.0
 11
147.0271018072
 21
259.0611452978
 31
0.0
  0
LINE
  5
14F
330
1F
100
AcDbEntity
  8
SLD-0
100
AcDbLine
 10
147.0271018072
 20
259.0611452978
 30
0.0
 11
146.9872426819
 21
259.0670074551
 31
0.0
  0
LINE
  5
150
330
1F
100
AcDbEntity
  8
SLD-0
100
AcDbLine
 10
144.6900145733
 20
259.1384100962
 30
0.0
 11
146.740267105
 21
259.1384100962
 31
0.0
  0
LINE
  5
151
330
1F
100
AcDbEntity
  8
SLD-0
100
AcDbLine
 10
132.740267105
 20
259.1384100962
 30
0.0
 11
132.9787863209
 21
259.1384100962
 31
0.0
  0
LINE
  5
152
330
1F
100
AcDbEntity
  8
SLD-0
100
AcDbLine
 10
120.5894584478
 20
268.1384100962
 30
0.0
 11
120.6427685878
 21
269.1444453929
 31
0.0
  0
LINE
  5
153
330
1F
100
AcDbEntity
  8
SLD-0
100
AcDbLine
 10
120.6427685878
 20
269.1444453929
 30
0.0
 11
120.8015081473
 21
270.1280075235
 31
0.0
  0
LINE
  5
154
330
1F
100
AcDbEntity
  8
SLD-0
100
AcDbLine
 10
120.8015081473
 20
270.1280075235
 30
0.0
 11
121.0621311469
 21
271.0671253352
 31
0.0
  0
LINE
  5
155
330
1F
100
AcDbEntity
  8
SLD-0
100
AcDbLine
 10
121.0621311469
 20
271.0671253352
 30
0.0
 11
121.4188156995
 21
271.9408204881
 31
0.0
  0
LINE
  5
156
330
1F
100
AcDbEntity
  8
SLD-0
100
AcDbLine
 10
121.4188156995
 20
271.9408204881
 30
0.0
 11
121.8635940615
 21
272.7295760762
 31
0.0
  0
LINE
  5
157
330
1F
100
AcDbEntity
  8
SLD-0
100
AcDbLine
 10
121.8635940615
 20
272.7295760762
 30
0.0
 11
122.3865306193
 21
273.4157726029
 31
0.0
  0
LINE
  5
158
330
1F
100
AcDbEntity
  8
SLD-0
100
AcDbLine
 10
122.3865306193
 20
273.4157726029
 30
0.0
 11
122.9759438343
 21
273.9840815717
 31
0.0
  0
LINE
  5
159
330
1F
100
AcDbEntity
  8
SLD-0
100
AcDbLine
 10
122.9759438343
 20
273.9840815717
 30
0.0
 11
123.6186671893
 21
274.4218078995
 31
0.0
  0
LINE
  5
15A
330
1F
100
AcDbEntity
  8
SLD-0
100
AcDbLine
 10
123.6186671893
 20
274.4218078995
 30
0.0
 11
124.3003433067
 21
274.7191735034
 31
0.0
  0
LINE
  5
15B
330
1F
100
AcDbEntity
  8
SLD-0
100
AcDbLine
 10
124.3003433067
 20
274.7191735034
 30
0.0
 11
125.0057446683
 21
274.8695357272
 31
0.0
  0
LINE
  5
15C
330
1F
100
AcDbEntity
  8
SLD-0
100
AcDbLine
 10
125.0057446683
 20
274.8695357272
 30
0.0
 11
125.3624292208
 21
274.8884100962
 31
0.0
  0
LINE
  5
15D
330
1F
100
AcDbEntity
  8
SLD-0
100
AcDbLine
 10
125.3624292208
 20
261.3884100962
 30
0.0
 11
125.0057446683
 21
261.4072844652
 31
0.0
  0
LINE
  5
15E
330
1F
100
AcDbEntity
  8
SLD-0
100
AcDbLine
 10
125.0057446683
 20
261.4072844652
 30
0.0
 11
124.3003433067
 21
261.557646689
 31
0.0
  0
LINE
  5
15F
330
1F
100
AcDbEntity
  8
SLD-0
100
AcDbLine
 10
124.3003433067
 20
261.557646689
 30
0.0
 11
123.6186671893
 21
261.8550122929
 31
0.0
  0
LINE
  5
160
330
1F
100
AcDbEntity
  8
SLD-0
100
AcDbLine
 10
123.6186671893
 20
261.8550122929
 30
0.0
 11
122.9759438343
 21
262.2927386207
 31
0.0
  0
LINE
  5
161
330
1F
100
AcDbEntity
  8
SLD-0
100
AcDbLine
 10
122.9759438343
 20
262.2927386207
 30
0.0
 11
122.3865306193
 21
262.8610475895
 31
0.0
  0
LINE
  5
162
330
1F
100
AcDbEntity
  8
SLD-0
100
AcDbLine
 10
122.3865306193
 20
262.8610475895
 30
0.0
 11
121.8635940615
 21
263.5472441162
 31
0.0
  0
LINE
  5
163
330
1F
100
AcDbEntity
  8
SLD-0
100
AcDbLine
 10
121.8635940615
 20
263.5472441162
 30
0.0
 11
121.4188156995
 21
264.3359997043
 31
0.0
  0
LINE
  5
164
330
1F
100
AcDbEntity
  8
SLD-0
100
AcDbLine
 10
121.4188156995
 20
264.3359997043
 30
0.0
 11
121.0621311469
 21
265.2096948572
 31
0.0
  0
LINE
  5
165
330
1F
100
AcDbEntity
  8
SLD-0
100
AcDbLine
 10
121.0621311469
 20
265.2096948572
 30
0.0
 11
120.8015081473
 21
266.1488126689
 31
0.0
  0
LINE
  5
166
330
1F
100
AcDbEntity
  8
SLD-0
100
AcDbLine
 10
120.8015081473
 20
266.1488126689
 30
0.0
 11
120.6427685878
 21
267.1323747995
 31
0.0
  0
LINE
  5
167
330
1F
100
AcDbEntity
  8
SLD-0
100
AcDbLine
 10
120.6427685878
 20
267.1323747995
 30
0.0
 11
120.5894584478
 21
268.1384100962
 31
0.0
  0
LINE
  5
168
330
1F
100
AcDbEntity
  8
SLD-0
100
AcDbLine
 10
119.6466494062
 20
268.1384100962
 30
0.0
 11
119.6999595462
 21
269.1444453929
 31
0.0
  0
LINE
  5
169
330
1F
100
AcDbEntity
  8
SLD-0
100
AcDbLine
 10
119.6999595462
 20
269.1444453929
 30
0.0
 11
119.8586991057
 21
270.1280075235
 31
0.0
  0
LINE
  5
16A
330
1F
100
AcDbEntity
  8
SLD-0
100
AcDbLine
 10
119.8586991057
 20
270.1280075235
 30
0.0
 11
120.1193221054
 21
271.0671253352
 31
0.0
  0
LINE
  5
16B
330
1F
100
AcDbEntity
  8
SLD-0
100
AcDbLine
 10
120.1193221054
 20
271.0671253352
 30
0.0
 11
120.4760066579
 21
271.9408204881
 31
0.0
  0
LINE
  5
16C
330
1F
100
AcDbEntity
  8
SLD-0
100
AcDbLine
 10
120.4760066579
 20
271.9408204881
 30
0.0
 11
120.9207850199
 21
272.7295760762
 31
0.0
  0
LINE
  5
16D
330
1F
100
AcDbEntity
  8
SLD-0
100
AcDbLine
 10
120.9207850199
 20
272.7295760762
 30
0.0
 11
121.4437215777
 21
273.4157726029
 31
0.0
  0
LINE
  5
16E
330
1F
100
AcDbEntity
  8
SLD-0
100
AcDbLine
 10
121.4437215777
 20
273.4157726029
 30
0.0
 11
122.0331347927
 21
273.9840815717
 31
0.0
  0
LINE
  5
16F
330
1F
100
AcDbEntity
  8
SLD-0
100
AcDbLine
 10
122.0331347927
 20
273.9840815717
 30
0.0
 11
122.6758581478
 21
274.4218078995
 31
0.0
  0
LINE
  5
170
330
1F
100
AcDbEntity
  8
SLD-0
100
AcDbLine
 10
122.6758581478
 20
274.4218078995
 30
0.0
 11
123.3575342651
 21
274.7191735034
 31
0.0
  0
LINE
  5
171
330
1F
100
AcDbEntity
  8
SLD-0
100
AcDbLine
 10
123.3575342651
 20
274.7191735034
 30
0.0
 11
124.0629356267
 21
274.8695357272
 31
0.0
  0
LINE
  5
172
330
1F
100
AcDbEntity
  8
SLD-0
100
AcDbLine
 10
124.0629356267
 20
274.8695357272
 30
0.0
 11
124.7763047318
 21
274.8695357272
 31
0.0
  0
LINE
  5
173
330
1F
100
AcDbEntity
  8
SLD-0
100
AcDbLine
 10
124.7763047318
 20
274.8695357272
 30
0.0
 11
124.8910247
 21
274.8554076067
 31
0.0
  0
LINE
  5
174
330
1F
100
AcDbEntity
  8
SLD-0
100
AcDbLine
 10
124.8910247
 20
261.4214125857
 30
0.0
 11
124.7763047318
 21
261.4072844652
 31
0.0
  0
LINE
  5
175
330
1F
100
AcDbEntity
  8
SLD-0
100
AcDbLine
 10
124.7763047318
 20
261.4072844652
 30
0.0
 11
124.0629356267
 21
261.4072844652
 31
0.0
  0
LINE
  5
176
330
1F
100
AcDbEntity
  8
SLD-0
100
AcDbLine
 10
124.0629356267
 20
261.4072844652
 30
0.0
 11
123.3575342651
 21
261.557646689
 31
0.0
  0
LINE
  5
177
330
1F
100
AcDbEntity
  8
SLD-0
100
AcDbLine
 10
123.3575342651
 20
261.557646689
 30
0.0
 11
122.6758581478
 21
261.8550122929
 31
0.0
  0
LINE
  5
178
330
1F
100
AcDbEntity
  8
SLD-0
100
AcDbLine
 10
122.6758581478
 20
261.8550122929
 30
0.0
 11
122.0331347927
 21
262.2927386207
 31
0.0
  0
LINE
  5
179
330
1F
100
AcDbEntity
  8
SLD-0
100
AcDbLine
 10
122.0331347927
 20
262.2927386207
 30
0.0
 11
121.4437215777
 21
262.8610475895
 31
0.0
  0
LINE
  5
17A
330
1F
100
AcDbEntity
  8
SLD-0
100
AcDbLine
 10
121.4437215777
 20
262.8610475895
 30
0.0
 11
120.9207850199
 21
263.5472441162
 31
0.0
  0
LINE
  5
17B
330
1F
100
AcDbEntity
  8
SLD-0
100
AcDbLine
 10
120.9207850199
 20
263.5472441162
 30
0.0
 11
120.4760066579
 21
264.3359997043
 31
0.0
  0
LINE
  5
17C
330
1F
100
AcDbEntity
  8
SLD-0
100
AcDbLine
 10
120.4760066579
 20
264.3359997043
 30
0.0
 11
120.1193221054
 21
265.2096948572
 31
0.0
  0
LINE
  5
17D
330
1F
100
AcDbEntity
  8
SLD-0
100
AcDbLine
 10
120.1193221054
 20
265.2096948572
 30
0.0
 11
119.8586991057
 21
266.1488126689
 31
0.0
  0
LINE
  5
17E
330
1F
100
AcDbEntity
  8
SLD-0
100
AcDbLine
 10
119.8586991057
 20
266.1488126689
 30
0.0
 11
119.6999595462
 21
267.1323747995
 31
0.0
  0
LINE
  5
17F
330
1F
100
AcDbEntity
  8
SLD-0
100
AcDbLine
 10
119.6999595462
 20
267.1323747995
 30
0.0
 11
119.6466494062
 21
268.1384100962
 31
0.0
  0
LINE
  5
180
330
1F
100
AcDbEntity
  8
SLD-0
100
AcDbLine
 10
118.7038403647
 20
268.1384100962
 30
0.0
 11
118.7571505046
 21
269.1444453929
 31
0.0
  0
LINE
  5
181
330
1F
100
AcDbEntity
  8
SLD-0
100
AcDbLine
 10
118.7571505046
 20
269.1444453929
 30
0.0
 11
118.9158900642
 21
270.1280075235
 31
0.0
  0
LINE
  5
182
330
1F
100
AcDbEntity
  8
SLD-0
100
AcDbLine
 10
118.9158900642
 20
270.1280075235
 30
0.0
 11
119.1765130638
 21
271.0671253352
 31
0.0
  0
LINE
  5
183
330
1F
100
AcDbEntity
  8
SLD-0
100
AcDbLine
 10
119.1765130638
 20
271.0671253352
 30
0.0
 11
119.5331976163
 21
271.9408204881
 31
0.0
  0
LINE
  5
184
330
1F
100
AcDbEntity
  8
SLD-0
100
AcDbLine
 10
119.5331976163
 20
271.9408204881
 30
0.0
 11
119.9779759783
 21
272.7295760762
 31
0.0
  0
LINE
  5
185
330
1F
100
AcDbEntity
  8
SLD-0
100
AcDbLine
 10
119.9779759783
 20
272.7295760762
 30
0.0
 11
120.5009125361
 21
273.4157726029
 31
0.0
  0
LINE
  5
186
330
1F
100
AcDbEntity
  8
SLD-0
100
AcDbLine
 10
120.5009125361
 20
273.4157726029
 30
0.0
 11
121.0903257512
 21
273.9840815717
 31
0.0
  0
LINE
  5
187
330
1F
100
AcDbEntity
  8
SLD-0
100
AcDbLine
 10
121.0903257512
 20
273.9840815717
 30
0.0
 11
121.7330491062
 21
274.4218078995
 31
0.0
  0
LINE
  5
188
330
1F
100
AcDbEntity
  8
SLD-0
100
AcDbLine
 10
121.7330491062
 20
274.4218078995
 30
0.0
 11
122.4147252235
 21
274.7191735034
 31
0.0
  0
LINE
  5
189
330
1F
100
AcDbEntity
  8
SLD-0
100
AcDbLine
 10
122.4147252235
 20
274.7191735034
 30
0.0
 11
123.1201265851
 21
274.8695357272
 31
0.0
  0
LINE
  5
18A
330
1F
100
AcDbEntity
  8
SLD-0
100
AcDbLine
 10
123.1201265851
 20
274.8695357272
 30
0.0
 11
123.4768111377
 21
274.8884100962
 31
0.0
  0
LINE
  5
18B
330
1F
100
AcDbEntity
  8
SLD-0
100
AcDbLine
 10
123.4768111377
 20
261.3884100962
 30
0.0
 11
123.1201265851
 21
261.4072844652
 31
0.0
  0
LINE
  5
18C
330
1F
100
AcDbEntity
  8
SLD-0
100
AcDbLine
 10
123.1201265851
 20
261.4072844652
 30
0.0
 11
122.4147252235
 21
261.557646689
 31
0.0
  0
LINE
  5
18D
330
1F
100
AcDbEntity
  8
SLD-0
100
AcDbLine
 10
122.4147252235
 20
261.557646689
 30
0.0
 11
121.7330491062
 21
261.8550122929
 31
0.0
  0
LINE
  5
18E
330
1F
100
AcDbEntity
  8
SLD-0
100
AcDbLine
 10
121.7330491062
 20
261.8550122929
 30
0.0
 11
121.0903257512
 21
262.2927386207
 31
0.0
  0
LINE
  5
18F
330
1F
100
AcDbEntity
  8
SLD-0
100
AcDbLine
 10
121.0903257512
 20
262.2927386207
 30
0.0
 11
120.5009125361
 21
262.8610475895
 31
0.0
  0
LINE
  5
190
330
1F
100
AcDbEntity
  8
SLD-0
100
AcDbLine
 10
120.5009125361
 20
262.8610475895
 30
0.0
 11
119.9779759783
 21
263.5472441162
 31
0.0
  0
LINE
  5
191
330
1F
100
AcDbEntity
  8
SLD-0
100
AcDbLine
 10
119.9779759783
 20
263.5472441162
 30
0.0
 11
119.5331976163
 21
264.3359997043
 31
0.0
  0
LINE
  5
192
330
1F
100
AcDbEntity
  8
SLD-0
100
AcDbLine
 10
119.5331976163
 20
264.3359997043
 30
0.0
 11
119.1765130638
 21
265.2096948572
 31
0.0
  0
LINE
  5
193
330
1F
100
AcDbEntity
  8
SLD-0
100
AcDbLine
 10
119.1765130638
 20
265.2096948572
 30
0.0
 11
118.9158900642
 21
266.1488126689
 31
0.0
  0
LINE
  5
194
330
1F
100
AcDbEntity
  8
SLD-0
100
AcDbLine
 10
118.9158900642
 20
266.1488126689
 30
0.0
 11
118.7571505046
 21
267.1323747995
 31
0.0
  0
LINE
  5
195
330
1F
100
AcDbEntity
  8
SLD-0
100
AcDbLine
 10
118.7571505046
 20
267.1323747995
 30
0.0
 11
118.7038403647
 21
268.1384100962
 31
0.0
  0
LINE
  5
196
330
1F
100
AcDbEntity
  8
SLD-0
100
AcDbLine
 10
132.740267105
 20
257.6384100962
 30
0.0
 11
146.740267105
 21
257.6384100962
 31
0.0
  0
LINE
  5
197
330
1F
100
AcDbEntity
  8
SLD-0
100
AcDbLine
 10
58.740267105
 20
257.6384100962
 30
0.0
 11
72.740267105
 21
257.6384100962
 31
0.0
  0
LINE
  5
198
330
1F
100
AcDbEntity
  8
SLD-0
100
AcDbLine
 10
49.740267105
 20
257.6384100962
 30
0.0
 11
58.740267105
 21
257.6384100962
 31
0.0
  0
LINE
  5
199
330
1F
100
AcDbEntity
  8
SLD-0_0
  6
Continuous
 62
   179
370
     0
100
AcDbLine
 10
20.2604743903
 20
-0.1849682188
 30
0.0
 11
209.8739775833
 21
-0.1849682188
 31
0.0
  0
LINE
  5
19A
330
1F
100
AcDbEntity
  8
SLD-0_0
  6
Continuous
 62
   179
370
     0
100
AcDbLine
 10
209.8739775833
 20
285.0
 30
0.0
 11
209.8739775833
 21
-0.1849682188
 31
0.0
  0
LINE
  5
19B
330
1F
100
AcDbEntity
  8
0
  6
Continuous
 62
     7
370
     0
100
AcDbLine
 10
20.2604743903
 20
285.0
 30
0.0
 11
196.7604743903
 21
285.0
 31
0.0
  0
LINE
  5
19C
330
1F
100
AcDbEntity
  8
0
  6
Continuous
 62
     7
370
     0
100
AcDbLine
 10
20.2604743903
 20
285.0
 30
0.0
 11
20.2604743903
 21
10.0
 31
0.0
  0
LINE
  5
19D
330
1F
100
AcDbEntity
  8
0
  6
Continuous
 62
     7
370
     0
100
AcDbLine
 10
20.2604743903
 20
10.0
 30
0.0
 11
196.7604743903
 21
10.0
 31
0.0
  0
LINE
  5
19E
330
1F
100
AcDbEntity
  8
0
  6
Continuous
 62
     7
370
     0
100
AcDbLine
 10
196.7604743903
 20
285.0
 30
0.0
 11
196.7604743903
 21
10.0
 31
0.0
  0
LINE
  5
19F
330
1F
100
AcDbEntity
  8
0
  6
Continuous
 62
     7
370
     0
100
AcDbLine
 10
127.0104743903
 20
50.75
 30
0.0
 11
196.7604743903
 21
50.75
 31
0.0
  0
LINE
  5
1A0
330
1F
100
AcDbEntity
  8
0
  6
Continuous
 62
     7
370
     0
100
AcDbLine
 10
127.0104743903
 20
50.75
 30
0.0
 11
127.0104743903
 21
10.0
 31
0.0
  0
LINE
  5
1A1
330
1F
100
AcDbEntity
  8
0
  6
Continuous
 62
     7
370
     0
100
AcDbLine
 10
127.0104743903
 20
22.75
 30
0.0
 11
196.7604743903
 21
22.75
 31
0.0
  0
LINE
  5
1A2
330
1F
100
AcDbEntity
  8
0
  6
Continuous
 62
     7
370
     0
100
AcDbLine
 10
127.0104743903
 20
36.75
 30
0.0
 11
196.7604743903
 21
36.75
 31
0.0
  0
ARC
  5
1A3
330
1F
100
AcDbEntity
  8
SLD-0
100
AcDbCircle
 10
139.740267105
 20
150.2332823684
 30
0.0
 40
10.72000000001659
100
AcDbArc
 50
86.7318170398
 51
93.2681829602
  0
ARC
  5
1A4
330
1F
100
AcDbEntity
  8
SLD-0
100
AcDbCircle
 10
139.740267105
 20
150.2332823684
 30
0.0
 40
10.72000000001665
100
AcDbArc
 50
356.7318170398
 51
3.2681829602
  0
ARC
  5
1A5
330
1F
100
AcDbEntity
  8
SLD-0
100
AcDbCircle
 10
139.740267105
 20
150.2332823684
 30
0.0
 40
10.72000000001667
100
AcDbArc
 50
266.7318170398
 51
273.2681829602
  0
ARC
  5
1A6
330
1F
100
AcDbEntity
  8
SLD-0
100
AcDbCircle
 10
139.740267105
 20
150.2332823684
 30
0.0
 40
10.72000000001662
100
AcDbArc
 50
176.7318170398
 51
183.2681829602
  0
CIRCLE
  5
1A7
330
1F
100
AcDbEntity
  8
SLD-0
100
AcDbCircle
 10
49.740267105
 20
169.2332823684
 30
0.0
 40
4.0
  0
CIRCLE
  5
1A8
330
1F
100
AcDbEntity
  8
SLD-0
100
AcDbCircle
 10
103.740267105
 20
146.2332823684
 30
0.0
 40
9.315000000000026
  0
CIRCLE
  5
1A9
330
1F
100
AcDbEntity
  8
SLD-0
100
AcDbCircle
 10
88.740267105
 20
161.2332823684
 30
0.0
 40
2.500000000000014
  0
CIRCLE
  5
1AA
330
1F
100
AcDbEntity
  8
SLD-0
100
AcDbCircle
 10
118.740267105
 20
131.2332823684
 30
0.0
 40
2.499999999999986
  0
CIRCLE
  5
1AB
330
1F
100
AcDbEntity
  8
SLD-0
100
AcDbCircle
 10
157.740267105
 20
123.2332823684
 30
0.0
 40
4.000000000000057
  0
CIRCLE
  5
1AC
330
1F
100
AcDbEntity
  8
SLD-0
100
AcDbCircle
 10
157.740267105
 20
169.2332823684
 30
0.0
 40
2.5
  0
CIRCLE
  5
1AD
330
1F
100
AcDbEntity
  8
SLD-0
100
AcDbCircle
 10
49.740267105
 20
123.2332823684
 30
0.0
 40
2.499999999999986
  0
CIRCLE
  5
1AE
330
1F
100
AcDbEntity
  8
SLD-0
100
AcDbCircle
 10
157.740267105
 20
123.2332823684
 30
0.0
 40
2.25
  0
CIRCLE
  5
1AF
330
1F
100
AcDbEntity
  8
SLD-0
100
AcDbCircle
 10
49.740267105
 20
169.2332823684
 30
0.0
 40
2.25
  0
CIRCLE
  5
1B0
330
1F
100
AcDbEntity
  8
SLD-0
100
AcDbCircle
 10
75.740267105
 20
152.7332823684
 30
0.0
 40
3.500000000055621
  0
CIRCLE
  5
1B1
330
1F
100
AcDbEntity
  8
SLD-0
100
AcDbCircle
 10
75.740267105
 20
152.7332823684
 30
0.0
 40
4.637352625892646
  0
ARC
  5
1B2
330
1F
100
AcDbEntity
  8
SLD-0
100
AcDbCircle
 10
75.740267105
 20
152.7332823684
 30
0.0
 40
5.999999999994259
100
AcDbArc
 50
30.0
 51
90.0
  0
ARC
  5
1B3
330
1F
100
AcDbEntity
  8
SLD-0
100
AcDbCircle
 10
75.740267105
 20
152.7332823684
 30
0.0
 40
5.999999999994259
100
AcDbArc
 50
90.0
 51
149.9999999998
  0
ARC
  5
1B4
330
1F
100
AcDbEntity
  8
SLD-0
100
AcDbCircle
 10
75.740267105
 20
152.7332823684
 30
0.0
 40
5.999999999994253
100
AcDbArc
 50
330.0
 51
30.0
  0
ARC
  5
1B5
330
1F
100
AcDbEntity
  8
SLD-0
100
AcDbCircle
 10
75.740267105
 20
152.7332823684
 30
0.0
 40
5.999999999994259
100
AcDbArc
 50
270.0
 51
330.0
  0
ARC
  5
1B6
330
1F
100
AcDbEntity
  8
SLD-0
100
AcDbCircle
 10
75.740267105
 20
152.7332823684
 30
0.0
 40
5.999999999994259
100
AcDbArc
 50
210.0000000002
 51
270.0
  0
ARC
  5
1B7
330
1F
100
AcDbEntity
  8
SLD-0
100
AcDbCircle
 10
75.740267105
 20
152.7332823684
 30
0.0
 40
5.999999999994245
100
AcDbArc
 50
149.9999999998
 51
210.0000000002
  0
CIRCLE
  5
1B8
330
1F
100
AcDbEntity
  8
SLD-0
100
AcDbCircle
 10
139.740267105
 20
150.2332823684
 30
0.0
 40
7.135712998712904
  0
CIRCLE
  5
1B9
330
1F
100
AcDbEntity
  8
SLD-0
100
AcDbCircle
 10
139.740267105
 20
130.2332823684
 30
0.0
 40
7.000000000000028
  0
CIRCLE
  5
1BA
330
1F
100
AcDbEntity
  8
SLD-0
100
AcDbCircle
 10
65.740267105
 20
130.2332823684
 30
0.0
 40
7.000000000000028
  0
CIRCLE
  5
1BB
330
1F
100
AcDbEntity
  8
SLD-0
100
AcDbCircle
 10
56.740267105
 20
150.2332823684
 30
0.0
 40
7.000000000000036
  0
ARC
  5
1BC
330
1F
100
AcDbEntity
  8
SLD-0
100
AcDbCircle
 10
139.740267105
 20
268.1384100962
 30
0.0
 40
10.71999999999201
100
AcDbArc
 50
309.0253506235
 51
0.0
  0
ARC
  5
1BD
330
1F
100
AcDbEntity
  8
SLD-0
100
AcDbCircle
 10
139.740267105
 20
268.1384100962
 30
0.0
 40
10.71999999998564
100
AcDbArc
 50
131.7318170397
 51
230.9746493766
  0
ARC
  5
1BE
330
1F
100
AcDbEntity
  8
SLD-0
100
AcDbCircle
 10
139.740267105
 20
268.1384100962
 30
0.0
 40
10.71999999999203
100
AcDbArc
 50
0.0
 51
48.2681829603
  0
ARC
  5
1BF
330
1F
100
AcDbEntity
  8
SLD-0
100
AcDbCircle
 10
107.8712650491
 20
241.2299181532
 30
0.0
 40
6.39405977683474
100
AcDbArc
 50
132.6329826284
 51
176.3370979694
  0
ARC
  5
1C0
330
1F
100
AcDbEntity
  8
SLD-0
100
AcDbCircle
 10
103.7402671051
 20
241.6384100962
 30
0.0
 40
4.300303841645577
100
AcDbArc
 50
87.3383593904
 51
92.6616406089
  0
ARC
  5
1C1
330
1F
100
AcDbEntity
  8
SLD-0
100
AcDbCircle
 10
99.609269161
 20
241.2299181533
 30
0.0
 40
6.394059776874731
100
AcDbArc
 50
3.6629020304
 51
47.3670173708
  0
ARC
  5
1C2
330
1F
100
AcDbEntity
  8
SLD-0
100
AcDbCircle
 10
103.7402671051
 20
241.6384100962
 30
0.0
 40
2.250000000050008
100
AcDbArc
 50
0.0
 51
180.0
  0
ARC
  5
1C3
330
1F
100
AcDbEntity
  8
SLD-0
100
AcDbCircle
 10
103.7402671051
 20
241.6384100962
 30
0.0
 40
2.250000000050008
100
AcDbArc
 50
180.0
 51
0.0
  0
ARC
  5
1C4
330
1F
100
AcDbEntity
  8
SLD-0
100
AcDbCircle
 10
153.7402671051
 20
238.6384100962
 30
0.0
 40
10.00000000000003
100
AcDbArc
 50
0.0
 51
90.0
  0
ARC
  5
1C5
330
1F
100
AcDbEntity
  8
SLD-0
100
AcDbCircle
 10
53.740267105
 20
238.6384100962
 30
0.0
 40
10.0
100
AcDbArc
 50
90.0
 51
180.0
  0
ARC
  5
1C6
330
1F
100
AcDbEntity
  8
SLD-0
100
AcDbCircle
 10
145.4655392584
 20
265.2314931988
 30
0.0
 40
10.51122120147635
100
AcDbArc
 50
276.9655795552
 51
281.4255428635
  0
ARC
  5
1C7
330
1F
100
AcDbEntity
  8
SLD-0
100
AcDbCircle
 10
103.740267105
 20
242.6384100962
 30
0.0
 40
2.00000000000002
100
AcDbArc
 50
179.1047170706
 51
0.8952829179
  0
DIMENSION
  5
1C8
330
1F
100
AcDbEntity
  8
SLD-0_0
100
AcDbDimension
  2
*D2
 10
26.9033119875
 20
115.2332823684
 30
0.0
 11
26.9033119875
 21
146.3832823684
 31
0.0
 70
   160
 71
     1
 42
62.3
  3
SLDDIMSTYLE0
100
AcDbAlignedDimension
 13
103.5405709465
 23
177.5332823684
 33
0.0
 14
103.5405709465
 24
115.2332823684
 34
0.0
 50
90.0
100
AcDbRotatedDimension
1001
ACAD
1000
DSTYLE
1002
{
1070
    77
1070
     3
1070
   143
1040
0.0393700787
1070
    41
1040
3.0
1070
    44
1040
1.0
1070
    42
1040
1.0
1070
   147
1040
1.524
1070
    73
1070
     0
1070
    74
1070
     0
1070
   140
1040
3.0
1070
   284
1070
    12
1070
    78
1070
    12
1002
}
  0
DIMENSION
  5
1E4
330
1F
100
AcDbEntity
  8
SLD-0_0
100
AcDbDimension
  2
*D4
 10
33.7232970836
 20
116.2332823684
 30
0.0
 11
33.7232970836
 21
146.3832823684
 31
0.0
 70
   160
 71
     1
 42
60.3
  3
SLDDIMSTYLE0
100
AcDbAlignedDimension
 13
53.740267105
 23
176.5332823684
 33
0.0
 14
53.740267105
 24
116.2332823684
 34
0.0
 50
90.0
100
AcDbRotatedDimension
1001
ACAD
1000
DSTYLE
1002
{
1070
    77
1070
     3
1070
   143
1040
0.0393700787
1070
    41
1040
3.0
1070
    44
1040
1.0
1070
    42
1040
1.0
1070
   147
1040
1.524
1070
    73
1070
     0
1070
    74
1070
     0
1070
   140
1040
3.0
1070
   284
1070
    12
1070
    78
1070
    12
1002
}
  0
DIMENSION
  5
1F8
330
1F
100
AcDbEntity
  8
SLD-0_0
100
AcDbDimension
  2
*D5
 10
49.1437826587
 20
167.0637878869
 30
0.0
 11
64.3659934605
 21
184.3779249516
 31
0.0
 70
   163
  1
<>(2x)
 71
     1
 42
4.5
  3
SLDDIMSTYLE1
100
AcDbDiametricDimension
 15
50.3367515513
 25
171.4027768499
 35
0.0
 40
0.0
1001
ACAD
1000
DSTYLE
1002
{
1070
    77
1070
     0
1070
   143
1040
0.0393700787
1070
    41
1040
3.0
1070
    44
1040
1.0
1070
    42
1040
1.0
1070
   147
1040
1.524
1070
    73
1070
     1
1070
    74
1070
     1
1070
   140
1040
3.0
1070
   284
1070
    12
1070
    78
1070
    12
1002
}
  0
DIMENSION
  5
20D
330
1F
100
AcDbEntity
  8
SLD-0_0
100
AcDbDimension
  2
*D6
 10
50.8209023974
 20
165.3820192815
 30
0.0
 11
33.4200659545
 21
183.9241723488
 31
0.0
 70
   163
  1
<>x4(2x)
 71
     1
 42
8.0
  3
SLDDIMSTYLE2
100
AcDbDiametricDimension
 15
48.6596318126
 25
173.0845454553
 35
0.0
 40
0.0
1001
ACAD
1000
DSTYLE
1002
{
1070
    77
1070
     0
1070
   143
1040
0.0393700787
1070
    41
1040
3.0
1070
    44
1040
1.0
1070
    42
1040
1.0
1070
   147
1040
1.524
1070
    73
1070
     1
1070
    74
1070
     1
1070
   140
1040
3.0
1070
   284
1070
    12
1070
    78
1070
     4
1002
}
  0
DIMENSION
  5
222
330
1F
100
AcDbEntity
  8
SLD-0_0
100
AcDbDimension
  2
*D7
 10
66.6728003819
 20
152.7332823684
 30
0.0
 11
66.6728003819
 21
164.6332823684
 31
0.0
 70
   160
 71
     1
 42
23.8
  3
SLDDIMSTYLE0
100
AcDbAlignedDimension
 13
53.740267105
 23
176.5332823684
 33
0.0
 14
67.240267105
 24
152.7332823684
 34
0.0
 50
90.0
100
AcDbRotatedDimension
1001
ACAD
1000
DSTYLE
1002
{
1070
    77
1070
     3
1070
   143
1040
0.0393700787
1070
    41
1040
3.0
1070
    44
1040
1.0
1070
    42
1040
1.0
1070
   147
1040
1.524
1070
    73
1070
     0
1070
    74
1070
     0
1070
   140
1040
3.0
1070
   284
1070
    12
1070
    78
1070
    12
1002
}
  0
DIMENSION
  5
235
330
1F
100
AcDbEntity
  8
SLD-0_0
100
AcDbDimension
  2
*D8
 10
103.740267105
 20
191.5509257063
 30
0.0
 11
89.740267105
 21
191.5509257063
 31
0.0
 70
   160
 71
     1
 42
28.0
  3
SLDDIMSTYLE3
100
AcDbAlignedDimension
 13
75.740267105
 23
161.2332823684
 33
0.0
 14
103.740267105
 24
178.3832823684
 34
0.0
100
AcDbRotatedDimension
1001
ACAD
1000
DSTYLE
1002
{
1070
    77
1070
     3
1070
   143
1040
0.0393700787
1070
    41
1040
3.0
1070
    44
1040
1.0
1070
    42
1040
1.0
1070
   147
1040
1.524
1070
    73
1070
     0
1070
    74
1070
     0
1070
   140
1040
3.0
1070
   284
1070
    12
1070
    78
1070
     4
1002
}
  0
DIMENSION
  5
249
330
1F
100
AcDbEntity
  8
SLD-0_0
100
AcDbDimension
  2
*D9
 10
49.740267105
 20
100.0108704489
 30
0.0
 11
103.740267105
 21
100.0108704489
 31
0.0
 70
   160
 71
     1
 42
108.0
  3
SLDDIMSTYLE3
100
AcDbAlignedDimension
 13
157.740267105
 23
123.2332823684
 33
0.0
 14
49.740267105
 24
118.2332823684
 34
0.0
100
AcDbRotatedDimension
1001
ACAD
1000
DSTYLE
1002
{
1070
    77
1070
     3
1070
   143
1040
0.0393700787
1070
    41
1040
3.0
1070
    44
1040
1.0
1070
    42
1040
1.0
1070
   147
1040
1.524
1070
    73
1070
     0
1070
    74
1070
     0
1070
   140
1040
3.0
1070
   284
1070
    12
1070
    78
1070
     4
1002
}
  0
DIMENSION
  5
25C
330
1F
100
AcDbEntity
  8
SLD-0_0
100
AcDbDimension
  2
*D10
 10
163.740267105
 20
91.7599896042
 30
0.0
 11
103.740267105
 21
91.7599896042
 31
0.0
 70
   160
 71
     1
 42
120.0
  3
SLDDIMSTYLE3
100
AcDbAlignedDimension
 13
43.740267105
 23
117.2332823684
 33
0.0
 14
163.740267105
 24
117.2332823684
 34
0.0
 50
0.0
100
AcDbRotatedDimension
1001
ACAD
1000
DSTYLE
1002
{
1070
    77
1070
     3
1070
   143
1040
0.0393700787
1070
    41
1040
3.0
1070
    44
1040
1.0
1070
    42
1040
1.0
1070
   147
1040
1.524
1070
    73
1070
     0
1070
    74
1070
     0
1070
   140
1040
3.0
1070
   284
1070
    12
1070
    78
1070
     4
1002
}
  0
DIMENSION
  5
26F
330
1F
100
AcDbEntity
  8
SLD-0_0
100
AcDbDimension
  2
*D11
 10
177.1381292159
 20
123.2332823684
 30
0.0
 11
177.1381292159
 21
146.2332823684
 31
0.0
 70
   160
 71
     1
 42
46.0
  3
SLDDIMSTYLE3
100
AcDbAlignedDimension
 13
157.740267105
 23
169.2332823684
 33
0.0
 14
164.240267105
 24
123.2332823684
 34
0.0
 50
90.0
100
AcDbRotatedDimension
1001
ACAD
1000
DSTYLE
1002
{
1070
    77
1070
     3
1070
   143
1040
0.0393700787
1070
    41
1040
3.0
1070
    44
1040
1.0
1070
    42
1040
1.0
1070
   147
1040
1.524
1070
    73
1070
     0
1070
    74
1070
     0
1070
   140
1040
3.0
1070
   284
1070
    12
1070
    78
1070
     4
1002
}
  0
DIMENSION
  5
283
330
1F
100
AcDbEntity
  8
SLD-0_0
100
AcDbDimension
  2
*D12
 10
156.2326415657
 20
167.2390243025
 30
0.0
 11
174.8936862024
 21
182.5412475822
 31
0.0
 70
   163
  1
M6(2x)
 71
     1
 42
5.0
  3
SLDDIMSTYLE4
100
AcDbDiametricDimension
 15
159.2478926443
 25
171.2275404343
 35
0.0
 40
0.0
1001
ACAD
1000
DSTYLE
1002
{
1070
    77
1070
     0
1070
   143
1040
0.0393700787
1070
    41
1040
3.0
1070
    44
1040
1.0
1070
    42
1040
1.0
1070
   147
1040
1.524
1070
    73
1070
     1
1070
    74
1070
     1
1070
   140
1040
3.0
1070
   284
1070
    12
1070
    78
1070
    12
1002
}
  0
DIMENSION
  5
296
330
1F
100
AcDbEntity
  8
SLD-0_0
100
AcDbDimension
  2
*D13
 10
181.0758612493
 20
276.1384100962
 30
0.0
 11
181.0758612493
 21
244.3884100962
 31
0.0
 70
   160
 71
     1
 42
63.5
  3
SLDDIMSTYLE0
100
AcDbAlignedDimension
 13
163.7402671051
 23
212.6384100962
 33
0.0
 14
144.7859781549
 24
276.1384100962
 34
0.0
 50
90.0
100
AcDbRotatedDimension
1001
ACAD
1000
DSTYLE
1002
{
1070
    77
1070
     3
1070
   143
1040
0.0393700787
1070
    41
1040
3.0
1070
    44
1040
1.0
1070
    42
1040
1.0
1070
   147
1040
1.524
1070
    73
1070
     0
1070
    74
1070
     0
1070
   140
1040
3.0
1070
   284
1070
    12
1070
    78
1070
    12
1002
}
  0
DIMENSION
  5
2AA
330
1F
100
AcDbEntity
  8
SLD-0_0
100
AcDbDimension
  2
*D14
 10
33.3637694989
 20
222.6384100962
 30
0.0
 11
33.3637694989
 21
217.6384100962
 31
0.0
 70
   160
 71
     1
 42
10.0
  3
SLDDIMSTYLE3
100
AcDbAlignedDimension
 13
43.740267105
 23
212.6384100962
 33
0.0
 14
43.740267105
 24
222.6384100962
 34
0.0
 50
90.0
100
AcDbRotatedDimension
1001
ACAD
1000
DSTYLE
1002
{
1070
    77
1070
     3
1070
   143
1040
0.0393700787
1070
    41
1040
3.0
1070
    44
1040
1.0
1070
    42
1040
1.0
1070
   147
1040
1.524
1070
    73
1070
     0
1070
    74
1070
     0
1070
   140
1040
3.0
1070
   284
1070
    12
1070
    78
1070
     4
1002
}
  0
DIMENSION
  5
2C0
330
1F
100
AcDbEntity
  8
SLD-0_0
100
AcDbDimension
  2
*D15
 10
25.967325692
 20
254.6384100962
 30
0.0
 11
25.967325692
 21
233.6384100962
 31
0.0
 70
   160
 71
     1
 42
42.0
  3
SLDDIMSTYLE3
100
AcDbAlignedDimension
 13
43.740267105
 23
212.6384100962
 33
0.0
 14
43.740267105
 24
254.6384100962
 34
0.0
 50
90.0
100
AcDbRotatedDimension
1001
ACAD
1000
DSTYLE
1002
{
1070
    77
1070
     3
1070
   143
1040
0.0393700787
1070
    41
1040
3.0
1070
    44
1040
1.0
1070
    42
1040
1.0
1070
   147
1040
1.524
1070
    73
1070
     0
1070
    74
1070
     0
1070
   140
1040
3.0
1070
   284
1070
    12
1070
    78
1070
     4
1002
}
  0
MTEXT
  5
2D5
330
1F
100
AcDbEntity
  8
SLD-0_0
 62
     7
100
AcDbMText
 10
133.3937611896
 20
29.1648044457
 30
0.0
 40
4.2333333333
 41
0.0
 71
     1
 72
     1
  1
SFX-120/60-SW-1.5-10-B
  7
SLDTEXTSTYLE1
 73
     1
 44
1.0
  0
MTEXT
  5
2D6
330
1F
100
AcDbEntity
  8
SLD-0_0
 62
     7
100
AcDbMText
 10
145.8826890796
 20
42.6886180626
 30
0.0
 40
4.2333333333
 41
0.0
 71
     1
 72
     1
  1
真空グリッパー
  7
SLDTEXTSTYLE1
 73
     1
 44
1.0
  0
MTEXT
  5
2D7
330
1F
100
AcDbEntity
  8
SLD-0_0
 62
     7
100
AcDbMText
 10
155.4632032507
 20
15.5704651164
 30
0.0
 40
4.2333333333
 41
0.0
 71
     1
 72
     1
  1
183979
  7
SLDTEXTSTYLE1
 73
     1
 44
1.0
  0
MTEXT
  5
2D8
330
1F
100
AcDbEntity
  8
SLD-0_0
100
AcDbMText
 10
139.9463453465
 20
197.5144979048
 30
0.0
 40
3.5
 41
0.0
 71
     1
 72
     1
  1
G=Rp1/2F
  7
SLDTEXTSTYLE0
 73
     1
 44
1.0
  0
LEADER
  5
2DA
330
1F
100
AcDbEntity
  8
SLD-0_0
100
AcDbLeader
  3
SLDDIMSTYLE5
 76
     3
 10
110.3254081909
 20
152.8215402473
 30
0.0
 10
139.4458022291
 20
193.4386750203
 30
0.0
 10
156.2381567395
 20
193.4386750203
 30
0.0
  0
INSERT
  5
2E6
330
1F
100
AcDbEntity
  8
SLD-0_0
100
AcDbBlockReference
  2
SW_CENTERMARKSYMBOL_0
 10
75.740267105
 20
152.7332823684
 30
0.0
  0
INSERT
  5
2F2
330
1F
100
AcDbEntity
  8
SLD-0_0
100
AcDbBlockReference
  2
SW_CENTERMARKSYMBOL_1
 10
49.740267105
 20
169.2332823684
 30
0.0
  0
INSERT
  5
2FA
330
1F
100
AcDbEntity
  8
SLD-0_0
100
AcDbBlockReference
  2
SW_CENTERMARKSYMBOL_2
 10
157.740267105
 20
169.2332823684
 30
0.0
  0
INSERT
  5
306
330
1F
100
AcDbEntity
  8
SLD-0_0
100
AcDbBlockReference
  2
SW_CENTERMARKSYMBOL_3
 10
157.740267105
 20
123.2332823684
 30
0.0
  0
INSERT
  5
312
330
1F
100
AcDbEntity
  8
SLD-0_0
100
AcDbBlockReference
  2
SW_CENTERMARKSYMBOL_4
 10
49.740267105
 20
123.2332823684
 30
0.0
  0
ENDSEC
  0
SECTION
  2
OBJECTS
  0
DICTIONARY
  5
C
330
0
100
AcDbDictionary
281
     1
  3
ACAD_GROUP
350
D
  3
ACAD_LAYOUT
350
1A
  3
ACAD_MLINESTYLE
350
17
  3
ACAD_PLOTSETTINGS
350
19
  3
ACAD_PLOTSTYLENAME
350
E
  0
DICTIONARY
  5
D
102
{ACAD_REACTORS
330
C
102
}
330
C
100
AcDbDictionary
281
     1
  0
DICTIONARY
  5
1A
102
{ACAD_REACTORS
330
C
102
}
330
C
100
AcDbDictionary
281
     1
  3
Layout1
350
1E
  3
Layout2
350
26
  3
Model
350
22
  0
DICTIONARY
  5
17
102
{ACAD_REACTORS
330
C
102
}
330
C
100
AcDbDictionary
281
     1
  3
Standard
350
18
  0
DICTIONARY
  5
19
102
{ACAD_REACTORS
330
C
102
}
330
C
100
AcDbDictionary
281
     1
  0
ACDBDICTIONARYWDFLT
  5
E
102
{ACAD_REACTORS
330
C
102
}
330
C
100
AcDbDictionary
281
     1
  3
Normal
350
F
100
AcDbDictionaryWithDefault
340
F
  0
LAYOUT
  5
1E
102
{ACAD_REACTORS
330
1A
102
}
330
1A
100
AcDbPlotSettings
  1

  2

  4

  6

 40
0.0
 41
0.0
 42
0.0
 43
0.0
 44
0.0
 45
0.0
 46
0.0
 47
0.0
 48
0.0
 49
0.0
140
0.0
141
0.0
142
1.0
143
1.0
 70
   688
 72
     0
 73
     0
 74
     5
  7

 75
    16
147
1.0
148
0.0
149
0.0
100
AcDbLayout
  1
Layout1
 70
     1
 71
     1
 10
0.0
 20
0.0
 11
0.0
 21
0.0
 12
0.0
 22
0.0
 32
0.0
 14
0.0
 24
0.0
 34
0.0
 15
0.0
 25
0.0
 35
0.0
146
0.0
 13
0.0
 23
0.0
 33
0.0
 16
1.0
 26
0.0
 36
0.0
 17
0.0
 27
1.0
 37
0.0
 76
     0
330
1B
  0
LAYOUT
  5
26
102
{ACAD_REACTORS
330
1A
102
}
330
1A
100
AcDbPlotSettings
  1

  2

  4

  6

 40
0.0
 41
0.0
 42
0.0
 43
0.0
 44
0.0
 45
0.0
 46
0.0
 47
0.0
 48
0.0
 49
0.0
140
0.0
141
0.0
142
1.0
143
1.0
 70
   688
 72
     0
 73
     0
 74
     5
  7

 75
    16
147
1.0
148
0.0
149
0.0
100
AcDbLayout
  1
Layout2
 70
     1
 71
     2
 10
0.0
 20
0.0
 11
0.0
 21
0.0
 12
0.0
 22
0.0
 32
0.0
 14
0.0
 24
0.0
 34
0.0
 15
0.0
 25
0.0
 35
0.0
146
0.0
 13
0.0
 23
0.0
 33
0.0
 16
1.0
 26
0.0
 36
0.0
 17
0.0
 27
1.0
 37
0.0
 76
     0
330
23
  0
LAYOUT
  5
22
102
{ACAD_REACTORS
330
1A
102
}
330
1A
100
AcDbPlotSettings
  1

  2

  4

  6

 40
0.0
 41
0.0
 42
0.0
 43
0.0
 44
0.0
 45
0.0
 46
0.0
 47
0.0
 48
0.0
 49
0.0
140
0.0
141
0.0
142
1.0
143
1.0
 70
  1712
 72
     0
 73
     0
 74
     0
  7

 75
     0
147
1.0
148
0.0
149
0.0
100
AcDbLayout
  1
Model
 70
     1
 71
     0
 10
0.0
 20
0.0
 11
0.0
 21
0.0
 12
0.0
 22
0.0
 32
0.0
 14
0.0
 24
0.0
 34
0.0
 15
210.0
 25
297.0
 35
0.0
146
0.0
 13
0.0
 23
0.0
 33
0.0
 16
1.0
 26
0.0
 36
0.0
 17
0.0
 27
1.0
 37
0.0
 76
     0
330
1F
  0
MLINESTYLE
  5
18
102
{ACAD_REACTORS
330
17
102
}
330
17
100
AcDbMlineStyle
  2
Standard
 70
     0
  3

 62
   256
 51
90.0
 52
90.0
 71
     2
 49
0.5
 62
   256
  6
BYLAYER
 49
-0.5
 62
   256
  6
BYLAYER
  0
ACDBPLACEHOLDER
  5
F
102
{ACAD_REACTORS
330
E
102
}
330
E
  0
ENDSEC
  0
EOF
