  0
SECTION
  2
HEADER
  9
$ACADVER
  1
AC1015
  9
$ACADMAINTVER
 70
     6
  9
$DWGCODEPAGE
  3
DOS932
  9
$INSBASE
 10
0.0
 20
0.0
 30
0.0
  9
$EXTMIN
 10
0.0
 20
0.0
 30
0.0
  9
$EXTMAX
 10
210.0
 20
297.0
 30
0.0
  9
$LIMMIN
 10
0.0
 20
0.0
  9
$LIMMAX
 10
0.0
 20
0.0
  9
$ORTHOMODE
 70
     0
  9
$REGENMODE
 70
     1
  9
$FILLMODE
 70
     1
  9
$QTEXTMODE
 70
     0
  9
$MIRRTEXT
 70
     1
  9
$LTSCALE
 40
1.0
  9
$ATTMODE
 70
     1
  9
$TEXTSIZE
 40
3.5
  9
$TRACEWID
 40
1.0
  9
$TEXTSTYLE
  7
Standard
  9
$CLAYER
  8
0
  9
$CELTYPE
  6
ByLayer
  9
$CECOLOR
 62
   256
  9
$CELTSCALE
 40
1.0
  9
$DISPSILH
 70
     0
  9
$DIMSCALE
 40
1.0
  9
$DIMASZ
 40
3.0
  9
$DIMEXO
 40
1.0
  9
$DIMDLI
 40
3.75
  9
$DIMRND
 40
0.0
  9
$DIMDLE
 40
0.0
  9
$DIMEXE
 40
1.0
  9
$DIMTP
 40
0.0
  9
$DIMTM
 40
0.0
  9
$DIMTXT
 40
2.4
  9
$DIMCEN
 40
2.5
  9
$DIMTSZ
 40
0.0
  9
$DIMTOL
 70
     0
  9
$DIMLIM
 70
     0
  9
$DIMTIH
 70
     1
  9
$DIMTOH
 70
     1
  9
$DIMSE1
 70
     0
  9
$DIMSE2
 70
     0
  9
$DIMTAD
 70
     1
  9
$DIMZIN
 70
     1
  9
$DIMBLK
  1

  9
$DIMASO
 70
     1
  9
$DIMSHO
 70
     1
  9
$DIMPOST
  1

  9
$DIMAPOST
  1

  9
$DIMALT
 70
     0
  9
$DIMALTD
 70
     3
  9
$DIMALTF
 40
0.0393700787
  9
$DIMLFAC
 40
1.0
  9
$DIMTOFL
 70
     1
  9
$DIMTVP
 40
0.0
  9
$DIMTIX
 70
     0
  9
$DIMSOXD
 70
     0
  9
$DIMSAH
 70
     0
  9
$DIMBLK1
  1

  9
$DIMBLK2
  1

  9
$DIMSTYLE
  2
ISO-25
  9
$DIMCLRD
 70
     0
  9
$DIMCLRE
 70
     0
  9
$DIMCLRT
 70
     0
  9
$DIMTFAC
 40
1.0
  9
$DIMGAP
 40
1.524
  9
$DIMJUST
 70
     0
  9
$DIMSD1
 70
     0
  9
$DIMSD2
 70
     0
  9
$DIMTOLJ
 70
     0
  9
$DIMTZIN
 70
     1
  9
$DIMALTZ
 70
     0
  9
$DIMALTTZ
 70
     0
  9
$DIMUPT
 70
     0
  9
$DIMDEC
 70
     2
  9
$DIMTDEC
 70
     2
  9
$DIMALTU
 70
     2
  9
$DIMALTTD
 70
     3
  9
$DIMTXSTY
  7
Standard
  9
$DIMAUNIT
 70
     0
  9
$DIMADEC
 70
     0
  9
$DIMALTRND
 40
0.0
  9
$DIMAZIN
 70
     0
  9
$DIMDSEP
 70
    44
  9
$DIMATFIT
 70
     3
  9
$DIMFRAC
 70
     0
  9
$DIMLDRBLK
  1

  9
$DIMLUNIT
 70
     2
  9
$DIMLWD
 70
    -2
  9
$DIMLWE
 70
    -2
  9
$DIMTMOVE
 70
     0
  9
$LUNITS
 70
     2
  9
$LUPREC
 70
     1
  9
$SKETCHINC
 40
1.0
  9
$FILLETRAD
 40
10.0
  9
$AUNITS
 70
     0
  9
$AUPREC
 70
     0
  9
$MENU
  1
.
  9
$ELEVATION
 40
0.0
  9
$PELEVATION
 40
0.0
  9
$THICKNESS
 40
0.0
  9
$LIMCHECK
 70
     0
  9
$CHAMFERA
 40
10.0
  9
$CHAMFERB
 40
10.0
  9
$CHAMFERC
 40
20.0
  9
$CHAMFERD
 40
0.0
  9
$SKPOLY
 70
     0
  9
$TDCREATE
 40
2454399.590033449
  9
$TDUCREATE
 40
2454399.215033449
  9
$TDUPDATE
 40
2454399.590033461
  9
$TDUUPDATE
 40
2454399.215033461
  9
$TDINDWG
 40
0.0000000116
  9
$TDUSRTIMER
 40
0.0000000116
  9
$USRTIMER
 70
     1
  9
$ANGBASE
 50
0.0
  9
$ANGDIR
 70
     0
  9
$PDMODE
 70
     0
  9
$PDSIZE
 40
-1.0
  9
$PLINEWID
 40
0.0
  9
$SPLFRAME
 70
     0
  9
$SPLINETYPE
 70
     6
  9
$SPLINESEGS
 70
     8
  9
$HANDSEED
  5
3F4
  9
$SURFTAB1
 70
     6
  9
$SURFTAB2
 70
     6
  9
$SURFTYPE
 70
     6
  9
$SURFU
 70
     6
  9
$SURFV
 70
     6
  9
$UCSBASE
  2

  9
$UCSNAME
  2

  9
$UCSORG
 10
0.0
 20
0.0
 30
0.0
  9
$UCSXDIR
 10
1.0
 20
0.0
 30
0.0
  9
$UCSYDIR
 10
0.0
 20
1.0
 30
0.0
  9
$UCSORTHOREF
  2

  9
$UCSORTHOVIEW
 70
     0
  9
$UCSORGTOP
 10
0.0
 20
0.0
 30
0.0
  9
$UCSORGBOTTOM
 10
0.0
 20
0.0
 30
0.0
  9
$UCSORGLEFT
 10
0.0
 20
0.0
 30
0.0
  9
$UCSORGRIGHT
 10
0.0
 20
0.0
 30
0.0
  9
$UCSORGFRONT
 10
0.0
 20
0.0
 30
0.0
  9
$UCSORGBACK
 10
0.0
 20
0.0
 30
0.0
  9
$PUCSBASE
  2

  9
$PUCSNAME
  2

  9
$PUCSORG
 10
0.0
 20
0.0
 30
0.0
  9
$PUCSXDIR
 10
1.0
 20
0.0
 30
0.0
  9
$PUCSYDIR
 10
0.0
 20
1.0
 30
0.0
  9
$PUCSORTHOREF
  2

  9
$PUCSORTHOVIEW
 70
     0
  9
$PUCSORGTOP
 10
0.0
 20
0.0
 30
0.0
  9
$PUCSORGBOTTOM
 10
0.0
 20
0.0
 30
0.0
  9
$PUCSORGLEFT
 10
0.0
 20
0.0
 30
0.0
  9
$PUCSORGRIGHT
 10
0.0
 20
0.0
 30
0.0
  9
$PUCSORGFRONT
 10
0.0
 20
0.0
 30
0.0
  9
$PUCSORGBACK
 10
0.0
 20
0.0
 30
0.0
  9
$USERI1
 70
     0
  9
$USERI2
 70
     0
  9
$USERI3
 70
     0
  9
$USERI4
 70
     0
  9
$USERI5
 70
     0
  9
$USERR1
 40
0.0
  9
$USERR2
 40
0.0
  9
$USERR3
 40
0.0
  9
$USERR4
 40
0.0
  9
$USERR5
 40
0.0
  9
$WORLDVIEW
 70
     1
  9
$SHADEDGE
 70
     3
  9
$SHADEDIF
 70
    70
  9
$TILEMODE
 70
     1
  9
$MAXACTVP
 70
    64
  9
$PINSBASE
 10
0.0
 20
0.0
 30
0.0
  9
$PLIMCHECK
 70
     0
  9
$PEXTMIN
 10
1.0000000000E+20
 20
1.0000000000E+20
 30
1.0000000000E+20
  9
$PEXTMAX
 10
-1.0000000000E+20
 20
-1.0000000000E+20
 30
-1.0000000000E+20
  9
$PLIMMIN
 10
0.0
 20
0.0
  9
$PLIMMAX
 10
420.0
 20
297.0
  9
$UNITMODE
 70
     0
  9
$VISRETAIN
 70
     1
  9
$PLINEGEN
 70
     0
  9
$PSLTSCALE
 70
     1
  9
$TREEDEPTH
 70
  3020
  9
$CMLSTYLE
  2
Standard
  9
$CMLJUST
 70
     0
  9
$CMLSCALE
 40
20.0
  9
$PROXYGRAPHICS
 70
     1
  9
$MEASUREMENT
 70
     1
  9
$CELWEIGHT
370
    -1
  9
$ENDCAPS
280
     0
  9
$JOINSTYLE
280
     0
  9
$LWDISPLAY
290
     1
  9
$INSUNITS
 70
     4
  9
$HYPERLINKBASE
  1

  9
$STYLESHEET
  1

  9
$XEDIT
290
     1
  9
$CEPSNTYPE
380
     0
  9
$PSTYLEMODE
290
     1
  9
$FINGERPRINTGUID
  2
{208E06BC-9C03-48E6-B092-1DC60B2A909D}
  9
$VERSIONGUID
  2
{FAEB1C32-E019-11D5-929B-00C0DF256EC4}
  9
$EXTNAMES
290
     1
  9
$PSVPSCALE
 40
0.0
  9
$OLESTARTUP
290
     0
  0
ENDSEC
  0
SECTION
  2
CLASSES
  0
CLASS
  1
ACDBDICTIONARYWDFLT
  2
AcDbDictionaryWithDefault
  3
ObjectDBX Classes
 90
        0
280
     0
281
     0
  0
CLASS
  1
ACDBPLACEHOLDER
  2
AcDbPlaceHolder
  3
ObjectDBX Classes
 90
        0
280
     0
281
     0
  0
CLASS
  1
LAYOUT
  2
AcDbLayout
  3
ObjectDBX Classes
 90
        0
280
     0
281
     0
  0
ENDSEC
  0
SECTION
  2
TABLES
  0
TABLE
  2
VPORT
  5
8
330
0
100
AcDbSymbolTable
 70
     1
  0
VPORT
  5
29
330
8
100
AcDbSymbolTableRecord
100
AcDbViewportTableRecord
  2
*Active
 70
     0
 10
0.0
 20
0.0
 11
1.0
 21
1.0
 12
105.0
 22
148.5
 13
0.0
 23
0.0
 14
10.0
 24
10.0
 15
10.0
 25
10.0
 16
0.0
 26
0.0
 36
1.0
 17
0.0
 27
0.0
 37
0.0
 40
297.0
 41
1.9729729729
 42
50.0
 43
0.0
 44
0.0
 50
0.0
 51
0.0
 71
     0
 72
  2000
 73
     1
 74
     3
 75
     0
 76
     0
 77
     0
 78
     0
281
     0
 65
     1
110
0.0
120
0.0
130
0.0
111
1.0
121
0.0
131
0.0
112
0.0
122
1.0
132
0.0
 79
     0
146
0.0
  0
ENDTAB
  0
TABLE
  2
LTYPE
  5
5
330
0
100
AcDbSymbolTable
 70
     6
  0
LTYPE
  5
14
330
5
100
AcDbSymbolTableRecord
100
AcDbLinetypeTableRecord
  2
ByBlock
 70
     0
  3

 72
    65
 73
     0
 40
0.0
  0
LTYPE
  5
15
330
5
100
AcDbSymbolTableRecord
100
AcDbLinetypeTableRecord
  2
ByLayer
 70
     0
  3

 72
    65
 73
     0
 40
0.0
  0
LTYPE
  5
16
330
5
100
AcDbSymbolTableRecord
100
AcDbLinetypeTableRecord
  2
Continuous
 70
     0
  3
Solid line
 72
    65
 73
     0
 40
0.0
  0
LTYPE
  5
2A
330
5
100
AcDbSymbolTableRecord
100
AcDbLinetypeTableRecord
  2
HIDDEN
 70
     0
  3
Hidden __ __ __ __ __ __ __ __ __ __ __ __ __ __
 72
    65
 73
     2
 40
1.905
 49
1.27
 74
     0
 49
-0.635
 74
     0
  0
LTYPE
  5
2B
330
5
100
AcDbSymbolTableRecord
100
AcDbLinetypeTableRecord
  2
PHANTOM
 70
     0
  3
Phantom ______  __  __  ______  __  __  ______
 72
    65
 73
     6
 40
12.7
 49
6.35
 74
     0
 49
-1.27
 74
     0
 49
1.27
 74
     0
 49
-1.27
 74
     0
 49
1.27
 74
     0
 49
-1.27
 74
     0
  0
LTYPE
  5
2C
330
5
100
AcDbSymbolTableRecord
100
AcDbLinetypeTableRecord
  2
CENTER
 70
     0
  3
Center ____ _ ____ _ ____ _ ____ _ ____ _ ____
 72
    65
 73
     4
 40
10.16
 49
6.35
 74
     0
 49
-1.27
 74
     0
 49
1.27
 74
     0
 49
-1.27
 74
     0
  0
LTYPE
  5
2D
330
5
100
AcDbSymbolTableRecord
100
AcDbLinetypeTableRecord
  2
CENTERX2
 70
     0
  3
Center (2x) ________  __  ________  __  _____
 72
    65
 73
     4
 40
20.32
 49
12.7
 74
     0
 49
-2.54
 74
     0
 49
2.54
 74
     0
 49
-2.54
 74
     0
  0
LTYPE
  5
2E
330
5
100
AcDbSymbolTableRecord
100
AcDbLinetypeTableRecord
  2
DOT2
 70
     0
  3
Dot (.5x) ........................................
 72
    65
 73
     2
 40
0.635
 49
0.0
 74
     0
 49
-0.635
 74
     0
  0
ENDTAB
  0
TABLE
  2
LAYER
  5
2
330
0
100
AcDbSymbolTable
 70
    15
  0
LAYER
  5
10
330
2
100
AcDbSymbolTableRecord
100
AcDbLayerTableRecord
  2
0
 70
     0
 62
     7
  6
Continuous
370
    -3
390
F
  0
LAYER
  5
2F
330
2
100
AcDbSymbolTableRecord
100
AcDbLayerTableRecord
  2
SLD-0_0
 70
     0
 62
     7
  6
Continuous
370
     0
390
F
  0
LAYER
  5
30
330
2
100
AcDbSymbolTableRecord
100
AcDbLayerTableRecord
  2
SLD-0
 70
     0
 62
     7
  6
Continuous
370
     0
390
F
  0
LAYER
  5
31
330
2
100
AcDbSymbolTableRecord
100
AcDbLayerTableRecord
  2
SLD-DEFPOINTS
 70
     0
 62
     7
  6
Continuous
370
     0
390
F
  0
LAYER
  5
32
330
2
100
AcDbSymbolTableRecord
100
AcDbLayerTableRecord
  2
1
 70
     0
 62
    14
  6
Continuous
370
     0
390
F
  0
LAYER
  5
33
330
2
100
AcDbSymbolTableRecord
100
AcDbLayerTableRecord
  2
2
 70
     0
 62
     5
  6
Continuous
370
     0
390
F
  0
LAYER
  5
34
330
2
100
AcDbSymbolTableRecord
100
AcDbLayerTableRecord
  2
3
 70
     0
 62
     6
  6
HIDDEN
370
     0
390
F
  0
LAYER
  5
35
330
2
100
AcDbSymbolTableRecord
100
AcDbLayerTableRecord
  2
4
 70
     0
 62
     3
  6
Continuous
370
     0
390
F
  0
LAYER
  5
36
330
2
100
AcDbSymbolTableRecord
100
AcDbLayerTableRecord
  2
5
 70
     0
 62
     3
  6
Continuous
370
     0
390
F
  0
LAYER
  5
37
330
2
100
AcDbSymbolTableRecord
100
AcDbLayerTableRecord
  2
6
 70
     0
 62
     2
  6
Continuous
370
     0
390
F
  0
LAYER
  5
38
330
2
100
AcDbSymbolTableRecord
100
AcDbLayerTableRecord
  2
7
 70
     0
 62
     4
  6
CENTERX2
370
     0
390
F
  0
LAYER
  5
39
330
2
100
AcDbSymbolTableRecord
100
AcDbLayerTableRecord
  2
8
 70
     0
 62
     1
  6
Continuous
370
     0
390
F
  0
LAYER
  5
3A
330
2
100
AcDbSymbolTableRecord
100
AcDbLayerTableRecord
  2
SLD-DEFPOINTS_0
 70
     0
 62
     7
  6
Continuous
370
     0
390
F
  0
LAYER
  5
3B
330
2
100
AcDbSymbolTableRecord
100
AcDbLayerTableRecord
  2
SLD-DEFPOINTS_1
 70
     0
 62
     7
  6
Continuous
370
     0
390
F
  0
LAYER
  5
2B3
330
2
100
AcDbSymbolTableRecord
100
AcDbLayerTableRecord
  2
Defpoints
 70
     0
 62
     7
  6
Continuous
290
     0
370
    -3
390
F
  0
ENDTAB
  0
TABLE
  2
STYLE
  5
3
330
0
100
AcDbSymbolTable
 70
     4
  0
STYLE
  5
11
330
3
100
AcDbSymbolTableRecord
100
AcDbTextStyleTableRecord
  2
Standard
 70
     0
 40
0.0
 41
1.0
 50
0.0
 71
     0
 42
2.5
  3
txt
  4
bigfont
  0
STYLE
  5
3F
330
3
100
AcDbSymbolTableRecord
100
AcDbTextStyleTableRecord
  2
SLDTEXTSTYLE0
 70
     0
 40
0.0
 41
0.7
 50
0.0
 71
     0
 42
0.2
  3
TXT
  4
bigfont
  0
STYLE
  5
2C0
330
3
100
AcDbSymbolTableRecord
100
AcDbTextStyleTableRecord
  2
SLDTEXTSTYLE1
 70
     0
 40
0.0
 41
1.0
 50
0.0
 71
     0
 42
0.2
  3
ROMANS
  4
bigfont
  0
STYLE
  5
2C8
330
3
100
AcDbSymbolTableRecord
100
AcDbTextStyleTableRecord
  2
SLDTEXTSTYLE2
 70
     0
 40
0.0
 41
0.97
 50
0.0
 71
     0
 42
0.2
  3
ROMANS
  4
bigfont
  0
ENDTAB
  0
TABLE
  2
VIEW
  5
6
330
0
100
AcDbSymbolTable
 70
     0
  0
ENDTAB
  0
TABLE
  2
UCS
  5
7
330
0
100
AcDbSymbolTable
 70
     0
  0
ENDTAB
  0
TABLE
  2
APPID
  5
9
330
0
100
AcDbSymbolTable
 70
     1
  0
APPID
  5
12
330
9
100
AcDbSymbolTableRecord
100
AcDbRegAppTableRecord
  2
ACAD
 70
     0
  0
ENDTAB
  0
TABLE
  2
DIMSTYLE
  5
A
330
0
100
AcDbSymbolTable
 70
     4
100
AcDbDimStyleTable
  0
DIMSTYLE
105
27
330
A
100
AcDbSymbolTableRecord
100
AcDbDimStyleTableRecord
  2
ISO-25
 70
     0
 41
2.5
 42
0.625
 43
3.75
 44
1.25
 73
     0
 74
     0
 77
     1
 78
     8
140
2.5
141
2.5
143
0.0393700787
147
0.625
171
     3
172
     1
271
     2
272
     2
274
     3
278
    44
283
     0
284
     8
340
11
  0
DIMSTYLE
105
2C1
102
{ACAD_REACTORS
330
2B2
330
2CC
330
2E0
330
2F4
330
308
330
31B
330
347
330
384
330
3AD
330
3D7
102
}
330
A
100
AcDbSymbolTableRecord
100
AcDbDimStyleTableRecord
  2
SLDDIMSTYLE0
 70
     0
 41
3.0
 44
0.0
 73
     0
 74
     0
 77
     3
 78
    12
140
2.4
147
0.6
173
     1
271
     0
272
     1
284
    12
340
2C0
341
2C2
343
2C2
344
2C2
  0
DIMSTYLE
105
340
102
{ACAD_REACTORS
330
333
330
35A
330
36D
330
397
102
}
330
A
100
AcDbSymbolTableRecord
100
AcDbDimStyleTableRecord
  2
SLDDIMSTYLE1
 70
     0
 41
3.0
 44
0.0
 73
     0
 74
     0
 77
     3
 78
    12
140
2.4
147
0.6
173
     1
271
     1
272
     1
284
    12
340
2C0
341
2C2
343
2C2
344
2C2
  0
DIMSTYLE
105
3CF
102
{ACAD_REACTORS
330
3C2
102
}
330
A
100
AcDbSymbolTableRecord
100
AcDbDimStyleTableRecord
  2
SLDDIMSTYLE2
 70
     0
 41
3.0
 44
0.0
 78
    12
140
2.4
147
0.6
172
     1
173
     1
271
     1
272
     1
284
    12
340
2C0
341
2C2
343
2C2
344
2C2
  0
ENDTAB
  0
TABLE
  2
BLOCK_RECORD
  5
1
330
0
100
AcDbSymbolTable
 70
    19
  0
BLOCK_RECORD
  5
1F
330
1
100
AcDbSymbolTableRecord
100
AcDbBlockTableRecord
  2
*Model_Space
340
22
  0
BLOCK_RECORD
  5
1B
330
1
100
AcDbSymbolTableRecord
100
AcDbBlockTableRecord
  2
*Paper_Space
340
1E
  0
BLOCK_RECORD
  5
23
330
1
100
AcDbSymbolTableRecord
100
AcDbBlockTableRecord
  2
*Paper_Space0
340
26
  0
BLOCK_RECORD
  5
3C
330
1
100
AcDbSymbolTableRecord
100
AcDbBlockTableRecord
  2
注記
340
0
  0
BLOCK_RECORD
  5
2B4
330
1
100
AcDbSymbolTableRecord
100
AcDbBlockTableRecord
  2
*D2
340
0
  0
BLOCK_RECORD
  5
2C2
330
1
100
AcDbSymbolTableRecord
100
AcDbBlockTableRecord
  2
_None
340
0
102
{BLKREFS
331
2B9
331
2B8
331
2D2
331
2D1
331
2E6
331
2E5
331
2FA
331
2F9
331
30E
331
30D
331
322
331
321
331
339
331
338
331
34D
331
34C
331
360
331
35F
331
374
331
373
331
38A
331
389
331
39E
331
39D
331
3B3
331
3B2
331
3C9
331
3C8
331
3DD
331
3DC
102
}
  0
BLOCK_RECORD
  5
2CD
330
1
100
AcDbSymbolTableRecord
100
AcDbBlockTableRecord
  2
*D4
340
0
  0
BLOCK_RECORD
  5
2E1
330
1
100
AcDbSymbolTableRecord
100
AcDbBlockTableRecord
  2
*D5
340
0
  0
BLOCK_RECORD
  5
2F5
330
1
100
AcDbSymbolTableRecord
100
AcDbBlockTableRecord
  2
*D6
340
0
  0
BLOCK_RECORD
  5
309
330
1
100
AcDbSymbolTableRecord
100
AcDbBlockTableRecord
  2
*D7
340
0
  0
BLOCK_RECORD
  5
31C
330
1
100
AcDbSymbolTableRecord
100
AcDbBlockTableRecord
  2
*D8
340
0
  0
BLOCK_RECORD
  5
334
330
1
100
AcDbSymbolTableRecord
100
AcDbBlockTableRecord
  2
*D9
340
0
  0
BLOCK_RECORD
  5
348
330
1
100
AcDbSymbolTableRecord
100
AcDbBlockTableRecord
  2
*D10
340
0
  0
BLOCK_RECORD
  5
35B
330
1
100
AcDbSymbolTableRecord
100
AcDbBlockTableRecord
  2
*D11
340
0
  0
BLOCK_RECORD
  5
36E
330
1
100
AcDbSymbolTableRecord
100
AcDbBlockTableRecord
  2
*D12
340
0
  0
BLOCK_RECORD
  5
385
330
1
100
AcDbSymbolTableRecord
100
AcDbBlockTableRecord
  2
*D13
340
0
  0
BLOCK_RECORD
  5
398
330
1
100
AcDbSymbolTableRecord
100
AcDbBlockTableRecord
  2
*D14
340
0
  0
BLOCK_RECORD
  5
3AE
330
1
100
AcDbSymbolTableRecord
100
AcDbBlockTableRecord
  2
*D15
340
0
  0
BLOCK_RECORD
  5
3C3
330
1
100
AcDbSymbolTableRecord
100
AcDbBlockTableRecord
  2
*D16
340
0
  0
BLOCK_RECORD
  5
3D8
330
1
100
AcDbSymbolTableRecord
100
AcDbBlockTableRecord
  2
*D17
340
0
  0
BLOCK_RECORD
  5
3ED
330
1
100
AcDbSymbolTableRecord
100
AcDbBlockTableRecord
  2
SW_NOTE_0
340
0
102
{BLKREFS
331
3F2
102
}
  0
ENDTAB
  0
ENDSEC
  0
SECTION
  2
BLOCKS
  0
BLOCK
  5
20
330
1F
100
AcDbEntity
  8
0
100
AcDbBlockBegin
  2
*Model_Space
 70
     0
 71
     0
 10
0.0
 20
0.0
 30
0.0
  3
*Model_Space
  1

  0
ENDBLK
  5
21
330
1F
100
AcDbEntity
  8
0
100
AcDbBlockEnd
  0
BLOCK
  5
1C
330
1B
100
AcDbEntity
 67
     1
  8
0
100
AcDbBlockBegin
  2
*Paper_Space
 70
     0
 71
     0
 10
0.0
 20
0.0
 30
0.0
  3
*Paper_Space
  1

  0
ENDBLK
  5
1D
330
1B
100
AcDbEntity
 67
     1
  8
0
100
AcDbBlockEnd
  0
BLOCK
  5
24
330
23
100
AcDbEntity
  8
0
100
AcDbBlockBegin
  2
*Paper_Space0
 70
     0
 71
     0
 10
0.0
 20
0.0
 30
0.0
  3
*Paper_Space0
  1

  0
ENDBLK
  5
25
330
23
100
AcDbEntity
  8
0
100
AcDbBlockEnd
  0
BLOCK
  5
3D
330
3C
100
AcDbEntity
  8
0
100
AcDbBlockBegin
  2
注記
 70
     0
 71
     0
 10
0.0
 20
0.0
 30
0.0
  3
注記
  1

  0
MTEXT
  5
40
330
3C
100
AcDbEntity
  8
0
  6
Continuous
 62
     7
370
     0
100
AcDbMText
 10
0.2636785918
 20
9.0739778448
 30
0.0
 40
3.5
 41
0.0
 71
     1
 72
     1
  1
１．特記ナキ角部ハ、バリ　カエリノ無キコト。
  7
SLDTEXTSTYLE0
 73
     1
 44
1.0
  0
MTEXT
  5
41
330
3C
100
AcDbEntity
  8
0
  6
Continuous
 62
     7
370
     0
100
AcDbMText
 10
0.2636785918
 20
3.5759549983
 30
0.0
 40
3.5
 41
0.0
 71
     1
 72
     1
  1
２．特記ナキ隅部ハ、Ｒ０．４ＭＡＸトスル。
  7
SLDTEXTSTYLE0
 73
     1
 44
1.0
  0
ENDBLK
  5
3E
330
3C
100
AcDbEntity
  8
0
100
AcDbBlockEnd
  0
BLOCK
  5
2BE
330
2B4
100
AcDbEntity
  8
0
100
AcDbBlockBegin
  2
*D2
 70
     1
 71
     0
 10
0.0
 20
0.0
 30
0.0
  3
*D2
  1

  0
LINE
  5
2C5
330
2B4
100
AcDbEntity
  8
5
100
AcDbLine
 10
150.2213471879
 20
133.0858963312
 30
0.0
 11
150.2213471879
 21
126.5851037619
 31
0.0
  0
LINE
  5
2C6
330
2B4
100
AcDbEntity
  8
5
100
AcDbLine
 10
165.2213471879
 20
133.0858963312
 30
0.0
 11
165.2213471879
 21
126.5851037619
 31
0.0
  0
LINE
  5
2C7
330
2B4
100
AcDbEntity
  8
5
100
AcDbLine
 10
151.8213471879
 20
126.9851037619
 30
0.0
 11
163.6213471879
 21
126.9851037619
 31
0.0
  0
MTEXT
  5
2C9
330
2B4
100
AcDbEntity
  8
5
100
AcDbMText
 10
155.3675720936
 20
130.6225677389
 30
0.2
 40
2.4
 41
0.0
 71
     1
 72
     1
  1
15
  7
SLDTEXTSTYLE2
 73
     1
 44
1.0
  0
SOLID
  5
2CA
330
2B4
100
AcDbEntity
  8
5
100
AcDbTrace
 10
151.8213471879
 20
127.2517704286
 30
0.0
 11
151.8213471879
 21
126.7184370953
 31
0.0
 12
150.2213471879
 22
126.9851037619
 32
0.0
 13
150.2213471879
 23
126.9851037619
 33
0.0
  0
SOLID
  5
2CB
330
2B4
100
AcDbEntity
  8
5
100
AcDbTrace
 10
163.6213471879
 20
127.2517704286
 30
0.0
 11
163.6213471879
 21
126.7184370953
 31
0.0
 12
165.2213471879
 22
126.9851037619
 32
0.0
 13
165.2213471879
 23
126.9851037619
 33
0.0
  0
ENDBLK
  5
2BF
330
2B4
100
AcDbEntity
  8
0
100
AcDbBlockEnd
  0
BLOCK
  5
2C3
330
2C2
100
AcDbEntity
  8
0
100
AcDbBlockBegin
  2
_None
 70
     0
 71
     0
 10
0.0
 20
0.0
 30
0.0
  3
_None
  1

  0
ENDBLK
  5
2C4
330
2C2
100
AcDbEntity
  8
0
100
AcDbBlockEnd
  0
BLOCK
  5
2D8
330
2CD
100
AcDbEntity
  8
0
100
AcDbBlockBegin
  2
*D4
 70
     1
 71
     0
 10
0.0
 20
0.0
 30
0.0
  3
*D4
  1

  0
LINE
  5
2DA
330
2CD
100
AcDbEntity
  8
5
100
AcDbLine
 10
166.0213471879
 20
133.8858963312
 30
0.0
 11
172.3565271233
 21
133.8858963312
 31
0.0
  0
LINE
  5
2DB
330
2CD
100
AcDbEntity
  8
5
100
AcDbLine
 10
167.5911597686
 20
147.8858963312
 30
0.0
 11
172.3565271233
 21
147.8858963312
 31
0.0
  0
LINE
  5
2DC
330
2CD
100
AcDbEntity
  8
5
100
AcDbLine
 10
171.9565271233
 20
135.4858963312
 30
0.0
 11
171.9565271233
 21
146.2858963312
 31
0.0
  0
MTEXT
  5
2DD
330
2CD
100
AcDbEntity
  8
5
100
AcDbMText
 10
168.3190631463
 20
138.5321212369
 30
0.2
 40
2.4
 41
0.0
 71
     1
 72
     1
  1
14
  7
SLDTEXTSTYLE2
 11
6.123031769111886E-17
 21
1.0
 31
0.0
 73
     1
 44
1.0
  0
SOLID
  5
2DE
330
2CD
100
AcDbEntity
  8
5
100
AcDbTrace
 10
171.6898604566
 20
135.4858963312
 30
0.0
 11
172.2231937899
 21
135.4858963312
 31
0.0
 12
171.9565271233
 22
133.8858963312
 32
0.0
 13
171.9565271233
 23
133.8858963312
 33
0.0
  0
SOLID
  5
2DF
330
2CD
100
AcDbEntity
  8
5
100
AcDbTrace
 10
171.6898604566
 20
146.2858963312
 30
0.0
 11
172.2231937899
 21
146.2858963312
 31
0.0
 12
171.9565271233
 22
147.8858963312
 32
0.0
 13
171.9565271233
 23
147.8858963312
 33
0.0
  0
ENDBLK
  5
2D9
330
2CD
100
AcDbEntity
  8
0
100
AcDbBlockEnd
  0
BLOCK
  5
2EC
330
2E1
100
AcDbEntity
  8
0
100
AcDbBlockBegin
  2
*D5
 70
     1
 71
     0
 10
0.0
 20
0.0
 30
0.0
  3
*D5
  1

  0
LINE
  5
2EE
330
2E1
100
AcDbEntity
  8
5
100
AcDbLine
 10
166.0213471879
 20
133.8858963312
 30
0.0
 11
178.7256040972
 21
133.8858963312
 31
0.0
  0
LINE
  5
2EF
330
2E1
100
AcDbEntity
  8
5
100
AcDbLine
 10
165.4213471879
 20
167.8858963312
 30
0.0
 11
178.7256040972
 21
167.8858963312
 31
0.0
  0
LINE
  5
2F0
330
2E1
100
AcDbEntity
  8
5
100
AcDbLine
 10
178.3256040972
 20
135.4858963312
 30
0.0
 11
178.3256040972
 21
166.2858963312
 31
0.0
  0
MTEXT
  5
2F1
330
2E1
100
AcDbEntity
  8
5
100
AcDbMText
 10
174.6881401203
 20
148.5321212369
 30
0.2
 40
2.4
 41
0.0
 71
     1
 72
     1
  1
34
  7
SLDTEXTSTYLE2
 11
6.123031769111886E-17
 21
1.0
 31
0.0
 73
     1
 44
1.0
  0
SOLID
  5
2F2
330
2E1
100
AcDbEntity
  8
5
100
AcDbTrace
 10
178.0589374306
 20
135.4858963312
 30
0.0
 11
178.5922707639
 21
135.4858963312
 31
0.0
 12
178.3256040972
 22
133.8858963312
 32
0.0
 13
178.3256040972
 23
133.8858963312
 33
0.0
  0
SOLID
  5
2F3
330
2E1
100
AcDbEntity
  8
5
100
AcDbTrace
 10
178.0589374306
 20
166.2858963312
 30
0.0
 11
178.5922707639
 21
166.2858963312
 31
0.0
 12
178.3256040972
 22
167.8858963312
 32
0.0
 13
178.3256040972
 23
167.8858963312
 33
0.0
  0
ENDBLK
  5
2ED
330
2E1
100
AcDbEntity
  8
0
100
AcDbBlockEnd
  0
BLOCK
  5
300
330
2F5
100
AcDbEntity
  8
0
100
AcDbBlockBegin
  2
*D6
 70
     1
 71
     0
 10
0.0
 20
0.0
 30
0.0
  3
*D6
  1

  0
LINE
  5
302
330
2F5
100
AcDbEntity
  8
5
100
AcDbLine
 10
166.0213471879
 20
133.8858963312
 30
0.0
 11
185.7909735583
 21
133.8858963312
 31
0.0
  0
LINE
  5
303
330
2F5
100
AcDbEntity
  8
5
100
AcDbLine
 10
164.9213471879
 20
173.4858963312
 30
0.0
 11
185.7909735583
 21
173.4858963312
 31
0.0
  0
LINE
  5
304
330
2F5
100
AcDbEntity
  8
5
100
AcDbLine
 10
185.3909735583
 20
135.4858963312
 30
0.0
 11
185.3909735583
 21
171.8858963312
 31
0.0
  0
MTEXT
  5
305
330
2F5
100
AcDbEntity
  8
5
100
AcDbMText
 10
181.7535095814
 20
151.3321212369
 30
0.2
 40
2.4
 41
0.0
 71
     1
 72
     1
  1
40
  7
SLDTEXTSTYLE2
 11
6.123031769111886E-17
 21
1.0
 31
0.0
 73
     1
 44
1.0
  0
SOLID
  5
306
330
2F5
100
AcDbEntity
  8
5
100
AcDbTrace
 10
185.1243068917
 20
135.4858963312
 30
0.0
 11
185.657640225
 21
135.4858963312
 31
0.0
 12
185.3909735583
 22
133.8858963312
 32
0.0
 13
185.3909735583
 23
133.8858963312
 33
0.0
  0
SOLID
  5
307
330
2F5
100
AcDbEntity
  8
5
100
AcDbTrace
 10
185.1243068917
 20
171.8858963312
 30
0.0
 11
185.657640225
 21
171.8858963312
 31
0.0
 12
185.3909735583
 22
173.4858963312
 32
0.0
 13
185.3909735583
 23
173.4858963312
 33
0.0
  0
ENDBLK
  5
301
330
2F5
100
AcDbEntity
  8
0
100
AcDbBlockEnd
  0
BLOCK
  5
313
330
309
100
AcDbEntity
  8
0
100
AcDbBlockBegin
  2
*D7
 70
     1
 71
     0
 10
0.0
 20
0.0
 30
0.0
  3
*D7
  1

  0
LINE
  5
315
330
309
100
AcDbEntity
  8
5
100
AcDbLine
 10
34.433004991
 20
155.7858963312
 30
0.0
 11
34.433004991
 21
185.7130205537
 31
0.0
  0
LINE
  5
316
330
309
100
AcDbEntity
  8
5
100
AcDbLine
 10
56.433004991
 20
176.5996068582
 30
0.0
 11
56.433004991
 21
185.7130205537
 31
0.0
  0
LINE
  5
317
330
309
100
AcDbEntity
  8
5
100
AcDbLine
 10
36.033004991
 20
185.3130205537
 30
0.0
 11
54.833004991
 21
185.3130205537
 31
0.0
  0
MTEXT
  5
318
330
309
100
AcDbEntity
  8
5
100
AcDbMText
 10
43.0792298967
 20
188.9504845306
 30
0.2
 40
2.4
 41
0.0
 71
     1
 72
     1
  1
22
  7
SLDTEXTSTYLE2
 73
     1
 44
1.0
  0
SOLID
  5
319
330
309
100
AcDbEntity
  8
5
100
AcDbTrace
 10
36.033004991
 20
185.5796872203
 30
0.0
 11
36.033004991
 21
185.046353887
 31
0.0
 12
34.433004991
 22
185.3130205537
 32
0.0
 13
34.433004991
 23
185.3130205537
 33
0.0
  0
SOLID
  5
31A
330
309
100
AcDbEntity
  8
5
100
AcDbTrace
 10
54.833004991
 20
185.5796872203
 30
0.0
 11
54.833004991
 21
185.046353887
 31
0.0
 12
56.433004991
 22
185.3130205537
 32
0.0
 13
56.433004991
 23
185.3130205537
 33
0.0
  0
ENDBLK
  5
314
330
309
100
AcDbEntity
  8
0
100
AcDbBlockEnd
  0
BLOCK
  5
329
330
31C
100
AcDbEntity
  8
0
100
AcDbBlockBegin
  2
*D8
 70
     1
 71
     0
 10
0.0
 20
0.0
 30
0.0
  3
*D8
  1

  0
LINE
  5
32B
330
31C
100
AcDbEntity
  8
5
100
AcDbLine
 10
52.433004991
 20
174.2858963312
 30
0.0
 11
52.433004991
 21
179.6124009701
 31
0.0
  0
LINE
  5
32C
330
31C
100
AcDbEntity
  8
5
100
AcDbLine
 10
60.433004991
 20
174.2858963312
 30
0.0
 11
60.433004991
 21
179.6124009701
 31
0.0
  0
LINE
  5
32D
330
31C
100
AcDbEntity
  8
5
100
AcDbLine
 10
54.033004991
 20
179.2124009701
 30
0.0
 11
58.833004991
 21
179.2124009701
 31
0.0
  0
LINE
  5
32E
330
31C
100
AcDbEntity
  8
5
100
AcDbLine
 10
60.433004991
 20
179.2124009701
 30
0.0
 11
67.4044335624
 21
179.2124009701
 31
0.0
  0
MTEXT
  5
32F
330
31C
100
AcDbEntity
  8
5
100
AcDbMText
 10
60.5765004088
 20
182.8498649471
 30
0.2
 40
2.4
 41
0.0
 71
     1
 72
     1
  1
%%c
  7
SLDTEXTSTYLE2
 73
     1
 44
1.0
  0
MTEXT
  5
330
330
31C
100
AcDbEntity
  8
5
100
AcDbMText
 10
65.0698337511
 20
182.8498649471
 30
0.2
 40
2.4
 41
0.0
 71
     1
 72
     1
  1
8
  7
SLDTEXTSTYLE2
 73
     1
 44
1.0
  0
SOLID
  5
331
330
31C
100
AcDbEntity
  8
5
100
AcDbTrace
 10
54.033004991
 20
179.4790676368
 30
0.0
 11
54.033004991
 21
178.9457343035
 31
0.0
 12
52.433004991
 22
179.2124009701
 32
0.0
 13
52.433004991
 23
179.2124009701
 33
0.0
  0
SOLID
  5
332
330
31C
100
AcDbEntity
  8
5
100
AcDbTrace
 10
58.833004991
 20
179.4790676368
 30
0.0
 11
58.833004991
 21
178.9457343035
 31
0.0
 12
60.433004991
 22
179.2124009701
 32
0.0
 13
60.433004991
 23
179.2124009701
 33
0.0
  0
ENDBLK
  5
32A
330
31C
100
AcDbEntity
  8
0
100
AcDbBlockEnd
  0
BLOCK
  5
33E
330
334
100
AcDbEntity
  8
0
100
AcDbBlockBegin
  2
*D9
 70
     1
 71
     0
 10
0.0
 20
0.0
 30
0.0
  3
*D9
  1

  0
LINE
  5
341
330
334
100
AcDbEntity
  8
5
100
AcDbLine
 10
34.433004991
 20
133.0858963312
 30
0.0
 11
34.433004991
 21
126.8878732601
 31
0.0
  0
LINE
  5
342
330
334
100
AcDbEntity
  8
5
100
AcDbLine
 10
46.933004991
 20
131.9627696899
 30
0.0
 11
46.933004991
 21
126.8878732601
 31
0.0
  0
LINE
  5
343
330
334
100
AcDbEntity
  8
5
100
AcDbLine
 10
36.033004991
 20
127.2878732601
 30
0.0
 11
45.333004991
 21
127.2878732601
 31
0.0
  0
MTEXT
  5
344
330
334
100
AcDbEntity
  8
5
100
AcDbMText
 10
36.5638985759
 20
130.9253372371
 30
0.2
 40
2.4
 41
0.0
 71
     1
 72
     1
  1
12.5
  7
SLDTEXTSTYLE2
 73
     1
 44
1.0
  0
SOLID
  5
345
330
334
100
AcDbEntity
  8
5
100
AcDbTrace
 10
36.033004991
 20
127.5545399268
 30
0.0
 11
36.033004991
 21
127.0212065934
 31
0.0
 12
34.433004991
 22
127.2878732601
 32
0.0
 13
34.433004991
 23
127.2878732601
 33
0.0
  0
SOLID
  5
346
330
334
100
AcDbEntity
  8
5
100
AcDbTrace
 10
45.333004991
 20
127.5545399268
 30
0.0
 11
45.333004991
 21
127.0212065934
 31
0.0
 12
46.933004991
 22
127.2878732601
 32
0.0
 13
46.933004991
 23
127.2878732601
 33
0.0
  0
ENDBLK
  5
33F
330
334
100
AcDbEntity
  8
0
100
AcDbBlockEnd
  0
BLOCK
  5
352
330
348
100
AcDbEntity
  8
0
100
AcDbBlockBegin
  2
*D10
 70
     1
 71
     0
 10
0.0
 20
0.0
 30
0.0
  3
*D10
  1

  0
LINE
  5
354
330
348
100
AcDbEntity
  8
5
100
AcDbLine
 10
46.933004991
 20
131.9627696899
 30
0.0
 11
46.933004991
 21
126.8878732601
 31
0.0
  0
LINE
  5
355
330
348
100
AcDbEntity
  8
5
100
AcDbLine
 10
66.933004991
 20
131.9627696899
 30
0.0
 11
66.933004991
 21
126.8878732601
 31
0.0
  0
LINE
  5
356
330
348
100
AcDbEntity
  8
5
100
AcDbLine
 10
48.533004991
 20
127.2878732601
 30
0.0
 11
65.333004991
 21
127.2878732601
 31
0.0
  0
MTEXT
  5
357
330
348
100
AcDbEntity
  8
5
100
AcDbMText
 10
54.5792298967
 20
130.9253372371
 30
0.2
 40
2.4
 41
0.0
 71
     1
 72
     1
  1
20
  7
SLDTEXTSTYLE2
 73
     1
 44
1.0
  0
SOLID
  5
358
330
348
100
AcDbEntity
  8
5
100
AcDbTrace
 10
48.533004991
 20
127.5545399268
 30
0.0
 11
48.533004991
 21
127.0212065934
 31
0.0
 12
46.933004991
 22
127.2878732601
 32
0.0
 13
46.933004991
 23
127.2878732601
 33
0.0
  0
SOLID
  5
359
330
348
100
AcDbEntity
  8
5
100
AcDbTrace
 10
65.333004991
 20
127.5545399268
 30
0.0
 11
65.333004991
 21
127.0212065934
 31
0.0
 12
66.933004991
 22
127.2878732601
 32
0.0
 13
66.933004991
 23
127.2878732601
 33
0.0
  0
ENDBLK
  5
353
330
348
100
AcDbEntity
  8
0
100
AcDbBlockEnd
  0
BLOCK
  5
365
330
35B
100
AcDbEntity
  8
0
100
AcDbBlockBegin
  2
*D11
 70
     1
 71
     0
 10
0.0
 20
0.0
 30
0.0
  3
*D11
  1

  0
LINE
  5
367
330
35B
100
AcDbEntity
  8
5
100
AcDbLine
 10
34.433004991
 20
133.0858963312
 30
0.0
 11
34.433004991
 21
119.9934126138
 31
0.0
  0
LINE
  5
368
330
35B
100
AcDbEntity
  8
5
100
AcDbLine
 10
85.933004991
 20
139.9858963312
 30
0.0
 11
85.933004991
 21
119.9934126138
 31
0.0
  0
LINE
  5
369
330
35B
100
AcDbEntity
  8
5
100
AcDbLine
 10
36.033004991
 20
120.3934126138
 30
0.0
 11
84.333004991
 21
120.3934126138
 31
0.0
  0
MTEXT
  5
36A
330
35B
100
AcDbEntity
  8
5
100
AcDbMText
 10
56.0638985759
 20
124.0308765908
 30
0.2
 40
2.4
 41
0.0
 71
     1
 72
     1
  1
51.5
  7
SLDTEXTSTYLE2
 73
     1
 44
1.0
  0
SOLID
  5
36B
330
35B
100
AcDbEntity
  8
5
100
AcDbTrace
 10
36.033004991
 20
120.6600792805
 30
0.0
 11
36.033004991
 21
120.1267459472
 31
0.0
 12
34.433004991
 22
120.3934126138
 32
0.0
 13
34.433004991
 23
120.3934126138
 33
0.0
  0
SOLID
  5
36C
330
35B
100
AcDbEntity
  8
5
100
AcDbTrace
 10
84.333004991
 20
120.6600792805
 30
0.0
 11
84.333004991
 21
120.1267459472
 31
0.0
 12
85.933004991
 22
120.3934126138
 32
0.0
 13
85.933004991
 23
120.3934126138
 33
0.0
  0
ENDBLK
  5
366
330
35B
100
AcDbEntity
  8
0
100
AcDbBlockEnd
  0
BLOCK
  5
37B
330
36E
100
AcDbEntity
  8
0
100
AcDbBlockBegin
  2
*D12
 70
     1
 71
     0
 10
0.0
 20
0.0
 30
0.0
  3
*D12
  1

  0
LINE
  5
37D
330
36E
100
AcDbEntity
  8
5
100
AcDbLine
 10
34.433004991
 20
133.0858963312
 30
0.0
 11
34.433004991
 21
119.9934126138
 31
0.0
  0
LINE
  5
37E
330
36E
100
AcDbEntity
  8
5
100
AcDbLine
 10
29.233004991
 20
141.1858963312
 30
0.0
 11
29.233004991
 21
119.9934126138
 31
0.0
  0
LINE
  5
37F
330
36E
100
AcDbEntity
  8
5
100
AcDbLine
 10
32.833004991
 20
120.3934126138
 30
0.0
 11
30.833004991
 21
120.3934126138
 31
0.0
  0
LINE
  5
380
330
36E
100
AcDbEntity
  8
5
100
AcDbLine
 10
29.233004991
 20
120.3934126138
 30
0.0
 11
21.0044335624
 21
120.3934126138
 31
0.0
  0
MTEXT
  5
381
330
36E
100
AcDbEntity
  8
5
100
AcDbMText
 10
21.3765004088
 20
124.0308765908
 30
0.2
 40
2.4
 41
0.0
 71
     1
 72
     1
  1
5.5
  7
SLDTEXTSTYLE2
 73
     1
 44
1.0
  0
SOLID
  5
382
330
36E
100
AcDbEntity
  8
5
100
AcDbTrace
 10
32.833004991
 20
120.6600792805
 30
0.0
 11
32.833004991
 21
120.1267459472
 31
0.0
 12
34.433004991
 22
120.3934126138
 32
0.0
 13
34.433004991
 23
120.3934126138
 33
0.0
  0
SOLID
  5
383
330
36E
100
AcDbEntity
  8
5
100
AcDbTrace
 10
30.833004991
 20
120.6600792805
 30
0.0
 11
30.833004991
 21
120.1267459472
 31
0.0
 12
29.233004991
 22
120.3934126138
 32
0.0
 13
29.233004991
 23
120.3934126138
 33
0.0
  0
ENDBLK
  5
37C
330
36E
100
AcDbEntity
  8
0
100
AcDbBlockEnd
  0
BLOCK
  5
38F
330
385
100
AcDbEntity
  8
0
100
AcDbBlockBegin
  2
*D13
 70
     1
 71
     0
 10
0.0
 20
0.0
 30
0.0
  3
*D13
  1

  0
LINE
  5
391
330
385
100
AcDbEntity
  8
5
100
AcDbLine
 10
29.233004991
 20
141.1858963312
 30
0.0
 11
29.233004991
 21
112.7253224433
 31
0.0
  0
LINE
  5
392
330
385
100
AcDbEntity
  8
5
100
AcDbLine
 10
125.9766756662
 20
145.5858963312
 30
0.0
 11
125.9766756662
 21
112.7253224433
 31
0.0
  0
LINE
  5
393
330
385
100
AcDbEntity
  8
5
100
AcDbLine
 10
30.833004991
 20
113.1253224433
 30
0.0
 11
124.3766756662
 21
113.1253224433
 31
0.0
  0
MTEXT
  5
394
330
385
100
AcDbEntity
  8
5
100
AcDbMText
 10
75.2510652342
 20
116.7627864202
 30
0.2
 40
2.4
 41
0.0
 71
     1
 72
     1
  1
97
  7
SLDTEXTSTYLE2
 73
     1
 44
1.0
  0
SOLID
  5
395
330
385
100
AcDbEntity
  8
5
100
AcDbTrace
 10
30.833004991
 20
113.39198911
 30
0.0
 11
30.833004991
 21
112.8586557766
 31
0.0
 12
29.233004991
 22
113.1253224433
 32
0.0
 13
29.233004991
 23
113.1253224433
 33
0.0
  0
SOLID
  5
396
330
385
100
AcDbEntity
  8
5
100
AcDbTrace
 10
124.3766756662
 20
113.39198911
 30
0.0
 11
124.3766756662
 21
112.8586557766
 31
0.0
 12
125.9766756662
 22
113.1253224433
 32
0.0
 13
125.9766756662
 23
113.1253224433
 33
0.0
  0
ENDBLK
  5
390
330
385
100
AcDbEntity
  8
0
100
AcDbBlockEnd
  0
BLOCK
  5
3A4
330
398
100
AcDbEntity
  8
0
100
AcDbBlockBegin
  2
*D14
 70
     1
 71
     0
 10
0.0
 20
0.0
 30
0.0
  3
*D14
  1

  0
LINE
  5
3A6
330
398
100
AcDbEntity
  8
5
100
AcDbLine
 10
80.233004991
 20
133.8858963312
 30
0.0
 11
93.2373229379
 21
133.8858963312
 31
0.0
  0
LINE
  5
3A7
330
398
100
AcDbEntity
  8
5
100
AcDbLine
 10
74.0561316323
 20
139.0858963312
 30
0.0
 11
93.2373229379
 21
139.0858963312
 31
0.0
  0
LINE
  5
3A8
330
398
100
AcDbEntity
  8
5
100
AcDbLine
 10
92.8373229379
 20
137.4858963312
 30
0.0
 11
92.8373229379
 21
135.4858963312
 31
0.0
  0
LINE
  5
3A9
330
398
100
AcDbEntity
  8
5
100
AcDbLine
 10
92.8373229379
 20
133.8858963312
 30
0.0
 11
92.8373229379
 21
125.6573249026
 31
0.0
  0
MTEXT
  5
3AA
330
398
100
AcDbEntity
  8
5
100
AcDbMText
 10
89.199858961
 20
126.029391749
 30
0.2
 40
2.4
 41
0.0
 71
     1
 72
     1
  1
5.2
  7
SLDTEXTSTYLE2
 11
6.123031769111886E-17
 21
1.0
 31
0.0
 73
     1
 44
1.0
  0
SOLID
  5
3AB
330
398
100
AcDbEntity
  8
5
100
AcDbTrace
 10
92.5706562713
 20
137.4858963312
 30
0.0
 11
93.1039896046
 21
137.4858963312
 31
0.0
 12
92.8373229379
 22
139.0858963312
 32
0.0
 13
92.8373229379
 23
139.0858963312
 33
0.0
  0
SOLID
  5
3AC
330
398
100
AcDbEntity
  8
5
100
AcDbTrace
 10
92.5706562713
 20
135.4858963312
 30
0.0
 11
93.1039896046
 21
135.4858963312
 31
0.0
 12
92.8373229379
 22
133.8858963312
 32
0.0
 13
92.8373229379
 23
133.8858963312
 33
0.0
  0
ENDBLK
  5
3A5
330
398
100
AcDbEntity
  8
0
100
AcDbBlockEnd
  0
BLOCK
  5
3B9
330
3AE
100
AcDbEntity
  8
0
100
AcDbBlockBegin
  2
*D15
 70
     1
 71
     0
 10
0.0
 20
0.0
 30
0.0
  3
*D15
  1

  0
LINE
  5
3BB
330
3AE
100
AcDbEntity
  8
5
100
AcDbLine
 10
125.0714259752
 20
141.0858963312
 30
0.0
 11
133.5009771916
 21
141.0858963312
 31
0.0
  0
LINE
  5
3BC
330
3AE
100
AcDbEntity
  8
5
100
AcDbLine
 10
125.0714259752
 20
154.6858963312
 30
0.0
 11
133.5009771916
 21
154.6858963312
 31
0.0
  0
LINE
  5
3BD
330
3AE
100
AcDbEntity
  8
5
100
AcDbLine
 10
133.1009771916
 20
142.6858963312
 30
0.0
 11
133.1009771916
 21
153.0858963312
 31
0.0
  0
MTEXT
  5
3BE
330
3AE
100
AcDbEntity
  8
5
100
AcDbMText
 10
129.4635132146
 20
142.5667899161
 30
0.2
 40
2.4
 41
0.0
 71
     1
 72
     1
  1
%%c
  7
SLDTEXTSTYLE2
 11
6.123031769111886E-17
 21
1.0
 31
0.0
 73
     1
 44
1.0
  0
MTEXT
  5
3BF
330
3AE
100
AcDbEntity
  8
5
100
AcDbMText
 10
129.4635132146
 20
147.0601232584
 30
0.2
 40
2.4
 41
0.0
 71
     1
 72
     1
  1
14
  7
SLDTEXTSTYLE2
 11
6.123031769111886E-17
 21
1.0
 31
0.0
 73
     1
 44
1.0
  0
SOLID
  5
3C0
330
3AE
100
AcDbEntity
  8
5
100
AcDbTrace
 10
132.8343105249
 20
142.6858963312
 30
0.0
 11
133.3676438582
 21
142.6858963312
 31
0.0
 12
133.1009771916
 22
141.0858963312
 32
0.0
 13
133.1009771916
 23
141.0858963312
 33
0.0
  0
SOLID
  5
3C1
330
3AE
100
AcDbEntity
  8
5
100
AcDbTrace
 10
132.8343105249
 20
153.0858963312
 30
0.0
 11
133.3676438582
 21
153.0858963312
 31
0.0
 12
133.1009771916
 22
154.6858963312
 32
0.0
 13
133.1009771916
 23
154.6858963312
 33
0.0
  0
ENDBLK
  5
3BA
330
3AE
100
AcDbEntity
  8
0
100
AcDbBlockEnd
  0
BLOCK
  5
3CD
330
3C3
100
AcDbEntity
  8
0
100
AcDbBlockBegin
  2
*D16
 70
     1
 71
     0
 10
0.0
 20
0.0
 30
0.0
  3
*D16
  1

  0
LINE
  5
3D0
330
3C3
100
AcDbEntity
  8
5
100
AcDbLine
 10
73.8751462143
 20
124.6435440724
 30
0.0
 11
68.565466993
 21
135.6897408046
 31
0.0
  0
LINE
  5
3D1
330
3C3
100
AcDbEntity
  8
5
100
AcDbLine
 10
65.300542989
 20
142.4820518578
 30
0.0
 11
64.607377115
 21
143.9241063197
 31
0.0
  0
LINE
  5
3D2
330
3C3
100
AcDbEntity
  8
5
100
AcDbLine
 10
65.993708863
 20
141.0399973959
 30
0.0
 11
67.872301119
 21
137.1317952665
 31
0.0
  0
MTEXT
  5
3D3
330
3C3
100
AcDbEntity
  8
5
100
AcDbMText
 10
72.6873078068
 20
135.5108852401
 30
0.2
 40
2.4
 41
0.0
 71
     1
 72
     1
  1
%%c
  7
SLDTEXTSTYLE2
 11
0.4332286712570701
 21
-0.9012840386919284
 31
0.0
 73
     1
 44
1.0
  0
MTEXT
  5
3D4
330
3C3
100
AcDbEntity
  8
5
100
AcDbMText
 10
74.6339486402
 20
131.4611156182
 30
0.2
 40
2.4
 41
0.0
 71
     1
 72
     1
  1
4.2
  7
SLDTEXTSTYLE2
 11
0.4332286712570701
 21
-0.9012840386919284
 31
0.0
 73
     1
 44
1.0
  0
SOLID
  5
3D5
330
3C3
100
AcDbEntity
  8
5
100
AcDbTrace
 10
65.5408853993
 20
142.5975795035
 30
0.0
 11
65.0602005787
 21
142.3665242122
 31
0.0
 12
65.993708863
 22
141.0399973959
 32
0.0
 13
65.993708863
 23
141.0399973959
 33
0.0
  0
SOLID
  5
3D6
330
3C3
100
AcDbEntity
  8
5
100
AcDbTrace
 10
68.8058094033
 20
135.8052684502
 30
0.0
 11
68.3251245827
 21
135.5742131589
 31
0.0
 12
67.872301119
 22
137.1317952665
 32
0.0
 13
67.872301119
 23
137.1317952665
 33
0.0
  0
ENDBLK
  5
3CE
330
3C3
100
AcDbEntity
  8
0
100
AcDbBlockEnd
  0
BLOCK
  5
3E3
330
3D8
100
AcDbEntity
  8
0
100
AcDbBlockBegin
  2
*D17
 70
     1
 71
     0
 10
0.0
 20
0.0
 30
0.0
  3
*D17
  1

  0
LINE
  5
3E5
330
3D8
100
AcDbEntity
  8
5
100
AcDbLine
 10
28.433004991
 20
144.8858963312
 30
0.0
 11
24.0687852817
 21
144.8858963312
 31
0.0
  0
LINE
  5
3E6
330
3D8
100
AcDbEntity
  8
5
100
AcDbLine
 10
28.433004991
 20
150.8858963312
 30
0.0
 11
24.0687852817
 21
150.8858963312
 31
0.0
  0
LINE
  5
3E7
330
3D8
100
AcDbEntity
  8
5
100
AcDbLine
 10
24.4687852817
 20
146.4858963312
 30
0.0
 11
24.4687852817
 21
149.2858963312
 31
0.0
  0
MTEXT
  5
3E8
330
3D8
100
AcDbEntity
  8
5
100
AcDbMText
 10
20.8313213048
 20
143.7436774633
 30
0.2
 40
2.4
 41
0.0
 71
     1
 72
     1
  1
%%c
  7
SLDTEXTSTYLE2
 11
6.123031769111886E-17
 21
1.0
 31
0.0
 73
     1
 44
1.0
  0
MTEXT
  5
3E9
330
3D8
100
AcDbEntity
  8
5
100
AcDbMText
 10
20.8313213048
 20
148.2370108056
 30
0.2
 40
2.4
 41
0.0
 71
     1
 72
     1
  1
6
  7
SLDTEXTSTYLE2
 11
6.123031769111886E-17
 21
1.0
 31
0.0
 73
     1
 44
1.0
  0
SOLID
  5
3EA
330
3D8
100
AcDbEntity
  8
5
100
AcDbTrace
 10
24.202118615
 20
146.4858963312
 30
0.0
 11
24.7354519484
 21
146.4858963312
 31
0.0
 12
24.4687852817
 22
144.8858963312
 32
0.0
 13
24.4687852817
 23
144.8858963312
 33
0.0
  0
SOLID
  5
3EB
330
3D8
100
AcDbEntity
  8
5
100
AcDbTrace
 10
24.202118615
 20
149.2858963312
 30
0.0
 11
24.7354519484
 21
149.2858963312
 31
0.0
 12
24.4687852817
 22
150.8858963312
 32
0.0
 13
24.4687852817
 23
150.8858963312
 33
0.0
  0
ENDBLK
  5
3E4
330
3D8
100
AcDbEntity
  8
0
100
AcDbBlockEnd
  0
BLOCK
  5
3EE
330
3ED
100
AcDbEntity
  8
0
100
AcDbBlockBegin
  2
SW_NOTE_0
 70
     0
 71
     0
 10
0.0
 20
0.0
 30
0.0
  3
SW_NOTE_0
  1

  0
MTEXT
  5
3F0
330
3ED
100
AcDbEntity
  8
0
  6
Continuous
 62
     7
370
     0
100
AcDbMText
 10
0.0
 20
4.9260606061
 30
0.0
 40
4.2333333333
 41
0.0
 71
     1
 72
     1
  1
プラスチックエジェクター
  7
SLDTEXTSTYLE0
 73
     1
 44
1.0
  0
MTEXT
  5
3F1
330
3ED
100
AcDbEntity
  8
0
  6
Continuous
 62
     7
370
     0
100
AcDbMText
 10
10.4103721678
 20
-0.7183837702
 30
0.0
 40
4.2333333333
 41
0.0
 71
     1
 72
     1
  1
ノズル　1.5ｍｍ
  7
SLDTEXTSTYLE0
 73
     1
 44
1.0
  0
ENDBLK
  5
3EF
330
3ED
100
AcDbEntity
  8
0
100
AcDbBlockEnd
  0
ENDSEC
  0
SECTION
  2
ENTITIES
  0
LINE
  5
42
330
1F
100
AcDbEntity
  8
SLD-0
100
AcDbLine
 10
124.2714259752
 20
154.6858963312
 30
0.0
 11
90.933004991
 21
154.6858963312
 31
0.0
  0
LINE
  5
43
330
1F
100
AcDbEntity
  8
SLD-0
100
AcDbLine
 10
90.933004991
 20
141.0858963312
 30
0.0
 11
124.2714259752
 21
141.0858963312
 31
0.0
  0
LINE
  5
44
330
1F
100
AcDbEntity
  8
SLD-0
100
AcDbLine
 10
86.433004991
 20
154.6858963312
 30
0.0
 11
85.933004991
 21
154.1858963312
 31
0.0
  0
LINE
  5
45
330
1F
100
AcDbEntity
  8
SLD-0
100
AcDbLine
 10
85.933004991
 20
141.5858963312
 30
0.0
 11
86.433004991
 21
141.0858963312
 31
0.0
  0
LINE
  5
46
330
1F
100
AcDbEntity
  8
SLD-0
100
AcDbLine
 10
90.933004991
 20
154.6858963312
 30
0.0
 11
86.433004991
 21
154.6858963312
 31
0.0
  0
LINE
  5
47
330
1F
100
AcDbEntity
  8
SLD-0
100
AcDbLine
 10
86.433004991
 20
141.0858963312
 30
0.0
 11
90.933004991
 21
141.0858963312
 31
0.0
  0
LINE
  5
48
330
1F
100
AcDbEntity
  8
SLD-0
100
AcDbLine
 10
63.333004991
 20
167.8858963312
 30
0.0
 11
63.333004991
 21
170.2858963312
 31
0.0
  0
LINE
  5
49
330
1F
100
AcDbEntity
  8
SLD-0
100
AcDbLine
 10
49.533004991
 20
170.2858963312
 30
0.0
 11
49.533004991
 21
167.8858963312
 31
0.0
  0
LINE
  5
4A
330
1F
100
AcDbEntity
  8
SLD-0
100
AcDbLine
 10
63.333004991
 20
172.9858963312
 30
0.0
 11
62.833004991
 21
173.4858963312
 31
0.0
  0
LINE
  5
4B
330
1F
100
AcDbEntity
  8
SLD-0
100
AcDbLine
 10
50.033004991
 20
173.4858963312
 30
0.0
 11
49.533004991
 21
172.9858963312
 31
0.0
  0
LINE
  5
4C
330
1F
100
AcDbEntity
  8
SLD-0
100
AcDbLine
 10
63.333004991
 20
171.4858963312
 30
0.0
 11
63.333004991
 21
172.9858963312
 31
0.0
  0
LINE
  5
4D
330
1F
100
AcDbEntity
  8
SLD-0
100
AcDbLine
 10
49.533004991
 20
172.9858963312
 30
0.0
 11
49.533004991
 21
171.4858963312
 31
0.0
  0
LINE
  5
4E
330
1F
100
AcDbEntity
  8
SLD-0
100
AcDbLine
 10
61.433004991
 20
170.2858963312
 30
0.0
 11
61.433004991
 21
171.4858963312
 31
0.0
  0
LINE
  5
4F
330
1F
100
AcDbEntity
  8
SLD-0
100
AcDbLine
 10
51.433004991
 20
171.4858963312
 30
0.0
 11
51.433004991
 21
170.2858963312
 31
0.0
  0
LINE
  5
50
330
1F
100
AcDbEntity
  8
SLD-0
100
AcDbLine
 10
29.233004991
 20
141.9858963312
 30
0.0
 11
30.733004991
 21
141.9858963312
 31
0.0
  0
LINE
  5
51
330
1F
100
AcDbEntity
  8
SLD-0
100
AcDbLine
 10
30.733004991
 20
153.7858963312
 30
0.0
 11
29.233004991
 21
153.7858963312
 31
0.0
  0
LINE
  5
52
330
1F
100
AcDbEntity
  8
SLD-0
100
AcDbLine
 10
32.033004991
 20
141.9858963312
 30
0.0
 11
34.433004991
 21
141.9858963312
 31
0.0
  0
LINE
  5
53
330
1F
100
AcDbEntity
  8
SLD-0
100
AcDbLine
 10
34.433004991
 20
153.7858963312
 30
0.0
 11
32.033004991
 21
153.7858963312
 31
0.0
  0
LINE
  5
54
330
1F
100
AcDbEntity
  8
SLD-0
100
AcDbLine
 10
30.733004991
 20
143.7358963312
 30
0.0
 11
32.033004991
 21
143.7358963312
 31
0.0
  0
LINE
  5
55
330
1F
100
AcDbEntity
  8
SLD-0
100
AcDbLine
 10
32.033004991
 20
152.0358963312
 30
0.0
 11
30.733004991
 21
152.0358963312
 31
0.0
  0
LINE
  5
56
330
1F
100
AcDbEntity
  8
SLD-0
100
AcDbLine
 10
79.8330049663
 20
140.3858964522
 30
0.0
 11
85.5330049665
 21
140.3858964522
 31
0.0
  0
LINE
  5
57
330
1F
100
AcDbEntity
  8
SLD-0
100
AcDbLine
 10
85.5330049665
 20
155.3858964522
 30
0.0
 11
80.6330125821
 21
155.3858964522
 31
0.0
  0
LINE
  5
58
330
1F
100
AcDbEntity
  8
SLD-0
100
AcDbLine
 10
37.7329974987
 20
155.3859008014
 30
0.0
 11
34.8330051146
 21
155.3859008014
 31
0.0
  0
LINE
  5
59
330
1F
100
AcDbEntity
  8
SLD-0
100
AcDbLine
 10
48.2330049912
 20
155.1858963312
 30
0.0
 11
47.1330126069
 21
155.1858963312
 31
0.0
  0
LINE
  5
5A
330
1F
100
AcDbEntity
  8
SLD-0
100
AcDbLine
 10
66.9329972267
 20
155.1858964519
 30
0.0
 11
64.5675353854
 21
155.1858964519
 31
0.0
  0
LINE
  5
5B
330
1F
100
AcDbEntity
  8
SLD-0
100
AcDbLine
 10
41.7329973751
 20
155.1858963312
 30
0.0
 11
39.1330126069
 21
155.1858963312
 31
0.0
  0
LINE
  5
5C
330
1F
100
AcDbEntity
  8
SLD-0
100
AcDbLine
 10
45.7329973751
 20
155.1858963312
 30
0.0
 11
43.1330126069
 21
155.1858963312
 31
0.0
  0
LINE
  5
5D
330
1F
100
AcDbEntity
  8
SLD-0
100
AcDbLine
 10
49.2330049912
 20
167.3030536187
 30
0.0
 11
49.2330049912
 21
156.1858963312
 31
0.0
  0
LINE
  5
5E
330
1F
100
AcDbEntity
  8
SLD-0
100
AcDbLine
 10
63.633004991
 20
156.1780897732
 30
0.0
 11
63.633004991
 21
167.3030536187
 31
0.0
  0
LINE
  5
5F
330
1F
100
AcDbEntity
  8
SLD-0
100
AcDbLine
 10
71.0329972268
 20
155.185896452
 30
0.0
 11
68.3330124581
 21
155.185896452
 31
0.0
  0
LINE
  5
60
330
1F
100
AcDbEntity
  8
SLD-0
100
AcDbLine
 10
63.5744263472
 20
167.4444749749
 30
0.0
 11
63.1915836348
 21
167.8273176873
 31
0.0
  0
LINE
  5
61
330
1F
100
AcDbEntity
  8
SLD-0
100
AcDbLine
 10
49.6744263472
 20
167.8273176873
 30
0.0
 11
49.2915836348
 21
167.4444749749
 31
0.0
  0
LINE
  5
62
330
1F
100
AcDbEntity
  8
SLD-0
100
AcDbLine
 10
75.132997227
 20
155.185896452
 30
0.0
 11
72.4330124583
 21
155.185896452
 31
0.0
  0
LINE
  5
63
330
1F
100
AcDbEntity
  8
SLD-0
100
AcDbLine
 10
46.9330049912
 20
154.7858963313
 30
0.0
 11
45.9330049909
 21
154.7858963313
 31
0.0
  0
LINE
  5
64
330
1F
100
AcDbEntity
  8
SLD-0
100
AcDbLine
 10
42.9330049912
 20
154.7858963313
 30
0.0
 11
41.9330049909
 21
154.7858963313
 31
0.0
  0
LINE
  5
65
330
1F
100
AcDbEntity
  8
SLD-0
100
AcDbLine
 10
38.9330049912
 20
154.7858963311
 30
0.0
 11
37.9330051145
 21
154.7858963311
 31
0.0
  0
LINE
  5
66
330
1F
100
AcDbEntity
  8
SLD-0
100
AcDbLine
 10
68.1330048424
 20
154.785896452
 30
0.0
 11
67.1330048424
 21
154.785896452
 31
0.0
  0
LINE
  5
67
330
1F
100
AcDbEntity
  8
SLD-0
100
AcDbLine
 10
79.2329972271
 20
155.1858964521
 30
0.0
 11
76.5330124584
 21
155.1858964521
 31
0.0
  0
LINE
  5
68
330
1F
100
AcDbEntity
  8
SLD-0
100
AcDbLine
 10
72.2330048426
 20
154.785896452
 30
0.0
 11
71.2330048426
 21
154.785896452
 31
0.0
  0
LINE
  5
69
330
1F
100
AcDbEntity
  8
SLD-0
100
AcDbLine
 10
76.3330048427
 20
154.7858964521
 30
0.0
 11
75.3330048427
 21
154.7858964521
 31
0.0
  0
LINE
  5
6A
330
1F
100
AcDbEntity
  8
SLD-0
100
AcDbLine
 10
47.6803149299
 20
141.0458963312
 30
0.0
 11
47.6808301332
 21
141.0458963312
 31
0.0
  0
LINE
  5
6B
330
1F
100
AcDbEntity
  8
SLD-0
100
AcDbLine
 10
46.1851798488
 20
141.0458963312
 30
0.0
 11
46.2072922125
 21
141.0458963312
 31
0.0
  0
LINE
  5
6C
330
1F
100
AcDbEntity
  8
SLD-0
100
AcDbLine
 10
80.4330048429
 20
154.7858964522
 30
0.0
 11
79.4330048429
 21
154.7858964522
 31
0.0
  0
LINE
  5
6D
330
1F
100
AcDbEntity
  8
SLD-0
100
AcDbLine
 10
90.933004991
 20
154.6858963312
 30
0.0
 11
90.933004991
 21
141.0858963312
 31
0.0
  0
LINE
  5
6E
330
1F
100
AcDbEntity
  8
SLD-0
100
AcDbLine
 10
125.9766756661
 20
146.3858963312
 30
0.0
 11
125.9766756661
 21
149.3858963312
 31
0.0
  0
LINE
  5
6F
330
1F
100
AcDbEntity
  8
SLD-0
100
AcDbLine
 10
86.433004991
 20
154.6858963312
 30
0.0
 11
86.433004991
 21
141.0858963312
 31
0.0
  0
LINE
  5
70
330
1F
100
AcDbEntity
  8
SLD-0
100
AcDbLine
 10
90.933004991
 20
154.6858963312
 30
0.0
 11
90.933004991
 21
141.0858963312
 31
0.0
  0
LINE
  5
71
330
1F
100
AcDbEntity
  8
SLD-0
100
AcDbLine
 10
63.333004991
 20
170.2858963312
 30
0.0
 11
49.533004991
 21
170.2858963312
 31
0.0
  0
LINE
  5
72
330
1F
100
AcDbEntity
  8
SLD-0
100
AcDbLine
 10
63.333004991
 20
167.8858963312
 30
0.0
 11
49.533004991
 21
167.8858963312
 31
0.0
  0
LINE
  5
73
330
1F
100
AcDbEntity
  8
SLD-0
100
AcDbLine
 10
57.4986195891
 20
172.9858963312
 30
0.0
 11
49.533004991
 21
172.9858963312
 31
0.0
  0
LINE
  5
74
330
1F
100
AcDbEntity
  8
SLD-0
100
AcDbLine
 10
63.333004991
 20
172.9858963312
 30
0.0
 11
57.4986195891
 21
172.9858963312
 31
0.0
  0
LINE
  5
75
330
1F
100
AcDbEntity
  8
SLD-0
100
AcDbLine
 10
57.42140114
 20
173.4858963312
 30
0.0
 11
62.833004991
 21
173.4858963312
 31
0.0
  0
LINE
  5
76
330
1F
100
AcDbEntity
  8
SLD-0
100
AcDbLine
 10
50.033004991
 20
173.4858963312
 30
0.0
 11
57.42140114
 21
173.4858963312
 31
0.0
  0
LINE
  5
77
330
1F
100
AcDbEntity
  8
SLD-0
100
AcDbLine
 10
63.333004991
 20
171.4858963312
 30
0.0
 11
49.533004991
 21
171.4858963312
 31
0.0
  0
LINE
  5
78
330
1F
100
AcDbEntity
  8
SLD-0
100
AcDbLine
 10
30.733004991
 20
141.9858963312
 30
0.0
 11
30.733004991
 21
153.7858963312
 31
0.0
  0
LINE
  5
79
330
1F
100
AcDbEntity
  8
SLD-0
100
AcDbLine
 10
29.233004991
 20
141.9858963312
 30
0.0
 11
29.233004991
 21
153.7858963312
 31
0.0
  0
LINE
  5
7A
330
1F
100
AcDbEntity
  8
SLD-0
100
AcDbLine
 10
32.033004991
 20
141.9858963312
 30
0.0
 11
32.033004991
 21
153.7858963312
 31
0.0
  0
LINE
  5
7B
330
1F
100
AcDbEntity
  8
SLD-0
100
AcDbLine
 10
79.8330049663
 20
144.5971923872
 30
0.0
 11
79.7549688375
 21
144.5938221724
 31
0.0
  0
LINE
  5
7C
330
1F
100
AcDbEntity
  8
SLD-0
100
AcDbLine
 10
79.7549688375
 20
144.5938221724
 30
0.0
 11
79.6799315933
 21
144.5838410437
 31
0.0
  0
LINE
  5
7D
330
1F
100
AcDbEntity
  8
SLD-0
100
AcDbLine
 10
79.6799315933
 20
144.5838410437
 30
0.0
 11
79.6107768731
 21
144.56763257
 31
0.0
  0
LINE
  5
7E
330
1F
100
AcDbEntity
  8
SLD-0
100
AcDbLine
 10
79.6107768731
 20
144.56763257
 30
0.0
 11
79.5501622538
 21
144.5458196341
 31
0.0
  0
LINE
  5
7F
330
1F
100
AcDbEntity
  8
SLD-0
100
AcDbLine
 10
79.5501622538
 20
144.5458196341
 30
0.0
 11
79.5004171213
 21
144.5192404948
 31
0.0
  0
LINE
  5
80
330
1F
100
AcDbEntity
  8
SLD-0
100
AcDbLine
 10
79.5004171213
 20
144.5192404948
 30
0.0
 11
79.4634531533
 21
144.4889165735
 31
0.0
  0
LINE
  5
81
330
1F
100
AcDbEntity
  8
SLD-0
100
AcDbLine
 10
79.4634531533
 20
144.4889165735
 30
0.0
 11
79.4406908541
 21
144.4560132016
 31
0.0
  0
LINE
  5
82
330
1F
100
AcDbEntity
  8
SLD-0
100
AcDbLine
 10
79.4406908541
 20
144.4560132016
 30
0.0
 11
79.4330049663
 21
144.421794837
 31
0.0
  0
LINE
  5
83
330
1F
100
AcDbEntity
  8
SLD-0
100
AcDbLine
 10
79.4330049663
 20
144.421794837
 30
0.0
 11
79.4330049663
 21
133.8858963311
 31
0.0
  0
LINE
  5
84
330
1F
100
AcDbEntity
  8
SLD-0
100
AcDbLine
 10
79.4330049663
 20
133.8858963311
 30
0.0
 11
79.0330049663
 21
133.8858963311
 31
0.0
  0
LINE
  5
85
330
1F
100
AcDbEntity
  8
SLD-0
100
AcDbLine
 10
79.0330049663
 20
133.8858963311
 30
0.0
 11
79.0330049663
 21
147.8858964522
 31
0.0
  0
LINE
  5
86
330
1F
100
AcDbEntity
  8
SLD-0
100
AcDbLine
 10
62.9805712031
 20
148.081881272
 30
0.0
 11
80.1686579098
 21
151.5788370352
 31
0.0
  0
LINE
  5
87
330
1F
100
AcDbEntity
  8
SLD-0
100
AcDbLine
 10
80.2085314721
 20
151.4786592225
 30
0.0
 11
63.0204447654
 21
147.8858964522
 31
0.0
  0
LINE
  5
88
330
1F
100
AcDbEntity
  8
SLD-0
100
AcDbLine
 10
62.9805712031
 20
148.081881272
 30
0.0
 11
63.0204447654
 21
147.8858964522
 31
0.0
  0
LINE
  5
89
330
1F
100
AcDbEntity
  8
SLD-0
100
AcDbLine
 10
79.0330049663
 20
147.8858964522
 30
0.0
 11
63.0204447654
 21
147.8858964522
 31
0.0
  0
LINE
  5
8A
330
1F
100
AcDbEntity
  8
SLD-0
100
AcDbLine
 10
34.8330051146
 20
147.8858963311
 30
0.0
 11
34.8330051146
 21
133.8858963311
 31
0.0
  0
LINE
  5
8B
330
1F
100
AcDbEntity
  8
SLD-0
100
AcDbLine
 10
37.669291364
 20
147.8858963311
 30
0.0
 11
34.8330051146
 21
147.8858963311
 31
0.0
  0
LINE
  5
8C
330
1F
100
AcDbEntity
  8
SLD-0
100
AcDbLine
 10
37.669291364
 20
143.4625045214
 30
0.0
 11
37.669291364
 21
147.8858963311
 31
0.0
  0
LINE
  5
8D
330
1F
100
AcDbEntity
  8
SLD-0
100
AcDbLine
 10
63.0204447654
 20
147.8858964522
 30
0.0
 11
38.3889348234
 21
142.8745591162
 31
0.0
  0
LINE
  5
8E
330
1F
100
AcDbEntity
  8
SLD-0
100
AcDbLine
 10
34.8330051146
 20
133.8858963311
 30
0.0
 11
79.0330049663
 21
133.8858963311
 31
0.0
  0
LINE
  5
8F
330
1F
100
AcDbEntity
  8
SLD-0
100
AcDbLine
 10
38.3490612612
 20
143.070543936
 30
0.0
 11
39.194973368
 21
143.2426466993
 31
0.0
  0
LINE
  5
90
330
1F
100
AcDbEntity
  8
SLD-0
100
AcDbLine
 10
39.194973368
 20
143.2426466993
 30
0.0
 11
41.671036614
 21
143.7464074602
 31
0.0
  0
LINE
  5
91
330
1F
100
AcDbEntity
  8
SLD-0
100
AcDbLine
 10
41.671036614
 20
143.7464074602
 30
0.0
 11
43.194973368
 21
144.056455897
 31
0.0
  0
LINE
  5
92
330
1F
100
AcDbEntity
  8
SLD-0
100
AcDbLine
 10
43.194973368
 20
144.056455897
 30
0.0
 11
45.671036614
 21
144.5602166579
 31
0.0
  0
LINE
  5
93
330
1F
100
AcDbEntity
  8
SLD-0
100
AcDbLine
 10
45.671036614
 20
144.5602166579
 30
0.0
 11
47.194973368
 21
144.8702650947
 31
0.0
  0
LINE
  5
94
330
1F
100
AcDbEntity
  8
SLD-0
100
AcDbLine
 10
47.194973368
 20
144.8702650947
 30
0.0
 11
49.771036614
 21
145.3943710855
 31
0.0
  0
LINE
  5
95
330
1F
100
AcDbEntity
  8
SLD-0
100
AcDbLine
 10
49.771036614
 20
145.3943710855
 30
0.0
 11
51.294973368
 21
145.7044195223
 31
0.0
  0
LINE
  5
96
330
1F
100
AcDbEntity
  8
SLD-0
100
AcDbLine
 10
51.294973368
 20
145.7044195223
 30
0.0
 11
53.871036614
 21
146.2285255132
 31
0.0
  0
LINE
  5
97
330
1F
100
AcDbEntity
  8
SLD-0
100
AcDbLine
 10
53.871036614
 20
146.2285255132
 30
0.0
 11
55.394973368
 21
146.5385739499
 31
0.0
  0
LINE
  5
98
330
1F
100
AcDbEntity
  8
SLD-0
100
AcDbLine
 10
55.394973368
 20
146.5385739499
 30
0.0
 11
58.671036614
 21
147.2050965504
 31
0.0
  0
LINE
  5
99
330
1F
100
AcDbEntity
  8
SLD-0
100
AcDbLine
 10
58.671036614
 20
147.2050965504
 30
0.0
 11
60.194973368
 21
147.5151449872
 31
0.0
  0
LINE
  5
9A
330
1F
100
AcDbEntity
  8
SLD-0
100
AcDbLine
 10
60.194973368
 20
147.5151449872
 30
0.0
 11
62.0172744432
 21
147.8858963312
 31
0.0
  0
LINE
  5
9B
330
1F
100
AcDbEntity
  8
SLD-0
100
AcDbLine
 10
62.0172744432
 20
147.8858963312
 30
0.0
 11
62.9805712031
 21
148.081881272
 31
0.0
  0
LINE
  5
9C
330
1F
100
AcDbEntity
  8
SLD-0
100
AcDbLine
 10
38.3490612612
 20
143.070543936
 30
0.0
 11
38.3889348234
 21
142.8745591162
 31
0.0
  0
LINE
  5
9D
330
1F
100
AcDbEntity
  8
SLD-0
100
AcDbLine
 10
34.8330051146
 20
147.8858963311
 30
0.0
 11
34.4330051146
 21
147.8858963311
 31
0.0
  0
LINE
  5
9E
330
1F
100
AcDbEntity
  8
SLD-0
100
AcDbLine
 10
34.4330051146
 20
147.8858963311
 30
0.0
 11
34.4330051146
 21
154.9859008014
 31
0.0
  0
LINE
  5
9F
330
1F
100
AcDbEntity
  8
SLD-0
100
AcDbLine
 10
85.9330049665
 20
147.8858964522
 30
0.0
 11
85.9330049665
 21
140.7858964522
 31
0.0
  0
LINE
  5
A0
330
1F
100
AcDbEntity
  8
SLD-0
100
AcDbLine
 10
85.9330049665
 20
154.9858964522
 30
0.0
 11
85.9330049665
 21
147.8858964522
 31
0.0
  0
LINE
  5
A1
330
1F
100
AcDbEntity
  8
SLD-0
100
AcDbLine
 10
37.669291364
 20
147.8858963311
 30
0.0
 11
37.869283625
 21
147.8858963311
 31
0.0
  0
LINE
  5
A2
330
1F
100
AcDbEntity
  8
SLD-0
100
AcDbLine
 10
37.869283625
 20
147.8858963311
 30
0.0
 11
37.869283625
 21
143.4625045214
 31
0.0
  0
LINE
  5
A3
330
1F
100
AcDbEntity
  8
SLD-0
100
AcDbLine
 10
37.669291364
 20
143.4625045214
 30
0.0
 11
37.869283625
 21
143.4625045214
 31
0.0
  0
LINE
  5
A4
330
1F
100
AcDbEntity
  8
SLD-0
100
AcDbLine
 10
34.4330051146
 20
133.8858963311
 30
0.0
 11
34.4330051146
 21
147.8858963311
 31
0.0
  0
LINE
  5
A5
330
1F
100
AcDbEntity
  8
SLD-0
100
AcDbLine
 10
34.8330051146
 20
133.8858963311
 30
0.0
 11
34.4330051146
 21
133.8858963311
 31
0.0
  0
LINE
  5
A6
330
1F
100
AcDbEntity
  8
SLD-0
100
AcDbLine
 10
57.2458255038
 20
158.8666655619
 30
0.0
 11
57.2458255038
 21
158.3858963311
 31
0.0
  0
LINE
  5
A7
330
1F
100
AcDbEntity
  8
SLD-0
100
AcDbLine
 10
56.156081914
 20
160.0846142799
 30
0.0
 11
55.6753126833
 21
160.1316896004
 31
0.0
  0
LINE
  5
A8
330
1F
100
AcDbEntity
  8
SLD-0
100
AcDbLine
 10
56.3168391255
 20
158.8666655619
 30
0.0
 11
57.2458255038
 21
158.8666655619
 31
0.0
  0
LINE
  5
A9
330
1F
100
AcDbEntity
  8
SLD-0
100
AcDbLine
 10
57.2458255038
 20
158.3858963311
 30
0.0
 11
55.6112101192
 21
158.3858963311
 31
0.0
  0
LINE
  5
AA
330
1F
100
AcDbEntity
  8
SLD-0
100
AcDbLine
 10
56.4685819141
 20
160.4692296645
 30
0.0
 11
56.3384444806
 21
160.4444440501
 31
0.0
  0
LINE
  5
AB
330
1F
100
AcDbEntity
  8
SLD-0
100
AcDbLine
 10
56.3384444806
 20
160.4444440501
 30
0.0
 11
56.265694299
 21
160.3963733763
 31
0.0
  0
LINE
  5
AC
330
1F
100
AcDbEntity
  8
SLD-0
100
AcDbLine
 10
56.265694299
 20
160.3963733763
 30
0.0
 11
56.2128445658
 21
160.3269646612
 31
0.0
  0
LINE
  5
AD
330
1F
100
AcDbEntity
  8
SLD-0
100
AcDbLine
 10
56.2128445658
 20
160.3269646612
 30
0.0
 11
56.1701708145
 21
160.2002226221
 31
0.0
  0
LINE
  5
AE
330
1F
100
AcDbEntity
  8
SLD-0
100
AcDbLine
 10
56.1701708145
 20
160.2002226221
 30
0.0
 11
56.156081914
 21
160.0846142799
 31
0.0
  0
LINE
  5
AF
330
1F
100
AcDbEntity
  8
SLD-0
100
AcDbLine
 10
37.869283625
 20
143.4625045214
 30
0.0
 11
37.8727896032
 21
143.4632178207
 31
0.0
  0
LINE
  5
B0
330
1F
100
AcDbEntity
  8
SLD-0
100
AcDbLine
 10
37.9330051145
 20
155.1858961191
 30
0.0
 11
37.9330051145
 21
154.7858963311
 31
0.0
  0
LINE
  5
B1
330
1F
100
AcDbEntity
  8
SLD-0
100
AcDbLine
 10
37.8727896032
 20
143.4632178207
 30
0.0
 11
37.8727896032
 21
147.8858963311
 31
0.0
  0
LINE
  5
B2
330
1F
100
AcDbEntity
  8
SLD-0
100
AcDbLine
 10
41.671036614
 20
143.7464074602
 30
0.0
 11
41.671036614
 21
147.8858963312
 31
0.0
  0
LINE
  5
B3
330
1F
100
AcDbEntity
  8
SLD-0
100
AcDbLine
 10
41.671036614
 20
147.8858963312
 30
0.0
 11
41.8710288715
 21
147.8858963312
 31
0.0
  0
LINE
  5
B4
330
1F
100
AcDbEntity
  8
SLD-0
100
AcDbLine
 10
41.8710288715
 20
147.8858963312
 30
0.0
 11
41.8710288715
 21
143.7870963707
 31
0.0
  0
LINE
  5
B5
330
1F
100
AcDbEntity
  8
SLD-0
100
AcDbLine
 10
59.9949809834
 20
147.4744560767
 30
0.0
 11
59.9949809834
 21
147.8858963312
 31
0.0
  0
LINE
  5
B6
330
1F
100
AcDbEntity
  8
SLD-0
100
AcDbLine
 10
60.1949733678
 20
147.8858963312
 30
0.0
 11
59.9949809834
 21
147.8858963312
 31
0.0
  0
LINE
  5
B7
330
1F
100
AcDbEntity
  8
SLD-0
100
AcDbLine
 10
60.1949733678
 20
147.8858963312
 30
0.0
 11
60.194973368
 21
147.5151449872
 31
0.0
  0
LINE
  5
B8
330
1F
100
AcDbEntity
  8
SLD-0
100
AcDbLine
 10
55.1949809834
 20
146.4978850394
 30
0.0
 11
55.1949809834
 21
147.8858963312
 31
0.0
  0
LINE
  5
B9
330
1F
100
AcDbEntity
  8
SLD-0
100
AcDbLine
 10
55.1949809834
 20
147.8858963312
 30
0.0
 11
55.3949733678
 21
147.8858963312
 31
0.0
  0
LINE
  5
BA
330
1F
100
AcDbEntity
  8
SLD-0
100
AcDbLine
 10
55.3949733678
 20
147.8858963312
 30
0.0
 11
55.394973368
 21
146.5385739499
 31
0.0
  0
LINE
  5
BB
330
1F
100
AcDbEntity
  8
SLD-0
100
AcDbLine
 10
42.9949809836
 20
147.8858963312
 30
0.0
 11
43.194973368
 21
147.8858963312
 31
0.0
  0
LINE
  5
BC
330
1F
100
AcDbEntity
  8
SLD-0
100
AcDbLine
 10
49.771036614
 20
145.3943710855
 30
0.0
 11
49.771036614
 21
147.8858963312
 31
0.0
  0
LINE
  5
BD
330
1F
100
AcDbEntity
  8
SLD-0
100
AcDbLine
 10
49.771036614
 20
147.8858963312
 30
0.0
 11
49.9710289986
 21
147.8858963312
 31
0.0
  0
LINE
  5
BE
330
1F
100
AcDbEntity
  8
SLD-0
100
AcDbLine
 10
49.9710289986
 20
147.8858963312
 30
0.0
 11
49.9710289986
 21
145.435059996
 31
0.0
  0
LINE
  5
BF
330
1F
100
AcDbEntity
  8
SLD-0
100
AcDbLine
 10
42.9949809836
 20
144.0157669864
 30
0.0
 11
42.9949809836
 21
147.8858963312
 31
0.0
  0
LINE
  5
C0
330
1F
100
AcDbEntity
  8
SLD-0
100
AcDbLine
 10
43.194973368
 20
147.8858963312
 30
0.0
 11
43.194973368
 21
144.056455897
 31
0.0
  0
LINE
  5
C1
330
1F
100
AcDbEntity
  8
SLD-0
100
AcDbLine
 10
55.3949733678
 20
147.8858963312
 30
0.0
 11
58.671036614
 21
147.8858963312
 31
0.0
  0
LINE
  5
C2
330
1F
100
AcDbEntity
  8
SLD-0
100
AcDbLine
 10
58.671036614
 20
147.2050965504
 30
0.0
 11
58.671036614
 21
147.8858963312
 31
0.0
  0
LINE
  5
C3
330
1F
100
AcDbEntity
  8
SLD-0
100
AcDbLine
 10
51.294973368
 20
147.8858963312
 30
0.0
 11
51.294973368
 21
145.7044195223
 31
0.0
  0
LINE
  5
C4
330
1F
100
AcDbEntity
  8
SLD-0
100
AcDbLine
 10
51.294973368
 20
147.8858963312
 30
0.0
 11
53.871036614
 21
147.8858963312
 31
0.0
  0
LINE
  5
C5
330
1F
100
AcDbEntity
  8
SLD-0
100
AcDbLine
 10
53.871036614
 20
146.2285255132
 30
0.0
 11
53.871036614
 21
147.8858963312
 31
0.0
  0
LINE
  5
C6
330
1F
100
AcDbEntity
  8
SLD-0
100
AcDbLine
 10
38.9949809836
 20
147.8858963312
 30
0.0
 11
39.194973368
 21
147.8858963312
 31
0.0
  0
LINE
  5
C7
330
1F
100
AcDbEntity
  8
SLD-0
100
AcDbLine
 10
46.9949809836
 20
144.8295761841
 30
0.0
 11
46.9949809836
 21
147.8858963312
 31
0.0
  0
LINE
  5
C8
330
1F
100
AcDbEntity
  8
SLD-0
100
AcDbLine
 10
46.9949809836
 20
147.8858963312
 30
0.0
 11
47.194973368
 21
147.8858963312
 31
0.0
  0
LINE
  5
C9
330
1F
100
AcDbEntity
  8
SLD-0
100
AcDbLine
 10
47.194973368
 20
147.8858963312
 30
0.0
 11
47.194973368
 21
144.8702650947
 31
0.0
  0
LINE
  5
CA
330
1F
100
AcDbEntity
  8
SLD-0
100
AcDbLine
 10
51.0949809835
 20
147.8858963312
 30
0.0
 11
51.294973368
 21
147.8858963312
 31
0.0
  0
LINE
  5
CB
330
1F
100
AcDbEntity
  8
SLD-0
100
AcDbLine
 10
53.871036614
 20
147.8858963312
 30
0.0
 11
54.0710289986
 21
147.8858963312
 31
0.0
  0
LINE
  5
CC
330
1F
100
AcDbEntity
  8
SLD-0
100
AcDbLine
 10
54.0710289986
 20
147.8858963312
 30
0.0
 11
54.0710289986
 21
146.2692144237
 31
0.0
  0
LINE
  5
CD
330
1F
100
AcDbEntity
  8
SLD-0
100
AcDbLine
 10
60.1949733678
 20
147.8858963312
 30
0.0
 11
62.0172744432
 21
147.8858963312
 31
0.0
  0
LINE
  5
CE
330
1F
100
AcDbEntity
  8
SLD-0
100
AcDbLine
 10
58.671036614
 20
147.8858963312
 30
0.0
 11
58.8710289987
 21
147.8858963312
 31
0.0
  0
LINE
  5
CF
330
1F
100
AcDbEntity
  8
SLD-0
100
AcDbLine
 10
58.8710289987
 20
147.8858963312
 30
0.0
 11
58.8710289987
 21
147.2457854609
 31
0.0
  0
LINE
  5
D0
330
1F
100
AcDbEntity
  8
SLD-0
100
AcDbLine
 10
47.194973368
 20
147.8858963312
 30
0.0
 11
49.771036614
 21
147.8858963312
 31
0.0
  0
LINE
  5
D1
330
1F
100
AcDbEntity
  8
SLD-0
100
AcDbLine
 10
45.671036614
 20
147.8858963312
 30
0.0
 11
43.194973368
 21
147.8858963312
 31
0.0
  0
LINE
  5
D2
330
1F
100
AcDbEntity
  8
SLD-0
100
AcDbLine
 10
45.671036614
 20
144.5602166579
 30
0.0
 11
45.671036614
 21
147.8858963312
 31
0.0
  0
LINE
  5
D3
330
1F
100
AcDbEntity
  8
SLD-0
100
AcDbLine
 10
62.7847412207
 20
152.4648213193
 30
0.0
 11
64.2700607638
 21
153.7372026709
 31
0.0
  0
LINE
  5
D4
330
1F
100
AcDbEntity
  8
SLD-0
100
AcDbLine
 10
58.6721884913
 20
149.2869498262
 30
0.0
 11
60.1912803862
 21
150.3684490387
 31
0.0
  0
LINE
  5
D5
330
1F
100
AcDbEntity
  8
SLD-0
100
AcDbLine
 10
53.8722546125
 20
149.3262130961
 30
0.0
 11
55.394565369
 21
148.7222554787
 31
0.0
  0
LINE
  5
D6
330
1F
100
AcDbEntity
  8
SLD-0
100
AcDbLine
 10
49.7840041428
 20
152.3548535392
 30
0.0
 11
51.2889946474
 21
151.0144669489
 31
0.0
  0
LINE
  5
D7
330
1F
100
AcDbEntity
  8
SLD-0
100
AcDbLine
 10
38.9949809836
 20
143.2019577888
 30
0.0
 11
38.9949809836
 21
147.8858963312
 31
0.0
  0
LINE
  5
D8
330
1F
100
AcDbEntity
  8
SLD-0
100
AcDbLine
 10
39.194973368
 20
147.8858963312
 30
0.0
 11
39.194973368
 21
143.2426466993
 31
0.0
  0
LINE
  5
D9
330
1F
100
AcDbEntity
  8
SLD-0
100
AcDbLine
 10
45.671036614
 20
147.8858963312
 30
0.0
 11
45.8710288715
 21
147.8858963312
 31
0.0
  0
LINE
  5
DA
330
1F
100
AcDbEntity
  8
SLD-0
100
AcDbLine
 10
45.8710288715
 20
147.8858963312
 30
0.0
 11
45.8710288715
 21
144.6009055684
 31
0.0
  0
LINE
  5
DB
330
1F
100
AcDbEntity
  8
SLD-0
100
AcDbLine
 10
41.671036614
 20
147.8858963312
 30
0.0
 11
39.194973368
 21
147.8858963312
 31
0.0
  0
LINE
  5
DC
330
1F
100
AcDbEntity
  8
SLD-0
100
AcDbLine
 10
51.0949809835
 20
145.6637306118
 30
0.0
 11
51.0949809835
 21
147.8858963312
 31
0.0
  0
LINE
  5
DD
330
1F
100
AcDbEntity
  8
SLD-0
100
AcDbLine
 10
54.072085157
 20
148.9952712246
 30
0.0
 11
54.0717943321
 21
148.9983837255
 31
0.0
  0
LINE
  5
DE
330
1F
100
AcDbEntity
  8
SLD-0
100
AcDbLine
 10
55.194698255
 20
148.5633875766
 30
0.0
 11
55.1945064882
 21
148.5621648785
 31
0.0
  0
LINE
  5
DF
330
1F
100
AcDbEntity
  8
SLD-0
100
AcDbLine
 10
55.1945064882
 20
148.5621648785
 30
0.0
 11
54.072085157
 21
148.9952712246
 31
0.0
  0
LINE
  5
E0
330
1F
100
AcDbEntity
  8
SLD-0
100
AcDbLine
 10
58.8723003613
 20
149.1438624527
 30
0.0
 11
58.872014149
 21
149.1469484689
 31
0.0
  0
LINE
  5
E1
330
1F
100
AcDbEntity
  8
SLD-0
100
AcDbLine
 10
59.9923644524
 20
149.9273704807
 30
0.0
 11
59.9919228528
 21
149.9191258209
 31
0.0
  0
LINE
  5
E2
330
1F
100
AcDbEntity
  8
SLD-0
100
AcDbLine
 10
59.9919228528
 20
149.9191258209
 30
0.0
 11
58.8723003613
 21
149.1438624527
 31
0.0
  0
LINE
  5
E3
330
1F
100
AcDbEntity
  8
SLD-0
100
AcDbLine
 10
46.993220379
 20
144.8292179852
 30
0.0
 11
46.993220379
 21
147.8858963313
 31
0.0
  0
LINE
  5
E4
330
1F
100
AcDbEntity
  8
SLD-0
100
AcDbLine
 10
46.9330049912
 20
154.9858961167
 30
0.0
 11
46.9330049912
 21
154.7858963313
 31
0.0
  0
LINE
  5
E5
330
1F
100
AcDbEntity
  8
SLD-0
100
AcDbLine
 10
38.993220379
 20
143.2015995896
 30
0.0
 11
38.993220379
 21
147.8858963311
 31
0.0
  0
LINE
  5
E6
330
1F
100
AcDbEntity
  8
SLD-0
100
AcDbLine
 10
38.9330049912
 20
154.9858961167
 30
0.0
 11
38.9330049912
 21
154.7858963311
 31
0.0
  0
LINE
  5
E7
330
1F
100
AcDbEntity
  8
SLD-0
100
AcDbLine
 10
41.8727896031
 20
143.7874545699
 30
0.0
 11
41.8727896031
 21
147.8858963313
 31
0.0
  0
LINE
  5
E8
330
1F
100
AcDbEntity
  8
SLD-0
100
AcDbLine
 10
41.9330049909
 20
154.7858963313
 30
0.0
 11
41.9330049909
 21
154.9858916455
 31
0.0
  0
LINE
  5
E9
330
1F
100
AcDbEntity
  8
SLD-0
100
AcDbLine
 10
49.9727896033
 20
145.4354181951
 30
0.0
 11
49.9727896033
 21
147.8858963312
 31
0.0
  0
LINE
  5
EA
330
1F
100
AcDbEntity
  8
SLD-0
100
AcDbLine
 10
49.9821827999
 20
151.796147067
 30
0.0
 11
49.9817438335
 21
151.8043006651
 31
0.0
  0
LINE
  5
EB
330
1F
100
AcDbEntity
  8
SLD-0
100
AcDbLine
 10
49.9817438335
 20
151.8043006651
 30
0.0
 11
49.9814263175
 21
151.8227250277
 31
0.0
  0
LINE
  5
EC
330
1F
100
AcDbEntity
  8
SLD-0
100
AcDbLine
 10
51.0932203788
 20
145.6633724127
 30
0.0
 11
51.0932203788
 21
147.8858963312
 31
0.0
  0
LINE
  5
ED
330
1F
100
AcDbEntity
  8
SLD-0
100
AcDbLine
 10
51.0893152815
 20
150.8519549562
 30
0.0
 11
51.088887001
 21
150.8384103285
 31
0.0
  0
LINE
  5
EE
330
1F
100
AcDbEntity
  8
SLD-0
100
AcDbLine
 10
51.088887001
 20
150.8384103285
 30
0.0
 11
51.0887354821
 21
150.8376210655
 31
0.0
  0
LINE
  5
EF
330
1F
100
AcDbEntity
  8
SLD-0
100
AcDbLine
 10
55.1932203788
 20
146.4975268404
 30
0.0
 11
55.1932203788
 21
147.8858963312
 31
0.0
  0
LINE
  5
F0
330
1F
100
AcDbEntity
  8
SLD-0
100
AcDbLine
 10
45.8727896031
 20
144.6012637676
 30
0.0
 11
45.8727896031
 21
147.8858963313
 31
0.0
  0
LINE
  5
F1
330
1F
100
AcDbEntity
  8
SLD-0
100
AcDbLine
 10
45.9330049909
 20
154.7858963313
 30
0.0
 11
45.9330049909
 21
154.9858916455
 31
0.0
  0
LINE
  5
F2
330
1F
100
AcDbEntity
  8
SLD-0
100
AcDbLine
 10
54.0727896033
 20
146.2695726227
 30
0.0
 11
54.0727896033
 21
147.8858963312
 31
0.0
  0
LINE
  5
F3
330
1F
100
AcDbEntity
  8
SLD-0
100
AcDbLine
 10
42.993220379
 20
144.0154087875
 30
0.0
 11
42.993220379
 21
147.8858963313
 31
0.0
  0
LINE
  5
F4
330
1F
100
AcDbEntity
  8
SLD-0
100
AcDbLine
 10
42.9330049912
 20
154.9858961167
 30
0.0
 11
42.9330049912
 21
154.7858963313
 31
0.0
  0
LINE
  5
F5
330
1F
100
AcDbEntity
  8
SLD-0
100
AcDbLine
 10
58.8727896033
 20
147.24614366
 30
0.0
 11
58.8727896033
 21
147.8858963312
 31
0.0
  0
LINE
  5
F6
330
1F
100
AcDbEntity
  8
SLD-0
100
AcDbLine
 10
59.9932203788
 20
147.4740978776
 30
0.0
 11
59.9932203788
 21
147.8858963312
 31
0.0
  0
LINE
  5
F7
330
1F
100
AcDbEntity
  8
SLD-0
100
AcDbLine
 10
62.9851776685
 20
152.2460481084
 30
0.0
 11
62.9847246264
 21
152.253256541
 31
0.0
  0
LINE
  5
F8
330
1F
100
AcDbEntity
  8
SLD-0
100
AcDbLine
 10
62.9847246264
 20
152.253256541
 30
0.0
 11
62.9843090187
 21
152.2782773093
 31
0.0
  0
LINE
  5
F9
330
1F
100
AcDbEntity
  8
SLD-0
100
AcDbLine
 10
67.1330048424
 20
154.785896452
 30
0.0
 11
67.1330048424
 21
154.9858917662
 31
0.0
  0
LINE
  5
FA
330
1F
100
AcDbEntity
  8
SLD-0
100
AcDbLine
 10
68.1330048424
 20
154.9858962375
 30
0.0
 11
68.1330048424
 21
154.785896452
 31
0.0
  0
LINE
  5
FB
330
1F
100
AcDbEntity
  8
SLD-0
100
AcDbLine
 10
46.993220379
 20
147.8858963313
 30
0.0
 11
45.8727896031
 21
147.8858963313
 31
0.0
  0
LINE
  5
FC
330
1F
100
AcDbEntity
  8
SLD-0
100
AcDbLine
 10
42.993220379
 20
147.8858963313
 30
0.0
 11
41.8727896031
 21
147.8858963313
 31
0.0
  0
LINE
  5
FD
330
1F
100
AcDbEntity
  8
SLD-0
100
AcDbLine
 10
38.993220379
 20
147.8858963311
 30
0.0
 11
37.8727896032
 21
147.8858963311
 31
0.0
  0
LINE
  5
FE
330
1F
100
AcDbEntity
  8
SLD-0
100
AcDbLine
 10
55.1932203788
 20
147.8858963312
 30
0.0
 11
54.0727896033
 21
147.8858963312
 31
0.0
  0
LINE
  5
FF
330
1F
100
AcDbEntity
  8
SLD-0
100
AcDbLine
 10
51.0932203788
 20
147.8858963312
 30
0.0
 11
49.9727896033
 21
147.8858963312
 31
0.0
  0
LINE
  5
100
330
1F
100
AcDbEntity
  8
SLD-0
100
AcDbLine
 10
59.9932203788
 20
147.8858963312
 30
0.0
 11
58.8727896033
 21
147.8858963312
 31
0.0
  0
LINE
  5
101
330
1F
100
AcDbEntity
  8
SLD-0
100
AcDbLine
 10
71.2330048426
 20
154.785896452
 30
0.0
 11
71.2330048426
 21
154.9858917662
 31
0.0
  0
LINE
  5
102
330
1F
100
AcDbEntity
  8
SLD-0
100
AcDbLine
 10
72.2330048426
 20
154.9858962375
 30
0.0
 11
72.2330048426
 21
154.785896452
 31
0.0
  0
LINE
  5
103
330
1F
100
AcDbEntity
  8
SLD-0
100
AcDbLine
 10
80.4858221566
 20
151.9701817632
 30
0.0
 11
80.4899106852
 21
151.9919133589
 31
0.0
  0
LINE
  5
104
330
1F
100
AcDbEntity
  8
SLD-0
100
AcDbLine
 10
80.4899106852
 20
151.9919133589
 30
0.0
 11
80.5014587374
 21
152.0128174703
 31
0.0
  0
LINE
  5
105
330
1F
100
AcDbEntity
  8
SLD-0
100
AcDbLine
 10
80.5014587374
 20
152.0128174703
 30
0.0
 11
80.5200265926
 21
152.0320981219
 31
0.0
  0
LINE
  5
106
330
1F
100
AcDbEntity
  8
SLD-0
100
AcDbLine
 10
80.5200265926
 20
152.0320981219
 30
0.0
 11
80.5449072339
 21
152.049021155
 31
0.0
  0
LINE
  5
107
330
1F
100
AcDbEntity
  8
SLD-0
100
AcDbLine
 10
80.5449072339
 20
152.049021155
 30
0.0
 11
80.5751532691
 21
152.0629421833
 31
0.0
  0
LINE
  5
108
330
1F
100
AcDbEntity
  8
SLD-0
100
AcDbLine
 10
80.5751532691
 20
152.0629421833
 30
0.0
 11
80.6096130059
 21
152.0733311293
 31
0.0
  0
LINE
  5
109
330
1F
100
AcDbEntity
  8
SLD-0
100
AcDbLine
 10
80.6096130059
 20
152.0733311293
 30
0.0
 11
80.6469743046
 21
152.0797924082
 31
0.0
  0
LINE
  5
10A
330
1F
100
AcDbEntity
  8
SLD-0
100
AcDbLine
 10
80.6469743046
 20
152.0797924082
 30
0.0
 11
80.6858145412
 21
152.0820799909
 31
0.0
  0
LINE
  5
10B
330
1F
100
AcDbEntity
  8
SLD-0
100
AcDbLine
 10
51.0887354821
 20
150.8376210655
 30
0.0
 11
49.9821827999
 21
151.796147067
 31
0.0
  0
LINE
  5
10C
330
1F
100
AcDbEntity
  8
SLD-0
100
AcDbLine
 10
75.3330048427
 20
154.7858964521
 30
0.0
 11
75.3330048427
 21
154.9858917663
 31
0.0
  0
LINE
  5
10D
330
1F
100
AcDbEntity
  8
SLD-0
100
AcDbLine
 10
76.3330048427
 20
154.9858962376
 30
0.0
 11
76.3330048427
 21
154.7858964521
 31
0.0
  0
LINE
  5
10E
330
1F
100
AcDbEntity
  8
SLD-0
100
AcDbLine
 10
80.4815437102
 20
151.9693113034
 30
0.0
 11
80.4858221566
 21
151.9701817632
 31
0.0
  0
LINE
  5
10F
330
1F
100
AcDbEntity
  8
SLD-0
100
AcDbLine
 10
79.4330048429
 20
154.7858964522
 30
0.0
 11
79.4330048429
 21
154.9858917664
 31
0.0
  0
LINE
  5
110
330
1F
100
AcDbEntity
  8
SLD-0
100
AcDbLine
 10
80.4330048429
 20
155.1858962402
 30
0.0
 11
80.4330048429
 21
154.7858964522
 31
0.0
  0
LINE
  5
111
330
1F
100
AcDbEntity
  8
SLD-0
100
AcDbLine
 10
64.0730267486
 20
153.1524097918
 30
0.0
 11
62.9851776685
 21
152.2460481084
 31
0.0
  0
LINE
  5
112
330
1F
100
AcDbEntity
  8
SLD-0
100
AcDbLine
 10
79.633004991
 20
135.0960325491
 30
0.0
 11
79.433004991
 21
135.0960325491
 31
0.0
  0
LINE
  5
113
330
1F
100
AcDbEntity
  8
SLD-0
100
AcDbLine
 10
79.633004991
 20
134.3538450491
 30
0.0
 11
79.433004991
 21
134.3538450491
 31
0.0
  0
LINE
  5
114
330
1F
100
AcDbEntity
  8
SLD-0
100
AcDbLine
 10
79.633004991
 20
135.1551271004
 30
0.0
 11
79.433004991
 21
135.1551271004
 31
0.0
  0
LINE
  5
115
330
1F
100
AcDbEntity
  8
SLD-0
100
AcDbLine
 10
79.633004991
 20
135.0960325491
 30
0.0
 11
79.633004991
 21
135.1551271004
 31
0.0
  0
LINE
  5
116
330
1F
100
AcDbEntity
  8
SLD-0
100
AcDbLine
 10
79.633004991
 20
136.2208322286
 30
0.0
 11
79.433004991
 21
136.2208322286
 31
0.0
  0
LINE
  5
117
330
1F
100
AcDbEntity
  8
SLD-0
100
AcDbLine
 10
79.633004991
 20
136.148716844
 30
0.0
 11
79.433004991
 21
136.148716844
 31
0.0
  0
LINE
  5
118
330
1F
100
AcDbEntity
  8
SLD-0
100
AcDbLine
 10
79.633004991
 20
136.148716844
 30
0.0
 11
79.633004991
 21
136.2208322286
 31
0.0
  0
LINE
  5
119
330
1F
100
AcDbEntity
  8
SLD-0
100
AcDbLine
 10
79.633004991
 20
136.8858963312
 30
0.0
 11
79.433004991
 21
136.8858963312
 31
0.0
  0
LINE
  5
11A
330
1F
100
AcDbEntity
  8
SLD-0
100
AcDbLine
 10
34.233004991
 20
134.3858963312
 30
0.0
 11
34.433004991
 21
134.3858963312
 31
0.0
  0
LINE
  5
11B
330
1F
100
AcDbEntity
  8
SLD-0
100
AcDbLine
 10
34.233004991
 20
136.8858963312
 30
0.0
 11
34.233004991
 21
134.3858963312
 31
0.0
  0
LINE
  5
11C
330
1F
100
AcDbEntity
  8
SLD-0
100
AcDbLine
 10
34.233004991
 20
136.8858963312
 30
0.0
 11
34.433004991
 21
136.8858963312
 31
0.0
  0
LINE
  5
11D
330
1F
100
AcDbEntity
  8
SLD-0
100
AcDbLine
 10
79.633004991
 20
135.8923065876
 30
0.0
 11
79.433004991
 21
135.8923065876
 31
0.0
  0
LINE
  5
11E
330
1F
100
AcDbEntity
  8
SLD-0
100
AcDbLine
 10
79.633004991
 20
135.504185594
 30
0.0
 11
79.433004991
 21
135.504185594
 31
0.0
  0
LINE
  5
11F
330
1F
100
AcDbEntity
  8
SLD-0
100
AcDbLine
 10
79.633004991
 20
135.504185594
 30
0.0
 11
79.633004991
 21
135.8923065876
 31
0.0
  0
LINE
  5
120
330
1F
100
AcDbEntity
  8
SLD-0
100
AcDbLine
 10
79.633004991
 20
135.1666455299
 30
0.0
 11
79.433004991
 21
135.1666455299
 31
0.0
  0
LINE
  5
121
330
1F
100
AcDbEntity
  8
SLD-0
100
AcDbLine
 10
124.2714259752
 20
141.0858963312
 30
0.0
 11
124.2714259752
 21
154.6858963312
 31
0.0
  0
LINE
  5
122
330
1F
100
AcDbEntity
  8
SLD-0
100
AcDbLine
 10
125.0313601829
 20
154.1358963312
 30
0.0
 11
125.0313601829
 21
141.6358963312
 31
0.0
  0
LINE
  5
123
330
1F
100
AcDbEntity
  8
SLD-0
100
AcDbLine
 10
34.8330051146
 20
155.3859008014
 30
0.0
 11
34.8330051146
 21
147.8858963311
 31
0.0
  0
LINE
  5
124
330
1F
100
AcDbEntity
  8
SLD-0
100
AcDbLine
 10
79.8330049663
 20
144.5971923872
 30
0.0
 11
79.8330049663
 21
140.3858964522
 31
0.0
  0
LINE
  5
125
330
1F
100
AcDbEntity
  8
SLD-0
100
AcDbLine
 10
85.5330049665
 20
147.8858964522
 30
0.0
 11
85.5330049665
 21
155.3858964522
 31
0.0
  0
LINE
  5
126
330
1F
100
AcDbEntity
  8
SLD-0
100
AcDbLine
 10
85.5330049665
 20
140.3858964522
 30
0.0
 11
85.5330049665
 21
147.8858964522
 31
0.0
  0
LINE
  5
127
330
1F
100
AcDbEntity
  8
SLD-0
100
AcDbLine
 10
64.5675355342
 20
155.1290142947
 30
0.0
 11
64.5505264729
 21
155.1142376941
 31
0.0
  0
LINE
  5
128
330
1F
100
AcDbEntity
  8
SLD-0
100
AcDbLine
 10
64.5505264729
 20
155.1142376941
 30
0.0
 11
64.0237410094
 21
154.65700165
 31
0.0
  0
LINE
  5
129
330
1F
100
AcDbEntity
  8
SLD-0
100
AcDbLine
 10
64.0237410094
 20
154.65700165
 30
0.0
 11
63.4790593951
 21
154.1851667813
 31
0.0
  0
LINE
  5
12A
330
1F
100
AcDbEntity
  8
SLD-0
100
AcDbLine
 10
63.4790593951
 20
154.1851667813
 30
0.0
 11
62.8017500326
 21
153.6001187762
 31
0.0
  0
LINE
  5
12B
330
1F
100
AcDbEntity
  8
SLD-0
100
AcDbLine
 10
62.8017500326
 20
153.6001187762
 30
0.0
 11
61.7456984541
 21
152.6931454683
 31
0.0
  0
LINE
  5
12C
330
1F
100
AcDbEntity
  8
SLD-0
100
AcDbLine
 10
61.7456984541
 20
152.6931454683
 30
0.0
 11
60.5531705157
 21
151.6816831652
 31
0.0
  0
LINE
  5
12D
330
1F
100
AcDbEntity
  8
SLD-0
100
AcDbLine
 10
60.5531705157
 20
151.6816831652
 30
0.0
 11
59.2415891834
 21
150.6021900643
 31
0.0
  0
LINE
  5
12E
330
1F
100
AcDbEntity
  8
SLD-0
100
AcDbLine
 10
59.2415891834
 20
150.6021900643
 30
0.0
 11
57.8088631651
 21
149.541397411
 31
0.0
  0
LINE
  5
12F
330
1F
100
AcDbEntity
  8
SLD-0
100
AcDbLine
 10
57.8088631651
 20
149.541397411
 30
0.0
 11
57.1259417833
 21
149.1695593296
 31
0.0
  0
LINE
  5
130
330
1F
100
AcDbEntity
  8
SLD-0
100
AcDbLine
 10
57.1259417833
 20
149.1695593296
 30
0.0
 11
56.6303458939
 21
149.0289123574
 31
0.0
  0
LINE
  5
131
330
1F
100
AcDbEntity
  8
SLD-0
100
AcDbLine
 10
56.6303458939
 20
149.0289123574
 30
0.0
 11
56.1033006613
 21
149.0522795432
 31
0.0
  0
LINE
  5
132
330
1F
100
AcDbEntity
  8
SLD-0
100
AcDbLine
 10
56.1033006613
 20
149.0522795432
 30
0.0
 11
55.4952525546
 21
149.2846839395
 31
0.0
  0
LINE
  5
133
330
1F
100
AcDbEntity
  8
SLD-0
100
AcDbLine
 10
55.4952525546
 20
149.2846839395
 30
0.0
 11
54.514038433
 21
149.9168847982
 31
0.0
  0
LINE
  5
134
330
1F
100
AcDbEntity
  8
SLD-0
100
AcDbLine
 10
54.514038433
 20
149.9168847982
 30
0.0
 11
53.5859864654
 21
150.632967158
 31
0.0
  0
LINE
  5
135
330
1F
100
AcDbEntity
  8
SLD-0
100
AcDbLine
 10
53.5859864654
 20
150.632967158
 30
0.0
 11
52.0354488979
 21
151.9152507047
 31
0.0
  0
LINE
  5
136
330
1F
100
AcDbEntity
  8
SLD-0
100
AcDbLine
 10
52.0354488979
 20
151.9152507047
 30
0.0
 11
50.5744516622
 21
153.1609996038
 31
0.0
  0
LINE
  5
137
330
1F
100
AcDbEntity
  8
SLD-0
100
AcDbLine
 10
50.5744516622
 20
153.1609996038
 30
0.0
 11
49.8264596374
 21
153.8052843666
 31
0.0
  0
LINE
  5
138
330
1F
100
AcDbEntity
  8
SLD-0
100
AcDbLine
 10
49.8264596374
 20
153.8052843666
 30
0.0
 11
49.1631266146
 21
154.3789280969
 31
0.0
  0
LINE
  5
139
330
1F
100
AcDbEntity
  8
SLD-0
100
AcDbLine
 10
49.1631266146
 20
154.3789280969
 30
0.0
 11
48.4283153273
 21
155.0162365467
 31
0.0
  0
LINE
  5
13A
330
1F
100
AcDbEntity
  8
SLD-0
100
AcDbLine
 10
48.4283153273
 20
155.0162365467
 30
0.0
 11
48.2330049912
 21
155.1858963312
 31
0.0
  0
LINE
  5
13B
330
1F
100
AcDbEntity
  8
SLD-0
100
AcDbLine
 10
49.2330049912
 20
156.1858963312
 30
0.0
 11
49.2754927721
 21
156.138093866
 31
0.0
  0
LINE
  5
13C
330
1F
100
AcDbEntity
  8
SLD-0
100
AcDbLine
 10
49.2754927721
 20
156.138093866
 30
0.0
 11
49.4044969937
 21
155.9929954804
 31
0.0
  0
LINE
  5
13D
330
1F
100
AcDbEntity
  8
SLD-0
100
AcDbLine
 10
49.4044969937
 20
155.9929954804
 30
0.0
 11
49.7002351093
 21
155.6606204274
 31
0.0
  0
LINE
  5
13E
330
1F
100
AcDbEntity
  8
SLD-0
100
AcDbLine
 10
49.7002351093
 20
155.6606204274
 30
0.0
 11
50.1271028526
 21
155.1815888387
 31
0.0
  0
LINE
  5
13F
330
1F
100
AcDbEntity
  8
SLD-0
100
AcDbLine
 10
50.1271028526
 20
155.1815888387
 30
0.0
 11
50.664868247
 21
154.5795699798
 31
0.0
  0
LINE
  5
140
330
1F
100
AcDbEntity
  8
SLD-0
100
AcDbLine
 10
50.664868247
 20
154.5795699798
 30
0.0
 11
51.2889093853
 21
153.8836164904
 31
0.0
  0
LINE
  5
141
330
1F
100
AcDbEntity
  8
SLD-0
100
AcDbLine
 10
51.2889093853
 20
153.8836164904
 30
0.0
 11
52.5286812995
 21
152.5143053857
 31
0.0
  0
LINE
  5
142
330
1F
100
AcDbEntity
  8
SLD-0
100
AcDbLine
 10
52.5286812995
 20
152.5143053857
 30
0.0
 11
53.9331838466
 21
151.0092782302
 31
0.0
  0
LINE
  5
143
330
1F
100
AcDbEntity
  8
SLD-0
100
AcDbLine
 10
53.9331838466
 20
151.0092782302
 30
0.0
 11
54.7269410472
 21
150.215127129
 31
0.0
  0
LINE
  5
144
330
1F
100
AcDbEntity
  8
SLD-0
100
AcDbLine
 10
54.7269410472
 20
150.215127129
 30
0.0
 11
55.6096126079
 21
149.4762986804
 31
0.0
  0
LINE
  5
145
330
1F
100
AcDbEntity
  8
SLD-0
100
AcDbLine
 10
55.6096126079
 20
149.4762986804
 30
0.0
 11
55.8632391609
 21
149.3250179993
 31
0.0
  0
LINE
  5
146
330
1F
100
AcDbEntity
  8
SLD-0
100
AcDbLine
 10
55.8632391609
 20
149.3250179993
 30
0.0
 11
56.1435085064
 21
149.2120580653
 31
0.0
  0
LINE
  5
147
330
1F
100
AcDbEntity
  8
SLD-0
100
AcDbLine
 10
56.1435085064
 20
149.2120580653
 30
0.0
 11
56.3184166101
 21
149.1770319346
 31
0.0
  0
LINE
  5
148
330
1F
100
AcDbEntity
  8
SLD-0
100
AcDbLine
 10
56.3184166101
 20
149.1770319346
 30
0.0
 11
56.502228627
 21
149.1728366697
 31
0.0
  0
LINE
  5
149
330
1F
100
AcDbEntity
  8
SLD-0
100
AcDbLine
 10
56.502228627
 20
149.1728366697
 30
0.0
 11
56.6062799303
 21
149.1854898953
 31
0.0
  0
LINE
  5
14A
330
1F
100
AcDbEntity
  8
SLD-0
100
AcDbLine
 10
56.6062799303
 20
149.1854898953
 30
0.0
 11
56.8271913075
 21
149.2466101547
 31
0.0
  0
LINE
  5
14B
330
1F
100
AcDbEntity
  8
SLD-0
100
AcDbLine
 10
56.8271913075
 20
149.2466101547
 30
0.0
 11
57.0414372963
 21
149.345403576
 31
0.0
  0
LINE
  5
14C
330
1F
100
AcDbEntity
  8
SLD-0
100
AcDbLine
 10
57.0414372963
 20
149.345403576
 30
0.0
 11
57.3500205051
 21
149.5414104614
 31
0.0
  0
LINE
  5
14D
330
1F
100
AcDbEntity
  8
SLD-0
100
AcDbLine
 10
57.3500205051
 20
149.5414104614
 30
0.0
 11
57.6410755829
 21
149.7681783808
 31
0.0
  0
LINE
  5
14E
330
1F
100
AcDbEntity
  8
SLD-0
100
AcDbLine
 10
57.6410755829
 20
149.7681783808
 30
0.0
 11
58.885142186
 21
150.9598578186
 31
0.0
  0
LINE
  5
14F
330
1F
100
AcDbEntity
  8
SLD-0
100
AcDbLine
 10
58.885142186
 20
150.9598578186
 30
0.0
 11
60.0507113053
 21
152.2016539644
 31
0.0
  0
LINE
  5
150
330
1F
100
AcDbEntity
  8
SLD-0
100
AcDbLine
 10
60.0507113053
 20
152.2016539644
 30
0.0
 11
61.0741043077
 21
153.3254355485
 31
0.0
  0
LINE
  5
151
330
1F
100
AcDbEntity
  8
SLD-0
100
AcDbLine
 10
61.0741043077
 20
153.3254355485
 30
0.0
 11
62.0250738081
 21
154.3828889741
 31
0.0
  0
LINE
  5
152
330
1F
100
AcDbEntity
  8
SLD-0
100
AcDbLine
 10
62.0250738081
 20
154.3828889741
 30
0.0
 11
62.6049255253
 21
155.031432891
 31
0.0
  0
LINE
  5
153
330
1F
100
AcDbEntity
  8
SLD-0
100
AcDbLine
 10
62.6049255253
 20
155.031432891
 30
0.0
 11
63.098041495
 21
155.5845503238
 31
0.0
  0
LINE
  5
154
330
1F
100
AcDbEntity
  8
SLD-0
100
AcDbLine
 10
63.098041495
 20
155.5845503238
 30
0.0
 11
63.3743258516
 21
155.8949687917
 31
0.0
  0
LINE
  5
155
330
1F
100
AcDbEntity
  8
SLD-0
100
AcDbLine
 10
63.3743258516
 20
155.8949687917
 30
0.0
 11
63.5605848288
 21
156.1044214425
 31
0.0
  0
LINE
  5
156
330
1F
100
AcDbEntity
  8
SLD-0
100
AcDbLine
 10
63.5605848288
 20
156.1044214425
 30
0.0
 11
63.631947712
 21
156.1847067171
 31
0.0
  0
LINE
  5
157
330
1F
100
AcDbEntity
  8
SLD-0
100
AcDbLine
 10
63.631947712
 20
156.1847067171
 30
0.0
 11
63.6260733627
 21
156.1780976078
 31
0.0
  0
LINE
  5
158
330
1F
100
AcDbEntity
  8
SLD-0
100
AcDbLine
 10
63.633004991
 20
167.3030536187
 30
0.0
 11
49.2330049912
 21
167.3030536187
 31
0.0
  0
LINE
  5
159
330
1F
100
AcDbEntity
  8
SLD-0
100
AcDbLine
 10
49.2915836348
 20
167.4444749749
 30
0.0
 11
63.5744263472
 21
167.4444749749
 31
0.0
  0
LINE
  5
15A
330
1F
100
AcDbEntity
  8
SLD-0
100
AcDbLine
 10
63.1915836348
 20
167.8273176873
 30
0.0
 11
49.6744263472
 21
167.8273176873
 31
0.0
  0
LINE
  5
15B
330
1F
100
AcDbEntity
  8
SLD-0
100
AcDbLine
 10
164.6213471879
 20
172.9858963312
 30
0.0
 11
164.1213471879
 21
173.4858963312
 31
0.0
  0
LINE
  5
15C
330
1F
100
AcDbEntity
  8
SLD-0
100
AcDbLine
 10
151.3213471879
 20
173.4858963312
 30
0.0
 11
150.8213471879
 21
172.9858963312
 31
0.0
  0
LINE
  5
15D
330
1F
100
AcDbEntity
  8
SLD-0
100
AcDbLine
 10
164.6213471879
 20
167.8858963312
 30
0.0
 11
164.6213471879
 21
170.2858963312
 31
0.0
  0
LINE
  5
15E
330
1F
100
AcDbEntity
  8
SLD-0
100
AcDbLine
 10
150.8213471879
 20
170.2858963312
 30
0.0
 11
150.8213471879
 21
167.8858963312
 31
0.0
  0
LINE
  5
15F
330
1F
100
AcDbEntity
  8
SLD-0
100
AcDbLine
 10
164.6213471879
 20
171.4858963312
 30
0.0
 11
164.6213471879
 21
172.9858963312
 31
0.0
  0
LINE
  5
160
330
1F
100
AcDbEntity
  8
SLD-0
100
AcDbLine
 10
150.8213471879
 20
172.9858963312
 30
0.0
 11
150.8213471879
 21
171.4858963312
 31
0.0
  0
LINE
  5
161
330
1F
100
AcDbEntity
  8
SLD-0
100
AcDbLine
 10
162.7213471879
 20
170.2858963312
 30
0.0
 11
162.7213471879
 21
171.4858963312
 31
0.0
  0
LINE
  5
162
330
1F
100
AcDbEntity
  8
SLD-0
100
AcDbLine
 10
152.7213471879
 20
171.4858963312
 30
0.0
 11
152.7213471879
 21
170.2858963312
 31
0.0
  0
LINE
  5
163
330
1F
100
AcDbEntity
  8
SLD-0
100
AcDbLine
 10
150.5213471879
 20
158.3858963312
 30
0.0
 11
150.5213471879
 21
149.9858963312
 31
0.0
  0
LINE
  5
164
330
1F
100
AcDbEntity
  8
SLD-0
100
AcDbLine
 10
150.5213471879
 20
159.0209278527
 30
0.0
 11
150.5213471879
 21
158.8666655619
 31
0.0
  0
LINE
  5
165
330
1F
100
AcDbEntity
  8
SLD-0
100
AcDbLine
 10
150.5213471879
 20
167.3030536187
 30
0.0
 11
150.5213471879
 21
160.8858963312
 31
0.0
  0
LINE
  5
166
330
1F
100
AcDbEntity
  8
SLD-0
100
AcDbLine
 10
164.9213471879
 20
160.8821784638
 30
0.0
 11
164.9213471879
 21
167.3030536187
 31
0.0
  0
LINE
  5
167
330
1F
100
AcDbEntity
  8
SLD-0
100
AcDbLine
 10
164.9213471879
 20
159.5917149175
 30
0.0
 11
164.9213471879
 21
160.0846142799
 31
0.0
  0
LINE
  5
168
330
1F
100
AcDbEntity
  8
SLD-0
100
AcDbLine
 10
164.9213471879
 20
149.9858963312
 30
0.0
 11
164.9213471879
 21
158.3858963312
 31
0.0
  0
LINE
  5
169
330
1F
100
AcDbEntity
  8
SLD-0
100
AcDbLine
 10
164.8627685442
 20
167.4444749749
 30
0.0
 11
164.4799258317
 21
167.8273176873
 31
0.0
  0
LINE
  5
16A
330
1F
100
AcDbEntity
  8
SLD-0
100
AcDbLine
 10
150.9627685441
 20
167.8273176873
 30
0.0
 11
150.5799258317
 21
167.4444749749
 31
0.0
  0
LINE
  5
16B
330
1F
100
AcDbEntity
  8
SLD-0
100
AcDbLine
 10
165.1213471879
 20
160.462453955
 30
0.0
 11
165.1213471879
 21
160.8933433309
 31
0.0
  0
LINE
  5
16C
330
1F
100
AcDbEntity
  8
SLD-0
100
AcDbLine
 10
165.1213471879
 20
158.9920701454
 30
0.0
 11
165.1213471879
 21
159.5909166682
 31
0.0
  0
LINE
  5
16D
330
1F
100
AcDbEntity
  8
SLD-0
100
AcDbLine
 10
165.1213471879
 20
158.3858963312
 30
0.0
 11
165.1213471879
 21
158.8666655619
 31
0.0
  0
LINE
  5
16E
330
1F
100
AcDbEntity
  8
SLD-0
100
AcDbLine
 10
150.3213471879
 20
158.8666655619
 30
0.0
 11
150.3213471879
 21
158.3858963312
 31
0.0
  0
LINE
  5
16F
330
1F
100
AcDbEntity
  8
SLD-0
100
AcDbLine
 10
150.3213471879
 20
159.5909166682
 30
0.0
 11
150.3213471879
 21
158.9920701454
 31
0.0
  0
LINE
  5
170
330
1F
100
AcDbEntity
  8
SLD-0
100
AcDbLine
 10
150.3213471879
 20
160.8843028728
 30
0.0
 11
150.3213471879
 21
160.462453955
 31
0.0
  0
LINE
  5
171
330
1F
100
AcDbEntity
  8
SLD-0
100
AcDbLine
 10
165.4213471879
 20
141.2540761751
 30
0.0
 11
165.2213471879
 21
141.2540761751
 31
0.0
  0
LINE
  5
172
330
1F
100
AcDbEntity
  8
SLD-0
100
AcDbLine
 10
164.6213471879
 20
172.9858963312
 30
0.0
 11
150.8213471879
 21
172.9858963312
 31
0.0
  0
LINE
  5
173
330
1F
100
AcDbEntity
  8
SLD-0
100
AcDbLine
 10
151.3213471879
 20
173.4858963312
 30
0.0
 11
164.1213471879
 21
173.4858963312
 31
0.0
  0
LINE
  5
174
330
1F
100
AcDbEntity
  8
SLD-0
100
AcDbLine
 10
150.9041288748
 20
167.8858963312
 30
0.0
 11
150.8213471879
 21
167.8858963312
 31
0.0
  0
LINE
  5
175
330
1F
100
AcDbEntity
  8
SLD-0
100
AcDbLine
 10
164.6213471879
 20
167.8858963312
 30
0.0
 11
150.9041288748
 21
167.8858963312
 31
0.0
  0
LINE
  5
176
330
1F
100
AcDbEntity
  8
SLD-0
100
AcDbLine
 10
150.9041288748
 20
170.2858963312
 30
0.0
 11
150.8213471879
 21
170.2858963312
 31
0.0
  0
LINE
  5
177
330
1F
100
AcDbEntity
  8
SLD-0
100
AcDbLine
 10
164.6213471879
 20
170.2858963312
 30
0.0
 11
150.9041288748
 21
170.2858963312
 31
0.0
  0
LINE
  5
178
330
1F
100
AcDbEntity
  8
SLD-0
100
AcDbLine
 10
150.9041288748
 20
171.4858963312
 30
0.0
 11
150.8213471879
 21
171.4858963312
 31
0.0
  0
LINE
  5
179
330
1F
100
AcDbEntity
  8
SLD-0
100
AcDbLine
 10
164.6213471879
 20
171.4858963312
 30
0.0
 11
150.9041288748
 21
171.4858963312
 31
0.0
  0
LINE
  5
17A
330
1F
100
AcDbEntity
  8
SLD-0
100
AcDbLine
 10
157.6367318033
 20
134.3858963312
 30
0.0
 11
157.6367318033
 21
136.1657440876
 31
0.0
  0
LINE
  5
17B
330
1F
100
AcDbEntity
  8
SLD-0
100
AcDbLine
 10
157.0277574443
 20
135.7641014594
 30
0.0
 11
157.0277574443
 21
136.2448706901
 31
0.0
  0
LINE
  5
17C
330
1F
100
AcDbEntity
  8
SLD-0
100
AcDbLine
 10
157.7318840469
 20
136.8858963311
 30
0.0
 11
158.117501034
 21
136.8858963311
 31
0.0
  0
LINE
  5
17D
330
1F
100
AcDbEntity
  8
SLD-0
100
AcDbLine
 10
158.117501034
 20
136.8858963311
 30
0.0
 11
158.117501034
 21
134.3858963312
 31
0.0
  0
LINE
  5
17E
330
1F
100
AcDbEntity
  8
SLD-0
100
AcDbLine
 10
158.117501034
 20
134.3858963312
 30
0.0
 11
157.6367318033
 21
134.3858963312
 31
0.0
  0
LINE
  5
17F
330
1F
100
AcDbEntity
  8
SLD-0
100
AcDbLine
 10
165.2213471879
 20
147.8858963312
 30
0.0
 11
165.2213471879
 21
133.8858963312
 31
0.0
  0
LINE
  5
180
330
1F
100
AcDbEntity
  8
SLD-0
100
AcDbLine
 10
165.2213471879
 20
133.8858963312
 30
0.0
 11
164.8213471879
 21
133.8858963312
 31
0.0
  0
LINE
  5
181
330
1F
100
AcDbEntity
  8
SLD-0
100
AcDbLine
 10
164.8213471879
 20
133.8858963312
 30
0.0
 11
164.8213471879
 21
147.8858963312
 31
0.0
  0
LINE
  5
182
330
1F
100
AcDbEntity
  8
SLD-0
100
AcDbLine
 10
165.2213471879
 20
147.8858963312
 30
0.0
 11
164.8213471879
 21
147.8858963312
 31
0.0
  0
LINE
  5
183
330
1F
100
AcDbEntity
  8
SLD-0
100
AcDbLine
 10
150.2213471879
 20
147.8858963312
 30
0.0
 11
150.6213471879
 21
147.8858963312
 31
0.0
  0
LINE
  5
184
330
1F
100
AcDbEntity
  8
SLD-0
100
AcDbLine
 10
151.601974832
 20
139.9104159913
 30
0.0
 11
151.6260775774
 21
139.8858963312
 31
0.0
  0
LINE
  5
185
330
1F
100
AcDbEntity
  8
SLD-0
100
AcDbLine
 10
151.601974832
 20
139.9104159913
 30
0.0
 11
163.8407195437
 21
139.9104159913
 31
0.0
  0
LINE
  5
186
330
1F
100
AcDbEntity
  8
SLD-0
100
AcDbLine
 10
163.8407195437
 20
139.9104159913
 30
0.0
 11
163.8166167983
 21
139.8858963312
 31
0.0
  0
LINE
  5
187
330
1F
100
AcDbEntity
  8
SLD-0
100
AcDbLine
 10
151.6260775774
 20
139.8858963312
 30
0.0
 11
163.8166167983
 21
139.8858963312
 31
0.0
  0
LINE
  5
188
330
1F
100
AcDbEntity
  8
SLD-0
100
AcDbLine
 10
163.8407195437
 20
139.9104159913
 30
0.0
 11
163.8844233735
 21
137.3621383692
 31
0.0
  0
LINE
  5
189
330
1F
100
AcDbEntity
  8
SLD-0
100
AcDbLine
 10
163.8844233735
 20
137.3621383692
 30
0.0
 11
163.8602544606
 21
137.3858963312
 31
0.0
  0
LINE
  5
18A
330
1F
100
AcDbEntity
  8
SLD-0
100
AcDbLine
 10
163.8166167983
 20
139.8858963312
 30
0.0
 11
163.8602544606
 21
137.3858963312
 31
0.0
  0
LINE
  5
18B
330
1F
100
AcDbEntity
  8
SLD-0
100
AcDbLine
 10
151.5582710023
 20
137.3621383692
 30
0.0
 11
151.601974832
 21
139.9104159913
 31
0.0
  0
LINE
  5
18C
330
1F
100
AcDbEntity
  8
SLD-0
100
AcDbLine
 10
163.8844233735
 20
137.3621383692
 30
0.0
 11
151.5582710023
 21
137.3621383692
 31
0.0
  0
LINE
  5
18D
330
1F
100
AcDbEntity
  8
SLD-0
100
AcDbLine
 10
150.6213471879
 20
147.8858963312
 30
0.0
 11
150.6213471879
 21
133.8858963312
 31
0.0
  0
LINE
  5
18E
330
1F
100
AcDbEntity
  8
SLD-0
100
AcDbLine
 10
150.6213471879
 20
133.8858963312
 30
0.0
 11
164.8213471879
 21
133.8858963312
 31
0.0
  0
LINE
  5
18F
330
1F
100
AcDbEntity
  8
SLD-0
100
AcDbLine
 10
151.5824399151
 20
137.3858963312
 30
0.0
 11
151.6260775774
 21
139.8858963312
 31
0.0
  0
LINE
  5
190
330
1F
100
AcDbEntity
  8
SLD-0
100
AcDbLine
 10
151.5582710023
 20
137.3621383692
 30
0.0
 11
151.5824399151
 21
137.3858963312
 31
0.0
  0
LINE
  5
191
330
1F
100
AcDbEntity
  8
SLD-0
100
AcDbLine
 10
163.8602544606
 20
137.3858963312
 30
0.0
 11
151.5824399151
 21
137.3858963312
 31
0.0
  0
LINE
  5
192
330
1F
100
AcDbEntity
  8
SLD-0
100
AcDbLine
 10
150.2213471879
 20
133.8858963312
 30
0.0
 11
150.2213471879
 21
147.8858963312
 31
0.0
  0
LINE
  5
193
330
1F
100
AcDbEntity
  8
SLD-0
100
AcDbLine
 10
150.6213471879
 20
133.8858963312
 30
0.0
 11
150.2213471879
 21
133.8858963312
 31
0.0
  0
LINE
  5
194
330
1F
100
AcDbEntity
  8
SLD-0
100
AcDbLine
 10
165.2213471879
 20
147.8858963312
 30
0.0
 11
165.2213471879
 21
143.4625045215
 31
0.0
  0
LINE
  5
195
330
1F
100
AcDbEntity
  8
SLD-0
100
AcDbLine
 10
150.2213471879
 20
142.8745589952
 30
0.0
 11
150.2213471879
 21
147.8858963312
 31
0.0
  0
LINE
  5
196
330
1F
100
AcDbEntity
  8
SLD-0
100
AcDbLine
 10
151.5932070949
 20
138.0027476477
 30
0.0
 11
152.0964039671
 21
138.1858963312
 31
0.0
  0
LINE
  5
197
330
1F
100
AcDbEntity
  8
SLD-0
100
AcDbLine
 10
152.1261537357
 20
139.8858963312
 30
0.0
 11
152.0964801253
 21
138.1858963312
 31
0.0
  0
LINE
  5
198
330
1F
100
AcDbEntity
  8
SLD-0
100
AcDbLine
 10
163.3462904087
 20
138.1858963312
 30
0.0
 11
163.8494872808
 21
138.0027476477
 31
0.0
  0
LINE
  5
199
330
1F
100
AcDbEntity
  8
SLD-0
100
AcDbLine
 10
163.3462142505
 20
138.1858963312
 30
0.0
 11
163.3165406401
 21
139.8858963312
 31
0.0
  0
LINE
  5
19A
330
1F
100
AcDbEntity
  8
SLD-0
100
AcDbLine
 10
163.3462142505
 20
138.1858963312
 30
0.0
 11
152.0964801253
 21
138.1858963312
 31
0.0
  0
LINE
  5
19B
330
1F
100
AcDbEntity
  8
SLD-0
100
AcDbLine
 10
150.121347188
 20
134.9348746966
 30
0.0
 11
150.221347188
 21
134.9348746966
 31
0.0
  0
LINE
  5
19C
330
1F
100
AcDbEntity
  8
SLD-0
100
AcDbLine
 10
150.121347188
 20
135.3867977735
 30
0.0
 11
150.221347188
 21
135.3867977735
 31
0.0
  0
LINE
  5
19D
330
1F
100
AcDbEntity
  8
SLD-0
100
AcDbLine
 10
150.121347188
 20
133.9820501773
 30
0.0
 11
150.221347188
 21
133.9820501773
 31
0.0
  0
LINE
  5
19E
330
1F
100
AcDbEntity
  8
SLD-0
100
AcDbLine
 10
150.121347188
 20
135.8858963312
 30
0.0
 11
150.221347188
 21
135.8858963312
 31
0.0
  0
LINE
  5
19F
330
1F
100
AcDbEntity
  8
SLD-0
100
AcDbLine
 10
152.0964801253
 20
138.1858963312
 30
0.0
 11
152.0825160733
 21
137.3858963312
 31
0.0
  0
LINE
  5
1A0
330
1F
100
AcDbEntity
  8
SLD-0
100
AcDbLine
 10
163.3601783024
 20
137.3858963312
 30
0.0
 11
163.3462142505
 21
138.1858963312
 31
0.0
  0
LINE
  5
1A1
330
1F
100
AcDbEntity
  8
SLD-0
100
AcDbLine
 10
164.9208164766
 20
159.5917149175
 30
0.0
 11
164.9198725703
 21
159.4485966517
 31
0.0
  0
LINE
  5
1A2
330
1F
100
AcDbEntity
  8
SLD-0
100
AcDbLine
 10
150.5673746681
 20
158.3858963312
 30
0.0
 11
150.5673746681
 21
158.8666655619
 31
0.0
  0
LINE
  5
1A3
330
1F
100
AcDbEntity
  8
SLD-0
100
AcDbLine
 10
150.121347188
 20
137.6616775812
 30
0.0
 11
150.221347188
 21
137.6616775812
 31
0.0
  0
LINE
  5
1A4
330
1F
100
AcDbEntity
  8
SLD-0
100
AcDbLine
 10
150.121347188
 20
138.0533442479
 30
0.0
 11
150.221347188
 21
138.0533442479
 31
0.0
  0
LINE
  5
1A5
330
1F
100
AcDbEntity
  8
SLD-0
100
AcDbLine
 10
150.121347188
 20
136.8358963312
 30
0.0
 11
150.221347188
 21
136.8358963312
 31
0.0
  0
LINE
  5
1A6
330
1F
100
AcDbEntity
  8
SLD-0
100
AcDbLine
 10
150.121347188
 20
138.4858963312
 30
0.0
 11
150.221347188
 21
138.4858963312
 31
0.0
  0
LINE
  5
1A7
330
1F
100
AcDbEntity
  8
SLD-0
100
AcDbLine
 10
150.221347188
 20
139.0858963312
 30
0.0
 11
150.121347188
 21
139.0858963312
 31
0.0
  0
LINE
  5
1A8
330
1F
100
AcDbEntity
  8
SLD-0
100
AcDbLine
 10
150.121347188
 20
139.0858963312
 30
0.0
 11
150.121347188
 21
139.1858963312
 31
0.0
  0
LINE
  5
1A9
330
1F
100
AcDbEntity
  8
SLD-0
100
AcDbLine
 10
150.121347188
 20
139.1858963312
 30
0.0
 11
150.221347188
 21
139.1858963312
 31
0.0
  0
LINE
  5
1AA
330
1F
100
AcDbEntity
  8
SLD-0
100
AcDbLine
 10
150.221347188
 20
138.9858963312
 30
0.0
 11
150.121347188
 21
138.9858963312
 31
0.0
  0
LINE
  5
1AB
330
1F
100
AcDbEntity
  8
SLD-0
100
AcDbLine
 10
150.121347188
 20
138.9858963312
 30
0.0
 11
150.121347188
 21
139.0858963312
 31
0.0
  0
LINE
  5
1AC
330
1F
100
AcDbEntity
  8
SLD-0
100
AcDbLine
 10
154.6966380306
 20
155.4310306007
 30
0.0
 11
154.6928836558
 21
154.6365369785
 31
0.0
  0
LINE
  5
1AD
330
1F
100
AcDbEntity
  8
SLD-0
100
AcDbLine
 10
160.750319526
 20
154.7286279363
 30
0.0
 11
160.7489308906
 21
155.3489028138
 31
0.0
  0
LINE
  5
1AE
330
1F
100
AcDbEntity
  8
SLD-0
100
AcDbLine
 10
160.7489308906
 20
155.3489028138
 30
0.0
 11
160.7485359502
 21
155.4138565017
 31
0.0
  0
LINE
  5
1AF
330
1F
100
AcDbEntity
  8
SLD-0
100
AcDbLine
 10
150.121347188
 20
141.2858963312
 30
0.0
 11
150.221347188
 21
141.2858963312
 31
0.0
  0
LINE
  5
1B0
330
1F
100
AcDbEntity
  8
SLD-0
100
AcDbLine
 10
150.221347188
 20
141.1858963312
 30
0.0
 11
150.121347188
 21
141.1858963312
 31
0.0
  0
LINE
  5
1B1
330
1F
100
AcDbEntity
  8
SLD-0
100
AcDbLine
 10
150.121347188
 20
141.1858963312
 30
0.0
 11
150.121347188
 21
141.2858963312
 31
0.0
  0
LINE
  5
1B2
330
1F
100
AcDbEntity
  8
SLD-0
100
AcDbLine
 10
150.121347188
 20
136.9858963312
 30
0.0
 11
150.121347188
 21
137.1858963312
 31
0.0
  0
LINE
  5
1B3
330
1F
100
AcDbEntity
  8
SLD-0
100
AcDbLine
 10
150.121347188
 20
138.4992260899
 30
0.0
 11
150.121347188
 21
138.9858963312
 31
0.0
  0
LINE
  5
1B4
330
1F
100
AcDbEntity
  8
SLD-0
100
AcDbLine
 10
150.121347188
 20
139.1858963312
 30
0.0
 11
150.121347188
 21
141.1858963312
 31
0.0
  0
LINE
  5
1B5
330
1F
100
AcDbEntity
  8
SLD-0
100
AcDbLine
 10
165.0755740806
 20
158.3858963312
 30
0.0
 11
164.874294356
 21
158.3858963312
 31
0.0
  0
LINE
  5
1B6
330
1F
100
AcDbEntity
  8
SLD-0
100
AcDbLine
 10
165.1199124327
 20
159.4485966517
 30
0.0
 11
164.9198725703
 21
159.4485966517
 31
0.0
  0
LINE
  5
1B7
330
1F
100
AcDbEntity
  8
SLD-0
100
AcDbLine
 10
165.1213471879
 20
158.3858963312
 30
0.0
 11
165.0755740806
 21
158.3858963312
 31
0.0
  0
LINE
  5
1B8
330
1F
100
AcDbEntity
  8
SLD-0
100
AcDbLine
 10
165.1196352664
 20
158.9920701454
 30
0.0
 11
165.1204353406
 21
158.8666655619
 31
0.0
  0
LINE
  5
1B9
330
1F
100
AcDbEntity
  8
SLD-0
100
AcDbLine
 10
165.1204353406
 20
158.8666655619
 30
0.0
 11
165.1213471879
 21
158.8666655619
 31
0.0
  0
LINE
  5
1BA
330
1F
100
AcDbEntity
  8
SLD-0
100
AcDbLine
 10
150.3214876431
 20
160.8858963312
 30
0.0
 11
150.5214915447
 21
160.8858963312
 31
0.0
  0
LINE
  5
1BB
330
1F
100
AcDbEntity
  8
SLD-0
100
AcDbLine
 10
150.3661230028
 20
160.2058081902
 30
0.0
 11
150.5673746682
 21
160.2058081902
 31
0.0
  0
LINE
  5
1BC
330
1F
100
AcDbEntity
  8
SLD-0
100
AcDbLine
 10
150.3661230027
 20
158.8666655619
 30
0.0
 11
150.3661230027
 21
158.3858963312
 31
0.0
  0
LINE
  5
1BD
330
1F
100
AcDbEntity
  8
SLD-0
100
AcDbLine
 10
150.3661230027
 20
158.3858963312
 30
0.0
 11
150.3213471879
 21
158.3858963312
 31
0.0
  0
LINE
  5
1BE
330
1F
100
AcDbEntity
  8
SLD-0
100
AcDbLine
 10
150.3215105992
 20
159.5909166682
 30
0.0
 11
150.3215374257
 21
159.6438477857
 31
0.0
  0
LINE
  5
1BF
330
1F
100
AcDbEntity
  8
SLD-0
100
AcDbLine
 10
150.3215374257
 20
159.6438477857
 30
0.0
 11
150.3251401298
 21
159.852242485
 31
0.0
  0
LINE
  5
1C0
330
1F
100
AcDbEntity
  8
SLD-0
100
AcDbLine
 10
150.3213471879
 20
158.8666655619
 30
0.0
 11
150.3661230027
 21
158.8666655619
 31
0.0
  0
LINE
  5
1C1
330
1F
100
AcDbEntity
  8
SLD-0
100
AcDbLine
 10
150.3433659909
 20
159.578804985
 30
0.0
 11
150.5439795268
 21
159.578804985
 31
0.0
  0
LINE
  5
1C2
330
1F
100
AcDbEntity
  8
SLD-0
100
AcDbLine
 10
165.0824546024
 20
160.1316896004
 30
0.0
 11
164.8813683029
 21
160.1316896004
 31
0.0
  0
LINE
  5
1C3
330
1F
100
AcDbEntity
  8
SLD-0
100
AcDbLine
 10
165.1212067328
 20
160.8858963311
 30
0.0
 11
164.9213471879
 21
160.8858963311
 31
0.0
  0
LINE
  5
1C4
330
1F
100
AcDbEntity
  8
SLD-0
100
AcDbLine
 10
150.3661230027
 20
158.8666655619
 30
0.0
 11
150.5673746681
 21
158.8666655619
 31
0.0
  0
LINE
  5
1C5
330
1F
100
AcDbEntity
  8
SLD-0
100
AcDbLine
 10
150.3661230027
 20
158.3858963312
 30
0.0
 11
150.5673746681
 21
158.3858963312
 31
0.0
  0
LINE
  5
1C6
330
1F
100
AcDbEntity
  8
SLD-0
100
AcDbLine
 10
165.1161638597
 20
160.0846142799
 30
0.0
 11
164.9160197732
 21
160.0846142799
 31
0.0
  0
LINE
  5
1C7
330
1F
100
AcDbEntity
  8
SLD-0
100
AcDbLine
 10
165.117554246
 20
159.852242485
 30
0.0
 11
164.9213471879
 21
159.852242485
 31
0.0
  0
LINE
  5
1C8
330
1F
100
AcDbEntity
  8
SLD-0
100
AcDbLine
 10
160.7929166451
 20
154.7280788097
 30
0.0
 11
160.7986743882
 21
155.3878508166
 31
0.0
  0
LINE
  5
1C9
330
1F
100
AcDbEntity
  8
SLD-0
100
AcDbLine
 10
154.6439092359
 20
155.4005416988
 30
0.0
 11
154.6497777307
 21
154.7280788097
 31
0.0
  0
LINE
  5
1CA
330
1F
100
AcDbEntity
  8
SLD-0
100
AcDbLine
 10
150.221347188
 20
143.0386473831
 30
0.0
 11
150.121347188
 21
143.0386473831
 31
0.0
  0
LINE
  5
1CB
330
1F
100
AcDbEntity
  8
SLD-0
100
AcDbLine
 10
150.221347188
 20
142.9386473831
 30
0.0
 11
150.121347188
 21
142.9386473831
 31
0.0
  0
LINE
  5
1CC
330
1F
100
AcDbEntity
  8
SLD-0
100
AcDbLine
 10
150.121347188
 20
142.9386473831
 30
0.0
 11
150.121347188
 21
143.0386473831
 31
0.0
  0
LINE
  5
1CD
330
1F
100
AcDbEntity
  8
SLD-0
100
AcDbLine
 10
150.121347188
 20
141.2858963312
 30
0.0
 11
150.121347188
 21
142.9386473831
 31
0.0
  0
LINE
  5
1CE
330
1F
100
AcDbEntity
  8
SLD-0
100
AcDbLine
 10
150.121347188
 20
143.2858963312
 30
0.0
 11
150.221347188
 21
143.2858963312
 31
0.0
  0
LINE
  5
1CF
330
1F
100
AcDbEntity
  8
SLD-0
100
AcDbLine
 10
165.4213471879
 20
139.0552494749
 30
0.0
 11
165.2213471879
 21
139.0552494749
 31
0.0
  0
LINE
  5
1D0
330
1F
100
AcDbEntity
  8
SLD-0
100
AcDbLine
 10
165.2213471879
 20
139.5452118272
 30
0.0
 11
165.4213471879
 21
139.5452118272
 31
0.0
  0
LINE
  5
1D1
330
1F
100
AcDbEntity
  8
SLD-0
100
AcDbLine
 10
165.4213471879
 20
139.5452118272
 30
0.0
 11
165.4213471879
 21
139.0552494749
 31
0.0
  0
LINE
  5
1D2
330
1F
100
AcDbEntity
  8
SLD-0
100
AcDbLine
 10
165.4213471879
 20
134.0358963312
 30
0.0
 11
165.2213471879
 21
134.0358963312
 31
0.0
  0
LINE
  5
1D3
330
1F
100
AcDbEntity
  8
SLD-0
100
AcDbLine
 10
165.2213471879
 20
134.5358963312
 30
0.0
 11
165.4213471879
 21
134.5358963312
 31
0.0
  0
LINE
  5
1D4
330
1F
100
AcDbEntity
  8
SLD-0
100
AcDbLine
 10
165.4213471879
 20
134.5358963312
 30
0.0
 11
165.4213471879
 21
134.0358963312
 31
0.0
  0
LINE
  5
1D5
330
1F
100
AcDbEntity
  8
SLD-0
100
AcDbLine
 10
165.4213471879
 20
139.0552494749
 30
0.0
 11
165.4213471879
 21
134.5358963312
 31
0.0
  0
LINE
  5
1D6
330
1F
100
AcDbEntity
  8
SLD-0
100
AcDbLine
 10
165.4213471879
 20
141.2440385274
 30
0.0
 11
165.2213471879
 21
141.2440385274
 31
0.0
  0
LINE
  5
1D7
330
1F
100
AcDbEntity
  8
SLD-0
100
AcDbLine
 10
165.4213471879
 20
141.2440385274
 30
0.0
 11
165.4213471879
 21
139.5452118272
 31
0.0
  0
LINE
  5
1D8
330
1F
100
AcDbEntity
  8
SLD-0
100
AcDbLine
 10
165.4713471879
 20
134.8358963312
 30
0.0
 11
165.4713471879
 21
136.1358963312
 31
0.0
  0
LINE
  5
1D9
330
1F
100
AcDbEntity
  8
SLD-0
100
AcDbLine
 10
165.4713471879
 20
134.8358963312
 30
0.0
 11
165.4213471879
 21
134.8358963312
 31
0.0
  0
LINE
  5
1DA
330
1F
100
AcDbEntity
  8
SLD-0
100
AcDbLine
 10
165.4713471879
 20
136.1358963312
 30
0.0
 11
165.4213471879
 21
136.1358963312
 31
0.0
  0
LINE
  5
1DB
330
1F
100
AcDbEntity
  8
SLD-0
100
AcDbLine
 10
165.4213471879
 20
141.2540761751
 30
0.0
 11
165.4213471879
 21
141.2440385274
 31
0.0
  0
LINE
  5
1DC
330
1F
100
AcDbEntity
  8
SLD-0
100
AcDbLine
 10
165.4713471879
 20
137.3858963312
 30
0.0
 11
165.4213471879
 21
137.3858963312
 31
0.0
  0
LINE
  5
1DD
330
1F
100
AcDbEntity
  8
SLD-0
100
AcDbLine
 10
165.4713471879
 20
137.3858963312
 30
0.0
 11
165.4713471879
 21
137.2358963312
 31
0.0
  0
LINE
  5
1DE
330
1F
100
AcDbEntity
  8
SLD-0
100
AcDbLine
 10
165.4713471879
 20
137.2358963312
 30
0.0
 11
165.4213471879
 21
137.2358963312
 31
0.0
  0
LINE
  5
1DF
330
1F
100
AcDbEntity
  8
SLD-0
100
AcDbLine
 10
165.4213471879
 20
141.8730638219
 30
0.0
 11
165.2213471879
 21
141.8730638219
 31
0.0
  0
LINE
  5
1E0
330
1F
100
AcDbEntity
  8
SLD-0
100
AcDbLine
 10
165.4213471879
 20
141.2540761751
 30
0.0
 11
165.4213471879
 21
141.8730638219
 31
0.0
  0
LINE
  5
1E1
330
1F
100
AcDbEntity
  8
SLD-0
100
AcDbLine
 10
165.2213471879
 20
142.3630261743
 30
0.0
 11
165.4213471879
 21
142.3630261743
 31
0.0
  0
LINE
  5
1E2
330
1F
100
AcDbEntity
  8
SLD-0
100
AcDbLine
 10
165.4213471879
 20
142.3630261743
 30
0.0
 11
165.4213471879
 21
141.8730638219
 31
0.0
  0
LINE
  5
1E3
330
1F
100
AcDbEntity
  8
SLD-0
100
AcDbLine
 10
165.4213471879
 20
142.5358963312
 30
0.0
 11
165.2213471879
 21
142.5358963312
 31
0.0
  0
LINE
  5
1E4
330
1F
100
AcDbEntity
  8
SLD-0
100
AcDbLine
 10
165.4213471879
 20
142.5358963312
 30
0.0
 11
165.4213471879
 21
142.3630261743
 31
0.0
  0
LINE
  5
1E5
330
1F
100
AcDbEntity
  8
SLD-0
100
AcDbLine
 10
165.4713471879
 20
134.8192296645
 30
0.0
 11
165.4213471879
 21
134.8192296645
 31
0.0
  0
LINE
  5
1E6
330
1F
100
AcDbEntity
  8
SLD-0
100
AcDbLine
 10
165.4713471879
 20
140.8358963312
 30
0.0
 11
165.4213471879
 21
140.8358963312
 31
0.0
  0
LINE
  5
1E7
330
1F
100
AcDbEntity
  8
SLD-0
100
AcDbLine
 10
165.4713471879
 20
138.6358963312
 30
0.0
 11
165.4713471879
 21
140.8358963312
 31
0.0
  0
LINE
  5
1E8
330
1F
100
AcDbEntity
  8
SLD-0
100
AcDbLine
 10
165.4713471879
 20
138.6358963312
 30
0.0
 11
165.4213471879
 21
138.6358963312
 31
0.0
  0
LINE
  5
1E9
330
1F
100
AcDbEntity
  8
SLD-0
100
AcDbLine
 10
165.4713471879
 20
138.607691203
 30
0.0
 11
165.4213471879
 21
138.607691203
 31
0.0
  0
LINE
  5
1EA
330
1F
100
AcDbEntity
  8
SLD-0
100
AcDbLine
 10
165.4713471879
 20
136.6858963312
 30
0.0
 11
165.4213471879
 21
136.6858963312
 31
0.0
  0
LINE
  5
1EB
330
1F
100
AcDbEntity
  8
SLD-0
100
AcDbLine
 10
165.4713471879
 20
136.6858963312
 30
0.0
 11
165.4713471879
 21
136.2684323588
 31
0.0
  0
LINE
  5
1EC
330
1F
100
AcDbEntity
  8
SLD-0
100
AcDbLine
 10
165.4713471879
 20
134.2858963312
 30
0.0
 11
165.4213471879
 21
134.2858963312
 31
0.0
  0
LINE
  5
1ED
330
1F
100
AcDbEntity
  8
SLD-0
100
AcDbLine
 10
165.4713471879
 20
134.7382476825
 30
0.0
 11
165.4713471879
 21
134.2858963312
 31
0.0
  0
LINE
  5
1EE
330
1F
100
AcDbEntity
  8
SLD-0
100
AcDbLine
 10
157.7213471879
 20
167.3030536187
 30
0.0
 11
150.5213471879
 21
167.3030536187
 31
0.0
  0
LINE
  5
1EF
330
1F
100
AcDbEntity
  8
SLD-0
100
AcDbLine
 10
164.9213471879
 20
167.3030536187
 30
0.0
 11
157.7213471879
 21
167.3030536187
 31
0.0
  0
LINE
  5
1F0
330
1F
100
AcDbEntity
  8
SLD-0
100
AcDbLine
 10
157.7213471879
 20
167.4444749749
 30
0.0
 11
164.8627685442
 21
167.4444749749
 31
0.0
  0
LINE
  5
1F1
330
1F
100
AcDbEntity
  8
SLD-0
100
AcDbLine
 10
150.5799258317
 20
167.4444749749
 30
0.0
 11
157.7213471879
 21
167.4444749749
 31
0.0
  0
LINE
  5
1F2
330
1F
100
AcDbEntity
  8
SLD-0
100
AcDbLine
 10
157.7213471879
 20
167.8273176873
 30
0.0
 11
150.9627685441
 21
167.8273176873
 31
0.0
  0
LINE
  5
1F3
330
1F
100
AcDbEntity
  8
SLD-0
100
AcDbLine
 10
164.4799258317
 20
167.8273176873
 30
0.0
 11
157.7213471879
 21
167.8273176873
 31
0.0
  0
LINE
  5
1F4
330
1F
100
AcDbEntity
  8
SLD-0
100
AcDbLine
 10
161.4091649708
 20
154.4165930781
 30
0.0
 11
161.4091649708
 21
155.0279891626
 31
0.0
  0
LINE
  5
1F5
330
1F
100
AcDbEntity
  8
SLD-0
100
AcDbLine
 10
154.033529405
 20
155.0405535635
 30
0.0
 11
154.033529405
 21
154.4165930781
 31
0.0
  0
LINE
  5
1F6
330
1F
100
AcDbEntity
  8
SLD-0
100
AcDbLine
 10
161.1968861794
 20
155.1811970513
 30
0.0
 11
161.1912463913
 21
154.5349413392
 31
0.0
  0
LINE
  5
1F7
330
1F
100
AcDbEntity
  8
SLD-0
100
AcDbLine
 10
154.2514479845
 20
154.5349413392
 30
0.0
 11
154.2459023708
 21
155.170405729
 31
0.0
  0
LINE
  5
1F8
330
1F
100
AcDbEntity
  8
7
100
AcDbLine
 10
46.933004991
 20
145.4083836286
 30
0.0
 11
46.933004991
 21
132.762130346
 31
0.0
  0
LINE
  5
1F9
330
1F
100
AcDbEntity
  8
7
100
AcDbLine
 10
40.6098783497
 20
139.0852569873
 30
0.0
 11
53.2561316323
 21
139.0852569873
 31
0.0
  0
LINE
  5
1FA
330
1F
100
AcDbEntity
  8
7
100
AcDbLine
 10
66.933004991
 20
145.4083836286
 30
0.0
 11
66.933004991
 21
132.762130346
 31
0.0
  0
LINE
  5
1FB
330
1F
100
AcDbEntity
  8
7
100
AcDbLine
 10
60.6098783497
 20
139.0852569873
 30
0.0
 11
73.2561316323
 21
139.0852569873
 31
0.0
  0
LINE
  5
1FC
330
1F
100
AcDbEntity
  8
7
100
AcDbLine
 10
56.433004991
 20
175.7996068582
 30
0.0
 11
56.433004991
 21
145.3249057811
 31
0.0
  0
LINE
  5
1FD
330
1F
100
AcDbEntity
  8
7
100
AcDbLine
 10
164.8213471879
 20
147.8858963312
 30
0.0
 11
150.6213471879
 21
147.8858963312
 31
0.0
  0
LINE
  5
1FE
330
1F
100
AcDbEntity
  8
7
100
AcDbLine
 10
157.7213471879
 20
154.9858963312
 30
0.0
 11
157.7213471879
 21
140.7858963312
 31
0.0
  0
LINE
  5
1FF
330
1F
100
AcDbEntity
  8
7
100
AcDbLine
 10
166.7911597686
 20
147.8858963312
 30
0.0
 11
148.6515346073
 21
147.8858963312
 31
0.0
  0
LINE
  5
200
330
1F
100
AcDbEntity
  8
7
100
AcDbLine
 10
157.7213471879
 20
156.9557089119
 30
0.0
 11
157.7213471879
 21
138.8160837505
 31
0.0
  0
LINE
  5
201
330
1F
100
AcDbEntity
  8
0
  6
Continuous
 62
     7
370
     0
100
AcDbLine
 10
20.2604743903
 20
285.0
 30
0.0
 11
196.7604743903
 21
285.0
 31
0.0
  0
LINE
  5
202
330
1F
100
AcDbEntity
  8
0
  6
Continuous
 62
     7
370
     0
100
AcDbLine
 10
20.2604743903
 20
285.0
 30
0.0
 11
20.2604743903
 21
10.0
 31
0.0
  0
LINE
  5
203
330
1F
100
AcDbEntity
  8
0
  6
Continuous
 62
     7
370
     0
100
AcDbLine
 10
20.2604743903
 20
10.0
 30
0.0
 11
196.7604743903
 21
10.0
 31
0.0
  0
LINE
  5
204
330
1F
100
AcDbEntity
  8
0
  6
Continuous
 62
     7
370
     0
100
AcDbLine
 10
196.7604743903
 20
285.0
 30
0.0
 11
196.7604743903
 21
10.0
 31
0.0
  0
LINE
  5
205
330
1F
100
AcDbEntity
  8
0
  6
Continuous
 62
     7
370
     0
100
AcDbLine
 10
127.0104743903
 20
50.75
 30
0.0
 11
196.7604743903
 21
50.75
 31
0.0
  0
LINE
  5
206
330
1F
100
AcDbEntity
  8
0
  6
Continuous
 62
     7
370
     0
100
AcDbLine
 10
127.0104743903
 20
50.75
 30
0.0
 11
127.0104743903
 21
10.0
 31
0.0
  0
LINE
  5
207
330
1F
100
AcDbEntity
  8
0
  6
Continuous
 62
     7
370
     0
100
AcDbLine
 10
127.0104743903
 20
22.75
 30
0.0
 11
196.7604743903
 21
22.75
 31
0.0
  0
LINE
  5
208
330
1F
100
AcDbEntity
  8
0
  6
Continuous
 62
     7
370
     0
100
AcDbLine
 10
127.0104743903
 20
36.75
 30
0.0
 11
196.7604743903
 21
36.75
 31
0.0
  0
ARC
  5
209
330
1F
100
AcDbEntity
  8
SLD-0
100
AcDbCircle
 10
124.2714259752
 20
141.8858963312
 30
0.0
 40
0.8000000000101806
100
AcDbArc
 50
270.0
 51
341.7900431362
  0
ARC
  5
20A
330
1F
100
AcDbEntity
  8
SLD-0
100
AcDbCircle
 10
124.2714259752
 20
153.8858963312
 30
0.0
 40
0.800000000010203
100
AcDbArc
 50
18.2099568638
 51
90.0
  0
ARC
  5
20B
330
1F
100
AcDbEntity
  8
SLD-0
100
AcDbCircle
 10
106.033004991
 20
147.8858963312
 30
0.0
 40
19.99999999997241
100
AcDbArc
 50
4.3012223047
 51
18.2099568643
  0
ARC
  5
20C
330
1F
100
AcDbEntity
  8
SLD-0
100
AcDbCircle
 10
106.033004991
 20
147.8858963312
 30
0.0
 40
19.99999999998032
100
AcDbArc
 50
341.7900431357
 51
355.6987776953
  0
ARC
  5
20D
330
1F
100
AcDbEntity
  8
SLD-0
100
AcDbCircle
 10
34.8330051146
 20
154.9859008014
 30
0.0
 40
0.4000000000000341
100
AcDbArc
 50
90.0
 51
180.0
  0
ARC
  5
20E
330
1F
100
AcDbEntity
  8
SLD-0
100
AcDbCircle
 10
85.5330049665
 20
140.7858964522
 30
0.0
 40
0.4000000000000057
100
AcDbArc
 50
270.0
 51
0.0
  0
ARC
  5
20F
330
1F
100
AcDbEntity
  8
SLD-0
100
AcDbCircle
 10
85.5330049665
 20
154.9858964522
 30
0.0
 40
0.4000000000000057
100
AcDbArc
 50
0.0
 51
90.0
  0
ARC
  5
210
330
1F
100
AcDbEntity
  8
SLD-0
100
AcDbCircle
 10
64.633004991
 20
156.1858963312
 30
0.0
 40
1.000000000000028
100
AcDbArc
 50
180.0
 51
270.0
  0
ARC
  5
211
330
1F
100
AcDbEntity
  8
SLD-0
100
AcDbCircle
 10
48.2330049912
 20
156.1858963312
 30
0.0
 40
1.0
100
AcDbArc
 50
270.0
 51
0.0
  0
ARC
  5
212
330
1F
100
AcDbEntity
  8
SLD-0
100
AcDbCircle
 10
49.4330049912
 20
167.3030536189
 30
0.0
 40
0.1999999999736133
100
AcDbArc
 50
135.000000083
 51
180.0
  0
ARC
  5
213
330
1F
100
AcDbEntity
  8
SLD-0
100
AcDbCircle
 10
63.433004991
 20
167.3030536187
 30
0.0
 40
0.1999999999736275
100
AcDbArc
 50
0.0
 51
45.0
  0
ARC
  5
214
330
1F
100
AcDbEntity
  8
SLD-0
100
AcDbCircle
 10
79.8330049663
 20
139.9858964522
 30
0.0
 40
0.4000000000000199
100
AcDbArc
 50
90.0
 51
180.0
  0
ARC
  5
215
330
1F
100
AcDbEntity
  8
SLD-0
100
AcDbCircle
 10
49.8158477035
 20
167.6858963311
 30
0.0
 40
0.1999999999736417
100
AcDbArc
 50
90.0
 51
135.0
  0
ARC
  5
216
330
1F
100
AcDbEntity
  8
SLD-0
100
AcDbCircle
 10
63.0501622785
 20
167.6858963311
 30
0.0
 40
0.1999999999736417
100
AcDbArc
 50
45.0
 51
90.0
  0
ARC
  5
217
330
1F
100
AcDbEntity
  8
SLD-0
100
AcDbCircle
 10
54.3567495511
 20
143.2813830925
 30
0.0
 40
25.10217370255263
100
AcDbArc
 50
2.6038891415
 51
10.5696619659
  0
ARC
  5
218
330
1F
100
AcDbEntity
  8
SLD-0
100
AcDbCircle
 10
63.9304251317
 20
142.4704346991
 30
0.0
 40
16.044162292193
100
AcDbArc
 50
7.6173466403
 51
19.7267465993
  0
ARC
  5
219
330
1F
100
AcDbEntity
  8
SLD-0
100
AcDbCircle
 10
80.0022553141
 20
151.454579862
 30
0.0
 40
0.2076768378301633
100
AcDbArc
 50
6.6582090731
 51
36.7496598813
  0
CIRCLE
  5
21A
330
1F
100
AcDbEntity
  8
SLD-0
100
AcDbCircle
 10
66.933004991
 20
139.0858963312
 30
0.0
 40
2.122691584406695
  0
CIRCLE
  5
21B
330
1F
100
AcDbEntity
  8
SLD-0
100
AcDbCircle
 10
46.933004991
 20
139.0858963312
 30
0.0
 40
2.122691584406695
  0
CIRCLE
  5
21C
330
1F
100
AcDbEntity
  8
SLD-0
100
AcDbCircle
 10
66.933004991
 20
139.0852569873
 30
0.0
 40
2.098415862478248
  0
ARC
  5
21D
330
1F
100
AcDbEntity
  8
SLD-0
100
AcDbCircle
 10
80.0790752419
 20
152.0715210554
 30
0.0
 40
0.6068311696349726
100
AcDbArc
 50
282.3176610298
 51
0.9970037839
  0
CIRCLE
  5
21E
330
1F
100
AcDbEntity
  8
SLD-0
100
AcDbCircle
 10
46.933004991
 20
139.0852569873
 30
0.0
 40
2.098415862478248
  0
ARC
  5
21F
330
1F
100
AcDbEntity
  8
SLD-0
100
AcDbCircle
 10
37.7330004321
 20
155.1858961191
 30
0.0
 40
0.2000046823607668
100
AcDbArc
 50
0.0
 51
90.0008403375
  0
ARC
  5
220
330
1F
100
AcDbEntity
  8
SLD-0
100
AcDbCircle
 10
56.5560621091
 20
160.2004758199
 30
0.0
 40
0.6897840058946917
100
AcDbArc
 50
0.4429290171
 51
96.4480367093
  0
ARC
  5
221
330
1F
100
AcDbEntity
  8
SLD-0
100
AcDbCircle
 10
53.7512424556
 20
162.0273037304
 30
0.0
 40
4.070862304809759
100
AcDbArc
 50
309.0674038988
 51
323.0247980732
  0
ARC
  5
222
330
1F
100
AcDbEntity
  8
SLD-0
100
AcDbCircle
 10
56.251573455
 20
160.2298146859
 30
0.0
 40
0.994541828374149
100
AcDbArc
 50
319.1119976618
 51
358.6168460133
  0
ARC
  5
223
330
1F
100
AcDbEntity
  8
SLD-0
100
AcDbCircle
 10
56.2188530171
 20
160.1609162987
 30
0.0
 40
0.5465588157056025
100
AcDbArc
 50
325.6144674462
 51
357.933197304
  0
ARC
  5
224
330
1F
100
AcDbEntity
  8
SLD-0
100
AcDbCircle
 10
56.4779750422
 20
160.1797276593
 30
0.0
 40
0.2896543489784094
100
AcDbArc
 50
352.35725283
 51
91.8583562493
  0
ARC
  5
225
330
1F
100
AcDbEntity
  8
SLD-0
100
AcDbCircle
 10
53.3279540851
 20
162.6368859516
 30
0.0
 40
4.350042375284072
100
AcDbArc
 50
312.8671613005
 51
320.1976144128
  0
ARC
  5
226
330
1F
100
AcDbEntity
  8
SLD-0
100
AcDbCircle
 10
57.4225905229
 20
157.9799192639
 30
0.0
 40
1.856317953909958
100
AcDbArc
 50
127.7042930871
 51
167.3673003239
  0
ARC
  5
227
330
1F
100
AcDbEntity
  8
SLD-0
100
AcDbCircle
 10
56.4391255645
 20
160.123055193
 30
0.0
 40
0.7638616828103124
100
AcDbArc
 50
87.0379346357
 51
179.3523360977
  0
ARC
  5
228
330
1F
100
AcDbEntity
  8
SLD-0
100
AcDbCircle
 10
62.7266777515
 20
152.2026816477
 30
0.0
 40
0.268493154264622
100
AcDbArc
 50
16.3530498204
 51
77.5107288133
  0
ARC
  5
229
330
1F
100
AcDbEntity
  8
SLD-0
100
AcDbCircle
 10
43.133009677
 20
154.9858916454
 30
0.0
 40
0.2000046858357526
100
AcDbArc
 50
89.9991606651
 51
180.0
  0
ARC
  5
22A
330
1F
100
AcDbEntity
  8
SLD-0
100
AcDbCircle
 10
41.7330003052
 20
154.9858916455
 30
0.0
 40
0.2000046857607776
100
AcDbArc
 50
0.0
 51
90.0008393635
  0
ARC
  5
22B
330
1F
100
AcDbEntity
  8
SLD-0
100
AcDbCircle
 10
39.1330096769
 20
154.9858916454
 30
0.0
 40
0.2000046858357526
100
AcDbArc
 50
89.9991606651
 51
180.0
  0
ARC
  5
22C
330
1F
100
AcDbEntity
  8
SLD-0
100
AcDbCircle
 10
51.3744272544
 20
150.705565886
 30
0.0
 40
0.3204974211654751
100
AcDbArc
 50
105.4598199319
 51
152.8220346351
  0
ARC
  5
22D
330
1F
100
AcDbEntity
  8
SLD-0
100
AcDbCircle
 10
52.0236163684
 20
147.9763619401
 30
0.0
 40
2.289008846828927
100
AcDbArc
 50
26.5187702604
 51
36.1364238407
  0
ARC
  5
22E
330
1F
100
AcDbEntity
  8
SLD-0
100
AcDbCircle
 10
58.4426760179
 20
148.7467563655
 30
0.0
 40
0.5869284031589518
100
AcDbArc
 50
42.9877072243
 51
66.9807742676
  0
ARC
  5
22F
330
1F
100
AcDbEntity
  8
SLD-0
100
AcDbCircle
 10
47.1330096769
 20
154.9858916454
 30
0.0
 40
0.2000046858357526
100
AcDbArc
 50
89.9991606651
 51
180.0
  0
ARC
  5
230
330
1F
100
AcDbEntity
  8
SLD-0
100
AcDbCircle
 10
45.7330003051
 20
154.9858916455
 30
0.0
 40
0.2000046857607776
100
AcDbArc
 50
0.0
 51
90.0008393635
  0
ARC
  5
231
330
1F
100
AcDbEntity
  8
SLD-0
100
AcDbCircle
 10
55.9935244586
 20
147.7635648974
 30
0.0
 40
1.130415685282585
100
AcDbArc
 50
121.9958188492
 51
134.9642861895
  0
ARC
  5
232
330
1F
100
AcDbEntity
  8
SLD-0
100
AcDbCircle
 10
47.9989397687
 20
151.3898997481
 30
0.0
 40
2.029184722718723
100
AcDbArc
 50
12.3158162804
 51
28.3943639555
  0
ARC
  5
233
330
1F
100
AcDbEntity
  8
SLD-0
100
AcDbCircle
 10
62.2912464289
 20
149.1560218686
 30
0.0
 40
2.424837525135119
100
AcDbArc
 50
149.9997706082
 51
161.451745928
  0
ARC
  5
234
330
1F
100
AcDbEntity
  8
SLD-0
100
AcDbCircle
 10
65.7273392109
 20
152.8999159252
 30
0.0
 40
1.680687230535479
100
AcDbArc
 50
150.1202594627
 51
169.6331799676
  0
ARC
  5
235
330
1F
100
AcDbEntity
  8
SLD-0
100
AcDbCircle
 10
66.9330001567
 20
154.9858917662
 30
0.0
 40
0.20000468576076
100
AcDbArc
 50
0.0
 51
90.0008393635
  0
ARC
  5
236
330
1F
100
AcDbEntity
  8
SLD-0
100
AcDbCircle
 10
68.3330095282
 20
154.9858917662
 30
0.0
 40
0.2000046858357371
100
AcDbArc
 50
89.9991606651
 51
180.0
  0
ARC
  5
237
330
1F
100
AcDbEntity
  8
SLD-0
100
AcDbCircle
 10
63.4526930716
 20
153.1905719319
 30
0.0
 40
0.621506411689148
100
AcDbArc
 50
356.4796728826
 51
1.0863107722
  0
ARC
  5
238
330
1F
100
AcDbEntity
  8
SLD-0
100
AcDbCircle
 10
71.0330001568
 20
154.9858917662
 30
0.0
 40
0.20000468576076
100
AcDbArc
 50
0.0
 51
90.0008393635
  0
ARC
  5
239
330
1F
100
AcDbEntity
  8
SLD-0
100
AcDbCircle
 10
72.4330095284
 20
154.9858917662
 30
0.0
 40
0.2000046858357371
100
AcDbArc
 50
89.9991606651
 51
180.0
  0
ARC
  5
23A
330
1F
100
AcDbEntity
  8
SLD-0
100
AcDbCircle
 10
75.133000157
 20
154.9858917663
 30
0.0
 40
0.2000046857607776
100
AcDbArc
 50
0.0
 51
90.0008393635
  0
ARC
  5
23B
330
1F
100
AcDbEntity
  8
SLD-0
100
AcDbCircle
 10
76.5330095285
 20
154.9858917663
 30
0.0
 40
0.2000046858357526
100
AcDbArc
 50
89.9991606651
 51
180.0
  0
ARC
  5
23C
330
1F
100
AcDbEntity
  8
SLD-0
100
AcDbCircle
 10
80.090275861
 20
151.9665563538
 30
0.0
 40
0.3955629097628642
100
AcDbArc
 50
281.42898282
 51
0.5251340856
  0
ARC
  5
23D
330
1F
100
AcDbEntity
  8
SLD-0
100
AcDbCircle
 10
80.0848297531
 20
151.9666324909
 30
0.0
 40
0.3967230013426931
100
AcDbArc
 50
281.4534491355
 51
0.3868840884
  0
ARC
  5
23E
330
1F
100
AcDbEntity
  8
SLD-0
100
AcDbCircle
 10
79.2330001571
 20
154.9858917664
 30
0.0
 40
0.2000046857607492
100
AcDbArc
 50
0.0
 51
90.0008393635
  0
ARC
  5
23F
330
1F
100
AcDbEntity
  8
SLD-0
100
AcDbCircle
 10
80.6330095252
 20
155.1858917699
 30
0.0
 40
0.2000046823607629
100
AcDbArc
 50
89.9991242801
 51
180.0
  0
CIRCLE
  5
240
330
1F
100
AcDbEntity
  8
SLD-0
100
AcDbCircle
 10
157.7213471879
 20
147.8858963312
 30
0.0
 40
2.800000000000011
  0
ARC
  5
241
330
1F
100
AcDbEntity
  8
SLD-0
100
AcDbCircle
 10
150.7213471879
 20
167.3030536187
 30
0.0
 40
0.1999999999736221
100
AcDbArc
 50
135.0
 51
180.0
  0
ARC
  5
242
330
1F
100
AcDbEntity
  8
SLD-0
100
AcDbCircle
 10
164.7213471879
 20
167.3030536187
 30
0.0
 40
0.2000000000089983
100
AcDbArc
 50
360.0
 51
44.9999999797
  0
ARC
  5
243
330
1F
100
AcDbEntity
  8
SLD-0
100
AcDbCircle
 10
151.1041899004
 20
167.6858963311
 30
0.0
 40
0.1999999999736701
100
AcDbArc
 50
90.0
 51
135.0
  0
ARC
  5
244
330
1F
100
AcDbEntity
  8
SLD-0
100
AcDbCircle
 10
164.3385044754
 20
167.6858963311
 30
0.0
 40
0.1999999999736701
100
AcDbArc
 50
45.0
 51
90.0
  0
CIRCLE
  5
245
330
1F
100
AcDbEntity
  8
SLD-0
100
AcDbCircle
 10
157.7213471879
 20
147.8858963312
 30
0.0
 40
3.099999999999994
  0
CIRCLE
  5
246
330
1F
100
AcDbEntity
  8
SLD-0
100
AcDbCircle
 10
157.7213471879
 20
147.8858963312
 30
0.0
 40
3.600000000000023
  0
CIRCLE
  5
247
330
1F
100
AcDbEntity
  8
SLD-0
100
AcDbCircle
 10
157.7213471879
 20
147.8858963312
 30
0.0
 40
5.899999999999977
  0
CIRCLE
  5
248
330
1F
100
AcDbEntity
  8
SLD-0
100
AcDbCircle
 10
157.7213471879
 20
147.8858963312
 30
0.0
 40
0.7928932188134468
  0
CIRCLE
  5
249
330
1F
100
AcDbEntity
  8
SLD-0
100
AcDbCircle
 10
157.7213471879
 20
147.8858963312
 30
0.0
 40
0.5
  0
ARC
  5
24A
330
1F
100
AcDbEntity
  8
SLD-0
100
AcDbCircle
 10
157.7213471879
 20
147.8858963312
 30
0.0
 40
7.5
100
AcDbArc
 50
0.0
 51
180.0
  0
ARC
  5
24B
330
1F
100
AcDbEntity
  8
SLD-0
100
AcDbCircle
 10
157.7213471879
 20
147.8858963312
 30
0.0
 40
7.099999999999994
100
AcDbArc
 50
0.0
 51
180.0
  0
ARC
  5
24C
330
1F
100
AcDbEntity
  8
SLD-0
100
AcDbCircle
 10
157.5569528137
 20
149.0918756704
 30
0.0
 40
7.095925214184093
100
AcDbArc
 50
20.9837564093
 51
88.6724850779
  0
ARC
  5
24D
330
1F
100
AcDbEntity
  8
SLD-0
100
AcDbCircle
 10
157.9055203674
 20
149.0143933756
 30
0.0
 40
7.173867464758705
100
AcDbArc
 50
91.4711040371
 51
162.2100145651
  0
ARC
  5
24E
330
1F
100
AcDbEntity
  8
SLD-0
100
AcDbCircle
 10
172.3998902819
 20
160.1127432237
 30
0.0
 40
7.51854585103909
100
AcDbArc
 50
174.0976809072
 51
179.8556172174
  0
ARC
  5
24F
330
1F
100
AcDbEntity
  8
SLD-0
100
AcDbCircle
 10
173.5371467996
 20
158.5466823254
 30
0.0
 40
8.664344441141202
100
AcDbArc
 50
174.0249758905
 51
181.0633104164
  0
ARC
  5
250
330
1F
100
AcDbEntity
  8
SLD-0
100
AcDbCircle
 10
157.5341841285
 20
159.0159123121
 30
0.0
 40
7.012838734142649
100
AcDbArc
 50
175.3954254668
 51
179.9590223952
  0
ARC
  5
251
330
1F
100
AcDbEntity
  8
SLD-0
100
AcDbCircle
 10
141.0493438794
 20
160.2470129234
 30
0.0
 40
9.518119978564428
100
AcDbArc
 50
355.9743086305
 51
359.7519610292
  0
ARC
  5
252
330
1F
100
AcDbEntity
  8
SLD-0
100
AcDbCircle
 10
147.1657343779
 20
160.3179034971
 30
0.0
 40
3.403486744823589
100
AcDbArc
 50
358.1125974097
 51
9.6067887644
  0
ARC
  5
253
330
1F
100
AcDbEntity
  8
SLD-0
100
AcDbCircle
 10
145.6050787022
 20
159.7305262159
 30
0.0
 40
19.51687013344419
100
AcDbArc
 50
356.0494333668
 51
359.1723090906
  0
ARC
  5
254
330
1F
100
AcDbEntity
  8
SLD-0
100
AcDbCircle
 10
156.861788837
 20
159.6021807042
 30
0.0
 40
8.259551645339013
100
AcDbArc
 50
358.934539601
 51
1.7349215729
  0
ARC
  5
255
330
1F
100
AcDbEntity
  8
SLD-0
100
AcDbCircle
 10
177.3890909931
 20
160.1396530202
 30
0.0
 40
12.27490199356917
100
AcDbArc
 50
180.2569061733
 51
181.341673906
  0
ARC
  5
256
330
1F
100
AcDbEntity
  8
SLD-0
100
AcDbCircle
 10
182.1473221597
 20
160.0501737505
 30
0.0
 40
17.03119312282287
100
AcDbArc
 50
178.6128850051
 51
179.8841362252
  0
ARC
  5
257
330
1F
100
AcDbEntity
  8
SLD-0
100
AcDbCircle
 10
167.7130526495
 20
160.3746249577
 30
0.0
 40
2.64179175432185
100
AcDbArc
 50
168.8410172248
 51
185.2762914787
  0
ARC
  5
258
330
1F
100
AcDbEntity
  8
SLD-0
100
AcDbCircle
 10
146.2853260068
 20
160.2794872515
 30
0.0
 40
4.081462081957844
100
AcDbArc
 50
358.9656332748
 51
8.5444378085
  0
ARC
  5
259
330
1F
100
AcDbEntity
  8
SLD-0
100
AcDbCircle
 10
136.0428904379
 20
160.1776795937
 30
0.0
 40
14.28595693586876
100
AcDbArc
 50
358.6946771583
 51
359.8537127832
  0
ARC
  5
25A
330
1F
100
AcDbEntity
  8
SLD-0
100
AcDbCircle
 10
146.5630250421
 20
160.2207130667
 30
0.0
 40
3.766615018337783
100
AcDbArc
 50
358.7904722575
 51
3.7830527517
  0
ARC
  5
25B
330
1F
100
AcDbEntity
  8
SLD-0
100
AcDbCircle
 10
133.0083025461
 20
160.0474148316
 30
0.0
 40
17.31826792212924
100
AcDbArc
 50
0.1230707965
 51
1.3956707462
  0
ARC
  5
25C
330
1F
100
AcDbEntity
  8
SLD-0
100
AcDbCircle
 10
140.6723142967
 20
160.2437293189
 30
0.0
 40
9.693882877468765
100
AcDbArc
 50
356.066870636
 51
359.7758662656
  0
ARC
  5
25D
330
1F
100
AcDbEntity
  8
SLD-0
100
AcDbCircle
 10
158.3159444929
 20
158.9861248464
 30
0.0
 40
7.994578019969639
100
AcDbArc
 50
175.7484618394
 51
180.8561762164
  0
SPLINE
  5
25E
330
1F
100
AcDbEntity
  8
SLD-0
100
AcDbSpline
210
0.0
220
0.0
230
1.0
 70
    28
 71
     3
 72
    23
 73
    19
 74
     0
 42
0.00000001
 43
0.00000001
 40
0.0
 40
0.0
 40
0.0
 40
0.0
 40
0.0673455133324349
 40
0.1322824462207189
 40
0.1952047908892193
 40
0.2567077343438464
 40
0.3172116539569617
 40
0.3772857804954437
 40
0.4378685399479025
 40
0.4990881094029309
 40
0.560400892205283
 40
0.6212069433372175
 40
0.6816699947735251
 40
0.7426314439894786
 40
0.8044371517266032
 40
0.8676392817943591
 40
0.932442191206479
 40
1.0
 40
1.0
 40
1.0
 40
1.0
 10
79.63300499100001
 20
134.3538450491
 30
0.0
 41
1.0
 10
79.63300499100001
 20
134.3543018475884
 30
0.0
 41
1.0
 10
79.63300499100001
 20
134.3551991073833
 30
0.0
 41
1.0
 10
79.63300499100001
 20
134.3658286046573
 30
0.0
 41
1.0
 10
79.63300499100001
 20
134.3814658456193
 30
0.0
 41
1.0
 10
79.63300499100001
 20
134.4043414469529
 30
0.0
 41
1.0
 10
79.63300499100001
 20
134.4325177773696
 30
0.0
 41
1.0
 10
79.63300499100001
 20
134.4688398650563
 30
0.0
 41
1.0
 10
79.63300499100001
 20
134.5101229298058
 30
0.0
 41
1.0
 10
79.63300499100001
 20
134.5584827438036
 30
0.0
 41
1.0
 10
79.63300499100001
 20
134.6111899926306
 30
0.0
 41
1.0
 10
79.63300499100001
 20
134.6691532456735
 30
0.0
 41
1.0
 10
79.63300499100001
 20
134.730522515423
 30
0.0
 41
1.0
 10
79.63300499100001
 20
134.7958418849592
 30
0.0
 41
1.0
 10
79.63300499100001
 20
134.8652810905349
 30
0.0
 41
1.0
 10
79.63300499100001
 20
134.9386608947908
 30
0.0
 41
1.0
 10
79.63300499100001
 20
135.0157565886561
 30
0.0
 41
1.0
 10
79.63300499100001
 20
135.0689051584185
 30
0.0
 41
1.0
 10
79.63300499100001
 20
135.0960325491
 30
0.0
 41
1.0
  0
SPLINE
  5
25F
330
1F
100
AcDbEntity
  8
SLD-0
100
AcDbSpline
210
0.0
220
0.0
230
1.0
 70
    28
 71
     3
 72
    19
 73
    15
 74
     0
 42
0.00000001
 43
0.00000001
 40
0.0
 40
0.0
 40
0.0
 40
0.0
 40
0.1017340290565188
 40
0.1947417213437002
 40
0.2792788916351169
 40
0.3566660711123596
 40
0.4309560396784015
 40
0.5058196632789102
 40
0.5820998940514589
 40
0.6615079801926962
 40
0.7432594774158027
 40
0.8260386158600269
 40
0.9112078215062792
 40
1.0
 40
1.0
 40
1.0
 40
1.0
 10
79.63300499100001
 20
136.2208322286103
 30
0.0
 41
1.0
 10
79.63300499100001
 20
136.2575379074191
 30
0.0
 41
1.0
 10
79.63300499100001
 20
136.3278007992026
 30
0.0
 41
1.0
 10
79.63300499100001
 20
136.4262444044618
 30
0.0
 41
1.0
 10
79.63300499100001
 20
136.5131473921209
 30
0.0
 41
1.0
 10
79.63300499100001
 20
136.5894836258748
 30
0.0
 41
1.0
 10
79.63300499100001
 20
136.6565971626451
 30
0.0
 41
1.0
 10
79.63300499100001
 20
136.7148516466253
 30
0.0
 41
1.0
 10
79.63300499100001
 20
136.7659374844693
 30
0.0
 41
1.0
 10
79.63300499100001
 20
136.8087429369336
 30
0.0
 41
1.0
 10
79.63300499100001
 20
136.8430517888434
 30
0.0
 41
1.0
 10
79.63300499100001
 20
136.8684446608154
 30
0.0
 41
1.0
 10
79.63300499100001
 20
136.8829970542545
 30
0.0
 41
1.0
 10
79.63300499100001
 20
136.8849165799917
 30
0.0
 41
1.0
 10
79.63300499100001
 20
136.8858963311745
 30
0.0
 41
1.0
  0
SPLINE
  5
260
330
1F
100
AcDbEntity
  8
SLD-0
100
AcDbSpline
210
0.0
220
0.0
230
1.0
 70
    28
 71
     3
 72
    11
 73
     7
 74
     0
 42
0.00000001
 43
0.00000001
 40
0.0
 40
0.0
 40
0.0
 40
0.0
 40
0.3132566409243056
 40
0.6240794219561034
 40
0.8703469705650953
 40
1.0
 40
1.0
 40
1.0
 40
1.0
 10
79.63300499100001
 20
135.8923065876
 30
0.0
 41
1.0
 10
79.63300499100001
 20
135.8938272640648
 30
0.0
 41
1.0
 10
79.63300499100001
 20
135.8968568020382
 30
0.0
 41
1.0
 10
79.63300499100001
 20
135.9743497950187
 30
0.0
 41
1.0
 10
79.63300499100001
 20
136.0699394678298
 30
0.0
 41
1.0
 10
79.63300499100001
 20
136.1285145919116
 30
0.0
 41
1.0
 10
79.63300499100001
 20
136.1487168440104
 30
0.0
 41
1.0
  0
SPLINE
  5
261
330
1F
100
AcDbEntity
  8
SLD-0
100
AcDbSpline
210
0.0
220
0.0
230
1.0
 70
    28
 71
     3
 72
    15
 73
    11
 74
     0
 42
0.00000001
 43
0.00000001
 40
0.0
 40
0.0
 40
0.0
 40
0.0
 40
0.1551891076953955
 40
0.2960401486453866
 40
0.4267637504064248
 40
0.5519118562685716
 40
0.6708037237520294
 40
0.7806745890737908
 40
0.8891194926079622
 40
1.0
 40
1.0
 40
1.0
 40
1.0
 10
79.63300499100001
 20
135.1666455299
 30
0.0
 41
1.0
 10
79.63300499100001
 20
135.1939312896186
 30
0.0
 41
1.0
 10
79.63300499100001
 20
135.2459818522061
 30
0.0
 41
1.0
 10
79.63300499100001
 20
135.3198275072816
 30
0.0
 41
1.0
 10
79.63300499100001
 20
135.3847408346501
 30
0.0
 41
1.0
 10
79.63300499100001
 20
135.4395573208174
 30
0.0
 41
1.0
 10
79.63300499100001
 20
135.4836530683312
 30
0.0
 41
1.0
 10
79.63300499100001
 20
135.5167989689927
 30
0.0
 41
1.0
 10
79.63300499100001
 20
135.535841039702
 30
0.0
 41
1.0
 10
79.63300499100001
 20
135.5384324108795
 30
0.0
 41
1.0
 10
79.63300499100001
 20
135.5397424850282
 30
0.0
 41
1.0
  0
SPLINE
  5
262
330
1F
100
AcDbEntity
  8
SLD-0
100
AcDbSpline
210
0.0
220
0.0
230
1.0
 70
    12
 71
     3
 72
    15
 73
    11
 74
     0
 42
0.00000001
 43
0.00000001
 40
0.0
 40
0.0
 40
0.0
 40
0.0
 40
0.1265709095624306
 40
0.2514247494891284
 40
0.376425049932792
 40
0.5000934709746308
 40
0.6241806899120441
 40
0.7481334495533754
 40
0.8738690196222151
 40
1.0
 40
1.0
 40
1.0
 40
1.0
 10
157.6367318032743
 20
136.1657440876051
 30
0.0
 41
1.0
 10
157.6149407590804
 20
136.1436221127151
 30
0.0
 41
1.0
 10
157.5716542894917
 20
136.099678271163
 30
0.0
 41
1.0
 10
157.5025189785811
 20
136.0383824718871
 30
0.0
 41
1.0
 10
157.4307459855484
 20
135.981361217205
 30
0.0
 41
1.0
 10
157.3556250507095
 20
135.9291561049744
 30
0.0
 41
1.0
 10
157.2781381966014
 20
135.8810233040996
 30
0.0
 41
1.0
 10
157.1974935514564
 20
135.8373426016432
 30
0.0
 41
1.0
 10
157.1142756555915
 20
135.7975096130402
 30
0.0
 41
1.0
 10
157.0566270159793
 20
135.7752491596563
 30
0.0
 41
1.0
 10
157.0277574443
 20
135.7641014594
 30
0.0
 41
1.0
  0
SPLINE
  5
263
330
1F
100
AcDbEntity
  8
SLD-0
100
AcDbSpline
210
0.0
220
0.0
230
1.0
 70
    12
 71
     3
 72
    19
 73
    15
 74
     0
 42
0.00000001
 43
0.00000001
 40
0.0
 40
0.0
 40
0.0
 40
0.0
 40
0.1044728014505082
 40
0.2186534455744877
 40
0.3428558890245151
 40
0.4792694623690655
 40
0.5495409926991598
 40
0.6174241096395702
 40
0.6835351858950324
 40
0.7485971287880194
 40
0.8121759604466021
 40
0.8748692871861432
 40
0.9374294362357415
 40
1.0
 40
1.0
 40
1.0
 40
1.0
 10
157.0277574443
 20
136.2448706901
 30
0.0
 41
1.0
 10
157.0597752527254
 20
136.2568759942915
 30
0.0
 41
1.0
 10
157.1267860348115
 20
136.2820021619658
 30
0.0
 41
1.0
 10
157.2256714141037
 20
136.3354467943148
 30
0.0
 41
1.0
 10
157.3288854169711
 20
136.4016166412465
 30
0.0
 41
1.0
 10
157.4155910713443
 20
136.4665139373122
 30
0.0
 41
1.0
 10
157.4844317965262
 20
136.5242128199886
 30
0.0
 41
1.0
 10
157.5325462297952
 20
136.5705936680225
 30
0.0
 41
1.0
 10
157.5771270187407
 20
136.6180900622545
 30
0.0
 41
1.0
 10
157.6164984600941
 20
136.6682350122929
 30
0.0
 41
1.0
 10
157.6516940729142
 20
136.7200146977794
 30
0.0
 41
1.0
 10
157.6828789202239
 20
136.773344527553
 30
0.0
 41
1.0
 10
157.7103287544533
 20
136.8283929673126
 30
0.0
 41
1.0
 10
157.7246985507245
 20
136.8667274796521
 30
0.0
 41
1.0
 10
157.7318840468641
 20
136.8858963311256
 30
0.0
 41
1.0
  0
SPLINE
  5
264
330
1F
100
AcDbEntity
  8
SLD-0
100
AcDbSpline
210
0.0
220
0.0
230
1.0
 70
    28
 71
     3
 72
    15
 73
    11
 74
     0
 42
0.00000001
 43
0.00000001
 40
0.0
 40
0.0
 40
0.0
 40
0.0
 40
0.1246470139615597
 40
0.2489530424287089
 40
0.3729941624118697
 40
0.4965467102832455
 40
0.6217644895386146
 40
0.7469500627924864
 40
0.8729315782302211
 40
1.0
 40
1.0
 40
1.0
 40
1.0
 10
150.121347188
 20
135.3867977735231
 30
0.0
 41
1.0
 10
150.121347188
 20
135.3687214191702
 30
0.0
 41
1.0
 10
150.121347188
 20
135.3326181603022
 30
0.0
 41
1.0
 10
150.121347188
 20
135.2775823698702
 30
0.0
 41
1.0
 10
150.121347188
 20
135.2219877598219
 30
0.0
 41
1.0
 10
150.121347188
 20
135.1657715568724
 30
0.0
 41
1.0
 10
150.121347188
 20
135.1089059192395
 30
0.0
 41
1.0
 10
150.121347188
 20
135.051382638066
 30
0.0
 41
1.0
 10
150.121347188
 20
134.9933155661092
 30
0.0
 41
1.0
 10
150.121347188
 20
134.9544106881669
 30
0.0
 41
1.0
 10
150.121347188
 20
134.9348746966
 30
0.0
 41
1.0
  0
SPLINE
  5
265
330
1F
100
AcDbEntity
  8
SLD-0
100
AcDbSpline
210
0.0
220
0.0
230
1.0
 70
    28
 71
     3
 72
    15
 73
    11
 74
     0
 42
0.00000001
 43
0.00000001
 40
0.0
 40
0.0
 40
0.0
 40
0.0
 40
0.1348612301058029
 40
0.266357372642672
 40
0.3949390652283067
 40
0.5209325061279381
 40
0.6438866311437418
 40
0.7646503660666573
 40
0.8836721138204087
 40
1.0
 40
1.0
 40
1.0
 40
1.0
 10
150.121347188
 20
135.8858963312154
 30
0.0
 41
1.0
 10
150.121347188
 20
135.865280948746
 30
0.0
 41
1.0
 10
150.121347188
 20
135.82456458344
 30
0.0
 41
1.0
 10
150.121347188
 20
135.7621488824349
 30
0.0
 41
1.0
 10
150.121347188
 20
135.7000255551497
 30
0.0
 41
1.0
 10
150.121347188
 20
135.6374671050826
 30
0.0
 41
1.0
 10
150.121347188
 20
135.5752433963913
 30
0.0
 41
1.0
 10
150.121347188
 20
135.5125761661092
 30
0.0
 41
1.0
 10
150.121347188
 20
135.450017537121
 30
0.0
 41
1.0
 10
150.121347188
 20
135.4077096062208
 30
0.0
 41
1.0
 10
150.121347188
 20
135.3867977735231
 30
0.0
 41
1.0
  0
SPLINE
  5
266
330
1F
100
AcDbEntity
  8
SLD-0
100
AcDbSpline
210
0.0
220
0.0
230
1.0
 70
    28
 71
     3
 72
    15
 73
    11
 74
     0
 42
0.00000001
 43
0.00000001
 40
0.0
 40
0.0
 40
0.0
 40
0.0
 40
0.1246470139615589
 40
0.2489530424287101
 40
0.3729941624118665
 40
0.4965467102832453
 40
0.6217644895386129
 40
0.7469500627924887
 40
0.8729315782302219
 40
1.0
 40
1.0
 40
1.0
 40
1.0
 10
150.121347188
 20
138.0533442478667
 30
0.0
 41
1.0
 10
150.121347188
 20
138.0376780740942
 30
0.0
 41
1.0
 10
150.121347188
 20
138.0063885830752
 30
0.0
 41
1.0
 10
150.121347188
 20
137.9586908980342
 30
0.0
 41
1.0
 10
150.121347188
 20
137.910508902659
 30
0.0
 41
1.0
 10
150.121347188
 20
137.8617881934361
 30
0.0
 41
1.0
 10
150.121347188
 20
137.8125046408209
 30
0.0
 41
1.0
 10
150.121347188
 20
137.7626511304705
 30
0.0
 41
1.0
 10
150.121347188
 20
137.7123263347746
 30
0.0
 41
1.0
 10
150.121347188
 20
137.6786087738913
 30
0.0
 41
1.0
 10
150.121347188
 20
137.6616775812
 30
0.0
 41
1.0
  0
SPLINE
  5
267
330
1F
100
AcDbEntity
  8
SLD-0
100
AcDbSpline
210
0.0
220
0.0
230
1.0
 70
    28
 71
     3
 72
    15
 73
    11
 74
     0
 42
0.00000001
 43
0.00000001
 40
0.0
 40
0.0
 40
0.0
 40
0.0
 40
0.1348612301058021
 40
0.2663573726426707
 40
0.3949390652283057
 40
0.5209325061279375
 40
0.6438866311437336
 40
0.7646503660666557
 40
0.8836721138204051
 40
1.0
 40
1.0
 40
1.0
 40
1.0
 10
150.121347188
 20
138.4858963312
 30
0.0
 41
1.0
 10
150.121347188
 20
138.4680296663931
 30
0.0
 41
1.0
 10
150.121347188
 20
138.4327421497947
 30
0.0
 41
1.0
 10
150.121347188
 20
138.3786485422569
 30
0.0
 41
1.0
 10
150.121347188
 20
138.3248083252765
 30
0.0
 41
1.0
 10
150.121347188
 20
138.2705910018849
 30
0.0
 41
1.0
 10
150.121347188
 20
138.2166637876858
 30
0.0
 41
1.0
 10
150.121347188
 20
138.162352188108
 30
0.0
 41
1.0
 10
150.121347188
 20
138.1081347096516
 30
0.0
 41
1.0
 10
150.121347188
 20
138.0714678362046
 30
0.0
 41
1.0
 10
150.121347188
 20
138.0533442478667
 30
0.0
 41
1.0
  0
SPLINE
  5
268
330
1F
100
AcDbEntity
  8
SLD-0
100
AcDbSpline
210
0.0
220
0.0
230
1.0
 70
    28
 71
     1
 72
     4
 73
     2
 74
     0
 42
0.00000001
 43
0.00000001
 40
0.0
 40
0.0
 40
1.0
 40
1.0
 10
150.121347188
 20
143.2858963312
 30
0.0
 41
1.0
 10
150.1213471880831
 20
143.0705946211989
 30
0.0
 41
1.0
  0
ELLIPSE
  5
269
330
1F
100
AcDbEntity
  8
SLD-0
100
AcDbEllipse
 10
38.2693140874
 20
143.4625138178
 30
0.0
 11
0.5879780167181252
 21
0.1196254795121092
 31
0.0
210
0.0
220
0.0
230
1.0
 40
0.999960347
 41
2.940887536463172
 42
4.712388980326259
  0
ELLIPSE
  5
26A
330
1F
100
AcDbEntity
  8
SLD-0
100
AcDbEllipse
 10
80.6330125821
 20
147.8858964522
 30
0.0
 11
0.0
 21
7.499999999999972
 31
0.0
210
0.0
220
0.0
230
1.0
 40
0.0084941513
 41
5.306160706162935
 42
6.283185307179586
  0
ELLIPSE
  5
26B
330
1F
100
AcDbEntity
  8
SLD-0
100
AcDbEllipse
 10
37.7329974987
 20
147.8859008014
 30
0.0
 11
0.0
 21
7.5
 31
0.0
210
0.0
220
0.0
230
1.0
 40
0.0084941513
 41
0.0
 42
1.570796922835603
  0
ELLIPSE
  5
26C
330
1F
100
AcDbEntity
  8
SLD-0
100
AcDbEllipse
 10
37.9329897599
 20
147.8858963311
 30
0.0
 11
0.0
 21
7.299999999999955
 31
0.0
210
0.0
220
0.0
230
1.0
 40
0.0087268678
 41
6.282944285421944
 42
7.853981633974483
  0
ELLIPSE
  5
26D
330
1F
100
AcDbEntity
  8
SLD-0
100
AcDbEllipse
 10
38.2693140874
 20
143.4625138178
 30
0.0
 11
0.3920009683006427
 21
0.07975349837710155
 31
0.0
210
0.0
220
0.0
230
1.0
 40
0.999920698
 41
2.940887536477299
 42
4.712388980440062
  0
ELLIPSE
  5
26E
330
1F
100
AcDbEntity
  8
SLD-0
100
AcDbEllipse
 10
62.8329973753
 20
147.8858963312
 30
0.0
 11
0.0
 21
7.299999999999955
 31
0.0
210
0.0
220
0.0
230
1.0
 40
0.0084877755
 41
0.8927791517352064
 42
1.549786914281952
  0
ELLIPSE
  5
26F
330
1F
100
AcDbEntity
  8
SLD-0
100
AcDbEllipse
 10
63.03298976
 20
147.8858963312
 30
0.0
 11
0.0
 21
7.099999999999994
 31
0.0
210
0.0
220
0.0
230
1.0
 40
0.0087268678
 41
0.9037791733429104
 42
1.543462181362339
  0
ELLIPSE
  5
270
330
1F
100
AcDbEntity
  8
SLD-0
100
AcDbEllipse
 10
38.2728048345
 20
143.4632240183
 30
0.0
 11
0.3919854252285688
 21
0.07975033610327387
 31
0.0
210
0.0
220
0.0
230
0.9999999999999999
 40
0.999960347
 41
2.940887536460494
 42
4.712388980384853
  0
ELLIPSE
  5
271
330
1F
100
AcDbEntity
  8
SLD-0
100
AcDbEllipse
 10
37.933004991
 20
147.8858963311
 30
0.0
 11
0.0
 21
6.900000000000006
 31
0.0
210
0.0
220
0.0
230
1.0
 40
0.0087268678
 41
6.283183256467058
 42
7.853981633974483
  0
ELLIPSE
  5
272
330
1F
100
AcDbEntity
  8
SLD-0
100
AcDbEllipse
 10
42.9330202223
 20
147.8858963312
 30
0.0
 11
0.0
 21
7.099999999999994
 31
0.0
210
0.0
220
0.0
230
1.0
 40
0.0087268678
 41
4.71238898038465
 42
6.283431125660615
  0
ELLIPSE
  5
273
330
1F
100
AcDbEntity
  8
SLD-0
100
AcDbEllipse
 10
43.1330126069
 20
147.8858963312
 30
0.0
 11
0.0
 21
7.299999999999955
 31
0.0
210
0.0
220
0.0
230
1.0
 40
0.0084877755
 41
4.71238898038469
 42
6.283185307179586
  0
ELLIPSE
  5
274
330
1F
100
AcDbEntity
  8
SLD-0
100
AcDbEllipse
 10
41.7329973751
 20
147.8858963312
 30
0.0
 11
0.0
 21
7.299999999999955
 31
0.0
210
0.0
220
0.0
230
1.0
 40
0.0084877755
 41
0.0
 42
1.570796326794897
  0
ELLIPSE
  5
275
330
1F
100
AcDbEntity
  8
SLD-0
100
AcDbEllipse
 10
41.9329896329
 20
147.8858918636
 30
0.0
 11
0.0
 21
7.099999999999994
 31
0.0
210
0.0
220
0.0
230
1.0
 40
0.0087268678
 41
6.282937440711868
 42
7.853981004730089
  0
ELLIPSE
  5
276
330
1F
100
AcDbEntity
  8
SLD-0
100
AcDbEllipse
 10
38.9330202223
 20
147.8858963312
 30
0.0
 11
0.0
 21
7.099999999999994
 31
0.0
210
0.0
220
0.0
230
1.0
 40
0.0087268678
 41
4.71238898038465
 42
6.283431125660615
  0
ELLIPSE
  5
277
330
1F
100
AcDbEntity
  8
SLD-0
100
AcDbEllipse
 10
39.1330126069
 20
147.8858963312
 30
0.0
 11
0.0
 21
7.299999999999955
 31
0.0
210
0.0
220
0.0
230
1.0
 40
0.0084877755
 41
4.71238898038469
 42
6.283185307179586
  0
ELLIPSE
  5
278
330
1F
100
AcDbEntity
  8
SLD-0
100
AcDbEllipse
 10
51.0330202221
 20
147.8858963312
 30
0.0
 11
0.0
 21
7.099999999999994
 31
0.0
210
0.0
220
0.0
230
1.0
 40
0.0087268678
 41
4.71238898038282
 42
5.143361658208204
  0
ELLIPSE
  5
279
330
1F
100
AcDbEntity
  8
SLD-0
100
AcDbEllipse
 10
51.2330126068
 20
147.8858963312
 30
0.0
 11
0.0
 21
7.299999999999955
 31
0.0
210
0.0
220
0.0
230
1.0
 40
0.0084877755
 41
4.71238898038469
 42
5.155299901517426
  0
ELLIPSE
  5
27A
330
1F
100
AcDbEntity
  8
SLD-0
100
AcDbEllipse
 10
66.9329972267
 20
147.8858964519
 30
0.0
 11
0.0
 21
7.299999999999926
 31
0.0
210
0.0
220
0.0
230
1.0
 40
0.0084877755
 41
0.0
 42
1.435089076451569
  0
ELLIPSE
  5
27B
330
1F
100
AcDbEntity
  8
SLD-0
100
AcDbEllipse
 10
64.2330126066
 20
147.8858963312
 30
0.0
 11
0.0
 21
7.299999999999955
 31
0.0
210
0.0
220
0.0
230
1.0
 40
0.0084877755
 41
4.775908076913876
 42
5.642270014994233
  0
ELLIPSE
  5
27C
330
1F
100
AcDbEntity
  8
SLD-0
100
AcDbEllipse
 10
60.1330126066
 20
147.8858963312
 30
0.0
 11
0.0
 21
7.299999999999955
 31
0.0
210
0.0
220
0.0
230
1.0
 40
0.0084877755
 41
4.71238898038469
 42
5.059386388769476
  0
ELLIPSE
  5
27D
330
1F
100
AcDbEntity
  8
SLD-0
100
AcDbEllipse
 10
58.7329973752
 20
147.8858963312
 30
0.0
 11
0.0
 21
7.299999999999955
 31
0.0
210
0.0
220
0.0
230
1.0
 40
0.0084877755
 41
1.377672951757271
 42
1.570796326794897
  0
ELLIPSE
  5
27E
330
1F
100
AcDbEntity
  8
SLD-0
100
AcDbEllipse
 10
55.3330126067
 20
147.8858963312
 30
0.0
 11
0.0
 21
7.299999999999955
 31
0.0
210
0.0
220
0.0
230
1.0
 40
0.0084877755
 41
4.71238898038469
 42
4.827210863543019
  0
ELLIPSE
  5
27F
330
1F
100
AcDbEntity
  8
SLD-0
100
AcDbEllipse
 10
53.9329973752
 20
147.8858963312
 30
0.0
 11
0.0
 21
7.299999999999955
 31
0.0
210
0.0
220
0.0
230
1.0
 40
0.0084877755
 41
1.372189570908787
 42
1.570796326794897
  0
ELLIPSE
  5
280
330
1F
100
AcDbEntity
  8
SLD-0
100
AcDbEllipse
 10
49.8329973751
 20
147.8858963312
 30
0.0
 11
0.0
 21
7.299999999999955
 31
0.0
210
0.0
220
0.0
230
1.0
 40
0.0084877755
 41
0.9119741965706226
 42
1.570796326794897
  0
ELLIPSE
  5
281
330
1F
100
AcDbEntity
  8
SLD-0
100
AcDbEllipse
 10
47.1330126069
 20
147.8858963312
 30
0.0
 11
0.0
 21
7.299999999999955
 31
0.0
210
0.0
220
0.0
230
1.0
 40
0.0084877755
 41
4.71238898038469
 42
6.283185307179586
  0
ELLIPSE
  5
282
330
1F
100
AcDbEntity
  8
SLD-0
100
AcDbEllipse
 10
54.13298976
 20
147.8858963312
 30
0.0
 11
0.0
 21
7.099999999999994
 31
0.0
210
0.0
220
0.0
230
1.0
 40
0.0087268678
 41
1.413459623625155
 42
1.570796326796282
  0
ELLIPSE
  5
283
330
1F
100
AcDbEntity
  8
SLD-0
100
AcDbEllipse
 10
58.9329897601
 20
147.8858963312
 30
0.0
 11
0.0
 21
7.099999999999994
 31
0.0
210
0.0
220
0.0
230
1.0
 40
0.0087268678
 41
1.392235997803226
 42
1.570796326793812
  0
ELLIPSE
  5
284
330
1F
100
AcDbEntity
  8
SLD-0
100
AcDbEllipse
 10
46.9330202223
 20
147.8858963312
 30
0.0
 11
0.0
 21
7.099999999999994
 31
0.0
210
0.0
220
0.0
230
1.0
 40
0.0087268678
 41
4.71238898038469
 42
6.283431125660615
  0
ELLIPSE
  5
285
330
1F
100
AcDbEntity
  8
SLD-0
100
AcDbEllipse
 10
45.7329973751
 20
147.8858963312
 30
0.0
 11
0.0
 21
7.299999999999955
 31
0.0
210
0.0
220
0.0
230
1.0
 40
0.0084877755
 41
0.0
 42
1.570796326794897
  0
ELLIPSE
  5
286
330
1F
100
AcDbEntity
  8
SLD-0
100
AcDbEllipse
 10
45.9329896329
 20
147.8858918636
 30
0.0
 11
0.0
 21
7.099999999999994
 31
0.0
210
0.0
220
0.0
230
1.0
 40
0.0087268678
 41
6.282937440712072
 42
7.853981004730089
  0
ELLIPSE
  5
287
330
1F
100
AcDbEntity
  8
SLD-0
100
AcDbEllipse
 10
55.133020222
 20
147.8858963312
 30
0.0
 11
0.0
 21
7.099999999999994
 31
0.0
210
0.0
220
0.0
230
1.0
 40
0.0087268678
 41
4.712388980383341
 42
4.807955684510899
  0
ELLIPSE
  5
288
330
1F
100
AcDbEntity
  8
SLD-0
100
AcDbEllipse
 10
50.0329897599
 20
147.8858963312
 30
0.0
 11
0.0
 21
7.099999999999994
 31
0.0
210
0.0
220
0.0
230
1.0
 40
0.0087268678
 41
0.9830548400559438
 42
1.570796326796686
  0
ELLIPSE
  5
289
330
1F
100
AcDbEntity
  8
SLD-0
100
AcDbEllipse
 10
59.933020222
 20
147.8858963312
 30
0.0
 11
0.0
 21
7.099999999999994
 31
0.0
210
0.0
220
0.0
230
1.0
 40
0.0087268678
 41
4.71238898038575
 42
5.00403755292717
  0
ELLIPSE
  5
28A
330
1F
100
AcDbEntity
  8
SLD-0
100
AcDbEllipse
 10
64.033020222
 20
147.8858963312
 30
0.0
 11
0.0
 21
7.099999999999994
 31
0.0
210
0.0
220
0.0
230
1.0
 40
0.0087268678
 41
4.771958262624763
 42
5.558634115924614
  0
ELLIPSE
  5
28B
330
1F
100
AcDbEntity
  8
SLD-0
100
AcDbEllipse
 10
67.1329894845
 20
147.8858919843
 30
0.0
 11
0.0
 21
7.099999999999994
 31
0.0
210
0.0
220
0.0
230
1.0
 40
0.0087268678
 41
6.282937440711971
 42
7.708635079326055
  0
ELLIPSE
  5
28C
330
1F
100
AcDbEntity
  8
SLD-0
100
AcDbEllipse
 10
68.1330200735
 20
147.885896452
 30
0.0
 11
0.0
 21
7.099999999999994
 31
0.0
210
0.0
220
0.0
230
1.0
 40
0.0087268678
 41
4.890322109208147
 42
6.283431125660818
  0
ELLIPSE
  5
28D
330
1F
100
AcDbEntity
  8
SLD-0
100
AcDbEllipse
 10
68.3330124581
 20
147.885896452
 30
0.0
 11
0.0
 21
7.299999999999955
 31
0.0
210
0.0
220
0.0
230
1.0
 40
0.0084877755
 41
4.891058178835904
 42
6.283185307179586
  0
ELLIPSE
  5
28E
330
1F
100
AcDbEntity
  8
SLD-0
100
AcDbEllipse
 10
71.0329972268
 20
147.885896452
 30
0.0
 11
0.0
 21
7.299999999999955
 31
0.0
210
0.0
220
0.0
230
1.0
 40
0.0084877755
 41
0.0
 42
1.318531645116953
  0
ELLIPSE
  5
28F
330
1F
100
AcDbEntity
  8
SLD-0
100
AcDbEllipse
 10
46.9330049912
 20
147.8858963313
 30
0.0
 11
0.0
 21
6.899999999999977
 31
0.0
210
0.0
220
0.0
230
1.0
 40
0.0087268678
 41
4.71238898038469
 42
6.283185307179586
  0
ELLIPSE
  5
290
330
1F
100
AcDbEntity
  8
SLD-0
100
AcDbEllipse
 10
38.9330049912
 20
147.8858963311
 30
0.0
 11
0.0
 21
6.899999999999977
 31
0.0
210
0.0
220
0.0
230
1.0
 40
0.0087268678
 41
4.71238898038679
 42
6.283185307179586
  0
ELLIPSE
  5
291
330
1F
100
AcDbEntity
  8
SLD-0
100
AcDbEllipse
 10
41.9330049909
 20
147.8858963313
 30
0.0
 11
0.0
 21
6.899999999999977
 31
0.0
210
0.0
220
0.0
230
1.0
 40
0.0087268678
 41
0.0
 42
1.570796326794897
  0
ELLIPSE
  5
292
330
1F
100
AcDbEntity
  8
SLD-0
100
AcDbEllipse
 10
50.0330049911
 20
147.8858963312
 30
0.0
 11
0.0
 21
6.899999999999977
 31
0.0
210
0.0
220
0.0
230
1.0
 40
0.0087268678
 41
0.9684809001822227
 42
1.570796326794897
  0
ELLIPSE
  5
293
330
1F
100
AcDbEntity
  8
SLD-0
100
AcDbEllipse
 10
51.033004991
 20
147.8858963312
 30
0.0
 11
0.0
 21
6.899999999999977
 31
0.0
210
0.0
220
0.0
230
1.0
 40
0.0087268678
 41
4.71238898038469
 42
5.154612740421242
  0
ELLIPSE
  5
294
330
1F
100
AcDbEntity
  8
SLD-0
100
AcDbEllipse
 10
55.133004991
 20
147.8858963312
 30
0.0
 11
0.0
 21
6.899999999999977
 31
0.0
210
0.0
220
0.0
230
1.0
 40
0.0087268678
 41
4.71238898038469
 42
4.810645101769144
  0
ELLIPSE
  5
295
330
1F
100
AcDbEntity
  8
SLD-0
100
AcDbEllipse
 10
45.9330049909
 20
147.8858963313
 30
0.0
 11
0.0
 21
6.899999999999977
 31
0.0
210
0.0
220
0.0
230
1.0
 40
0.0087268678
 41
0.0
 42
1.570796326794897
  0
ELLIPSE
  5
296
330
1F
100
AcDbEntity
  8
SLD-0
100
AcDbEllipse
 10
54.1330049911
 20
147.8858963312
 30
0.0
 11
0.0
 21
6.899999999999977
 31
0.0
210
0.0
220
0.0
230
1.0
 40
0.0087268678
 41
1.409400740010758
 42
1.570796326794897
  0
ELLIPSE
  5
297
330
1F
100
AcDbEntity
  8
SLD-0
100
AcDbEllipse
 10
42.9330049912
 20
147.8858963313
 30
0.0
 11
0.0
 21
6.899999999999977
 31
0.0
210
0.0
220
0.0
230
1.0
 40
0.0087268678
 41
4.71238898038469
 42
6.283185307179586
  0
ELLIPSE
  5
298
330
1F
100
AcDbEntity
  8
SLD-0
100
AcDbEllipse
 10
58.9330049911
 20
147.8858963312
 30
0.0
 11
0.0
 21
6.899999999999977
 31
0.0
210
0.0
220
0.0
230
1.0
 40
0.0087268678
 41
1.387303906132899
 42
1.570796326794897
  0
ELLIPSE
  5
299
330
1F
100
AcDbEntity
  8
SLD-0
100
AcDbEllipse
 10
59.933004991
 20
147.8858963312
 30
0.0
 11
0.0
 21
6.899999999999977
 31
0.0
210
0.0
220
0.0
230
1.0
 40
0.0087268678
 41
4.71238898038469
 42
5.011355890931591
  0
ELLIPSE
  5
29A
330
1F
100
AcDbEntity
  8
SLD-0
100
AcDbEllipse
 10
63.033004991
 20
147.8858963312
 30
0.0
 11
0.0
 21
6.899999999999977
 31
0.0
210
0.0
220
0.0
230
1.0
 40
0.0087268678
 41
0.8866048381787973
 42
1.54261772536049
  0
ELLIPSE
  5
29B
330
1F
100
AcDbEntity
  8
SLD-0
100
AcDbEllipse
 10
64.033004991
 20
147.8858963312
 30
0.0
 11
0.0
 21
6.899999999999977
 31
0.0
210
0.0
220
0.0
230
1.0
 40
0.0087268678
 41
4.773634944595416
 42
5.580530244159996
  0
ELLIPSE
  5
29C
330
1F
100
AcDbEntity
  8
SLD-0
100
AcDbEllipse
 10
71.2329894846
 20
147.8858919843
 30
0.0
 11
0.0
 21
7.099999999999994
 31
0.0
210
0.0
220
0.0
230
1.0
 40
0.0087268678
 41
6.282937440712174
 42
7.588509020100052
  0
ELLIPSE
  5
29D
330
1F
100
AcDbEntity
  8
SLD-0
100
AcDbEllipse
 10
67.1330048424
 20
147.885896452
 30
0.0
 11
0.0
 21
6.899999999999977
 31
0.0
210
0.0
220
0.0
230
1.0
 40
0.0087268678
 41
0.0
 42
1.42115249294927
  0
ELLIPSE
  5
29E
330
1F
100
AcDbEntity
  8
SLD-0
100
AcDbEllipse
 10
72.2330200737
 20
147.885896452
 30
0.0
 11
0.0
 21
7.099999999999994
 31
0.0
210
0.0
220
0.0
230
1.0
 40
0.0087268678
 41
5.011249661571947
 42
6.283431125660411
  0
ELLIPSE
  5
29F
330
1F
100
AcDbEntity
  8
SLD-0
100
AcDbEllipse
 10
72.4330124583
 20
147.885896452
 30
0.0
 11
0.0
 21
7.299999999999955
 31
0.0
210
0.0
220
0.0
230
1.0
 40
0.0084877755
 41
5.008643665448772
 42
6.283185307179586
  0
ELLIPSE
  5
2A0
330
1F
100
AcDbEntity
  8
SLD-0
100
AcDbEllipse
 10
68.1330048424
 20
147.885896452
 30
0.0
 11
0.0
 21
6.899999999999977
 31
0.0
210
0.0
220
0.0
230
1.0
 40
0.0087268678
 41
4.895483544976637
 42
6.283185307179586
  0
ELLIPSE
  5
2A1
330
1F
100
AcDbEntity
  8
SLD-0
100
AcDbEllipse
 10
75.132997227
 20
147.885896452
 30
0.0
 11
0.0
 21
7.299999999999955
 31
0.0
210
0.0
220
0.0
230
1.0
 40
0.0084877755
 41
0.0
 42
1.198313532880796
  0
ELLIPSE
  5
2A2
330
1F
100
AcDbEntity
  8
SLD-0
100
AcDbEllipse
 10
71.2330048426
 20
147.885896452
 30
0.0
 11
0.0
 21
6.900000000000006
 31
0.0
210
0.0
220
0.0
230
1.0
 40
0.0087268678
 41
0.0
 42
1.297378355827568
  0
ELLIPSE
  5
2A3
330
1F
100
AcDbEntity
  8
SLD-0
100
AcDbEllipse
 10
75.3329894847
 20
147.8858919844
 30
0.0
 11
0.0
 21
7.099999999999994
 31
0.0
210
0.0
220
0.0
230
1.0
 40
0.0087268678
 41
6.282937440711971
 42
7.464268768508583
  0
ELLIPSE
  5
2A4
330
1F
100
AcDbEntity
  8
SLD-0
100
AcDbEllipse
 10
72.2330048426
 20
147.885896452
 30
0.0
 11
0.0
 21
6.900000000000006
 31
0.0
210
0.0
220
0.0
230
1.0
 40
0.0087268678
 41
5.020135173417333
 42
6.283185307179586
  0
ELLIPSE
  5
2A5
330
1F
100
AcDbEntity
  8
SLD-0
100
AcDbEllipse
 10
76.3330200738
 20
147.8858964521
 30
0.0
 11
0.0
 21
7.099999999999994
 31
0.0
210
0.0
220
0.0
230
1.0
 40
0.0087268678
 41
5.136860502764973
 42
6.283431125660411
  0
ELLIPSE
  5
2A6
330
1F
100
AcDbEntity
  8
SLD-0
100
AcDbEllipse
 10
76.5330124584
 20
147.8858964521
 30
0.0
 11
0.0
 21
7.299999999999955
 31
0.0
210
0.0
220
0.0
230
1.0
 40
0.0084877755
 41
5.130608676560034
 42
6.283185307179586
  0
ELLIPSE
  5
2A7
330
1F
100
AcDbEntity
  8
SLD-0
100
AcDbEllipse
 10
79.2329972271
 20
147.8858964521
 30
0.0
 11
0.0
 21
7.299999999999955
 31
0.0
210
0.0
220
0.0
230
1.0
 40
0.0084877755
 41
0.0
 42
1.072091253587861
  0
ELLIPSE
  5
2A8
330
1F
100
AcDbEntity
  8
SLD-0
100
AcDbEllipse
 10
75.3330048427
 20
147.8858964521
 30
0.0
 11
0.0
 21
6.899999999999977
 31
0.0
210
0.0
220
0.0
230
1.0
 40
0.0087268678
 41
0.0
 42
1.169087892277428
  0
ELLIPSE
  5
2A9
330
1F
100
AcDbEntity
  8
SLD-0
100
AcDbEllipse
 10
76.3330048427
 20
147.8858964521
 30
0.0
 11
0.0
 21
6.899999999999977
 31
0.0
210
0.0
220
0.0
230
1.0
 40
0.0087268678
 41
5.149936813846814
 42
6.283185307179586
  0
ELLIPSE
  5
2AA
330
1F
100
AcDbEntity
  8
SLD-0
100
AcDbEllipse
 10
79.4329894849
 20
147.8858919845
 30
0.0
 11
0.0
 21
7.099999999999994
 31
0.0
210
0.0
220
0.0
230
1.0
 40
0.0087268678
 41
6.282937440712683
 42
7.33325388055979
  0
ELLIPSE
  5
2AB
330
1F
100
AcDbEntity
  8
SLD-0
100
AcDbEllipse
 10
80.4330201974
 20
147.8858964522
 30
0.0
 11
0.0
 21
7.299999999999955
 31
0.0
210
0.0
220
0.0
230
1.0
 40
0.0087268678
 41
5.306160706162588
 42
6.28342632735925
  0
ELLIPSE
  5
2AC
330
1F
100
AcDbEntity
  8
SLD-0
100
AcDbEllipse
 10
79.4330048429
 20
147.8858964522
 30
0.0
 11
0.0
 21
6.899999999999977
 31
0.0
210
0.0
220
0.0
230
1.0
 40
0.0087268678
 41
0.0
 42
1.03329376609454
  0
ELLIPSE
  5
2AD
330
1F
100
AcDbEntity
  8
SLD-0
100
AcDbEllipse
 10
80.4330049663
 20
147.8858964522
 30
0.0
 11
0.0
 21
6.900000000000006
 31
0.0
210
0.0
220
0.0
230
1.0
 40
0.0087268678
 41
5.34567808547517
 42
6.283187356531325
  0
ELLIPSE
  5
2AE
330
1F
100
AcDbEntity
  8
SLD-0
100
AcDbEllipse
 10
157.7213471879
 20
160.0574988953
 30
0.0
 11
7.200000000000017
 21
0.0
 31
0.0
210
0.0
220
0.0
230
1.0
 40
0.0979166667
 41
0.038471027372339
 42
0.1054302531586008
  0
ELLIPSE
  5
2AF
330
1F
100
AcDbEntity
  8
SLD-0
100
AcDbEllipse
 10
157.7213471879
 20
147.2125709648
 30
0.0
 11
0.0
 21
10.91284918948335
 31
0.0
210
0.0
220
0.0
230
1.0
 40
0.3669848602
 41
0.6745257885548709
 42
0.800267487798757
  0
ELLIPSE
  5
2B0
330
1F
100
AcDbEntity
  8
SLD-0
100
AcDbEllipse
 10
157.7213471879
 20
147.2125709648
 30
0.0
 11
0.0
 21
10.91284918948335
 31
0.0
210
0.0
220
0.0
230
1.0
 40
0.3669848602
 41
5.482917819380888
 42
5.599696285713524
  0
ELLIPSE
  5
2B1
330
1F
100
AcDbEntity
  8
SLD-0
100
AcDbEllipse
 10
157.7213471879
 20
160.0574988953
 30
0.0
 11
7.400000000038318
 21
0.0
 31
0.0
210
0.0
220
0.0
230
1.0
 40
0.0979166667
 41
0.0374307772756542
 42
0.1025706107056669
  0
DIMENSION
  5
2B2
330
1F
100
AcDbEntity
  8
5
100
AcDbDimension
  2
*D2
 10
165.2213471879
 20
128.9851037619
 30
0.0
 11
157.7213471879
 21
128.9851037619
 31
0.0
 70
   160
 71
     1
 42
15.0
  3
SLDDIMSTYLE0
100
AcDbAlignedDimension
 13
150.2213471879
 23
133.8858963312
 33
0.0
 14
165.2213471879
 24
133.8858963312
 34
0.0
100
AcDbRotatedDimension
1001
ACAD
1000
DSTYLE
1002
{
1070
    77
1070
     3
1070
   143
1040
0.0393700787
1070
    41
1040
3.0
1070
    44
1040
1.0
1070
    42
1040
1.0
1070
   147
1040
1.524
1070
    73
1070
     0
1070
    74
1070
     0
1070
   140
1040
2.4
1070
   284
1070
    12
1070
    78
1070
    12
1002
}
  0
DIMENSION
  5
2CC
330
1F
100
AcDbEntity
  8
5
100
AcDbDimension
  2
*D4
 10
169.9565271233
 20
147.8858963312
 30
0.0
 11
169.9565271233
 21
140.8858963312
 31
0.0
 70
   160
 71
     1
 42
14.0
  3
SLDDIMSTYLE0
100
AcDbAlignedDimension
 13
165.2213471879
 23
133.8858963312
 33
0.0
 14
166.7911597686
 24
147.8858963312
 34
0.0
 50
90.0
100
AcDbRotatedDimension
1001
ACAD
1000
DSTYLE
1002
{
1070
    77
1070
     3
1070
   143
1040
0.0393700787
1070
    41
1040
3.0
1070
    44
1040
1.0
1070
    42
1040
1.0
1070
   147
1040
1.524
1070
    73
1070
     0
1070
    74
1070
     0
1070
   140
1040
2.4
1070
   284
1070
    12
1070
    78
1070
    12
1002
}
  0
DIMENSION
  5
2E0
330
1F
100
AcDbEntity
  8
5
100
AcDbDimension
  2
*D5
 10
176.3256040972
 20
167.8858963312
 30
0.0
 11
176.3256040972
 21
150.8858963312
 31
0.0
 70
   160
 71
     1
 42
34.0
  3
SLDDIMSTYLE0
100
AcDbAlignedDimension
 13
165.2213471879
 23
133.8858963312
 33
0.0
 14
164.6213471879
 24
167.8858963312
 34
0.0
 50
90.0
100
AcDbRotatedDimension
1001
ACAD
1000
DSTYLE
1002
{
1070
    77
1070
     3
1070
   143
1040
0.0393700787
1070
    41
1040
3.0
1070
    44
1040
1.0
1070
    42
1040
1.0
1070
   147
1040
1.524
1070
    73
1070
     0
1070
    74
1070
     0
1070
   140
1040
2.4
1070
   284
1070
    12
1070
    78
1070
    12
1002
}
  0
DIMENSION
  5
2F4
330
1F
100
AcDbEntity
  8
5
100
AcDbDimension
  2
*D6
 10
183.3909735583
 20
173.4858963312
 30
0.0
 11
183.3909735583
 21
153.6858963312
 31
0.0
 70
   160
 71
     1
 42
39.6
  3
SLDDIMSTYLE0
100
AcDbAlignedDimension
 13
165.2213471879
 23
133.8858963312
 33
0.0
 14
164.1213471879
 24
173.4858963312
 34
0.0
 50
90.0
100
AcDbRotatedDimension
1001
ACAD
1000
DSTYLE
1002
{
1070
    77
1070
     3
1070
   143
1040
0.0393700787
1070
    41
1040
3.0
1070
    44
1040
1.0
1070
    42
1040
1.0
1070
   147
1040
1.524
1070
    73
1070
     0
1070
    74
1070
     0
1070
   140
1040
2.4
1070
   284
1070
    12
1070
    78
1070
    12
1002
}
  0
DIMENSION
  5
308
330
1F
100
AcDbEntity
  8
5
100
AcDbDimension
  2
*D7
 10
56.433004991
 20
187.3130205537
 30
0.0
 11
45.433004991
 21
187.3130205537
 31
0.0
 70
   160
 71
     1
 42
22.0
  3
SLDDIMSTYLE0
100
AcDbAlignedDimension
 13
34.433004991
 23
154.9858963312
 33
0.0
 14
56.433004991
 24
175.7996068582
 34
0.0
100
AcDbRotatedDimension
1001
ACAD
1000
DSTYLE
1002
{
1070
    77
1070
     3
1070
   143
1040
0.0393700787
1070
    41
1040
3.0
1070
    44
1040
1.0
1070
    42
1040
1.0
1070
   147
1040
1.524
1070
    73
1070
     0
1070
    74
1070
     0
1070
   140
1040
2.4
1070
   284
1070
    12
1070
    78
1070
    12
1002
}
  0
DIMENSION
  5
31B
330
1F
100
AcDbEntity
  8
5
100
AcDbDimension
  2
*D8
 10
60.433004991
 20
179.2124009701
 30
0.0
 11
64.7187192767
 21
179.2124009701
 31
0.0
 70
   160
  1
%%c<>
 71
     1
 42
8.0
  3
SLDDIMSTYLE0
100
AcDbAlignedDimension
 13
52.433004991
 23
173.4858963312
 33
0.0
 14
60.433004991
 24
173.4858963312
 34
0.0
100
AcDbRotatedDimension
1001
ACAD
1000
DSTYLE
1002
{
1070
    77
1070
     3
1070
   143
1040
0.0393700787
1070
    41
1040
3.0
1070
    44
1040
1.0
1070
    42
1040
1.0
1070
   147
1040
1.524
1070
    73
1070
     0
1070
    74
1070
     0
1070
   140
1040
2.4
1070
   284
1070
    12
1070
    78
1070
    12
1002
}
  0
DIMENSION
  5
333
330
1F
100
AcDbEntity
  8
5
100
AcDbDimension
  2
*D9
 10
46.933004991
 20
129.2878732601
 30
0.0
 11
40.683004991
 21
129.2878732601
 31
0.0
 70
   160
 71
     1
 42
12.5
  3
SLDDIMSTYLE1
100
AcDbAlignedDimension
 13
34.433004991
 23
133.8858963312
 33
0.0
 14
46.933004991
 24
132.7627696899
 34
0.0
100
AcDbRotatedDimension
1001
ACAD
1000
DSTYLE
1002
{
1070
    77
1070
     3
1070
   143
1040
0.0393700787
1070
    41
1040
3.0
1070
    44
1040
1.0
1070
    42
1040
1.0
1070
   147
1040
1.524
1070
    73
1070
     0
1070
    74
1070
     0
1070
   140
1040
2.4
1070
   284
1070
    12
1070
    78
1070
    12
1002
}
  0
DIMENSION
  5
347
330
1F
100
AcDbEntity
  8
5
100
AcDbDimension
  2
*D10
 10
66.933004991
 20
129.2878732601
 30
0.0
 11
56.933004991
 21
129.2878732601
 31
0.0
 70
   160
 71
     1
 42
20.0
  3
SLDDIMSTYLE0
100
AcDbAlignedDimension
 13
46.933004991
 23
132.7627696899
 33
0.0
 14
66.933004991
 24
132.7627696899
 34
0.0
100
AcDbRotatedDimension
1001
ACAD
1000
DSTYLE
1002
{
1070
    77
1070
     3
1070
   143
1040
0.0393700787
1070
    41
1040
3.0
1070
    44
1040
1.0
1070
    42
1040
1.0
1070
   147
1040
1.524
1070
    73
1070
     0
1070
    74
1070
     0
1070
   140
1040
2.4
1070
   284
1070
    12
1070
    78
1070
    12
1002
}
  0
DIMENSION
  5
35A
330
1F
100
AcDbEntity
  8
5
100
AcDbDimension
  2
*D11
 10
85.933004991
 20
122.3934126138
 30
0.0
 11
60.183004991
 21
122.3934126138
 31
0.0
 70
   160
 71
     1
 42
51.5
  3
SLDDIMSTYLE1
100
AcDbAlignedDimension
 13
34.433004991
 23
133.8858963312
 33
0.0
 14
85.933004991
 24
140.7858963312
 34
0.0
100
AcDbRotatedDimension
1001
ACAD
1000
DSTYLE
1002
{
1070
    77
1070
     3
1070
   143
1040
0.0393700787
1070
    41
1040
3.0
1070
    44
1040
1.0
1070
    42
1040
1.0
1070
   147
1040
1.524
1070
    73
1070
     0
1070
    74
1070
     0
1070
   140
1040
2.4
1070
   284
1070
    12
1070
    78
1070
    12
1002
}
  0
DIMENSION
  5
36D
330
1F
100
AcDbEntity
  8
5
100
AcDbDimension
  2
*D12
 10
29.233004991
 20
122.3934126138
 30
0.0
 11
24.3187192767
 21
122.3934126138
 31
0.0
 70
   160
 71
     1
 42
5.2
  3
SLDDIMSTYLE1
100
AcDbAlignedDimension
 13
34.433004991
 23
133.8858963312
 33
0.0
 14
29.233004991
 24
141.9858963312
 34
0.0
100
AcDbRotatedDimension
1001
ACAD
1000
DSTYLE
1002
{
1070
    77
1070
     3
1070
   143
1040
0.0393700787
1070
    41
1040
3.0
1070
    44
1040
1.0
1070
    42
1040
1.0
1070
   147
1040
1.524
1070
    73
1070
     0
1070
    74
1070
     0
1070
   140
1040
2.4
1070
   284
1070
    12
1070
    78
1070
    12
1002
}
  0
DIMENSION
  5
384
330
1F
100
AcDbEntity
  8
5
100
AcDbDimension
  2
*D13
 10
125.9766756662
 20
115.1253224433
 30
0.0
 11
77.6048403286
 21
115.1253224433
 31
0.0
 70
   160
 71
     1
 42
96.7436706752
  3
SLDDIMSTYLE0
100
AcDbAlignedDimension
 13
29.233004991
 23
141.9858963312
 33
0.0
 14
125.9766756662
 24
146.3858963312
 34
0.0
100
AcDbRotatedDimension
1001
ACAD
1000
DSTYLE
1002
{
1070
    77
1070
     3
1070
   143
1040
0.0393700787
1070
    41
1040
3.0
1070
    44
1040
1.0
1070
    42
1040
1.0
1070
   147
1040
1.524
1070
    73
1070
     0
1070
    74
1070
     0
1070
   140
1040
2.4
1070
   284
1070
    12
1070
    78
1070
    12
1002
}
  0
DIMENSION
  5
397
330
1F
100
AcDbEntity
  8
5
100
AcDbDimension
  2
*D14
 10
92.8373229379
 20
139.0858963312
 30
0.0
 11
92.8373229379
 21
128.9716106169
 31
0.0
 70
   160
 71
     1
 42
5.2
  3
SLDDIMSTYLE1
100
AcDbAlignedDimension
 13
79.433004991
 23
133.8858963312
 33
0.0
 14
73.2561316323
 24
139.0858963312
 34
0.0
 50
90.0
100
AcDbRotatedDimension
1001
ACAD
1000
DSTYLE
1002
{
1070
    77
1070
     3
1070
   143
1040
0.0393700787
1070
    41
1040
3.0
1070
    44
1040
1.0
1070
    42
1040
1.0
1070
   147
1040
1.524
1070
    73
1070
     0
1070
    74
1070
     0
1070
   140
1040
2.4
1070
   284
1070
    12
1070
    78
1070
    12
1002
}
  0
DIMENSION
  5
3AD
330
1F
100
AcDbEntity
  8
5
100
AcDbDimension
  2
*D15
 10
131.1009771916
 20
154.6858963312
 30
0.0
 11
131.1009771916
 21
147.8858963312
 31
0.0
 70
   160
  1
%%c<>
 71
     1
 42
13.6
  3
SLDDIMSTYLE0
100
AcDbAlignedDimension
 13
124.2714259752
 23
141.0858963312
 33
0.0
 14
124.2714259752
 24
154.6858963312
 34
0.0
 50
90.0
100
AcDbRotatedDimension
1001
ACAD
1000
DSTYLE
1002
{
1070
    77
1070
     3
1070
   143
1040
0.0393700787
1070
    41
1040
3.0
1070
    44
1040
1.0
1070
    42
1040
1.0
1070
   147
1040
1.524
1070
    73
1070
     0
1070
    74
1070
     0
1070
   140
1040
2.4
1070
   284
1070
    12
1070
    78
1070
    12
1002
}
  0
DIMENSION
  5
3C2
330
1F
100
AcDbEntity
  8
5
100
AcDbDimension
  2
*D16
 10
-4.05982492
 20
-1.5234607145
 30
0.0
 11
-14.3723877529
 21
38.9391627596
 31
0.0
 70
   163
  1
<>
 71
     1
 42
4.3362554041
  3
SLDDIMSTYLE2
100
AcDbDiametricDimension
 15
0.0
 25
0.0
 35
0.0
 40
0.0
1001
ACAD
1000
DSTYLE
1002
{
1070
    77
1070
     0
1070
   143
1040
0.0393700787
1070
    41
1040
3.0
1070
    44
1040
1.0
1070
    42
1040
1.0
1070
   147
1040
1.524
1070
    73
1070
     1
1070
    74
1070
     1
1070
   140
1040
2.4
1070
   284
1070
    12
1070
    78
1070
    12
1002
}
  0
DIMENSION
  5
3D7
330
1F
100
AcDbEntity
  8
5
100
AcDbDimension
  2
*D17
 10
22.4687852817
 20
150.8858963312
 30
0.0
 11
22.4687852817
 21
147.8858963312
 31
0.0
 70
   160
  1
%%c<>
 71
     1
 42
6.0
  3
SLDDIMSTYLE0
100
AcDbAlignedDimension
 13
29.233004991
 23
144.8858963312
 33
0.0
 14
29.233004991
 24
150.8858963312
 34
0.0
 50
90.0
100
AcDbRotatedDimension
1001
ACAD
1000
DSTYLE
1002
{
1070
    77
1070
     3
1070
   143
1040
0.0393700787
1070
    41
1040
3.0
1070
    44
1040
1.0
1070
    42
1040
1.0
1070
   147
1040
1.524
1070
    73
1070
     0
1070
    74
1070
     0
1070
   140
1040
2.4
1070
   284
1070
    12
1070
    78
1070
    12
1002
}
  0
MTEXT
  5
3EC
330
1F
100
AcDbEntity
  8
0
  6
Continuous
 62
     7
370
     0
100
AcDbMText
 10
143.5587227043
 20
30.7086649481
 30
0.0
 40
4.2333333333
 41
0.0
 71
     1
 72
     1
  1
SSBP-15-S2-SDA
  7
SLDTEXTSTYLE0
 73
     1
 44
1.0
  0
INSERT
  5
3F2
330
1F
100
AcDbEntity
  8
0
  6
Continuous
 62
     7
370
     0
100
AcDbBlockReference
  2
SW_NOTE_0
 10
134.3156780182
 20
44.2524164425
 30
0.0
  0
MTEXT
  5
3F3
330
1F
100
AcDbEntity
  8
0
  6
Continuous
 62
     7
370
     0
100
AcDbMText
 10
154.4771995122
 20
17.5539616914
 30
0.0
 40
4.2333333333
 41
0.0
 71
     1
 72
     1
  1
183989
  7
SLDTEXTSTYLE0
 73
     1
 44
1.0
  0
ENDSEC
  0
SECTION
  2
OBJECTS
  0
DICTIONARY
  5
C
330
0
100
AcDbDictionary
281
     1
  3
ACAD_GROUP
350
D
  3
ACAD_LAYOUT
350
1A
  3
ACAD_MLINESTYLE
350
17
  3
ACAD_PLOTSETTINGS
350
19
  3
ACAD_PLOTSTYLENAME
350
E
  0
DICTIONARY
  5
D
102
{ACAD_REACTORS
330
C
102
}
330
C
100
AcDbDictionary
281
     1
  0
DICTIONARY
  5
1A
102
{ACAD_REACTORS
330
C
102
}
330
C
100
AcDbDictionary
281
     1
  3
Layout1
350
1E
  3
Layout2
350
26
  3
Model
350
22
  0
DICTIONARY
  5
17
102
{ACAD_REACTORS
330
C
102
}
330
C
100
AcDbDictionary
281
     1
  3
Standard
350
18
  0
DICTIONARY
  5
19
102
{ACAD_REACTORS
330
C
102
}
330
C
100
AcDbDictionary
281
     1
  0
ACDBDICTIONARYWDFLT
  5
E
102
{ACAD_REACTORS
330
C
102
}
330
C
100
AcDbDictionary
281
     1
  3
Normal
350
F
100
AcDbDictionaryWithDefault
340
F
  0
LAYOUT
  5
1E
102
{ACAD_REACTORS
330
1A
102
}
330
1A
100
AcDbPlotSettings
  1

  2

  4

  6

 40
0.0
 41
0.0
 42
0.0
 43
0.0
 44
0.0
 45
0.0
 46
0.0
 47
0.0
 48
0.0
 49
0.0
140
0.0
141
0.0
142
1.0
143
1.0
 70
   688
 72
     0
 73
     0
 74
     5
  7

 75
    16
147
1.0
148
0.0
149
0.0
100
AcDbLayout
  1
Layout1
 70
     1
 71
     1
 10
0.0
 20
0.0
 11
0.0
 21
0.0
 12
0.0
 22
0.0
 32
0.0
 14
0.0
 24
0.0
 34
0.0
 15
0.0
 25
0.0
 35
0.0
146
0.0
 13
0.0
 23
0.0
 33
0.0
 16
1.0
 26
0.0
 36
0.0
 17
0.0
 27
1.0
 37
0.0
 76
     0
330
1B
  0
LAYOUT
  5
26
102
{ACAD_REACTORS
330
1A
102
}
330
1A
100
AcDbPlotSettings
  1

  2

  4

  6

 40
0.0
 41
0.0
 42
0.0
 43
0.0
 44
0.0
 45
0.0
 46
0.0
 47
0.0
 48
0.0
 49
0.0
140
0.0
141
0.0
142
1.0
143
1.0
 70
   688
 72
     0
 73
     0
 74
     5
  7

 75
    16
147
1.0
148
0.0
149
0.0
100
AcDbLayout
  1
Layout2
 70
     1
 71
     2
 10
0.0
 20
0.0
 11
0.0
 21
0.0
 12
0.0
 22
0.0
 32
0.0
 14
0.0
 24
0.0
 34
0.0
 15
0.0
 25
0.0
 35
0.0
146
0.0
 13
0.0
 23
0.0
 33
0.0
 16
1.0
 26
0.0
 36
0.0
 17
0.0
 27
1.0
 37
0.0
 76
     0
330
23
  0
LAYOUT
  5
22
102
{ACAD_REACTORS
330
1A
102
}
330
1A
100
AcDbPlotSettings
  1

  2

  4

  6

 40
0.0
 41
0.0
 42
0.0
 43
0.0
 44
0.0
 45
0.0
 46
0.0
 47
0.0
 48
0.0
 49
0.0
140
0.0
141
0.0
142
1.0
143
1.0
 70
  1712
 72
     0
 73
     0
 74
     0
  7

 75
     0
147
1.0
148
0.0
149
0.0
100
AcDbLayout
  1
Model
 70
     1
 71
     0
 10
0.0
 20
0.0
 11
0.0
 21
0.0
 12
0.0
 22
0.0
 32
0.0
 14
0.0
 24
0.0
 34
0.0
 15
210.0
 25
297.0
 35
0.0
146
0.0
 13
0.0
 23
0.0
 33
0.0
 16
1.0
 26
0.0
 36
0.0
 17
0.0
 27
1.0
 37
0.0
 76
     0
330
1F
  0
MLINESTYLE
  5
18
102
{ACAD_REACTORS
330
17
102
}
330
17
100
AcDbMlineStyle
  2
Standard
 70
     0
  3

 62
   256
 51
90.0
 52
90.0
 71
     2
 49
0.5
 62
   256
  6
BYLAYER
 49
-0.5
 62
   256
  6
BYLAYER
  0
ACDBPLACEHOLDER
  5
F
102
{ACAD_REACTORS
330
E
102
}
330
E
  0
ENDSEC
  0
EOF
