  0
SECTION
  2
HEADER
  9
$ACADVER
  1
AC1015
  9
$ACADMAINTVER
 70
     6
  9
$DWGCODEPAGE
  3
DOS932
  9
$INSBASE
 10
0.0
 20
0.0
 30
0.0
  9
$EXTMIN
 10
0.0
 20
0.0
 30
0.0
  9
$EXTMAX
 10
210.0
 20
297.0
 30
0.0
  9
$LIMMIN
 10
0.0
 20
0.0
  9
$LIMMAX
 10
0.0
 20
0.0
  9
$ORTHOMODE
 70
     0
  9
$REGENMODE
 70
     1
  9
$FILLMODE
 70
     1
  9
$QTEXTMODE
 70
     0
  9
$MIRRTEXT
 70
     1
  9
$LTSCALE
 40
1.0
  9
$ATTMODE
 70
     1
  9
$TEXTSIZE
 40
3.5
  9
$TRACEWID
 40
1.0
  9
$TEXTSTYLE
  7
Standard
  9
$CLAYER
  8
0
  9
$CELTYPE
  6
ByLayer
  9
$CECOLOR
 62
   256
  9
$CELTSCALE
 40
1.0
  9
$DISPSILH
 70
     0
  9
$DIMSCALE
 40
1.0
  9
$DIMASZ
 40
3.0
  9
$DIMEXO
 40
1.0
  9
$DIMDLI
 40
3.75
  9
$DIMRND
 40
0.0
  9
$DIMDLE
 40
0.0
  9
$DIMEXE
 40
1.0
  9
$DIMTP
 40
0.0
  9
$DIMTM
 40
0.0
  9
$DIMTXT
 40
3.5
  9
$DIMCEN
 40
2.5
  9
$DIMTSZ
 40
0.0
  9
$DIMTOL
 70
     0
  9
$DIMLIM
 70
     0
  9
$DIMTIH
 70
     1
  9
$DIMTOH
 70
     1
  9
$DIMSE1
 70
     0
  9
$DIMSE2
 70
     0
  9
$DIMTAD
 70
     1
  9
$DIMZIN
 70
     1
  9
$DIMBLK
  1

  9
$DIMASO
 70
     1
  9
$DIMSHO
 70
     1
  9
$DIMPOST
  1

  9
$DIMAPOST
  1

  9
$DIMALT
 70
     0
  9
$DIMALTD
 70
     3
  9
$DIMALTF
 40
0.0393700787
  9
$DIMLFAC
 40
1.0
  9
$DIMTOFL
 70
     1
  9
$DIMTVP
 40
0.0
  9
$DIMTIX
 70
     0
  9
$DIMSOXD
 70
     0
  9
$DIMSAH
 70
     0
  9
$DIMBLK1
  1

  9
$DIMBLK2
  1

  9
$DIMSTYLE
  2
ISO-25
  9
$DIMCLRD
 70
     0
  9
$DIMCLRE
 70
     0
  9
$DIMCLRT
 70
     0
  9
$DIMTFAC
 40
1.0
  9
$DIMGAP
 40
1.524
  9
$DIMJUST
 70
     0
  9
$DIMSD1
 70
     0
  9
$DIMSD2
 70
     0
  9
$DIMTOLJ
 70
     0
  9
$DIMTZIN
 70
     1
  9
$DIMALTZ
 70
     0
  9
$DIMALTTZ
 70
     0
  9
$DIMUPT
 70
     0
  9
$DIMDEC
 70
     2
  9
$DIMTDEC
 70
     2
  9
$DIMALTU
 70
     2
  9
$DIMALTTD
 70
     3
  9
$DIMTXSTY
  7
Standard
  9
$DIMAUNIT
 70
     0
  9
$DIMADEC
 70
     0
  9
$DIMALTRND
 40
0.0
  9
$DIMAZIN
 70
     0
  9
$DIMDSEP
 70
    44
  9
$DIMATFIT
 70
     3
  9
$DIMFRAC
 70
     0
  9
$DIMLDRBLK
  1

  9
$DIMLUNIT
 70
     2
  9
$DIMLWD
 70
    -2
  9
$DIMLWE
 70
    -2
  9
$DIMTMOVE
 70
     0
  9
$LUNITS
 70
     2
  9
$LUPREC
 70
     1
  9
$SKETCHINC
 40
1.0
  9
$FILLETRAD
 40
10.0
  9
$AUNITS
 70
     0
  9
$AUPREC
 70
     0
  9
$MENU
  1
.
  9
$ELEVATION
 40
0.0
  9
$PELEVATION
 40
0.0
  9
$THICKNESS
 40
0.0
  9
$LIMCHECK
 70
     0
  9
$CHAMFERA
 40
10.0
  9
$CHAMFERB
 40
10.0
  9
$CHAMFERC
 40
20.0
  9
$CHAMFERD
 40
0.0
  9
$SKPOLY
 70
     0
  9
$TDCREATE
 40
2454323.665573993
  9
$TDUCREATE
 40
2454323.290573993
  9
$TDUPDATE
 40
2454323.665574004
  9
$TDUUPDATE
 40
2454323.290574004
  9
$TDINDWG
 40
0.0000000116
  9
$TDUSRTIMER
 40
0.0000000116
  9
$USRTIMER
 70
     1
  9
$ANGBASE
 50
0.0
  9
$ANGDIR
 70
     0
  9
$PDMODE
 70
     0
  9
$PDSIZE
 40
-1.0
  9
$PLINEWID
 40
0.0
  9
$SPLFRAME
 70
     0
  9
$SPLINETYPE
 70
     6
  9
$SPLINESEGS
 70
     8
  9
$HANDSEED
  5
495
  9
$SURFTAB1
 70
     6
  9
$SURFTAB2
 70
     6
  9
$SURFTYPE
 70
     6
  9
$SURFU
 70
     6
  9
$SURFV
 70
     6
  9
$UCSBASE
  2

  9
$UCSNAME
  2

  9
$UCSORG
 10
0.0
 20
0.0
 30
0.0
  9
$UCSXDIR
 10
1.0
 20
0.0
 30
0.0
  9
$UCSYDIR
 10
0.0
 20
1.0
 30
0.0
  9
$UCSORTHOREF
  2

  9
$UCSORTHOVIEW
 70
     0
  9
$UCSORGTOP
 10
0.0
 20
0.0
 30
0.0
  9
$UCSORGBOTTOM
 10
0.0
 20
0.0
 30
0.0
  9
$UCSORGLEFT
 10
0.0
 20
0.0
 30
0.0
  9
$UCSORGRIGHT
 10
0.0
 20
0.0
 30
0.0
  9
$UCSORGFRONT
 10
0.0
 20
0.0
 30
0.0
  9
$UCSORGBACK
 10
0.0
 20
0.0
 30
0.0
  9
$PUCSBASE
  2

  9
$PUCSNAME
  2

  9
$PUCSORG
 10
0.0
 20
0.0
 30
0.0
  9
$PUCSXDIR
 10
1.0
 20
0.0
 30
0.0
  9
$PUCSYDIR
 10
0.0
 20
1.0
 30
0.0
  9
$PUCSORTHOREF
  2

  9
$PUCSORTHOVIEW
 70
     0
  9
$PUCSORGTOP
 10
0.0
 20
0.0
 30
0.0
  9
$PUCSORGBOTTOM
 10
0.0
 20
0.0
 30
0.0
  9
$PUCSORGLEFT
 10
0.0
 20
0.0
 30
0.0
  9
$PUCSORGRIGHT
 10
0.0
 20
0.0
 30
0.0
  9
$PUCSORGFRONT
 10
0.0
 20
0.0
 30
0.0
  9
$PUCSORGBACK
 10
0.0
 20
0.0
 30
0.0
  9
$USERI1
 70
     0
  9
$USERI2
 70
     0
  9
$USERI3
 70
     0
  9
$USERI4
 70
     0
  9
$USERI5
 70
     0
  9
$USERR1
 40
0.0
  9
$USERR2
 40
0.0
  9
$USERR3
 40
0.0
  9
$USERR4
 40
0.0
  9
$USERR5
 40
0.0
  9
$WORLDVIEW
 70
     1
  9
$SHADEDGE
 70
     3
  9
$SHADEDIF
 70
    70
  9
$TILEMODE
 70
     1
  9
$MAXACTVP
 70
    64
  9
$PINSBASE
 10
0.0
 20
0.0
 30
0.0
  9
$PLIMCHECK
 70
     0
  9
$PEXTMIN
 10
1.0000000000E+20
 20
1.0000000000E+20
 30
1.0000000000E+20
  9
$PEXTMAX
 10
-1.0000000000E+20
 20
-1.0000000000E+20
 30
-1.0000000000E+20
  9
$PLIMMIN
 10
0.0
 20
0.0
  9
$PLIMMAX
 10
420.0
 20
297.0
  9
$UNITMODE
 70
     0
  9
$VISRETAIN
 70
     1
  9
$PLINEGEN
 70
     0
  9
$PSLTSCALE
 70
     1
  9
$TREEDEPTH
 70
  3020
  9
$CMLSTYLE
  2
Standard
  9
$CMLJUST
 70
     0
  9
$CMLSCALE
 40
20.0
  9
$PROXYGRAPHICS
 70
     1
  9
$MEASUREMENT
 70
     1
  9
$CELWEIGHT
370
    -1
  9
$ENDCAPS
280
     0
  9
$JOINSTYLE
280
     0
  9
$LWDISPLAY
290
     1
  9
$INSUNITS
 70
     4
  9
$HYPERLINKBASE
  1

  9
$STYLESHEET
  1

  9
$XEDIT
290
     1
  9
$CEPSNTYPE
380
     0
  9
$PSTYLEMODE
290
     1
  9
$FINGERPRINTGUID
  2
{4269D95F-AEBE-41D7-90D2-6EC9898E18BE}
  9
$VERSIONGUID
  2
{FAEB1C32-E019-11D5-929B-00C0DF256EC4}
  9
$EXTNAMES
290
     1
  9
$PSVPSCALE
 40
0.0
  9
$OLESTARTUP
290
     0
  0
ENDSEC
  0
SECTION
  2
CLASSES
  0
CLASS
  1
ACDBDICTIONARYWDFLT
  2
AcDbDictionaryWithDefault
  3
ObjectDBX Classes
 90
        0
280
     0
281
     0
  0
CLASS
  1
ACDBPLACEHOLDER
  2
AcDbPlaceHolder
  3
ObjectDBX Classes
 90
        0
280
     0
281
     0
  0
CLASS
  1
LAYOUT
  2
AcDbLayout
  3
ObjectDBX Classes
 90
        0
280
     0
281
     0
  0
ENDSEC
  0
SECTION
  2
TABLES
  0
TABLE
  2
VPORT
  5
8
330
0
100
AcDbSymbolTable
 70
     1
  0
VPORT
  5
29
330
8
100
AcDbSymbolTableRecord
100
AcDbViewportTableRecord
  2
*Active
 70
     0
 10
0.0
 20
0.0
 11
1.0
 21
1.0
 12
105.0
 22
148.5
 13
0.0
 23
0.0
 14
10.0
 24
10.0
 15
10.0
 25
10.0
 16
0.0
 26
0.0
 36
1.0
 17
0.0
 27
0.0
 37
0.0
 40
297.0
 41
1.9729729729
 42
50.0
 43
0.0
 44
0.0
 50
0.0
 51
0.0
 71
     0
 72
  2000
 73
     1
 74
     3
 75
     0
 76
     0
 77
     0
 78
     0
281
     0
 65
     1
110
0.0
120
0.0
130
0.0
111
1.0
121
0.0
131
0.0
112
0.0
122
1.0
132
0.0
 79
     0
146
0.0
  0
ENDTAB
  0
TABLE
  2
LTYPE
  5
5
330
0
100
AcDbSymbolTable
 70
     6
  0
LTYPE
  5
14
330
5
100
AcDbSymbolTableRecord
100
AcDbLinetypeTableRecord
  2
ByBlock
 70
     0
  3

 72
    65
 73
     0
 40
0.0
  0
LTYPE
  5
15
330
5
100
AcDbSymbolTableRecord
100
AcDbLinetypeTableRecord
  2
ByLayer
 70
     0
  3

 72
    65
 73
     0
 40
0.0
  0
LTYPE
  5
16
330
5
100
AcDbSymbolTableRecord
100
AcDbLinetypeTableRecord
  2
Continuous
 70
     0
  3
Solid line
 72
    65
 73
     0
 40
0.0
  0
LTYPE
  5
2A
330
5
100
AcDbSymbolTableRecord
100
AcDbLinetypeTableRecord
  2
HIDDEN
 70
     0
  3
Hidden __ __ __ __ __ __ __ __ __ __ __ __ __ __
 72
    65
 73
     2
 40
1.905
 49
1.27
 74
     0
 49
-0.635
 74
     0
  0
LTYPE
  5
2B
330
5
100
AcDbSymbolTableRecord
100
AcDbLinetypeTableRecord
  2
PHANTOM
 70
     0
  3
Phantom ______  __  __  ______  __  __  ______
 72
    65
 73
     6
 40
12.7
 49
6.35
 74
     0
 49
-1.27
 74
     0
 49
1.27
 74
     0
 49
-1.27
 74
     0
 49
1.27
 74
     0
 49
-1.27
 74
     0
  0
LTYPE
  5
2C
330
5
100
AcDbSymbolTableRecord
100
AcDbLinetypeTableRecord
  2
CENTER
 70
     0
  3
Center ____ _ ____ _ ____ _ ____ _ ____ _ ____
 72
    65
 73
     4
 40
10.16
 49
6.35
 74
     0
 49
-1.27
 74
     0
 49
1.27
 74
     0
 49
-1.27
 74
     0
  0
LTYPE
  5
2D
330
5
100
AcDbSymbolTableRecord
100
AcDbLinetypeTableRecord
  2
CENTERX2
 70
     0
  3
Center (2x) ________  __  ________  __  _____
 72
    65
 73
     4
 40
20.32
 49
12.7
 74
     0
 49
-2.54
 74
     0
 49
2.54
 74
     0
 49
-2.54
 74
     0
  0
LTYPE
  5
2E
330
5
100
AcDbSymbolTableRecord
100
AcDbLinetypeTableRecord
  2
DOT2
 70
     0
  3
Dot (.5x) ........................................
 72
    65
 73
     2
 40
0.635
 49
0.0
 74
     0
 49
-0.635
 74
     0
  0
ENDTAB
  0
TABLE
  2
LAYER
  5
2
330
0
100
AcDbSymbolTable
 70
     4
  0
LAYER
  5
10
330
2
100
AcDbSymbolTableRecord
100
AcDbLayerTableRecord
  2
0
 70
     0
 62
     7
  6
Continuous
370
    -3
390
F
  0
LAYER
  5
2F
330
2
100
AcDbSymbolTableRecord
100
AcDbLayerTableRecord
  2
SLD-0
 70
     0
 62
   179
  6
Continuous
370
     0
390
F
  0
LAYER
  5
30
330
2
100
AcDbSymbolTableRecord
100
AcDbLayerTableRecord
  2
SLD-DEFPOINTS
 70
     0
 62
   179
  6
Continuous
370
     0
390
F
  0
LAYER
  5
412
330
2
100
AcDbSymbolTableRecord
100
AcDbLayerTableRecord
  2
Defpoints
 70
     0
 62
     7
  6
Continuous
290
     0
370
    -3
390
F
  0
ENDTAB
  0
TABLE
  2
STYLE
  5
3
330
0
100
AcDbSymbolTable
 70
     3
  0
STYLE
  5
11
330
3
100
AcDbSymbolTableRecord
100
AcDbTextStyleTableRecord
  2
Standard
 70
     0
 40
0.0
 41
1.0
 50
0.0
 71
     0
 42
2.5
  3
txt
  4
bigfont
  0
STYLE
  5
34
330
3
100
AcDbSymbolTableRecord
100
AcDbTextStyleTableRecord
  2
SLDTEXTSTYLE0
 70
     0
 40
0.0
 41
0.7
 50
0.0
 71
     0
 42
0.2
  3
TXT
  4
bigfont
  0
STYLE
  5
420
330
3
100
AcDbSymbolTableRecord
100
AcDbTextStyleTableRecord
  2
SLDTEXTSTYLE1
 70
     0
 40
0.0
 41
0.5157894737
 50
0.0
 71
     0
 42
0.2
  3
TXT
  4
bigfont
  0
ENDTAB
  0
TABLE
  2
VIEW
  5
6
330
0
100
AcDbSymbolTable
 70
     0
  0
ENDTAB
  0
TABLE
  2
UCS
  5
7
330
0
100
AcDbSymbolTable
 70
     0
  0
ENDTAB
  0
TABLE
  2
APPID
  5
9
330
0
100
AcDbSymbolTable
 70
     1
  0
APPID
  5
12
330
9
100
AcDbSymbolTableRecord
100
AcDbRegAppTableRecord
  2
ACAD
 70
     0
  0
ENDTAB
  0
TABLE
  2
DIMSTYLE
  5
A
330
0
100
AcDbSymbolTable
 70
     3
100
AcDbDimStyleTable
  0
DIMSTYLE
105
27
330
A
100
AcDbSymbolTableRecord
100
AcDbDimStyleTableRecord
  2
ISO-25
 70
     0
 41
2.5
 42
0.625
 43
3.75
 44
1.25
 73
     0
 74
     0
 77
     1
 78
     8
140
2.5
141
2.5
143
0.0393700787
147
0.625
171
     3
172
     1
271
     2
272
     2
274
     3
278
    44
283
     0
284
     8
340
11
  0
DIMSTYLE
105
421
102
{ACAD_REACTORS
330
411
330
42F
330
463
102
}
330
A
100
AcDbSymbolTableRecord
100
AcDbDimStyleTableRecord
  2
SLDDIMSTYLE0
 70
     0
 41
3.0
 44
0.0
 73
     0
 74
     0
 77
     3
 78
    12
140
3.5
147
0.875
173
     1
271
     0
272
     3
284
    12
340
420
341
422
343
422
344
422
  0
DIMSTYLE
105
456
102
{ACAD_REACTORS
330
449
330
47B
102
}
330
A
100
AcDbSymbolTableRecord
100
AcDbDimStyleTableRecord
  2
SLDDIMSTYLE1
 70
     0
 41
3.0
 44
0.0
 73
     0
 74
     0
 77
     3
 78
    12
140
3.5
147
0.875
173
     1
271
     1
272
     3
284
    12
340
420
341
422
343
422
344
422
  0
ENDTAB
  0
TABLE
  2
BLOCK_RECORD
  5
1
330
0
100
AcDbSymbolTable
 70
     8
  0
BLOCK_RECORD
  5
1F
330
1
100
AcDbSymbolTableRecord
100
AcDbBlockTableRecord
  2
*Model_Space
340
22
  0
BLOCK_RECORD
  5
1B
330
1
100
AcDbSymbolTableRecord
100
AcDbBlockTableRecord
  2
*Paper_Space
340
1E
  0
BLOCK_RECORD
  5
23
330
1
100
AcDbSymbolTableRecord
100
AcDbBlockTableRecord
  2
*Paper_Space0
340
26
  0
BLOCK_RECORD
  5
31
330
1
100
AcDbSymbolTableRecord
100
AcDbBlockTableRecord
  2
注記
340
0
  0
BLOCK_RECORD
  5
413
330
1
100
AcDbSymbolTableRecord
100
AcDbBlockTableRecord
  2
*D2
340
0
  0
BLOCK_RECORD
  5
422
330
1
100
AcDbSymbolTableRecord
100
AcDbBlockTableRecord
  2
_None
340
0
102
{BLKREFS
331
418
331
417
331
435
331
434
331
44F
331
44E
331
469
331
468
331
481
331
480
102
}
  0
BLOCK_RECORD
  5
430
330
1
100
AcDbSymbolTableRecord
100
AcDbBlockTableRecord
  2
*D4
340
0
  0
BLOCK_RECORD
  5
44A
330
1
100
AcDbSymbolTableRecord
100
AcDbBlockTableRecord
  2
*D5
340
0
  0
BLOCK_RECORD
  5
464
330
1
100
AcDbSymbolTableRecord
100
AcDbBlockTableRecord
  2
*D6
340
0
  0
BLOCK_RECORD
  5
47C
330
1
100
AcDbSymbolTableRecord
100
AcDbBlockTableRecord
  2
*D7
340
0
  0
ENDTAB
  0
ENDSEC
  0
SECTION
  2
BLOCKS
  0
BLOCK
  5
20
330
1F
100
AcDbEntity
  8
0
100
AcDbBlockBegin
  2
*Model_Space
 70
     0
 71
     0
 10
0.0
 20
0.0
 30
0.0
  3
*Model_Space
  1

  0
ENDBLK
  5
21
330
1F
100
AcDbEntity
  8
0
100
AcDbBlockEnd
  0
BLOCK
  5
1C
330
1B
100
AcDbEntity
 67
     1
  8
0
100
AcDbBlockBegin
  2
*Paper_Space
 70
     0
 71
     0
 10
0.0
 20
0.0
 30
0.0
  3
*Paper_Space
  1

  0
ENDBLK
  5
1D
330
1B
100
AcDbEntity
 67
     1
  8
0
100
AcDbBlockEnd
  0
BLOCK
  5
24
330
23
100
AcDbEntity
  8
0
100
AcDbBlockBegin
  2
*Paper_Space0
 70
     0
 71
     0
 10
0.0
 20
0.0
 30
0.0
  3
*Paper_Space0
  1

  0
ENDBLK
  5
25
330
23
100
AcDbEntity
  8
0
100
AcDbBlockEnd
  0
BLOCK
  5
32
330
31
100
AcDbEntity
  8
0
100
AcDbBlockBegin
  2
注記
 70
     0
 71
     0
 10
0.0
 20
0.0
 30
0.0
  3
注記
  1

  0
MTEXT
  5
35
330
31
100
AcDbEntity
  8
0
  6
Continuous
 62
     7
370
     0
100
AcDbMText
 10
0.2636785918
 20
9.0739778448
 30
0.0
 40
3.5
 41
0.0
 71
     1
 72
     1
  1
１．特記ナキ角部ハ、バリ　カエリノ無キコト。
  7
SLDTEXTSTYLE0
 73
     1
 44
1.0
  0
MTEXT
  5
36
330
31
100
AcDbEntity
  8
0
  6
Continuous
 62
     7
370
     0
100
AcDbMText
 10
0.2636785918
 20
3.5759549983
 30
0.0
 40
3.5
 41
0.0
 71
     1
 72
     1
  1
２．特記ナキ隅部ハ、Ｒ０．４ＭＡＸトスル。
  7
SLDTEXTSTYLE0
 73
     1
 44
1.0
  0
ENDBLK
  5
33
330
31
100
AcDbEntity
  8
0
100
AcDbBlockEnd
  0
BLOCK
  5
41E
330
413
100
AcDbEntity
  8
0
100
AcDbBlockBegin
  2
*D2
 70
     1
 71
     0
 10
0.0
 20
0.0
 30
0.0
  3
*D2
  1

  0
LINE
  5
425
330
413
100
AcDbEntity
  8
SLD-0
 62
     7
100
AcDbLine
 10
171.2574014359
 20
173.9016666667
 30
0.0
 11
172.0612484359
 21
176.9016666667
 31
0.0
  0
LINE
  5
426
330
413
100
AcDbEntity
  8
SLD-0
 62
     7
100
AcDbLine
 10
172.0612484359
 20
176.9016666667
 30
0.0
 11
172.8650954359
 21
173.9016666667
 31
0.0
  0
LINE
  5
427
330
413
100
AcDbEntity
  8
SLD-0
 62
     7
100
AcDbLine
 10
172.0612484359
 20
176.9016666667
 30
0.0
 11
172.0612484359
 21
173.9016666667
 31
0.0
  0
LINE
  5
428
330
413
100
AcDbEntity
  8
SLD-0
 62
     7
100
AcDbLine
 10
172.8650954359
 20
149.9016666667
 30
0.0
 11
172.0612484359
 21
146.9016666667
 31
0.0
  0
LINE
  5
429
330
413
100
AcDbEntity
  8
SLD-0
 62
     7
100
AcDbLine
 10
172.0612484359
 20
146.9016666667
 30
0.0
 11
171.2574014359
 21
149.9016666667
 31
0.0
  0
LINE
  5
42A
330
413
100
AcDbEntity
  8
SLD-0
 62
     7
100
AcDbLine
 10
172.0612484359
 20
146.9016666667
 30
0.0
 11
172.0612484359
 21
149.9016666667
 31
0.0
  0
LINE
  5
42B
330
413
100
AcDbEntity
  8
SLD-0
 62
     7
100
AcDbLine
 10
52.7008333333
 20
176.9016666667
 30
0.0
 11
173.0612484359
 21
176.9016666667
 31
0.0
  0
LINE
  5
42C
330
413
100
AcDbEntity
  8
SLD-0
 62
     7
100
AcDbLine
 10
52.7008333333
 20
146.9016666667
 30
0.0
 11
173.0612484359
 21
146.9016666667
 31
0.0
  0
LINE
  5
42D
330
413
100
AcDbEntity
  8
SLD-0
 62
     7
100
AcDbLine
 10
172.0612484359
 20
176.9016666667
 30
0.0
 11
172.0612484359
 21
146.9016666667
 31
0.0
  0
MTEXT
  5
42E
330
413
100
AcDbEntity
  8
SLD-0
 62
     7
100
AcDbMText
 10
167.9885215124
 20
159.8660539808
 30
0.1
 40
3.5
 41
0.0
 71
     1
 72
     1
  1
30
  7
SLDTEXTSTYLE0
 11
-7.044197039909883E-15
 21
1.0
 31
0.0
 73
     1
 44
1.0
  0
ENDBLK
  5
41F
330
413
100
AcDbEntity
  8
0
100
AcDbBlockEnd
  0
BLOCK
  5
423
330
422
100
AcDbEntity
  8
0
100
AcDbBlockBegin
  2
_None
 70
     0
 71
     0
 10
0.0
 20
0.0
 30
0.0
  3
_None
  1

  0
ENDBLK
  5
424
330
422
100
AcDbEntity
  8
0
100
AcDbBlockEnd
  0
BLOCK
  5
43B
330
430
100
AcDbEntity
  8
0
100
AcDbBlockBegin
  2
*D4
 70
     1
 71
     0
 10
0.0
 20
0.0
 30
0.0
  3
*D4
  1

  0
LINE
  5
43D
330
430
100
AcDbEntity
  8
SLD-0
 62
     7
100
AcDbLine
 10
149.9008333333
 20
193.6546897292
 30
0.0
 11
152.9008333333
 21
192.8508427292
 31
0.0
  0
LINE
  5
43E
330
430
100
AcDbEntity
  8
SLD-0
 62
     7
100
AcDbLine
 10
152.9008333333
 20
192.8508427292
 30
0.0
 11
149.9008333333
 21
192.0469957292
 31
0.0
  0
LINE
  5
43F
330
430
100
AcDbEntity
  8
SLD-0
 62
     7
100
AcDbLine
 10
152.9008333333
 20
192.8508427292
 30
0.0
 11
149.9008333333
 21
192.8508427292
 31
0.0
  0
LINE
  5
440
330
430
100
AcDbEntity
  8
SLD-0
 62
     7
100
AcDbLine
 10
160.9008333333
 20
192.0469957292
 30
0.0
 11
157.9008333333
 21
192.8508427292
 31
0.0
  0
LINE
  5
441
330
430
100
AcDbEntity
  8
SLD-0
 62
     7
100
AcDbLine
 10
157.9008333333
 20
192.8508427292
 30
0.0
 11
160.9008333333
 21
193.6546897292
 31
0.0
  0
LINE
  5
442
330
430
100
AcDbEntity
  8
SLD-0
 62
     7
100
AcDbLine
 10
157.9008333333
 20
192.8508427292
 30
0.0
 11
160.9008333333
 21
192.8508427292
 31
0.0
  0
LINE
  5
443
330
430
100
AcDbEntity
  8
SLD-0
 62
     7
100
AcDbLine
 10
152.9008333333
 20
187.4016666667
 30
0.0
 11
152.9008333333
 21
193.8508427292
 31
0.0
  0
LINE
  5
444
330
430
100
AcDbEntity
  8
SLD-0
 62
     7
100
AcDbLine
 10
157.9008333333
 20
185.4016666667
 30
0.0
 11
157.9008333333
 21
193.8508427292
 31
0.0
  0
LINE
  5
445
330
430
100
AcDbEntity
  8
SLD-0
 62
     7
100
AcDbLine
 10
152.9008333333
 20
192.8508427292
 30
0.0
 11
147.9008333333
 21
192.8508427292
 31
0.0
  0
LINE
  5
446
330
430
100
AcDbEntity
  8
SLD-0
 62
     7
100
AcDbLine
 10
152.9008333333
 20
192.8508427292
 30
0.0
 11
157.9008333333
 21
192.8508427292
 31
0.0
  0
LINE
  5
447
330
430
100
AcDbEntity
  8
SLD-0
 62
     7
100
AcDbLine
 10
157.9008333333
 20
192.8508427292
 30
0.0
 11
162.9008333333
 21
192.8508427292
 31
0.0
  0
MTEXT
  5
448
330
430
100
AcDbEntity
  8
SLD-0
 62
     7
100
AcDbMText
 10
154.3830269904
 20
196.9235696527
 30
0.1
 40
3.5
 41
0.0
 71
     1
 72
     1
  1
5
  7
SLDTEXTSTYLE0
 73
     1
 44
1.0
  0
ENDBLK
  5
43C
330
430
100
AcDbEntity
  8
0
100
AcDbBlockEnd
  0
BLOCK
  5
454
330
44A
100
AcDbEntity
  8
0
100
AcDbBlockBegin
  2
*D5
 70
     1
 71
     0
 10
0.0
 20
0.0
 30
0.0
  3
*D5
  1

  0
LINE
  5
457
330
44A
100
AcDbEntity
  8
SLD-0
 62
     7
100
AcDbLine
 10
155.9008333333
 20
197.9496862205
 30
0.0
 11
152.9008333333
 21
198.7535332205
 31
0.0
  0
LINE
  5
458
330
44A
100
AcDbEntity
  8
SLD-0
 62
     7
100
AcDbLine
 10
152.9008333333
 20
198.7535332205
 30
0.0
 11
155.9008333333
 21
199.5573802205
 31
0.0
  0
LINE
  5
459
330
44A
100
AcDbEntity
  8
SLD-0
 62
     7
100
AcDbLine
 10
152.9008333333
 20
198.7535332205
 30
0.0
 11
155.9008333333
 21
198.7535332205
 31
0.0
  0
LINE
  5
45A
330
44A
100
AcDbEntity
  8
SLD-0
 62
     7
100
AcDbLine
 10
139.8008333333
 20
199.5573802205
 30
0.0
 11
142.8008333333
 21
198.7535332205
 31
0.0
  0
LINE
  5
45B
330
44A
100
AcDbEntity
  8
SLD-0
 62
     7
100
AcDbLine
 10
142.8008333333
 20
198.7535332205
 30
0.0
 11
139.8008333333
 21
197.9496862205
 31
0.0
  0
LINE
  5
45C
330
44A
100
AcDbEntity
  8
SLD-0
 62
     7
100
AcDbLine
 10
142.8008333333
 20
198.7535332205
 30
0.0
 11
139.8008333333
 21
198.7535332205
 31
0.0
  0
LINE
  5
45D
330
44A
100
AcDbEntity
  8
SLD-0
 62
     7
100
AcDbLine
 10
152.9008333333
 20
187.4016666667
 30
0.0
 11
152.9008333333
 21
199.7535332205
 31
0.0
  0
LINE
  5
45E
330
44A
100
AcDbEntity
  8
SLD-0
 62
     7
100
AcDbLine
 10
142.8008333333
 20
187.4016666667
 30
0.0
 11
142.8008333333
 21
199.7535332205
 31
0.0
  0
LINE
  5
45F
330
44A
100
AcDbEntity
  8
SLD-0
 62
     7
100
AcDbLine
 10
152.9008333333
 20
198.7535332205
 30
0.0
 11
157.9008333333
 21
198.7535332205
 31
0.0
  0
LINE
  5
460
330
44A
100
AcDbEntity
  8
SLD-0
 62
     7
100
AcDbLine
 10
152.9008333333
 20
198.7535332205
 30
0.0
 11
142.8008333333
 21
198.7535332205
 31
0.0
  0
LINE
  5
461
330
44A
100
AcDbEntity
  8
SLD-0
 62
     7
100
AcDbLine
 10
142.8008333333
 20
198.7535332205
 30
0.0
 11
137.8008333333
 21
198.7535332205
 31
0.0
  0
MTEXT
  5
462
330
44A
100
AcDbEntity
  8
SLD-0
 62
     7
100
AcDbMText
 10
143.7781067724
 20
202.826260144
 30
0.1
 40
3.5
 41
0.0
 71
     1
 72
     1
  1
10.1
  7
SLDTEXTSTYLE0
 73
     1
 44
1.0
  0
ENDBLK
  5
455
330
44A
100
AcDbEntity
  8
0
100
AcDbBlockEnd
  0
BLOCK
  5
46F
330
464
100
AcDbEntity
  8
0
100
AcDbBlockBegin
  2
*D6
 70
     1
 71
     0
 10
0.0
 20
0.0
 30
0.0
  3
*D6
  1

  0
LINE
  5
471
330
464
100
AcDbEntity
  8
SLD-0
 62
     7
100
AcDbLine
 10
181.5350952735
 20
181.4016666667
 30
0.0
 11
182.3389422735
 21
184.4016666667
 31
0.0
  0
LINE
  5
472
330
464
100
AcDbEntity
  8
SLD-0
 62
     7
100
AcDbLine
 10
182.3389422735
 20
184.4016666667
 30
0.0
 11
183.1427892735
 21
181.4016666667
 31
0.0
  0
LINE
  5
473
330
464
100
AcDbEntity
  8
SLD-0
 62
     7
100
AcDbLine
 10
182.3389422735
 20
184.4016666667
 30
0.0
 11
182.3389422735
 21
181.4016666667
 31
0.0
  0
LINE
  5
474
330
464
100
AcDbEntity
  8
SLD-0
 62
     7
100
AcDbLine
 10
183.1427892735
 20
142.4016666667
 30
0.0
 11
182.3389422735
 21
139.4016666667
 31
0.0
  0
LINE
  5
475
330
464
100
AcDbEntity
  8
SLD-0
 62
     7
100
AcDbLine
 10
182.3389422735
 20
139.4016666667
 30
0.0
 11
181.5350952735
 21
142.4016666667
 31
0.0
  0
LINE
  5
476
330
464
100
AcDbEntity
  8
SLD-0
 62
     7
100
AcDbLine
 10
182.3389422735
 20
139.4016666667
 30
0.0
 11
182.3389422735
 21
142.4016666667
 31
0.0
  0
LINE
  5
477
330
464
100
AcDbEntity
  8
SLD-0
 62
     7
100
AcDbLine
 10
47.8008333333
 20
184.4016666667
 30
0.0
 11
183.3389422735
 21
184.4016666667
 31
0.0
  0
LINE
  5
478
330
464
100
AcDbEntity
  8
SLD-0
 62
     7
100
AcDbLine
 10
47.8008333333
 20
139.4016666667
 30
0.0
 11
183.3389422735
 21
139.4016666667
 31
0.0
  0
LINE
  5
479
330
464
100
AcDbEntity
  8
SLD-0
 62
     7
100
AcDbLine
 10
182.3389422735
 20
184.4016666667
 30
0.0
 11
182.3389422735
 21
139.4016666667
 31
0.0
  0
MTEXT
  5
47A
330
464
100
AcDbEntity
  8
SLD-0
 62
     7
100
AcDbMText
 10
178.26621535
 20
159.8660539808
 30
0.1
 40
3.5
 41
0.0
 71
     1
 72
     1
  1
45
  7
SLDTEXTSTYLE0
 11
-7.044197039909883E-15
 21
1.0
 31
0.0
 73
     1
 44
1.0
  0
ENDBLK
  5
470
330
464
100
AcDbEntity
  8
0
100
AcDbBlockEnd
  0
BLOCK
  5
486
330
47C
100
AcDbEntity
  8
0
100
AcDbBlockBegin
  2
*D7
 70
     1
 71
     0
 10
0.0
 20
0.0
 30
0.0
  3
*D7
  1

  0
LINE
  5
488
330
47C
100
AcDbEntity
  8
SLD-0
 62
     7
100
AcDbLine
 10
154.9008333333
 20
207.8631755606
 30
0.0
 11
157.9008333333
 21
207.0593285606
 31
0.0
  0
LINE
  5
489
330
47C
100
AcDbEntity
  8
SLD-0
 62
     7
100
AcDbLine
 10
157.9008333333
 20
207.0593285606
 30
0.0
 11
154.9008333333
 21
206.2554815606
 31
0.0
  0
LINE
  5
48A
330
47C
100
AcDbEntity
  8
SLD-0
 62
     7
100
AcDbLine
 10
157.9008333333
 20
207.0593285606
 30
0.0
 11
154.9008333333
 21
207.0593285606
 31
0.0
  0
LINE
  5
48B
330
47C
100
AcDbEntity
  8
SLD-0
 62
     7
100
AcDbLine
 10
49.8008333333
 20
206.2554815606
 30
0.0
 11
46.8008333333
 21
207.0593285606
 31
0.0
  0
LINE
  5
48C
330
47C
100
AcDbEntity
  8
SLD-0
 62
     7
100
AcDbLine
 10
46.8008333333
 20
207.0593285606
 30
0.0
 11
49.8008333333
 21
207.8631755606
 31
0.0
  0
LINE
  5
48D
330
47C
100
AcDbEntity
  8
SLD-0
 62
     7
100
AcDbLine
 10
46.8008333333
 20
207.0593285606
 30
0.0
 11
49.8008333333
 21
207.0593285606
 31
0.0
  0
LINE
  5
48E
330
47C
100
AcDbEntity
  8
SLD-0
 62
     7
100
AcDbLine
 10
157.9008333333
 20
185.4016666667
 30
0.0
 11
157.9008333333
 21
208.0593285606
 31
0.0
  0
LINE
  5
48F
330
47C
100
AcDbEntity
  8
SLD-0
 62
     7
100
AcDbLine
 10
46.8008333333
 20
185.4016666667
 30
0.0
 11
46.8008333333
 21
208.0593285606
 31
0.0
  0
LINE
  5
490
330
47C
100
AcDbEntity
  8
SLD-0
 62
     7
100
AcDbLine
 10
157.9008333333
 20
207.0593285606
 30
0.0
 11
46.8008333333
 21
207.0593285606
 31
0.0
  0
MTEXT
  5
491
330
47C
100
AcDbEntity
  8
SLD-0
 62
     7
100
AcDbMText
 10
97.2603004295
 20
211.1320554841
 30
0.1
 40
3.5
 41
0.0
 71
     1
 72
     1
  1
111.1
  7
SLDTEXTSTYLE0
 73
     1
 44
1.0
  0
ENDBLK
  5
487
330
47C
100
AcDbEntity
  8
0
100
AcDbBlockEnd
  0
ENDSEC
  0
SECTION
  2
ENTITIES
  0
LINE
  5
37
330
1F
100
AcDbEntity
  8
SLD-0
  6
Continuous
 62
   179
370
     0
100
AcDbLine
 10
20.2604743903
 20
285.0
 30
0.0
 11
196.7604743903
 21
285.0
 31
0.0
  0
LINE
  5
38
330
1F
100
AcDbEntity
  8
SLD-0
  6
Continuous
 62
   179
370
     0
100
AcDbLine
 10
20.2604743903
 20
285.0
 30
0.0
 11
20.2604743903
 21
10.0
 31
0.0
  0
LINE
  5
39
330
1F
100
AcDbEntity
  8
SLD-0
  6
Continuous
 62
   179
370
     0
100
AcDbLine
 10
20.2604743903
 20
10.0
 30
0.0
 11
196.7604743903
 21
10.0
 31
0.0
  0
LINE
  5
3A
330
1F
100
AcDbEntity
  8
SLD-0
  6
Continuous
 62
   179
370
     0
100
AcDbLine
 10
196.7604743903
 20
285.0
 30
0.0
 11
196.7604743903
 21
10.0
 31
0.0
  0
LINE
  5
3B
330
1F
100
AcDbEntity
  8
SLD-0
  6
Continuous
 62
   179
370
     0
100
AcDbLine
 10
20.2604743903
 20
50.75
 30
0.0
 11
196.7604743903
 21
50.75
 31
0.0
  0
LINE
  5
3C
330
1F
100
AcDbEntity
  8
SLD-0
  6
Continuous
 62
   179
370
     0
100
AcDbLine
 10
127.0104743903
 20
50.75
 30
0.0
 11
127.0104743903
 21
10.0
 31
0.0
  0
LINE
  5
3D
330
1F
100
AcDbEntity
  8
SLD-0
  6
Continuous
 62
   179
370
     0
100
AcDbLine
 10
127.0104743903
 20
22.75
 30
0.0
 11
196.7604743903
 21
22.75
 31
0.0
  0
LINE
  5
3E
330
1F
100
AcDbEntity
  8
SLD-0
  6
Continuous
 62
   179
370
     0
100
AcDbLine
 10
127.0104743903
 20
36.75
 30
0.0
 11
196.7604743903
 21
36.75
 31
0.0
  0
LINE
  5
3F
330
1F
100
AcDbEntity
  8
SLD-0
  6
Continuous
 62
   179
370
    30
100
AcDbLine
 10
48.375829266
 20
140.403438036
 30
0.0
 11
48.375829266
 21
139.4266669198
 31
0.0
  0
LINE
  5
40
330
1F
100
AcDbEntity
  8
SLD-0
  6
Continuous
 62
   179
370
    30
100
AcDbLine
 10
50.3258399233
 20
139.4266669198
 30
0.0
 11
50.3258399233
 21
140.4041486351
 31
0.0
  0
LINE
  5
41
330
1F
100
AcDbEntity
  8
SLD-0
  6
Continuous
 62
   179
370
    30
100
AcDbLine
 10
50.3258399233
 20
183.3998958139
 30
0.0
 11
50.3258399233
 21
184.3766669302
 31
0.0
  0
LINE
  5
42
330
1F
100
AcDbEntity
  8
SLD-0
  6
Continuous
 62
   179
370
    30
100
AcDbLine
 10
48.375829266
 20
184.3766669302
 30
0.0
 11
48.375829266
 21
183.3991842835
 31
0.0
  0
LINE
  5
43
330
1F
100
AcDbEntity
  8
SLD-0
  6
Continuous
 62
   179
370
    30
100
AcDbLine
 10
53.3758393988
 20
140.403438036
 30
0.0
 11
53.3758393988
 21
139.4266669198
 31
0.0
  0
LINE
  5
44
330
1F
100
AcDbEntity
  8
SLD-0
  6
Continuous
 62
   179
370
    30
100
AcDbLine
 10
55.3258351549
 20
139.4266669198
 30
0.0
 11
55.3258351549
 21
140.4041486351
 31
0.0
  0
LINE
  5
45
330
1F
100
AcDbEntity
  8
SLD-0
  6
Continuous
 62
   179
370
    30
100
AcDbLine
 10
55.3258351549
 20
183.3998958139
 30
0.0
 11
55.3258351549
 21
184.3766669302
 31
0.0
  0
LINE
  5
46
330
1F
100
AcDbEntity
  8
SLD-0
  6
Continuous
 62
   179
370
    30
100
AcDbLine
 10
53.3758393988
 20
184.3766669302
 30
0.0
 11
53.3758393988
 21
183.3991842835
 31
0.0
  0
LINE
  5
47
330
1F
100
AcDbEntity
  8
SLD-0
  6
Continuous
 62
   179
370
    30
100
AcDbLine
 10
58.575838016
 20
140.403438036
 30
0.0
 11
58.575838016
 21
139.4266669198
 31
0.0
  0
LINE
  5
48
330
1F
100
AcDbEntity
  8
SLD-0
  6
Continuous
 62
   179
370
    30
100
AcDbLine
 10
60.5258337721
 20
139.4266669198
 30
0.0
 11
60.5258337721
 21
140.4041486351
 31
0.0
  0
LINE
  5
49
330
1F
100
AcDbEntity
  8
SLD-0
  6
Continuous
 62
   179
370
    30
100
AcDbLine
 10
60.5258337721
 20
183.3998958139
 30
0.0
 11
60.5258337721
 21
184.3766669302
 31
0.0
  0
LINE
  5
4A
330
1F
100
AcDbEntity
  8
SLD-0
  6
Continuous
 62
   179
370
    30
100
AcDbLine
 10
58.575838016
 20
184.3766669302
 30
0.0
 11
58.575838016
 21
183.3991842835
 31
0.0
  0
LINE
  5
4B
330
1F
100
AcDbEntity
  8
SLD-0
  6
Continuous
 62
   179
370
    30
100
AcDbLine
 10
139.3758348688
 20
140.403438036
 30
0.0
 11
139.3758348688
 21
139.4266669198
 31
0.0
  0
LINE
  5
4C
330
1F
100
AcDbEntity
  8
SLD-0
  6
Continuous
 62
   179
370
    30
100
AcDbLine
 10
141.325830625
 20
139.4266669198
 30
0.0
 11
141.325830625
 21
140.4041486351
 31
0.0
  0
LINE
  5
4D
330
1F
100
AcDbEntity
  8
SLD-0
  6
Continuous
 62
   179
370
    30
100
AcDbLine
 10
141.325830625
 20
183.3998958139
 30
0.0
 11
141.325830625
 21
184.3766669302
 31
0.0
  0
LINE
  5
4E
330
1F
100
AcDbEntity
  8
SLD-0
  6
Continuous
 62
   179
370
    30
100
AcDbLine
 10
139.3758348688
 20
184.3766669302
 30
0.0
 11
139.3758348688
 21
183.3991842835
 31
0.0
  0
LINE
  5
4F
330
1F
100
AcDbEntity
  8
SLD-0
  6
Continuous
 62
   179
370
    30
100
AcDbLine
 10
98.9758364424
 20
140.403438036
 30
0.0
 11
98.9758364424
 21
139.4266669198
 31
0.0
  0
LINE
  5
50
330
1F
100
AcDbEntity
  8
SLD-0
  6
Continuous
 62
   179
370
    30
100
AcDbLine
 10
100.9258321985
 20
139.4266669198
 30
0.0
 11
100.9258321985
 21
140.4041486351
 31
0.0
  0
LINE
  5
51
330
1F
100
AcDbEntity
  8
SLD-0
  6
Continuous
 62
   179
370
    30
100
AcDbLine
 10
100.9258321985
 20
183.3998958139
 30
0.0
 11
100.9258321985
 21
184.3766669302
 31
0.0
  0
LINE
  5
52
330
1F
100
AcDbEntity
  8
SLD-0
  6
Continuous
 62
   179
370
    30
100
AcDbLine
 10
98.9758364424
 20
184.3766669302
 30
0.0
 11
98.9758364424
 21
183.3991842835
 31
0.0
  0
LINE
  5
53
330
1F
100
AcDbEntity
  8
SLD-0
  6
Continuous
 62
   179
370
    30
100
AcDbLine
 10
149.4758344754
 20
140.403438036
 30
0.0
 11
149.4758344754
 21
139.4266669198
 31
0.0
  0
LINE
  5
54
330
1F
100
AcDbEntity
  8
SLD-0
  6
Continuous
 62
   179
370
    30
100
AcDbLine
 10
151.4258339569
 20
139.4266669198
 30
0.0
 11
151.4258339569
 21
140.4041486351
 31
0.0
  0
LINE
  5
55
330
1F
100
AcDbEntity
  8
SLD-0
  6
Continuous
 62
   179
370
    30
100
AcDbLine
 10
151.4258339569
 20
183.3998958139
 30
0.0
 11
151.4258339569
 21
184.3766669302
 31
0.0
  0
LINE
  5
56
330
1F
100
AcDbEntity
  8
SLD-0
  6
Continuous
 62
   179
370
    30
100
AcDbLine
 10
149.4758344754
 20
184.3766669302
 30
0.0
 11
149.4758344754
 21
183.3991842835
 31
0.0
  0
LINE
  5
57
330
1F
100
AcDbEntity
  8
SLD-0
  6
Continuous
 62
   179
370
    30
100
AcDbLine
 10
90.8258325919
 20
183.3998958139
 30
0.0
 11
90.8258325919
 21
184.3766669302
 31
0.0
  0
LINE
  5
58
330
1F
100
AcDbEntity
  8
SLD-0
  6
Continuous
 62
   179
370
    30
100
AcDbLine
 10
88.8758368358
 20
184.3766669302
 30
0.0
 11
88.8758368358
 21
183.3991842835
 31
0.0
  0
LINE
  5
59
330
1F
100
AcDbEntity
  8
SLD-0
  6
Continuous
 62
   179
370
    30
100
AcDbLine
 10
88.8758368358
 20
140.403438036
 30
0.0
 11
88.8758368358
 21
139.4266669198
 31
0.0
  0
LINE
  5
5A
330
1F
100
AcDbEntity
  8
SLD-0
  6
Continuous
 62
   179
370
    30
100
AcDbLine
 10
90.8258325919
 20
139.4266669198
 30
0.0
 11
90.8258325919
 21
140.4041486351
 31
0.0
  0
LINE
  5
5B
330
1F
100
AcDbEntity
  8
SLD-0
  6
Continuous
 62
   179
370
    30
100
AcDbLine
 10
109.075836049
 20
140.403438036
 30
0.0
 11
109.075836049
 21
139.4266669198
 31
0.0
  0
LINE
  5
5C
330
1F
100
AcDbEntity
  8
SLD-0
  6
Continuous
 62
   179
370
    30
100
AcDbLine
 10
111.0258318052
 20
139.4266669198
 30
0.0
 11
111.0258318052
 21
140.4041486351
 31
0.0
  0
LINE
  5
5D
330
1F
100
AcDbEntity
  8
SLD-0
  6
Continuous
 62
   179
370
    30
100
AcDbLine
 10
111.0258318052
 20
183.3998958139
 30
0.0
 11
111.0258318052
 21
184.3766669302
 31
0.0
  0
LINE
  5
5E
330
1F
100
AcDbEntity
  8
SLD-0
  6
Continuous
 62
   179
370
    30
100
AcDbLine
 10
109.075836049
 20
184.3766669302
 30
0.0
 11
109.075836049
 21
183.3991842835
 31
0.0
  0
LINE
  5
5F
330
1F
100
AcDbEntity
  8
SLD-0
  6
Continuous
 62
   179
370
    30
100
AcDbLine
 10
80.7258329853
 20
183.3998958139
 30
0.0
 11
80.7258329853
 21
184.3766669302
 31
0.0
  0
LINE
  5
60
330
1F
100
AcDbEntity
  8
SLD-0
  6
Continuous
 62
   179
370
    30
100
AcDbLine
 10
78.7758372292
 20
184.3766669302
 30
0.0
 11
78.7758372292
 21
183.3991842835
 31
0.0
  0
LINE
  5
61
330
1F
100
AcDbEntity
  8
SLD-0
  6
Continuous
 62
   179
370
    30
100
AcDbLine
 10
78.7758372292
 20
140.403438036
 30
0.0
 11
78.7758372292
 21
139.4266669198
 31
0.0
  0
LINE
  5
62
330
1F
100
AcDbEntity
  8
SLD-0
  6
Continuous
 62
   179
370
    30
100
AcDbLine
 10
80.7258329853
 20
139.4266669198
 30
0.0
 11
80.7258329853
 21
140.4041486351
 31
0.0
  0
LINE
  5
63
330
1F
100
AcDbEntity
  8
SLD-0
  6
Continuous
 62
   179
370
    30
100
AcDbLine
 10
119.1758356556
 20
140.403438036
 30
0.0
 11
119.1758356556
 21
139.4266669198
 31
0.0
  0
LINE
  5
64
330
1F
100
AcDbEntity
  8
SLD-0
  6
Continuous
 62
   179
370
    30
100
AcDbLine
 10
121.1258314118
 20
139.4266669198
 30
0.0
 11
121.1258314118
 21
140.4041486351
 31
0.0
  0
LINE
  5
65
330
1F
100
AcDbEntity
  8
SLD-0
  6
Continuous
 62
   179
370
    30
100
AcDbLine
 10
121.1258314118
 20
183.3998958139
 30
0.0
 11
121.1258314118
 21
184.3766669302
 31
0.0
  0
LINE
  5
66
330
1F
100
AcDbEntity
  8
SLD-0
  6
Continuous
 62
   179
370
    30
100
AcDbLine
 10
119.1758356556
 20
184.3766669302
 30
0.0
 11
119.1758356556
 21
183.3991842835
 31
0.0
  0
LINE
  5
67
330
1F
100
AcDbEntity
  8
SLD-0
  6
Continuous
 62
   179
370
    30
100
AcDbLine
 10
70.6258259281
 20
183.3998958139
 30
0.0
 11
70.6258259281
 21
184.3766669302
 31
0.0
  0
LINE
  5
68
330
1F
100
AcDbEntity
  8
SLD-0
  6
Continuous
 62
   179
370
    30
100
AcDbLine
 10
68.675830172
 20
184.3766669302
 30
0.0
 11
68.675830172
 21
183.3991842835
 31
0.0
  0
LINE
  5
69
330
1F
100
AcDbEntity
  8
SLD-0
  6
Continuous
 62
   179
370
    30
100
AcDbLine
 10
68.675830172
 20
140.403438036
 30
0.0
 11
68.675830172
 21
139.4266669198
 31
0.0
  0
LINE
  5
6A
330
1F
100
AcDbEntity
  8
SLD-0
  6
Continuous
 62
   179
370
    30
100
AcDbLine
 10
70.6258259281
 20
139.4266669198
 30
0.0
 11
70.6258259281
 21
140.4041486351
 31
0.0
  0
LINE
  5
6B
330
1F
100
AcDbEntity
  8
SLD-0
  6
Continuous
 62
   179
370
    30
100
AcDbLine
 10
131.2258310184
 20
183.3998958139
 30
0.0
 11
131.2258310184
 21
184.3766669302
 31
0.0
  0
LINE
  5
6C
330
1F
100
AcDbEntity
  8
SLD-0
  6
Continuous
 62
   179
370
    30
100
AcDbLine
 10
129.2758352622
 20
184.3766669302
 30
0.0
 11
129.2758352622
 21
183.3991842835
 31
0.0
  0
LINE
  5
6D
330
1F
100
AcDbEntity
  8
SLD-0
  6
Continuous
 62
   179
370
    30
100
AcDbLine
 10
129.2758352622
 20
140.403438036
 30
0.0
 11
129.2758352622
 21
139.4266669198
 31
0.0
  0
LINE
  5
6E
330
1F
100
AcDbEntity
  8
SLD-0
  6
Continuous
 62
   179
370
    30
100
AcDbLine
 10
131.2258310184
 20
139.4266669198
 30
0.0
 11
131.2258310184
 21
140.4041486351
 31
0.0
  0
LINE
  5
6F
330
1F
100
AcDbEntity
  8
SLD-0
  6
Continuous
 62
   179
370
    30
100
AcDbLine
 10
65.5258290037
 20
183.3998958139
 30
0.0
 11
65.5258290037
 21
184.3766669302
 31
0.0
  0
LINE
  5
70
330
1F
100
AcDbEntity
  8
SLD-0
  6
Continuous
 62
   179
370
    30
100
AcDbLine
 10
63.5758332476
 20
184.3766669302
 30
0.0
 11
63.5758332476
 21
183.3991842835
 31
0.0
  0
LINE
  5
71
330
1F
100
AcDbEntity
  8
SLD-0
  6
Continuous
 62
   179
370
    30
100
AcDbLine
 10
63.5758332476
 20
140.403438036
 30
0.0
 11
63.5758332476
 21
139.4266669198
 31
0.0
  0
LINE
  5
72
330
1F
100
AcDbEntity
  8
SLD-0
  6
Continuous
 62
   179
370
    30
100
AcDbLine
 10
65.5258290037
 20
139.4266669198
 30
0.0
 11
65.5258290037
 21
140.4041486351
 31
0.0
  0
LINE
  5
73
330
1F
100
AcDbEntity
  8
SLD-0
  6
Continuous
 62
   179
370
    30
100
AcDbLine
 10
144.3758301005
 20
140.403438036
 30
0.0
 11
144.3758301005
 21
139.4266669198
 31
0.0
  0
LINE
  5
74
330
1F
100
AcDbEntity
  8
SLD-0
  6
Continuous
 62
   179
370
    30
100
AcDbLine
 10
146.3258333072
 20
139.4266669198
 30
0.0
 11
146.3258333072
 21
140.4041486351
 31
0.0
  0
LINE
  5
75
330
1F
100
AcDbEntity
  8
SLD-0
  6
Continuous
 62
   179
370
    30
100
AcDbLine
 10
146.3258333072
 20
183.3998958139
 30
0.0
 11
146.3258333072
 21
184.3766669302
 31
0.0
  0
LINE
  5
76
330
1F
100
AcDbEntity
  8
SLD-0
  6
Continuous
 62
   179
370
    30
100
AcDbLine
 10
144.3758301005
 20
184.3766669302
 30
0.0
 11
144.3758301005
 21
183.3991842835
 31
0.0
  0
LINE
  5
77
330
1F
100
AcDbEntity
  8
SLD-0
  6
Continuous
 62
   179
370
    30
100
AcDbLine
 10
75.6258360609
 20
183.3998958139
 30
0.0
 11
75.6258360609
 21
184.3766669302
 31
0.0
  0
LINE
  5
78
330
1F
100
AcDbEntity
  8
SLD-0
  6
Continuous
 62
   179
370
    30
100
AcDbLine
 10
73.6758403048
 20
184.3766669302
 30
0.0
 11
73.6758403048
 21
183.3991842835
 31
0.0
  0
LINE
  5
79
330
1F
100
AcDbEntity
  8
SLD-0
  6
Continuous
 62
   179
370
    30
100
AcDbLine
 10
73.6758403048
 20
140.403438036
 30
0.0
 11
73.6758403048
 21
139.4266669198
 31
0.0
  0
LINE
  5
7A
330
1F
100
AcDbEntity
  8
SLD-0
  6
Continuous
 62
   179
370
    30
100
AcDbLine
 10
75.6258360609
 20
139.4266669198
 30
0.0
 11
75.6258360609
 21
140.4041486351
 31
0.0
  0
LINE
  5
7B
330
1F
100
AcDbEntity
  8
SLD-0
  6
Continuous
 62
   179
370
    30
100
AcDbLine
 10
134.2758304939
 20
140.403438036
 30
0.0
 11
134.2758304939
 21
139.4266669198
 31
0.0
  0
LINE
  5
7C
330
1F
100
AcDbEntity
  8
SLD-0
  6
Continuous
 62
   179
370
    30
100
AcDbLine
 10
136.2258337006
 20
139.4266669198
 30
0.0
 11
136.2258337006
 21
140.4041486351
 31
0.0
  0
LINE
  5
7D
330
1F
100
AcDbEntity
  8
SLD-0
  6
Continuous
 62
   179
370
    30
100
AcDbLine
 10
136.2258337006
 20
183.3998958139
 30
0.0
 11
136.2258337006
 21
184.3766669302
 31
0.0
  0
LINE
  5
7E
330
1F
100
AcDbEntity
  8
SLD-0
  6
Continuous
 62
   179
370
    30
100
AcDbLine
 10
134.2758304939
 20
184.3766669302
 30
0.0
 11
134.2758304939
 21
183.3991842835
 31
0.0
  0
LINE
  5
7F
330
1F
100
AcDbEntity
  8
SLD-0
  6
Continuous
 62
   179
370
    30
100
AcDbLine
 10
83.7758324608
 20
140.403438036
 30
0.0
 11
83.7758324608
 21
139.4266669198
 31
0.0
  0
LINE
  5
80
330
1F
100
AcDbEntity
  8
SLD-0
  6
Continuous
 62
   179
370
    30
100
AcDbLine
 10
85.7258356675
 20
139.4266669198
 30
0.0
 11
85.7258356675
 21
140.4041486351
 31
0.0
  0
LINE
  5
81
330
1F
100
AcDbEntity
  8
SLD-0
  6
Continuous
 62
   179
370
    30
100
AcDbLine
 10
85.7258356675
 20
183.3998958139
 30
0.0
 11
85.7258356675
 21
184.3766669302
 31
0.0
  0
LINE
  5
82
330
1F
100
AcDbEntity
  8
SLD-0
  6
Continuous
 62
   179
370
    30
100
AcDbLine
 10
83.7758324608
 20
184.3766669302
 30
0.0
 11
83.7758324608
 21
183.3991842835
 31
0.0
  0
LINE
  5
83
330
1F
100
AcDbEntity
  8
SLD-0
  6
Continuous
 62
   179
370
    30
100
AcDbLine
 10
124.1758308872
 20
140.403438036
 30
0.0
 11
124.1758308872
 21
139.4266669198
 31
0.0
  0
LINE
  5
84
330
1F
100
AcDbEntity
  8
SLD-0
  6
Continuous
 62
   179
370
    30
100
AcDbLine
 10
126.125834094
 20
139.4266669198
 30
0.0
 11
126.125834094
 21
140.4041486351
 31
0.0
  0
LINE
  5
85
330
1F
100
AcDbEntity
  8
SLD-0
  6
Continuous
 62
   179
370
    30
100
AcDbLine
 10
126.125834094
 20
183.3998958139
 30
0.0
 11
126.125834094
 21
184.3766669302
 31
0.0
  0
LINE
  5
86
330
1F
100
AcDbEntity
  8
SLD-0
  6
Continuous
 62
   179
370
    30
100
AcDbLine
 10
124.1758308872
 20
184.3766669302
 30
0.0
 11
124.1758308872
 21
183.3991842835
 31
0.0
  0
LINE
  5
87
330
1F
100
AcDbEntity
  8
SLD-0
  6
Continuous
 62
   179
370
    30
100
AcDbLine
 10
93.8758320674
 20
140.403438036
 30
0.0
 11
93.8758320674
 21
139.4266669198
 31
0.0
  0
LINE
  5
88
330
1F
100
AcDbEntity
  8
SLD-0
  6
Continuous
 62
   179
370
    30
100
AcDbLine
 10
95.8258352741
 20
139.4266669198
 30
0.0
 11
95.8258352741
 21
140.4041486351
 31
0.0
  0
LINE
  5
89
330
1F
100
AcDbEntity
  8
SLD-0
  6
Continuous
 62
   179
370
    30
100
AcDbLine
 10
95.8258352741
 20
183.3998958139
 30
0.0
 11
95.8258352741
 21
184.3766669302
 31
0.0
  0
LINE
  5
8A
330
1F
100
AcDbEntity
  8
SLD-0
  6
Continuous
 62
   179
370
    30
100
AcDbLine
 10
93.8758320674
 20
184.3766669302
 30
0.0
 11
93.8758320674
 21
183.3991842835
 31
0.0
  0
LINE
  5
8B
330
1F
100
AcDbEntity
  8
SLD-0
  6
Continuous
 62
   179
370
    30
100
AcDbLine
 10
114.0758312806
 20
140.403438036
 30
0.0
 11
114.0758312806
 21
139.4266669198
 31
0.0
  0
LINE
  5
8C
330
1F
100
AcDbEntity
  8
SLD-0
  6
Continuous
 62
   179
370
    30
100
AcDbLine
 10
116.0258344874
 20
139.4266669198
 30
0.0
 11
116.0258344874
 21
140.4041486351
 31
0.0
  0
LINE
  5
8D
330
1F
100
AcDbEntity
  8
SLD-0
  6
Continuous
 62
   179
370
    30
100
AcDbLine
 10
116.0258344874
 20
183.3998958139
 30
0.0
 11
116.0258344874
 21
184.3766669302
 31
0.0
  0
LINE
  5
8E
330
1F
100
AcDbEntity
  8
SLD-0
  6
Continuous
 62
   179
370
    30
100
AcDbLine
 10
114.0758312806
 20
184.3766669302
 30
0.0
 11
114.0758312806
 21
183.3991842835
 31
0.0
  0
LINE
  5
8F
330
1F
100
AcDbEntity
  8
SLD-0
  6
Continuous
 62
   179
370
    30
100
AcDbLine
 10
103.975831674
 20
140.403438036
 30
0.0
 11
103.975831674
 21
139.4266669198
 31
0.0
  0
LINE
  5
90
330
1F
100
AcDbEntity
  8
SLD-0
  6
Continuous
 62
   179
370
    30
100
AcDbLine
 10
105.9258348808
 20
139.4266669198
 30
0.0
 11
105.9258348808
 21
140.4041486351
 31
0.0
  0
LINE
  5
91
330
1F
100
AcDbEntity
  8
SLD-0
  6
Continuous
 62
   179
370
    30
100
AcDbLine
 10
105.9258348808
 20
183.3998958139
 30
0.0
 11
105.9258348808
 21
184.3766669302
 31
0.0
  0
LINE
  5
92
330
1F
100
AcDbEntity
  8
SLD-0
  6
Continuous
 62
   179
370
    30
100
AcDbLine
 10
103.975831674
 20
184.3766669302
 30
0.0
 11
103.975831674
 21
183.3991842835
 31
0.0
  0
LINE
  5
93
330
1F
100
AcDbEntity
  8
SLD-0
  6
Continuous
 62
   179
370
    30
100
AcDbLine
 10
156.4258329138
 20
183.3998958139
 30
0.0
 11
156.4258329138
 21
184.3766669302
 31
0.0
  0
LINE
  5
94
330
1F
100
AcDbEntity
  8
SLD-0
  6
Continuous
 62
   179
370
    30
100
AcDbLine
 10
154.4758334324
 20
184.3766669302
 30
0.0
 11
154.4758334324
 21
183.3991842835
 31
0.0
  0
LINE
  5
95
330
1F
100
AcDbEntity
  8
SLD-0
  6
Continuous
 62
   179
370
    30
100
AcDbLine
 10
154.4758334324
 20
140.403438036
 30
0.0
 11
154.4758334324
 21
139.4266669198
 31
0.0
  0
LINE
  5
96
330
1F
100
AcDbEntity
  8
SLD-0
  6
Continuous
 62
   179
370
    30
100
AcDbLine
 10
156.4258329138
 20
139.4266669198
 30
0.0
 11
156.4258329138
 21
140.4041486351
 31
0.0
  0
LINE
  5
97
330
1F
100
AcDbEntity
  8
SLD-0
  6
Continuous
 62
   179
370
    30
100
AcDbLine
 10
50.3508333333
 20
140.4016666667
 30
0.0
 11
50.3508333333
 21
141.4016666667
 31
0.0
  0
LINE
  5
98
330
1F
100
AcDbEntity
  8
SLD-0
  6
Continuous
 62
   179
370
    30
100
AcDbLine
 10
50.3508333333
 20
140.4016666667
 30
0.0
 11
50.3258399233
 21
140.4016666605
 31
0.0
  0
LINE
  5
99
330
1F
100
AcDbEntity
  8
SLD-0
  6
Continuous
 62
   179
370
    30
100
AcDbLine
 10
50.3508333333
 20
141.4016666667
 30
0.0
 11
49.3508271441
 21
141.4016668244
 31
0.0
  0
LINE
  5
9A
330
1F
100
AcDbEntity
  8
SLD-0
  6
Continuous
 62
   179
370
    30
100
AcDbLine
 10
50.3508333333
 20
183.4016666667
 30
0.0
 11
50.3508333333
 21
182.4016666667
 31
0.0
  0
LINE
  5
9B
330
1F
100
AcDbEntity
  8
SLD-0
  6
Continuous
 62
   179
370
    30
100
AcDbLine
 10
50.3508333333
 20
182.4016666667
 30
0.0
 11
49.3508271441
 21
182.4016670255
 31
0.0
  0
LINE
  5
9C
330
1F
100
AcDbEntity
  8
SLD-0
  6
Continuous
 62
   179
370
    30
100
AcDbLine
 10
50.3508333333
 20
183.4016666667
 30
0.0
 11
50.3258399233
 21
183.4016671895
 31
0.0
  0
LINE
  5
9D
330
1F
100
AcDbEntity
  8
SLD-0
  6
Continuous
 62
   179
370
    30
100
AcDbLine
 10
48.375829266
 20
183.4016671895
 30
0.0
 11
48.3508333333
 21
183.4016666667
 31
0.0
  0
LINE
  5
9E
330
1F
100
AcDbEntity
  8
SLD-0
  6
Continuous
 62
   179
370
    30
100
AcDbLine
 10
49.3508271441
 20
182.4016670255
 30
0.0
 11
48.3508333333
 21
182.4016666667
 31
0.0
  0
LINE
  5
9F
330
1F
100
AcDbEntity
  8
SLD-0
  6
Continuous
 62
   179
370
    30
100
AcDbLine
 10
48.3508333333
 20
183.4016666667
 30
0.0
 11
48.3508333333
 21
182.4016666667
 31
0.0
  0
LINE
  5
A0
330
1F
100
AcDbEntity
  8
SLD-0
  6
Continuous
 62
   179
370
    30
100
AcDbLine
 10
48.3761570915
 20
139.4016664966
 30
0.0
 11
50.3255120978
 21
139.4016664966
 31
0.0
  0
LINE
  5
A1
330
1F
100
AcDbEntity
  8
SLD-0
  6
Continuous
 62
   179
370
    30
100
AcDbLine
 10
48.3508333333
 20
140.4016666667
 30
0.0
 11
48.3508333333
 21
141.4016666667
 31
0.0
  0
LINE
  5
A2
330
1F
100
AcDbEntity
  8
SLD-0
  6
Continuous
 62
   179
370
    30
100
AcDbLine
 10
49.3508271441
 20
141.4016668244
 30
0.0
 11
48.3508333333
 21
141.4016666667
 31
0.0
  0
LINE
  5
A3
330
1F
100
AcDbEntity
  8
SLD-0
  6
Continuous
 62
   179
370
    30
100
AcDbLine
 10
48.375829266
 20
140.4016666605
 30
0.0
 11
48.3508333333
 21
140.4016666667
 31
0.0
  0
LINE
  5
A4
330
1F
100
AcDbEntity
  8
SLD-0
  6
Continuous
 62
   179
370
    30
100
AcDbLine
 10
48.3761570915
 20
184.4016673534
 30
0.0
 11
50.3255120978
 21
184.4016673534
 31
0.0
  0
LINE
  5
A5
330
1F
100
AcDbEntity
  8
SLD-0
  6
Continuous
 62
   179
370
    30
100
AcDbLine
 10
46.8008361325
 20
184.4016673534
 30
0.0
 11
46.8008361325
 21
139.4016664966
 31
0.0
  0
LINE
  5
A6
330
1F
100
AcDbEntity
  8
SLD-0
  6
Continuous
 62
   179
370
    30
100
AcDbLine
 10
48.3508333333
 20
183.4016666667
 30
0.0
 11
48.3508400187
 21
184.4016673534
 31
0.0
  0
LINE
  5
A7
330
1F
100
AcDbEntity
  8
SLD-0
  6
Continuous
 62
   179
370
    30
100
AcDbLine
 10
50.3508333333
 20
183.4016666667
 30
0.0
 11
50.3508291706
 21
184.4016673534
 31
0.0
  0
LINE
  5
A8
330
1F
100
AcDbEntity
  8
SLD-0
  6
Continuous
 62
   179
370
    30
100
AcDbLine
 10
51.7008296713
 20
184.4016673534
 30
0.0
 11
50.3508291706
 21
184.4016673534
 31
0.0
  0
LINE
  5
A9
330
1F
100
AcDbEntity
  8
SLD-0
  6
Continuous
 62
   179
370
    30
100
AcDbLine
 10
51.7008333333
 20
178.9016666667
 30
0.0
 11
51.7008296713
 21
184.4016673534
 31
0.0
  0
LINE
  5
AA
330
1F
100
AcDbEntity
  8
SLD-0
  6
Continuous
 62
   179
370
    30
100
AcDbLine
 10
51.7008333333
 20
163.9016666667
 30
0.0
 11
51.7008333333
 21
174.9016666667
 31
0.0
  0
LINE
  5
AB
330
1F
100
AcDbEntity
  8
SLD-0
  6
Continuous
 62
   179
370
    30
100
AcDbLine
 10
51.7008333333
 20
148.9016666667
 30
0.0
 11
51.7008333333
 21
159.9016666667
 31
0.0
  0
LINE
  5
AC
330
1F
100
AcDbEntity
  8
SLD-0
  6
Continuous
 62
   179
370
    30
100
AcDbLine
 10
51.7008296713
 20
139.4016664966
 30
0.0
 11
51.7008333333
 21
144.9016666667
 31
0.0
  0
LINE
  5
AD
330
1F
100
AcDbEntity
  8
SLD-0
  6
Continuous
 62
   179
370
    30
100
AcDbLine
 10
50.3508291706
 20
139.4016664966
 30
0.0
 11
51.7008296713
 21
139.4016664966
 31
0.0
  0
LINE
  5
AE
330
1F
100
AcDbEntity
  8
SLD-0
  6
Continuous
 62
   179
370
    30
100
AcDbLine
 10
50.3508333333
 20
140.4016666667
 30
0.0
 11
50.3508291706
 21
139.4016664966
 31
0.0
  0
LINE
  5
AF
330
1F
100
AcDbEntity
  8
SLD-0
  6
Continuous
 62
   179
370
    30
100
AcDbLine
 10
48.3508333333
 20
140.4016666667
 30
0.0
 11
48.3508400187
 21
139.4016664966
 31
0.0
  0
LINE
  5
B0
330
1F
100
AcDbEntity
  8
SLD-0
  6
Continuous
 62
   179
370
    30
100
AcDbLine
 10
46.8008361325
 20
139.4016664966
 30
0.0
 11
48.3508400187
 21
139.4016664966
 31
0.0
  0
LINE
  5
B1
330
1F
100
AcDbEntity
  8
SLD-0
  6
Continuous
 62
   179
370
    30
100
AcDbLine
 10
48.3508400187
 20
184.4016673534
 30
0.0
 11
46.8008361325
 21
184.4016673534
 31
0.0
  0
LINE
  5
B2
330
1F
100
AcDbEntity
  8
SLD-0
  6
Continuous
 62
   179
370
    30
100
AcDbLine
 10
46.7008344397
 20
167.4016664295
 30
0.0
 11
46.7008344397
 21
171.9016662358
 31
0.0
  0
LINE
  5
B3
330
1F
100
AcDbEntity
  8
SLD-0
  6
Continuous
 62
   179
370
    30
100
AcDbLine
 10
46.7008344397
 20
171.9016662358
 30
0.0
 11
46.8008361325
 21
171.9016662358
 31
0.0
  0
LINE
  5
B4
330
1F
100
AcDbEntity
  8
SLD-0
  6
Continuous
 62
   179
370
    30
100
AcDbLine
 10
46.7008344397
 20
167.4016664295
 30
0.0
 11
46.8008361325
 21
167.4016664295
 31
0.0
  0
LINE
  5
B5
330
1F
100
AcDbEntity
  8
SLD-0
  6
Continuous
 62
   179
370
    30
100
AcDbLine
 10
51.7008296713
 20
156.4016667219
 30
0.0
 11
51.9008330569
 21
156.4016667219
 31
0.0
  0
LINE
  5
B6
330
1F
100
AcDbEntity
  8
SLD-0
  6
Continuous
 62
   179
370
    30
100
AcDbLine
 10
56.8008265957
 20
156.4016667219
 30
0.0
 11
57.0008299813
 21
156.4016667219
 31
0.0
  0
LINE
  5
B7
330
1F
100
AcDbEntity
  8
SLD-0
  6
Continuous
 62
   179
370
    30
100
AcDbLine
 10
51.7008296713
 20
151.9016666828
 30
0.0
 11
51.9008330569
 21
151.9016666828
 31
0.0
  0
LINE
  5
B8
330
1F
100
AcDbEntity
  8
SLD-0
  6
Continuous
 62
   179
370
    30
100
AcDbLine
 10
56.8008265957
 20
151.9016666828
 30
0.0
 11
57.0008299813
 21
151.9016666828
 31
0.0
  0
LINE
  5
B9
330
1F
100
AcDbEntity
  8
SLD-0
  6
Continuous
 62
   179
370
    30
100
AcDbLine
 10
51.7008296713
 20
167.4016664295
 30
0.0
 11
51.9008330569
 21
167.4016664295
 31
0.0
  0
LINE
  5
BA
330
1F
100
AcDbEntity
  8
SLD-0
  6
Continuous
 62
   179
370
    30
100
AcDbLine
 10
56.8008265957
 20
167.4016664295
 30
0.0
 11
57.0008299813
 21
167.4016664295
 31
0.0
  0
LINE
  5
BB
330
1F
100
AcDbEntity
  8
SLD-0
  6
Continuous
 62
   179
370
    30
100
AcDbLine
 10
51.7008296713
 20
171.9016662358
 30
0.0
 11
51.9008330569
 21
171.9016662358
 31
0.0
  0
LINE
  5
BC
330
1F
100
AcDbEntity
  8
SLD-0
  6
Continuous
 62
   179
370
    30
100
AcDbLine
 10
56.8008265957
 20
171.9016662358
 30
0.0
 11
57.0008299813
 21
171.9016662358
 31
0.0
  0
LINE
  5
BD
330
1F
100
AcDbEntity
  8
SLD-0
  6
Continuous
 62
   179
370
    30
100
AcDbLine
 10
46.7008344397
 20
151.9016666828
 30
0.0
 11
46.7008344397
 21
156.4016667219
 31
0.0
  0
LINE
  5
BE
330
1F
100
AcDbEntity
  8
SLD-0
  6
Continuous
 62
   179
370
    30
100
AcDbLine
 10
46.7008344397
 20
151.9016666828
 30
0.0
 11
46.8008361325
 21
151.9016666828
 31
0.0
  0
LINE
  5
BF
330
1F
100
AcDbEntity
  8
SLD-0
  6
Continuous
 62
   179
370
    30
100
AcDbLine
 10
46.7008344397
 20
156.4016667219
 30
0.0
 11
46.8008361325
 21
156.4016667219
 31
0.0
  0
LINE
  5
C0
330
1F
100
AcDbEntity
  8
SLD-0
  6
Continuous
 62
   179
370
    30
100
AcDbLine
 10
53.3758393988
 20
140.4016666605
 30
0.0
 11
53.3508333333
 21
140.4016666667
 31
0.0
  0
LINE
  5
C1
330
1F
100
AcDbEntity
  8
SLD-0
  6
Continuous
 62
   179
370
    30
100
AcDbLine
 10
54.3508372769
 20
141.4016668245
 30
0.0
 11
53.3508333333
 21
141.4016666667
 31
0.0
  0
LINE
  5
C2
330
1F
100
AcDbEntity
  8
SLD-0
  6
Continuous
 62
   179
370
    30
100
AcDbLine
 10
53.3508333333
 20
140.4016666667
 30
0.0
 11
53.3508333333
 21
141.4016666667
 31
0.0
  0
LINE
  5
C3
330
1F
100
AcDbEntity
  8
SLD-0
  6
Continuous
 62
   179
370
    30
100
AcDbLine
 10
55.3508333333
 20
140.4016666667
 30
0.0
 11
55.3508333333
 21
141.4016666667
 31
0.0
  0
LINE
  5
C4
330
1F
100
AcDbEntity
  8
SLD-0
  6
Continuous
 62
   179
370
    30
100
AcDbLine
 10
55.3508333333
 20
140.4016666667
 30
0.0
 11
55.3258351549
 21
140.4016666605
 31
0.0
  0
LINE
  5
C5
330
1F
100
AcDbEntity
  8
SLD-0
  6
Continuous
 62
   179
370
    30
100
AcDbLine
 10
55.3508333333
 20
141.4016666667
 30
0.0
 11
54.3508372769
 21
141.4016668245
 31
0.0
  0
LINE
  5
C6
330
1F
100
AcDbEntity
  8
SLD-0
  6
Continuous
 62
   179
370
    30
100
AcDbLine
 10
53.3761538988
 20
139.4016666667
 30
0.0
 11
55.3255127678
 21
139.4016666667
 31
0.0
  0
LINE
  5
C7
330
1F
100
AcDbEntity
  8
SLD-0
  6
Continuous
 62
   179
370
    30
100
AcDbLine
 10
53.3761523232
 20
184.4016673534
 30
0.0
 11
55.3255073294
 21
184.4016673534
 31
0.0
  0
LINE
  5
C8
330
1F
100
AcDbEntity
  8
SLD-0
  6
Continuous
 62
   179
370
    30
100
AcDbLine
 10
53.3508333333
 20
183.4016666667
 30
0.0
 11
53.3508333333
 21
182.4016666667
 31
0.0
  0
LINE
  5
C9
330
1F
100
AcDbEntity
  8
SLD-0
  6
Continuous
 62
   179
370
    30
100
AcDbLine
 10
53.3758393988
 20
183.4016671895
 30
0.0
 11
53.3508333333
 21
183.4016666667
 31
0.0
  0
LINE
  5
CA
330
1F
100
AcDbEntity
  8
SLD-0
  6
Continuous
 62
   179
370
    30
100
AcDbLine
 10
54.3508372768
 20
182.4016670256
 30
0.0
 11
53.3508333333
 21
182.4016666667
 31
0.0
  0
LINE
  5
CB
330
1F
100
AcDbEntity
  8
SLD-0
  6
Continuous
 62
   179
370
    30
100
AcDbLine
 10
55.3508333333
 20
183.4016666667
 30
0.0
 11
55.3258351549
 21
183.4016671895
 31
0.0
  0
LINE
  5
CC
330
1F
100
AcDbEntity
  8
SLD-0
  6
Continuous
 62
   179
370
    30
100
AcDbLine
 10
55.3508333333
 20
182.4016666667
 30
0.0
 11
54.3508372768
 21
182.4016670256
 31
0.0
  0
LINE
  5
CD
330
1F
100
AcDbEntity
  8
SLD-0
  6
Continuous
 62
   179
370
    30
100
AcDbLine
 10
55.3508333333
 20
183.4016666667
 30
0.0
 11
55.3508333333
 21
182.4016666667
 31
0.0
  0
LINE
  5
CE
330
1F
100
AcDbEntity
  8
SLD-0
  6
Continuous
 62
   179
370
    30
100
AcDbLine
 10
51.9008333333
 20
144.9016666667
 30
0.0
 11
51.9008330569
 21
139.4016664966
 31
0.0
  0
LINE
  5
CF
330
1F
100
AcDbEntity
  8
SLD-0
  6
Continuous
 62
   179
370
    30
100
AcDbLine
 10
51.9008333333
 20
159.9016666667
 30
0.0
 11
51.9008333333
 21
148.9016666667
 31
0.0
  0
LINE
  5
D0
330
1F
100
AcDbEntity
  8
SLD-0
  6
Continuous
 62
   179
370
    30
100
AcDbLine
 10
51.9008333333
 20
174.9016666667
 30
0.0
 11
51.9008333333
 21
163.9016666667
 31
0.0
  0
LINE
  5
D1
330
1F
100
AcDbEntity
  8
SLD-0
  6
Continuous
 62
   179
370
    30
100
AcDbLine
 10
51.9008330569
 20
184.4016673534
 30
0.0
 11
51.9008333333
 21
178.9016666667
 31
0.0
  0
LINE
  5
D2
330
1F
100
AcDbEntity
  8
SLD-0
  6
Continuous
 62
   179
370
    30
100
AcDbLine
 10
53.3508352503
 20
184.4016673534
 30
0.0
 11
51.9008330569
 21
184.4016673534
 31
0.0
  0
LINE
  5
D3
330
1F
100
AcDbEntity
  8
SLD-0
  6
Continuous
 62
   179
370
    30
100
AcDbLine
 10
53.3508333333
 20
183.4016666667
 30
0.0
 11
53.3508352503
 21
184.4016673534
 31
0.0
  0
LINE
  5
D4
330
1F
100
AcDbEntity
  8
SLD-0
  6
Continuous
 62
   179
370
    30
100
AcDbLine
 10
55.3508333333
 20
183.4016666667
 30
0.0
 11
55.3508393034
 21
184.4016673534
 31
0.0
  0
LINE
  5
D5
330
1F
100
AcDbEntity
  8
SLD-0
  6
Continuous
 62
   179
370
    30
100
AcDbLine
 10
56.8008265957
 20
184.4016673534
 30
0.0
 11
55.3508393034
 21
184.4016673534
 31
0.0
  0
LINE
  5
D6
330
1F
100
AcDbEntity
  8
SLD-0
  6
Continuous
 62
   179
370
    30
100
AcDbLine
 10
56.8008265957
 20
139.4016664966
 30
0.0
 11
56.8008265957
 21
184.4016673534
 31
0.0
  0
LINE
  5
D7
330
1F
100
AcDbEntity
  8
SLD-0
  6
Continuous
 62
   179
370
    30
100
AcDbLine
 10
55.3508393034
 20
139.4016664966
 30
0.0
 11
56.8008265957
 21
139.4016664966
 31
0.0
  0
LINE
  5
D8
330
1F
100
AcDbEntity
  8
SLD-0
  6
Continuous
 62
   179
370
    30
100
AcDbLine
 10
55.3508333333
 20
140.4016666667
 30
0.0
 11
55.3508393034
 21
139.4016664966
 31
0.0
  0
LINE
  5
D9
330
1F
100
AcDbEntity
  8
SLD-0
  6
Continuous
 62
   179
370
    30
100
AcDbLine
 10
51.9008330569
 20
139.4016664966
 30
0.0
 11
53.3508352503
 21
139.4016664966
 31
0.0
  0
LINE
  5
DA
330
1F
100
AcDbEntity
  8
SLD-0
  6
Continuous
 62
   179
370
    30
100
AcDbLine
 10
53.3508333333
 20
140.4016666667
 30
0.0
 11
53.3508352503
 21
139.4016664966
 31
0.0
  0
LINE
  5
DB
330
1F
100
AcDbEntity
  8
SLD-0
  6
Continuous
 62
   179
370
    30
100
AcDbLine
 10
60.5508333333
 20
183.4016666667
 30
0.0
 11
60.5258337721
 21
183.4016671895
 31
0.0
  0
LINE
  5
DC
330
1F
100
AcDbEntity
  8
SLD-0
  6
Continuous
 62
   179
370
    30
100
AcDbLine
 10
60.5508333333
 20
182.4016666667
 30
0.0
 11
59.550835894
 21
182.4016670256
 31
0.0
  0
LINE
  5
DD
330
1F
100
AcDbEntity
  8
SLD-0
  6
Continuous
 62
   179
370
    30
100
AcDbLine
 10
60.5508333333
 20
183.4016666667
 30
0.0
 11
60.5508333333
 21
182.4016666667
 31
0.0
  0
LINE
  5
DE
330
1F
100
AcDbEntity
  8
SLD-0
  6
Continuous
 62
   179
370
    30
100
AcDbLine
 10
58.5761509403
 20
184.4016673534
 30
0.0
 11
60.5255059466
 21
184.4016673534
 31
0.0
  0
LINE
  5
DF
330
1F
100
AcDbEntity
  8
SLD-0
  6
Continuous
 62
   179
370
    30
100
AcDbLine
 10
58.575838016
 20
140.4016666605
 30
0.0
 11
58.5508333333
 21
140.4016666667
 31
0.0
  0
LINE
  5
E0
330
1F
100
AcDbEntity
  8
SLD-0
  6
Continuous
 62
   179
370
    30
100
AcDbLine
 10
59.5508358941
 20
141.4016668244
 30
0.0
 11
58.5508333333
 21
141.4016666667
 31
0.0
  0
LINE
  5
E1
330
1F
100
AcDbEntity
  8
SLD-0
  6
Continuous
 62
   179
370
    30
100
AcDbLine
 10
58.5508333333
 20
140.4016666667
 30
0.0
 11
58.5508333333
 21
141.4016666667
 31
0.0
  0
LINE
  5
E2
330
1F
100
AcDbEntity
  8
SLD-0
  6
Continuous
 62
   179
370
    30
100
AcDbLine
 10
60.5508333333
 20
140.4016666667
 30
0.0
 11
60.5258337721
 21
140.4016666605
 31
0.0
  0
LINE
  5
E3
330
1F
100
AcDbEntity
  8
SLD-0
  6
Continuous
 62
   179
370
    30
100
AcDbLine
 10
60.5508333333
 20
140.4016666667
 30
0.0
 11
60.5508333333
 21
141.4016666667
 31
0.0
  0
LINE
  5
E4
330
1F
100
AcDbEntity
  8
SLD-0
  6
Continuous
 62
   179
370
    30
100
AcDbLine
 10
60.5508333333
 20
141.4016666667
 30
0.0
 11
59.5508358941
 21
141.4016668244
 31
0.0
  0
LINE
  5
E5
330
1F
100
AcDbEntity
  8
SLD-0
  6
Continuous
 62
   179
370
    30
100
AcDbLine
 10
58.5761538988
 20
139.4016666667
 30
0.0
 11
60.5255127678
 21
139.4016666667
 31
0.0
  0
LINE
  5
E6
330
1F
100
AcDbEntity
  8
SLD-0
  6
Continuous
 62
   179
370
    30
100
AcDbLine
 10
58.575838016
 20
183.4016671895
 30
0.0
 11
58.5508333333
 21
183.4016666667
 31
0.0
  0
LINE
  5
E7
330
1F
100
AcDbEntity
  8
SLD-0
  6
Continuous
 62
   179
370
    30
100
AcDbLine
 10
59.550835894
 20
182.4016670256
 30
0.0
 11
58.5508333333
 21
182.4016666667
 31
0.0
  0
LINE
  5
E8
330
1F
100
AcDbEntity
  8
SLD-0
  6
Continuous
 62
   179
370
    30
100
AcDbLine
 10
58.5508333333
 20
183.4016666667
 30
0.0
 11
58.5508333333
 21
182.4016666667
 31
0.0
  0
LINE
  5
E9
330
1F
100
AcDbEntity
  8
SLD-0
  6
Continuous
 62
   179
370
    30
100
AcDbLine
 10
57.0008299813
 20
184.4016673534
 30
0.0
 11
57.0008299813
 21
139.4016664966
 31
0.0
  0
LINE
  5
EA
330
1F
100
AcDbEntity
  8
SLD-0
  6
Continuous
 62
   179
370
    30
100
AcDbLine
 10
58.5508338675
 20
184.4016673534
 30
0.0
 11
57.0008299813
 21
184.4016673534
 31
0.0
  0
LINE
  5
EB
330
1F
100
AcDbEntity
  8
SLD-0
  6
Continuous
 62
   179
370
    30
100
AcDbLine
 10
58.5508333333
 20
183.4016666667
 30
0.0
 11
58.5508338675
 21
184.4016673534
 31
0.0
  0
LINE
  5
EC
330
1F
100
AcDbEntity
  8
SLD-0
  6
Continuous
 62
   179
370
    30
100
AcDbLine
 10
60.5508333333
 20
183.4016666667
 30
0.0
 11
60.5508379206
 21
184.4016673534
 31
0.0
  0
LINE
  5
ED
330
1F
100
AcDbEntity
  8
SLD-0
  6
Continuous
 62
   179
370
    30
100
AcDbLine
 10
61.9008384213
 20
184.4016673534
 30
0.0
 11
60.5508379206
 21
184.4016673534
 31
0.0
  0
LINE
  5
EE
330
1F
100
AcDbEntity
  8
SLD-0
  6
Continuous
 62
   179
370
    30
100
AcDbLine
 10
61.9008333333
 20
178.9016666667
 30
0.0
 11
61.9008384213
 21
184.4016673534
 31
0.0
  0
LINE
  5
EF
330
1F
100
AcDbEntity
  8
SLD-0
  6
Continuous
 62
   179
370
    30
100
AcDbLine
 10
61.9008333333
 20
163.9016666667
 30
0.0
 11
61.9008333333
 21
174.9016666667
 31
0.0
  0
LINE
  5
F0
330
1F
100
AcDbEntity
  8
SLD-0
  6
Continuous
 62
   179
370
    30
100
AcDbLine
 10
61.9008333333
 20
148.9016666667
 30
0.0
 11
61.9008333333
 21
159.9016666667
 31
0.0
  0
LINE
  5
F1
330
1F
100
AcDbEntity
  8
SLD-0
  6
Continuous
 62
   179
370
    30
100
AcDbLine
 10
61.9008384213
 20
139.4016664966
 30
0.0
 11
61.9008333333
 21
144.9016666667
 31
0.0
  0
LINE
  5
F2
330
1F
100
AcDbEntity
  8
SLD-0
  6
Continuous
 62
   179
370
    30
100
AcDbLine
 10
60.5508379206
 20
139.4016664966
 30
0.0
 11
61.9008384213
 21
139.4016664966
 31
0.0
  0
LINE
  5
F3
330
1F
100
AcDbEntity
  8
SLD-0
  6
Continuous
 62
   179
370
    30
100
AcDbLine
 10
60.5508333333
 20
140.4016666667
 30
0.0
 11
60.5508379206
 21
139.4016664966
 31
0.0
  0
LINE
  5
F4
330
1F
100
AcDbEntity
  8
SLD-0
  6
Continuous
 62
   179
370
    30
100
AcDbLine
 10
58.5508333333
 20
140.4016666667
 30
0.0
 11
58.5508338675
 21
139.4016664966
 31
0.0
  0
LINE
  5
F5
330
1F
100
AcDbEntity
  8
SLD-0
  6
Continuous
 62
   179
370
    30
100
AcDbLine
 10
57.0008299813
 20
139.4016664966
 30
0.0
 11
58.5508338675
 21
139.4016664966
 31
0.0
  0
LINE
  5
F6
330
1F
100
AcDbEntity
  8
SLD-0
  6
Continuous
 62
   179
370
    30
100
AcDbLine
 10
61.9008384213
 20
151.9016666828
 30
0.0
 11
62.1008269057
 21
151.9016666828
 31
0.0
  0
LINE
  5
F7
330
1F
100
AcDbEntity
  8
SLD-0
  6
Continuous
 62
   179
370
    30
100
AcDbLine
 10
67.0008353457
 20
151.9016666828
 30
0.0
 11
67.1008370384
 21
151.9016666828
 31
0.0
  0
LINE
  5
F8
330
1F
100
AcDbEntity
  8
SLD-0
  6
Continuous
 62
   179
370
    30
100
AcDbLine
 10
61.9008384213
 20
156.4016667219
 30
0.0
 11
62.1008269057
 21
156.4016667219
 31
0.0
  0
LINE
  5
F9
330
1F
100
AcDbEntity
  8
SLD-0
  6
Continuous
 62
   179
370
    30
100
AcDbLine
 10
67.0008353457
 20
156.4016667219
 30
0.0
 11
67.1008370384
 21
156.4016667219
 31
0.0
  0
LINE
  5
FA
330
1F
100
AcDbEntity
  8
SLD-0
  6
Continuous
 62
   179
370
    30
100
AcDbLine
 10
61.9008384213
 20
167.4016664295
 30
0.0
 11
62.1008269057
 21
167.4016664295
 31
0.0
  0
LINE
  5
FB
330
1F
100
AcDbEntity
  8
SLD-0
  6
Continuous
 62
   179
370
    30
100
AcDbLine
 10
67.0008353457
 20
167.4016664295
 30
0.0
 11
67.1008370384
 21
167.4016664295
 31
0.0
  0
LINE
  5
FC
330
1F
100
AcDbEntity
  8
SLD-0
  6
Continuous
 62
   179
370
    30
100
AcDbLine
 10
61.9008384213
 20
171.9016662358
 30
0.0
 11
62.1008269057
 21
171.9016662358
 31
0.0
  0
LINE
  5
FD
330
1F
100
AcDbEntity
  8
SLD-0
  6
Continuous
 62
   179
370
    30
100
AcDbLine
 10
67.0008353457
 20
171.9016662358
 30
0.0
 11
67.1008370384
 21
171.9016662358
 31
0.0
  0
LINE
  5
FE
330
1F
100
AcDbEntity
  8
SLD-0
  6
Continuous
 62
   179
370
    30
100
AcDbLine
 10
141.3508333333
 20
183.4016666667
 30
0.0
 11
141.3508333333
 21
182.4016666667
 31
0.0
  0
LINE
  5
FF
330
1F
100
AcDbEntity
  8
SLD-0
  6
Continuous
 62
   179
370
    30
100
AcDbLine
 10
141.3508333333
 20
183.4016666667
 30
0.0
 11
141.325830625
 21
183.4016671895
 31
0.0
  0
LINE
  5
100
330
1F
100
AcDbEntity
  8
SLD-0
  6
Continuous
 62
   179
370
    30
100
AcDbLine
 10
141.3508333333
 20
182.4016666667
 30
0.0
 11
140.3508327469
 21
182.4016670256
 31
0.0
  0
LINE
  5
101
330
1F
100
AcDbEntity
  8
SLD-0
  6
Continuous
 62
   179
370
    30
100
AcDbLine
 10
139.3761552438
 20
139.4016664966
 30
0.0
 11
141.32551025
 21
139.4016664966
 31
0.0
  0
LINE
  5
102
330
1F
100
AcDbEntity
  8
SLD-0
  6
Continuous
 62
   179
370
    30
100
AcDbLine
 10
139.3761552438
 20
184.4016673534
 30
0.0
 11
141.32551025
 21
184.4016673534
 31
0.0
  0
LINE
  5
103
330
1F
100
AcDbEntity
  8
SLD-0
  6
Continuous
 62
   179
370
    30
100
AcDbLine
 10
139.3758348688
 20
183.4016671895
 30
0.0
 11
139.3508333333
 21
183.4016666667
 31
0.0
  0
LINE
  5
104
330
1F
100
AcDbEntity
  8
SLD-0
  6
Continuous
 62
   179
370
    30
100
AcDbLine
 10
139.3508333333
 20
183.4016666667
 30
0.0
 11
139.3508333333
 21
182.4016666667
 31
0.0
  0
LINE
  5
105
330
1F
100
AcDbEntity
  8
SLD-0
  6
Continuous
 62
   179
370
    30
100
AcDbLine
 10
140.3508327469
 20
182.4016670256
 30
0.0
 11
139.3508333333
 21
182.4016666667
 31
0.0
  0
LINE
  5
106
330
1F
100
AcDbEntity
  8
SLD-0
  6
Continuous
 62
   179
370
    30
100
AcDbLine
 10
139.3508333333
 20
140.4016666667
 30
0.0
 11
139.3508333333
 21
141.4016666667
 31
0.0
  0
LINE
  5
107
330
1F
100
AcDbEntity
  8
SLD-0
  6
Continuous
 62
   179
370
    30
100
AcDbLine
 10
139.3758348688
 20
140.4016666605
 30
0.0
 11
139.3508333333
 21
140.4016666667
 31
0.0
  0
LINE
  5
108
330
1F
100
AcDbEntity
  8
SLD-0
  6
Continuous
 62
   179
370
    30
100
AcDbLine
 10
140.3508327469
 20
141.4016668244
 30
0.0
 11
139.3508333333
 21
141.4016666667
 31
0.0
  0
LINE
  5
109
330
1F
100
AcDbEntity
  8
SLD-0
  6
Continuous
 62
   179
370
    30
100
AcDbLine
 10
141.3508333333
 20
140.4016666667
 30
0.0
 11
141.325830625
 21
140.4016666605
 31
0.0
  0
LINE
  5
10A
330
1F
100
AcDbEntity
  8
SLD-0
  6
Continuous
 62
   179
370
    30
100
AcDbLine
 10
141.3508333333
 20
140.4016666667
 30
0.0
 11
141.3508333333
 21
141.4016666667
 31
0.0
  0
LINE
  5
10B
330
1F
100
AcDbEntity
  8
SLD-0
  6
Continuous
 62
   179
370
    30
100
AcDbLine
 10
141.3508333333
 20
141.4016666667
 30
0.0
 11
140.3508327469
 21
141.4016668244
 31
0.0
  0
LINE
  5
10C
330
1F
100
AcDbEntity
  8
SLD-0
  6
Continuous
 62
   179
370
    30
100
AcDbLine
 10
137.8008342847
 20
184.4016673534
 30
0.0
 11
137.8008342847
 21
139.4016664966
 31
0.0
  0
LINE
  5
10D
330
1F
100
AcDbEntity
  8
SLD-0
  6
Continuous
 62
   179
370
    30
100
AcDbLine
 10
141.3508333333
 20
183.4016666667
 30
0.0
 11
141.3508347735
 21
184.4016673534
 31
0.0
  0
LINE
  5
10E
330
1F
100
AcDbEntity
  8
SLD-0
  6
Continuous
 62
   179
370
    30
100
AcDbLine
 10
142.7008352741
 20
184.4016673534
 30
0.0
 11
141.3508347735
 21
184.4016673534
 31
0.0
  0
LINE
  5
10F
330
1F
100
AcDbEntity
  8
SLD-0
  6
Continuous
 62
   179
370
    30
100
AcDbLine
 10
142.7008333333
 20
178.9016666667
 30
0.0
 11
142.7008352741
 21
184.4016673534
 31
0.0
  0
LINE
  5
110
330
1F
100
AcDbEntity
  8
SLD-0
  6
Continuous
 62
   179
370
    30
100
AcDbLine
 10
142.7008333333
 20
163.9016666667
 30
0.0
 11
142.7008333333
 21
174.9016666667
 31
0.0
  0
LINE
  5
111
330
1F
100
AcDbEntity
  8
SLD-0
  6
Continuous
 62
   179
370
    30
100
AcDbLine
 10
142.7008333333
 20
148.9016666667
 30
0.0
 11
142.7008333333
 21
159.9016666667
 31
0.0
  0
LINE
  5
112
330
1F
100
AcDbEntity
  8
SLD-0
  6
Continuous
 62
   179
370
    30
100
AcDbLine
 10
142.7008352741
 20
139.4016664966
 30
0.0
 11
142.7008333333
 21
144.9016666667
 31
0.0
  0
LINE
  5
113
330
1F
100
AcDbEntity
  8
SLD-0
  6
Continuous
 62
   179
370
    30
100
AcDbLine
 10
141.3508347735
 20
139.4016664966
 30
0.0
 11
142.7008352741
 21
139.4016664966
 31
0.0
  0
LINE
  5
114
330
1F
100
AcDbEntity
  8
SLD-0
  6
Continuous
 62
   179
370
    30
100
AcDbLine
 10
141.3508333333
 20
140.4016666667
 30
0.0
 11
141.3508347735
 21
139.4016664966
 31
0.0
  0
LINE
  5
115
330
1F
100
AcDbEntity
  8
SLD-0
  6
Continuous
 62
   179
370
    30
100
AcDbLine
 10
137.8008342847
 20
139.4016664966
 30
0.0
 11
139.3508307203
 21
139.4016664966
 31
0.0
  0
LINE
  5
116
330
1F
100
AcDbEntity
  8
SLD-0
  6
Continuous
 62
   179
370
    30
100
AcDbLine
 10
139.3508333333
 20
183.4016666667
 30
0.0
 11
139.3508307203
 21
184.4016673534
 31
0.0
  0
LINE
  5
117
330
1F
100
AcDbEntity
  8
SLD-0
  6
Continuous
 62
   179
370
    30
100
AcDbLine
 10
139.3508333333
 20
140.4016666667
 30
0.0
 11
139.3508307203
 21
139.4016664966
 31
0.0
  0
LINE
  5
118
330
1F
100
AcDbEntity
  8
SLD-0
  6
Continuous
 62
   179
370
    30
100
AcDbLine
 10
139.3508307203
 20
184.4016673534
 30
0.0
 11
137.8008342847
 21
184.4016673534
 31
0.0
  0
LINE
  5
119
330
1F
100
AcDbEntity
  8
SLD-0
  6
Continuous
 62
   179
370
    30
100
AcDbLine
 10
142.7008352741
 20
167.4016664295
 30
0.0
 11
142.9008312091
 21
167.4016664295
 31
0.0
  0
LINE
  5
11A
330
1F
100
AcDbEntity
  8
SLD-0
  6
Continuous
 62
   179
370
    30
100
AcDbLine
 10
147.8008321985
 20
167.4016664295
 30
0.0
 11
147.9008338913
 21
167.4016664295
 31
0.0
  0
LINE
  5
11B
330
1F
100
AcDbEntity
  8
SLD-0
  6
Continuous
 62
   179
370
    30
100
AcDbLine
 10
142.7008352741
 20
171.9016662358
 30
0.0
 11
142.9008312091
 21
171.9016662358
 31
0.0
  0
LINE
  5
11C
330
1F
100
AcDbEntity
  8
SLD-0
  6
Continuous
 62
   179
370
    30
100
AcDbLine
 10
147.8008321985
 20
171.9016662358
 30
0.0
 11
147.9008338913
 21
171.9016662358
 31
0.0
  0
LINE
  5
11D
330
1F
100
AcDbEntity
  8
SLD-0
  6
Continuous
 62
   179
370
    30
100
AcDbLine
 10
142.7008352741
 20
151.9016666828
 30
0.0
 11
142.9008312091
 21
151.9016666828
 31
0.0
  0
LINE
  5
11E
330
1F
100
AcDbEntity
  8
SLD-0
  6
Continuous
 62
   179
370
    30
100
AcDbLine
 10
147.8008321985
 20
151.9016666828
 30
0.0
 11
147.9008338913
 21
151.9016666828
 31
0.0
  0
LINE
  5
11F
330
1F
100
AcDbEntity
  8
SLD-0
  6
Continuous
 62
   179
370
    30
100
AcDbLine
 10
142.7008352741
 20
156.4016667219
 30
0.0
 11
142.9008312091
 21
156.4016667219
 31
0.0
  0
LINE
  5
120
330
1F
100
AcDbEntity
  8
SLD-0
  6
Continuous
 62
   179
370
    30
100
AcDbLine
 10
147.8008321985
 20
156.4016667219
 30
0.0
 11
147.9008338913
 21
156.4016667219
 31
0.0
  0
LINE
  5
121
330
1F
100
AcDbEntity
  8
SLD-0
  6
Continuous
 62
   179
370
    30
100
AcDbLine
 10
98.9508333333
 20
183.4016666667
 30
0.0
 11
98.9508333333
 21
182.4016666667
 31
0.0
  0
LINE
  5
122
330
1F
100
AcDbEntity
  8
SLD-0
  6
Continuous
 62
   179
370
    30
100
AcDbLine
 10
98.9758364424
 20
183.4016671895
 30
0.0
 11
98.9508333333
 21
183.4016666667
 31
0.0
  0
LINE
  5
123
330
1F
100
AcDbEntity
  8
SLD-0
  6
Continuous
 62
   179
370
    30
100
AcDbLine
 10
99.9508343205
 20
182.4016670256
 30
0.0
 11
98.9508333333
 21
182.4016666667
 31
0.0
  0
LINE
  5
124
330
1F
100
AcDbEntity
  8
SLD-0
  6
Continuous
 62
   179
370
    30
100
AcDbLine
 10
98.9761568174
 20
139.4016664966
 30
0.0
 11
100.9255118236
 21
139.4016664966
 31
0.0
  0
LINE
  5
125
330
1F
100
AcDbEntity
  8
SLD-0
  6
Continuous
 62
   179
370
    30
100
AcDbLine
 10
98.9508333333
 20
140.4016666667
 30
0.0
 11
98.9508333333
 21
141.4016666667
 31
0.0
  0
LINE
  5
126
330
1F
100
AcDbEntity
  8
SLD-0
  6
Continuous
 62
   179
370
    30
100
AcDbLine
 10
99.9508343205
 20
141.4016668244
 30
0.0
 11
98.9508333333
 21
141.4016666667
 31
0.0
  0
LINE
  5
127
330
1F
100
AcDbEntity
  8
SLD-0
  6
Continuous
 62
   179
370
    30
100
AcDbLine
 10
98.9758364424
 20
140.4016666605
 30
0.0
 11
98.9508333333
 21
140.4016666667
 31
0.0
  0
LINE
  5
128
330
1F
100
AcDbEntity
  8
SLD-0
  6
Continuous
 62
   179
370
    30
100
AcDbLine
 10
100.9508333333
 20
183.4016666667
 30
0.0
 11
100.9258321985
 21
183.4016671895
 31
0.0
  0
LINE
  5
129
330
1F
100
AcDbEntity
  8
SLD-0
  6
Continuous
 62
   179
370
    30
100
AcDbLine
 10
100.9508333333
 20
182.4016666667
 30
0.0
 11
99.9508343205
 21
182.4016670256
 31
0.0
  0
LINE
  5
12A
330
1F
100
AcDbEntity
  8
SLD-0
  6
Continuous
 62
   179
370
    30
100
AcDbLine
 10
100.9508333333
 20
183.4016666667
 30
0.0
 11
100.9508333333
 21
182.4016666667
 31
0.0
  0
LINE
  5
12B
330
1F
100
AcDbEntity
  8
SLD-0
  6
Continuous
 62
   179
370
    30
100
AcDbLine
 10
98.9761568174
 20
184.4016673534
 30
0.0
 11
100.9255118236
 21
184.4016673534
 31
0.0
  0
LINE
  5
12C
330
1F
100
AcDbEntity
  8
SLD-0
  6
Continuous
 62
   179
370
    30
100
AcDbLine
 10
100.9508333333
 20
140.4016666667
 30
0.0
 11
100.9258321985
 21
140.4016666605
 31
0.0
  0
LINE
  5
12D
330
1F
100
AcDbEntity
  8
SLD-0
  6
Continuous
 62
   179
370
    30
100
AcDbLine
 10
100.9508333333
 20
141.4016666667
 30
0.0
 11
99.9508343205
 21
141.4016668244
 31
0.0
  0
LINE
  5
12E
330
1F
100
AcDbEntity
  8
SLD-0
  6
Continuous
 62
   179
370
    30
100
AcDbLine
 10
100.9508333333
 20
140.4016666667
 30
0.0
 11
100.9508333333
 21
141.4016666667
 31
0.0
  0
LINE
  5
12F
330
1F
100
AcDbEntity
  8
SLD-0
  6
Continuous
 62
   179
370
    30
100
AcDbLine
 10
97.4008358583
 20
184.4016673534
 30
0.0
 11
97.4008358583
 21
139.4016664966
 31
0.0
  0
LINE
  5
130
330
1F
100
AcDbEntity
  8
SLD-0
  6
Continuous
 62
   179
370
    30
100
AcDbLine
 10
98.9508322939
 20
184.4016673534
 30
0.0
 11
97.4008358583
 21
184.4016673534
 31
0.0
  0
LINE
  5
131
330
1F
100
AcDbEntity
  8
SLD-0
  6
Continuous
 62
   179
370
    30
100
AcDbLine
 10
98.9508333333
 20
183.4016666667
 30
0.0
 11
98.9508322939
 21
184.4016673534
 31
0.0
  0
LINE
  5
132
330
1F
100
AcDbEntity
  8
SLD-0
  6
Continuous
 62
   179
370
    30
100
AcDbLine
 10
100.9508333333
 20
183.4016666667
 30
0.0
 11
100.950836347
 21
184.4016673534
 31
0.0
  0
LINE
  5
133
330
1F
100
AcDbEntity
  8
SLD-0
  6
Continuous
 62
   179
370
    30
100
AcDbLine
 10
102.3008368477
 20
184.4016673534
 30
0.0
 11
100.950836347
 21
184.4016673534
 31
0.0
  0
LINE
  5
134
330
1F
100
AcDbEntity
  8
SLD-0
  6
Continuous
 62
   179
370
    30
100
AcDbLine
 10
102.3008333333
 20
178.9016666667
 30
0.0
 11
102.3008368477
 21
184.4016673534
 31
0.0
  0
LINE
  5
135
330
1F
100
AcDbEntity
  8
SLD-0
  6
Continuous
 62
   179
370
    30
100
AcDbLine
 10
102.3008333333
 20
163.9016666667
 30
0.0
 11
102.3008333333
 21
174.9016666667
 31
0.0
  0
LINE
  5
136
330
1F
100
AcDbEntity
  8
SLD-0
  6
Continuous
 62
   179
370
    30
100
AcDbLine
 10
102.3008333333
 20
148.9016666667
 30
0.0
 11
102.3008333333
 21
159.9016666667
 31
0.0
  0
LINE
  5
137
330
1F
100
AcDbEntity
  8
SLD-0
  6
Continuous
 62
   179
370
    30
100
AcDbLine
 10
102.3008368477
 20
139.4016664966
 30
0.0
 11
102.3008333333
 21
144.9016666667
 31
0.0
  0
LINE
  5
138
330
1F
100
AcDbEntity
  8
SLD-0
  6
Continuous
 62
   179
370
    30
100
AcDbLine
 10
100.950836347
 20
139.4016664966
 30
0.0
 11
102.3008368477
 21
139.4016664966
 31
0.0
  0
LINE
  5
139
330
1F
100
AcDbEntity
  8
SLD-0
  6
Continuous
 62
   179
370
    30
100
AcDbLine
 10
100.9508333333
 20
140.4016666667
 30
0.0
 11
100.950836347
 21
139.4016664966
 31
0.0
  0
LINE
  5
13A
330
1F
100
AcDbEntity
  8
SLD-0
  6
Continuous
 62
   179
370
    30
100
AcDbLine
 10
98.9508333333
 20
140.4016666667
 30
0.0
 11
98.9508322939
 21
139.4016664966
 31
0.0
  0
LINE
  5
13B
330
1F
100
AcDbEntity
  8
SLD-0
  6
Continuous
 62
   179
370
    30
100
AcDbLine
 10
97.4008358583
 20
139.4016664966
 30
0.0
 11
98.9508322939
 21
139.4016664966
 31
0.0
  0
LINE
  5
13C
330
1F
100
AcDbEntity
  8
SLD-0
  6
Continuous
 62
   179
370
    30
100
AcDbLine
 10
102.3008368477
 20
167.4016664295
 30
0.0
 11
102.5008327827
 21
167.4016664295
 31
0.0
  0
LINE
  5
13D
330
1F
100
AcDbEntity
  8
SLD-0
  6
Continuous
 62
   179
370
    30
100
AcDbLine
 10
107.4008337721
 20
167.4016664295
 30
0.0
 11
107.5008354649
 21
167.4016664295
 31
0.0
  0
LINE
  5
13E
330
1F
100
AcDbEntity
  8
SLD-0
  6
Continuous
 62
   179
370
    30
100
AcDbLine
 10
102.3008368477
 20
171.9016662358
 30
0.0
 11
102.5008327827
 21
171.9016662358
 31
0.0
  0
LINE
  5
13F
330
1F
100
AcDbEntity
  8
SLD-0
  6
Continuous
 62
   179
370
    30
100
AcDbLine
 10
107.4008337721
 20
171.9016662358
 30
0.0
 11
107.5008354649
 21
171.9016662358
 31
0.0
  0
LINE
  5
140
330
1F
100
AcDbEntity
  8
SLD-0
  6
Continuous
 62
   179
370
    30
100
AcDbLine
 10
102.3008368477
 20
151.9016666828
 30
0.0
 11
102.5008327827
 21
151.9016666828
 31
0.0
  0
LINE
  5
141
330
1F
100
AcDbEntity
  8
SLD-0
  6
Continuous
 62
   179
370
    30
100
AcDbLine
 10
107.4008337721
 20
151.9016666828
 30
0.0
 11
107.5008354649
 21
151.9016666828
 31
0.0
  0
LINE
  5
142
330
1F
100
AcDbEntity
  8
SLD-0
  6
Continuous
 62
   179
370
    30
100
AcDbLine
 10
102.3008368477
 20
156.4016667219
 30
0.0
 11
102.5008327827
 21
156.4016667219
 31
0.0
  0
LINE
  5
143
330
1F
100
AcDbEntity
  8
SLD-0
  6
Continuous
 62
   179
370
    30
100
AcDbLine
 10
107.4008337721
 20
156.4016667219
 30
0.0
 11
107.5008354649
 21
156.4016667219
 31
0.0
  0
LINE
  5
144
330
1F
100
AcDbEntity
  8
SLD-0
  6
Continuous
 62
   179
370
    30
100
AcDbLine
 10
151.4508333333
 20
140.4016666667
 30
0.0
 11
151.4258339569
 21
140.4016666605
 31
0.0
  0
LINE
  5
145
330
1F
100
AcDbEntity
  8
SLD-0
  6
Continuous
 62
   179
370
    30
100
AcDbLine
 10
151.4508333333
 20
141.4016666667
 30
0.0
 11
150.4508323535
 21
141.4016668244
 31
0.0
  0
LINE
  5
146
330
1F
100
AcDbEntity
  8
SLD-0
  6
Continuous
 62
   179
370
    30
100
AcDbLine
 10
151.4508333333
 20
140.4016666667
 30
0.0
 11
151.4508333333
 21
141.4016666667
 31
0.0
  0
LINE
  5
147
330
1F
100
AcDbEntity
  8
SLD-0
  6
Continuous
 62
   179
370
    30
100
AcDbLine
 10
149.4508333333
 20
140.4016666667
 30
0.0
 11
149.4508333333
 21
141.4016666667
 31
0.0
  0
LINE
  5
148
330
1F
100
AcDbEntity
  8
SLD-0
  6
Continuous
 62
   179
370
    30
100
AcDbLine
 10
150.4508323535
 20
141.4016668244
 30
0.0
 11
149.4508333333
 21
141.4016666667
 31
0.0
  0
LINE
  5
149
330
1F
100
AcDbEntity
  8
SLD-0
  6
Continuous
 62
   179
370
    30
100
AcDbLine
 10
149.4758344754
 20
140.4016666605
 30
0.0
 11
149.4508333333
 21
140.4016666667
 31
0.0
  0
LINE
  5
14A
330
1F
100
AcDbEntity
  8
SLD-0
  6
Continuous
 62
   179
370
    30
100
AcDbLine
 10
151.4508333333
 20
183.4016666667
 30
0.0
 11
151.4508333333
 21
182.4016666667
 31
0.0
  0
LINE
  5
14B
330
1F
100
AcDbEntity
  8
SLD-0
  6
Continuous
 62
   179
370
    30
100
AcDbLine
 10
151.4508333333
 20
182.4016666667
 30
0.0
 11
150.4508323535
 21
182.4016670255
 31
0.0
  0
LINE
  5
14C
330
1F
100
AcDbEntity
  8
SLD-0
  6
Continuous
 62
   179
370
    30
100
AcDbLine
 10
151.4508333333
 20
183.4016666667
 30
0.0
 11
151.4258339569
 21
183.4016671895
 31
0.0
  0
LINE
  5
14D
330
1F
100
AcDbEntity
  8
SLD-0
  6
Continuous
 62
   179
370
    30
100
AcDbLine
 10
149.4758344754
 20
183.4016671895
 30
0.0
 11
149.4508333333
 21
183.4016666667
 31
0.0
  0
LINE
  5
14E
330
1F
100
AcDbEntity
  8
SLD-0
  6
Continuous
 62
   179
370
    30
100
AcDbLine
 10
149.4508333333
 20
183.4016666667
 30
0.0
 11
149.4508333333
 21
182.4016666667
 31
0.0
  0
LINE
  5
14F
330
1F
100
AcDbEntity
  8
SLD-0
  6
Continuous
 62
   179
370
    30
100
AcDbLine
 10
150.4508323535
 20
182.4016670255
 30
0.0
 11
149.4508333333
 21
182.4016666667
 31
0.0
  0
LINE
  5
150
330
1F
100
AcDbEntity
  8
SLD-0
  6
Continuous
 62
   179
370
    30
100
AcDbLine
 10
149.4761548504
 20
184.4016673534
 30
0.0
 11
151.4255135819
 21
184.4016673534
 31
0.0
  0
LINE
  5
151
330
1F
100
AcDbEntity
  8
SLD-0
  6
Continuous
 62
   179
370
    30
100
AcDbLine
 10
149.4761538988
 20
139.4016666667
 30
0.0
 11
151.4255127678
 21
139.4016666667
 31
0.0
  0
LINE
  5
152
330
1F
100
AcDbEntity
  8
SLD-0
  6
Continuous
 62
   179
370
    30
100
AcDbLine
 10
147.9008338913
 20
184.4016673534
 30
0.0
 11
147.9008338913
 21
139.4016664966
 31
0.0
  0
LINE
  5
153
330
1F
100
AcDbEntity
  8
SLD-0
  6
Continuous
 62
   179
370
    30
100
AcDbLine
 10
149.4508340522
 20
184.4016673534
 30
0.0
 11
147.9008338913
 21
184.4016673534
 31
0.0
  0
LINE
  5
154
330
1F
100
AcDbEntity
  8
SLD-0
  6
Continuous
 62
   179
370
    30
100
AcDbLine
 10
151.4508333333
 20
183.4016666667
 30
0.0
 11
151.4508343801
 21
184.4016673534
 31
0.0
  0
LINE
  5
155
330
1F
100
AcDbEntity
  8
SLD-0
  6
Continuous
 62
   179
370
    30
100
AcDbLine
 10
152.8008348808
 20
184.4016673534
 30
0.0
 11
151.4508343801
 21
184.4016673534
 31
0.0
  0
LINE
  5
156
330
1F
100
AcDbEntity
  8
SLD-0
  6
Continuous
 62
   179
370
    30
100
AcDbLine
 10
152.8008333333
 20
178.9016666667
 30
0.0
 11
152.8008348808
 21
184.4016673534
 31
0.0
  0
LINE
  5
157
330
1F
100
AcDbEntity
  8
SLD-0
  6
Continuous
 62
   179
370
    30
100
AcDbLine
 10
152.8008333333
 20
163.9016666667
 30
0.0
 11
152.8008333333
 21
174.9016666667
 31
0.0
  0
LINE
  5
158
330
1F
100
AcDbEntity
  8
SLD-0
  6
Continuous
 62
   179
370
    30
100
AcDbLine
 10
152.8008333333
 20
148.9016666667
 30
0.0
 11
152.8008333333
 21
159.9016666667
 31
0.0
  0
LINE
  5
159
330
1F
100
AcDbEntity
  8
SLD-0
  6
Continuous
 62
   179
370
    30
100
AcDbLine
 10
152.8008348808
 20
139.4016664966
 30
0.0
 11
152.8008333333
 21
144.9016666667
 31
0.0
  0
LINE
  5
15A
330
1F
100
AcDbEntity
  8
SLD-0
  6
Continuous
 62
   179
370
    30
100
AcDbLine
 10
151.4508343801
 20
139.4016664966
 30
0.0
 11
152.8008348808
 21
139.4016664966
 31
0.0
  0
LINE
  5
15B
330
1F
100
AcDbEntity
  8
SLD-0
  6
Continuous
 62
   179
370
    30
100
AcDbLine
 10
151.4508333333
 20
140.4016666667
 30
0.0
 11
151.4508343801
 21
139.4016664966
 31
0.0
  0
LINE
  5
15C
330
1F
100
AcDbEntity
  8
SLD-0
  6
Continuous
 62
   179
370
    30
100
AcDbLine
 10
149.4508333333
 20
140.4016666667
 30
0.0
 11
149.4508340522
 21
139.4016664966
 31
0.0
  0
LINE
  5
15D
330
1F
100
AcDbEntity
  8
SLD-0
  6
Continuous
 62
   179
370
    30
100
AcDbLine
 10
149.4508333333
 20
183.4016666667
 30
0.0
 11
149.4508340522
 21
184.4016673534
 31
0.0
  0
LINE
  5
15E
330
1F
100
AcDbEntity
  8
SLD-0
  6
Continuous
 62
   179
370
    30
100
AcDbLine
 10
147.9008338913
 20
139.4016664966
 30
0.0
 11
149.4508340522
 21
139.4016664966
 31
0.0
  0
LINE
  5
15F
330
1F
100
AcDbEntity
  8
SLD-0
  6
Continuous
 62
   179
370
    30
100
AcDbLine
 10
152.8008348808
 20
151.9016666828
 30
0.0
 11
153.000834541
 21
151.9016666828
 31
0.0
  0
LINE
  5
160
330
1F
100
AcDbEntity
  8
SLD-0
  6
Continuous
 62
   179
370
    30
100
AcDbLine
 10
157.9008318052
 20
151.9016666828
 30
0.0
 11
158.0008334979
 21
151.9016666828
 31
0.0
  0
LINE
  5
161
330
1F
100
AcDbEntity
  8
SLD-0
  6
Continuous
 62
   179
370
    30
100
AcDbLine
 10
158.0008334979
 20
151.9016666828
 30
0.0
 11
158.0008334979
 21
156.4016667219
 31
0.0
  0
LINE
  5
162
330
1F
100
AcDbEntity
  8
SLD-0
  6
Continuous
 62
   179
370
    30
100
AcDbLine
 10
152.8008348808
 20
156.4016667219
 30
0.0
 11
153.000834541
 21
156.4016667219
 31
0.0
  0
LINE
  5
163
330
1F
100
AcDbEntity
  8
SLD-0
  6
Continuous
 62
   179
370
    30
100
AcDbLine
 10
157.9008318052
 20
156.4016667219
 30
0.0
 11
158.0008334979
 21
156.4016667219
 31
0.0
  0
LINE
  5
164
330
1F
100
AcDbEntity
  8
SLD-0
  6
Continuous
 62
   179
370
    30
100
AcDbLine
 10
152.8008348808
 20
167.4016664295
 30
0.0
 11
153.000834541
 21
167.4016664295
 31
0.0
  0
LINE
  5
165
330
1F
100
AcDbEntity
  8
SLD-0
  6
Continuous
 62
   179
370
    30
100
AcDbLine
 10
157.9008318052
 20
167.4016664295
 30
0.0
 11
158.0008334979
 21
167.4016664295
 31
0.0
  0
LINE
  5
166
330
1F
100
AcDbEntity
  8
SLD-0
  6
Continuous
 62
   179
370
    30
100
AcDbLine
 10
152.8008348808
 20
171.9016662358
 30
0.0
 11
153.000834541
 21
171.9016662358
 31
0.0
  0
LINE
  5
167
330
1F
100
AcDbEntity
  8
SLD-0
  6
Continuous
 62
   179
370
    30
100
AcDbLine
 10
157.9008318052
 20
171.9016662358
 30
0.0
 11
158.0008334979
 21
171.9016662358
 31
0.0
  0
LINE
  5
168
330
1F
100
AcDbEntity
  8
SLD-0
  6
Continuous
 62
   179
370
    30
100
AcDbLine
 10
158.0008334979
 20
167.4016664295
 30
0.0
 11
158.0008334979
 21
171.9016662358
 31
0.0
  0
LINE
  5
169
330
1F
100
AcDbEntity
  8
SLD-0
  6
Continuous
 62
   179
370
    30
100
AcDbLine
 10
90.8508333333
 20
183.4016666667
 30
0.0
 11
90.8508333333
 21
182.4016666667
 31
0.0
  0
LINE
  5
16A
330
1F
100
AcDbEntity
  8
SLD-0
  6
Continuous
 62
   179
370
    30
100
AcDbLine
 10
90.8508333333
 20
182.4016666667
 30
0.0
 11
89.8508347139
 21
182.4016670256
 31
0.0
  0
LINE
  5
16B
330
1F
100
AcDbEntity
  8
SLD-0
  6
Continuous
 62
   179
370
    30
100
AcDbLine
 10
90.8508333333
 20
183.4016666667
 30
0.0
 11
90.8258325919
 21
183.4016671895
 31
0.0
  0
LINE
  5
16C
330
1F
100
AcDbEntity
  8
SLD-0
  6
Continuous
 62
   179
370
    30
100
AcDbLine
 10
88.8761572108
 20
139.4016664966
 30
0.0
 11
90.825512217
 21
139.4016664966
 31
0.0
  0
LINE
  5
16D
330
1F
100
AcDbEntity
  8
SLD-0
  6
Continuous
 62
   179
370
    30
100
AcDbLine
 10
88.8758368358
 20
140.4016666605
 30
0.0
 11
88.8508333333
 21
140.4016666667
 31
0.0
  0
LINE
  5
16E
330
1F
100
AcDbEntity
  8
SLD-0
  6
Continuous
 62
   179
370
    30
100
AcDbLine
 10
88.8508333333
 20
140.4016666667
 30
0.0
 11
88.8508333333
 21
141.4016666667
 31
0.0
  0
LINE
  5
16F
330
1F
100
AcDbEntity
  8
SLD-0
  6
Continuous
 62
   179
370
    30
100
AcDbLine
 10
89.8508347139
 20
141.4016668244
 30
0.0
 11
88.8508333333
 21
141.4016666667
 31
0.0
  0
LINE
  5
170
330
1F
100
AcDbEntity
  8
SLD-0
  6
Continuous
 62
   179
370
    30
100
AcDbLine
 10
90.8508333333
 20
140.4016666667
 30
0.0
 11
90.8258325919
 21
140.4016666605
 31
0.0
  0
LINE
  5
171
330
1F
100
AcDbEntity
  8
SLD-0
  6
Continuous
 62
   179
370
    30
100
AcDbLine
 10
90.8508333333
 20
140.4016666667
 30
0.0
 11
90.8508333333
 21
141.4016666667
 31
0.0
  0
LINE
  5
172
330
1F
100
AcDbEntity
  8
SLD-0
  6
Continuous
 62
   179
370
    30
100
AcDbLine
 10
90.8508333333
 20
141.4016666667
 30
0.0
 11
89.8508347139
 21
141.4016668244
 31
0.0
  0
LINE
  5
173
330
1F
100
AcDbEntity
  8
SLD-0
  6
Continuous
 62
   179
370
    30
100
AcDbLine
 10
88.8758368358
 20
183.4016671895
 30
0.0
 11
88.8508333333
 21
183.4016666667
 31
0.0
  0
LINE
  5
174
330
1F
100
AcDbEntity
  8
SLD-0
  6
Continuous
 62
   179
370
    30
100
AcDbLine
 10
89.8508347139
 20
182.4016670256
 30
0.0
 11
88.8508333333
 21
182.4016666667
 31
0.0
  0
LINE
  5
175
330
1F
100
AcDbEntity
  8
SLD-0
  6
Continuous
 62
   179
370
    30
100
AcDbLine
 10
88.8508333333
 20
183.4016666667
 30
0.0
 11
88.8508333333
 21
182.4016666667
 31
0.0
  0
LINE
  5
176
330
1F
100
AcDbEntity
  8
SLD-0
  6
Continuous
 62
   179
370
    30
100
AcDbLine
 10
88.8761538988
 20
184.4016666667
 30
0.0
 11
90.8255127678
 21
184.4016666667
 31
0.0
  0
LINE
  5
177
330
1F
100
AcDbEntity
  8
SLD-0
  6
Continuous
 62
   179
370
    30
100
AcDbLine
 10
87.3008362517
 20
184.4016673534
 30
0.0
 11
87.3008362517
 21
139.4016664966
 31
0.0
  0
LINE
  5
178
330
1F
100
AcDbEntity
  8
SLD-0
  6
Continuous
 62
   179
370
    30
100
AcDbLine
 10
90.8508333333
 20
183.4016666667
 30
0.0
 11
90.8508367404
 21
184.4016673534
 31
0.0
  0
LINE
  5
179
330
1F
100
AcDbEntity
  8
SLD-0
  6
Continuous
 62
   179
370
    30
100
AcDbLine
 10
92.2008297905
 20
184.4016673534
 30
0.0
 11
90.8508367404
 21
184.4016673534
 31
0.0
  0
LINE
  5
17A
330
1F
100
AcDbEntity
  8
SLD-0
  6
Continuous
 62
   179
370
    30
100
AcDbLine
 10
92.2008333333
 20
178.9016666667
 30
0.0
 11
92.2008297905
 21
184.4016673534
 31
0.0
  0
LINE
  5
17B
330
1F
100
AcDbEntity
  8
SLD-0
  6
Continuous
 62
   179
370
    30
100
AcDbLine
 10
92.2008333333
 20
163.9016666667
 30
0.0
 11
92.2008333333
 21
174.9016666667
 31
0.0
  0
LINE
  5
17C
330
1F
100
AcDbEntity
  8
SLD-0
  6
Continuous
 62
   179
370
    30
100
AcDbLine
 10
92.2008333333
 20
148.9016666667
 30
0.0
 11
92.2008333333
 21
159.9016666667
 31
0.0
  0
LINE
  5
17D
330
1F
100
AcDbEntity
  8
SLD-0
  6
Continuous
 62
   179
370
    30
100
AcDbLine
 10
92.2008297905
 20
139.4016664966
 30
0.0
 11
92.2008333333
 21
144.9016666667
 31
0.0
  0
LINE
  5
17E
330
1F
100
AcDbEntity
  8
SLD-0
  6
Continuous
 62
   179
370
    30
100
AcDbLine
 10
90.8508367404
 20
139.4016664966
 30
0.0
 11
92.2008297905
 21
139.4016664966
 31
0.0
  0
LINE
  5
17F
330
1F
100
AcDbEntity
  8
SLD-0
  6
Continuous
 62
   179
370
    30
100
AcDbLine
 10
90.8508333333
 20
140.4016666667
 30
0.0
 11
90.8508367404
 21
139.4016664966
 31
0.0
  0
LINE
  5
180
330
1F
100
AcDbEntity
  8
SLD-0
  6
Continuous
 62
   179
370
    30
100
AcDbLine
 10
88.8508326873
 20
184.4016673534
 30
0.0
 11
87.3008362517
 21
184.4016673534
 31
0.0
  0
LINE
  5
181
330
1F
100
AcDbEntity
  8
SLD-0
  6
Continuous
 62
   179
370
    30
100
AcDbLine
 10
88.8508333333
 20
183.4016666667
 30
0.0
 11
88.8508326873
 21
184.4016673534
 31
0.0
  0
LINE
  5
182
330
1F
100
AcDbEntity
  8
SLD-0
  6
Continuous
 62
   179
370
    30
100
AcDbLine
 10
87.3008362517
 20
139.4016664966
 30
0.0
 11
88.8508326873
 21
139.4016664966
 31
0.0
  0
LINE
  5
183
330
1F
100
AcDbEntity
  8
SLD-0
  6
Continuous
 62
   179
370
    30
100
AcDbLine
 10
88.8508333333
 20
140.4016666667
 30
0.0
 11
88.8508326873
 21
139.4016664966
 31
0.0
  0
LINE
  5
184
330
1F
100
AcDbEntity
  8
SLD-0
  6
Continuous
 62
   179
370
    30
100
AcDbLine
 10
92.2008297905
 20
156.4016667219
 30
0.0
 11
92.4008331761
 21
156.4016667219
 31
0.0
  0
LINE
  5
185
330
1F
100
AcDbEntity
  8
SLD-0
  6
Continuous
 62
   179
370
    30
100
AcDbLine
 10
97.3008341655
 20
156.4016667219
 30
0.0
 11
97.4008358583
 21
156.4016667219
 31
0.0
  0
LINE
  5
186
330
1F
100
AcDbEntity
  8
SLD-0
  6
Continuous
 62
   179
370
    30
100
AcDbLine
 10
92.2008297905
 20
151.9016666828
 30
0.0
 11
92.4008331761
 21
151.9016666828
 31
0.0
  0
LINE
  5
187
330
1F
100
AcDbEntity
  8
SLD-0
  6
Continuous
 62
   179
370
    30
100
AcDbLine
 10
97.3008341655
 20
151.9016666828
 30
0.0
 11
97.4008358583
 21
151.9016666828
 31
0.0
  0
LINE
  5
188
330
1F
100
AcDbEntity
  8
SLD-0
  6
Continuous
 62
   179
370
    30
100
AcDbLine
 10
92.2008297905
 20
171.9016662358
 30
0.0
 11
92.4008331761
 21
171.9016662358
 31
0.0
  0
LINE
  5
189
330
1F
100
AcDbEntity
  8
SLD-0
  6
Continuous
 62
   179
370
    30
100
AcDbLine
 10
97.3008341655
 20
171.9016662358
 30
0.0
 11
97.4008358583
 21
171.9016662358
 31
0.0
  0
LINE
  5
18A
330
1F
100
AcDbEntity
  8
SLD-0
  6
Continuous
 62
   179
370
    30
100
AcDbLine
 10
92.2008297905
 20
167.4016664295
 30
0.0
 11
92.4008331761
 21
167.4016664295
 31
0.0
  0
LINE
  5
18B
330
1F
100
AcDbEntity
  8
SLD-0
  6
Continuous
 62
   179
370
    30
100
AcDbLine
 10
97.3008341655
 20
167.4016664295
 30
0.0
 11
97.4008358583
 21
167.4016664295
 31
0.0
  0
LINE
  5
18C
330
1F
100
AcDbEntity
  8
SLD-0
  6
Continuous
 62
   179
370
    30
100
AcDbLine
 10
111.0508333333
 20
183.4016666667
 30
0.0
 11
111.0508333333
 21
182.4016666667
 31
0.0
  0
LINE
  5
18D
330
1F
100
AcDbEntity
  8
SLD-0
  6
Continuous
 62
   179
370
    30
100
AcDbLine
 10
111.0508333333
 20
183.4016666667
 30
0.0
 11
111.0258318052
 21
183.4016671895
 31
0.0
  0
LINE
  5
18E
330
1F
100
AcDbEntity
  8
SLD-0
  6
Continuous
 62
   179
370
    30
100
AcDbLine
 10
111.0508333333
 20
182.4016666667
 30
0.0
 11
110.0508339271
 21
182.4016670256
 31
0.0
  0
LINE
  5
18F
330
1F
100
AcDbEntity
  8
SLD-0
  6
Continuous
 62
   179
370
    30
100
AcDbLine
 10
109.076156424
 20
184.4016673534
 30
0.0
 11
111.0255114302
 21
184.4016673534
 31
0.0
  0
LINE
  5
190
330
1F
100
AcDbEntity
  8
SLD-0
  6
Continuous
 62
   179
370
    30
100
AcDbLine
 10
109.0508333333
 20
140.4016666667
 30
0.0
 11
109.0508333333
 21
141.4016666667
 31
0.0
  0
LINE
  5
191
330
1F
100
AcDbEntity
  8
SLD-0
  6
Continuous
 62
   179
370
    30
100
AcDbLine
 10
109.075836049
 20
140.4016666605
 30
0.0
 11
109.0508333333
 21
140.4016666667
 31
0.0
  0
LINE
  5
192
330
1F
100
AcDbEntity
  8
SLD-0
  6
Continuous
 62
   179
370
    30
100
AcDbLine
 10
110.0508339271
 20
141.4016668244
 30
0.0
 11
109.0508333333
 21
141.4016666667
 31
0.0
  0
LINE
  5
193
330
1F
100
AcDbEntity
  8
SLD-0
  6
Continuous
 62
   179
370
    30
100
AcDbLine
 10
109.075836049
 20
183.4016671895
 30
0.0
 11
109.0508333333
 21
183.4016666667
 31
0.0
  0
LINE
  5
194
330
1F
100
AcDbEntity
  8
SLD-0
  6
Continuous
 62
   179
370
    30
100
AcDbLine
 10
110.0508339271
 20
182.4016670256
 30
0.0
 11
109.0508333333
 21
182.4016666667
 31
0.0
  0
LINE
  5
195
330
1F
100
AcDbEntity
  8
SLD-0
  6
Continuous
 62
   179
370
    30
100
AcDbLine
 10
109.0508333333
 20
183.4016666667
 30
0.0
 11
109.0508333333
 21
182.4016666667
 31
0.0
  0
LINE
  5
196
330
1F
100
AcDbEntity
  8
SLD-0
  6
Continuous
 62
   179
370
    30
100
AcDbLine
 10
111.0508333333
 20
140.4016666667
 30
0.0
 11
111.0508333333
 21
141.4016666667
 31
0.0
  0
LINE
  5
197
330
1F
100
AcDbEntity
  8
SLD-0
  6
Continuous
 62
   179
370
    30
100
AcDbLine
 10
111.0508333333
 20
140.4016666667
 30
0.0
 11
111.0258318052
 21
140.4016666605
 31
0.0
  0
LINE
  5
198
330
1F
100
AcDbEntity
  8
SLD-0
  6
Continuous
 62
   179
370
    30
100
AcDbLine
 10
111.0508333333
 20
141.4016666667
 30
0.0
 11
110.0508339271
 21
141.4016668244
 31
0.0
  0
LINE
  5
199
330
1F
100
AcDbEntity
  8
SLD-0
  6
Continuous
 62
   179
370
    30
100
AcDbLine
 10
109.076156424
 20
139.4016664966
 30
0.0
 11
111.0255114302
 21
139.4016664966
 31
0.0
  0
LINE
  5
19A
330
1F
100
AcDbEntity
  8
SLD-0
  6
Continuous
 62
   179
370
    30
100
AcDbLine
 10
107.5008354649
 20
184.4016673534
 30
0.0
 11
107.5008354649
 21
139.4016664966
 31
0.0
  0
LINE
  5
19B
330
1F
100
AcDbEntity
  8
SLD-0
  6
Continuous
 62
   179
370
    30
100
AcDbLine
 10
109.0508319005
 20
184.4016673534
 30
0.0
 11
107.5008354649
 21
184.4016673534
 31
0.0
  0
LINE
  5
19C
330
1F
100
AcDbEntity
  8
SLD-0
  6
Continuous
 62
   179
370
    30
100
AcDbLine
 10
111.0508333333
 20
183.4016666667
 30
0.0
 11
111.0508359536
 21
184.4016673534
 31
0.0
  0
LINE
  5
19D
330
1F
100
AcDbEntity
  8
SLD-0
  6
Continuous
 62
   179
370
    30
100
AcDbLine
 10
112.4008364543
 20
184.4016673534
 30
0.0
 11
111.0508359536
 21
184.4016673534
 31
0.0
  0
LINE
  5
19E
330
1F
100
AcDbEntity
  8
SLD-0
  6
Continuous
 62
   179
370
    30
100
AcDbLine
 10
112.4008333333
 20
178.9016666667
 30
0.0
 11
112.4008364543
 21
184.4016673534
 31
0.0
  0
LINE
  5
19F
330
1F
100
AcDbEntity
  8
SLD-0
  6
Continuous
 62
   179
370
    30
100
AcDbLine
 10
112.4008333333
 20
163.9016666667
 30
0.0
 11
112.4008333333
 21
174.9016666667
 31
0.0
  0
LINE
  5
1A0
330
1F
100
AcDbEntity
  8
SLD-0
  6
Continuous
 62
   179
370
    30
100
AcDbLine
 10
112.4008333333
 20
148.9016666667
 30
0.0
 11
112.4008333333
 21
159.9016666667
 31
0.0
  0
LINE
  5
1A1
330
1F
100
AcDbEntity
  8
SLD-0
  6
Continuous
 62
   179
370
    30
100
AcDbLine
 10
112.4008364543
 20
139.4016664966
 30
0.0
 11
112.4008333333
 21
144.9016666667
 31
0.0
  0
LINE
  5
1A2
330
1F
100
AcDbEntity
  8
SLD-0
  6
Continuous
 62
   179
370
    30
100
AcDbLine
 10
111.0508359536
 20
139.4016664966
 30
0.0
 11
112.4008364543
 21
139.4016664966
 31
0.0
  0
LINE
  5
1A3
330
1F
100
AcDbEntity
  8
SLD-0
  6
Continuous
 62
   179
370
    30
100
AcDbLine
 10
111.0508333333
 20
140.4016666667
 30
0.0
 11
111.0508359536
 21
139.4016664966
 31
0.0
  0
LINE
  5
1A4
330
1F
100
AcDbEntity
  8
SLD-0
  6
Continuous
 62
   179
370
    30
100
AcDbLine
 10
109.0508333333
 20
140.4016666667
 30
0.0
 11
109.0508319005
 21
139.4016664966
 31
0.0
  0
LINE
  5
1A5
330
1F
100
AcDbEntity
  8
SLD-0
  6
Continuous
 62
   179
370
    30
100
AcDbLine
 10
107.5008354649
 20
139.4016664966
 30
0.0
 11
109.0508319005
 21
139.4016664966
 31
0.0
  0
LINE
  5
1A6
330
1F
100
AcDbEntity
  8
SLD-0
  6
Continuous
 62
   179
370
    30
100
AcDbLine
 10
109.0508333333
 20
183.4016666667
 30
0.0
 11
109.0508319005
 21
184.4016673534
 31
0.0
  0
LINE
  5
1A7
330
1F
100
AcDbEntity
  8
SLD-0
  6
Continuous
 62
   179
370
    30
100
AcDbLine
 10
112.4008364543
 20
156.4016667219
 30
0.0
 11
112.6008323893
 21
156.4016667219
 31
0.0
  0
LINE
  5
1A8
330
1F
100
AcDbEntity
  8
SLD-0
  6
Continuous
 62
   179
370
    30
100
AcDbLine
 10
117.5008333787
 20
156.4016667219
 30
0.0
 11
117.6008350715
 21
156.4016667219
 31
0.0
  0
LINE
  5
1A9
330
1F
100
AcDbEntity
  8
SLD-0
  6
Continuous
 62
   179
370
    30
100
AcDbLine
 10
112.4008364543
 20
151.9016666828
 30
0.0
 11
112.6008323893
 21
151.9016666828
 31
0.0
  0
LINE
  5
1AA
330
1F
100
AcDbEntity
  8
SLD-0
  6
Continuous
 62
   179
370
    30
100
AcDbLine
 10
117.5008333787
 20
151.9016666828
 30
0.0
 11
117.6008350715
 21
151.9016666828
 31
0.0
  0
LINE
  5
1AB
330
1F
100
AcDbEntity
  8
SLD-0
  6
Continuous
 62
   179
370
    30
100
AcDbLine
 10
112.4008364543
 20
167.4016664295
 30
0.0
 11
112.6008323893
 21
167.4016664295
 31
0.0
  0
LINE
  5
1AC
330
1F
100
AcDbEntity
  8
SLD-0
  6
Continuous
 62
   179
370
    30
100
AcDbLine
 10
117.5008333787
 20
167.4016664295
 30
0.0
 11
117.6008350715
 21
167.4016664295
 31
0.0
  0
LINE
  5
1AD
330
1F
100
AcDbEntity
  8
SLD-0
  6
Continuous
 62
   179
370
    30
100
AcDbLine
 10
112.4008364543
 20
171.9016662358
 30
0.0
 11
112.6008323893
 21
171.9016662358
 31
0.0
  0
LINE
  5
1AE
330
1F
100
AcDbEntity
  8
SLD-0
  6
Continuous
 62
   179
370
    30
100
AcDbLine
 10
117.5008333787
 20
171.9016662358
 30
0.0
 11
117.6008350715
 21
171.9016662358
 31
0.0
  0
LINE
  5
1AF
330
1F
100
AcDbEntity
  8
SLD-0
  6
Continuous
 62
   179
370
    30
100
AcDbLine
 10
80.7508333333
 20
140.4016666667
 30
0.0
 11
80.7508333333
 21
141.4016666667
 31
0.0
  0
LINE
  5
1B0
330
1F
100
AcDbEntity
  8
SLD-0
  6
Continuous
 62
   179
370
    30
100
AcDbLine
 10
80.7508333333
 20
140.4016666667
 30
0.0
 11
80.7258329853
 21
140.4016666605
 31
0.0
  0
LINE
  5
1B1
330
1F
100
AcDbEntity
  8
SLD-0
  6
Continuous
 62
   179
370
    30
100
AcDbLine
 10
80.7508333333
 20
141.4016666667
 30
0.0
 11
79.7508351072
 21
141.4016668244
 31
0.0
  0
LINE
  5
1B2
330
1F
100
AcDbEntity
  8
SLD-0
  6
Continuous
 62
   179
370
    30
100
AcDbLine
 10
79.7508351072
 20
141.4016668244
 30
0.0
 11
78.7508333333
 21
141.4016666667
 31
0.0
  0
LINE
  5
1B3
330
1F
100
AcDbEntity
  8
SLD-0
  6
Continuous
 62
   179
370
    30
100
AcDbLine
 10
78.7758372292
 20
140.4016666605
 30
0.0
 11
78.7508333333
 21
140.4016666667
 31
0.0
  0
LINE
  5
1B4
330
1F
100
AcDbEntity
  8
SLD-0
  6
Continuous
 62
   179
370
    30
100
AcDbLine
 10
78.7508333333
 20
140.4016666667
 30
0.0
 11
78.7508333333
 21
141.4016666667
 31
0.0
  0
LINE
  5
1B5
330
1F
100
AcDbEntity
  8
SLD-0
  6
Continuous
 62
   179
370
    30
100
AcDbLine
 10
78.7761538988
 20
139.4016666667
 30
0.0
 11
80.7255127678
 21
139.4016666667
 31
0.0
  0
LINE
  5
1B6
330
1F
100
AcDbEntity
  8
SLD-0
  6
Continuous
 62
   179
370
    30
100
AcDbLine
 10
80.7508333333
 20
183.4016666667
 30
0.0
 11
80.7508333333
 21
182.4016666667
 31
0.0
  0
LINE
  5
1B7
330
1F
100
AcDbEntity
  8
SLD-0
  6
Continuous
 62
   179
370
    30
100
AcDbLine
 10
80.7508333333
 20
182.4016666667
 30
0.0
 11
79.7508351073
 21
182.4016670255
 31
0.0
  0
LINE
  5
1B8
330
1F
100
AcDbEntity
  8
SLD-0
  6
Continuous
 62
   179
370
    30
100
AcDbLine
 10
80.7508333333
 20
183.4016666667
 30
0.0
 11
80.7258329853
 21
183.4016671895
 31
0.0
  0
LINE
  5
1B9
330
1F
100
AcDbEntity
  8
SLD-0
  6
Continuous
 62
   179
370
    30
100
AcDbLine
 10
78.7761538988
 20
184.4016666667
 30
0.0
 11
80.7255127678
 21
184.4016666667
 31
0.0
  0
LINE
  5
1BA
330
1F
100
AcDbEntity
  8
SLD-0
  6
Continuous
 62
   179
370
    30
100
AcDbLine
 10
78.7758372292
 20
183.4016671895
 30
0.0
 11
78.7508333333
 21
183.4016666667
 31
0.0
  0
LINE
  5
1BB
330
1F
100
AcDbEntity
  8
SLD-0
  6
Continuous
 62
   179
370
    30
100
AcDbLine
 10
79.7508351073
 20
182.4016670255
 30
0.0
 11
78.7508333333
 21
182.4016666667
 31
0.0
  0
LINE
  5
1BC
330
1F
100
AcDbEntity
  8
SLD-0
  6
Continuous
 62
   179
370
    30
100
AcDbLine
 10
78.7508333333
 20
183.4016666667
 30
0.0
 11
78.7508333333
 21
182.4016666667
 31
0.0
  0
LINE
  5
1BD
330
1F
100
AcDbEntity
  8
SLD-0
  6
Continuous
 62
   179
370
    30
100
AcDbLine
 10
77.2008291945
 20
184.4016673534
 30
0.0
 11
77.2008291945
 21
139.4016664966
 31
0.0
  0
LINE
  5
1BE
330
1F
100
AcDbEntity
  8
SLD-0
  6
Continuous
 62
   179
370
    30
100
AcDbLine
 10
78.7508330807
 20
184.4016673534
 30
0.0
 11
77.2008291945
 21
184.4016673534
 31
0.0
  0
LINE
  5
1BF
330
1F
100
AcDbEntity
  8
SLD-0
  6
Continuous
 62
   179
370
    30
100
AcDbLine
 10
78.7508333333
 20
183.4016666667
 30
0.0
 11
78.7508330807
 21
184.4016673534
 31
0.0
  0
LINE
  5
1C0
330
1F
100
AcDbEntity
  8
SLD-0
  6
Continuous
 62
   179
370
    30
100
AcDbLine
 10
80.7508333333
 20
183.4016666667
 30
0.0
 11
80.7508371338
 21
184.4016673534
 31
0.0
  0
LINE
  5
1C1
330
1F
100
AcDbEntity
  8
SLD-0
  6
Continuous
 62
   179
370
    30
100
AcDbLine
 10
82.1008376345
 20
184.4016673534
 30
0.0
 11
80.7508371338
 21
184.4016673534
 31
0.0
  0
LINE
  5
1C2
330
1F
100
AcDbEntity
  8
SLD-0
  6
Continuous
 62
   179
370
    30
100
AcDbLine
 10
82.1008333333
 20
178.9016666667
 30
0.0
 11
82.1008376345
 21
184.4016673534
 31
0.0
  0
LINE
  5
1C3
330
1F
100
AcDbEntity
  8
SLD-0
  6
Continuous
 62
   179
370
    30
100
AcDbLine
 10
82.1008333333
 20
163.9016666667
 30
0.0
 11
82.1008333333
 21
174.9016666667
 31
0.0
  0
LINE
  5
1C4
330
1F
100
AcDbEntity
  8
SLD-0
  6
Continuous
 62
   179
370
    30
100
AcDbLine
 10
82.1008333333
 20
148.9016666667
 30
0.0
 11
82.1008333333
 21
159.9016666667
 31
0.0
  0
LINE
  5
1C5
330
1F
100
AcDbEntity
  8
SLD-0
  6
Continuous
 62
   179
370
    30
100
AcDbLine
 10
82.1008376345
 20
139.4016664966
 30
0.0
 11
82.1008333333
 21
144.9016666667
 31
0.0
  0
LINE
  5
1C6
330
1F
100
AcDbEntity
  8
SLD-0
  6
Continuous
 62
   179
370
    30
100
AcDbLine
 10
80.7508371338
 20
139.4016664966
 30
0.0
 11
82.1008376345
 21
139.4016664966
 31
0.0
  0
LINE
  5
1C7
330
1F
100
AcDbEntity
  8
SLD-0
  6
Continuous
 62
   179
370
    30
100
AcDbLine
 10
80.7508333333
 20
140.4016666667
 30
0.0
 11
80.7508371338
 21
139.4016664966
 31
0.0
  0
LINE
  5
1C8
330
1F
100
AcDbEntity
  8
SLD-0
  6
Continuous
 62
   179
370
    30
100
AcDbLine
 10
78.7508333333
 20
140.4016666667
 30
0.0
 11
78.7508330807
 21
139.4016664966
 31
0.0
  0
LINE
  5
1C9
330
1F
100
AcDbEntity
  8
SLD-0
  6
Continuous
 62
   179
370
    30
100
AcDbLine
 10
77.2008291945
 20
139.4016664966
 30
0.0
 11
78.7508330807
 21
139.4016664966
 31
0.0
  0
LINE
  5
1CA
330
1F
100
AcDbEntity
  8
SLD-0
  6
Continuous
 62
   179
370
    30
100
AcDbLine
 10
82.1008376345
 20
167.4016664295
 30
0.0
 11
82.3008261189
 21
167.4016664295
 31
0.0
  0
LINE
  5
1CB
330
1F
100
AcDbEntity
  8
SLD-0
  6
Continuous
 62
   179
370
    30
100
AcDbLine
 10
87.2008345589
 20
167.4016664295
 30
0.0
 11
87.3008362517
 21
167.4016664295
 31
0.0
  0
LINE
  5
1CC
330
1F
100
AcDbEntity
  8
SLD-0
  6
Continuous
 62
   179
370
    30
100
AcDbLine
 10
82.1008376345
 20
171.9016662358
 30
0.0
 11
82.3008261189
 21
171.9016662358
 31
0.0
  0
LINE
  5
1CD
330
1F
100
AcDbEntity
  8
SLD-0
  6
Continuous
 62
   179
370
    30
100
AcDbLine
 10
87.2008345589
 20
171.9016662358
 30
0.0
 11
87.3008362517
 21
171.9016662358
 31
0.0
  0
LINE
  5
1CE
330
1F
100
AcDbEntity
  8
SLD-0
  6
Continuous
 62
   179
370
    30
100
AcDbLine
 10
82.1008376345
 20
156.4016667219
 30
0.0
 11
82.3008261189
 21
156.4016667219
 31
0.0
  0
LINE
  5
1CF
330
1F
100
AcDbEntity
  8
SLD-0
  6
Continuous
 62
   179
370
    30
100
AcDbLine
 10
87.2008345589
 20
156.4016667219
 30
0.0
 11
87.3008362517
 21
156.4016667219
 31
0.0
  0
LINE
  5
1D0
330
1F
100
AcDbEntity
  8
SLD-0
  6
Continuous
 62
   179
370
    30
100
AcDbLine
 10
82.1008376345
 20
151.9016666828
 30
0.0
 11
82.3008261189
 21
151.9016666828
 31
0.0
  0
LINE
  5
1D1
330
1F
100
AcDbEntity
  8
SLD-0
  6
Continuous
 62
   179
370
    30
100
AcDbLine
 10
87.2008345589
 20
151.9016666828
 30
0.0
 11
87.3008362517
 21
151.9016666828
 31
0.0
  0
LINE
  5
1D2
330
1F
100
AcDbEntity
  8
SLD-0
  6
Continuous
 62
   179
370
    30
100
AcDbLine
 10
121.1508333333
 20
183.4016666667
 30
0.0
 11
121.1508333333
 21
182.4016666667
 31
0.0
  0
LINE
  5
1D3
330
1F
100
AcDbEntity
  8
SLD-0
  6
Continuous
 62
   179
370
    30
100
AcDbLine
 10
121.1508333333
 20
183.4016666667
 30
0.0
 11
121.1258314118
 21
183.4016671895
 31
0.0
  0
LINE
  5
1D4
330
1F
100
AcDbEntity
  8
SLD-0
  6
Continuous
 62
   179
370
    30
100
AcDbLine
 10
121.1508333333
 20
182.4016666667
 30
0.0
 11
120.1508335337
 21
182.4016670256
 31
0.0
  0
LINE
  5
1D5
330
1F
100
AcDbEntity
  8
SLD-0
  6
Continuous
 62
   179
370
    30
100
AcDbLine
 10
119.1761538988
 20
139.4016666667
 30
0.0
 11
121.1255127678
 21
139.4016666667
 31
0.0
  0
LINE
  5
1D6
330
1F
100
AcDbEntity
  8
SLD-0
  6
Continuous
 62
   179
370
    30
100
AcDbLine
 10
119.1761560306
 20
184.4016673534
 30
0.0
 11
121.1255110368
 21
184.4016673534
 31
0.0
  0
LINE
  5
1D7
330
1F
100
AcDbEntity
  8
SLD-0
  6
Continuous
 62
   179
370
    30
100
AcDbLine
 10
119.1758356556
 20
140.4016666605
 30
0.0
 11
119.1508333333
 21
140.4016666667
 31
0.0
  0
LINE
  5
1D8
330
1F
100
AcDbEntity
  8
SLD-0
  6
Continuous
 62
   179
370
    30
100
AcDbLine
 10
119.1508333333
 20
140.4016666667
 30
0.0
 11
119.1508333333
 21
141.4016666667
 31
0.0
  0
LINE
  5
1D9
330
1F
100
AcDbEntity
  8
SLD-0
  6
Continuous
 62
   179
370
    30
100
AcDbLine
 10
120.1508335337
 20
141.4016668244
 30
0.0
 11
119.1508333333
 21
141.4016666667
 31
0.0
  0
LINE
  5
1DA
330
1F
100
AcDbEntity
  8
SLD-0
  6
Continuous
 62
   179
370
    30
100
AcDbLine
 10
119.1758356556
 20
183.4016671895
 30
0.0
 11
119.1508333333
 21
183.4016666667
 31
0.0
  0
LINE
  5
1DB
330
1F
100
AcDbEntity
  8
SLD-0
  6
Continuous
 62
   179
370
    30
100
AcDbLine
 10
119.1508333333
 20
183.4016666667
 30
0.0
 11
119.1508333333
 21
182.4016666667
 31
0.0
  0
LINE
  5
1DC
330
1F
100
AcDbEntity
  8
SLD-0
  6
Continuous
 62
   179
370
    30
100
AcDbLine
 10
120.1508335337
 20
182.4016670256
 30
0.0
 11
119.1508333333
 21
182.4016666667
 31
0.0
  0
LINE
  5
1DD
330
1F
100
AcDbEntity
  8
SLD-0
  6
Continuous
 62
   179
370
    30
100
AcDbLine
 10
121.1508333333
 20
140.4016666667
 30
0.0
 11
121.1258314118
 21
140.4016666605
 31
0.0
  0
LINE
  5
1DE
330
1F
100
AcDbEntity
  8
SLD-0
  6
Continuous
 62
   179
370
    30
100
AcDbLine
 10
121.1508333333
 20
141.4016666667
 30
0.0
 11
120.1508335337
 21
141.4016668244
 31
0.0
  0
LINE
  5
1DF
330
1F
100
AcDbEntity
  8
SLD-0
  6
Continuous
 62
   179
370
    30
100
AcDbLine
 10
121.1508333333
 20
140.4016666667
 30
0.0
 11
121.1508333333
 21
141.4016666667
 31
0.0
  0
LINE
  5
1E0
330
1F
100
AcDbEntity
  8
SLD-0
  6
Continuous
 62
   179
370
    30
100
AcDbLine
 10
117.6008350715
 20
184.4016673534
 30
0.0
 11
117.6008350715
 21
139.4016664966
 31
0.0
  0
LINE
  5
1E1
330
1F
100
AcDbEntity
  8
SLD-0
  6
Continuous
 62
   179
370
    30
100
AcDbLine
 10
121.1508333333
 20
183.4016666667
 30
0.0
 11
121.1508355602
 21
184.4016673534
 31
0.0
  0
LINE
  5
1E2
330
1F
100
AcDbEntity
  8
SLD-0
  6
Continuous
 62
   179
370
    30
100
AcDbLine
 10
122.5008360609
 20
184.4016673534
 30
0.0
 11
121.1508355602
 21
184.4016673534
 31
0.0
  0
LINE
  5
1E3
330
1F
100
AcDbEntity
  8
SLD-0
  6
Continuous
 62
   179
370
    30
100
AcDbLine
 10
122.5008333333
 20
178.9016666667
 30
0.0
 11
122.5008360609
 21
184.4016673534
 31
0.0
  0
LINE
  5
1E4
330
1F
100
AcDbEntity
  8
SLD-0
  6
Continuous
 62
   179
370
    30
100
AcDbLine
 10
122.5008333333
 20
163.9016666667
 30
0.0
 11
122.5008333333
 21
174.9016666667
 31
0.0
  0
LINE
  5
1E5
330
1F
100
AcDbEntity
  8
SLD-0
  6
Continuous
 62
   179
370
    30
100
AcDbLine
 10
122.5008333333
 20
148.9016666667
 30
0.0
 11
122.5008333333
 21
159.9016666667
 31
0.0
  0
LINE
  5
1E6
330
1F
100
AcDbEntity
  8
SLD-0
  6
Continuous
 62
   179
370
    30
100
AcDbLine
 10
122.5008360609
 20
139.4016664966
 30
0.0
 11
122.5008333333
 21
144.9016666667
 31
0.0
  0
LINE
  5
1E7
330
1F
100
AcDbEntity
  8
SLD-0
  6
Continuous
 62
   179
370
    30
100
AcDbLine
 10
121.1508355602
 20
139.4016664966
 30
0.0
 11
122.5008360609
 21
139.4016664966
 31
0.0
  0
LINE
  5
1E8
330
1F
100
AcDbEntity
  8
SLD-0
  6
Continuous
 62
   179
370
    30
100
AcDbLine
 10
121.1508333333
 20
140.4016666667
 30
0.0
 11
121.1508355602
 21
139.4016664966
 31
0.0
  0
LINE
  5
1E9
330
1F
100
AcDbEntity
  8
SLD-0
  6
Continuous
 62
   179
370
    30
100
AcDbLine
 10
119.1508333333
 20
140.4016666667
 30
0.0
 11
119.1508315071
 21
139.4016664966
 31
0.0
  0
LINE
  5
1EA
330
1F
100
AcDbEntity
  8
SLD-0
  6
Continuous
 62
   179
370
    30
100
AcDbLine
 10
119.1508315071
 20
184.4016673534
 30
0.0
 11
117.6008350715
 21
184.4016673534
 31
0.0
  0
LINE
  5
1EB
330
1F
100
AcDbEntity
  8
SLD-0
  6
Continuous
 62
   179
370
    30
100
AcDbLine
 10
119.1508333333
 20
183.4016666667
 30
0.0
 11
119.1508315071
 21
184.4016673534
 31
0.0
  0
LINE
  5
1EC
330
1F
100
AcDbEntity
  8
SLD-0
  6
Continuous
 62
   179
370
    30
100
AcDbLine
 10
117.6008350715
 20
139.4016664966
 30
0.0
 11
119.1508315071
 21
139.4016664966
 31
0.0
  0
LINE
  5
1ED
330
1F
100
AcDbEntity
  8
SLD-0
  6
Continuous
 62
   179
370
    30
100
AcDbLine
 10
122.5008360609
 20
151.9016666828
 30
0.0
 11
122.7008319959
 21
151.9016666828
 31
0.0
  0
LINE
  5
1EE
330
1F
100
AcDbEntity
  8
SLD-0
  6
Continuous
 62
   179
370
    30
100
AcDbLine
 10
127.6008329853
 20
151.9016666828
 30
0.0
 11
127.7008346781
 21
151.9016666828
 31
0.0
  0
LINE
  5
1EF
330
1F
100
AcDbEntity
  8
SLD-0
  6
Continuous
 62
   179
370
    30
100
AcDbLine
 10
122.5008360609
 20
156.4016667219
 30
0.0
 11
122.7008319959
 21
156.4016667219
 31
0.0
  0
LINE
  5
1F0
330
1F
100
AcDbEntity
  8
SLD-0
  6
Continuous
 62
   179
370
    30
100
AcDbLine
 10
127.6008329853
 20
156.4016667219
 30
0.0
 11
127.7008346781
 21
156.4016667219
 31
0.0
  0
LINE
  5
1F1
330
1F
100
AcDbEntity
  8
SLD-0
  6
Continuous
 62
   179
370
    30
100
AcDbLine
 10
122.5008360609
 20
171.9016662358
 30
0.0
 11
122.7008319959
 21
171.9016662358
 31
0.0
  0
LINE
  5
1F2
330
1F
100
AcDbEntity
  8
SLD-0
  6
Continuous
 62
   179
370
    30
100
AcDbLine
 10
127.6008329853
 20
171.9016662358
 30
0.0
 11
127.7008346781
 21
171.9016662358
 31
0.0
  0
LINE
  5
1F3
330
1F
100
AcDbEntity
  8
SLD-0
  6
Continuous
 62
   179
370
    30
100
AcDbLine
 10
122.5008360609
 20
167.4016664295
 30
0.0
 11
122.7008319959
 21
167.4016664295
 31
0.0
  0
LINE
  5
1F4
330
1F
100
AcDbEntity
  8
SLD-0
  6
Continuous
 62
   179
370
    30
100
AcDbLine
 10
127.6008329853
 20
167.4016664295
 30
0.0
 11
127.7008346781
 21
167.4016664295
 31
0.0
  0
LINE
  5
1F5
330
1F
100
AcDbEntity
  8
SLD-0
  6
Continuous
 62
   179
370
    30
100
AcDbLine
 10
70.6508333333
 20
140.4016666667
 30
0.0
 11
70.6508333333
 21
141.4016666667
 31
0.0
  0
LINE
  5
1F6
330
1F
100
AcDbEntity
  8
SLD-0
  6
Continuous
 62
   179
370
    30
100
AcDbLine
 10
70.6508333333
 20
140.4016666667
 30
0.0
 11
70.6258259281
 21
140.4016666605
 31
0.0
  0
LINE
  5
1F7
330
1F
100
AcDbEntity
  8
SLD-0
  6
Continuous
 62
   179
370
    30
100
AcDbLine
 10
70.6508333333
 20
141.4016666667
 30
0.0
 11
69.65082805
 21
141.4016668244
 31
0.0
  0
LINE
  5
1F8
330
1F
100
AcDbEntity
  8
SLD-0
  6
Continuous
 62
   179
370
    30
100
AcDbLine
 10
68.6508333333
 20
183.4016666667
 30
0.0
 11
68.6508333333
 21
182.4016666667
 31
0.0
  0
LINE
  5
1F9
330
1F
100
AcDbEntity
  8
SLD-0
  6
Continuous
 62
   179
370
    30
100
AcDbLine
 10
68.675830172
 20
183.4016671895
 30
0.0
 11
68.6508333333
 21
183.4016666667
 31
0.0
  0
LINE
  5
1FA
330
1F
100
AcDbEntity
  8
SLD-0
  6
Continuous
 62
   179
370
    30
100
AcDbLine
 10
69.6508280501
 20
182.4016670255
 30
0.0
 11
68.6508333333
 21
182.4016666667
 31
0.0
  0
LINE
  5
1FB
330
1F
100
AcDbEntity
  8
SLD-0
  6
Continuous
 62
   179
370
    30
100
AcDbLine
 10
68.6761579975
 20
139.4016664966
 30
0.0
 11
70.6255130038
 21
139.4016664966
 31
0.0
  0
LINE
  5
1FC
330
1F
100
AcDbEntity
  8
SLD-0
  6
Continuous
 62
   179
370
    30
100
AcDbLine
 10
68.6761579975
 20
184.4016673534
 30
0.0
 11
70.6255130038
 21
184.4016673534
 31
0.0
  0
LINE
  5
1FD
330
1F
100
AcDbEntity
  8
SLD-0
  6
Continuous
 62
   179
370
    30
100
AcDbLine
 10
69.65082805
 20
141.4016668244
 30
0.0
 11
68.6508333333
 21
141.4016666667
 31
0.0
  0
LINE
  5
1FE
330
1F
100
AcDbEntity
  8
SLD-0
  6
Continuous
 62
   179
370
    30
100
AcDbLine
 10
68.675830172
 20
140.4016666605
 30
0.0
 11
68.6508333333
 21
140.4016666667
 31
0.0
  0
LINE
  5
1FF
330
1F
100
AcDbEntity
  8
SLD-0
  6
Continuous
 62
   179
370
    30
100
AcDbLine
 10
68.6508333333
 20
140.4016666667
 30
0.0
 11
68.6508333333
 21
141.4016666667
 31
0.0
  0
LINE
  5
200
330
1F
100
AcDbEntity
  8
SLD-0
  6
Continuous
 62
   179
370
    30
100
AcDbLine
 10
70.6508333333
 20
183.4016666667
 30
0.0
 11
70.6508333333
 21
182.4016666667
 31
0.0
  0
LINE
  5
201
330
1F
100
AcDbEntity
  8
SLD-0
  6
Continuous
 62
   179
370
    30
100
AcDbLine
 10
70.6508333333
 20
182.4016666667
 30
0.0
 11
69.6508280501
 21
182.4016670255
 31
0.0
  0
LINE
  5
202
330
1F
100
AcDbEntity
  8
SLD-0
  6
Continuous
 62
   179
370
    30
100
AcDbLine
 10
70.6508333333
 20
183.4016666667
 30
0.0
 11
70.6258259281
 21
183.4016671895
 31
0.0
  0
LINE
  5
203
330
1F
100
AcDbEntity
  8
SLD-0
  6
Continuous
 62
   179
370
    30
100
AcDbLine
 10
67.1008370384
 20
184.4016673534
 30
0.0
 11
67.1008370384
 21
139.4016664966
 31
0.0
  0
LINE
  5
204
330
1F
100
AcDbEntity
  8
SLD-0
  6
Continuous
 62
   179
370
    30
100
AcDbLine
 10
68.6508333333
 20
183.4016666667
 30
0.0
 11
68.6508260235
 21
184.4016673534
 31
0.0
  0
LINE
  5
205
330
1F
100
AcDbEntity
  8
SLD-0
  6
Continuous
 62
   179
370
    30
100
AcDbLine
 10
70.6508333333
 20
183.4016666667
 30
0.0
 11
70.6508300766
 21
184.4016673534
 31
0.0
  0
LINE
  5
206
330
1F
100
AcDbEntity
  8
SLD-0
  6
Continuous
 62
   179
370
    30
100
AcDbLine
 10
72.0008305773
 20
184.4016673534
 30
0.0
 11
70.6508300766
 21
184.4016673534
 31
0.0
  0
LINE
  5
207
330
1F
100
AcDbEntity
  8
SLD-0
  6
Continuous
 62
   179
370
    30
100
AcDbLine
 10
72.0008333333
 20
178.9016666667
 30
0.0
 11
72.0008305773
 21
184.4016673534
 31
0.0
  0
LINE
  5
208
330
1F
100
AcDbEntity
  8
SLD-0
  6
Continuous
 62
   179
370
    30
100
AcDbLine
 10
72.0008333333
 20
163.9016666667
 30
0.0
 11
72.0008333333
 21
174.9016666667
 31
0.0
  0
LINE
  5
209
330
1F
100
AcDbEntity
  8
SLD-0
  6
Continuous
 62
   179
370
    30
100
AcDbLine
 10
72.0008333333
 20
148.9016666667
 30
0.0
 11
72.0008333333
 21
159.9016666667
 31
0.0
  0
LINE
  5
20A
330
1F
100
AcDbEntity
  8
SLD-0
  6
Continuous
 62
   179
370
    30
100
AcDbLine
 10
72.0008305773
 20
139.4016664966
 30
0.0
 11
72.0008333333
 21
144.9016666667
 31
0.0
  0
LINE
  5
20B
330
1F
100
AcDbEntity
  8
SLD-0
  6
Continuous
 62
   179
370
    30
100
AcDbLine
 10
70.6508300766
 20
139.4016664966
 30
0.0
 11
72.0008305773
 21
139.4016664966
 31
0.0
  0
LINE
  5
20C
330
1F
100
AcDbEntity
  8
SLD-0
  6
Continuous
 62
   179
370
    30
100
AcDbLine
 10
70.6508333333
 20
140.4016666667
 30
0.0
 11
70.6508300766
 21
139.4016664966
 31
0.0
  0
LINE
  5
20D
330
1F
100
AcDbEntity
  8
SLD-0
  6
Continuous
 62
   179
370
    30
100
AcDbLine
 10
68.6508260235
 20
184.4016673534
 30
0.0
 11
67.1008370384
 21
184.4016673534
 31
0.0
  0
LINE
  5
20E
330
1F
100
AcDbEntity
  8
SLD-0
  6
Continuous
 62
   179
370
    30
100
AcDbLine
 10
68.6508333333
 20
140.4016666667
 30
0.0
 11
68.6508260235
 21
139.4016664966
 31
0.0
  0
LINE
  5
20F
330
1F
100
AcDbEntity
  8
SLD-0
  6
Continuous
 62
   179
370
    30
100
AcDbLine
 10
67.1008370384
 20
139.4016664966
 30
0.0
 11
68.6508260235
 21
139.4016664966
 31
0.0
  0
LINE
  5
210
330
1F
100
AcDbEntity
  8
SLD-0
  6
Continuous
 62
   179
370
    30
100
AcDbLine
 10
72.0008305773
 20
151.9016666828
 30
0.0
 11
72.2008339628
 21
151.9016666828
 31
0.0
  0
LINE
  5
211
330
1F
100
AcDbEntity
  8
SLD-0
  6
Continuous
 62
   179
370
    30
100
AcDbLine
 10
77.1008275017
 20
151.9016666828
 30
0.0
 11
77.2008291945
 21
151.9016666828
 31
0.0
  0
LINE
  5
212
330
1F
100
AcDbEntity
  8
SLD-0
  6
Continuous
 62
   179
370
    30
100
AcDbLine
 10
72.0008305773
 20
156.4016667219
 30
0.0
 11
72.2008339628
 21
156.4016667219
 31
0.0
  0
LINE
  5
213
330
1F
100
AcDbEntity
  8
SLD-0
  6
Continuous
 62
   179
370
    30
100
AcDbLine
 10
77.1008275017
 20
156.4016667219
 30
0.0
 11
77.2008291945
 21
156.4016667219
 31
0.0
  0
LINE
  5
214
330
1F
100
AcDbEntity
  8
SLD-0
  6
Continuous
 62
   179
370
    30
100
AcDbLine
 10
72.0008305773
 20
167.4016664295
 30
0.0
 11
72.2008339628
 21
167.4016664295
 31
0.0
  0
LINE
  5
215
330
1F
100
AcDbEntity
  8
SLD-0
  6
Continuous
 62
   179
370
    30
100
AcDbLine
 10
77.1008275017
 20
167.4016664295
 30
0.0
 11
77.2008291945
 21
167.4016664295
 31
0.0
  0
LINE
  5
216
330
1F
100
AcDbEntity
  8
SLD-0
  6
Continuous
 62
   179
370
    30
100
AcDbLine
 10
72.0008305773
 20
171.9016662358
 30
0.0
 11
72.2008339628
 21
171.9016662358
 31
0.0
  0
LINE
  5
217
330
1F
100
AcDbEntity
  8
SLD-0
  6
Continuous
 62
   179
370
    30
100
AcDbLine
 10
77.1008275017
 20
171.9016662358
 30
0.0
 11
77.2008291945
 21
171.9016662358
 31
0.0
  0
LINE
  5
218
330
1F
100
AcDbEntity
  8
SLD-0
  6
Continuous
 62
   179
370
    30
100
AcDbLine
 10
131.2508333333
 20
182.4016666667
 30
0.0
 11
130.2508331404
 21
182.4016670256
 31
0.0
  0
LINE
  5
219
330
1F
100
AcDbEntity
  8
SLD-0
  6
Continuous
 62
   179
370
    30
100
AcDbLine
 10
131.2508333333
 20
183.4016666667
 30
0.0
 11
131.2258310184
 21
183.4016671895
 31
0.0
  0
LINE
  5
21A
330
1F
100
AcDbEntity
  8
SLD-0
  6
Continuous
 62
   179
370
    30
100
AcDbLine
 10
131.2508333333
 20
183.4016666667
 30
0.0
 11
131.2508333333
 21
182.4016666667
 31
0.0
  0
LINE
  5
21B
330
1F
100
AcDbEntity
  8
SLD-0
  6
Continuous
 62
   179
370
    30
100
AcDbLine
 10
129.2761538988
 20
184.4016666667
 30
0.0
 11
131.2255127678
 21
184.4016666667
 31
0.0
  0
LINE
  5
21C
330
1F
100
AcDbEntity
  8
SLD-0
  6
Continuous
 62
   179
370
    30
100
AcDbLine
 10
129.2758352622
 20
183.4016671895
 30
0.0
 11
129.2508333333
 21
183.4016666667
 31
0.0
  0
LINE
  5
21D
330
1F
100
AcDbEntity
  8
SLD-0
  6
Continuous
 62
   179
370
    30
100
AcDbLine
 10
130.2508331404
 20
182.4016670256
 30
0.0
 11
129.2508333333
 21
182.4016666667
 31
0.0
  0
LINE
  5
21E
330
1F
100
AcDbEntity
  8
SLD-0
  6
Continuous
 62
   179
370
    30
100
AcDbLine
 10
129.2508333333
 20
183.4016666667
 30
0.0
 11
129.2508333333
 21
182.4016666667
 31
0.0
  0
LINE
  5
21F
330
1F
100
AcDbEntity
  8
SLD-0
  6
Continuous
 62
   179
370
    30
100
AcDbLine
 10
131.2508333333
 20
140.4016666667
 30
0.0
 11
131.2258310184
 21
140.4016666605
 31
0.0
  0
LINE
  5
220
330
1F
100
AcDbEntity
  8
SLD-0
  6
Continuous
 62
   179
370
    30
100
AcDbLine
 10
131.2508333333
 20
141.4016666667
 30
0.0
 11
130.2508331403
 21
141.4016668244
 31
0.0
  0
LINE
  5
221
330
1F
100
AcDbEntity
  8
SLD-0
  6
Continuous
 62
   179
370
    30
100
AcDbLine
 10
131.2508333333
 20
140.4016666667
 30
0.0
 11
131.2508333333
 21
141.4016666667
 31
0.0
  0
LINE
  5
222
330
1F
100
AcDbEntity
  8
SLD-0
  6
Continuous
 62
   179
370
    30
100
AcDbLine
 10
129.2758352622
 20
140.4016666605
 30
0.0
 11
129.2508333333
 21
140.4016666667
 31
0.0
  0
LINE
  5
223
330
1F
100
AcDbEntity
  8
SLD-0
  6
Continuous
 62
   179
370
    30
100
AcDbLine
 10
129.2508333333
 20
140.4016666667
 30
0.0
 11
129.2508333333
 21
141.4016666667
 31
0.0
  0
LINE
  5
224
330
1F
100
AcDbEntity
  8
SLD-0
  6
Continuous
 62
   179
370
    30
100
AcDbLine
 10
130.2508331403
 20
141.4016668244
 30
0.0
 11
129.2508333333
 21
141.4016666667
 31
0.0
  0
LINE
  5
225
330
1F
100
AcDbEntity
  8
SLD-0
  6
Continuous
 62
   179
370
    30
100
AcDbLine
 10
129.2761538988
 20
139.4016666667
 30
0.0
 11
131.2255127678
 21
139.4016666667
 31
0.0
  0
LINE
  5
226
330
1F
100
AcDbEntity
  8
SLD-0
  6
Continuous
 62
   179
370
    30
100
AcDbLine
 10
127.7008346781
 20
184.4016673534
 30
0.0
 11
127.7008346781
 21
139.4016664966
 31
0.0
  0
LINE
  5
227
330
1F
100
AcDbEntity
  8
SLD-0
  6
Continuous
 62
   179
370
    30
100
AcDbLine
 10
131.2508333333
 20
183.4016666667
 30
0.0
 11
131.2508351669
 21
184.4016673534
 31
0.0
  0
LINE
  5
228
330
1F
100
AcDbEntity
  8
SLD-0
  6
Continuous
 62
   179
370
    30
100
AcDbLine
 10
132.6008356675
 20
184.4016673534
 30
0.0
 11
131.2508351669
 21
184.4016673534
 31
0.0
  0
LINE
  5
229
330
1F
100
AcDbEntity
  8
SLD-0
  6
Continuous
 62
   179
370
    30
100
AcDbLine
 10
132.6008333333
 20
178.9016666667
 30
0.0
 11
132.6008356675
 21
184.4016673534
 31
0.0
  0
LINE
  5
22A
330
1F
100
AcDbEntity
  8
SLD-0
  6
Continuous
 62
   179
370
    30
100
AcDbLine
 10
132.6008333333
 20
163.9016666667
 30
0.0
 11
132.6008333333
 21
174.9016666667
 31
0.0
  0
LINE
  5
22B
330
1F
100
AcDbEntity
  8
SLD-0
  6
Continuous
 62
   179
370
    30
100
AcDbLine
 10
132.6008333333
 20
148.9016666667
 30
0.0
 11
132.6008333333
 21
159.9016666667
 31
0.0
  0
LINE
  5
22C
330
1F
100
AcDbEntity
  8
SLD-0
  6
Continuous
 62
   179
370
    30
100
AcDbLine
 10
132.6008356675
 20
139.4016664966
 30
0.0
 11
132.6008333333
 21
144.9016666667
 31
0.0
  0
LINE
  5
22D
330
1F
100
AcDbEntity
  8
SLD-0
  6
Continuous
 62
   179
370
    30
100
AcDbLine
 10
131.2508351669
 20
139.4016664966
 30
0.0
 11
132.6008356675
 21
139.4016664966
 31
0.0
  0
LINE
  5
22E
330
1F
100
AcDbEntity
  8
SLD-0
  6
Continuous
 62
   179
370
    30
100
AcDbLine
 10
131.2508333333
 20
140.4016666667
 30
0.0
 11
131.2508351669
 21
139.4016664966
 31
0.0
  0
LINE
  5
22F
330
1F
100
AcDbEntity
  8
SLD-0
  6
Continuous
 62
   179
370
    30
100
AcDbLine
 10
129.2508333333
 20
183.4016666667
 30
0.0
 11
129.2508311137
 21
184.4016673534
 31
0.0
  0
LINE
  5
230
330
1F
100
AcDbEntity
  8
SLD-0
  6
Continuous
 62
   179
370
    30
100
AcDbLine
 10
129.2508333333
 20
140.4016666667
 30
0.0
 11
129.2508311137
 21
139.4016664966
 31
0.0
  0
LINE
  5
231
330
1F
100
AcDbEntity
  8
SLD-0
  6
Continuous
 62
   179
370
    30
100
AcDbLine
 10
127.7008346781
 20
139.4016664966
 30
0.0
 11
129.2508311137
 21
139.4016664966
 31
0.0
  0
LINE
  5
232
330
1F
100
AcDbEntity
  8
SLD-0
  6
Continuous
 62
   179
370
    30
100
AcDbLine
 10
129.2508311137
 20
184.4016673534
 30
0.0
 11
127.7008346781
 21
184.4016673534
 31
0.0
  0
LINE
  5
233
330
1F
100
AcDbEntity
  8
SLD-0
  6
Continuous
 62
   179
370
    30
100
AcDbLine
 10
132.6008356675
 20
151.9016666828
 30
0.0
 11
132.8008316025
 21
151.9016666828
 31
0.0
  0
LINE
  5
234
330
1F
100
AcDbEntity
  8
SLD-0
  6
Continuous
 62
   179
370
    30
100
AcDbLine
 10
137.7008325919
 20
151.9016666828
 30
0.0
 11
137.8008342847
 21
151.9016666828
 31
0.0
  0
LINE
  5
235
330
1F
100
AcDbEntity
  8
SLD-0
  6
Continuous
 62
   179
370
    30
100
AcDbLine
 10
132.6008356675
 20
156.4016667219
 30
0.0
 11
132.8008316025
 21
156.4016667219
 31
0.0
  0
LINE
  5
236
330
1F
100
AcDbEntity
  8
SLD-0
  6
Continuous
 62
   179
370
    30
100
AcDbLine
 10
137.7008325919
 20
156.4016667219
 30
0.0
 11
137.8008342847
 21
156.4016667219
 31
0.0
  0
LINE
  5
237
330
1F
100
AcDbEntity
  8
SLD-0
  6
Continuous
 62
   179
370
    30
100
AcDbLine
 10
132.6008356675
 20
171.9016662358
 30
0.0
 11
132.8008316025
 21
171.9016662358
 31
0.0
  0
LINE
  5
238
330
1F
100
AcDbEntity
  8
SLD-0
  6
Continuous
 62
   179
370
    30
100
AcDbLine
 10
137.7008325919
 20
171.9016662358
 30
0.0
 11
137.8008342847
 21
171.9016662358
 31
0.0
  0
LINE
  5
239
330
1F
100
AcDbEntity
  8
SLD-0
  6
Continuous
 62
   179
370
    30
100
AcDbLine
 10
132.6008356675
 20
167.4016664295
 30
0.0
 11
132.8008316025
 21
167.4016664295
 31
0.0
  0
LINE
  5
23A
330
1F
100
AcDbEntity
  8
SLD-0
  6
Continuous
 62
   179
370
    30
100
AcDbLine
 10
137.7008325919
 20
167.4016664295
 30
0.0
 11
137.8008342847
 21
167.4016664295
 31
0.0
  0
LINE
  5
23B
330
1F
100
AcDbEntity
  8
SLD-0
  6
Continuous
 62
   179
370
    30
100
AcDbLine
 10
65.5508333333
 20
183.4016666667
 30
0.0
 11
65.5258290037
 21
183.4016671895
 31
0.0
  0
LINE
  5
23C
330
1F
100
AcDbEntity
  8
SLD-0
  6
Continuous
 62
   179
370
    30
100
AcDbLine
 10
65.5508333333
 20
183.4016666667
 30
0.0
 11
65.5508333333
 21
182.4016666667
 31
0.0
  0
LINE
  5
23D
330
1F
100
AcDbEntity
  8
SLD-0
  6
Continuous
 62
   179
370
    30
100
AcDbLine
 10
65.5508333333
 20
182.4016666667
 30
0.0
 11
64.5508311257
 21
182.4016670255
 31
0.0
  0
LINE
  5
23E
330
1F
100
AcDbEntity
  8
SLD-0
  6
Continuous
 62
   179
370
    30
100
AcDbLine
 10
63.5761610731
 20
139.4016664966
 30
0.0
 11
65.5255160794
 21
139.4016664966
 31
0.0
  0
LINE
  5
23F
330
1F
100
AcDbEntity
  8
SLD-0
  6
Continuous
 62
   179
370
    30
100
AcDbLine
 10
65.5508333333
 20
140.4016666667
 30
0.0
 11
65.5508333333
 21
141.4016666667
 31
0.0
  0
LINE
  5
240
330
1F
100
AcDbEntity
  8
SLD-0
  6
Continuous
 62
   179
370
    30
100
AcDbLine
 10
65.5508333333
 20
140.4016666667
 30
0.0
 11
65.5258290037
 21
140.4016666605
 31
0.0
  0
LINE
  5
241
330
1F
100
AcDbEntity
  8
SLD-0
  6
Continuous
 62
   179
370
    30
100
AcDbLine
 10
65.5508333333
 20
141.4016666667
 30
0.0
 11
64.5508311256
 21
141.4016668244
 31
0.0
  0
LINE
  5
242
330
1F
100
AcDbEntity
  8
SLD-0
  6
Continuous
 62
   179
370
    30
100
AcDbLine
 10
63.5758332476
 20
183.4016671895
 30
0.0
 11
63.5508333333
 21
183.4016666667
 31
0.0
  0
LINE
  5
243
330
1F
100
AcDbEntity
  8
SLD-0
  6
Continuous
 62
   179
370
    30
100
AcDbLine
 10
63.5508333333
 20
183.4016666667
 30
0.0
 11
63.5508333333
 21
182.4016666667
 31
0.0
  0
LINE
  5
244
330
1F
100
AcDbEntity
  8
SLD-0
  6
Continuous
 62
   179
370
    30
100
AcDbLine
 10
64.5508311257
 20
182.4016670255
 30
0.0
 11
63.5508333333
 21
182.4016666667
 31
0.0
  0
LINE
  5
245
330
1F
100
AcDbEntity
  8
SLD-0
  6
Continuous
 62
   179
370
    30
100
AcDbLine
 10
64.5508311256
 20
141.4016668244
 30
0.0
 11
63.5508333333
 21
141.4016666667
 31
0.0
  0
LINE
  5
246
330
1F
100
AcDbEntity
  8
SLD-0
  6
Continuous
 62
   179
370
    30
100
AcDbLine
 10
63.5758332476
 20
140.4016666605
 30
0.0
 11
63.5508333333
 21
140.4016666667
 31
0.0
  0
LINE
  5
247
330
1F
100
AcDbEntity
  8
SLD-0
  6
Continuous
 62
   179
370
    30
100
AcDbLine
 10
63.5508333333
 20
140.4016666667
 30
0.0
 11
63.5508333333
 21
141.4016666667
 31
0.0
  0
LINE
  5
248
330
1F
100
AcDbEntity
  8
SLD-0
  6
Continuous
 62
   179
370
    30
100
AcDbLine
 10
63.5761538988
 20
184.4016666667
 30
0.0
 11
65.5255127678
 21
184.4016666667
 31
0.0
  0
LINE
  5
249
330
1F
100
AcDbEntity
  8
SLD-0
  6
Continuous
 62
   179
370
    30
100
AcDbLine
 10
63.5508333333
 20
140.4016666667
 30
0.0
 11
63.5508290991
 21
139.4016664966
 31
0.0
  0
LINE
  5
24A
330
1F
100
AcDbEntity
  8
SLD-0
  6
Continuous
 62
   179
370
    30
100
AcDbLine
 10
62.1008269057
 20
139.4016664966
 30
0.0
 11
63.5508290991
 21
139.4016664966
 31
0.0
  0
LINE
  5
24B
330
1F
100
AcDbEntity
  8
SLD-0
  6
Continuous
 62
   179
370
    30
100
AcDbLine
 10
62.1008333333
 20
144.9016666667
 30
0.0
 11
62.1008269057
 21
139.4016664966
 31
0.0
  0
LINE
  5
24C
330
1F
100
AcDbEntity
  8
SLD-0
  6
Continuous
 62
   179
370
    30
100
AcDbLine
 10
62.1008333333
 20
159.9016666667
 30
0.0
 11
62.1008333333
 21
148.9016666667
 31
0.0
  0
LINE
  5
24D
330
1F
100
AcDbEntity
  8
SLD-0
  6
Continuous
 62
   179
370
    30
100
AcDbLine
 10
62.1008333333
 20
174.9016666667
 30
0.0
 11
62.1008333333
 21
163.9016666667
 31
0.0
  0
LINE
  5
24E
330
1F
100
AcDbEntity
  8
SLD-0
  6
Continuous
 62
   179
370
    30
100
AcDbLine
 10
62.1008269057
 20
184.4016673534
 30
0.0
 11
62.1008333333
 21
178.9016666667
 31
0.0
  0
LINE
  5
24F
330
1F
100
AcDbEntity
  8
SLD-0
  6
Continuous
 62
   179
370
    30
100
AcDbLine
 10
63.5508290991
 20
184.4016673534
 30
0.0
 11
62.1008269057
 21
184.4016673534
 31
0.0
  0
LINE
  5
250
330
1F
100
AcDbEntity
  8
SLD-0
  6
Continuous
 62
   179
370
    30
100
AcDbLine
 10
65.5508333333
 20
183.4016666667
 30
0.0
 11
65.5508331522
 21
184.4016673534
 31
0.0
  0
LINE
  5
251
330
1F
100
AcDbEntity
  8
SLD-0
  6
Continuous
 62
   179
370
    30
100
AcDbLine
 10
67.0008353457
 20
184.4016673534
 30
0.0
 11
65.5508331522
 21
184.4016673534
 31
0.0
  0
LINE
  5
252
330
1F
100
AcDbEntity
  8
SLD-0
  6
Continuous
 62
   179
370
    30
100
AcDbLine
 10
67.0008353457
 20
139.4016664966
 30
0.0
 11
67.0008353457
 21
184.4016673534
 31
0.0
  0
LINE
  5
253
330
1F
100
AcDbEntity
  8
SLD-0
  6
Continuous
 62
   179
370
    30
100
AcDbLine
 10
65.5508331522
 20
139.4016664966
 30
0.0
 11
67.0008353457
 21
139.4016664966
 31
0.0
  0
LINE
  5
254
330
1F
100
AcDbEntity
  8
SLD-0
  6
Continuous
 62
   179
370
    30
100
AcDbLine
 10
65.5508333333
 20
140.4016666667
 30
0.0
 11
65.5508331522
 21
139.4016664966
 31
0.0
  0
LINE
  5
255
330
1F
100
AcDbEntity
  8
SLD-0
  6
Continuous
 62
   179
370
    30
100
AcDbLine
 10
63.5508333333
 20
183.4016666667
 30
0.0
 11
63.5508290991
 21
184.4016673534
 31
0.0
  0
LINE
  5
256
330
1F
100
AcDbEntity
  8
SLD-0
  6
Continuous
 62
   179
370
    30
100
AcDbLine
 10
144.3508333333
 20
140.4016666667
 30
0.0
 11
144.3508333333
 21
141.4016666667
 31
0.0
  0
LINE
  5
257
330
1F
100
AcDbEntity
  8
SLD-0
  6
Continuous
 62
   179
370
    30
100
AcDbLine
 10
145.3508354291
 20
141.4016668244
 30
0.0
 11
144.3508333333
 21
141.4016666667
 31
0.0
  0
LINE
  5
258
330
1F
100
AcDbEntity
  8
SLD-0
  6
Continuous
 62
   179
370
    30
100
AcDbLine
 10
144.3758301005
 20
140.4016666605
 30
0.0
 11
144.3508333333
 21
140.4016666667
 31
0.0
  0
LINE
  5
259
330
1F
100
AcDbEntity
  8
SLD-0
  6
Continuous
 62
   179
370
    30
100
AcDbLine
 10
144.3761504754
 20
184.4016673534
 30
0.0
 11
146.3255129322
 21
184.4016673534
 31
0.0
  0
LINE
  5
25A
330
1F
100
AcDbEntity
  8
SLD-0
  6
Continuous
 62
   179
370
    30
100
AcDbLine
 10
146.3508333333
 20
140.4016666667
 30
0.0
 11
146.3258333072
 21
140.4016666605
 31
0.0
  0
LINE
  5
25B
330
1F
100
AcDbEntity
  8
SLD-0
  6
Continuous
 62
   179
370
    30
100
AcDbLine
 10
146.3508333333
 20
141.4016666667
 30
0.0
 11
145.3508354291
 21
141.4016668244
 31
0.0
  0
LINE
  5
25C
330
1F
100
AcDbEntity
  8
SLD-0
  6
Continuous
 62
   179
370
    30
100
AcDbLine
 10
146.3508333333
 20
140.4016666667
 30
0.0
 11
146.3508333333
 21
141.4016666667
 31
0.0
  0
LINE
  5
25D
330
1F
100
AcDbEntity
  8
SLD-0
  6
Continuous
 62
   179
370
    30
100
AcDbLine
 10
144.3758301005
 20
183.4016671895
 30
0.0
 11
144.3508333333
 21
183.4016666667
 31
0.0
  0
LINE
  5
25E
330
1F
100
AcDbEntity
  8
SLD-0
  6
Continuous
 62
   179
370
    30
100
AcDbLine
 10
145.3508354291
 20
182.4016670256
 30
0.0
 11
144.3508333333
 21
182.4016666667
 31
0.0
  0
LINE
  5
25F
330
1F
100
AcDbEntity
  8
SLD-0
  6
Continuous
 62
   179
370
    30
100
AcDbLine
 10
144.3508333333
 20
183.4016666667
 30
0.0
 11
144.3508333333
 21
182.4016666667
 31
0.0
  0
LINE
  5
260
330
1F
100
AcDbEntity
  8
SLD-0
  6
Continuous
 62
   179
370
    30
100
AcDbLine
 10
146.3508333333
 20
183.4016666667
 30
0.0
 11
146.3258333072
 21
183.4016671895
 31
0.0
  0
LINE
  5
261
330
1F
100
AcDbEntity
  8
SLD-0
  6
Continuous
 62
   179
370
    30
100
AcDbLine
 10
146.3508333333
 20
182.4016666667
 30
0.0
 11
145.3508354291
 21
182.4016670256
 31
0.0
  0
LINE
  5
262
330
1F
100
AcDbEntity
  8
SLD-0
  6
Continuous
 62
   179
370
    30
100
AcDbLine
 10
146.3508333333
 20
183.4016666667
 30
0.0
 11
146.3508333333
 21
182.4016666667
 31
0.0
  0
LINE
  5
263
330
1F
100
AcDbEntity
  8
SLD-0
  6
Continuous
 62
   179
370
    30
100
AcDbLine
 10
144.3761538988
 20
139.4016666667
 30
0.0
 11
146.3255127678
 21
139.4016666667
 31
0.0
  0
LINE
  5
264
330
1F
100
AcDbEntity
  8
SLD-0
  6
Continuous
 62
   179
370
    30
100
AcDbLine
 10
144.3508333333
 20
140.4016666667
 30
0.0
 11
144.3508334026
 21
139.4016664966
 31
0.0
  0
LINE
  5
265
330
1F
100
AcDbEntity
  8
SLD-0
  6
Continuous
 62
   179
370
    30
100
AcDbLine
 10
142.9008312091
 20
139.4016664966
 30
0.0
 11
144.3508334026
 21
139.4016664966
 31
0.0
  0
LINE
  5
266
330
1F
100
AcDbEntity
  8
SLD-0
  6
Continuous
 62
   179
370
    30
100
AcDbLine
 10
142.9008333333
 20
144.9016666667
 30
0.0
 11
142.9008312091
 21
139.4016664966
 31
0.0
  0
LINE
  5
267
330
1F
100
AcDbEntity
  8
SLD-0
  6
Continuous
 62
   179
370
    30
100
AcDbLine
 10
142.9008333333
 20
159.9016666667
 30
0.0
 11
142.9008333333
 21
148.9016666667
 31
0.0
  0
LINE
  5
268
330
1F
100
AcDbEntity
  8
SLD-0
  6
Continuous
 62
   179
370
    30
100
AcDbLine
 10
142.9008333333
 20
174.9016666667
 30
0.0
 11
142.9008333333
 21
163.9016666667
 31
0.0
  0
LINE
  5
269
330
1F
100
AcDbEntity
  8
SLD-0
  6
Continuous
 62
   179
370
    30
100
AcDbLine
 10
142.9008312091
 20
184.4016673534
 30
0.0
 11
142.9008333333
 21
178.9016666667
 31
0.0
  0
LINE
  5
26A
330
1F
100
AcDbEntity
  8
SLD-0
  6
Continuous
 62
   179
370
    30
100
AcDbLine
 10
144.3508334026
 20
184.4016673534
 30
0.0
 11
142.9008312091
 21
184.4016673534
 31
0.0
  0
LINE
  5
26B
330
1F
100
AcDbEntity
  8
SLD-0
  6
Continuous
 62
   179
370
    30
100
AcDbLine
 10
144.3508333333
 20
183.4016666667
 30
0.0
 11
144.3508334026
 21
184.4016673534
 31
0.0
  0
LINE
  5
26C
330
1F
100
AcDbEntity
  8
SLD-0
  6
Continuous
 62
   179
370
    30
100
AcDbLine
 10
146.3508333333
 20
183.4016666667
 30
0.0
 11
146.3508300051
 21
184.4016673534
 31
0.0
  0
LINE
  5
26D
330
1F
100
AcDbEntity
  8
SLD-0
  6
Continuous
 62
   179
370
    30
100
AcDbLine
 10
147.8008321985
 20
184.4016673534
 30
0.0
 11
146.3508300051
 21
184.4016673534
 31
0.0
  0
LINE
  5
26E
330
1F
100
AcDbEntity
  8
SLD-0
  6
Continuous
 62
   179
370
    30
100
AcDbLine
 10
147.8008321985
 20
139.4016664966
 30
0.0
 11
147.8008321985
 21
184.4016673534
 31
0.0
  0
LINE
  5
26F
330
1F
100
AcDbEntity
  8
SLD-0
  6
Continuous
 62
   179
370
    30
100
AcDbLine
 10
146.3508300051
 20
139.4016664966
 30
0.0
 11
147.8008321985
 21
139.4016664966
 31
0.0
  0
LINE
  5
270
330
1F
100
AcDbEntity
  8
SLD-0
  6
Continuous
 62
   179
370
    30
100
AcDbLine
 10
146.3508333333
 20
140.4016666667
 30
0.0
 11
146.3508300051
 21
139.4016664966
 31
0.0
  0
LINE
  5
271
330
1F
100
AcDbEntity
  8
SLD-0
  6
Continuous
 62
   179
370
    30
100
AcDbLine
 10
75.6508333333
 20
140.4016666667
 30
0.0
 11
75.6508333333
 21
141.4016666667
 31
0.0
  0
LINE
  5
272
330
1F
100
AcDbEntity
  8
SLD-0
  6
Continuous
 62
   179
370
    30
100
AcDbLine
 10
75.6508333333
 20
140.4016666667
 30
0.0
 11
75.6258360609
 21
140.4016666605
 31
0.0
  0
LINE
  5
273
330
1F
100
AcDbEntity
  8
SLD-0
  6
Continuous
 62
   179
370
    30
100
AcDbLine
 10
75.6508333333
 20
141.4016666667
 30
0.0
 11
74.6508381828
 21
141.4016668244
 31
0.0
  0
LINE
  5
274
330
1F
100
AcDbEntity
  8
SLD-0
  6
Continuous
 62
   179
370
    30
100
AcDbLine
 10
73.6758403048
 20
183.4016671895
 30
0.0
 11
73.6508333333
 21
183.4016666667
 31
0.0
  0
LINE
  5
275
330
1F
100
AcDbEntity
  8
SLD-0
  6
Continuous
 62
   179
370
    30
100
AcDbLine
 10
74.6508381828
 20
182.4016670255
 30
0.0
 11
73.6508333333
 21
182.4016666667
 31
0.0
  0
LINE
  5
276
330
1F
100
AcDbEntity
  8
SLD-0
  6
Continuous
 62
   179
370
    30
100
AcDbLine
 10
73.6508333333
 20
183.4016666667
 30
0.0
 11
73.6508333333
 21
182.4016666667
 31
0.0
  0
LINE
  5
277
330
1F
100
AcDbEntity
  8
SLD-0
  6
Continuous
 62
   179
370
    30
100
AcDbLine
 10
75.6508333333
 20
182.4016666667
 30
0.0
 11
74.6508381828
 21
182.4016670255
 31
0.0
  0
LINE
  5
278
330
1F
100
AcDbEntity
  8
SLD-0
  6
Continuous
 62
   179
370
    30
100
AcDbLine
 10
75.6508333333
 20
183.4016666667
 30
0.0
 11
75.6258360609
 21
183.4016671895
 31
0.0
  0
LINE
  5
279
330
1F
100
AcDbEntity
  8
SLD-0
  6
Continuous
 62
   179
370
    30
100
AcDbLine
 10
75.6508333333
 20
183.4016666667
 30
0.0
 11
75.6508333333
 21
182.4016666667
 31
0.0
  0
LINE
  5
27A
330
1F
100
AcDbEntity
  8
SLD-0
  6
Continuous
 62
   179
370
    30
100
AcDbLine
 10
73.6761538988
 20
184.4016666667
 30
0.0
 11
75.6255127678
 21
184.4016666667
 31
0.0
  0
LINE
  5
27B
330
1F
100
AcDbEntity
  8
SLD-0
  6
Continuous
 62
   179
370
    30
100
AcDbLine
 10
73.6761538988
 20
139.4016666667
 30
0.0
 11
75.6255127678
 21
139.4016666667
 31
0.0
  0
LINE
  5
27C
330
1F
100
AcDbEntity
  8
SLD-0
  6
Continuous
 62
   179
370
    30
100
AcDbLine
 10
73.6758403048
 20
140.4016666605
 30
0.0
 11
73.6508333333
 21
140.4016666667
 31
0.0
  0
LINE
  5
27D
330
1F
100
AcDbEntity
  8
SLD-0
  6
Continuous
 62
   179
370
    30
100
AcDbLine
 10
73.6508333333
 20
140.4016666667
 30
0.0
 11
73.6508333333
 21
141.4016666667
 31
0.0
  0
LINE
  5
27E
330
1F
100
AcDbEntity
  8
SLD-0
  6
Continuous
 62
   179
370
    30
100
AcDbLine
 10
74.6508381828
 20
141.4016668244
 30
0.0
 11
73.6508333333
 21
141.4016666667
 31
0.0
  0
LINE
  5
27F
330
1F
100
AcDbEntity
  8
SLD-0
  6
Continuous
 62
   179
370
    30
100
AcDbLine
 10
72.2008339628
 20
139.4016664966
 30
0.0
 11
73.6508361563
 21
139.4016664966
 31
0.0
  0
LINE
  5
280
330
1F
100
AcDbEntity
  8
SLD-0
  6
Continuous
 62
   179
370
    30
100
AcDbLine
 10
72.2008333333
 20
144.9016666667
 30
0.0
 11
72.2008339628
 21
139.4016664966
 31
0.0
  0
LINE
  5
281
330
1F
100
AcDbEntity
  8
SLD-0
  6
Continuous
 62
   179
370
    30
100
AcDbLine
 10
72.2008333333
 20
159.9016666667
 30
0.0
 11
72.2008333333
 21
148.9016666667
 31
0.0
  0
LINE
  5
282
330
1F
100
AcDbEntity
  8
SLD-0
  6
Continuous
 62
   179
370
    30
100
AcDbLine
 10
72.2008333333
 20
174.9016666667
 30
0.0
 11
72.2008333333
 21
163.9016666667
 31
0.0
  0
LINE
  5
283
330
1F
100
AcDbEntity
  8
SLD-0
  6
Continuous
 62
   179
370
    30
100
AcDbLine
 10
72.2008339628
 20
184.4016673534
 30
0.0
 11
72.2008333333
 21
178.9016666667
 31
0.0
  0
LINE
  5
284
330
1F
100
AcDbEntity
  8
SLD-0
  6
Continuous
 62
   179
370
    30
100
AcDbLine
 10
73.6508361563
 20
184.4016673534
 30
0.0
 11
72.2008339628
 21
184.4016673534
 31
0.0
  0
LINE
  5
285
330
1F
100
AcDbEntity
  8
SLD-0
  6
Continuous
 62
   179
370
    30
100
AcDbLine
 10
75.6508333333
 20
183.4016666667
 30
0.0
 11
75.6508402094
 21
184.4016673534
 31
0.0
  0
LINE
  5
286
330
1F
100
AcDbEntity
  8
SLD-0
  6
Continuous
 62
   179
370
    30
100
AcDbLine
 10
77.1008275017
 20
184.4016673534
 30
0.0
 11
75.6508402094
 21
184.4016673534
 31
0.0
  0
LINE
  5
287
330
1F
100
AcDbEntity
  8
SLD-0
  6
Continuous
 62
   179
370
    30
100
AcDbLine
 10
77.1008275017
 20
139.4016664966
 30
0.0
 11
77.1008275017
 21
184.4016673534
 31
0.0
  0
LINE
  5
288
330
1F
100
AcDbEntity
  8
SLD-0
  6
Continuous
 62
   179
370
    30
100
AcDbLine
 10
75.6508402094
 20
139.4016664966
 30
0.0
 11
77.1008275017
 21
139.4016664966
 31
0.0
  0
LINE
  5
289
330
1F
100
AcDbEntity
  8
SLD-0
  6
Continuous
 62
   179
370
    30
100
AcDbLine
 10
75.6508333333
 20
140.4016666667
 30
0.0
 11
75.6508402094
 21
139.4016664966
 31
0.0
  0
LINE
  5
28A
330
1F
100
AcDbEntity
  8
SLD-0
  6
Continuous
 62
   179
370
    30
100
AcDbLine
 10
73.6508333333
 20
183.4016666667
 30
0.0
 11
73.6508361563
 21
184.4016673534
 31
0.0
  0
LINE
  5
28B
330
1F
100
AcDbEntity
  8
SLD-0
  6
Continuous
 62
   179
370
    30
100
AcDbLine
 10
73.6508333333
 20
140.4016666667
 30
0.0
 11
73.6508361563
 21
139.4016664966
 31
0.0
  0
LINE
  5
28C
330
1F
100
AcDbEntity
  8
SLD-0
  6
Continuous
 62
   179
370
    30
100
AcDbLine
 10
134.2508333333
 20
183.4016666667
 30
0.0
 11
134.2508333333
 21
182.4016666667
 31
0.0
  0
LINE
  5
28D
330
1F
100
AcDbEntity
  8
SLD-0
  6
Continuous
 62
   179
370
    30
100
AcDbLine
 10
134.2758304939
 20
183.4016671895
 30
0.0
 11
134.2508333333
 21
183.4016666667
 31
0.0
  0
LINE
  5
28E
330
1F
100
AcDbEntity
  8
SLD-0
  6
Continuous
 62
   179
370
    30
100
AcDbLine
 10
135.2508358225
 20
182.4016670256
 30
0.0
 11
134.2508333333
 21
182.4016666667
 31
0.0
  0
LINE
  5
28F
330
1F
100
AcDbEntity
  8
SLD-0
  6
Continuous
 62
   179
370
    30
100
AcDbLine
 10
134.2761508688
 20
139.4016664966
 30
0.0
 11
136.2255133256
 21
139.4016664966
 31
0.0
  0
LINE
  5
290
330
1F
100
AcDbEntity
  8
SLD-0
  6
Continuous
 62
   179
370
    30
100
AcDbLine
 10
134.2761508688
 20
184.4016673534
 30
0.0
 11
136.2255133256
 21
184.4016673534
 31
0.0
  0
LINE
  5
291
330
1F
100
AcDbEntity
  8
SLD-0
  6
Continuous
 62
   179
370
    30
100
AcDbLine
 10
136.2508333333
 20
140.4016666667
 30
0.0
 11
136.2508333333
 21
141.4016666667
 31
0.0
  0
LINE
  5
292
330
1F
100
AcDbEntity
  8
SLD-0
  6
Continuous
 62
   179
370
    30
100
AcDbLine
 10
136.2508333333
 20
140.4016666667
 30
0.0
 11
136.2258337006
 21
140.4016666605
 31
0.0
  0
LINE
  5
293
330
1F
100
AcDbEntity
  8
SLD-0
  6
Continuous
 62
   179
370
    30
100
AcDbLine
 10
136.2508333333
 20
141.4016666667
 30
0.0
 11
135.2508358225
 21
141.4016668244
 31
0.0
  0
LINE
  5
294
330
1F
100
AcDbEntity
  8
SLD-0
  6
Continuous
 62
   179
370
    30
100
AcDbLine
 10
134.2758304939
 20
140.4016666605
 30
0.0
 11
134.2508333333
 21
140.4016666667
 31
0.0
  0
LINE
  5
295
330
1F
100
AcDbEntity
  8
SLD-0
  6
Continuous
 62
   179
370
    30
100
AcDbLine
 10
134.2508333333
 20
140.4016666667
 30
0.0
 11
134.2508333333
 21
141.4016666667
 31
0.0
  0
LINE
  5
296
330
1F
100
AcDbEntity
  8
SLD-0
  6
Continuous
 62
   179
370
    30
100
AcDbLine
 10
135.2508358225
 20
141.4016668244
 30
0.0
 11
134.2508333333
 21
141.4016666667
 31
0.0
  0
LINE
  5
297
330
1F
100
AcDbEntity
  8
SLD-0
  6
Continuous
 62
   179
370
    30
100
AcDbLine
 10
136.2508333333
 20
183.4016666667
 30
0.0
 11
136.2258337006
 21
183.4016671895
 31
0.0
  0
LINE
  5
298
330
1F
100
AcDbEntity
  8
SLD-0
  6
Continuous
 62
   179
370
    30
100
AcDbLine
 10
136.2508333333
 20
183.4016666667
 30
0.0
 11
136.2508333333
 21
182.4016666667
 31
0.0
  0
LINE
  5
299
330
1F
100
AcDbEntity
  8
SLD-0
  6
Continuous
 62
   179
370
    30
100
AcDbLine
 10
136.2508333333
 20
182.4016666667
 30
0.0
 11
135.2508358225
 21
182.4016670256
 31
0.0
  0
LINE
  5
29A
330
1F
100
AcDbEntity
  8
SLD-0
  6
Continuous
 62
   179
370
    30
100
AcDbLine
 10
132.8008333333
 20
144.9016666667
 30
0.0
 11
132.8008316025
 21
139.4016664966
 31
0.0
  0
LINE
  5
29B
330
1F
100
AcDbEntity
  8
SLD-0
  6
Continuous
 62
   179
370
    30
100
AcDbLine
 10
132.8008333333
 20
159.9016666667
 30
0.0
 11
132.8008333333
 21
148.9016666667
 31
0.0
  0
LINE
  5
29C
330
1F
100
AcDbEntity
  8
SLD-0
  6
Continuous
 62
   179
370
    30
100
AcDbLine
 10
132.8008333333
 20
174.9016666667
 30
0.0
 11
132.8008333333
 21
163.9016666667
 31
0.0
  0
LINE
  5
29D
330
1F
100
AcDbEntity
  8
SLD-0
  6
Continuous
 62
   179
370
    30
100
AcDbLine
 10
132.8008316025
 20
184.4016673534
 30
0.0
 11
132.8008333333
 21
178.9016666667
 31
0.0
  0
LINE
  5
29E
330
1F
100
AcDbEntity
  8
SLD-0
  6
Continuous
 62
   179
370
    30
100
AcDbLine
 10
134.2508333333
 20
183.4016666667
 30
0.0
 11
134.2508337959
 21
184.4016673534
 31
0.0
  0
LINE
  5
29F
330
1F
100
AcDbEntity
  8
SLD-0
  6
Continuous
 62
   179
370
    30
100
AcDbLine
 10
136.2508333333
 20
183.4016666667
 30
0.0
 11
136.2508303985
 21
184.4016673534
 31
0.0
  0
LINE
  5
2A0
330
1F
100
AcDbEntity
  8
SLD-0
  6
Continuous
 62
   179
370
    30
100
AcDbLine
 10
137.7008325919
 20
184.4016673534
 30
0.0
 11
136.2508303985
 21
184.4016673534
 31
0.0
  0
LINE
  5
2A1
330
1F
100
AcDbEntity
  8
SLD-0
  6
Continuous
 62
   179
370
    30
100
AcDbLine
 10
137.7008325919
 20
139.4016664966
 30
0.0
 11
137.7008325919
 21
184.4016673534
 31
0.0
  0
LINE
  5
2A2
330
1F
100
AcDbEntity
  8
SLD-0
  6
Continuous
 62
   179
370
    30
100
AcDbLine
 10
136.2508303985
 20
139.4016664966
 30
0.0
 11
137.7008325919
 21
139.4016664966
 31
0.0
  0
LINE
  5
2A3
330
1F
100
AcDbEntity
  8
SLD-0
  6
Continuous
 62
   179
370
    30
100
AcDbLine
 10
136.2508333333
 20
140.4016666667
 30
0.0
 11
136.2508303985
 21
139.4016664966
 31
0.0
  0
LINE
  5
2A4
330
1F
100
AcDbEntity
  8
SLD-0
  6
Continuous
 62
   179
370
    30
100
AcDbLine
 10
132.8008316025
 20
139.4016664966
 30
0.0
 11
134.2508337959
 21
139.4016664966
 31
0.0
  0
LINE
  5
2A5
330
1F
100
AcDbEntity
  8
SLD-0
  6
Continuous
 62
   179
370
    30
100
AcDbLine
 10
134.2508337959
 20
184.4016673534
 30
0.0
 11
132.8008316025
 21
184.4016673534
 31
0.0
  0
LINE
  5
2A6
330
1F
100
AcDbEntity
  8
SLD-0
  6
Continuous
 62
   179
370
    30
100
AcDbLine
 10
134.2508333333
 20
140.4016666667
 30
0.0
 11
134.2508337959
 21
139.4016664966
 31
0.0
  0
LINE
  5
2A7
330
1F
100
AcDbEntity
  8
SLD-0
  6
Continuous
 62
   179
370
    30
100
AcDbLine
 10
83.7508333333
 20
183.4016666667
 30
0.0
 11
83.7508333333
 21
182.4016666667
 31
0.0
  0
LINE
  5
2A8
330
1F
100
AcDbEntity
  8
SLD-0
  6
Continuous
 62
   179
370
    30
100
AcDbLine
 10
83.7758324608
 20
183.4016671895
 30
0.0
 11
83.7508333333
 21
183.4016666667
 31
0.0
  0
LINE
  5
2A9
330
1F
100
AcDbEntity
  8
SLD-0
  6
Continuous
 62
   179
370
    30
100
AcDbLine
 10
84.7508303389
 20
182.4016670255
 30
0.0
 11
83.7508333333
 21
182.4016666667
 31
0.0
  0
LINE
  5
2AA
330
1F
100
AcDbEntity
  8
SLD-0
  6
Continuous
 62
   179
370
    30
100
AcDbLine
 10
85.7508333333
 20
140.4016666667
 30
0.0
 11
85.7508333333
 21
141.4016666667
 31
0.0
  0
LINE
  5
2AB
330
1F
100
AcDbEntity
  8
SLD-0
  6
Continuous
 62
   179
370
    30
100
AcDbLine
 10
85.7508333333
 20
140.4016666667
 30
0.0
 11
85.7258356675
 21
140.4016666605
 31
0.0
  0
LINE
  5
2AC
330
1F
100
AcDbEntity
  8
SLD-0
  6
Continuous
 62
   179
370
    30
100
AcDbLine
 10
85.7508333333
 20
141.4016666667
 30
0.0
 11
84.7508303389
 21
141.4016668244
 31
0.0
  0
LINE
  5
2AD
330
1F
100
AcDbEntity
  8
SLD-0
  6
Continuous
 62
   179
370
    30
100
AcDbLine
 10
83.7761602864
 20
139.4016664966
 30
0.0
 11
85.7255152926
 21
139.4016664966
 31
0.0
  0
LINE
  5
2AE
330
1F
100
AcDbEntity
  8
SLD-0
  6
Continuous
 62
   179
370
    30
100
AcDbLine
 10
83.7761602864
 20
184.4016673534
 30
0.0
 11
85.7255152926
 21
184.4016673534
 31
0.0
  0
LINE
  5
2AF
330
1F
100
AcDbEntity
  8
SLD-0
  6
Continuous
 62
   179
370
    30
100
AcDbLine
 10
84.7508303389
 20
141.4016668244
 30
0.0
 11
83.7508333333
 21
141.4016666667
 31
0.0
  0
LINE
  5
2B0
330
1F
100
AcDbEntity
  8
SLD-0
  6
Continuous
 62
   179
370
    30
100
AcDbLine
 10
83.7758324608
 20
140.4016666605
 30
0.0
 11
83.7508333333
 21
140.4016666667
 31
0.0
  0
LINE
  5
2B1
330
1F
100
AcDbEntity
  8
SLD-0
  6
Continuous
 62
   179
370
    30
100
AcDbLine
 10
83.7508333333
 20
140.4016666667
 30
0.0
 11
83.7508333333
 21
141.4016666667
 31
0.0
  0
LINE
  5
2B2
330
1F
100
AcDbEntity
  8
SLD-0
  6
Continuous
 62
   179
370
    30
100
AcDbLine
 10
85.7508333333
 20
183.4016666667
 30
0.0
 11
85.7258356675
 21
183.4016671895
 31
0.0
  0
LINE
  5
2B3
330
1F
100
AcDbEntity
  8
SLD-0
  6
Continuous
 62
   179
370
    30
100
AcDbLine
 10
85.7508333333
 20
183.4016666667
 30
0.0
 11
85.7508333333
 21
182.4016666667
 31
0.0
  0
LINE
  5
2B4
330
1F
100
AcDbEntity
  8
SLD-0
  6
Continuous
 62
   179
370
    30
100
AcDbLine
 10
85.7508333333
 20
182.4016666667
 30
0.0
 11
84.7508303389
 21
182.4016670255
 31
0.0
  0
LINE
  5
2B5
330
1F
100
AcDbEntity
  8
SLD-0
  6
Continuous
 62
   179
370
    30
100
AcDbLine
 10
83.7508333333
 20
140.4016666667
 30
0.0
 11
83.7508283123
 21
139.4016664966
 31
0.0
  0
LINE
  5
2B6
330
1F
100
AcDbEntity
  8
SLD-0
  6
Continuous
 62
   179
370
    30
100
AcDbLine
 10
82.3008333333
 20
144.9016666667
 30
0.0
 11
82.3008261189
 21
139.4016664966
 31
0.0
  0
LINE
  5
2B7
330
1F
100
AcDbEntity
  8
SLD-0
  6
Continuous
 62
   179
370
    30
100
AcDbLine
 10
82.3008333333
 20
159.9016666667
 30
0.0
 11
82.3008333333
 21
148.9016666667
 31
0.0
  0
LINE
  5
2B8
330
1F
100
AcDbEntity
  8
SLD-0
  6
Continuous
 62
   179
370
    30
100
AcDbLine
 10
82.3008333333
 20
174.9016666667
 30
0.0
 11
82.3008333333
 21
163.9016666667
 31
0.0
  0
LINE
  5
2B9
330
1F
100
AcDbEntity
  8
SLD-0
  6
Continuous
 62
   179
370
    30
100
AcDbLine
 10
82.3008261189
 20
184.4016673534
 30
0.0
 11
82.3008333333
 21
178.9016666667
 31
0.0
  0
LINE
  5
2BA
330
1F
100
AcDbEntity
  8
SLD-0
  6
Continuous
 62
   179
370
    30
100
AcDbLine
 10
83.7508283123
 20
184.4016673534
 30
0.0
 11
82.3008261189
 21
184.4016673534
 31
0.0
  0
LINE
  5
2BB
330
1F
100
AcDbEntity
  8
SLD-0
  6
Continuous
 62
   179
370
    30
100
AcDbLine
 10
83.7508333333
 20
183.4016666667
 30
0.0
 11
83.7508283123
 21
184.4016673534
 31
0.0
  0
LINE
  5
2BC
330
1F
100
AcDbEntity
  8
SLD-0
  6
Continuous
 62
   179
370
    30
100
AcDbLine
 10
85.7508333333
 20
183.4016666667
 30
0.0
 11
85.7508323654
 21
184.4016673534
 31
0.0
  0
LINE
  5
2BD
330
1F
100
AcDbEntity
  8
SLD-0
  6
Continuous
 62
   179
370
    30
100
AcDbLine
 10
87.2008345589
 20
184.4016673534
 30
0.0
 11
85.7508323654
 21
184.4016673534
 31
0.0
  0
LINE
  5
2BE
330
1F
100
AcDbEntity
  8
SLD-0
  6
Continuous
 62
   179
370
    30
100
AcDbLine
 10
87.2008345589
 20
139.4016664966
 30
0.0
 11
87.2008345589
 21
184.4016673534
 31
0.0
  0
LINE
  5
2BF
330
1F
100
AcDbEntity
  8
SLD-0
  6
Continuous
 62
   179
370
    30
100
AcDbLine
 10
85.7508323654
 20
139.4016664966
 30
0.0
 11
87.2008345589
 21
139.4016664966
 31
0.0
  0
LINE
  5
2C0
330
1F
100
AcDbEntity
  8
SLD-0
  6
Continuous
 62
   179
370
    30
100
AcDbLine
 10
85.7508333333
 20
140.4016666667
 30
0.0
 11
85.7508323654
 21
139.4016664966
 31
0.0
  0
LINE
  5
2C1
330
1F
100
AcDbEntity
  8
SLD-0
  6
Continuous
 62
   179
370
    30
100
AcDbLine
 10
82.3008261189
 20
139.4016664966
 30
0.0
 11
83.7508283123
 21
139.4016664966
 31
0.0
  0
LINE
  5
2C2
330
1F
100
AcDbEntity
  8
SLD-0
  6
Continuous
 62
   179
370
    30
100
AcDbLine
 10
124.1761512622
 20
184.4016673534
 30
0.0
 11
126.125513719
 21
184.4016673534
 31
0.0
  0
LINE
  5
2C3
330
1F
100
AcDbEntity
  8
SLD-0
  6
Continuous
 62
   179
370
    30
100
AcDbLine
 10
126.1508333333
 20
182.4016666667
 30
0.0
 11
125.1508362159
 21
182.4016670256
 31
0.0
  0
LINE
  5
2C4
330
1F
100
AcDbEntity
  8
SLD-0
  6
Continuous
 62
   179
370
    30
100
AcDbLine
 10
126.1508333333
 20
183.4016666667
 30
0.0
 11
126.125834094
 21
183.4016671895
 31
0.0
  0
LINE
  5
2C5
330
1F
100
AcDbEntity
  8
SLD-0
  6
Continuous
 62
   179
370
    30
100
AcDbLine
 10
126.1508333333
 20
183.4016666667
 30
0.0
 11
126.1508333333
 21
182.4016666667
 31
0.0
  0
LINE
  5
2C6
330
1F
100
AcDbEntity
  8
SLD-0
  6
Continuous
 62
   179
370
    30
100
AcDbLine
 10
124.1761538988
 20
139.4016666667
 30
0.0
 11
126.1255127678
 21
139.4016666667
 31
0.0
  0
LINE
  5
2C7
330
1F
100
AcDbEntity
  8
SLD-0
  6
Continuous
 62
   179
370
    30
100
AcDbLine
 10
124.1758308872
 20
183.4016671895
 30
0.0
 11
124.1508333333
 21
183.4016666667
 31
0.0
  0
LINE
  5
2C8
330
1F
100
AcDbEntity
  8
SLD-0
  6
Continuous
 62
   179
370
    30
100
AcDbLine
 10
125.1508362159
 20
182.4016670256
 30
0.0
 11
124.1508333333
 21
182.4016666667
 31
0.0
  0
LINE
  5
2C9
330
1F
100
AcDbEntity
  8
SLD-0
  6
Continuous
 62
   179
370
    30
100
AcDbLine
 10
124.1508333333
 20
183.4016666667
 30
0.0
 11
124.1508333333
 21
182.4016666667
 31
0.0
  0
LINE
  5
2CA
330
1F
100
AcDbEntity
  8
SLD-0
  6
Continuous
 62
   179
370
    30
100
AcDbLine
 10
126.1508333333
 20
140.4016666667
 30
0.0
 11
126.125834094
 21
140.4016666605
 31
0.0
  0
LINE
  5
2CB
330
1F
100
AcDbEntity
  8
SLD-0
  6
Continuous
 62
   179
370
    30
100
AcDbLine
 10
126.1508333333
 20
141.4016666667
 30
0.0
 11
125.1508362159
 21
141.4016668244
 31
0.0
  0
LINE
  5
2CC
330
1F
100
AcDbEntity
  8
SLD-0
  6
Continuous
 62
   179
370
    30
100
AcDbLine
 10
126.1508333333
 20
140.4016666667
 30
0.0
 11
126.1508333333
 21
141.4016666667
 31
0.0
  0
LINE
  5
2CD
330
1F
100
AcDbEntity
  8
SLD-0
  6
Continuous
 62
   179
370
    30
100
AcDbLine
 10
124.1758308872
 20
140.4016666605
 30
0.0
 11
124.1508333333
 21
140.4016666667
 31
0.0
  0
LINE
  5
2CE
330
1F
100
AcDbEntity
  8
SLD-0
  6
Continuous
 62
   179
370
    30
100
AcDbLine
 10
124.1508333333
 20
140.4016666667
 30
0.0
 11
124.1508333333
 21
141.4016666667
 31
0.0
  0
LINE
  5
2CF
330
1F
100
AcDbEntity
  8
SLD-0
  6
Continuous
 62
   179
370
    30
100
AcDbLine
 10
125.1508362159
 20
141.4016668244
 30
0.0
 11
124.1508333333
 21
141.4016666667
 31
0.0
  0
LINE
  5
2D0
330
1F
100
AcDbEntity
  8
SLD-0
  6
Continuous
 62
   179
370
    30
100
AcDbLine
 10
124.1508333333
 20
140.4016666667
 30
0.0
 11
124.1508341893
 21
139.4016664966
 31
0.0
  0
LINE
  5
2D1
330
1F
100
AcDbEntity
  8
SLD-0
  6
Continuous
 62
   179
370
    30
100
AcDbLine
 10
122.7008319959
 20
139.4016664966
 30
0.0
 11
124.1508341893
 21
139.4016664966
 31
0.0
  0
LINE
  5
2D2
330
1F
100
AcDbEntity
  8
SLD-0
  6
Continuous
 62
   179
370
    30
100
AcDbLine
 10
122.7008333333
 20
144.9016666667
 30
0.0
 11
122.7008319959
 21
139.4016664966
 31
0.0
  0
LINE
  5
2D3
330
1F
100
AcDbEntity
  8
SLD-0
  6
Continuous
 62
   179
370
    30
100
AcDbLine
 10
122.7008333333
 20
159.9016666667
 30
0.0
 11
122.7008333333
 21
148.9016666667
 31
0.0
  0
LINE
  5
2D4
330
1F
100
AcDbEntity
  8
SLD-0
  6
Continuous
 62
   179
370
    30
100
AcDbLine
 10
122.7008333333
 20
174.9016666667
 30
0.0
 11
122.7008333333
 21
163.9016666667
 31
0.0
  0
LINE
  5
2D5
330
1F
100
AcDbEntity
  8
SLD-0
  6
Continuous
 62
   179
370
    30
100
AcDbLine
 10
122.7008319959
 20
184.4016673534
 30
0.0
 11
122.7008333333
 21
178.9016666667
 31
0.0
  0
LINE
  5
2D6
330
1F
100
AcDbEntity
  8
SLD-0
  6
Continuous
 62
   179
370
    30
100
AcDbLine
 10
124.1508341893
 20
184.4016673534
 30
0.0
 11
122.7008319959
 21
184.4016673534
 31
0.0
  0
LINE
  5
2D7
330
1F
100
AcDbEntity
  8
SLD-0
  6
Continuous
 62
   179
370
    30
100
AcDbLine
 10
124.1508333333
 20
183.4016666667
 30
0.0
 11
124.1508341893
 21
184.4016673534
 31
0.0
  0
LINE
  5
2D8
330
1F
100
AcDbEntity
  8
SLD-0
  6
Continuous
 62
   179
370
    30
100
AcDbLine
 10
126.1508333333
 20
183.4016666667
 30
0.0
 11
126.1508307919
 21
184.4016673534
 31
0.0
  0
LINE
  5
2D9
330
1F
100
AcDbEntity
  8
SLD-0
  6
Continuous
 62
   179
370
    30
100
AcDbLine
 10
127.6008329853
 20
184.4016673534
 30
0.0
 11
126.1508307919
 21
184.4016673534
 31
0.0
  0
LINE
  5
2DA
330
1F
100
AcDbEntity
  8
SLD-0
  6
Continuous
 62
   179
370
    30
100
AcDbLine
 10
127.6008329853
 20
139.4016664966
 30
0.0
 11
127.6008329853
 21
184.4016673534
 31
0.0
  0
LINE
  5
2DB
330
1F
100
AcDbEntity
  8
SLD-0
  6
Continuous
 62
   179
370
    30
100
AcDbLine
 10
126.1508307919
 20
139.4016664966
 30
0.0
 11
127.6008329853
 21
139.4016664966
 31
0.0
  0
LINE
  5
2DC
330
1F
100
AcDbEntity
  8
SLD-0
  6
Continuous
 62
   179
370
    30
100
AcDbLine
 10
126.1508333333
 20
140.4016666667
 30
0.0
 11
126.1508307919
 21
139.4016664966
 31
0.0
  0
LINE
  5
2DD
330
1F
100
AcDbEntity
  8
SLD-0
  6
Continuous
 62
   179
370
    30
100
AcDbLine
 10
93.8761524424
 20
139.4016664966
 30
0.0
 11
95.8255148992
 21
139.4016664966
 31
0.0
  0
LINE
  5
2DE
330
1F
100
AcDbEntity
  8
SLD-0
  6
Continuous
 62
   179
370
    30
100
AcDbLine
 10
95.8508333333
 20
140.4016666667
 30
0.0
 11
95.8508333333
 21
141.4016666667
 31
0.0
  0
LINE
  5
2DF
330
1F
100
AcDbEntity
  8
SLD-0
  6
Continuous
 62
   179
370
    30
100
AcDbLine
 10
95.8508333333
 20
140.4016666667
 30
0.0
 11
95.8258352741
 21
140.4016666605
 31
0.0
  0
LINE
  5
2E0
330
1F
100
AcDbEntity
  8
SLD-0
  6
Continuous
 62
   179
370
    30
100
AcDbLine
 10
95.8508333333
 20
141.4016666667
 30
0.0
 11
94.8508299455
 21
141.4016668244
 31
0.0
  0
LINE
  5
2E1
330
1F
100
AcDbEntity
  8
SLD-0
  6
Continuous
 62
   179
370
    30
100
AcDbLine
 10
93.8761524424
 20
184.4016673534
 30
0.0
 11
95.8255148992
 21
184.4016673534
 31
0.0
  0
LINE
  5
2E2
330
1F
100
AcDbEntity
  8
SLD-0
  6
Continuous
 62
   179
370
    30
100
AcDbLine
 10
95.8508333333
 20
183.4016666667
 30
0.0
 11
95.8258352741
 21
183.4016671895
 31
0.0
  0
LINE
  5
2E3
330
1F
100
AcDbEntity
  8
SLD-0
  6
Continuous
 62
   179
370
    30
100
AcDbLine
 10
95.8508333333
 20
183.4016666667
 30
0.0
 11
95.8508333333
 21
182.4016666667
 31
0.0
  0
LINE
  5
2E4
330
1F
100
AcDbEntity
  8
SLD-0
  6
Continuous
 62
   179
370
    30
100
AcDbLine
 10
95.8508333333
 20
182.4016666667
 30
0.0
 11
94.8508299455
 21
182.4016670255
 31
0.0
  0
LINE
  5
2E5
330
1F
100
AcDbEntity
  8
SLD-0
  6
Continuous
 62
   179
370
    30
100
AcDbLine
 10
93.8508333333
 20
183.4016666667
 30
0.0
 11
93.8508333333
 21
182.4016666667
 31
0.0
  0
LINE
  5
2E6
330
1F
100
AcDbEntity
  8
SLD-0
  6
Continuous
 62
   179
370
    30
100
AcDbLine
 10
93.8758320674
 20
183.4016671895
 30
0.0
 11
93.8508333333
 21
183.4016666667
 31
0.0
  0
LINE
  5
2E7
330
1F
100
AcDbEntity
  8
SLD-0
  6
Continuous
 62
   179
370
    30
100
AcDbLine
 10
94.8508299455
 20
182.4016670255
 30
0.0
 11
93.8508333333
 21
182.4016666667
 31
0.0
  0
LINE
  5
2E8
330
1F
100
AcDbEntity
  8
SLD-0
  6
Continuous
 62
   179
370
    30
100
AcDbLine
 10
93.8758320674
 20
140.4016666605
 30
0.0
 11
93.8508333333
 21
140.4016666667
 31
0.0
  0
LINE
  5
2E9
330
1F
100
AcDbEntity
  8
SLD-0
  6
Continuous
 62
   179
370
    30
100
AcDbLine
 10
93.8508333333
 20
140.4016666667
 30
0.0
 11
93.8508333333
 21
141.4016666667
 31
0.0
  0
LINE
  5
2EA
330
1F
100
AcDbEntity
  8
SLD-0
  6
Continuous
 62
   179
370
    30
100
AcDbLine
 10
94.8508299455
 20
141.4016668244
 30
0.0
 11
93.8508333333
 21
141.4016666667
 31
0.0
  0
LINE
  5
2EB
330
1F
100
AcDbEntity
  8
SLD-0
  6
Continuous
 62
   179
370
    30
100
AcDbLine
 10
92.4008333333
 20
144.9016666667
 30
0.0
 11
92.4008331761
 21
139.4016664966
 31
0.0
  0
LINE
  5
2EC
330
1F
100
AcDbEntity
  8
SLD-0
  6
Continuous
 62
   179
370
    30
100
AcDbLine
 10
92.4008333333
 20
159.9016666667
 30
0.0
 11
92.4008333333
 21
148.9016666667
 31
0.0
  0
LINE
  5
2ED
330
1F
100
AcDbEntity
  8
SLD-0
  6
Continuous
 62
   179
370
    30
100
AcDbLine
 10
92.4008333333
 20
174.9016666667
 30
0.0
 11
92.4008333333
 21
163.9016666667
 31
0.0
  0
LINE
  5
2EE
330
1F
100
AcDbEntity
  8
SLD-0
  6
Continuous
 62
   179
370
    30
100
AcDbLine
 10
92.4008331761
 20
184.4016673534
 30
0.0
 11
92.4008333333
 21
178.9016666667
 31
0.0
  0
LINE
  5
2EF
330
1F
100
AcDbEntity
  8
SLD-0
  6
Continuous
 62
   179
370
    30
100
AcDbLine
 10
93.8508333333
 20
183.4016666667
 30
0.0
 11
93.8508353695
 21
184.4016673534
 31
0.0
  0
LINE
  5
2F0
330
1F
100
AcDbEntity
  8
SLD-0
  6
Continuous
 62
   179
370
    30
100
AcDbLine
 10
95.8508333333
 20
183.4016666667
 30
0.0
 11
95.850831972
 21
184.4016673534
 31
0.0
  0
LINE
  5
2F1
330
1F
100
AcDbEntity
  8
SLD-0
  6
Continuous
 62
   179
370
    30
100
AcDbLine
 10
97.3008341655
 20
184.4016673534
 30
0.0
 11
95.850831972
 21
184.4016673534
 31
0.0
  0
LINE
  5
2F2
330
1F
100
AcDbEntity
  8
SLD-0
  6
Continuous
 62
   179
370
    30
100
AcDbLine
 10
97.3008341655
 20
139.4016664966
 30
0.0
 11
97.3008341655
 21
184.4016673534
 31
0.0
  0
LINE
  5
2F3
330
1F
100
AcDbEntity
  8
SLD-0
  6
Continuous
 62
   179
370
    30
100
AcDbLine
 10
95.850831972
 20
139.4016664966
 30
0.0
 11
97.3008341655
 21
139.4016664966
 31
0.0
  0
LINE
  5
2F4
330
1F
100
AcDbEntity
  8
SLD-0
  6
Continuous
 62
   179
370
    30
100
AcDbLine
 10
95.8508333333
 20
140.4016666667
 30
0.0
 11
95.850831972
 21
139.4016664966
 31
0.0
  0
LINE
  5
2F5
330
1F
100
AcDbEntity
  8
SLD-0
  6
Continuous
 62
   179
370
    30
100
AcDbLine
 10
93.8508353695
 20
184.4016673534
 30
0.0
 11
92.4008331761
 21
184.4016673534
 31
0.0
  0
LINE
  5
2F6
330
1F
100
AcDbEntity
  8
SLD-0
  6
Continuous
 62
   179
370
    30
100
AcDbLine
 10
93.8508333333
 20
140.4016666667
 30
0.0
 11
93.8508353695
 21
139.4016664966
 31
0.0
  0
LINE
  5
2F7
330
1F
100
AcDbEntity
  8
SLD-0
  6
Continuous
 62
   179
370
    30
100
AcDbLine
 10
92.4008331761
 20
139.4016664966
 30
0.0
 11
93.8508353695
 21
139.4016664966
 31
0.0
  0
LINE
  5
2F8
330
1F
100
AcDbEntity
  8
SLD-0
  6
Continuous
 62
   179
370
    30
100
AcDbLine
 10
116.0508333333
 20
140.4016666667
 30
0.0
 11
116.0508333333
 21
141.4016666667
 31
0.0
  0
LINE
  5
2F9
330
1F
100
AcDbEntity
  8
SLD-0
  6
Continuous
 62
   179
370
    30
100
AcDbLine
 10
116.0508333333
 20
140.4016666667
 30
0.0
 11
116.0258344874
 21
140.4016666605
 31
0.0
  0
LINE
  5
2FA
330
1F
100
AcDbEntity
  8
SLD-0
  6
Continuous
 62
   179
370
    30
100
AcDbLine
 10
116.0508333333
 20
141.4016666667
 30
0.0
 11
115.0508366093
 21
141.4016668244
 31
0.0
  0
LINE
  5
2FB
330
1F
100
AcDbEntity
  8
SLD-0
  6
Continuous
 62
   179
370
    30
100
AcDbLine
 10
114.0761516556
 20
139.4016664966
 30
0.0
 11
116.0255141124
 21
139.4016664966
 31
0.0
  0
LINE
  5
2FC
330
1F
100
AcDbEntity
  8
SLD-0
  6
Continuous
 62
   179
370
    30
100
AcDbLine
 10
114.0761538988
 20
184.4016666667
 30
0.0
 11
116.0255127678
 21
184.4016666667
 31
0.0
  0
LINE
  5
2FD
330
1F
100
AcDbEntity
  8
SLD-0
  6
Continuous
 62
   179
370
    30
100
AcDbLine
 10
116.0508333333
 20
183.4016666667
 30
0.0
 11
116.0258344874
 21
183.4016671895
 31
0.0
  0
LINE
  5
2FE
330
1F
100
AcDbEntity
  8
SLD-0
  6
Continuous
 62
   179
370
    30
100
AcDbLine
 10
116.0508333333
 20
182.4016666667
 30
0.0
 11
115.0508366093
 21
182.4016670256
 31
0.0
  0
LINE
  5
2FF
330
1F
100
AcDbEntity
  8
SLD-0
  6
Continuous
 62
   179
370
    30
100
AcDbLine
 10
116.0508333333
 20
183.4016666667
 30
0.0
 11
116.0508333333
 21
182.4016666667
 31
0.0
  0
LINE
  5
300
330
1F
100
AcDbEntity
  8
SLD-0
  6
Continuous
 62
   179
370
    30
100
AcDbLine
 10
115.0508366093
 20
141.4016668244
 30
0.0
 11
114.0508333333
 21
141.4016666667
 31
0.0
  0
LINE
  5
301
330
1F
100
AcDbEntity
  8
SLD-0
  6
Continuous
 62
   179
370
    30
100
AcDbLine
 10
114.0758312806
 20
140.4016666605
 30
0.0
 11
114.0508333333
 21
140.4016666667
 31
0.0
  0
LINE
  5
302
330
1F
100
AcDbEntity
  8
SLD-0
  6
Continuous
 62
   179
370
    30
100
AcDbLine
 10
114.0508333333
 20
140.4016666667
 30
0.0
 11
114.0508333333
 21
141.4016666667
 31
0.0
  0
LINE
  5
303
330
1F
100
AcDbEntity
  8
SLD-0
  6
Continuous
 62
   179
370
    30
100
AcDbLine
 10
114.0758312806
 20
183.4016671895
 30
0.0
 11
114.0508333333
 21
183.4016666667
 31
0.0
  0
LINE
  5
304
330
1F
100
AcDbEntity
  8
SLD-0
  6
Continuous
 62
   179
370
    30
100
AcDbLine
 10
114.0508333333
 20
183.4016666667
 30
0.0
 11
114.0508333333
 21
182.4016666667
 31
0.0
  0
LINE
  5
305
330
1F
100
AcDbEntity
  8
SLD-0
  6
Continuous
 62
   179
370
    30
100
AcDbLine
 10
115.0508366093
 20
182.4016670256
 30
0.0
 11
114.0508333333
 21
182.4016666667
 31
0.0
  0
LINE
  5
306
330
1F
100
AcDbEntity
  8
SLD-0
  6
Continuous
 62
   179
370
    30
100
AcDbLine
 10
112.6008333333
 20
144.9016666667
 30
0.0
 11
112.6008323893
 21
139.4016664966
 31
0.0
  0
LINE
  5
307
330
1F
100
AcDbEntity
  8
SLD-0
  6
Continuous
 62
   179
370
    30
100
AcDbLine
 10
112.6008333333
 20
159.9016666667
 30
0.0
 11
112.6008333333
 21
148.9016666667
 31
0.0
  0
LINE
  5
308
330
1F
100
AcDbEntity
  8
SLD-0
  6
Continuous
 62
   179
370
    30
100
AcDbLine
 10
112.6008333333
 20
174.9016666667
 30
0.0
 11
112.6008333333
 21
163.9016666667
 31
0.0
  0
LINE
  5
309
330
1F
100
AcDbEntity
  8
SLD-0
  6
Continuous
 62
   179
370
    30
100
AcDbLine
 10
112.6008323893
 20
184.4016673534
 30
0.0
 11
112.6008333333
 21
178.9016666667
 31
0.0
  0
LINE
  5
30A
330
1F
100
AcDbEntity
  8
SLD-0
  6
Continuous
 62
   179
370
    30
100
AcDbLine
 10
116.0508333333
 20
183.4016666667
 30
0.0
 11
116.0508311853
 21
184.4016673534
 31
0.0
  0
LINE
  5
30B
330
1F
100
AcDbEntity
  8
SLD-0
  6
Continuous
 62
   179
370
    30
100
AcDbLine
 10
117.5008333787
 20
184.4016673534
 30
0.0
 11
116.0508311853
 21
184.4016673534
 31
0.0
  0
LINE
  5
30C
330
1F
100
AcDbEntity
  8
SLD-0
  6
Continuous
 62
   179
370
    30
100
AcDbLine
 10
117.5008333787
 20
139.4016664966
 30
0.0
 11
117.5008333787
 21
184.4016673534
 31
0.0
  0
LINE
  5
30D
330
1F
100
AcDbEntity
  8
SLD-0
  6
Continuous
 62
   179
370
    30
100
AcDbLine
 10
116.0508311853
 20
139.4016664966
 30
0.0
 11
117.5008333787
 21
139.4016664966
 31
0.0
  0
LINE
  5
30E
330
1F
100
AcDbEntity
  8
SLD-0
  6
Continuous
 62
   179
370
    30
100
AcDbLine
 10
116.0508333333
 20
140.4016666667
 30
0.0
 11
116.0508311853
 21
139.4016664966
 31
0.0
  0
LINE
  5
30F
330
1F
100
AcDbEntity
  8
SLD-0
  6
Continuous
 62
   179
370
    30
100
AcDbLine
 10
114.0508333333
 20
140.4016666667
 30
0.0
 11
114.0508345827
 21
139.4016664966
 31
0.0
  0
LINE
  5
310
330
1F
100
AcDbEntity
  8
SLD-0
  6
Continuous
 62
   179
370
    30
100
AcDbLine
 10
112.6008323893
 20
139.4016664966
 30
0.0
 11
114.0508345827
 21
139.4016664966
 31
0.0
  0
LINE
  5
311
330
1F
100
AcDbEntity
  8
SLD-0
  6
Continuous
 62
   179
370
    30
100
AcDbLine
 10
114.0508345827
 20
184.4016673534
 30
0.0
 11
112.6008323893
 21
184.4016673534
 31
0.0
  0
LINE
  5
312
330
1F
100
AcDbEntity
  8
SLD-0
  6
Continuous
 62
   179
370
    30
100
AcDbLine
 10
114.0508333333
 20
183.4016666667
 30
0.0
 11
114.0508345827
 21
184.4016673534
 31
0.0
  0
LINE
  5
313
330
1F
100
AcDbEntity
  8
SLD-0
  6
Continuous
 62
   179
370
    30
100
AcDbLine
 10
103.9761538988
 20
139.4016666667
 30
0.0
 11
105.9255127678
 21
139.4016666667
 31
0.0
  0
LINE
  5
314
330
1F
100
AcDbEntity
  8
SLD-0
  6
Continuous
 62
   179
370
    30
100
AcDbLine
 10
103.976152049
 20
184.4016673534
 30
0.0
 11
105.9255145058
 21
184.4016673534
 31
0.0
  0
LINE
  5
315
330
1F
100
AcDbEntity
  8
SLD-0
  6
Continuous
 62
   179
370
    30
100
AcDbLine
 10
105.9508333333
 20
183.4016666667
 30
0.0
 11
105.9258348808
 21
183.4016671895
 31
0.0
  0
LINE
  5
316
330
1F
100
AcDbEntity
  8
SLD-0
  6
Continuous
 62
   179
370
    30
100
AcDbLine
 10
105.9508333333
 20
183.4016666667
 30
0.0
 11
105.9508333333
 21
182.4016666667
 31
0.0
  0
LINE
  5
317
330
1F
100
AcDbEntity
  8
SLD-0
  6
Continuous
 62
   179
370
    30
100
AcDbLine
 10
105.9508333333
 20
182.4016666667
 30
0.0
 11
104.9508370027
 21
182.4016670256
 31
0.0
  0
LINE
  5
318
330
1F
100
AcDbEntity
  8
SLD-0
  6
Continuous
 62
   179
370
    30
100
AcDbLine
 10
103.975831674
 20
140.4016666605
 30
0.0
 11
103.9508333333
 21
140.4016666667
 31
0.0
  0
LINE
  5
319
330
1F
100
AcDbEntity
  8
SLD-0
  6
Continuous
 62
   179
370
    30
100
AcDbLine
 10
104.9508370027
 20
141.4016668244
 30
0.0
 11
103.9508333333
 21
141.4016666667
 31
0.0
  0
LINE
  5
31A
330
1F
100
AcDbEntity
  8
SLD-0
  6
Continuous
 62
   179
370
    30
100
AcDbLine
 10
103.9508333333
 20
140.4016666667
 30
0.0
 11
103.9508333333
 21
141.4016666667
 31
0.0
  0
LINE
  5
31B
330
1F
100
AcDbEntity
  8
SLD-0
  6
Continuous
 62
   179
370
    30
100
AcDbLine
 10
105.9508333333
 20
140.4016666667
 30
0.0
 11
105.9258348808
 21
140.4016666605
 31
0.0
  0
LINE
  5
31C
330
1F
100
AcDbEntity
  8
SLD-0
  6
Continuous
 62
   179
370
    30
100
AcDbLine
 10
105.9508333333
 20
141.4016666667
 30
0.0
 11
104.9508370027
 21
141.4016668244
 31
0.0
  0
LINE
  5
31D
330
1F
100
AcDbEntity
  8
SLD-0
  6
Continuous
 62
   179
370
    30
100
AcDbLine
 10
105.9508333333
 20
140.4016666667
 30
0.0
 11
105.9508333333
 21
141.4016666667
 31
0.0
  0
LINE
  5
31E
330
1F
100
AcDbEntity
  8
SLD-0
  6
Continuous
 62
   179
370
    30
100
AcDbLine
 10
103.9508333333
 20
183.4016666667
 30
0.0
 11
103.9508333333
 21
182.4016666667
 31
0.0
  0
LINE
  5
31F
330
1F
100
AcDbEntity
  8
SLD-0
  6
Continuous
 62
   179
370
    30
100
AcDbLine
 10
103.975831674
 20
183.4016671895
 30
0.0
 11
103.9508333333
 21
183.4016666667
 31
0.0
  0
LINE
  5
320
330
1F
100
AcDbEntity
  8
SLD-0
  6
Continuous
 62
   179
370
    30
100
AcDbLine
 10
104.9508370027
 20
182.4016670256
 30
0.0
 11
103.9508333333
 21
182.4016666667
 31
0.0
  0
LINE
  5
321
330
1F
100
AcDbEntity
  8
SLD-0
  6
Continuous
 62
   179
370
    30
100
AcDbLine
 10
103.9508333333
 20
140.4016666667
 30
0.0
 11
103.9508349761
 21
139.4016664966
 31
0.0
  0
LINE
  5
322
330
1F
100
AcDbEntity
  8
SLD-0
  6
Continuous
 62
   179
370
    30
100
AcDbLine
 10
102.5008327827
 20
139.4016664966
 30
0.0
 11
103.9508349761
 21
139.4016664966
 31
0.0
  0
LINE
  5
323
330
1F
100
AcDbEntity
  8
SLD-0
  6
Continuous
 62
   179
370
    30
100
AcDbLine
 10
102.5008333333
 20
144.9016666667
 30
0.0
 11
102.5008327827
 21
139.4016664966
 31
0.0
  0
LINE
  5
324
330
1F
100
AcDbEntity
  8
SLD-0
  6
Continuous
 62
   179
370
    30
100
AcDbLine
 10
102.5008333333
 20
159.9016666667
 30
0.0
 11
102.5008333333
 21
148.9016666667
 31
0.0
  0
LINE
  5
325
330
1F
100
AcDbEntity
  8
SLD-0
  6
Continuous
 62
   179
370
    30
100
AcDbLine
 10
102.5008333333
 20
174.9016666667
 30
0.0
 11
102.5008333333
 21
163.9016666667
 31
0.0
  0
LINE
  5
326
330
1F
100
AcDbEntity
  8
SLD-0
  6
Continuous
 62
   179
370
    30
100
AcDbLine
 10
102.5008327827
 20
184.4016673534
 30
0.0
 11
102.5008333333
 21
178.9016666667
 31
0.0
  0
LINE
  5
327
330
1F
100
AcDbEntity
  8
SLD-0
  6
Continuous
 62
   179
370
    30
100
AcDbLine
 10
105.9508333333
 20
183.4016666667
 30
0.0
 11
105.9508315787
 21
184.4016673534
 31
0.0
  0
LINE
  5
328
330
1F
100
AcDbEntity
  8
SLD-0
  6
Continuous
 62
   179
370
    30
100
AcDbLine
 10
107.4008337721
 20
184.4016673534
 30
0.0
 11
105.9508315787
 21
184.4016673534
 31
0.0
  0
LINE
  5
329
330
1F
100
AcDbEntity
  8
SLD-0
  6
Continuous
 62
   179
370
    30
100
AcDbLine
 10
107.4008337721
 20
139.4016664966
 30
0.0
 11
107.4008337721
 21
184.4016673534
 31
0.0
  0
LINE
  5
32A
330
1F
100
AcDbEntity
  8
SLD-0
  6
Continuous
 62
   179
370
    30
100
AcDbLine
 10
105.9508315787
 20
139.4016664966
 30
0.0
 11
107.4008337721
 21
139.4016664966
 31
0.0
  0
LINE
  5
32B
330
1F
100
AcDbEntity
  8
SLD-0
  6
Continuous
 62
   179
370
    30
100
AcDbLine
 10
105.9508333333
 20
140.4016666667
 30
0.0
 11
105.9508315787
 21
139.4016664966
 31
0.0
  0
LINE
  5
32C
330
1F
100
AcDbEntity
  8
SLD-0
  6
Continuous
 62
   179
370
    30
100
AcDbLine
 10
103.9508333333
 20
183.4016666667
 30
0.0
 11
103.9508349761
 21
184.4016673534
 31
0.0
  0
LINE
  5
32D
330
1F
100
AcDbEntity
  8
SLD-0
  6
Continuous
 62
   179
370
    30
100
AcDbLine
 10
103.9508349761
 20
184.4016673534
 30
0.0
 11
102.5008327827
 21
184.4016673534
 31
0.0
  0
LINE
  5
32E
330
1F
100
AcDbEntity
  8
SLD-0
  6
Continuous
 62
   179
370
    30
100
AcDbLine
 10
154.4761538073
 20
139.4016664966
 30
0.0
 11
156.4255125388
 21
139.4016664966
 31
0.0
  0
LINE
  5
32F
330
1F
100
AcDbEntity
  8
SLD-0
  6
Continuous
 62
   179
370
    30
100
AcDbLine
 10
154.4761538988
 20
184.4016666667
 30
0.0
 11
156.4255127678
 21
184.4016666667
 31
0.0
  0
LINE
  5
330
330
1F
100
AcDbEntity
  8
SLD-0
  6
Continuous
 62
   179
370
    30
100
AcDbLine
 10
156.4508333333
 20
183.4016666667
 30
0.0
 11
156.4258329138
 21
183.4016671895
 31
0.0
  0
LINE
  5
331
330
1F
100
AcDbEntity
  8
SLD-0
  6
Continuous
 62
   179
370
    30
100
AcDbLine
 10
156.4508333333
 20
183.4016666667
 30
0.0
 11
156.4508333333
 21
182.4016666667
 31
0.0
  0
LINE
  5
332
330
1F
100
AcDbEntity
  8
SLD-0
  6
Continuous
 62
   179
370
    30
100
AcDbLine
 10
156.4508333333
 20
182.4016666667
 30
0.0
 11
155.4508350357
 21
182.4016670256
 31
0.0
  0
LINE
  5
333
330
1F
100
AcDbEntity
  8
SLD-0
  6
Continuous
 62
   179
370
    30
100
AcDbLine
 10
154.4508333333
 20
140.4016666667
 30
0.0
 11
154.4508333333
 21
141.4016666667
 31
0.0
  0
LINE
  5
334
330
1F
100
AcDbEntity
  8
SLD-0
  6
Continuous
 62
   179
370
    30
100
AcDbLine
 10
155.4508350357
 20
141.4016668245
 30
0.0
 11
154.4508333333
 21
141.4016666667
 31
0.0
  0
LINE
  5
335
330
1F
100
AcDbEntity
  8
SLD-0
  6
Continuous
 62
   179
370
    30
100
AcDbLine
 10
154.4758334324
 20
140.4016666605
 30
0.0
 11
154.4508333333
 21
140.4016666667
 31
0.0
  0
LINE
  5
336
330
1F
100
AcDbEntity
  8
SLD-0
  6
Continuous
 62
   179
370
    30
100
AcDbLine
 10
156.4508333333
 20
140.4016666667
 30
0.0
 11
156.4258329138
 21
140.4016666605
 31
0.0
  0
LINE
  5
337
330
1F
100
AcDbEntity
  8
SLD-0
  6
Continuous
 62
   179
370
    30
100
AcDbLine
 10
156.4508333333
 20
141.4016666667
 30
0.0
 11
155.4508350357
 21
141.4016668245
 31
0.0
  0
LINE
  5
338
330
1F
100
AcDbEntity
  8
SLD-0
  6
Continuous
 62
   179
370
    30
100
AcDbLine
 10
156.4508333333
 20
140.4016666667
 30
0.0
 11
156.4508333333
 21
141.4016666667
 31
0.0
  0
LINE
  5
339
330
1F
100
AcDbEntity
  8
SLD-0
  6
Continuous
 62
   179
370
    30
100
AcDbLine
 10
154.4758334324
 20
183.4016671895
 30
0.0
 11
154.4508333333
 21
183.4016666667
 31
0.0
  0
LINE
  5
33A
330
1F
100
AcDbEntity
  8
SLD-0
  6
Continuous
 62
   179
370
    30
100
AcDbLine
 10
154.4508333333
 20
183.4016666667
 30
0.0
 11
154.4508333333
 21
182.4016666667
 31
0.0
  0
LINE
  5
33B
330
1F
100
AcDbEntity
  8
SLD-0
  6
Continuous
 62
   179
370
    30
100
AcDbLine
 10
155.4508350357
 20
182.4016670256
 30
0.0
 11
154.4508333333
 21
182.4016666667
 31
0.0
  0
LINE
  5
33C
330
1F
100
AcDbEntity
  8
SLD-0
  6
Continuous
 62
   179
370
    30
100
AcDbLine
 10
153.0008333333
 20
144.9016666667
 30
0.0
 11
153.000834541
 21
139.4016664966
 31
0.0
  0
LINE
  5
33D
330
1F
100
AcDbEntity
  8
SLD-0
  6
Continuous
 62
   179
370
    30
100
AcDbLine
 10
153.0008333333
 20
159.9016666667
 30
0.0
 11
153.0008333333
 21
148.9016666667
 31
0.0
  0
LINE
  5
33E
330
1F
100
AcDbEntity
  8
SLD-0
  6
Continuous
 62
   179
370
    30
100
AcDbLine
 10
153.0008333333
 20
174.9016666667
 30
0.0
 11
153.0008333333
 21
163.9016666667
 31
0.0
  0
LINE
  5
33F
330
1F
100
AcDbEntity
  8
SLD-0
  6
Continuous
 62
   179
370
    30
100
AcDbLine
 10
153.000834541
 20
184.4016673534
 30
0.0
 11
153.0008333333
 21
178.9016666667
 31
0.0
  0
LINE
  5
340
330
1F
100
AcDbEntity
  8
SLD-0
  6
Continuous
 62
   179
370
    30
100
AcDbLine
 10
156.4508333333
 20
183.4016666667
 30
0.0
 11
156.450833337
 21
184.4016673534
 31
0.0
  0
LINE
  5
341
330
1F
100
AcDbEntity
  8
SLD-0
  6
Continuous
 62
   179
370
    30
100
AcDbLine
 10
157.9008318052
 20
184.4016673534
 30
0.0
 11
156.450833337
 21
184.4016673534
 31
0.0
  0
LINE
  5
342
330
1F
100
AcDbEntity
  8
SLD-0
  6
Continuous
 62
   179
370
    30
100
AcDbLine
 10
157.9008318052
 20
139.4016664966
 30
0.0
 11
157.9008318052
 21
184.4016673534
 31
0.0
  0
LINE
  5
343
330
1F
100
AcDbEntity
  8
SLD-0
  6
Continuous
 62
   179
370
    30
100
AcDbLine
 10
156.450833337
 20
139.4016664966
 30
0.0
 11
157.9008318052
 21
139.4016664966
 31
0.0
  0
LINE
  5
344
330
1F
100
AcDbEntity
  8
SLD-0
  6
Continuous
 62
   179
370
    30
100
AcDbLine
 10
156.4508333333
 20
140.4016666667
 30
0.0
 11
156.450833337
 21
139.4016664966
 31
0.0
  0
LINE
  5
345
330
1F
100
AcDbEntity
  8
SLD-0
  6
Continuous
 62
   179
370
    30
100
AcDbLine
 10
154.4508333333
 20
140.4016666667
 30
0.0
 11
154.4508330092
 21
139.4016664966
 31
0.0
  0
LINE
  5
346
330
1F
100
AcDbEntity
  8
SLD-0
  6
Continuous
 62
   179
370
    30
100
AcDbLine
 10
153.000834541
 20
139.4016664966
 30
0.0
 11
154.4508330092
 21
139.4016664966
 31
0.0
  0
LINE
  5
347
330
1F
100
AcDbEntity
  8
SLD-0
  6
Continuous
 62
   179
370
    30
100
AcDbLine
 10
154.4508333333
 20
183.4016666667
 30
0.0
 11
154.4508330092
 21
184.4016673534
 31
0.0
  0
LINE
  5
348
330
1F
100
AcDbEntity
  8
SLD-0
  6
Continuous
 62
   179
370
    30
100
AcDbLine
 10
154.4508330092
 20
184.4016673534
 30
0.0
 11
153.000834541
 21
184.4016673534
 31
0.0
  0
LINE
  5
349
330
1F
100
AcDbEntity
  8
SLD-0
  6
CENTERX2
 62
   179
370
     0
100
AcDbLine
 10
152.9008333333
 20
137.4016666667
 30
0.0
 11
152.9008333333
 21
186.4016666667
 31
0.0
  0
LINE
  5
34A
330
1F
100
AcDbEntity
  8
SLD-0
  6
CENTERX2
 62
   179
370
     0
100
AcDbLine
 10
142.8008333333
 20
137.4016666667
 30
0.0
 11
142.8008333333
 21
186.4016666667
 31
0.0
  0
ARC
  5
34B
330
1F
100
AcDbEntity
  8
SLD-0
  6
Continuous
 62
   179
370
    30
100
AcDbCircle
 10
19.0088743446
 20
110.8528214291
 30
0.0
 40
43.05654485294428
100
AcDbArc
 50
43.3363545455
 51
45.1946768196
  0
ARC
  5
34C
330
1F
100
AcDbEntity
  8
SLD-0
  6
Continuous
 62
   179
370
    30
100
AcDbCircle
 10
12.6212350356
 20
219.1764473244
 30
0.0
 40
51.9754499979476
100
AcDbArc
 50
314.9647763503
 51
316.5041922845
  0
ARC
  5
34D
330
1F
100
AcDbEntity
  8
SLD-0
  6
Continuous
 62
   179
370
    30
100
AcDbCircle
 10
85.4331204466
 20
218.5449828292
 30
0.0
 40
51.0712362025204
100
AcDbArc
 50
223.4817472321
 51
225.048408466
  0
ARC
  5
34E
330
1F
100
AcDbEntity
  8
SLD-0
  6
Continuous
 62
   179
370
    30
100
AcDbCircle
 10
49.3508333333
 20
139.4266666667
 30
0.0
 40
0.9749993346009378
100
AcDbArc
 50
358.5307054165
 51
181.4750648187
  0
ARC
  5
34F
330
1F
100
AcDbEntity
  8
SLD-0
  6
Continuous
 62
   179
370
    30
100
AcDbCircle
 10
91.8338774752
 20
99.0197258539
 30
0.0
 40
60.00865342484482
100
AcDbArc
 50
135.0682629763
 51
136.4015813255
  0
ARC
  5
350
330
1F
100
AcDbEntity
  8
SLD-0
  6
Continuous
 62
   179
370
    30
100
AcDbCircle
 10
49.3508333333
 20
184.3766666667
 30
0.0
 40
0.9749993478473278
100
AcDbArc
 50
178.5249049521
 51
1.4693249315
  0
ARC
  5
351
330
1F
100
AcDbEntity
  8
SLD-0
  6
Continuous
 62
   179
370
    30
100
AcDbCircle
 10
51.7008333333
 20
176.9016666667
 30
0.0
 40
2.0
100
AcDbArc
 50
90.0
 51
270.0
  0
ARC
  5
352
330
1F
100
AcDbEntity
  8
SLD-0
  6
Continuous
 62
   179
370
    30
100
AcDbCircle
 10
51.7008333333
 20
161.9016666667
 30
0.0
 40
2.0
100
AcDbArc
 50
90.0
 51
270.0
  0
ARC
  5
353
330
1F
100
AcDbEntity
  8
SLD-0
  6
Continuous
 62
   179
370
    30
100
AcDbCircle
 10
51.7008333333
 20
146.9016666667
 30
0.0
 40
2.0
100
AcDbArc
 50
90.0
 51
270.0
  0
ARC
  5
354
330
1F
100
AcDbEntity
  8
SLD-0
  6
Continuous
 62
   179
370
    30
100
AcDbCircle
 10
96.8527522784
 20
99.0006911761
 30
0.0
 40
60.03545214895571
100
AcDbArc
 50
135.0681177773
 51
136.4008508576
  0
ARC
  5
355
330
1F
100
AcDbEntity
  8
SLD-0
  6
Continuous
 62
   179
370
    30
100
AcDbCircle
 10
18.2839707257
 20
105.2733870107
 30
0.0
 40
51.0496960335979
100
AcDbArc
 50
43.4814166891
 51
45.0487390092
  0
ARC
  5
356
330
1F
100
AcDbEntity
  8
SLD-0
  6
Continuous
 62
   179
370
    30
100
AcDbCircle
 10
54.3508333333
 20
139.4266666667
 30
0.0
 40
0.9750000000000139
100
AcDbArc
 50
358.5307164186
 51
181.4692835814
  0
ARC
  5
357
330
1F
100
AcDbEntity
  8
SLD-0
  6
Continuous
 62
   179
370
    30
100
AcDbCircle
 10
54.3508333333
 20
184.3766666667
 30
0.0
 40
0.9750015927089762
100
AcDbArc
 50
178.5306784522
 51
1.4853090504
  0
ARC
  5
358
330
1F
100
AcDbEntity
  8
SLD-0
  6
Continuous
 62
   179
370
    30
100
AcDbCircle
 10
11.8696602345
 20
224.7817821578
 30
0.0
 40
60.00603770892402
100
AcDbArc
 50
315.0682339148
 51
316.4016103871
  0
ARC
  5
359
330
1F
100
AcDbEntity
  8
SLD-0
  6
Continuous
 62
   179
370
    30
100
AcDbCircle
 10
90.4622624476
 20
218.57392941
 30
0.0
 40
51.11230374258887
100
AcDbArc
 50
223.4828086626
 51
225.0482227025
  0
ARC
  5
35A
330
1F
100
AcDbEntity
  8
SLD-0
  6
Continuous
 62
   179
370
    30
100
AcDbCircle
 10
51.9008333333
 20
146.9016666667
 30
0.0
 40
2.0
100
AcDbArc
 50
270.0
 51
90.0
  0
ARC
  5
35B
330
1F
100
AcDbEntity
  8
SLD-0
  6
Continuous
 62
   179
370
    30
100
AcDbCircle
 10
51.9008333333
 20
161.9016666667
 30
0.0
 40
2.0
100
AcDbArc
 50
270.0
 51
90.0
  0
ARC
  5
35C
330
1F
100
AcDbEntity
  8
SLD-0
  6
Continuous
 62
   179
370
    30
100
AcDbCircle
 10
51.9008333333
 20
176.9016666667
 30
0.0
 40
2.0
100
AcDbArc
 50
270.0
 51
90.0
  0
ARC
  5
35D
330
1F
100
AcDbEntity
  8
SLD-0
  6
Continuous
 62
   179
370
    30
100
AcDbCircle
 10
17.0696588517
 20
224.7817821578
 30
0.0
 40
60.00603770892402
100
AcDbArc
 50
315.0682339148
 51
316.4016103871
  0
ARC
  5
35E
330
1F
100
AcDbEntity
  8
SLD-0
  6
Continuous
 62
   179
370
    30
100
AcDbCircle
 10
59.5508333333
 20
184.3766666667
 30
0.0
 40
0.9750029751542647
100
AcDbArc
 50
178.530680536
 51
1.4915639245
  0
ARC
  5
35F
330
1F
100
AcDbEntity
  8
SLD-0
  6
Continuous
 62
   179
370
    30
100
AcDbCircle
 10
59.5508333333
 20
139.4266666667
 30
0.0
 40
0.9750000000000068
100
AcDbArc
 50
358.5307164186
 51
181.4692835814
  0
ARC
  5
360
330
1F
100
AcDbEntity
  8
SLD-0
  6
Continuous
 62
   179
370
    30
100
AcDbCircle
 10
102.0604210586
 20
98.9932151848
 30
0.0
 40
60.04616225316494
100
AcDbArc
 50
135.0682366388
 51
136.4007319961
  0
ARC
  5
361
330
1F
100
AcDbEntity
  8
SLD-0
  6
Continuous
 62
   179
370
    30
100
AcDbCircle
 10
23.4839693428
 20
105.2733870107
 30
0.0
 40
51.04969603362581
100
AcDbArc
 50
43.4814166891
 51
45.0487390091
  0
ARC
  5
362
330
1F
100
AcDbEntity
  8
SLD-0
  6
Continuous
 62
   179
370
    30
100
AcDbCircle
 10
95.6622610648
 20
218.57392941
 30
0.0
 40
51.11230374258886
100
AcDbArc
 50
223.4828086626
 51
225.0482227025
  0
ARC
  5
363
330
1F
100
AcDbEntity
  8
SLD-0
  6
Continuous
 62
   179
370
    30
100
AcDbCircle
 10
61.9008333333
 20
176.9016666667
 30
0.0
 40
2.0
100
AcDbArc
 50
90.0
 51
270.0
  0
ARC
  5
364
330
1F
100
AcDbEntity
  8
SLD-0
  6
Continuous
 62
   179
370
    30
100
AcDbCircle
 10
61.9008333333
 20
161.9016666667
 30
0.0
 40
2.0
100
AcDbArc
 50
90.0
 51
270.0
  0
ARC
  5
365
330
1F
100
AcDbEntity
  8
SLD-0
  6
Continuous
 62
   179
370
    30
100
AcDbCircle
 10
61.9008333333
 20
146.9016666667
 30
0.0
 40
2.0
100
AcDbArc
 50
90.0
 51
270.0
  0
ARC
  5
366
330
1F
100
AcDbEntity
  8
SLD-0
  6
Continuous
 62
   179
370
    30
100
AcDbCircle
 10
101.0897114938
 20
221.643590507
 30
0.0
 40
55.51003693540876
100
AcDbArc
 50
315.0140115746
 51
316.4553948921
  0
ARC
  5
367
330
1F
100
AcDbEntity
  8
SLD-0
  6
Continuous
 62
   179
370
    30
100
AcDbCircle
 10
140.3508333333
 20
139.4266666667
 30
0.0
 40
0.9749986598228474
100
AcDbArc
 50
358.5280190116
 51
181.4692956006
  0
ARC
  5
368
330
1F
100
AcDbEntity
  8
SLD-0
  6
Continuous
 62
   179
370
    30
100
AcDbCircle
 10
140.3508333333
 20
184.3766666667
 30
0.0
 40
0.9749986730692466
100
AcDbArc
 50
178.5306740514
 51
1.472011281
  0
ARC
  5
369
330
1F
100
AcDbEntity
  8
SLD-0
  6
Continuous
 62
   179
370
    30
100
AcDbCircle
 10
176.4394746726
 20
218.5514467843
 30
0.0
 40
51.08029612923274
100
AcDbArc
 50
223.482102178
 51
225.0484913552
  0
ARC
  5
36A
330
1F
100
AcDbEntity
  8
SLD-0
  6
Continuous
 62
   179
370
    30
100
AcDbCircle
 10
182.8433011761
 20
99.010222462
 30
0.0
 40
60.02203285741082
100
AcDbArc
 50
135.0681901874
 51
136.4012162794
  0
ARC
  5
36B
330
1F
100
AcDbEntity
  8
SLD-0
  6
Continuous
 62
   179
370
    30
100
AcDbCircle
 10
107.49068688
 20
108.3986290272
 30
0.0
 40
46.57241340365941
100
AcDbArc
 50
43.4062890095
 51
45.1243045239
  0
ARC
  5
36C
330
1F
100
AcDbEntity
  8
SLD-0
  6
Continuous
 62
   179
370
    30
100
AcDbCircle
 10
142.7008333333
 20
176.9016666667
 30
0.0
 40
2.0
100
AcDbArc
 50
90.0
 51
270.0
  0
ARC
  5
36D
330
1F
100
AcDbEntity
  8
SLD-0
  6
Continuous
 62
   179
370
    30
100
AcDbCircle
 10
142.7008333333
 20
161.9016666667
 30
0.0
 40
2.0
100
AcDbArc
 50
90.0
 51
270.0
  0
ARC
  5
36E
330
1F
100
AcDbEntity
  8
SLD-0
  6
Continuous
 62
   179
370
    30
100
AcDbCircle
 10
142.7008333333
 20
146.9016666667
 30
0.0
 40
2.0
100
AcDbArc
 50
90.0
 51
270.0
  0
ARC
  5
36F
330
1F
100
AcDbEntity
  8
SLD-0
  6
Continuous
 62
   179
370
    30
100
AcDbCircle
 10
132.8100003137
 20
215.4037497621
 30
0.0
 40
46.57104523972878
100
AcDbArc
 50
223.4062637715
 51
225.1243297617
  0
ARC
  5
370
330
1F
100
AcDbEntity
  8
SLD-0
  6
Continuous
 62
   179
370
    30
100
AcDbCircle
 10
99.9508333333
 20
139.4266666667
 30
0.0
 40
0.9749990604911013
100
AcDbArc
 50
358.5307050033
 51
181.4738130126
  0
ARC
  5
371
330
1F
100
AcDbEntity
  8
SLD-0
  6
Continuous
 62
   179
370
    30
100
AcDbCircle
 10
139.2138268172
 20
102.1579194842
 30
0.0
 40
55.51264977550049
100
AcDbArc
 50
135.0140454975
 51
136.4553609692
  0
ARC
  5
372
330
1F
100
AcDbEntity
  8
SLD-0
  6
Continuous
 62
   179
370
    30
100
AcDbCircle
 10
57.4564059672
 20
224.7950216816
 30
0.0
 40
60.02476955444988
100
AcDbArc
 50
315.0682205769
 51
316.4011858898
  0
ARC
  5
373
330
1F
100
AcDbEntity
  8
SLD-0
  6
Continuous
 62
   179
370
    30
100
AcDbCircle
 10
63.8612125211
 20
105.250932005
 30
0.0
 40
51.08166431907154
100
AcDbArc
 50
43.4821231568
 51
45.0484703765
  0
ARC
  5
374
330
1F
100
AcDbEntity
  8
SLD-0
  6
Continuous
 62
   179
370
    30
100
AcDbCircle
 10
99.9508333333
 20
184.3766666667
 30
0.0
 40
0.9749990737374951
100
AcDbArc
 50
178.5261567325
 51
1.4693253447
  0
ARC
  5
375
330
1F
100
AcDbEntity
  8
SLD-0
  6
Continuous
 62
   179
370
    30
100
AcDbCircle
 10
102.3008333333
 20
176.9016666667
 30
0.0
 40
2.0
100
AcDbArc
 50
90.0
 51
270.0
  0
ARC
  5
376
330
1F
100
AcDbEntity
  8
SLD-0
  6
Continuous
 62
   179
370
    30
100
AcDbCircle
 10
102.3008333333
 20
161.9016666667
 30
0.0
 40
2.0
100
AcDbArc
 50
90.0
 51
270.0
  0
ARC
  5
377
330
1F
100
AcDbEntity
  8
SLD-0
  6
Continuous
 62
   179
370
    30
100
AcDbCircle
 10
102.3008333333
 20
146.9016666667
 30
0.0
 40
2.0
100
AcDbArc
 50
90.0
 51
270.0
  0
ARC
  5
378
330
1F
100
AcDbEntity
  8
SLD-0
  6
Continuous
 62
   179
370
    30
100
AcDbCircle
 10
150.4508333333
 20
139.4266666667
 30
0.0
 40
0.9749999999999854
100
AcDbArc
 50
358.5307164186
 51
181.4692835814
  0
ARC
  5
379
330
1F
100
AcDbEntity
  8
SLD-0
  6
Continuous
 62
   179
370
    30
100
AcDbCircle
 10
191.2346010773
 20
100.6756533514
 30
0.0
 40
57.63613419301666
100
AcDbArc
 50
135.0405979684
 51
136.4288084984
  0
ARC
  5
37A
330
1F
100
AcDbEntity
  8
SLD-0
  6
Continuous
 62
   179
370
    30
100
AcDbCircle
 10
116.067803866
 20
106.9141781227
 30
0.0
 40
48.69886574574785
100
AcDbArc
 50
43.4439084294
 51
45.0869040201
  0
ARC
  5
37B
330
1F
100
AcDbEntity
  8
SLD-0
  6
Continuous
 62
   179
370
    30
100
AcDbCircle
 10
109.6652536121
 20
223.1296002508
 30
0.0
 40
57.63877148305155
100
AcDbArc
 50
315.0405189784
 51
316.428668572
  0
ARC
  5
37C
330
1F
100
AcDbEntity
  8
SLD-0
  6
Continuous
 62
   179
370
    30
100
AcDbCircle
 10
184.8266264315
 20
216.8819727946
 30
0.0
 40
48.68867121234354
100
AcDbArc
 50
223.4436284826
 51
225.0869650507
  0
ARC
  5
37D
330
1F
100
AcDbEntity
  8
SLD-0
  6
Continuous
 62
   179
370
    30
100
AcDbCircle
 10
150.4508333333
 20
184.3766666667
 30
0.0
 40
0.9750008314593336
100
AcDbArc
 50
178.5266362854
 51
1.4693226952
  0
ARC
  5
37E
330
1F
100
AcDbEntity
  8
SLD-0
  6
Continuous
 62
   179
370
    30
100
AcDbCircle
 10
152.8008333333
 20
176.9016666667
 30
0.0
 40
2.0
100
AcDbArc
 50
90.0
 51
270.0
  0
ARC
  5
37F
330
1F
100
AcDbEntity
  8
SLD-0
  6
Continuous
 62
   179
370
    30
100
AcDbCircle
 10
152.8008333333
 20
161.9016666667
 30
0.0
 40
2.0
100
AcDbArc
 50
90.0
 51
270.0
  0
ARC
  5
380
330
1F
100
AcDbEntity
  8
SLD-0
  6
Continuous
 62
   179
370
    30
100
AcDbCircle
 10
152.8008333333
 20
146.9016666667
 30
0.0
 40
2.0
100
AcDbArc
 50
90.0
 51
270.0
  0
ARC
  5
381
330
1F
100
AcDbEntity
  8
SLD-0
  6
Continuous
 62
   179
370
    30
100
AcDbCircle
 10
47.3410005843
 20
224.8100373427
 30
0.0
 40
60.04628107284928
100
AcDbArc
 50
315.0684593545
 51
316.4009471123
  0
ARC
  5
382
330
1F
100
AcDbEntity
  8
SLD-0
  6
Continuous
 62
   179
370
    30
100
AcDbCircle
 10
122.7100007071
 20
215.4037497621
 30
0.0
 40
46.57104523972878
100
AcDbArc
 50
223.4062637715
 51
225.1243297618
  0
ARC
  5
383
330
1F
100
AcDbEntity
  8
SLD-0
  6
Continuous
 62
   179
370
    30
100
AcDbCircle
 10
89.8508333333
 20
184.3766666667
 30
0.0
 40
0.9750000000000139
100
AcDbArc
 50
178.5307164186
 51
1.4692835814
  0
ARC
  5
384
330
1F
100
AcDbEntity
  8
SLD-0
  6
Continuous
 62
   179
370
    30
100
AcDbCircle
 10
89.8508333333
 20
139.4266666667
 30
0.0
 40
0.9749994537617417
100
AcDbArc
 50
358.5307055961
 51
181.4756089989
  0
ARC
  5
385
330
1F
100
AcDbEntity
  8
SLD-0
  6
Continuous
 62
   179
370
    30
100
AcDbCircle
 10
129.1138272106
 20
102.1579194842
 30
0.0
 40
55.51264977549274
100
AcDbArc
 50
135.0140454976
 51
136.4553609692
  0
ARC
  5
386
330
1F
100
AcDbEntity
  8
SLD-0
  6
Continuous
 62
   179
370
    30
100
AcDbCircle
 10
53.7612129145
 20
105.250932005
 30
0.0
 40
51.08166431901559
100
AcDbArc
 50
43.4821231567
 51
45.0484703765
  0
ARC
  5
387
330
1F
100
AcDbEntity
  8
SLD-0
  6
Continuous
 62
   179
370
    30
100
AcDbCircle
 10
92.2008333333
 20
176.9016666667
 30
0.0
 40
2.0
100
AcDbArc
 50
90.0
 51
270.0
  0
ARC
  5
388
330
1F
100
AcDbEntity
  8
SLD-0
  6
Continuous
 62
   179
370
    30
100
AcDbCircle
 10
92.2008333333
 20
161.9016666667
 30
0.0
 40
2.0
100
AcDbArc
 50
90.0
 51
270.0
  0
ARC
  5
389
330
1F
100
AcDbEntity
  8
SLD-0
  6
Continuous
 62
   179
370
    30
100
AcDbCircle
 10
92.2008333333
 20
146.9016666667
 30
0.0
 40
2.0
100
AcDbArc
 50
90.0
 51
270.0
  0
ARC
  5
38A
330
1F
100
AcDbEntity
  8
SLD-0
  6
Continuous
 62
   179
370
    30
100
AcDbCircle
 10
67.5602367415
 20
224.7912875292
 30
0.0
 40
60.01941998743337
100
AcDbArc
 50
315.0681611703
 51
316.4012452965
  0
ARC
  5
38B
330
1F
100
AcDbEntity
  8
SLD-0
  6
Continuous
 62
   179
370
    30
100
AcDbCircle
 10
110.0508333333
 20
184.3766666667
 30
0.0
 40
0.9749986804668176
100
AcDbArc
 50
178.5279548742
 51
1.4693259375
  0
ARC
  5
38C
330
1F
100
AcDbEntity
  8
SLD-0
  6
Continuous
 62
   179
370
    30
100
AcDbCircle
 10
149.3138264238
 20
102.1579194842
 30
0.0
 40
55.51264977549274
100
AcDbArc
 50
135.0140454976
 51
136.4553609692
  0
ARC
  5
38D
330
1F
100
AcDbEntity
  8
SLD-0
  6
Continuous
 62
   179
370
    30
100
AcDbCircle
 10
142.9099999203
 20
215.4037497621
 30
0.0
 40
46.57104523973892
100
AcDbArc
 50
223.4062637715
 51
225.1243297617
  0
ARC
  5
38E
330
1F
100
AcDbEntity
  8
SLD-0
  6
Continuous
 62
   179
370
    30
100
AcDbCircle
 10
73.9612121278
 20
105.250932005
 30
0.0
 40
51.08166431901002
100
AcDbArc
 50
43.4821231567
 51
45.0484703766
  0
ARC
  5
38F
330
1F
100
AcDbEntity
  8
SLD-0
  6
Continuous
 62
   179
370
    30
100
AcDbCircle
 10
110.0508333333
 20
139.4266666667
 30
0.0
 40
0.9749986672204185
100
AcDbArc
 50
358.5307044106
 51
181.4720148338
  0
ARC
  5
390
330
1F
100
AcDbEntity
  8
SLD-0
  6
Continuous
 62
   179
370
    30
100
AcDbCircle
 10
112.4008333333
 20
176.9016666667
 30
0.0
 40
2.0
100
AcDbArc
 50
90.0
 51
270.0
  0
ARC
  5
391
330
1F
100
AcDbEntity
  8
SLD-0
  6
Continuous
 62
   179
370
    30
100
AcDbCircle
 10
112.4008333333
 20
161.9016666667
 30
0.0
 40
2.0
100
AcDbArc
 50
90.0
 51
270.0
  0
ARC
  5
392
330
1F
100
AcDbEntity
  8
SLD-0
  6
Continuous
 62
   179
370
    30
100
AcDbCircle
 10
112.4008333333
 20
146.9016666667
 30
0.0
 40
2.0
100
AcDbArc
 50
90.0
 51
270.0
  0
ARC
  5
393
330
1F
100
AcDbEntity
  8
SLD-0
  6
Continuous
 62
   179
370
    30
100
AcDbCircle
 10
43.6329516229
 20
105.2231096198
 30
0.0
 40
51.12132146952437
100
AcDbArc
 50
43.4829467395
 51
45.0480846256
  0
ARC
  5
394
330
1F
100
AcDbEntity
  8
SLD-0
  6
Continuous
 62
   179
370
    30
100
AcDbCircle
 10
37.2123047131
 20
224.8383311403
 30
0.0
 40
60.086579444065
100
AcDbArc
 50
315.06868481
 51
316.4002838249
  0
ARC
  5
395
330
1F
100
AcDbEntity
  8
SLD-0
  6
Continuous
 62
   179
370
    30
100
AcDbCircle
 10
115.8677372716
 20
218.5792677524
 30
0.0
 40
51.11995125486022
100
AcDbArc
 50
223.4829257623
 51
225.0481056028
  0
ARC
  5
396
330
1F
100
AcDbEntity
  8
SLD-0
  6
Continuous
 62
   179
370
    30
100
AcDbCircle
 10
79.7508333333
 20
184.3766666667
 30
0.0
 40
0.9750000000000139
100
AcDbArc
 50
178.5307164186
 51
1.4692835814
  0
ARC
  5
397
330
1F
100
AcDbEntity
  8
SLD-0
  6
Continuous
 62
   179
370
    30
100
AcDbCircle
 10
79.7508333333
 20
139.4266666667
 30
0.0
 40
0.9750000000000139
100
AcDbArc
 50
358.5307164186
 51
181.4692835814
  0
ARC
  5
398
330
1F
100
AcDbEntity
  8
SLD-0
  6
Continuous
 62
   179
370
    30
100
AcDbCircle
 10
122.2912436436
 20
98.9631721131
 30
0.0
 40
60.08920195677747
100
AcDbArc
 50
135.0687138693
 51
136.4002547657
  0
ARC
  5
399
330
1F
100
AcDbEntity
  8
SLD-0
  6
Continuous
 62
   179
370
    30
100
AcDbCircle
 10
82.1008333333
 20
176.9016666667
 30
0.0
 40
2.0
100
AcDbArc
 50
90.0
 51
270.0
  0
ARC
  5
39A
330
1F
100
AcDbEntity
  8
SLD-0
  6
Continuous
 62
   179
370
    30
100
AcDbCircle
 10
82.1008333333
 20
161.9016666667
 30
0.0
 40
2.0
100
AcDbArc
 50
90.0
 51
270.0
  0
ARC
  5
39B
330
1F
100
AcDbEntity
  8
SLD-0
  6
Continuous
 62
   179
370
    30
100
AcDbCircle
 10
82.1008333333
 20
146.9016666667
 30
0.0
 40
2.0
100
AcDbArc
 50
90.0
 51
270.0
  0
ARC
  5
39C
330
1F
100
AcDbEntity
  8
SLD-0
  6
Continuous
 62
   179
370
    30
100
AcDbCircle
 10
120.1508333333
 20
139.4266666667
 30
0.0
 40
0.9750000000000139
100
AcDbArc
 50
358.5307164186
 51
181.4692835814
  0
ARC
  5
39D
330
1F
100
AcDbEntity
  8
SLD-0
  6
Continuous
 62
   179
370
    30
100
AcDbCircle
 10
162.6433019629
 20
99.010222462
 30
0.0
 40
60.02203285741084
100
AcDbArc
 50
135.0681901874
 51
136.4012162794
  0
ARC
  5
39E
330
1F
100
AcDbEntity
  8
SLD-0
  6
Continuous
 62
   179
370
    30
100
AcDbCircle
 10
84.0612117344
 20
105.250932005
 30
0.0
 40
51.08166431904382
100
AcDbArc
 50
43.4821231567
 51
45.0484703766
  0
ARC
  5
39F
330
1F
100
AcDbEntity
  8
SLD-0
  6
Continuous
 62
   179
370
    30
100
AcDbCircle
 10
77.6602363481
 20
224.7912875292
 30
0.0
 40
60.01941998743337
100
AcDbArc
 50
315.0681611703
 51
316.4012452965
  0
ARC
  5
3A0
330
1F
100
AcDbEntity
  8
SLD-0
  6
Continuous
 62
   179
370
    30
100
AcDbCircle
 10
120.1508333333
 20
184.3766666667
 30
0.0
 40
0.974998287196197
100
AcDbArc
 50
178.5297552159
 51
1.4693265302
  0
ARC
  5
3A1
330
1F
100
AcDbEntity
  8
SLD-0
  6
Continuous
 62
   179
370
    30
100
AcDbCircle
 10
156.2394754594
 20
218.5514467843
 30
0.0
 40
51.08029612924018
100
AcDbArc
 50
223.482102178
 51
225.0484913552
  0
ARC
  5
3A2
330
1F
100
AcDbEntity
  8
SLD-0
  6
Continuous
 62
   179
370
    30
100
AcDbCircle
 10
122.5008333333
 20
176.9016666667
 30
0.0
 40
2.0
100
AcDbArc
 50
90.0
 51
270.0
  0
ARC
  5
3A3
330
1F
100
AcDbEntity
  8
SLD-0
  6
Continuous
 62
   179
370
    30
100
AcDbCircle
 10
122.5008333333
 20
161.9016666667
 30
0.0
 40
2.0
100
AcDbArc
 50
90.0
 51
270.0
  0
ARC
  5
3A4
330
1F
100
AcDbEntity
  8
SLD-0
  6
Continuous
 62
   179
370
    30
100
AcDbCircle
 10
122.5008333333
 20
146.9016666667
 30
0.0
 40
2.0
100
AcDbArc
 50
90.0
 51
270.0
  0
ARC
  5
3A5
330
1F
100
AcDbEntity
  8
SLD-0
  6
Continuous
 62
   179
370
    30
100
AcDbCircle
 10
39.3088752505
 20
110.8528214291
 30
0.0
 40
43.05654485294427
100
AcDbArc
 50
43.3363545455
 51
45.1946768196
  0
ARC
  5
3A6
330
1F
100
AcDbEntity
  8
SLD-0
  6
Continuous
 62
   179
370
    30
100
AcDbCircle
 10
105.7167161709
 20
218.5289931926
 30
0.0
 40
51.04832986420866
100
AcDbArc
 50
223.4813957151
 51
225.048759983
  0
ARC
  5
3A7
330
1F
100
AcDbEntity
  8
SLD-0
  6
Continuous
 62
   179
370
    30
100
AcDbCircle
 10
69.6508333333
 20
139.4266666667
 30
0.0
 40
0.9750002403030511
100
AcDbArc
 50
358.5307067817
 51
181.4791941993
  0
ARC
  5
3A8
330
1F
100
AcDbEntity
  8
SLD-0
  6
Continuous
 62
   179
370
    30
100
AcDbCircle
 10
69.6508333333
 20
184.3766666667
 30
0.0
 40
0.9750002535494289
100
AcDbArc
 50
178.520775656
 51
1.4693235663
  0
ARC
  5
3A9
330
1F
100
AcDbEntity
  8
SLD-0
  6
Continuous
 62
   179
370
    30
100
AcDbCircle
 10
112.1338783812
 20
99.0197258539
 30
0.0
 40
60.00865342491561
100
AcDbArc
 50
135.0682629764
 51
136.4015813254
  0
ARC
  5
3AA
330
1F
100
AcDbEntity
  8
SLD-0
  6
Continuous
 62
   179
370
    30
100
AcDbCircle
 10
32.9212359416
 20
219.1764473244
 30
0.0
 40
51.9754499979066
100
AcDbArc
 50
314.9647763503
 51
316.5041922846
  0
ARC
  5
3AB
330
1F
100
AcDbEntity
  8
SLD-0
  6
Continuous
 62
   179
370
    30
100
AcDbCircle
 10
72.0008333333
 20
176.9016666667
 30
0.0
 40
2.0
100
AcDbArc
 50
90.0
 51
270.0
  0
ARC
  5
3AC
330
1F
100
AcDbEntity
  8
SLD-0
  6
Continuous
 62
   179
370
    30
100
AcDbCircle
 10
72.0008333333
 20
161.9016666667
 30
0.0
 40
2.0
100
AcDbArc
 50
90.0
 51
270.0
  0
ARC
  5
3AD
330
1F
100
AcDbEntity
  8
SLD-0
  6
Continuous
 62
   179
370
    30
100
AcDbCircle
 10
72.0008333333
 20
146.9016666667
 30
0.0
 40
2.0
100
AcDbArc
 50
90.0
 51
270.0
  0
ARC
  5
3AE
330
1F
100
AcDbEntity
  8
SLD-0
  6
Continuous
 62
   179
370
    30
100
AcDbCircle
 10
87.7602359548
 20
224.7912875292
 30
0.0
 40
60.01941998743337
100
AcDbArc
 50
315.0681611703
 51
316.4012452965
  0
ARC
  5
3AF
330
1F
100
AcDbEntity
  8
SLD-0
  6
Continuous
 62
   179
370
    30
100
AcDbCircle
 10
166.339475066
 20
218.5514467843
 30
0.0
 40
51.08029612923038
100
AcDbArc
 50
223.482102178
 51
225.0484913553
  0
ARC
  5
3B0
330
1F
100
AcDbEntity
  8
SLD-0
  6
Continuous
 62
   179
370
    30
100
AcDbCircle
 10
130.2508333333
 20
184.3766666667
 30
0.0
 40
0.9750000000000576
100
AcDbArc
 50
178.5307164185
 51
1.4692835816
  0
ARC
  5
3B1
330
1F
100
AcDbEntity
  8
SLD-0
  6
Continuous
 62
   179
370
    30
100
AcDbCircle
 10
130.2508333333
 20
139.4266666667
 30
0.0
 40
0.9750000000000576
100
AcDbArc
 50
358.5307164184
 51
181.4692835815
  0
ARC
  5
3B2
330
1F
100
AcDbEntity
  8
SLD-0
  6
Continuous
 62
   179
370
    30
100
AcDbCircle
 10
172.7433015695
 20
99.010222462
 30
0.0
 40
60.02203285741084
100
AcDbArc
 50
135.0681901874
 51
136.4012162794
  0
ARC
  5
3B3
330
1F
100
AcDbEntity
  8
SLD-0
  6
Continuous
 62
   179
370
    30
100
AcDbCircle
 10
94.161211341
 20
105.250932005
 30
0.0
 40
51.08166431904381
100
AcDbArc
 50
43.4821231567
 51
45.0484703766
  0
ARC
  5
3B4
330
1F
100
AcDbEntity
  8
SLD-0
  6
Continuous
 62
   179
370
    30
100
AcDbCircle
 10
132.6008333333
 20
176.9016666667
 30
0.0
 40
2.0
100
AcDbArc
 50
90.0
 51
270.0
  0
ARC
  5
3B5
330
1F
100
AcDbEntity
  8
SLD-0
  6
Continuous
 62
   179
370
    30
100
AcDbCircle
 10
132.6008333333
 20
161.9016666667
 30
0.0
 40
2.0
100
AcDbArc
 50
90.0
 51
270.0
  0
ARC
  5
3B6
330
1F
100
AcDbEntity
  8
SLD-0
  6
Continuous
 62
   179
370
    30
100
AcDbCircle
 10
132.6008333333
 20
146.9016666667
 30
0.0
 40
2.0
100
AcDbArc
 50
90.0
 51
270.0
  0
ARC
  5
3B7
330
1F
100
AcDbEntity
  8
SLD-0
  6
Continuous
 62
   179
370
    30
100
AcDbCircle
 10
22.0123007315
 20
224.8383311403
 30
0.0
 40
60.08657944406498
100
AcDbArc
 50
315.06868481
 51
316.4002838249
  0
ARC
  5
3B8
330
1F
100
AcDbEntity
  8
SLD-0
  6
Continuous
 62
   179
370
    30
100
AcDbCircle
 10
64.5508333333
 20
139.4266666667
 30
0.0
 40
0.9750033148918352
100
AcDbArc
 50
358.530711416
 51
181.4931269936
  0
ARC
  5
3B9
330
1F
100
AcDbEntity
  8
SLD-0
  6
Continuous
 62
   179
370
    30
100
AcDbCircle
 10
28.4329476413
 20
105.2231096198
 30
0.0
 40
51.12132146952436
100
AcDbArc
 50
43.4829467395
 51
45.0480846256
  0
ARC
  5
3BA
330
1F
100
AcDbEntity
  8
SLD-0
  6
Continuous
 62
   179
370
    30
100
AcDbCircle
 10
100.6167192465
 20
218.5289931926
 30
0.0
 40
51.04832986420875
100
AcDbArc
 50
223.4813957151
 51
225.048759983
  0
ARC
  5
3BB
330
1F
100
AcDbEntity
  8
SLD-0
  6
Continuous
 62
   179
370
    30
100
AcDbCircle
 10
64.5508333333
 20
184.3766666667
 30
0.0
 40
0.9750000000000139
100
AcDbArc
 50
178.5307164186
 51
1.4692835814
  0
ARC
  5
3BC
330
1F
100
AcDbEntity
  8
SLD-0
  6
Continuous
 62
   179
370
    30
100
AcDbCircle
 10
107.0338814568
 20
99.0197258539
 30
0.0
 40
60.00865342488332
100
AcDbArc
 50
135.0682629764
 51
136.4015813255
  0
ARC
  5
3BD
330
1F
100
AcDbEntity
  8
SLD-0
  6
Continuous
 62
   179
370
    30
100
AcDbCircle
 10
62.1008333333
 20
146.9016666667
 30
0.0
 40
2.0
100
AcDbArc
 50
270.0
 51
90.0
  0
ARC
  5
3BE
330
1F
100
AcDbEntity
  8
SLD-0
  6
Continuous
 62
   179
370
    30
100
AcDbCircle
 10
62.1008333333
 20
161.9016666667
 30
0.0
 40
2.0
100
AcDbArc
 50
270.0
 51
90.0
  0
ARC
  5
3BF
330
1F
100
AcDbEntity
  8
SLD-0
  6
Continuous
 62
   179
370
    30
100
AcDbCircle
 10
62.1008333333
 20
176.9016666667
 30
0.0
 40
2.0
100
AcDbArc
 50
270.0
 51
90.0
  0
ARC
  5
3C0
330
1F
100
AcDbEntity
  8
SLD-0
  6
Continuous
 62
   179
370
    30
100
AcDbCircle
 10
184.6387267622
 20
102.133351173
 30
0.0
 40
55.54762838771303
100
AcDbArc
 50
135.014277725
 51
136.4546909099
  0
ARC
  5
3C1
330
1F
100
AcDbEntity
  8
SLD-0
  6
Continuous
 62
   179
370
    30
100
AcDbCircle
 10
145.3508333333
 20
184.3766666667
 30
0.0
 40
0.9750034399013885
100
AcDbArc
 50
178.5306812366
 51
1.4767687531
  0
ARC
  5
3C2
330
1F
100
AcDbEntity
  8
SLD-0
  6
Continuous
 62
   179
370
    30
100
AcDbCircle
 10
145.3508333333
 20
139.4266666667
 30
0.0
 40
0.9750000000000292
100
AcDbArc
 50
358.5307164185
 51
181.4692835814
  0
ARC
  5
3C3
330
1F
100
AcDbEntity
  8
SLD-0
  6
Continuous
 62
   179
370
    30
100
AcDbCircle
 10
109.2502714934
 20
105.2402669526
 30
0.0
 40
51.09694273793472
100
AcDbArc
 50
43.4823573468
 51
45.0482361864
  0
ARC
  5
3C4
330
1F
100
AcDbEntity
  8
SLD-0
  6
Continuous
 62
   179
370
    30
100
AcDbCircle
 10
178.2317466041
 20
215.4251965418
 30
0.0
 40
46.60158603961824
100
AcDbArc
 50
223.407042508
 51
225.1239888571
  0
ARC
  5
3C5
330
1F
100
AcDbEntity
  8
SLD-0
  6
Continuous
 62
   179
370
    30
100
AcDbCircle
 10
102.8410012996
 20
224.8100373427
 30
0.0
 40
60.04628107284925
100
AcDbArc
 50
315.0684593544
 51
316.4009471123
  0
ARC
  5
3C6
330
1F
100
AcDbEntity
  8
SLD-0
  6
Continuous
 62
   179
370
    30
100
AcDbCircle
 10
142.9008333333
 20
146.9016666667
 30
0.0
 40
2.0
100
AcDbArc
 50
270.0
 51
90.0
  0
ARC
  5
3C7
330
1F
100
AcDbEntity
  8
SLD-0
  6
Continuous
 62
   179
370
    30
100
AcDbCircle
 10
142.9008333333
 20
161.9016666667
 30
0.0
 40
2.0
100
AcDbArc
 50
270.0
 51
90.0
  0
ARC
  5
3C8
330
1F
100
AcDbEntity
  8
SLD-0
  6
Continuous
 62
   179
370
    30
100
AcDbCircle
 10
142.9008333333
 20
176.9016666667
 30
0.0
 40
2.0
100
AcDbArc
 50
270.0
 51
90.0
  0
ARC
  5
3C9
330
1F
100
AcDbEntity
  8
SLD-0
  6
Continuous
 62
   179
370
    30
100
AcDbCircle
 10
38.5839716316
 20
105.2733870107
 30
0.0
 40
51.04969603354213
100
AcDbArc
 50
43.481416689
 51
45.0487390091
  0
ARC
  5
3CA
330
1F
100
AcDbEntity
  8
SLD-0
  6
Continuous
 62
   179
370
    30
100
AcDbCircle
 10
104.9918096623
 20
212.9495559431
 30
0.0
 40
43.05517469063468
100
AcDbArc
 50
223.3363249739
 51
225.1947063912
  0
ARC
  5
3CB
330
1F
100
AcDbEntity
  8
SLD-0
  6
Continuous
 62
   179
370
    30
100
AcDbCircle
 10
32.1696611405
 20
224.7817821578
 30
0.0
 40
60.00603770892401
100
AcDbArc
 50
315.0682339147
 51
316.4016103871
  0
ARC
  5
3CC
330
1F
100
AcDbEntity
  8
SLD-0
  6
Continuous
 62
   179
370
    30
100
AcDbCircle
 10
74.6508333333
 20
184.3766666667
 30
0.0
 40
0.9750000000000139
100
AcDbArc
 50
178.5307164186
 51
1.4692835814
  0
ARC
  5
3CD
330
1F
100
AcDbEntity
  8
SLD-0
  6
Continuous
 62
   179
370
    30
100
AcDbCircle
 10
74.6508333333
 20
139.4266666667
 30
0.0
 40
0.9750000000000139
100
AcDbArc
 50
358.5307164186
 51
181.4692835814
  0
ARC
  5
3CE
330
1F
100
AcDbEntity
  8
SLD-0
  6
Continuous
 62
   179
370
    30
100
AcDbCircle
 10
111.3822994932
 20
104.625064643
 30
0.0
 40
51.97805996766837
100
AcDbArc
 50
134.964815002
 51
136.504153633
  0
ARC
  5
3CF
330
1F
100
AcDbEntity
  8
SLD-0
  6
Continuous
 62
   179
370
    30
100
AcDbCircle
 10
72.2008333333
 20
146.9016666667
 30
0.0
 40
2.0
100
AcDbArc
 50
270.0
 51
90.0
  0
ARC
  5
3D0
330
1F
100
AcDbEntity
  8
SLD-0
  6
Continuous
 62
   179
370
    30
100
AcDbCircle
 10
72.2008333333
 20
161.9016666667
 30
0.0
 40
2.0
100
AcDbArc
 50
270.0
 51
90.0
  0
ARC
  5
3D1
330
1F
100
AcDbEntity
  8
SLD-0
  6
Continuous
 62
   179
370
    30
100
AcDbCircle
 10
72.2008333333
 20
176.9016666667
 30
0.0
 40
2.0
100
AcDbArc
 50
270.0
 51
90.0
  0
ARC
  5
3D2
330
1F
100
AcDbEntity
  8
SLD-0
  6
Continuous
 62
   179
370
    30
100
AcDbCircle
 10
168.1317469975
 20
215.4251965418
 30
0.0
 40
46.60158603961824
100
AcDbArc
 50
223.407042508
 51
225.1239888571
  0
ARC
  5
3D3
330
1F
100
AcDbEntity
  8
SLD-0
  6
Continuous
 62
   179
370
    30
100
AcDbCircle
 10
135.2508333333
 20
139.4266666667
 30
0.0
 40
0.9750030333844268
100
AcDbArc
 50
358.525056045
 51
181.4692890084
  0
ARC
  5
3D4
330
1F
100
AcDbEntity
  8
SLD-0
  6
Continuous
 62
   179
370
    30
100
AcDbCircle
 10
135.2508333333
 20
184.3766666667
 30
0.0
 40
0.9750030466307667
100
AcDbArc
 50
178.5306806438
 51
1.4749741865
  0
ARC
  5
3D5
330
1F
100
AcDbEntity
  8
SLD-0
  6
Continuous
 62
   179
370
    30
100
AcDbCircle
 10
99.1502718868
 20
105.2402669526
 30
0.0
 40
51.0969427378941
100
AcDbArc
 50
43.4823573468
 51
45.0482361864
  0
ARC
  5
3D6
330
1F
100
AcDbEntity
  8
SLD-0
  6
Continuous
 62
   179
370
    30
100
AcDbCircle
 10
174.5387271556
 20
102.133351173
 30
0.0
 40
55.54762838768939
100
AcDbArc
 50
135.014277725
 51
136.4546909099
  0
ARC
  5
3D7
330
1F
100
AcDbEntity
  8
SLD-0
  6
Continuous
 62
   179
370
    30
100
AcDbCircle
 10
92.7410016929
 20
224.8100373427
 30
0.0
 40
60.0462810728722
100
AcDbArc
 50
315.0684593545
 51
316.4009471123
  0
ARC
  5
3D8
330
1F
100
AcDbEntity
  8
SLD-0
  6
Continuous
 62
   179
370
    30
100
AcDbCircle
 10
132.8008333333
 20
146.9016666667
 30
0.0
 40
2.0
100
AcDbArc
 50
270.0
 51
90.0
  0
ARC
  5
3D9
330
1F
100
AcDbEntity
  8
SLD-0
  6
Continuous
 62
   179
370
    30
100
AcDbCircle
 10
132.8008333333
 20
161.9016666667
 30
0.0
 40
2.0
100
AcDbArc
 50
270.0
 51
90.0
  0
ARC
  5
3DA
330
1F
100
AcDbEntity
  8
SLD-0
  6
Continuous
 62
   179
370
    30
100
AcDbCircle
 10
132.8008333333
 20
176.9016666667
 30
0.0
 40
2.0
100
AcDbArc
 50
270.0
 51
90.0
  0
ARC
  5
3DB
330
1F
100
AcDbEntity
  8
SLD-0
  6
Continuous
 62
   179
370
    30
100
AcDbCircle
 10
120.8167184597
 20
218.5289931926
 30
0.0
 40
51.04832986420866
100
AcDbArc
 50
223.4813957151
 51
225.048759983
  0
ARC
  5
3DC
330
1F
100
AcDbEntity
  8
SLD-0
  6
Continuous
 62
   179
370
    30
100
AcDbCircle
 10
51.8689378439
 20
108.3771808304
 30
0.0
 40
46.60295622831116
100
AcDbArc
 50
43.4070677501
 51
45.123963615
  0
ARC
  5
3DD
330
1F
100
AcDbEntity
  8
SLD-0
  6
Continuous
 62
   179
370
    30
100
AcDbCircle
 10
84.7508333333
 20
139.4266666667
 30
0.0
 40
0.9750025283505384
100
AcDbArc
 50
358.5307102304
 51
181.4895753428
  0
ARC
  5
3DE
330
1F
100
AcDbEntity
  8
SLD-0
  6
Continuous
 62
   179
370
    30
100
AcDbCircle
 10
84.7508333333
 20
184.3766666667
 30
0.0
 40
0.975002541596885
100
AcDbArc
 50
178.5103947228
 51
1.4693201175
  0
ARC
  5
3DF
330
1F
100
AcDbEntity
  8
SLD-0
  6
Continuous
 62
   179
370
    30
100
AcDbCircle
 10
127.23388067
 20
99.0197258539
 30
0.0
 40
60.00865342483496
100
AcDbArc
 50
135.0682629763
 51
136.4015813255
  0
ARC
  5
3E0
330
1F
100
AcDbEntity
  8
SLD-0
  6
Continuous
 62
   179
370
    30
100
AcDbCircle
 10
45.4648126697
 20
221.6681564451
 30
0.0
 40
55.54501215806602
100
AcDbArc
 50
315.0142438008
 51
316.4547248342
  0
ARC
  5
3E1
330
1F
100
AcDbEntity
  8
SLD-0
  6
Continuous
 62
   179
370
    30
100
AcDbCircle
 10
82.3008333333
 20
146.9016666667
 30
0.0
 40
2.0
100
AcDbArc
 50
270.0
 51
90.0
  0
ARC
  5
3E2
330
1F
100
AcDbEntity
  8
SLD-0
  6
Continuous
 62
   179
370
    30
100
AcDbCircle
 10
82.3008333333
 20
161.9016666667
 30
0.0
 40
2.0
100
AcDbArc
 50
270.0
 51
90.0
  0
ARC
  5
3E3
330
1F
100
AcDbEntity
  8
SLD-0
  6
Continuous
 62
   179
370
    30
100
AcDbCircle
 10
82.3008333333
 20
176.9016666667
 30
0.0
 40
2.0
100
AcDbArc
 50
270.0
 51
90.0
  0
ARC
  5
3E4
330
1F
100
AcDbEntity
  8
SLD-0
  6
Continuous
 62
   179
370
    30
100
AcDbCircle
 10
125.1508333333
 20
184.3766666667
 30
0.0
 40
0.9750026533601307
100
AcDbArc
 50
178.530680051
 51
1.4731774328
  0
ARC
  5
3E5
330
1F
100
AcDbEntity
  8
SLD-0
  6
Continuous
 62
   179
370
    30
100
AcDbCircle
 10
125.1508333333
 20
139.4266666667
 30
0.0
 40
0.9750000000000281
100
AcDbArc
 50
358.5307164185
 51
181.4692835814
  0
ARC
  5
3E6
330
1F
100
AcDbEntity
  8
SLD-0
  6
Continuous
 62
   179
370
    30
100
AcDbCircle
 10
164.438727549
 20
102.133351173
 30
0.0
 40
55.54762838768878
100
AcDbArc
 50
135.014277725
 51
136.4546909099
  0
ARC
  5
3E7
330
1F
100
AcDbEntity
  8
SLD-0
  6
Continuous
 62
   179
370
    30
100
AcDbCircle
 10
89.0502722802
 20
105.2402669526
 30
0.0
 40
51.09694273792136
100
AcDbArc
 50
43.4823573468
 51
45.0482361864
  0
ARC
  5
3E8
330
1F
100
AcDbEntity
  8
SLD-0
  6
Continuous
 62
   179
370
    30
100
AcDbCircle
 10
82.6410020863
 20
224.8100373427
 30
0.0
 40
60.04628107284927
100
AcDbArc
 50
315.0684593545
 51
316.4009471123
  0
ARC
  5
3E9
330
1F
100
AcDbEntity
  8
SLD-0
  6
Continuous
 62
   179
370
    30
100
AcDbCircle
 10
158.0317473909
 20
215.4251965418
 30
0.0
 40
46.6015860396187
100
AcDbArc
 50
223.407042508
 51
225.1239888571
  0
ARC
  5
3EA
330
1F
100
AcDbEntity
  8
SLD-0
  6
Continuous
 62
   179
370
    30
100
AcDbCircle
 10
122.7008333333
 20
146.9016666667
 30
0.0
 40
2.0
100
AcDbArc
 50
270.0
 51
90.0
  0
ARC
  5
3EB
330
1F
100
AcDbEntity
  8
SLD-0
  6
Continuous
 62
   179
370
    30
100
AcDbCircle
 10
122.7008333333
 20
161.9016666667
 30
0.0
 40
2.0
100
AcDbArc
 50
270.0
 51
90.0
  0
ARC
  5
3EC
330
1F
100
AcDbEntity
  8
SLD-0
  6
Continuous
 62
   179
370
    30
100
AcDbCircle
 10
122.7008333333
 20
176.9016666667
 30
0.0
 40
2.0
100
AcDbArc
 50
270.0
 51
90.0
  0
ARC
  5
3ED
330
1F
100
AcDbEntity
  8
SLD-0
  6
Continuous
 62
   179
370
    30
100
AcDbCircle
 10
94.8508333333
 20
139.4266666667
 30
0.0
 40
0.9750021350798688
100
AcDbArc
 50
358.5307096376
 51
181.4708365245
  0
ARC
  5
3EE
330
1F
100
AcDbEntity
  8
SLD-0
  6
Continuous
 62
   179
370
    30
100
AcDbCircle
 10
61.9689374505
 20
108.3771808304
 30
0.0
 40
46.60295622831116
100
AcDbArc
 50
43.4070677501
 51
45.123963615
  0
ARC
  5
3EF
330
1F
100
AcDbEntity
  8
SLD-0
  6
Continuous
 62
   179
370
    30
100
AcDbCircle
 10
94.8508333333
 20
184.3766666667
 30
0.0
 40
0.9750021483262208
100
AcDbArc
 50
178.5291331595
 51
1.4693207103
  0
ARC
  5
3F0
330
1F
100
AcDbEntity
  8
SLD-0
  6
Continuous
 62
   179
370
    30
100
AcDbCircle
 10
137.3625397882
 20
98.9914682921
 30
0.0
 40
60.04890018390576
100
AcDbArc
 50
135.0684884149
 51
136.4009180519
  0
ARC
  5
3F1
330
1F
100
AcDbEntity
  8
SLD-0
  6
Continuous
 62
   179
370
    30
100
AcDbCircle
 10
55.5648122764
 20
221.6681564451
 30
0.0
 40
55.54501215805393
100
AcDbArc
 50
315.0142438007
 51
316.4547248342
  0
ARC
  5
3F2
330
1F
100
AcDbEntity
  8
SLD-0
  6
Continuous
 62
   179
370
    30
100
AcDbCircle
 10
130.9504120601
 20
218.5621099386
 30
0.0
 40
51.09557182886992
100
AcDbArc
 50
223.4823363391
 51
225.0482571943
  0
ARC
  5
3F3
330
1F
100
AcDbEntity
  8
SLD-0
  6
Continuous
 62
   179
370
    30
100
AcDbCircle
 10
92.4008333333
 20
146.9016666667
 30
0.0
 40
2.0
100
AcDbArc
 50
270.0
 51
90.0
  0
ARC
  5
3F4
330
1F
100
AcDbEntity
  8
SLD-0
  6
Continuous
 62
   179
370
    30
100
AcDbCircle
 10
92.4008333333
 20
161.9016666667
 30
0.0
 40
2.0
100
AcDbArc
 50
270.0
 51
90.0
  0
ARC
  5
3F5
330
1F
100
AcDbEntity
  8
SLD-0
  6
Continuous
 62
   179
370
    30
100
AcDbCircle
 10
92.4008333333
 20
176.9016666667
 30
0.0
 40
2.0
100
AcDbArc
 50
270.0
 51
90.0
  0
ARC
  5
3F6
330
1F
100
AcDbEntity
  8
SLD-0
  6
Continuous
 62
   179
370
    30
100
AcDbCircle
 10
78.9502726736
 20
105.2402669526
 30
0.0
 40
51.0969427378941
100
AcDbArc
 50
43.4823573468
 51
45.0482361864
  0
ARC
  5
3F7
330
1F
100
AcDbEntity
  8
SLD-0
  6
Continuous
 62
   179
370
    30
100
AcDbCircle
 10
115.0508333333
 20
139.4266666667
 30
0.0
 40
0.975002246843116
100
AcDbArc
 50
358.5286518216
 51
181.4692901939
  0
ARC
  5
3F8
330
1F
100
AcDbEntity
  8
SLD-0
  6
Continuous
 62
   179
370
    30
100
AcDbCircle
 10
154.3387279424
 20
102.133351173
 30
0.0
 40
55.5476283876894
100
AcDbArc
 50
135.014277725
 51
136.4546909099
  0
ARC
  5
3F9
330
1F
100
AcDbEntity
  8
SLD-0
  6
Continuous
 62
   179
370
    30
100
AcDbCircle
 10
72.5410024797
 20
224.8100373427
 30
0.0
 40
60.04628107284927
100
AcDbArc
 50
315.0684593545
 51
316.4009471123
  0
ARC
  5
3FA
330
1F
100
AcDbEntity
  8
SLD-0
  6
Continuous
 62
   179
370
    30
100
AcDbCircle
 10
147.9317477843
 20
215.4251965418
 30
0.0
 40
46.60158603961826
100
AcDbArc
 50
223.407042508
 51
225.1239888571
  0
ARC
  5
3FB
330
1F
100
AcDbEntity
  8
SLD-0
  6
Continuous
 62
   179
370
    30
100
AcDbCircle
 10
115.0508333333
 20
184.3766666667
 30
0.0
 40
0.9750000000000139
100
AcDbArc
 50
178.5307164186
 51
1.4692835814
  0
ARC
  5
3FC
330
1F
100
AcDbEntity
  8
SLD-0
  6
Continuous
 62
   179
370
    30
100
AcDbCircle
 10
112.6008333333
 20
146.9016666667
 30
0.0
 40
2.0
100
AcDbArc
 50
270.0
 51
90.0
  0
ARC
  5
3FD
330
1F
100
AcDbEntity
  8
SLD-0
  6
Continuous
 62
   179
370
    30
100
AcDbCircle
 10
112.6008333333
 20
161.9016666667
 30
0.0
 40
2.0
100
AcDbArc
 50
270.0
 51
90.0
  0
ARC
  5
3FE
330
1F
100
AcDbEntity
  8
SLD-0
  6
Continuous
 62
   179
370
    30
100
AcDbCircle
 10
112.6008333333
 20
176.9016666667
 30
0.0
 40
2.0
100
AcDbArc
 50
270.0
 51
90.0
  0
ARC
  5
3FF
330
1F
100
AcDbEntity
  8
SLD-0
  6
Continuous
 62
   179
370
    30
100
AcDbCircle
 10
104.9508333333
 20
139.4266666667
 30
0.0
 40
0.9749999999999996
100
AcDbArc
 50
358.5307164186
 51
181.4692835814
  0
ARC
  5
400
330
1F
100
AcDbEntity
  8
SLD-0
  6
Continuous
 62
   179
370
    30
100
AcDbCircle
 10
144.2387283358
 20
102.133351173
 30
0.0
 40
55.54762838768829
100
AcDbArc
 50
135.014277725
 51
136.4546909099
  0
ARC
  5
401
330
1F
100
AcDbEntity
  8
SLD-0
  6
Continuous
 62
   179
370
    30
100
AcDbCircle
 10
68.850273067
 20
105.2402669526
 30
0.0
 40
51.09694273792137
100
AcDbArc
 50
43.4823573468
 51
45.0482361864
  0
ARC
  5
402
330
1F
100
AcDbEntity
  8
SLD-0
  6
Continuous
 62
   179
370
    30
100
AcDbCircle
 10
104.9508333333
 20
184.3766666667
 30
0.0
 40
0.9750018668187881
100
AcDbArc
 50
178.5306788654
 51
1.4695773319
  0
ARC
  5
403
330
1F
100
AcDbEntity
  8
SLD-0
  6
Continuous
 62
   179
370
    30
100
AcDbCircle
 10
62.4410028731
 20
224.8100373427
 30
0.0
 40
60.04628107284928
100
AcDbArc
 50
315.0684593545
 51
316.4009471123
  0
ARC
  5
404
330
1F
100
AcDbEntity
  8
SLD-0
  6
Continuous
 62
   179
370
    30
100
AcDbCircle
 10
137.8317481777
 20
215.4251965418
 30
0.0
 40
46.60158603961824
100
AcDbArc
 50
223.407042508
 51
225.1239888571
  0
ARC
  5
405
330
1F
100
AcDbEntity
  8
SLD-0
  6
Continuous
 62
   179
370
    30
100
AcDbCircle
 10
102.5008333333
 20
146.9016666667
 30
0.0
 40
2.0
100
AcDbArc
 50
270.0
 51
90.0
  0
ARC
  5
406
330
1F
100
AcDbEntity
  8
SLD-0
  6
Continuous
 62
   179
370
    30
100
AcDbCircle
 10
102.5008333333
 20
161.9016666667
 30
0.0
 40
2.0
100
AcDbArc
 50
270.0
 51
90.0
  0
ARC
  5
407
330
1F
100
AcDbEntity
  8
SLD-0
  6
Continuous
 62
   179
370
    30
100
AcDbCircle
 10
102.5008333333
 20
176.9016666667
 30
0.0
 40
2.0
100
AcDbArc
 50
270.0
 51
90.0
  0
ARC
  5
408
330
1F
100
AcDbEntity
  8
SLD-0
  6
Continuous
 62
   179
370
    30
100
AcDbCircle
 10
155.4508333333
 20
139.4266666667
 30
0.0
 40
0.9750000958505546
100
AcDbArc
 50
358.5299722206
 51
181.4692934361
  0
ARC
  5
409
330
1F
100
AcDbEntity
  8
SLD-0
  6
Continuous
 62
   179
370
    30
100
AcDbCircle
 10
112.9506250904
 20
224.8006568684
 30
0.0
 40
60.03284255376777
100
AcDbArc
 50
315.0683102072
 51
316.4010962596
  0
ARC
  5
40A
330
1F
100
AcDbEntity
  8
SLD-0
  6
Continuous
 62
   179
370
    30
100
AcDbCircle
 10
189.8328829268
 20
216.8881999585
 30
0.0
 40
48.69749655699494
100
AcDbArc
 50
223.4438853304
 51
225.0869271191
  0
ARC
  5
40B
330
1F
100
AcDbEntity
  8
SLD-0
  6
Continuous
 62
   179
370
    30
100
AcDbCircle
 10
155.4508333333
 20
184.3766666667
 30
0.0
 40
0.9750000000000139
100
AcDbArc
 50
178.5307164185
 51
1.4692835814
  0
ARC
  5
40C
330
1F
100
AcDbEntity
  8
SLD-0
  6
Continuous
 62
   179
370
    30
100
AcDbCircle
 10
196.2382862303
 20
100.6719085545
 30
0.0
 40
57.64138603191525
100
AcDbArc
 50
135.0405504624
 51
136.428637088
  0
ARC
  5
40D
330
1F
100
AcDbEntity
  8
SLD-0
  6
Continuous
 62
   179
370
    30
100
AcDbCircle
 10
119.3557454132
 20
105.2456026416
 30
0.0
 40
51.0892989974601
100
AcDbArc
 50
43.4822401998
 51
45.0483533335
  0
ARC
  5
40E
330
1F
100
AcDbEntity
  8
SLD-0
  6
Continuous
 62
   179
370
    30
100
AcDbCircle
 10
153.0008333333
 20
146.9016666667
 30
0.0
 40
2.0
100
AcDbArc
 50
270.0
 51
90.0
  0
ARC
  5
40F
330
1F
100
AcDbEntity
  8
SLD-0
  6
Continuous
 62
   179
370
    30
100
AcDbCircle
 10
153.0008333333
 20
161.9016666667
 30
0.0
 40
2.0
100
AcDbArc
 50
270.0
 51
90.0
  0
ARC
  5
410
330
1F
100
AcDbEntity
  8
SLD-0
  6
Continuous
 62
   179
370
    30
100
AcDbCircle
 10
153.0008333333
 20
176.9016666667
 30
0.0
 40
2.0
100
AcDbArc
 50
270.0
 51
90.0
  0
DIMENSION
  5
411
330
1F
100
AcDbEntity
  8
SLD-0
 62
     7
100
AcDbDimension
  2
*D2
 10
172.0612484359
 20
176.9016666667
 30
0.0
 11
172.0612484359
 21
161.9016666667
 31
0.0
 70
   160
 71
     1
 42
30.0
  3
SLDDIMSTYLE0
100
AcDbAlignedDimension
 13
51.7008333333
 23
146.9016666667
 33
0.0
 14
51.7008333333
 24
176.9016666667
 34
0.0
 50
90.0
100
AcDbRotatedDimension
1001
ACAD
1000
DSTYLE
1002
{
1070
    77
1070
     3
1070
   143
1040
0.0393700787
1070
    41
1040
3.0
1070
    44
1040
1.0
1070
    42
1040
1.0
1070
   147
1040
1.524
1070
    73
1070
     0
1070
    74
1070
     0
1070
   140
1040
3.5
1070
   284
1070
    12
1070
    78
1070
    12
1002
}
  0
DIMENSION
  5
42F
330
1F
100
AcDbEntity
  8
SLD-0
 62
     7
100
AcDbDimension
  2
*D4
 10
152.9008333333
 20
192.8508427292
 30
0.0
 11
155.4008333333
 21
192.8508427292
 31
0.0
 70
   160
 71
     1
 42
5.0
  3
SLDDIMSTYLE0
100
AcDbAlignedDimension
 13
157.9008333333
 23
184.4016666667
 33
0.0
 14
152.9008333333
 24
186.4016666667
 34
0.0
100
AcDbRotatedDimension
1001
ACAD
1000
DSTYLE
1002
{
1070
    77
1070
     3
1070
   143
1040
0.0393700787
1070
    41
1040
3.0
1070
    44
1040
1.0
1070
    42
1040
1.0
1070
   147
1040
1.524
1070
    73
1070
     0
1070
    74
1070
     0
1070
   140
1040
3.5
1070
   284
1070
    12
1070
    78
1070
    12
1002
}
  0
DIMENSION
  5
449
330
1F
100
AcDbEntity
  8
SLD-0
 62
     7
100
AcDbDimension
  2
*D5
 10
152.9008333333
 20
198.7535332205
 30
0.0
 11
147.8508333333
 21
198.7535332205
 31
0.0
 70
   160
 71
     1
 42
10.1
  3
SLDDIMSTYLE1
100
AcDbAlignedDimension
 13
142.8008333333
 23
186.4016666667
 33
0.0
 14
152.9008333333
 24
186.4016666667
 34
0.0
100
AcDbRotatedDimension
1001
ACAD
1000
DSTYLE
1002
{
1070
    77
1070
     3
1070
   143
1040
0.0393700787
1070
    41
1040
3.0
1070
    44
1040
1.0
1070
    42
1040
1.0
1070
   147
1040
1.524
1070
    73
1070
     0
1070
    74
1070
     0
1070
   140
1040
3.5
1070
   284
1070
    12
1070
    78
1070
    12
1002
}
  0
DIMENSION
  5
463
330
1F
100
AcDbEntity
  8
SLD-0
 62
     7
100
AcDbDimension
  2
*D6
 10
182.3389422735
 20
184.4016666667
 30
0.0
 11
182.3389422735
 21
161.9016666667
 31
0.0
 70
   160
 71
     1
 42
45.0
  3
SLDDIMSTYLE0
100
AcDbAlignedDimension
 13
46.8008333333
 23
139.4016666667
 33
0.0
 14
46.8008333333
 24
184.4016666667
 34
0.0
 50
90.0
100
AcDbRotatedDimension
1001
ACAD
1000
DSTYLE
1002
{
1070
    77
1070
     3
1070
   143
1040
0.0393700787
1070
    41
1040
3.0
1070
    44
1040
1.0
1070
    42
1040
1.0
1070
   147
1040
1.524
1070
    73
1070
     0
1070
    74
1070
     0
1070
   140
1040
3.5
1070
   284
1070
    12
1070
    78
1070
    12
1002
}
  0
DIMENSION
  5
47B
330
1F
100
AcDbEntity
  8
SLD-0
 62
     7
100
AcDbDimension
  2
*D7
 10
157.9008333333
 20
207.0593285606
 30
0.0
 11
102.3508333333
 21
207.0593285606
 31
0.0
 70
   160
 71
     1
 42
111.1
  3
SLDDIMSTYLE1
100
AcDbAlignedDimension
 13
46.8008333333
 23
184.4016666667
 33
0.0
 14
157.9008333333
 24
184.4016666667
 34
0.0
100
AcDbRotatedDimension
1001
ACAD
1000
DSTYLE
1002
{
1070
    77
1070
     3
1070
   143
1040
0.0393700787
1070
    41
1040
3.0
1070
    44
1040
1.0
1070
    42
1040
1.0
1070
   147
1040
1.524
1070
    73
1070
     0
1070
    74
1070
     0
1070
   140
1040
3.5
1070
   284
1070
    12
1070
    78
1070
    12
1002
}
  0
MTEXT
  5
492
330
1F
100
AcDbEntity
  8
SLD-0
 62
     7
100
AcDbMText
 10
143.2102978695
 20
29.1648044457
 30
0.0
 40
4.2333333333
 41
0.0
 71
     1
 72
     1
  1
SBEF-PL-110×45
  7
SLDTEXTSTYLE1
 73
     1
 44
1.0
  0
MTEXT
  5
493
330
1F
100
AcDbEntity
  8
SLD-0
 62
     7
100
AcDbMText
 10
132.0343210011
 20
43.0485544351
 30
0.0
 40
3.175
 41
0.0
 71
     1
 72
     1
  1
ＳＳＢＰ用プラスチックベースプレート
  7
SLDTEXTSTYLE1
 73
     1
 44
1.0
  0
MTEXT
  5
494
330
1F
100
AcDbEntity
  8
SLD-0
 62
     7
100
AcDbMText
 10
155.4421348714
 20
15.570465291
 30
0.0
 40
4.2333333333
 41
0.0
 71
     1
 72
     1
  1
183990
  7
SLDTEXTSTYLE1
 73
     1
 44
1.0
  0
ENDSEC
  0
SECTION
  2
OBJECTS
  0
DICTIONARY
  5
C
330
0
100
AcDbDictionary
281
     1
  3
ACAD_GROUP
350
D
  3
ACAD_LAYOUT
350
1A
  3
ACAD_MLINESTYLE
350
17
  3
ACAD_PLOTSETTINGS
350
19
  3
ACAD_PLOTSTYLENAME
350
E
  0
DICTIONARY
  5
D
102
{ACAD_REACTORS
330
C
102
}
330
C
100
AcDbDictionary
281
     1
  0
DICTIONARY
  5
1A
102
{ACAD_REACTORS
330
C
102
}
330
C
100
AcDbDictionary
281
     1
  3
Layout1
350
1E
  3
Layout2
350
26
  3
Model
350
22
  0
DICTIONARY
  5
17
102
{ACAD_REACTORS
330
C
102
}
330
C
100
AcDbDictionary
281
     1
  3
Standard
350
18
  0
DICTIONARY
  5
19
102
{ACAD_REACTORS
330
C
102
}
330
C
100
AcDbDictionary
281
     1
  0
ACDBDICTIONARYWDFLT
  5
E
102
{ACAD_REACTORS
330
C
102
}
330
C
100
AcDbDictionary
281
     1
  3
Normal
350
F
100
AcDbDictionaryWithDefault
340
F
  0
LAYOUT
  5
1E
102
{ACAD_REACTORS
330
1A
102
}
330
1A
100
AcDbPlotSettings
  1

  2

  4

  6

 40
0.0
 41
0.0
 42
0.0
 43
0.0
 44
0.0
 45
0.0
 46
0.0
 47
0.0
 48
0.0
 49
0.0
140
0.0
141
0.0
142
1.0
143
1.0
 70
   688
 72
     0
 73
     0
 74
     5
  7

 75
    16
147
1.0
148
0.0
149
0.0
100
AcDbLayout
  1
Layout1
 70
     1
 71
     1
 10
0.0
 20
0.0
 11
0.0
 21
0.0
 12
0.0
 22
0.0
 32
0.0
 14
0.0
 24
0.0
 34
0.0
 15
0.0
 25
0.0
 35
0.0
146
0.0
 13
0.0
 23
0.0
 33
0.0
 16
1.0
 26
0.0
 36
0.0
 17
0.0
 27
1.0
 37
0.0
 76
     0
330
1B
  0
LAYOUT
  5
26
102
{ACAD_REACTORS
330
1A
102
}
330
1A
100
AcDbPlotSettings
  1

  2

  4

  6

 40
0.0
 41
0.0
 42
0.0
 43
0.0
 44
0.0
 45
0.0
 46
0.0
 47
0.0
 48
0.0
 49
0.0
140
0.0
141
0.0
142
1.0
143
1.0
 70
   688
 72
     0
 73
     0
 74
     5
  7

 75
    16
147
1.0
148
0.0
149
0.0
100
AcDbLayout
  1
Layout2
 70
     1
 71
     2
 10
0.0
 20
0.0
 11
0.0
 21
0.0
 12
0.0
 22
0.0
 32
0.0
 14
0.0
 24
0.0
 34
0.0
 15
0.0
 25
0.0
 35
0.0
146
0.0
 13
0.0
 23
0.0
 33
0.0
 16
1.0
 26
0.0
 36
0.0
 17
0.0
 27
1.0
 37
0.0
 76
     0
330
23
  0
LAYOUT
  5
22
102
{ACAD_REACTORS
330
1A
102
}
330
1A
100
AcDbPlotSettings
  1

  2

  4

  6

 40
0.0
 41
0.0
 42
0.0
 43
0.0
 44
0.0
 45
0.0
 46
0.0
 47
0.0
 48
0.0
 49
0.0
140
0.0
141
0.0
142
1.0
143
1.0
 70
  1712
 72
     0
 73
     0
 74
     0
  7

 75
     0
147
1.0
148
0.0
149
0.0
100
AcDbLayout
  1
Model
 70
     1
 71
     0
 10
0.0
 20
0.0
 11
0.0
 21
0.0
 12
0.0
 22
0.0
 32
0.0
 14
0.0
 24
0.0
 34
0.0
 15
210.0
 25
297.0
 35
0.0
146
0.0
 13
0.0
 23
0.0
 33
0.0
 16
1.0
 26
0.0
 36
0.0
 17
0.0
 27
1.0
 37
0.0
 76
     0
330
1F
  0
MLINESTYLE
  5
18
102
{ACAD_REACTORS
330
17
102
}
330
17
100
AcDbMlineStyle
  2
Standard
 70
     0
  3

 62
   256
 51
90.0
 52
90.0
 71
     2
 49
0.5
 62
   256
  6
BYLAYER
 49
-0.5
 62
   256
  6
BYLAYER
  0
ACDBPLACEHOLDER
  5
F
102
{ACAD_REACTORS
330
E
102
}
330
E
  0
ENDSEC
  0
EOF
