  0
SECTION
  2
HEADER
  9
$ACADVER
  1
AC1015
  9
$ACADMAINTVER
 70
     6
  9
$DWGCODEPAGE
  3
DOS932
  9
$INSBASE
 10
0.0
 20
0.0
 30
0.0
  9
$EXTMIN
 10
0.0
 20
0.0
 30
0.0
  9
$EXTMAX
 10
297.0
 20
210.0
 30
0.0
  9
$LIMMIN
 10
0.0
 20
0.0
  9
$LIMMAX
 10
297.0
 20
210.0
  9
$ORTHOMODE
 70
     0
  9
$REGENMODE
 70
     1
  9
$FILLMODE
 70
     1
  9
$QTEXTMODE
 70
     0
  9
$MIRRTEXT
 70
     1
  9
$LTSCALE
 40
1.0
  9
$ATTMODE
 70
     1
  9
$TEXTSIZE
 40
3.5
  9
$TRACEWID
 40
1.0
  9
$TEXTSTYLE
  7
Standard
  9
$CLAYER
  8
0
  9
$CELTYPE
  6
ByLayer
  9
$CECOLOR
 62
   256
  9
$CELTSCALE
 40
1.0
  9
$DISPSILH
 70
     0
  9
$DIMSCALE
 40
1.0
  9
$DIMASZ
 40
3.302
  9
$DIMEXO
 40
1.0
  9
$DIMDLI
 40
3.75
  9
$DIMRND
 40
0.0
  9
$DIMDLE
 40
0.0
  9
$DIMEXE
 40
1.0
  9
$DIMTP
 40
0.0
  9
$DIMTM
 40
0.0
  9
$DIMTXT
 40
3.5
  9
$DIMCEN
 40
2.5
  9
$DIMTSZ
 40
0.0
  9
$DIMTOL
 70
     0
  9
$DIMLIM
 70
     0
  9
$DIMTIH
 70
     1
  9
$DIMTOH
 70
     1
  9
$DIMSE1
 70
     0
  9
$DIMSE2
 70
     0
  9
$DIMTAD
 70
     1
  9
$DIMZIN
 70
     1
  9
$DIMBLK
  1

  9
$DIMASO
 70
     1
  9
$DIMSHO
 70
     1
  9
$DIMPOST
  1

  9
$DIMAPOST
  1

  9
$DIMALT
 70
     0
  9
$DIMALTD
 70
     3
  9
$DIMALTF
 40
0.0393700787
  9
$DIMLFAC
 40
1.0
  9
$DIMTOFL
 70
     1
  9
$DIMTVP
 40
0.0
  9
$DIMTIX
 70
     0
  9
$DIMSOXD
 70
     0
  9
$DIMSAH
 70
     0
  9
$DIMBLK1
  1

  9
$DIMBLK2
  1

  9
$DIMSTYLE
  2
ISO-25
  9
$DIMCLRD
 70
     0
  9
$DIMCLRE
 70
     0
  9
$DIMCLRT
 70
     0
  9
$DIMTFAC
 40
1.0
  9
$DIMGAP
 40
1.524
  9
$DIMJUST
 70
     0
  9
$DIMSD1
 70
     0
  9
$DIMSD2
 70
     0
  9
$DIMTOLJ
 70
     0
  9
$DIMTZIN
 70
     1
  9
$DIMALTZ
 70
     0
  9
$DIMALTTZ
 70
     0
  9
$DIMUPT
 70
     0
  9
$DIMDEC
 70
     2
  9
$DIMTDEC
 70
     2
  9
$DIMALTU
 70
     2
  9
$DIMALTTD
 70
     3
  9
$DIMTXSTY
  7
Standard
  9
$DIMAUNIT
 70
     0
  9
$DIMADEC
 70
     0
  9
$DIMALTRND
 40
0.0
  9
$DIMAZIN
 70
     0
  9
$DIMDSEP
 70
    44
  9
$DIMATFIT
 70
     3
  9
$DIMFRAC
 70
     0
  9
$DIMLDRBLK
  1

  9
$DIMLUNIT
 70
     2
  9
$DIMLWD
 70
    -2
  9
$DIMLWE
 70
    -2
  9
$DIMTMOVE
 70
     0
  9
$LUNITS
 70
     2
  9
$LUPREC
 70
     4
  9
$SKETCHINC
 40
1.0
  9
$FILLETRAD
 40
10.0
  9
$AUNITS
 70
     0
  9
$AUPREC
 70
     0
  9
$MENU
  1
.
  9
$ELEVATION
 40
0.0
  9
$PELEVATION
 40
0.0
  9
$THICKNESS
 40
0.0
  9
$LIMCHECK
 70
     0
  9
$CHAMFERA
 40
10.0
  9
$CHAMFERB
 40
10.0
  9
$CHAMFERC
 40
20.0
  9
$CHAMFERD
 40
0.0
  9
$SKPOLY
 70
     0
  9
$TDCREATE
 40
2456238.855057871
  9
$TDUCREATE
 40
2456238.480057871
  9
$TDUPDATE
 40
2456238.855057882
  9
$TDUUPDATE
 40
2456238.480057882
  9
$TDINDWG
 40
0.0000000116
  9
$TDUSRTIMER
 40
0.0000000116
  9
$USRTIMER
 70
     1
  9
$ANGBASE
 50
0.0
  9
$ANGDIR
 70
     0
  9
$PDMODE
 70
     0
  9
$PDSIZE
 40
-1.0
  9
$PLINEWID
 40
0.0
  9
$SPLFRAME
 70
     0
  9
$SPLINETYPE
 70
     6
  9
$SPLINESEGS
 70
     8
  9
$HANDSEED
  5
13D
  9
$SURFTAB1
 70
     6
  9
$SURFTAB2
 70
     6
  9
$SURFTYPE
 70
     6
  9
$SURFU
 70
     6
  9
$SURFV
 70
     6
  9
$UCSBASE
  2

  9
$UCSNAME
  2

  9
$UCSORG
 10
0.0
 20
0.0
 30
0.0
  9
$UCSXDIR
 10
1.0
 20
0.0
 30
0.0
  9
$UCSYDIR
 10
0.0
 20
1.0
 30
0.0
  9
$UCSORTHOREF
  2

  9
$UCSORTHOVIEW
 70
     0
  9
$UCSORGTOP
 10
0.0
 20
0.0
 30
0.0
  9
$UCSORGBOTTOM
 10
0.0
 20
0.0
 30
0.0
  9
$UCSORGLEFT
 10
0.0
 20
0.0
 30
0.0
  9
$UCSORGRIGHT
 10
0.0
 20
0.0
 30
0.0
  9
$UCSORGFRONT
 10
0.0
 20
0.0
 30
0.0
  9
$UCSORGBACK
 10
0.0
 20
0.0
 30
0.0
  9
$PUCSBASE
  2

  9
$PUCSNAME
  2

  9
$PUCSORG
 10
0.0
 20
0.0
 30
0.0
  9
$PUCSXDIR
 10
1.0
 20
0.0
 30
0.0
  9
$PUCSYDIR
 10
0.0
 20
1.0
 30
0.0
  9
$PUCSORTHOREF
  2

  9
$PUCSORTHOVIEW
 70
     0
  9
$PUCSORGTOP
 10
0.0
 20
0.0
 30
0.0
  9
$PUCSORGBOTTOM
 10
0.0
 20
0.0
 30
0.0
  9
$PUCSORGLEFT
 10
0.0
 20
0.0
 30
0.0
  9
$PUCSORGRIGHT
 10
0.0
 20
0.0
 30
0.0
  9
$PUCSORGFRONT
 10
0.0
 20
0.0
 30
0.0
  9
$PUCSORGBACK
 10
0.0
 20
0.0
 30
0.0
  9
$USERI1
 70
     0
  9
$USERI2
 70
     0
  9
$USERI3
 70
     0
  9
$USERI4
 70
     0
  9
$USERI5
 70
     0
  9
$USERR1
 40
0.0
  9
$USERR2
 40
0.0
  9
$USERR3
 40
0.0
  9
$USERR4
 40
0.0
  9
$USERR5
 40
0.0
  9
$WORLDVIEW
 70
     1
  9
$SHADEDGE
 70
     3
  9
$SHADEDIF
 70
    70
  9
$TILEMODE
 70
     0
  9
$MAXACTVP
 70
    64
  9
$PINSBASE
 10
0.0
 20
0.0
 30
0.0
  9
$PLIMCHECK
 70
     0
  9
$PEXTMIN
 10
0.0
 20
0.0
 30
0.0
  9
$PEXTMAX
 10
297.0
 20
210.0
 30
0.0
  9
$PLIMMIN
 10
0.0
 20
0.0
  9
$PLIMMAX
 10
297.0
 20
210.0
  9
$UNITMODE
 70
     0
  9
$VISRETAIN
 70
     1
  9
$PLINEGEN
 70
     0
  9
$PSLTSCALE
 70
     1
  9
$TREEDEPTH
 70
  3020
  9
$CMLSTYLE
  2
Standard
  9
$CMLJUST
 70
     0
  9
$CMLSCALE
 40
20.0
  9
$PROXYGRAPHICS
 70
     1
  9
$MEASUREMENT
 70
     1
  9
$CELWEIGHT
370
    -1
  9
$ENDCAPS
280
     0
  9
$JOINSTYLE
280
     0
  9
$LWDISPLAY
290
     1
  9
$INSUNITS
 70
     4
  9
$HYPERLINKBASE
  1

  9
$STYLESHEET
  1

  9
$XEDIT
290
     1
  9
$CEPSNTYPE
380
     0
  9
$PSTYLEMODE
290
     1
  9
$FINGERPRINTGUID
  2
{865544BF-66A2-45D6-9C3E-5C0E19D1A91A}
  9
$VERSIONGUID
  2
{FAEB1C32-E019-11D5-929B-00C0DF256EC4}
  9
$EXTNAMES
290
     1
  9
$PSVPSCALE
 40
0.0
  9
$OLESTARTUP
290
     0
  0
ENDSEC
  0
SECTION
  2
CLASSES
  0
CLASS
  1
ACDBDICTIONARYWDFLT
  2
AcDbDictionaryWithDefault
  3
ObjectDBX Classes
 90
        0
280
     0
281
     0
  0
CLASS
  1
VISUALSTYLE
  2
AcDbVisualStyle
  3
ObjectDBX Classes
 90
     4095
280
     0
281
     0
  0
CLASS
  1
MATERIAL
  2
AcDbMaterial
  3
ObjectDBX Classes
 90
     1153
280
     0
281
     0
  0
CLASS
  1
SCALE
  2
AcDbScale
  3
ObjectDBX Classes
 90
     1153
280
     0
281
     0
  0
CLASS
  1
DICTIONARYVAR
  2
AcDbDictionaryVar
  3
ObjectDBX Classes
 90
        0
280
     0
281
     0
  0
CLASS
  1
ACDBPLACEHOLDER
  2
AcDbPlaceHolder
  3
ObjectDBX Classes
 90
        0
280
     0
281
     0
  0
CLASS
  1
LAYOUT
  2
AcDbLayout
  3
ObjectDBX Classes
 90
        0
280
     0
281
     0
  0
ENDSEC
  0
SECTION
  2
TABLES
  0
TABLE
  2
VPORT
  5
8
330
0
100
AcDbSymbolTable
 70
     1
  0
VPORT
  5
29
330
8
100
AcDbSymbolTableRecord
100
AcDbViewportTableRecord
  2
*Active
 70
     0
 10
0.0
 20
0.0
 11
1.0
 21
1.0
 12
148.5
 22
105.0
 13
0.0
 23
0.0
 14
10.0
 24
10.0
 15
10.0
 25
10.0
 16
0.0
 26
0.0
 36
1.0
 17
0.0
 27
0.0
 37
0.0
 40
210.0
 41
1.4142857143
 42
50.0
 43
0.0
 44
0.0
 50
0.0
 51
0.0
 71
     0
 72
  2000
 73
     1
 74
     3
 75
     0
 76
     0
 77
     0
 78
     0
281
     0
 65
     1
110
0.0
120
0.0
130
0.0
111
1.0
121
0.0
131
0.0
112
0.0
122
1.0
132
0.0
 79
     0
146
0.0
  0
ENDTAB
  0
TABLE
  2
LTYPE
  5
5
330
0
100
AcDbSymbolTable
 70
     6
  0
LTYPE
  5
14
330
5
100
AcDbSymbolTableRecord
100
AcDbLinetypeTableRecord
  2
ByBlock
 70
     0
  3

 72
    65
 73
     0
 40
0.0
  0
LTYPE
  5
15
330
5
100
AcDbSymbolTableRecord
100
AcDbLinetypeTableRecord
  2
ByLayer
 70
     0
  3

 72
    65
 73
     0
 40
0.0
  0
LTYPE
  5
16
330
5
100
AcDbSymbolTableRecord
100
AcDbLinetypeTableRecord
  2
Continuous
 70
     0
  3
Solid line
 72
    65
 73
     0
 40
0.0
  0
LTYPE
  5
3F
330
5
100
AcDbSymbolTableRecord
100
AcDbLinetypeTableRecord
  2
HIDDEN
 70
     0
  3
Hidden __ __ __ __ __ __ __ __ __ __ __ __ __ __
 72
    65
 73
     2
 40
1.905
 49
1.27
 74
     0
 49
-0.635
 74
     0
  0
LTYPE
  5
40
330
5
100
AcDbSymbolTableRecord
100
AcDbLinetypeTableRecord
  2
PHANTOM
 70
     0
  3
Phantom ______  __  __  ______  __  __  ______
 72
    65
 73
     6
 40
12.7
 49
6.35
 74
     0
 49
-1.27
 74
     0
 49
1.27
 74
     0
 49
-1.27
 74
     0
 49
1.27
 74
     0
 49
-1.27
 74
     0
  0
LTYPE
  5
41
330
5
100
AcDbSymbolTableRecord
100
AcDbLinetypeTableRecord
  2
CENTER
 70
     0
  3
Center ____ _ ____ _ ____ _ ____ _ ____ _ ____
 72
    65
 73
     4
 40
10.16
 49
6.35
 74
     0
 49
-1.27
 74
     0
 49
1.27
 74
     0
 49
-1.27
 74
     0
  0
LTYPE
  5
42
330
5
100
AcDbSymbolTableRecord
100
AcDbLinetypeTableRecord
  2
CENTERX2
 70
     0
  3
Center (2x) ________  __  ________  __  _____
 72
    65
 73
     4
 40
20.32
 49
12.7
 74
     0
 49
-2.54
 74
     0
 49
2.54
 74
     0
 49
-2.54
 74
     0
  0
LTYPE
  5
43
330
5
100
AcDbSymbolTableRecord
100
AcDbLinetypeTableRecord
  2
DOT2
 70
     0
  3
Dot (.5x) ........................................
 72
    65
 73
     2
 40
0.635
 49
0.0
 74
     0
 49
-0.635
 74
     0
  0
ENDTAB
  0
TABLE
  2
LAYER
  5
2
330
0
100
AcDbSymbolTable
 70
     4
  0
LAYER
  5
10
330
2
100
AcDbSymbolTableRecord
100
AcDbLayerTableRecord
  2
0
 70
     0
 62
     7
  6
Continuous
370
    -3
390
F
  0
LAYER
  5
44
330
2
100
AcDbSymbolTableRecord
100
AcDbLayerTableRecord
  2
SLD-0
 70
     0
 62
   179
  6
Continuous
370
    -3
390
F
  0
LAYER
  5
45
330
2
100
AcDbSymbolTableRecord
100
AcDbLayerTableRecord
  2
THICK
 70
     0
 62
   179
  6
Continuous
370
    -3
390
F
  0
LAYER
  5
46
330
2
100
AcDbSymbolTableRecord
100
AcDbLayerTableRecord
  2
HIDDEN
 70
     0
 62
   179
  6
Continuous
370
    -3
390
F
  0
ENDTAB
  0
TABLE
  2
STYLE
  5
3
330
0
100
AcDbSymbolTable
 70
     2
  0
STYLE
  5
11
330
3
100
AcDbSymbolTableRecord
100
AcDbTextStyleTableRecord
  2
Standard
 70
     0
 40
0.0
 41
1.0
 50
0.0
 71
     0
 42
2.5
  3
txt
  4
bigfont
  0
STYLE
  5
DF
330
3
100
AcDbSymbolTableRecord
100
AcDbTextStyleTableRecord
  2
SLDTEXTSTYLE0
 70
     0
 40
0.0
 41
0.7
 50
0.0
 71
     0
 42
0.2
  3
TXT
  4
bigfont
  0
ENDTAB
  0
TABLE
  2
VIEW
  5
6
330
0
100
AcDbSymbolTable
 70
     0
  0
ENDTAB
  0
TABLE
  2
UCS
  5
7
330
0
100
AcDbSymbolTable
 70
     0
  0
ENDTAB
  0
TABLE
  2
APPID
  5
9
330
0
100
AcDbSymbolTable
 70
     1
  0
APPID
  5
12
330
9
100
AcDbSymbolTableRecord
100
AcDbRegAppTableRecord
  2
ACAD
 70
     0
  0
ENDTAB
  0
TABLE
  2
DIMSTYLE
  5
A
330
0
100
AcDbSymbolTable
 70
     6
100
AcDbDimStyleTable
  0
DIMSTYLE
105
27
330
A
100
AcDbSymbolTableRecord
100
AcDbDimStyleTableRecord
  2
ISO-25
 70
     0
 41
2.5
 42
0.625
 43
3.75
 44
1.25
 73
     0
 74
     0
 77
     1
 78
     8
140
2.5
141
2.5
143
0.0393700787
147
0.625
171
     3
172
     1
271
     2
272
     2
274
     3
278
    44
283
     0
284
     8
340
11
  0
DIMSTYLE
105
E0
102
{ACAD_REACTORS
330
BC
102
}
330
A
100
AcDbSymbolTableRecord
100
AcDbDimStyleTableRecord
  2
SLDDIMSTYLE0
 70
     0
 41
3.302
 44
0.0
 45
0.000000001
 73
     0
 74
     0
 77
     3
 78
    12
140
3.5
147
0.875
173
     1
271
     0
272
     2
276
     2
284
    12
340
DF
341
E1
343
E1
344
E1
  0
DIMSTYLE
105
F2
102
{ACAD_REACTORS
330
F1
102
}
330
A
100
AcDbSymbolTableRecord
100
AcDbDimStyleTableRecord
  2
SLDDIMSTYLE1
 70
     0
 41
3.302
 44
0.0
 45
0.000000001
 73
     0
 74
     0
 77
     3
 78
    12
140
3.5
147
0.875
173
     1
271
     1
272
     2
276
     2
284
    12
340
DF
341
E1
343
E1
344
E1
  0
DIMSTYLE
105
FF
102
{ACAD_REACTORS
330
FE
102
}
330
A
100
AcDbSymbolTableRecord
100
AcDbDimStyleTableRecord
  2
SLDDIMSTYLE2
 70
     0
 41
3.302
 44
0.0
 45
0.000000001
 73
     0
 74
     0
 77
     3
 78
    12
140
3.5
147
0.875
173
     1
271
     1
272
     2
276
     2
284
    12
340
DF
341
E1
343
E1
344
E1
  0
DIMSTYLE
105
10A
102
{ACAD_REACTORS
330
109
330
116
330
122
102
}
330
A
100
AcDbSymbolTableRecord
100
AcDbDimStyleTableRecord
  2
SLDDIMSTYLE3
 70
     0
 41
3.302
 44
0.0
 45
0.000000001
 73
     0
 74
     0
 77
     3
 78
    12
140
3.5
147
0.875
173
     1
272
     2
276
     2
284
    12
340
DF
341
E1
343
E1
344
E1
  0
DIMSTYLE
105
139
330
A
100
AcDbSymbolTableRecord
100
AcDbDimStyleTableRecord
  2
SLDDIMSTYLE4
 70
     0
 41
3.302
 44
0.0
 45
0.000000001
140
0.0
146
3.302
147
0.0
173
     1
271
     0
272
     0
276
     2
340
11
341
E1
343
E1
344
E1
  0
ENDTAB
  0
TABLE
  2
BLOCK_RECORD
  5
1
330
0
100
AcDbSymbolTable
 70
     9
  0
BLOCK_RECORD
  5
1F
330
1
100
AcDbSymbolTableRecord
100
AcDbBlockTableRecord
  2
*Model_Space
340
22
  0
BLOCK_RECORD
  5
1B
330
1
100
AcDbSymbolTableRecord
100
AcDbBlockTableRecord
  2
*Paper_Space
340
1E
  0
BLOCK_RECORD
  5
E1
330
1
100
AcDbSymbolTableRecord
100
AcDbBlockTableRecord
  2
_OPEN30
340
0
102
{BLKREFS
331
EA
331
EB
331
F6
331
F7
331
103
331
104
331
10E
331
10F
331
11A
331
11B
331
126
331
127
102
}
  0
BLOCK_RECORD
  5
E7
330
1
100
AcDbSymbolTableRecord
100
AcDbBlockTableRecord
  2
*D2
340
0
  0
BLOCK_RECORD
  5
F3
330
1
100
AcDbSymbolTableRecord
100
AcDbBlockTableRecord
  2
*D3
340
0
  0
BLOCK_RECORD
  5
100
330
1
100
AcDbSymbolTableRecord
100
AcDbBlockTableRecord
  2
*D4
340
0
  0
BLOCK_RECORD
  5
10B
330
1
100
AcDbSymbolTableRecord
100
AcDbBlockTableRecord
  2
*D5
340
0
  0
BLOCK_RECORD
  5
117
330
1
100
AcDbSymbolTableRecord
100
AcDbBlockTableRecord
  2
*D6
340
0
  0
BLOCK_RECORD
  5
123
330
1
100
AcDbSymbolTableRecord
100
AcDbBlockTableRecord
  2
*D7
340
0
  0
BLOCK_RECORD
  5
12E
330
1
100
AcDbSymbolTableRecord
100
AcDbBlockTableRecord
  2
SW_NOTE_0
340
0
102
{BLKREFS
331
138
102
}
  0
ENDTAB
  0
ENDSEC
  0
SECTION
  2
BLOCKS
  0
BLOCK
  5
20
330
1F
100
AcDbEntity
  8
0
100
AcDbBlockBegin
  2
*Model_Space
 70
     0
 10
0.0
 20
0.0
 30
0.0
  3
*Model_Space
  1

  0
ENDBLK
  5
21
330
1F
100
AcDbEntity
  8
0
100
AcDbBlockEnd
  0
BLOCK
  5
1C
330
1B
100
AcDbEntity
 67
     1
  8
0
100
AcDbBlockBegin
  2
*Paper_Space
 70
     0
 10
0.0
 20
0.0
 30
0.0
  3
*Paper_Space
  1

  0
ENDBLK
  5
1D
330
1B
100
AcDbEntity
 67
     1
  8
0
100
AcDbBlockEnd
  0
BLOCK
  5
E2
330
E1
100
AcDbEntity
  8
0
100
AcDbBlockBegin
  2
_OPEN30
 70
     0
 10
0.0
 20
0.0
 30
0.0
  3
_OPEN30
  1

  0
LINE
  5
E4
330
E1
100
AcDbEntity
  8
0
  6
ByBlock
 62
     0
370
    -2
100
AcDbLine
 10
-1.0
 20
0.267949
 30
0.0
 11
0.0
 21
0.0
 31
0.0
  0
LINE
  5
E5
330
E1
100
AcDbEntity
  8
0
  6
ByBlock
 62
     0
370
    -2
100
AcDbLine
 10
0.0
 20
0.0
 30
0.0
 11
-1.0
 21
-0.267949
 31
0.0
  0
LINE
  5
E6
330
E1
100
AcDbEntity
  8
0
  6
ByBlock
 62
     0
370
    -2
100
AcDbLine
 10
0.0
 20
0.0
 30
0.0
 11
-1.0
 21
0.0
 31
0.0
  0
ENDBLK
  5
E3
330
E1
100
AcDbEntity
  8
0
100
AcDbBlockEnd
  0
BLOCK
  5
E8
330
E7
100
AcDbEntity
  8
0
100
AcDbBlockBegin
  2
*D2
 70
     1
 10
0.0
 20
0.0
 30
0.0
  3
*D2
  1

  0
INSERT
  5
EA
330
E7
100
AcDbEntity
  8
THICK
100
AcDbBlockReference
  2
_OPEN30
 10
107.0
 20
69.0162831452
 30
0.1
 41
3.302
 42
3.302
 50
180.0
  0
INSERT
  5
EB
330
E7
100
AcDbEntity
  8
THICK
100
AcDbBlockReference
  2
_OPEN30
 10
190.0
 20
69.0162831452
 30
0.1
 41
3.302
 42
3.302
 50
0.0
  0
LINE
  5
EC
330
E7
100
AcDbEntity
  8
THICK
100
AcDbLine
 10
107.0
 20
80.25
 30
0.0
 11
107.0
 21
68.0162831452
 31
0.0
  0
LINE
  5
ED
330
E7
100
AcDbEntity
  8
THICK
100
AcDbLine
 10
190.0
 20
80.25
 30
0.0
 11
190.0
 21
68.0162831452
 31
0.0
  0
LINE
  5
EE
330
E7
100
AcDbEntity
  8
THICK
100
AcDbLine
 10
107.0
 20
69.0162831452
 30
0.0
 11
190.0
 21
69.0162831452
 31
0.0
  0
MTEXT
  5
EF
330
E7
100
AcDbEntity
  8
THICK
100
AcDbMText
 10
144.529782438
 20
73.5280200016
 30
0.0
 40
3.5
 41
0.0
 71
     1
 72
     1
  1
%%c
  7
SLDTEXTSTYLE0
 73
     1
 44
1.0
  0
MTEXT
  5
F0
330
E7
100
AcDbEntity
  8
THICK
100
AcDbMText
 10
148.3986178668
 20
73.5280200016
 30
0.0
 40
3.5
 41
0.0
 71
     1
 72
     1
  1
83
  7
SLDTEXTSTYLE0
 73
     1
 44
1.0
  0
ENDBLK
  5
E9
330
E7
100
AcDbEntity
  8
0
100
AcDbBlockEnd
  0
BLOCK
  5
F4
330
F3
100
AcDbEntity
  8
0
100
AcDbBlockBegin
  2
*D3
 70
     1
 10
0.0
 20
0.0
 30
0.0
  3
*D3
  1

  0
INSERT
  5
F6
330
F3
100
AcDbEntity
  8
THICK
100
AcDbBlockReference
  2
_OPEN30
 10
200.5407308007
 20
81.25
 30
0.1
 41
3.302
 42
3.302
 50
90.0
  0
INSERT
  5
F7
330
F3
100
AcDbEntity
  8
THICK
100
AcDbBlockReference
  2
_OPEN30
 10
200.5407308007
 20
95.14706
 30
0.1
 41
3.302
 42
3.302
 50
270.0
  0
LINE
  5
F8
330
F3
100
AcDbEntity
  8
THICK
100
AcDbLine
 10
191.0
 20
81.25
 30
0.0
 11
201.5407308007
 21
81.25
 31
0.0
  0
LINE
  5
F9
330
F3
100
AcDbEntity
  8
THICK
100
AcDbLine
 10
163.25
 20
95.14706
 30
0.0
 11
201.5407308007
 21
95.14706
 31
0.0
  0
LINE
  5
FA
330
F3
100
AcDbEntity
  8
THICK
100
AcDbLine
 10
200.5407308007
 20
81.25
 30
0.0
 11
200.5407308007
 21
68.7890946179
 31
0.0
  0
LINE
  5
FB
330
F3
100
AcDbEntity
  8
THICK
100
AcDbLine
 10
200.5407308007
 20
81.25
 30
0.0
 11
200.5407308007
 21
95.14706
 31
0.0
  0
LINE
  5
FC
330
F3
100
AcDbEntity
  8
THICK
100
AcDbLine
 10
200.5407308007
 20
95.14706
 30
0.0
 11
200.5407308007
 21
101.49706
 31
0.0
  0
MTEXT
  5
FD
330
F3
100
AcDbEntity
  8
THICK
100
AcDbMText
 10
196.0289939443
 20
70.3765946179
 30
0.0
 40
3.5
 41
0.0
 71
     1
 72
     1
  1
13.9
  7
SLDTEXTSTYLE0
 11
-6.156016597943509E-15
 21
1.0
 31
0.0
 73
     1
 44
1.0
  0
ENDBLK
  5
F5
330
F3
100
AcDbEntity
  8
0
100
AcDbBlockEnd
  0
BLOCK
  5
101
330
100
100
AcDbEntity
  8
0
100
AcDbBlockBegin
  2
*D4
 70
     1
 10
0.0
 20
0.0
 30
0.0
  3
*D4
  1

  0
INSERT
  5
103
330
100
100
AcDbEntity
  8
THICK
100
AcDbBlockReference
  2
_OPEN30
 10
210.7034286509
 20
81.25
 30
0.1
 41
3.302
 42
3.302
 50
270.0
  0
INSERT
  5
104
330
100
100
AcDbEntity
  8
THICK
100
AcDbBlockReference
  2
_OPEN30
 10
210.7034286509
 20
119.5
 30
0.1
 41
3.302
 42
3.302
 50
90.0
  0
LINE
  5
105
330
100
100
AcDbEntity
  8
THICK
100
AcDbLine
 10
191.0
 20
81.25
 30
0.0
 11
211.7034286509
 21
81.25
 31
0.0
  0
LINE
  5
106
330
100
100
AcDbEntity
  8
THICK
100
AcDbLine
 10
159.3149545762
 20
119.5
 30
0.0
 11
211.7034286509
 21
119.5
 31
0.0
  0
LINE
  5
107
330
100
100
AcDbEntity
  8
THICK
100
AcDbLine
 10
210.7034286509
 20
81.25
 30
0.0
 11
210.7034286509
 21
119.5
 31
0.0
  0
MTEXT
  5
108
330
100
100
AcDbEntity
  8
THICK
100
AcDbMText
 10
206.1916917945
 20
96.9070318566
 30
0.0
 40
3.5
 41
0.0
 71
     1
 72
     1
  1
38.3
  7
SLDTEXTSTYLE0
 11
-6.156016597943509E-15
 21
1.0
 31
0.0
 73
     1
 44
1.0
  0
ENDBLK
  5
102
330
100
100
AcDbEntity
  8
0
100
AcDbBlockEnd
  0
BLOCK
  5
10C
330
10B
100
AcDbEntity
  8
0
100
AcDbBlockBegin
  2
*D5
 70
     1
 10
0.0
 20
0.0
 30
0.0
  3
*D5
  1

  0
INSERT
  5
10E
330
10B
100
AcDbEntity
  8
THICK
100
AcDbBlockReference
  2
_OPEN30
 10
143.5
 20
146.0005176963
 30
0.1
 41
3.302
 42
3.302
 50
0.0
  0
INSERT
  5
10F
330
10B
100
AcDbEntity
  8
THICK
100
AcDbBlockReference
  2
_OPEN30
 10
153.5
 20
146.0005176963
 30
0.1
 41
3.302
 42
3.302
 50
180.0
  0
LINE
  5
110
330
10B
100
AcDbEntity
  8
THICK
100
AcDbLine
 10
143.5
 20
130.5
 30
0.0
 11
143.5
 21
147.0005176963
 31
0.0
  0
LINE
  5
111
330
10B
100
AcDbEntity
  8
THICK
100
AcDbLine
 10
153.5
 20
130.5
 30
0.0
 11
153.5
 21
147.0005176963
 31
0.0
  0
LINE
  5
112
330
10B
100
AcDbEntity
  8
THICK
100
AcDbLine
 10
143.5
 20
146.0005176963
 30
0.0
 11
119.8835017262
 21
146.0005176963
 31
0.0
  0
LINE
  5
113
330
10B
100
AcDbEntity
  8
THICK
100
AcDbLine
 10
143.5
 20
146.0005176963
 30
0.0
 11
153.5
 21
146.0005176963
 31
0.0
  0
LINE
  5
114
330
10B
100
AcDbEntity
  8
THICK
100
AcDbLine
 10
153.5
 20
146.0005176963
 30
0.0
 11
159.85
 21
146.0005176963
 31
0.0
  0
MTEXT
  5
115
330
10B
100
AcDbEntity
  8
THICK
100
AcDbMText
 10
121.4710017262
 20
150.5122545527
 30
0.0
 40
3.5
 41
0.0
 71
     1
 72
     1
  1
PT1/8-M
  7
SLDTEXTSTYLE0
 73
     1
 44
1.0
  0
ENDBLK
  5
10D
330
10B
100
AcDbEntity
  8
0
100
AcDbBlockEnd
  0
BLOCK
  5
118
330
117
100
AcDbEntity
  8
0
100
AcDbBlockBegin
  2
*D6
 70
     1
 10
0.0
 20
0.0
 30
0.0
  3
*D6
  1

  0
INSERT
  5
11A
330
117
100
AcDbEntity
  8
THICK
100
AcDbBlockReference
  2
_OPEN30
 10
146.45
 20
137.5497974089
 30
0.1
 41
3.302
 42
3.302
 50
0.0
  0
INSERT
  5
11B
330
117
100
AcDbEntity
  8
THICK
100
AcDbBlockReference
  2
_OPEN30
 10
150.55
 20
137.5497974089
 30
0.1
 41
3.302
 42
3.302
 50
180.0
  0
LINE
  5
11C
330
117
100
AcDbEntity
  8
THICK
100
AcDbLine
 10
146.45
 20
130.5
 30
0.0
 11
146.45
 21
138.5497974089
 31
0.0
  0
LINE
  5
11D
330
117
100
AcDbEntity
  8
THICK
100
AcDbLine
 10
150.55
 20
130.5
 30
0.0
 11
150.55
 21
138.5497974089
 31
0.0
  0
LINE
  5
11E
330
117
100
AcDbEntity
  8
THICK
100
AcDbLine
 10
146.45
 20
137.5497974089
 30
0.0
 11
140.1
 21
137.5497974089
 31
0.0
  0
LINE
  5
11F
330
117
100
AcDbEntity
  8
THICK
100
AcDbLine
 10
146.45
 20
137.5497974089
 30
0.0
 11
150.55
 21
137.5497974089
 31
0.0
  0
LINE
  5
120
330
117
100
AcDbEntity
  8
THICK
100
AcDbLine
 10
150.55
 20
137.5497974089
 30
0.0
 11
160.0417554621
 21
137.5497974089
 31
0.0
  0
MTEXT
  5
121
330
117
100
AcDbEntity
  8
THICK
100
AcDbMText
 10
156.4196209263
 20
142.0615342652
 30
0.0
 40
3.5
 41
0.0
 71
     1
 72
     1
  1
5
  7
SLDTEXTSTYLE0
 73
     1
 44
1.0
  0
ENDBLK
  5
119
330
117
100
AcDbEntity
  8
0
100
AcDbBlockEnd
  0
BLOCK
  5
124
330
123
100
AcDbEntity
  8
0
100
AcDbBlockBegin
  2
*D7
 70
     1
 10
0.0
 20
0.0
 30
0.0
  3
*D7
  1

  0
INSERT
  5
126
330
123
100
AcDbEntity
  8
THICK
100
AcDbBlockReference
  2
_OPEN30
 10
172.3595159045
 20
129.5
 30
0.1
 41
3.302
 42
3.302
 50
270.0
  0
INSERT
  5
127
330
123
100
AcDbEntity
  8
THICK
100
AcDbBlockReference
  2
_OPEN30
 10
172.3595159045
 20
119.5
 30
0.1
 41
3.302
 42
3.302
 50
90.0
  0
LINE
  5
128
330
123
100
AcDbEntity
  8
THICK
100
AcDbLine
 10
154.5
 20
129.5
 30
0.0
 11
173.3595159045
 21
129.5
 31
0.0
  0
LINE
  5
129
330
123
100
AcDbEntity
  8
THICK
100
AcDbLine
 10
159.3149545762
 20
119.5
 30
0.0
 11
173.3595159045
 21
119.5
 31
0.0
  0
LINE
  5
12A
330
123
100
AcDbEntity
  8
THICK
100
AcDbLine
 10
172.3595159045
 20
129.5
 30
0.0
 11
172.3595159045
 21
135.85
 31
0.0
  0
LINE
  5
12B
330
123
100
AcDbEntity
  8
THICK
100
AcDbLine
 10
172.3595159045
 20
129.5
 30
0.0
 11
172.3595159045
 21
119.5
 31
0.0
  0
LINE
  5
12C
330
123
100
AcDbEntity
  8
THICK
100
AcDbLine
 10
172.3595159045
 20
119.5
 30
0.0
 11
172.3595159045
 21
113.15
 31
0.0
  0
MTEXT
  5
12D
330
123
100
AcDbEntity
  8
THICK
100
AcDbMText
 10
167.8477790482
 20
123.4826827321
 30
0.0
 40
3.5
 41
0.0
 71
     1
 72
     1
  1
7
  7
SLDTEXTSTYLE0
 11
-1.259531014076942E-14
 21
1.0
 31
0.0
 73
     1
 44
1.0
  0
ENDBLK
  5
125
330
123
100
AcDbEntity
  8
0
100
AcDbBlockEnd
  0
BLOCK
  5
12F
330
12E
100
AcDbEntity
  8
0
100
AcDbBlockBegin
  2
SW_NOTE_0
 70
     0
 10
0.0
 20
0.0
 30
0.0
  3
SW_NOTE_0
  1

  0
LINE
  5
131
330
12E
100
AcDbEntity
  8
THICK
 62
     0
100
AcDbLine
 10
-9.1337144852
 20
0.0002172328
 30
0.0
 11
0.0
 21
0.0002172328
 31
0.0
  0
LINE
  5
132
330
12E
100
AcDbEntity
  8
THICK
 62
     0
100
AcDbLine
 10
0.0
 20
0.0002172328
 30
0.0
 11
-9.1337144852
 21
0.0002172328
 31
0.0
  0
LINE
  5
133
330
12E
100
AcDbEntity
  8
THICK
 62
     0
100
AcDbLine
 10
-9.1337144852
 20
0.0002172328
 30
0.0
 11
0.0
 21
0.0002172328
 31
0.0
  0
LINE
  5
134
330
12E
100
AcDbEntity
  8
THICK
 62
     0
100
AcDbLine
 10
0.0
 20
0.0002172328
 30
0.0
 11
-9.1337144852
 21
0.0002172328
 31
0.0
  0
LINE
  5
135
330
12E
100
AcDbEntity
  8
THICK
 62
     0
100
AcDbLine
 10
-9.1337144852
 20
0.0002172328
 30
0.0
 11
0.0
 21
0.0002172328
 31
0.0
  0
LINE
  5
136
330
12E
100
AcDbEntity
  8
THICK
 62
     0
100
AcDbLine
 10
0.0
 20
0.0002172328
 30
0.0
 11
-9.1337144852
 21
0.0002172328
 31
0.0
  0
MTEXT
  5
137
330
12E
100
AcDbEntity
  8
THICK
 62
     0
100
AcDbMText
 10
-9.1323225377
 20
4.5122029428
 30
0.0
 40
3.5
 41
0.0
 71
     1
 72
     1
  1
W=19
  7
SLDTEXTSTYLE0
 73
     1
 44
1.0
  0
ENDBLK
  5
130
330
12E
100
AcDbEntity
  8
0
100
AcDbBlockEnd
  0
ENDSEC
  0
SECTION
  2
ENTITIES
  0
VIEWPORT
  5
47
330
1B
100
AcDbEntity
 67
     1
  8
0
100
AcDbViewport
 10
148.5
 20
105.0
 30
0.0
 40
314.226
 41
222.18
 68
     1
 69
     1
 12
148.5
 22
105.0
 13
0.0
 23
0.0
 14
10.0
 24
10.0
 15
10.0
 25
10.0
 16
0.0
 26
0.0
 36
1.0
 17
0.0
 27
0.0
 37
0.0
 42
50.0
 43
0.0
 44
0.0
 45
222.18
 50
0.0
 51
0.0
 72
   100
 90
   557152
  1

281
     0
 71
     1
 74
     0
110
0.0
120
0.0
130
0.0
111
1.0
121
0.0
131
0.0
112
0.0
122
1.0
132
0.0
 79
     0
146
0.0
  0
LINE
  5
48
330
1B
100
AcDbEntity
 67
     1
  8
HIDDEN
100
AcDbLine
 10
146.5429491924
 20
115.3140638796
 30
0.0
 11
146.5429491924
 21
119.5
 31
0.0
  0
LINE
  5
49
330
1B
100
AcDbEntity
 67
     1
  8
HIDDEN
100
AcDbLine
 10
146.1905989232
 20
119.5
 30
0.0
 11
146.1905989232
 21
115.3140638796
 31
0.0
  0
LINE
  5
4A
330
1B
100
AcDbEntity
 67
     1
  8
HIDDEN
100
AcDbLine
 10
146.5429491924
 20
119.5
 30
0.0
 11
146.1905989232
 21
119.5
 31
0.0
  0
LINE
  5
4B
330
1B
100
AcDbEntity
 67
     1
  8
THICK
100
AcDbLine
 10
153.5
 20
122.492820323
 30
0.0
 11
153.5
 21
129.5
 31
0.0
  0
LINE
  5
4C
330
1B
100
AcDbEntity
 67
     1
  8
HIDDEN
100
AcDbLine
 10
153.5
 20
122.492820323
 30
0.0
 11
143.5
 21
122.492820323
 31
0.0
  0
LINE
  5
4D
330
1B
100
AcDbEntity
 67
     1
  8
THICK
100
AcDbLine
 10
143.5
 20
122.492820323
 30
0.0
 11
143.5
 21
129.5
 31
0.0
  0
LINE
  5
4E
330
1B
100
AcDbEntity
 67
     1
  8
THICK
100
AcDbLine
 10
152.5
 20
121.9154700538
 30
0.0
 11
153.5
 21
122.492820323
 31
0.0
  0
LINE
  5
4F
330
1B
100
AcDbEntity
 67
     1
  8
HIDDEN
100
AcDbLine
 10
152.5
 20
121.9154700538
 30
0.0
 11
144.5
 21
121.9154700538
 31
0.0
  0
LINE
  5
50
330
1B
100
AcDbEntity
 67
     1
  8
THICK
100
AcDbLine
 10
144.5
 20
121.9154700538
 30
0.0
 11
143.5
 21
122.492820323
 31
0.0
  0
LINE
  5
51
330
1B
100
AcDbEntity
 67
     1
  8
HIDDEN
100
AcDbLine
 10
152.5
 20
119.7199764146
 30
0.0
 11
152.5
 21
120.0800017271
 31
0.0
  0
LINE
  5
52
330
1B
100
AcDbEntity
 67
     1
  8
THICK
100
AcDbLine
 10
152.5
 20
120.0800017271
 30
0.0
 11
152.5
 21
121.9154700538
 31
0.0
  0
LINE
  5
53
330
1B
100
AcDbEntity
 67
     1
  8
HIDDEN
100
AcDbLine
 10
152.5
 20
119.7199764146
 30
0.0
 11
144.5
 21
119.7199764146
 31
0.0
  0
LINE
  5
54
330
1B
100
AcDbEntity
 67
     1
  8
HIDDEN
100
AcDbLine
 10
144.5
 20
119.7199764146
 30
0.0
 11
144.5
 21
120.0800017271
 31
0.0
  0
LINE
  5
55
330
1B
100
AcDbEntity
 67
     1
  8
THICK
100
AcDbLine
 10
144.5
 20
120.0800017271
 30
0.0
 11
144.5
 21
121.9154700538
 31
0.0
  0
LINE
  5
56
330
1B
100
AcDbEntity
 67
     1
  8
HIDDEN
100
AcDbLine
 10
146.45
 20
119.5
 30
0.0
 11
146.45
 21
129.5
 31
0.0
  0
LINE
  5
57
330
1B
100
AcDbEntity
 67
     1
  8
HIDDEN
100
AcDbLine
 10
150.55
 20
119.5
 30
0.0
 11
150.55
 21
129.5
 31
0.0
  0
LINE
  5
58
330
1B
100
AcDbEntity
 67
     1
  8
HIDDEN
100
AcDbLine
 10
150.4570508076
 20
119.5
 30
0.0
 11
150.4570508076
 21
115.3140638796
 31
0.0
  0
LINE
  5
59
330
1B
100
AcDbEntity
 67
     1
  8
HIDDEN
100
AcDbLine
 10
150.0070508076
 20
115.3140638796
 30
0.0
 11
150.0070508076
 21
119.5
 31
0.0
  0
LINE
  5
5A
330
1B
100
AcDbEntity
 67
     1
  8
HIDDEN
100
AcDbLine
 10
148.95
 20
119.5
 30
0.0
 11
148.95
 21
115.3140638796
 31
0.0
  0
LINE
  5
5B
330
1B
100
AcDbEntity
 67
     1
  8
HIDDEN
100
AcDbLine
 10
148.05
 20
115.3140638796
 30
0.0
 11
148.05
 21
119.5
 31
0.0
  0
LINE
  5
5C
330
1B
100
AcDbEntity
 67
     1
  8
HIDDEN
100
AcDbLine
 10
146.9929491924
 20
119.5
 30
0.0
 11
146.9929491924
 21
115.3140638796
 31
0.0
  0
LINE
  5
5D
330
1B
100
AcDbEntity
 67
     1
  8
THICK
100
AcDbLine
 10
132.5565340879
 20
103.237009101
 30
0.0
 11
132.0749804228
 21
100.5059825548
 31
0.0
  0
LINE
  5
5E
330
1B
100
AcDbEntity
 67
     1
  8
HIDDEN
100
AcDbLine
 10
132.5565340879
 20
103.237009101
 30
0.0
 11
164.4434659121
 21
103.237009101
 31
0.0
  0
LINE
  5
5F
330
1B
100
AcDbEntity
 67
     1
  8
THICK
100
AcDbLine
 10
164.4434659121
 20
103.237009101
 30
0.0
 11
164.9250195772
 21
100.5059825548
 31
0.0
  0
LINE
  5
60
330
1B
100
AcDbEntity
 67
     1
  8
HIDDEN
100
AcDbLine
 10
132.0749804228
 20
100.5059825548
 30
0.0
 11
164.9250195772
 21
100.5059825548
 31
0.0
  0
LINE
  5
61
330
1B
100
AcDbEntity
 67
     1
  8
THICK
100
AcDbLine
 10
137.3761459483
 20
105.366439738
 30
0.0
 11
132.5565340879
 21
103.237009101
 31
0.0
  0
LINE
  5
62
330
1B
100
AcDbEntity
 67
     1
  8
HIDDEN
100
AcDbLine
 10
137.3761459483
 20
105.366439738
 30
0.0
 11
159.6238540517
 21
105.366439738
 31
0.0
  0
LINE
  5
63
330
1B
100
AcDbEntity
 67
     1
  8
THICK
100
AcDbLine
 10
159.6238540517
 20
105.366439738
 30
0.0
 11
164.4434659121
 21
103.237009101
 31
0.0
  0
LINE
  5
64
330
1B
100
AcDbEntity
 67
     1
  8
THICK
100
AcDbLine
 10
137.75
 20
112.5
 30
0.0
 11
137.3761459483
 21
105.366439738
 31
0.0
  0
LINE
  5
65
330
1B
100
AcDbEntity
 67
     1
  8
THICK
100
AcDbLine
 10
159.25
 20
112.5
 30
0.0
 11
159.6238540517
 21
105.366439738
 31
0.0
  0
LINE
  5
66
330
1B
100
AcDbEntity
 67
     1
  8
HIDDEN
100
AcDbLine
 10
145.45
 20
115.3140638796
 30
0.0
 11
145.45
 21
102.77706
 31
0.0
  0
LINE
  5
67
330
1B
100
AcDbEntity
 67
     1
  8
HIDDEN
100
AcDbLine
 10
145.45
 20
115.3140638796
 30
0.0
 11
151.55
 21
115.3140638796
 31
0.0
  0
LINE
  5
68
330
1B
100
AcDbEntity
 67
     1
  8
HIDDEN
100
AcDbLine
 10
151.55
 20
115.3140638796
 30
0.0
 11
151.55
 21
102.77706
 31
0.0
  0
LINE
  5
69
330
1B
100
AcDbEntity
 67
     1
  8
HIDDEN
100
AcDbLine
 10
151.3730762114
 20
98.47706
 30
0.0
 11
151.3730762114
 21
102.77706
 31
0.0
  0
LINE
  5
6A
330
1B
100
AcDbEntity
 67
     1
  8
HIDDEN
100
AcDbLine
 10
150.8230762114
 20
102.77706
 30
0.0
 11
150.8230762114
 21
98.47706
 31
0.0
  0
LINE
  5
6B
330
1B
100
AcDbEntity
 67
     1
  8
HIDDEN
100
AcDbLine
 10
149.05
 20
98.47706
 30
0.0
 11
149.05
 21
102.77706
 31
0.0
  0
LINE
  5
6C
330
1B
100
AcDbEntity
 67
     1
  8
HIDDEN
100
AcDbLine
 10
147.95
 20
102.77706
 30
0.0
 11
147.95
 21
98.47706
 31
0.0
  0
LINE
  5
6D
330
1B
100
AcDbEntity
 67
     1
  8
HIDDEN
100
AcDbLine
 10
146.1769237886
 20
98.47706
 30
0.0
 11
146.1769237886
 21
102.77706
 31
0.0
  0
LINE
  5
6E
330
1B
100
AcDbEntity
 67
     1
  8
HIDDEN
100
AcDbLine
 10
145.6269237886
 20
102.77706
 30
0.0
 11
145.6269237886
 21
98.47706
 31
0.0
  0
LINE
  5
6F
330
1B
100
AcDbEntity
 67
     1
  8
HIDDEN
100
AcDbLine
 10
144.0
 20
98.47706
 30
0.0
 11
144.0
 21
95.14706
 31
0.0
  0
LINE
  5
70
330
1B
100
AcDbEntity
 67
     1
  8
HIDDEN
100
AcDbLine
 10
153.0
 20
98.47706
 30
0.0
 11
144.0
 21
98.47706
 31
0.0
  0
LINE
  5
71
330
1B
100
AcDbEntity
 67
     1
  8
HIDDEN
100
AcDbLine
 10
153.0
 20
98.47706
 30
0.0
 11
153.0
 21
95.14706
 31
0.0
  0
LINE
  5
72
330
1B
100
AcDbEntity
 67
     1
  8
HIDDEN
100
AcDbLine
 10
134.75
 20
95.34706
 30
0.0
 11
134.75
 21
95.14706
 31
0.0
  0
LINE
  5
73
330
1B
100
AcDbEntity
 67
     1
  8
HIDDEN
100
AcDbLine
 10
162.25
 20
95.34706
 30
0.0
 11
162.25
 21
95.14706
 31
0.0
  0
LINE
  5
74
330
1B
100
AcDbEntity
 67
     1
  8
HIDDEN
100
AcDbLine
 10
168.0
 20
95.34706
 30
0.0
 11
129.0
 21
95.34706
 31
0.0
  0
LINE
  5
75
330
1B
100
AcDbEntity
 67
     1
  8
THICK
100
AcDbLine
 10
107.0
 20
82.05
 30
0.0
 11
107.0
 21
81.25
 31
0.0
  0
LINE
  5
76
330
1B
100
AcDbEntity
 67
     1
  8
HIDDEN
100
AcDbLine
 10
107.0
 20
82.05
 30
0.0
 11
190.0
 21
82.05
 31
0.0
  0
LINE
  5
77
330
1B
100
AcDbEntity
 67
     1
  8
THICK
100
AcDbLine
 10
190.0
 20
82.05
 30
0.0
 11
190.0
 21
81.25
 31
0.0
  0
LINE
  5
78
330
1B
100
AcDbEntity
 67
     1
  8
THICK
100
AcDbLine
 10
190.0
 20
82.05
 30
0.0
 11
107.0
 21
82.05
 31
0.0
  0
LINE
  5
79
330
1B
100
AcDbEntity
 67
     1
  8
THICK
100
AcDbLine
 10
164.9250195772
 20
100.5059825548
 30
0.0
 11
132.0749804228
 21
100.5059825548
 31
0.0
  0
LINE
  5
7A
330
1B
100
AcDbEntity
 67
     1
  8
THICK
100
AcDbLine
 10
190.0
 20
81.25
 30
0.0
 11
107.0
 21
81.25
 31
0.0
  0
LINE
  5
7B
330
1B
100
AcDbEntity
 67
     1
  8
HIDDEN
100
AcDbLine
 10
134.75
 20
95.14706
 30
0.0
 11
162.25
 21
95.14706
 31
0.0
  0
LINE
  5
7C
330
1B
100
AcDbEntity
 67
     1
  8
HIDDEN
100
AcDbLine
 10
151.3730762114
 20
102.77706
 30
0.0
 11
151.55
 21
102.77706
 31
0.0
  0
LINE
  5
7D
330
1B
100
AcDbEntity
 67
     1
  8
HIDDEN
100
AcDbLine
 10
145.6269237886
 20
98.47706
 30
0.0
 11
145.6269237886
 21
102.77706
 31
0.0
  0
LINE
  5
7E
330
1B
100
AcDbEntity
 67
     1
  8
HIDDEN
100
AcDbLine
 10
146.1769237886
 20
102.77706
 30
0.0
 11
146.1769237886
 21
98.47706
 31
0.0
  0
LINE
  5
7F
330
1B
100
AcDbEntity
 67
     1
  8
HIDDEN
100
AcDbLine
 10
147.95
 20
98.47706
 30
0.0
 11
147.95
 21
102.77706
 31
0.0
  0
LINE
  5
80
330
1B
100
AcDbEntity
 67
     1
  8
HIDDEN
100
AcDbLine
 10
149.05
 20
102.77706
 30
0.0
 11
149.05
 21
98.47706
 31
0.0
  0
LINE
  5
81
330
1B
100
AcDbEntity
 67
     1
  8
HIDDEN
100
AcDbLine
 10
150.8230762114
 20
98.47706
 30
0.0
 11
150.8230762114
 21
102.77706
 31
0.0
  0
LINE
  5
82
330
1B
100
AcDbEntity
 67
     1
  8
HIDDEN
100
AcDbLine
 10
151.3730762114
 20
102.77706
 30
0.0
 11
151.3730762114
 21
98.47706
 31
0.0
  0
LINE
  5
83
330
1B
100
AcDbEntity
 67
     1
  8
THICK
100
AcDbLine
 10
159.25
 20
112.5
 30
0.0
 11
137.75
 21
112.5
 31
0.0
  0
LINE
  5
84
330
1B
100
AcDbEntity
 67
     1
  8
THICK
100
AcDbLine
 10
159.6238540517
 20
105.366439738
 30
0.0
 11
137.3761459483
 21
105.366439738
 31
0.0
  0
LINE
  5
85
330
1B
100
AcDbEntity
 67
     1
  8
THICK
100
AcDbLine
 10
164.4434659121
 20
103.237009101
 30
0.0
 11
132.5565340879
 21
103.237009101
 31
0.0
  0
LINE
  5
86
330
1B
100
AcDbEntity
 67
     1
  8
HIDDEN
100
AcDbLine
 10
145.6269237886
 20
102.77706
 30
0.0
 11
145.0358983849
 21
102.77706
 31
0.0
  0
LINE
  5
87
330
1B
100
AcDbEntity
 67
     1
  8
HIDDEN
100
AcDbLine
 10
145.0358983849
 20
102.77706
 30
0.0
 11
145.0358983849
 21
98.47706
 31
0.0
  0
LINE
  5
88
330
1B
100
AcDbEntity
 67
     1
  8
HIDDEN
100
AcDbLine
 10
147.95
 20
102.77706
 30
0.0
 11
146.7679491924
 21
102.77706
 31
0.0
  0
LINE
  5
89
330
1B
100
AcDbEntity
 67
     1
  8
HIDDEN
100
AcDbLine
 10
146.7679491924
 20
102.77706
 30
0.0
 11
146.1769237886
 21
102.77706
 31
0.0
  0
LINE
  5
8A
330
1B
100
AcDbEntity
 67
     1
  8
HIDDEN
100
AcDbLine
 10
146.7679491924
 20
102.77706
 30
0.0
 11
146.7679491924
 21
98.47706
 31
0.0
  0
LINE
  5
8B
330
1B
100
AcDbEntity
 67
     1
  8
HIDDEN
100
AcDbLine
 10
150.8230762114
 20
102.77706
 30
0.0
 11
150.2320508076
 21
102.77706
 31
0.0
  0
LINE
  5
8C
330
1B
100
AcDbEntity
 67
     1
  8
HIDDEN
100
AcDbLine
 10
150.2320508076
 20
102.77706
 30
0.0
 11
149.05
 21
102.77706
 31
0.0
  0
LINE
  5
8D
330
1B
100
AcDbEntity
 67
     1
  8
HIDDEN
100
AcDbLine
 10
150.2320508076
 20
102.77706
 30
0.0
 11
150.2320508076
 21
98.47706
 31
0.0
  0
LINE
  5
8E
330
1B
100
AcDbEntity
 67
     1
  8
HIDDEN
100
AcDbLine
 10
151.9641016151
 20
102.77706
 30
0.0
 11
151.3730762114
 21
102.77706
 31
0.0
  0
LINE
  5
8F
330
1B
100
AcDbEntity
 67
     1
  8
HIDDEN
100
AcDbLine
 10
151.9641016151
 20
102.77706
 30
0.0
 11
151.9641016151
 21
98.47706
 31
0.0
  0
LINE
  5
90
330
1B
100
AcDbEntity
 67
     1
  8
HIDDEN
100
AcDbLine
 10
150.2320508076
 20
102.77706
 30
0.0
 11
150.2320508076
 21
98.47706
 31
0.0
  0
LINE
  5
91
330
1B
100
AcDbEntity
 67
     1
  8
HIDDEN
100
AcDbLine
 10
146.7679491924
 20
102.77706
 30
0.0
 11
146.7679491924
 21
98.47706
 31
0.0
  0
LINE
  5
92
330
1B
100
AcDbEntity
 67
     1
  8
THICK
100
AcDbLine
 10
143.5925227119
 20
119.5
 30
0.0
 11
138.6850454238
 21
119.5
 31
0.0
  0
LINE
  5
93
330
1B
100
AcDbEntity
 67
     1
  8
THICK
100
AcDbLine
 10
153.4074772881
 20
119.5
 30
0.0
 11
143.5925227119
 21
119.5
 31
0.0
  0
LINE
  5
94
330
1B
100
AcDbEntity
 67
     1
  8
THICK
100
AcDbLine
 10
158.3149545762
 20
119.5
 30
0.0
 11
153.4074772881
 21
119.5
 31
0.0
  0
LINE
  5
95
330
1B
100
AcDbEntity
 67
     1
  8
HIDDEN
100
AcDbLine
 10
146.5429491924
 20
119.5
 30
0.0
 11
146.5429491924
 21
115.3140638796
 31
0.0
  0
LINE
  5
96
330
1B
100
AcDbEntity
 67
     1
  8
HIDDEN
100
AcDbLine
 10
146.9929491924
 20
115.3140638796
 30
0.0
 11
146.9929491924
 21
119.5
 31
0.0
  0
LINE
  5
97
330
1B
100
AcDbEntity
 67
     1
  8
HIDDEN
100
AcDbLine
 10
148.05
 20
119.5
 30
0.0
 11
148.05
 21
115.3140638796
 31
0.0
  0
LINE
  5
98
330
1B
100
AcDbEntity
 67
     1
  8
HIDDEN
100
AcDbLine
 10
148.95
 20
115.3140638796
 30
0.0
 11
148.95
 21
119.5
 31
0.0
  0
LINE
  5
99
330
1B
100
AcDbEntity
 67
     1
  8
HIDDEN
100
AcDbLine
 10
150.0070508076
 20
119.5
 30
0.0
 11
150.0070508076
 21
115.3140638796
 31
0.0
  0
LINE
  5
9A
330
1B
100
AcDbEntity
 67
     1
  8
HIDDEN
100
AcDbLine
 10
150.4570508076
 20
115.3140638796
 30
0.0
 11
150.4570508076
 21
119.5
 31
0.0
  0
LINE
  5
9B
330
1B
100
AcDbEntity
 67
     1
  8
HIDDEN
100
AcDbLine
 10
150.55
 20
119.5
 30
0.0
 11
150.4570508076
 21
119.5
 31
0.0
  0
LINE
  5
9C
330
1B
100
AcDbEntity
 67
     1
  8
HIDDEN
100
AcDbLine
 10
144.5
 20
119.7199764146
 30
0.0
 11
152.5
 21
119.7199764146
 31
0.0
  0
LINE
  5
9D
330
1B
100
AcDbEntity
 67
     1
  8
THICK
100
AcDbLine
 10
144.5
 20
121.9154700538
 30
0.0
 11
152.5
 21
121.9154700538
 31
0.0
  0
LINE
  5
9E
330
1B
100
AcDbEntity
 67
     1
  8
THICK
100
AcDbLine
 10
143.5
 20
122.492820323
 30
0.0
 11
153.5
 21
122.492820323
 31
0.0
  0
LINE
  5
9F
330
1B
100
AcDbEntity
 67
     1
  8
THICK
100
AcDbLine
 10
143.5
 20
129.5
 30
0.0
 11
153.5
 21
129.5
 31
0.0
  0
LINE
  5
A0
330
1B
100
AcDbEntity
 67
     1
  8
HIDDEN
100
AcDbLine
 10
143.5925227119
 20
119.5
 30
0.0
 11
143.5925227119
 21
112.5
 31
0.0
  0
LINE
  5
A1
330
1B
100
AcDbEntity
 67
     1
  8
THICK
100
AcDbLine
 10
138.6850454238
 20
119.5
 30
0.0
 11
138.6850454238
 21
112.5
 31
0.0
  0
LINE
  5
A2
330
1B
100
AcDbEntity
 67
     1
  8
THICK
100
AcDbLine
 10
143.5925227119
 20
119.5
 30
0.0
 11
143.5925227119
 21
112.5
 31
0.0
  0
LINE
  5
A3
330
1B
100
AcDbEntity
 67
     1
  8
THICK
100
AcDbLine
 10
153.4074772881
 20
119.5
 30
0.0
 11
153.4074772881
 21
112.5
 31
0.0
  0
LINE
  5
A4
330
1B
100
AcDbEntity
 67
     1
  8
THICK
100
AcDbLine
 10
158.3149545762
 20
119.5
 30
0.0
 11
158.3149545762
 21
112.5
 31
0.0
  0
LINE
  5
A5
330
1B
100
AcDbEntity
 67
     1
  8
HIDDEN
100
AcDbLine
 10
153.4074772881
 20
119.5
 30
0.0
 11
153.4074772881
 21
112.5
 31
0.0
  0
LINE
  5
A6
330
1B
100
AcDbEntity
 67
     1
  8
HIDDEN
100
AcDbLine
 10
147.3452994616
 20
119.5
 30
0.0
 11
147.3452994616
 21
115.3140638796
 31
0.0
  0
LINE
  5
A7
330
1B
100
AcDbEntity
 67
     1
  8
HIDDEN
100
AcDbLine
 10
149.6547005384
 20
119.5
 30
0.0
 11
149.6547005384
 21
115.3140638796
 31
0.0
  0
LINE
  5
A8
330
1B
100
AcDbEntity
 67
     1
  8
HIDDEN
100
AcDbLine
 10
150.8094010768
 20
119.5
 30
0.0
 11
150.8094010768
 21
115.3140638796
 31
0.0
  0
LINE
  5
A9
330
1B
100
AcDbEntity
 67
     1
  8
HIDDEN
100
AcDbLine
 10
150.8094010768
 20
119.5
 30
0.0
 11
150.4570508076
 21
119.5
 31
0.0
  0
LINE
  5
AA
330
1B
100
AcDbEntity
 67
     1
  8
HIDDEN
100
AcDbLine
 10
149.6547005384
 20
119.5
 30
0.0
 11
149.6547005384
 21
115.3140638796
 31
0.0
  0
LINE
  5
AB
330
1B
100
AcDbEntity
 67
     1
  8
HIDDEN
100
AcDbLine
 10
150.0070508076
 20
119.5
 30
0.0
 11
149.6547005384
 21
119.5
 31
0.0
  0
LINE
  5
AC
330
1B
100
AcDbEntity
 67
     1
  8
HIDDEN
100
AcDbLine
 10
149.6547005384
 20
119.5
 30
0.0
 11
148.95
 21
119.5
 31
0.0
  0
LINE
  5
AD
330
1B
100
AcDbEntity
 67
     1
  8
HIDDEN
100
AcDbLine
 10
147.3452994616
 20
119.5
 30
0.0
 11
147.3452994616
 21
115.3140638796
 31
0.0
  0
LINE
  5
AE
330
1B
100
AcDbEntity
 67
     1
  8
HIDDEN
100
AcDbLine
 10
148.05
 20
119.5
 30
0.0
 11
147.3452994616
 21
119.5
 31
0.0
  0
LINE
  5
AF
330
1B
100
AcDbEntity
 67
     1
  8
HIDDEN
100
AcDbLine
 10
147.3452994616
 20
119.5
 30
0.0
 11
146.9929491924
 21
119.5
 31
0.0
  0
LINE
  5
B0
330
1B
100
AcDbEntity
 67
     1
  8
HIDDEN
100
AcDbLine
 10
153.2149994008
 20
120.08
 30
0.0
 11
143.7850002908
 21
120.08
 31
0.0
  0
LINE
  5
B1
330
1B
100
AcDbEntity
 67
     1
  8
THICK
100
AcDbLine
 10
153.2149994008
 20
120.08
 30
0.0
 11
143.7850002908
 21
120.08
 31
0.0
  0
CIRCLE
  5
B2
330
1B
100
AcDbEntity
 67
     1
  8
HIDDEN
100
AcDbCircle
 10
153.215
 20
119.19
 30
0.0
 40
0.8899999999999713
  0
ARC
  5
B3
330
1B
100
AcDbEntity
 67
     1
  8
THICK
100
AcDbCircle
 10
153.215
 20
119.19
 30
0.0
 40
0.8900000000000033
100
AcDbArc
 50
20.3842913647
 51
90.0000385718
  0
ARC
  5
B4
330
1B
100
AcDbEntity
 67
     1
  8
HIDDEN
100
AcDbCircle
 10
153.215
 20
119.19
 30
0.0
 40
0.8900000000000546
100
AcDbArc
 50
90.0000385718
 51
143.4532051611
  0
CIRCLE
  5
B5
330
1B
100
AcDbEntity
 67
     1
  8
HIDDEN
100
AcDbCircle
 10
143.785
 20
119.19
 30
0.0
 40
0.8899999999999897
  0
ARC
  5
B6
330
1B
100
AcDbEntity
 67
     1
  8
THICK
100
AcDbCircle
 10
143.785
 20
119.19
 30
0.0
 40
0.8899999999999912
100
AcDbArc
 50
89.999981276
 51
159.6157284831
  0
ARC
  5
B7
330
1B
100
AcDbEntity
 67
     1
  8
HIDDEN
100
AcDbCircle
 10
143.785
 20
119.19
 30
0.0
 40
0.8900000000000319
100
AcDbArc
 50
36.5467948389
 51
89.999981276
  0
ARC
  5
B8
330
1B
100
AcDbEntity
 67
     1
  8
HIDDEN
100
AcDbCircle
 10
143.3007567697
 20
51.4161101376
 30
0.0
 40
46.2
100
AcDbArc
 50
108.0315360466
 51
139.7776950803
  0
ARC
  5
B9
330
1B
100
AcDbEntity
 67
     1
  8
HIDDEN
100
AcDbCircle
 10
153.6992432303
 20
51.4161101376
 30
0.0
 40
46.20000000000006
100
AcDbArc
 50
40.2223247675
 51
71.9684776125
  0
ARC
  5
BA
330
1B
100
AcDbEntity
 67
     1
  8
THICK
100
AcDbCircle
 10
144.1859650164
 20
57.7896618779
 30
0.0
 40
44.4
100
AcDbArc
 50
105.8291435779
 51
146.8793388076
  0
ARC
  5
BB
330
1B
100
AcDbEntity
 67
     1
  8
THICK
100
AcDbCircle
 10
152.8140349836
 20
57.7896618779
 30
0.0
 40
44.40000000000001
100
AcDbArc
 50
33.1206847842
 51
74.1708189742
  0
DIMENSION
  5
BC
330
1B
100
AcDbEntity
 67
     1
  8
THICK
100
AcDbDimension
  2
*D2
 10
190.0
 20
69.0162831452
 30
0.0
 11
148.5
 21
69.0162831452
 31
0.0
 70
   160
  1
%%c<>
 71
     2
 42
-1.0
  3
SLDDIMSTYLE0
100
AcDbAlignedDimension
 13
107.0
 23
81.25
 33
0.0
 14
190.0
 24
81.25
 34
0.0
100
AcDbRotatedDimension
  0
DIMENSION
  5
F1
330
1B
100
AcDbEntity
 67
     1
  8
THICK
100
AcDbDimension
  2
*D3
 10
200.5407308007
 20
95.14706
 30
0.0
 11
200.5407308007
 21
73.8445627613
 31
0.0
 70
   160
 71
     2
 42
-1.0
  3
SLDDIMSTYLE1
100
AcDbAlignedDimension
 13
190.0
 23
81.25
 33
0.0
 14
162.25
 24
95.14706
 34
0.0
 50
90.0
100
AcDbRotatedDimension
  0
DIMENSION
  5
FE
330
1B
100
AcDbEntity
 67
     1
  8
THICK
100
AcDbDimension
  2
*D4
 10
210.7034286509
 20
119.5
 30
0.0
 11
210.7034286509
 21
100.375
 31
0.0
 70
   160
 71
     2
 42
-1.0
  3
SLDDIMSTYLE2
100
AcDbAlignedDimension
 13
190.0
 23
81.25
 33
0.0
 14
158.3149545762
 24
119.5
 34
0.0
 50
90.0
100
AcDbRotatedDimension
  0
DIMENSION
  5
109
330
1B
100
AcDbEntity
 67
     1
  8
THICK
100
AcDbDimension
  2
*D5
 10
153.5
 20
146.0005176963
 30
0.0
 11
129.5128189834
 21
146.0005176963
 31
0.0
 70
   160
  1
PT1/8-M
 71
     2
 42
-1.0
  3
SLDDIMSTYLE3
100
AcDbAlignedDimension
 13
143.5
 23
129.5
 33
0.0
 14
153.5
 24
129.5
 34
0.0
 50
0.0
100
AcDbRotatedDimension
  0
DIMENSION
  5
116
330
1B
100
AcDbEntity
 67
     1
  8
THICK
100
AcDbDimension
  2
*D6
 10
150.55
 20
137.5497974089
 30
0.0
 11
157.4369381942
 21
137.5497974089
 31
0.0
 70
   160
  1
5
 71
     2
 42
-1.0
  3
SLDDIMSTYLE3
100
AcDbAlignedDimension
 13
146.45
 23
129.5
 33
0.0
 14
150.55
 24
129.5
 34
0.0
 50
0.0
100
AcDbRotatedDimension
  0
DIMENSION
  5
122
330
1B
100
AcDbEntity
 67
     1
  8
THICK
100
AcDbDimension
  2
*D7
 10
172.3595159045
 20
119.5
 30
0.0
 11
172.3595159045
 21
124.5
 31
0.0
 70
   160
  1
7
 71
     2
 42
-1.0
  3
SLDDIMSTYLE3
100
AcDbAlignedDimension
 13
153.5
 23
129.5
 33
0.0
 14
158.3149545762
 24
119.5
 34
0.0
 50
90.0
100
AcDbRotatedDimension
  0
INSERT
  5
138
330
1B
100
AcDbEntity
 67
     1
  8
THICK
100
AcDbBlockReference
  2
SW_NOTE_0
 10
128.8703792179
 20
123.9259230266
 30
0.0
  0
LEADER
  5
13A
330
1B
100
AcDbEntity
 67
     1
  8
THICK
100
AcDbLeader
  3
SLDDIMSTYLE4
 76
     2
 10
138.6850454238
 20
116.1233516459
 30
0.0
 10
128.8703792179
 20
123.9259230266
 30
0.0
  0
ENDSEC
  0
SECTION
  2
OBJECTS
  0
DICTIONARY
  5
C
330
0
100
AcDbDictionary
281
     1
  3
ACAD_GROUP
350
D
  3
ACAD_LAYOUT
350
1A
  3
ACAD_MLINESTYLE
350
17
  3
ACAD_PLOTSETTINGS
350
19
  3
ACAD_PLOTSTYLENAME
350
E
  3
ACAD_SCALELIST
350
BD
  3
AcDbVariableDictionary
350
13B
  0
DICTIONARY
  5
D
102
{ACAD_REACTORS
330
C
102
}
330
C
100
AcDbDictionary
281
     1
  0
DICTIONARY
  5
1A
102
{ACAD_REACTORS
330
C
102
}
330
C
100
AcDbDictionary
281
     1
  3
Model
350
22
  3
SW_Model_1
350
1E
  0
DICTIONARY
  5
17
102
{ACAD_REACTORS
330
C
102
}
330
C
100
AcDbDictionary
281
     1
  3
Standard
350
18
  0
DICTIONARY
  5
19
102
{ACAD_REACTORS
330
C
102
}
330
C
100
AcDbDictionary
281
     1
  0
ACDBDICTIONARYWDFLT
  5
E
102
{ACAD_REACTORS
330
C
102
}
330
C
100
AcDbDictionary
281
     1
  3
Normal
350
F
100
AcDbDictionaryWithDefault
340
F
  0
DICTIONARY
  5
BD
102
{ACAD_REACTORS
330
C
102
}
330
C
100
AcDbDictionary
281
     1
  3
A0
350
BE
  3
A1
350
BF
  3
A2
350
C0
  3
A3
350
C1
  3
A4
350
C2
  3
A5
350
C3
  3
A6
350
C4
  3
A7
350
C5
  3
A8
350
C6
  3
A9
350
C7
  3
B0
350
C8
  3
B1
350
C9
  3
B2
350
CA
  3
B3
350
CB
  3
B4
350
CC
  3
B5
350
CD
  3
B6
350
CE
  3
B7
350
CF
  3
B8
350
D0
  3
B9
350
D1
  3
C0
350
D2
  3
C1
350
D3
  3
C2
350
D4
  3
C3
350
D5
  3
C4
350
D6
  3
C5
350
D7
  3
C6
350
D8
  3
C7
350
D9
  3
C8
350
DA
  3
C9
350
DB
  3
D0
350
DC
  3
D1
350
DD
  3
D2
350
DE
  0
DICTIONARY
  5
13B
102
{ACAD_REACTORS
330
C
102
}
330
C
100
AcDbDictionary
281
     1
  3
CANNOSCALE
350
13C
  0
LAYOUT
  5
22
102
{ACAD_REACTORS
330
1A
102
}
330
1A
100
AcDbPlotSettings
  1

  2
none_device
  4

  6

 40
0.0
 41
0.0
 42
0.0
 43
0.0
 44
0.0
 45
0.0
 46
0.0
 47
0.0
 48
0.0
 49
0.0
140
0.0
141
0.0
142
1.0
143
1.0
 70
  1712
 72
     0
 73
     0
 74
     0
  7

 75
     0
147
1.0
148
0.0
149
0.0
100
AcDbLayout
  1
Model
 70
     1
 71
     0
 10
0.0
 20
0.0
 11
297.0
 21
210.0
 12
0.0
 22
0.0
 32
0.0
 14
0.0
 24
0.0
 34
0.0
 15
297.0
 25
210.0
 35
0.0
146
0.0
 13
0.0
 23
0.0
 33
0.0
 16
1.0
 26
0.0
 36
0.0
 17
0.0
 27
1.0
 37
0.0
 76
     0
330
1F
331
29
  0
LAYOUT
  5
1E
102
{ACAD_REACTORS
330
1A
102
}
330
1A
100
AcDbPlotSettings
  1

  2
none_device
  4
ISO_A4_(297.00_x_210.00_MM)
  6

 40
7.5
 41
20.0
 42
7.5
 43
20.0
 44
297.0
 45
210.0
 46
0.0
 47
0.0
 48
0.0
 49
0.0
140
0.0
141
0.0
142
1.0
143
1.0
 70
  4832
 72
     0
 73
     0
 74
     1
  7

 75
     0
147
1.0
148
0.0
149
0.0
100
AcDbLayout
  1
SW_Model_1
 70
     1
 71
     1
 10
0.0
 20
0.0
 11
297.0
 21
210.0
 12
0.0
 22
0.0
 32
0.0
 14
0.0
 24
0.0
 34
0.0
 15
297.0
 25
210.0
 35
0.0
146
0.0
 13
0.0
 23
0.0
 33
0.0
 16
1.0
 26
0.0
 36
0.0
 17
0.0
 27
1.0
 37
0.0
 76
     0
330
1B
331
47
  0
MLINESTYLE
  5
18
102
{ACAD_REACTORS
330
17
102
}
330
17
100
AcDbMlineStyle
  2
Standard
 70
     0
  3

 62
   256
 51
90.0
 52
90.0
 71
     2
 49
0.5
 62
   256
  6
BYLAYER
 49
-0.5
 62
   256
  6
BYLAYER
  0
ACDBPLACEHOLDER
  5
F
102
{ACAD_REACTORS
330
E
102
}
330
E
  0
SCALE
  5
BE
102
{ACAD_REACTORS
330
BD
102
}
330
BD
100
AcDbScale
 70
     0
300
1:1
140
1.0
141
1.0
290
     1
  0
SCALE
  5
BF
102
{ACAD_REACTORS
330
BD
102
}
330
BD
100
AcDbScale
 70
     0
300
1:2
140
1.0
141
2.0
290
     0
  0
SCALE
  5
C0
102
{ACAD_REACTORS
330
BD
102
}
330
BD
100
AcDbScale
 70
     0
300
1:4
140
1.0
141
4.0
290
     0
  0
SCALE
  5
C1
102
{ACAD_REACTORS
330
BD
102
}
330
BD
100
AcDbScale
 70
     0
300
1:5
140
1.0
141
5.0
290
     0
  0
SCALE
  5
C2
102
{ACAD_REACTORS
330
BD
102
}
330
BD
100
AcDbScale
 70
     0
300
1:8
140
1.0
141
8.0
290
     0
  0
SCALE
  5
C3
102
{ACAD_REACTORS
330
BD
102
}
330
BD
100
AcDbScale
 70
     0
300
1:10
140
1.0
141
10.0
290
     0
  0
SCALE
  5
C4
102
{ACAD_REACTORS
330
BD
102
}
330
BD
100
AcDbScale
 70
     0
300
1:16
140
1.0
141
16.0
290
     0
  0
SCALE
  5
C5
102
{ACAD_REACTORS
330
BD
102
}
330
BD
100
AcDbScale
 70
     0
300
1:20
140
1.0
141
20.0
290
     0
  0
SCALE
  5
C6
102
{ACAD_REACTORS
330
BD
102
}
330
BD
100
AcDbScale
 70
     0
300
1:30
140
1.0
141
30.0
290
     0
  0
SCALE
  5
C7
102
{ACAD_REACTORS
330
BD
102
}
330
BD
100
AcDbScale
 70
     0
300
1:40
140
1.0
141
40.0
290
     0
  0
SCALE
  5
C8
102
{ACAD_REACTORS
330
BD
102
}
330
BD
100
AcDbScale
 70
     0
300
1:50
140
1.0
141
50.0
290
     0
  0
SCALE
  5
C9
102
{ACAD_REACTORS
330
BD
102
}
330
BD
100
AcDbScale
 70
     0
300
1:100
140
1.0
141
100.0
290
     0
  0
SCALE
  5
CA
102
{ACAD_REACTORS
330
BD
102
}
330
BD
100
AcDbScale
 70
     0
300
2:1
140
2.0
141
1.0
290
     0
  0
SCALE
  5
CB
102
{ACAD_REACTORS
330
BD
102
}
330
BD
100
AcDbScale
 70
     0
300
4:1
140
4.0
141
1.0
290
     0
  0
SCALE
  5
CC
102
{ACAD_REACTORS
330
BD
102
}
330
BD
100
AcDbScale
 70
     0
300
8:1
140
8.0
141
1.0
290
     0
  0
SCALE
  5
CD
102
{ACAD_REACTORS
330
BD
102
}
330
BD
100
AcDbScale
 70
     0
300
10:1
140
10.0
141
1.0
290
     0
  0
SCALE
  5
CE
102
{ACAD_REACTORS
330
BD
102
}
330
BD
100
AcDbScale
 70
     0
300
100:1
140
100.0
141
1.0
290
     0
  0
SCALE
  5
CF
102
{ACAD_REACTORS
330
BD
102
}
330
BD
100
AcDbScale
 70
     0
300
1/128" = 1'-0"
140
0.0078125
141
12.0
290
     0
  0
SCALE
  5
D0
102
{ACAD_REACTORS
330
BD
102
}
330
BD
100
AcDbScale
 70
     0
300
1/64" = 1'-0"
140
0.015625
141
12.0
290
     0
  0
SCALE
  5
D1
102
{ACAD_REACTORS
330
BD
102
}
330
BD
100
AcDbScale
 70
     0
300
1/32" = 1'-0"
140
0.03125
141
12.0
290
     0
  0
SCALE
  5
D2
102
{ACAD_REACTORS
330
BD
102
}
330
BD
100
AcDbScale
 70
     0
300
1/16" = 1'-0"
140
0.0625
141
12.0
290
     0
  0
SCALE
  5
D3
102
{ACAD_REACTORS
330
BD
102
}
330
BD
100
AcDbScale
 70
     0
300
3/32" = 1'-0"
140
0.09375
141
12.0
290
     0
  0
SCALE
  5
D4
102
{ACAD_REACTORS
330
BD
102
}
330
BD
100
AcDbScale
 70
     0
300
1/8" = 1'-0"
140
0.125
141
12.0
290
     0
  0
SCALE
  5
D5
102
{ACAD_REACTORS
330
BD
102
}
330
BD
100
AcDbScale
 70
     0
300
3/16" = 1'-0"
140
0.1875
141
12.0
290
     0
  0
SCALE
  5
D6
102
{ACAD_REACTORS
330
BD
102
}
330
BD
100
AcDbScale
 70
     0
300
1/4" = 1'-0"
140
0.25
141
12.0
290
     0
  0
SCALE
  5
D7
102
{ACAD_REACTORS
330
BD
102
}
330
BD
100
AcDbScale
 70
     0
300
3/8" = 1'-0"
140
0.375
141
12.0
290
     0
  0
SCALE
  5
D8
102
{ACAD_REACTORS
330
BD
102
}
330
BD
100
AcDbScale
 70
     0
300
1/2" = 1'-0"
140
0.5
141
12.0
290
     0
  0
SCALE
  5
D9
102
{ACAD_REACTORS
330
BD
102
}
330
BD
100
AcDbScale
 70
     0
300
3/4" = 1'-0"
140
0.75
141
12.0
290
     0
  0
SCALE
  5
DA
102
{ACAD_REACTORS
330
BD
102
}
330
BD
100
AcDbScale
 70
     0
300
1" = 1'-0"
140
1.0
141
12.0
290
     0
  0
SCALE
  5
DB
102
{ACAD_REACTORS
330
BD
102
}
330
BD
100
AcDbScale
 70
     0
300
1-1/2" = 1'-0"
140
1.5
141
12.0
290
     0
  0
SCALE
  5
DC
102
{ACAD_REACTORS
330
BD
102
}
330
BD
100
AcDbScale
 70
     0
300
3" = 1'-0"
140
3.0
141
12.0
290
     0
  0
SCALE
  5
DD
102
{ACAD_REACTORS
330
BD
102
}
330
BD
100
AcDbScale
 70
     0
300
6" = 1'-0"
140
6.0
141
12.0
290
     0
  0
SCALE
  5
DE
102
{ACAD_REACTORS
330
BD
102
}
330
BD
100
AcDbScale
 70
     0
300
1'-0" = 1'-0"
140
12.0
141
12.0
290
     0
  0
DICTIONARYVAR
  5
13C
102
{ACAD_REACTORS
330
13B
102
}
330
13B
100
DictionaryVariables
280
     0
  1
1:1
  0
ENDSEC
  0
EOF
