  0
SECTION
  2
HEADER
  9
$ACADVER
  1
AC1014
  9
$ACADMAINTVER
 70
     9
  9
$DWGCODEPAGE
  3
DOS932
  9
$INSBASE
 10
0.0
 20
0.0
 30
0.0
  9
$EXTMIN
 10
0.0
 20
0.0
 30
0.0
  9
$EXTMAX
 10
210.0
 20
297.0
 30
0.0
  9
$LIMMIN
 10
0.0
 20
0.0
  9
$LIMMAX
 10
0.0
 20
0.0
  9
$ORTHOMODE
 70
     0
  9
$REGENMODE
 70
     1
  9
$FILLMODE
 70
     1
  9
$QTEXTMODE
 70
     0
  9
$MIRRTEXT
 70
     1
  9
$DRAGMODE
 70
     2
  9
$LTSCALE
 40
1.0
  9
$OSMODE
 70
    37
  9
$ATTMODE
 70
     1
  9
$TEXTSIZE
 40
3.5
  9
$TRACEWID
 40
1.0
  9
$TEXTSTYLE
  7
STANDARD
  9
$CLAYER
  8
0
  9
$CELTYPE
  6
BYLAYER
  9
$CECOLOR
 62
   256
  9
$CELTSCALE
 40
1.0
  9
$DELOBJ
 70
     1
  9
$DISPSILH
 70
     0
  9
$DIMSCALE
 40
1.0
  9
$DIMASZ
 40
3.0
  9
$DIMEXO
 40
1.0
  9
$DIMDLI
 40
3.75
  9
$DIMRND
 40
0.0
  9
$DIMDLE
 40
0.0
  9
$DIMEXE
 40
1.0
  9
$DIMTP
 40
0.0
  9
$DIMTM
 40
0.0
  9
$DIMTXT
 40
3.5
  9
$DIMCEN
 40
2.5
  9
$DIMTSZ
 40
0.0
  9
$DIMTOL
 70
     0
  9
$DIMLIM
 70
     0
  9
$DIMTIH
 70
     1
  9
$DIMTOH
 70
     1
  9
$DIMSE1
 70
     0
  9
$DIMSE2
 70
     0
  9
$DIMTAD
 70
     1
  9
$DIMZIN
 70
     0
  9
$DIMBLK
  1

  9
$DIMASO
 70
     1
  9
$DIMSHO
 70
     1
  9
$DIMPOST
  1

  9
$DIMAPOST
  1

  9
$DIMALT
 70
     0
  9
$DIMALTD
 70
     3
  9
$DIMALTF
 40
0.0393700787
  9
$DIMLFAC
 40
1.0
  9
$DIMTOFL
 70
     1
  9
$DIMTVP
 40
0.0
  9
$DIMTIX
 70
     0
  9
$DIMSOXD
 70
     0
  9
$DIMSAH
 70
     0
  9
$DIMBLK1
  1

  9
$DIMBLK2
  1

  9
$DIMSTYLE
  2
ISO-25
  9
$DIMCLRD
 70
     0
  9
$DIMCLRE
 70
     0
  9
$DIMCLRT
 70
     0
  9
$DIMTFAC
 40
1.0
  9
$DIMGAP
 40
1.524
  9
$DIMJUST
 70
     0
  9
$DIMSD1
 70
     0
  9
$DIMSD2
 70
     0
  9
$DIMTOLJ
 70
     0
  9
$DIMTZIN
 70
     0
  9
$DIMALTZ
 70
     0
  9
$DIMALTTZ
 70
     0
  9
$DIMFIT
 70
     3
  9
$DIMUPT
 70
     0
  9
$DIMUNIT
 70
     2
  9
$DIMDEC
 70
     2
  9
$DIMTDEC
 70
     2
  9
$DIMALTU
 70
     2
  9
$DIMALTTD
 70
     3
  9
$DIMTXSTY
  7
STANDARD
  9
$DIMAUNIT
 70
     0
  9
$LUNITS
 70
     2
  9
$LUPREC
 70
     1
  9
$SKETCHINC
 40
1.0
  9
$FILLETRAD
 40
10.0
  9
$AUNITS
 70
     0
  9
$AUPREC
 70
     0
  9
$MENU
  1
.
  9
$ELEVATION
 40
0.0
  9
$PELEVATION
 40
0.0
  9
$THICKNESS
 40
0.0
  9
$LIMCHECK
 70
     0
  9
$CHAMFERA
 40
10.0
  9
$CHAMFERB
 40
10.0
  9
$CHAMFERC
 40
20.0
  9
$CHAMFERD
 40
0.0
  9
$SKPOLY
 70
     0
  9
$TDCREATE
 40
2454841.572754988
  9
$TDUPDATE
 40
2454841.572755
  9
$TDINDWG
 40
0.0000000116
  9
$TDUSRTIMER
 40
0.0000000116
  9
$USRTIMER
 70
     1
  9
$ANGBASE
 50
0.0
  9
$ANGDIR
 70
     0
  9
$PDMODE
 70
     0
  9
$PDSIZE
 40
-1.0
  9
$PLINEWID
 40
0.0
  9
$COORDS
 70
     1
  9
$SPLFRAME
 70
     0
  9
$SPLINETYPE
 70
     6
  9
$SPLINESEGS
 70
     8
  9
$ATTDIA
 70
     0
  9
$ATTREQ
 70
     1
  9
$HANDLING
 70
     1
  9
$HANDSEED
  5
1C1
  9
$SURFTAB1
 70
     6
  9
$SURFTAB2
 70
     6
  9
$SURFTYPE
 70
     6
  9
$SURFU
 70
     6
  9
$SURFV
 70
     6
  9
$UCSNAME
  2

  9
$UCSORG
 10
0.0
 20
0.0
 30
0.0
  9
$UCSXDIR
 10
1.0
 20
0.0
 30
0.0
  9
$UCSYDIR
 10
0.0
 20
1.0
 30
0.0
  9
$PUCSNAME
  2

  9
$PUCSORG
 10
0.0
 20
0.0
 30
0.0
  9
$PUCSXDIR
 10
1.0
 20
0.0
 30
0.0
  9
$PUCSYDIR
 10
0.0
 20
1.0
 30
0.0
  9
$USERI1
 70
     0
  9
$USERI2
 70
     0
  9
$USERI3
 70
     0
  9
$USERI4
 70
     0
  9
$USERI5
 70
     0
  9
$USERR1
 40
0.0
  9
$USERR2
 40
0.0
  9
$USERR3
 40
0.0
  9
$USERR4
 40
0.0
  9
$USERR5
 40
0.0
  9
$WORLDVIEW
 70
     1
  9
$SHADEDGE
 70
     3
  9
$SHADEDIF
 70
    70
  9
$TILEMODE
 70
     1
  9
$MAXACTVP
 70
    64
  9
$PINSBASE
 10
0.0
 20
0.0
 30
0.0
  9
$PLIMCHECK
 70
     0
  9
$PEXTMIN
 10
1.0000000000E+20
 20
1.0000000000E+20
 30
1.0000000000E+20
  9
$PEXTMAX
 10
-1.0000000000E+20
 20
-1.0000000000E+20
 30
-1.0000000000E+20
  9
$PLIMMIN
 10
0.0
 20
0.0
  9
$PLIMMAX
 10
420.0
 20
297.0
  9
$UNITMODE
 70
     0
  9
$VISRETAIN
 70
     1
  9
$PLINEGEN
 70
     0
  9
$PSLTSCALE
 70
     1
  9
$TREEDEPTH
 70
  3020
  9
$PICKSTYLE
 70
     1
  9
$CMLSTYLE
  2
STANDARD
  9
$CMLJUST
 70
     0
  9
$CMLSCALE
 40
20.0
  9
$PROXYGRAPHICS
 70
     1
  9
$MEASUREMENT
 70
     1
  0
ENDSEC
  0
SECTION
  2
CLASSES
  0
CLASS
  1
ACDBDICTIONARYWDFLT
  2
AcDbDictionaryWithDefault
  3
ObjectDBX Classes
 90
        0
280
     0
281
     0
  0
CLASS
  1
XRECORD
  2
AcDbXrecord
  3
AutoCAD 2000
 90
        0
280
     0
281
     0
  0
CLASS
  1
LWPOLYLINE
  2
AcDbPolyline
  3
AutoCAD 2000
 90
        0
280
     0
281
     1
  0
CLASS
  1
HATCH
  2
AcDbHatch
  3
AutoCAD 2000
 90
        0
280
     0
281
     1
  0
CLASS
  1
ACDBPLACEHOLDER
  2
AcDbPlaceHolder
  3
ObjectDBX Classes
 90
        0
280
     0
281
     0
  0
CLASS
  1
LAYOUT
  2
AcDbLayout
  3
ObjectDBX Classes
 90
        0
280
     0
281
     0
  0
ENDSEC
  0
SECTION
  2
TABLES
  0
TABLE
  2
VPORT
  5
8
330
0
100
AcDbSymbolTable
 70
     1
  0
VPORT
  5
29
330
8
100
AcDbSymbolTableRecord
100
AcDbViewportTableRecord
  2
*ACTIVE
 70
     0
 10
0.0
 20
0.0
 11
1.0
 21
1.0
 12
105.0
 22
148.5
 13
0.0
 23
0.0
 14
10.0
 24
10.0
 15
10.0
 25
10.0
 16
0.0
 26
0.0
 36
1.0
 17
0.0
 27
0.0
 37
0.0
 40
297.0
 41
1.9729729729
 42
50.0
 43
0.0
 44
0.0
 50
0.0
 51
0.0
 71
     0
 72
  2000
 73
     1
 74
     3
 75
     0
 76
     0
 77
     0
 78
     0
  0
ENDTAB
  0
TABLE
  2
LTYPE
  5
5
330
0
100
AcDbSymbolTable
 70
     6
  0
LTYPE
  5
14
330
5
100
AcDbSymbolTableRecord
100
AcDbLinetypeTableRecord
  2
BYBLOCK
 70
     0
  3

 72
    65
 73
     0
 40
0.0
  0
LTYPE
  5
15
330
5
100
AcDbSymbolTableRecord
100
AcDbLinetypeTableRecord
  2
BYLAYER
 70
     0
  3

 72
    65
 73
     0
 40
0.0
  0
LTYPE
  5
16
330
5
100
AcDbSymbolTableRecord
100
AcDbLinetypeTableRecord
  2
CONTINUOUS
 70
     0
  3
Solid line
 72
    65
 73
     0
 40
0.0
  0
LTYPE
  5
2A
330
5
100
AcDbSymbolTableRecord
100
AcDbLinetypeTableRecord
  2
HIDDEN
 70
     0
  3
Hidden __ __ __ __ __ __ __ __ __ __ __ __ __ __
 72
    65
 73
     2
 40
1.905
 49
1.27
 74
     0
 49
-0.635
 74
     0
  0
LTYPE
  5
2B
330
5
100
AcDbSymbolTableRecord
100
AcDbLinetypeTableRecord
  2
PHANTOM
 70
     0
  3
Phantom ______  __  __  ______  __  __  ______
 72
    65
 73
     6
 40
12.7
 49
6.35
 74
     0
 49
-1.27
 74
     0
 49
1.27
 74
     0
 49
-1.27
 74
     0
 49
1.27
 74
     0
 49
-1.27
 74
     0
  0
LTYPE
  5
2C
330
5
100
AcDbSymbolTableRecord
100
AcDbLinetypeTableRecord
  2
CENTER
 70
     0
  3
Center ____ _ ____ _ ____ _ ____ _ ____ _ ____
 72
    65
 73
     4
 40
10.16
 49
6.35
 74
     0
 49
-1.27
 74
     0
 49
1.27
 74
     0
 49
-1.27
 74
     0
  0
LTYPE
  5
2D
330
5
100
AcDbSymbolTableRecord
100
AcDbLinetypeTableRecord
  2
CENTERX2
 70
     0
  3
Center (2x) ________  __  ________  __  _____
 72
    65
 73
     4
 40
20.32
 49
12.7
 74
     0
 49
-2.54
 74
     0
 49
2.54
 74
     0
 49
-2.54
 74
     0
  0
LTYPE
  5
2E
330
5
100
AcDbSymbolTableRecord
100
AcDbLinetypeTableRecord
  2
DOT2
 70
     0
  3
Dot (.5x) ........................................
 72
    65
 73
     2
 40
0.635
 49
0.0
 74
     0
 49
-0.635
 74
     0
  0
ENDTAB
  0
TABLE
  2
LAYER
  5
2
330
0
100
AcDbSymbolTable
 70
     2
  0
LAYER
  5
10
330
2
100
AcDbSymbolTableRecord
100
AcDbLayerTableRecord
  2
0
 70
     0
 62
     7
  6
CONTINUOUS
  0
LAYER
  5
74
330
2
100
AcDbSymbolTableRecord
100
AcDbLayerTableRecord
  2
DEFPOINTS
 70
     0
 62
     7
  6
CONTINUOUS
  0
ENDTAB
  0
TABLE
  2
STYLE
  5
3
330
0
100
AcDbSymbolTable
 70
     3
  0
STYLE
  5
11
330
3
100
AcDbSymbolTableRecord
100
AcDbTextStyleTableRecord
  2
STANDARD
 70
     0
 40
0.0
 41
1.0
 50
0.0
 71
     0
 42
2.5
  3
txt
  4
bigfont
  0
STYLE
  5
37
330
3
100
AcDbSymbolTableRecord
100
AcDbTextStyleTableRecord
  2
SLDTEXTSTYLE0
 70
     0
 40
0.0
 41
0.6461538462
 50
0.0
 71
     0
 42
0.2
  3
TXT
  4
bigfont
  0
STYLE
  5
39
330
3
100
AcDbSymbolTableRecord
100
AcDbTextStyleTableRecord
  2
SLDTEXTSTYLE1
 70
     0
 40
0.0
 41
0.7
 50
0.0
 71
     0
 42
0.2
  3
TXT
  4
bigfont
  0
ENDTAB
  0
TABLE
  2
VIEW
  5
6
330
0
100
AcDbSymbolTable
 70
     0
  0
ENDTAB
  0
TABLE
  2
UCS
  5
7
330
0
100
AcDbSymbolTable
 70
     0
  0
ENDTAB
  0
TABLE
  2
APPID
  5
9
330
0
100
AcDbSymbolTable
 70
     1
  0
APPID
  5
12
330
9
100
AcDbSymbolTableRecord
100
AcDbRegAppTableRecord
  2
ACAD
 70
     0
  0
ENDTAB
  0
TABLE
  2
DIMSTYLE
  5
A
330
0
100
AcDbSymbolTable
 70
     3
  0
DIMSTYLE
105
27
330
A
100
AcDbSymbolTableRecord
100
AcDbDimStyleTableRecord
  2
ISO-25
 70
     0
  3

  4

  5

  6

  7

 40
1.0
 41
2.5
 42
0.625
 43
3.75
 44
1.25
 45
0.0
 46
0.0
 47
0.0
 48
0.0
140
2.5
141
2.5
142
0.0
143
0.0393700787
144
1.0
145
0.0
146
1.0
147
0.625
 71
     0
 72
     0
 73
     0
 74
     0
 75
     0
 76
     0
 77
     1
 78
     8
170
     0
171
     3
172
     1
173
     0
174
     0
175
     0
176
     0
177
     0
178
     0
270
     2
271
     2
272
     2
273
     2
274
     3
340
11
275
     0
280
     0
281
     0
282
     0
283
     0
284
     8
285
     0
286
     0
287
     3
288
     0
  0
DIMSTYLE
105
82
102
{ACAD_REACTORS
330
73
330
91
330
A4
330
BB
330
CF
330
E4
330
11C
330
132
330
186
102
}
330
A
100
AcDbSymbolTableRecord
100
AcDbDimStyleTableRecord
  2
SLDDIMSTYLE0
 70
     0
  3

  4

  5

  6
OPEN30
  7
OPEN30
 40
1.0
 41
3.0
 42
0.0625
 43
0.38
 44
0.0
 45
0.0
 46
0.0
 47
0.0
 48
0.0
140
3.5
141
0.09
142
0.0
143
25.4
144
1.0
145
0.0
146
1.0
147
0.875
 71
     0
 72
     0
 73
     0
 74
     0
 75
     0
 76
     0
 77
     3
 78
    12
170
     0
171
     2
172
     0
173
     1
174
     0
175
     0
176
     0
177
     0
178
     0
270
     2
271
     1
272
     2
273
     2
274
     2
340
39
275
     0
280
     0
281
     0
282
     0
283
     1
284
    12
285
     0
286
     0
287
     3
288
     0
  0
DIMSTYLE
105
FD
330
A
100
AcDbSymbolTableRecord
100
AcDbDimStyleTableRecord
  2
SLDDIMSTYLE1
 70
     0
  3

  4

  5

  6

  7

 40
1.0
 41
3.0
 42
0.0625
 43
0.38
 44
0.0
 45
0.0
 46
0.0
 47
0.0
 48
0.0
140
3.0
141
0.09
142
0.0
143
25.4
144
1.0
145
0.0
146
1.0
147
0.75
 71
     0
 72
     0
 73
     1
 74
     1
 75
     0
 76
     0
 77
     0
 78
     0
170
     0
171
     2
172
     0
173
     1
174
     0
175
     0
176
     0
177
     0
178
     0
270
     2
271
     0
272
     0
273
     2
274
     2
340
11
275
     0
280
     0
281
     0
282
     0
283
     1
284
     0
285
     0
286
     0
287
     3
288
     0
  0
ENDTAB
  0
TABLE
  2
BLOCK_RECORD
  5
1
330
0
100
AcDbSymbolTable
 70
    14
  0
BLOCK_RECORD
  5
1F
330
1
100
AcDbSymbolTableRecord
100
AcDbBlockTableRecord
  2
*MODEL_SPACE
  0
BLOCK_RECORD
  5
1B
330
1
100
AcDbSymbolTableRecord
100
AcDbBlockTableRecord
  2
*PAPER_SPACE
  0
BLOCK_RECORD
  5
75
330
1
100
AcDbSymbolTableRecord
100
AcDbBlockTableRecord
  2
*D1
  0
BLOCK_RECORD
  5
83
330
1
100
AcDbSymbolTableRecord
100
AcDbBlockTableRecord
  2
_OPEN30
  0
BLOCK_RECORD
  5
92
330
1
100
AcDbSymbolTableRecord
100
AcDbBlockTableRecord
  2
*D3
  0
BLOCK_RECORD
  5
A5
330
1
100
AcDbSymbolTableRecord
100
AcDbBlockTableRecord
  2
*D4
  0
BLOCK_RECORD
  5
BC
330
1
100
AcDbSymbolTableRecord
100
AcDbBlockTableRecord
  2
*D5
  0
BLOCK_RECORD
  5
D0
330
1
100
AcDbSymbolTableRecord
100
AcDbBlockTableRecord
  2
*D6
  0
BLOCK_RECORD
  5
E5
330
1
100
AcDbSymbolTableRecord
100
AcDbBlockTableRecord
  2
*D7
  0
BLOCK_RECORD
  5
F7
330
1
100
AcDbSymbolTableRecord
100
AcDbBlockTableRecord
  2
SW_NOTE_0
  0
BLOCK_RECORD
  5
FF
330
1
100
AcDbSymbolTableRecord
100
AcDbBlockTableRecord
  2
SW_NOTE_1
  0
BLOCK_RECORD
  5
11D
330
1
100
AcDbSymbolTableRecord
100
AcDbBlockTableRecord
  2
*D10
  0
BLOCK_RECORD
  5
133
330
1
100
AcDbSymbolTableRecord
100
AcDbBlockTableRecord
  2
*D11
  0
BLOCK_RECORD
  5
147
330
1
100
AcDbSymbolTableRecord
100
AcDbBlockTableRecord
  2
SW_CENTERMARKSYMBOL_0
  0
BLOCK_RECORD
  5
187
330
1
100
AcDbSymbolTableRecord
100
AcDbBlockTableRecord
  2
*D13
  0
ENDTAB
  0
ENDSEC
  0
SECTION
  2
BLOCKS
  0
BLOCK
  5
20
330
1F
100
AcDbEntity
  8
0
100
AcDbBlockBegin
  2
*MODEL_SPACE
 70
     0
 71
     0
 10
0.0
 20
0.0
 30
0.0
  3
*MODEL_SPACE
  1

  0
ENDBLK
  5
21
330
1F
100
AcDbEntity
  8
0
100
AcDbBlockEnd
  0
BLOCK
  5
1C
330
1B
100
AcDbEntity
 67
     1
  8
0
100
AcDbBlockBegin
  2
*PAPER_SPACE
 70
     0
 71
     0
 10
0.0
 20
0.0
 30
0.0
  3
*PAPER_SPACE
  1

  0
ENDBLK
  5
1D
330
1B
100
AcDbEntity
 67
     1
  8
0
100
AcDbBlockEnd
  0
BLOCK
  5
80
330
75
100
AcDbEntity
  8
0
100
AcDbBlockBegin
  2
*D1
 70
     1
 71
     0
 10
0.0
 20
0.0
 30
0.0
  3
*D1
  1

  0
INSERT
  5
89
330
75
100
AcDbEntity
  8
0
  6
CONTINUOUS
 62
     7
100
AcDbBlockReference
  2
_OPEN30
 10
123.021195296
 20
187.3843965736
 30
0.0
 41
3.0
 42
3.0
 50
90.0
  0
INSERT
  5
8A
330
75
100
AcDbEntity
  8
0
  6
CONTINUOUS
 62
     7
100
AcDbBlockReference
  2
_OPEN30
 10
123.021195296
 20
201.3843965736
 30
0.0
 41
3.0
 42
3.0
 50
270.0
  0
LINE
  5
8B
330
75
100
AcDbEntity
  8
0
  6
CONTINUOUS
 62
     7
100
AcDbLine
 10
114.6538514353
 20
187.3843965736
 30
0.0
 11
124.021195296
 21
187.3843965736
 31
0.0
  0
LINE
  5
8C
330
75
100
AcDbEntity
  8
0
  6
CONTINUOUS
 62
     7
100
AcDbLine
 10
94.7032507036
 20
201.3843965736
 30
0.0
 11
124.021195296
 21
201.3843965736
 31
0.0
  0
LINE
  5
8D
330
75
100
AcDbEntity
  8
0
  6
CONTINUOUS
 62
     7
100
AcDbLine
 10
123.021195296
 20
187.3843965736
 30
0.0
 11
123.021195296
 21
181.3843965736
 31
0.0
  0
LINE
  5
8E
330
75
100
AcDbEntity
  8
0
  6
CONTINUOUS
 62
     7
100
AcDbLine
 10
123.021195296
 20
187.3843965736
 30
0.0
 11
123.021195296
 21
201.3843965736
 31
0.0
  0
LINE
  5
8F
330
75
100
AcDbEntity
  8
0
  6
CONTINUOUS
 62
     7
100
AcDbLine
 10
123.021195296
 20
201.3843965736
 30
0.0
 11
123.021195296
 21
207.3843965736
 31
0.0
  0
MTEXT
  5
90
330
75
100
AcDbEntity
  8
0
  6
CONTINUOUS
 62
     7
100
AcDbMText
 10
118.9484682561
 20
192.0845204112
 30
0.0
 40
3.5
 41
0.0
 71
     1
 72
     1
  1
14
  7
SLDTEXTSTYLE1
 11
-9.930776903935290E-15
 21
1.0
 31
0.0
  0
ENDBLK
  5
81
330
75
100
AcDbEntity
  8
0
100
AcDbBlockEnd
  0
BLOCK
  5
84
330
83
100
AcDbEntity
  8
0
100
AcDbBlockBegin
  2
_OPEN30
 70
     0
 71
     0
 10
0.0
 20
0.0
 30
0.0
  3
_OPEN30
  1

  0
LINE
  5
86
330
83
100
AcDbEntity
  8
0
  6
BYBLOCK
 62
     0
100
AcDbLine
 10
-1.0
 20
0.267949
 30
0.0
 11
0.0
 21
0.0
 31
0.0
  0
LINE
  5
87
330
83
100
AcDbEntity
  8
0
  6
BYBLOCK
 62
     0
100
AcDbLine
 10
0.0
 20
0.0
 30
0.0
 11
-1.0
 21
-0.267949
 31
0.0
  0
LINE
  5
88
330
83
100
AcDbEntity
  8
0
  6
BYBLOCK
 62
     0
100
AcDbLine
 10
0.0
 20
0.0
 30
0.0
 11
-1.0
 21
0.0
 31
0.0
  0
ENDBLK
  5
85
330
83
100
AcDbEntity
  8
0
100
AcDbBlockEnd
  0
BLOCK
  5
9C
330
92
100
AcDbEntity
  8
0
100
AcDbBlockBegin
  2
*D3
 70
     1
 71
     0
 10
0.0
 20
0.0
 30
0.0
  3
*D3
  1

  0
INSERT
  5
9E
330
92
100
AcDbEntity
  8
0
  6
CONTINUOUS
 62
     7
100
AcDbBlockReference
  2
_OPEN30
 10
79.7538514353
 20
227.715739613
 30
-7.9999000689
 41
3.0
 42
3.0
 50
180.0
  0
INSERT
  5
9F
330
92
100
AcDbEntity
  8
0
  6
CONTINUOUS
 62
     7
100
AcDbBlockReference
  2
_OPEN30
 10
103.2538514353
 20
227.715739613
 30
-7.9999000689
 41
3.0
 42
3.0
 50
0.0
  0
LINE
  5
A0
330
92
100
AcDbEntity
  8
0
  6
CONTINUOUS
 62
     7
100
AcDbLine
 10
79.7538514353
 20
204.1593609745
 30
0.0
 11
79.7538514353
 21
228.715739613
 31
0.0
  0
LINE
  5
A1
330
92
100
AcDbEntity
  8
0
  6
CONTINUOUS
 62
     7
100
AcDbLine
 10
103.2538514353
 20
200.1048216765
 30
0.0
 11
103.2538514353
 21
228.715739613
 31
0.0
  0
LINE
  5
A2
330
92
100
AcDbEntity
  8
0
  6
CONTINUOUS
 62
     7
100
AcDbLine
 10
79.7538514353
 20
227.715739613
 30
0.0
 11
103.2538514353
 21
227.715739613
 31
0.0
  0
MTEXT
  5
A3
330
92
100
AcDbEntity
  8
0
  6
CONTINUOUS
 62
     7
100
AcDbMText
 10
90.5979503533
 20
231.7884666529
 30
0.0
 40
3.5
 41
0.0
 71
     1
 72
     1
  1
23
  7
SLDTEXTSTYLE1
  0
ENDBLK
  5
9D
330
92
100
AcDbEntity
  8
0
100
AcDbBlockEnd
  0
BLOCK
  5
B0
330
A5
100
AcDbEntity
  8
0
100
AcDbBlockBegin
  2
*D4
 70
     1
 71
     0
 10
0.0
 20
0.0
 30
0.0
  3
*D4
  1

  0
INSERT
  5
B3
330
A5
100
AcDbEntity
  8
0
  6
CONTINUOUS
 62
     7
100
AcDbBlockReference
  2
_OPEN30
 10
103.2538514353
 20
227.715739613
 30
-7.9999000689
 41
3.0
 42
3.0
 50
0.0
  0
INSERT
  5
B4
330
A5
100
AcDbEntity
  8
0
  6
CONTINUOUS
 62
     7
100
AcDbBlockReference
  2
_OPEN30
 10
111.6538514353
 20
227.715739613
 30
-7.9999000689
 41
3.0
 42
3.0
 50
180.0
  0
LINE
  5
B5
330
A5
100
AcDbEntity
  8
0
  6
CONTINUOUS
 62
     7
100
AcDbLine
 10
103.2538514353
 20
200.1048216765
 30
0.0
 11
103.2538514353
 21
228.715739613
 31
0.0
  0
LINE
  5
B6
330
A5
100
AcDbEntity
  8
0
  6
CONTINUOUS
 62
     7
100
AcDbLine
 10
111.6538514353
 20
197.8843965736
 30
0.0
 11
111.6538514353
 21
228.715739613
 31
0.0
  0
LINE
  5
B7
330
A5
100
AcDbEntity
  8
0
  6
CONTINUOUS
 62
     7
100
AcDbLine
 10
103.2538514353
 20
227.715739613
 30
0.0
 11
97.2538514353
 21
227.715739613
 31
0.0
  0
LINE
  5
B8
330
A5
100
AcDbEntity
  8
0
  6
CONTINUOUS
 62
     7
100
AcDbLine
 10
103.2538514353
 20
227.715739613
 30
0.0
 11
111.6538514353
 21
227.715739613
 31
0.0
  0
LINE
  5
B9
330
A5
100
AcDbEntity
  8
0
  6
CONTINUOUS
 62
     7
100
AcDbLine
 10
111.6538514353
 20
227.715739613
 30
0.0
 11
117.6538514353
 21
227.715739613
 31
0.0
  0
MTEXT
  5
BA
330
A5
100
AcDbEntity
  8
0
  6
CONTINUOUS
 62
     7
100
AcDbMText
 10
105.073246429
 20
231.7884666529
 30
0.0
 40
3.5
 41
0.0
 71
     1
 72
     1
  1
8.5
  7
SLDTEXTSTYLE1
  0
ENDBLK
  5
B1
330
A5
100
AcDbEntity
  8
0
100
AcDbBlockEnd
  0
BLOCK
  5
C7
330
BC
100
AcDbEntity
  8
0
100
AcDbBlockBegin
  2
*D5
 70
     1
 71
     0
 10
0.0
 20
0.0
 30
0.0
  3
*D5
  1

  0
INSERT
  5
C9
330
BC
100
AcDbEntity
  8
0
  6
CONTINUOUS
 62
     7
100
AcDbBlockReference
  2
_OPEN30
 10
38.4514787093
 20
210.8973244824
 30
-7.9999000689
 41
3.0
 42
3.0
 50
90.0
  0
INSERT
  5
CA
330
BC
100
AcDbEntity
  8
0
  6
CONTINUOUS
 62
     7
100
AcDbBlockReference
  2
_OPEN30
 10
38.4514787093
 20
163.2428925443
 30
-7.9999000689
 41
3.0
 42
3.0
 50
270.0
  0
LINE
  5
CB
330
BC
100
AcDbEntity
  8
0
  6
CONTINUOUS
 62
     7
100
AcDbLine
 10
47.7538514353
 20
210.8973244824
 30
0.0
 11
37.4514787093
 21
210.8973244824
 31
0.0
  0
LINE
  5
CC
330
BC
100
AcDbEntity
  8
0
  6
CONTINUOUS
 62
     7
100
AcDbLine
 10
47.7538514353
 20
163.2428925443
 30
0.0
 11
37.4514787093
 21
163.2428925443
 31
0.0
  0
LINE
  5
CD
330
BC
100
AcDbEntity
  8
0
  6
CONTINUOUS
 62
     7
100
AcDbLine
 10
38.4514787093
 20
210.8973244824
 30
0.0
 11
38.4514787093
 21
163.2428925443
 31
0.0
  0
MTEXT
  5
CE
330
BC
100
AcDbEntity
  8
0
  6
CONTINUOUS
 62
     7
100
AcDbMText
 10
34.3787516694
 20
184.8095227299
 30
0.0
 40
3.5
 41
0.0
 71
     1
 72
     1
  1
48
  7
SLDTEXTSTYLE1
 11
-1.770233807631139E-14
 21
1.0
 31
0.0
  0
ENDBLK
  5
C8
330
BC
100
AcDbEntity
  8
0
100
AcDbBlockEnd
  0
BLOCK
  5
DA
330
D0
100
AcDbEntity
  8
0
100
AcDbBlockBegin
  2
*D6
 70
     1
 71
     0
 10
0.0
 20
0.0
 30
0.0
  3
*D6
  1

  0
ARC
  5
DC
330
D0
100
AcDbEntity
  8
0
  6
CONTINUOUS
 62
     7
100
AcDbCircle
 10
68.7461768294
 20
229.46947529
 30
0.0
 40
4.551541941668885
100
AcDbArc
 50
153.4349488229
 51
206.5650511771
  0
ARC
  5
DD
330
D0
100
AcDbEntity
  8
0
  6
CONTINUOUS
 62
     7
100
AcDbCircle
 10
67.8501539558
 20
229.46947529
 30
0.0
 40
4.551541941668885
100
AcDbArc
 50
333.4349488229
 51
26.5650511771
  0
INSERT
  5
DE
330
D0
100
AcDbEntity
  8
0
  6
CONTINUOUS
 62
     7
100
AcDbBlockReference
  2
_OPEN30
 10
46.7538514353
 20
227.4339638532
 30
-7.9999000689
 41
3.0
 42
3.0
 50
180.0
  0
INSERT
  5
DF
330
D0
100
AcDbEntity
  8
0
  6
CONTINUOUS
 62
     7
100
AcDbBlockReference
  2
_OPEN30
 10
79.7538514353
 20
227.4339638532
 30
-7.9999000689
 41
3.0
 42
3.0
 50
0.0
  0
LINE
  5
E0
330
D0
100
AcDbEntity
  8
0
  6
CONTINUOUS
 62
     7
100
AcDbLine
 10
46.7538514353
 20
210.5211187209
 30
0.0
 11
46.7538514353
 21
228.4339638532
 31
0.0
  0
LINE
  5
E1
330
D0
100
AcDbEntity
  8
0
  6
CONTINUOUS
 62
     7
100
AcDbLine
 10
79.7538514353
 20
204.1593609745
 30
0.0
 11
79.7538514353
 21
228.4339638532
 31
0.0
  0
LINE
  5
E2
330
D0
100
AcDbEntity
  8
0
  6
CONTINUOUS
 62
     7
100
AcDbLine
 10
46.7538514353
 20
227.4339638532
 30
0.0
 11
79.7538514353
 21
227.4339638532
 31
0.0
  0
MTEXT
  5
E3
330
D0
100
AcDbEntity
  8
0
  6
CONTINUOUS
 62
     7
100
AcDbMText
 10
66.2626539558
 20
231.5066908931
 30
0.0
 40
3.5
 41
0.0
 71
     1
 72
     1
  1
33
  7
SLDTEXTSTYLE1
  0
ENDBLK
  5
DB
330
D0
100
AcDbEntity
  8
0
100
AcDbBlockEnd
  0
BLOCK
  5
EF
330
E5
100
AcDbEntity
  8
0
100
AcDbBlockBegin
  2
*D7
 70
     1
 71
     0
 10
0.0
 20
0.0
 30
0.0
  3
*D7
  1

  0
INSERT
  5
F1
330
E5
100
AcDbEntity
  8
0
  6
CONTINUOUS
 62
     7
100
AcDbBlockReference
  2
_OPEN30
 10
46.7538514353
 20
239.8944173841
 30
-7.9999000689
 41
3.0
 42
3.0
 50
180.0
  0
INSERT
  5
F2
330
E5
100
AcDbEntity
  8
0
  6
CONTINUOUS
 62
     7
100
AcDbBlockReference
  2
_OPEN30
 10
111.6538514353
 20
239.8944173841
 30
-7.9999000689
 41
3.0
 42
3.0
 50
0.0
  0
LINE
  5
F3
330
E5
100
AcDbEntity
  8
0
  6
CONTINUOUS
 62
     7
100
AcDbLine
 10
46.7538514353
 20
211.6593244824
 30
0.0
 11
46.7538514353
 21
240.8944173841
 31
0.0
  0
LINE
  5
F4
330
E5
100
AcDbEntity
  8
0
  6
CONTINUOUS
 62
     7
100
AcDbLine
 10
111.6538514353
 20
197.8843965736
 30
0.0
 11
111.6538514353
 21
240.8944173841
 31
0.0
  0
LINE
  5
F5
330
E5
100
AcDbEntity
  8
0
  6
CONTINUOUS
 62
     7
100
AcDbLine
 10
46.7538514353
 20
239.8944173841
 30
0.0
 11
111.6538514353
 21
239.8944173841
 31
0.0
  0
MTEXT
  5
F6
330
E5
100
AcDbEntity
  8
0
  6
CONTINUOUS
 62
     7
100
AcDbMText
 10
79.690601808
 20
243.967144424
 30
0.0
 40
3.5
 41
0.0
 71
     1
 72
     1
  1
64.5
  7
SLDTEXTSTYLE1
  0
ENDBLK
  5
F0
330
E5
100
AcDbEntity
  8
0
100
AcDbBlockEnd
  0
BLOCK
  5
F8
330
F7
100
AcDbEntity
  8
0
100
AcDbBlockBegin
  2
SW_NOTE_0
 70
     0
 71
     0
 10
0.0
 20
0.0
 30
0.0
  3
SW_NOTE_0
  1

  0
MTEXT
  5
FA
330
F7
100
AcDbEntity
  8
0
  6
CONTINUOUS
 62
     7
100
AcDbMText
 10
-11.0034772349
 20
4.9302045459
 30
0.0
 40
4.2333333333
 41
0.0
 71
     1
 72
     1
  1
%%c
  7
SLDTEXTSTYLE1
  0
MTEXT
  5
FB
330
F7
100
AcDbEntity
  8
0
  6
CONTINUOUS
 62
     7
100
AcDbMText
 10
-5.6412547981
 20
4.9302045459
 30
0.0
 40
4.2333333333
 41
0.0
 71
     1
 72
     1
  1
12
  7
SLDTEXTSTYLE1
  0
ENDBLK
  5
F9
330
F7
100
AcDbEntity
  8
0
100
AcDbBlockEnd
  0
BLOCK
  5
100
330
FF
100
AcDbEntity
  8
0
100
AcDbBlockBegin
  2
SW_NOTE_1
 70
     0
 71
     0
 10
0.0
 20
0.0
 30
0.0
  3
SW_NOTE_1
  1

  0
MTEXT
  5
102
330
FF
100
AcDbEntity
  8
0
  6
CONTINUOUS
 62
     7
100
AcDbMText
 10
-7.9403983538
 20
4.0767533767
 30
0.0
 40
3.5
 41
0.0
 71
     1
 72
     1
  1
%%c
  7
SLDTEXTSTYLE1
  0
MTEXT
  5
103
330
FF
100
AcDbEntity
  8
0
  6
CONTINUOUS
 62
     7
100
AcDbMText
 10
-4.0704678387
 20
4.0767533767
 30
0.0
 40
3.5
 41
0.0
 71
     1
 72
     1
  1
12
  7
SLDTEXTSTYLE1
  0
ENDBLK
  5
101
330
FF
100
AcDbEntity
  8
0
100
AcDbBlockEnd
  0
BLOCK
  5
128
330
11D
100
AcDbEntity
  8
0
100
AcDbBlockBegin
  2
*D10
 70
     1
 71
     0
 10
0.0
 20
0.0
 30
0.0
  3
*D10
  1

  0
INSERT
  5
12A
330
11D
100
AcDbEntity
  8
0
  6
CONTINUOUS
 62
     7
100
AcDbBlockReference
  2
_OPEN30
 10
155.3931457445
 20
222.3364664476
 30
-0.9762478312
 41
3.0
 42
3.0
 50
359.8207232892
  0
INSERT
  5
12B
330
11D
100
AcDbEntity
  8
0
  6
CONTINUOUS
 62
     7
100
AcDbBlockReference
  2
_OPEN30
 10
171.393067421
 20
222.2864030273
 30
-0.9762478312
 41
3.0
 42
3.0
 50
179.8207232892
  0
LINE
  5
12C
330
11D
100
AcDbEntity
  8
0
  6
CONTINUOUS
 62
     7
100
AcDbLine
 10
155.3550436983
 20
210.1593169175
 30
0.0
 11
155.3962747083
 21
223.3364615524
 31
0.0
  0
LINE
  5
12D
330
11D
100
AcDbEntity
  8
0
  6
CONTINUOUS
 62
     7
100
AcDbLine
 10
171.3549653748
 20
210.1092534972
 30
0.0
 11
171.3961963848
 21
223.2863981321
 31
0.0
  0
LINE
  5
12E
330
11D
100
AcDbEntity
  8
0
  6
CONTINUOUS
 62
     7
100
AcDbLine
 10
155.3931457445
 20
222.3364664476
 30
0.0
 11
149.3931751158
 21
222.3552402302
 31
0.0
  0
LINE
  5
12F
330
11D
100
AcDbEntity
  8
0
  6
CONTINUOUS
 62
     7
100
AcDbLine
 10
155.3931457445
 20
222.3364664476
 30
0.0
 11
171.393067421
 21
222.2864030273
 31
0.0
  0
LINE
  5
130
330
11D
100
AcDbEntity
  8
0
  6
CONTINUOUS
 62
     7
100
AcDbLine
 10
171.393067421
 20
222.2864030273
 30
0.0
 11
177.3930380497
 21
222.2676292446
 31
0.0
  0
MTEXT
  5
131
330
11D
100
AcDbEntity
  8
0
  6
CONTINUOUS
 62
     7
100
AcDbMText
 10
161.9566935709
 20
226.3886762206
 30
0.0
 40
3.5
 41
0.0
 71
     1
 72
     1
  1
16
  7
SLDTEXTSTYLE1
 11
0.9999951047808812
 21
-0.003128963770090803
 31
0.0
  0
ENDBLK
  5
129
330
11D
100
AcDbEntity
  8
0
100
AcDbBlockEnd
  0
BLOCK
  5
13D
330
133
100
AcDbEntity
  8
0
100
AcDbBlockBegin
  2
*D11
 70
     1
 71
     0
 10
0.0
 20
0.0
 30
0.0
  3
*D11
  1

  0
INSERT
  5
13F
330
133
100
AcDbEntity
  8
0
  6
CONTINUOUS
 62
     7
100
AcDbBlockReference
  2
_OPEN30
 10
174.4813994692
 20
145.7889809229
 30
-0.9762478312
 41
3.0
 42
3.0
 50
180.0
  0
INSERT
  5
140
330
133
100
AcDbEntity
  8
0
  6
CONTINUOUS
 62
     7
100
AcDbBlockReference
  2
_OPEN30
 10
152.0863742348
 20
145.7889809229
 30
-0.9762478312
 41
3.0
 42
3.0
 50
0.0
  0
LINE
  5
141
330
133
100
AcDbEntity
  8
0
  6
CONTINUOUS
 62
     7
100
AcDbLine
 10
174.4813994692
 20
185.7700744589
 30
0.0
 11
174.4813994692
 21
144.7889809229
 31
0.0
  0
LINE
  5
142
330
133
100
AcDbEntity
  8
0
  6
CONTINUOUS
 62
     7
100
AcDbLine
 10
152.0863742348
 20
186.9939368063
 30
0.0
 11
152.0863742348
 21
144.7889809229
 31
0.0
  0
LINE
  5
143
330
133
100
AcDbEntity
  8
0
  6
CONTINUOUS
 62
     7
100
AcDbLine
 10
174.4813994692
 20
145.7889809229
 30
0.0
 11
180.4813994692
 21
145.7889809229
 31
0.0
  0
LINE
  5
144
330
133
100
AcDbEntity
  8
0
  6
CONTINUOUS
 62
     7
100
AcDbLine
 10
174.4813994692
 20
145.7889809229
 30
0.0
 11
152.0863742348
 21
145.7889809229
 31
0.0
  0
LINE
  5
145
330
133
100
AcDbEntity
  8
0
  6
CONTINUOUS
 62
     7
100
AcDbLine
 10
152.0863742348
 20
145.7889809229
 30
0.0
 11
146.0863742348
 21
145.7889809229
 31
0.0
  0
MTEXT
  5
146
330
133
100
AcDbEntity
  8
0
  6
CONTINUOUS
 62
     7
100
AcDbMText
 10
161.0019523851
 20
149.8617079628
 30
0.0
 40
3.5
 41
0.0
 71
     1
 72
     1
  1
22.4
  7
SLDTEXTSTYLE1
  0
ENDBLK
  5
13E
330
133
100
AcDbEntity
  8
0
100
AcDbBlockEnd
  0
BLOCK
  5
148
330
147
100
AcDbEntity
  8
0
100
AcDbBlockBegin
  2
SW_CENTERMARKSYMBOL_0
 70
     0
 71
     0
 10
0.0
 20
0.0
 30
0.0
  3
SW_CENTERMARKSYMBOL_0
  1

  0
LINE
  5
14A
330
147
100
AcDbEntity
  8
0
  6
CONTINUOUS
 62
     7
100
AcDbLine
 10
0.0
 20
0.0
 30
0.0
 11
0.0
 21
2.5
 31
0.0
  0
LINE
  5
14B
330
147
100
AcDbEntity
  8
0
  6
CONTINUOUS
 62
     7
100
AcDbLine
 10
0.0
 20
0.0
 30
0.0
 11
-2.5
 21
0.0
 31
0.0
  0
LINE
  5
14C
330
147
100
AcDbEntity
  8
0
  6
CONTINUOUS
 62
     7
100
AcDbLine
 10
0.0
 20
0.0
 30
0.0
 11
0.0
 21
-2.5
 31
0.0
  0
LINE
  5
14D
330
147
100
AcDbEntity
  8
0
  6
CONTINUOUS
 62
     7
100
AcDbLine
 10
0.0
 20
0.0
 30
0.0
 11
2.5
 21
0.0
 31
0.0
  0
LINE
  5
14E
330
147
100
AcDbEntity
  8
0
  6
CONTINUOUS
 62
     7
100
AcDbLine
 10
0.0
 20
5.0
 30
0.0
 11
0.0
 21
12.0
 31
0.0
  0
LINE
  5
14F
330
147
100
AcDbEntity
  8
0
  6
CONTINUOUS
 62
     7
100
AcDbLine
 10
-5.0
 20
0.0
 30
0.0
 11
-12.0
 21
0.0
 31
0.0
  0
LINE
  5
150
330
147
100
AcDbEntity
  8
0
  6
CONTINUOUS
 62
     7
100
AcDbLine
 10
0.0
 20
-5.0
 30
0.0
 11
0.0
 21
-12.0
 31
0.0
  0
LINE
  5
151
330
147
100
AcDbEntity
  8
0
  6
CONTINUOUS
 62
     7
100
AcDbLine
 10
5.0
 20
0.0
 30
0.0
 11
12.0
 21
0.0
 31
0.0
  0
ENDBLK
  5
149
330
147
100
AcDbEntity
  8
0
100
AcDbBlockEnd
  0
BLOCK
  5
192
330
187
100
AcDbEntity
  8
0
100
AcDbBlockBegin
  2
*D13
 70
     1
 71
     0
 10
0.0
 20
0.0
 30
0.0
  3
*D13
  1

  0
INSERT
  5
194
330
187
100
AcDbEntity
  8
0
  6
CONTINUOUS
 62
     7
100
AcDbBlockReference
  2
_OPEN30
 10
39.2593934181
 20
111.6806868615
 30
8.0728513767
 41
3.0
 42
3.0
 50
90.0
  0
INSERT
  5
195
330
187
100
AcDbEntity
  8
0
  6
CONTINUOUS
 62
     7
100
AcDbBlockReference
  2
_OPEN30
 10
39.2593934181
 20
89.2856616271
 30
8.0728513767
 41
3.0
 42
3.0
 50
270.0
  0
LINE
  5
196
330
187
100
AcDbEntity
  8
0
  6
CONTINUOUS
 62
     7
100
AcDbLine
 10
47.7538514353
 20
111.6806868615
 30
0.0
 11
38.2593934181
 21
111.6806868615
 31
0.0
  0
LINE
  5
197
330
187
100
AcDbEntity
  8
0
  6
CONTINUOUS
 62
     7
100
AcDbLine
 10
47.7538514353
 20
89.2856616271
 30
0.0
 11
38.2593934181
 21
89.2856616271
 31
0.0
  0
LINE
  5
198
330
187
100
AcDbEntity
  8
0
  6
CONTINUOUS
 62
     7
100
AcDbLine
 10
39.2593934181
 20
111.6806868615
 30
0.0
 11
39.2593934181
 21
89.2856616271
 31
0.0
  0
MTEXT
  5
199
330
187
100
AcDbEntity
  8
0
  6
CONTINUOUS
 62
     7
100
AcDbMText
 10
35.1866663782
 20
98.2318386135
 30
0.0
 40
3.5
 41
0.0
 71
     1
 72
     1
  1
23
  7
SLDTEXTSTYLE1
 11
-7.044197039909883E-15
 21
1.0
 31
0.0
  0
ENDBLK
  5
193
330
187
100
AcDbEntity
  8
0
100
AcDbBlockEnd
  0
ENDSEC
  0
SECTION
  2
ENTITIES
  0
LINE
  5
2F
330
1F
100
AcDbEntity
  8
0
  6
CONTINUOUS
 62
     7
100
AcDbLine
 10
20.2604743903
 20
285.0
 30
0.0
 11
196.7604743903
 21
285.0
 31
0.0
  0
LINE
  5
30
330
1F
100
AcDbEntity
  8
0
  6
CONTINUOUS
 62
     7
100
AcDbLine
 10
20.2604743903
 20
285.0
 30
0.0
 11
20.2604743903
 21
10.0
 31
0.0
  0
LINE
  5
31
330
1F
100
AcDbEntity
  8
0
  6
CONTINUOUS
 62
     7
100
AcDbLine
 10
20.2604743903
 20
10.0
 30
0.0
 11
196.7604743903
 21
10.0
 31
0.0
  0
LINE
  5
32
330
1F
100
AcDbEntity
  8
0
  6
CONTINUOUS
 62
     7
100
AcDbLine
 10
196.7604743903
 20
285.0
 30
0.0
 11
196.7604743903
 21
10.0
 31
0.0
  0
LINE
  5
33
330
1F
100
AcDbEntity
  8
0
  6
CONTINUOUS
 62
     7
100
AcDbLine
 10
127.0104743903
 20
50.75
 30
0.0
 11
196.7604743903
 21
50.75
 31
0.0
  0
LINE
  5
34
330
1F
100
AcDbEntity
  8
0
  6
CONTINUOUS
 62
     7
100
AcDbLine
 10
127.0104743903
 20
50.75
 30
0.0
 11
127.0104743903
 21
10.0
 31
0.0
  0
LINE
  5
35
330
1F
100
AcDbEntity
  8
0
  6
CONTINUOUS
 62
     7
100
AcDbLine
 10
127.0104743903
 20
22.75
 30
0.0
 11
196.7604743903
 21
22.75
 31
0.0
  0
LINE
  5
36
330
1F
100
AcDbEntity
  8
0
  6
CONTINUOUS
 62
     7
100
AcDbLine
 10
127.0104743903
 20
36.75
 30
0.0
 11
196.7604743903
 21
36.75
 31
0.0
  0
MTEXT
  5
38
330
1F
100
AcDbEntity
  8
0
  6
CONTINUOUS
 62
     7
100
AcDbMText
 10
143.1490503717
 20
29.8861654089
 30
0.0
 40
4.2333333333
 41
0.0
 71
     1
 72
     1
  1
 TMA-CL (12*12)
  7
SLDTEXTSTYLE0
  0
MTEXT
  5
3A
330
1F
100
AcDbEntity
  8
0
  6
CONTINUOUS
 62
     7
100
AcDbMText
 10
134.587921819
 20
43.4099790257
 30
0.0
 40
4.2333333333
 41
0.0
 71
     1
 72
     1
  1
クリップ・TAM・Φ12*Φ12
  7
SLDTEXTSTYLE1
  0
MTEXT
  5
3B
330
1F
100
AcDbEntity
  8
0
  6
CONTINUOUS
 62
     7
100
AcDbMText
 10
155.5254295685
 20
16.2918260795
 30
0.0
 40
4.2333333333
 41
0.0
 71
     1
 72
     1
  1
196561
  7
SLDTEXTSTYLE1
  0
LINE
  5
3C
330
1F
100
AcDbEntity
  8
0
  6
CENTERX2
 62
     7
100
AcDbLine
 10
73.7580730468
 20
201.3843965736
 30
0.0
 11
68.7412773457
 21
201.3843965736
 31
0.0
  0
LINE
  5
3D
330
1F
100
AcDbEntity
  8
0
  6
CENTERX2
 62
     7
100
AcDbLine
 10
68.7412773457
 20
201.3843965736
 30
0.0
 11
93.7032507036
 21
201.3843965736
 31
0.0
  0
LINE
  5
3E
330
1F
100
AcDbEntity
  8
0
  6
CONTINUOUS
 62
     7
100
AcDbLine
 10
60.7538514353
 20
179.8843965736
 30
0.0
 11
70.7538514353
 21
179.8843965736
 31
0.0
  0
LINE
  5
3F
330
1F
100
AcDbEntity
  8
0
  6
CONTINUOUS
 62
     7
100
AcDbLine
 10
70.7538514353
 20
194.8843965736
 30
0.0
 11
60.7538514353
 21
194.8843965736
 31
0.0
  0
ARC
  5
40
330
1F
100
AcDbEntity
  8
0
  6
CONTINUOUS
 62
     7
100
AcDbCircle
 10
48.7538514353
 20
209.5211187209
 30
0.0
 40
2.000000000000007
100
AcDbArc
 50
90.0
 51
180.0
  0
LINE
  5
41
330
1F
100
AcDbEntity
  8
0
  6
CONTINUOUS
 62
     7
100
AcDbLine
 10
60.7538514353
 20
211.5211187209
 30
0.0
 11
48.7538514353
 21
211.5211187209
 31
0.0
  0
ARC
  5
42
330
1F
100
AcDbEntity
  8
0
  6
CONTINUOUS
 62
     7
100
AcDbCircle
 10
48.7538514353
 20
165.2428925443
 30
0.0
 40
2.000000000000007
100
AcDbArc
 50
180.0
 51
270.0
  0
LINE
  5
43
330
1F
100
AcDbEntity
  8
0
  6
CONTINUOUS
 62
     7
100
AcDbLine
 10
48.7538514353
 20
163.2428925443
 30
0.0
 11
60.7538514353
 21
163.2428925443
 31
0.0
  0
LWPOLYLINE
  5
44
330
1F
100
AcDbEntity
  8
0
  6
CONTINUOUS
 62
     7
100
AcDbPolyline
 90
       12
 70
   128
 43
0.0
 10
80.1168357116
 20
190.3843965736
 10
80.0677246762
 20
190.6024712908
 10
79.9545110849
 20
190.9369903725
 10
79.8220614902
 20
191.161258365
 10
79.7420429561
 20
191.2393509051
 10
79.6215024932
 20
191.3074851572
 10
79.4258659138
 20
191.3315211769
 10
79.2519469756
 20
191.2689383698
 10
79.0605739281
 20
191.0523023001
 10
78.9580875004
 20
190.8009517565
 10
78.8549519556
 20
190.4328055451
 10
78.7538514353
 20
189.9598270408
  0
ARC
  5
45
330
1F
100
AcDbEntity
  8
0
  6
CONTINUOUS
 62
     7
100
AcDbCircle
 10
216.6106535257
 20
165.9009439252
 30
0.0
 40
139.1893357765864
100
AcDbArc
 50
169.7463119623
 51
172.0654767902
  0
ARC
  5
46
330
1F
100
AcDbEntity
  8
0
  6
CONTINUOUS
 62
     7
100
AcDbCircle
 10
81.6458245862
 20
184.4478127265
 30
0.0
 40
1.299320209693292
100
AcDbArc
 50
182.7975567646
 51
226.6469288093
  0
LINE
  5
47
330
1F
100
AcDbEntity
  8
0
  6
CONTINUOUS
 62
     7
100
AcDbLine
 10
70.7538514353
 20
179.3843965736
 30
0.0
 11
71.7538514353
 21
179.3843965736
 31
0.0
  0
LINE
  5
48
330
1F
100
AcDbEntity
  8
0
  6
CONTINUOUS
 62
     7
100
AcDbLine
 10
71.7538514353
 20
195.3843965736
 30
0.0
 11
70.7538514353
 21
195.3843965736
 31
0.0
  0
LINE
  5
49
330
1F
100
AcDbEntity
  8
0
  6
CONTINUOUS
 62
     7
100
AcDbLine
 10
80.7538514353
 20
190.3843965736
 30
0.0
 11
79.5650999103
 21
190.3843965736
 31
0.0
  0
LINE
  5
4A
330
1F
100
AcDbEntity
  8
0
  6
CONTINUOUS
 62
     7
100
AcDbLine
 10
78.8446043982
 20
190.3843965736
 30
0.0
 11
78.7538514353
 21
190.3843965736
 31
0.0
  0
LINE
  5
4B
330
1F
100
AcDbEntity
  8
0
  6
CONTINUOUS
 62
     7
100
AcDbLine
 10
78.7538514353
 20
184.3843965736
 30
0.0
 11
80.7538514353
 21
184.3843965736
 31
0.0
  0
LINE
  5
4C
330
1F
100
AcDbEntity
  8
0
  6
CONTINUOUS
 62
     7
100
AcDbLine
 10
111.6538514353
 20
196.8843965736
 30
0.0
 11
92.6538514353
 21
196.8843965736
 31
0.0
  0
LINE
  5
4D
330
1F
100
AcDbEntity
  8
0
  6
CONTINUOUS
 62
     7
100
AcDbLine
 10
92.6538514353
 20
177.8843965736
 30
0.0
 11
111.6538514353
 21
177.8843965736
 31
0.0
  0
LINE
  5
4E
330
1F
100
AcDbEntity
  8
0
  6
CONTINUOUS
 62
     7
100
AcDbLine
 10
92.6538514353
 20
195.8843965736
 30
0.0
 11
91.6538514353
 21
195.8843965736
 31
0.0
  0
LINE
  5
4F
330
1F
100
AcDbEntity
  8
0
  6
CONTINUOUS
 62
     7
100
AcDbLine
 10
91.6538514353
 20
178.8843965736
 30
0.0
 11
92.6538514353
 21
178.8843965736
 31
0.0
  0
LINE
  5
50
330
1F
100
AcDbEntity
  8
0
  6
CONTINUOUS
 62
     7
100
AcDbLine
 10
91.6538514353
 20
195.8843965736
 30
0.0
 11
87.7538514353
 21
193.6093965736
 31
0.0
  0
LINE
  5
51
330
1F
100
AcDbEntity
  8
0
  6
CONTINUOUS
 62
     7
100
AcDbLine
 10
87.7538514353
 20
181.1593965736
 30
0.0
 11
91.6538514353
 21
178.8843965736
 31
0.0
  0
LINE
  5
52
330
1F
100
AcDbEntity
  8
0
  6
CONTINUOUS
 62
     7
100
AcDbLine
 10
71.7538514353
 20
179.1343823721
 30
0.0
 11
78.7538514353
 21
179.1343823721
 31
0.0
  0
LINE
  5
53
330
1F
100
AcDbEntity
  8
0
  6
CONTINUOUS
 62
     7
100
AcDbLine
 10
80.7538514353
 20
179.1343823721
 30
0.0
 11
87.7538514353
 21
179.1343823721
 31
0.0
  0
LINE
  5
54
330
1F
100
AcDbEntity
  8
0
  6
CONTINUOUS
 62
     7
100
AcDbLine
 10
46.7538514353
 20
165.2428925443
 30
0.0
 11
46.7538514353
 21
209.5211187209
 31
0.0
  0
LINE
  5
55
330
1F
100
AcDbEntity
  8
0
  6
CONTINUOUS
 62
     7
100
AcDbLine
 10
60.7538514353
 20
210.8973244824
 30
0.0
 11
60.7538514353
 21
163.7884467967
 31
0.0
  0
LINE
  5
56
330
1F
100
AcDbEntity
  8
0
  6
CONTINUOUS
 62
     7
100
AcDbLine
 10
60.7538514353
 20
211.5211187209
 30
0.0
 11
60.7538514353
 21
210.8973244824
 31
0.0
  0
LINE
  5
57
330
1F
100
AcDbEntity
  8
0
  6
CONTINUOUS
 62
     7
100
AcDbLine
 10
60.7538514353
 20
163.7884467967
 30
0.0
 11
60.7538514353
 21
163.2428925443
 31
0.0
  0
LINE
  5
58
330
1F
100
AcDbEntity
  8
0
  6
CONTINUOUS
 62
     7
100
AcDbLine
 10
70.7538514353
 20
195.3843965736
 30
0.0
 11
70.7538514353
 21
179.3843965736
 31
0.0
  0
ARC
  5
59
330
1F
100
AcDbEntity
  8
0
  6
CONTINUOUS
 62
     7
100
AcDbCircle
 10
103.2778741303
 20
187.4973664522
 30
0.0
 40
5.860523185249703
100
AcDbArc
 50
42.6678887307
 51
90.2348600709
  0
ARC
  5
5A
330
1F
100
AcDbEntity
  8
0
  6
CONTINUOUS
 62
     7
100
AcDbCircle
 10
103.2561008506
 20
187.3715310159
 30
0.0
 40
5.986309808593222
100
AcDbArc
 50
90.0215294586
 51
180.36504549
  0
ARC
  5
5B
330
1F
100
AcDbEntity
  8
0
  6
CONTINUOUS
 62
     7
100
AcDbCircle
 10
103.2828107508
 20
187.4322983715
 30
0.0
 40
6.0262211663265
100
AcDbArc
 50
179.9667175416
 51
245.9766949558
  0
LINE
  5
5C
330
1F
100
AcDbEntity
  8
0
  6
CONTINUOUS
 62
     7
100
AcDbLine
 10
92.6538514353
 20
177.884740199
 30
0.0
 11
92.6538514353
 21
177.8843965736
 31
0.0
  0
LINE
  5
5D
330
1F
100
AcDbEntity
  8
0
  6
CONTINUOUS
 62
     7
100
AcDbLine
 10
92.6538514353
 20
196.8843965736
 30
0.0
 11
92.6538514353
 21
177.884740199
 31
0.0
  0
ARC
  5
5E
330
1F
100
AcDbEntity
  8
0
  6
CONTINUOUS
 62
     7
100
AcDbCircle
 10
103.2012253016
 20
187.3668086469
 30
0.0
 40
5.936222533996819
100
AcDbArc
 50
2.2885776524
 51
87.0990040629
  0
CIRCLE
  5
5F
330
1F
100
AcDbEntity
  8
0
  6
CONTINUOUS
 62
     7
100
AcDbCircle
 10
103.1542217501
 20
187.4648938456
 30
0.0
 40
6.000370322487833
  0
LINE
  5
60
330
1F
100
AcDbEntity
  8
0
  6
CONTINUOUS
 62
     7
100
AcDbLine
 10
111.6538514353
 20
177.884740199
 30
0.0
 11
111.6538514353
 21
177.8843965736
 31
0.0
  0
LINE
  5
61
330
1F
100
AcDbEntity
  8
0
  6
CONTINUOUS
 62
     7
100
AcDbLine
 10
111.6538514353
 20
196.8843965736
 30
0.0
 11
111.6538514353
 21
177.884740199
 31
0.0
  0
ARC
  5
62
330
1F
100
AcDbEntity
  8
0
  6
CONTINUOUS
 62
     7
100
AcDbCircle
 10
103.1448932084
 20
187.4505015225
 30
0.0
 40
5.991042086570254
100
AcDbArc
 50
0.0171059385
 51
179.9814676414
  0
LINE
  5
63
330
1F
100
AcDbEntity
  8
0
  6
CONTINUOUS
 62
     7
100
AcDbLine
 10
91.6538514353
 20
178.8847040279
 30
0.0
 11
91.6538514353
 21
178.8843965736
 31
0.0
  0
LINE
  5
64
330
1F
100
AcDbEntity
  8
0
  6
CONTINUOUS
 62
     7
100
AcDbLine
 10
91.6538514353
 20
195.8843965736
 30
0.0
 11
91.6538514353
 21
178.8847040279
 31
0.0
  0
ARC
  5
65
330
1F
100
AcDbEntity
  8
0
  6
CONTINUOUS
 62
     7
100
AcDbCircle
 10
103.1466255664
 20
187.3312417529
 30
0.0
 40
6.004367554547826
100
AcDbArc
 50
4.1399650991
 51
89.3007744935
  0
LINE
  5
66
330
1F
100
AcDbEntity
  8
0
  6
CONTINUOUS
 62
     7
100
AcDbLine
 10
71.7538514353
 20
179.1343823721
 30
0.0
 11
71.7538514353
 21
182.5422218433
 31
0.0
  0
LINE
  5
67
330
1F
100
AcDbEntity
  8
0
  6
CONTINUOUS
 62
     7
100
AcDbLine
 10
71.7538514353
 20
182.5422218433
 30
0.0
 11
78.7538514353
 21
182.5422218433
 31
0.0
  0
LINE
  5
68
330
1F
100
AcDbEntity
  8
0
  6
CONTINUOUS
 62
     7
100
AcDbLine
 10
78.7538514353
 20
182.5422218433
 30
0.0
 11
78.7538514353
 21
179.1343823721
 31
0.0
  0
LINE
  5
69
330
1F
100
AcDbEntity
  8
0
  6
CONTINUOUS
 62
     7
100
AcDbLine
 10
80.7538514353
 20
182.5422218433
 30
0.0
 11
87.7538514353
 21
182.5422218433
 31
0.0
  0
LINE
  5
6A
330
1F
100
AcDbEntity
  8
0
  6
CONTINUOUS
 62
     7
100
AcDbLine
 10
87.7538514353
 20
179.1343823721
 30
0.0
 11
87.7538514353
 21
182.5422218433
 31
0.0
  0
LINE
  5
6B
330
1F
100
AcDbEntity
  8
0
  6
CONTINUOUS
 62
     7
100
AcDbLine
 10
80.7538514353
 20
179.1343823721
 30
0.0
 11
80.7538514353
 21
182.5422218433
 31
0.0
  0
ARC
  5
6C
330
1F
100
AcDbEntity
  8
0
  6
CONTINUOUS
 62
     7
100
AcDbCircle
 10
79.7538514353
 20
198.9490828765
 30
0.0
 40
10.21024034601063
100
AcDbArc
 50
38.4153425828
 51
141.5846574172
  0
ARC
  5
6D
330
1F
100
AcDbEntity
  8
0
  6
CONTINUOUS
 62
     7
100
AcDbCircle
 10
79.7538514353
 20
201.15937967
 30
0.0
 40
5.999989878564925
100
AcDbArc
 50
279.5940845642
 51
260.4059154358
  0
LINE
  5
6E
330
1F
100
AcDbEntity
  8
0
  6
CONTINUOUS
 62
     7
100
AcDbLine
 10
71.7538514353
 20
205.2932934597
 30
0.0
 11
71.7538514353
 21
182.5422218433
 31
0.0
  0
LINE
  5
6F
330
1F
100
AcDbEntity
  8
0
  6
CONTINUOUS
 62
     7
100
AcDbLine
 10
87.7538514353
 20
205.2932934597
 30
0.0
 11
87.7538514353
 21
182.5422218433
 31
0.0
  0
LINE
  5
70
330
1F
100
AcDbEntity
  8
0
  6
CONTINUOUS
 62
     7
100
AcDbLine
 10
78.7538514353
 20
195.2433101519
 30
0.0
 11
78.7538514353
 21
182.5422218433
 31
0.0
  0
LINE
  5
71
330
1F
100
AcDbEntity
  8
0
  6
CONTINUOUS
 62
     7
100
AcDbLine
 10
80.7538514353
 20
195.2433101519
 30
0.0
 11
80.7538514353
 21
182.5422218433
 31
0.0
  0
ARC
  5
72
330
1F
100
AcDbEntity
  8
0
  6
CONTINUOUS
 62
     7
100
AcDbCircle
 10
79.7538514353
 20
201.1092745889
 30
0.0
 40
6.00000000004395
100
AcDbArc
 50
0.0
 51
180.0
  0
DIMENSION
  5
73
330
1F
100
AcDbEntity
  8
0
  6
CONTINUOUS
 62
     7
100
AcDbDimension
  2
*D1
 10
123.021195296
 20
201.3843965736
 30
0.0
 11
123.021195296
 21
194.120031848
 31
0.0
 70
   160
  3
SLDDIMSTYLE0
100
AcDbAlignedDimension
 13
113.6538514353
 23
187.3843965736
 33
0.0
 14
93.7032507036
 24
201.3843965736
 34
0.0
 50
90.0
100
AcDbRotatedDimension
1001
ACAD
1000
DSTYLE
1002
{
1070
    77
1070
     3
1070
   143
1040
0.0393700787
1070
    41
1040
3.0
1070
    44
1040
1.0
1070
    42
1040
1.0
1070
   147
1040
1.524
1070
    73
1070
     0
1070
    74
1070
     0
1070
   140
1040
3.5
1070
   284
1070
    12
1070
    78
1070
    12
1002
}
  0
DIMENSION
  5
91
330
1F
100
AcDbEntity
  8
0
  6
CONTINUOUS
 62
     7
100
AcDbDimension
  2
*D3
 10
103.2538514353
 20
227.715739613
 30
0.0
 11
92.6334617901
 21
227.715739613
 31
0.0
 70
   160
  3
SLDDIMSTYLE0
100
AcDbAlignedDimension
 13
79.7538514353
 23
203.1593609745
 33
0.0
 14
103.2538514353
 24
199.1048216765
 34
0.0
 50
0.0
100
AcDbRotatedDimension
1001
ACAD
1000
DSTYLE
1002
{
1070
    77
1070
     3
1070
   143
1040
0.0393700787
1070
    41
1040
3.0
1070
    44
1040
1.0
1070
    42
1040
1.0
1070
   147
1040
1.524
1070
    73
1070
     0
1070
    74
1070
     0
1070
   140
1040
3.5
1070
   284
1070
    12
1070
    78
1070
    12
1002
}
  0
DIMENSION
  5
A4
330
1F
100
AcDbEntity
  8
0
  6
CONTINUOUS
 62
     7
100
AcDbDimension
  2
*D4
 10
111.6538514353
 20
227.715739613
 30
0.0
 11
108.1275770698
 21
227.715739613
 31
0.0
 70
   160
  3
SLDDIMSTYLE0
100
AcDbAlignedDimension
 13
103.2538514353
 23
199.1048216765
 33
0.0
 14
111.6538514353
 24
196.8843965736
 34
0.0
 50
0.0
100
AcDbRotatedDimension
1001
ACAD
1000
DSTYLE
1002
{
1070
    77
1070
     3
1070
   143
1040
0.0393700787
1070
    41
1040
3.0
1070
    44
1040
1.0
1070
    42
1040
1.0
1070
   147
1040
1.524
1070
    73
1070
     0
1070
    74
1070
     0
1070
   140
1040
3.5
1070
   284
1070
    12
1070
    78
1070
    12
1002
}
  0
DIMENSION
  5
BB
330
1F
100
AcDbEntity
  8
0
  6
CONTINUOUS
 62
     7
100
AcDbDimension
  2
*D5
 10
38.4514787093
 20
163.2428925443
 30
0.0
 11
38.4514787093
 21
186.8450341667
 31
0.0
 70
   160
  3
SLDDIMSTYLE0
100
AcDbAlignedDimension
 13
48.7538514353
 23
210.8973244824
 33
0.0
 14
48.7538514353
 24
163.2428925443
 34
0.0
 50
90.0
100
AcDbRotatedDimension
1001
ACAD
1000
DSTYLE
1002
{
1070
    77
1070
     3
1070
   143
1040
0.0393700787
1070
    41
1040
3.0
1070
    44
1040
1.0
1070
    42
1040
1.0
1070
   147
1040
1.524
1070
    73
1070
     0
1070
    74
1070
     0
1070
   140
1040
3.5
1070
   284
1070
    12
1070
    78
1070
    12
1002
}
  0
DIMENSION
  5
CF
330
1F
100
AcDbEntity
  8
0
  6
CONTINUOUS
 62
     7
100
AcDbDimension
  2
*D6
 10
79.7538514353
 20
227.4339638532
 30
0.0
 11
68.2981653926
 21
227.4339638532
 31
0.0
 70
   160
  1
(<>)
  3
SLDDIMSTYLE0
100
AcDbAlignedDimension
 13
46.7538514353
 23
209.5211187209
 33
0.0
 14
79.7538514353
 24
203.1593609745
 34
0.0
 50
0.0
100
AcDbRotatedDimension
1001
ACAD
1000
DSTYLE
1002
{
1070
    77
1070
     3
1070
   143
1040
0.0393700787
1070
    41
1040
3.0
1070
    44
1040
1.0
1070
    42
1040
1.0
1070
   147
1040
1.524
1070
    73
1070
     0
1070
    74
1070
     0
1070
   140
1040
3.5
1070
   284
1070
    12
1070
    78
1070
    12
1002
}
  0
DIMENSION
  5
E4
330
1F
100
AcDbEntity
  8
0
  6
CONTINUOUS
 62
     7
100
AcDbDimension
  2
*D7
 10
111.6538514353
 20
239.8944173841
 30
0.0
 11
83.7637516528
 21
239.8944173841
 31
0.0
 70
   160
  3
SLDDIMSTYLE0
100
AcDbAlignedDimension
 13
46.7538514353
 23
209.5211187209
 33
0.0
 14
111.6538514353
 24
196.8843965736
 34
0.0
 50
0.0
100
AcDbRotatedDimension
1001
ACAD
1000
DSTYLE
1002
{
1070
    77
1070
     3
1070
   143
1040
0.0393700787
1070
    41
1040
3.0
1070
    44
1040
1.0
1070
    42
1040
1.0
1070
   147
1040
1.524
1070
    73
1070
     0
1070
    74
1070
     0
1070
   140
1040
3.5
1070
   284
1070
    12
1070
    78
1070
    12
1002
}
  0
INSERT
  5
FC
102
{ACAD_REACTORS
330
FE
102
}
330
1F
100
AcDbEntity
  8
0
  6
CONTINUOUS
 62
     7
100
AcDbBlockReference
  2
SW_NOTE_0
 10
133.7220205612
 20
166.11375801
 30
0.0
  0
LEADER
  5
FE
330
1F
100
AcDbEntity
  8
0
  6
CONTINUOUS
 62
     7
100
AcDbLeader
  3
SLDDIMSTYLE1
 73
     2
 76
     3
 10
108.8383097191
 20
185.543460072
 30
0.0
 10
122.217071581
 20
166.11375801
 30
0.0
 10
133.7220205612
 20
166.11375801
 30
0.0
340
FC
1001
ACAD
1000
DSTYLE
1002
{
1070
     6
1000

1002
}
  0
INSERT
  5
104
102
{ACAD_REACTORS
330
105
102
}
330
1F
100
AcDbEntity
  8
0
  6
CONTINUOUS
 62
     7
100
AcDbBlockReference
  2
SW_NOTE_1
 10
102.8724303006
 20
218.7265175719
 30
0.0
  0
LEADER
  5
105
330
1F
100
AcDbEntity
  8
0
  6
CONTINUOUS
 62
     7
100
AcDbLeader
  3
SLDDIMSTYLE1
 73
     2
 76
     3
 10
81.957855328
 20
206.7398682941
 30
0.0
 10
94.430319846
 20
218.7265175719
 30
0.0
 10
102.8724303006
 20
218.7265175719
 30
0.0
340
104
1001
ACAD
1000
DSTYLE
1002
{
1070
     6
1000

1002
}
  0
LINE
  5
106
330
1F
100
AcDbEntity
  8
0
  6
CENTERX2
 62
     7
100
AcDbLine
 10
94.2538514353
 20
187.3843965736
 30
0.0
 11
113.6538514353
 21
187.3843965736
 31
0.0
  0
LINE
  5
107
330
1F
100
AcDbEntity
  8
0
  6
CENTERX2
 62
     7
100
AcDbLine
 10
43.24672814
 20
187.3843965736
 30
0.0
 11
94.2538514353
 21
187.3843965736
 31
0.0
  0
LINE
  5
108
330
1F
100
AcDbEntity
  8
0
  6
CENTERX2
 62
     7
100
AcDbLine
 10
69.7538514353
 20
190.285471127
 30
0.0
 11
89.7538514353
 21
190.285471127
 31
0.0
  0
LINE
  5
109
330
1F
100
AcDbEntity
  8
0
  6
CENTERX2
 62
     7
100
AcDbLine
 10
79.7538514353
 20
203.1593609745
 30
0.0
 11
79.7538514353
 21
196.8990967703
 31
0.0
  0
LINE
  5
10A
330
1F
100
AcDbEntity
  8
0
  6
CENTERX2
 62
     7
100
AcDbLine
 10
103.2538514353
 20
199.1048216765
 30
0.0
 11
103.2538514353
 21
176.4767971764
 31
0.0
  0
LINE
  5
10B
330
1F
100
AcDbEntity
  8
0
  6
CONTINUOUS
 62
     7
100
AcDbLine
 10
171.351836411
 20
209.1092583924
 30
0.0
 11
155.3519147345
 21
209.1593218127
 31
0.0
  0
ARC
  5
10C
330
1F
100
AcDbEntity
  8
0
  6
CONTINUOUS
 62
     7
100
AcDbCircle
 10
163.8972530197
 20
165.2428925443
 30
0.0
 40
2.00000000000004
100
AcDbArc
 50
226.6540802049
 51
316.5198775802
  0
ARC
  5
10D
330
1F
100
AcDbEntity
  8
0
  6
CONTINUOUS
 62
     7
100
AcDbCircle
 10
185.3712046261
 20
187.9939368063
 30
0.0
 40
33.28483039120795
100
AcDbArc
 50
136.5198775802
 51
140.5443492994
  0
ARC
  5
10E
330
1F
100
AcDbEntity
  8
0
  6
CONTINUOUS
 62
     7
100
AcDbCircle
 10
185.3712046261
 20
187.9939368063
 30
0.0
 40
33.28483039120793
100
AcDbArc
 50
154.4930828177
 51
226.6540802049
  0
ARC
  5
10F
330
1F
100
AcDbEntity
  8
0
  6
CONTINUOUS
 62
     7
100
AcDbCircle
 10
162.6705206844
 20
209.5211187209
 30
0.0
 40
1.999999999999999
100
AcDbArc
 50
46.6540802049
 51
136.5198775802
  0
ARC
  5
110
330
1F
100
AcDbEntity
  8
0
  6
CONTINUOUS
 62
     7
100
AcDbCircle
 10
141.196569078
 20
186.7700744589
 30
0.0
 40
33.28483039120798
100
AcDbArc
 50
316.5198775802
 51
25.1489570472
  0
ARC
  5
111
330
1F
100
AcDbEntity
  8
0
  6
CONTINUOUS
 62
     7
100
AcDbCircle
 10
141.196569078
 20
186.7700744589
 30
0.0
 40
33.28483039120796
100
AcDbArc
 50
42.1959926979
 51
46.6540802049
  0
ARC
  5
112
330
1F
100
AcDbEntity
  8
0
  6
CONTINUOUS
 62
     7
100
AcDbCircle
 10
185.3712046261
 20
187.9939368063
 30
0.0
 40
30.28483039120794
100
AcDbArc
 50
192.2622613694
 51
224.7341611673
  0
ARC
  5
113
330
1F
100
AcDbEntity
  8
0
  6
CONTINUOUS
 62
     7
100
AcDbCircle
 10
141.196569078
 20
186.7700744589
 30
0.0
 40
30.28483039120797
100
AcDbArc
 50
318.4397966178
 51
350.9116964157
  0
CIRCLE
  5
114
330
1F
100
AcDbEntity
  8
0
  6
CONTINUOUS
 62
     7
100
AcDbCircle
 10
163.2838206108
 20
187.3843965736
 30
0.0
 40
7.000000000000006
  0
CIRCLE
  5
115
330
1F
100
AcDbEntity
  8
0
  6
CONTINUOUS
 62
     7
100
AcDbCircle
 10
163.2838206108
 20
187.3843965736
 30
0.0
 40
7.999999999999982
  0
CIRCLE
  5
116
330
1F
100
AcDbEntity
  8
0
  6
CONTINUOUS
 62
     7
100
AcDbCircle
 10
163.2838206108
 20
187.3843965736
 30
0.0
 40
9.499999999999984
  0
LINE
  5
117
330
1F
100
AcDbEntity
  8
0
  6
CONTINUOUS
 62
     7
100
AcDbLine
 10
155.3398180127
 20
205.2932934597
 30
0.0
 11
155.2998909414
 21
192.5328785862
 31
0.0
  0
LINE
  5
118
330
1F
100
AcDbEntity
  8
0
  6
CONTINUOUS
 62
     7
100
AcDbLine
 10
155.3398180127
 20
205.2932934597
 30
0.0
 11
171.3397396892
 21
205.2432300394
 31
0.0
  0
LINE
  5
119
330
1F
100
AcDbEntity
  8
0
  6
CONTINUOUS
 62
     7
100
AcDbLine
 10
171.2998126179
 20
192.4828151658
 30
0.0
 11
171.3397396892
 21
205.2432300394
 31
0.0
  0
LINE
  5
11A
330
1F
100
AcDbEntity
  8
0
  6
CONTINUOUS
 62
     7
100
AcDbLine
 10
155.3398180127
 20
205.2932934597
 30
0.0
 11
155.3519147345
 21
209.1593218127
 31
0.0
  0
LINE
  5
11B
330
1F
100
AcDbEntity
  8
0
  6
CONTINUOUS
 62
     7
100
AcDbLine
 10
171.351836411
 20
209.1092583924
 30
0.0
 11
171.3397396892
 21
205.2432300394
 31
0.0
  0
DIMENSION
  5
11C
330
1F
100
AcDbEntity
  8
0
  6
CONTINUOUS
 62
     7
100
AcDbDimension
  2
*D10
 10
171.393067421
 20
222.2864030273
 30
0.0
 11
163.979451628
 21
222.309600076
 31
0.0
 70
   160
  3
SLDDIMSTYLE0
100
AcDbAlignedDimension
 13
155.3519147345
 23
209.1593218127
 33
0.0
 14
171.351836411
 24
209.1092583924
 34
0.0
 50
-0.1792767108
100
AcDbRotatedDimension
1001
ACAD
1000
DSTYLE
1002
{
1070
    77
1070
     3
1070
   143
1040
0.0393700787
1070
    41
1040
3.0
1070
    44
1040
1.0
1070
    42
1040
1.0
1070
   147
1040
1.524
1070
    73
1070
     0
1070
    74
1070
     0
1070
   140
1040
3.5
1070
   284
1070
    12
1070
    78
1070
    12
1002
}
  0
DIMENSION
  5
132
330
1F
100
AcDbEntity
  8
0
  6
CONTINUOUS
 62
     7
100
AcDbDimension
  2
*D11
 10
152.0863742348
 20
145.7889809229
 30
0.0
 11
165.0751022299
 21
145.7889809229
 31
0.0
 70
   160
  3
SLDDIMSTYLE0
100
AcDbAlignedDimension
 13
174.4813994692
 23
186.7700744589
 33
0.0
 14
152.0863742348
 24
187.9939368063
 34
0.0
100
AcDbRotatedDimension
1001
ACAD
1000
DSTYLE
1002
{
1070
    77
1070
     3
1070
   143
1040
0.0393700787
1070
    41
1040
3.0
1070
    44
1040
1.0
1070
    42
1040
1.0
1070
   147
1040
1.524
1070
    73
1070
     0
1070
    74
1070
     0
1070
   140
1040
3.5
1070
   284
1070
    12
1070
    78
1070
    12
1002
}
  0
INSERT
  5
152
330
1F
100
AcDbEntity
  8
0
  6
CONTINUOUS
 62
     7
100
AcDbBlockReference
  2
SW_CENTERMARKSYMBOL_0
 10
163.2838206108
 20
187.3843965736
 30
0.0
  0
ARC
  5
153
330
1F
100
AcDbEntity
  8
0
  6
CONTINUOUS
 62
     7
100
AcDbCircle
 10
48.7538514353
 20
109.6806868615
 30
0.0
 40
2.0
100
AcDbArc
 50
90.0
 51
180.0
  0
LINE
  5
154
330
1F
100
AcDbEntity
  8
0
  6
CONTINUOUS
 62
     7
100
AcDbLine
 10
60.7538514353
 20
111.6806868615
 30
0.0
 11
48.7538514353
 21
111.6806868615
 31
0.0
  0
ARC
  5
155
330
1F
100
AcDbEntity
  8
0
  6
CONTINUOUS
 62
     7
100
AcDbCircle
 10
48.7538514353
 20
91.2856616271
 30
0.0
 40
2.0
100
AcDbArc
 50
180.0
 51
270.0
  0
LINE
  5
156
330
1F
100
AcDbEntity
  8
0
  6
CONTINUOUS
 62
     7
100
AcDbLine
 10
48.7538514353
 20
89.2856616271
 30
0.0
 11
60.7538514353
 21
89.2856616271
 31
0.0
  0
LINE
  5
157
330
1F
100
AcDbEntity
  8
0
  6
CONTINUOUS
 62
     7
100
AcDbLine
 10
60.7538514353
 20
92.9832404855
 30
0.0
 11
70.7538514353
 21
92.9832404855
 31
0.0
  0
LINE
  5
158
330
1F
100
AcDbEntity
  8
0
  6
CONTINUOUS
 62
     7
100
AcDbLine
 10
70.7538514353
 20
107.9832404855
 30
0.0
 11
60.7538514353
 21
107.9832404855
 31
0.0
  0
ARC
  5
159
330
1F
100
AcDbEntity
  8
0
  6
CONTINUOUS
 62
     7
100
AcDbCircle
 10
46.3251733306
 20
104.8577723606
 30
0.0
 40
34.59821424211577
100
AcDbArc
 50
347.1950519639
 51
354.3256067246
  0
LWPOLYLINE
  5
15A
330
1F
100
AcDbEntity
  8
0
  6
CONTINUOUS
 62
     7
100
AcDbPolyline
 90
        7
 70
   128
 43
0.0
 10
79.3596335995
 20
103.4832404855
 10
79.3053996607
 20
103.7132700373
 10
79.2064521022
 20
104.0207366258
 10
79.1066436947
 20
104.2201539057
 10
79.0351621958
 20
104.3061236771
 10
78.9382220492
 20
104.3792127691
 10
78.7538514353
 20
104.4325405683
  0
LWPOLYLINE
  5
15B
330
1F
100
AcDbEntity
  8
0
  6
CONTINUOUS
 62
     7
100
AcDbPolyline
 90
        4
 70
   128
 43
0.0
 10
78.7538514353
 20
103.2538482169
 10
78.8192580356
 20
103.5399209605
 10
78.8891710948
 20
103.7506165432
 10
78.8916375364
 20
103.7710280966
  0
LWPOLYLINE
  5
15C
330
1F
100
AcDbEntity
  8
0
  6
CONTINUOUS
 62
     7
100
AcDbPolyline
 90
       12
 70
   128
 43
0.0
 10
79.5903548675
 20
97.4832404855
 10
79.6241253217
 20
97.3250274524
 10
79.7357289026
 20
96.9725788963
 10
79.8638515294
 20
96.7338141317
 10
79.9409065739
 20
96.6490783511
 10
80.0397508183
 20
96.5806747756
 10
80.2230538108
 20
96.5333837491
 10
80.4083393924
 20
96.5726941399
 10
80.5825502953
 20
96.7142153205
 10
80.6663179386
 20
96.8540749235
 10
80.734521783
 20
97.0225962757
 10
80.7538514353
 20
97.0883677908
  0
LINE
  5
15D
330
1F
100
AcDbEntity
  8
0
  6
CONTINUOUS
 62
     7
100
AcDbLine
 10
70.7538514353
 20
92.4832404855
 30
0.0
 11
71.7538514353
 21
92.4832404855
 31
0.0
  0
LINE
  5
15E
330
1F
100
AcDbEntity
  8
0
  6
CONTINUOUS
 62
     7
100
AcDbLine
 10
71.7538514353
 20
108.4832404855
 30
0.0
 11
70.7538514353
 21
108.4832404855
 31
0.0
  0
LINE
  5
15F
330
1F
100
AcDbEntity
  8
0
  6
CONTINUOUS
 62
     7
100
AcDbLine
 10
80.7538514353
 20
103.4832404855
 30
0.0
 11
78.8062988242
 21
103.4832404855
 31
0.0
  0
LINE
  5
160
330
1F
100
AcDbEntity
  8
0
  6
CONTINUOUS
 62
     7
100
AcDbLine
 10
78.7538514353
 20
97.4832404855
 30
0.0
 11
80.1427521913
 21
97.4832404855
 31
0.0
  0
LINE
  5
161
330
1F
100
AcDbEntity
  8
0
  6
CONTINUOUS
 62
     7
100
AcDbLine
 10
97.1599392028
 20
109.9832404855
 30
0.0
 11
92.6538514353
 21
109.9832404855
 31
0.0
  0
LINE
  5
162
330
1F
100
AcDbEntity
  8
0
  6
CONTINUOUS
 62
     7
100
AcDbLine
 10
111.6538514353
 20
109.9832404855
 30
0.0
 11
109.1368527819
 21
109.9832404855
 31
0.0
  0
LINE
  5
163
330
1F
100
AcDbEntity
  8
0
  6
CONTINUOUS
 62
     7
100
AcDbLine
 10
109.1368527819
 20
90.9832404855
 30
0.0
 11
111.6538514353
 21
90.9832404855
 31
0.0
  0
LINE
  5
164
330
1F
100
AcDbEntity
  8
0
  6
CONTINUOUS
 62
     7
100
AcDbLine
 10
92.6538514353
 20
90.9832404855
 30
0.0
 11
97.1599392028
 21
90.9832404855
 31
0.0
  0
LINE
  5
165
330
1F
100
AcDbEntity
  8
0
  6
CONTINUOUS
 62
     7
100
AcDbLine
 10
91.6538514353
 20
108.9832404855
 30
0.0
 11
87.7538514353
 21
106.7082404855
 31
0.0
  0
LINE
  5
166
330
1F
100
AcDbEntity
  8
0
  6
CONTINUOUS
 62
     7
100
AcDbLine
 10
87.7538514353
 20
94.2582404855
 30
0.0
 11
91.6538514353
 21
91.9832404855
 31
0.0
  0
LINE
  5
167
330
1F
100
AcDbEntity
  8
0
  6
CONTINUOUS
 62
     7
100
AcDbLine
 10
92.6538514353
 20
108.9832404855
 30
0.0
 11
91.6538514353
 21
108.9832404855
 31
0.0
  0
LINE
  5
168
330
1F
100
AcDbEntity
  8
0
  6
CONTINUOUS
 62
     7
100
AcDbLine
 10
91.6538514353
 20
91.9832404855
 30
0.0
 11
92.6538514353
 21
91.9832404855
 31
0.0
  0
LINE
  5
169
330
1F
100
AcDbEntity
  8
0
  6
CONTINUOUS
 62
     7
100
AcDbLine
 10
60.7538514353
 20
101.2426108912
 30
0.0
 11
60.7538514353
 21
98.4185818013
 31
0.0
  0
LINE
  5
16A
330
1F
100
AcDbEntity
  8
0
  6
CONTINUOUS
 62
     7
100
AcDbLine
 10
46.7538514353
 20
99.8698080766
 30
0.0
 11
46.7538514353
 21
109.6806868615
 31
0.0
  0
LINE
  5
16B
330
1F
100
AcDbEntity
  8
0
  6
CONTINUOUS
 62
     7
100
AcDbLine
 10
60.7538514353
 20
111.6806868615
 30
0.0
 11
60.7538514353
 21
101.2426108912
 31
0.0
  0
LINE
  5
16C
330
1F
100
AcDbEntity
  8
0
  6
CONTINUOUS
 62
     7
100
AcDbLine
 10
46.7538514353
 20
91.2856616271
 30
0.0
 11
46.7538514353
 21
99.8698080766
 31
0.0
  0
LINE
  5
16D
330
1F
100
AcDbEntity
  8
0
  6
CONTINUOUS
 62
     7
100
AcDbLine
 10
60.7538514353
 20
98.4185818013
 30
0.0
 11
60.7538514353
 21
89.2856616271
 31
0.0
  0
LINE
  5
16E
330
1F
100
AcDbEntity
  8
0
  6
CONTINUOUS
 62
     7
100
AcDbLine
 10
70.7538514353
 20
108.4832404855
 30
0.0
 11
70.7538514353
 21
92.4832404855
 31
0.0
  0
LINE
  5
16F
330
1F
100
AcDbEntity
  8
0
  6
CONTINUOUS
 62
     7
100
AcDbLine
 10
92.6538514353
 20
100.5640412576
 30
0.0
 11
92.6538514353
 21
90.9832404855
 31
0.0
  0
LINE
  5
170
330
1F
100
AcDbEntity
  8
0
  6
CONTINUOUS
 62
     7
100
AcDbLine
 10
92.6538514353
 20
109.9832404855
 30
0.0
 11
92.6538514353
 21
100.5640412576
 31
0.0
  0
LINE
  5
171
330
1F
100
AcDbEntity
  8
0
  6
CONTINUOUS
 62
     7
100
AcDbLine
 10
111.6538514353
 20
100.5640412576
 30
0.0
 11
111.6538514353
 21
90.9832404855
 31
0.0
  0
LINE
  5
172
330
1F
100
AcDbEntity
  8
0
  6
CONTINUOUS
 62
     7
100
AcDbLine
 10
111.6538514353
 20
109.9832404855
 30
0.0
 11
111.6538514353
 21
100.5640412576
 31
0.0
  0
LWPOLYLINE
  5
173
330
1F
100
AcDbEntity
  8
0
  6
CONTINUOUS
 62
     7
100
AcDbPolyline
 90
       23
 70
   128
 43
0.0
 10
97.1599392028
 20
90.9867298912
 10
97.1538514353
 20
90.983584111
 10
97.221002765
 20
91.0334642691
 10
97.4271793321
 20
91.1690263475
 10
97.7492644795
 20
91.3701141554
 10
98.1912624581
 20
91.6309559655
 10
98.7667423082
 20
91.945340422
 10
99.4576362653
 20
92.2828633104
 10
100.3327221225
 20
92.6413112724
 10
101.3434332512
 20
92.947472327
 10
102.1188745051
 20
93.095955893
 10
102.945527095
 20
93.1661028453
 10
103.7571592169
 20
93.1441540075
 10
104.57526876
 20
93.0317294814
 10
105.3160703775
 20
92.8548468059
 10
106.0234983255
 20
92.6236059061
 10
106.7772701148
 20
92.3157317402
 10
107.4600266
 20
91.9871957567
 10
108.1210958778
 20
91.6282955359
 10
108.6512879904
 20
91.3131633424
 10
108.9799972173
 20
91.1046111441
 10
109.1427006226
 20
90.9937323486
 10
109.1368527819
 20
90.9936229793
  0
LWPOLYLINE
  5
174
330
1F
100
AcDbEntity
  8
0
  6
CONTINUOUS
 62
     7
100
AcDbPolyline
 90
       22
 70
   128
 43
0.0
 10
109.1368527819
 20
109.9728579918
 10
109.1310659333
 20
109.9729662204
 10
108.9828941606
 20
109.8879580714
 10
108.7277573707
 20
109.7385917849
 10
108.3599812328
 20
109.5279161618
 10
107.8573779409
 20
109.2537821382
 10
107.2420799635
 20
108.9442783762
 10
106.4431002691
 20
108.5921745656
 10
105.5130641734
 20
108.2639552469
 10
104.7294445755
 20
108.0643067083
 10
103.8788119702
 20
107.9346827692
 10
103.0255178674
 20
107.9005722897
 10
102.1468697303
 20
107.9672566867
 10
101.3965797215
 20
108.1039470847
 10
100.6711713814
 20
108.3020428111
 10
99.9211547487
 20
108.5695926346
 10
99.2300304249
 20
108.8669855694
 10
98.5198271743
 20
109.2173061298
 10
97.9229488002
 20
109.5418658018
 10
97.4902787355
 20
109.7909342168
 10
97.2218628148
 20
109.9477528027
 10
97.1599392028
 20
109.9797510799
  0
LINE
  5
175
330
1F
100
AcDbEntity
  8
0
  6
CONTINUOUS
 62
     7
100
AcDbLine
 10
91.6538514353
 20
100.5555359132
 30
0.0
 11
91.6538514353
 21
91.9832404855
 31
0.0
  0
LINE
  5
176
330
1F
100
AcDbEntity
  8
0
  6
CONTINUOUS
 62
     7
100
AcDbLine
 10
91.6538514353
 20
108.9832404855
 30
0.0
 11
91.6538514353
 21
100.5555359132
 31
0.0
  0
LINE
  5
177
330
1F
100
AcDbEntity
  8
0
  6
CONTINUOUS
 62
     7
100
AcDbLine
 10
71.7538514353
 20
92.4985090345
 30
0.0
 11
78.7538514353
 21
92.4985090345
 31
0.0
  0
LINE
  5
178
330
1F
100
AcDbEntity
  8
0
  6
CONTINUOUS
 62
     7
100
AcDbLine
 10
71.7538514353
 20
108.498430711
 30
0.0
 11
78.7538514353
 21
108.498430711
 31
0.0
  0
LINE
  5
179
330
1F
100
AcDbEntity
  8
0
  6
CONTINUOUS
 62
     7
100
AcDbLine
 10
78.7538514353
 20
108.498430711
 30
0.0
 11
78.7538514353
 21
92.4985090345
 31
0.0
  0
LINE
  5
17A
330
1F
100
AcDbEntity
  8
0
  6
CONTINUOUS
 62
     7
100
AcDbLine
 10
71.7538514353
 20
92.4985090345
 30
0.0
 11
71.7538514353
 21
108.498430711
 31
0.0
  0
LINE
  5
17B
330
1F
100
AcDbEntity
  8
0
  6
CONTINUOUS
 62
     7
100
AcDbLine
 10
80.7538514353
 20
108.498430711
 30
0.0
 11
87.7538514353
 21
108.498430711
 31
0.0
  0
LINE
  5
17C
330
1F
100
AcDbEntity
  8
0
  6
CONTINUOUS
 62
     7
100
AcDbLine
 10
87.7538514353
 20
92.4985090345
 30
0.0
 11
87.7538514353
 21
108.498430711
 31
0.0
  0
LINE
  5
17D
330
1F
100
AcDbEntity
  8
0
  6
CONTINUOUS
 62
     7
100
AcDbLine
 10
80.7538514353
 20
92.4985090345
 30
0.0
 11
87.7538514353
 21
92.4985090345
 31
0.0
  0
LINE
  5
17E
330
1F
100
AcDbEntity
  8
0
  6
CONTINUOUS
 62
     7
100
AcDbLine
 10
80.7538514353
 20
92.4985090345
 30
0.0
 11
80.7538514353
 21
108.498430711
 31
0.0
  0
LWPOLYLINE
  5
17F
330
1F
100
AcDbEntity
  8
0
  6
CONTINUOUS
 62
     7
100
AcDbPolyline
 90
       20
 70
   128
 43
0.0
 10
71.7538514353
 20
92.4273214072
 10
72.390094778
 20
92.4250417517
 10
73.0924266977
 20
92.4229607125
 10
73.8545438741
 20
92.4210969664
 10
74.6696064234
 20
92.4194672403
 10
75.5302992852
 20
92.4180861607
 10
76.4288978744
 20
92.4169661226
 10
77.3573374074
 20
92.4161171783
 10
78.3072852832
 20
92.4155469467
 10
79.2702158664
 20
92.4152605458
 10
80.2374870041
 20
92.4152605458
 10
81.2004175873
 20
92.4155469467
 10
82.1503654631
 20
92.4161171783
 10
83.0788049962
 20
92.4169661226
 10
83.9774035853
 20
92.4180861607
 10
84.8380964472
 20
92.4194672403
 10
85.6531589964
 20
92.4210969664
 10
86.4152761728
 20
92.4229607125
 10
87.1176080926
 20
92.4250417517
 10
87.7538514353
 20
92.4273214072
  0
LWPOLYLINE
  5
180
330
1F
100
AcDbEntity
  8
0
  6
CONTINUOUS
 62
     7
100
AcDbPolyline
 90
       51
 70
   128
 43
0.0
 10
80.7538514353
 20
92.4587675948
 10
81.4489354302
 20
92.4582653938
 10
82.1200574238
 20
92.4575086145
 10
82.7577303191
 20
92.4565079549
 10
83.3529398615
 20
92.4552775603
 10
83.8972720657
 20
92.453834824
 10
84.3830321572
 20
92.4522001407
 10
84.8033533471
 20
92.4503966185
 10
85.1522939022
 20
92.4484497524
 10
85.4249211383
 20
92.4463870635
 10
85.6173811494
 20
92.4442377105
 10
85.7269532875
 20
92.4420320769
 10
85.7520886218
 20
92.439801342
 10
85.6924318349
 20
92.4375770398
 10
85.5488262455
 20
92.4353906134
 10
85.323301887
 20
92.4332729705
 10
85.0190468109
 20
92.4312540466
 10
84.6403620199
 20
92.4293623814
 10
84.1926006676
 20
92.4276247159
 10
83.6820923864
 20
92.426065614
 10
83.1160538097
 20
92.4247071155
 10
82.5024865571
 20
92.4235684243
 10
81.8500641217
 20
92.4226656371
 10
81.1680092602
 20
92.4220115159
 10
80.4659636184
 20
92.4216153076
 10
79.7538514353
 20
92.4214826128
 10
79.0417392521
 20
92.4216153076
 10
78.3396936103
 20
92.4220115159
 10
77.6576387488
 20
92.4226656371
 10
77.0052163134
 20
92.4235684243
 10
76.3916490608
 20
92.4247071155
 10
75.8256104842
 20
92.426065614
 10
75.3151022029
 20
92.4276247159
 10
74.8673408507
 20
92.4293623814
 10
74.4886560596
 20
92.4312540466
 10
74.1844009836
 20
92.4332729705
 10
73.9588766251
 20
92.4353906134
 10
73.8152710356
 20
92.4375770398
 10
73.7556142487
 20
92.439801342
 10
73.780749583
 20
92.4420320769
 10
73.8903217211
 20
92.4442377105
 10
74.0827817323
 20
92.4463870635
 10
74.3554089683
 20
92.4484497524
 10
74.7043495234
 20
92.4503966185
 10
75.1246707133
 20
92.4522001407
 10
75.6104308048
 20
92.453834824
 10
76.154763009
 20
92.4552775603
 10
76.7499725514
 20
92.4565079549
 10
77.3876454468
 20
92.4575086145
 10
78.0587674403
 20
92.4582653938
 10
78.7538514353
 20
92.4587675948
  0
LINE
  5
181
330
1F
100
AcDbEntity
  8
0
  6
CONTINUOUS
 62
     7
100
AcDbLine
 10
87.7538514353
 20
92.4985090345
 30
0.0
 11
87.7538514353
 21
92.4273214072
 31
0.0
  0
LINE
  5
182
330
1F
100
AcDbEntity
  8
0
  6
CONTINUOUS
 62
     7
100
AcDbLine
 10
80.7538514353
 20
92.4587675948
 30
0.0
 11
80.7538514353
 21
92.4985090345
 31
0.0
  0
LINE
  5
183
330
1F
100
AcDbEntity
  8
0
  6
CONTINUOUS
 62
     7
100
AcDbLine
 10
78.7538514353
 20
92.4587675948
 30
0.0
 11
78.7538514353
 21
92.4985090345
 31
0.0
  0
LINE
  5
184
330
1F
100
AcDbEntity
  8
0
  6
CONTINUOUS
 62
     7
100
AcDbLine
 10
71.7538514353
 20
92.4985090345
 30
0.0
 11
71.7538514353
 21
92.4273214072
 31
0.0
  0
LWPOLYLINE
  5
185
330
1F
100
AcDbEntity
  8
0
  6
CONTINUOUS
 62
     7
100
AcDbPolyline
 90
        5
 70
   128
 43
0.0
 10
80.7538514353
 20
108.4216668726
 10
80.4659636184
 20
108.4215369841
 10
79.7538514353
 20
108.4214042893
 10
79.0417392521
 20
108.4215369841
 10
78.7538514353
 20
108.4216668726
  0
DIMENSION
  5
186
330
1F
100
AcDbEntity
  8
0
  6
CONTINUOUS
 62
     7
100
AcDbDimension
  2
*D13
 10
39.2593934181
 20
89.2856616271
 30
0.0
 11
39.2593934181
 21
100.2673500503
 31
0.0
 70
   160
  3
SLDDIMSTYLE0
100
AcDbAlignedDimension
 13
48.7538514353
 23
111.6806868615
 33
0.0
 14
48.7538514353
 24
89.2856616271
 34
0.0
 50
90.0
100
AcDbRotatedDimension
1001
ACAD
1000
DSTYLE
1002
{
1070
    77
1070
     3
1070
   143
1040
0.0393700787
1070
    41
1040
3.0
1070
    44
1040
1.0
1070
    42
1040
1.0
1070
   147
1040
1.524
1070
    73
1070
     0
1070
    74
1070
     0
1070
   140
1040
3.5
1070
   284
1070
    12
1070
    78
1070
    12
1002
}
  0
LINE
  5
19A
330
1F
100
AcDbEntity
  8
0
  6
CENTERX2
 62
     7
100
AcDbLine
 10
94.2538514353
 20
100.4832404855
 30
0.0
 11
113.6538514353
 21
100.4832404855
 31
0.0
  0
LINE
  5
19B
330
1F
100
AcDbEntity
  8
0
  6
CENTERX2
 62
     7
100
AcDbLine
 10
43.1431131346
 20
100.4832404855
 30
0.0
 11
94.2538514353
 21
100.4832404855
 31
0.0
  0
LINE
  5
19C
330
1F
100
AcDbEntity
  8
0
  6
CENTERX2
 62
     7
100
AcDbLine
 10
103.2538514353
 20
94.8777857375
 30
0.0
 11
103.2538514353
 21
106.0886952335
 31
0.0
  0
LINE
  5
19D
330
1F
100
AcDbEntity
  8
0
  6
CENTERX2
 62
     7
100
AcDbLine
 10
103.1538514353
 20
94.4835564805
 30
0.0
 11
103.1538514353
 21
88.9836116563
 31
0.0
  0
LINE
  5
19E
330
1F
100
AcDbEntity
  8
0
  6
CENTERX2
 62
     7
100
AcDbLine
 10
103.1538514353
 20
111.9828693148
 30
0.0
 11
103.1538514353
 21
106.4829244906
 31
0.0
  0
LINE
  5
19F
330
1F
100
AcDbEntity
  8
0
  6
CENTERX2
 62
     7
100
AcDbLine
 10
69.7538514353
 20
100.4741630839
 30
0.0
 11
89.7538514353
 21
100.4741630839
 31
0.0
  0
LINE
  5
1A0
330
1F
100
AcDbEntity
  8
0
  6
CENTERX2
 62
     7
100
AcDbLine
 10
79.7538514353
 20
90.4402563955
 30
0.0
 11
79.7538514353
 21
110.447093744
 31
0.0
  0
ENDSEC
  0
SECTION
  2
OBJECTS
  0
DICTIONARY
  5
C
330
0
100
AcDbDictionary
  3
ACAD_GROUP
350
D
  3
ACAD_LAYOUT
350
1A
  3
ACAD_MLINESTYLE
350
17
  3
ACAD_PLOTSETTINGS
350
19
  3
ACDBHEADERROUNDTRIPXREC
350
1A1
  0
DICTIONARY
  5
D
102
{ACAD_REACTORS
330
C
102
}
330
C
100
AcDbDictionary
  0
DICTIONARY
  5
1A
102
{ACAD_REACTORS
330
C
102
}
330
C
100
AcDbDictionary
  0
DICTIONARY
  5
17
102
{ACAD_REACTORS
330
C
102
}
330
C
100
AcDbDictionary
  3
STANDARD
350
18
  0
DICTIONARY
  5
19
102
{ACAD_REACTORS
330
C
102
}
330
C
100
AcDbDictionary
  0
DICTIONARY
  5
1A1
102
{ACAD_REACTORS
330
C
102
}
330
C
100
AcDbDictionary
  3
CEPSNTYPE
350
1AA
  3
DIMSTYLEDATA
350
1C0
  3
FINGERPRINTGUID
350
1AB
  3
HYPERLINKBASE
350
1A4
  3
INSUNITS
350
1A9
  3
LAYOUTDICT
350
1A6
  3
LWETCUNION
350
1A8
  3
PLOTSETDICT
350
1A7
  3
PSVPSCALE
350
1AD
  3
PUCSBASE
350
1B0
  3
PUCSORGBACK
350
1B6
  3
PUCSORGBOTTOM
350
1B2
  3
PUCSORGFRONT
350
1B5
  3
PUCSORGLEFT
350
1B3
  3
PUCSORGRIGHT
350
1B4
  3
PUCSORGTOP
350
1B1
  3
PUCSORTHOREF
350
1AE
  3
PUCSORTHOVIEW
350
1AF
  3
STYLESHEET
350
1A5
  3
TSTACKALIGN
350
1A2
  3
TSTACKSIZE
350
1A3
  3
UCSBASE
350
1B9
  3
UCSORGBACK
350
1BF
  3
UCSORGBOTTOM
350
1BB
  3
UCSORGFRONT
350
1BE
  3
UCSORGLEFT
350
1BC
  3
UCSORGRIGHT
350
1BD
  3
UCSORGTOP
350
1BA
  3
UCSORTHOREF
350
1B7
  3
UCSORTHOVIEW
350
1B8
  3
VERSIONGUID
350
1AC
  0
MLINESTYLE
  5
18
102
{ACAD_REACTORS
330
17
102
}
330
17
100
AcDbMlineStyle
  2
Standard
 70
     0
  3

 62
   256
 51
90.0
 52
90.0
 71
     2
 49
0.5
 62
   256
  6
BYLAYER
 49
-0.5
 62
   256
  6
BYLAYER
  0
XRECORD
  5
1AA
102
{ACAD_REACTORS
330
1A1
102
}
330
1A1
100
AcDbXrecord
 90
        0
  0
XRECORD
  5
1C0
102
{ACAD_REACTORS
330
1A1
102
}
330
1A1
100
AcDbXrecord
1000
DSTYLE
1002
{
1070
   143
 40
0.0393700787
1070
    41
 40
3.0
1070
    44
 40
1.0
1070
    42
 40
1.0
1070
   147
 40
1.524
1070
    73
 70
     1
1070
    74
 70
     1
1070
   340
340
11
1070
   140
 40
3.5
1070
   284
 70
     0
1070
    78
 70
     0
1002
}
  0
XRECORD
  5
1AB
102
{ACAD_REACTORS
330
1A1
102
}
330
1A1
100
AcDbXrecord
  1
{BD2C7AD4-D45C-417D-BFE2-27BE9E4176E5}
  0
XRECORD
  5
1A4
102
{ACAD_REACTORS
330
1A1
102
}
330
1A1
100
AcDbXrecord
  1

  0
XRECORD
  5
1A9
102
{ACAD_REACTORS
330
1A1
102
}
330
1A1
100
AcDbXrecord
 90
        4
  0
XRECORD
  5
1A6
102
{ACAD_REACTORS
330
1A1
102
}
330
1A1
100
AcDbXrecord
340
1A
  0
XRECORD
  5
1A8
102
{ACAD_REACTORS
330
1A1
102
}
330
1A1
100
AcDbXrecord
 90
    10269
  0
XRECORD
  5
1A7
102
{ACAD_REACTORS
330
1A1
102
}
330
1A1
100
AcDbXrecord
340
19
  0
XRECORD
  5
1AD
102
{ACAD_REACTORS
330
1A1
102
}
330
1A1
100
AcDbXrecord
 40
0.0
  0
XRECORD
  5
1B0
102
{ACAD_REACTORS
330
1A1
102
}
330
1A1
100
AcDbXrecord
340
0
  0
XRECORD
  5
1B6
102
{ACAD_REACTORS
330
1A1
102
}
330
1A1
100
AcDbXrecord
 10
0.0
 20
0.0
 30
0.0
  0
XRECORD
  5
1B2
102
{ACAD_REACTORS
330
1A1
102
}
330
1A1
100
AcDbXrecord
 10
0.0
 20
0.0
 30
0.0
  0
XRECORD
  5
1B5
102
{ACAD_REACTORS
330
1A1
102
}
330
1A1
100
AcDbXrecord
 10
0.0
 20
0.0
 30
0.0
  0
XRECORD
  5
1B3
102
{ACAD_REACTORS
330
1A1
102
}
330
1A1
100
AcDbXrecord
 10
0.0
 20
0.0
 30
0.0
  0
XRECORD
  5
1B4
102
{ACAD_REACTORS
330
1A1
102
}
330
1A1
100
AcDbXrecord
 10
0.0
 20
0.0
 30
0.0
  0
XRECORD
  5
1B1
102
{ACAD_REACTORS
330
1A1
102
}
330
1A1
100
AcDbXrecord
 10
0.0
 20
0.0
 30
0.0
  0
XRECORD
  5
1AE
102
{ACAD_REACTORS
330
1A1
102
}
330
1A1
100
AcDbXrecord
340
0
  0
XRECORD
  5
1AF
102
{ACAD_REACTORS
330
1A1
102
}
330
1A1
100
AcDbXrecord
 70
     0
  0
XRECORD
  5
1A5
102
{ACAD_REACTORS
330
1A1
102
}
330
1A1
100
AcDbXrecord
  1

  0
XRECORD
  5
1A2
102
{ACAD_REACTORS
330
1A1
102
}
330
1A1
100
AcDbXrecord
 90
        1
  0
XRECORD
  5
1A3
102
{ACAD_REACTORS
330
1A1
102
}
330
1A1
100
AcDbXrecord
 90
       70
  0
XRECORD
  5
1B9
102
{ACAD_REACTORS
330
1A1
102
}
330
1A1
100
AcDbXrecord
340
0
  0
XRECORD
  5
1BF
102
{ACAD_REACTORS
330
1A1
102
}
330
1A1
100
AcDbXrecord
 10
0.0
 20
0.0
 30
0.0
  0
XRECORD
  5
1BB
102
{ACAD_REACTORS
330
1A1
102
}
330
1A1
100
AcDbXrecord
 10
0.0
 20
0.0
 30
0.0
  0
XRECORD
  5
1BE
102
{ACAD_REACTORS
330
1A1
102
}
330
1A1
100
AcDbXrecord
 10
0.0
 20
0.0
 30
0.0
  0
XRECORD
  5
1BC
102
{ACAD_REACTORS
330
1A1
102
}
330
1A1
100
AcDbXrecord
 10
0.0
 20
0.0
 30
0.0
  0
XRECORD
  5
1BD
102
{ACAD_REACTORS
330
1A1
102
}
330
1A1
100
AcDbXrecord
 10
0.0
 20
0.0
 30
0.0
  0
XRECORD
  5
1BA
102
{ACAD_REACTORS
330
1A1
102
}
330
1A1
100
AcDbXrecord
 10
0.0
 20
0.0
 30
0.0
  0
XRECORD
  5
1B7
102
{ACAD_REACTORS
330
1A1
102
}
330
1A1
100
AcDbXrecord
340
0
  0
XRECORD
  5
1B8
102
{ACAD_REACTORS
330
1A1
102
}
330
1A1
100
AcDbXrecord
 70
     0
  0
XRECORD
  5
1AC
102
{ACAD_REACTORS
330
1A1
102
}
330
1A1
100
AcDbXrecord
  1
{FAEB1C32-E019-11D5-929B-00C0DF256EC4}
  0
ENDSEC
  0
EOF
