  0
SECTION
  2
HEADER
  9
$ACADVER
  1
AC1015
  9
$ACADMAINTVER
 70
    20
  9
$DWGCODEPAGE
  3
ANSI_932
  9
$INSBASE
 10
0.0
 20
0.0
 30
0.0
  9
$EXTMIN
 10
20.2604743903
 20
10.0
 30
-7.999967139299999
  9
$EXTMAX
 10
207.9386032961442
 20
285.0
 30
7.444068409999999
  9
$LIMMIN
 10
0.0
 20
0.0
  9
$LIMMAX
 10
0.0
 20
0.0
  9
$ORTHOMODE
 70
     0
  9
$REGENMODE
 70
     1
  9
$FILLMODE
 70
     1
  9
$QTEXTMODE
 70
     0
  9
$MIRRTEXT
 70
     1
  9
$LTSCALE
 40
1.0
  9
$ATTMODE
 70
     1
  9
$TEXTSIZE
 40
2.5
  9
$TRACEWID
 40
1.0
  9
$TEXTSTYLE
  7
STANDARD
  9
$CLAYER
  8
0
  9
$CELTYPE
  6
BYLAYER
  9
$CECOLOR
 62
   256
  9
$CELTSCALE
 40
1.0
  9
$DISPSILH
 70
     0
  9
$DIMSCALE
 40
1.0
  9
$DIMASZ
 40
3.0
  9
$DIMEXO
 40
1.0
  9
$DIMDLI
 40
3.75
  9
$DIMRND
 40
0.0
  9
$DIMDLE
 40
0.0
  9
$DIMEXE
 40
1.0
  9
$DIMTP
 40
0.0
  9
$DIMTM
 40
0.0
  9
$DIMTXT
 40
3.5
  9
$DIMCEN
 40
2.5
  9
$DIMTSZ
 40
0.0
  9
$DIMTOL
 70
     0
  9
$DIMLIM
 70
     0
  9
$DIMTIH
 70
     1
  9
$DIMTOH
 70
     1
  9
$DIMSE1
 70
     0
  9
$DIMSE2
 70
     0
  9
$DIMTAD
 70
     1
  9
$DIMZIN
 70
     0
  9
$DIMBLK
  1

  9
$DIMASO
 70
     1
  9
$DIMSHO
 70
     1
  9
$DIMPOST
  1

  9
$DIMAPOST
  1

  9
$DIMALT
 70
     0
  9
$DIMALTD
 70
     3
  9
$DIMALTF
 40
0.0393700787
  9
$DIMLFAC
 40
1.0
  9
$DIMTOFL
 70
     1
  9
$DIMTVP
 40
0.0
  9
$DIMTIX
 70
     0
  9
$DIMSOXD
 70
     0
  9
$DIMSAH
 70
     0
  9
$DIMBLK1
  1

  9
$DIMBLK2
  1

  9
$DIMSTYLE
  2
ISO-25
  9
$DIMCLRD
 70
     0
  9
$DIMCLRE
 70
     0
  9
$DIMCLRT
 70
     0
  9
$DIMTFAC
 40
1.0
  9
$DIMGAP
 40
1.524
  9
$DIMJUST
 70
     0
  9
$DIMSD1
 70
     0
  9
$DIMSD2
 70
     0
  9
$DIMTOLJ
 70
     0
  9
$DIMTZIN
 70
     0
  9
$DIMALTZ
 70
     0
  9
$DIMALTTZ
 70
     0
  9
$DIMUPT
 70
     0
  9
$DIMDEC
 70
     2
  9
$DIMTDEC
 70
     2
  9
$DIMALTU
 70
     2
  9
$DIMALTTD
 70
     3
  9
$DIMTXSTY
  7
STANDARD
  9
$DIMAUNIT
 70
     0
  9
$DIMADEC
 70
     0
  9
$DIMALTRND
 40
0.0
  9
$DIMAZIN
 70
     0
  9
$DIMDSEP
 70
    46
  9
$DIMATFIT
 70
     3
  9
$DIMFRAC
 70
     0
  9
$DIMLDRBLK
  1

  9
$DIMLUNIT
 70
     2
  9
$DIMLWD
 70
    -2
  9
$DIMLWE
 70
    -2
  9
$DIMTMOVE
 70
     0
  9
$LUNITS
 70
     2
  9
$LUPREC
 70
     1
  9
$SKETCHINC
 40
1.0
  9
$FILLETRAD
 40
10.0
  9
$AUNITS
 70
     0
  9
$AUPREC
 70
     0
  9
$MENU
  1
.
  9
$ELEVATION
 40
0.0
  9
$PELEVATION
 40
0.0
  9
$THICKNESS
 40
0.0
  9
$LIMCHECK
 70
     0
  9
$CHAMFERA
 40
10.0
  9
$CHAMFERB
 40
10.0
  9
$CHAMFERC
 40
20.0
  9
$CHAMFERD
 40
0.0
  9
$SKPOLY
 70
     0
  9
$TDCREATE
 40
2454841.568751076
  9
$TDUCREATE
 40
2454841.193751077
  9
$TDUPDATE
 40
2454882.728863750
  9
$TDUUPDATE
 40
2454882.353863750
  9
$TDINDWG
 40
0.0044363194
  9
$TDUSRTIMER
 40
0.0044348727
  9
$USRTIMER
 70
     1
  9
$ANGBASE
 50
0.0
  9
$ANGDIR
 70
     0
  9
$PDMODE
 70
     0
  9
$PDSIZE
 40
-1.0
  9
$PLINEWID
 40
0.0
  9
$SPLFRAME
 70
     0
  9
$SPLINETYPE
 70
     6
  9
$SPLINESEGS
 70
     8
  9
$HANDSEED
  5
202
  9
$SURFTAB1
 70
     6
  9
$SURFTAB2
 70
     6
  9
$SURFTYPE
 70
     6
  9
$SURFU
 70
     6
  9
$SURFV
 70
     6
  9
$UCSBASE
  2

  9
$UCSNAME
  2

  9
$UCSORG
 10
0.0
 20
0.0
 30
0.0
  9
$UCSXDIR
 10
1.0
 20
0.0
 30
0.0
  9
$UCSYDIR
 10
0.0
 20
1.0
 30
0.0
  9
$UCSORTHOREF
  2

  9
$UCSORTHOVIEW
 70
     0
  9
$UCSORGTOP
 10
0.0
 20
0.0
 30
0.0
  9
$UCSORGBOTTOM
 10
0.0
 20
0.0
 30
0.0
  9
$UCSORGLEFT
 10
0.0
 20
0.0
 30
0.0
  9
$UCSORGRIGHT
 10
0.0
 20
0.0
 30
0.0
  9
$UCSORGFRONT
 10
0.0
 20
0.0
 30
0.0
  9
$UCSORGBACK
 10
0.0
 20
0.0
 30
0.0
  9
$PUCSBASE
  2

  9
$PUCSNAME
  2

  9
$PUCSORG
 10
0.0
 20
0.0
 30
0.0
  9
$PUCSXDIR
 10
1.0
 20
0.0
 30
0.0
  9
$PUCSYDIR
 10
0.0
 20
1.0
 30
0.0
  9
$PUCSORTHOREF
  2

  9
$PUCSORTHOVIEW
 70
     0
  9
$PUCSORGTOP
 10
0.0
 20
0.0
 30
0.0
  9
$PUCSORGBOTTOM
 10
0.0
 20
0.0
 30
0.0
  9
$PUCSORGLEFT
 10
0.0
 20
0.0
 30
0.0
  9
$PUCSORGRIGHT
 10
0.0
 20
0.0
 30
0.0
  9
$PUCSORGFRONT
 10
0.0
 20
0.0
 30
0.0
  9
$PUCSORGBACK
 10
0.0
 20
0.0
 30
0.0
  9
$USERI1
 70
     0
  9
$USERI2
 70
     0
  9
$USERI3
 70
     0
  9
$USERI4
 70
     0
  9
$USERI5
 70
     0
  9
$USERR1
 40
0.0
  9
$USERR2
 40
0.0
  9
$USERR3
 40
0.0
  9
$USERR4
 40
0.0
  9
$USERR5
 40
0.0
  9
$WORLDVIEW
 70
     1
  9
$SHADEDGE
 70
     3
  9
$SHADEDIF
 70
    70
  9
$TILEMODE
 70
     1
  9
$MAXACTVP
 70
    64
  9
$PINSBASE
 10
0.0
 20
0.0
 30
0.0
  9
$PLIMCHECK
 70
     0
  9
$PEXTMIN
 10
1.000000000000000E+20
 20
1.000000000000000E+20
 30
1.000000000000000E+20
  9
$PEXTMAX
 10
-1.000000000000000E+20
 20
-1.000000000000000E+20
 30
-1.000000000000000E+20
  9
$PLIMMIN
 10
0.0
 20
0.0
  9
$PLIMMAX
 10
420.0
 20
297.0
  9
$UNITMODE
 70
     0
  9
$VISRETAIN
 70
     1
  9
$PLINEGEN
 70
     0
  9
$PSLTSCALE
 70
     1
  9
$TREEDEPTH
 70
  3020
  9
$CMLSTYLE
  2
STANDARD
  9
$CMLJUST
 70
     0
  9
$CMLSCALE
 40
20.0
  9
$PROXYGRAPHICS
 70
     1
  9
$MEASUREMENT
 70
     1
  9
$CELWEIGHT
370
    -1
  9
$ENDCAPS
280
     0
  9
$JOINSTYLE
280
     0
  9
$LWDISPLAY
290
     1
  9
$INSUNITS
 70
     4
  9
$HYPERLINKBASE
  1

  9
$STYLESHEET
  1

  9
$XEDIT
290
     1
  9
$CEPSNTYPE
380
     0
  9
$PSTYLEMODE
290
     1
  9
$FINGERPRINTGUID
  2
{1712FF53-7E03-4EFC-AC4C-306E937D9CA3}
  9
$VERSIONGUID
  2
{E8E61DAF-13A7-4CA2-B626-95BA7B6E2D53}
  9
$EXTNAMES
290
     1
  9
$PSVPSCALE
 40
0.0
  9
$OLESTARTUP
290
     0
  0
ENDSEC
  0
SECTION
  2
CLASSES
  0
CLASS
  1
ACDBDICTIONARYWDFLT
  2
AcDbDictionaryWithDefault
  3
ObjectDBX Classes
 90
        0
280
     0
281
     0
  0
CLASS
  1
ACDBPLACEHOLDER
  2
AcDbPlaceHolder
  3
ObjectDBX Classes
 90
        0
280
     0
281
     0
  0
CLASS
  1
LAYOUT
  2
AcDbLayout
  3
ObjectDBX Classes
 90
        0
280
     0
281
     0
  0
CLASS
  1
TABLESTYLE
  2
AcDbTableStyle
  3
ObjectDBX Classes
 90
     2047
280
     0
281
     0
  0
CLASS
  1
DICTIONARYVAR
  2
AcDbDictionaryVar
  3
ObjectDBX Classes
 90
        0
280
     0
281
     0
  0
ENDSEC
  0
SECTION
  2
TABLES
  0
TABLE
  2
VPORT
  5
8
330
0
100
AcDbSymbolTable
 70
     2
  0
VPORT
  5
1FC
330
8
100
AcDbSymbolTableRecord
100
AcDbViewportTableRecord
  2
*Active
 70
     0
 10
0.0
 20
0.0
 11
1.0
 21
1.0
 12
105.9104881918561
 22
149.3288147665837
 13
0.0
 23
0.0
 14
10.0
 24
10.0
 15
10.0
 25
10.0
 16
0.0
 26
0.0
 36
1.0
 17
0.0
 27
0.0
 37
0.0
 40
425.6046174549283
 41
1.5625
 42
50.0
 43
0.0
 44
0.0
 50
0.0
 51
0.0
 71
     0
 72
  2000
 73
     1
 74
     3
 75
     0
 76
     0
 77
     0
 78
     0
281
     0
 65
     1
110
0.0
120
0.0
130
0.0
111
1.0
121
0.0
131
0.0
112
0.0
122
1.0
132
0.0
 79
     0
146
0.0
  0
ENDTAB
  0
TABLE
  2
LTYPE
  5
5
330
0
100
AcDbSymbolTable
 70
     7
  0
LTYPE
  5
14
330
5
100
AcDbSymbolTableRecord
100
AcDbLinetypeTableRecord
  2
BYBLOCK
 70
     0
  3

 72
    65
 73
     0
 40
0.0
  0
LTYPE
  5
15
330
5
100
AcDbSymbolTableRecord
100
AcDbLinetypeTableRecord
  2
BYLAYER
 70
     0
  3

 72
    65
 73
     0
 40
0.0
  0
LTYPE
  5
16
330
5
100
AcDbSymbolTableRecord
100
AcDbLinetypeTableRecord
  2
CONTINUOUS
 70
     0
  3
Solid line
 72
    65
 73
     0
 40
0.0
  0
LTYPE
  5
2A
330
5
100
AcDbSymbolTableRecord
100
AcDbLinetypeTableRecord
  2
HIDDEN
 70
     0
  3
Hidden __ __ __ __ __ __ __ __ __ __ __ __ __ __
 72
    65
 73
     2
 40
1.905
 49
1.27
 74
     0
 49
-0.635
 74
     0
  0
LTYPE
  5
2B
330
5
100
AcDbSymbolTableRecord
100
AcDbLinetypeTableRecord
  2
PHANTOM
 70
     0
  3
Phantom ______  __  __  ______  __  __  ______
 72
    65
 73
     6
 40
12.7
 49
6.349999999999999
 74
     0
 49
-1.27
 74
     0
 49
1.27
 74
     0
 49
-1.27
 74
     0
 49
1.27
 74
     0
 49
-1.27
 74
     0
  0
LTYPE
  5
2C
330
5
100
AcDbSymbolTableRecord
100
AcDbLinetypeTableRecord
  2
CENTER
 70
     0
  3
Center ____ _ ____ _ ____ _ ____ _ ____ _ ____
 72
    65
 73
     4
 40
10.16
 49
6.349999999999999
 74
     0
 49
-1.27
 74
     0
 49
1.27
 74
     0
 49
-1.27
 74
     0
  0
LTYPE
  5
2D
330
5
100
AcDbSymbolTableRecord
100
AcDbLinetypeTableRecord
  2
CENTERX2
 70
     0
  3
Center (2x) ________  __  ________  __  _____
 72
    65
 73
     4
 40
20.32
 49
12.7
 74
     0
 49
-2.54
 74
     0
 49
2.54
 74
     0
 49
-2.54
 74
     0
  0
LTYPE
  5
2E
330
5
100
AcDbSymbolTableRecord
100
AcDbLinetypeTableRecord
  2
DOT2
 70
     0
  3
Dot (.5x) ........................................
 72
    65
 73
     2
 40
0.635
 49
0.0
 74
     0
 49
-0.635
 74
     0
  0
ENDTAB
  0
TABLE
  2
LAYER
  5
2
330
0
100
AcDbSymbolTable
 70
     2
  0
LAYER
  5
10
330
2
100
AcDbSymbolTableRecord
100
AcDbLayerTableRecord
  2
0
 70
     0
 62
     7
  6
CONTINUOUS
370
    -3
390
1DA
  0
LAYER
  5
79
330
2
100
AcDbSymbolTableRecord
100
AcDbLayerTableRecord
  2
DEFPOINTS
 70
     0
 62
     7
  6
CONTINUOUS
290
     0
370
    -3
390
1DA
  0
ENDTAB
  0
TABLE
  2
STYLE
  5
3
330
0
100
AcDbSymbolTable
 70
     2
  0
STYLE
  5
11
330
3
100
AcDbSymbolTableRecord
100
AcDbTextStyleTableRecord
  2
STANDARD
 70
     0
 40
0.0
 41
1.0
 50
0.0
 71
     0
 42
2.5
  3
txt
  4
bigfont
  0
STYLE
  5
37
330
3
100
AcDbSymbolTableRecord
100
AcDbTextStyleTableRecord
  2
SLDTEXTSTYLE0
 70
     0
 40
0.0
 41
0.7
 50
0.0
 71
     0
 42
0.2
  3
TXT
  4
bigfont
  0
ENDTAB
  0
TABLE
  2
VIEW
  5
6
330
0
100
AcDbSymbolTable
 70
     0
  0
ENDTAB
  0
TABLE
  2
UCS
  5
7
330
0
100
AcDbSymbolTable
 70
     0
  0
ENDTAB
  0
TABLE
  2
APPID
  5
9
330
0
100
AcDbSymbolTable
 70
     2
  0
APPID
  5
12
330
9
100
AcDbSymbolTableRecord
100
AcDbRegAppTableRecord
  2
ACAD
 70
     0
  0
APPID
  5
1EC
330
9
100
AcDbSymbolTableRecord
100
AcDbRegAppTableRecord
  2
ACAD_EXEMPT_FROM_CAD_STANDARDS
 70
     0
  0
ENDTAB
  0
TABLE
  2
DIMSTYLE
  5
A
330
0
100
AcDbSymbolTable
 70
     5
100
AcDbDimStyleTable
 71
     1
340
27
  0
DIMSTYLE
105
27
330
A
100
AcDbSymbolTableRecord
100
AcDbDimStyleTableRecord
  2
ISO-25
 70
     0
 41
2.5
 42
0.625
 43
3.75
 44
1.25
 73
     0
 74
     0
 77
     1
 78
     8
140
2.5
141
2.5
143
0.0393700787
147
0.625
171
     3
172
     1
271
     2
272
     2
274
     3
283
     0
284
     8
340
11
  0
DIMSTYLE
105
87
102
{ACAD_REACTORS
330
78
330
96
330
A9
330
C0
330
D8
330
EC
330
101
330
146
330
15C
102
}
330
A
100
AcDbSymbolTableRecord
100
AcDbDimStyleTableRecord
  2
SLDDIMSTYLE0
 70
     0
 41
3.0
 44
0.0
 73
     0
 74
     0
 77
     3
 78
    12
140
3.5
147
0.875
173
     1
271
     1
272
     2
284
    12
340
37
341
88
343
88
344
88
  0
DIMSTYLE
105
11F
102
{ACAD_REACTORS
330
114
102
}
330
A
100
AcDbSymbolTableRecord
100
AcDbDimStyleTableRecord
  2
SLDDIMSTYLE1
 70
     0
  3
<>
 41
3.0
 44
0.0
 78
    12
140
3.5
147
0.875
173
     1
271
     1
272
     2
284
    12
340
37
  0
DIMSTYLE
105
12C
330
A
100
AcDbSymbolTableRecord
100
AcDbDimStyleTableRecord
  2
SLDDIMSTYLE2
 70
     0
 41
3.0
 44
0.0
140
3.0
147
0.75
173
     1
271
     0
272
     0
340
11
  0
ENDTAB
  0
TABLE
  2
BLOCK_RECORD
  5
1
330
0
100
AcDbSymbolTable
 70
    14
  0
BLOCK_RECORD
  5
1F
330
1
100
AcDbSymbolTableRecord
100
AcDbBlockTableRecord
  2
*MODEL_SPACE
340
1DF
  0
BLOCK_RECORD
  5
1B
330
1
100
AcDbSymbolTableRecord
100
AcDbBlockTableRecord
  2
*PAPER_SPACE
340
1E0
  0
BLOCK_RECORD
  5
7A
330
1
100
AcDbSymbolTableRecord
100
AcDbBlockTableRecord
  2
*D0
340
0
  0
BLOCK_RECORD
  5
88
330
1
100
AcDbSymbolTableRecord
100
AcDbBlockTableRecord
  2
_OPEN30
340
0
102
{BLKREFS
331
8E
331
8F
331
A3
331
A4
331
B8
331
B9
331
D0
331
D1
331
E6
331
E7
331
FB
331
FC
331
10E
331
10F
331
154
331
155
331
169
331
16A
102
}
  0
BLOCK_RECORD
  5
97
330
1
100
AcDbSymbolTableRecord
100
AcDbBlockTableRecord
  2
*D2
340
0
  0
BLOCK_RECORD
  5
AA
330
1
100
AcDbSymbolTableRecord
100
AcDbBlockTableRecord
  2
*D3
340
0
  0
BLOCK_RECORD
  5
C1
330
1
100
AcDbSymbolTableRecord
100
AcDbBlockTableRecord
  2
*D4
340
0
  0
BLOCK_RECORD
  5
D9
330
1
100
AcDbSymbolTableRecord
100
AcDbBlockTableRecord
  2
*D5
340
0
  0
BLOCK_RECORD
  5
ED
330
1
100
AcDbSymbolTableRecord
100
AcDbBlockTableRecord
  2
*D6
340
0
  0
BLOCK_RECORD
  5
102
330
1
100
AcDbSymbolTableRecord
100
AcDbBlockTableRecord
  2
*D7
340
0
  0
BLOCK_RECORD
  5
115
330
1
100
AcDbSymbolTableRecord
100
AcDbBlockTableRecord
  2
*D8
340
0
  0
BLOCK_RECORD
  5
126
330
1
100
AcDbSymbolTableRecord
100
AcDbBlockTableRecord
  2
SW_NOTE_0
340
0
102
{BLKREFS
331
12B
102
}
  0
BLOCK_RECORD
  5
147
330
1
100
AcDbSymbolTableRecord
100
AcDbBlockTableRecord
  2
*D10
340
0
  0
BLOCK_RECORD
  5
15D
330
1
100
AcDbSymbolTableRecord
100
AcDbBlockTableRecord
  2
*D11
340
0
  0
BLOCK_RECORD
  5
1AB
330
1
100
AcDbSymbolTableRecord
100
AcDbBlockTableRecord
  2
SW_NOTE_1
340
0
102
{BLKREFS
331
1B0
102
}
  0
ENDTAB
  0
ENDSEC
  0
SECTION
  2
BLOCKS
  0
BLOCK
  5
20
330
1F
100
AcDbEntity
  8
0
100
AcDbBlockBegin
  2
*MODEL_SPACE
 70
     0
 10
0.0
 20
0.0
 30
0.0
  3
*MODEL_SPACE
  1

  0
ENDBLK
  5
21
330
1F
100
AcDbEntity
  8
0
100
AcDbBlockEnd
  0
BLOCK
  5
1C
330
1B
100
AcDbEntity
 67
     1
  8
0
100
AcDbBlockBegin
  2
*PAPER_SPACE
 70
     0
 10
0.0
 20
0.0
 30
0.0
  3
*PAPER_SPACE
  1

  0
ENDBLK
  5
1D
330
1B
100
AcDbEntity
 67
     1
  8
0
100
AcDbBlockEnd
  0
BLOCK
  5
85
330
7A
100
AcDbEntity
  8
0
100
AcDbBlockBegin
  2
*D0
 70
     1
 10
0.0
 20
0.0
 30
0.0
  3
*D0
  1

  0
INSERT
  5
8E
330
7A
100
AcDbEntity
  8
0
  6
Continuous
 62
     7
100
AcDbBlockReference
  2
_OPEN30
 10
117.4266363287
 20
177.0335208706
 30
0.0
 41
3.0
 42
3.0
 50
90.0
  0
INSERT
  5
8F
330
7A
100
AcDbEntity
  8
0
  6
Continuous
 62
     7
100
AcDbBlockReference
  2
_OPEN30
 10
117.4266363287
 20
191.0335208706
 30
0.0
 41
3.0
 42
3.0
 50
270.0
  0
LINE
  5
90
330
7A
100
AcDbEntity
  8
0
  6
Continuous
 62
     7
100
AcDbLine
 10
110.8909709925
 20
177.0335208706
 30
0.0
 11
118.4266363287
 21
177.0335208706
 31
0.0
  0
LINE
  5
91
330
7A
100
AcDbEntity
  8
0
  6
Continuous
 62
     7
100
AcDbLine
 10
92.8400179716
 20
191.0335208706
 30
0.0
 11
118.4266363287
 21
191.0335208706
 31
0.0
  0
LINE
  5
92
330
7A
100
AcDbEntity
  8
0
  6
Continuous
 62
     7
100
AcDbLine
 10
117.4266363287
 20
177.0335208706
 30
0.0
 11
117.4266363287
 21
171.0335208706
 31
0.0
  0
LINE
  5
93
330
7A
100
AcDbEntity
  8
0
  6
Continuous
 62
     7
100
AcDbLine
 10
117.4266363287
 20
177.0335208706
 30
0.0
 11
117.4266363287
 21
191.0335208706
 31
0.0
  0
LINE
  5
94
330
7A
100
AcDbEntity
  8
0
  6
Continuous
 62
     7
100
AcDbLine
 10
117.4266363287
 20
191.0335208706
 30
0.0
 11
117.4266363287
 21
197.0335208706
 31
0.0
  0
MTEXT
  5
95
330
7A
100
AcDbEntity
  8
0
  6
Continuous
 62
     7
100
AcDbMText
 10
113.3539092888
 20
183.9200240186
 30
0.0
 40
3.5
 41
0.0
 71
     1
 72
     1
  1
14
  7
SLDTEXTSTYLE0
 11
-0.0000000000000108
 21
1.0
 31
0.0
 73
     1
 44
1.0
1001
ACAD
1000
MTEXTBEGIN
1070
    73
1070
     1
1070
    44
1040
1.0
1070
    74
1070
     0
1000
MTEXTEND
  0
ENDBLK
  5
86
330
7A
100
AcDbEntity
  8
0
100
AcDbBlockEnd
  0
BLOCK
  5
89
330
88
100
AcDbEntity
  8
0
100
AcDbBlockBegin
  2
_OPEN30
 70
     0
 10
0.0
 20
0.0
 30
0.0
  3
_OPEN30
  1

  0
LINE
  5
8B
330
88
100
AcDbEntity
  8
0
  6
ByBlock
 62
     0
100
AcDbLine
 10
-1.0
 20
0.267949
 30
0.0
 11
0.0
 21
0.0
 31
0.0
  0
LINE
  5
8C
330
88
100
AcDbEntity
  8
0
  6
ByBlock
 62
     0
100
AcDbLine
 10
0.0
 20
0.0
 30
0.0
 11
-1.0
 21
-0.267949
 31
0.0
  0
LINE
  5
8D
330
88
100
AcDbEntity
  8
0
  6
ByBlock
 62
     0
100
AcDbLine
 10
0.0
 20
0.0
 30
0.0
 11
-1.0
 21
0.0
 31
0.0
  0
ENDBLK
  5
8A
330
88
100
AcDbEntity
  8
0
100
AcDbBlockEnd
  0
BLOCK
  5
A1
330
97
100
AcDbEntity
  8
0
100
AcDbBlockBegin
  2
*D2
 70
     1
 10
0.0
 20
0.0
 30
0.0
  3
*D2
  1

  0
INSERT
  5
A3
330
97
100
AcDbEntity
  8
0
  6
Continuous
 62
     7
100
AcDbBlockReference
  2
_OPEN30
 10
79.8909709925
 20
214.6169732996
 30
-7.999967139299999
 41
3.0
 42
3.0
 50
180.0
  0
INSERT
  5
A4
330
97
100
AcDbEntity
  8
0
  6
Continuous
 62
     7
100
AcDbBlockReference
  2
_OPEN30
 10
100.8909709925
 20
214.6169732996
 30
-7.999967139299999
 41
3.0
 42
3.0
  0
LINE
  5
A5
330
97
100
AcDbEntity
  8
0
  6
Continuous
 62
     7
100
AcDbLine
 10
79.8909709925
 20
193.805326857
 30
0.0
 11
79.8909709925
 21
215.6169732996
 31
0.0
  0
LINE
  5
A6
330
97
100
AcDbEntity
  8
0
  6
Continuous
 62
     7
100
AcDbLine
 10
100.8909709925
 20
188.0332488162
 30
0.0
 11
100.8909709925
 21
215.6169732996
 31
0.0
  0
LINE
  5
A7
330
97
100
AcDbEntity
  8
0
  6
Continuous
 62
     7
100
AcDbLine
 10
79.8909709925
 20
214.6169732996
 30
0.0
 11
100.8909709925
 21
214.6169732996
 31
0.0
  0
MTEXT
  5
A8
330
97
100
AcDbEntity
  8
0
  6
Continuous
 62
     7
100
AcDbMText
 10
89.44539410249999
 20
218.6897003395
 30
0.0
 40
3.5
 41
0.0
 71
     1
 72
     1
  1
21
  7
SLDTEXTSTYLE0
 73
     1
 44
1.0
1001
ACAD
1000
MTEXTBEGIN
1070
    73
1070
     1
1070
    44
1040
1.0
1070
    74
1070
     0
1000
MTEXTEND
  0
ENDBLK
  5
A2
330
97
100
AcDbEntity
  8
0
100
AcDbBlockEnd
  0
BLOCK
  5
B5
330
AA
100
AcDbEntity
  8
0
100
AcDbBlockBegin
  2
*D3
 70
     1
 10
0.0
 20
0.0
 30
0.0
  3
*D3
  1

  0
INSERT
  5
B8
330
AA
100
AcDbEntity
  8
0
  6
Continuous
 62
     7
100
AcDbBlockReference
  2
_OPEN30
 10
100.8909709925
 20
214.6169732996
 30
-7.999967139299999
 41
3.0
 42
3.0
  0
INSERT
  5
B9
330
AA
100
AcDbEntity
  8
0
  6
Continuous
 62
     7
100
AcDbBlockReference
  2
_OPEN30
 10
107.8909709925
 20
214.6169732996
 30
-7.999967139299999
 41
3.0
 42
3.0
 50
180.0
  0
LINE
  5
BA
330
AA
100
AcDbEntity
  8
0
  6
Continuous
 62
     7
100
AcDbLine
 10
100.8909709925
 20
188.0332488162
 30
0.0
 11
100.8909709925
 21
215.6169732996
 31
0.0
  0
LINE
  5
BB
330
AA
100
AcDbEntity
  8
0
  6
Continuous
 62
     7
100
AcDbLine
 10
107.8909709925
 20
186.0335208706
 30
0.0
 11
107.8909709925
 21
215.6169732996
 31
0.0
  0
LINE
  5
BC
330
AA
100
AcDbEntity
  8
0
  6
Continuous
 62
     7
100
AcDbLine
 10
100.8909709925
 20
214.6169732996
 30
0.0
 11
94.89097099250001
 21
214.6169732996
 31
0.0
  0
LINE
  5
BD
330
AA
100
AcDbEntity
  8
0
  6
Continuous
 62
     7
100
AcDbLine
 10
100.8909709925
 20
214.6169732996
 30
0.0
 11
107.8909709925
 21
214.6169732996
 31
0.0
  0
LINE
  5
BE
330
AA
100
AcDbEntity
  8
0
  6
Continuous
 62
     7
100
AcDbLine
 10
107.8909709925
 20
214.6169732996
 30
0.0
 11
113.8909709925
 21
214.6169732996
 31
0.0
  0
MTEXT
  5
BF
330
AA
100
AcDbEntity
  8
0
  6
Continuous
 62
     7
100
AcDbMText
 10
103.7302059763
 20
218.6897003395
 30
0.0
 40
3.5
 41
0.0
 71
     1
 72
     1
  1
7
  7
SLDTEXTSTYLE0
 73
     1
 44
1.0
1001
ACAD
1000
MTEXTBEGIN
1070
    73
1070
     1
1070
    44
1040
1.0
1070
    74
1070
     0
1000
MTEXTEND
  0
ENDBLK
  5
B6
330
AA
100
AcDbEntity
  8
0
100
AcDbBlockEnd
  0
BLOCK
  5
CE
330
C1
100
AcDbEntity
  8
0
100
AcDbBlockBegin
  2
*D4
 70
     1
 10
0.0
 20
0.0
 30
0.0
  3
*D4
  1

  0
INSERT
  5
D0
330
C1
100
AcDbEntity
  8
0
  6
Continuous
 62
     7
100
AcDbBlockReference
  2
_OPEN30
 10
78.8909709925
 20
157.2113870878
 30
-7.999967139299999
 41
3.0
 42
3.0
  0
INSERT
  5
D1
330
C1
100
AcDbEntity
  8
0
  6
Continuous
 62
     7
100
AcDbBlockReference
  2
_OPEN30
 10
80.8909709925
 20
157.2113870878
 30
-7.999967139299999
 41
3.0
 42
3.0
 50
180.0
  0
LINE
  5
D2
330
C1
100
AcDbEntity
  8
0
  6
Continuous
 62
     7
100
AcDbLine
 10
78.8909709925
 20
167.7835100427
 30
0.0
 11
78.8909709925
 21
156.2113870878
 31
0.0
  0
LINE
  5
D3
330
C1
100
AcDbEntity
  8
0
  6
Continuous
 62
     7
100
AcDbLine
 10
80.8909709925
 20
167.7835100427
 30
0.0
 11
80.8909709925
 21
156.2113870878
 31
0.0
  0
LINE
  5
D4
330
C1
100
AcDbEntity
  8
0
  6
Continuous
 62
     7
100
AcDbLine
 10
78.8909709925
 20
157.2113870878
 30
0.0
 11
72.8909709925
 21
157.2113870878
 31
0.0
  0
LINE
  5
D5
330
C1
100
AcDbEntity
  8
0
  6
Continuous
 62
     7
100
AcDbLine
 10
78.8909709925
 20
157.2113870878
 30
0.0
 11
80.8909709925
 21
157.2113870878
 31
0.0
  0
LINE
  5
D6
330
C1
100
AcDbEntity
  8
0
  6
Continuous
 62
     7
100
AcDbLine
 10
80.8909709925
 20
157.2113870878
 30
0.0
 11
98.65096919309999
 21
157.2113870878
 31
0.0
  0
MTEXT
  5
D7
330
C1
100
AcDbEntity
  8
0
  6
Continuous
 62
     7
100
AcDbMText
 10
95.02744271919999
 20
161.2841141277
 30
0.0
 40
3.5
 41
0.0
 71
     1
 72
     1
  1
2
  7
SLDTEXTSTYLE0
 73
     1
 44
1.0
1001
ACAD
1000
MTEXTBEGIN
1070
    73
1070
     1
1070
    44
1040
1.0
1070
    74
1070
     0
1000
MTEXTEND
  0
ENDBLK
  5
CF
330
C1
100
AcDbEntity
  8
0
100
AcDbBlockEnd
  0
BLOCK
  5
E4
330
D9
100
AcDbEntity
  8
0
100
AcDbBlockBegin
  2
*D5
 70
     1
 10
0.0
 20
0.0
 30
0.0
  3
*D5
  1

  0
INSERT
  5
E6
330
D9
100
AcDbEntity
  8
0
  6
Continuous
 62
     7
100
AcDbBlockReference
  2
_OPEN30
 10
32.5306679302
 20
200.5833201072
 30
-7.999967139299999
 41
3.0
 42
3.0
 50
90.0
  0
INSERT
  5
E7
330
D9
100
AcDbEntity
  8
0
  6
Continuous
 62
     7
100
AcDbBlockReference
  2
_OPEN30
 10
32.5306679302
 20
152.8841468872
 30
-7.999967139299999
 41
3.0
 42
3.0
 50
270.0
  0
LINE
  5
E8
330
D9
100
AcDbEntity
  8
0
  6
Continuous
 62
     7
100
AcDbLine
 10
47.8909709925
 20
200.5833201072
 30
0.0
 11
31.5306679302
 21
200.5833201072
 31
0.0
  0
LINE
  5
E9
330
D9
100
AcDbEntity
  8
0
  6
Continuous
 62
     7
100
AcDbLine
 10
47.8909709925
 20
152.8841468872
 30
0.0
 11
31.5306679302
 21
152.8841468872
 31
0.0
  0
LINE
  5
EA
330
D9
100
AcDbEntity
  8
0
  6
Continuous
 62
     7
100
AcDbLine
 10
32.5306679302
 20
200.5833201072
 30
0.0
 11
32.5306679302
 21
152.8841468872
 31
0.0
  0
MTEXT
  5
EB
330
D9
100
AcDbEntity
  8
0
  6
Continuous
 62
     7
100
AcDbMText
 10
28.4579408903
 20
173.5275370191
 30
0.0
 40
3.5
 41
0.0
 71
     1
 72
     1
  1
48
  7
SLDTEXTSTYLE0
 11
-0.0000000000000177
 21
1.0
 31
0.0
 73
     1
 44
1.0
1001
ACAD
1000
MTEXTBEGIN
1070
    73
1070
     1
1070
    44
1040
1.0
1070
    74
1070
     0
1000
MTEXTEND
  0
ENDBLK
  5
E5
330
D9
100
AcDbEntity
  8
0
100
AcDbBlockEnd
  0
BLOCK
  5
F7
330
ED
100
AcDbEntity
  8
0
100
AcDbBlockBegin
  2
*D6
 70
     1
 10
0.0
 20
0.0
 30
0.0
  3
*D6
  1

  0
ARC
  5
F9
330
ED
100
AcDbEntity
  8
0
  6
Continuous
 62
     7
100
AcDbCircle
 10
68.49429873680001
 20
216.6529997735
 30
0.0
 40
4.552693599622559
100
AcDbArc
 50
153.4349488229
 51
206.5650511771
  0
ARC
  5
FA
330
ED
100
AcDbEntity
  8
0
  6
Continuous
 62
     7
100
AcDbCircle
 10
67.597245789
 20
216.6529997735
 30
0.0
 40
4.552693599622559
100
AcDbArc
 50
333.4349488229
 51
26.5650511771
  0
INSERT
  5
FB
330
ED
100
AcDbEntity
  8
0
  6
Continuous
 62
     7
100
AcDbBlockReference
  2
_OPEN30
 10
46.8909709925
 20
214.6169732996
 30
-7.999967139299999
 41
3.0
 42
3.0
 50
180.0
  0
INSERT
  5
FC
330
ED
100
AcDbEntity
  8
0
  6
Continuous
 62
     7
100
AcDbBlockReference
  2
_OPEN30
 10
79.8909709925
 20
214.6169732996
 30
-7.999967139299999
 41
3.0
 42
3.0
  0
LINE
  5
FD
330
ED
100
AcDbEntity
  8
0
  6
Continuous
 62
     7
100
AcDbLine
 10
46.8909709925
 20
200.1781112724
 30
0.0
 11
46.8909709925
 21
215.6169732996
 31
0.0
  0
LINE
  5
FE
330
ED
100
AcDbEntity
  8
0
  6
Continuous
 62
     7
100
AcDbLine
 10
79.8909709925
 20
193.805326857
 30
0.0
 11
79.8909709925
 21
215.6169732996
 31
0.0
  0
LINE
  5
FF
330
ED
100
AcDbEntity
  8
0
  6
Continuous
 62
     7
100
AcDbLine
 10
46.8909709925
 20
214.6169732996
 30
0.0
 11
79.8909709925
 21
214.6169732996
 31
0.0
  0
MTEXT
  5
100
330
ED
100
AcDbEntity
  8
0
  6
Continuous
 62
     7
100
AcDbMText
 10
66.00974578899999
 20
218.6897003395
 30
0.0
 40
3.5
 41
0.0
 71
     1
 72
     1
  1
33
  7
SLDTEXTSTYLE0
 73
     1
 44
1.0
1001
ACAD
1000
MTEXTBEGIN
1070
    73
1070
     1
1070
    44
1040
1.0
1070
    74
1070
     0
1000
MTEXTEND
  0
ENDBLK
  5
F8
330
ED
100
AcDbEntity
  8
0
100
AcDbBlockEnd
  0
BLOCK
  5
10C
330
102
100
AcDbEntity
  8
0
100
AcDbBlockBegin
  2
*D7
 70
     1
 10
0.0
 20
0.0
 30
0.0
  3
*D7
  1

  0
INSERT
  5
10E
330
102
100
AcDbEntity
  8
0
  6
Continuous
 62
     7
100
AcDbBlockReference
  2
_OPEN30
 10
46.8909709925
 20
225.386346588
 30
-7.999967139299999
 41
3.0
 42
3.0
 50
180.0
  0
INSERT
  5
10F
330
102
100
AcDbEntity
  8
0
  6
Continuous
 62
     7
100
AcDbBlockReference
  2
_OPEN30
 10
107.8909709925
 20
225.386346588
 30
-7.999967139299999
 41
3.0
 42
3.0
  0
LINE
  5
110
330
102
100
AcDbEntity
  8
0
  6
Continuous
 62
     7
100
AcDbLine
 10
46.8909709925
 20
200.1781112724
 30
0.0
 11
46.8909709925
 21
226.386346588
 31
0.0
  0
LINE
  5
111
330
102
100
AcDbEntity
  8
0
  6
Continuous
 62
     7
100
AcDbLine
 10
107.8909709925
 20
186.0335208706
 30
0.0
 11
107.8909709925
 21
226.386346588
 31
0.0
  0
LINE
  5
112
330
102
100
AcDbEntity
  8
0
  6
Continuous
 62
     7
100
AcDbLine
 10
46.8909709925
 20
225.386346588
 30
0.0
 11
107.8909709925
 21
225.386346588
 31
0.0
  0
MTEXT
  5
113
330
102
100
AcDbEntity
  8
0
  6
Continuous
 62
     7
100
AcDbMText
 10
81.85261707020002
 20
229.4590736279
 30
0.0
 40
3.5
 41
0.0
 71
     1
 72
     1
  1
61
  7
SLDTEXTSTYLE0
 73
     1
 44
1.0
1001
ACAD
1000
MTEXTBEGIN
1070
    73
1070
     1
1070
    44
1040
1.0
1070
    74
1070
     0
1000
MTEXTEND
  0
ENDBLK
  5
10D
330
102
100
AcDbEntity
  8
0
100
AcDbBlockEnd
  0
BLOCK
  5
11D
330
115
100
AcDbEntity
  8
0
100
AcDbBlockBegin
  2
*D8
 70
     1
 10
0.0
 20
0.0
 30
0.0
  3
*D8
  1

  0
SOLID
  5
121
330
115
100
AcDbEntity
  8
0
  6
Continuous
 62
     7
100
AcDbTrace
 10
83.0078010337
 20
195.8885252181
 30
0.0
 11
85.20708426469999
 21
198.0623819913
 31
0.0
 12
83.9253536384
 22
198.8415909502
 32
0.0
 13
83.9253536384
 23
198.8415909502
 33
0.0
  0
LINE
  5
122
330
115
100
AcDbEntity
  8
0
  6
Continuous
 62
     7
100
AcDbLine
 10
83.0078010337
 20
195.8885252181
 30
0.0
 11
87.3967830157
 21
203.108016935
 31
0.0
  0
LINE
  5
123
330
115
100
AcDbEntity
  8
0
  6
Continuous
 62
     7
100
AcDbLine
 10
87.3967830157
 20
203.108016935
 30
0.0
 11
100.1001089305
 21
203.108016935
 31
0.0
  0
MTEXT
  5
124
330
115
100
AcDbEntity
  8
0
  6
Continuous
 62
     7
100
AcDbMText
 10
90.57178301569999
 20
207.1807439749
 30
0.0
 40
3.5
 41
0.0
 71
     1
 72
     1
  1
%%c
  7
SLDTEXTSTYLE0
 73
     1
 44
1.0
1001
ACAD
1000
MTEXTBEGIN
1070
    73
1070
     1
1070
    44
1040
1.0
1070
    74
1070
     0
1000
MTEXTEND
  0
MTEXT
  5
125
330
115
100
AcDbEntity
  8
0
  6
Continuous
 62
     7
100
AcDbMText
 10
94.4417135307
 20
207.1807439749
 30
0.0
 40
3.5
 41
0.0
 71
     1
 72
     1
  1
12
  7
SLDTEXTSTYLE0
 73
     1
 44
1.0
1001
ACAD
1000
MTEXTBEGIN
1070
    73
1070
     1
1070
    44
1040
1.0
1070
    74
1070
     0
1000
MTEXTEND
  0
ENDBLK
  5
11E
330
115
100
AcDbEntity
  8
0
100
AcDbBlockEnd
  0
BLOCK
  5
127
330
126
100
AcDbEntity
  8
0
100
AcDbBlockBegin
  2
SW_NOTE_0
 70
     0
 10
0.0
 20
0.0
 30
0.0
  3
SW_NOTE_0
  1

  0
MTEXT
  5
129
330
126
100
AcDbEntity
  8
0
  6
Continuous
 62
     7
100
AcDbMText
 10
-5.9039759994
 20
4.073920370899999
 30
7.444068409999999
 40
3.5
 41
0.0
 71
     1
 72
     1
  1
%%c
  7
SLDTEXTSTYLE0
 73
     1
 44
1.0
1001
ACAD
1000
MTEXTBEGIN
1070
    73
1070
     1
1070
    44
1040
1.0
1070
    74
1070
     0
1000
MTEXTEND
  0
MTEXT
  5
12A
330
126
100
AcDbEntity
  8
0
  6
Continuous
 62
     7
100
AcDbMText
 10
-2.034045484299999
 20
4.073920370899999
 30
7.444068409999999
 40
3.5
 41
0.0
 71
     1
 72
     1
  1
8
  7
SLDTEXTSTYLE0
 73
     1
 44
1.0
1001
ACAD
1000
MTEXTBEGIN
1070
    73
1070
     1
1070
    44
1040
1.0
1070
    74
1070
     0
1000
MTEXTEND
  0
ENDBLK
  5
128
330
126
100
AcDbEntity
  8
0
100
AcDbBlockEnd
  0
BLOCK
  5
152
330
147
100
AcDbEntity
  8
0
100
AcDbBlockBegin
  2
*D10
 70
     1
 10
0.0
 20
0.0
 30
0.0
  3
*D10
  1

  0
INSERT
  5
154
330
147
100
AcDbEntity
  8
0
  6
Continuous
 62
     7
100
AcDbBlockReference
  2
_OPEN30
 10
144.9137119899
 20
210.4316589316
 30
1.390501039099999
 41
3.0
 42
3.0
 50
0.1565416207
  0
INSERT
  5
155
330
147
100
AcDbEntity
  8
0
  6
Continuous
 62
     7
100
AcDbBlockReference
  2
_OPEN30
 10
160.9136522721
 20
210.4753735444
 30
1.390501039099999
 41
3.0
 42
3.0
 50
180.1565416206999
  0
LINE
  5
156
330
147
100
AcDbEntity
  8
0
  6
Continuous
 62
     7
100
AcDbLine
 10
144.9428645004999
 20
199.7615786529
 30
0.0
 11
144.9109798266
 21
211.4316551993
 31
0.0
  0
LINE
  5
157
330
147
100
AcDbEntity
  8
0
  6
Continuous
 62
     7
100
AcDbLine
 10
160.9428047826
 20
199.8052932657
 30
0.0
 11
160.9109201088
 21
211.475369812
 31
0.0
  0
LINE
  5
158
330
147
100
AcDbEntity
  8
0
  6
Continuous
 62
     7
100
AcDbLine
 10
144.9137119899
 20
210.4316589316
 30
0.0
 11
138.9137343841
 21
210.4152659518
 31
0.0
  0
LINE
  5
159
330
147
100
AcDbEntity
  8
0
  6
Continuous
 62
     7
100
AcDbLine
 10
144.9137119899
 20
210.4316589316
 30
0.0
 11
160.9136522721
 21
210.4753735444
 31
0.0
  0
LINE
  5
15A
330
147
100
AcDbEntity
  8
0
  6
Continuous
 62
     7
100
AcDbLine
 10
160.9136522721
 20
210.4753735444
 30
0.0
 11
166.9136298779
 21
210.4917665242
 31
0.0
  0
MTEXT
  5
15B
330
147
100
AcDbEntity
  8
0
  6
Continuous
 62
     7
100
AcDbMText
 10
150.8535738982
 20
214.5206299058
 30
0.0
 40
3.5
 41
0.0
 71
     1
 72
     1
  1
16
  7
SLDTEXTSTYLE0
 11
0.9999962676348895
 21
0.0027321632986278
 31
0.0
 73
     1
 44
1.0
1001
ACAD
1000
MTEXTBEGIN
1070
    73
1070
     1
1070
    44
1040
1.0
1070
    74
1070
     0
1000
MTEXTEND
  0
ENDBLK
  5
153
330
147
100
AcDbEntity
  8
0
100
AcDbBlockEnd
  0
BLOCK
  5
167
330
15D
100
AcDbEntity
  8
0
100
AcDbBlockBegin
  2
*D11
 70
     1
 10
0.0
 20
0.0
 30
0.0
  3
*D11
  1

  0
INSERT
  5
169
330
15D
100
AcDbEntity
  8
0
  6
Continuous
 62
     7
100
AcDbBlockReference
  2
_OPEN30
 10
164.1946712622
 20
139.0555889211
 30
1.390501039099999
 41
3.0
 42
3.0
 50
180.0
  0
INSERT
  5
16A
330
15D
100
AcDbEntity
  8
0
  6
Continuous
 62
     7
100
AcDbBlockReference
  2
_OPEN30
 10
141.8153474163
 20
139.0555889211
 30
1.390501039099999
 41
3.0
 42
3.0
  0
LINE
  5
16B
330
15D
100
AcDbEntity
  8
0
  6
Continuous
 62
     7
100
AcDbLine
 10
164.1946712622
 20
175.8650069175999
 30
0.0
 11
164.1946712622
 21
138.0555889211
 31
0.0
  0
LINE
  5
16C
330
15D
100
AcDbEntity
  8
0
  6
Continuous
 62
     7
100
AcDbLine
 10
141.8153474163
 20
176.197251242
 30
0.0
 11
141.8153474163
 21
138.0555889211
 31
0.0
  0
LINE
  5
16D
330
15D
100
AcDbEntity
  8
0
  6
Continuous
 62
     7
100
AcDbLine
 10
164.1946712622
 20
139.0555889211
 30
0.0
 11
170.1946712622
 21
139.0555889211
 31
0.0
  0
LINE
  5
16E
330
15D
100
AcDbEntity
  8
0
  6
Continuous
 62
     7
100
AcDbLine
 10
164.1946712622
 20
139.0555889211
 30
0.0
 11
141.8153474163
 21
139.0555889211
 31
0.0
  0
LINE
  5
16F
330
15D
100
AcDbEntity
  8
0
  6
Continuous
 62
     7
100
AcDbLine
 10
141.8153474163
 20
139.0555889211
 30
0.0
 11
135.8153474163
 21
139.0555889211
 31
0.0
  0
MTEXT
  5
170
330
15D
100
AcDbEntity
  8
0
  6
Continuous
 62
     7
100
AcDbMText
 10
150.2868814563
 20
143.128315961
 30
0.0
 40
3.5
 41
0.0
 71
     1
 72
     1
  1
22.4
  7
SLDTEXTSTYLE0
 73
     1
 44
1.0
1001
ACAD
1000
MTEXTBEGIN
1070
    73
1070
     1
1070
    44
1040
1.0
1070
    74
1070
     0
1000
MTEXTEND
  0
ENDBLK
  5
168
330
15D
100
AcDbEntity
  8
0
100
AcDbBlockEnd
  0
BLOCK
  5
1AC
330
1AB
100
AcDbEntity
  8
0
100
AcDbBlockBegin
  2
SW_NOTE_1
 70
     0
 10
0.0
 20
0.0
 30
0.0
  3
SW_NOTE_1
  1

  0
MTEXT
  5
1AE
330
1AB
100
AcDbEntity
  8
0
  6
Continuous
 62
     7
100
AcDbMText
 10
-5.904438629199999
 20
4.0747588068
 30
-0.2262238321
 40
3.5
 41
0.0
 71
     1
 72
     1
  1
%%c
  7
SLDTEXTSTYLE0
 73
     1
 44
1.0
1001
ACAD
1000
MTEXTBEGIN
1070
    73
1070
     1
1070
    44
1040
1.0
1070
    74
1070
     0
1000
MTEXTEND
  0
MTEXT
  5
1AF
330
1AB
100
AcDbEntity
  8
0
  6
Continuous
 62
     7
100
AcDbMText
 10
-2.034508114099999
 20
4.0747588068
 30
-0.2262238321
 40
3.5
 41
0.0
 71
     1
 72
     1
  1
6
  7
SLDTEXTSTYLE0
 73
     1
 44
1.0
1001
ACAD
1000
MTEXTBEGIN
1070
    73
1070
     1
1070
    44
1040
1.0
1070
    74
1070
     0
1000
MTEXTEND
  0
ENDBLK
  5
1AD
330
1AB
100
AcDbEntity
  8
0
100
AcDbBlockEnd
  0
ENDSEC
  0
SECTION
  2
ENTITIES
  0
LINE
  5
2F
330
1F
100
AcDbEntity
  8
0
  6
Continuous
 62
     7
100
AcDbLine
 10
20.2604743903
 20
285.0
 30
0.0
 11
196.7604743903
 21
285.0
 31
0.0
  0
LINE
  5
30
330
1F
100
AcDbEntity
  8
0
  6
Continuous
 62
     7
100
AcDbLine
 10
20.2604743903
 20
285.0
 30
0.0
 11
20.2604743903
 21
10.0
 31
0.0
  0
LINE
  5
31
330
1F
100
AcDbEntity
  8
0
  6
Continuous
 62
     7
100
AcDbLine
 10
20.2604743903
 20
10.0
 30
0.0
 11
196.7604743903
 21
10.0
 31
0.0
  0
LINE
  5
32
330
1F
100
AcDbEntity
  8
0
  6
Continuous
 62
     7
100
AcDbLine
 10
196.7604743903
 20
285.0
 30
0.0
 11
196.7604743903
 21
10.0
 31
0.0
  0
LINE
  5
33
330
1F
100
AcDbEntity
  8
0
  6
Continuous
 62
     7
100
AcDbLine
 10
127.0104743903
 20
50.75
 30
0.0
 11
196.7604743903
 21
50.75
 31
0.0
  0
LINE
  5
34
330
1F
100
AcDbEntity
  8
0
  6
Continuous
 62
     7
100
AcDbLine
 10
127.0104743903
 20
50.75
 30
0.0
 11
127.0104743903
 21
10.0
 31
0.0
  0
LINE
  5
35
330
1F
100
AcDbEntity
  8
0
  6
Continuous
 62
     7
100
AcDbLine
 10
127.0104743903
 20
22.75
 30
0.0
 11
196.7604743903
 21
22.75
 31
0.0
  0
LINE
  5
36
330
1F
100
AcDbEntity
  8
0
  6
Continuous
 62
     7
100
AcDbLine
 10
127.0104743903
 20
36.75
 30
0.0
 11
196.7604743903
 21
36.75
 31
0.0
  0
MTEXT
  5
38
330
1F
100
AcDbEntity
  8
0
  6
Continuous
 62
     7
100
AcDbMText
 10
145.8654407877
 20
29.8861652342
 30
0.0
 40
4.2333333333
 41
0.0
 71
     1
 72
     1
  1
TMA-CL (12*8)
  7
SLDTEXTSTYLE0
 73
     1
 44
1.0
1001
ACAD
1000
MTEXTBEGIN
1070
    73
1070
     1
1070
    44
1040
1.0
1070
    74
1070
     0
1000
MTEXTEND
  0
MTEXT
  5
39
330
1F
100
AcDbEntity
  8
0
  6
Continuous
 62
     7
100
AcDbMText
 10
135.892710334
 20
43.40997902569999
 30
0.0
 40
4.2333333333
 41
0.0
 71
     1
 72
     1
  1
クリップ・TAM・Φ12*Φ8
  7
SLDTEXTSTYLE0
 73
     1
 44
1.0
1001
ACAD
1000
MTEXTBEGIN
1070
    73
1070
     1
1070
    44
1040
1.0
1070
    74
1070
     0
1000
MTEXTEND
  0
MTEXT
  5
3A
330
1F
100
AcDbEntity
  8
0
  6
Continuous
 62
     7
100
AcDbMText
 10
155.4578136869
 20
16.2918260795
 30
0.0
 40
4.2333333333
 41
0.0
 71
     1
 72
     1
  1
196562
  7
SLDTEXTSTYLE0
 73
     1
 44
1.0
1001
ACAD
1000
MTEXTBEGIN
1070
    73
1070
     1
1070
    44
1040
1.0
1070
    74
1070
     0
1000
MTEXTEND
  0
LINE
  5
3B
330
1F
100
AcDbEntity
  8
0
  6
CENTERX2
 62
     7
100
AcDbLine
 10
69.5882570367
 20
191.0335208706
 30
0.0
 11
91.8400179716
 21
191.0335208706
 31
0.0
  0
LINE
  5
3C
330
1F
100
AcDbEntity
  8
0
  6
Continuous
 62
     7
100
AcDbLine
 10
60.8909709925
 20
169.5335208706
 30
0.0
 11
70.8909709925
 21
169.5335208706
 31
0.0
  0
LINE
  5
3D
330
1F
100
AcDbEntity
  8
0
  6
Continuous
 62
     7
100
AcDbLine
 10
70.8909709925
 20
184.5335208706
 30
0.0
 11
60.8909709925
 21
184.5335208706
 31
0.0
  0
ARC
  5
3E
330
1F
100
AcDbEntity
  8
0
  6
Continuous
 62
     7
100
AcDbCircle
 10
48.8909709925
 20
199.1781112724
 30
0.0
 40
2.000000000000006
100
AcDbArc
 50
90.0
 51
180.0
  0
LINE
  5
3F
330
1F
100
AcDbEntity
  8
0
  6
Continuous
 62
     7
100
AcDbLine
 10
60.8909709925
 20
201.1781112724
 30
0.0
 11
48.8909709925
 21
201.1781112724
 31
0.0
  0
ARC
  5
40
330
1F
100
AcDbEntity
  8
0
  6
Continuous
 62
     7
100
AcDbCircle
 10
48.8909709925
 20
154.8841468872
 30
0.0
 40
2.0
100
AcDbArc
 50
180.0
 51
270.0
  0
LINE
  5
41
330
1F
100
AcDbEntity
  8
0
  6
Continuous
 62
     7
100
AcDbLine
 10
48.8909709925
 20
152.8841468872
 30
0.0
 11
60.8909709925
 21
152.8841468872
 31
0.0
  0
LWPOLYLINE
  5
42
330
1F
100
AcDbEntity
  8
0
  6
Continuous
 62
     7
100
AcDbPolyline
 90
       13
 70
   128
 43
0.0
 10
80.25395526889999
 20
180.0335208706
 10
80.2048442335
 20
180.2515955879
 10
80.0916306422
 20
180.5861146696
 10
79.95918104739999
 20
180.8103826621
 10
79.8791625134
 20
180.8884752022
 10
79.75862205050001
 20
180.9566094542
 10
79.56298547109999
 20
180.9806454739
 10
79.3890665328
 20
180.9180626669
 10
79.26566851069999
 20
180.8068076765
 10
79.1976934854
 20
180.7014265971
 10
79.09520705760001
 20
180.4500760535
 10
78.99207151279999
 20
180.0819298421
 10
78.8909709925
 20
179.6089513379
  0
ARC
  5
43
330
1F
100
AcDbEntity
  8
0
  6
Continuous
 62
     7
100
AcDbCircle
 10
216.7477730826
 20
155.5500682223
 30
0.0
 40
139.1893357762685
100
AcDbArc
 50
169.7463119623
 51
172.0654767902
  0
ARC
  5
44
330
1F
100
AcDbEntity
  8
0
  6
Continuous
 62
     7
100
AcDbCircle
 10
81.7829441435
 20
174.0969370236
 30
0.0
 40
1.299320209693025
100
AcDbArc
 50
182.7975567645
 51
226.6469288093
  0
LINE
  5
45
330
1F
100
AcDbEntity
  8
0
  6
Continuous
 62
     7
100
AcDbLine
 10
70.8909709925
 20
169.0335208706
 30
0.0
 11
71.8909709925
 21
169.0335208706
 31
0.0
  0
LINE
  5
46
330
1F
100
AcDbEntity
  8
0
  6
Continuous
 62
     7
100
AcDbLine
 10
71.8909709925
 20
185.0335208706
 30
0.0
 11
70.8909709925
 21
185.0335208706
 31
0.0
  0
LINE
  5
47
330
1F
100
AcDbEntity
  8
0
  6
Continuous
 62
     7
100
AcDbLine
 10
80.8909709925
 20
180.0335208706
 30
0.0
 11
79.7022194676
 21
180.0335208706
 31
0.0
  0
LINE
  5
48
330
1F
100
AcDbEntity
  8
0
  6
Continuous
 62
     7
100
AcDbLine
 10
78.9817239554
 20
180.0335208706
 30
0.0
 11
78.8909709925
 21
180.0335208706
 31
0.0
  0
LINE
  5
49
330
1F
100
AcDbEntity
  8
0
  6
Continuous
 62
     7
100
AcDbLine
 10
78.8909709925
 20
174.0335208706
 30
0.0
 11
80.8909709925
 21
174.0335208706
 31
0.0
  0
LINE
  5
4A
330
1F
100
AcDbEntity
  8
0
  6
Continuous
 62
     7
100
AcDbLine
 10
97.89708835030001
 20
185.0335208706
 30
0.0
 11
90.8909709925
 21
185.0335208706
 31
0.0
  0
LINE
  5
4B
330
1F
100
AcDbEntity
  8
0
  6
Continuous
 62
     7
100
AcDbLine
 10
107.8909709925
 20
185.0335208706
 30
0.0
 11
103.8834872761
 21
185.0335208706
 31
0.0
  0
LINE
  5
4C
330
1F
100
AcDbEntity
  8
0
  6
Continuous
 62
     7
100
AcDbLine
 10
103.885688869
 20
169.0335208706
 30
0.0
 11
107.8909709925
 21
169.0335208706
 31
0.0
  0
LINE
  5
4D
330
1F
100
AcDbEntity
  8
0
  6
Continuous
 62
     7
100
AcDbLine
 10
90.8909709925
 20
169.0335208706
 30
0.0
 11
97.89403456329999
 21
169.0335208706
 31
0.0
  0
LINE
  5
4E
330
1F
100
AcDbEntity
  8
0
  6
Continuous
 62
     7
100
AcDbLine
 10
90.8909709925
 20
184.0335208706
 30
0.0
 11
89.89097099250001
 21
184.0335208706
 31
0.0
  0
LINE
  5
4F
330
1F
100
AcDbEntity
  8
0
  6
Continuous
 62
     7
100
AcDbLine
 10
89.89097099250001
 20
170.0335208706
 30
0.0
 11
90.8909709925
 21
170.0335208706
 31
0.0
  0
LINE
  5
50
330
1F
100
AcDbEntity
  8
0
  6
Continuous
 62
     7
100
AcDbLine
 10
89.89097099250001
 20
184.0335208706
 30
0.0
 11
87.8909709925
 21
183.2335208706
 31
0.0
  0
LINE
  5
51
330
1F
100
AcDbEntity
  8
0
  6
Continuous
 62
     7
100
AcDbLine
 10
87.8909709925
 20
170.8335208706
 30
0.0
 11
89.89097099250001
 21
170.0335208706
 31
0.0
  0
LINE
  5
52
330
1F
100
AcDbEntity
  8
0
  6
Continuous
 62
     7
100
AcDbLine
 10
71.8909709925
 20
168.7835100427
 30
0.0
 11
78.8909709925
 21
168.7835100427
 31
0.0
  0
LINE
  5
53
330
1F
100
AcDbEntity
  8
0
  6
Continuous
 62
     7
100
AcDbLine
 10
80.8909709925
 20
168.7835100427
 30
0.0
 11
87.8909709925
 21
168.7835100427
 31
0.0
  0
LINE
  5
54
330
1F
100
AcDbEntity
  8
0
  6
Continuous
 62
     7
100
AcDbLine
 10
46.8909709925
 20
154.8841468872
 30
0.0
 11
46.8909709925
 21
199.1781112724
 31
0.0
  0
LINE
  5
55
330
1F
100
AcDbEntity
  8
0
  6
Continuous
 62
     7
100
AcDbLine
 10
60.8909709925
 20
200.5833201072
 30
0.0
 11
60.8909709925
 21
153.4576980891
 31
0.0
  0
LINE
  5
56
330
1F
100
AcDbEntity
  8
0
  6
Continuous
 62
     7
100
AcDbLine
 10
60.8909709925
 20
201.1781112724
 30
0.0
 11
60.8909709925
 21
200.5833201072
 31
0.0
  0
LINE
  5
57
330
1F
100
AcDbEntity
  8
0
  6
Continuous
 62
     7
100
AcDbLine
 10
60.8909709925
 20
153.4576980891
 30
0.0
 11
60.8909709925
 21
152.8841468872
 31
0.0
  0
LINE
  5
58
330
1F
100
AcDbEntity
  8
0
  6
Continuous
 62
     7
100
AcDbLine
 10
70.8909709925
 20
185.0335208706
 30
0.0
 11
70.8909709925
 21
169.0335208706
 31
0.0
  0
ARC
  5
59
330
1F
100
AcDbEntity
  8
0
  6
Continuous
 62
     7
100
AcDbCircle
 10
100.8953894524
 20
176.9887477345
 30
0.0
 40
3.994638961967243
100
AcDbArc
 50
2.1999907985
 51
173.48004861
  0
LWPOLYLINE
  5
5A
330
1F
100
AcDbEntity
  8
0
  6
Continuous
 62
     7
100
AcDbPolyline
 90
        9
 70
   128
 43
0.0
 10
100.8909709925
 20
181.0086466979999
 10
100.4601639957
 20
180.9856368858
 10
100.029356999
 20
180.9157926555
 10
99.26975489709999
 20
180.6693095479
 10
98.60787586549999
 20
180.3017906086
 10
98.3069267648
 20
180.0741618961
 10
98.07440302559999
 20
179.8651434675
 10
97.9081805368
 20
179.6959224005
 10
97.914361689
 20
179.7054443841999
  0
ARC
  5
5B
330
1F
100
AcDbEntity
  8
0
  6
Continuous
 62
     7
100
AcDbCircle
 10
100.8697220496
 20
176.9102794471
 30
0.0
 40
4.098422335594081
100
AcDbArc
 50
42.79287771839999
 51
89.7029393008
  0
LINE
  5
5C
330
1F
100
AcDbEntity
  8
0
  6
Continuous
 62
     7
100
AcDbLine
 10
90.8909709925
 20
185.0335208706
 30
0.0
 11
90.8909709925
 21
169.0335208706
 31
0.0
  0
CIRCLE
  5
5D
330
1F
100
AcDbEntity
  8
0
  6
Continuous
 62
     7
100
AcDbCircle
 10
100.8919013834
 20
177.0994204519
 30
0.0
 40
4.000930391483332
  0
LINE
  5
5E
330
1F
100
AcDbEntity
  8
0
  6
Continuous
 62
     7
100
AcDbLine
 10
103.8909709925
 20
169.0337928652
 30
0.0
 11
103.885688869
 21
169.035219153
 31
0.0
  0
ARC
  5
5F
330
1F
100
AcDbEntity
  8
0
  6
Continuous
 62
     7
100
AcDbCircle
 10
100.8914338901
 20
161.0804901098999
 30
0.0
 40
8.496386934600771
100
AcDbArc
 50
69.60249631399999
 51
110.3545869268
  0
LWPOLYLINE
  5
60
330
1F
100
AcDbEntity
  8
0
  6
Continuous
 62
     7
100
AcDbPolyline
 90
       21
 70
   128
 43
0.0
 10
97.89403456329999
 20
169.0343909541
 10
97.89117780879999
 20
169.0335799426
 10
97.9271271033
 20
169.0511097473
 10
98.03490517090001
 20
169.0942167917
 10
98.2163766318
 20
169.1612480328
 10
98.46464401120002
 20
169.2453188646999
 10
98.78138504049999
 20
169.3409662864
 10
99.16538145959998
 20
169.4397097353
 10
99.6120902972
 20
169.5304960189
 10
100.0866407686
 20
169.5979188258
 10
100.6038211358
 20
169.6366422756
 10
101.08182348
 20
169.6398073329
 10
101.5686587693
 20
169.6107753264
 10
102.4308572546
 20
169.48062785
 10
102.8224783101
 20
169.3891130812
 10
103.1721639577
 20
169.2907376376
 10
103.4673795427
 20
169.1954816982
 10
103.6956568332
 20
169.1137458121
 10
103.8397093404
 20
169.0574274607
 10
103.8909709925
 20
169.0337928652
 10
103.8909709925
 20
169.0337928652
  0
ARC
  5
61
330
1F
100
AcDbEntity
  8
0
  6
Continuous
 62
     7
100
AcDbCircle
 10
100.8909906387
 20
193.200984267
 30
0.0
 40
8.70078589306529
100
AcDbArc
 50
249.8734013655
 51
290.1167405484
  0
LINE
  5
62
330
1F
100
AcDbEntity
  8
0
  6
Continuous
 62
     7
100
AcDbLine
 10
107.8909709925
 20
185.0335208706
 30
0.0
 11
107.8909709925
 21
169.0335208706
 31
0.0
  0
ARC
  5
63
330
1F
100
AcDbEntity
  8
0
  6
Continuous
 62
     7
100
AcDbCircle
 10
100.8909048268
 20
177.0854392229
 30
0.0
 40
3.999938045298241
100
AcDbArc
 50
0.0829895502
 51
179.9168616914
  0
LINE
  5
64
330
1F
100
AcDbEntity
  8
0
  6
Continuous
 62
     7
100
AcDbLine
 10
89.89097099250001
 20
184.0335208706
 30
0.0
 11
89.89097099250001
 21
170.0335208706
 31
0.0
  0
LINE
  5
65
330
1F
100
AcDbEntity
  8
0
  6
Continuous
 62
     7
100
AcDbLine
 10
78.8909709925
 20
184.8455545421
 30
0.0
 11
78.8909709925
 21
172.1444514639
 31
0.0
  0
LINE
  5
66
330
1F
100
AcDbEntity
  8
0
  6
Continuous
 62
     7
100
AcDbLine
 10
71.8909709925
 20
172.1444514639
 30
0.0
 11
78.8909709925
 21
172.1444514639
 31
0.0
  0
LINE
  5
67
330
1F
100
AcDbEntity
  8
0
  6
Continuous
 62
     7
100
AcDbLine
 10
71.8909709925
 20
194.8955495366
 30
0.0
 11
71.8909709925
 21
172.1444514639
 31
0.0
  0
ARC
  5
68
330
1F
100
AcDbEntity
  8
0
  6
Continuous
 62
     7
100
AcDbCircle
 10
79.8909709925
 20
188.5513496341
 30
0.0
 40
10.21023370952011
100
AcDbArc
 50
38.41529562170001
 51
141.5847043783
  0
LINE
  5
69
330
1F
100
AcDbEntity
  8
0
  6
Continuous
 62
     7
100
AcDbLine
 10
87.8909709925
 20
194.8955495366
 30
0.0
 11
87.8909709925
 21
172.1444514639
 31
0.0
  0
LINE
  5
6A
330
1F
100
AcDbEntity
  8
0
  6
Continuous
 62
     7
100
AcDbLine
 10
80.8909709925
 20
172.1444514639
 30
0.0
 11
87.8909709925
 21
172.1444514639
 31
0.0
  0
LINE
  5
6B
330
1F
100
AcDbEntity
  8
0
  6
Continuous
 62
     7
100
AcDbLine
 10
80.8909709925
 20
184.8455545421
 30
0.0
 11
80.8909709925
 21
172.1444514639
 31
0.0
  0
ARC
  5
6C
330
1F
100
AcDbEntity
  8
0
  6
Continuous
 62
     7
100
AcDbCircle
 10
79.8909709925
 20
190.7616260602999
 30
0.0
 40
5.999991850734396
100
AcDbArc
 50
279.5940813808
 51
260.4059186192
  0
ARC
  5
6D
330
1F
100
AcDbEntity
  8
0
  6
Continuous
 62
     7
100
AcDbCircle
 10
79.8909709925
 20
188.5950642469
 30
0.0
 40
10.21023370952011
100
AcDbArc
 50
38.41529562170001
 51
141.5847043783
  0
LINE
  5
6E
330
1F
100
AcDbEntity
  8
0
  6
Continuous
 62
     7
100
AcDbLine
 10
87.8909709925
 20
194.8955495366
 30
0.0
 11
87.8909709925
 21
194.9392641493999
 31
0.0
  0
LINE
  5
6F
330
1F
100
AcDbEntity
  8
0
  6
Continuous
 62
     7
100
AcDbLine
 10
71.8909709925
 20
194.9392641493999
 30
0.0
 11
71.8909709925
 21
194.8955495366
 31
0.0
  0
LINE
  5
70
330
1F
100
AcDbEntity
  8
0
  6
Continuous
 62
     7
100
AcDbLine
 10
78.8909709925
 20
184.8455545421
 30
0.0
 11
78.8909709925
 21
184.8892691549
 31
0.0
  0
LINE
  5
71
330
1F
100
AcDbEntity
  8
0
  6
Continuous
 62
     7
100
AcDbLine
 10
80.8909709925
 20
184.8892691549
 30
0.0
 11
80.8909709925
 21
184.8455545421
 31
0.0
  0
ARC
  5
72
330
1F
100
AcDbEntity
  8
0
  6
Continuous
 62
     7
100
AcDbCircle
 10
79.890987967
 20
190.8053345919
 30
0.0
 40
5.999983025481622
100
AcDbArc
 50
279.5939312314
 51
360.0
  0
ARC
  5
73
330
1F
100
AcDbEntity
  8
0
  6
Continuous
 62
     7
100
AcDbCircle
 10
79.890954666
 20
190.8053351395
 30
0.0
 40
5.999983673475488
100
AcDbArc
 50
180.0
 51
260.4060635388
  0
LINE
  5
74
330
1F
100
AcDbEntity
  8
0
  6
Continuous
 62
     7
100
AcDbLine
 10
78.8909709925
 20
172.1444514639
 30
0.0
 11
78.8909709925
 21
168.7835100427
 31
0.0
  0
LINE
  5
75
330
1F
100
AcDbEntity
  8
0
  6
Continuous
 62
     7
100
AcDbLine
 10
71.8909709925
 20
168.7835100427
 30
0.0
 11
71.8909709925
 21
172.1444514639
 31
0.0
  0
LINE
  5
76
330
1F
100
AcDbEntity
  8
0
  6
Continuous
 62
     7
100
AcDbLine
 10
80.8909709925
 20
168.7835100427
 30
0.0
 11
80.8909709925
 21
172.1444514639
 31
0.0
  0
LINE
  5
77
330
1F
100
AcDbEntity
  8
0
  6
Continuous
 62
     7
100
AcDbLine
 10
87.8909709925
 20
168.7835100427
 30
0.0
 11
87.8909709925
 21
172.1444514639
 31
0.0
  0
DIMENSION
  5
78
330
1F
100
AcDbEntity
  8
0
  6
Continuous
 62
     7
100
AcDbDimension
  2
*D0
 10
117.4266363287
 20
191.0335208706
 30
0.0
 11
117.4266363287
 21
185.9560504925
 31
0.0
 70
   160
 71
     5
 42
-1.0
  3
SLDDIMSTYLE0
100
AcDbAlignedDimension
 13
109.8909709925
 23
177.0335208706
 33
0.0
 14
91.8400179716
 24
191.0335208706
 34
0.0
 50
90.0
100
AcDbRotatedDimension
1001
ACAD
1000
DSTYLE
1002
{
1070
    77
1070
     3
1070
   143
1040
0.0393700787
1070
    41
1040
3.0
1070
    44
1040
1.0
1070
    42
1040
1.0
1070
   147
1040
1.524
1070
    73
1070
     0
1070
    74
1070
     0
1070
   140
1040
3.5
1070
   284
1070
    12
1070
    78
1070
    12
1002
}
  0
DIMENSION
  5
96
330
1F
100
AcDbEntity
  8
0
  6
Continuous
 62
     7
100
AcDbDimension
  2
*D2
 10
100.8909709925
 20
214.6169732996
 30
0.0
 11
91.48142057639999
 21
214.6169732996
 31
0.0
 70
   160
 71
     5
 42
-1.0
  3
SLDDIMSTYLE0
100
AcDbAlignedDimension
 13
79.8909709925
 23
192.805326857
 33
0.0
 14
100.8909709925
 24
187.0332488162
 34
0.0
100
AcDbRotatedDimension
1001
ACAD
1000
DSTYLE
1002
{
1070
    77
1070
     3
1070
   143
1040
0.0393700787
1070
    41
1040
3.0
1070
    44
1040
1.0
1070
    42
1040
1.0
1070
   147
1040
1.524
1070
    73
1070
     0
1070
    74
1070
     0
1070
   140
1040
3.5
1070
   284
1070
    12
1070
    78
1070
    12
1002
}
  0
DIMENSION
  5
A9
330
1F
100
AcDbEntity
  8
0
  6
Continuous
 62
     7
100
AcDbDimension
  2
*D3
 10
107.8909709925
 20
214.6169732996
 30
0.0
 11
104.7482192133
 21
214.6169732996
 31
0.0
 70
   160
 71
     5
 42
-1.0
  3
SLDDIMSTYLE0
100
AcDbAlignedDimension
 13
100.8909709925
 23
187.0332488162
 33
0.0
 14
107.8909709925
 24
185.0335208706
 34
0.0
100
AcDbRotatedDimension
1001
ACAD
1000
DSTYLE
1002
{
1070
    77
1070
     3
1070
   143
1040
0.0393700787
1070
    41
1040
3.0
1070
    44
1040
1.0
1070
    42
1040
1.0
1070
   147
1040
1.524
1070
    73
1070
     0
1070
    74
1070
     0
1070
   140
1040
3.5
1070
   284
1070
    12
1070
    78
1070
    12
1002
}
  0
DIMENSION
  5
C0
330
1F
100
AcDbEntity
  8
0
  6
Continuous
 62
     7
100
AcDbDimension
  2
*D4
 10
80.8909709925
 20
157.2113870878
 30
0.0
 11
96.04545595620001
 21
157.2113870878
 31
0.0
 70
   160
 71
     5
 42
-1.0
  3
SLDDIMSTYLE0
100
AcDbAlignedDimension
 13
78.8909709925
 23
168.7835100427
 33
0.0
 14
80.8909709925
 24
168.7835100427
 34
0.0
100
AcDbRotatedDimension
1001
ACAD
1000
DSTYLE
1002
{
1070
    77
1070
     3
1070
   143
1040
0.0393700787
1070
    41
1040
3.0
1070
    44
1040
1.0
1070
    42
1040
1.0
1070
   147
1040
1.524
1070
    73
1070
     0
1070
    74
1070
     0
1070
   140
1040
3.5
1070
   284
1070
    12
1070
    78
1070
    12
1002
}
  0
DIMENSION
  5
D8
330
1F
100
AcDbEntity
  8
0
  6
Continuous
 62
     7
100
AcDbDimension
  2
*D5
 10
32.5306679302
 20
152.8841468872
 30
0.0
 11
32.5306679302
 21
175.563563493
 31
0.0
 70
   160
 71
     5
 42
-1.0
  3
SLDDIMSTYLE0
100
AcDbAlignedDimension
 13
48.8909709925
 23
200.5833201072
 33
0.0
 14
48.8909709925
 24
152.8841468872
 34
0.0
 50
90.0
100
AcDbRotatedDimension
1001
ACAD
1000
DSTYLE
1002
{
1070
    77
1070
     3
1070
   143
1040
0.0393700787
1070
    41
1040
3.0
1070
    44
1040
1.0
1070
    42
1040
1.0
1070
   147
1040
1.524
1070
    73
1070
     0
1070
    74
1070
     0
1070
   140
1040
3.5
1070
   284
1070
    12
1070
    78
1070
    12
1002
}
  0
DIMENSION
  5
EC
330
1F
100
AcDbEntity
  8
0
  6
Continuous
 62
     7
100
AcDbDimension
  2
*D6
 10
79.8909709925
 20
214.6169732996
 30
0.0
 11
68.0457722629
 21
214.6169732996
 31
0.0
 70
   160
  1
(<>)
 71
     5
 42
-1.0
  3
SLDDIMSTYLE0
100
AcDbAlignedDimension
 13
46.8909709925
 23
199.1781112724
 33
0.0
 14
79.8909709925
 24
192.805326857
 34
0.0
100
AcDbRotatedDimension
1001
ACAD
1000
DSTYLE
1002
{
1070
    77
1070
     3
1070
   143
1040
0.0393700787
1070
    41
1040
3.0
1070
    44
1040
1.0
1070
    42
1040
1.0
1070
   147
1040
1.524
1070
    73
1070
     0
1070
    74
1070
     0
1070
   140
1040
3.5
1070
   284
1070
    12
1070
    78
1070
    12
1002
}
  0
DIMENSION
  5
101
330
1F
100
AcDbEntity
  8
0
  6
Continuous
 62
     7
100
AcDbDimension
  2
*D7
 10
107.8909709925
 20
225.386346588
 30
0.0
 11
83.88864354409999
 21
225.386346588
 31
0.0
 70
   160
 71
     5
 42
-1.0
  3
SLDDIMSTYLE0
100
AcDbAlignedDimension
 13
46.8909709925
 23
199.1781112724
 33
0.0
 14
107.8909709925
 24
185.0335208706
 34
0.0
100
AcDbRotatedDimension
1001
ACAD
1000
DSTYLE
1002
{
1070
    77
1070
     3
1070
   143
1040
0.0393700787
1070
    41
1040
3.0
1070
    44
1040
1.0
1070
    42
1040
1.0
1070
   147
1040
1.524
1070
    73
1070
     0
1070
    74
1070
     0
1070
   140
1040
3.5
1070
   284
1070
    12
1070
    78
1070
    12
1002
}
  0
DIMENSION
  5
114
330
1F
100
AcDbEntity
  8
0
  6
Continuous
 62
     7
100
AcDbDimension
  2
*D8
 10
79.8909709925
 20
190.7616122442
 30
0.0
 11
94.54219597309998
 21
205.3570033888
 31
0.0
 70
   164
  1
%%c12
 71
     5
 42
-1.0
  3
SLDDIMSTYLE1
100
AcDbRadialDimension
 15
83.0078010337
 25
195.8885252181
 35
0.0
 40
0.0
1001
ACAD
1000
DSTYLE
1002
{
1070
    77
1070
     0
1070
   143
1040
0.0393700787
1070
    41
1040
3.0
1070
    44
1040
1.0
1070
    42
1040
1.0
1070
   147
1040
1.524
1070
    73
1070
     1
1070
    74
1070
     1
1070
   140
1040
3.5
1070
   284
1070
    12
1070
    78
1070
    12
1002
}
  0
INSERT
  5
12B
102
{ACAD_REACTORS
330
12D
102
}
330
1F
100
AcDbEntity
  8
0
  6
Continuous
 62
     7
100
AcDbBlockReference
  2
SW_NOTE_0
 10
120.3347713366
 20
161.3903664561
 30
0.0
  0
LEADER
  5
12D
330
1F
100
AcDbEntity
  8
0
  6
Continuous
 62
     7
100
AcDbLeader
  3
SLDDIMSTYLE2
 73
     2
 76
     3
 10
103.5462964591
 20
174.1032760448
 30
0.0
 10
113.9299718957
 20
161.3903664561
 30
0.0
 10
120.3347713366
 20
161.3903664561
 30
0.0
340
12B
1001
ACAD
1000
DSTYLE
1002
{
1070
     6
1000

1002
}
  0
LINE
  5
12E
330
1F
100
AcDbEntity
  8
0
  6
CENTERX2
 62
     7
100
AcDbLine
 10
91.8909709925
 20
177.0335208706
 30
0.0
 11
109.8909709925
 21
177.0335208706
 31
0.0
  0
LINE
  5
12F
330
1F
100
AcDbEntity
  8
0
  6
CENTERX2
 62
     7
100
AcDbLine
 10
44.0045660407
 20
177.0335208706
 30
0.0
 11
91.8909709925
 21
177.0335208706
 31
0.0
  0
LINE
  5
130
330
1F
100
AcDbEntity
  8
0
  6
CENTERX2
 62
     7
100
AcDbLine
 10
100.8909709925
 20
167.0337929251
 30
0.0
 11
100.8909709925
 21
187.0332488162
 31
0.0
  0
LINE
  5
131
330
1F
100
AcDbEntity
  8
0
  6
CENTERX2
 62
     7
100
AcDbLine
 10
69.8909709925
 20
179.9345987976
 30
0.0
 11
89.89097099250001
 21
179.9345987976
 31
0.0
  0
LINE
  5
132
330
1F
100
AcDbEntity
  8
0
  6
CENTERX2
 62
     7
100
AcDbLine
 10
79.8909709925
 20
192.805326857
 30
0.0
 11
79.8909709925
 21
186.5514088902
 31
0.0
  0
LINE
  5
133
330
1F
100
AcDbEntity
  8
0
  6
Continuous
 62
     7
100
AcDbLine
 10
160.9455369459
 20
198.8052969981
 30
0.0
 11
144.9455966638
 21
198.7615823853
 31
0.0
  0
ARC
  5
134
330
1F
100
AcDbEntity
  8
0
  6
Continuous
 62
     7
100
AcDbCircle
 10
153.1715210621
 20
154.8841468872
 30
0.0
 40
2.000000000000044
100
AcDbArc
 50
225.4978705754
 51
315.3636679507
  0
ARC
  5
135
330
1F
100
AcDbEntity
  8
0
  6
Continuous
 62
     7
100
AcDbCircle
 10
175.1001778075
 20
177.197251242
 30
0.0
 40
33.28483039120795
100
AcDbArc
 50
135.3636679507
 51
139.5888894632
  0
ARC
  5
136
330
1F
100
AcDbEntity
  8
0
  6
Continuous
 62
     7
100
AcDbCircle
 10
175.1001778075
 20
177.197251242
 30
0.0
 40
33.28483039120793
100
AcDbArc
 50
154.8699056301
 51
225.4978705754
  0
ARC
  5
137
330
1F
100
AcDbEntity
  8
0
  6
Continuous
 62
     7
100
AcDbCircle
 10
152.8384976164
 20
199.1781112724
 30
0.0
 40
1.999999999999985
100
AcDbArc
 50
45.4978705754
 51
135.3636679507
  0
ARC
  5
138
330
1F
100
AcDbEntity
  8
0
  6
Continuous
 62
     7
100
AcDbCircle
 10
130.909840871
 20
176.8650069175999
 30
0.0
 40
33.28483039120795
100
AcDbArc
 50
315.3636679507
 51
25.4432698792
  0
ARC
  5
139
330
1F
100
AcDbEntity
  8
0
  6
Continuous
 62
     7
100
AcDbCircle
 10
130.909840871
 20
176.8650069175999
 30
0.0
 40
33.28483039120793
100
AcDbArc
 50
41.20521524579999
 51
45.4978705754
  0
ARC
  5
13A
330
1F
100
AcDbEntity
  8
0
  6
Continuous
 62
     7
100
AcDbCircle
 10
175.1001778075
 20
177.197251242
 30
0.0
 40
30.28483039120795
100
AcDbArc
 50
173.7473566317
 51
186.5657266098
  0
ARC
  5
13B
330
1F
100
AcDbEntity
  8
0
  6
Continuous
 62
     7
100
AcDbCircle
 10
175.1001778075
 20
177.197251242
 30
0.0
 40
30.28483039120793
100
AcDbArc
 50
190.1130321122
 51
223.5779515378
  0
ARC
  5
13C
330
1F
100
AcDbEntity
  8
0
  6
Continuous
 62
     7
100
AcDbCircle
 10
130.909840871
 20
176.8650069175999
 30
0.0
 40
30.28483039120795
100
AcDbArc
 50
317.2835869883
 51
350.6866787534999
  0
ARC
  5
13D
330
1F
100
AcDbEntity
  8
0
  6
Continuous
 62
     7
100
AcDbCircle
 10
130.909840871
 20
176.8650069175999
 30
0.0
 40
30.28483039120795
100
AcDbArc
 50
353.746968604
 51
6.5661146375
  0
CIRCLE
  5
13E
330
1F
100
AcDbEntity
  8
0
  6
Continuous
 62
     7
100
AcDbCircle
 10
153.0049913566
 20
177.0335208706
 30
0.0
 40
8.000000000000012
  0
CIRCLE
  5
13F
330
1F
100
AcDbEntity
  8
0
  6
Continuous
 62
     7
100
AcDbCircle
 10
153.0049913566
 20
177.0335208706
 30
0.0
 40
7.000000000000007
  0
LINE
  5
140
330
1F
100
AcDbEntity
  8
0
  6
Continuous
 62
     7
100
AcDbLine
 10
144.9561593363
 20
194.8955495366
 30
0.0
 11
145.0183192834
 21
172.1444514639
 31
0.0
  0
LINE
  5
141
330
1F
100
AcDbEntity
  8
0
  6
Continuous
 62
     7
100
AcDbLine
 10
144.9561593363
 20
194.8955495366
 30
0.0
 11
160.9560996184
 21
194.9392641493999
 31
0.0
  0
LINE
  5
142
330
1F
100
AcDbEntity
  8
0
  6
Continuous
 62
     7
100
AcDbLine
 10
161.0182595656
 20
172.1881660767
 30
0.0
 11
160.9560996184
 21
194.9392641493999
 31
0.0
  0
ARC
  5
143
330
1F
100
AcDbEntity
  8
0
  6
Continuous
 62
     7
100
AcDbCircle
 10
152.9970651084
 20
179.9345987976
 30
0.0
 40
11.15108875486256
100
AcDbArc
 50
224.3147659594
 51
315.9983172821
  0
LINE
  5
144
330
1F
100
AcDbEntity
  8
0
  6
Continuous
 62
     7
100
AcDbLine
 10
144.9561593363
 20
194.8955495366
 30
0.0
 11
144.9455966638
 21
198.7615823853
 31
0.0
  0
LINE
  5
145
330
1F
100
AcDbEntity
  8
0
  6
Continuous
 62
     7
100
AcDbLine
 10
160.9455369459
 20
198.8052969981
 30
0.0
 11
160.9560996184
 21
194.9392641493999
 31
0.0
  0
DIMENSION
  5
146
330
1F
100
AcDbEntity
  8
0
  6
Continuous
 62
     7
100
AcDbDimension
  2
*D10
 10
160.9136522721
 20
210.4753735444
 30
0.0
 11
152.9007201283
 21
210.4534808236
 31
0.0
 70
   160
 71
     5
 42
-1.0
  3
SLDDIMSTYLE0
100
AcDbAlignedDimension
 13
144.9455966638
 23
198.7615823853
 33
0.0
 14
160.9455369459
 24
198.8052969981
 34
0.0
 50
0.1565416207
100
AcDbRotatedDimension
1001
ACAD
1000
DSTYLE
1002
{
1070
    77
1070
     3
1070
   143
1040
0.0393700787
1070
    41
1040
3.0
1070
    44
1040
1.0
1070
    42
1040
1.0
1070
   147
1040
1.524
1070
    73
1070
     0
1070
    74
1070
     0
1070
   140
1040
3.5
1070
   284
1070
    12
1070
    78
1070
    12
1002
}
  0
DIMENSION
  5
15C
330
1F
100
AcDbEntity
  8
0
  6
Continuous
 62
     7
100
AcDbDimension
  2
*D11
 10
141.8153474163
 20
139.0555889211
 30
0.0
 11
154.3589344041
 21
139.0555889211
 31
0.0
 70
   160
 71
     5
 42
-1.0
  3
SLDDIMSTYLE0
100
AcDbAlignedDimension
 13
164.1946712622
 23
176.8650069175999
 33
0.0
 14
141.8153474163
 24
177.197251242
 34
0.0
100
AcDbRotatedDimension
1001
ACAD
1000
DSTYLE
1002
{
1070
    77
1070
     3
1070
   143
1040
0.0393700787
1070
    41
1040
3.0
1070
    44
1040
1.0
1070
    42
1040
1.0
1070
   147
1040
1.524
1070
    73
1070
     0
1070
    74
1070
     0
1070
   140
1040
3.5
1070
   284
1070
    12
1070
    78
1070
    12
1002
}
  0
LINE
  5
171
330
1F
100
AcDbEntity
  8
0
  6
CENTERX2
 62
     7
100
AcDbLine
 10
137.0191340497
 20
177.1653456664
 30
0.0
 11
168.8623901007
 21
176.9027553876
 31
0.0
  0
LINE
  5
172
330
1F
100
AcDbEntity
  8
0
  6
CENTERX2
 62
     7
100
AcDbLine
 10
153.0214833637
 20
179.0334395589
 30
0.0
 11
153.2243833173
 21
203.6382924317
 31
0.0
  0
LINE
  5
173
330
1F
100
AcDbEntity
  8
0
  6
CENTERX2
 62
     7
100
AcDbLine
 10
152.9472689586
 20
170.0337602274
 30
0.0
 11
152.9884993495
 21
175.0336021824
 31
0.0
  0
LINE
  5
174
330
1F
100
AcDbEntity
  8
0
  6
CENTERX2
 62
     7
100
AcDbLine
 10
152.9472689586
 20
170.0337602274
 30
0.0
 11
152.7817241081
 21
149.9588089111
 31
0.0
  0
ARC
  5
175
330
1F
100
AcDbEntity
  8
0
  6
Continuous
 62
     7
100
AcDbCircle
 10
48.8909709925
 20
101.7931251823
 30
0.0
 40
2.0
100
AcDbArc
 50
90.0
 51
180.0
  0
LINE
  5
176
330
1F
100
AcDbEntity
  8
0
  6
Continuous
 62
     7
100
AcDbLine
 10
60.8909709925
 20
103.7931251823
 30
0.0
 11
48.8909709925
 21
103.7931251823
 31
0.0
  0
ARC
  5
177
330
1F
100
AcDbEntity
  8
0
  6
Continuous
 62
     7
100
AcDbCircle
 10
48.8909709925
 20
83.41380133639999
 30
0.0
 40
2.0
100
AcDbArc
 50
180.0
 51
270.0
  0
LINE
  5
178
330
1F
100
AcDbEntity
  8
0
  6
Continuous
 62
     7
100
AcDbLine
 10
48.8909709925
 20
81.4138013364
 30
0.0
 11
60.8909709925
 21
81.4138013364
 31
0.0
  0
LINE
  5
179
330
1F
100
AcDbEntity
  8
0
  6
Continuous
 62
     7
100
AcDbLine
 10
60.8909709925
 20
85.103481242
 30
0.0
 11
70.8909709925
 21
85.103481242
 31
0.0
  0
LINE
  5
17A
330
1F
100
AcDbEntity
  8
0
  6
Continuous
 62
     7
100
AcDbLine
 10
70.8909709925
 20
100.103481242
 30
0.0
 11
60.8909709925
 21
100.103481242
 31
0.0
  0
ARC
  5
17B
330
1F
100
AcDbEntity
  8
0
  6
Continuous
 62
     7
100
AcDbCircle
 10
45.0102474959
 20
97.21422501420001
 30
0.0
 40
36.06661588895354
100
AcDbArc
 50
347.3403835406
 51
354.1802751479001
  0
LWPOLYLINE
  5
17C
330
1F
100
AcDbEntity
  8
0
  6
Continuous
 62
     7
100
AcDbPolyline
 90
        7
 70
   128
 43
0.0
 10
79.4967531568
 20
95.603481242
 10
79.4425192179
 20
95.83351079370002
 10
79.34357165939999
 20
96.1409773823
 10
79.24376325189999
 20
96.34039466209999
 10
79.1722817531
 20
96.42636443349999
 10
79.07534160649999
 20
96.49945352549998
 10
78.8909709925
 20
96.55278132479999
  0
LWPOLYLINE
  5
17D
330
1F
100
AcDbEntity
  8
0
  6
Continuous
 62
     7
100
AcDbPolyline
 90
        4
 70
   128
 43
0.0
 10
78.8909709925
 20
95.37408897330001
 10
78.95637759279999
 20
95.6601617169
 10
79.026290652
 20
95.87085729969999
 10
79.02875709359999
 20
95.89126885299998
  0
LWPOLYLINE
  5
17E
330
1F
100
AcDbEntity
  8
0
  6
Continuous
 62
     7
100
AcDbPolyline
 90
       12
 70
   128
 43
0.0
 10
79.72747442479999
 20
89.60348124200001
 10
79.761244879
 20
89.44526820889999
 10
79.87284845979999
 20
89.0928196527
 10
80.00097108670001
 20
88.85405488809999
 10
80.0780261312
 20
88.7693191075
 10
80.1768703755
 20
88.70091553200001
 10
80.36017336810001
 20
88.6536245055
 10
80.54545894970001
 20
88.69293489639998
 10
80.7196698525
 20
88.83445607690001
 10
80.8034374958
 20
88.97431568
 10
80.8716413403
 20
89.14283703209999
 10
80.8909709925
 20
89.20860854729999
  0
LINE
  5
17F
330
1F
100
AcDbEntity
  8
0
  6
Continuous
 62
     7
100
AcDbLine
 10
70.8909709925
 20
84.60348124200001
 30
0.0
 11
71.8909709925
 21
84.60348124200001
 31
0.0
  0
LINE
  5
180
330
1F
100
AcDbEntity
  8
0
  6
Continuous
 62
     7
100
AcDbLine
 10
71.8909709925
 20
100.603481242
 30
0.0
 11
70.8909709925
 21
100.603481242
 31
0.0
  0
LINE
  5
181
330
1F
100
AcDbEntity
  8
0
  6
Continuous
 62
     7
100
AcDbLine
 10
80.8909709925
 20
95.603481242
 30
0.0
 11
78.9434183814
 21
95.603481242
 31
0.0
  0
LINE
  5
182
330
1F
100
AcDbEntity
  8
0
  6
Continuous
 62
     7
100
AcDbLine
 10
78.8909709925
 20
89.60348124200001
 30
0.0
 11
80.2798717485
 21
89.60348124200001
 31
0.0
  0
LINE
  5
183
330
1F
100
AcDbEntity
  8
0
  6
Continuous
 62
     7
100
AcDbLine
 10
96.89543741500001
 20
100.603481242
 30
0.0
 11
90.8909709925
 21
100.603481242
 31
0.0
  0
LINE
  5
184
330
1F
100
AcDbEntity
  8
0
  6
Continuous
 62
     7
100
AcDbLine
 10
107.8909709925
 20
100.603481242
 30
0.0
 11
104.8764106901
 21
100.603481242
 31
0.0
  0
LINE
  5
185
330
1F
100
AcDbEntity
  8
0
  6
Continuous
 62
     7
100
AcDbLine
 10
104.8764106901
 20
84.60348124200001
 30
0.0
 11
107.8909709925
 21
84.60348124200001
 31
0.0
  0
LINE
  5
186
330
1F
100
AcDbEntity
  8
0
  6
Continuous
 62
     7
100
AcDbLine
 10
90.8909709925
 20
84.60348124200001
 30
0.0
 11
96.89543741500001
 21
84.60348124200001
 31
0.0
  0
LINE
  5
187
330
1F
100
AcDbEntity
  8
0
  6
Continuous
 62
     7
100
AcDbLine
 10
89.89097099250001
 20
99.60348124200001
 30
0.0
 11
87.8909709925
 21
98.80348124200001
 31
0.0
  0
LINE
  5
188
330
1F
100
AcDbEntity
  8
0
  6
Continuous
 62
     7
100
AcDbLine
 10
87.8909709925
 20
86.403481242
 30
0.0
 11
89.89097099250001
 21
85.603481242
 31
0.0
  0
LINE
  5
189
330
1F
100
AcDbEntity
  8
0
  6
Continuous
 62
     7
100
AcDbLine
 10
90.8909709925
 20
99.60348124200001
 30
0.0
 11
89.89097099250001
 21
99.60348124200001
 31
0.0
  0
LINE
  5
18A
330
1F
100
AcDbEntity
  8
0
  6
Continuous
 62
     7
100
AcDbLine
 10
89.89097099250001
 20
85.603481242
 30
0.0
 11
90.8909709925
 21
85.603481242
 31
0.0
  0
LINE
  5
18B
330
1F
100
AcDbEntity
  8
0
  6
Continuous
 62
     7
100
AcDbLine
 10
60.8909709925
 20
93.83882308069999
 30
0.0
 11
60.8909709925
 21
91.01379022080001
 31
0.0
  0
LINE
  5
18C
330
1F
100
AcDbEntity
  8
0
  6
Continuous
 62
     7
100
AcDbLine
 10
46.8909709925
 20
92.4369515365
 30
0.0
 11
46.8909709925
 21
101.7931251823
 31
0.0
  0
LINE
  5
18D
330
1F
100
AcDbEntity
  8
0
  6
Continuous
 62
     7
100
AcDbLine
 10
60.8909709925
 20
103.7931251823
 30
0.0
 11
60.8909709925
 21
93.83882308069999
 31
0.0
  0
LINE
  5
18E
330
1F
100
AcDbEntity
  8
0
  6
Continuous
 62
     7
100
AcDbLine
 10
46.8909709925
 20
83.41380133639999
 30
0.0
 11
46.8909709925
 21
92.4369515365
 31
0.0
  0
LINE
  5
18F
330
1F
100
AcDbEntity
  8
0
  6
Continuous
 62
     7
100
AcDbLine
 10
60.8909709925
 20
91.01379022080001
 30
0.0
 11
60.8909709925
 21
81.4138013364
 31
0.0
  0
LINE
  5
190
330
1F
100
AcDbEntity
  8
0
  6
Continuous
 62
     7
100
AcDbLine
 10
70.8909709925
 20
100.603481242
 30
0.0
 11
70.8909709925
 21
84.60348124200001
 31
0.0
  0
ARC
  5
191
330
1F
100
AcDbEntity
  8
0
  6
Continuous
 62
     7
100
AcDbCircle
 10
100.889696124
 20
92.56185462020001
 30
0.0
 40
2.990360595859651
100
AcDbArc
 50
7.7380366906
 51
175.0261281677
  0
LINE
  5
192
330
1F
100
AcDbEntity
  8
0
  6
Continuous
 62
     7
100
AcDbLine
 10
97.90899892969999
 20
92.90390708169999
 30
0.0
 11
97.914361689
 21
92.62596606269999
 31
0.0
  0
ARC
  5
193
330
1F
100
AcDbEntity
  8
0
  6
Continuous
 62
     7
100
AcDbCircle
 10
100.8984105819
 20
92.6573979569
 30
0.0
 40
2.978974810631533
100
AcDbArc
 50
359.3660426226001
 51
90.14308866190001
  0
ARC
  5
194
330
1F
100
AcDbEntity
  8
0
  6
Continuous
 62
     7
100
AcDbCircle
 10
100.8865184045
 20
92.5916304286
 30
0.0
 40
2.987192835513944
100
AcDbArc
 50
6.098751147299999
 51
170.5343752478
  0
LINE
  5
195
330
1F
100
AcDbEntity
  8
0
  6
Continuous
 62
     7
100
AcDbLine
 10
90.8909709925
 20
100.603481242
 30
0.0
 11
90.8909709925
 21
84.60348124200001
 31
0.0
  0
LINE
  5
196
330
1F
100
AcDbEntity
  8
0
  6
Continuous
 62
     7
100
AcDbLine
 10
107.8909709925
 20
100.603481242
 30
0.0
 11
107.8909709925
 21
84.60348124200001
 31
0.0
  0
ARC
  5
197
330
1F
100
AcDbEntity
  8
0
  6
Continuous
 62
     7
100
AcDbCircle
 10
100.8907573069
 20
108.2482353097
 30
0.0
 40
8.627556177600402
100
AcDbArc
 50
242.4134331239
 51
297.5141608812
  0
LWPOLYLINE
  5
198
330
1F
100
AcDbEntity
  8
0
  6
Continuous
 62
     7
100
AcDbPolyline
 90
       22
 70
   128
 43
0.0
 10
96.89543741500001
 20
84.60543526069999
 10
96.8909709925
 20
84.6037532365
 10
96.939175308
 20
84.63285063710001
 10
97.08745202600001
 20
84.7103692063
 10
97.3206065063
 20
84.8245493171
 10
97.6429072608
 20
84.9712003431
 10
98.0554695216
 20
85.141009164
 10
98.55233586650001
 20
85.31822463430001
 10
99.1428949307
 20
85.48805988540001
 10
99.8146308321
 20
85.6241744105
 10
100.4623517381
 20
85.69506255090001
 10
101.1502087007
 20
85.7035802723
 10
101.7293351772
 20
85.6572270937
 10
102.3010652567
 20
85.5643432641
 10
102.8351161193
 20
85.4367407902
 10
103.3337566689
 20
85.2836128046
 10
103.8175353901
 20
85.10526597150001
 10
104.2336512034
 20
84.9294267097
 10
104.5615703509
 20
84.77636438260001
 10
104.7875224028
 20
84.6624238402
 10
104.8821564754
 20
84.6103452252
 10
104.8764106901
 20
84.6104781312
  0
CIRCLE
  5
199
330
1F
100
AcDbEntity
  8
0
  6
Continuous
 62
     7
100
AcDbCircle
 10
100.8910376214
 20
92.6692797453
 30
0.0
 40
2.999933375893846
  0
ARC
  5
19A
330
1F
100
AcDbEntity
  8
0
  6
Continuous
 62
     7
100
AcDbCircle
 10
100.8943073004
 20
92.6635547595
 30
0.0
 40
2.996664614439488
100
AcDbArc
 50
359.9550471559
 51
180.03900478
  0
LINE
  5
19B
330
1F
100
AcDbEntity
  8
0
  6
Continuous
 62
     7
100
AcDbLine
 10
89.89097099250001
 20
99.60348124200001
 30
0.0
 11
89.89097099250001
 21
85.603481242
 31
0.0
  0
LINE
  5
19C
330
1F
100
AcDbEntity
  8
0
  6
Continuous
 62
     7
100
AcDbLine
 10
71.8909709925
 20
84.590213033
 30
0.0
 11
78.8909709925
 21
84.590213033
 31
0.0
  0
LINE
  5
19D
330
1F
100
AcDbEntity
  8
0
  6
Continuous
 62
     7
100
AcDbLine
 10
71.8909709925
 20
84.590213033
 30
0.0
 11
71.8909709925
 21
100.5901533152
 31
0.0
  0
LINE
  5
19E
330
1F
100
AcDbEntity
  8
0
  6
Continuous
 62
     7
100
AcDbLine
 10
71.8909709925
 20
100.5901533152
 30
0.0
 11
78.8909709925
 21
100.5901533152
 31
0.0
  0
LINE
  5
19F
330
1F
100
AcDbEntity
  8
0
  6
Continuous
 62
     7
100
AcDbLine
 10
78.8909709925
 20
100.5901533152
 30
0.0
 11
78.8909709925
 21
84.590213033
 31
0.0
  0
LINE
  5
1A0
330
1F
100
AcDbEntity
  8
0
  6
Continuous
 62
     7
100
AcDbLine
 10
80.8909709925
 20
100.5901533152
 30
0.0
 11
87.8909709925
 21
100.5901533152
 31
0.0
  0
LINE
  5
1A1
330
1F
100
AcDbEntity
  8
0
  6
Continuous
 62
     7
100
AcDbLine
 10
87.8909709925
 20
84.590213033
 30
0.0
 11
87.8909709925
 21
100.5901533152
 31
0.0
  0
LINE
  5
1A2
330
1F
100
AcDbEntity
  8
0
  6
Continuous
 62
     7
100
AcDbLine
 10
80.8909709925
 20
84.590213033
 30
0.0
 11
87.8909709925
 21
84.590213033
 31
0.0
  0
LINE
  5
1A3
330
1F
100
AcDbEntity
  8
0
  6
Continuous
 62
     7
100
AcDbLine
 10
80.8909709925
 20
84.590213033
 30
0.0
 11
80.8909709925
 21
100.5901533152
 31
0.0
  0
LWPOLYLINE
  5
1A4
330
1F
100
AcDbEntity
  8
0
  6
Continuous
 62
     7
100
AcDbPolyline
 90
       21
 70
   128
 43
0.0
 10
87.8909709925
 20
100.6523132623
 10
87.2881593798
 20
100.654208271
 10
86.6254276629
 20
100.655947523
 10
85.9081442267
 20
100.6575169297
 10
85.142119346
 20
100.6589037782
 10
84.3335581204
 20
100.6600968345
 10
83.4890102105
 20
100.6610864345
 10
82.615316783
 20
100.6618645619
 10
81.71955509449999
 20
100.6624249137
 10
80.80898116330001
 20
100.6627629507
 10
79.8909709925
 20
100.6628759348
 10
78.9729608217
 20
100.6627629507
 10
78.06238689050001
 20
100.6624249137
 10
77.16662520199999
 20
100.6618645619
 10
76.29293177450001
 20
100.6610864345
 10
75.4483838646
 20
100.6600968345
 10
74.639822639
 20
100.6589037782
 10
73.8737977583
 20
100.6575169297
 10
73.1565143221
 20
100.655947523
 10
72.49378260520001
 20
100.654208271
 10
71.8909709925
 20
100.6523132623
  0
LWPOLYLINE
  5
1A5
330
1F
100
AcDbEntity
  8
0
  6
Continuous
 62
     7
100
AcDbPolyline
 90
       52
 70
   128
 43
0.0
 10
80.8909709925
 20
100.6248549324
 10
81.57262456499999
 20
100.6252826862
 10
82.2314280456
 20
100.625924258
 10
82.8584296976
 20
100.6267709302
 10
83.4451099035
 20
100.6278111983
 10
83.9834969282
 20
100.6290309272
 10
84.4662752384
 20
100.6304135434
 10
84.88688490459999
 20
100.6319402602
 10
85.23961073689999
 20
100.6335903327
 10
85.5196599423
 20
100.6353413399
 10
85.7232272481
 20
100.6371694893
 10
85.84754660819999
 20
100.6390499404
 10
85.89092878699998
 20
100.6409571418
 10
85.85278431319999
 20
100.6428651786
 10
85.73363148899998
 20
100.6447481247
 10
85.53508934739999
 20
100.6465803949
 10
85.2598556537
 20
100.6483370926
 10
84.91167024760001
 20
100.6499943479
 10
84.49526422759999
 20
100.6515296423
 10
84.01629566489999
 20
100.6529221144
 10
83.4812727227
 20
100.6541528434
 10
82.89746522359999
 20
100.6552051065
 10
82.2728058687
 20
100.6560646055
 10
81.6157824487
 20
100.6567196617
 10
80.9353225131
 20
100.6571613743
 10
80.2406720637
 20
100.6573837413
 10
79.54126992129999
 20
100.6573837413
 10
78.8466194719
 20
100.6571613743
 10
78.1661595363
 20
100.6567196617
 10
77.5091361163
 20
100.6560646055
 10
76.8844767614
 20
100.6552051065
 10
76.30066926229999
 20
100.6541528434
 10
75.76564632010001
 20
100.6529221144
 10
75.2866777574
 20
100.6515296423
 10
74.8702717374
 20
100.6499943479
 10
74.5220863313
 20
100.6483370926
 10
74.2468526376
 20
100.6465803949
 10
74.048310496
 20
100.6447481247
 10
73.92915767179999
 20
100.6428651786
 10
73.89101319799999
 20
100.6409571418
 10
73.93439537679999
 20
100.6390499404
 10
74.0587147369
 20
100.6371694893
 10
74.2622820427
 20
100.6353413399
 10
74.54233124809999
 20
100.6335903327
 10
74.89505708039999
 20
100.6319402602
 10
75.3156667466
 20
100.6304135434
 10
75.7984450568
 20
100.6290309272
 10
76.33683208149999
 20
100.6278111983
 10
76.9235122874
 20
100.6267709302
 10
77.55051393939999
 20
100.625924258
 10
78.20931742
 20
100.6252826862
 10
78.8909709925
 20
100.6248549324
  0
LINE
  5
1A6
330
1F
100
AcDbEntity
  8
0
  6
Continuous
 62
     7
100
AcDbLine
 10
87.8909709925
 20
100.6523132623
 30
0.0
 11
87.8909709925
 21
100.5901533152
 31
0.0
  0
LINE
  5
1A7
330
1F
100
AcDbEntity
  8
0
  6
Continuous
 62
     7
100
AcDbLine
 10
80.8909709925
 20
100.6248549324
 30
0.0
 11
80.8909709925
 21
100.5901533152
 31
0.0
  0
LINE
  5
1A8
330
1F
100
AcDbEntity
  8
0
  6
Continuous
 62
     7
100
AcDbLine
 10
78.8909709925
 20
100.6248549324
 30
0.0
 11
78.8909709925
 21
100.5901533152
 31
0.0
  0
LINE
  5
1A9
330
1F
100
AcDbEntity
  8
0
  6
Continuous
 62
     7
100
AcDbLine
 10
71.8909709925
 20
100.6523132623
 30
0.0
 11
71.8909709925
 21
100.5901533152
 31
0.0
  0
LWPOLYLINE
  5
1AA
330
1F
100
AcDbEntity
  8
0
  6
Continuous
 62
     7
100
AcDbPolyline
 90
        4
 70
   128
 43
0.0
 10
80.8909709925
 20
84.65724204229999
 10
80.2406720637
 20
84.65744345919999
 10
79.54126992129999
 20
84.65744345919999
 10
78.8909709925
 20
84.65724204229999
  0
INSERT
  5
1B0
102
{ACAD_REACTORS
330
1B1
102
}
330
1F
100
AcDbEntity
  8
0
  6
Continuous
 62
     7
100
AcDbBlockReference
  2
SW_NOTE_1
 10
122.6482911175
 20
110.5929579323
 30
0.0
  0
LEADER
  5
1B1
330
1F
100
AcDbEntity
  8
0
  6
Continuous
 62
     7
100
AcDbLeader
  3
SLDDIMSTYLE2
 73
     2
 76
     3
 10
102.7110233731
 20
95.05119826700001
 30
0.0
 10
116.2434916766
 20
110.5929579323
 30
0.0
 10
122.6482911175
 20
110.5929579323
 30
0.0
340
1B0
1001
ACAD
1000
DSTYLE
1002
{
1070
     6
1000

1002
}
  0
LINE
  5
1B2
330
1F
100
AcDbEntity
  8
0
  6
CENTERX2
 62
     7
100
AcDbLine
 10
91.8909709925
 20
92.603481242
 30
0.0
 11
109.8909709925
 21
92.603481242
 31
0.0
  0
LINE
  5
1B3
330
1F
100
AcDbEntity
  8
0
  6
CENTERX2
 62
     7
100
AcDbLine
 10
43.6353022688
 20
92.603481242
 30
0.0
 11
91.8909709925
 21
92.603481242
 31
0.0
  0
LINE
  5
1B4
330
1F
100
AcDbEntity
  8
0
  6
CENTERX2
 62
     7
100
AcDbLine
 10
100.8909709925
 20
102.6032015481
 30
0.0
 11
100.8909709925
 21
82.60376093579999
 31
0.0
  0
LINE
  5
1B5
330
1F
100
AcDbEntity
  8
0
  6
CENTERX2
 62
     7
100
AcDbLine
 10
69.8909709925
 20
92.6114074902
 30
0.0
 11
89.89097099250001
 21
92.6114074902
 31
0.0
  0
LINE
  5
1B6
330
1F
100
AcDbEntity
  8
0
  6
CENTERX2
 62
     7
100
AcDbLine
 10
79.8909709925
 20
102.6410186284
 30
0.0
 11
79.8909709925
 21
82.6350396872
 31
0.0
  0
MTEXT
  5
1E8
102
{ACAD_REACTORS
330
1E7
102
}
330
1F
100
AcDbEntity
  8
0
100
AcDbMText
 10
113.8608856716581
 20
130.407578861236
 30
0.0
 40
3.5
 41
0.0
 71
     2
 72
     1
  1
吸着金具　*******-P8シリーズは使用不可
 73
     1
 44
1.0
1001
ACAD
1000
ACAD_MTEXT_DEFINED_HEIGHT_BEGIN
1070
    46
1040
0.0
1000
ACAD_MTEXT_DEFINED_HEIGHT_END
1000
MTEXTBEGIN
1070
    73
1070
     1
1070
    44
1040
1.0
1070
    74
1070
     0
1000
MTEXTEND
  0
LEADER
  5
1E9
330
1F
100
AcDbEntity
  8
0
 62
     1
100
AcDbLeader
  3
ISO-25
 73
     0
 74
     0
 75
     1
 40
3.5
 76
     3
 10
100.8909709925
 20
173.0984901685949
 30
0.0
 10
109.5691496636891
 20
131.1942639642662
 30
0.0
 10
112.5691496636891
 20
131.1942639642662
 30
0.0
340
1EA
213
0.0
223
-1.75
233
0.0
1001
ACAD
1000
DSTYLE
1002
{
1070
    77
1070
     0
1070
    41
1040
3.0
1070
    42
1040
1.0
1070
    44
1040
1.0
1070
    73
1070
     1
1070
    74
1070
     1
1070
    78
1070
     0
1070
   140
1040
3.5
1070
   147
1040
1.524
1070
   284
1070
     0
1002
}
  0
MTEXT
  5
1EA
102
{ACAD_REACTORS
330
1E9
102
}
330
1F
100
AcDbEntity
  8
0
100
AcDbMText
 10
114.0931496636891
 20
132.9442639642662
 30
0.0
 40
3.5
 41
0.0
 71
     1
 72
     1
  1

 73
     1
 44
1.0
1001
ACAD
1000
MTEXTBEGIN
1070
    73
1070
     1
1070
    44
1040
1.0
1070
    74
1070
     0
1000
MTEXTEND
  0
LINE
  5
1F4
330
1F
100
AcDbEntity
  8
0
 62
     1
100
AcDbLine
 10
66.34357816294937
 20
131.1942639642662
 30
0.0
 11
162.4353246147786
 21
131.1942639642662
 31
0.0
  0
LINE
  5
1F5
330
1F
100
AcDbEntity
  8
0
 62
     1
100
AcDbLine
 10
162.4353246147786
 20
131.1942639642662
 30
0.0
 11
162.4353246147786
 21
125.6944010714962
 31
0.0
  0
LINE
  5
1F6
330
1F
100
AcDbEntity
  8
0
 62
     1
100
AcDbLine
 10
162.4353246147786
 20
125.6944010714962
 30
0.0
 11
66.34357816294936
 21
125.6944010714963
 31
0.0
  0
LINE
  5
1F7
330
1F
100
AcDbEntity
  8
0
 62
     1
100
AcDbLine
 10
66.34357816294936
 20
125.6944010714963
 30
0.0
 11
66.34357816294937
 21
131.1942639642662
 31
0.0
  0
ENDSEC
  0
SECTION
  2
OBJECTS
  0
DICTIONARY
  5
C
330
0
100
AcDbDictionary
281
     1
  3
ACAD_COLOR
350
1DC
  3
ACAD_GROUP
350
D
  3
ACAD_LAYOUT
350
1A
  3
ACAD_MATERIAL
350
1DB
  3
ACAD_MLINESTYLE
350
17
  3
ACAD_PLOTSETTINGS
350
19
  3
ACAD_PLOTSTYLENAME
350
1D9
  3
ACAD_TABLESTYLE
350
1DD
  3
ACDBHEADERROUNDTRIPXREC
350
1FD
  3
AcDbVariableDictionary
350
1F8
  0
DICTIONARY
  5
1DC
102
{ACAD_REACTORS
330
C
102
}
330
C
100
AcDbDictionary
281
     1
  0
DICTIONARY
  5
D
102
{ACAD_REACTORS
330
C
102
}
330
C
100
AcDbDictionary
281
     1
  0
DICTIONARY
  5
1A
102
{ACAD_REACTORS
330
C
102
}
330
C
100
AcDbDictionary
281
     1
  3
Model
350
1DF
  3
レイアウト1
350
1E0
  0
DICTIONARY
  5
1DB
102
{ACAD_REACTORS
330
C
102
}
330
C
100
AcDbDictionary
281
     1
  0
DICTIONARY
  5
17
102
{ACAD_REACTORS
330
C
102
}
330
C
100
AcDbDictionary
281
     1
  3
STANDARD
350
18
  0
DICTIONARY
  5
19
102
{ACAD_REACTORS
330
C
102
}
330
C
100
AcDbDictionary
281
     1
  0
ACDBDICTIONARYWDFLT
  5
1D9
102
{ACAD_REACTORS
330
C
102
}
330
C
100
AcDbDictionary
281
     1
  3
Normal
350
1DA
100
AcDbDictionaryWithDefault
340
1DA
  0
DICTIONARY
  5
1DD
102
{ACAD_REACTORS
330
C
102
}
330
C
100
AcDbDictionary
281
     1
  3
Standard
350
1DE
  0
DICTIONARY
  5
1FD
102
{ACAD_REACTORS
330
C
102
}
330
C
100
AcDbDictionary
281
     1
  0
DICTIONARY
  5
1F8
102
{ACAD_REACTORS
330
C
102
}
330
C
100
AcDbDictionary
281
     1
  3
CTABLESTYLE
350
1F9
  3
DIMASSOC
350
1FA
  3
PROJECTNAME
350
1FB
  0
LAYOUT
  5
1DF
102
{ACAD_XDICTIONARY
360
1FE
102
}
102
{ACAD_REACTORS
330
1A
102
}
330
1A
100
AcDbPlotSettings
  1

  2
DocuCentre-II C3300
  4

  6

 40
0.0
 41
0.0
 42
0.0
 43
0.0
 44
0.0
 45
0.0
 46
0.0
 47
0.0
 48
0.0
 49
0.0
140
0.0
141
0.0
142
1.0
143
1.0
 70
  1712
 72
     0
 73
     0
 74
     0
  7

 75
     0
147
1.0
148
0.0
149
0.0
100
AcDbLayout
  1
Model
 70
     1
 71
     0
 10
0.0
 20
0.0
 11
12.0
 21
9.0
 12
0.0
 22
0.0
 32
0.0
 14
0.0
 24
0.0
 34
0.0
 15
0.0
 25
0.0
 35
0.0
146
0.0
 13
0.0
 23
0.0
 33
0.0
 16
1.0
 26
0.0
 36
0.0
 17
0.0
 27
1.0
 37
0.0
 76
     0
330
1F
  0
LAYOUT
  5
1E0
102
{ACAD_XDICTIONARY
360
200
102
}
102
{ACAD_REACTORS
330
1A
102
}
330
1A
100
AcDbPlotSettings
  1

  2
DocuCentre-II C3300
  4

  6

 40
0.0
 41
0.0
 42
0.0
 43
0.0
 44
0.0
 45
0.0
 46
0.0
 47
0.0
 48
0.0
 49
0.0
140
0.0
141
0.0
142
1.0
143
1.0
 70
   688
 72
     0
 73
     0
 74
     5
  7

 75
    16
147
1.0
148
0.0
149
0.0
100
AcDbLayout
  1
レイアウト1
 70
     1
 71
     1
 10
0.0
 20
0.0
 11
420.0
 21
297.0
 12
0.0
 22
0.0
 32
0.0
 14
1.000000000000000E+20
 24
1.000000000000000E+20
 34
1.000000000000000E+20
 15
-1.000000000000000E+20
 25
-1.000000000000000E+20
 35
-1.000000000000000E+20
146
0.0
 13
0.0
 23
0.0
 33
0.0
 16
1.0
 26
0.0
 36
0.0
 17
0.0
 27
1.0
 37
0.0
 76
     0
330
1B
  0
MLINESTYLE
  5
18
102
{ACAD_REACTORS
330
17
102
}
330
17
100
AcDbMlineStyle
  2
STANDARD
 70
     0
  3

 62
   256
 51
90.0
 52
90.0
 71
     2
 49
0.5
 62
   256
  6
BYLAYER
 49
-0.5
 62
   256
  6
BYLAYER
  0
ACDBPLACEHOLDER
  5
1DA
102
{ACAD_REACTORS
330
1D9
102
}
330
1D9
  0
TABLESTYLE
  5
1DE
102
{ACAD_REACTORS
330
1DD
102
}
330
1DD
100
AcDbTableStyle
  3
Standard
 70
     0
 71
     0
 40
1.5
 41
1.5
280
     0
281
     0
  7
STANDARD
140
4.5
170
     2
 62
     0
 63
     7
283
     0
274
    -2
284
     1
 64
     0
275
    -2
285
     1
 65
     0
276
    -2
286
     1
 66
     0
277
    -2
287
     1
 67
     0
278
    -2
288
     1
 68
     0
279
    -2
289
     1
 69
     0
  7
STANDARD
140
6.0
170
     5
 62
     0
 63
     7
283
     0
274
    -2
284
     1
 64
     0
275
    -2
285
     1
 65
     0
276
    -2
286
     1
 66
     0
277
    -2
287
     1
 67
     0
278
    -2
288
     1
 68
     0
279
    -2
289
     1
 69
     0
  7
STANDARD
140
4.5
170
     5
 62
     0
 63
     7
283
     0
274
    -2
284
     1
 64
     0
275
    -2
285
     1
 65
     0
276
    -2
286
     1
 66
     0
277
    -2
287
     1
 67
     0
278
    -2
288
     1
 68
     0
279
    -2
289
     1
 69
     0
  0
DICTIONARYVAR
  5
1F9
102
{ACAD_REACTORS
330
1F8
102
}
330
1F8
100
DictionaryVariables
280
     0
  1
STANDARD
  0
DICTIONARYVAR
  5
1FA
102
{ACAD_REACTORS
330
1F8
102
}
330
1F8
100
DictionaryVariables
280
     0
  1
1
  0
DICTIONARYVAR
  5
1FB
102
{ACAD_REACTORS
330
1F8
102
}
330
1F8
100
DictionaryVariables
280
     0
  1

  0
DICTIONARY
  5
1FE
330
1DF
100
AcDbDictionary
280
     1
281
     1
  3
ACAD_XREC_ROUNDTRIP
360
1FF
  0
DICTIONARY
  5
200
330
1E0
100
AcDbDictionary
280
     1
281
     1
  3
ACAD_XREC_ROUNDTRIP
360
201
  0
XRECORD
  5
1FF
102
{ACAD_REACTORS
330
1FE
102
}
330
1FE
100
AcDbXrecord
280
     1
102
SHADEPLOT
 70
     0
102
SHADEPLOTRESLEVEL
 70
     2
102
SHADEPLOTCUSTOMDPI
 70
   300
  0
XRECORD
  5
201
102
{ACAD_REACTORS
330
200
102
}
330
200
100
AcDbXrecord
280
     1
102
SHADEPLOT
 70
     0
102
SHADEPLOTRESLEVEL
 70
     2
102
SHADEPLOTCUSTOMDPI
 70
   300
  0
ENDSEC
  0
EOF
