  0
SECTION
  2
HEADER
  9
$ACADVER
  1
AC1015
  9
$ACADMAINTVER
 70
     6
  9
$DWGCODEPAGE
  3
DOS932
  9
$INSBASE
 10
0.0
 20
0.0
 30
0.0
  9
$EXTMIN
 10
0.0
 20
0.0
 30
0.0
  9
$EXTMAX
 10
210.0
 20
297.0
 30
0.0
  9
$LIMMIN
 10
0.0
 20
0.0
  9
$LIMMAX
 10
0.0
 20
0.0
  9
$ORTHOMODE
 70
     0
  9
$REGENMODE
 70
     1
  9
$FILLMODE
 70
     1
  9
$QTEXTMODE
 70
     0
  9
$MIRRTEXT
 70
     1
  9
$LTSCALE
 40
1.0
  9
$ATTMODE
 70
     1
  9
$TEXTSIZE
 40
3.5
  9
$TRACEWID
 40
1.0
  9
$TEXTSTYLE
  7
Standard
  9
$CLAYER
  8
0
  9
$CELTYPE
  6
ByLayer
  9
$CECOLOR
 62
   256
  9
$CELTSCALE
 40
1.0
  9
$DISPSILH
 70
     0
  9
$DIMSCALE
 40
1.0
  9
$DIMASZ
 40
3.0
  9
$DIMEXO
 40
1.0
  9
$DIMDLI
 40
3.75
  9
$DIMRND
 40
0.0
  9
$DIMDLE
 40
0.0
  9
$DIMEXE
 40
1.0
  9
$DIMTP
 40
0.0
  9
$DIMTM
 40
0.0
  9
$DIMTXT
 40
3.5
  9
$DIMCEN
 40
2.5
  9
$DIMTSZ
 40
0.0
  9
$DIMTOL
 70
     0
  9
$DIMLIM
 70
     0
  9
$DIMTIH
 70
     1
  9
$DIMTOH
 70
     1
  9
$DIMSE1
 70
     0
  9
$DIMSE2
 70
     0
  9
$DIMTAD
 70
     1
  9
$DIMZIN
 70
     1
  9
$DIMBLK
  1

  9
$DIMASO
 70
     1
  9
$DIMSHO
 70
     1
  9
$DIMPOST
  1

  9
$DIMAPOST
  1

  9
$DIMALT
 70
     0
  9
$DIMALTD
 70
     3
  9
$DIMALTF
 40
0.0393700787
  9
$DIMLFAC
 40
1.0
  9
$DIMTOFL
 70
     1
  9
$DIMTVP
 40
0.0
  9
$DIMTIX
 70
     0
  9
$DIMSOXD
 70
     0
  9
$DIMSAH
 70
     0
  9
$DIMBLK1
  1

  9
$DIMBLK2
  1

  9
$DIMSTYLE
  2
ISO-25
  9
$DIMCLRD
 70
     0
  9
$DIMCLRE
 70
     0
  9
$DIMCLRT
 70
     0
  9
$DIMTFAC
 40
1.0
  9
$DIMGAP
 40
1.524
  9
$DIMJUST
 70
     0
  9
$DIMSD1
 70
     0
  9
$DIMSD2
 70
     0
  9
$DIMTOLJ
 70
     0
  9
$DIMTZIN
 70
     1
  9
$DIMALTZ
 70
     0
  9
$DIMALTTZ
 70
     0
  9
$DIMUPT
 70
     0
  9
$DIMDEC
 70
     2
  9
$DIMTDEC
 70
     2
  9
$DIMALTU
 70
     2
  9
$DIMALTTD
 70
     3
  9
$DIMTXSTY
  7
Standard
  9
$DIMAUNIT
 70
     0
  9
$DIMADEC
 70
     0
  9
$DIMALTRND
 40
0.0
  9
$DIMAZIN
 70
     0
  9
$DIMDSEP
 70
    44
  9
$DIMATFIT
 70
     3
  9
$DIMFRAC
 70
     0
  9
$DIMLDRBLK
  1

  9
$DIMLUNIT
 70
     2
  9
$DIMLWD
 70
    -2
  9
$DIMLWE
 70
    -2
  9
$DIMTMOVE
 70
     0
  9
$LUNITS
 70
     2
  9
$LUPREC
 70
     2
  9
$SKETCHINC
 40
1.0
  9
$FILLETRAD
 40
10.0
  9
$AUNITS
 70
     0
  9
$AUPREC
 70
     0
  9
$MENU
  1
.
  9
$ELEVATION
 40
0.0
  9
$PELEVATION
 40
0.0
  9
$THICKNESS
 40
0.0
  9
$LIMCHECK
 70
     0
  9
$CHAMFERA
 40
10.0
  9
$CHAMFERB
 40
10.0
  9
$CHAMFERC
 40
20.0
  9
$CHAMFERD
 40
0.0
  9
$SKPOLY
 70
     0
  9
$TDCREATE
 40
2454588.449219653
  9
$TDUCREATE
 40
2454588.074219653
  9
$TDUPDATE
 40
2454588.449219665
  9
$TDUUPDATE
 40
2454588.074219665
  9
$TDINDWG
 40
0.0000000116
  9
$TDUSRTIMER
 40
0.0000000116
  9
$USRTIMER
 70
     1
  9
$ANGBASE
 50
0.0
  9
$ANGDIR
 70
     0
  9
$PDMODE
 70
     0
  9
$PDSIZE
 40
-1.0
  9
$PLINEWID
 40
0.0
  9
$SPLFRAME
 70
     0
  9
$SPLINETYPE
 70
     6
  9
$SPLINESEGS
 70
     8
  9
$HANDSEED
  5
288
  9
$SURFTAB1
 70
     6
  9
$SURFTAB2
 70
     6
  9
$SURFTYPE
 70
     6
  9
$SURFU
 70
     6
  9
$SURFV
 70
     6
  9
$UCSBASE
  2

  9
$UCSNAME
  2

  9
$UCSORG
 10
0.0
 20
0.0
 30
0.0
  9
$UCSXDIR
 10
1.0
 20
0.0
 30
0.0
  9
$UCSYDIR
 10
0.0
 20
1.0
 30
0.0
  9
$UCSORTHOREF
  2

  9
$UCSORTHOVIEW
 70
     0
  9
$UCSORGTOP
 10
0.0
 20
0.0
 30
0.0
  9
$UCSORGBOTTOM
 10
0.0
 20
0.0
 30
0.0
  9
$UCSORGLEFT
 10
0.0
 20
0.0
 30
0.0
  9
$UCSORGRIGHT
 10
0.0
 20
0.0
 30
0.0
  9
$UCSORGFRONT
 10
0.0
 20
0.0
 30
0.0
  9
$UCSORGBACK
 10
0.0
 20
0.0
 30
0.0
  9
$PUCSBASE
  2

  9
$PUCSNAME
  2

  9
$PUCSORG
 10
0.0
 20
0.0
 30
0.0
  9
$PUCSXDIR
 10
1.0
 20
0.0
 30
0.0
  9
$PUCSYDIR
 10
0.0
 20
1.0
 30
0.0
  9
$PUCSORTHOREF
  2

  9
$PUCSORTHOVIEW
 70
     0
  9
$PUCSORGTOP
 10
0.0
 20
0.0
 30
0.0
  9
$PUCSORGBOTTOM
 10
0.0
 20
0.0
 30
0.0
  9
$PUCSORGLEFT
 10
0.0
 20
0.0
 30
0.0
  9
$PUCSORGRIGHT
 10
0.0
 20
0.0
 30
0.0
  9
$PUCSORGFRONT
 10
0.0
 20
0.0
 30
0.0
  9
$PUCSORGBACK
 10
0.0
 20
0.0
 30
0.0
  9
$USERI1
 70
     0
  9
$USERI2
 70
     0
  9
$USERI3
 70
     0
  9
$USERI4
 70
     0
  9
$USERI5
 70
     0
  9
$USERR1
 40
0.0
  9
$USERR2
 40
0.0
  9
$USERR3
 40
0.0
  9
$USERR4
 40
0.0
  9
$USERR5
 40
0.0
  9
$WORLDVIEW
 70
     1
  9
$SHADEDGE
 70
     3
  9
$SHADEDIF
 70
    70
  9
$TILEMODE
 70
     1
  9
$MAXACTVP
 70
    64
  9
$PINSBASE
 10
0.0
 20
0.0
 30
0.0
  9
$PLIMCHECK
 70
     0
  9
$PEXTMIN
 10
1.0000000000E+20
 20
1.0000000000E+20
 30
1.0000000000E+20
  9
$PEXTMAX
 10
-1.0000000000E+20
 20
-1.0000000000E+20
 30
-1.0000000000E+20
  9
$PLIMMIN
 10
0.0
 20
0.0
  9
$PLIMMAX
 10
420.0
 20
297.0
  9
$UNITMODE
 70
     0
  9
$VISRETAIN
 70
     1
  9
$PLINEGEN
 70
     0
  9
$PSLTSCALE
 70
     1
  9
$TREEDEPTH
 70
  3020
  9
$CMLSTYLE
  2
Standard
  9
$CMLJUST
 70
     0
  9
$CMLSCALE
 40
20.0
  9
$PROXYGRAPHICS
 70
     1
  9
$MEASUREMENT
 70
     1
  9
$CELWEIGHT
370
    -1
  9
$ENDCAPS
280
     0
  9
$JOINSTYLE
280
     0
  9
$LWDISPLAY
290
     1
  9
$INSUNITS
 70
     4
  9
$HYPERLINKBASE
  1

  9
$STYLESHEET
  1

  9
$XEDIT
290
     1
  9
$CEPSNTYPE
380
     0
  9
$PSTYLEMODE
290
     1
  9
$FINGERPRINTGUID
  2
{06D4A323-29DA-4F6B-A1FF-258983C330A2}
  9
$VERSIONGUID
  2
{FAEB1C32-E019-11D5-929B-00C0DF256EC4}
  9
$EXTNAMES
290
     1
  9
$PSVPSCALE
 40
0.0
  9
$OLESTARTUP
290
     0
  0
ENDSEC
  0
SECTION
  2
CLASSES
  0
CLASS
  1
ACDBDICTIONARYWDFLT
  2
AcDbDictionaryWithDefault
  3
ObjectDBX Classes
 90
        0
280
     0
281
     0
  0
CLASS
  1
ACDBPLACEHOLDER
  2
AcDbPlaceHolder
  3
ObjectDBX Classes
 90
        0
280
     0
281
     0
  0
CLASS
  1
LAYOUT
  2
AcDbLayout
  3
ObjectDBX Classes
 90
        0
280
     0
281
     0
  0
ENDSEC
  0
SECTION
  2
TABLES
  0
TABLE
  2
VPORT
  5
8
330
0
100
AcDbSymbolTable
 70
     1
  0
VPORT
  5
29
330
8
100
AcDbSymbolTableRecord
100
AcDbViewportTableRecord
  2
*Active
 70
     0
 10
0.0
 20
0.0
 11
1.0
 21
1.0
 12
105.0
 22
148.5
 13
0.0
 23
0.0
 14
10.0
 24
10.0
 15
10.0
 25
10.0
 16
0.0
 26
0.0
 36
1.0
 17
0.0
 27
0.0
 37
0.0
 40
297.0
 41
1.9729729729
 42
50.0
 43
0.0
 44
0.0
 50
0.0
 51
0.0
 71
     0
 72
  2000
 73
     1
 74
     3
 75
     0
 76
     0
 77
     0
 78
     0
281
     0
 65
     1
110
0.0
120
0.0
130
0.0
111
1.0
121
0.0
131
0.0
112
0.0
122
1.0
132
0.0
 79
     0
146
0.0
  0
ENDTAB
  0
TABLE
  2
LTYPE
  5
5
330
0
100
AcDbSymbolTable
 70
     6
  0
LTYPE
  5
14
330
5
100
AcDbSymbolTableRecord
100
AcDbLinetypeTableRecord
  2
ByBlock
 70
     0
  3

 72
    65
 73
     0
 40
0.0
  0
LTYPE
  5
15
330
5
100
AcDbSymbolTableRecord
100
AcDbLinetypeTableRecord
  2
ByLayer
 70
     0
  3

 72
    65
 73
     0
 40
0.0
  0
LTYPE
  5
16
330
5
100
AcDbSymbolTableRecord
100
AcDbLinetypeTableRecord
  2
Continuous
 70
     0
  3
Solid line
 72
    65
 73
     0
 40
0.0
  0
LTYPE
  5
2A
330
5
100
AcDbSymbolTableRecord
100
AcDbLinetypeTableRecord
  2
HIDDEN
 70
     0
  3
Hidden __ __ __ __ __ __ __ __ __ __ __ __ __ __
 72
    65
 73
     2
 40
1.905
 49
1.27
 74
     0
 49
-0.635
 74
     0
  0
LTYPE
  5
2B
330
5
100
AcDbSymbolTableRecord
100
AcDbLinetypeTableRecord
  2
PHANTOM
 70
     0
  3
Phantom ______  __  __  ______  __  __  ______
 72
    65
 73
     6
 40
12.7
 49
6.35
 74
     0
 49
-1.27
 74
     0
 49
1.27
 74
     0
 49
-1.27
 74
     0
 49
1.27
 74
     0
 49
-1.27
 74
     0
  0
LTYPE
  5
2C
330
5
100
AcDbSymbolTableRecord
100
AcDbLinetypeTableRecord
  2
CENTER
 70
     0
  3
Center ____ _ ____ _ ____ _ ____ _ ____ _ ____
 72
    65
 73
     4
 40
10.16
 49
6.35
 74
     0
 49
-1.27
 74
     0
 49
1.27
 74
     0
 49
-1.27
 74
     0
  0
LTYPE
  5
2D
330
5
100
AcDbSymbolTableRecord
100
AcDbLinetypeTableRecord
  2
CENTERX2
 70
     0
  3
Center (2x) ________  __  ________  __  _____
 72
    65
 73
     4
 40
20.32
 49
12.7
 74
     0
 49
-2.54
 74
     0
 49
2.54
 74
     0
 49
-2.54
 74
     0
  0
LTYPE
  5
2E
330
5
100
AcDbSymbolTableRecord
100
AcDbLinetypeTableRecord
  2
DOT2
 70
     0
  3
Dot (.5x) ........................................
 72
    65
 73
     2
 40
0.635
 49
0.0
 74
     0
 49
-0.635
 74
     0
  0
ENDTAB
  0
TABLE
  2
LAYER
  5
2
330
0
100
AcDbSymbolTable
 70
     4
  0
LAYER
  5
10
330
2
100
AcDbSymbolTableRecord
100
AcDbLayerTableRecord
  2
0
 70
     0
 62
     7
  6
Continuous
370
    -3
390
F
  0
LAYER
  5
2F
330
2
100
AcDbSymbolTableRecord
100
AcDbLayerTableRecord
  2
SLD-0
 70
     0
 62
     7
  6
Continuous
370
     0
390
F
  0
LAYER
  5
30
330
2
100
AcDbSymbolTableRecord
100
AcDbLayerTableRecord
  2
SLD-DEFPOINTS
 70
     0
 62
     7
  6
Continuous
370
     0
390
F
  0
LAYER
  5
14B
330
2
100
AcDbSymbolTableRecord
100
AcDbLayerTableRecord
  2
Defpoints
 70
     0
 62
     7
  6
Continuous
290
     0
370
    -3
390
F
  0
ENDTAB
  0
TABLE
  2
STYLE
  5
3
330
0
100
AcDbSymbolTable
 70
     3
  0
STYLE
  5
11
330
3
100
AcDbSymbolTableRecord
100
AcDbTextStyleTableRecord
  2
Standard
 70
     0
 40
0.0
 41
1.0
 50
0.0
 71
     0
 42
2.5
  3
txt
  4
bigfont
  0
STYLE
  5
155
330
3
100
AcDbSymbolTableRecord
100
AcDbTextStyleTableRecord
  2
SLDTEXTSTYLE0
 70
     0
 40
0.0
 41
0.7
 50
0.0
 71
     0
 42
0.2
  3
TXT
  4
bigfont
  0
STYLE
  5
15E
330
3
100
AcDbSymbolTableRecord
100
AcDbTextStyleTableRecord
  2
SLDTEXTSTYLE1
 70
     0
 40
0.0
 41
0.96
 50
0.0
 71
     0
 42
0.2
  3
TXT
  4
bigfont
  0
ENDTAB
  0
TABLE
  2
VIEW
  5
6
330
0
100
AcDbSymbolTable
 70
     0
  0
ENDTAB
  0
TABLE
  2
UCS
  5
7
330
0
100
AcDbSymbolTable
 70
     0
  0
ENDTAB
  0
TABLE
  2
APPID
  5
9
330
0
100
AcDbSymbolTable
 70
     1
  0
APPID
  5
12
330
9
100
AcDbSymbolTableRecord
100
AcDbRegAppTableRecord
  2
ACAD
 70
     0
  0
ENDTAB
  0
TABLE
  2
DIMSTYLE
  5
A
330
0
100
AcDbSymbolTable
 70
     4
100
AcDbDimStyleTable
  0
DIMSTYLE
105
27
330
A
100
AcDbSymbolTableRecord
100
AcDbDimStyleTableRecord
  2
ISO-25
 70
     0
 41
2.5
 42
0.625
 43
3.75
 44
1.25
 73
     0
 74
     0
 77
     1
 78
     8
140
2.5
141
2.5
143
0.0393700787
147
0.625
171
     3
172
     1
271
     2
272
     2
274
     3
278
    44
283
     0
284
     8
340
11
  0
DIMSTYLE
105
156
102
{ACAD_REACTORS
330
14A
102
}
330
A
100
AcDbSymbolTableRecord
100
AcDbDimStyleTableRecord
  2
SLDDIMSTYLE0
 70
     0
 41
3.0
 44
0.0
 78
    12
140
3.5
147
0.875
173
     1
271
     0
272
     2
284
    12
340
155
341
157
343
157
344
157
  0
DIMSTYLE
105
171
102
{ACAD_REACTORS
330
161
330
17D
330
196
330
1B1
330
1CB
330
1E6
330
218
330
232
330
24B
102
}
330
A
100
AcDbSymbolTableRecord
100
AcDbDimStyleTableRecord
  2
SLDDIMSTYLE1
 70
     0
 41
3.0
 44
0.0
 73
     0
 74
     0
 77
     3
 78
     4
140
3.5
147
0.875
173
     1
271
     2
272
     2
284
    12
340
155
341
157
343
157
344
157
  0
DIMSTYLE
105
20B
102
{ACAD_REACTORS
330
1FE
330
267
102
}
330
A
100
AcDbSymbolTableRecord
100
AcDbDimStyleTableRecord
  2
SLDDIMSTYLE2
 70
     0
 41
3.0
 44
0.0
 73
     0
 74
     0
 77
     3
 78
    12
140
3.5
147
0.875
173
     1
271
     0
272
     2
284
    12
340
155
341
157
343
157
344
157
  0
ENDTAB
  0
TABLE
  2
BLOCK_RECORD
  5
1
330
0
100
AcDbSymbolTable
 70
    18
  0
BLOCK_RECORD
  5
1F
330
1
100
AcDbSymbolTableRecord
100
AcDbBlockTableRecord
  2
*Model_Space
340
22
  0
BLOCK_RECORD
  5
1B
330
1
100
AcDbSymbolTableRecord
100
AcDbBlockTableRecord
  2
*Paper_Space
340
1E
  0
BLOCK_RECORD
  5
23
330
1
100
AcDbSymbolTableRecord
100
AcDbBlockTableRecord
  2
*Paper_Space0
340
26
  0
BLOCK_RECORD
  5
31
330
1
100
AcDbSymbolTableRecord
100
AcDbBlockTableRecord
  2
_Open30
340
0
102
{BLKREFS
331
284
102
}
  0
BLOCK_RECORD
  5
37
330
1
100
AcDbSymbolTableRecord
100
AcDbBlockTableRecord
  2
SW_CENTERMARKSYMBOL_0
340
0
102
{BLKREFS
331
285
102
}
  0
BLOCK_RECORD
  5
3E
330
1
100
AcDbSymbolTableRecord
100
AcDbBlockTableRecord
  2
SW_CENTERMARKSYMBOL_1
340
0
102
{BLKREFS
331
286
102
}
  0
BLOCK_RECORD
  5
49
330
1
100
AcDbSymbolTableRecord
100
AcDbBlockTableRecord
  2
SW_CENTERMARKSYMBOL_2
340
0
102
{BLKREFS
331
287
102
}
  0
BLOCK_RECORD
  5
14C
330
1
100
AcDbSymbolTableRecord
100
AcDbBlockTableRecord
  2
*D5
340
0
  0
BLOCK_RECORD
  5
157
330
1
100
AcDbSymbolTableRecord
100
AcDbBlockTableRecord
  2
_None
340
0
102
{BLKREFS
331
150
331
168
331
167
331
183
331
182
331
19D
331
19C
331
1B7
331
1B6
331
1D2
331
1D1
331
1ED
331
1EC
331
204
331
203
331
21E
331
21D
331
239
331
238
331
252
331
251
331
26D
331
26C
102
}
  0
BLOCK_RECORD
  5
162
330
1
100
AcDbSymbolTableRecord
100
AcDbBlockTableRecord
  2
*D7
340
0
  0
BLOCK_RECORD
  5
17E
330
1
100
AcDbSymbolTableRecord
100
AcDbBlockTableRecord
  2
*D8
340
0
  0
BLOCK_RECORD
  5
197
330
1
100
AcDbSymbolTableRecord
100
AcDbBlockTableRecord
  2
*D9
340
0
  0
BLOCK_RECORD
  5
1B2
330
1
100
AcDbSymbolTableRecord
100
AcDbBlockTableRecord
  2
*D10
340
0
  0
BLOCK_RECORD
  5
1CC
330
1
100
AcDbSymbolTableRecord
100
AcDbBlockTableRecord
  2
*D11
340
0
  0
BLOCK_RECORD
  5
1E7
330
1
100
AcDbSymbolTableRecord
100
AcDbBlockTableRecord
  2
*D12
340
0
  0
BLOCK_RECORD
  5
1FF
330
1
100
AcDbSymbolTableRecord
100
AcDbBlockTableRecord
  2
*D13
340
0
  0
BLOCK_RECORD
  5
219
330
1
100
AcDbSymbolTableRecord
100
AcDbBlockTableRecord
  2
*D14
340
0
  0
BLOCK_RECORD
  5
233
330
1
100
AcDbSymbolTableRecord
100
AcDbBlockTableRecord
  2
*D15
340
0
  0
BLOCK_RECORD
  5
24C
330
1
100
AcDbSymbolTableRecord
100
AcDbBlockTableRecord
  2
*D16
340
0
  0
BLOCK_RECORD
  5
268
330
1
100
AcDbSymbolTableRecord
100
AcDbBlockTableRecord
  2
*D17
340
0
  0
ENDTAB
  0
ENDSEC
  0
SECTION
  2
BLOCKS
  0
BLOCK
  5
20
330
1F
100
AcDbEntity
  8
0
100
AcDbBlockBegin
  2
*Model_Space
 70
     0
 71
     0
 10
0.0
 20
0.0
 30
0.0
  3
*Model_Space
  1

  0
ENDBLK
  5
21
330
1F
100
AcDbEntity
  8
0
100
AcDbBlockEnd
  0
BLOCK
  5
1C
330
1B
100
AcDbEntity
 67
     1
  8
0
100
AcDbBlockBegin
  2
*Paper_Space
 70
     0
 71
     0
 10
0.0
 20
0.0
 30
0.0
  3
*Paper_Space
  1

  0
ENDBLK
  5
1D
330
1B
100
AcDbEntity
 67
     1
  8
0
100
AcDbBlockEnd
  0
BLOCK
  5
24
330
23
100
AcDbEntity
  8
0
100
AcDbBlockBegin
  2
*Paper_Space0
 70
     0
 71
     0
 10
0.0
 20
0.0
 30
0.0
  3
*Paper_Space0
  1

  0
ENDBLK
  5
25
330
23
100
AcDbEntity
  8
0
100
AcDbBlockEnd
  0
BLOCK
  5
32
330
31
100
AcDbEntity
  8
0
100
AcDbBlockBegin
  2
_Open30
 70
     0
 71
     0
 10
0.0
 20
0.0
 30
0.0
  3
_Open30
  1

  0
LINE
  5
34
330
31
100
AcDbEntity
  8
SLD-0
  6
Continuous
 62
     7
370
     0
100
AcDbLine
 10
-1.0
 20
0.267949
 30
0.0
 11
0.0
 21
0.0
 31
0.0
  0
LINE
  5
35
330
31
100
AcDbEntity
  8
SLD-0
  6
Continuous
 62
     7
370
     0
100
AcDbLine
 10
0.0
 20
0.0
 30
0.0
 11
-1.0
 21
-0.267949
 31
0.0
  0
LINE
  5
36
330
31
100
AcDbEntity
  8
SLD-0
  6
Continuous
 62
     7
370
     0
100
AcDbLine
 10
0.0
 20
0.0
 30
0.0
 11
-1.0
 21
0.0
 31
0.0
  0
ENDBLK
  5
33
330
31
100
AcDbEntity
  8
0
100
AcDbBlockEnd
  0
BLOCK
  5
38
330
37
100
AcDbEntity
  8
0
100
AcDbBlockBegin
  2
SW_CENTERMARKSYMBOL_0
 70
     0
 71
     0
 10
0.0
 20
0.0
 30
0.0
  3
SW_CENTERMARKSYMBOL_0
  1

  0
LINE
  5
3A
330
37
100
AcDbEntity
  8
SLD-0
  6
Continuous
 62
     7
370
     0
100
AcDbLine
 10
0.0
 20
0.0
 30
0.0
 11
0.0
 21
2.5
 31
0.0
  0
LINE
  5
3B
330
37
100
AcDbEntity
  8
SLD-0
  6
Continuous
 62
     7
370
     0
100
AcDbLine
 10
0.0
 20
0.0
 30
0.0
 11
-2.5
 21
0.0
 31
0.0
  0
LINE
  5
3C
330
37
100
AcDbEntity
  8
SLD-0
  6
Continuous
 62
     7
370
     0
100
AcDbLine
 10
0.0
 20
0.0
 30
0.0
 11
0.0
 21
-2.5
 31
0.0
  0
LINE
  5
3D
330
37
100
AcDbEntity
  8
SLD-0
  6
Continuous
 62
     7
370
     0
100
AcDbLine
 10
0.0
 20
0.0
 30
0.0
 11
2.5
 21
0.0
 31
0.0
  0
ENDBLK
  5
39
330
37
100
AcDbEntity
  8
0
100
AcDbBlockEnd
  0
BLOCK
  5
3F
330
3E
100
AcDbEntity
  8
0
100
AcDbBlockBegin
  2
SW_CENTERMARKSYMBOL_1
 70
     0
 71
     0
 10
0.0
 20
0.0
 30
0.0
  3
SW_CENTERMARKSYMBOL_1
  1

  0
LINE
  5
41
330
3E
100
AcDbEntity
  8
SLD-0
  6
Continuous
 62
     7
370
     0
100
AcDbLine
 10
0.0
 20
0.0
 30
0.0
 11
0.0
 21
2.5
 31
0.0
  0
LINE
  5
42
330
3E
100
AcDbEntity
  8
SLD-0
  6
Continuous
 62
     7
370
     0
100
AcDbLine
 10
0.0
 20
0.0
 30
0.0
 11
-2.5
 21
0.0
 31
0.0
  0
LINE
  5
43
330
3E
100
AcDbEntity
  8
SLD-0
  6
Continuous
 62
     7
370
     0
100
AcDbLine
 10
0.0
 20
0.0
 30
0.0
 11
0.0
 21
-2.5
 31
0.0
  0
LINE
  5
44
330
3E
100
AcDbEntity
  8
SLD-0
  6
Continuous
 62
     7
370
     0
100
AcDbLine
 10
0.0
 20
0.0
 30
0.0
 11
2.5
 21
0.0
 31
0.0
  0
LINE
  5
45
330
3E
100
AcDbEntity
  8
SLD-0
  6
Continuous
 62
     7
370
     0
100
AcDbLine
 10
0.0
 20
5.0
 30
0.0
 11
0.0
 21
5.45
 31
0.0
  0
LINE
  5
46
330
3E
100
AcDbEntity
  8
SLD-0
  6
Continuous
 62
     7
370
     0
100
AcDbLine
 10
-5.0
 20
0.0
 30
0.0
 11
-5.45
 21
0.0
 31
0.0
  0
LINE
  5
47
330
3E
100
AcDbEntity
  8
SLD-0
  6
Continuous
 62
     7
370
     0
100
AcDbLine
 10
0.0
 20
-5.0
 30
0.0
 11
0.0
 21
-5.45
 31
0.0
  0
LINE
  5
48
330
3E
100
AcDbEntity
  8
SLD-0
  6
Continuous
 62
     7
370
     0
100
AcDbLine
 10
5.0
 20
0.0
 30
0.0
 11
5.45
 21
0.0
 31
0.0
  0
ENDBLK
  5
40
330
3E
100
AcDbEntity
  8
0
100
AcDbBlockEnd
  0
BLOCK
  5
4A
330
49
100
AcDbEntity
  8
0
100
AcDbBlockBegin
  2
SW_CENTERMARKSYMBOL_2
 70
     0
 71
     0
 10
0.0
 20
0.0
 30
0.0
  3
SW_CENTERMARKSYMBOL_2
  1

  0
LINE
  5
4C
330
49
100
AcDbEntity
  8
SLD-0
  6
Continuous
 62
     7
370
     0
100
AcDbLine
 10
0.0
 20
0.0
 30
0.0
 11
0.0
 21
2.5
 31
0.0
  0
LINE
  5
4D
330
49
100
AcDbEntity
  8
SLD-0
  6
Continuous
 62
     7
370
     0
100
AcDbLine
 10
0.0
 20
0.0
 30
0.0
 11
-2.5
 21
0.0
 31
0.0
  0
LINE
  5
4E
330
49
100
AcDbEntity
  8
SLD-0
  6
Continuous
 62
     7
370
     0
100
AcDbLine
 10
0.0
 20
0.0
 30
0.0
 11
0.0
 21
-2.5
 31
0.0
  0
LINE
  5
4F
330
49
100
AcDbEntity
  8
SLD-0
  6
Continuous
 62
     7
370
     0
100
AcDbLine
 10
0.0
 20
0.0
 30
0.0
 11
2.5
 21
0.0
 31
0.0
  0
LINE
  5
50
330
49
100
AcDbEntity
  8
SLD-0
  6
Continuous
 62
     7
370
     0
100
AcDbLine
 10
0.0
 20
5.0
 30
0.0
 11
0.0
 21
5.45
 31
0.0
  0
LINE
  5
51
330
49
100
AcDbEntity
  8
SLD-0
  6
Continuous
 62
     7
370
     0
100
AcDbLine
 10
-5.0
 20
0.0
 30
0.0
 11
-5.45
 21
0.0
 31
0.0
  0
LINE
  5
52
330
49
100
AcDbEntity
  8
SLD-0
  6
Continuous
 62
     7
370
     0
100
AcDbLine
 10
0.0
 20
-5.0
 30
0.0
 11
0.0
 21
-5.45
 31
0.0
  0
LINE
  5
53
330
49
100
AcDbEntity
  8
SLD-0
  6
Continuous
 62
     7
370
     0
100
AcDbLine
 10
5.0
 20
0.0
 30
0.0
 11
5.45
 21
0.0
 31
0.0
  0
ENDBLK
  5
4B
330
49
100
AcDbEntity
  8
0
100
AcDbBlockEnd
  0
BLOCK
  5
153
330
14C
100
AcDbEntity
  8
0
100
AcDbBlockBegin
  2
*D5
 70
     1
 71
     0
 10
0.0
 20
0.0
 30
0.0
  3
*D5
  1

  0
LINE
  5
15A
330
14C
100
AcDbEntity
  8
SLD-0
 62
     7
100
AcDbLine
 10
43.1947926831
 20
194.7785403336
 30
0.0
 11
38.4106679607
 21
198.7404629272
 31
0.0
  0
LINE
  5
15B
330
14C
100
AcDbEntity
  8
SLD-0
 62
     7
100
AcDbLine
 10
38.4106679607
 20
198.7404629272
 30
0.0
 11
44.5348024289
 21
197.7013974755
 31
0.0
  0
LINE
  5
15C
330
14C
100
AcDbEntity
  8
SLD-0
 62
     7
100
AcDbLine
 10
38.4106679607
 20
198.7404629272
 30
0.0
 11
43.864797556
 21
196.2399689045
 31
0.0
  0
LINE
  5
15D
330
14C
100
AcDbEntity
  8
SLD-0
 62
     7
100
AcDbLine
 10
38.4106679607
 20
198.7404629272
 30
0.0
 11
83.8617479218
 21
177.9030127384
 31
0.0
  0
MTEXT
  5
15F
330
14C
100
AcDbEntity
  8
SLD-0
 62
     7
100
AcDbMText
 10
48.8829302769
 20
198.4163357958
 30
0.1
 40
3.5
 41
0.0
 71
     1
 72
     1
  1
R
  7
SLDTEXTSTYLE1
 11
0.9090215992209988
 21
-0.4167490037776909
 31
0.0
 73
     1
 44
1.0
  0
MTEXT
  5
160
330
14C
100
AcDbEntity
  8
SLD-0
 62
     7
100
AcDbMText
 10
51.1960559217
 20
197.3558628555
 30
0.1
 40
3.5
 41
0.0
 71
     1
 72
     1
  1
50
  7
SLDTEXTSTYLE1
 11
0.9090215992209988
 21
-0.4167490037776909
 31
0.0
 73
     1
 44
1.0
  0
ENDBLK
  5
154
330
14C
100
AcDbEntity
  8
0
100
AcDbBlockEnd
  0
BLOCK
  5
158
330
157
100
AcDbEntity
  8
0
100
AcDbBlockBegin
  2
_None
 70
     0
 71
     0
 10
0.0
 20
0.0
 30
0.0
  3
_None
  1

  0
ENDBLK
  5
159
330
157
100
AcDbEntity
  8
0
100
AcDbBlockEnd
  0
BLOCK
  5
16F
330
162
100
AcDbEntity
  8
0
100
AcDbBlockBegin
  2
*D7
 70
     1
 71
     0
 10
0.0
 20
0.0
 30
0.0
  3
*D7
  1

  0
LINE
  5
172
330
162
100
AcDbEntity
  8
SLD-0
 62
     7
100
AcDbLine
 10
79.9617479218
 20
140.8998142025
 30
0.0
 11
73.9617479218
 21
142.5075082025
 31
0.0
  0
LINE
  5
173
330
162
100
AcDbEntity
  8
SLD-0
 62
     7
100
AcDbLine
 10
73.9617479218
 20
142.5075082025
 30
0.0
 11
79.9617479218
 21
144.1152022025
 31
0.0
  0
LINE
  5
174
330
162
100
AcDbEntity
  8
SLD-0
 62
     7
100
AcDbLine
 10
73.9617479218
 20
142.5075082025
 30
0.0
 11
79.9617479218
 21
142.5075082025
 31
0.0
  0
LINE
  5
175
330
162
100
AcDbEntity
  8
SLD-0
 62
     7
100
AcDbLine
 10
70.7617479218
 20
144.1152022025
 30
0.0
 11
76.7617479218
 21
142.5075082025
 31
0.0
  0
LINE
  5
176
330
162
100
AcDbEntity
  8
SLD-0
 62
     7
100
AcDbLine
 10
76.7617479218
 20
142.5075082025
 30
0.0
 11
70.7617479218
 21
140.8998142025
 31
0.0
  0
LINE
  5
177
330
162
100
AcDbEntity
  8
SLD-0
 62
     7
100
AcDbLine
 10
76.7617479218
 20
142.5075082025
 30
0.0
 11
70.7617479218
 21
142.5075082025
 31
0.0
  0
LINE
  5
178
330
162
100
AcDbEntity
  8
SLD-0
 62
     7
100
AcDbLine
 10
73.9617479218
 20
160.7030127384
 30
0.0
 11
73.9617479218
 21
141.5075082025
 31
0.0
  0
LINE
  5
179
330
162
100
AcDbEntity
  8
SLD-0
 62
     7
100
AcDbLine
 10
76.7617479218
 20
155.5530127384
 30
0.0
 11
76.7617479218
 21
141.5075082025
 31
0.0
  0
LINE
  5
17A
330
162
100
AcDbEntity
  8
SLD-0
 62
     7
100
AcDbLine
 10
73.9617479218
 20
142.5075082025
 30
0.0
 11
61.0312439101
 21
142.5075082025
 31
0.0
  0
LINE
  5
17B
330
162
100
AcDbEntity
  8
SLD-0
 62
     7
100
AcDbLine
 10
73.9617479218
 20
142.5075082025
 30
0.0
 11
76.7617479218
 21
142.5075082025
 31
0.0
  0
MTEXT
  5
17C
330
162
100
AcDbEntity
  8
SLD-0
 62
     7
100
AcDbMText
 10
62.6187439101
 20
146.5802352424
 30
0.1
 40
3.5
 41
0.0
 71
     1
 72
     1
  1
2.80
  7
SLDTEXTSTYLE1
 73
     1
 44
1.0
  0
ENDBLK
  5
170
330
162
100
AcDbEntity
  8
0
100
AcDbBlockEnd
  0
BLOCK
  5
188
330
17E
100
AcDbEntity
  8
0
100
AcDbBlockBegin
  2
*D8
 70
     1
 71
     0
 10
0.0
 20
0.0
 30
0.0
  3
*D8
  1

  0
LINE
  5
18A
330
17E
100
AcDbEntity
  8
SLD-0
 62
     7
100
AcDbLine
 10
70.7617479218
 20
144.166666138
 30
0.0
 11
76.7617479218
 21
142.558972138
 31
0.0
  0
LINE
  5
18B
330
17E
100
AcDbEntity
  8
SLD-0
 62
     7
100
AcDbLine
 10
76.7617479218
 20
142.558972138
 30
0.0
 11
70.7617479218
 21
140.951278138
 31
0.0
  0
LINE
  5
18C
330
17E
100
AcDbEntity
  8
SLD-0
 62
     7
100
AcDbLine
 10
76.7617479218
 20
142.558972138
 30
0.0
 11
70.7617479218
 21
142.558972138
 31
0.0
  0
LINE
  5
18D
330
17E
100
AcDbEntity
  8
SLD-0
 62
     7
100
AcDbLine
 10
104.9617479218
 20
140.951278138
 30
0.0
 11
98.9617479218
 21
142.558972138
 31
0.0
  0
LINE
  5
18E
330
17E
100
AcDbEntity
  8
SLD-0
 62
     7
100
AcDbLine
 10
98.9617479218
 20
142.558972138
 30
0.0
 11
104.9617479218
 21
144.166666138
 31
0.0
  0
LINE
  5
18F
330
17E
100
AcDbEntity
  8
SLD-0
 62
     7
100
AcDbLine
 10
98.9617479218
 20
142.558972138
 30
0.0
 11
104.9617479218
 21
142.558972138
 31
0.0
  0
LINE
  5
190
330
17E
100
AcDbEntity
  8
SLD-0
 62
     7
100
AcDbLine
 10
76.7617479218
 20
155.5530127384
 30
0.0
 11
76.7617479218
 21
141.558972138
 31
0.0
  0
LINE
  5
191
330
17E
100
AcDbEntity
  8
SLD-0
 62
     7
100
AcDbLine
 10
98.9617479218
 20
165.8530127384
 30
0.0
 11
98.9617479218
 21
141.558972138
 31
0.0
  0
LINE
  5
192
330
17E
100
AcDbEntity
  8
SLD-0
 62
     7
100
AcDbLine
 10
76.7617479218
 20
142.558972138
 30
0.0
 11
64.7617479218
 21
142.558972138
 31
0.0
  0
LINE
  5
193
330
17E
100
AcDbEntity
  8
SLD-0
 62
     7
100
AcDbLine
 10
76.7617479218
 20
142.558972138
 30
0.0
 11
98.9617479218
 21
142.558972138
 31
0.0
  0
LINE
  5
194
330
17E
100
AcDbEntity
  8
SLD-0
 62
     7
100
AcDbLine
 10
98.9617479218
 20
142.558972138
 30
0.0
 11
110.9617479218
 21
142.558972138
 31
0.0
  0
MTEXT
  5
195
330
17E
100
AcDbEntity
  8
SLD-0
 62
     7
100
AcDbMText
 10
85.378059437
 20
146.6316991779
 30
0.1
 40
3.5
 41
0.0
 71
     1
 72
     1
  1
22.20
  7
SLDTEXTSTYLE1
 73
     1
 44
1.0
  0
ENDBLK
  5
189
330
17E
100
AcDbEntity
  8
0
100
AcDbBlockEnd
  0
BLOCK
  5
1A3
330
197
100
AcDbEntity
  8
0
100
AcDbBlockBegin
  2
*D9
 70
     1
 71
     0
 10
0.0
 20
0.0
 30
0.0
  3
*D9
  1

  0
LINE
  5
1A5
330
197
100
AcDbEntity
  8
SLD-0
 62
     7
100
AcDbLine
 10
115.8348221924
 20
153.2030127384
 30
0.0
 11
117.4425161924
 21
159.2030127384
 31
0.0
  0
LINE
  5
1A6
330
197
100
AcDbEntity
  8
SLD-0
 62
     7
100
AcDbLine
 10
117.4425161924
 20
159.2030127384
 30
0.0
 11
119.0502101924
 21
153.2030127384
 31
0.0
  0
LINE
  5
1A7
330
197
100
AcDbEntity
  8
SLD-0
 62
     7
100
AcDbLine
 10
117.4425161924
 20
159.2030127384
 30
0.0
 11
117.4425161924
 21
153.2030127384
 31
0.0
  0
LINE
  5
1A8
330
197
100
AcDbEntity
  8
SLD-0
 62
     7
100
AcDbLine
 10
119.0502101924
 20
168.0030127384
 30
0.0
 11
117.4425161924
 21
162.0030127384
 31
0.0
  0
LINE
  5
1A9
330
197
100
AcDbEntity
  8
SLD-0
 62
     7
100
AcDbLine
 10
117.4425161924
 20
162.0030127384
 30
0.0
 11
115.8348221924
 21
168.0030127384
 31
0.0
  0
LINE
  5
1AA
330
197
100
AcDbEntity
  8
SLD-0
 62
     7
100
AcDbLine
 10
117.4425161924
 20
162.0030127384
 30
0.0
 11
117.4425161924
 21
168.0030127384
 31
0.0
  0
LINE
  5
1AB
330
197
100
AcDbEntity
  8
SLD-0
 62
     7
100
AcDbLine
 10
80.1017479218
 20
159.2030127384
 30
0.0
 11
118.4425161924
 21
159.2030127384
 31
0.0
  0
LINE
  5
1AC
330
197
100
AcDbEntity
  8
SLD-0
 62
     7
100
AcDbLine
 10
83.2117479218
 20
162.0030127384
 30
0.0
 11
118.4425161924
 21
162.0030127384
 31
0.0
  0
LINE
  5
1AD
330
197
100
AcDbEntity
  8
SLD-0
 62
     7
100
AcDbLine
 10
117.4425161924
 20
159.2030127384
 30
0.0
 11
117.4425161924
 21
143.1947180162
 31
0.0
  0
LINE
  5
1AE
330
197
100
AcDbEntity
  8
SLD-0
 62
     7
100
AcDbLine
 10
117.4425161924
 20
159.2030127384
 30
0.0
 11
117.4425161924
 21
162.0030127384
 31
0.0
  0
LINE
  5
1AF
330
197
100
AcDbEntity
  8
SLD-0
 62
     7
100
AcDbLine
 10
117.4425161924
 20
162.0030127384
 30
0.0
 11
117.4425161924
 21
174.0030127384
 31
0.0
  0
MTEXT
  5
1B0
330
197
100
AcDbEntity
  8
SLD-0
 62
     7
100
AcDbMText
 10
113.3697891525
 20
144.7822180162
 30
0.1
 40
3.5
 41
0.0
 71
     1
 72
     1
  1
2.80
  7
SLDTEXTSTYLE1
 11
6.123031769111886E-17
 21
1.0
 31
0.0
 73
     1
 44
1.0
  0
ENDBLK
  5
1A4
330
197
100
AcDbEntity
  8
0
100
AcDbBlockEnd
  0
BLOCK
  5
1BD
330
1B2
100
AcDbEntity
  8
0
100
AcDbBlockBegin
  2
*D10
 70
     1
 71
     0
 10
0.0
 20
0.0
 30
0.0
  3
*D10
  1

  0
LINE
  5
1BF
330
1B2
100
AcDbEntity
  8
SLD-0
 62
     7
100
AcDbLine
 10
115.8348221924
 20
156.0030127384
 30
0.0
 11
117.4425161924
 21
162.0030127384
 31
0.0
  0
LINE
  5
1C0
330
1B2
100
AcDbEntity
  8
SLD-0
 62
     7
100
AcDbLine
 10
117.4425161924
 20
162.0030127384
 30
0.0
 11
119.0502101924
 21
156.0030127384
 31
0.0
  0
LINE
  5
1C1
330
1B2
100
AcDbEntity
  8
SLD-0
 62
     7
100
AcDbLine
 10
117.4425161924
 20
162.0030127384
 30
0.0
 11
117.4425161924
 21
156.0030127384
 31
0.0
  0
LINE
  5
1C2
330
1B2
100
AcDbEntity
  8
SLD-0
 62
     7
100
AcDbLine
 10
119.0502101924
 20
178.3030127384
 30
0.0
 11
117.4425161924
 21
172.3030127384
 31
0.0
  0
LINE
  5
1C3
330
1B2
100
AcDbEntity
  8
SLD-0
 62
     7
100
AcDbLine
 10
117.4425161924
 20
172.3030127384
 30
0.0
 11
115.8348221924
 21
178.3030127384
 31
0.0
  0
LINE
  5
1C4
330
1B2
100
AcDbEntity
  8
SLD-0
 62
     7
100
AcDbLine
 10
117.4425161924
 20
172.3030127384
 30
0.0
 11
117.4425161924
 21
178.3030127384
 31
0.0
  0
LINE
  5
1C5
330
1B2
100
AcDbEntity
  8
SLD-0
 62
     7
100
AcDbLine
 10
83.2117479218
 20
162.0030127384
 30
0.0
 11
118.4425161924
 21
162.0030127384
 31
0.0
  0
LINE
  5
1C6
330
1B2
100
AcDbEntity
  8
SLD-0
 62
     7
100
AcDbLine
 10
105.4117479217
 20
172.3030127384
 30
0.0
 11
118.4425161924
 21
172.3030127384
 31
0.0
  0
LINE
  5
1C7
330
1B2
100
AcDbEntity
  8
SLD-0
 62
     7
100
AcDbLine
 10
117.4425161924
 20
162.0030127384
 30
0.0
 11
117.4425161924
 21
150.0030127384
 31
0.0
  0
LINE
  5
1C8
330
1B2
100
AcDbEntity
  8
SLD-0
 62
     7
100
AcDbLine
 10
117.4425161924
 20
162.0030127384
 30
0.0
 11
117.4425161924
 21
172.3030127384
 31
0.0
  0
LINE
  5
1C9
330
1B2
100
AcDbEntity
  8
SLD-0
 62
     7
100
AcDbLine
 10
117.4425161924
 20
172.3030127384
 30
0.0
 11
117.4425161924
 21
184.3030127384
 31
0.0
  0
MTEXT
  5
1CA
330
1B2
100
AcDbEntity
  8
SLD-0
 62
     7
100
AcDbMText
 10
113.3697891525
 20
162.5403847712
 30
0.1
 40
3.5
 41
0.0
 71
     1
 72
     1
  1
10.30
  7
SLDTEXTSTYLE1
 11
6.123031769111886E-17
 21
1.0
 31
0.0
 73
     1
 44
1.0
  0
ENDBLK
  5
1BE
330
1B2
100
AcDbEntity
  8
0
100
AcDbBlockEnd
  0
BLOCK
  5
1D8
330
1CC
100
AcDbEntity
  8
0
100
AcDbBlockBegin
  2
*D11
 70
     1
 71
     0
 10
0.0
 20
0.0
 30
0.0
  3
*D11
  1

  0
ARC
  5
1DA
330
1CC
100
AcDbEntity
  8
SLD-0
 62
     7
100
AcDbCircle
 10
125.3675917
 20
175.4030127384
 30
0.0
 40
1.5
100
AcDbArc
 50
90.0
 51
270.0
  0
ARC
  5
1DB
330
1CC
100
AcDbEntity
  8
SLD-0
 62
     7
100
AcDbCircle
 10
125.3675917
 20
175.4030127384
 30
0.0
 40
1.5
100
AcDbArc
 50
270.0
 51
90.0
  0
LINE
  5
1DC
330
1CC
100
AcDbEntity
  8
SLD-0
 62
     7
100
AcDbLine
 10
125.3675917
 20
178.4030127384
 30
0.0
 11
125.3675917
 21
181.4030127384
 31
0.0
  0
LINE
  5
1DD
330
1CC
100
AcDbEntity
  8
SLD-0
 62
     7
100
AcDbLine
 10
123.7598977
 20
166.3030127384
 30
0.0
 11
125.3675917
 21
172.3030127384
 31
0.0
  0
LINE
  5
1DE
330
1CC
100
AcDbEntity
  8
SLD-0
 62
     7
100
AcDbLine
 10
125.3675917
 20
172.3030127384
 30
0.0
 11
126.9752857
 21
166.3030127384
 31
0.0
  0
LINE
  5
1DF
330
1CC
100
AcDbEntity
  8
SLD-0
 62
     7
100
AcDbLine
 10
125.3675917
 20
172.3030127384
 30
0.0
 11
125.3675917
 21
166.3030127384
 31
0.0
  0
LINE
  5
1E0
330
1CC
100
AcDbEntity
  8
SLD-0
 62
     7
100
AcDbLine
 10
99.9617479217
 20
175.4030127384
 30
0.0
 11
126.3675917
 21
175.4030127384
 31
0.0
  0
LINE
  5
1E1
330
1CC
100
AcDbEntity
  8
SLD-0
 62
     7
100
AcDbLine
 10
105.4117479217
 20
172.3030127384
 30
0.0
 11
126.3675917
 21
172.3030127384
 31
0.0
  0
LINE
  5
1E2
330
1CC
100
AcDbEntity
  8
SLD-0
 62
     7
100
AcDbLine
 10
125.3675917
 20
175.4030127384
 30
0.0
 11
125.3675917
 21
187.4030127384
 31
0.0
  0
LINE
  5
1E3
330
1CC
100
AcDbEntity
  8
SLD-0
 62
     7
100
AcDbLine
 10
125.3675917
 20
175.4030127384
 30
0.0
 11
125.3675917
 21
172.3030127384
 31
0.0
  0
LINE
  5
1E4
330
1CC
100
AcDbEntity
  8
SLD-0
 62
     7
100
AcDbLine
 10
125.3675917
 20
172.3030127384
 30
0.0
 11
125.3675917
 21
155.9043245328
 31
0.0
  0
MTEXT
  5
1E5
330
1CC
100
AcDbEntity
  8
SLD-0
 62
     7
100
AcDbMText
 10
121.2948646601
 20
157.4918245328
 30
0.1
 40
3.5
 41
0.0
 71
     1
 72
     1
  1
3.10
  7
SLDTEXTSTYLE1
 11
-7.044197039909883E-15
 21
1.0
 31
0.0
 73
     1
 44
1.0
  0
ENDBLK
  5
1D9
330
1CC
100
AcDbEntity
  8
0
100
AcDbBlockEnd
  0
BLOCK
  5
1F3
330
1E7
100
AcDbEntity
  8
0
100
AcDbBlockBegin
  2
*D12
 70
     1
 71
     0
 10
0.0
 20
0.0
 30
0.0
  3
*D12
  1

  0
LINE
  5
1F5
330
1E7
100
AcDbEntity
  8
SLD-0
 62
     7
100
AcDbLine
 10
126.9752857
 20
183.9030127384
 30
0.0
 11
125.3675917
 21
177.9030127384
 31
0.0
  0
LINE
  5
1F6
330
1E7
100
AcDbEntity
  8
SLD-0
 62
     7
100
AcDbLine
 10
125.3675917
 20
177.9030127384
 30
0.0
 11
123.7598977
 21
183.9030127384
 31
0.0
  0
LINE
  5
1F7
330
1E7
100
AcDbEntity
  8
SLD-0
 62
     7
100
AcDbLine
 10
125.3675917
 20
177.9030127384
 30
0.0
 11
125.3675917
 21
183.9030127384
 31
0.0
  0
LINE
  5
1F8
330
1E7
100
AcDbEntity
  8
SLD-0
 62
     7
100
AcDbLine
 10
99.9617479217
 20
175.4030127384
 30
0.0
 11
126.3675917
 21
175.4030127384
 31
0.0
  0
LINE
  5
1F9
330
1E7
100
AcDbEntity
  8
SLD-0
 62
     7
100
AcDbLine
 10
89.3617479218
 20
177.9030127384
 30
0.0
 11
126.3675917
 21
177.9030127384
 31
0.0
  0
LINE
  5
1FA
330
1E7
100
AcDbEntity
  8
SLD-0
 62
     7
100
AcDbLine
 10
125.3675917
 20
175.4030127384
 30
0.0
 11
125.3675917
 21
163.4030127384
 31
0.0
  0
LINE
  5
1FB
330
1E7
100
AcDbEntity
  8
SLD-0
 62
     7
100
AcDbLine
 10
125.3675917
 20
175.4030127384
 30
0.0
 11
125.3675917
 21
177.9030127384
 31
0.0
  0
LINE
  5
1FC
330
1E7
100
AcDbEntity
  8
SLD-0
 62
     7
100
AcDbLine
 10
125.3675917
 20
177.9030127384
 30
0.0
 11
125.3675917
 21
194.1611929203
 31
0.0
  0
MTEXT
  5
1FD
330
1E7
100
AcDbEntity
  8
SLD-0
 62
     7
100
AcDbMText
 10
121.2948646601
 20
185.6371832466
 30
0.1
 40
3.5
 41
0.0
 71
     1
 72
     1
  1
2.50
  7
SLDTEXTSTYLE1
 11
6.123031769111886E-17
 21
1.0
 31
0.0
 73
     1
 44
1.0
  0
ENDBLK
  5
1F4
330
1E7
100
AcDbEntity
  8
0
100
AcDbBlockEnd
  0
BLOCK
  5
209
330
1FF
100
AcDbEntity
  8
0
100
AcDbBlockBegin
  2
*D13
 70
     1
 71
     0
 10
0.0
 20
0.0
 30
0.0
  3
*D13
  1

  0
LINE
  5
20C
330
1FF
100
AcDbEntity
  8
SLD-0
 62
     7
100
AcDbLine
 10
104.9617479217
 20
131.8741870813
 30
0.0
 11
98.9617479217
 21
133.4818810813
 31
0.0
  0
LINE
  5
20D
330
1FF
100
AcDbEntity
  8
SLD-0
 62
     7
100
AcDbLine
 10
98.9617479217
 20
133.4818810813
 30
0.0
 11
104.9617479217
 21
135.0895750813
 31
0.0
  0
LINE
  5
20E
330
1FF
100
AcDbEntity
  8
SLD-0
 62
     7
100
AcDbLine
 10
98.9617479217
 20
133.4818810813
 30
0.0
 11
104.9617479217
 21
133.4818810813
 31
0.0
  0
LINE
  5
20F
330
1FF
100
AcDbEntity
  8
SLD-0
 62
     7
100
AcDbLine
 10
67.9617479218
 20
135.0895750813
 30
0.0
 11
73.9617479218
 21
133.4818810813
 31
0.0
  0
LINE
  5
210
330
1FF
100
AcDbEntity
  8
SLD-0
 62
     7
100
AcDbLine
 10
73.9617479218
 20
133.4818810813
 30
0.0
 11
67.9617479218
 21
131.8741870813
 31
0.0
  0
LINE
  5
211
330
1FF
100
AcDbEntity
  8
SLD-0
 62
     7
100
AcDbLine
 10
73.9617479218
 20
133.4818810813
 30
0.0
 11
67.9617479218
 21
133.4818810813
 31
0.0
  0
LINE
  5
212
330
1FF
100
AcDbEntity
  8
SLD-0
 62
     7
100
AcDbLine
 10
98.9617479217
 20
174.4030127384
 30
0.0
 11
98.9617479217
 21
132.4818810813
 31
0.0
  0
LINE
  5
213
330
1FF
100
AcDbEntity
  8
SLD-0
 62
     7
100
AcDbLine
 10
73.9617479218
 20
160.7030127384
 30
0.0
 11
73.9617479218
 21
132.4818810813
 31
0.0
  0
LINE
  5
214
330
1FF
100
AcDbEntity
  8
SLD-0
 62
     7
100
AcDbLine
 10
98.9617479217
 20
133.4818810813
 30
0.0
 11
110.9617479217
 21
133.4818810813
 31
0.0
  0
LINE
  5
215
330
1FF
100
AcDbEntity
  8
SLD-0
 62
     7
100
AcDbLine
 10
98.9617479217
 20
133.4818810813
 30
0.0
 11
73.9617479218
 21
133.4818810813
 31
0.0
  0
LINE
  5
216
330
1FF
100
AcDbEntity
  8
SLD-0
 62
     7
100
AcDbLine
 10
73.9617479218
 20
133.4818810813
 30
0.0
 11
61.9617479218
 21
133.4818810813
 31
0.0
  0
MTEXT
  5
217
330
1FF
100
AcDbEntity
  8
SLD-0
 62
     7
100
AcDbMText
 10
82.6076842973
 20
137.5546081212
 30
0.1
 40
3.5
 41
0.0
 71
     1
 72
     1
  1
25
  7
SLDTEXTSTYLE1
 73
     1
 44
1.0
  0
ENDBLK
  5
20A
330
1FF
100
AcDbEntity
  8
0
100
AcDbBlockEnd
  0
BLOCK
  5
224
330
219
100
AcDbEntity
  8
0
100
AcDbBlockBegin
  2
*D14
 70
     1
 71
     0
 10
0.0
 20
0.0
 30
0.0
  3
*D14
  1

  0
LINE
  5
226
330
219
100
AcDbEntity
  8
SLD-0
 62
     7
100
AcDbLine
 10
152.8341576801
 20
185.9030127384
 30
0.0
 11
151.2264636801
 21
179.9030127384
 31
0.0
  0
LINE
  5
227
330
219
100
AcDbEntity
  8
SLD-0
 62
     7
100
AcDbLine
 10
151.2264636801
 20
179.9030127384
 30
0.0
 11
149.6187696801
 21
185.9030127384
 31
0.0
  0
LINE
  5
228
330
219
100
AcDbEntity
  8
SLD-0
 62
     7
100
AcDbLine
 10
151.2264636801
 20
179.9030127384
 30
0.0
 11
151.2264636801
 21
185.9030127384
 31
0.0
  0
LINE
  5
229
330
219
100
AcDbEntity
  8
SLD-0
 62
     7
100
AcDbLine
 10
149.6187696801
 20
153.2030127384
 30
0.0
 11
151.2264636801
 21
159.2030127384
 31
0.0
  0
LINE
  5
22A
330
219
100
AcDbEntity
  8
SLD-0
 62
     7
100
AcDbLine
 10
151.2264636801
 20
159.2030127384
 30
0.0
 11
152.8341576801
 21
153.2030127384
 31
0.0
  0
LINE
  5
22B
330
219
100
AcDbEntity
  8
SLD-0
 62
     7
100
AcDbLine
 10
151.2264636801
 20
159.2030127384
 30
0.0
 11
151.2264636801
 21
153.2030127384
 31
0.0
  0
LINE
  5
22C
330
219
100
AcDbEntity
  8
SLD-0
 62
     7
100
AcDbLine
 10
163.0321211399
 20
179.9030127384
 30
0.0
 11
150.2264636801
 21
179.9030127384
 31
0.0
  0
LINE
  5
22D
330
219
100
AcDbEntity
  8
SLD-0
 62
     7
100
AcDbLine
 10
159.9821211399
 20
159.2030127384
 30
0.0
 11
150.2264636801
 21
159.2030127384
 31
0.0
  0
LINE
  5
22E
330
219
100
AcDbEntity
  8
SLD-0
 62
     7
100
AcDbLine
 10
151.2264636801
 20
179.9030127384
 30
0.0
 11
151.2264636801
 21
191.9030127384
 31
0.0
  0
LINE
  5
22F
330
219
100
AcDbEntity
  8
SLD-0
 62
     7
100
AcDbLine
 10
151.2264636801
 20
179.9030127384
 30
0.0
 11
151.2264636801
 21
159.2030127384
 31
0.0
  0
LINE
  5
230
330
219
100
AcDbEntity
  8
SLD-0
 62
     7
100
AcDbLine
 10
151.2264636801
 20
159.2030127384
 30
0.0
 11
151.2264636801
 21
147.2030127384
 31
0.0
  0
MTEXT
  5
231
330
219
100
AcDbEntity
  8
SLD-0
 62
     7
100
AcDbMText
 10
147.1537366402
 20
162.6544677759
 30
0.1
 40
3.5
 41
0.0
 71
     1
 72
     1
  1
20.70
  7
SLDTEXTSTYLE1
 11
-7.044197039909883E-15
 21
1.0
 31
0.0
 73
     1
 44
1.0
  0
ENDBLK
  5
225
330
219
100
AcDbEntity
  8
0
100
AcDbBlockEnd
  0
BLOCK
  5
240
330
233
100
AcDbEntity
  8
0
100
AcDbBlockBegin
  2
*D15
 70
     1
 71
     0
 10
0.0
 20
0.0
 30
0.0
  3
*D15
  1

  0
LINE
  5
242
330
233
100
AcDbEntity
  8
SLD-0
 62
     7
100
AcDbLine
 10
158.0321211399
 20
199.2611742337
 30
0.0
 11
164.0321211399
 21
197.6534802337
 31
0.0
  0
LINE
  5
243
330
233
100
AcDbEntity
  8
SLD-0
 62
     7
100
AcDbLine
 10
164.0321211399
 20
197.6534802337
 30
0.0
 11
158.0321211399
 21
196.0457862337
 31
0.0
  0
LINE
  5
244
330
233
100
AcDbEntity
  8
SLD-0
 62
     7
100
AcDbLine
 10
164.0321211399
 20
197.6534802337
 30
0.0
 11
158.0321211399
 21
197.6534802337
 31
0.0
  0
LINE
  5
245
330
233
100
AcDbEntity
  8
SLD-0
 62
     7
100
AcDbLine
 10
164.0321211399
 20
180.9030127384
 30
0.0
 11
164.0321211399
 21
198.6534802337
 31
0.0
  0
LINE
  5
246
330
233
100
AcDbEntity
  8
SLD-0
 62
     7
100
AcDbLine
 10
168.2321211399
 20
180.9030127384
 30
0.0
 11
168.2321211399
 21
198.6534802337
 31
0.0
  0
LINE
  5
247
330
233
100
AcDbEntity
  8
SLD-0
 62
     7
100
AcDbLine
 10
164.0321211399
 20
197.6534802337
 30
0.0
 11
147.4291949296
 21
197.6534802337
 31
0.0
  0
LINE
  5
248
330
233
100
AcDbEntity
  8
SLD-0
 62
     7
100
AcDbLine
 10
164.0321211399
 20
197.6534802337
 30
0.0
 11
168.2321211399
 21
197.6534802337
 31
0.0
  0
LINE
  5
249
330
233
100
AcDbEntity
  8
SLD-0
 62
     7
100
AcDbLine
 10
168.2321211399
 20
197.6534802337
 30
0.0
 11
180.2321211399
 21
197.6534802337
 31
0.0
  0
MTEXT
  5
24A
330
233
100
AcDbEntity
  8
SLD-0
 62
     7
100
AcDbMText
 10
149.0166949296
 20
201.7262072736
 30
0.1
 40
3.5
 41
0.0
 71
     1
 72
     1
  1
4.20
  7
SLDTEXTSTYLE1
 73
     1
 44
1.0
  0
ENDBLK
  5
241
330
233
100
AcDbEntity
  8
0
100
AcDbBlockEnd
  0
BLOCK
  5
259
330
24C
100
AcDbEntity
  8
0
100
AcDbBlockBegin
  2
*D16
 70
     1
 71
     0
 10
0.0
 20
0.0
 30
0.0
  3
*D16
  1

  0
ARC
  5
25B
330
24C
100
AcDbEntity
  8
SLD-0
 62
     7
100
AcDbCircle
 10
168.2321211399
 20
197.6534802337
 30
0.0
 40
1.5
100
AcDbArc
 50
180.0
 51
0.0
  0
ARC
  5
25C
330
24C
100
AcDbEntity
  8
SLD-0
 62
     7
100
AcDbCircle
 10
168.2321211399
 20
197.6534802337
 30
0.0
 40
1.5
100
AcDbArc
 50
0.0
 51
180.0
  0
LINE
  5
25D
330
24C
100
AcDbEntity
  8
SLD-0
 62
     7
100
AcDbLine
 10
165.2321211399
 20
197.6534802337
 30
0.0
 11
162.2321211399
 21
197.6534802337
 31
0.0
  0
LINE
  5
25E
330
24C
100
AcDbEntity
  8
SLD-0
 62
     7
100
AcDbLine
 10
176.4321211399
 20
196.0457862337
 30
0.0
 11
170.4321211399
 21
197.6534802337
 31
0.0
  0
LINE
  5
25F
330
24C
100
AcDbEntity
  8
SLD-0
 62
     7
100
AcDbLine
 10
170.4321211399
 20
197.6534802337
 30
0.0
 11
176.4321211399
 21
199.2611742337
 31
0.0
  0
LINE
  5
260
330
24C
100
AcDbEntity
  8
SLD-0
 62
     7
100
AcDbLine
 10
170.4321211399
 20
197.6534802337
 30
0.0
 11
176.4321211399
 21
197.6534802337
 31
0.0
  0
LINE
  5
261
330
24C
100
AcDbEntity
  8
SLD-0
 62
     7
100
AcDbLine
 10
168.2321211399
 20
180.9030127384
 30
0.0
 11
168.2321211399
 21
198.6534802337
 31
0.0
  0
LINE
  5
262
330
24C
100
AcDbEntity
  8
SLD-0
 62
     7
100
AcDbLine
 10
170.4321211399
 20
179.6530127384
 30
0.0
 11
170.4321211399
 21
198.6534802337
 31
0.0
  0
LINE
  5
263
330
24C
100
AcDbEntity
  8
SLD-0
 62
     7
100
AcDbLine
 10
168.2321211399
 20
197.6534802337
 30
0.0
 11
156.2321211399
 21
197.6534802337
 31
0.0
  0
LINE
  5
264
330
24C
100
AcDbEntity
  8
SLD-0
 62
     7
100
AcDbLine
 10
168.2321211399
 20
197.6534802337
 30
0.0
 11
170.4321211399
 21
197.6534802337
 31
0.0
  0
LINE
  5
265
330
24C
100
AcDbEntity
  8
SLD-0
 62
     7
100
AcDbLine
 10
170.4321211399
 20
197.6534802337
 30
0.0
 11
181.5054757375
 21
197.6534802337
 31
0.0
  0
MTEXT
  5
266
330
24C
100
AcDbEntity
  8
SLD-0
 62
     7
100
AcDbMText
 10
172.9814660637
 20
201.7262072736
 30
0.1
 40
3.5
 41
0.0
 71
     1
 72
     1
  1
2.20
  7
SLDTEXTSTYLE1
 73
     1
 44
1.0
  0
ENDBLK
  5
25A
330
24C
100
AcDbEntity
  8
0
100
AcDbBlockEnd
  0
BLOCK
  5
272
330
268
100
AcDbEntity
  8
0
100
AcDbBlockBegin
  2
*D17
 70
     1
 71
     0
 10
0.0
 20
0.0
 30
0.0
  3
*D17
  1

  0
LINE
  5
274
330
268
100
AcDbEntity
  8
SLD-0
 62
     7
100
AcDbLine
 10
150.9821211399
 20
139.4962876064
 30
0.0
 11
156.9821211399
 21
137.8885936064
 31
0.0
  0
LINE
  5
275
330
268
100
AcDbEntity
  8
SLD-0
 62
     7
100
AcDbLine
 10
156.9821211399
 20
137.8885936064
 30
0.0
 11
150.9821211399
 21
136.2808996064
 31
0.0
  0
LINE
  5
276
330
268
100
AcDbEntity
  8
SLD-0
 62
     7
100
AcDbLine
 10
156.9821211399
 20
137.8885936064
 30
0.0
 11
150.9821211399
 21
137.8885936064
 31
0.0
  0
LINE
  5
277
330
268
100
AcDbEntity
  8
SLD-0
 62
     7
100
AcDbLine
 10
181.9821211399
 20
136.2808996064
 30
0.0
 11
175.9821211399
 21
137.8885936064
 31
0.0
  0
LINE
  5
278
330
268
100
AcDbEntity
  8
SLD-0
 62
     7
100
AcDbLine
 10
175.9821211399
 20
137.8885936064
 30
0.0
 11
181.9821211399
 21
139.4962876064
 31
0.0
  0
LINE
  5
279
330
268
100
AcDbEntity
  8
SLD-0
 62
     7
100
AcDbLine
 10
175.9821211399
 20
137.8885936064
 30
0.0
 11
181.9821211399
 21
137.8885936064
 31
0.0
  0
LINE
  5
27A
330
268
100
AcDbEntity
  8
SLD-0
 62
     7
100
AcDbLine
 10
156.9821211399
 20
158.5990127384
 30
0.0
 11
156.9821211399
 21
136.8885936064
 31
0.0
  0
LINE
  5
27B
330
268
100
AcDbEntity
  8
SLD-0
 62
     7
100
AcDbLine
 10
175.9821211399
 20
159.5030127384
 30
0.0
 11
175.9821211399
 21
136.8885936064
 31
0.0
  0
LINE
  5
27C
330
268
100
AcDbEntity
  8
SLD-0
 62
     7
100
AcDbLine
 10
156.9821211399
 20
137.8885936064
 30
0.0
 11
144.9821211399
 21
137.8885936064
 31
0.0
  0
LINE
  5
27D
330
268
100
AcDbEntity
  8
SLD-0
 62
     7
100
AcDbLine
 10
156.9821211399
 20
137.8885936064
 30
0.0
 11
175.9821211399
 21
137.8885936064
 31
0.0
  0
LINE
  5
27E
330
268
100
AcDbEntity
  8
SLD-0
 62
     7
100
AcDbLine
 10
175.9821211399
 20
137.8885936064
 30
0.0
 11
187.9821211399
 21
137.8885936064
 31
0.0
  0
MTEXT
  5
27F
330
268
100
AcDbEntity
  8
SLD-0
 62
     7
100
AcDbMText
 10
163.5898025664
 20
141.9613206463
 30
0.1
 40
3.5
 41
0.0
 71
     1
 72
     1
  1
19
  7
SLDTEXTSTYLE1
 73
     1
 44
1.0
  0
ENDBLK
  5
273
330
268
100
AcDbEntity
  8
0
100
AcDbBlockEnd
  0
ENDSEC
  0
SECTION
  2
ENTITIES
  0
LINE
  5
54
330
1F
100
AcDbEntity
  8
SLD-0
  6
Continuous
 62
     7
370
     0
100
AcDbLine
 10
20.2604743903
 20
285.0
 30
0.0
 11
196.7604743903
 21
285.0
 31
0.0
  0
LINE
  5
55
330
1F
100
AcDbEntity
  8
SLD-0
  6
Continuous
 62
     7
370
     0
100
AcDbLine
 10
20.2604743903
 20
285.0
 30
0.0
 11
20.2604743903
 21
10.0
 31
0.0
  0
LINE
  5
56
330
1F
100
AcDbEntity
  8
SLD-0
  6
Continuous
 62
     7
370
     0
100
AcDbLine
 10
20.2604743903
 20
10.0
 30
0.0
 11
196.7604743903
 21
10.0
 31
0.0
  0
LINE
  5
57
330
1F
100
AcDbEntity
  8
SLD-0
  6
Continuous
 62
     7
370
     0
100
AcDbLine
 10
196.7604743903
 20
285.0
 30
0.0
 11
196.7604743903
 21
10.0
 31
0.0
  0
LINE
  5
58
330
1F
100
AcDbEntity
  8
SLD-0
  6
Continuous
 62
     7
370
     0
100
AcDbLine
 10
127.0104743903
 20
50.75
 30
0.0
 11
196.7604743903
 21
50.75
 31
0.0
  0
LINE
  5
59
330
1F
100
AcDbEntity
  8
SLD-0
  6
Continuous
 62
     7
370
     0
100
AcDbLine
 10
127.0104743903
 20
50.75
 30
0.0
 11
127.0104743903
 21
10.0
 31
0.0
  0
LINE
  5
5A
330
1F
100
AcDbEntity
  8
SLD-0
  6
Continuous
 62
     7
370
     0
100
AcDbLine
 10
127.0104743903
 20
22.75
 30
0.0
 11
196.7604743903
 21
22.75
 31
0.0
  0
LINE
  5
5B
330
1F
100
AcDbEntity
  8
SLD-0
  6
Continuous
 62
     7
370
     0
100
AcDbLine
 10
127.0104743903
 20
36.75
 30
0.0
 11
196.7604743903
 21
36.75
 31
0.0
  0
LINE
  5
5C
330
1F
100
AcDbEntity
  8
SLD-0
  6
PHANTOM
 62
     7
370
     0
100
AcDbLine
 10
46.8123808295
 20
211.4789624355
 30
0.0
 11
83.8617479218
 21
177.9030127384
 31
0.0
  0
LINE
  5
5D
330
1F
100
AcDbEntity
  8
SLD-0
  6
PHANTOM
 62
     7
370
     0
100
AcDbLine
 10
46.2799082569
 20
210.8818745654
 30
0.0
 11
83.3245327266
 21
177.3102228649
 31
0.0
  0
LINE
  5
5E
330
1F
100
AcDbEntity
  8
SLD-0
  6
Continuous
 62
     7
370
    15
100
AcDbLine
 10
81.8617479218
 20
177.4821546014
 30
0.0
 11
34.4617003968
 21
185.1592870937
 31
0.0
  0
LINE
  5
5F
330
1F
100
AcDbEntity
  8
SLD-0
  6
Continuous
 62
     7
370
    15
100
AcDbLine
 10
34.3337954467
 20
184.3695780816
 30
0.0
 11
81.8617479218
 21
176.6717295078
 31
0.0
  0
LINE
  5
60
330
1F
100
AcDbEntity
  8
SLD-0
  6
Continuous
 62
     7
370
    15
100
AcDbLine
 10
78.0117479218
 20
162.7247005749
 30
0.0
 11
76.7617479218
 21
163.4465127384
 31
0.0
  0
LINE
  5
61
330
1F
100
AcDbEntity
  8
SLD-0
  6
Continuous
 62
     7
370
    15
100
AcDbLine
 10
76.7617479218
 20
163.4465127384
 30
0.0
 11
75.5117479218
 21
162.7247005749
 31
0.0
  0
LINE
  5
62
330
1F
100
AcDbEntity
  8
SLD-0
  6
Continuous
 62
     7
370
    15
100
AcDbLine
 10
75.5117479218
 20
162.7247005749
 30
0.0
 11
75.5117479218
 21
161.2813249019
 31
0.0
  0
LINE
  5
63
330
1F
100
AcDbEntity
  8
SLD-0
  6
Continuous
 62
     7
370
    15
100
AcDbLine
 10
75.5117479218
 20
161.2813249019
 30
0.0
 11
76.7617479218
 21
160.5595127384
 31
0.0
  0
LINE
  5
64
330
1F
100
AcDbEntity
  8
SLD-0
  6
Continuous
 62
     7
370
    15
100
AcDbLine
 10
76.7617479218
 20
160.5595127384
 30
0.0
 11
78.0117479218
 21
161.2813249019
 31
0.0
  0
LINE
  5
65
330
1F
100
AcDbEntity
  8
SLD-0
  6
Continuous
 62
     7
370
    15
100
AcDbLine
 10
78.0117479218
 20
161.2813249019
 30
0.0
 11
78.0117479218
 21
162.7247005749
 31
0.0
  0
LINE
  5
66
330
1F
100
AcDbEntity
  8
SLD-0
  6
Continuous
 62
     7
370
    15
100
AcDbLine
 10
97.7117479218
 20
173.0247005749
 30
0.0
 11
97.7117479218
 21
171.5813249019
 31
0.0
  0
LINE
  5
67
330
1F
100
AcDbEntity
  8
SLD-0
  6
Continuous
 62
     7
370
    15
100
AcDbLine
 10
97.7117479218
 20
171.5813249019
 30
0.0
 11
98.9617479218
 21
170.8595127384
 31
0.0
  0
LINE
  5
68
330
1F
100
AcDbEntity
  8
SLD-0
  6
Continuous
 62
     7
370
    15
100
AcDbLine
 10
98.9617479218
 20
170.8595127384
 30
0.0
 11
100.2117479218
 21
171.5813249019
 31
0.0
  0
LINE
  5
69
330
1F
100
AcDbEntity
  8
SLD-0
  6
Continuous
 62
     7
370
    15
100
AcDbLine
 10
100.2117479218
 20
173.0247005749
 30
0.0
 11
98.9617479218
 21
173.7465127384
 31
0.0
  0
LINE
  5
6A
330
1F
100
AcDbEntity
  8
SLD-0
  6
Continuous
 62
     7
370
    15
100
AcDbLine
 10
97.7117479218
 20
173.0247005749
 30
0.0
 11
98.9617479218
 21
173.7465127384
 31
0.0
  0
LINE
  5
6B
330
1F
100
AcDbEntity
  8
SLD-0
  6
Continuous
 62
     7
370
    15
100
AcDbLine
 10
100.2117479218
 20
171.5813249019
 30
0.0
 11
100.2117479218
 21
173.0247005749
 31
0.0
  0
LINE
  5
6C
330
1F
100
AcDbEntity
  8
SLD-0
  6
Continuous
 62
     7
370
    15
100
AcDbLine
 10
73.9617479218
 20
162.9317215194
 30
0.0
 11
73.9617479218
 21
164.6213844114
 31
0.0
  0
LINE
  5
6D
330
1F
100
AcDbEntity
  8
SLD-0
  6
Continuous
 62
     7
370
    15
100
AcDbLine
 10
73.9617479218
 20
164.6213844114
 30
0.0
 11
88.0970998878
 21
172.1626197242
 31
0.0
  0
LINE
  5
6E
330
1F
100
AcDbEntity
  8
SLD-0
  6
Continuous
 62
     7
370
    15
100
AcDbLine
 10
88.3617479218
 20
172.6037653374
 30
0.0
 11
88.3617479218
 21
175.4030127384
 31
0.0
  0
LINE
  5
6F
330
1F
100
AcDbEntity
  8
SLD-0
  6
Continuous
 62
     7
370
    15
100
AcDbLine
 10
88.3617479218
 20
175.4030127384
 30
0.0
 11
98.9617479217
 21
175.4030127384
 31
0.0
  0
LINE
  5
70
330
1F
100
AcDbEntity
  8
SLD-0
  6
Continuous
 62
     7
370
    15
100
AcDbLine
 10
98.2777001035
 20
169.433417195
 30
0.0
 11
79.1017479218
 21
159.2030127384
 31
0.0
  0
LINE
  5
71
330
1F
100
AcDbEntity
  8
SLD-0
  6
Continuous
 62
     7
370
    15
100
AcDbLine
 10
79.1017479218
 20
159.2030127384
 30
0.0
 11
77.6904567028
 21
159.2030127384
 31
0.0
  0
LINE
  5
72
330
1F
100
AcDbEntity
  8
SLD-0
  6
Continuous
 62
     7
370
    15
100
AcDbLine
 10
98.9617479217
 20
175.4030127384
 30
0.0
 11
98.9617479217
 21
175.2530127384
 31
0.0
  0
LINE
  5
73
330
1F
100
AcDbEntity
  8
SLD-0
  6
Continuous
 62
     7
370
    15
100
AcDbLine
 10
87.8617479218
 20
175.1030127384
 30
0.0
 11
87.8617479218
 21
175.4030127384
 31
0.0
  0
LINE
  5
74
330
1F
100
AcDbEntity
  8
SLD-0
  6
Continuous
 62
     7
370
    15
100
AcDbLine
 10
87.8617479218
 20
175.1030127384
 30
0.0
 11
88.3617479218
 21
175.1030127384
 31
0.0
  0
LINE
  5
75
330
1F
100
AcDbEntity
  8
SLD-0
  6
Continuous
 62
     7
370
    15
100
AcDbLine
 10
88.3617479218
 20
175.4030127384
 30
0.0
 11
87.8617479218
 21
175.4030127384
 31
0.0
  0
LINE
  5
76
330
1F
100
AcDbEntity
  8
SLD-0
  6
Continuous
 62
     7
370
    15
100
AcDbLine
 10
81.8617479218
 20
177.9030127384
 30
0.0
 11
81.8617479218
 21
175.1030127384
 31
0.0
  0
LINE
  5
77
330
1F
100
AcDbEntity
  8
SLD-0
  6
Continuous
 62
     7
370
    15
100
AcDbLine
 10
85.8617479218
 20
175.1030127384
 30
0.0
 11
85.8617479218
 21
177.9030127384
 31
0.0
  0
LINE
  5
78
330
1F
100
AcDbEntity
  8
SLD-0
  6
Continuous
 62
     7
370
    15
100
AcDbLine
 10
81.8617479218
 20
175.1030127384
 30
0.0
 11
85.8617479218
 21
175.1030127384
 31
0.0
  0
LINE
  5
79
330
1F
100
AcDbEntity
  8
SLD-0
  6
Continuous
 62
     7
370
    15
100
AcDbLine
 10
34.4617003968
 20
185.1592870937
 30
0.0
 11
34.3337954467
 21
184.3695780816
 31
0.0
  0
LINE
  5
7A
330
1F
100
AcDbEntity
  8
SLD-0
  6
Continuous
 62
     7
370
    15
100
AcDbLine
 10
85.8617479218
 20
175.1030127384
 30
0.0
 11
87.8617479218
 21
175.1030127384
 31
0.0
  0
LINE
  5
7B
330
1F
100
AcDbEntity
  8
SLD-0
  6
Continuous
 62
     7
370
    15
100
AcDbLine
 10
87.8617479218
 20
175.4030127384
 30
0.0
 11
85.8617479218
 21
175.4030127384
 31
0.0
  0
LINE
  5
7C
330
1F
100
AcDbEntity
  8
SLD-0
  6
Continuous
 62
     7
370
    15
100
AcDbLine
 10
92.0617479218
 20
176.3530127384
 30
0.0
 11
85.8617479218
 21
176.3530127384
 31
0.0
  0
LINE
  5
7D
330
1F
100
AcDbEntity
  8
SLD-0
  6
Continuous
 62
     7
370
    15
100
AcDbLine
 10
85.8617479218
 20
177.1530127384
 30
0.0
 11
92.0617479218
 21
177.1530127384
 31
0.0
  0
LINE
  5
7E
330
1F
100
AcDbEntity
  8
SLD-0
  6
Continuous
 62
     7
370
    15
100
AcDbLine
 10
92.0617479218
 20
177.1530127384
 30
0.0
 11
92.0617479218
 21
176.3530127384
 31
0.0
  0
LINE
  5
7F
330
1F
100
AcDbEntity
  8
SLD-0
  6
Continuous
 62
     7
370
     0
100
AcDbLine
 10
62.5377291685
 20
172.3462808823
 30
0.0
 11
53.0630230556
 21
172.3462808823
 31
0.0
  0
LINE
  5
80
330
1F
100
AcDbEntity
  8
SLD-0
  6
Continuous
 62
     7
370
     0
100
AcDbLine
 10
53.0630230556
 20
172.3462808823
 30
0.0
 11
47.9379114103
 21
182.9766171841
 31
0.0
  0
LINE
  5
81
330
1F
100
AcDbEntity
  8
SLD-0
  6
Continuous
 62
     7
370
    15
100
AcDbLine
 10
159.9821211399
 20
169.3530127384
 30
0.0
 11
160.6821211399
 21
169.3530127384
 31
0.0
  0
LINE
  5
82
330
1F
100
AcDbEntity
  8
SLD-0
  6
Continuous
 62
     7
370
    15
100
AcDbLine
 10
160.6821211399
 20
175.2530127383
 30
0.0
 11
159.9821211399
 21
175.2530127383
 31
0.0
  0
LINE
  5
83
330
1F
100
AcDbEntity
  8
SLD-0
  6
Continuous
 62
     7
370
    15
100
AcDbLine
 10
157.1821211399
 20
169.5530127384
 30
0.0
 11
159.9821211399
 21
169.5530127384
 31
0.0
  0
LINE
  5
84
330
1F
100
AcDbEntity
  8
SLD-0
  6
Continuous
 62
     7
370
    15
100
AcDbLine
 10
159.9821211399
 20
175.0530127384
 30
0.0
 11
157.1821211399
 21
175.0530127384
 31
0.0
  0
LINE
  5
85
330
1F
100
AcDbEntity
  8
SLD-0
  6
Continuous
 62
     7
370
    15
100
AcDbLine
 10
157.1821211399
 20
175.0530127384
 30
0.0
 11
156.9821211399
 21
174.7070127384
 31
0.0
  0
LINE
  5
86
330
1F
100
AcDbEntity
  8
SLD-0
  6
Continuous
 62
     7
370
    15
100
AcDbLine
 10
156.9821211399
 20
169.8990127384
 30
0.0
 11
157.1821211399
 21
169.5530127384
 31
0.0
  0
LINE
  5
87
330
1F
100
AcDbEntity
  8
SLD-0
  6
Continuous
 62
     7
370
    15
100
AcDbLine
 10
160.6821211399
 20
169.5530127384
 30
0.0
 11
160.9821211399
 21
169.5530127384
 31
0.0
  0
LINE
  5
88
330
1F
100
AcDbEntity
  8
SLD-0
  6
Continuous
 62
     7
370
    15
100
AcDbLine
 10
175.9821211399
 20
173.8030127383
 30
0.0
 11
160.9821211399
 21
173.8030127383
 31
0.0
  0
LINE
  5
89
330
1F
100
AcDbEntity
  8
SLD-0
  6
Continuous
 62
     7
370
    15
100
AcDbLine
 10
160.9821211399
 20
170.8030127384
 30
0.0
 11
175.9821211399
 21
170.8030127384
 31
0.0
  0
LINE
  5
8A
330
1F
100
AcDbEntity
  8
SLD-0
  6
Continuous
 62
     7
370
    15
100
AcDbLine
 10
168.2321211399
 20
179.9030127384
 30
0.0
 11
167.9321211399
 21
179.9030127384
 31
0.0
  0
LINE
  5
8B
330
1F
100
AcDbEntity
  8
SLD-0
  6
Continuous
 62
     7
370
    15
100
AcDbLine
 10
164.3321211399
 20
179.9030127384
 30
0.0
 11
164.0321211399
 21
179.9030127384
 31
0.0
  0
LINE
  5
8C
330
1F
100
AcDbEntity
  8
SLD-0
  6
Continuous
 62
     7
370
    15
100
AcDbLine
 10
164.6370525638
 20
176.3689887674
 30
0.0
 11
164.6536767965
 21
176.3637439359
 31
0.0
  0
LINE
  5
8D
330
1F
100
AcDbEntity
  8
SLD-0
  6
Continuous
 62
     7
370
    15
100
AcDbLine
 10
164.6536767965
 20
176.3637439359
 30
0.0
 11
164.7503379078
 21
176.3589049853
 31
0.0
  0
LINE
  5
8E
330
1F
100
AcDbEntity
  8
SLD-0
  6
Continuous
 62
     7
370
    15
100
AcDbLine
 10
165.1400803611
 20
179.4525752678
 30
0.0
 11
165.0375673256
 21
179.4404505329
 31
0.0
  0
LINE
  5
8F
330
1F
100
AcDbEntity
  8
SLD-0
  6
Continuous
 62
     7
370
    15
100
AcDbLine
 10
165.0375673256
 20
179.4404505329
 30
0.0
 11
164.9513165649
 21
179.4076292869
 31
0.0
  0
LINE
  5
90
330
1F
100
AcDbEntity
  8
SLD-0
  6
Continuous
 62
     7
370
    15
100
AcDbLine
 10
164.9513165649
 20
179.4076292869
 30
0.0
 11
164.8305201398
 21
179.3170696237
 31
0.0
  0
LINE
  5
91
330
1F
100
AcDbEntity
  8
SLD-0
  6
Continuous
 62
     7
370
    15
100
AcDbLine
 10
164.8305201398
 20
179.3170696237
 30
0.0
 11
164.7354630937
 21
179.1690112707
 31
0.0
  0
LINE
  5
92
330
1F
100
AcDbEntity
  8
SLD-0
  6
Continuous
 62
     7
370
    15
100
AcDbLine
 10
164.7354630937
 20
179.1690112707
 30
0.0
 11
164.6628239617
 21
178.9066973954
 31
0.0
  0
LINE
  5
93
330
1F
100
AcDbEntity
  8
SLD-0
  6
Continuous
 62
     7
370
    15
100
AcDbLine
 10
164.6628239617
 20
178.9066973954
 30
0.0
 11
164.6160810123
 21
178.6054930523
 31
0.0
  0
LINE
  5
94
330
1F
100
AcDbEntity
  8
SLD-0
  6
Continuous
 62
     7
370
    15
100
AcDbLine
 10
164.6160810123
 20
178.6054930523
 30
0.0
 11
164.5642208378
 21
178.1768703396
 31
0.0
  0
LINE
  5
95
330
1F
100
AcDbEntity
  8
SLD-0
  6
Continuous
 62
     7
370
    15
100
AcDbLine
 10
164.5642208378
 20
178.1768703396
 30
0.0
 11
164.5356050754
 21
177.9196260836
 31
0.0
  0
LINE
  5
96
330
1F
100
AcDbEntity
  8
SLD-0
  6
Continuous
 62
     7
370
    15
100
AcDbLine
 10
164.5356050754
 20
177.9196260836
 30
0.0
 11
164.5052046894
 21
177.648385533
 31
0.0
  0
LINE
  5
97
330
1F
100
AcDbEntity
  8
SLD-0
  6
Continuous
 62
     7
370
    15
100
AcDbLine
 10
164.5052046894
 20
177.648385533
 30
0.0
 11
164.4745489729
 21
177.3921375516
 31
0.0
  0
LINE
  5
98
330
1F
100
AcDbEntity
  8
SLD-0
  6
Continuous
 62
     7
370
    15
100
AcDbLine
 10
164.4745489729
 20
177.3921375516
 30
0.0
 11
164.449324726
 21
177.2021973443
 31
0.0
  0
LINE
  5
99
330
1F
100
AcDbEntity
  8
SLD-0
  6
Continuous
 62
     7
370
    15
100
AcDbLine
 10
164.449324726
 20
177.2021973443
 30
0.0
 11
164.4328390488
 21
177.085038617
 31
0.0
  0
LINE
  5
9A
330
1F
100
AcDbEntity
  8
SLD-0
  6
Continuous
 62
     7
370
    15
100
AcDbLine
 10
164.4328390488
 20
177.085038617
 30
0.0
 11
164.4294590425
 21
177.032836208
 31
0.0
  0
LINE
  5
9B
330
1F
100
AcDbEntity
  8
SLD-0
  6
Continuous
 62
     7
370
    15
100
AcDbLine
 10
164.4294590425
 20
177.032836208
 30
0.0
 11
164.4336117411
 21
177.033349938
 31
0.0
  0
LINE
  5
9C
330
1F
100
AcDbEntity
  8
SLD-0
  6
Continuous
 62
     7
370
    15
100
AcDbLine
 10
165.9400087552
 20
179.4529274351
 30
0.0
 11
165.7908702734
 21
179.426231526
 31
0.0
  0
LINE
  5
9D
330
1F
100
AcDbEntity
  8
SLD-0
  6
Continuous
 62
     7
370
    15
100
AcDbLine
 10
165.7908702734
 20
179.426231526
 30
0.0
 11
165.6794433352
 21
179.3633593907
 31
0.0
  0
LINE
  5
9E
330
1F
100
AcDbEntity
  8
SLD-0
  6
Continuous
 62
     7
370
    15
100
AcDbLine
 10
165.6794433352
 20
179.3633593907
 30
0.0
 11
165.5605332117
 21
179.2251092366
 31
0.0
  0
LINE
  5
9F
330
1F
100
AcDbEntity
  8
SLD-0
  6
Continuous
 62
     7
370
    15
100
AcDbLine
 10
165.5605332117
 20
179.2251092366
 30
0.0
 11
165.4870262951
 21
179.0197001328
 31
0.0
  0
LINE
  5
A0
330
1F
100
AcDbEntity
  8
SLD-0
  6
Continuous
 62
     7
370
    15
100
AcDbLine
 10
165.4870262951
 20
179.0197001328
 30
0.0
 11
165.4227840695
 21
178.6536612224
 31
0.0
  0
LINE
  5
A1
330
1F
100
AcDbEntity
  8
SLD-0
  6
Continuous
 62
     7
370
    15
100
AcDbLine
 10
165.4227840695
 20
178.6536612224
 30
0.0
 11
165.4227011608
 21
178.6530127384
 31
0.0
  0
LINE
  5
A2
330
1F
100
AcDbEntity
  8
SLD-0
  6
Continuous
 62
     7
370
    15
100
AcDbLine
 10
166.7397855505
 20
179.4525698073
 30
0.0
 11
166.6223631809
 21
179.4350156514
 31
0.0
  0
LINE
  5
A3
330
1F
100
AcDbEntity
  8
SLD-0
  6
Continuous
 62
     7
370
    15
100
AcDbLine
 10
166.6223631809
 20
179.4350156514
 30
0.0
 11
166.5259683673
 21
179.3893440606
 31
0.0
  0
LINE
  5
A4
330
1F
100
AcDbEntity
  8
SLD-0
  6
Continuous
 62
     7
370
    15
100
AcDbLine
 10
166.5259683673
 20
179.3893440606
 30
0.0
 11
166.3987650242
 21
179.2712285037
 31
0.0
  0
LINE
  5
A5
330
1F
100
AcDbEntity
  8
SLD-0
  6
Continuous
 62
     7
370
    15
100
AcDbLine
 10
166.3987650242
 20
179.2712285037
 30
0.0
 11
166.327632323
 21
179.1466543528
 31
0.0
  0
LINE
  5
A6
330
1F
100
AcDbEntity
  8
SLD-0
  6
Continuous
 62
     7
370
    15
100
AcDbLine
 10
166.327632323
 20
179.1466543528
 30
0.0
 11
166.3009097198
 21
179.0694217764
 31
0.0
  0
LINE
  5
A7
330
1F
100
AcDbEntity
  8
SLD-0
  6
Continuous
 62
     7
370
    15
100
AcDbLine
 10
166.3009097198
 20
179.0694217764
 30
0.0
 11
166.2787380411
 21
178.9833257697
 31
0.0
  0
LINE
  5
A8
330
1F
100
AcDbEntity
  8
SLD-0
  6
Continuous
 62
     7
370
    15
100
AcDbLine
 10
166.2787380411
 20
178.9833257697
 30
0.0
 11
166.2588686336
 21
178.8850409618
 31
0.0
  0
LINE
  5
A9
330
1F
100
AcDbEntity
  8
SLD-0
  6
Continuous
 62
     7
370
    15
100
AcDbLine
 10
166.2588686336
 20
178.8850409618
 30
0.0
 11
166.2401813735
 21
178.7590898572
 31
0.0
  0
LINE
  5
AA
330
1F
100
AcDbEntity
  8
SLD-0
  6
Continuous
 62
     7
370
    15
100
AcDbLine
 10
166.0278890901
 20
177.0683935238
 30
0.0
 11
166.019727965
 21
177.0196055382
 31
0.0
  0
LINE
  5
AB
330
1F
100
AcDbEntity
  8
SLD-0
  6
Continuous
 62
     7
370
    15
100
AcDbLine
 10
166.019727965
 20
177.0196055382
 30
0.0
 11
166.0159767863
 21
176.9867540001
 31
0.0
  0
LINE
  5
AC
330
1F
100
AcDbEntity
  8
SLD-0
  6
Continuous
 62
     7
370
    15
100
AcDbLine
 10
166.0159767863
 20
176.9867540001
 30
0.0
 11
166.016705492
 21
176.9869448973
 31
0.0
  0
LINE
  5
AD
330
1F
100
AcDbEntity
  8
SLD-0
  6
Continuous
 62
     7
370
    15
100
AcDbLine
 10
167.239734327
 20
178.6530127384
 30
0.0
 11
167.186214923
 21
178.9788341696
 31
0.0
  0
LINE
  5
AE
330
1F
100
AcDbEntity
  8
SLD-0
  6
Continuous
 62
     7
370
    15
100
AcDbLine
 10
167.186214923
 20
178.9788341696
 30
0.0
 11
167.1070976015
 21
179.217335771
 31
0.0
  0
LINE
  5
AF
330
1F
100
AcDbEntity
  8
SLD-0
  6
Continuous
 62
     7
370
    15
100
AcDbLine
 10
167.1070976015
 20
179.217335771
 30
0.0
 11
166.9849465271
 21
179.3623987182
 31
0.0
  0
LINE
  5
B0
330
1F
100
AcDbEntity
  8
SLD-0
  6
Continuous
 62
     7
370
    15
100
AcDbLine
 10
166.9849465271
 20
179.3623987182
 30
0.0
 11
166.8728832959
 21
179.4259092016
 31
0.0
  0
LINE
  5
B1
330
1F
100
AcDbEntity
  8
SLD-0
  6
Continuous
 62
     7
370
    15
100
AcDbLine
 10
166.8728832959
 20
179.4259092016
 30
0.0
 11
166.7241511965
 21
179.4525888262
 31
0.0
  0
LINE
  5
B2
330
1F
100
AcDbEntity
  8
SLD-0
  6
Continuous
 62
     7
370
    15
100
AcDbLine
 10
166.8135448253
 20
177.0022150055
 30
0.0
 11
166.8402611471
 21
177.1447910893
 31
0.0
  0
LINE
  5
B3
330
1F
100
AcDbEntity
  8
SLD-0
  6
Continuous
 62
     7
370
    15
100
AcDbLine
 10
166.8402611471
 20
177.1447910893
 30
0.0
 11
166.8748273059
 21
177.4120169064
 31
0.0
  0
LINE
  5
B4
330
1F
100
AcDbEntity
  8
SLD-0
  6
Continuous
 62
     7
370
    15
100
AcDbLine
 10
166.8748273059
 20
177.4120169064
 30
0.0
 11
166.9097714942
 21
177.7162231825
 31
0.0
  0
LINE
  5
B5
330
1F
100
AcDbEntity
  8
SLD-0
  6
Continuous
 62
     7
370
    15
100
AcDbLine
 10
166.9097714942
 20
177.7162231825
 30
0.0
 11
166.9425539196
 21
178.0116357234
 31
0.0
  0
LINE
  5
B6
330
1F
100
AcDbEntity
  8
SLD-0
  6
Continuous
 62
     7
370
    15
100
AcDbLine
 10
166.9425539196
 20
178.0116357234
 30
0.0
 11
166.9723632671
 21
178.271810055
 31
0.0
  0
LINE
  5
B7
330
1F
100
AcDbEntity
  8
SLD-0
  6
Continuous
 62
     7
370
    15
100
AcDbLine
 10
166.9723632671
 20
178.271810055
 30
0.0
 11
166.9991295345
 21
178.4863206881
 31
0.0
  0
LINE
  5
B8
330
1F
100
AcDbEntity
  8
SLD-0
  6
Continuous
 62
     7
370
    15
100
AcDbLine
 10
166.9991295345
 20
178.4863206881
 30
0.0
 11
167.022780078
 21
178.651774227
 31
0.0
  0
LINE
  5
B9
330
1F
100
AcDbEntity
  8
SLD-0
  6
Continuous
 62
     7
370
    15
100
AcDbLine
 10
167.022780078
 20
178.651774227
 30
0.0
 11
167.0418855275
 21
178.7644665462
 31
0.0
  0
LINE
  5
BA
330
1F
100
AcDbEntity
  8
SLD-0
  6
Continuous
 62
     7
370
    15
100
AcDbLine
 10
167.0418855275
 20
178.7644665462
 30
0.0
 11
167.0473777896
 21
178.8096362424
 31
0.0
  0
LINE
  5
BB
330
1F
100
AcDbEntity
  8
SLD-0
  6
Continuous
 62
     7
370
    15
100
AcDbLine
 10
167.0473777896
 20
178.8096362424
 30
0.0
 11
167.0461573873
 21
178.8090279101
 31
0.0
  0
LINE
  5
BC
330
1F
100
AcDbEntity
  8
SLD-0
  6
Continuous
 62
     7
370
    15
100
AcDbLine
 10
165.5244187753
 20
176.353224234
 30
0.0
 11
165.6262478803
 21
176.3648438983
 31
0.0
  0
LINE
  5
BD
330
1F
100
AcDbEntity
  8
SLD-0
  6
Continuous
 62
     7
370
    15
100
AcDbLine
 10
165.6262478803
 20
176.3648438983
 30
0.0
 11
165.7163823845
 21
176.3990437551
 31
0.0
  0
LINE
  5
BE
330
1F
100
AcDbEntity
  8
SLD-0
  6
Continuous
 62
     7
370
    15
100
AcDbLine
 10
165.7163823845
 20
176.3990437551
 30
0.0
 11
165.8542983531
 21
176.5134486497
 31
0.0
  0
LINE
  5
BF
330
1F
100
AcDbEntity
  8
SLD-0
  6
Continuous
 62
     7
370
    15
100
AcDbLine
 10
165.8542983531
 20
176.5134486497
 30
0.0
 11
165.9848702538
 21
176.8192455819
 31
0.0
  0
LINE
  5
C0
330
1F
100
AcDbEntity
  8
SLD-0
  6
Continuous
 62
     7
370
    15
100
AcDbLine
 10
165.9848702538
 20
176.8192455819
 30
0.0
 11
166.0383669211
 21
177.1290769423
 31
0.0
  0
LINE
  5
C1
330
1F
100
AcDbEntity
  8
SLD-0
  6
Continuous
 62
     7
370
    15
100
AcDbLine
 10
166.0383669211
 20
177.1290769423
 30
0.0
 11
166.0659893597
 21
177.3392990432
 31
0.0
  0
LINE
  5
C2
330
1F
100
AcDbEntity
  8
SLD-0
  6
Continuous
 62
     7
370
    15
100
AcDbLine
 10
166.0659893597
 20
177.3392990432
 30
0.0
 11
166.0962085739
 21
177.5953950093
 31
0.0
  0
LINE
  5
C3
330
1F
100
AcDbEntity
  8
SLD-0
  6
Continuous
 62
     7
370
    15
100
AcDbLine
 10
166.0962085739
 20
177.5953950093
 30
0.0
 11
166.1290787541
 21
177.8902369033
 31
0.0
  0
LINE
  5
C4
330
1F
100
AcDbEntity
  8
SLD-0
  6
Continuous
 62
     7
370
    15
100
AcDbLine
 10
166.1290787541
 20
177.8902369033
 30
0.0
 11
166.1634656874
 21
178.1961347562
 31
0.0
  0
LINE
  5
C5
330
1F
100
AcDbEntity
  8
SLD-0
  6
Continuous
 62
     7
370
    15
100
AcDbLine
 10
166.1634656874
 20
178.1961347562
 30
0.0
 11
166.1943121694
 21
178.4501594048
 31
0.0
  0
LINE
  5
C6
330
1F
100
AcDbEntity
  8
SLD-0
  6
Continuous
 62
     7
370
    15
100
AcDbLine
 10
166.1943121694
 20
178.4501594048
 30
0.0
 11
166.2203051888
 21
178.6380810213
 31
0.0
  0
LINE
  5
C7
330
1F
100
AcDbEntity
  8
SLD-0
  6
Continuous
 62
     7
370
    15
100
AcDbLine
 10
166.2203051888
 20
178.6380810213
 30
0.0
 11
166.2403988913
 21
178.7604141339
 31
0.0
  0
LINE
  5
C8
330
1F
100
AcDbEntity
  8
SLD-0
  6
Continuous
 62
     7
370
    15
100
AcDbLine
 10
166.2403988913
 20
178.7604141339
 30
0.0
 11
166.2478464957
 21
178.7989934101
 31
0.0
  0
LINE
  5
C9
330
1F
100
AcDbEntity
  8
SLD-0
  6
Continuous
 62
     7
370
    15
100
AcDbLine
 10
166.2478464957
 20
178.7989934101
 30
0.0
 11
166.2493953001
 21
178.8137838384
 31
0.0
  0
LINE
  5
CA
330
1F
100
AcDbEntity
  8
SLD-0
  6
Continuous
 62
     7
370
    15
100
AcDbLine
 10
164.7352351889
 20
176.3588170739
 30
0.0
 11
164.8455873526
 21
176.3831917448
 31
0.0
  0
LINE
  5
CB
330
1F
100
AcDbEntity
  8
SLD-0
  6
Continuous
 62
     7
370
    15
100
AcDbLine
 10
164.8455873526
 20
176.3831917448
 30
0.0
 11
164.9371990985
 21
176.4310268069
 31
0.0
  0
LINE
  5
CC
330
1F
100
AcDbEntity
  8
SLD-0
  6
Continuous
 62
     7
370
    15
100
AcDbLine
 10
164.9371990985
 20
176.4310268069
 30
0.0
 11
165.0613990596
 21
176.5468621895
 31
0.0
  0
LINE
  5
CD
330
1F
100
AcDbEntity
  8
SLD-0
  6
Continuous
 62
     7
370
    15
100
AcDbLine
 10
165.0613990596
 20
176.5468621895
 30
0.0
 11
165.1455180686
 21
176.6914288551
 31
0.0
  0
LINE
  5
CE
330
1F
100
AcDbEntity
  8
SLD-0
  6
Continuous
 62
     7
370
    15
100
AcDbLine
 10
165.1455180686
 20
176.6914288551
 30
0.0
 11
165.207551546
 21
176.9336751963
 31
0.0
  0
LINE
  5
CF
330
1F
100
AcDbEntity
  8
SLD-0
  6
Continuous
 62
     7
370
    15
100
AcDbLine
 10
165.207551546
 20
176.9336751963
 30
0.0
 11
165.2635989594
 21
177.3203628996
 31
0.0
  0
LINE
  5
D0
330
1F
100
AcDbEntity
  8
SLD-0
  6
Continuous
 62
     7
370
    15
100
AcDbLine
 10
165.2635989594
 20
177.3203628996
 30
0.0
 11
165.2927595827
 21
177.565402677
 31
0.0
  0
LINE
  5
D1
330
1F
100
AcDbEntity
  8
SLD-0
  6
Continuous
 62
     7
370
    15
100
AcDbLine
 10
165.2927595827
 20
177.565402677
 30
0.0
 11
165.3224703863
 21
177.8305334381
 31
0.0
  0
LINE
  5
D2
330
1F
100
AcDbEntity
  8
SLD-0
  6
Continuous
 62
     7
370
    15
100
AcDbLine
 10
165.3224703863
 20
177.8305334381
 30
0.0
 11
165.352688556
 21
178.1023988177
 31
0.0
  0
LINE
  5
D3
330
1F
100
AcDbEntity
  8
SLD-0
  6
Continuous
 62
     7
370
    15
100
AcDbLine
 10
165.352688556
 20
178.1023988177
 30
0.0
 11
165.3833703871
 21
178.3643754422
 31
0.0
  0
LINE
  5
D4
330
1F
100
AcDbEntity
  8
SLD-0
  6
Continuous
 62
     7
370
    15
100
AcDbLine
 10
165.3833703871
 20
178.3643754422
 30
0.0
 11
165.4129068122
 21
178.5874304788
 31
0.0
  0
LINE
  5
D5
330
1F
100
AcDbEntity
  8
SLD-0
  6
Continuous
 62
     7
370
    15
100
AcDbLine
 10
165.4129068122
 20
178.5874304788
 30
0.0
 11
165.435623814
 21
178.7328011604
 31
0.0
  0
LINE
  5
D6
330
1F
100
AcDbEntity
  8
SLD-0
  6
Continuous
 62
     7
370
    15
100
AcDbLine
 10
165.435623814
 20
178.7328011604
 30
0.0
 11
165.4489263275
 21
178.8069016051
 31
0.0
  0
LINE
  5
D7
330
1F
100
AcDbEntity
  8
SLD-0
  6
Continuous
 62
     7
370
    15
100
AcDbLine
 10
165.4489263275
 20
178.8069016051
 30
0.0
 11
165.4496146159
 21
178.8219829786
 31
0.0
  0
LINE
  5
D8
330
1F
100
AcDbEntity
  8
SLD-0
  6
Continuous
 62
     7
370
    15
100
AcDbLine
 10
168.2321211399
 20
177.1530127384
 30
0.0
 11
170.4321211399
 21
177.1530127384
 31
0.0
  0
LINE
  5
D9
330
1F
100
AcDbEntity
  8
SLD-0
  6
Continuous
 62
     7
370
    15
100
AcDbLine
 10
170.4321211399
 20
178.6530127384
 30
0.0
 11
168.2321211399
 21
178.6530127384
 31
0.0
  0
LINE
  5
DA
330
1F
100
AcDbEntity
  8
SLD-0
  6
Continuous
 62
     7
370
    15
100
AcDbLine
 10
165.2393428386
 20
177.1530127384
 30
0.0
 11
165.2408711964
 21
177.1530127384
 31
0.0
  0
LINE
  5
DB
330
1F
100
AcDbEntity
  8
SLD-0
  6
Continuous
 62
     7
370
    15
100
AcDbLine
 10
167.1321211399
 20
177.1530127384
 30
0.0
 11
167.9321211399
 21
177.1530127384
 31
0.0
  0
LINE
  5
DC
330
1F
100
AcDbEntity
  8
SLD-0
  6
Continuous
 62
     7
370
    15
100
AcDbLine
 10
164.3321211399
 20
177.1530127384
 30
0.0
 11
164.4424038456
 21
177.1530127384
 31
0.0
  0
LINE
  5
DD
330
1F
100
AcDbEntity
  8
SLD-0
  6
Continuous
 62
     7
370
    15
100
AcDbLine
 10
167.9321211399
 20
178.6530127384
 30
0.0
 11
167.0229900508
 21
178.6530127384
 31
0.0
  0
LINE
  5
DE
330
1F
100
AcDbEntity
  8
SLD-0
  6
Continuous
 62
     7
370
    15
100
AcDbLine
 10
166.2244428001
 20
178.6530127384
 30
0.0
 11
166.222757783
 21
178.6530127384
 31
0.0
  0
LINE
  5
DF
330
1F
100
AcDbEntity
  8
SLD-0
  6
Continuous
 62
     7
370
    15
100
AcDbLine
 10
164.6234554421
 20
178.6530127384
 30
0.0
 11
164.3321211399
 21
178.6530127384
 31
0.0
  0
LINE
  5
E0
330
1F
100
AcDbEntity
  8
SLD-0
  6
Continuous
 62
     7
370
    15
100
AcDbLine
 10
161.8321211399
 20
177.1530127384
 30
0.0
 11
164.0321211399
 21
177.1530127384
 31
0.0
  0
LINE
  5
E1
330
1F
100
AcDbEntity
  8
SLD-0
  6
Continuous
 62
     7
370
    15
100
AcDbLine
 10
164.0321211399
 20
178.6530127384
 30
0.0
 11
161.8321211399
 21
178.6530127384
 31
0.0
  0
LINE
  5
E2
330
1F
100
AcDbEntity
  8
SLD-0
  6
Continuous
 62
     7
370
    15
100
AcDbLine
 10
165.1321211399
 20
179.4516338905
 30
0.0
 11
165.1321211399
 21
184.7644325877
 31
0.0
  0
LINE
  5
E3
330
1F
100
AcDbEntity
  8
SLD-0
  6
Continuous
 62
     7
370
    15
100
AcDbLine
 10
164.3321211399
 20
184.7644325877
 30
0.0
 11
164.3321211399
 21
179.9030127384
 31
0.0
  0
LINE
  5
E4
330
1F
100
AcDbEntity
  8
SLD-0
  6
Continuous
 62
     7
370
    15
100
AcDbLine
 10
159.9821211399
 20
159.0530127384
 30
0.0
 11
160.6821211399
 21
159.0530127384
 31
0.0
  0
LINE
  5
E5
330
1F
100
AcDbEntity
  8
SLD-0
  6
Continuous
 62
     7
370
    15
100
AcDbLine
 10
160.6821211399
 20
164.9530127384
 30
0.0
 11
159.9821211399
 21
164.9530127384
 31
0.0
  0
LINE
  5
E6
330
1F
100
AcDbEntity
  8
SLD-0
  6
Continuous
 62
     7
370
    15
100
AcDbLine
 10
157.1821211399
 20
159.2530127384
 30
0.0
 11
159.9821211399
 21
159.2530127384
 31
0.0
  0
LINE
  5
E7
330
1F
100
AcDbEntity
  8
SLD-0
  6
Continuous
 62
     7
370
    15
100
AcDbLine
 10
159.9821211399
 20
164.7530127384
 30
0.0
 11
157.1821211399
 21
164.7530127384
 31
0.0
  0
LINE
  5
E8
330
1F
100
AcDbEntity
  8
SLD-0
  6
Continuous
 62
     7
370
    15
100
AcDbLine
 10
157.1821211399
 20
164.7530127384
 30
0.0
 11
156.9821211399
 21
164.4070127384
 31
0.0
  0
LINE
  5
E9
330
1F
100
AcDbEntity
  8
SLD-0
  6
Continuous
 62
     7
370
    15
100
AcDbLine
 10
156.9821211399
 20
159.5990127384
 30
0.0
 11
157.1821211399
 21
159.2530127384
 31
0.0
  0
LINE
  5
EA
330
1F
100
AcDbEntity
  8
SLD-0
  6
Continuous
 62
     7
370
    15
100
AcDbLine
 10
175.9821211399
 20
163.5030127384
 30
0.0
 11
160.9821211399
 21
163.5030127384
 31
0.0
  0
LINE
  5
EB
330
1F
100
AcDbEntity
  8
SLD-0
  6
Continuous
 62
     7
370
    15
100
AcDbLine
 10
160.9821211399
 20
160.5030127384
 30
0.0
 11
175.9821211399
 21
160.5030127384
 31
0.0
  0
LINE
  5
EC
330
1F
100
AcDbEntity
  8
SLD-0
  6
Continuous
 62
     7
370
    15
100
AcDbLine
 10
159.9821211399
 20
172.3030127384
 30
0.0
 11
159.9821211399
 21
169.3530127384
 31
0.0
  0
LINE
  5
ED
330
1F
100
AcDbEntity
  8
SLD-0
  6
Continuous
 62
     7
370
    15
100
AcDbLine
 10
159.9821211399
 20
175.2530127383
 30
0.0
 11
159.9821211399
 21
172.3030127384
 31
0.0
  0
LINE
  5
EE
330
1F
100
AcDbEntity
  8
SLD-0
  6
Continuous
 62
     7
370
    15
100
AcDbLine
 10
160.6821211399
 20
169.3530127384
 30
0.0
 11
160.6821211399
 21
175.2530127383
 31
0.0
  0
LINE
  5
EF
330
1F
100
AcDbEntity
  8
SLD-0
  6
Continuous
 62
     7
370
    15
100
AcDbLine
 10
157.1821211399
 20
169.5530127384
 30
0.0
 11
157.1821211399
 21
175.0530127384
 31
0.0
  0
LINE
  5
F0
330
1F
100
AcDbEntity
  8
SLD-0
  6
Continuous
 62
     7
370
    15
100
AcDbLine
 10
156.9821211399
 20
174.7070127384
 30
0.0
 11
156.9821211399
 21
169.8990127384
 31
0.0
  0
LINE
  5
F1
330
1F
100
AcDbEntity
  8
SLD-0
  6
Continuous
 62
     7
370
    15
100
AcDbLine
 10
160.6821211399
 20
175.0530127384
 30
0.0
 11
160.9821211399
 21
175.0530127384
 31
0.0
  0
LINE
  5
F2
330
1F
100
AcDbEntity
  8
SLD-0
  6
Continuous
 62
     7
370
    15
100
AcDbLine
 10
160.9821211399
 20
175.0530127384
 30
0.0
 11
160.9821211399
 21
169.5530127384
 31
0.0
  0
LINE
  5
F3
330
1F
100
AcDbEntity
  8
SLD-0
  6
Continuous
 62
     7
370
    15
100
AcDbLine
 10
175.9821211399
 20
170.8030127384
 30
0.0
 11
175.9821211399
 21
173.8030127383
 31
0.0
  0
LINE
  5
F4
330
1F
100
AcDbEntity
  8
SLD-0
  6
Continuous
 62
     7
370
    15
100
AcDbLine
 10
160.6821211399
 20
175.1030127384
 30
0.0
 11
160.9821211399
 21
175.1030127384
 31
0.0
  0
LINE
  5
F5
330
1F
100
AcDbEntity
  8
SLD-0
  6
Continuous
 62
     7
370
    15
100
AcDbLine
 10
160.9821211399
 20
175.1030127384
 30
0.0
 11
160.9821211399
 21
175.0530127384
 31
0.0
  0
LINE
  5
F6
330
1F
100
AcDbEntity
  8
SLD-0
  6
Continuous
 62
     7
370
    15
100
AcDbLine
 10
160.6821211399
 20
175.4030127383
 30
0.0
 11
160.6821211399
 21
175.2530127383
 31
0.0
  0
LINE
  5
F7
330
1F
100
AcDbEntity
  8
SLD-0
  6
Continuous
 62
     7
370
    15
100
AcDbLine
 10
160.6821211399
 20
175.4030127383
 30
0.0
 11
165.9321211399
 21
175.4030127383
 31
0.0
  0
LINE
  5
F8
330
1F
100
AcDbEntity
  8
SLD-0
  6
Continuous
 62
     7
370
    15
100
AcDbLine
 10
165.9321211399
 20
175.4030127383
 30
0.0
 11
165.9321211399
 21
175.1030127384
 31
0.0
  0
LINE
  5
F9
330
1F
100
AcDbEntity
  8
SLD-0
  6
Continuous
 62
     7
370
    15
100
AcDbLine
 10
165.9321211399
 20
175.1030127384
 30
0.0
 11
160.9821211399
 21
175.1030127384
 31
0.0
  0
LINE
  5
FA
330
1F
100
AcDbEntity
  8
SLD-0
  6
Continuous
 62
     7
370
    15
100
AcDbLine
 10
160.6821211399
 20
159.2030127384
 30
0.0
 11
160.9821211399
 21
159.2030127384
 31
0.0
  0
LINE
  5
FB
330
1F
100
AcDbEntity
  8
SLD-0
  6
Continuous
 62
     7
370
    15
100
AcDbLine
 10
160.6821211399
 20
169.3530127384
 30
0.0
 11
160.6821211399
 21
159.2030127384
 31
0.0
  0
LINE
  5
FC
330
1F
100
AcDbEntity
  8
SLD-0
  6
Continuous
 62
     7
370
    15
100
AcDbLine
 10
160.9821211399
 20
169.5530127384
 30
0.0
 11
160.9821211399
 21
159.2030127384
 31
0.0
  0
LINE
  5
FD
330
1F
100
AcDbEntity
  8
SLD-0
  6
Continuous
 62
     7
370
    15
100
AcDbLine
 10
167.9321211399
 20
175.4030127383
 30
0.0
 11
167.9321211399
 21
175.1030127384
 31
0.0
  0
LINE
  5
FE
330
1F
100
AcDbEntity
  8
SLD-0
  6
Continuous
 62
     7
370
    15
100
AcDbLine
 10
167.9321211399
 20
175.1030127384
 30
0.0
 11
165.9321211399
 21
175.1030127384
 31
0.0
  0
LINE
  5
FF
330
1F
100
AcDbEntity
  8
SLD-0
  6
Continuous
 62
     7
370
    15
100
AcDbLine
 10
167.9321211399
 20
175.4030127383
 30
0.0
 11
165.9321211399
 21
175.4030127383
 31
0.0
  0
LINE
  5
100
330
1F
100
AcDbEntity
  8
SLD-0
  6
Continuous
 62
     7
370
    15
100
AcDbLine
 10
167.9321211399
 20
177.9030127384
 30
0.0
 11
168.2321211399
 21
177.9030127384
 31
0.0
  0
LINE
  5
101
330
1F
100
AcDbEntity
  8
SLD-0
  6
Continuous
 62
     7
370
    15
100
AcDbLine
 10
168.2321211399
 20
177.9030127384
 30
0.0
 11
168.2321211399
 21
179.9030127384
 31
0.0
  0
LINE
  5
102
330
1F
100
AcDbEntity
  8
SLD-0
  6
Continuous
 62
     7
370
    15
100
AcDbLine
 10
167.9321211399
 20
179.9030127384
 30
0.0
 11
167.9321211399
 21
177.9030127384
 31
0.0
  0
LINE
  5
103
330
1F
100
AcDbEntity
  8
SLD-0
  6
Continuous
 62
     7
370
    15
100
AcDbLine
 10
164.0321211399
 20
177.9030127384
 30
0.0
 11
164.3321211399
 21
177.9030127384
 31
0.0
  0
LINE
  5
104
330
1F
100
AcDbEntity
  8
SLD-0
  6
Continuous
 62
     7
370
    15
100
AcDbLine
 10
164.0321211399
 20
179.9030127384
 30
0.0
 11
164.0321211399
 21
177.9030127384
 31
0.0
  0
LINE
  5
105
330
1F
100
AcDbEntity
  8
SLD-0
  6
Continuous
 62
     7
370
    15
100
AcDbLine
 10
164.3321211399
 20
179.9030127384
 30
0.0
 11
164.3321211399
 21
177.9030127384
 31
0.0
  0
LINE
  5
106
330
1F
100
AcDbEntity
  8
SLD-0
  6
Continuous
 62
     7
370
    15
100
AcDbLine
 10
168.2321211399
 20
177.9030127384
 30
0.0
 11
168.2321211399
 21
175.1030127384
 31
0.0
  0
LINE
  5
107
330
1F
100
AcDbEntity
  8
SLD-0
  6
Continuous
 62
     7
370
    15
100
AcDbLine
 10
167.9321211399
 20
175.4030127383
 30
0.0
 11
167.9321211399
 21
177.9030127384
 31
0.0
  0
LINE
  5
108
330
1F
100
AcDbEntity
  8
SLD-0
  6
Continuous
 62
     7
370
    15
100
AcDbLine
 10
167.9321211399
 20
175.1030127384
 30
0.0
 11
168.2321211399
 21
175.1030127384
 31
0.0
  0
LINE
  5
109
330
1F
100
AcDbEntity
  8
SLD-0
  6
Continuous
 62
     7
370
    15
100
AcDbLine
 10
164.0321211399
 20
175.4030127384
 30
0.0
 11
164.0321211399
 21
177.9030127384
 31
0.0
  0
LINE
  5
10A
330
1F
100
AcDbEntity
  8
SLD-0
  6
Continuous
 62
     7
370
    15
100
AcDbLine
 10
164.3321211399
 20
177.9030127384
 30
0.0
 11
164.3321211399
 21
175.4030127384
 31
0.0
  0
LINE
  5
10B
330
1F
100
AcDbEntity
  8
SLD-0
  6
Continuous
 62
     7
370
    15
100
AcDbLine
 10
170.4321211399
 20
177.9030127384
 30
0.0
 11
170.4321211399
 21
177.1530127384
 31
0.0
  0
LINE
  5
10C
330
1F
100
AcDbEntity
  8
SLD-0
  6
Continuous
 62
     7
370
    15
100
AcDbLine
 10
170.4321211399
 20
178.6530127384
 30
0.0
 11
170.4321211399
 21
177.9030127384
 31
0.0
  0
LINE
  5
10D
330
1F
100
AcDbEntity
  8
SLD-0
  6
Continuous
 62
     7
370
    15
100
AcDbLine
 10
161.8321211399
 20
177.9030127384
 30
0.0
 11
161.8321211399
 21
178.6530127384
 31
0.0
  0
LINE
  5
10E
330
1F
100
AcDbEntity
  8
SLD-0
  6
Continuous
 62
     7
370
    15
100
AcDbLine
 10
161.8321211399
 20
177.1530127384
 30
0.0
 11
161.8321211399
 21
177.9030127384
 31
0.0
  0
LINE
  5
10F
330
1F
100
AcDbEntity
  8
SLD-0
  6
Continuous
 62
     7
370
    15
100
AcDbLine
 10
160.6821211399
 20
159.2030127384
 30
0.0
 11
160.6821211399
 21
159.0530127384
 31
0.0
  0
LINE
  5
110
330
1F
100
AcDbEntity
  8
SLD-0
  6
Continuous
 62
     7
370
    15
100
AcDbLine
 10
159.9821211399
 20
162.0030127384
 30
0.0
 11
159.9821211399
 21
159.0530127384
 31
0.0
  0
LINE
  5
111
330
1F
100
AcDbEntity
  8
SLD-0
  6
Continuous
 62
     7
370
    15
100
AcDbLine
 10
159.9821211399
 20
164.9530127384
 30
0.0
 11
159.9821211399
 21
162.0030127384
 31
0.0
  0
LINE
  5
112
330
1F
100
AcDbEntity
  8
SLD-0
  6
Continuous
 62
     7
370
    15
100
AcDbLine
 10
157.1821211399
 20
162.0030127384
 30
0.0
 11
157.1821211399
 21
159.2530127384
 31
0.0
  0
LINE
  5
113
330
1F
100
AcDbEntity
  8
SLD-0
  6
Continuous
 62
     7
370
    15
100
AcDbLine
 10
157.1821211399
 20
164.7530127384
 30
0.0
 11
157.1821211399
 21
162.0030127384
 31
0.0
  0
LINE
  5
114
330
1F
100
AcDbEntity
  8
SLD-0
  6
Continuous
 62
     7
370
    15
100
AcDbLine
 10
156.9821211399
 20
164.4070127384
 30
0.0
 11
156.9821211399
 21
159.5990127384
 31
0.0
  0
LINE
  5
115
330
1F
100
AcDbEntity
  8
SLD-0
  6
Continuous
 62
     7
370
    15
100
AcDbLine
 10
175.9821211399
 20
163.5030127384
 30
0.0
 11
175.9821211399
 21
160.5030127384
 31
0.0
  0
LINE
  5
116
330
1F
100
AcDbEntity
  8
SLD-0
  6
Continuous
 62
     7
370
    15
100
AcDbLine
 10
166.7313407394
 20
179.4383393186
 30
0.0
 11
166.7196211528
 21
179.4454899031
 31
0.0
  0
LINE
  5
117
330
1F
100
AcDbEntity
  8
SLD-0
  6
Continuous
 62
     7
370
    15
100
AcDbLine
 10
166.7196211528
 20
179.4454899031
 30
0.0
 11
166.6821211522
 21
179.3345696778
 31
0.0
  0
LINE
  5
118
330
1F
100
AcDbEntity
  8
SLD-0
  6
Continuous
 62
     7
370
    15
100
AcDbLine
 10
166.6821211522
 20
179.3345696778
 30
0.0
 11
166.6446211516
 21
179.1010942478
 31
0.0
  0
LINE
  5
119
330
1F
100
AcDbEntity
  8
SLD-0
  6
Continuous
 62
     7
370
    15
100
AcDbLine
 10
166.6446211516
 20
179.1010942478
 30
0.0
 11
166.607121151
 21
178.764010711
 31
0.0
  0
LINE
  5
11A
330
1F
100
AcDbEntity
  8
SLD-0
  6
Continuous
 62
     7
370
    15
100
AcDbLine
 10
166.607121151
 20
178.764010711
 30
0.0
 11
166.5696211503
 21
178.3528877444
 31
0.0
  0
LINE
  5
11B
330
1F
100
AcDbEntity
  8
SLD-0
  6
Continuous
 62
     7
370
    15
100
AcDbLine
 10
166.5696211503
 20
178.3528877444
 30
0.0
 11
166.5321211497
 21
177.9032007226
 31
0.0
  0
LINE
  5
11C
330
1F
100
AcDbEntity
  8
SLD-0
  6
Continuous
 62
     7
370
    15
100
AcDbLine
 10
166.5321211497
 20
177.9032007226
 30
0.0
 11
166.4946211491
 21
177.4531172656
 31
0.0
  0
LINE
  5
11D
330
1F
100
AcDbEntity
  8
SLD-0
  6
Continuous
 62
     7
370
    15
100
AcDbLine
 10
166.4946211491
 20
177.4531172656
 30
0.0
 11
166.4571211485
 21
177.0422538011
 31
0.0
  0
LINE
  5
11E
330
1F
100
AcDbEntity
  8
SLD-0
  6
Continuous
 62
     7
370
    15
100
AcDbLine
 10
166.4571211485
 20
177.0422538011
 30
0.0
 11
166.4196211479
 21
176.7050781963
 31
0.0
  0
LINE
  5
11F
330
1F
100
AcDbEntity
  8
SLD-0
  6
Continuous
 62
     7
370
    15
100
AcDbLine
 10
166.4196211479
 20
176.7050781963
 30
0.0
 11
166.3821211473
 21
176.4713669373
 31
0.0
  0
LINE
  5
120
330
1F
100
AcDbEntity
  8
SLD-0
  6
Continuous
 62
     7
370
    15
100
AcDbLine
 10
166.3821211473
 20
176.4713669373
 30
0.0
 11
166.3446211466
 21
176.3608773668
 31
0.0
  0
LINE
  5
121
330
1F
100
AcDbEntity
  8
SLD-0
  6
Continuous
 62
     7
370
    15
100
AcDbLine
 10
166.3446211466
 20
176.3608773668
 30
0.0
 11
166.3315994776
 21
176.3685621874
 31
0.0
  0
LINE
  5
122
330
1F
100
AcDbEntity
  8
SLD-0
  6
CENTERX2
 62
     7
370
     0
100
AcDbLine
 10
167.9321211399
 20
177.9030127384
 30
0.0
 11
164.3321211399
 21
177.9030127384
 31
0.0
  0
LINE
  5
123
330
1F
100
AcDbEntity
  8
SLD-0
  6
CENTERX2
 62
     7
370
     0
100
AcDbLine
 10
168.2321211399
 20
177.9030127384
 30
0.0
 11
167.9321211399
 21
177.9030127384
 31
0.0
  0
LINE
  5
124
330
1F
100
AcDbEntity
  8
SLD-0
  6
CENTERX2
 62
     7
370
     0
100
AcDbLine
 10
164.3321211399
 20
177.9030127384
 30
0.0
 11
164.0321211399
 21
177.9030127384
 31
0.0
  0
LINE
  5
125
330
1F
100
AcDbEntity
  8
SLD-0
  6
CENTERX2
 62
     7
370
     0
100
AcDbLine
 10
163.9321211399
 20
177.4030127384
 30
0.0
 11
163.9321211399
 21
173.1030127384
 31
0.0
  0
LINE
  5
126
330
1F
100
AcDbEntity
  8
SLD-0
  6
CENTERX2
 62
     7
370
     0
100
AcDbLine
 10
164.0321211399
 20
177.9030127384
 30
0.0
 11
159.8321211399
 21
177.9030127384
 31
0.0
  0
LINE
  5
127
330
1F
100
AcDbEntity
  8
SLD-0
  6
CENTERX2
 62
     7
370
     0
100
AcDbLine
 10
159.9821211399
 20
172.3030127384
 30
0.0
 11
157.1821211399
 21
172.3030127384
 31
0.0
  0
LINE
  5
128
330
1F
100
AcDbEntity
  8
SLD-0
  6
CENTERX2
 62
     7
370
     0
100
AcDbLine
 10
160.6821211399
 20
172.3030127384
 30
0.0
 11
159.9821211399
 21
172.3030127384
 31
0.0
  0
LINE
  5
129
330
1F
100
AcDbEntity
  8
SLD-0
  6
CENTERX2
 62
     7
370
     0
100
AcDbLine
 10
160.9821211399
 20
172.3030127384
 30
0.0
 11
160.6821211399
 21
172.3030127384
 31
0.0
  0
LINE
  5
12A
330
1F
100
AcDbEntity
  8
SLD-0
  6
CENTERX2
 62
     7
370
     0
100
AcDbLine
 10
160.9821211399
 20
172.3030127384
 30
0.0
 11
177.9821211399
 21
172.3030127384
 31
0.0
  0
LINE
  5
12B
330
1F
100
AcDbEntity
  8
SLD-0
  6
CENTERX2
 62
     7
370
     0
100
AcDbLine
 10
154.9821211399
 20
162.0030127384
 30
0.0
 11
177.9821211399
 21
162.0030127384
 31
0.0
  0
LINE
  5
12C
330
1F
100
AcDbEntity
  8
SLD-0
  6
CENTERX2
 62
     7
370
     0
100
AcDbLine
 10
172.4321211399
 20
177.9030127384
 30
0.0
 11
168.2321211399
 21
177.9030127384
 31
0.0
  0
LINE
  5
12D
330
1F
100
AcDbEntity
  8
SLD-0
  6
CENTERX2
 62
     7
370
     0
100
AcDbLine
 10
157.1821211399
 20
172.3030127384
 30
0.0
 11
154.9821211399
 21
172.3030127384
 31
0.0
  0
LINE
  5
12E
330
1F
100
AcDbEntity
  8
SLD-0
  6
CENTERX2
 62
     7
370
     0
100
AcDbLine
 10
164.7321211399
 20
186.7644325877
 30
0.0
 11
164.7321211399
 21
174.7530127384
 31
0.0
  0
ARC
  5
12F
330
1F
100
AcDbEntity
  8
SLD-0
  6
CENTER
 62
     7
370
     0
100
AcDbCircle
 10
83.8617479218
 20
177.9030127384
 30
0.0
 40
50.00000000002191
100
AcDbArc
 50
137.815589995
 51
172.6612047026
  0
CIRCLE
  5
130
330
1F
100
AcDbEntity
  8
SLD-0
  6
Continuous
 62
     7
370
    15
100
AcDbCircle
 10
76.7617479218
 20
162.0030127384
 30
0.0
 40
2.404000000000266
  0
CIRCLE
  5
131
330
1F
100
AcDbEntity
  8
SLD-0
  6
Continuous
 62
     7
370
    15
100
AcDbCircle
 10
76.7617479218
 20
162.0030127384
 30
0.0
 40
2.750000000000554
  0
CIRCLE
  5
132
330
1F
100
AcDbEntity
  8
SLD-0
  6
Continuous
 62
     7
370
    15
100
AcDbCircle
 10
98.9617479218
 20
172.3030127384
 30
0.0
 40
2.403999999999996
  0
CIRCLE
  5
133
330
1F
100
AcDbEntity
  8
SLD-0
  6
Continuous
 62
     7
370
    15
100
AcDbCircle
 10
98.9617479218
 20
172.3030127384
 30
0.0
 40
2.75000000000577
  0
CIRCLE
  5
134
330
1F
100
AcDbEntity
  8
SLD-0
  6
Continuous
 62
     7
370
    15
100
AcDbCircle
 10
76.7617479218
 20
162.0030127384
 30
0.0
 40
2.949999999999704
  0
CIRCLE
  5
135
330
1F
100
AcDbEntity
  8
SLD-0
  6
Continuous
 62
     7
370
    15
100
AcDbCircle
 10
98.9617479218
 20
172.3030127384
 30
0.0
 40
2.94999999999267
  0
ARC
  5
136
330
1F
100
AcDbEntity
  8
SLD-0
  6
Continuous
 62
     7
370
    15
100
AcDbCircle
 10
87.8617479218
 20
172.6037653374
 30
0.0
 40
0.4999999999641318
100
AcDbArc
 50
298.0799999926
 51
0.0
  0
CIRCLE
  5
137
330
1F
100
AcDbEntity
  8
SLD-0
  6
Continuous
 62
     7
370
    15
100
AcDbCircle
 10
83.8617479218
 20
177.9030127384
 30
0.0
 40
0.7499999999999005
  0
ARC
  5
138
330
1F
100
AcDbEntity
  8
SLD-0
  6
Continuous
 62
     7
370
    15
100
AcDbCircle
 10
83.8617479218
 20
177.9030127384
 30
0.0
 40
2.000000000002629
100
AcDbArc
 50
0.0
 51
180.0
  0
ARC
  5
139
330
1F
100
AcDbEntity
  8
SLD-0
  6
Continuous
 62
     7
370
    15
100
AcDbCircle
 10
166.3347045252
 20
176.7746256304
 30
0.0
 40
0.4214412522549683
100
AcDbArc
 50
193.2691599775
 51
270.6669332816
  0
ARC
  5
13A
330
1F
100
AcDbEntity
  8
SLD-0
  6
Continuous
 62
     7
370
    15
100
AcDbCircle
 10
165.5425444352
 20
176.7868084642
 30
0.0
 40
0.4336060545938241
100
AcDbArc
 50
191.372319775
 51
269.6322776259
  0
ARC
  5
13B
330
1F
100
AcDbEntity
  8
SLD-0
  6
Continuous
 62
     7
370
    15
100
AcDbCircle
 10
165.1328911835
 20
179.0415083579
 30
0.0
 40
0.4111463830133066
100
AcDbArc
 50
14.3297281979
 51
91.1525751041
  0
ARC
  5
13C
330
1F
100
AcDbEntity
  8
SLD-0
  6
Continuous
 62
     7
370
    15
100
AcDbCircle
 10
165.9204710471
 20
179.0195978283
 30
0.0
 40
0.4333516315421032
100
AcDbArc
 50
18.1651177199
 51
89.4820826907
  0
ARC
  5
13D
330
1F
100
AcDbEntity
  8
SLD-0
  6
Continuous
 62
     7
370
    15
100
AcDbCircle
 10
161.982076404
 20
176.2940933008
 30
0.0
 40
5.508630955112928
100
AcDbArc
 50
7.4886452893
 51
8.970301373
  0
ARC
  5
13E
330
1F
100
AcDbEntity
  8
SLD-0
  6
Continuous
 62
     7
370
    15
100
AcDbCircle
 10
166.3186859942
 20
176.7903673452
 30
0.0
 40
0.4372026880911437
100
AcDbArc
 50
270.7473502208
 51
344.386835715
  0
ARC
  5
13F
330
1F
100
AcDbEntity
  8
SLD-0
  6
Continuous
 62
     7
370
    15
100
AcDbCircle
 10
164.7183470101
 20
176.7427541551
 30
0.0
 40
0.386537423908796
100
AcDbArc
 50
177.5101522857
 51
263.8423797237
  0
ARC
  5
140
330
1F
100
AcDbEntity
  8
SLD-0
  6
Continuous
 62
     7
370
    15
100
AcDbCircle
 10
167.1306436592
 20
176.7530127384
 30
0.0
 40
0.4000027286782715
100
AcDbArc
 50
270.2116325563
 51
89.7883674414
  0
ARC
  5
141
330
1F
100
AcDbEntity
  8
SLD-0
  6
Continuous
 62
     7
370
    15
100
AcDbCircle
 10
167.1321211399
 20
176.7530127384
 30
0.0
 40
0.4000000000010573
100
AcDbArc
 50
89.9999999989
 51
269.9999999989
  0
ARC
  5
142
330
1F
100
AcDbEntity
  8
SLD-0
  6
Continuous
 62
     7
370
    15
100
AcDbCircle
 10
164.7441289107
 20
176.753753713
 30
0.0
 40
0.4009208342345826
100
AcDbArc
 50
118.8747748849
 51
268.283707331
  0
ARC
  5
143
330
1F
100
AcDbEntity
  8
SLD-0
  6
Continuous
 62
     7
370
    15
100
AcDbCircle
 10
164.7392203845
 20
176.7639876939
 30
0.0
 40
0.3897766855551247
100
AcDbArc
 50
90.7740152928
 51
119.0009287273
  0
ARC
  5
144
330
1F
100
AcDbEntity
  8
SLD-0
  6
Continuous
 62
     7
370
    15
100
AcDbCircle
 10
164.7301589529
 20
176.7564113459
 30
0.0
 40
0.4034033797004692
100
AcDbArc
 50
270.2786924517
 51
329.7213083555
  0
ARC
  5
145
330
1F
100
AcDbEntity
  8
SLD-0
  6
Continuous
 62
     7
370
    15
100
AcDbCircle
 10
164.7295649405
 20
184.7618430775
 30
0.0
 40
0.3974522363645406
100
AcDbArc
 50
89.6315017641
 51
179.6266996595
  0
ARC
  5
146
330
1F
100
AcDbEntity
  8
SLD-0
  6
Continuous
 62
     7
370
    15
100
AcDbCircle
 10
164.7346773393
 20
184.7618430775
 30
0.0
 40
0.397452236364427
100
AcDbArc
 50
0.3733003405
 51
90.3684982307
  0
ARC
  5
147
330
1F
100
AcDbEntity
  8
SLD-0
  6
Continuous
 62
     7
370
    15
100
AcDbCircle
 10
144.3609938664
 20
180.6822439709
 30
0.0
 40
21.60619277639418
100
AcDbArc
 50
348.4826935921
 51
356.7382325672
  0
ARC
  5
148
330
1F
100
AcDbEntity
  8
SLD-0
  6
Continuous
 62
     7
370
    15
100
AcDbCircle
 10
102.8222036113
 20
185.9504535942
 30
0.0
 40
62.64933156154618
100
AcDbArc
 50
351.1884698661
 51
354.0331371895
  0
ARC
  5
149
330
1F
100
AcDbEntity
  8
SLD-0
  6
Continuous
 62
     7
370
    15
100
AcDbCircle
 10
164.726275974
 20
176.7519797281
 30
0.0
 40
0.3941982008982679
100
AcDbArc
 50
116.477283705
 51
177.2700257889
  0
DIMENSION
  5
14A
330
1F
100
AcDbEntity
  8
SLD-0
 62
     7
100
AcDbDimension
  2
*D5
 10
83.8617479218
 20
177.9030127384
 30
0.0
 11
61.1362079412
 21
188.3217378328
 31
0.0
 70
   164
  1
<>
 71
     1
 42
196.6780992025
  3
SLDDIMSTYLE0
100
AcDbRadialDimension
 15
0.0
 25
0.0
 35
0.0
 40
0.0
1001
ACAD
1000
DSTYLE
1002
{
1070
    77
1070
     0
1070
   143
1040
0.0393700787
1070
    41
1040
3.0
1070
    44
1040
1.0
1070
    42
1040
1.0
1070
   147
1040
1.524
1070
    73
1070
     1
1070
    74
1070
     1
1070
   140
1040
3.5
1070
   284
1070
    12
1070
    78
1070
    12
1002
}
  0
DIMENSION
  5
161
330
1F
100
AcDbEntity
  8
SLD-0
 62
     7
100
AcDbDimension
  2
*D7
 10
73.9617479218
 20
142.5075082025
 30
0.0
 11
66.0869987469
 21
142.5075082025
 31
0.0
 70
   160
 71
     1
 42
2.8
  3
SLDDIMSTYLE1
100
AcDbAlignedDimension
 13
76.7617479218
 23
156.5530127384
 33
0.0
 14
73.9617479218
 24
161.7030127384
 34
0.0
100
AcDbRotatedDimension
1001
ACAD
1000
DSTYLE
1002
{
1070
    77
1070
     3
1070
   143
1040
0.0393700787
1070
    41
1040
3.0
1070
    44
1040
1.0
1070
    42
1040
1.0
1070
   147
1040
1.524
1070
    73
1070
     0
1070
    74
1070
     0
1070
   140
1040
3.5
1070
   284
1070
    12
1070
    78
1070
     4
1002
}
  0
DIMENSION
  5
17D
330
1F
100
AcDbEntity
  8
SLD-0
 62
     7
100
AcDbDimension
  2
*D8
 10
76.7617479218
 20
142.558972138
 30
0.0
 11
87.8617479218
 21
142.558972138
 31
0.0
 70
   160
 71
     1
 42
22.2
  3
SLDDIMSTYLE1
100
AcDbAlignedDimension
 13
98.9617479218
 23
166.8530127384
 33
0.0
 14
76.7617479218
 24
156.5530127384
 34
0.0
100
AcDbRotatedDimension
1001
ACAD
1000
DSTYLE
1002
{
1070
    77
1070
     3
1070
   143
1040
0.0393700787
1070
    41
1040
3.0
1070
    44
1040
1.0
1070
    42
1040
1.0
1070
   147
1040
1.524
1070
    73
1070
     0
1070
    74
1070
     0
1070
   140
1040
3.5
1070
   284
1070
    12
1070
    78
1070
     4
1002
}
  0
DIMENSION
  5
196
330
1F
100
AcDbEntity
  8
SLD-0
 62
     7
100
AcDbDimension
  2
*D9
 10
117.4425161924
 20
159.2030127384
 30
0.0
 11
117.4425161924
 21
148.2504728531
 31
0.0
 70
   160
 71
     1
 42
2.8
  3
SLDDIMSTYLE1
100
AcDbAlignedDimension
 13
82.2117479218
 23
162.0030127384
 33
0.0
 14
79.1017479218
 24
159.2030127384
 34
0.0
 50
90.0
100
AcDbRotatedDimension
1001
ACAD
1000
DSTYLE
1002
{
1070
    77
1070
     3
1070
   143
1040
0.0393700787
1070
    41
1040
3.0
1070
    44
1040
1.0
1070
    42
1040
1.0
1070
   147
1040
1.524
1070
    73
1070
     0
1070
    74
1070
     0
1070
   140
1040
3.5
1070
   284
1070
    12
1070
    78
1070
     4
1002
}
  0
DIMENSION
  5
1B1
330
1F
100
AcDbEntity
  8
SLD-0
 62
     7
100
AcDbDimension
  2
*D10
 10
117.4425161924
 20
162.0030127384
 30
0.0
 11
117.4425161924
 21
167.1530127384
 31
0.0
 70
   160
 71
     1
 42
10.3
  3
SLDDIMSTYLE1
100
AcDbAlignedDimension
 13
104.4117479217
 23
172.3030127384
 33
0.0
 14
82.2117479218
 24
162.0030127384
 34
0.0
 50
90.0
100
AcDbRotatedDimension
1001
ACAD
1000
DSTYLE
1002
{
1070
    77
1070
     3
1070
   143
1040
0.0393700787
1070
    41
1040
3.0
1070
    44
1040
1.0
1070
    42
1040
1.0
1070
   147
1040
1.524
1070
    73
1070
     0
1070
    74
1070
     0
1070
   140
1040
3.5
1070
   284
1070
    12
1070
    78
1070
     4
1002
}
  0
DIMENSION
  5
1CB
330
1F
100
AcDbEntity
  8
SLD-0
 62
     7
100
AcDbDimension
  2
*D11
 10
125.3675917
 20
175.4030127384
 30
0.0
 11
125.3675917
 21
160.9600793696
 31
0.0
 70
   160
 71
     1
 42
3.1
  3
SLDDIMSTYLE1
100
AcDbAlignedDimension
 13
104.4117479217
 23
172.3030127384
 33
0.0
 14
98.9617479217
 24
175.4030127384
 34
0.0
 50
90.0
100
AcDbRotatedDimension
1001
ACAD
1000
DSTYLE
1002
{
1070
    77
1070
     3
1070
   143
1040
0.0393700787
1070
    41
1040
3.0
1070
    44
1040
1.0
1070
    42
1040
1.0
1070
   147
1040
1.524
1070
    73
1070
     0
1070
    74
1070
     0
1070
   140
1040
3.5
1070
   284
1070
    12
1070
    78
1070
     4
1002
}
  0
DIMENSION
  5
1E6
330
1F
100
AcDbEntity
  8
SLD-0
 62
     7
100
AcDbDimension
  2
*D12
 10
125.3675917
 20
175.4030127384
 30
0.0
 11
125.3675917
 21
189.1054380835
 31
0.0
 70
   160
 71
     1
 42
2.5
  3
SLDDIMSTYLE1
100
AcDbAlignedDimension
 13
88.3617479218
 23
177.9030127384
 33
0.0
 14
98.9617479217
 24
175.4030127384
 34
0.0
 50
90.0
100
AcDbRotatedDimension
1001
ACAD
1000
DSTYLE
1002
{
1070
    77
1070
     3
1070
   143
1040
0.0393700787
1070
    41
1040
3.0
1070
    44
1040
1.0
1070
    42
1040
1.0
1070
   147
1040
1.524
1070
    73
1070
     0
1070
    74
1070
     0
1070
   140
1040
3.5
1070
   284
1070
    12
1070
    78
1070
     4
1002
}
  0
DIMENSION
  5
1FE
330
1F
100
AcDbEntity
  8
SLD-0
 62
     7
100
AcDbDimension
  2
*D13
 10
98.9617479217
 20
133.4818810813
 30
0.0
 11
86.4617479217
 21
133.4818810813
 31
0.0
 70
   160
 71
     1
 42
24.9999999999
  3
SLDDIMSTYLE2
100
AcDbAlignedDimension
 13
73.9617479218
 23
161.7030127384
 33
0.0
 14
98.9617479217
 24
175.4030127384
 34
0.0
100
AcDbRotatedDimension
1001
ACAD
1000
DSTYLE
1002
{
1070
    77
1070
     3
1070
   143
1040
0.0393700787
1070
    41
1040
3.0
1070
    44
1040
1.0
1070
    42
1040
1.0
1070
   147
1040
1.524
1070
    73
1070
     0
1070
    74
1070
     0
1070
   140
1040
3.5
1070
   284
1070
    12
1070
    78
1070
    12
1002
}
  0
DIMENSION
  5
218
330
1F
100
AcDbEntity
  8
SLD-0
 62
     7
100
AcDbDimension
  2
*D14
 10
151.2264636801
 20
179.9030127384
 30
0.0
 11
151.2264636801
 21
169.5530127384
 31
0.0
 70
   160
 71
     1
 42
20.7
  3
SLDDIMSTYLE1
100
AcDbAlignedDimension
 13
160.6821211399
 23
159.2030127384
 33
0.0
 14
164.0321211399
 24
179.9030127384
 34
0.0
 50
90.0
100
AcDbRotatedDimension
1001
ACAD
1000
DSTYLE
1002
{
1070
    77
1070
     3
1070
   143
1040
0.0393700787
1070
    41
1040
3.0
1070
    44
1040
1.0
1070
    42
1040
1.0
1070
   147
1040
1.524
1070
    73
1070
     0
1070
    74
1070
     0
1070
   140
1040
3.5
1070
   284
1070
    12
1070
    78
1070
     4
1002
}
  0
DIMENSION
  5
232
330
1F
100
AcDbEntity
  8
SLD-0
 62
     7
100
AcDbDimension
  2
*D15
 10
164.0321211399
 20
197.6534802337
 30
0.0
 11
152.4849497665
 21
197.6534802337
 31
0.0
 70
   160
 71
     1
 42
4.2
  3
SLDDIMSTYLE1
100
AcDbAlignedDimension
 13
168.2321211399
 23
179.9030127384
 33
0.0
 14
164.0321211399
 24
179.9030127384
 34
0.0
100
AcDbRotatedDimension
1001
ACAD
1000
DSTYLE
1002
{
1070
    77
1070
     3
1070
   143
1040
0.0393700787
1070
    41
1040
3.0
1070
    44
1040
1.0
1070
    42
1040
1.0
1070
   147
1040
1.524
1070
    73
1070
     0
1070
    74
1070
     0
1070
   140
1040
3.5
1070
   284
1070
    12
1070
    78
1070
     4
1002
}
  0
DIMENSION
  5
24B
330
1F
100
AcDbEntity
  8
SLD-0
 62
     7
100
AcDbDimension
  2
*D16
 10
168.2321211399
 20
197.6534802337
 30
0.0
 11
176.4497209006
 21
197.6534802337
 31
0.0
 70
   160
 71
     1
 42
2.2
  3
SLDDIMSTYLE1
100
AcDbAlignedDimension
 13
170.4321211399
 23
178.6530127384
 33
0.0
 14
168.2321211399
 24
179.9030127384
 34
0.0
100
AcDbRotatedDimension
1001
ACAD
1000
DSTYLE
1002
{
1070
    77
1070
     3
1070
   143
1040
0.0393700787
1070
    41
1040
3.0
1070
    44
1040
1.0
1070
    42
1040
1.0
1070
   147
1040
1.524
1070
    73
1070
     0
1070
    74
1070
     0
1070
   140
1040
3.5
1070
   284
1070
    12
1070
    78
1070
     4
1002
}
  0
DIMENSION
  5
267
330
1F
100
AcDbEntity
  8
SLD-0
 62
     7
100
AcDbDimension
  2
*D17
 10
156.9821211399
 20
137.8885936064
 30
0.0
 11
166.4821211399
 21
137.8885936064
 31
0.0
 70
   160
 71
     1
 42
19.0
  3
SLDDIMSTYLE2
100
AcDbAlignedDimension
 13
175.9821211399
 23
160.5030127384
 33
0.0
 14
156.9821211399
 24
159.5990127384
 34
0.0
100
AcDbRotatedDimension
1001
ACAD
1000
DSTYLE
1002
{
1070
    77
1070
     3
1070
   143
1040
0.0393700787
1070
    41
1040
3.0
1070
    44
1040
1.0
1070
    42
1040
1.0
1070
   147
1040
1.524
1070
    73
1070
     0
1070
    74
1070
     0
1070
   140
1040
3.5
1070
   284
1070
    12
1070
    78
1070
    12
1002
}
  0
MTEXT
  5
280
330
1F
100
AcDbEntity
  8
SLD-0
 62
     7
100
AcDbMText
 10
151.3869122621
 20
31.474922741
 30
0.0
 40
4.2333333333
 41
0.0
 71
     1
 72
     1
  1
VAV-5
  7
SLDTEXTSTYLE0
 73
     1
 44
1.0
  0
MTEXT
  5
281
330
1F
100
AcDbEntity
  8
SLD-0
 62
     7
100
AcDbMText
 10
133.800293516
 20
45.6719331933
 30
0.0
 40
4.2333333333
 41
0.0
 71
     1
 72
     1
  1
VAV-5（VX-5-1A2用）　
  7
SLDTEXTSTYLE0
 73
     1
 44
1.0
  0
MTEXT
  5
282
330
1F
100
AcDbEntity
  8
SLD-0
 62
     7
100
AcDbMText
 10
152.6586203121
 20
16.2924183344
 30
0.0
 40
4.2333333333
 41
0.0
 71
     1
 72
     1
  1
210414　
  7
SLDTEXTSTYLE0
 73
     1
 44
1.0
  0
MTEXT
  5
283
330
1F
100
AcDbEntity
  8
SLD-0
 62
     7
100
AcDbMText
 10
53.564152949
 20
176.4227140188
 30
0.0
 40
3.5
 41
0.0
 71
     1
 72
     1
  1
φ0.8
  7
SLDTEXTSTYLE0
 73
     1
 44
1.0
  0
INSERT
  5
284
330
1F
100
AcDbEntity
  8
0
  6
Continuous
 62
     7
370
     0
100
AcDbBlockReference
  2
_Open30
 10
47.9379114103
 20
182.9766171841
 30
0.0
 41
6.0
 42
6.0
 43
6.0
 50
115.7397065649
  0
INSERT
  5
285
330
1F
100
AcDbEntity
  8
0
  6
Continuous
 62
     7
370
     0
100
AcDbBlockReference
  2
SW_CENTERMARKSYMBOL_0
 10
83.8617479218
 20
177.9030127384
 30
0.0
  0
INSERT
  5
286
330
1F
100
AcDbEntity
  8
0
  6
Continuous
 62
     7
370
     0
100
AcDbBlockReference
  2
SW_CENTERMARKSYMBOL_1
 10
76.7617479218
 20
162.0030127384
 30
0.0
  0
INSERT
  5
287
330
1F
100
AcDbEntity
  8
0
  6
Continuous
 62
     7
370
     0
100
AcDbBlockReference
  2
SW_CENTERMARKSYMBOL_2
 10
98.9617479218
 20
172.3030127384
 30
0.0
  0
ENDSEC
  0
SECTION
  2
OBJECTS
  0
DICTIONARY
  5
C
330
0
100
AcDbDictionary
281
     1
  3
ACAD_GROUP
350
D
  3
ACAD_LAYOUT
350
1A
  3
ACAD_MLINESTYLE
350
17
  3
ACAD_PLOTSETTINGS
350
19
  3
ACAD_PLOTSTYLENAME
350
E
  0
DICTIONARY
  5
D
102
{ACAD_REACTORS
330
C
102
}
330
C
100
AcDbDictionary
281
     1
  0
DICTIONARY
  5
1A
102
{ACAD_REACTORS
330
C
102
}
330
C
100
AcDbDictionary
281
     1
  3
Layout1
350
1E
  3
Layout2
350
26
  3
Model
350
22
  0
DICTIONARY
  5
17
102
{ACAD_REACTORS
330
C
102
}
330
C
100
AcDbDictionary
281
     1
  3
Standard
350
18
  0
DICTIONARY
  5
19
102
{ACAD_REACTORS
330
C
102
}
330
C
100
AcDbDictionary
281
     1
  0
ACDBDICTIONARYWDFLT
  5
E
102
{ACAD_REACTORS
330
C
102
}
330
C
100
AcDbDictionary
281
     1
  3
Normal
350
F
100
AcDbDictionaryWithDefault
340
F
  0
LAYOUT
  5
1E
102
{ACAD_REACTORS
330
1A
102
}
330
1A
100
AcDbPlotSettings
  1

  2

  4

  6

 40
0.0
 41
0.0
 42
0.0
 43
0.0
 44
0.0
 45
0.0
 46
0.0
 47
0.0
 48
0.0
 49
0.0
140
0.0
141
0.0
142
1.0
143
1.0
 70
   688
 72
     0
 73
     0
 74
     5
  7

 75
    16
147
1.0
148
0.0
149
0.0
100
AcDbLayout
  1
Layout1
 70
     1
 71
     1
 10
0.0
 20
0.0
 11
0.0
 21
0.0
 12
0.0
 22
0.0
 32
0.0
 14
0.0
 24
0.0
 34
0.0
 15
0.0
 25
0.0
 35
0.0
146
0.0
 13
0.0
 23
0.0
 33
0.0
 16
1.0
 26
0.0
 36
0.0
 17
0.0
 27
1.0
 37
0.0
 76
     0
330
1B
  0
LAYOUT
  5
26
102
{ACAD_REACTORS
330
1A
102
}
330
1A
100
AcDbPlotSettings
  1

  2

  4

  6

 40
0.0
 41
0.0
 42
0.0
 43
0.0
 44
0.0
 45
0.0
 46
0.0
 47
0.0
 48
0.0
 49
0.0
140
0.0
141
0.0
142
1.0
143
1.0
 70
   688
 72
     0
 73
     0
 74
     5
  7

 75
    16
147
1.0
148
0.0
149
0.0
100
AcDbLayout
  1
Layout2
 70
     1
 71
     2
 10
0.0
 20
0.0
 11
0.0
 21
0.0
 12
0.0
 22
0.0
 32
0.0
 14
0.0
 24
0.0
 34
0.0
 15
0.0
 25
0.0
 35
0.0
146
0.0
 13
0.0
 23
0.0
 33
0.0
 16
1.0
 26
0.0
 36
0.0
 17
0.0
 27
1.0
 37
0.0
 76
     0
330
23
  0
LAYOUT
  5
22
102
{ACAD_REACTORS
330
1A
102
}
330
1A
100
AcDbPlotSettings
  1

  2

  4

  6

 40
0.0
 41
0.0
 42
0.0
 43
0.0
 44
0.0
 45
0.0
 46
0.0
 47
0.0
 48
0.0
 49
0.0
140
0.0
141
0.0
142
1.0
143
1.0
 70
  1712
 72
     0
 73
     0
 74
     0
  7

 75
     0
147
1.0
148
0.0
149
0.0
100
AcDbLayout
  1
Model
 70
     1
 71
     0
 10
0.0
 20
0.0
 11
0.0
 21
0.0
 12
0.0
 22
0.0
 32
0.0
 14
0.0
 24
0.0
 34
0.0
 15
210.0
 25
297.0
 35
0.0
146
0.0
 13
0.0
 23
0.0
 33
0.0
 16
1.0
 26
0.0
 36
0.0
 17
0.0
 27
1.0
 37
0.0
 76
     0
330
1F
  0
MLINESTYLE
  5
18
102
{ACAD_REACTORS
330
17
102
}
330
17
100
AcDbMlineStyle
  2
Standard
 70
     0
  3

 62
   256
 51
90.0
 52
90.0
 71
     2
 49
0.5
 62
   256
  6
BYLAYER
 49
-0.5
 62
   256
  6
BYLAYER
  0
ACDBPLACEHOLDER
  5
F
102
{ACAD_REACTORS
330
E
102
}
330
E
  0
ENDSEC
  0
EOF
