  0
SECTION
  2
HEADER
  9
$ACADVER
  1
AC1015
  9
$ACADMAINTVER
 70
     6
  9
$DWGCODEPAGE
  3
DOS932
  9
$INSBASE
 10
0.0
 20
0.0
 30
0.0
  9
$EXTMIN
 10
0.0
 20
0.0
 30
0.0
  9
$EXTMAX
 10
210.0
 20
297.0
 30
0.0
  9
$LIMMIN
 10
0.0
 20
0.0
  9
$LIMMAX
 10
0.0
 20
0.0
  9
$ORTHOMODE
 70
     0
  9
$REGENMODE
 70
     1
  9
$FILLMODE
 70
     1
  9
$QTEXTMODE
 70
     0
  9
$MIRRTEXT
 70
     1
  9
$LTSCALE
 40
1.0
  9
$ATTMODE
 70
     1
  9
$TEXTSIZE
 40
3.5
  9
$TRACEWID
 40
1.0
  9
$TEXTSTYLE
  7
Standard
  9
$CLAYER
  8
0
  9
$CELTYPE
  6
ByLayer
  9
$CECOLOR
 62
   256
  9
$CELTSCALE
 40
1.0
  9
$DISPSILH
 70
     0
  9
$DIMSCALE
 40
1.0
  9
$DIMASZ
 40
3.0
  9
$DIMEXO
 40
1.0
  9
$DIMDLI
 40
3.75
  9
$DIMRND
 40
0.0
  9
$DIMDLE
 40
0.0
  9
$DIMEXE
 40
1.0
  9
$DIMTP
 40
0.0
  9
$DIMTM
 40
0.0
  9
$DIMTXT
 40
3.5
  9
$DIMCEN
 40
2.5
  9
$DIMTSZ
 40
0.0
  9
$DIMTOL
 70
     0
  9
$DIMLIM
 70
     0
  9
$DIMTIH
 70
     1
  9
$DIMTOH
 70
     1
  9
$DIMSE1
 70
     0
  9
$DIMSE2
 70
     0
  9
$DIMTAD
 70
     1
  9
$DIMZIN
 70
     0
  9
$DIMBLK
  1

  9
$DIMASO
 70
     1
  9
$DIMSHO
 70
     1
  9
$DIMPOST
  1

  9
$DIMAPOST
  1

  9
$DIMALT
 70
     0
  9
$DIMALTD
 70
     3
  9
$DIMALTF
 40
0.0393700787
  9
$DIMLFAC
 40
1.0
  9
$DIMTOFL
 70
     1
  9
$DIMTVP
 40
0.0
  9
$DIMTIX
 70
     0
  9
$DIMSOXD
 70
     0
  9
$DIMSAH
 70
     0
  9
$DIMBLK1
  1

  9
$DIMBLK2
  1

  9
$DIMSTYLE
  2
ISO-25
  9
$DIMCLRD
 70
     0
  9
$DIMCLRE
 70
     0
  9
$DIMCLRT
 70
     0
  9
$DIMTFAC
 40
1.0
  9
$DIMGAP
 40
1.524
  9
$DIMJUST
 70
     0
  9
$DIMSD1
 70
     0
  9
$DIMSD2
 70
     0
  9
$DIMTOLJ
 70
     0
  9
$DIMTZIN
 70
     0
  9
$DIMALTZ
 70
     0
  9
$DIMALTTZ
 70
     0
  9
$DIMUPT
 70
     0
  9
$DIMDEC
 70
     2
  9
$DIMTDEC
 70
     2
  9
$DIMALTU
 70
     2
  9
$DIMALTTD
 70
     3
  9
$DIMTXSTY
  7
Standard
  9
$DIMAUNIT
 70
     0
  9
$DIMADEC
 70
     0
  9
$DIMALTRND
 40
0.0
  9
$DIMAZIN
 70
     0
  9
$DIMDSEP
 70
    44
  9
$DIMATFIT
 70
     3
  9
$DIMFRAC
 70
     0
  9
$DIMLDRBLK
  1

  9
$DIMLUNIT
 70
     2
  9
$DIMLWD
 70
    -2
  9
$DIMLWE
 70
    -2
  9
$DIMTMOVE
 70
     0
  9
$LUNITS
 70
     2
  9
$LUPREC
 70
     1
  9
$SKETCHINC
 40
1.0
  9
$FILLETRAD
 40
10.0
  9
$AUNITS
 70
     0
  9
$AUPREC
 70
     0
  9
$MENU
  1
.
  9
$ELEVATION
 40
0.0
  9
$PELEVATION
 40
0.0
  9
$THICKNESS
 40
0.0
  9
$LIMCHECK
 70
     0
  9
$CHAMFERA
 40
10.0
  9
$CHAMFERB
 40
10.0
  9
$CHAMFERC
 40
20.0
  9
$CHAMFERD
 40
0.0
  9
$SKPOLY
 70
     0
  9
$TDCREATE
 40
2454729.614311157
  9
$TDUCREATE
 40
2454729.239311157
  9
$TDUPDATE
 40
2454729.614311169
  9
$TDUUPDATE
 40
2454729.239311169
  9
$TDINDWG
 40
0.0000000116
  9
$TDUSRTIMER
 40
0.0000000116
  9
$USRTIMER
 70
     1
  9
$ANGBASE
 50
0.0
  9
$ANGDIR
 70
     0
  9
$PDMODE
 70
     0
  9
$PDSIZE
 40
-1.0
  9
$PLINEWID
 40
0.0
  9
$SPLFRAME
 70
     0
  9
$SPLINETYPE
 70
     6
  9
$SPLINESEGS
 70
     8
  9
$HANDSEED
  5
223
  9
$SURFTAB1
 70
     6
  9
$SURFTAB2
 70
     6
  9
$SURFTYPE
 70
     6
  9
$SURFU
 70
     6
  9
$SURFV
 70
     6
  9
$UCSBASE
  2

  9
$UCSNAME
  2

  9
$UCSORG
 10
0.0
 20
0.0
 30
0.0
  9
$UCSXDIR
 10
1.0
 20
0.0
 30
0.0
  9
$UCSYDIR
 10
0.0
 20
1.0
 30
0.0
  9
$UCSORTHOREF
  2

  9
$UCSORTHOVIEW
 70
     0
  9
$UCSORGTOP
 10
0.0
 20
0.0
 30
0.0
  9
$UCSORGBOTTOM
 10
0.0
 20
0.0
 30
0.0
  9
$UCSORGLEFT
 10
0.0
 20
0.0
 30
0.0
  9
$UCSORGRIGHT
 10
0.0
 20
0.0
 30
0.0
  9
$UCSORGFRONT
 10
0.0
 20
0.0
 30
0.0
  9
$UCSORGBACK
 10
0.0
 20
0.0
 30
0.0
  9
$PUCSBASE
  2

  9
$PUCSNAME
  2

  9
$PUCSORG
 10
0.0
 20
0.0
 30
0.0
  9
$PUCSXDIR
 10
1.0
 20
0.0
 30
0.0
  9
$PUCSYDIR
 10
0.0
 20
1.0
 30
0.0
  9
$PUCSORTHOREF
  2

  9
$PUCSORTHOVIEW
 70
     0
  9
$PUCSORGTOP
 10
0.0
 20
0.0
 30
0.0
  9
$PUCSORGBOTTOM
 10
0.0
 20
0.0
 30
0.0
  9
$PUCSORGLEFT
 10
0.0
 20
0.0
 30
0.0
  9
$PUCSORGRIGHT
 10
0.0
 20
0.0
 30
0.0
  9
$PUCSORGFRONT
 10
0.0
 20
0.0
 30
0.0
  9
$PUCSORGBACK
 10
0.0
 20
0.0
 30
0.0
  9
$USERI1
 70
     0
  9
$USERI2
 70
     0
  9
$USERI3
 70
     0
  9
$USERI4
 70
     0
  9
$USERI5
 70
     0
  9
$USERR1
 40
0.0
  9
$USERR2
 40
0.0
  9
$USERR3
 40
0.0
  9
$USERR4
 40
0.0
  9
$USERR5
 40
0.0
  9
$WORLDVIEW
 70
     1
  9
$SHADEDGE
 70
     3
  9
$SHADEDIF
 70
    70
  9
$TILEMODE
 70
     1
  9
$MAXACTVP
 70
    64
  9
$PINSBASE
 10
0.0
 20
0.0
 30
0.0
  9
$PLIMCHECK
 70
     0
  9
$PEXTMIN
 10
1.0000000000E+20
 20
1.0000000000E+20
 30
1.0000000000E+20
  9
$PEXTMAX
 10
-1.0000000000E+20
 20
-1.0000000000E+20
 30
-1.0000000000E+20
  9
$PLIMMIN
 10
0.0
 20
0.0
  9
$PLIMMAX
 10
420.0
 20
297.0
  9
$UNITMODE
 70
     0
  9
$VISRETAIN
 70
     1
  9
$PLINEGEN
 70
     0
  9
$PSLTSCALE
 70
     1
  9
$TREEDEPTH
 70
  3020
  9
$CMLSTYLE
  2
Standard
  9
$CMLJUST
 70
     0
  9
$CMLSCALE
 40
20.0
  9
$PROXYGRAPHICS
 70
     1
  9
$MEASUREMENT
 70
     1
  9
$CELWEIGHT
370
    -1
  9
$ENDCAPS
280
     0
  9
$JOINSTYLE
280
     0
  9
$LWDISPLAY
290
     1
  9
$INSUNITS
 70
     4
  9
$HYPERLINKBASE
  1

  9
$STYLESHEET
  1

  9
$XEDIT
290
     1
  9
$CEPSNTYPE
380
     0
  9
$PSTYLEMODE
290
     1
  9
$FINGERPRINTGUID
  2
{B72A4CFB-7262-4171-A443-59846A4F9323}
  9
$VERSIONGUID
  2
{FAEB1C32-E019-11D5-929B-00C0DF256EC4}
  9
$EXTNAMES
290
     1
  9
$PSVPSCALE
 40
0.0
  9
$OLESTARTUP
290
     0
  0
ENDSEC
  0
SECTION
  2
CLASSES
  0
CLASS
  1
ACDBDICTIONARYWDFLT
  2
AcDbDictionaryWithDefault
  3
ObjectDBX Classes
 90
        0
280
     0
281
     0
  0
CLASS
  1
ACDBPLACEHOLDER
  2
AcDbPlaceHolder
  3
ObjectDBX Classes
 90
        0
280
     0
281
     0
  0
CLASS
  1
LAYOUT
  2
AcDbLayout
  3
ObjectDBX Classes
 90
        0
280
     0
281
     0
  0
ENDSEC
  0
SECTION
  2
TABLES
  0
TABLE
  2
VPORT
  5
8
330
0
100
AcDbSymbolTable
 70
     1
  0
VPORT
  5
29
330
8
100
AcDbSymbolTableRecord
100
AcDbViewportTableRecord
  2
*Active
 70
     0
 10
0.0
 20
0.0
 11
1.0
 21
1.0
 12
105.0
 22
148.5
 13
0.0
 23
0.0
 14
10.0
 24
10.0
 15
10.0
 25
10.0
 16
0.0
 26
0.0
 36
1.0
 17
0.0
 27
0.0
 37
0.0
 40
297.0
 41
1.9729729729
 42
50.0
 43
0.0
 44
0.0
 50
0.0
 51
0.0
 71
     0
 72
  2000
 73
     1
 74
     3
 75
     0
 76
     0
 77
     0
 78
     0
281
     0
 65
     1
110
0.0
120
0.0
130
0.0
111
1.0
121
0.0
131
0.0
112
0.0
122
1.0
132
0.0
 79
     0
146
0.0
  0
ENDTAB
  0
TABLE
  2
LTYPE
  5
5
330
0
100
AcDbSymbolTable
 70
     6
  0
LTYPE
  5
14
330
5
100
AcDbSymbolTableRecord
100
AcDbLinetypeTableRecord
  2
ByBlock
 70
     0
  3

 72
    65
 73
     0
 40
0.0
  0
LTYPE
  5
15
330
5
100
AcDbSymbolTableRecord
100
AcDbLinetypeTableRecord
  2
ByLayer
 70
     0
  3

 72
    65
 73
     0
 40
0.0
  0
LTYPE
  5
16
330
5
100
AcDbSymbolTableRecord
100
AcDbLinetypeTableRecord
  2
Continuous
 70
     0
  3
Solid line
 72
    65
 73
     0
 40
0.0
  0
LTYPE
  5
2A
330
5
100
AcDbSymbolTableRecord
100
AcDbLinetypeTableRecord
  2
HIDDEN
 70
     0
  3
Hidden __ __ __ __ __ __ __ __ __ __ __ __ __ __
 72
    65
 73
     2
 40
1.905
 49
1.27
 74
     0
 49
-0.635
 74
     0
  0
LTYPE
  5
2B
330
5
100
AcDbSymbolTableRecord
100
AcDbLinetypeTableRecord
  2
PHANTOM
 70
     0
  3
Phantom ______  __  __  ______  __  __  ______
 72
    65
 73
     6
 40
12.7
 49
6.35
 74
     0
 49
-1.27
 74
     0
 49
1.27
 74
     0
 49
-1.27
 74
     0
 49
1.27
 74
     0
 49
-1.27
 74
     0
  0
LTYPE
  5
2C
330
5
100
AcDbSymbolTableRecord
100
AcDbLinetypeTableRecord
  2
CENTER
 70
     0
  3
Center ____ _ ____ _ ____ _ ____ _ ____ _ ____
 72
    65
 73
     4
 40
10.16
 49
6.35
 74
     0
 49
-1.27
 74
     0
 49
1.27
 74
     0
 49
-1.27
 74
     0
  0
LTYPE
  5
2D
330
5
100
AcDbSymbolTableRecord
100
AcDbLinetypeTableRecord
  2
CENTERX2
 70
     0
  3
Center (2x) ________  __  ________  __  _____
 72
    65
 73
     4
 40
20.32
 49
12.7
 74
     0
 49
-2.54
 74
     0
 49
2.54
 74
     0
 49
-2.54
 74
     0
  0
LTYPE
  5
2E
330
5
100
AcDbSymbolTableRecord
100
AcDbLinetypeTableRecord
  2
DOT2
 70
     0
  3
Dot (.5x) ........................................
 72
    65
 73
     2
 40
0.635
 49
0.0
 74
     0
 49
-0.635
 74
     0
  0
ENDTAB
  0
TABLE
  2
LAYER
  5
2
330
0
100
AcDbSymbolTable
 70
     2
  0
LAYER
  5
10
330
2
100
AcDbSymbolTableRecord
100
AcDbLayerTableRecord
  2
0
 70
     0
 62
     7
  6
Continuous
370
    -3
390
F
  0
LAYER
  5
132
330
2
100
AcDbSymbolTableRecord
100
AcDbLayerTableRecord
  2
Defpoints
 70
     0
 62
     7
  6
Continuous
290
     0
370
    -3
390
F
  0
ENDTAB
  0
TABLE
  2
STYLE
  5
3
330
0
100
AcDbSymbolTable
 70
     2
  0
STYLE
  5
11
330
3
100
AcDbSymbolTableRecord
100
AcDbTextStyleTableRecord
  2
Standard
 70
     0
 40
0.0
 41
1.0
 50
0.0
 71
     0
 42
2.5
  3
txt
  4
bigfont
  0
STYLE
  5
37
330
3
100
AcDbSymbolTableRecord
100
AcDbTextStyleTableRecord
  2
SLDTEXTSTYLE0
 70
     0
 40
0.0
 41
0.7
 50
0.0
 71
     0
 42
0.2
  3
TXT
  4
bigfont
  0
ENDTAB
  0
TABLE
  2
VIEW
  5
6
330
0
100
AcDbSymbolTable
 70
     0
  0
ENDTAB
  0
TABLE
  2
UCS
  5
7
330
0
100
AcDbSymbolTable
 70
     0
  0
ENDTAB
  0
TABLE
  2
APPID
  5
9
330
0
100
AcDbSymbolTable
 70
     1
  0
APPID
  5
12
330
9
100
AcDbSymbolTableRecord
100
AcDbRegAppTableRecord
  2
ACAD
 70
     0
  0
ENDTAB
  0
TABLE
  2
DIMSTYLE
  5
A
330
0
100
AcDbSymbolTable
 70
     4
100
AcDbDimStyleTable
  0
DIMSTYLE
105
27
330
A
100
AcDbSymbolTableRecord
100
AcDbDimStyleTableRecord
  2
ISO-25
 70
     0
 41
2.5
 42
0.625
 43
3.75
 44
1.25
 73
     0
 74
     0
 77
     1
 78
     8
140
2.5
141
2.5
143
0.0393700787
147
0.625
171
     3
172
     1
271
     2
272
     2
274
     3
278
    44
283
     0
284
     8
340
11
  0
DIMSTYLE
105
140
102
{ACAD_REACTORS
330
131
330
147
330
15C
330
170
330
184
330
198
330
1AF
330
1C3
330
203
102
}
330
A
100
AcDbSymbolTableRecord
100
AcDbDimStyleTableRecord
  2
SLDDIMSTYLE0
 70
     0
 41
3.0
 44
0.0
 73
     0
 74
     0
 77
     3
 78
    12
140
3.5
147
0.875
173
     1
271
     1
272
     3
284
    12
340
37
  0
DIMSTYLE
105
1DC
330
A
100
AcDbSymbolTableRecord
100
AcDbDimStyleTableRecord
  2
SLDDIMSTYLE1
 70
     0
 41
3.0
 44
0.0
140
3.0
147
0.75
173
     1
271
     0
272
     0
340
11
  0
DIMSTYLE
105
1FE
102
{ACAD_REACTORS
330
1F1
102
}
330
A
100
AcDbSymbolTableRecord
100
AcDbDimStyleTableRecord
  2
SLDDIMSTYLE2
 70
     0
  3
<>
 41
3.0
 44
0.0
 78
    12
140
3.5
147
0.875
173
     1
271
     1
272
     3
284
    12
340
37
  0
ENDTAB
  0
TABLE
  2
BLOCK_RECORD
  5
1
330
0
100
AcDbSymbolTable
 70
    12
  0
BLOCK_RECORD
  5
1F
330
1
100
AcDbSymbolTableRecord
100
AcDbBlockTableRecord
  2
*Model_Space
340
22
  0
BLOCK_RECORD
  5
1B
330
1
100
AcDbSymbolTableRecord
100
AcDbBlockTableRecord
  2
*Paper_Space
340
1E
  0
BLOCK_RECORD
  5
23
330
1
100
AcDbSymbolTableRecord
100
AcDbBlockTableRecord
  2
*Paper_Space0
340
26
  0
BLOCK_RECORD
  5
133
330
1
100
AcDbSymbolTableRecord
100
AcDbBlockTableRecord
  2
*D1
340
0
  0
BLOCK_RECORD
  5
148
330
1
100
AcDbSymbolTableRecord
100
AcDbBlockTableRecord
  2
*D2
340
0
  0
BLOCK_RECORD
  5
15D
330
1
100
AcDbSymbolTableRecord
100
AcDbBlockTableRecord
  2
*D3
340
0
  0
BLOCK_RECORD
  5
171
330
1
100
AcDbSymbolTableRecord
100
AcDbBlockTableRecord
  2
*D4
340
0
  0
BLOCK_RECORD
  5
185
330
1
100
AcDbSymbolTableRecord
100
AcDbBlockTableRecord
  2
*D5
340
0
  0
BLOCK_RECORD
  5
199
330
1
100
AcDbSymbolTableRecord
100
AcDbBlockTableRecord
  2
*D6
340
0
  0
BLOCK_RECORD
  5
1B0
330
1
100
AcDbSymbolTableRecord
100
AcDbBlockTableRecord
  2
*D7
340
0
  0
BLOCK_RECORD
  5
1C4
330
1
100
AcDbSymbolTableRecord
100
AcDbBlockTableRecord
  2
*D8
340
0
  0
BLOCK_RECORD
  5
1F2
330
1
100
AcDbSymbolTableRecord
100
AcDbBlockTableRecord
  2
*D9
340
0
  0
BLOCK_RECORD
  5
204
330
1
100
AcDbSymbolTableRecord
100
AcDbBlockTableRecord
  2
*D10
340
0
  0
BLOCK_RECORD
  5
217
330
1
100
AcDbSymbolTableRecord
100
AcDbBlockTableRecord
  2
SW_CENTERMARKSYMBOL_0
340
0
102
{BLKREFS
331
222
102
}
  0
ENDTAB
  0
ENDSEC
  0
SECTION
  2
BLOCKS
  0
BLOCK
  5
20
330
1F
100
AcDbEntity
  8
0
100
AcDbBlockBegin
  2
*Model_Space
 70
     0
 71
     0
 10
0.0
 20
0.0
 30
0.0
  3
*Model_Space
  1

  0
ENDBLK
  5
21
330
1F
100
AcDbEntity
  8
0
100
AcDbBlockEnd
  0
BLOCK
  5
1C
330
1B
100
AcDbEntity
 67
     1
  8
0
100
AcDbBlockBegin
  2
*Paper_Space
 70
     0
 71
     0
 10
0.0
 20
0.0
 30
0.0
  3
*Paper_Space
  1

  0
ENDBLK
  5
1D
330
1B
100
AcDbEntity
 67
     1
  8
0
100
AcDbBlockEnd
  0
BLOCK
  5
24
330
23
100
AcDbEntity
  8
0
100
AcDbBlockBegin
  2
*Paper_Space0
 70
     0
 71
     0
 10
0.0
 20
0.0
 30
0.0
  3
*Paper_Space0
  1

  0
ENDBLK
  5
25
330
23
100
AcDbEntity
  8
0
100
AcDbBlockEnd
  0
BLOCK
  5
13E
330
133
100
AcDbEntity
  8
0
100
AcDbBlockBegin
  2
*D1
 70
     1
 71
     0
 10
0.0
 20
0.0
 30
0.0
  3
*D1
  1

  0
SOLID
  5
141
330
133
100
AcDbEntity
  8
0
  6
Continuous
 62
     7
370
     0
100
AcDbTrace
 10
145.9903190356
 20
188.5940522014
 30
0.0
 11
146.7403190356
 21
191.5940522014
 31
0.0
 12
145.2403190356
 22
191.5940522014
 32
0.0
 13
145.2403190356
 23
191.5940522014
 33
0.0
  0
SOLID
  5
142
330
133
100
AcDbEntity
  8
0
  6
Continuous
 62
     7
370
     0
100
AcDbTrace
 10
145.9903190356
 20
202.5940522014
 30
0.0
 11
145.2403190356
 21
199.5940522014
 31
0.0
 12
146.7403190356
 22
199.5940522014
 32
0.0
 13
146.7403190356
 23
199.5940522014
 33
0.0
  0
LINE
  5
143
330
133
100
AcDbEntity
  8
0
  6
Continuous
 62
     7
370
     0
100
AcDbLine
 10
114.5607414869
 20
188.5940522014
 30
0.0
 11
146.9903190356
 21
188.5940522014
 31
0.0
  0
LINE
  5
144
330
133
100
AcDbEntity
  8
0
  6
Continuous
 62
     7
370
     0
100
AcDbLine
 10
114.5607414869
 20
202.5940522014
 30
0.0
 11
146.9903190356
 21
202.5940522014
 31
0.0
  0
LINE
  5
145
330
133
100
AcDbEntity
  8
0
  6
Continuous
 62
     7
370
     0
100
AcDbLine
 10
145.9903190356
 20
188.5940522014
 30
0.0
 11
145.9903190356
 21
202.5940522014
 31
0.0
  0
MTEXT
  5
146
330
133
100
AcDbEntity
  8
0
  6
Continuous
 62
     7
370
     0
100
AcDbMText
 10
141.9175919957
 20
193.5575059033
 30
0.0
 40
3.5
 41
0.0
 71
     1
 72
     1
  1
14
  7
SLDTEXTSTYLE0
 11
6.123031769111886E-17
 21
1.0
 31
0.0
 73
     1
 44
1.0
  0
ENDBLK
  5
13F
330
133
100
AcDbEntity
  8
0
100
AcDbBlockEnd
  0
BLOCK
  5
153
330
148
100
AcDbEntity
  8
0
100
AcDbBlockBegin
  2
*D2
 70
     1
 71
     0
 10
0.0
 20
0.0
 30
0.0
  3
*D2
  1

  0
SOLID
  5
155
330
148
100
AcDbEntity
  8
0
  6
Continuous
 62
     7
370
     0
100
AcDbTrace
 10
78.6835986193
 20
139.5940522014
 30
0.0
 11
79.4335986193
 21
142.5940522014
 31
0.0
 12
77.9335986193
 22
142.5940522014
 32
0.0
 13
77.9335986193
 23
142.5940522014
 33
0.0
  0
SOLID
  5
156
330
148
100
AcDbEntity
  8
0
  6
Continuous
 62
     7
370
     0
100
AcDbTrace
 10
78.6835986193
 20
153.5940522014
 30
0.0
 11
77.9335986193
 21
150.5940522014
 31
0.0
 12
79.4335986193
 22
150.5940522014
 32
0.0
 13
79.4335986193
 23
150.5940522014
 33
0.0
  0
LINE
  5
157
330
148
100
AcDbEntity
  8
0
  6
Continuous
 62
     7
370
     0
100
AcDbLine
 10
98.5607414869
 20
139.5940522014
 30
0.0
 11
77.6835986193
 21
139.5940522014
 31
0.0
  0
LINE
  5
158
330
148
100
AcDbEntity
  8
0
  6
Continuous
 62
     7
370
     0
100
AcDbLine
 10
99.7066395207
 20
153.5940522014
 30
0.0
 11
77.6835986193
 21
153.5940522014
 31
0.0
  0
LINE
  5
159
330
148
100
AcDbEntity
  8
0
  6
Continuous
 62
     7
370
     0
100
AcDbLine
 10
78.6835986193
 20
139.5940522014
 30
0.0
 11
78.6835986193
 21
153.5940522014
 31
0.0
  0
MTEXT
  5
15A
330
148
100
AcDbEntity
  8
0
  6
Continuous
 62
     7
370
     0
100
AcDbMText
 10
74.6108715794
 20
142.5209596052
 30
0.0
 40
3.5
 41
0.0
 71
     1
 72
     1
  1
14
  7
SLDTEXTSTYLE0
 11
6.123031769111886E-17
 21
1.0
 31
0.0
 73
     1
 44
1.0
  0
MTEXT
  5
15B
330
148
100
AcDbEntity
  8
0
  6
Continuous
 62
     7
370
     0
100
AcDbMText
 10
74.6108715794
 20
146.5940522014
 30
0.0
 40
3.5
 41
0.0
 71
     1
 72
     1
  1
st
  7
SLDTEXTSTYLE0
 11
6.123031769111886E-17
 21
1.0
 31
0.0
 73
     1
 44
1.0
  0
ENDBLK
  5
154
330
148
100
AcDbEntity
  8
0
100
AcDbBlockEnd
  0
BLOCK
  5
168
330
15D
100
AcDbEntity
  8
0
100
AcDbBlockBegin
  2
*D3
 70
     1
 71
     0
 10
0.0
 20
0.0
 30
0.0
  3
*D3
  1

  0
SOLID
  5
16A
330
15D
100
AcDbEntity
  8
0
  6
Continuous
 62
     7
370
     0
100
AcDbTrace
 10
145.9903190356
 20
188.5940522014
 30
0.0
 11
145.2403190356
 21
185.5940522014
 31
0.0
 12
146.7403190356
 22
185.5940522014
 32
0.0
 13
146.7403190356
 23
185.5940522014
 33
0.0
  0
SOLID
  5
16B
330
15D
100
AcDbEntity
  8
0
  6
Continuous
 62
     7
370
     0
100
AcDbTrace
 10
145.9903190356
 20
133.5940522014
 30
0.0
 11
146.7403190356
 21
136.5940522014
 31
0.0
 12
145.2403190356
 22
136.5940522014
 32
0.0
 13
145.2403190356
 23
136.5940522014
 33
0.0
  0
LINE
  5
16C
330
15D
100
AcDbEntity
  8
0
  6
Continuous
 62
     7
370
     0
100
AcDbLine
 10
113.1342414869
 20
188.5940522014
 30
0.0
 11
146.9903190356
 21
188.5940522014
 31
0.0
  0
LINE
  5
16D
330
15D
100
AcDbEntity
  8
0
  6
Continuous
 62
     7
370
     0
100
AcDbLine
 10
119.5607414869
 20
133.5940522014
 30
0.0
 11
146.9903190356
 21
133.5940522014
 31
0.0
  0
LINE
  5
16E
330
15D
100
AcDbEntity
  8
0
  6
Continuous
 62
     7
370
     0
100
AcDbLine
 10
145.9903190356
 20
188.5940522014
 30
0.0
 11
145.9903190356
 21
133.5940522014
 31
0.0
  0
MTEXT
  5
16F
330
15D
100
AcDbEntity
  8
0
  6
Continuous
 62
     7
370
     0
100
AcDbMText
 10
141.9175919957
 20
159.0575059033
 30
0.0
 40
3.5
 41
0.0
 71
     1
 72
     1
  1
55
  7
SLDTEXTSTYLE0
 11
-7.044197039909883E-15
 21
1.0
 31
0.0
 73
     1
 44
1.0
  0
ENDBLK
  5
169
330
15D
100
AcDbEntity
  8
0
100
AcDbBlockEnd
  0
BLOCK
  5
17C
330
171
100
AcDbEntity
  8
0
100
AcDbBlockBegin
  2
*D4
 70
     1
 71
     0
 10
0.0
 20
0.0
 30
0.0
  3
*D4
  1

  0
SOLID
  5
17E
330
171
100
AcDbEntity
  8
0
  6
Continuous
 62
     7
370
     0
100
AcDbTrace
 10
137.0010239104
 20
188.5940522014
 30
0.0
 11
136.2510239104
 21
185.5940522014
 31
0.0
 12
137.7510239104
 22
185.5940522014
 32
0.0
 13
137.7510239104
 23
185.5940522014
 33
0.0
  0
SOLID
  5
17F
330
171
100
AcDbEntity
  8
0
  6
Continuous
 62
     7
370
     0
100
AcDbTrace
 10
137.0010239104
 20
165.5940522014
 30
0.0
 11
137.7510239104
 21
168.5940522014
 31
0.0
 12
136.2510239104
 22
168.5940522014
 32
0.0
 13
136.2510239104
 23
168.5940522014
 33
0.0
  0
LINE
  5
180
330
171
100
AcDbEntity
  8
0
  6
Continuous
 62
     7
370
     0
100
AcDbLine
 10
113.1342414869
 20
188.5940522014
 30
0.0
 11
138.0010239104
 21
188.5940522014
 31
0.0
  0
LINE
  5
181
330
171
100
AcDbEntity
  8
0
  6
Continuous
 62
     7
370
     0
100
AcDbLine
 10
119.5607414869
 20
165.5940522014
 30
0.0
 11
138.0010239104
 21
165.5940522014
 31
0.0
  0
LINE
  5
182
330
171
100
AcDbEntity
  8
0
  6
Continuous
 62
     7
370
     0
100
AcDbLine
 10
137.0010239104
 20
188.5940522014
 30
0.0
 11
137.0010239104
 21
165.5940522014
 31
0.0
  0
MTEXT
  5
183
330
171
100
AcDbEntity
  8
0
  6
Continuous
 62
     7
370
     0
100
AcDbMText
 10
132.9282968706
 20
175.0575059033
 30
0.0
 40
3.5
 41
0.0
 71
     1
 72
     1
  1
23
  7
SLDTEXTSTYLE0
 11
-7.044197039909883E-15
 21
1.0
 31
0.0
 73
     1
 44
1.0
  0
ENDBLK
  5
17D
330
171
100
AcDbEntity
  8
0
100
AcDbBlockEnd
  0
BLOCK
  5
190
330
185
100
AcDbEntity
  8
0
100
AcDbBlockBegin
  2
*D5
 70
     1
 71
     0
 10
0.0
 20
0.0
 30
0.0
  3
*D5
  1

  0
SOLID
  5
192
330
185
100
AcDbEntity
  8
0
  6
Continuous
 62
     7
370
     0
100
AcDbTrace
 10
78.6835986193
 20
185.5940522014
 30
0.0
 11
77.9335986193
 21
182.5940522014
 31
0.0
 12
79.4335986193
 22
182.5940522014
 32
0.0
 13
79.4335986193
 23
182.5940522014
 33
0.0
  0
SOLID
  5
193
330
185
100
AcDbEntity
  8
0
  6
Continuous
 62
     7
370
     0
100
AcDbTrace
 10
78.6835986193
 20
165.5940522014
 30
0.0
 11
79.4335986193
 21
168.5940522014
 31
0.0
 12
77.9335986193
 22
168.5940522014
 32
0.0
 13
77.9335986193
 23
168.5940522014
 33
0.0
  0
LINE
  5
194
330
185
100
AcDbEntity
  8
0
  6
Continuous
 62
     7
370
     0
100
AcDbLine
 10
98.6147213434
 20
185.5940522014
 30
0.0
 11
77.6835986193
 21
185.5940522014
 31
0.0
  0
LINE
  5
195
330
185
100
AcDbEntity
  8
0
  6
Continuous
 62
     7
370
     0
100
AcDbLine
 10
96.4049925672
 20
165.5940522014
 30
0.0
 11
77.6835986193
 21
165.5940522014
 31
0.0
  0
LINE
  5
196
330
185
100
AcDbEntity
  8
0
  6
Continuous
 62
     7
370
     0
100
AcDbLine
 10
78.6835986193
 20
185.5940522014
 30
0.0
 11
78.6835986193
 21
165.5940522014
 31
0.0
  0
MTEXT
  5
197
330
185
100
AcDbEntity
  8
0
  6
Continuous
 62
     7
370
     0
100
AcDbMText
 10
74.6108715794
 20
173.5575059033
 30
0.0
 40
3.5
 41
0.0
 71
     1
 72
     1
  1
20
  7
SLDTEXTSTYLE0
 11
-7.044197039909883E-15
 21
1.0
 31
0.0
 73
     1
 44
1.0
  0
ENDBLK
  5
191
330
185
100
AcDbEntity
  8
0
100
AcDbBlockEnd
  0
BLOCK
  5
1A4
330
199
100
AcDbEntity
  8
0
100
AcDbBlockBegin
  2
*D6
 70
     1
 71
     0
 10
0.0
 20
0.0
 30
0.0
  3
*D6
  1

  0
SOLID
  5
1A7
330
199
100
AcDbEntity
  8
0
  6
Continuous
 62
     7
370
     0
100
AcDbTrace
 10
78.6835986193
 20
139.5940522014
 30
0.0
 11
79.4335986193
 21
142.5940522014
 31
0.0
 12
77.9335986193
 22
142.5940522014
 32
0.0
 13
77.9335986193
 23
142.5940522014
 33
0.0
  0
SOLID
  5
1A8
330
199
100
AcDbEntity
  8
0
  6
Continuous
 62
     7
370
     0
100
AcDbTrace
 10
78.6835986193
 20
133.5940522014
 30
0.0
 11
77.9335986193
 21
130.5940522014
 31
0.0
 12
79.4335986193
 22
130.5940522014
 32
0.0
 13
79.4335986193
 23
130.5940522014
 33
0.0
  0
LINE
  5
1A9
330
199
100
AcDbEntity
  8
0
  6
Continuous
 62
     7
370
     0
100
AcDbLine
 10
99.7681546364
 20
139.5940522014
 30
0.0
 11
77.6835986193
 21
139.5940522014
 31
0.0
  0
LINE
  5
1AA
330
199
100
AcDbEntity
  8
0
  6
Continuous
 62
     7
370
     0
100
AcDbLine
 10
96.4049925672
 20
133.5940522014
 30
0.0
 11
77.6835986193
 21
133.5940522014
 31
0.0
  0
LINE
  5
1AB
330
199
100
AcDbEntity
  8
0
  6
Continuous
 62
     7
370
     0
100
AcDbLine
 10
78.6835986193
 20
139.5940522014
 30
0.0
 11
78.6835986193
 21
144.5940522014
 31
0.0
  0
LINE
  5
1AC
330
199
100
AcDbEntity
  8
0
  6
Continuous
 62
     7
370
     0
100
AcDbLine
 10
78.6835986193
 20
139.5940522014
 30
0.0
 11
78.6835986193
 21
133.5940522014
 31
0.0
  0
LINE
  5
1AD
330
199
100
AcDbEntity
  8
0
  6
Continuous
 62
     7
370
     0
100
AcDbLine
 10
78.6835986193
 20
133.5940522014
 30
0.0
 11
78.6835986193
 21
128.5940522014
 31
0.0
  0
MTEXT
  5
1AE
330
199
100
AcDbEntity
  8
0
  6
Continuous
 62
     7
370
     0
100
AcDbMText
 10
74.6108715794
 20
135.5757790524
 30
0.0
 40
3.5
 41
0.0
 71
     1
 72
     1
  1
6
  7
SLDTEXTSTYLE0
 11
-7.044197039909883E-15
 21
1.0
 31
0.0
 73
     1
 44
1.0
  0
ENDBLK
  5
1A5
330
199
100
AcDbEntity
  8
0
100
AcDbBlockEnd
  0
BLOCK
  5
1BB
330
1B0
100
AcDbEntity
  8
0
100
AcDbBlockBegin
  2
*D7
 70
     1
 71
     0
 10
0.0
 20
0.0
 30
0.0
  3
*D7
  1

  0
SOLID
  5
1BD
330
1B0
100
AcDbEntity
  8
0
  6
Continuous
 62
     7
370
     0
100
AcDbTrace
 10
78.6835986193
 20
165.5940522014
 30
0.0
 11
77.9335986193
 21
162.5940522014
 31
0.0
 12
79.4335986193
 22
162.5940522014
 32
0.0
 13
79.4335986193
 23
162.5940522014
 33
0.0
  0
SOLID
  5
1BE
330
1B0
100
AcDbEntity
  8
0
  6
Continuous
 62
     7
370
     0
100
AcDbTrace
 10
78.6835986193
 20
153.5940522014
 30
0.0
 11
79.4335986193
 21
156.5940522014
 31
0.0
 12
77.9335986193
 22
156.5940522014
 32
0.0
 13
77.9335986193
 23
156.5940522014
 33
0.0
  0
LINE
  5
1BF
330
1B0
100
AcDbEntity
  8
0
  6
Continuous
 62
     7
370
     0
100
AcDbLine
 10
96.4049925672
 20
165.5940522014
 30
0.0
 11
77.6835986193
 21
165.5940522014
 31
0.0
  0
LINE
  5
1C0
330
1B0
100
AcDbEntity
  8
0
  6
Continuous
 62
     7
370
     0
100
AcDbLine
 10
106.7066395207
 20
153.5940522014
 30
0.0
 11
77.6835986193
 21
153.5940522014
 31
0.0
  0
LINE
  5
1C1
330
1B0
100
AcDbEntity
  8
0
  6
Continuous
 62
     7
370
     0
100
AcDbLine
 10
78.6835986193
 20
165.5940522014
 30
0.0
 11
78.6835986193
 21
153.5940522014
 31
0.0
  0
MTEXT
  5
1C2
330
1B0
100
AcDbEntity
  8
0
  6
Continuous
 62
     7
370
     0
100
AcDbMText
 10
74.6108715794
 20
157.5575059033
 30
0.0
 40
3.5
 41
0.0
 71
     1
 72
     1
  1
12
  7
SLDTEXTSTYLE0
 11
-7.044197039909883E-15
 21
1.0
 31
0.0
 73
     1
 44
1.0
  0
ENDBLK
  5
1BC
330
1B0
100
AcDbEntity
  8
0
100
AcDbBlockEnd
  0
BLOCK
  5
1CE
330
1C4
100
AcDbEntity
  8
0
100
AcDbBlockBegin
  2
*D8
 70
     1
 71
     0
 10
0.0
 20
0.0
 30
0.0
  3
*D8
  1

  0
SOLID
  5
1D0
330
1C4
100
AcDbEntity
  8
0
  6
Continuous
 62
     7
370
     0
100
AcDbTrace
 10
98.4976715809
 20
213.7034135223
 30
0.0
 11
95.4976715809
 21
214.4534135223
 31
0.0
 12
95.4976715809
 22
212.9534135223
 32
0.0
 13
95.4976715809
 23
212.9534135223
 33
0.0
  0
SOLID
  5
1D1
330
1C4
100
AcDbEntity
  8
0
  6
Continuous
 62
     7
370
     0
100
AcDbTrace
 10
117.5607414869
 20
213.7034135223
 30
0.0
 11
120.5607414869
 21
212.9534135223
 31
0.0
 12
120.5607414869
 22
214.4534135223
 32
0.0
 13
120.5607414869
 23
214.4534135223
 33
0.0
  0
LINE
  5
1D2
330
1C4
100
AcDbEntity
  8
0
  6
Continuous
 62
     7
370
     0
100
AcDbLine
 10
98.4976715809
 20
185.5940522014
 30
0.0
 11
98.4976715809
 21
214.7034135223
 31
0.0
  0
LINE
  5
1D3
330
1C4
100
AcDbEntity
  8
0
  6
Continuous
 62
     7
370
     0
100
AcDbLine
 10
117.5607414869
 20
185.5940522014
 30
0.0
 11
117.5607414869
 21
187.8320522014
 31
0.0
  0
LINE
  5
1D4
330
1C4
100
AcDbEntity
  8
0
  6
Continuous
 62
     7
370
     0
100
AcDbLine
 10
117.5607414869
 20
189.3560522014
 30
0.0
 11
117.5607414869
 21
201.8320522014
 31
0.0
  0
LINE
  5
1D5
330
1C4
100
AcDbEntity
  8
0
  6
Continuous
 62
     7
370
     0
100
AcDbLine
 10
117.5607414869
 20
203.3560522014
 30
0.0
 11
117.5607414869
 21
214.7034135223
 31
0.0
  0
LINE
  5
1D6
330
1C4
100
AcDbEntity
  8
0
  6
Continuous
 62
     7
370
     0
100
AcDbLine
 10
98.4976715809
 20
213.7034135223
 30
0.0
 11
93.4976715809
 21
213.7034135223
 31
0.0
  0
LINE
  5
1D7
330
1C4
100
AcDbEntity
  8
0
  6
Continuous
 62
     7
370
     0
100
AcDbLine
 10
98.4976715809
 20
213.7034135223
 30
0.0
 11
117.5607414869
 21
213.7034135223
 31
0.0
  0
LINE
  5
1D8
330
1C4
100
AcDbEntity
  8
0
  6
Continuous
 62
     7
370
     0
100
AcDbLine
 10
117.5607414869
 20
213.7034135223
 30
0.0
 11
122.5607414869
 21
213.7034135223
 31
0.0
  0
MTEXT
  5
1D9
330
1C4
100
AcDbEntity
  8
0
  6
Continuous
 62
     7
370
     0
100
AcDbMText
 10
104.0577917264
 20
217.7761405622
 30
0.0
 40
3.5
 41
0.0
 71
     1
 72
     1
  1
%%c
  7
SLDTEXTSTYLE0
 73
     1
 44
1.0
  0
MTEXT
  5
1DA
330
1C4
100
AcDbEntity
  8
0
  6
Continuous
 62
     7
370
     0
100
AcDbMText
 10
107.9277222415
 20
217.7761405622
 30
0.0
 40
3.5
 41
0.0
 71
     1
 72
     1
  1
20
  7
SLDTEXTSTYLE0
 73
     1
 44
1.0
  0
ENDBLK
  5
1CF
330
1C4
100
AcDbEntity
  8
0
100
AcDbBlockEnd
  0
BLOCK
  5
1FC
330
1F2
100
AcDbEntity
  8
0
100
AcDbBlockBegin
  2
*D9
 70
     1
 71
     0
 10
0.0
 20
0.0
 30
0.0
  3
*D9
  1

  0
SOLID
  5
1FF
330
1F2
100
AcDbEntity
  8
0
  6
Continuous
 62
     7
370
     0
100
AcDbTrace
 10
104.7281256827
 20
102.0408974262
 30
0.0
 11
103.4588973489
 21
104.8607483862
 31
0.0
 12
102.2812296422
 22
103.9317172927
 32
0.0
 13
102.2812296422
 23
103.9317172927
 33
0.0
  0
LINE
  5
200
330
1F2
100
AcDbEntity
  8
0
  6
Continuous
 62
     7
370
     0
100
AcDbLine
 10
104.7281256827
 20
102.0408974262
 30
0.0
 11
98.1360371036
 21
110.3972268242
 31
0.0
  0
LINE
  5
201
330
1F2
100
AcDbEntity
  8
0
  6
Continuous
 62
     7
370
     0
100
AcDbLine
 10
98.1360371036
 20
110.3972268242
 30
0.0
 11
83.190805613
 21
110.3972268242
 31
0.0
  0
MTEXT
  5
202
330
1F2
100
AcDbEntity
  8
0
  6
Continuous
 62
     7
370
     0
100
AcDbMText
 10
84.778305613
 20
114.4699538641
 30
0.0
 40
3.5
 41
0.0
 71
     1
 72
     1
  1
PT1/8
  7
SLDTEXTSTYLE0
 73
     1
 44
1.0
  0
ENDBLK
  5
1FD
330
1F2
100
AcDbEntity
  8
0
100
AcDbBlockEnd
  0
BLOCK
  5
20F
330
204
100
AcDbEntity
  8
0
100
AcDbBlockBegin
  2
*D10
 70
     1
 71
     0
 10
0.0
 20
0.0
 30
0.0
  3
*D10
  1

  0
SOLID
  5
211
330
204
100
AcDbEntity
  8
0
  6
Continuous
 62
     7
370
     0
100
AcDbTrace
 10
136.3378723833
 20
88.9501885888
 30
0.0
 11
137.0878723833
 21
91.9501885888
 31
0.0
 12
135.5878723833
 22
91.9501885888
 32
0.0
 13
135.5878723833
 23
91.9501885888
 33
0.0
  0
SOLID
  5
212
330
204
100
AcDbEntity
  8
0
  6
Continuous
 62
     7
370
     0
100
AcDbTrace
 10
136.3378723833
 20
107.9501885888
 30
0.0
 11
135.5878723833
 21
104.9501885888
 31
0.0
 12
137.0878723833
 22
104.9501885888
 32
0.0
 13
137.0878723833
 23
104.9501885888
 33
0.0
  0
LINE
  5
213
330
204
100
AcDbEntity
  8
0
  6
Continuous
 62
     7
370
     0
100
AcDbLine
 10
114.1060097401
 20
88.9501885888
 30
0.0
 11
137.3378723833
 21
88.9501885888
 31
0.0
  0
LINE
  5
214
330
204
100
AcDbEntity
  8
0
  6
Continuous
 62
     7
370
     0
100
AcDbLine
 10
114.1060097401
 20
107.9501885888
 30
0.0
 11
137.3378723833
 21
107.9501885888
 31
0.0
  0
LINE
  5
215
330
204
100
AcDbEntity
  8
0
  6
Continuous
 62
     7
370
     0
100
AcDbLine
 10
136.3378723833
 20
88.9501885888
 30
0.0
 11
136.3378723833
 21
107.9501885888
 31
0.0
  0
MTEXT
  5
216
330
204
100
AcDbEntity
  8
0
  6
Continuous
 62
     7
370
     0
100
AcDbMText
 10
132.2651453434
 20
96.4136422906
 30
0.0
 40
3.5
 41
0.0
 71
     1
 72
     1
  1
19
  7
SLDTEXTSTYLE0
 11
6.123031769111886E-17
 21
1.0
 31
0.0
 73
     1
 44
1.0
  0
ENDBLK
  5
210
330
204
100
AcDbEntity
  8
0
100
AcDbBlockEnd
  0
BLOCK
  5
218
330
217
100
AcDbEntity
  8
0
100
AcDbBlockBegin
  2
SW_CENTERMARKSYMBOL_0
 70
     0
 71
     0
 10
0.0
 20
0.0
 30
0.0
  3
SW_CENTERMARKSYMBOL_0
  1

  0
LINE
  5
21A
330
217
100
AcDbEntity
  8
0
  6
Continuous
 62
     7
370
     0
100
AcDbLine
 10
0.0
 20
0.0
 30
0.0
 11
0.0
 21
12.5
 31
0.0
  0
LINE
  5
21B
330
217
100
AcDbEntity
  8
0
  6
Continuous
 62
     7
370
     0
100
AcDbLine
 10
0.0
 20
0.0
 30
0.0
 11
-12.5
 21
0.0
 31
0.0
  0
LINE
  5
21C
330
217
100
AcDbEntity
  8
0
  6
Continuous
 62
     7
370
     0
100
AcDbLine
 10
0.0
 20
0.0
 30
0.0
 11
0.0
 21
-12.5
 31
0.0
  0
LINE
  5
21D
330
217
100
AcDbEntity
  8
0
  6
Continuous
 62
     7
370
     0
100
AcDbLine
 10
0.0
 20
0.0
 30
0.0
 11
12.5
 21
0.0
 31
0.0
  0
LINE
  5
21E
330
217
100
AcDbEntity
  8
0
  6
Continuous
 62
     7
370
     0
100
AcDbLine
 10
0.0
 20
12.5
 30
0.0
 11
0.0
 21
18.0
 31
0.0
  0
LINE
  5
21F
330
217
100
AcDbEntity
  8
0
  6
Continuous
 62
     7
370
     0
100
AcDbLine
 10
-12.5
 20
0.0
 30
0.0
 11
-18.0
 21
0.0
 31
0.0
  0
LINE
  5
220
330
217
100
AcDbEntity
  8
0
  6
Continuous
 62
     7
370
     0
100
AcDbLine
 10
0.0
 20
-12.5
 30
0.0
 11
0.0
 21
-18.0
 31
0.0
  0
LINE
  5
221
330
217
100
AcDbEntity
  8
0
  6
Continuous
 62
     7
370
     0
100
AcDbLine
 10
12.5
 20
0.0
 30
0.0
 11
18.0
 21
0.0
 31
0.0
  0
ENDBLK
  5
219
330
217
100
AcDbEntity
  8
0
100
AcDbBlockEnd
  0
ENDSEC
  0
SECTION
  2
ENTITIES
  0
LINE
  5
2F
330
1F
100
AcDbEntity
  8
0
  6
Continuous
 62
     7
370
     0
100
AcDbLine
 10
20.2604743903
 20
285.0
 30
0.0
 11
196.7604743903
 21
285.0
 31
0.0
  0
LINE
  5
30
330
1F
100
AcDbEntity
  8
0
  6
Continuous
 62
     7
370
     0
100
AcDbLine
 10
20.2604743903
 20
285.0
 30
0.0
 11
20.2604743903
 21
10.0
 31
0.0
  0
LINE
  5
31
330
1F
100
AcDbEntity
  8
0
  6
Continuous
 62
     7
370
     0
100
AcDbLine
 10
20.2604743903
 20
10.0
 30
0.0
 11
196.7604743903
 21
10.0
 31
0.0
  0
LINE
  5
32
330
1F
100
AcDbEntity
  8
0
  6
Continuous
 62
     7
370
     0
100
AcDbLine
 10
196.7604743903
 20
285.0
 30
0.0
 11
196.7604743903
 21
10.0
 31
0.0
  0
LINE
  5
33
330
1F
100
AcDbEntity
  8
0
  6
Continuous
 62
     7
370
     0
100
AcDbLine
 10
127.0104743903
 20
50.75
 30
0.0
 11
196.7604743903
 21
50.75
 31
0.0
  0
LINE
  5
34
330
1F
100
AcDbEntity
  8
0
  6
Continuous
 62
     7
370
     0
100
AcDbLine
 10
127.0104743903
 20
50.75
 30
0.0
 11
127.0104743903
 21
10.0
 31
0.0
  0
LINE
  5
35
330
1F
100
AcDbEntity
  8
0
  6
Continuous
 62
     7
370
     0
100
AcDbLine
 10
127.0104743903
 20
22.75
 30
0.0
 11
196.7604743903
 21
22.75
 31
0.0
  0
LINE
  5
36
330
1F
100
AcDbEntity
  8
0
  6
Continuous
 62
     7
370
     0
100
AcDbLine
 10
127.0104743903
 20
36.75
 30
0.0
 11
196.7604743903
 21
36.75
 31
0.0
  0
MTEXT
  5
38
330
1F
100
AcDbEntity
  8
0
  6
Continuous
 62
     7
370
     0
100
AcDbMText
 10
141.6668951977
 20
30.8262857663
 30
0.0
 40
4.2333333333
 41
0.0
 71
     1
 72
     1
  1
吸着金具(ラージ)
  7
SLDTEXTSTYLE0
 73
     1
 44
1.0
  0
MTEXT
  5
39
330
1F
100
AcDbEntity
  8
0
  6
Continuous
 62
     7
370
     0
100
AcDbMText
 10
154.7876515968
 20
45.0608266185
 30
0.0
 40
4.2333333333
 41
0.0
 71
     1
 72
     1
  1
VFIL-H
  7
SLDTEXTSTYLE0
 73
     1
 44
1.0
  0
MTEXT
  5
3A
330
1F
100
AcDbEntity
  8
0
  6
Continuous
 62
     7
370
     0
100
AcDbMText
 10
155.4436054297
 20
16.2918260795
 30
0.0
 40
4.2333333333
 41
0.0
 71
     1
 72
     1
  1
210788
  7
SLDTEXTSTYLE0
 73
     1
 44
1.0
  0
LINE
  5
3B
330
1F
100
AcDbEntity
  8
0
  6
Continuous
 62
     7
370
     0
100
AcDbLine
 10
101.0607414869
 20
202.0940522014
 30
0.0
 11
114.0607414869
 21
202.0940522014
 31
0.0
  0
LINE
  5
3C
330
1F
100
AcDbEntity
  8
0
  6
Continuous
 62
     7
370
     0
100
AcDbLine
 10
113.5607414869
 20
202.5940522014
 30
0.0
 11
101.5607414869
 21
202.5940522014
 31
0.0
  0
LINE
  5
3D
330
1F
100
AcDbEntity
  8
0
  6
Continuous
 62
     7
370
     0
100
AcDbLine
 10
101.0607414869
 20
202.0940522014
 30
0.0
 11
101.0607414869
 21
200.5940522014
 31
0.0
  0
LINE
  5
3E
330
1F
100
AcDbEntity
  8
0
  6
Continuous
 62
     7
370
     0
100
AcDbLine
 10
101.5607414869
 20
202.5940522014
 30
0.0
 11
101.0607414869
 21
202.0940522014
 31
0.0
  0
LINE
  5
3F
330
1F
100
AcDbEntity
  8
0
  6
Continuous
 62
     7
370
     0
100
AcDbLine
 10
114.0607414869
 20
202.0940522014
 30
0.0
 11
113.5607414869
 21
202.5940522014
 31
0.0
  0
LINE
  5
40
330
1F
100
AcDbEntity
  8
0
  6
Continuous
 62
     7
370
     0
100
AcDbLine
 10
114.0607414869
 20
200.5940522014
 30
0.0
 11
114.0607414869
 21
202.0940522014
 31
0.0
  0
LINE
  5
41
330
1F
100
AcDbEntity
  8
0
  6
Continuous
 62
     7
370
    30
100
AcDbLine
 10
112.0072545064
 20
185.5940532743
 30
0.0
 11
112.0072545379
 21
186.5940522014
 31
0.0
  0
LINE
  5
42
330
1F
100
AcDbEntity
  8
0
  6
Continuous
 62
     7
370
    30
100
AcDbLine
 10
115.0345427496
 20
185.5940532743
 30
0.0
 11
115.0345426463
 21
186.5940522014
 31
0.0
  0
ARC
  5
43
330
1F
100
AcDbEntity
  8
0
  6
PHANTOM
 62
     7
370
    30
100
AcDbCircle
 10
104.2870855147
 20
116.3711874531
 30
0.0
 40
25.26251233088129
100
AcDbArc
 50
95.4659302893
 51
100.9397609545
  0
LWPOLYLINE
  5
44
330
1F
100
AcDbEntity
  8
0
  6
PHANTOM
 62
     7
370
    30
100
AcDbPolyline
 90
       32
 70
   128
 43
0.0
 10
114.060741621
 20
142.6859156101
 10
114.1409648163
 20
142.6954439714
 10
114.7618189035
 20
142.7787992044
 10
115.2731038211
 20
142.8568067833
 10
115.6663575722
 20
142.9248790129
 10
115.9602149902
 20
142.9822466209
 10
116.1740252329
 20
143.0288965686
 10
116.3440772844
 20
143.0702472909
 10
116.550224605
 20
143.1278980209
 10
116.774423751
 20
143.2050329505
 10
116.9934186665
 20
143.305925919
 10
117.1987641183
 20
143.4572351037
 10
117.3543564556
 20
143.6791059433
 10
117.4035572959
 20
143.8475021034
 10
117.4089831812
 20
143.9917164727
 10
117.3861899925
 20
144.1216983705
 10
117.3210896132
 20
144.2765996664
 10
117.2585028736
 20
144.3680611311
 10
117.1666707424
 20
144.4630187809
 10
117.0344136236
 20
144.5583200886
 10
116.8442450044
 20
144.6539222135
 10
116.5960093541
 20
144.7446646973
 10
116.2853322504
 20
144.8315282225
 10
115.8571520401
 20
144.9263694569
 10
115.3311750432
 20
145.0216037094
 10
114.7208150988
 20
145.1150526165
 10
113.7035123584
 20
145.2456594317
 10
112.6129932282
 20
145.3622908204
 10
111.4822446881
 20
145.4681179359
 10
110.2716694632
 20
145.5802175089
 10
108.9541197335
 20
145.7023148297
 10
107.5607414869
 20
145.8315526008
  0
LWPOLYLINE
  5
45
330
1F
100
AcDbEntity
  8
0
  6
PHANTOM
 62
     7
370
    30
100
AcDbPolyline
 90
       17
 70
   128
 43
0.0
 10
107.5607414869
 20
144.6315518453
 10
108.5360302287
 20
144.5410235657
 10
109.3939067842
 20
144.4613461255
 10
110.1299915509
 20
144.392945139
 10
110.7502467977
 20
144.3352832331
 10
111.8539508944
 20
144.232630065
 10
112.8370657144
 20
144.1379629879
 10
113.7555206706
 20
144.0359338059
 10
114.5997552713
 20
143.9254305198
 10
115.0947588076
 20
143.8497875689
 10
115.5165897263
 20
143.7756887509
 10
115.8633509231
 20
143.7043494417
 10
116.0780058754
 20
143.6528631358
 10
116.2408122373
 20
143.6090676918
 10
116.3113673729
 20
143.5894894286
 10
116.341858874
 20
143.583860515
 10
116.3423357112
 20
143.5866088479
  0
LWPOLYLINE
  5
46
330
1F
100
AcDbEntity
  8
0
  6
PHANTOM
 62
     7
370
    30
100
AcDbPolyline
 90
        3
 70
   128
 43
0.0
 10
114.4551818771
 20
143.9443540632
 10
114.0950729651
 20
143.8943243458
 10
114.060741621
 20
143.8902442216
  0
ARC
  5
47
330
1F
100
AcDbEntity
  8
0
  6
PHANTOM
 62
     7
370
    30
100
AcDbCircle
 10
104.6269317213
 20
114.2254480027
 30
0.0
 40
28.62912784228093
100
AcDbArc
 50
95.5044581006
 51
100.8714189212
  0
ARC
  5
48
330
1F
100
AcDbEntity
  8
0
  6
PHANTOM
 62
     7
370
    30
100
AcDbCircle
 10
104.2870364657
 20
121.5214937897
 30
0.0
 40
25.26220235020694
100
AcDbArc
 50
95.4658858099
 51
100.9397835422
  0
LWPOLYLINE
  5
49
330
1F
100
AcDbEntity
  8
0
  6
PHANTOM
 62
     7
370
    30
100
AcDbPolyline
 90
       32
 70
   128
 43
0.0
 10
114.060741621
 20
147.8359152435
 10
114.1409648163
 20
147.8454436048
 10
114.7618189035
 20
147.9287988379
 10
115.2731038211
 20
148.0068064167
 10
115.6663575722
 20
148.0748786463
 10
115.9602149902
 20
148.1322462543
 10
116.1740252329
 20
148.1788962021
 10
116.3440772844
 20
148.2202478557
 10
116.550224605
 20
148.2778985857
 10
116.774423751
 20
148.355032584
 10
116.9934186665
 20
148.4559255525
 10
117.1987641183
 20
148.6072347372
 10
117.3543564556
 20
148.8291065081
 10
117.4035572959
 20
148.9975017368
 10
117.4089831812
 20
149.1417170375
 10
117.3861899925
 20
149.2716980039
 10
117.3210896132
 20
149.4265992998
 10
117.2585028736
 20
149.5180607646
 10
117.1666707424
 20
149.6130184143
 10
117.0344136236
 20
149.7083206533
 10
116.8442450044
 20
149.8039227783
 10
116.5960093541
 20
149.894665262
 10
116.2853322504
 20
149.9815278559
 10
115.8571520401
 20
150.076368159
 10
115.3311750432
 20
150.1716033428
 10
114.7208150988
 20
150.2650522499
 10
113.7035123584
 20
150.3956590652
 10
112.6129932282
 20
150.5122904538
 10
111.4822446881
 20
150.6181185006
 10
110.2716694632
 20
150.7302180736
 10
108.9541197335
 20
150.8523144632
 10
107.5607414869
 20
150.9815522342
  0
LWPOLYLINE
  5
4A
330
1F
100
AcDbEntity
  8
0
  6
PHANTOM
 62
     7
370
    30
100
AcDbPolyline
 90
       17
 70
   128
 43
0.0
 10
107.5607414869
 20
149.78155241
 10
108.5360302287
 20
149.6910241305
 10
109.3939067842
 20
149.6113457589
 10
110.1299915509
 20
149.5429457038
 10
110.7502467977
 20
149.4852819352
 10
111.8539508944
 20
149.3826296984
 10
112.8370657144
 20
149.2879626214
 10
113.7555206706
 20
149.1859343707
 10
114.5997552713
 20
149.0754301532
 10
115.0947588076
 20
148.9997881337
 10
115.5165897263
 20
148.9256893157
 10
115.8633509231
 20
148.8543490752
 10
116.0780058754
 20
148.8028627693
 10
116.2408122373
 20
148.7590673252
 10
116.3113673729
 20
148.739489062
 10
116.341858874
 20
148.7338601484
 10
116.3423357112
 20
148.7366094126
  0
LWPOLYLINE
  5
4B
330
1F
100
AcDbEntity
  8
0
  6
PHANTOM
 62
     7
370
    30
100
AcDbPolyline
 90
        3
 70
   128
 43
0.0
 10
114.4551818771
 20
149.0943536966
 10
114.0950729651
 20
149.0443239792
 10
114.060741621
 20
149.040243855
  0
ARC
  5
4C
330
1F
100
AcDbEntity
  8
0
  6
PHANTOM
 62
     7
370
    30
100
AcDbCircle
 10
104.6269657199
 20
119.3751427664
 30
0.0
 40
28.62943456740197
100
AcDbArc
 50
95.504467302
 51
100.8713703151
  0
ARC
  5
4D
330
1F
100
AcDbEntity
  8
0
  6
PHANTOM
 62
     7
370
    30
100
AcDbCircle
 10
104.2871236556
 20
126.6708895098
 30
0.0
 40
25.26281274974997
100
AcDbArc
 50
95.4659519904
 51
100.9397173618
  0
LWPOLYLINE
  5
4E
330
1F
100
AcDbEntity
  8
0
  6
PHANTOM
 62
     7
370
    30
100
AcDbPolyline
 90
       32
 70
   128
 43
0.0
 10
114.060741621
 20
152.985914877
 10
114.1409648163
 20
152.9954441695
 10
114.7618189035
 20
153.0787994026
 10
115.2731038211
 20
153.1568069815
 10
115.6663575722
 20
153.2248792111
 10
115.9602149902
 20
153.282246819
 10
116.1740252329
 20
153.3288967668
 10
116.3440772844
 20
153.3702474891
 10
116.550224605
 20
153.4278982191
 10
116.774423751
 20
153.5050322174
 10
116.9934186665
 20
153.6059261172
 10
117.1987641183
 20
153.7572343706
 10
117.3543564556
 20
153.9791070729
 10
117.4035572959
 20
154.1475013702
 10
117.4089831812
 20
154.2917166709
 10
117.3861899925
 20
154.4216995
 10
117.3210896132
 20
154.5765989332
 10
117.2585028736
 20
154.668060398
 10
117.1666707424
 20
154.7630180477
 10
117.0344136236
 20
154.8583202868
 10
116.8442450044
 20
154.9539224117
 10
116.5960093541
 20
155.0446648954
 10
116.2853322504
 20
155.131529352
 10
115.8571520401
 20
155.226369655
 10
115.3311750432
 20
155.3216029762
 10
114.7208150988
 20
155.415053746
 10
113.7035123584
 20
155.5456605612
 10
112.6129932282
 20
155.6622900872
 10
111.4822446881
 20
155.768118134
 10
110.2716694632
 20
155.8802177071
 10
108.9541197335
 20
156.0023159592
 10
107.5607414869
 20
156.1315518676
  0
LWPOLYLINE
  5
4F
330
1F
100
AcDbEntity
  8
0
  6
PHANTOM
 62
     7
370
    30
100
AcDbPolyline
 90
       17
 70
   128
 43
0.0
 10
107.5607414869
 20
154.9315520435
 10
108.5360302287
 20
154.8410237639
 10
109.3939067842
 20
154.7613453924
 10
110.1299915509
 20
154.6929453372
 10
110.7502467977
 20
154.6352834313
 10
111.8539508944
 20
154.5326293318
 10
112.8370657144
 20
154.4379622548
 10
113.7555206706
 20
154.3359340041
 10
114.5997552713
 20
154.225430718
 10
115.0947588076
 20
154.1497886985
 10
115.5165897263
 20
154.0756889491
 10
115.8633509231
 20
154.0043496399
 10
116.0780058754
 20
153.9528624027
 10
116.2408122373
 20
153.90906789
 10
116.3113673729
 20
153.8894896268
 10
116.341858874
 20
153.8838607131
 10
116.3423357112
 20
153.8866099774
  0
ARC
  5
50
330
1F
100
AcDbEntity
  8
0
  6
PHANTOM
 62
     7
370
    30
100
AcDbCircle
 10
104.6268140435
 20
124.5261965359
 30
0.0
 40
28.62837074298463
100
AcDbArc
 50
95.5043675125
 51
100.8714701046
  0
LWPOLYLINE
  5
51
330
1F
100
AcDbEntity
  8
0
  6
PHANTOM
 62
     7
370
    30
100
AcDbPolyline
 90
       29
 70
   128
 43
0.0
 10
117.4104975117
 20
137.5769514463
 10
117.4005221156
 20
137.6716390124
 10
117.3690350307
 20
137.7672802529
 10
117.320935945
 20
137.8600329964
 10
117.26158462
 20
137.9452597222
 10
117.229520115
 20
137.9837396427
 10
117.1968772588
 20
138.0189194216
 10
117.1643834142
 20
138.0505275785
 10
117.1477173967
 20
138.0650333933
 10
117.1302998019
 20
138.0787419959
 10
117.0934389857
 20
138.1037903822
 10
117.0265318406
 20
138.1388896017
 10
116.9527310459
 20
138.1666029676
 10
116.8221856979
 20
138.1990525744
 10
116.5728650568
 20
138.2359296887
 10
116.1218804819
 20
138.2685031614
 10
115.6790701253
 20
138.2896236948
 10
115.2040085336
 20
138.3084270976
 10
114.7142082965
 20
138.3253352589
 10
114.1630744142
 20
138.3423738054
 10
113.3226787252
 20
138.3656754962
 10
112.3935424303
 20
138.3890428453
 10
111.3659439189
 20
138.4130285925
 10
110.5120589537
 20
138.431976816
 10
109.6780854324
 20
138.4499043099
 10
109.2958110431
 20
138.4579839989
 10
108.8908691937
 20
138.4664730041
 10
108.3163862978
 20
138.4784251324
 10
107.5607414869
 20
138.4940522595
  0
LWPOLYLINE
  5
52
330
1F
100
AcDbEntity
  8
0
  6
PHANTOM
 62
     7
370
    30
100
AcDbPolyline
 90
       18
 70
   128
 43
0.0
 10
117.4107415182
 20
138.7940522156
 10
117.3793494282
 20
138.9683608769
 10
117.2852700157
 20
139.1444614029
 10
117.0423568738
 20
139.3803011498
 10
116.7397906584
 20
139.5433775953
 10
116.464412543
 20
139.6358420945
 10
116.2390920845
 20
139.6939407906
 10
115.737845893
 20
139.7999117955
 10
115.0467728777
 20
139.9171667046
 10
114.1756854532
 20
140.038347604
 10
113.221128243
 20
140.1497943199
 10
112.2245851485
 20
140.2494081168
 10
111.2013284629
 20
140.3441226914
 10
110.4383650282
 20
140.4147756158
 10
109.6969998954
 20
140.4834592587
 10
109.1447975533
 20
140.5346386938
 10
108.4327862528
 20
140.6006554945
 10
107.5607414869
 20
140.681552036
  0
ARC
  5
53
330
1F
100
AcDbEntity
  8
0
  6
PHANTOM
 62
     7
370
    30
100
AcDbCircle
 10
97.7791058704
 20
12.2486176545
 30
0.0
 40
127.6083854275055
100
AcDbArc
 50
81.7694799671
 51
85.6037627618
  0
LWPOLYLINE
  5
54
330
1F
100
AcDbEntity
  8
0
  6
PHANTOM
 62
     7
370
    30
100
AcDbPolyline
 90
       25
 70
   128
 43
0.0
 10
117.4107415182
 20
159.3940530776
 10
117.3699039546
 20
159.5679440408
 10
117.2673448501
 20
159.735110855
 10
117.2030789358
 20
159.8076701968
 10
117.1359678311
 20
159.8691356241
 10
117.0634233905
 20
159.9185609131
 10
116.9855638919
 20
159.9564750551
 10
116.8631359515
 20
159.9952516018
 10
116.7323894379
 20
160.0193672686
 10
116.5853792382
 20
160.0357864856
 10
116.3894857792
 20
160.0514066278
 10
116.1816890863
 20
160.0647096395
 10
115.8003348438
 20
160.0842376112
 10
115.4481952591
 20
160.0991350471
 10
115.0902670389
 20
160.1125405042
 10
114.686490274
 20
160.1262383967
 10
114.2363345762
 20
160.1402063726
 10
113.4031682787
 20
160.1635490417
 10
112.4833843251
 20
160.1868656336
 10
111.4920836454
 20
160.2101635992
 10
110.6977334758
 20
160.2279164701
 10
109.8519838461
 20
160.2462039201
 10
109.2231465783
 20
160.2595125197
 10
108.4598135831
 20
160.2754493116
 10
107.5607414869
 20
160.2940515487
  0
LWPOLYLINE
  5
55
330
1F
100
AcDbEntity
  8
0
  6
PHANTOM
 62
     7
370
    30
100
AcDbPolyline
 90
       17
 70
   128
 43
0.0
 10
107.5607414869
 20
159.0940517246
 10
108.2931041647
 20
159.0789065569
 10
108.8563932618
 20
159.0671886562
 10
109.2566041089
 20
159.0587993025
 10
109.6223173709
 20
159.051074913
 10
110.4186917701
 20
159.0339814185
 10
111.2470107665
 20
159.0156660288
 10
112.250481504
 20
158.9923941403
 10
113.1544883875
 20
158.9699157386
 10
113.9786082832
 20
158.9474913537
 10
114.6922523668
 20
158.9256816416
 10
115.309030055
 20
158.903922221
 10
115.8897557808
 20
158.8790763973
 10
116.1424338398
 20
158.865892595
 10
116.3087671203
 20
158.8581588923
 10
116.3818731485
 20
158.8685282378
 10
116.3781115366
 20
158.8804603427
  0
ARC
  5
56
330
1F
100
AcDbEntity
  8
0
  6
PHANTOM
 62
     7
370
    30
100
AcDbCircle
 10
101.9484902128
 20
104.7674110485
 30
0.0
 40
54.77832511156844
100
AcDbArc
 50
91.8439795612
 51
92.6821024532
  0
ARC
  5
57
330
1F
100
AcDbEntity
  8
0
  6
PHANTOM
 62
     7
370
    30
100
AcDbCircle
 10
116.7054363311
 20
160.7378380963
 30
0.0
 40
0.7212242651383591
100
AcDbArc
 50
272.9243780116
 51
347.9236263789
  0
LWPOLYLINE
  5
58
330
1F
100
AcDbEntity
  8
0
  6
PHANTOM
 62
     7
370
    30
100
AcDbPolyline
 90
        3
 70
   128
 43
0.0
 10
99.4767358107
 20
156.6233125388
 10
99.7020292608
 20
156.6688169598
 10
100.1858355058
 20
156.7501381843
  0
ARC
  5
59
330
1F
100
AcDbEntity
  8
0
  6
PHANTOM
 62
     7
370
    30
100
AcDbCircle
 10
115.7779842111
 20
160.5817975146
 30
0.0
 40
2.14379753563675
100
AcDbArc
 50
277.5791529757
 51
306.095056038
  0
LWPOLYLINE
  5
5A
330
1F
100
AcDbEntity
  8
0
  6
PHANTOM
 62
     7
370
    30
100
AcDbPolyline
 90
        3
 70
   128
 43
0.0
 10
100.1858355058
 20
157.9587210773
 10
99.5765130547
 20
157.8600958793
 10
99.2213876499
 20
157.7904348134
  0
ARC
  5
5B
330
1F
100
AcDbEntity
  8
0
  6
PHANTOM
 62
     7
370
    30
100
AcDbCircle
 10
102.039141041
 20
80.7630162541
 30
0.0
 40
58.18427780079952
100
AcDbArc
 50
91.8253135242
 51
92.671930837
  0
ARC
  5
5C
330
1F
100
AcDbEntity
  8
0
  6
PHANTOM
 62
     7
370
    30
100
AcDbCircle
 10
101.9479072396
 20
82.9943306879
 30
0.0
 40
54.75140462249192
100
AcDbArc
 50
91.844276152
 51
92.6824875124
  0
ARC
  5
5D
330
1F
100
AcDbEntity
  8
0
  6
PHANTOM
 62
     7
370
    30
100
AcDbCircle
 10
116.66768218
 20
138.9787415542
 30
0.0
 40
0.765667899284047
100
AcDbArc
 50
273.6743676031
 51
346.0418341619
  0
LINE
  5
5E
330
1F
100
AcDbEntity
  8
0
  6
Continuous
 62
     7
370
    30
100
AcDbLine
 10
118.5607414869
 20
136.5940522014
 30
0.0
 11
117.5607414869
 21
137.5940522014
 31
0.0
  0
LINE
  5
5F
330
1F
100
AcDbEntity
  8
0
  6
Continuous
 62
     7
370
    30
100
AcDbLine
 10
118.5607414869
 20
133.5940522014
 30
0.0
 11
118.5607414869
 21
136.5940522014
 31
0.0
  0
LINE
  5
60
330
1F
100
AcDbEntity
  8
0
  6
Continuous
 62
     7
370
    30
100
AcDbLine
 10
116.0607419489
 20
138.2714191324
 30
0.0
 11
116.0607419489
 21
138.5234587698
 31
0.0
  0
LINE
  5
61
330
1F
100
AcDbEntity
  8
0
  6
Continuous
 62
     7
370
    30
100
AcDbLine
 10
114.0607414869
 20
188.0940522014
 30
0.0
 11
113.5607414869
 21
188.5940522014
 31
0.0
  0
LINE
  5
62
330
1F
100
AcDbEntity
  8
0
  6
Continuous
 62
     7
370
    30
100
AcDbLine
 10
114.060741621
 20
186.5940515756
 30
0.0
 11
114.0607414869
 21
188.0940522014
 31
0.0
  0
LINE
  5
63
330
1F
100
AcDbEntity
  8
0
  6
Continuous
 62
     7
370
    30
100
AcDbLine
 10
118.5607414869
 20
161.5940522014
 30
0.0
 11
118.5607414869
 21
165.5940522014
 31
0.0
  0
LINE
  5
64
330
1F
100
AcDbEntity
  8
0
  6
Continuous
 62
     7
370
    30
100
AcDbLine
 10
117.5607414869
 20
160.5940522014
 30
0.0
 11
118.5607414869
 21
161.5940522014
 31
0.0
  0
LINE
  5
65
330
1F
100
AcDbEntity
  8
0
  6
Continuous
 62
     7
370
    30
100
AcDbLine
 10
117.5607414869
 20
167.5940522014
 30
0.0
 11
117.5607414869
 21
184.5940522014
 31
0.0
  0
LINE
  5
66
330
1F
100
AcDbEntity
  8
0
  6
Continuous
 62
     7
370
    30
100
AcDbLine
 10
117.5607414869
 20
184.5940522014
 30
0.0
 11
116.5607414869
 21
185.5940522014
 31
0.0
  0
LINE
  5
67
330
1F
100
AcDbEntity
  8
0
  6
Continuous
 62
     7
370
    30
100
AcDbLine
 10
116.5607410995
 20
165.5940537213
 30
0.0
 11
116.5607410995
 21
167.5940540492
 31
0.0
  0
LINE
  5
68
330
1F
100
AcDbEntity
  8
0
  6
Continuous
 62
     7
370
    30
100
AcDbLine
 10
115.5607414869
 20
153.5940522014
 30
0.0
 11
115.9502060664
 21
153.9835159539
 31
0.0
  0
LINE
  5
69
330
1F
100
AcDbEntity
  8
0
  6
Continuous
 62
     7
370
    30
100
AcDbLine
 10
116.0607419489
 20
155.181275016
 30
0.0
 11
116.0607419489
 21
158.8701543271
 31
0.0
  0
LINE
  5
6A
330
1F
100
AcDbEntity
  8
0
  6
Continuous
 62
     7
370
    30
100
AcDbLine
 10
116.0607419489
 20
160.0709029346
 30
0.0
 11
116.0607419489
 21
160.5940529018
 31
0.0
  0
LINE
  5
6B
330
1F
100
AcDbEntity
  8
0
  6
Continuous
 62
     7
370
    30
100
AcDbLine
 10
108.9831783037
 20
185.5940522014
 30
0.0
 11
108.9831783037
 21
186.5940522014
 31
0.0
  0
LINE
  5
6C
330
1F
100
AcDbEntity
  8
0
  6
Continuous
 62
     7
370
    30
100
AcDbLine
 10
107.5640505104
 20
185.5940522014
 30
0.0
 11
107.5640505104
 21
186.5940522014
 31
0.0
  0
LINE
  5
6D
330
1F
100
AcDbEntity
  8
0
  6
Continuous
 62
     7
370
    30
100
AcDbLine
 10
108.9831783037
 20
186.5940522014
 30
0.0
 11
107.5640505104
 21
186.5940522014
 31
0.0
  0
LINE
  5
6E
330
1F
100
AcDbEntity
  8
0
  6
Continuous
 62
     7
370
    30
100
AcDbLine
 10
108.9831783037
 20
185.5940522014
 30
0.0
 11
107.5640505104
 21
185.5940522014
 31
0.0
  0
LINE
  5
6F
330
1F
100
AcDbEntity
  8
0
  6
Continuous
 62
     7
370
    30
100
AcDbLine
 10
107.5607414869
 20
185.5940522014
 30
0.0
 11
107.5607414869
 21
186.5940522014
 31
0.0
  0
LINE
  5
70
330
1F
100
AcDbEntity
  8
0
  6
Continuous
 62
     7
370
    30
100
AcDbLine
 10
107.5640505104
 20
186.5940522014
 30
0.0
 11
107.5607414869
 21
186.5940522014
 31
0.0
  0
LINE
  5
71
330
1F
100
AcDbEntity
  8
0
  6
Continuous
 62
     7
370
    30
100
AcDbLine
 10
107.5640505104
 20
185.5940522014
 30
0.0
 11
107.5607414869
 21
185.5940522014
 31
0.0
  0
LINE
  5
72
330
1F
100
AcDbEntity
  8
0
  6
Continuous
 62
     7
370
    30
100
AcDbLine
 10
109.7191127987
 20
186.5940522014
 30
0.0
 11
109.7191127987
 21
185.5940522014
 31
0.0
  0
LINE
  5
73
330
1F
100
AcDbEntity
  8
0
  6
Continuous
 62
     7
370
    30
100
AcDbLine
 10
109.0830058138
 20
186.5940515756
 30
0.0
 11
109.0830058138
 21
185.5940532743
 31
0.0
  0
LINE
  5
74
330
1F
100
AcDbEntity
  8
0
  6
Continuous
 62
     7
370
    30
100
AcDbLine
 10
109.7191127987
 20
186.5940522014
 30
0.0
 11
109.1795598826
 21
186.5940522014
 31
0.0
  0
LINE
  5
75
330
1F
100
AcDbEntity
  8
0
  6
Continuous
 62
     7
370
    30
100
AcDbLine
 10
109.7191127987
 20
185.5940522014
 30
0.0
 11
109.6620394134
 21
185.5940522014
 31
0.0
  0
LINE
  5
76
330
1F
100
AcDbEntity
  8
0
  6
Continuous
 62
     7
370
    30
100
AcDbLine
 10
111.0741942684
 20
185.5940522014
 30
0.0
 11
111.0741942684
 21
186.5940522014
 31
0.0
  0
LINE
  5
77
330
1F
100
AcDbEntity
  8
0
  6
Continuous
 62
     7
370
    30
100
AcDbLine
 10
111.0741942684
 20
186.5940522014
 30
0.0
 11
109.7191127987
 21
186.5940522014
 31
0.0
  0
LINE
  5
78
330
1F
100
AcDbEntity
  8
0
  6
Continuous
 62
     7
370
    30
100
AcDbLine
 10
111.0741942684
 20
185.5940522014
 30
0.0
 11
109.7191127987
 21
185.5940522014
 31
0.0
  0
LINE
  5
79
330
1F
100
AcDbEntity
  8
0
  6
Continuous
 62
     7
370
    30
100
AcDbLine
 10
112.0072545379
 20
186.5940522014
 30
0.0
 11
111.0741942684
 21
186.5940522014
 31
0.0
  0
LINE
  5
7A
330
1F
100
AcDbEntity
  8
0
  6
Continuous
 62
     7
370
    30
100
AcDbLine
 10
111.8314515781
 20
185.5940522014
 30
0.0
 11
111.0741942684
 21
185.5940522014
 31
0.0
  0
LINE
  5
7B
330
1F
100
AcDbEntity
  8
0
  6
Continuous
 62
     7
370
    30
100
AcDbLine
 10
112.403309864
 20
186.5940522014
 30
0.0
 11
112.4033096758
 21
185.5940532743
 31
0.0
  0
LINE
  5
7C
330
1F
100
AcDbEntity
  8
0
  6
Continuous
 62
     7
370
    30
100
AcDbLine
 10
100.8558494551
 20
186.5940515756
 30
0.0
 11
100.8558494551
 21
185.5940532743
 31
0.0
  0
LINE
  5
7D
330
1F
100
AcDbEntity
  8
0
  6
Continuous
 62
     7
370
    30
100
AcDbLine
 10
115.0345426463
 20
186.5940522014
 30
0.0
 11
112.403309864
 21
186.5940522014
 31
0.0
  0
LINE
  5
7E
330
1F
100
AcDbEntity
  8
0
  6
Continuous
 62
     7
370
    30
100
AcDbLine
 10
112.0072545379
 20
186.5940522014
 30
0.0
 11
112.403309864
 21
186.5940522014
 31
0.0
  0
LINE
  5
7F
330
1F
100
AcDbEntity
  8
0
  6
Continuous
 62
     7
370
    30
100
AcDbLine
 10
103.301723276
 20
186.5940522014
 30
0.0
 11
103.3017232595
 21
185.5940532743
 31
0.0
  0
LINE
  5
80
330
1F
100
AcDbEntity
  8
0
  6
Continuous
 62
     7
370
    30
100
AcDbLine
 10
100.8558494551
 20
186.5940515756
 30
0.0
 11
103.301723276
 21
186.5940522014
 31
0.0
  0
LINE
  5
81
330
1F
100
AcDbEntity
  8
0
  6
Continuous
 62
     7
370
    30
100
AcDbLine
 10
100.8558494551
 20
185.5940532743
 30
0.0
 11
103.3017232595
 21
185.5940532743
 31
0.0
  0
LWPOLYLINE
  5
82
330
1F
100
AcDbEntity
  8
0
  6
PHANTOM
 62
     7
370
    30
100
AcDbPolyline
 90
       20
 70
   128
 43
0.0
 10
98.6634537158
 20
141.7294957547
 10
98.6941026104
 20
141.5505169763
 10
98.7821908248
 20
141.3918168156
 10
98.9182151435
 20
141.267278964
 10
99.0984800784
 20
141.1839293188
 10
99.3164365692
 20
141.1555738061
 10
99.555171798
 20
141.1991122051
 10
99.7799334628
 20
141.3247071079
 10
99.9422094365
 20
141.5174410551
 10
100.0104157766
 20
141.730570501
 10
99.9957376672
 20
141.9213733508
 10
99.922839324
 20
142.0804655983
 10
99.8016304848
 20
142.2106169968
 10
99.6324799535
 20
142.3071374058
 10
99.4180000899
 20
142.3549170478
 10
99.1747106937
 20
142.3327562272
 10
98.9406898198
 20
142.2272150277
 10
98.7646670593
 20
142.0515051915
 10
98.6758347181
 20
141.8452572881
 10
98.6634537158
 20
141.7294957547
  0
LINE
  5
83
330
1F
100
AcDbEntity
  8
0
  6
PHANTOM
 62
     7
370
    30
100
AcDbLine
 10
107.5607414869
 20
145.2315517574
 30
0.0
 11
107.5607414869
 21
145.8238803654
 31
0.0
  0
LINE
  5
84
330
1F
100
AcDbEntity
  8
0
  6
PHANTOM
 62
     7
370
    30
100
AcDbLine
 10
107.5607414869
 20
145.2315517574
 30
0.0
 11
107.5607414869
 21
144.6315872355
 31
0.0
  0
LWPOLYLINE
  5
85
330
1F
100
AcDbEntity
  8
0
  6
PHANTOM
 62
     7
370
    30
100
AcDbPolyline
 90
       20
 70
   128
 43
0.0
 10
98.6634537158
 20
146.8794953882
 10
98.6941026104
 20
146.7005166098
 10
98.7821908248
 20
146.5418164491
 10
98.9182151435
 20
146.4172790631
 10
99.0984800784
 20
146.3339294179
 10
99.3164365692
 20
146.3055743708
 10
99.555171798
 20
146.3491127699
 10
99.7799334628
 20
146.474707207
 10
99.9422094365
 20
146.6674416198
 10
100.0104157766
 20
146.8805701344
 10
99.9957376672
 20
147.0713729843
 10
99.922839324
 20
147.2304652317
 10
99.8016304848
 20
147.3606175615
 10
99.6324799535
 20
147.4571370392
 10
99.4180000899
 20
147.5049166813
 10
99.1747106937
 20
147.4827567919
 10
98.9406898198
 20
147.3772146611
 10
98.7646670593
 20
147.2015057563
 10
98.6758347181
 20
146.9952578529
 10
98.6634537158
 20
146.8794953882
  0
LINE
  5
86
330
1F
100
AcDbEntity
  8
0
  6
PHANTOM
 62
     7
370
    30
100
AcDbLine
 10
107.5607414869
 20
150.3815513908
 30
0.0
 11
107.5607414869
 21
150.9738799988
 31
0.0
  0
LINE
  5
87
330
1F
100
AcDbEntity
  8
0
  6
PHANTOM
 62
     7
370
    30
100
AcDbLine
 10
107.5607414869
 20
150.3815513908
 30
0.0
 11
107.5607414869
 21
149.7815878003
 31
0.0
  0
LWPOLYLINE
  5
88
330
1F
100
AcDbEntity
  8
0
  6
PHANTOM
 62
     7
370
    30
100
AcDbPolyline
 90
       20
 70
   128
 43
0.0
 10
98.6634537158
 20
152.0294950216
 10
98.6941026104
 20
151.8505171745
 10
98.7821908248
 20
151.6918160825
 10
98.9182151435
 20
151.5672796278
 10
99.0984800784
 20
151.4839299827
 10
99.3164365692
 20
151.4555730729
 10
99.555171798
 20
151.4991124033
 10
99.7799334628
 20
151.6247068404
 10
99.9422094365
 20
151.8174421846
 10
100.0104157766
 20
152.0305697679
 10
99.9957376672
 20
152.221373549
 10
99.922839324
 20
152.3804657965
 10
99.8016304848
 20
152.5106162637
 10
99.6324799535
 20
152.6071366726
 10
99.4180000899
 20
152.654917246
 10
99.1747106937
 20
152.632755494
 10
98.9406898198
 20
152.5272142946
 10
98.7646670593
 20
152.3515053897
 10
98.6758347181
 20
152.145256555
 10
98.6634537158
 20
152.0294950216
  0
LINE
  5
89
330
1F
100
AcDbEntity
  8
0
  6
PHANTOM
 62
     7
370
    30
100
AcDbLine
 10
107.5607414869
 20
155.5315528869
 30
0.0
 11
107.5607414869
 21
156.1238796323
 31
0.0
  0
LINE
  5
8A
330
1F
100
AcDbEntity
  8
0
  6
PHANTOM
 62
     7
370
    30
100
AcDbLine
 10
107.5607414869
 20
155.5315528869
 30
0.0
 11
107.5607414869
 21
154.9315874337
 31
0.0
  0
LINE
  5
8B
330
1F
100
AcDbEntity
  8
0
  6
PHANTOM
 62
     7
370
    30
100
AcDbLine
 10
107.5607414869
 20
137.5940523914
 30
0.0
 11
107.5607414869
 21
138.4940173349
 31
0.0
  0
LINE
  5
8C
330
1F
100
AcDbEntity
  8
0
  6
PHANTOM
 62
     7
370
    30
100
AcDbLine
 10
107.5607414869
 20
137.5940523914
 30
0.0
 11
110.6197862001
 21
137.5940523914
 31
0.0
  0
ARC
  5
8D
330
1F
100
AcDbEntity
  8
0
  6
PHANTOM
 62
     7
370
    30
100
AcDbCircle
 10
116.8107414869
 20
138.7940522014
 30
0.0
 40
0.5999999999999984
100
AcDbArc
 50
180.1540294223
 51
250.9924615981
  0
ARC
  5
8E
330
1F
100
AcDbEntity
  8
0
  6
PHANTOM
 62
     7
370
    30
100
AcDbCircle
 10
116.8107414869
 20
138.7940522014
 30
0.0
 40
0.6000000000000085
100
AcDbArc
 50
265.2706256708
 51
0.0
  0
LINE
  5
8F
330
1F
100
AcDbEntity
  8
0
  6
PHANTOM
 62
     7
370
    30
100
AcDbLine
 10
107.5607414869
 20
140.0815521239
 30
0.0
 11
107.5607414869
 21
140.6738788693
 31
0.0
  0
LINE
  5
90
330
1F
100
AcDbEntity
  8
0
  6
PHANTOM
 62
     7
370
    30
100
AcDbLine
 10
107.5607414869
 20
140.0815521239
 30
0.0
 11
107.5607414869
 21
139.4815871364
 31
0.0
  0
ARC
  5
91
330
1F
100
AcDbEntity
  8
0
  6
PHANTOM
 62
     7
370
    30
100
AcDbCircle
 10
116.8107414869
 20
159.3940522014
 30
0.0
 40
0.6000000000000085
100
AcDbArc
 50
189.3434113392
 51
0.0
  0
LINE
  5
92
330
1F
100
AcDbEntity
  8
0
  6
PHANTOM
 62
     7
370
    30
100
AcDbLine
 10
107.5607414869
 20
159.694052568
 30
0.0
 11
107.5607414869
 21
160.2863774507
 31
0.0
  0
LINE
  5
93
330
1F
100
AcDbEntity
  8
0
  6
PHANTOM
 62
     7
370
    30
100
AcDbLine
 10
107.5607414869
 20
159.694052568
 30
0.0
 11
107.5607414869
 21
159.0940871148
 31
0.0
  0
ARC
  5
94
330
1F
100
AcDbEntity
  8
0
  6
PHANTOM
 62
     7
370
    30
100
AcDbCircle
 10
116.8107414869
 20
160.5940522014
 30
0.0
 40
0.5999999999999943
100
AcDbArc
 50
180.0
 51
248.7878887933
  0
ARC
  5
95
330
1F
100
AcDbEntity
  8
0
  6
PHANTOM
 62
     7
370
    30
100
AcDbCircle
 10
116.8107414869
 20
160.5940522014
 30
0.0
 40
0.6000000000000227
100
AcDbArc
 50
270.0
 51
0.0
  0
LWPOLYLINE
  5
96
330
1F
100
AcDbEntity
  8
0
  6
PHANTOM
 62
     7
370
    30
100
AcDbPolyline
 90
       18
 70
   128
 43
0.0
 10
98.9932294516
 20
160.5940529018
 10
98.9251702604
 20
160.5507687538
 10
98.7624654127
 20
160.379148355
 10
98.6837835563
 20
160.1827082097
 10
98.6737802205
 20
160.0788229017
 10
98.7055513588
 20
159.8956559657
 10
98.7957359804
 20
159.7333413421
 10
98.9365808246
 20
159.6032877325
 10
99.1253841249
 20
159.5147953241
 10
99.352895054
 20
159.4849333971
 10
99.5963958604
 20
159.5314026683
 10
99.8149847192
 20
159.6598767548
 10
99.9622864229
 20
159.8471545487
 10
100.0195939606
 20
160.0475174247
 10
100.0027421442
 20
160.2305707394
 10
99.9292505486
 20
160.3912238835
 10
99.8038540175
 20
160.5282065331
 10
99.70596503
 20
160.5940529018
  0
LWPOLYLINE
  5
97
330
1F
100
AcDbEntity
  8
0
  6
PHANTOM
 62
     7
370
    30
100
AcDbPolyline
 90
       20
 70
   128
 43
0.0
 10
98.6634537158
 20
157.1794965177
 10
98.6941026104
 20
157.0005168079
 10
98.7821908248
 20
156.8418157159
 10
98.9182151435
 20
156.7172792613
 10
99.0984800784
 20
156.6339296161
 10
99.3164365692
 20
156.605574569
 10
99.555171798
 20
156.6491120367
 10
99.7799334628
 20
156.7747064738
 10
99.9422094365
 20
156.967441818
 10
100.0104157766
 20
157.1805694013
 10
99.9957376672
 20
157.3713731824
 10
99.922839324
 20
157.5304654299
 10
99.8016304848
 20
157.6606177597
 10
99.6324799535
 20
157.7571381687
 10
99.4180000899
 20
157.8049168794
 10
99.1747106937
 20
157.7827569901
 10
98.9406898198
 20
157.677213928
 10
98.7646670593
 20
157.5015050231
 10
98.6758347181
 20
157.2952580511
 10
98.6634537158
 20
157.1794965177
  0
LWPOLYLINE
  5
98
330
1F
100
AcDbEntity
  8
0
  6
PHANTOM
 62
     7
370
    30
100
AcDbPolyline
 90
       20
 70
   128
 43
0.0
 10
98.6737802205
 20
138.2788231469
 10
98.706175345
 20
138.4642760142
 10
98.797470103
 20
138.6285743549
 10
98.9410865632
 20
138.7619350909
 10
99.1349804727
 20
138.8536410279
 10
99.3683130992
 20
138.8845395169
 10
99.6146767912
 20
138.8363496273
 10
99.8294947249
 20
138.7063057966
 10
99.9684210447
 20
138.5224114976
 10
100.0201192265
 20
138.3289208508
 10
100.0020627444
 20
138.1497776939
 10
99.9280510051
 20
137.9882099911
 10
99.8000858863
 20
137.847316718
 10
99.6169957844
 20
137.7393736376
 10
99.3860696954
 20
137.6864572859
 10
99.134813766
 20
137.7120728477
 10
98.9104488445
 20
137.8218701913
 10
98.7554311333
 20
137.9912293388
 10
98.6824201001
 20
138.182375381
 10
98.6737802205
 20
138.2788231469
  0
LINE
  5
99
330
1F
100
AcDbEntity
  8
0
  6
PHANTOM
 62
     7
370
    30
100
AcDbLine
 10
99.70596503
 20
160.5940529018
 30
0.0
 11
98.9932294516
 21
160.5940529018
 31
0.0
  0
LINE
  5
9A
330
1F
100
AcDbEntity
  8
0
  6
Continuous
 62
     7
370
    30
100
AcDbLine
 10
118.5607414869
 20
136.5940522014
 30
0.0
 11
113.1060097401
 21
136.5940522014
 31
0.0
  0
ARC
  5
9B
330
1F
100
AcDbEntity
  8
0
  6
Continuous
 62
     7
370
    30
100
AcDbCircle
 10
105.6728817884
 20
122.020205895
 30
0.0
 40
16.35996298223402
100
AcDbArc
 50
62.9769633912
 51
72.1661757587
  0
LINE
  5
9C
330
1F
100
AcDbEntity
  8
0
  6
Continuous
 62
     7
370
    30
100
AcDbLine
 10
110.6832404861
 20
137.5940522014
 30
0.0
 11
117.5607414869
 21
137.5940522014
 31
0.0
  0
LINE
  5
9D
330
1F
100
AcDbEntity
  8
0
  6
Continuous
 62
     7
370
    30
100
AcDbLine
 10
113.1060097401
 20
136.5940522014
 30
0.0
 11
113.1060097401
 21
133.5940522014
 31
0.0
  0
LINE
  5
9E
330
1F
100
AcDbEntity
  8
0
  6
Continuous
 62
     7
370
    30
100
AcDbLine
 10
113.1060097401
 20
133.5940522014
 30
0.0
 11
118.5607414869
 21
133.5940522014
 31
0.0
  0
LINE
  5
9F
330
1F
100
AcDbEntity
  8
0
  6
Continuous
 62
     7
370
    30
100
AcDbLine
 10
107.5607414869
 20
137.5940523914
 30
0.0
 11
107.5607414869
 21
133.5940522014
 31
0.0
  0
LINE
  5
A0
330
1F
100
AcDbEntity
  8
0
  6
Continuous
 62
     7
370
    30
100
AcDbLine
 10
107.5607414869
 20
133.5940522014
 30
0.0
 11
113.1060097401
 21
133.5940522014
 31
0.0
  0
LINE
  5
A1
330
1F
100
AcDbEntity
  8
0
  6
Continuous
 62
     7
370
    30
100
AcDbLine
 10
110.6832404861
 20
137.5940522014
 30
0.0
 11
107.5607414869
 21
137.5940523914
 31
0.0
  0
LINE
  5
A2
330
1F
100
AcDbEntity
  8
0
  6
Continuous
 62
     7
370
    30
100
AcDbLine
 10
100.1858355058
 20
137.5940523914
 30
0.0
 11
100.1858355058
 21
139.0940521716
 31
0.0
  0
LINE
  5
A3
330
1F
100
AcDbEntity
  8
0
  6
Continuous
 62
     7
370
    30
100
AcDbLine
 10
111.7430015696
 20
139.0940522014
 30
0.0
 11
107.5607414869
 21
139.0940522014
 31
0.0
  0
LINE
  5
A4
330
1F
100
AcDbEntity
  8
0
  6
Continuous
 62
     7
370
    30
100
AcDbLine
 10
107.5607414869
 20
139.0940522014
 30
0.0
 11
107.5607414869
 21
138.5257647245
 31
0.0
  0
LINE
  5
A5
330
1F
100
AcDbEntity
  8
0
  6
Continuous
 62
     7
370
    30
100
AcDbLine
 10
100.7681547245
 20
139.5940522536
 30
0.0
 11
100.1858355058
 21
139.0940521716
 31
0.0
  0
LINE
  5
A6
330
1F
100
AcDbEntity
  8
0
  6
Continuous
 62
     7
370
    30
100
AcDbLine
 10
107.5607414869
 20
139.0940522014
 30
0.0
 11
107.5607414869
 21
139.5940522014
 31
0.0
  0
LINE
  5
A7
330
1F
100
AcDbEntity
  8
0
  6
Continuous
 62
     7
370
    30
100
AcDbLine
 10
104.0409068145
 20
139.5940522014
 30
0.0
 11
104.0409068145
 21
133.5940522014
 31
0.0
  0
LINE
  5
A8
330
1F
100
AcDbEntity
  8
0
  6
Continuous
 62
     7
370
    30
100
AcDbLine
 10
97.404992911
 20
136.5940522275
 30
0.0
 11
97.404992911
 21
133.5940522014
 31
0.0
  0
LWPOLYLINE
  5
A9
330
1F
100
AcDbEntity
  8
0
  6
Continuous
 62
     7
370
    30
100
AcDbPolyline
 90
        3
 70
   128
 43
0.0
 10
98.4976717783
 20
137.5940523914
 10
97.7301679132
 20
136.8935408874
 10
97.404992911
 20
136.5940522275
  0
LINE
  5
AA
330
1F
100
AcDbEntity
  8
0
  6
Continuous
 62
     7
370
    30
100
AcDbLine
 10
104.0409068145
 20
139.5940522014
 30
0.0
 11
100.7681547245
 21
139.5940522536
 31
0.0
  0
LINE
  5
AB
330
1F
100
AcDbEntity
  8
0
  6
Continuous
 62
     7
370
    30
100
AcDbLine
 10
104.0409068145
 20
133.5940522014
 30
0.0
 11
97.404992911
 21
133.5940522014
 31
0.0
  0
LINE
  5
AC
330
1F
100
AcDbEntity
  8
0
  6
Continuous
 62
     7
370
    30
100
AcDbLine
 10
100.1858355058
 20
137.5940523914
 30
0.0
 11
98.4976717783
 21
137.5940523914
 31
0.0
  0
LINE
  5
AD
330
1F
100
AcDbEntity
  8
0
  6
Continuous
 62
     7
370
    30
100
AcDbLine
 10
114.060741621
 20
153.5940517544
 30
0.0
 11
114.060741621
 21
150.3497970163
 31
0.0
  0
LINE
  5
AE
330
1F
100
AcDbEntity
  8
0
  6
Continuous
 62
     7
370
    30
100
AcDbLine
 10
114.060741621
 20
149.1459834262
 30
0.0
 11
114.060741621
 21
145.1997964515
 31
0.0
  0
LINE
  5
AF
330
1F
100
AcDbEntity
  8
0
  6
Continuous
 62
     7
370
    30
100
AcDbLine
 10
114.060741621
 20
143.9959828614
 30
0.0
 11
114.060741621
 21
140.0517674967
 31
0.0
  0
LINE
  5
B0
330
1F
100
AcDbEntity
  8
0
  6
Continuous
 62
     7
370
    30
100
AcDbLine
 10
107.5607414869
 20
153.6325284152
 30
0.0
 11
107.5607414869
 21
151.0056176095
 31
0.0
  0
LINE
  5
B1
330
1F
100
AcDbEntity
  8
0
  6
Continuous
 62
     7
370
    30
100
AcDbLine
 10
107.5607414869
 20
149.7498390137
 30
0.0
 11
107.5607414869
 21
145.8556170448
 31
0.0
  0
LINE
  5
B2
330
1F
100
AcDbEntity
  8
0
  6
Continuous
 62
     7
370
    30
100
AcDbLine
 10
107.5607414869
 20
144.5998403116
 30
0.0
 11
107.5607414869
 21
140.7056160144
 31
0.0
  0
LINE
  5
B3
330
1F
100
AcDbEntity
  8
0
  6
Continuous
 62
     7
370
    30
100
AcDbLine
 10
102.6221955348
 20
185.2940522014
 30
0.0
 11
102.6221955348
 21
183.5940522014
 31
0.0
  0
LINE
  5
B4
330
1F
100
AcDbEntity
  8
0
  6
Continuous
 62
     7
370
    30
100
AcDbLine
 10
107.5607414869
 20
188.5940522014
 30
0.0
 11
113.5607414869
 21
188.5940522014
 31
0.0
  0
LINE
  5
B5
330
1F
100
AcDbEntity
  8
0
  6
Continuous
 62
     7
370
    30
100
AcDbLine
 10
103.301723276
 20
188.5940522014
 30
0.0
 11
102.6221955348
 21
188.0940522014
 31
0.0
  0
LINE
  5
B6
330
1F
100
AcDbEntity
  8
0
  6
Continuous
 62
     7
370
    30
100
AcDbLine
 10
114.0607414869
 20
188.0940522014
 30
0.0
 11
107.5607414869
 21
188.0940522014
 31
0.0
  0
LINE
  5
B7
330
1F
100
AcDbEntity
  8
0
  6
Continuous
 62
     7
370
    30
100
AcDbLine
 10
107.5607414869
 20
188.0940522014
 30
0.0
 11
107.5607414869
 21
188.5940522014
 31
0.0
  0
LINE
  5
B8
330
1F
100
AcDbEntity
  8
0
  6
Continuous
 62
     7
370
    30
100
AcDbLine
 10
102.6221955348
 20
186.5940522014
 30
0.0
 11
102.6221955348
 21
188.0940522014
 31
0.0
  0
LINE
  5
B9
330
1F
100
AcDbEntity
  8
0
  6
Continuous
 62
     7
370
    30
100
AcDbLine
 10
108.9831783037
 20
186.5940522014
 30
0.0
 11
109.1795598826
 21
186.5940522014
 31
0.0
  0
LINE
  5
BA
330
1F
100
AcDbEntity
  8
0
  6
Continuous
 62
     7
370
    30
100
AcDbLine
 10
107.5607414869
 20
188.0940522014
 30
0.0
 11
107.5607414869
 21
186.5940522014
 31
0.0
  0
LINE
  5
BB
330
1F
100
AcDbEntity
  8
0
  6
Continuous
 62
     7
370
    30
100
AcDbLine
 10
103.301723276
 20
134.0940522014
 30
0.0
 11
103.301723276
 21
138.5940522014
 31
0.0
  0
LINE
  5
BC
330
1F
100
AcDbEntity
  8
0
  6
Continuous
 62
     7
370
    30
100
AcDbLine
 10
103.301723276
 20
134.0940522014
 30
0.0
 11
104.0409068145
 21
133.5940522014
 31
0.0
  0
LINE
  5
BD
330
1F
100
AcDbEntity
  8
0
  6
Continuous
 62
     7
370
    30
100
AcDbLine
 10
103.301723276
 20
186.5940522014
 30
0.0
 11
103.301723276
 21
185.2940522014
 31
0.0
  0
LINE
  5
BE
330
1F
100
AcDbEntity
  8
0
  6
Continuous
 62
     7
370
    30
100
AcDbLine
 10
104.0409068145
 20
138.5940522014
 30
0.0
 11
104.0409068145
 21
139.5940522014
 31
0.0
  0
LWPOLYLINE
  5
BF
330
1F
100
AcDbEntity
  8
0
  6
Continuous
 62
     7
370
    30
100
AcDbPolyline
 90
        3
 70
   128
 43
0.0
 10
105.8125600731
 20
188.5940519034
 10
106.1653705593
 20
184.656986302
 10
106.5624848753
 20
181.1940532981
  0
LINE
  5
C0
330
1F
100
AcDbEntity
  8
0
  6
Continuous
 62
     7
370
    30
100
AcDbLine
 10
107.5607414869
 20
188.5940522014
 30
0.0
 11
105.81256004
 21
188.5940522014
 31
0.0
  0
LWPOLYLINE
  5
C1
330
1F
100
AcDbEntity
  8
0
  6
Continuous
 62
     7
370
    30
100
AcDbPolyline
 90
        3
 70
   128
 43
0.0
 10
106.5624848753
 20
140.9940522036
 10
106.1425430281
 20
137.3001602816
 10
105.8125600731
 20
133.5940522014
  0
LINE
  5
C2
330
1F
100
AcDbEntity
  8
0
  6
Continuous
 62
     7
370
    30
100
AcDbLine
 10
105.81256004
 20
133.5940522014
 30
0.0
 11
107.5607414869
 21
133.5940522014
 31
0.0
  0
LINE
  5
C3
330
1F
100
AcDbEntity
  8
0
  6
Continuous
 62
     7
370
    30
100
AcDbLine
 10
101.8807340925
 20
139.5940522536
 30
0.0
 11
101.8807340925
 21
183.5940529465
 31
0.0
  0
LINE
  5
C4
330
1F
100
AcDbEntity
  8
0
  6
Continuous
 62
     7
370
    30
100
AcDbLine
 10
102.6221955348
 20
183.5940522014
 30
0.0
 11
101.8807340925
 21
183.5940529465
 31
0.0
  0
LINE
  5
C5
330
1F
100
AcDbEntity
  8
0
  6
Continuous
 62
     7
370
    30
100
AcDbLine
 10
107.5607414869
 20
140.9940522014
 30
0.0
 11
106.5624848305
 21
140.9940522014
 31
0.0
  0
LINE
  5
C6
330
1F
100
AcDbEntity
  8
0
  6
Continuous
 62
     7
370
    30
100
AcDbLine
 10
106.5624848305
 20
181.1940522014
 30
0.0
 11
107.5607414869
 21
181.1940522014
 31
0.0
  0
LINE
  5
C7
330
1F
100
AcDbEntity
  8
0
  6
Continuous
 62
     7
370
    30
100
AcDbLine
 10
104.0409068145
 20
133.5940522014
 30
0.0
 11
105.81256004
 21
133.5940522014
 31
0.0
  0
LINE
  5
C8
330
1F
100
AcDbEntity
  8
0
  6
Continuous
 62
     7
370
    30
100
AcDbLine
 10
105.81256004
 20
188.5940522014
 30
0.0
 11
103.301723276
 21
188.5940522014
 31
0.0
  0
LINE
  5
C9
330
1F
100
AcDbEntity
  8
0
  6
Continuous
 62
     7
370
    30
100
AcDbLine
 10
103.301723276
 20
138.5940522014
 30
0.0
 11
104.0409068145
 21
138.5940522014
 31
0.0
  0
LINE
  5
CA
330
1F
100
AcDbEntity
  8
0
  6
Continuous
 62
     7
370
    30
100
AcDbLine
 10
103.301723276
 20
185.2940522014
 30
0.0
 11
102.6221955348
 21
185.2940522014
 31
0.0
  0
LINE
  5
CB
330
1F
100
AcDbEntity
  8
0
  6
Continuous
 62
     7
370
    30
100
AcDbLine
 10
103.301723276
 20
186.5940522014
 30
0.0
 11
102.6221955348
 21
186.5940522014
 31
0.0
  0
LINE
  5
CC
330
1F
100
AcDbEntity
  8
0
  6
Continuous
 62
     7
370
    30
100
AcDbLine
 10
104.0409068145
 20
139.5940522014
 30
0.0
 11
101.8807340925
 21
139.5940522536
 31
0.0
  0
LINE
  5
CD
330
1F
100
AcDbEntity
  8
0
  6
Continuous
 62
     7
370
    30
100
AcDbLine
 10
97.404992911
 20
165.5940537213
 30
0.0
 11
97.404992911
 21
161.5940530657
 31
0.0
  0
LINE
  5
CE
330
1F
100
AcDbEntity
  8
0
  6
Continuous
 62
     7
370
    30
100
AcDbLine
 10
107.5607414869
 20
161.5940522014
 30
0.0
 11
118.5607414869
 21
161.5940522014
 31
0.0
  0
LINE
  5
CF
330
1F
100
AcDbEntity
  8
0
  6
Continuous
 62
     7
370
    30
100
AcDbLine
 10
107.5607414869
 20
165.5940522014
 30
0.0
 11
118.5607414869
 21
165.5940522014
 31
0.0
  0
LINE
  5
D0
330
1F
100
AcDbEntity
  8
0
  6
Continuous
 62
     7
370
    30
100
AcDbLine
 10
107.5607414869
 20
161.5940522014
 30
0.0
 11
107.5607414869
 21
165.5940522014
 31
0.0
  0
LINE
  5
D1
330
1F
100
AcDbEntity
  8
0
  6
Continuous
 62
     7
370
    30
100
AcDbLine
 10
97.404992911
 20
161.5940530657
 30
0.0
 11
98.4976717783
 21
160.5940529018
 31
0.0
  0
LINE
  5
D2
330
1F
100
AcDbEntity
  8
0
  6
Continuous
 62
     7
370
    30
100
AcDbLine
 10
117.5607414869
 20
160.5940522014
 30
0.0
 11
107.5607414869
 21
160.5940522014
 31
0.0
  0
LINE
  5
D3
330
1F
100
AcDbEntity
  8
0
  6
Continuous
 62
     7
370
    30
100
AcDbLine
 10
107.5607414869
 20
160.5940522014
 30
0.0
 11
107.5607414869
 21
161.5940522014
 31
0.0
  0
LINE
  5
D4
330
1F
100
AcDbEntity
  8
0
  6
Continuous
 62
     7
370
    30
100
AcDbLine
 10
117.5607414869
 20
184.5940522014
 30
0.0
 11
107.5607414869
 21
184.5940522014
 31
0.0
  0
LINE
  5
D5
330
1F
100
AcDbEntity
  8
0
  6
Continuous
 62
     7
370
    30
100
AcDbLine
 10
98.4976717783
 20
184.5940512477
 30
0.0
 11
98.4976717783
 21
167.5940540492
 31
0.0
  0
LINE
  5
D6
330
1F
100
AcDbEntity
  8
0
  6
Continuous
 62
     7
370
    30
100
AcDbLine
 10
107.5607414869
 20
167.5940522014
 30
0.0
 11
117.5607414869
 21
167.5940522014
 31
0.0
  0
LINE
  5
D7
330
1F
100
AcDbEntity
  8
0
  6
Continuous
 62
     7
370
    30
100
AcDbLine
 10
107.5607414869
 20
167.5940522014
 30
0.0
 11
107.5607414869
 21
184.5940522014
 31
0.0
  0
LINE
  5
D8
330
1F
100
AcDbEntity
  8
0
  6
Continuous
 62
     7
370
    30
100
AcDbLine
 10
108.9831783037
 20
185.5940522014
 30
0.0
 11
109.6620394134
 21
185.5940522014
 31
0.0
  0
LINE
  5
D9
330
1F
100
AcDbEntity
  8
0
  6
Continuous
 62
     7
370
    30
100
AcDbLine
 10
111.8314515781
 20
185.5940522014
 30
0.0
 11
116.5607414869
 21
185.5940522014
 31
0.0
  0
LINE
  5
DA
330
1F
100
AcDbEntity
  8
0
  6
Continuous
 62
     7
370
    30
100
AcDbLine
 10
99.6147214947
 20
185.5940532743
 30
0.0
 11
98.4976717783
 21
184.5940512477
 31
0.0
  0
LINE
  5
DB
330
1F
100
AcDbEntity
  8
0
  6
Continuous
 62
     7
370
    30
100
AcDbLine
 10
107.5607414869
 20
184.5940522014
 30
0.0
 11
107.5607414869
 21
185.5940522014
 31
0.0
  0
LINE
  5
DC
330
1F
100
AcDbEntity
  8
0
  6
Continuous
 62
     7
370
    30
100
AcDbLine
 10
99.6147214947
 20
167.5940540492
 30
0.0
 11
99.6147214947
 21
165.5940537213
 31
0.0
  0
LINE
  5
DD
330
1F
100
AcDbEntity
  8
0
  6
Continuous
 62
     7
370
    30
100
AcDbLine
 10
107.5607414869
 20
165.5940522014
 30
0.0
 11
107.5607414869
 21
167.5940522014
 31
0.0
  0
LINE
  5
DE
330
1F
100
AcDbEntity
  8
0
  6
Continuous
 62
     7
370
    30
100
AcDbLine
 10
107.5607414869
 20
154.0940522014
 30
0.0
 11
115.4275549183
 21
154.0940522014
 31
0.0
  0
LINE
  5
DF
330
1F
100
AcDbEntity
  8
0
  6
Continuous
 62
     7
370
    30
100
AcDbLine
 10
100.1858355058
 20
154.0940527677
 30
0.0
 11
100.7681547245
 21
153.5940517544
 31
0.0
  0
LINE
  5
E0
330
1F
100
AcDbEntity
  8
0
  6
Continuous
 62
     7
370
    30
100
AcDbLine
 10
115.5607414869
 20
153.5940522014
 30
0.0
 11
114.5607414869
 21
153.5940522014
 31
0.0
  0
LINE
  5
E1
330
1F
100
AcDbEntity
  8
0
  6
Continuous
 62
     7
370
    30
100
AcDbLine
 10
114.5607414869
 20
153.5940522014
 30
0.0
 11
114.5222655078
 21
153.6325284152
 31
0.0
  0
LINE
  5
E2
330
1F
100
AcDbEntity
  8
0
  6
Continuous
 62
     7
370
    30
100
AcDbLine
 10
114.5222655078
 20
153.6325284152
 30
0.0
 11
114.4148434532
 21
153.5940522014
 31
0.0
  0
LINE
  5
E3
330
1F
100
AcDbEntity
  8
0
  6
Continuous
 62
     7
370
    30
100
AcDbLine
 10
114.4148434532
 20
153.5940522014
 30
0.0
 11
107.7066395207
 21
153.5940522014
 31
0.0
  0
LINE
  5
E4
330
1F
100
AcDbEntity
  8
0
  6
Continuous
 62
     7
370
    30
100
AcDbLine
 10
107.7066395207
 20
153.5940522014
 30
0.0
 11
107.5607414869
 21
153.6325284152
 31
0.0
  0
LINE
  5
E5
330
1F
100
AcDbEntity
  8
0
  6
Continuous
 62
     7
370
    30
100
AcDbLine
 10
107.5607414869
 20
153.6325284152
 30
0.0
 11
107.5607414869
 21
154.0940522014
 31
0.0
  0
LINE
  5
E6
330
1F
100
AcDbEntity
  8
0
  6
Continuous
 62
     7
370
    30
100
AcDbLine
 10
100.1858355058
 20
160.5940529018
 30
0.0
 11
100.1858355058
 21
154.0940527677
 31
0.0
  0
LINE
  5
E7
330
1F
100
AcDbEntity
  8
0
  6
Continuous
 62
     7
370
    30
100
AcDbLine
 10
107.5607414869
 20
154.0940522014
 30
0.0
 11
107.5607414869
 21
154.8998405098
 31
0.0
  0
LINE
  5
E8
330
1F
100
AcDbEntity
  8
0
  6
Continuous
 62
     7
370
    30
100
AcDbLine
 10
107.5607414869
 20
156.155617243
 30
0.0
 11
107.5607414869
 21
159.0623401909
 31
0.0
  0
LINE
  5
E9
330
1F
100
AcDbEntity
  8
0
  6
Continuous
 62
     7
370
    30
100
AcDbLine
 10
107.5607414869
 20
160.3181150614
 30
0.0
 11
107.5607414869
 21
160.5940522014
 31
0.0
  0
LINE
  5
EA
330
1F
100
AcDbEntity
  8
0
  6
Continuous
 62
     7
370
    30
100
AcDbLine
 10
101.8807340925
 20
185.094052261
 30
0.0
 11
101.8807340925
 21
154.0940527677
 31
0.0
  0
LINE
  5
EB
330
1F
100
AcDbEntity
  8
0
  6
Continuous
 62
     7
370
    30
100
AcDbLine
 10
102.6221953844
 20
185.094052261
 30
0.0
 11
101.8807340925
 21
185.094052261
 31
0.0
  0
LINE
  5
EC
330
1F
100
AcDbEntity
  8
0
  6
Continuous
 62
     7
370
    30
100
AcDbLine
 10
101.8807340925
 20
185.094052261
 30
0.0
 11
100.8807339286
 21
185.5940532743
 31
0.0
  0
LINE
  5
ED
330
1F
100
AcDbEntity
  8
0
  6
Continuous
 62
     7
370
    30
100
AcDbLine
 10
100.8807339286
 20
153.5940517544
 30
0.0
 11
101.8807340925
 21
154.0940527677
 31
0.0
  0
LINE
  5
EE
330
1F
100
AcDbEntity
  8
0
  6
Continuous
 62
     7
370
    30
100
AcDbLine
 10
101.8807340925
 20
153.5940517544
 30
0.0
 11
100.8807339286
 21
153.5940517544
 31
0.0
  0
LINE
  5
EF
330
1F
100
AcDbEntity
  8
0
  6
Continuous
 62
     7
370
    30
100
AcDbLine
 10
100.7681547245
 20
153.5940517544
 30
0.0
 11
100.8807339286
 21
153.5940517544
 31
0.0
  0
LINE
  5
F0
330
1F
100
AcDbEntity
  8
0
  6
Continuous
 62
     7
370
    30
100
AcDbLine
 10
100.8807339286
 20
185.5940532743
 30
0.0
 11
99.6147214947
 21
185.5940532743
 31
0.0
  0
LINE
  5
F1
330
1F
100
AcDbEntity
  8
0
  6
Continuous
 62
     7
370
    30
100
AcDbLine
 10
98.4976717783
 20
167.5940540492
 30
0.0
 11
99.6147214947
 21
167.5940540492
 31
0.0
  0
LINE
  5
F2
330
1F
100
AcDbEntity
  8
0
  6
Continuous
 62
     7
370
    30
100
AcDbLine
 10
98.4976717783
 20
160.5940529018
 30
0.0
 11
100.1858355058
 21
160.5940529018
 31
0.0
  0
LINE
  5
F3
330
1F
100
AcDbEntity
  8
0
  6
Continuous
 62
     7
370
    30
100
AcDbLine
 10
99.6147214947
 20
165.5940537213
 30
0.0
 11
97.404992911
 21
165.5940537213
 31
0.0
  0
LINE
  5
F4
330
1F
100
AcDbEntity
  8
0
  6
HIDDEN
 62
     7
370
     0
100
AcDbLine
 10
110.8107414869
 20
183.5940522014
 30
0.0
 11
114.0607414869
 21
183.5940522014
 31
0.0
  0
LINE
  5
F5
330
1F
100
AcDbEntity
  8
0
  6
HIDDEN
 62
     7
370
     0
100
AcDbLine
 10
114.0607414869
 20
183.5940522014
 30
0.0
 11
114.060741621
 21
153.5940517544
 31
0.0
  0
LINE
  5
F6
330
1F
100
AcDbEntity
  8
0
  6
HIDDEN
 62
     7
370
     0
100
AcDbLine
 10
114.060741621
 20
150.3497970163
 30
0.0
 11
114.060741621
 21
149.1459834262
 31
0.0
  0
LINE
  5
F7
330
1F
100
AcDbEntity
  8
0
  6
HIDDEN
 62
     7
370
     0
100
AcDbLine
 10
114.060741621
 20
145.1997964515
 30
0.0
 11
114.060741621
 21
143.9959828614
 31
0.0
  0
LINE
  5
F8
330
1F
100
AcDbEntity
  8
0
  6
HIDDEN
 62
     7
370
     0
100
AcDbLine
 10
114.060741621
 20
140.0517674967
 30
0.0
 11
114.060741621
 21
139.5940522536
 31
0.0
  0
LINE
  5
F9
330
1F
100
AcDbEntity
  8
0
  6
HIDDEN
 62
     7
370
     0
100
AcDbLine
 10
107.5607414869
 20
139.5940522014
 30
0.0
 11
114.060741621
 21
139.5940522536
 31
0.0
  0
LINE
  5
FA
330
1F
100
AcDbEntity
  8
0
  6
HIDDEN
 62
     7
370
     0
100
AcDbLine
 10
107.5607414869
 20
183.5940522014
 30
0.0
 11
107.5607414869
 21
153.6325284152
 31
0.0
  0
LINE
  5
FB
330
1F
100
AcDbEntity
  8
0
  6
HIDDEN
 62
     7
370
     0
100
AcDbLine
 10
107.5607414869
 20
151.0056176095
 30
0.0
 11
107.5607414869
 21
149.7498390137
 31
0.0
  0
LINE
  5
FC
330
1F
100
AcDbEntity
  8
0
  6
HIDDEN
 62
     7
370
     0
100
AcDbLine
 10
107.5607414869
 20
145.8556170448
 30
0.0
 11
107.5607414869
 21
144.5998403116
 31
0.0
  0
LINE
  5
FD
330
1F
100
AcDbEntity
  8
0
  6
HIDDEN
 62
     7
370
     0
100
AcDbLine
 10
107.5607414869
 20
140.7056160144
 30
0.0
 11
107.5607414869
 21
139.5940522014
 31
0.0
  0
LINE
  5
FE
330
1F
100
AcDbEntity
  8
0
  6
HIDDEN
 62
     7
370
     0
100
AcDbLine
 10
107.5607414869
 20
183.5940522014
 30
0.0
 11
110.8107414869
 21
183.5940522014
 31
0.0
  0
LINE
  5
FF
330
1F
100
AcDbEntity
  8
0
  6
HIDDEN
 62
     7
370
     0
100
AcDbLine
 10
102.6221955348
 20
185.2940522014
 30
0.0
 11
114.060741621
 21
185.2940519213
 31
0.0
  0
LINE
  5
100
330
1F
100
AcDbEntity
  8
0
  6
HIDDEN
 62
     7
370
     0
100
AcDbLine
 10
104.3107414869
 20
183.5940522014
 30
0.0
 11
102.6221955348
 21
183.5940522014
 31
0.0
  0
LINE
  5
101
330
1F
100
AcDbEntity
  8
0
  6
HIDDEN
 62
     7
370
     0
100
AcDbLine
 10
110.8107414869
 20
183.5940522014
 30
0.0
 11
104.3107414869
 21
183.5940522014
 31
0.0
  0
LINE
  5
102
330
1F
100
AcDbEntity
  8
0
  6
HIDDEN
 62
     7
370
     0
100
AcDbLine
 10
114.0607414869
 20
183.5940522014
 30
0.0
 11
110.8107414869
 21
183.5940522014
 31
0.0
  0
LINE
  5
103
330
1F
100
AcDbEntity
  8
0
  6
HIDDEN
 62
     7
370
     0
100
AcDbLine
 10
110.8107414869
 20
183.5940522014
 30
0.0
 11
114.0607414869
 21
183.5940522014
 31
0.0
  0
LINE
  5
104
330
1F
100
AcDbEntity
  8
0
  6
HIDDEN
 62
     7
370
     0
100
AcDbLine
 10
107.5607414869
 20
183.5940522014
 30
0.0
 11
107.5607414869
 21
185.2940522014
 31
0.0
  0
LINE
  5
105
330
1F
100
AcDbEntity
  8
0
  6
HIDDEN
 62
     7
370
     0
100
AcDbLine
 10
107.5607414869
 20
183.5940522014
 30
0.0
 11
110.8107414869
 21
183.5940522014
 31
0.0
  0
LINE
  5
106
330
1F
100
AcDbEntity
  8
0
  6
HIDDEN
 62
     7
370
     0
100
AcDbLine
 10
113.5607414869
 20
188.5940522014
 30
0.0
 11
103.301723276
 21
188.5940522014
 31
0.0
  0
LINE
  5
107
330
1F
100
AcDbEntity
  8
0
  6
HIDDEN
 62
     7
370
     0
100
AcDbLine
 10
102.6221955348
 20
188.0940522014
 30
0.0
 11
114.0607414869
 21
188.0940522014
 31
0.0
  0
LINE
  5
108
330
1F
100
AcDbEntity
  8
0
  6
HIDDEN
 62
     7
370
     0
100
AcDbLine
 10
107.5607414869
 20
186.5940522014
 30
0.0
 11
108.9831783037
 21
186.5940522014
 31
0.0
  0
LINE
  5
109
330
1F
100
AcDbEntity
  8
0
  6
HIDDEN
 62
     7
370
     0
100
AcDbLine
 10
102.6221955348
 20
186.5940522014
 30
0.0
 11
114.0576128428
 21
186.5940515756
 31
0.0
  0
LINE
  5
10A
330
1F
100
AcDbEntity
  8
0
  6
HIDDEN
 62
     7
370
     0
100
AcDbLine
 10
103.301723276
 20
134.0940522014
 30
0.0
 11
113.5607415391
 21
134.0940522252
 31
0.0
  0
LINE
  5
10B
330
1F
100
AcDbEntity
  8
0
  6
HIDDEN
 62
     7
370
     0
100
AcDbLine
 10
103.301723276
 20
138.5940522014
 30
0.0
 11
113.5607415391
 21
138.5940520897
 31
0.0
  0
LINE
  5
10C
330
1F
100
AcDbEntity
  8
0
  6
HIDDEN
 62
     7
370
     0
100
AcDbLine
 10
107.5607414869
 20
138.5940522014
 30
0.0
 11
107.5607414869
 21
134.0940522014
 31
0.0
  0
LINE
  5
10D
330
1F
100
AcDbEntity
  8
0
  6
HIDDEN
 62
     7
370
     0
100
AcDbLine
 10
104.0409068145
 20
133.5940522014
 30
0.0
 11
113.0571032455
 21
133.5940522014
 31
0.0
  0
LINE
  5
10E
330
1F
100
AcDbEntity
  8
0
  6
HIDDEN
 62
     7
370
     0
100
AcDbLine
 10
107.5607414869
 20
133.5940522014
 30
0.0
 11
107.5607414869
 21
134.0940522014
 31
0.0
  0
LINE
  5
10F
330
1F
100
AcDbEntity
  8
0
  6
HIDDEN
 62
     7
370
     0
100
AcDbLine
 10
103.301723276
 20
185.2940522014
 30
0.0
 11
113.5596421128
 21
185.2940519213
 31
0.0
  0
LINE
  5
110
330
1F
100
AcDbEntity
  8
0
  6
HIDDEN
 62
     7
370
     0
100
AcDbLine
 10
103.301723276
 20
186.5940522014
 30
0.0
 11
113.5596421128
 21
186.5940515756
 31
0.0
  0
LINE
  5
111
330
1F
100
AcDbEntity
  8
0
  6
HIDDEN
 62
     7
370
     0
100
AcDbLine
 10
107.5607414869
 20
185.2940522014
 30
0.0
 11
107.5607414869
 21
186.5940522014
 31
0.0
  0
LINE
  5
112
330
1F
100
AcDbEntity
  8
0
  6
HIDDEN
 62
     7
370
     0
100
AcDbLine
 10
104.0409068145
 20
138.5940522014
 30
0.0
 11
113.0571032455
 21
138.5940520897
 31
0.0
  0
LINE
  5
113
330
1F
100
AcDbEntity
  8
0
  6
HIDDEN
 62
     7
370
     0
100
AcDbLine
 10
104.0409068145
 20
139.5940522014
 30
0.0
 11
113.0571032455
 21
139.5940522536
 31
0.0
  0
LINE
  5
114
330
1F
100
AcDbEntity
  8
0
  6
HIDDEN
 62
     7
370
     0
100
AcDbLine
 10
107.5607414869
 20
139.5940522014
 30
0.0
 11
107.5607414869
 21
138.5940522014
 31
0.0
  0
LINE
  5
115
330
1F
100
AcDbEntity
  8
0
  6
HIDDEN
 62
     7
370
     0
100
AcDbLine
 10
106.5624848305
 20
181.1940522014
 30
0.0
 11
111.9032383477
 21
181.1940532981
 31
0.0
  0
LINE
  5
116
330
1F
100
AcDbEntity
  8
0
  6
HIDDEN
 62
     7
370
     0
100
AcDbLine
 10
107.5607414869
 20
188.5940522014
 30
0.0
 11
112.1338352142
 21
188.5940519034
 31
0.0
  0
LINE
  5
117
330
1F
100
AcDbEntity
  8
0
  6
HIDDEN
 62
     7
370
     0
100
AcDbLine
 10
107.5607414869
 20
181.1940522014
 30
0.0
 11
107.5607414869
 21
188.5940522014
 31
0.0
  0
LINE
  5
118
330
1F
100
AcDbEntity
  8
0
  6
HIDDEN
 62
     7
370
     0
100
AcDbLine
 10
106.5624848305
 20
140.9940522014
 30
0.0
 11
111.9032383477
 21
140.9940522036
 31
0.0
  0
LINE
  5
119
330
1F
100
AcDbEntity
  8
0
  6
HIDDEN
 62
     7
370
     0
100
AcDbLine
 10
107.5607414869
 20
133.5940522014
 30
0.0
 11
112.1338352142
 21
133.5940522014
 31
0.0
  0
LINE
  5
11A
330
1F
100
AcDbEntity
  8
0
  6
HIDDEN
 62
     7
370
     0
100
AcDbLine
 10
107.5607414869
 20
133.5940522014
 30
0.0
 11
107.5607414869
 21
140.9940522014
 31
0.0
  0
LINE
  5
11B
330
1F
100
AcDbEntity
  8
0
  6
HIDDEN
 62
     7
370
     0
100
AcDbLine
 10
107.5607414869
 20
181.1940522014
 30
0.0
 11
107.5607414869
 21
140.9940522014
 31
0.0
  0
LINE
  5
11C
330
1F
100
AcDbEntity
  8
0
  6
HIDDEN
 62
     7
370
     0
100
AcDbLine
 10
107.5607414869
 20
140.9940522014
 30
0.0
 11
111.4607413811
 21
140.9940522036
 31
0.0
  0
LINE
  5
11D
330
1F
100
AcDbEntity
  8
0
  6
HIDDEN
 62
     7
370
     0
100
AcDbLine
 10
107.5607414869
 20
181.1940522014
 30
0.0
 11
111.4607413811
 21
181.1940532981
 31
0.0
  0
LINE
  5
11E
330
1F
100
AcDbEntity
  8
0
  6
HIDDEN
 62
     7
370
     0
100
AcDbLine
 10
107.5607414869
 20
140.9940522014
 30
0.0
 11
107.5607414869
 21
181.1940522014
 31
0.0
  0
LINE
  5
11F
330
1F
100
AcDbEntity
  8
0
  6
HIDDEN
 62
     7
370
     0
100
AcDbLine
 10
114.0607414869
 20
183.5940522014
 30
0.0
 11
110.8107414869
 21
183.5940522014
 31
0.0
  0
LINE
  5
120
330
1F
100
AcDbEntity
  8
0
  6
HIDDEN
 62
     7
370
     0
100
AcDbLine
 10
114.0607414869
 20
183.5940522014
 30
0.0
 11
114.060741621
 21
139.5940522536
 31
0.0
  0
LINE
  5
121
330
1F
100
AcDbEntity
  8
0
  6
HIDDEN
 62
     7
370
     0
100
AcDbLine
 10
114.060741621
 20
139.5940522536
 30
0.0
 11
107.5607414869
 21
139.5940522014
 31
0.0
  0
LINE
  5
122
330
1F
100
AcDbEntity
  8
0
  6
HIDDEN
 62
     7
370
     0
100
AcDbLine
 10
104.3107414869
 20
183.5940522014
 30
0.0
 11
101.8807340925
 21
183.5940529465
 31
0.0
  0
LINE
  5
123
330
1F
100
AcDbEntity
  8
0
  6
HIDDEN
 62
     7
370
     0
100
AcDbLine
 10
107.5607414869
 20
183.5940522014
 30
0.0
 11
107.5607414869
 21
139.5940522014
 31
0.0
  0
LINE
  5
124
330
1F
100
AcDbEntity
  8
0
  6
HIDDEN
 62
     7
370
     0
100
AcDbLine
 10
107.5607414869
 20
139.5940522014
 30
0.0
 11
101.8807340925
 21
139.5940522536
 31
0.0
  0
LINE
  5
125
330
1F
100
AcDbEntity
  8
0
  6
HIDDEN
 62
     7
370
     0
100
AcDbLine
 10
107.5607414869
 20
140.9940522014
 30
0.0
 11
107.5607414869
 21
181.1940522014
 31
0.0
  0
LINE
  5
126
330
1F
100
AcDbEntity
  8
0
  6
HIDDEN
 62
     7
370
     0
100
AcDbLine
 10
107.5607414869
 20
183.5940522014
 30
0.0
 11
104.3107414869
 21
183.5940522014
 31
0.0
  0
LINE
  5
127
330
1F
100
AcDbEntity
  8
0
  6
HIDDEN
 62
     7
370
     0
100
AcDbLine
 10
110.8107414869
 20
183.5940522014
 30
0.0
 11
107.5607414869
 21
183.5940522014
 31
0.0
  0
LINE
  5
128
330
1F
100
AcDbEntity
  8
0
  6
HIDDEN
 62
     7
370
     0
100
AcDbLine
 10
114.060741621
 20
185.094052261
 30
0.0
 11
114.060741621
 21
185.2940519213
 31
0.0
  0
LINE
  5
129
330
1F
100
AcDbEntity
  8
0
  6
HIDDEN
 62
     7
370
     0
100
AcDbLine
 10
113.5607415391
 20
134.0940522252
 30
0.0
 11
113.5607415391
 21
138.5940520897
 31
0.0
  0
LINE
  5
12A
330
1F
100
AcDbEntity
  8
0
  6
HIDDEN
 62
     7
370
     0
100
AcDbLine
 10
113.0607414571
 20
133.5940522014
 30
0.0
 11
113.5607415391
 21
134.0940522252
 31
0.0
  0
LINE
  5
12B
330
1F
100
AcDbEntity
  8
0
  6
HIDDEN
 62
     7
370
     0
100
AcDbLine
 10
113.5607415391
 20
185.2940519213
 30
0.0
 11
113.5607415391
 21
186.5940515756
 31
0.0
  0
LINE
  5
12C
330
1F
100
AcDbEntity
  8
0
  6
HIDDEN
 62
     7
370
     0
100
AcDbLine
 10
113.0607414571
 20
138.5940520897
 30
0.0
 11
113.0607414571
 21
139.5940522536
 31
0.0
  0
LINE
  5
12D
330
1F
100
AcDbEntity
  8
0
  6
HIDDEN
 62
     7
370
     0
100
AcDbLine
 10
111.9032383477
 20
181.1940532981
 30
0.0
 11
112.1342412708
 21
188.5940519034
 31
0.0
  0
LINE
  5
12E
330
1F
100
AcDbEntity
  8
0
  6
HIDDEN
 62
     7
370
     0
100
AcDbLine
 10
112.1342412708
 20
133.5940522014
 30
0.0
 11
111.9032383477
 21
140.9940522036
 31
0.0
  0
LINE
  5
12F
330
1F
100
AcDbEntity
  8
0
  6
HIDDEN
 62
     7
370
     0
100
AcDbLine
 10
111.4607413811
 20
140.9940522036
 30
0.0
 11
111.4607413811
 21
181.1940532981
 31
0.0
  0
LINE
  5
130
330
1F
100
AcDbEntity
  8
0
  6
HIDDEN
 62
     7
370
     0
100
AcDbLine
 10
114.0607414869
 20
183.5940522014
 30
0.0
 11
114.060741621
 21
185.094052261
 31
0.0
  0
DIMENSION
  5
131
330
1F
100
AcDbEntity
  8
0
  6
Continuous
 62
     7
370
     0
100
AcDbDimension
  2
*D1
 10
145.9903190356
 20
202.5940522014
 30
0.0
 11
145.9903190356
 21
195.5940522014
 31
0.0
 70
   160
 71
     1
 42
14.0
  3
SLDDIMSTYLE0
100
AcDbAlignedDimension
 13
113.5607414869
 23
188.5940522014
 33
0.0
 14
113.5607414869
 24
202.5940522014
 34
0.0
 50
90.0
100
AcDbRotatedDimension
1001
ACAD
1000
DSTYLE
1002
{
1070
    77
1070
     3
1070
   143
1040
0.0393700787
1070
    41
1040
3.0
1070
    44
1040
1.0
1070
    42
1040
1.0
1070
   147
1040
1.524
1070
    73
1070
     0
1070
    74
1070
     0
1070
   140
1040
3.5
1070
   284
1070
    12
1070
    78
1070
    12
1002
}
  0
DIMENSION
  5
147
330
1F
100
AcDbEntity
  8
0
  6
Continuous
 62
     7
370
     0
100
AcDbDimension
  2
*D2
 10
78.6835986193
 20
153.5940522014
 30
0.0
 11
78.6835986193
 21
146.5940522014
 31
0.0
 70
   160
  1
<>st
 71
     1
 42
14.0
  3
SLDDIMSTYLE0
100
AcDbAlignedDimension
 13
99.5607414869
 23
139.5940522014
 33
0.0
 14
100.7066395207
 24
153.5940522014
 34
0.0
 50
90.0
100
AcDbRotatedDimension
1001
ACAD
1000
DSTYLE
1002
{
1070
    77
1070
     3
1070
   143
1040
0.0393700787
1070
    41
1040
3.0
1070
    44
1040
1.0
1070
    42
1040
1.0
1070
   147
1040
1.524
1070
    73
1070
     0
1070
    74
1070
     0
1070
   140
1040
3.5
1070
   284
1070
    12
1070
    78
1070
    12
1002
}
  0
DIMENSION
  5
15C
330
1F
100
AcDbEntity
  8
0
  6
Continuous
 62
     7
370
     0
100
AcDbDimension
  2
*D3
 10
145.9903190356
 20
133.5940522014
 30
0.0
 11
145.9903190356
 21
161.0940522014
 31
0.0
 70
   160
 71
     1
 42
55.0
  3
SLDDIMSTYLE0
100
AcDbAlignedDimension
 13
112.1342414869
 23
188.5940522014
 33
0.0
 14
118.5607414869
 24
133.5940522014
 34
0.0
 50
90.0
100
AcDbRotatedDimension
1001
ACAD
1000
DSTYLE
1002
{
1070
    77
1070
     3
1070
   143
1040
0.0393700787
1070
    41
1040
3.0
1070
    44
1040
1.0
1070
    42
1040
1.0
1070
   147
1040
1.524
1070
    73
1070
     0
1070
    74
1070
     0
1070
   140
1040
3.5
1070
   284
1070
    12
1070
    78
1070
    12
1002
}
  0
DIMENSION
  5
170
330
1F
100
AcDbEntity
  8
0
  6
Continuous
 62
     7
370
     0
100
AcDbDimension
  2
*D4
 10
137.0010239104
 20
165.5940522014
 30
0.0
 11
137.0010239104
 21
177.0940522014
 31
0.0
 70
   160
 71
     1
 42
23.0
  3
SLDDIMSTYLE0
100
AcDbAlignedDimension
 13
112.1342414869
 23
188.5940522014
 33
0.0
 14
118.5607414869
 24
165.5940522014
 34
0.0
 50
90.0
100
AcDbRotatedDimension
1001
ACAD
1000
DSTYLE
1002
{
1070
    77
1070
     3
1070
   143
1040
0.0393700787
1070
    41
1040
3.0
1070
    44
1040
1.0
1070
    42
1040
1.0
1070
   147
1040
1.524
1070
    73
1070
     0
1070
    74
1070
     0
1070
   140
1040
3.5
1070
   284
1070
    12
1070
    78
1070
    12
1002
}
  0
DIMENSION
  5
184
330
1F
100
AcDbEntity
  8
0
  6
Continuous
 62
     7
370
     0
100
AcDbDimension
  2
*D5
 10
78.6835986193
 20
165.5940522014
 30
0.0
 11
78.6835986193
 21
175.5940522014
 31
0.0
 70
   160
 71
     1
 42
20.0
  3
SLDDIMSTYLE0
100
AcDbAlignedDimension
 13
99.6147213434
 23
185.5940522014
 33
0.0
 14
97.4049925672
 24
165.5940522014
 34
0.0
 50
90.0
100
AcDbRotatedDimension
1001
ACAD
1000
DSTYLE
1002
{
1070
    77
1070
     3
1070
   143
1040
0.0393700787
1070
    41
1040
3.0
1070
    44
1040
1.0
1070
    42
1040
1.0
1070
   147
1040
1.524
1070
    73
1070
     0
1070
    74
1070
     0
1070
   140
1040
3.5
1070
   284
1070
    12
1070
    78
1070
    12
1002
}
  0
DIMENSION
  5
198
330
1F
100
AcDbEntity
  8
0
  6
Continuous
 62
     7
370
     0
100
AcDbDimension
  2
*D6
 10
78.6835986193
 20
133.5940522014
 30
0.0
 11
78.6835986193
 21
136.5940522014
 31
0.0
 70
   160
 71
     1
 42
6.0
  3
SLDDIMSTYLE0
100
AcDbAlignedDimension
 13
100.7681546364
 23
139.5940522014
 33
0.0
 14
97.4049925672
 24
133.5940522014
 34
0.0
 50
90.0
100
AcDbRotatedDimension
1001
ACAD
1000
DSTYLE
1002
{
1070
    77
1070
     3
1070
   143
1040
0.0393700787
1070
    41
1040
3.0
1070
    44
1040
1.0
1070
    42
1040
1.0
1070
   147
1040
1.524
1070
    73
1070
     0
1070
    74
1070
     0
1070
   140
1040
3.5
1070
   284
1070
    12
1070
    78
1070
    12
1002
}
  0
DIMENSION
  5
1AF
330
1F
100
AcDbEntity
  8
0
  6
Continuous
 62
     7
370
     0
100
AcDbDimension
  2
*D7
 10
78.6835986193
 20
153.5940522014
 30
0.0
 11
78.6835986193
 21
159.5940522014
 31
0.0
 70
   160
 71
     1
 42
12.0
  3
SLDDIMSTYLE0
100
AcDbAlignedDimension
 13
97.4049925672
 23
165.5940522014
 33
0.0
 14
107.7066395207
 24
153.5940522014
 34
0.0
 50
90.0
100
AcDbRotatedDimension
1001
ACAD
1000
DSTYLE
1002
{
1070
    77
1070
     3
1070
   143
1040
0.0393700787
1070
    41
1040
3.0
1070
    44
1040
1.0
1070
    42
1040
1.0
1070
   147
1040
1.524
1070
    73
1070
     0
1070
    74
1070
     0
1070
   140
1040
3.5
1070
   284
1070
    12
1070
    78
1070
    12
1002
}
  0
DIMENSION
  5
1C3
330
1F
100
AcDbEntity
  8
0
  6
Continuous
 62
     7
370
     0
100
AcDbDimension
  2
*D8
 10
117.5607414869
 20
213.7034135223
 30
0.0
 11
108.0292065339
 21
213.7034135223
 31
0.0
 70
   160
  1
%%c20
 71
     1
 42
19.063069906
  3
SLDDIMSTYLE0
100
AcDbAlignedDimension
 13
98.4976715809
 23
184.5940522014
 33
0.0
 14
117.5607414869
 24
184.5940522014
 34
0.0
100
AcDbRotatedDimension
1001
ACAD
1000
DSTYLE
1002
{
1070
    77
1070
     3
1070
   143
1040
0.0393700787
1070
    41
1040
3.0
1070
    44
1040
1.0
1070
    42
1040
1.0
1070
   147
1040
1.524
1070
    73
1070
     0
1070
    74
1070
     0
1070
   140
1040
3.5
1070
   284
1070
    12
1070
    78
1070
    12
1002
}
  0
MTEXT
  5
1DB
330
1F
100
AcDbEntity
  8
0
  6
Continuous
 62
     7
370
     0
100
AcDbMText
 10
81.257019157
 20
199.6396242515
 30
0.0
 40
3.5
 41
0.0
 71
     1
 72
     1
  1
PT1/8
  7
SLDTEXTSTYLE0
 73
     1
 44
1.0
  0
LEADER
  5
1DD
330
1F
100
AcDbEntity
  8
0
  6
Continuous
 62
     7
370
     0
100
AcDbLeader
  3
SLDDIMSTYLE1
 76
     3
 10
105.9455516481
 20
184.5940522014
 30
0.0
 10
91.9394725568
 20
195.5648540967
 30
0.0
 10
81.2567410661
 20
195.5648540967
 30
0.0
  0
HATCH
  5
1DE
330
1F
100
AcDbEntity
  8
0
  6
Continuous
 62
     7
370
     0
100
AcDbHatch
 10
0.0
 20
0.0
 30
0.0
210
0.0
220
0.0
230
1.0
  2
ANSI32
 70
     0
 71
     0
 91
        1
 92
        0
 93
       20
 72
     4
 94
        3
 73
     1
 74
     0
 95
        8
 96
        4
 40
0.0
 40
0.0
 40
0.0
 40
0.0
 40
0.0074379020692246
 40
0.0074379020692246
 40
0.0074379020692246
 40
0.0074379020692246
 10
106.5624848304792
 20
181.1940522014129
 42
1.0
 10
106.2288705498691
 20
183.6508048185735
 42
1.0
 10
106.0143659151249
 20
186.1229782852951
 42
1.0
 10
105.8125600399996
 20
188.5940522014129
 42
1.0
 72
     1
 10
105.8125600399996
 20
188.5940522014129
 11
103.3017232759556
 21
188.5940522014129
 72
     4
 94
        3
 73
     1
 74
     0
 95
        8
 96
        4
 40
0.0
 40
0.0
 40
0.0
 40
0.0
 40
0.000843657484419
 40
0.000843657484419
 40
0.000843657484419
 40
0.000843657484419
 10
103.3017232759556
 20
188.5940522014129
 42
1.0
 10
103.0724042452397
 20
188.4312732134227
 42
1.0
 10
102.8461157281635
 20
188.2641814575046
 42
1.0
 10
102.6221955347881
 20
188.0940522014129
 42
1.0
 72
     1
 10
102.6221955347881
 20
188.0940522014129
 11
102.6221955347881
 21
186.5940522014129
 72
     1
 10
102.6221955347881
 20
186.5940522014129
 11
103.3017232759556
 21
186.5940522014129
 72
     1
 10
103.3017232759556
 20
186.5940522014129
 11
103.3017232759556
 21
185.2940522014129
 72
     1
 10
103.3017232759556
 20
185.2940522014129
 11
102.6221955347881
 21
185.2940522014129
 72
     1
 10
102.6221955347881
 20
185.2940522014129
 11
102.6221955347881
 21
183.5940522014129
 72
     1
 10
102.6221955347881
 20
183.5940522014129
 11
101.8807340850006
 21
183.5940522014129
 72
     1
 10
101.8807340850006
 20
183.5940522014129
 11
101.8807340850006
 21
139.5940522014129
 72
     1
 10
101.8807340850006
 20
139.5940522014129
 11
104.0409068144765
 21
139.5940522014129
 72
     1
 10
104.0409068144765
 20
139.5940522014129
 11
104.0409068144765
 21
138.5940522014129
 72
     1
 10
104.0409068144765
 20
138.5940522014129
 11
103.3017232759556
 21
138.5940522014129
 72
     1
 10
103.3017232759556
 20
138.5940522014129
 11
103.3017232759556
 21
134.0940522014129
 72
     4
 94
        3
 73
     1
 74
     0
 95
        8
 96
        4
 40
0.0
 40
0.0
 40
0.0
 40
0.0
 40
0.0008924081485623
 40
0.0008924081485623
 40
0.0008924081485623
 40
0.0008924081485623
 10
103.3017232759556
 20
134.0940522014129
 42
1.0
 10
103.5442934841393
 20
133.9218670457307
 42
1.0
 10
103.7903534412494
 20
133.7543988287554
 42
1.0
 10
104.0409068144765
 20
133.5940522014129
 42
1.0
 72
     1
 10
104.0409068144765
 20
133.5940522014129
 11
105.8125600399996
 21
133.5940522014129
 72
     4
 94
        3
 73
     1
 74
     0
 95
        8
 96
        4
 40
0.0
 40
0.0
 40
0.0
 40
0.0
 40
0.0074379020692246
 40
0.0074379020692246
 40
0.0074379020692246
 40
0.0074379020692246
 10
105.8125600399996
 20
133.5940522014129
 42
1.0
 10
106.0143659151249
 20
136.0651261175307
 42
1.0
 10
106.2288705498691
 20
138.5372995842522
 42
1.0
 10
106.5624848304792
 20
140.9940522014129
 42
1.0
 72
     1
 10
106.5624848304792
 20
140.9940522014129
 11
107.5607414869261
 21
140.9940522014129
 72
     1
 10
107.5607414869261
 20
140.9940522014129
 11
107.5607414869261
 21
181.1940522014129
 72
     1
 10
107.5607414869261
 20
181.1940522014129
 11
106.5624848304792
 21
181.1940522014129
 97
        0
 75
     0
 76
     1
 52
0.0
 41
0.5
 77
     0
 78
     1
 53
45.00000209717174
 43
0.0
 44
0.0
 45
-1.12253205622118
 46
1.122531974046107
 79
     0
 98
        1
 10
0.0
 20
0.0
  0
HATCH
  5
1DF
330
1F
100
AcDbEntity
  8
0
  6
Continuous
 62
     7
370
     0
100
AcDbHatch
 10
0.0
 20
0.0
 30
0.0
210
0.0
220
0.0
230
1.0
  2
ANSI32
 70
     0
 71
     0
 91
        1
 92
        0
 93
       15
 72
     1
 10
101.8807340850006
 20
185.0940522014129
 11
100.8807340850006
 21
185.5940522014129
 72
     1
 10
100.8807340850006
 20
185.5940522014129
 11
99.61472134339648
 21
185.5940522014129
 72
     4
 94
        3
 73
     1
 74
     0
 95
        8
 96
        4
 40
0.0
 40
0.0
 40
0.0
 40
0.0
 40
0.0014992665446399
 40
0.0014992665446399
 40
0.0014992665446399
 40
0.0014992665446399
 10
99.61472134339648
 20
185.5940522014129
 42
1.0
 10
99.24008578431631
 20
185.2632897904203
 42
1.0
 10
98.86797339521939
 20
184.9296593243563
 42
1.0
 10
98.49767158090758
 20
184.5940522014129
 42
1.0
 72
     1
 10
98.49767158090758
 20
184.5940522014129
 11
98.49767158090758
 21
167.5940522014129
 72
     1
 10
98.49767158090758
 20
167.5940522014129
 11
99.61472134339647
 21
167.5940522014129
 72
     1
 10
99.61472134339647
 20
167.5940522014129
 11
99.61472134339647
 21
165.5940522014129
 72
     1
 10
99.61472134339647
 20
165.5940522014129
 11
97.40499256715762
 21
165.5940522014129
 72
     1
 10
97.40499256715762
 20
165.5940522014129
 11
97.40499256715762
 21
161.5940522014129
 72
     4
 94
        3
 73
     1
 74
     0
 95
        8
 96
        4
 40
0.0
 40
0.0
 40
0.0
 40
0.0
 40
0.0014811979702557
 40
0.0014811979702557
 40
0.0014811979702557
 40
0.0014811979702557
 10
97.40499256715762
 20
161.5940522014129
 42
1.0
 10
97.76775774739427
 20
161.259129284384
 42
1.0
 10
98.13183249932357
 20
160.9256147184878
 42
1.0
 10
98.49767158090756
 20
160.5940522014129
 42
1.0
 72
     1
 10
98.49767158090756
 20
160.5940522014129
 11
100.1858356487897
 21
160.5940522014129
 72
     1
 10
100.1858356487897
 20
160.5940522014129
 11
100.1858356487897
 21
154.0940522014129
 72
     4
 94
        3
 73
     1
 74
     0
 95
        8
 96
        4
 40
0.0
 40
0.0
 40
0.0
 40
0.0
 40
0.0007675255066639
 40
0.0007675255066639
 40
0.0007675255066639
 40
0.0007675255066639
 10
100.1858356487897
 20
154.0940522014129
 42
1.0
 10
100.3790797949254
 20
153.9263866271162
 42
1.0
 10
100.5731295319583
 20
153.7596428214411
 42
1.0
 10
100.7681546364413
 20
153.5940522014129
 42
1.0
 72
     1
 10
100.7681546364413
 20
153.5940522014129
 11
100.8807340850006
 21
153.5940522014129
 72
     1
 10
100.8807340850006
 20
153.5940522014129
 11
101.8807340850006
 21
154.0940522014129
 72
     1
 10
101.8807340850006
 20
154.0940522014129
 11
101.8807340850006
 21
185.0940522014129
 97
        0
 75
     0
 76
     1
 52
0.0
 41
0.5
 77
     0
 78
     1
 53
45.00000209717174
 43
0.0
 44
0.0
 45
-1.12253205622118
 46
1.122531974046107
 79
     0
 98
        1
 10
0.0
 20
0.0
  0
HATCH
  5
1E0
330
1F
100
AcDbEntity
  8
0
  6
Continuous
 62
     7
370
     0
100
AcDbHatch
 10
0.0
 20
0.0
 30
0.0
210
0.0
220
0.0
230
1.0
  2
ANSI32
 70
     0
 71
     0
 91
        1
 92
        0
 93
        4
 72
     1
 10
100.855849291618
 20
186.5940522014129
 11
100.855849291618
 21
185.5940522014129
 72
     1
 10
100.855849291618
 20
185.5940522014129
 11
103.3017232759555
 21
185.5940522014129
 72
     1
 10
103.3017232759555
 20
185.5940522014129
 11
103.3017232759555
 21
186.5940522014129
 72
     1
 10
103.3017232759555
 20
186.5940522014129
 11
100.855849291618
 21
186.5940522014129
 97
        0
 75
     0
 76
     1
 52
0.0
 41
0.5
 77
     0
 78
     1
 53
45.00000209717174
 43
0.0
 44
0.0
 45
-1.12253205622118
 46
1.122531974046107
 79
     0
 98
        1
 10
0.0
 20
0.0
  0
HATCH
  5
1E1
330
1F
100
AcDbEntity
  8
0
  6
Continuous
 62
     7
370
     0
100
AcDbHatch
 10
0.0
 20
0.0
 30
0.0
210
0.0
220
0.0
230
1.0
  2
ANSI32
 70
     0
 71
     0
 91
        1
 92
        0
 93
        8
 72
     4
 94
        3
 73
     1
 74
     0
 95
        8
 96
        4
 40
0.0
 40
0.0
 40
0.0
 40
0.0
 40
0.0007675255066639
 40
0.0007675255066639
 40
0.0007675255066639
 40
0.0007675255066639
 10
100.7681546364413
 20
139.5940522014129
 42
1.0
 10
100.5731295319583
 20
139.4284615813847
 42
1.0
 10
100.3790797949254
 20
139.2617177757096
 42
1.0
 10
100.1858356487897
 20
139.0940522014129
 42
1.0
 72
     1
 10
100.1858356487897
 20
139.0940522014129
 11
100.1858356487897
 21
137.5940522014129
 72
     1
 10
100.1858356487897
 20
137.5940522014129
 11
98.49767158090756
 21
137.5940522014129
 72
     4
 94
        3
 73
     1
 74
     0
 95
        8
 96
        4
 40
0.0
 40
0.0
 40
0.0
 40
0.0
 40
0.0014811979702557
 40
0.0014811979702557
 40
0.0014811979702557
 40
0.0014811979702557
 10
98.49767158090756
 20
137.5940522014129
 42
1.0
 10
98.13183249932357
 20
137.262489684338
 42
1.0
 10
97.76775774739427
 20
136.9289751184418
 42
1.0
 10
97.40499256715762
 20
136.5940522014129
 42
1.0
 72
     1
 10
97.40499256715762
 20
136.5940522014129
 11
97.40499256715762
 21
133.5940522014129
 72
     1
 10
97.40499256715762
 20
133.5940522014129
 11
104.0409068144765
 21
133.5940522014129
 72
     1
 10
104.0409068144765
 20
133.5940522014129
 11
104.0409068144765
 21
139.5940522014129
 72
     1
 10
104.0409068144765
 20
139.5940522014129
 11
100.7681546364413
 21
139.5940522014129
 97
        0
 75
     0
 76
     1
 52
0.0
 41
0.5
 77
     0
 78
     1
 53
45.00000209717174
 43
0.0
 44
0.0
 45
-1.12253205622118
 46
1.122531974046107
 79
     0
 98
        1
 10
0.0
 20
0.0
  0
LINE
  5
1E2
330
1F
100
AcDbEntity
  8
0
  6
CENTERX2
 62
     7
370
     0
100
AcDbLine
 10
107.5607414869
 20
141.0940522014
 30
0.0
 11
107.5607414869
 21
120.7106390782
 31
0.0
  0
LINE
  5
1E3
330
1F
100
AcDbEntity
  8
0
  6
CENTERX2
 62
     7
370
     0
100
AcDbLine
 10
107.5607414869
 20
208.990590447
 30
0.0
 11
107.5607414869
 21
151.5940522014
 31
0.0
  0
ARC
  5
1E4
330
1F
100
AcDbEntity
  8
0
  6
PHANTOM
 62
     7
370
    30
100
AcDbCircle
 10
107.5893652206
 20
99.6837074286
 30
0.0
 40
8.647908417372889
100
AcDbArc
 50
72.919622925
 51
107.080377075
  0
ARC
  5
1E5
330
1F
100
AcDbEntity
  8
0
  6
PHANTOM
 62
     7
370
    30
100
AcDbCircle
 10
107.5321177533
 20
97.2166697459
 30
0.0
 40
8.647908414495364
100
AcDbArc
 50
252.9196229192
 51
287.0803770808
  0
ARC
  5
1E6
330
1F
100
AcDbEntity
  8
0
  6
PHANTOM
 62
     7
370
    30
100
AcDbCircle
 10
107.7260780194
 20
99.6483706217
 30
0.0
 40
8.582474353879938
100
AcDbArc
 50
75.3070253969
 51
104.6929746031
  0
LINE
  5
1E7
330
1F
100
AcDbEntity
  8
0
  6
Continuous
 62
     7
370
    30
100
AcDbLine
 10
102.0154732337
 20
107.9501885888
 30
0.0
 11
113.1060097401
 21
107.9501885888
 31
0.0
  0
CIRCLE
  5
1E8
330
1F
100
AcDbEntity
  8
0
  6
Continuous
 62
     7
370
    30
100
AcDbCircle
 10
107.5607414869
 20
98.4501885888
 30
0.0
 40
5.500000000000014
  0
LINE
  5
1E9
330
1F
100
AcDbEntity
  8
0
  6
Continuous
 62
     7
370
    30
100
AcDbLine
 10
113.1060097401
 20
88.9501885888
 30
0.0
 11
102.0154732337
 21
88.9501885888
 31
0.0
  0
ARC
  5
1EA
330
1F
100
AcDbEntity
  8
0
  6
Continuous
 62
     7
370
    30
100
AcDbCircle
 10
107.5607414869
 20
98.4501885888
 30
0.0
 40
11.00000000000001
100
AcDbArc
 50
120.2726413189
 51
239.7273586811
  0
ARC
  5
1EB
330
1F
100
AcDbEntity
  8
0
  6
Continuous
 62
     7
370
    30
100
AcDbCircle
 10
107.5607414869
 20
98.4501885888
 30
0.0
 40
11.00000000000001
100
AcDbArc
 50
300.2726413189
 51
59.7273586811
  0
CIRCLE
  5
1EC
330
1F
100
AcDbEntity
  8
0
  6
Continuous
 62
     7
370
    30
100
AcDbCircle
 10
107.5607414869
 20
98.4501885888
 30
0.0
 40
5.499999999999986
  0
CIRCLE
  5
1ED
330
1F
100
AcDbEntity
  8
0
  6
Continuous
 62
     7
370
    30
100
AcDbCircle
 10
107.5607414869
 20
98.4501885888
 30
0.0
 40
4.57350000000001
  0
CIRCLE
  5
1EE
330
1F
100
AcDbEntity
  8
0
  6
Continuous
 62
     7
370
    30
100
AcDbCircle
 10
107.5607414869
 20
98.4501885888
 30
0.0
 40
4.34249700411668
  0
CIRCLE
  5
1EF
330
1F
100
AcDbEntity
  8
0
  6
Continuous
 62
     7
370
    30
100
AcDbCircle
 10
107.5607414869
 20
98.4501885888
 30
0.0
 40
3.899999999999992
  0
CIRCLE
  5
1F0
330
1F
100
AcDbEntity
  8
0
  6
HIDDEN
 62
     7
370
     0
100
AcDbCircle
 10
107.5607414869
 20
98.4501885888
 30
0.0
 40
5.499999999999986
  0
DIMENSION
  5
1F1
330
1F
100
AcDbEntity
  8
0
  6
Continuous
 62
     7
370
     0
100
AcDbDimension
  2
*D9
 10
110.3933572912
 20
94.8594797513
 30
0.0
 11
89.8696713583
 21
112.4337731223
 31
0.0
 70
   163
  1
PT1/8
 71
     1
 42
9.147
  3
SLDDIMSTYLE2
100
AcDbDiametricDimension
 15
104.7281256827
 25
102.0408974262
 35
0.0
 40
0.0
1001
ACAD
1000
DSTYLE
1002
{
1070
    77
1070
     0
1070
   143
1040
0.0393700787
1070
    41
1040
3.0
1070
    44
1040
1.0
1070
    42
1040
1.0
1070
   147
1040
1.524
1070
    73
1070
     1
1070
    74
1070
     1
1070
   140
1040
3.5
1070
   284
1070
    12
1070
    78
1070
    12
1002
}
  0
DIMENSION
  5
203
330
1F
100
AcDbEntity
  8
0
  6
Continuous
 62
     7
370
     0
100
AcDbDimension
  2
*D10
 10
136.3378723833
 20
107.9501885888
 30
0.0
 11
136.3378723833
 21
98.4501885888
 31
0.0
 70
   160
 71
     1
 42
19.0
  3
SLDDIMSTYLE0
100
AcDbAlignedDimension
 13
113.1060097401
 23
88.9501885888
 33
0.0
 14
113.1060097401
 24
107.9501885888
 34
0.0
 50
90.0
100
AcDbRotatedDimension
1001
ACAD
1000
DSTYLE
1002
{
1070
    77
1070
     3
1070
   143
1040
0.0393700787
1070
    41
1040
3.0
1070
    44
1040
1.0
1070
    42
1040
1.0
1070
   147
1040
1.524
1070
    73
1070
     0
1070
    74
1070
     0
1070
   140
1040
3.5
1070
   284
1070
    12
1070
    78
1070
    12
1002
}
  0
INSERT
  5
222
330
1F
100
AcDbEntity
  8
0
  6
Continuous
 62
     7
370
     0
100
AcDbBlockReference
  2
SW_CENTERMARKSYMBOL_0
 10
107.5607414869
 20
98.4501885888
 30
0.0
  0
ENDSEC
  0
SECTION
  2
OBJECTS
  0
DICTIONARY
  5
C
330
0
100
AcDbDictionary
281
     1
  3
ACAD_GROUP
350
D
  3
ACAD_LAYOUT
350
1A
  3
ACAD_MLINESTYLE
350
17
  3
ACAD_PLOTSETTINGS
350
19
  3
ACAD_PLOTSTYLENAME
350
E
  0
DICTIONARY
  5
D
102
{ACAD_REACTORS
330
C
102
}
330
C
100
AcDbDictionary
281
     1
  0
DICTIONARY
  5
1A
102
{ACAD_REACTORS
330
C
102
}
330
C
100
AcDbDictionary
281
     1
  3
Layout1
350
1E
  3
Layout2
350
26
  3
Model
350
22
  0
DICTIONARY
  5
17
102
{ACAD_REACTORS
330
C
102
}
330
C
100
AcDbDictionary
281
     1
  3
Standard
350
18
  0
DICTIONARY
  5
19
102
{ACAD_REACTORS
330
C
102
}
330
C
100
AcDbDictionary
281
     1
  0
ACDBDICTIONARYWDFLT
  5
E
102
{ACAD_REACTORS
330
C
102
}
330
C
100
AcDbDictionary
281
     1
  3
Normal
350
F
100
AcDbDictionaryWithDefault
340
F
  0
LAYOUT
  5
1E
102
{ACAD_REACTORS
330
1A
102
}
330
1A
100
AcDbPlotSettings
  1

  2

  4

  6

 40
0.0
 41
0.0
 42
0.0
 43
0.0
 44
0.0
 45
0.0
 46
0.0
 47
0.0
 48
0.0
 49
0.0
140
0.0
141
0.0
142
1.0
143
1.0
 70
   688
 72
     0
 73
     0
 74
     5
  7

 75
    16
147
1.0
148
0.0
149
0.0
100
AcDbLayout
  1
Layout1
 70
     1
 71
     1
 10
0.0
 20
0.0
 11
0.0
 21
0.0
 12
0.0
 22
0.0
 32
0.0
 14
0.0
 24
0.0
 34
0.0
 15
0.0
 25
0.0
 35
0.0
146
0.0
 13
0.0
 23
0.0
 33
0.0
 16
1.0
 26
0.0
 36
0.0
 17
0.0
 27
1.0
 37
0.0
 76
     0
330
1B
  0
LAYOUT
  5
26
102
{ACAD_REACTORS
330
1A
102
}
330
1A
100
AcDbPlotSettings
  1

  2

  4

  6

 40
0.0
 41
0.0
 42
0.0
 43
0.0
 44
0.0
 45
0.0
 46
0.0
 47
0.0
 48
0.0
 49
0.0
140
0.0
141
0.0
142
1.0
143
1.0
 70
   688
 72
     0
 73
     0
 74
     5
  7

 75
    16
147
1.0
148
0.0
149
0.0
100
AcDbLayout
  1
Layout2
 70
     1
 71
     2
 10
0.0
 20
0.0
 11
0.0
 21
0.0
 12
0.0
 22
0.0
 32
0.0
 14
0.0
 24
0.0
 34
0.0
 15
0.0
 25
0.0
 35
0.0
146
0.0
 13
0.0
 23
0.0
 33
0.0
 16
1.0
 26
0.0
 36
0.0
 17
0.0
 27
1.0
 37
0.0
 76
     0
330
23
  0
LAYOUT
  5
22
102
{ACAD_REACTORS
330
1A
102
}
330
1A
100
AcDbPlotSettings
  1

  2

  4

  6

 40
0.0
 41
0.0
 42
0.0
 43
0.0
 44
0.0
 45
0.0
 46
0.0
 47
0.0
 48
0.0
 49
0.0
140
0.0
141
0.0
142
1.0
143
1.0
 70
  1712
 72
     0
 73
     0
 74
     0
  7

 75
     0
147
1.0
148
0.0
149
0.0
100
AcDbLayout
  1
Model
 70
     1
 71
     0
 10
0.0
 20
0.0
 11
0.0
 21
0.0
 12
0.0
 22
0.0
 32
0.0
 14
0.0
 24
0.0
 34
0.0
 15
210.0
 25
297.0
 35
0.0
146
0.0
 13
0.0
 23
0.0
 33
0.0
 16
1.0
 26
0.0
 36
0.0
 17
0.0
 27
1.0
 37
0.0
 76
     0
330
1F
  0
MLINESTYLE
  5
18
102
{ACAD_REACTORS
330
17
102
}
330
17
100
AcDbMlineStyle
  2
Standard
 70
     0
  3

 62
   256
 51
90.0
 52
90.0
 71
     2
 49
0.5
 62
   256
  6
BYLAYER
 49
-0.5
 62
   256
  6
BYLAYER
  0
ACDBPLACEHOLDER
  5
F
102
{ACAD_REACTORS
330
E
102
}
330
E
  0
ENDSEC
  0
EOF
