  0
SECTION
  2
HEADER
  9
$ACADVER
  1
AC1015
  9
$ACADMAINTVER
 70
     6
  9
$DWGCODEPAGE
  3
DOS932
  9
$INSBASE
 10
0.0
 20
0.0
 30
0.0
  9
$EXTMIN
 10
0.0
 20
0.0
 30
0.0
  9
$EXTMAX
 10
210.0
 20
297.0
 30
0.0
  9
$LIMMIN
 10
0.0
 20
0.0
  9
$LIMMAX
 10
0.0
 20
0.0
  9
$ORTHOMODE
 70
     0
  9
$REGENMODE
 70
     1
  9
$FILLMODE
 70
     1
  9
$QTEXTMODE
 70
     0
  9
$MIRRTEXT
 70
     1
  9
$LTSCALE
 40
1.0
  9
$ATTMODE
 70
     1
  9
$TEXTSIZE
 40
3.5
  9
$TRACEWID
 40
1.0
  9
$TEXTSTYLE
  7
Standard
  9
$CLAYER
  8
0
  9
$CELTYPE
  6
ByLayer
  9
$CECOLOR
 62
   256
  9
$CELTSCALE
 40
1.0
  9
$DISPSILH
 70
     0
  9
$DIMSCALE
 40
1.0
  9
$DIMASZ
 40
3.0
  9
$DIMEXO
 40
1.0
  9
$DIMDLI
 40
3.75
  9
$DIMRND
 40
0.0
  9
$DIMDLE
 40
0.0
  9
$DIMEXE
 40
1.0
  9
$DIMTP
 40
0.0
  9
$DIMTM
 40
0.0
  9
$DIMTXT
 40
3.5
  9
$DIMCEN
 40
2.5
  9
$DIMTSZ
 40
0.0
  9
$DIMTOL
 70
     0
  9
$DIMLIM
 70
     0
  9
$DIMTIH
 70
     1
  9
$DIMTOH
 70
     1
  9
$DIMSE1
 70
     0
  9
$DIMSE2
 70
     0
  9
$DIMTAD
 70
     1
  9
$DIMZIN
 70
     0
  9
$DIMBLK
  1

  9
$DIMASO
 70
     1
  9
$DIMSHO
 70
     1
  9
$DIMPOST
  1

  9
$DIMAPOST
  1

  9
$DIMALT
 70
     0
  9
$DIMALTD
 70
     3
  9
$DIMALTF
 40
0.0393700787
  9
$DIMLFAC
 40
1.0
  9
$DIMTOFL
 70
     1
  9
$DIMTVP
 40
0.0
  9
$DIMTIX
 70
     0
  9
$DIMSOXD
 70
     0
  9
$DIMSAH
 70
     0
  9
$DIMBLK1
  1

  9
$DIMBLK2
  1

  9
$DIMSTYLE
  2
ISO-25
  9
$DIMCLRD
 70
     0
  9
$DIMCLRE
 70
     0
  9
$DIMCLRT
 70
     0
  9
$DIMTFAC
 40
1.0
  9
$DIMGAP
 40
1.524
  9
$DIMJUST
 70
     0
  9
$DIMSD1
 70
     0
  9
$DIMSD2
 70
     0
  9
$DIMTOLJ
 70
     0
  9
$DIMTZIN
 70
     0
  9
$DIMALTZ
 70
     0
  9
$DIMALTTZ
 70
     0
  9
$DIMUPT
 70
     0
  9
$DIMDEC
 70
     2
  9
$DIMTDEC
 70
     2
  9
$DIMALTU
 70
     2
  9
$DIMALTTD
 70
     3
  9
$DIMTXSTY
  7
Standard
  9
$DIMAUNIT
 70
     0
  9
$DIMADEC
 70
     0
  9
$DIMALTRND
 40
0.0
  9
$DIMAZIN
 70
     0
  9
$DIMDSEP
 70
    44
  9
$DIMATFIT
 70
     3
  9
$DIMFRAC
 70
     0
  9
$DIMLDRBLK
  1

  9
$DIMLUNIT
 70
     2
  9
$DIMLWD
 70
    -2
  9
$DIMLWE
 70
    -2
  9
$DIMTMOVE
 70
     0
  9
$LUNITS
 70
     2
  9
$LUPREC
 70
     1
  9
$SKETCHINC
 40
1.0
  9
$FILLETRAD
 40
10.0
  9
$AUNITS
 70
     0
  9
$AUPREC
 70
     0
  9
$MENU
  1
.
  9
$ELEVATION
 40
0.0
  9
$PELEVATION
 40
0.0
  9
$THICKNESS
 40
0.0
  9
$LIMCHECK
 70
     0
  9
$CHAMFERA
 40
10.0
  9
$CHAMFERB
 40
10.0
  9
$CHAMFERC
 40
20.0
  9
$CHAMFERD
 40
0.0
  9
$SKPOLY
 70
     0
  9
$TDCREATE
 40
2454979.686779514
  9
$TDUCREATE
 40
2454979.311779514
  9
$TDUPDATE
 40
2454979.686779526
  9
$TDUUPDATE
 40
2454979.311779526
  9
$TDINDWG
 40
0.0000000116
  9
$TDUSRTIMER
 40
0.0000000116
  9
$USRTIMER
 70
     1
  9
$ANGBASE
 50
0.0
  9
$ANGDIR
 70
     0
  9
$PDMODE
 70
     0
  9
$PDSIZE
 40
-1.0
  9
$PLINEWID
 40
0.0
  9
$SPLFRAME
 70
     0
  9
$SPLINETYPE
 70
     6
  9
$SPLINESEGS
 70
     8
  9
$HANDSEED
  5
216
  9
$SURFTAB1
 70
     6
  9
$SURFTAB2
 70
     6
  9
$SURFTYPE
 70
     6
  9
$SURFU
 70
     6
  9
$SURFV
 70
     6
  9
$UCSBASE
  2

  9
$UCSNAME
  2

  9
$UCSORG
 10
0.0
 20
0.0
 30
0.0
  9
$UCSXDIR
 10
1.0
 20
0.0
 30
0.0
  9
$UCSYDIR
 10
0.0
 20
1.0
 30
0.0
  9
$UCSORTHOREF
  2

  9
$UCSORTHOVIEW
 70
     0
  9
$UCSORGTOP
 10
0.0
 20
0.0
 30
0.0
  9
$UCSORGBOTTOM
 10
0.0
 20
0.0
 30
0.0
  9
$UCSORGLEFT
 10
0.0
 20
0.0
 30
0.0
  9
$UCSORGRIGHT
 10
0.0
 20
0.0
 30
0.0
  9
$UCSORGFRONT
 10
0.0
 20
0.0
 30
0.0
  9
$UCSORGBACK
 10
0.0
 20
0.0
 30
0.0
  9
$PUCSBASE
  2

  9
$PUCSNAME
  2

  9
$PUCSORG
 10
0.0
 20
0.0
 30
0.0
  9
$PUCSXDIR
 10
1.0
 20
0.0
 30
0.0
  9
$PUCSYDIR
 10
0.0
 20
1.0
 30
0.0
  9
$PUCSORTHOREF
  2

  9
$PUCSORTHOVIEW
 70
     0
  9
$PUCSORGTOP
 10
0.0
 20
0.0
 30
0.0
  9
$PUCSORGBOTTOM
 10
0.0
 20
0.0
 30
0.0
  9
$PUCSORGLEFT
 10
0.0
 20
0.0
 30
0.0
  9
$PUCSORGRIGHT
 10
0.0
 20
0.0
 30
0.0
  9
$PUCSORGFRONT
 10
0.0
 20
0.0
 30
0.0
  9
$PUCSORGBACK
 10
0.0
 20
0.0
 30
0.0
  9
$USERI1
 70
     0
  9
$USERI2
 70
     0
  9
$USERI3
 70
     0
  9
$USERI4
 70
     0
  9
$USERI5
 70
     0
  9
$USERR1
 40
0.0
  9
$USERR2
 40
0.0
  9
$USERR3
 40
0.0
  9
$USERR4
 40
0.0
  9
$USERR5
 40
0.0
  9
$WORLDVIEW
 70
     1
  9
$SHADEDGE
 70
     3
  9
$SHADEDIF
 70
    70
  9
$TILEMODE
 70
     1
  9
$MAXACTVP
 70
    64
  9
$PINSBASE
 10
0.0
 20
0.0
 30
0.0
  9
$PLIMCHECK
 70
     0
  9
$PEXTMIN
 10
1.0000000000E+20
 20
1.0000000000E+20
 30
1.0000000000E+20
  9
$PEXTMAX
 10
-1.0000000000E+20
 20
-1.0000000000E+20
 30
-1.0000000000E+20
  9
$PLIMMIN
 10
0.0
 20
0.0
  9
$PLIMMAX
 10
420.0
 20
297.0
  9
$UNITMODE
 70
     0
  9
$VISRETAIN
 70
     1
  9
$PLINEGEN
 70
     0
  9
$PSLTSCALE
 70
     1
  9
$TREEDEPTH
 70
  3020
  9
$CMLSTYLE
  2
Standard
  9
$CMLJUST
 70
     0
  9
$CMLSCALE
 40
20.0
  9
$PROXYGRAPHICS
 70
     1
  9
$MEASUREMENT
 70
     1
  9
$CELWEIGHT
370
    -1
  9
$ENDCAPS
280
     0
  9
$JOINSTYLE
280
     0
  9
$LWDISPLAY
290
     1
  9
$INSUNITS
 70
     4
  9
$HYPERLINKBASE
  1

  9
$STYLESHEET
  1

  9
$XEDIT
290
     1
  9
$CEPSNTYPE
380
     0
  9
$PSTYLEMODE
290
     1
  9
$FINGERPRINTGUID
  2
{803E3BEA-1FB9-43E0-8749-E4B981B5766B}
  9
$VERSIONGUID
  2
{FAEB1C32-E019-11D5-929B-00C0DF256EC4}
  9
$EXTNAMES
290
     1
  9
$PSVPSCALE
 40
0.0
  9
$OLESTARTUP
290
     0
  0
ENDSEC
  0
SECTION
  2
CLASSES
  0
CLASS
  1
ACDBDICTIONARYWDFLT
  2
AcDbDictionaryWithDefault
  3
ObjectDBX Classes
 90
        0
280
     0
281
     0
  0
CLASS
  1
ACDBPLACEHOLDER
  2
AcDbPlaceHolder
  3
ObjectDBX Classes
 90
        0
280
     0
281
     0
  0
CLASS
  1
LAYOUT
  2
AcDbLayout
  3
ObjectDBX Classes
 90
        0
280
     0
281
     0
  0
ENDSEC
  0
SECTION
  2
TABLES
  0
TABLE
  2
VPORT
  5
8
330
0
100
AcDbSymbolTable
 70
     1
  0
VPORT
  5
29
330
8
100
AcDbSymbolTableRecord
100
AcDbViewportTableRecord
  2
*Active
 70
     0
 10
0.0
 20
0.0
 11
1.0
 21
1.0
 12
105.0
 22
148.5
 13
0.0
 23
0.0
 14
10.0
 24
10.0
 15
10.0
 25
10.0
 16
0.0
 26
0.0
 36
1.0
 17
0.0
 27
0.0
 37
0.0
 40
297.0
 41
1.9729729729
 42
50.0
 43
0.0
 44
0.0
 50
0.0
 51
0.0
 71
     0
 72
  2000
 73
     1
 74
     3
 75
     0
 76
     0
 77
     0
 78
     0
281
     0
 65
     1
110
0.0
120
0.0
130
0.0
111
1.0
121
0.0
131
0.0
112
0.0
122
1.0
132
0.0
 79
     0
146
0.0
  0
ENDTAB
  0
TABLE
  2
LTYPE
  5
5
330
0
100
AcDbSymbolTable
 70
     6
  0
LTYPE
  5
14
330
5
100
AcDbSymbolTableRecord
100
AcDbLinetypeTableRecord
  2
ByBlock
 70
     0
  3

 72
    65
 73
     0
 40
0.0
  0
LTYPE
  5
15
330
5
100
AcDbSymbolTableRecord
100
AcDbLinetypeTableRecord
  2
ByLayer
 70
     0
  3

 72
    65
 73
     0
 40
0.0
  0
LTYPE
  5
16
330
5
100
AcDbSymbolTableRecord
100
AcDbLinetypeTableRecord
  2
Continuous
 70
     0
  3
Solid line
 72
    65
 73
     0
 40
0.0
  0
LTYPE
  5
2A
330
5
100
AcDbSymbolTableRecord
100
AcDbLinetypeTableRecord
  2
HIDDEN
 70
     0
  3
Hidden __ __ __ __ __ __ __ __ __ __ __ __ __ __
 72
    65
 73
     2
 40
1.905
 49
1.27
 74
     0
 49
-0.635
 74
     0
  0
LTYPE
  5
2B
330
5
100
AcDbSymbolTableRecord
100
AcDbLinetypeTableRecord
  2
PHANTOM
 70
     0
  3
Phantom ______  __  __  ______  __  __  ______
 72
    65
 73
     6
 40
12.7
 49
6.35
 74
     0
 49
-1.27
 74
     0
 49
1.27
 74
     0
 49
-1.27
 74
     0
 49
1.27
 74
     0
 49
-1.27
 74
     0
  0
LTYPE
  5
2C
330
5
100
AcDbSymbolTableRecord
100
AcDbLinetypeTableRecord
  2
CENTER
 70
     0
  3
Center ____ _ ____ _ ____ _ ____ _ ____ _ ____
 72
    65
 73
     4
 40
10.16
 49
6.35
 74
     0
 49
-1.27
 74
     0
 49
1.27
 74
     0
 49
-1.27
 74
     0
  0
LTYPE
  5
2D
330
5
100
AcDbSymbolTableRecord
100
AcDbLinetypeTableRecord
  2
CENTERX2
 70
     0
  3
Center (2x) ________  __  ________  __  _____
 72
    65
 73
     4
 40
20.32
 49
12.7
 74
     0
 49
-2.54
 74
     0
 49
2.54
 74
     0
 49
-2.54
 74
     0
  0
LTYPE
  5
2E
330
5
100
AcDbSymbolTableRecord
100
AcDbLinetypeTableRecord
  2
DOT2
 70
     0
  3
Dot (.5x) ........................................
 72
    65
 73
     2
 40
0.635
 49
0.0
 74
     0
 49
-0.635
 74
     0
  0
ENDTAB
  0
TABLE
  2
LAYER
  5
2
330
0
100
AcDbSymbolTable
 70
     2
  0
LAYER
  5
10
330
2
100
AcDbSymbolTableRecord
100
AcDbLayerTableRecord
  2
0
 70
     0
 62
     7
  6
Continuous
370
    -3
390
F
  0
LAYER
  5
119
330
2
100
AcDbSymbolTableRecord
100
AcDbLayerTableRecord
  2
Defpoints
 70
     0
 62
     7
  6
Continuous
290
     0
370
    -3
390
F
  0
ENDTAB
  0
TABLE
  2
STYLE
  5
3
330
0
100
AcDbSymbolTable
 70
     2
  0
STYLE
  5
11
330
3
100
AcDbSymbolTableRecord
100
AcDbTextStyleTableRecord
  2
Standard
 70
     0
 40
0.0
 41
1.0
 50
0.0
 71
     0
 42
2.5
  3
txt
  4
bigfont
  0
STYLE
  5
37
330
3
100
AcDbSymbolTableRecord
100
AcDbTextStyleTableRecord
  2
SLDTEXTSTYLE0
 70
     0
 40
0.0
 41
0.7
 50
0.0
 71
     0
 42
0.2
  3
TXT
  4
bigfont
  0
ENDTAB
  0
TABLE
  2
VIEW
  5
6
330
0
100
AcDbSymbolTable
 70
     0
  0
ENDTAB
  0
TABLE
  2
UCS
  5
7
330
0
100
AcDbSymbolTable
 70
     0
  0
ENDTAB
  0
TABLE
  2
APPID
  5
9
330
0
100
AcDbSymbolTable
 70
     1
  0
APPID
  5
12
330
9
100
AcDbSymbolTableRecord
100
AcDbRegAppTableRecord
  2
ACAD
 70
     0
  0
ENDTAB
  0
TABLE
  2
DIMSTYLE
  5
A
330
0
100
AcDbSymbolTable
 70
     3
100
AcDbDimStyleTable
  0
DIMSTYLE
105
27
330
A
100
AcDbSymbolTableRecord
100
AcDbDimStyleTableRecord
  2
ISO-25
 70
     0
 41
2.5
 42
0.625
 43
3.75
 44
1.25
 73
     0
 74
     0
 77
     1
 78
     8
140
2.5
141
2.5
143
0.0393700787
147
0.625
171
     3
172
     1
271
     2
272
     2
274
     3
278
    44
283
     0
284
     8
340
11
  0
DIMSTYLE
105
127
102
{ACAD_REACTORS
330
118
330
130
330
147
330
15C
330
170
330
184
330
19B
330
1AF
330
1D8
330
1EB
102
}
330
A
100
AcDbSymbolTableRecord
100
AcDbDimStyleTableRecord
  2
SLDDIMSTYLE0
 70
     0
 41
3.0
 44
0.0
 73
     0
 74
     0
 77
     3
 78
    12
140
3.5
147
0.875
173
     1
271
     1
272
     3
284
    12
340
37
  0
DIMSTYLE
105
202
330
A
100
AcDbSymbolTableRecord
100
AcDbDimStyleTableRecord
  2
SLDDIMSTYLE1
 70
     0
 41
3.0
 44
0.0
140
3.0
147
0.75
173
     1
271
     0
272
     0
340
11
341
203
343
203
344
203
  0
ENDTAB
  0
TABLE
  2
BLOCK_RECORD
  5
1
330
0
100
AcDbSymbolTable
 70
    13
  0
BLOCK_RECORD
  5
1F
330
1
100
AcDbSymbolTableRecord
100
AcDbBlockTableRecord
  2
*Model_Space
340
22
  0
BLOCK_RECORD
  5
1B
330
1
100
AcDbSymbolTableRecord
100
AcDbBlockTableRecord
  2
*Paper_Space
340
1E
  0
BLOCK_RECORD
  5
23
330
1
100
AcDbSymbolTableRecord
100
AcDbBlockTableRecord
  2
*Paper_Space0
340
26
  0
BLOCK_RECORD
  5
11A
330
1
100
AcDbSymbolTableRecord
100
AcDbBlockTableRecord
  2
*D1
340
0
  0
BLOCK_RECORD
  5
131
330
1
100
AcDbSymbolTableRecord
100
AcDbBlockTableRecord
  2
*D2
340
0
  0
BLOCK_RECORD
  5
148
330
1
100
AcDbSymbolTableRecord
100
AcDbBlockTableRecord
  2
*D3
340
0
  0
BLOCK_RECORD
  5
15D
330
1
100
AcDbSymbolTableRecord
100
AcDbBlockTableRecord
  2
*D4
340
0
  0
BLOCK_RECORD
  5
171
330
1
100
AcDbSymbolTableRecord
100
AcDbBlockTableRecord
  2
*D5
340
0
  0
BLOCK_RECORD
  5
185
330
1
100
AcDbSymbolTableRecord
100
AcDbBlockTableRecord
  2
*D6
340
0
  0
BLOCK_RECORD
  5
19C
330
1
100
AcDbSymbolTableRecord
100
AcDbBlockTableRecord
  2
*D7
340
0
  0
BLOCK_RECORD
  5
1B0
330
1
100
AcDbSymbolTableRecord
100
AcDbBlockTableRecord
  2
*D8
340
0
  0
BLOCK_RECORD
  5
1D9
330
1
100
AcDbSymbolTableRecord
100
AcDbBlockTableRecord
  2
*D9
340
0
  0
BLOCK_RECORD
  5
1EC
330
1
100
AcDbSymbolTableRecord
100
AcDbBlockTableRecord
  2
*D10
340
0
  0
BLOCK_RECORD
  5
203
330
1
100
AcDbSymbolTableRecord
100
AcDbBlockTableRecord
  2
_Open30
340
0
  0
BLOCK_RECORD
  5
20A
330
1
100
AcDbSymbolTableRecord
100
AcDbBlockTableRecord
  2
SW_CENTERMARKSYMBOL_0
340
0
102
{BLKREFS
331
215
102
}
  0
ENDTAB
  0
ENDSEC
  0
SECTION
  2
BLOCKS
  0
BLOCK
  5
20
330
1F
100
AcDbEntity
  8
0
100
AcDbBlockBegin
  2
*Model_Space
 70
     0
 71
     0
 10
0.0
 20
0.0
 30
0.0
  3
*Model_Space
  1

  0
ENDBLK
  5
21
330
1F
100
AcDbEntity
  8
0
100
AcDbBlockEnd
  0
BLOCK
  5
1C
330
1B
100
AcDbEntity
 67
     1
  8
0
100
AcDbBlockBegin
  2
*Paper_Space
 70
     0
 71
     0
 10
0.0
 20
0.0
 30
0.0
  3
*Paper_Space
  1

  0
ENDBLK
  5
1D
330
1B
100
AcDbEntity
 67
     1
  8
0
100
AcDbBlockEnd
  0
BLOCK
  5
24
330
23
100
AcDbEntity
  8
0
100
AcDbBlockBegin
  2
*Paper_Space0
 70
     0
 71
     0
 10
0.0
 20
0.0
 30
0.0
  3
*Paper_Space0
  1

  0
ENDBLK
  5
25
330
23
100
AcDbEntity
  8
0
100
AcDbBlockEnd
  0
BLOCK
  5
125
330
11A
100
AcDbEntity
  8
0
100
AcDbBlockBegin
  2
*D1
 70
     1
 71
     0
 10
0.0
 20
0.0
 30
0.0
  3
*D1
  1

  0
SOLID
  5
128
330
11A
100
AcDbEntity
  8
0
  6
Continuous
 62
     7
370
     0
100
AcDbTrace
 10
122.0748580338
 20
185.1416458382
 30
0.0
 11
122.8248580338
 21
188.1416458382
 31
0.0
 12
121.3248580338
 22
188.1416458382
 32
0.0
 13
121.3248580338
 23
188.1416458382
 33
0.0
  0
SOLID
  5
129
330
11A
100
AcDbEntity
  8
0
  6
Continuous
 62
     7
370
     0
100
AcDbTrace
 10
122.0748580338
 20
170.1416458382
 30
0.0
 11
121.3248580338
 21
167.1416458382
 31
0.0
 12
122.8248580338
 22
167.1416458382
 32
0.0
 13
122.8248580338
 23
167.1416458382
 33
0.0
  0
LINE
  5
12A
330
11A
100
AcDbEntity
  8
0
  6
Continuous
 62
     7
370
     0
100
AcDbLine
 10
111.3091154894
 20
185.1416458382
 30
0.0
 11
123.0748580338
 21
185.1416458382
 31
0.0
  0
LINE
  5
12B
330
11A
100
AcDbEntity
  8
0
  6
Continuous
 62
     7
370
     0
100
AcDbLine
 10
107.9186492936
 20
170.1416458382
 30
0.0
 11
123.0748580338
 21
170.1416458382
 31
0.0
  0
LINE
  5
12C
330
11A
100
AcDbEntity
  8
0
  6
Continuous
 62
     7
370
     0
100
AcDbLine
 10
122.0748580338
 20
185.1416458382
 30
0.0
 11
122.0748580338
 21
190.1416458382
 31
0.0
  0
LINE
  5
12D
330
11A
100
AcDbEntity
  8
0
  6
Continuous
 62
     7
370
     0
100
AcDbLine
 10
122.0748580338
 20
185.1416458382
 30
0.0
 11
122.0748580338
 21
170.1416458382
 31
0.0
  0
LINE
  5
12E
330
11A
100
AcDbEntity
  8
0
  6
Continuous
 62
     7
370
     0
100
AcDbLine
 10
122.0748580338
 20
170.1416458382
 30
0.0
 11
122.0748580338
 21
165.1416458382
 31
0.0
  0
MTEXT
  5
12F
330
11A
100
AcDbEntity
  8
0
  6
Continuous
 62
     7
370
     0
100
AcDbMText
 10
118.0021309939
 20
175.6054933706
 30
0.0
 40
3.5
 41
0.0
 71
     1
 72
     1
  1
15
  7
SLDTEXTSTYLE0
 11
-7.044197039909883E-15
 21
1.0
 31
0.0
 73
     1
 44
1.0
  0
ENDBLK
  5
126
330
11A
100
AcDbEntity
  8
0
100
AcDbBlockEnd
  0
BLOCK
  5
13D
330
131
100
AcDbEntity
  8
0
100
AcDbBlockBegin
  2
*D2
 70
     1
 71
     0
 10
0.0
 20
0.0
 30
0.0
  3
*D2
  1

  0
SOLID
  5
13F
330
131
100
AcDbEntity
  8
0
  6
Continuous
 62
     7
370
     0
100
AcDbTrace
 10
135.4495650458
 20
189.1416458382
 30
0.0
 11
136.1995650458
 21
192.1416458382
 31
0.0
 12
134.6995650458
 22
192.1416458382
 32
0.0
 13
134.6995650458
 23
192.1416458382
 33
0.0
  0
SOLID
  5
140
330
131
100
AcDbEntity
  8
0
  6
Continuous
 62
     7
370
     0
100
AcDbTrace
 10
135.4495650458
 20
185.1416458382
 30
0.0
 11
134.6995650458
 21
182.1416458382
 31
0.0
 12
136.1995650458
 22
182.1416458382
 32
0.0
 13
136.1995650458
 23
182.1416458382
 33
0.0
  0
LINE
  5
141
330
131
100
AcDbEntity
  8
0
  6
Continuous
 62
     7
370
     0
100
AcDbLine
 10
111.4186492936
 20
189.1416458382
 30
0.0
 11
136.4495650458
 21
189.1416458382
 31
0.0
  0
LINE
  5
142
330
131
100
AcDbEntity
  8
0
  6
Continuous
 62
     7
370
     0
100
AcDbLine
 10
111.3091154894
 20
185.1416458382
 30
0.0
 11
136.4495650458
 21
185.1416458382
 31
0.0
  0
LINE
  5
143
330
131
100
AcDbEntity
  8
0
  6
Continuous
 62
     7
370
     0
100
AcDbLine
 10
135.4495650458
 20
189.1416458382
 30
0.0
 11
135.4495650458
 21
196.6329378066
 31
0.0
  0
LINE
  5
144
330
131
100
AcDbEntity
  8
0
  6
Continuous
 62
     7
370
     0
100
AcDbLine
 10
135.4495650458
 20
189.1416458382
 30
0.0
 11
135.4495650458
 21
185.1416458382
 31
0.0
  0
LINE
  5
145
330
131
100
AcDbEntity
  8
0
  6
Continuous
 62
     7
370
     0
100
AcDbLine
 10
135.4495650458
 20
185.1416458382
 30
0.0
 11
135.4495650458
 21
180.1416458382
 31
0.0
  0
MTEXT
  5
146
330
131
100
AcDbEntity
  8
0
  6
Continuous
 62
     7
370
     0
100
AcDbMText
 10
131.3768380059
 20
193.0106639121
 30
0.0
 40
3.5
 41
0.0
 71
     1
 72
     1
  1
4
  7
SLDTEXTSTYLE0
 11
-7.044197039909883E-15
 21
1.0
 31
0.0
 73
     1
 44
1.0
  0
ENDBLK
  5
13E
330
131
100
AcDbEntity
  8
0
100
AcDbBlockEnd
  0
BLOCK
  5
153
330
148
100
AcDbEntity
  8
0
100
AcDbBlockBegin
  2
*D3
 70
     1
 71
     0
 10
0.0
 20
0.0
 30
0.0
  3
*D3
  1

  0
SOLID
  5
155
330
148
100
AcDbEntity
  8
0
  6
Continuous
 62
     7
370
     0
100
AcDbTrace
 10
122.0748580338
 20
120.1416458382
 30
0.0
 11
122.8248580338
 21
123.1416458382
 31
0.0
 12
121.3248580338
 22
123.1416458382
 32
0.0
 13
121.3248580338
 23
123.1416458382
 33
0.0
  0
SOLID
  5
156
330
148
100
AcDbEntity
  8
0
  6
Continuous
 62
     7
370
     0
100
AcDbTrace
 10
122.0748580338
 20
170.1416458382
 30
0.0
 11
121.3248580338
 21
167.1416458382
 31
0.0
 12
122.8248580338
 22
167.1416458382
 32
0.0
 13
122.8248580338
 23
167.1416458382
 33
0.0
  0
LINE
  5
157
330
148
100
AcDbEntity
  8
0
  6
Continuous
 62
     7
370
     0
100
AcDbLine
 10
107.4186492936
 20
120.1416458382
 30
0.0
 11
123.0748580338
 21
120.1416458382
 31
0.0
  0
LINE
  5
158
330
148
100
AcDbEntity
  8
0
  6
Continuous
 62
     7
370
     0
100
AcDbLine
 10
107.9186492936
 20
170.1416458382
 30
0.0
 11
123.0748580338
 21
170.1416458382
 31
0.0
  0
LINE
  5
159
330
148
100
AcDbEntity
  8
0
  6
Continuous
 62
     7
370
     0
100
AcDbLine
 10
122.0748580338
 20
120.1416458382
 30
0.0
 11
122.0748580338
 21
170.1416458382
 31
0.0
  0
MTEXT
  5
15A
330
148
100
AcDbEntity
  8
0
  6
Continuous
 62
     7
370
     0
100
AcDbMText
 10
118.0021309939
 20
141.069340903
 30
0.0
 40
3.5
 41
0.0
 71
     1
 72
     1
  1
50
  7
SLDTEXTSTYLE0
 11
6.123031769111886E-17
 21
1.0
 31
0.0
 73
     1
 44
1.0
  0
MTEXT
  5
15B
330
148
100
AcDbEntity
  8
0
  6
Continuous
 62
     7
370
     0
100
AcDbMText
 10
118.0021309939
 20
145.1416458382
 30
0.0
 40
3.5
 41
0.0
 71
     1
 72
     1
  1
ST
  7
SLDTEXTSTYLE0
 11
6.123031769111886E-17
 21
1.0
 31
0.0
 73
     1
 44
1.0
  0
ENDBLK
  5
154
330
148
100
AcDbEntity
  8
0
100
AcDbBlockEnd
  0
BLOCK
  5
168
330
15D
100
AcDbEntity
  8
0
100
AcDbBlockBegin
  2
*D4
 70
     1
 71
     0
 10
0.0
 20
0.0
 30
0.0
  3
*D4
  1

  0
SOLID
  5
16A
330
15D
100
AcDbEntity
  8
0
  6
Continuous
 62
     7
370
     0
100
AcDbTrace
 10
135.4495650458
 20
113.1416458382
 30
0.0
 11
136.1995650458
 21
116.1416458382
 31
0.0
 12
134.6995650458
 22
116.1416458382
 32
0.0
 13
134.6995650458
 23
116.1416458382
 33
0.0
  0
SOLID
  5
16B
330
15D
100
AcDbEntity
  8
0
  6
Continuous
 62
     7
370
     0
100
AcDbTrace
 10
135.4495650458
 20
185.1416458382
 30
0.0
 11
134.6995650458
 21
182.1416458382
 31
0.0
 12
136.1995650458
 22
182.1416458382
 32
0.0
 13
136.1995650458
 23
182.1416458382
 33
0.0
  0
LINE
  5
16C
330
15D
100
AcDbEntity
  8
0
  6
Continuous
 62
     7
370
     0
100
AcDbLine
 10
109.9186492936
 20
113.1416458382
 30
0.0
 11
136.4495650458
 21
113.1416458382
 31
0.0
  0
LINE
  5
16D
330
15D
100
AcDbEntity
  8
0
  6
Continuous
 62
     7
370
     0
100
AcDbLine
 10
111.3091154894
 20
185.1416458382
 30
0.0
 11
136.4495650458
 21
185.1416458382
 31
0.0
  0
LINE
  5
16E
330
15D
100
AcDbEntity
  8
0
  6
Continuous
 62
     7
370
     0
100
AcDbLine
 10
135.4495650458
 20
113.1416458382
 30
0.0
 11
135.4495650458
 21
185.1416458382
 31
0.0
  0
MTEXT
  5
16F
330
15D
100
AcDbEntity
  8
0
  6
Continuous
 62
     7
370
     0
100
AcDbMText
 10
131.3768380059
 20
147.1054933706
 30
0.0
 40
3.5
 41
0.0
 71
     1
 72
     1
  1
72
  7
SLDTEXTSTYLE0
 11
6.123031769111886E-17
 21
1.0
 31
0.0
 73
     1
 44
1.0
  0
ENDBLK
  5
169
330
15D
100
AcDbEntity
  8
0
100
AcDbBlockEnd
  0
BLOCK
  5
17B
330
171
100
AcDbEntity
  8
0
100
AcDbBlockBegin
  2
*D5
 70
     1
 71
     0
 10
0.0
 20
0.0
 30
0.0
  3
*D5
  1

  0
SOLID
  5
17D
330
171
100
AcDbEntity
  8
0
  6
Continuous
 62
     7
370
     0
100
AcDbTrace
 10
88.4186492936
 20
69.0786381731
 30
0.0
 11
91.4186492936
 21
68.3286381731
 31
0.0
 12
91.4186492936
 22
69.8286381731
 32
0.0
 13
91.4186492936
 23
69.8286381731
 33
0.0
  0
SOLID
  5
17E
330
171
100
AcDbEntity
  8
0
  6
Continuous
 62
     7
370
     0
100
AcDbTrace
 10
108.4186492936
 20
69.0786381731
 30
0.0
 11
105.4186492936
 21
69.8286381731
 31
0.0
 12
105.4186492936
 22
68.3286381731
 32
0.0
 13
105.4186492936
 23
68.3286381731
 33
0.0
  0
LINE
  5
17F
330
171
100
AcDbEntity
  8
0
  6
Continuous
 62
     7
370
     0
100
AcDbLine
 10
88.4186492936
 20
87.6416458382
 30
0.0
 11
88.4186492936
 21
68.0786381731
 31
0.0
  0
LINE
  5
180
330
171
100
AcDbEntity
  8
0
  6
Continuous
 62
     7
370
     0
100
AcDbLine
 10
108.4186492936
 20
87.6416458382
 30
0.0
 11
108.4186492936
 21
68.0786381731
 31
0.0
  0
LINE
  5
181
330
171
100
AcDbEntity
  8
0
  6
Continuous
 62
     7
370
     0
100
AcDbLine
 10
88.4186492936
 20
69.0786381731
 30
0.0
 11
108.4186492936
 21
69.0786381731
 31
0.0
  0
MTEXT
  5
182
330
171
100
AcDbEntity
  8
0
  6
Continuous
 62
     7
370
     0
100
AcDbMText
 10
94.4483587678
 20
73.151365213
 30
0.0
 40
3.5
 41
0.0
 71
     1
 72
     1
  1
%%c
  7
SLDTEXTSTYLE0
 73
     1
 44
1.0
  0
MTEXT
  5
183
330
171
100
AcDbEntity
  8
0
  6
Continuous
 62
     7
370
     0
100
AcDbMText
 10
98.3166348842
 20
73.151365213
 30
0.0
 40
3.5
 41
0.0
 71
     1
 72
     1
  1
20
  7
SLDTEXTSTYLE0
 73
     1
 44
1.0
  0
ENDBLK
  5
17C
330
171
100
AcDbEntity
  8
0
100
AcDbBlockEnd
  0
BLOCK
  5
190
330
185
100
AcDbEntity
  8
0
100
AcDbBlockBegin
  2
*D6
 70
     1
 71
     0
 10
0.0
 20
0.0
 30
0.0
  3
*D6
  1

  0
SOLID
  5
193
330
185
100
AcDbEntity
  8
0
  6
Continuous
 62
     7
370
     0
100
AcDbTrace
 10
135.4495650458
 20
113.1416458382
 30
0.0
 11
136.1995650458
 21
116.1416458382
 31
0.0
 12
134.6995650458
 22
116.1416458382
 32
0.0
 13
134.6995650458
 23
116.1416458382
 33
0.0
  0
SOLID
  5
194
330
185
100
AcDbEntity
  8
0
  6
Continuous
 62
     7
370
     0
100
AcDbTrace
 10
135.4495650458
 20
108.1416458382
 30
0.0
 11
134.6995650458
 21
105.1416458382
 31
0.0
 12
136.1995650458
 22
105.1416458382
 32
0.0
 13
136.1995650458
 23
105.1416458382
 33
0.0
  0
LINE
  5
195
330
185
100
AcDbEntity
  8
0
  6
Continuous
 62
     7
370
     0
100
AcDbLine
 10
109.9186492936
 20
113.1416458382
 30
0.0
 11
136.4495650458
 21
113.1416458382
 31
0.0
  0
LINE
  5
196
330
185
100
AcDbEntity
  8
0
  6
Continuous
 62
     7
370
     0
100
AcDbLine
 10
109.9186492936
 20
108.1416458382
 30
0.0
 11
136.4495650458
 21
108.1416458382
 31
0.0
  0
LINE
  5
197
330
185
100
AcDbEntity
  8
0
  6
Continuous
 62
     7
370
     0
100
AcDbLine
 10
135.4495650458
 20
113.1416458382
 30
0.0
 11
135.4495650458
 21
118.1416458382
 31
0.0
  0
LINE
  5
198
330
185
100
AcDbEntity
  8
0
  6
Continuous
 62
     7
370
     0
100
AcDbLine
 10
135.4495650458
 20
113.1416458382
 30
0.0
 11
135.4495650458
 21
108.1416458382
 31
0.0
  0
LINE
  5
199
330
185
100
AcDbEntity
  8
0
  6
Continuous
 62
     7
370
     0
100
AcDbLine
 10
135.4495650458
 20
108.1416458382
 30
0.0
 11
135.4495650458
 21
103.1416458382
 31
0.0
  0
MTEXT
  5
19A
330
185
100
AcDbEntity
  8
0
  6
Continuous
 62
     7
370
     0
100
AcDbMText
 10
131.3768380059
 20
109.624258891
 30
0.0
 40
3.5
 41
0.0
 71
     1
 72
     1
  1
5
  7
SLDTEXTSTYLE0
 11
-7.044197039909883E-15
 21
1.0
 31
0.0
 73
     1
 44
1.0
  0
ENDBLK
  5
191
330
185
100
AcDbEntity
  8
0
100
AcDbBlockEnd
  0
BLOCK
  5
1A7
330
19C
100
AcDbEntity
  8
0
100
AcDbBlockBegin
  2
*D7
 70
     1
 71
     0
 10
0.0
 20
0.0
 30
0.0
  3
*D7
  1

  0
SOLID
  5
1A9
330
19C
100
AcDbEntity
  8
0
  6
Continuous
 62
     7
370
     0
100
AcDbTrace
 10
135.4495650458
 20
108.1416458382
 30
0.0
 11
134.6995650458
 21
105.1416458382
 31
0.0
 12
136.1995650458
 22
105.1416458382
 32
0.0
 13
136.1995650458
 23
105.1416458382
 33
0.0
  0
SOLID
  5
1AA
330
19C
100
AcDbEntity
  8
0
  6
Continuous
 62
     7
370
     0
100
AcDbTrace
 10
135.4495650458
 20
88.1416458382
 30
0.0
 11
136.1995650458
 21
91.1416458382
 31
0.0
 12
134.6995650458
 22
91.1416458382
 32
0.0
 13
134.6995650458
 23
91.1416458382
 33
0.0
  0
LINE
  5
1AB
330
19C
100
AcDbEntity
  8
0
  6
Continuous
 62
     7
370
     0
100
AcDbLine
 10
109.9186492936
 20
108.1416458382
 30
0.0
 11
136.4495650458
 21
108.1416458382
 31
0.0
  0
LINE
  5
1AC
330
19C
100
AcDbEntity
  8
0
  6
Continuous
 62
     7
370
     0
100
AcDbLine
 10
108.9186492936
 20
88.1416458382
 30
0.0
 11
136.4495650458
 21
88.1416458382
 31
0.0
  0
LINE
  5
1AD
330
19C
100
AcDbEntity
  8
0
  6
Continuous
 62
     7
370
     0
100
AcDbLine
 10
135.4495650458
 20
108.1416458382
 30
0.0
 11
135.4495650458
 21
88.1416458382
 31
0.0
  0
MTEXT
  5
1AE
330
19C
100
AcDbEntity
  8
0
  6
Continuous
 62
     7
370
     0
100
AcDbMText
 10
131.3768380059
 20
96.1054933706
 30
0.0
 40
3.5
 41
0.0
 71
     1
 72
     1
  1
20
  7
SLDTEXTSTYLE0
 11
-7.044197039909883E-15
 21
1.0
 31
0.0
 73
     1
 44
1.0
  0
ENDBLK
  5
1A8
330
19C
100
AcDbEntity
  8
0
100
AcDbBlockEnd
  0
BLOCK
  5
1BB
330
1B0
100
AcDbEntity
  8
0
100
AcDbBlockBegin
  2
*D8
 70
     1
 71
     0
 10
0.0
 20
0.0
 30
0.0
  3
*D8
  1

  0
SOLID
  5
1BD
330
1B0
100
AcDbEntity
  8
0
  6
Continuous
 62
     7
370
     0
100
AcDbTrace
 10
149.2131888814
 20
189.1416458382
 30
0.0
 11
148.4631888814
 21
186.1416458382
 31
0.0
 12
149.9631888814
 22
186.1416458382
 32
0.0
 13
149.9631888814
 23
186.1416458382
 33
0.0
  0
SOLID
  5
1BE
330
1B0
100
AcDbEntity
  8
0
  6
Continuous
 62
     7
370
     0
100
AcDbTrace
 10
149.2131888814
 20
85.1416458382
 30
0.0
 11
149.9631888814
 21
88.1416458382
 31
0.0
 12
148.4631888814
 22
88.1416458382
 32
0.0
 13
148.4631888814
 23
88.1416458382
 33
0.0
  0
LINE
  5
1BF
330
1B0
100
AcDbEntity
  8
0
  6
Continuous
 62
     7
370
     0
100
AcDbLine
 10
111.4186492936
 20
189.1416458382
 30
0.0
 11
150.2131888814
 21
189.1416458382
 31
0.0
  0
LINE
  5
1C0
330
1B0
100
AcDbEntity
  8
0
  6
Continuous
 62
     7
370
     0
100
AcDbLine
 10
104.9186492936
 20
85.1416458382
 30
0.0
 11
150.2131888814
 21
85.1416458382
 31
0.0
  0
LINE
  5
1C1
330
1B0
100
AcDbEntity
  8
0
  6
Continuous
 62
     7
370
     0
100
AcDbLine
 10
149.2131888814
 20
189.1416458382
 30
0.0
 11
149.2131888814
 21
85.1416458382
 31
0.0
  0
MTEXT
  5
1C2
330
1B0
100
AcDbEntity
  8
0
  6
Continuous
 62
     7
370
     0
100
AcDbMText
 10
145.1404618415
 20
134.0867278503
 30
0.0
 40
3.5
 41
0.0
 71
     1
 72
     1
  1
104
  7
SLDTEXTSTYLE0
 11
-7.044197039909883E-15
 21
1.0
 31
0.0
 73
     1
 44
1.0
  0
ENDBLK
  5
1BC
330
1B0
100
AcDbEntity
  8
0
100
AcDbBlockEnd
  0
BLOCK
  5
1E3
330
1D9
100
AcDbEntity
  8
0
100
AcDbBlockBegin
  2
*D9
 70
     1
 71
     0
 10
0.0
 20
0.0
 30
0.0
  3
*D9
  1

  0
SOLID
  5
1E5
330
1D9
100
AcDbEntity
  8
0
  6
Continuous
 62
     7
370
     0
100
AcDbTrace
 10
86.4186492936
 20
258.208501065
 30
0.0
 11
89.4186492936
 21
257.458501065
 31
0.0
 12
89.4186492936
 22
258.958501065
 32
0.0
 13
89.4186492936
 23
258.958501065
 33
0.0
  0
SOLID
  5
1E6
330
1D9
100
AcDbEntity
  8
0
  6
Continuous
 62
     7
370
     0
100
AcDbTrace
 10
110.4186492936
 20
258.208501065
 30
0.0
 11
107.4186492936
 21
258.958501065
 31
0.0
 12
107.4186492936
 22
257.458501065
 32
0.0
 13
107.4186492936
 23
257.458501065
 33
0.0
  0
LINE
  5
1E7
330
1D9
100
AcDbEntity
  8
0
  6
Continuous
 62
     7
370
     0
100
AcDbLine
 10
86.4186492936
 20
240.1224829467
 30
0.0
 11
86.4186492936
 21
259.208501065
 31
0.0
  0
LINE
  5
1E8
330
1D9
100
AcDbEntity
  8
0
  6
Continuous
 62
     7
370
     0
100
AcDbLine
 10
110.4186492936
 20
240.1224829467
 30
0.0
 11
110.4186492936
 21
259.208501065
 31
0.0
  0
LINE
  5
1E9
330
1D9
100
AcDbEntity
  8
0
  6
Continuous
 62
     7
370
     0
100
AcDbLine
 10
86.4186492936
 20
258.208501065
 30
0.0
 11
110.4186492936
 21
258.208501065
 31
0.0
  0
MTEXT
  5
1EA
330
1D9
100
AcDbEntity
  8
0
  6
Continuous
 62
     7
370
     0
100
AcDbMText
 10
96.382496826
 20
262.2812281049
 30
0.0
 40
3.5
 41
0.0
 71
     1
 72
     1
  1
24
  7
SLDTEXTSTYLE0
 73
     1
 44
1.0
  0
ENDBLK
  5
1E4
330
1D9
100
AcDbEntity
  8
0
100
AcDbBlockEnd
  0
BLOCK
  5
1F7
330
1EC
100
AcDbEntity
  8
0
100
AcDbBlockBegin
  2
*D10
 70
     1
 71
     0
 10
0.0
 20
0.0
 30
0.0
  3
*D10
  1

  0
ARC
  5
1F9
330
1EC
100
AcDbEntity
  8
0
  6
Continuous
 62
     7
370
     0
100
AcDbCircle
 10
67.5408932258
 20
230.6067797164
 30
0.0
 40
4.552975330053719
100
AcDbArc
 50
243.4349488229
 51
296.5650511771
  0
ARC
  5
1FA
330
1EC
100
AcDbEntity
  8
0
  6
Continuous
 62
     7
370
     0
100
AcDbCircle
 10
67.5408932258
 20
233.7817797164
 30
0.0
 40
4.552975330053738
100
AcDbArc
 50
63.4349488229
 51
116.5650511771
  0
SOLID
  5
1FB
330
1EC
100
AcDbEntity
  8
0
  6
Continuous
 62
     7
370
     0
100
AcDbTrace
 10
69.5770456933
 20
246.050686177
 30
0.0
 11
68.8270456933
 21
243.050686177
 31
0.0
 12
70.3270456933
 22
243.050686177
 32
0.0
 13
70.3270456933
 23
243.050686177
 33
0.0
  0
SOLID
  5
1FC
330
1EC
100
AcDbEntity
  8
0
  6
Continuous
 62
     7
370
     0
100
AcDbTrace
 10
69.5770456933
 20
218.3378732559
 30
0.0
 11
70.3270456933
 21
221.3378732559
 31
0.0
 12
68.8270456933
 22
221.3378732559
 32
0.0
 13
68.8270456933
 23
221.3378732559
 33
0.0
  0
LINE
  5
1FD
330
1EC
100
AcDbEntity
  8
0
  6
Continuous
 62
     7
370
     0
100
AcDbLine
 10
97.4186492936
 20
246.050686177
 30
0.0
 11
68.5770456933
 21
246.050686177
 31
0.0
  0
LINE
  5
1FE
330
1EC
100
AcDbEntity
  8
0
  6
Continuous
 62
     7
370
     0
100
AcDbLine
 10
97.4186492936
 20
218.3378732559
 30
0.0
 11
68.5770456933
 21
218.3378732559
 31
0.0
  0
LINE
  5
1FF
330
1EC
100
AcDbEntity
  8
0
  6
Continuous
 62
     7
370
     0
100
AcDbLine
 10
69.5770456933
 20
246.050686177
 30
0.0
 11
69.5770456933
 21
218.3378732559
 31
0.0
  0
MTEXT
  5
200
330
1EC
100
AcDbEntity
  8
0
  6
Continuous
 62
     7
370
     0
100
AcDbMText
 10
65.5043186534
 20
228.1219747813
 30
0.0
 40
3.5
 41
0.0
 71
     1
 72
     1
  1
27.7
  7
SLDTEXTSTYLE0
 11
-7.044197039909883E-15
 21
1.0
 31
0.0
 73
     1
 44
1.0
  0
ENDBLK
  5
1F8
330
1EC
100
AcDbEntity
  8
0
100
AcDbBlockEnd
  0
BLOCK
  5
204
330
203
100
AcDbEntity
  8
0
100
AcDbBlockBegin
  2
_Open30
 70
     0
 71
     0
 10
0.0
 20
0.0
 30
0.0
  3
_Open30
  1

  0
LINE
  5
206
330
203
100
AcDbEntity
  8
0
  6
ByBlock
 62
     0
370
    -2
100
AcDbLine
 10
-1.0
 20
0.267949
 30
0.0
 11
0.0
 21
0.0
 31
0.0
  0
LINE
  5
207
330
203
100
AcDbEntity
  8
0
  6
ByBlock
 62
     0
370
    -2
100
AcDbLine
 10
0.0
 20
0.0
 30
0.0
 11
-1.0
 21
-0.267949
 31
0.0
  0
LINE
  5
208
330
203
100
AcDbEntity
  8
0
  6
ByBlock
 62
     0
370
    -2
100
AcDbLine
 10
0.0
 20
0.0
 30
0.0
 11
-1.0
 21
0.0
 31
0.0
  0
ENDBLK
  5
205
330
203
100
AcDbEntity
  8
0
100
AcDbBlockEnd
  0
BLOCK
  5
20B
330
20A
100
AcDbEntity
  8
0
100
AcDbBlockBegin
  2
SW_CENTERMARKSYMBOL_0
 70
     0
 71
     0
 10
0.0
 20
0.0
 30
0.0
  3
SW_CENTERMARKSYMBOL_0
  1

  0
LINE
  5
20D
330
20A
100
AcDbEntity
  8
0
  6
Continuous
 62
     7
370
     0
100
AcDbLine
 10
0.0
 20
0.0
 30
0.0
 11
0.0
 21
2.5
 31
0.0
  0
LINE
  5
20E
330
20A
100
AcDbEntity
  8
0
  6
Continuous
 62
     7
370
     0
100
AcDbLine
 10
0.0
 20
0.0
 30
0.0
 11
-2.5
 21
0.0
 31
0.0
  0
LINE
  5
20F
330
20A
100
AcDbEntity
  8
0
  6
Continuous
 62
     7
370
     0
100
AcDbLine
 10
0.0
 20
0.0
 30
0.0
 11
0.0
 21
-2.5
 31
0.0
  0
LINE
  5
210
330
20A
100
AcDbEntity
  8
0
  6
Continuous
 62
     7
370
     0
100
AcDbLine
 10
0.0
 20
0.0
 30
0.0
 11
2.5
 21
0.0
 31
0.0
  0
LINE
  5
211
330
20A
100
AcDbEntity
  8
0
  6
Continuous
 62
     7
370
     0
100
AcDbLine
 10
0.0
 20
5.0
 30
0.0
 11
0.0
 21
17.3825208716
 31
0.0
  0
LINE
  5
212
330
20A
100
AcDbEntity
  8
0
  6
Continuous
 62
     7
370
     0
100
AcDbLine
 10
-5.0
 20
0.0
 30
0.0
 11
-17.464467441
 21
0.0
 31
0.0
  0
LINE
  5
213
330
20A
100
AcDbEntity
  8
0
  6
Continuous
 62
     7
370
     0
100
AcDbLine
 10
0.0
 20
-5.0
 30
0.0
 11
0.0
 21
-15.9433487962
 31
0.0
  0
LINE
  5
214
330
20A
100
AcDbEntity
  8
0
  6
Continuous
 62
     7
370
     0
100
AcDbLine
 10
5.0
 20
0.0
 30
0.0
 11
15.5611691667
 21
0.0
 31
0.0
  0
ENDBLK
  5
20C
330
20A
100
AcDbEntity
  8
0
100
AcDbBlockEnd
  0
ENDSEC
  0
SECTION
  2
ENTITIES
  0
LINE
  5
2F
330
1F
100
AcDbEntity
  8
0
  6
Continuous
 62
     7
370
     0
100
AcDbLine
 10
20.2604743903
 20
285.0
 30
0.0
 11
196.7604743903
 21
285.0
 31
0.0
  0
LINE
  5
30
330
1F
100
AcDbEntity
  8
0
  6
Continuous
 62
     7
370
     0
100
AcDbLine
 10
20.2604743903
 20
285.0
 30
0.0
 11
20.2604743903
 21
10.0
 31
0.0
  0
LINE
  5
31
330
1F
100
AcDbEntity
  8
0
  6
Continuous
 62
     7
370
     0
100
AcDbLine
 10
20.2604743903
 20
10.0
 30
0.0
 11
196.7604743903
 21
10.0
 31
0.0
  0
LINE
  5
32
330
1F
100
AcDbEntity
  8
0
  6
Continuous
 62
     7
370
     0
100
AcDbLine
 10
196.7604743903
 20
285.0
 30
0.0
 11
196.7604743903
 21
10.0
 31
0.0
  0
LINE
  5
33
330
1F
100
AcDbEntity
  8
0
  6
Continuous
 62
     7
370
     0
100
AcDbLine
 10
127.0104743903
 20
50.75
 30
0.0
 11
196.7604743903
 21
50.75
 31
0.0
  0
LINE
  5
34
330
1F
100
AcDbEntity
  8
0
  6
Continuous
 62
     7
370
     0
100
AcDbLine
 10
127.0104743903
 20
50.75
 30
0.0
 11
127.0104743903
 21
10.0
 31
0.0
  0
LINE
  5
35
330
1F
100
AcDbEntity
  8
0
  6
Continuous
 62
     7
370
     0
100
AcDbLine
 10
127.0104743903
 20
22.75
 30
0.0
 11
196.7604743903
 21
22.75
 31
0.0
  0
LINE
  5
36
330
1F
100
AcDbEntity
  8
0
  6
Continuous
 62
     7
370
     0
100
AcDbLine
 10
127.0104743903
 20
36.75
 30
0.0
 11
196.7604743903
 21
36.75
 31
0.0
  0
MTEXT
  5
38
330
1F
100
AcDbEntity
  8
0
  6
Continuous
 62
     7
370
     0
100
AcDbMText
 10
145.0404326081
 20
43.4099788511
 30
0.0
 40
4.2333333333
 41
0.0
 71
     1
 72
     1
  1
吸着金具ラージ
  7
SLDTEXTSTYLE0
 73
     1
 44
1.0
  0
MTEXT
  5
39
330
1F
100
AcDbEntity
  8
0
  6
Continuous
 62
     7
370
     0
100
AcDbMText
 10
155.4436044984
 20
16.2918259049
 30
0.0
 40
4.2333333333
 41
0.0
 71
     1
 72
     1
  1
210887
  7
SLDTEXTSTYLE0
 73
     1
 44
1.0
  0
MTEXT
  5
3A
330
1F
100
AcDbEntity
  8
0
  6
Continuous
 62
     7
370
     0
100
AcDbMText
 10
147.0467564184
 20
29.8861652342
 30
0.0
 40
4.2333333333
 41
0.0
 71
     1
 72
     1
  1
VFI-L-50-P20
  7
SLDTEXTSTYLE0
 73
     1
 44
1.0
  0
LINE
  5
3B
330
1F
100
AcDbEntity
  8
0
  6
Continuous
 62
     7
370
    30
100
AcDbLine
 10
90.6686492936
 20
88.1416458382
 30
0.0
 11
90.6686492936
 21
87.1416458382
 31
0.0
  0
LINE
  5
3C
330
1F
100
AcDbEntity
  8
0
  6
Continuous
 62
     7
370
    30
100
AcDbLine
 10
106.1686492936
 20
87.1416458382
 30
0.0
 11
106.1686492936
 21
88.1416458382
 31
0.0
  0
LINE
  5
3D
330
1F
100
AcDbEntity
  8
0
  6
Continuous
 62
     7
370
    30
100
AcDbLine
 10
87.4186492936
 20
108.6416458382
 30
0.0
 11
87.9186492936
 21
108.1416458382
 31
0.0
  0
LINE
  5
3E
330
1F
100
AcDbEntity
  8
0
  6
Continuous
 62
     7
370
    30
100
AcDbLine
 10
108.9186492936
 20
108.1416458382
 30
0.0
 11
109.4186492936
 21
108.6416458382
 31
0.0
  0
LINE
  5
3F
330
1F
100
AcDbEntity
  8
0
  6
Continuous
 62
     7
370
    30
100
AcDbLine
 10
109.4186492936
 20
112.6416458382
 30
0.0
 11
108.9186492936
 21
113.1416458382
 31
0.0
  0
LINE
  5
40
330
1F
100
AcDbEntity
  8
0
  6
Continuous
 62
     7
370
    30
100
AcDbLine
 10
87.9186492936
 20
113.1416458382
 30
0.0
 11
87.4186492936
 21
112.6416458382
 31
0.0
  0
LINE
  5
41
330
1F
100
AcDbEntity
  8
0
  6
Continuous
 62
     7
370
    30
100
AcDbLine
 10
87.4186492936
 20
112.6416458382
 30
0.0
 11
87.4186492936
 21
108.6416458382
 31
0.0
  0
LINE
  5
42
330
1F
100
AcDbEntity
  8
0
  6
Continuous
 62
     7
370
    30
100
AcDbLine
 10
109.4186492936
 20
108.6416458382
 30
0.0
 11
109.4186492936
 21
112.6416458382
 31
0.0
  0
LINE
  5
43
330
1F
100
AcDbEntity
  8
0
  6
Continuous
 62
     7
370
    30
100
AcDbLine
 10
88.4186492936
 20
88.6416458382
 30
0.0
 11
88.9186492936
 21
88.1416458382
 31
0.0
  0
LINE
  5
44
330
1F
100
AcDbEntity
  8
0
  6
Continuous
 62
     7
370
    30
100
AcDbLine
 10
107.9186492936
 20
88.1416458382
 30
0.0
 11
108.4186492936
 21
88.6416458382
 31
0.0
  0
LINE
  5
45
330
1F
100
AcDbEntity
  8
0
  6
Continuous
 62
     7
370
    30
100
AcDbLine
 10
88.4186492936
 20
108.1416458382
 30
0.0
 11
88.4186492936
 21
88.6416458382
 31
0.0
  0
LINE
  5
46
330
1F
100
AcDbEntity
  8
0
  6
Continuous
 62
     7
370
    30
100
AcDbLine
 10
108.4186492936
 20
88.6416458382
 30
0.0
 11
108.4186492936
 21
108.1416458382
 31
0.0
  0
LINE
  5
47
330
1F
100
AcDbEntity
  8
0
  6
Continuous
 62
     7
370
    30
100
AcDbLine
 10
89.9186492936
 20
119.6416458382
 30
0.0
 11
89.9186492936
 21
118.436366423
 31
0.0
  0
LINE
  5
48
330
1F
100
AcDbEntity
  8
0
  6
Continuous
 62
     7
370
    30
100
AcDbLine
 10
89.9186492936
 20
117.0029217771
 30
0.0
 11
89.9186492936
 21
114.5226115245
 31
0.0
  0
LINE
  5
49
330
1F
100
AcDbEntity
  8
0
  6
Continuous
 62
     7
370
    30
100
AcDbLine
 10
106.9186492936
 20
113.1416458382
 30
0.0
 11
106.9186492936
 21
113.802780598
 31
0.0
  0
LINE
  5
4A
330
1F
100
AcDbEntity
  8
0
  6
Continuous
 62
     7
370
    30
100
AcDbLine
 10
106.9186492936
 20
115.2033930058
 30
0.0
 11
106.9186492936
 21
119.6416458382
 31
0.0
  0
LINE
  5
4B
330
1F
100
AcDbEntity
  8
0
  6
Continuous
 62
     7
370
    30
100
AcDbLine
 10
90.4186492936
 20
120.1416458382
 30
0.0
 11
89.9186492936
 21
119.6416458382
 31
0.0
  0
LWPOLYLINE
  5
4C
330
1F
100
AcDbEntity
  8
0
  6
Continuous
 62
     7
370
    30
100
AcDbPolyline
 90
       40
 70
   128
 43
0.0
 10
89.2963780684
 20
116.7737285843
 10
89.30508283
 20
116.7775422928
 10
89.40051261
 20
116.8254787733
 10
89.6209171152
 20
116.911789858
 10
89.9841470393
 20
117.0229697789
 10
90.6780134806
 20
117.1868137932
 10
91.4844001079
 20
117.3375759498
 10
92.3785308147
 20
117.4869947303
 10
93.3240133101
 20
117.6336732738
 10
94.2944334708
 20
117.7748711709
 10
95.2610690568
 20
117.9077733142
 10
96.5010631769
 20
118.0685124943
 10
97.6723705338
 20
118.2112798818
 10
98.9810202028
 20
118.3686936115
 10
100.0883452177
 20
118.5073196746
 10
101.2801423849
 20
118.662315007
 10
102.4420395707
 20
118.8197184756
 10
103.4635297068
 20
118.9639825367
 10
104.3407468656
 20
119.0931395518
 10
105.0861212755
 20
119.2082274395
 10
105.8271418588
 20
119.3367254626
 10
106.5801650509
 20
119.4901973113
 10
107.2930077505
 20
119.6695049608
 10
107.8195061215
 20
119.8416152739
 10
108.1592834053
 20
119.9907494469
 10
108.3755559796
 20
120.119786129
 10
108.5373757929
 20
120.2532530069
 10
108.7298139922
 20
120.5150555495
 10
108.8013348098
 20
120.7215534081
 10
108.813942954
 20
120.9773700146
 10
108.7370410506
 20
121.2498477397
 10
108.5697890893
 20
121.4948060981
 10
108.1725285786
 20
121.7896181508
 10
107.7824311561
 20
121.9618044983
 10
107.3451254598
 20
122.104818011
 10
106.8715775609
 20
122.2291187765
 10
106.3007324402
 20
122.3539164391
 10
105.5726601601
 20
122.4880790668
 10
104.6435883521
 20
122.6423095838
 10
104.4186492936
 20
122.676785325
  0
ARC
  5
4D
330
1F
100
AcDbEntity
  8
0
  6
Continuous
 62
     7
370
    30
100
AcDbCircle
 10
95.4919117144
 20
146.6226485404
 30
0.0
 40
22.54312039050733
100
AcDbArc
 50
256.8481452076
 51
262.1645712813
  0
LWPOLYLINE
  5
4E
330
1F
100
AcDbEntity
  8
0
  6
Continuous
 62
     7
370
    30
100
AcDbPolyline
 90
       40
 70
   128
 43
0.0
 10
89.2947224406
 20
124.3280151929
 10
89.2998567771
 20
124.3298389362
 10
89.3825550369
 20
124.373033282
 10
89.5779131696
 20
124.452365261
 10
89.9309671816
 20
124.5637495361
 10
90.4793785048
 20
124.6997887615
 10
91.2403086972
 20
124.8501826356
 10
92.2568519223
 20
125.0229478373
 10
93.0993716294
 20
125.1552832556
 10
94.0745442104
 20
125.2991652623
 10
95.074602153
 20
125.4382407968
 10
96.4100832745
 20
125.6126201195
 10
97.4883286434
 20
125.744960237
 10
98.0523450992
 20
125.8118418959
 10
98.5767528846
 20
125.8748868663
 10
99.2022834751
 20
125.9515471093
 10
100.3300842343
 20
126.0938161674
 10
101.659498237
 20
126.2685408775
 10
103.0913814114
 20
126.4662841552
 10
104.3367303564
 20
126.6481653981
 10
105.3597432205
 20
126.8093296794
 10
106.2041325377
 20
126.9658687934
 10
107.0700693677
 20
127.1641539816
 10
107.6793376666
 20
127.346012358
 10
108.1000035068
 20
127.5165572754
 10
108.3272347207
 20
127.6428628059
 10
108.5013368087
 20
127.7746007309
 10
108.5966570652
 20
127.8712527245
 10
108.7145041889
 20
128.040330248
 10
108.8065040526
 20
128.3038084653
 10
108.808396473
 20
128.5748973606
 10
108.6464671528
 20
128.9571006771
 10
108.3819509398
 20
129.2138880749
 10
108.0208046146
 20
129.4181943214
 10
107.5352039041
 20
129.6014581796
 10
106.9317581374
 20
129.7694813839
 10
106.2516285493
 20
129.9190945367
 10
105.5183518458
 20
130.0530352066
 10
104.7292915134
 20
130.1841580285
 10
104.4186492936
 20
130.2325084313
  0
ARC
  5
4F
330
1F
100
AcDbEntity
  8
0
  6
Continuous
 62
     7
370
    30
100
AcDbCircle
 10
95.3383323374
 20
153.2919360619
 30
0.0
 40
21.64480805714539
100
AcDbArc
 50
256.7215291268
 51
262.2477010626
  0
LWPOLYLINE
  5
50
330
1F
100
AcDbEntity
  8
0
  6
Continuous
 62
     7
370
    30
100
AcDbPolyline
 90
       39
 70
   128
 43
0.0
 10
89.2968962755
 20
131.8858014934
 10
89.2968627582
 20
131.8834942343
 10
89.3968648441
 20
131.9352290398
 10
89.6587290531
 20
132.0360032596
 10
90.1583328763
 20
132.1794331403
 10
90.8175498742
 20
132.3259983456
 10
91.5214193071
 20
132.4550341031
 10
92.2426019801
 20
132.5761424955
 10
93.0624161227
 20
132.7052014118
 10
94.024110853
 20
132.8474966439
 10
95.1237546256
 20
133.0004354933
 10
96.3155884515
 20
133.156229123
 10
97.4425571245
 20
133.2950435265
 10
98.4759941228
 20
133.418242467
 10
99.426416509
 20
133.5349580337
 10
100.6152298846
 20
133.6861895621
 10
101.8660492783
 20
133.8519710385
 10
103.1446163027
 20
134.0293958312
 10
104.0883597712
 20
134.166528149
 10
105.0102471367
 20
134.3072080385
 10
105.9239470796
 20
134.4662615516
 10
106.7938655341
 20
134.6509681475
 10
107.5585818417
 20
134.8612790453
 10
108.0971302958
 20
135.0705048663
 10
108.4229076417
 20
135.2653228137
 10
108.6887781233
 20
135.5517287189
 10
108.7959484468
 20
135.808005271
 10
108.8155490107
 20
136.0715453512
 10
108.7769153017
 20
136.2612398395
 10
108.7293078381
 20
136.377869276
 10
108.5896279233
 20
136.5843409085
 10
108.3380442701
 20
136.7991238969
 10
107.9340709783
 20
137.0109997929
 10
107.4795178748
 20
137.1752550111
 10
107.0331807785
 20
137.3004523575
 10
106.6028849478
 20
137.4017741226
 10
106.0343506281
 20
137.5167557272
 10
105.2625711495
 20
137.6521310432
 10
104.4186492936
 20
137.7880365781
  0
ARC
  5
51
330
1F
100
AcDbEntity
  8
0
  6
Continuous
 62
     7
370
    30
100
AcDbCircle
 10
96.0565963104
 20
164.8434891897
 30
0.0
 40
25.70159498474388
100
AcDbArc
 50
257.2000288353
 51
261.8627081661
  0
LWPOLYLINE
  5
52
330
1F
100
AcDbEntity
  8
0
  6
Continuous
 62
     7
370
    30
100
AcDbPolyline
 90
       38
 70
   128
 43
0.0
 10
89.3428379096
 20
139.4778304693
 10
89.3588575723
 20
139.4747082815
 10
89.5760720029
 20
139.5622925837
 10
90.0108713823
 20
139.6962320818
 10
90.5611288795
 20
139.8282616713
 10
91.1677671699
 20
139.9478970067
 10
91.8266983751
 20
140.0628527278
 10
92.623132129
 20
140.192603887
 10
93.5712992173
 20
140.3371481731
 10
94.6696099488
 20
140.4939769865
 10
95.8237802656
 20
140.6486665967
 10
96.9104749599
 20
140.7860464544
 10
97.9036048694
 20
140.9052746431
 10
98.8098868837
 20
141.0143834864
 10
99.7271454736
 20
141.1282118291
 10
100.7329510747
 20
141.2570456777
 10
101.8074712801
 20
141.3995984831
 10
102.921029197
 20
141.5532812868
 10
104.0273706576
 20
141.713044078
 10
105.0174023309
 20
141.8639079295
 10
105.8887401195
 20
142.015024859
 10
106.8648479899
 20
142.2231788984
 10
107.6230162549
 20
142.4374451866
 10
108.2414530447
 20
142.7026169484
 10
108.4852101487
 20
142.8726147034
 10
108.6550156484
 20
143.0566525816
 10
108.7639381102
 20
143.2590019841
 10
108.817953327
 20
143.5896316798
 10
108.7437163543
 20
143.902758211
 10
108.6311141033
 20
144.0902019982
 10
108.4527043692
 20
144.2719544721
 10
108.1905771001
 20
144.4457109095
 10
107.7252150569
 20
144.6493643692
 10
107.2208373673
 20
144.8064642786
 10
106.624049643
 20
144.9525626061
 10
105.8982011658
 20
145.0973239155
 10
105.0286407348
 20
145.246585287
 10
104.4186492936
 20
145.343063377
  0
ARC
  5
53
330
1F
100
AcDbEntity
  8
0
  6
Continuous
 62
     7
370
    30
100
AcDbCircle
 10
95.3119502111
 20
168.2461179047
 30
0.0
 40
21.4858937965552
100
AcDbArc
 50
256.6810425013
 51
262.2610120509
  0
LWPOLYLINE
  5
54
330
1F
100
AcDbEntity
  8
0
  6
Continuous
 62
     7
370
    30
100
AcDbPolyline
 90
       38
 70
   128
 43
0.0
 10
89.3621471932
 20
147.0497938612
 10
89.3793668292
 20
147.0382054133
 10
89.6294290917
 20
147.1362173669
 10
89.9929157792
 20
147.246724442
 10
90.4241838106
 20
147.3534776942
 10
90.9053789539
 20
147.4542915988
 10
91.5178684882
 20
147.5655514652
 10
92.3263149573
 20
147.7008098908
 10
93.361292086
 20
147.8614812314
 10
94.6365384537
 20
148.0449502913
 10
96.0420701059
 20
148.2324354692
 10
97.2978300084
 20
148.3887693688
 10
98.3619783122
 20
148.5155983154
 10
99.2435953399
 20
148.6233326233
 10
99.9565561837
 20
148.7127776566
 10
100.8068302063
 20
148.8222362402
 10
101.8637485577
 20
148.9627690696
 10
103.0844193201
 20
149.1319518918
 10
104.3322594288
 20
149.3140941033
 10
105.3428403775
 20
149.472944824
 10
106.1471010757
 20
149.6207307619
 10
106.7665107336
 20
149.7550235827
 10
107.2681907007
 20
149.8841054188
 10
107.8016857822
 20
150.0575444201
 10
108.1489721705
 20
150.2105660021
 10
108.4044901335
 20
150.3664885514
 10
108.5690708358
 20
150.5093851822
 10
108.7051559937
 20
150.6900285616
 10
108.7859383573
 20
150.8802976828
 10
108.8136938522
 20
151.2013477701
 10
108.669752739
 20
151.5917807914
 10
108.4273773135
 20
151.848673066
 10
108.1066073757
 20
152.045534059
 10
107.5905854867
 20
152.2506032437
 10
106.858410787
 20
152.4538917185
 10
106.0211384693
 20
152.6300829846
 10
105.1180197476
 20
152.7873584741
 10
104.4186492936
 20
152.8990572946
  0
ARC
  5
55
330
1F
100
AcDbEntity
  8
0
  6
Continuous
 62
     7
370
    30
100
AcDbCircle
 10
95.8503031285
 20
178.6426299533
 30
0.0
 40
24.37381492013799
100
AcDbArc
 50
256.9960798409
 51
261.9062843046
  0
LWPOLYLINE
  5
56
330
1F
100
AcDbEntity
  8
0
  6
Continuous
 62
     7
370
    30
100
AcDbPolyline
 90
       36
 70
   128
 43
0.0
 10
89.3452303903
 20
154.5911173796
 10
89.5024563294
 20
154.6465554485
 10
89.9201372454
 20
154.7830000048
 10
90.4768328469
 20
154.9215281886
 10
91.1162863702
 20
155.0499500186
 10
91.8126798185
 20
155.1716393588
 10
92.553092643
 20
155.2926346784
 10
93.3176076146
 20
155.4104906873
 10
94.9550337539
 20
155.6442411505
 10
96.0910400382
 20
155.7942754716
 10
97.2450722845
 20
155.9379537253
 10
98.5194236556
 20
156.0901625439
 10
99.5833665601
 20
156.2212530821
 10
100.7249011724
 20
156.3671111849
 10
101.8618137454
 20
156.5180686997
 10
102.9186636066
 20
156.6640622079
 10
103.8799396752
 20
156.8023937204
 10
104.7365081795
 20
156.9311088183
 10
105.5164045531
 20
157.0583881607
 10
106.2613915691
 20
157.1996174486
 10
107.1609365471
 20
157.4108105297
 10
107.8925691823
 20
157.6487183492
 10
108.3906538501
 20
157.9109458446
 10
108.6466329434
 20
158.1579303866
 10
108.8062343942
 20
158.5238573884
 10
108.8090922358
 20
158.791956945
 10
108.720171503
 20
159.0621178248
 10
108.5998933284
 20
159.2400251548
 10
108.499195461
 20
159.343824865
 10
108.246038604
 20
159.5261146651
 10
107.8821525721
 20
159.7005357916
 10
107.3561431721
 20
159.8788158516
 10
106.8204718816
 20
160.0185106611
 10
106.1405433077
 20
160.162859963
 10
105.2991112708
 20
160.312489966
 10
104.4186492936
 20
160.4547601428
  0
ARC
  5
57
330
1F
100
AcDbEntity
  8
0
  6
Continuous
 62
     7
370
    30
100
AcDbCircle
 10
95.4656045173
 20
184.2578935672
 30
0.0
 40
22.39892651118982
100
AcDbArc
 50
256.8313175522
 51
262.1817404705
  0
LWPOLYLINE
  5
58
330
1F
100
AcDbEntity
  8
0
  6
Continuous
 62
     7
370
    30
100
AcDbPolyline
 90
       37
 70
   128
 43
0.0
 10
89.3357304986
 20
162.1398421259
 10
89.3986594146
 20
162.1612294253
 10
89.6831262273
 20
162.2673555924
 10
90.1676526155
 20
162.4044874765
 10
90.7749259166
 20
162.5398888645
 10
91.4683708094
 20
162.6680686473
 10
92.2397980339
 20
162.7979052437
 10
93.1087409416
 20
162.9344768732
 10
94.0822568539
 20
163.0780447646
 10
95.145849373
 20
163.2256345435
 10
96.279042047
 20
163.3738154887
 10
97.39682505
 20
163.5117855577
 10
98.7721276683
 20
163.6764378028
 10
100.0241093651
 20
163.8324732465
 10
101.1791392031
 20
163.9822699649
 10
102.8664435904
 20
164.2122608589
 10
104.427520716
 20
164.4395621244
 10
105.1805995806
 20
164.5570222106
 10
105.9324249161
 20
164.6900901781
 10
106.6574482699
 20
164.8412825618
 10
107.3197591519
 20
165.0105984617
 10
107.8881218104
 20
165.2014726423
 10
108.3929980529
 20
165.4686056432
 10
108.610769236
 20
165.6692851213
 10
108.7692258718
 20
165.9402703282
 10
108.8185674257
 20
166.230965668
 10
108.7760830238
 20
166.4853209971
 10
108.5773871918
 20
166.8211187502
 10
108.3934140603
 20
166.9856867249
 10
108.1631829944
 20
167.1277865636
 10
107.7780300058
 20
167.2961699234
 10
107.3921850276
 20
167.4236761395
 10
106.8945123133
 20
167.5565329199
 10
106.3726077372
 20
167.6725787603
 10
105.6086951776
 20
167.8152327145
 10
104.898285881
 20
167.9345978133
 10
104.4186492936
 20
168.0105185526
  0
ARC
  5
59
330
1F
100
AcDbEntity
  8
0
  6
Continuous
 62
     7
370
    30
100
AcDbCircle
 10
95.3862543385
 20
191.2085307633
 30
0.0
 40
21.78860384427368
100
AcDbArc
 50
256.6877677793
 51
262.1719916365
  0
LWPOLYLINE
  5
5A
330
1F
100
AcDbEntity
  8
0
  6
Continuous
 62
     7
370
    30
100
AcDbPolyline
 90
       36
 70
   128
 43
0.0
 10
89.3262718591
 20
169.692992675
 10
89.3317823641
 20
169.6915583877
 10
89.3818809629
 20
169.7117596589
 10
89.5441692613
 20
169.7742881672
 10
89.7818856443
 20
169.8526370705
 10
90.0547248849
 20
169.9299099019
 10
90.5166363873
 20
170.0407582797
 10
91.1484403556
 20
170.1666497939
 10
91.9971681463
 20
170.3136037931
 10
93.1147042741
 20
170.4909398878
 10
94.3988859441
 20
170.6784708699
 10
95.5566725871
 20
170.8359279496
 10
96.5193543067
 20
170.959696754
 10
97.2593264826
 20
171.0507876559
 10
98.0186566172
 20
171.141163368
 10
98.9855455488
 20
171.2581394109
 10
100.1596218447
 20
171.4053061541
 10
101.5136172682
 20
171.582307249
 10
102.9110647863
 20
171.7740992926
 10
104.0818574143
 20
171.9433483008
 10
105.2887876748
 20
172.1305136849
 10
106.1793276525
 20
172.293878272
 10
106.8733641871
 20
172.4473612869
 10
107.366248161
 20
172.5790636886
 10
107.8137320755
 20
172.7274337057
 10
108.2450162339
 20
172.9266852815
 10
108.6620953056
 20
173.2923076003
 10
108.7765528971
 20
173.5181517365
 10
108.8165479982
 20
173.7191316302
 10
108.8117090181
 20
173.8852689512
 10
108.7752385221
 20
174.0437467206
 10
108.6149845224
 20
174.3315053792
 10
108.352754528
 20
174.5687549278
 10
107.8455119373
 20
174.8262930092
 10
107.095135793
 20
175.0621058531
 10
106.9186492936
 20
175.1018571232
  0
LWPOLYLINE
  5
5B
330
1F
100
AcDbEntity
  8
0
  6
Continuous
 62
     7
370
    30
100
AcDbPolyline
 90
       38
 70
   128
 43
0.0
 10
89.312507161
 20
177.2320170333
 10
89.3469024391
 20
177.2459216169
 10
89.4799721063
 20
177.3035347222
 10
89.6949002205
 20
177.3804444079
 10
90.144905119
 20
177.5089779618
 10
90.742506039
 20
177.6442016305
 10
91.487078395
 20
177.7824355102
 10
92.4028826243
 20
177.9353501993
 10
93.4909061128
 20
178.1030171973
 10
94.6349469877
 20
178.2669515128
 10
95.7458004919
 20
178.4162872627
 10
96.7858436685
 20
178.5484507737
 10
97.7304402483
 20
178.6625840955
 10
98.6147065582
 20
178.768381813
 10
99.5912054858
 20
178.8889026879
 10
100.6636706439
 20
179.025811363
 10
101.8086702951
 20
179.1775404237
 10
102.9571011352
 20
179.3361507893
 10
103.9646179883
 20
179.4815357464
 10
104.8200305402
 20
179.6106499295
 10
105.5451678189
 20
179.7300848792
 10
106.2100042765
 20
179.855643231
 10
107.073384572
 20
180.0535876149
 10
107.8208974434
 20
180.2861491874
 10
108.3391451678
 20
180.5410557555
 10
108.6140920475
 20
180.7835947878
 10
108.7757434172
 20
181.0707669222
 10
108.8110335818
 20
181.2217645785
 10
108.8177364262
 20
181.3723311881
 10
108.7882054183
 20
181.5563872226
 10
108.6907557692
 20
181.778406534
 10
108.4323147491
 20
182.0647291675
 10
108.1638898644
 20
182.2385649558
 10
107.9519185994
 20
182.3390445359
 10
107.7522214226
 20
182.417372664
 10
107.4457003298
 20
182.5188103284
 10
106.9946914313
 20
182.6424025023
 10
106.9186492936
 20
182.6595000611
  0
LWPOLYLINE
  5
5C
330
1F
100
AcDbEntity
  8
0
  6
Continuous
 62
     7
370
    30
100
AcDbPolyline
 90
       35
 70
   128
 43
0.0
 10
107.5169552335
 20
181.6549058559
 10
107.5166276361
 20
181.6588807053
 10
107.4586079764
 20
181.6364290174
 10
107.3179868866
 20
181.5807358817
 10
107.0982356992
 20
181.5054235423
 10
106.6374796685
 20
181.3757717813
 10
106.0209343786
 20
181.235209604
 10
105.2444069401
 20
181.0885253856
 10
104.3107186609
 20
180.9389774219
 10
103.2105174105
 20
180.7756376232
 10
102.1342435681
 20
180.6237461556
 10
100.8948615298
 20
180.4567529351
 10
99.9281040035
 20
180.3316619056
 10
98.7850618668
 20
180.1891428091
 10
97.7084770099
 20
180.0600433177
 10
96.4429427258
 20
179.9061069804
 10
95.0113074302
 20
179.7201304183
 10
93.6983406194
 20
179.5370974979
 10
92.609314875
 20
179.374317344
 10
91.7367913263
 20
179.2347269418
 10
91.0579779355
 20
179.1186525958
 10
90.5015763341
 20
179.0136060954
 10
89.7312275009
 20
178.8371229608
 10
88.9996304817
 20
178.6074523017
 10
88.4265471588
 20
178.3039737459
 10
88.1361193233
 20
177.9829643791
 10
88.0303301696
 20
177.694619606
 10
88.0186624997
 20
177.5541563642
 10
88.0308797081
 20
177.4145327586
 10
88.0847250461
 20
177.2330329778
 10
88.3036164332
 20
176.9194940643
 10
88.6773695401
 20
176.6576314479
 10
89.1389098679
 20
176.4633483452
 10
89.6859956181
 20
176.2964154371
 10
89.9186492936
 20
176.2410917242
  0
LWPOLYLINE
  5
5D
330
1F
100
AcDbEntity
  8
0
  6
Continuous
 62
     7
370
    30
100
AcDbPolyline
 90
       38
 70
   128
 43
0.0
 10
107.5432230298
 20
174.1230559463
 10
107.4333682073
 20
174.0722427301
 10
107.0726683834
 20
173.9414245881
 10
106.4972146491
 20
173.7852679491
 10
105.7805664304
 20
173.6311651599
 10
104.9616036202
 20
173.4853399358
 10
104.0669751231
 20
173.3464196251
 10
103.1023912627
 20
173.20449866
 10
102.1135143554
 20
173.06533209
 10
101.1314903013
 20
172.9324848832
 10
100.181221213
 20
172.8084448605
 10
99.2819737705
 20
172.6948463006
 10
98.3705762352
 20
172.5833004122
 10
97.3757688162
 20
172.4649299914
 10
96.2850264198
 20
172.3306731077
 10
95.1121591275
 20
172.1781115719
 10
93.9785878338
 20
172.0217142058
 10
92.9827575702
 20
171.8758497794
 10
92.1289630938
 20
171.7430749081
 10
91.1776337579
 20
171.5841387216
 10
90.276028688
 20
171.4107014376
 10
89.43633283
 20
171.1990325658
 10
88.9731503605
 20
171.0410179555
 10
88.6618494019
 20
170.8989774231
 10
88.4548169251
 20
170.7713326945
 10
88.2919520591
 20
170.6328188807
 10
88.1011505967
 20
170.3630999051
 10
88.0330517618
 20
170.153830794
 10
88.0253529428
 20
169.8948298047
 10
88.1228225863
 20
169.5978890138
 10
88.3433388244
 20
169.3264921598
 10
88.5925489722
 20
169.1485440318
 10
88.8249701094
 20
169.0308641864
 10
89.3867491309
 20
168.8265500772
 10
90.0308150391
 20
168.6534216597
 10
90.8102593474
 20
168.4859431084
 10
91.5806769813
 20
168.3473769451
 10
92.4186492936
 20
168.2166276785
  0
ARC
  5
5E
330
1F
100
AcDbEntity
  8
0
  6
Continuous
 62
     7
370
    30
100
AcDbCircle
 10
100.1230424435
 20
137.2554556645
 30
0.0
 40
29.65998273763364
100
AcDbArc
 50
77.6325925759
 51
81.6726595984
  0
LWPOLYLINE
  5
5F
330
1F
100
AcDbEntity
  8
0
  6
Continuous
 62
     7
370
    30
100
AcDbPolyline
 90
       37
 70
   128
 43
0.0
 10
107.5301671273
 20
166.5566818651
 10
107.5208360172
 20
166.5579382323
 10
107.3720988887
 20
166.4911685379
 10
107.072479702
 20
166.38602458
 10
106.6118944248
 20
166.2579404595
 10
105.9911919909
 20
166.117738856
 10
105.2063421982
 20
165.9707096919
 10
104.2577565221
 20
165.8197279608
 10
103.1137201458
 20
165.650562583
 10
101.8275557197
 20
165.4705709397
 10
100.6214422916
 20
165.3098255001
 10
99.5631157963
 20
165.1744232091
 10
98.6809970816
 20
165.0653373144
 10
97.9740637288
 20
164.9803249277
 10
97.1442749677
 20
164.88146988
 10
96.0522464227
 20
164.7455350346
 10
95.1894894136
 20
164.6328927542
 10
94.2383573308
 20
164.502847195
 10
93.2670092598
 20
164.3628348291
 10
92.0118062159
 20
164.1685851894
 10
91.0072203416
 20
163.9982246197
 10
90.2112923142
 20
163.8406154088
 10
89.5884376207
 20
163.6869926789
 10
89.0021816239
 20
163.4967780051
 10
88.6340622009
 20
163.3284145622
 10
88.4047700527
 20
163.1780927469
 10
88.2466797403
 20
163.0284863065
 10
88.0591169124
 20
162.7009927896
 10
88.0187069751
 20
162.4484530977
 10
88.0616139393
 20
162.1809358087
 10
88.3206577843
 20
161.7934619852
 10
88.8309958235
 20
161.4742122785
 10
89.4458945791
 20
161.2536829063
 10
90.1891184327
 20
161.0612236048
 10
91.0454086898
 20
160.8858027832
 10
91.9755235358
 20
160.7282384771
 10
92.4186492936
 20
160.6614491198
  0
ARC
  5
60
330
1F
100
AcDbEntity
  8
0
  6
Continuous
 62
     7
370
    30
100
AcDbCircle
 10
100.6129687544
 20
132.4171170723
 30
0.0
 40
26.90126445309362
100
AcDbArc
 50
77.420628625
 51
81.8671712068
  0
LWPOLYLINE
  5
61
330
1F
100
AcDbEntity
  8
0
  6
Continuous
 62
     7
370
    30
100
AcDbPolyline
 90
       39
 70
   128
 43
0.0
 10
107.5489464362
 20
159.0172946943
 10
107.5495845272
 20
159.0180475703
 10
107.523495081
 20
159.0042090569
 10
107.3589182111
 20
158.9297125825
 10
106.9499886412
 20
158.7930153576
 10
106.2723300425
 20
158.622386943
 10
105.5148337623
 20
158.4700306419
 10
104.7661363289
 20
158.3429063762
 10
104.007933194
 20
158.2264265037
 10
103.1355252422
 20
158.0981480405
 10
102.1502104074
 20
157.9592761697
 10
101.061715061
 20
157.8121168586
 10
99.9175396085
 20
157.6636520909
 10
98.4913503983
 20
157.4867663801
 10
97.2232897353
 20
157.335474093
 10
96.0639775059
 20
157.1914781644
 10
94.8793211736
 20
157.0356358491
 10
93.6836289049
 20
156.8683029052
 10
92.5194568663
 20
156.6936929846
 10
91.6580227967
 20
156.5549403419
 10
90.807828794
 20
156.4062651229
 10
89.9880066822
 20
156.2337456043
 10
89.2496424755
 20
156.0292473439
 10
88.7281183281
 20
155.8219895692
 10
88.4066433622
 20
155.6238756828
 10
88.1359692929
 20
155.3185495424
 10
88.0347410761
 20
155.0514246395
 10
88.0255125459
 20
154.7824836677
 10
88.1028510544
 20
154.5238654642
 10
88.2114558545
 20
154.3520024704
 10
88.3581645407
 20
154.2015879174
 10
88.6641040027
 20
153.9995420276
 10
89.0923666637
 20
153.8142689539
 10
89.5496085469
 20
153.6675718721
 10
89.9785016771
 20
153.5548946773
 10
90.3769547867
 20
153.4636523232
 10
90.9381665908
 20
153.350237152
 10
91.7312253633
 20
153.2114794402
 10
92.4186492936
 20
153.1062430389
  0
ARC
  5
62
330
1F
100
AcDbEntity
  8
0
  6
Continuous
 62
     7
370
    30
100
AcDbCircle
 10
100.5639497825
 20
124.6748321627
 30
0.0
 40
27.09268483266951
100
AcDbArc
 50
77.3965155058
 51
81.8203003105
  0
LWPOLYLINE
  5
63
330
1F
100
AcDbEntity
  8
0
  6
Continuous
 62
     7
370
    30
100
AcDbPolyline
 90
       40
 70
   128
 43
0.0
 10
107.525031361
 20
151.4418037398
 10
107.5281440634
 20
151.4496743993
 10
107.3889073625
 20
151.3864764811
 10
107.1671182039
 20
151.3051479328
 10
106.8224638181
 20
151.2018412807
 10
106.415550888
 20
151.0995752848
 10
105.7502239189
 20
150.9588108865
 10
105.0754229257
 20
150.8375858508
 10
104.33688865
 20
150.7207675744
 10
103.4541555082
 20
150.5888143329
 10
102.4192191411
 20
150.4410684932
 10
101.253624195
 20
150.2820717082
 10
100.1092185533
 20
150.1325499433
 10
99.0463215307
 20
149.9989959947
 10
98.0862892908
 20
149.8825671405
 10
97.2144930883
 20
149.778856101
 10
96.2870507491
 20
149.6642626708
 10
95.2918869667
 20
149.5354068987
 10
94.2503215643
 20
149.3934160817
 10
93.1920244232
 20
149.2405829665
 10
92.1741619432
 20
149.0836476315
 10
91.2635401252
 20
148.9323288218
 10
90.4644530739
 20
148.7835944924
 10
89.7663662847
 20
148.6238059168
 10
89.1838944659
 20
148.4522319534
 10
88.6960954003
 20
148.2501193291
 10
88.4216891443
 20
148.0796701001
 10
88.1994469725
 20
147.8592832353
 10
88.0525783722
 20
147.5689927306
 10
88.0330115303
 20
147.1797036687
 10
88.1125337942
 20
146.9483296589
 10
88.2198280594
 20
146.7855801093
 10
88.4269296091
 20
146.5916845412
 10
88.7936633119
 20
146.3797751479
 10
89.2634295897
 20
146.1989861513
 10
89.7856746471
 20
146.0477613729
 10
90.4120465822
 20
145.9005795743
 10
91.1852189429
 20
145.7491323353
 10
92.1069600862
 20
145.5968390382
 10
92.4186492936
 20
145.550288042
  0
ARC
  5
64
330
1F
100
AcDbEntity
  8
0
  6
Continuous
 62
     7
370
    30
100
AcDbCircle
 10
99.7321980645
 20
112.4947290407
 30
0.0
 40
31.78925122973969
100
AcDbArc
 50
77.7454923756
 51
81.522413306
  0
LWPOLYLINE
  5
65
330
1F
100
AcDbEntity
  8
0
  6
Continuous
 62
     7
370
    30
100
AcDbPolyline
 90
       39
 70
   128
 43
0.0
 10
107.5086130057
 20
143.8752559038
 10
107.5122622426
 20
143.8828974871
 10
107.3562995672
 20
143.8184611028
 10
106.9759680775
 20
143.6901279339
 10
106.5019811722
 20
143.5646039562
 10
105.9908010918
 20
143.4512497053
 10
105.4307326663
 20
143.343641821
 10
104.712431148
 20
143.2233254752
 10
103.7982900514
 20
143.0839754127
 10
102.6503480379
 20
142.9179351002
 10
101.2658194309
 20
142.7281442544
 10
99.8855475683
 20
142.5484746404
 10
98.685396508
 20
142.3992052651
 10
97.694230434
 20
142.280585366
 10
96.9034338797
 20
142.1854374617
 10
96.1961044915
 20
142.0971893421
 10
95.3018764931
 20
141.9811754491
 10
94.2309321189
 20
141.8351413744
 10
93.0313772671
 20
141.6609666981
 10
91.9071661022
 20
141.484966363
 10
91.005754721
 20
141.3315868169
 10
90.0829458747
 20
141.1455359346
 10
89.3925137532
 20
140.9641128895
 10
88.758071318
 20
140.7243092172
 10
88.3977131729
 20
140.5038523637
 10
88.2011114568
 20
140.3057686391
 10
88.1276968408
 20
140.1933006344
 10
88.0731885756
 20
140.0754956878
 10
88.0262111468
 20
139.8898700836
 10
88.0704464196
 20
139.4891515067
 10
88.1846687529
 20
139.2751482374
 10
88.3381185937
 20
139.1062338295
 10
88.7316200924
 20
138.852578267
 10
89.2357029811
 20
138.6526756243
 10
89.8647381942
 20
138.4723128606
 10
90.613118454
 20
138.3031681699
 10
91.4532520171
 20
138.1466868034
 10
92.3593445507
 20
138.0027657641
 10
92.4186492936
 20
137.993994926
  0
ARC
  5
66
330
1F
100
AcDbEntity
  8
0
  6
Continuous
 62
     7
370
    30
100
AcDbCircle
 10
100.5482258546
 20
109.4397369589
 30
0.0
 40
27.21897919175628
100
AcDbArc
 50
77.4199425814
 51
81.8250745868
  0
LWPOLYLINE
  5
67
330
1F
100
AcDbEntity
  8
0
  6
Continuous
 62
     7
370
    30
100
AcDbPolyline
 90
       38
 70
   128
 43
0.0
 10
107.5080864564
 20
136.3235947352
 10
107.4271289064
 20
136.2924542434
 10
107.1338702873
 20
136.1836053444
 10
106.7431410657
 20
136.0697736938
 10
106.277958361
 20
135.9571740272
 10
105.6711151409
 20
135.8324879944
 10
104.8893472298
 20
135.6958357484
 10
103.9073819034
 20
135.5446706228
 10
102.6814285846
 20
135.3667598405
 10
101.3115337518
 20
135.1786932514
 10
100.0681088634
 20
135.0161797898
 10
99.0109011621
 20
134.8835187903
 10
98.1629652552
 20
134.7806102319
 10
97.4993027633
 20
134.7019152155
 10
96.6970199418
 20
134.6044411145
 10
95.6747727151
 20
134.4746221851
 10
94.4592734857
 20
134.311416621
 10
93.5690209728
 20
134.1850021693
 10
92.6940467526
 20
134.0540647467
 10
91.9603961778
 20
133.9380797662
 10
91.10739205
 20
133.7940344425
 10
90.4953339817
 20
133.6790200604
 10
90.063598029
 20
133.5855518182
 10
89.6168500873
 20
133.4732167417
 10
89.1114115755
 20
133.3151008462
 10
88.646256194
 20
133.1116147228
 10
88.33020894
 20
132.8910337892
 10
88.1254630965
 20
132.6333713655
 10
88.0186961282
 20
132.2254634215
 10
88.0662963586
 20
131.9450820744
 10
88.1862916322
 20
131.7176226916
 10
88.4557159972
 20
131.4576361205
 10
88.7639306796
 20
131.2815179376
 10
89.2985657562
 20
131.0765662431
 10
90.0185802856
 20
130.8788096387
 10
90.9893275733
 20
130.674116123
 10
91.8892420832
 20
130.5196346833
 10
92.4186492936
 20
130.4394919944
  0
ARC
  5
68
330
1F
100
AcDbEntity
  8
0
  6
Continuous
 62
     7
370
    30
100
AcDbCircle
 10
100.3401096034
 20
100.7810475056
 30
0.0
 40
28.33897996716074
100
AcDbArc
 50
77.5076670745
 51
81.7252690977
  0
LWPOLYLINE
  5
69
330
1F
100
AcDbEntity
  8
0
  6
Continuous
 62
     7
370
    30
100
AcDbPolyline
 90
       37
 70
   128
 43
0.0
 10
107.4859273478
 20
128.741441714
 10
107.4842340865
 20
128.756332339
 10
107.2852585214
 20
128.6791279616
 10
106.8515457427
 20
128.5429273217
 10
106.2584153952
 20
128.3970374994
 10
105.5614917974
 20
128.2563577806
 10
104.7987803638
 20
128.125832426
 10
103.9798249562
 20
127.9999843532
 10
103.0573261681
 20
127.8646920149
 10
102.0351460733
 20
127.7212071645
 10
100.9287747685
 20
127.5723306199
 10
99.7661994113
 20
127.4222389453
 10
98.6327211817
 20
127.2816861981
 10
97.5648120037
 20
127.1541524405
 10
96.5514552468
 20
127.0307904538
 10
95.5887275324
 20
126.9078376551
 10
93.7468976189
 20
126.6552137668
 10
92.0858852493
 20
126.4028214232
 10
90.6572101778
 20
126.1553242101
 10
89.8371220037
 20
125.9748264644
 10
89.1483774737
 20
125.7727342298
 10
88.5733001877
 20
125.5126742156
 10
88.2232148554
 20
125.2191760403
 10
88.0960689949
 20
125.0180636834
 10
88.0247409324
 20
124.7673446094
 10
88.036845007
 20
124.4949140773
 10
88.1138065452
 20
124.2801659295
 10
88.3082255134
 20
124.0227924892
 10
88.4541370742
 20
123.9028466918
 10
88.6340022742
 20
123.7916776551
 10
88.8867914979
 20
123.6715129254
 10
89.2432221036
 20
123.5394608829
 10
89.7377388775
 20
123.3940647579
 10
90.3999502454
 20
123.2367273364
 10
91.2546930736
 20
123.0701599916
 10
92.3160123169
 20
122.8982550271
 10
92.4186492936
 20
122.8831605222
  0
ARC
  5
6A
330
1F
100
AcDbEntity
  8
0
  6
Continuous
 62
     7
370
    30
100
AcDbCircle
 10
100.3050061547
 20
93.1629195412
 30
0.0
 40
28.40698990991832
100
AcDbArc
 50
77.455937982
 51
81.673668237
  0
LWPOLYLINE
  5
6B
330
1F
100
AcDbEntity
  8
0
  6
Continuous
 62
     7
370
    30
100
AcDbPolyline
 90
       36
 70
   128
 43
0.0
 10
107.516838794
 20
121.2101396958
 10
107.5174545742
 20
121.2112942525
 10
107.4220315321
 20
121.174746123
 10
107.1547159697
 20
121.0781923706
 10
106.8104994971
 20
120.9766400007
 10
106.45219025
 20
120.8861195667
 10
106.0239595247
 20
120.7914466823
 10
105.3845244672
 20
120.6687088872
 10
104.4941770916
 20
120.5227177919
 10
103.2813014852
 20
120.3414337795
 10
101.9294968546
 20
120.1511655221
 10
100.7384015931
 20
119.9917713515
 10
99.7722898339
 20
119.8674537552
 10
99.0420241731
 20
119.7762438204
 10
98.2365515889
 20
119.6783081781
 10
97.2467417389
 20
119.5605259123
 10
96.0611368037
 20
119.4133366049
 10
94.70561035
 20
119.2342104808
 10
93.3558827639
 20
119.0426518388
 10
92.2332457171
 20
118.8708416894
 10
91.3334868316
 20
118.72220984
 10
90.4280447087
 20
118.5540647156
 10
89.7404433024
 20
118.3951910605
 10
89.128959618
 20
118.2111030262
 10
88.7151032811
 20
118.0379273382
 10
88.2875844975
 20
117.7366907046
 10
88.1230291533
 20
117.515494236
 10
88.0364054118
 20
117.2819912115
 10
88.0206853957
 20
117.0546220892
 10
88.0605036884
 20
116.8515023464
 10
88.229364714
 20
116.5518269619
 10
88.4278075237
 20
116.3666193304
 10
88.6855425109
 20
116.2088895139
 10
89.099573431
 20
116.0332497239
 10
89.7336545149
 20
115.8394712744
 10
89.9186492936
 20
115.7957183508
  0
LWPOLYLINE
  5
6C
330
1F
100
AcDbEntity
  8
0
  6
Continuous
 62
     7
370
    30
100
AcDbPolyline
 90
       34
 70
   128
 43
0.0
 10
89.0680491976
 20
183.0599424738
 10
89.0641647984
 20
183.056036003
 10
89.1539243548
 20
183.0625697893
 10
89.4212128753
 20
183.0874839065
 10
89.8794755301
 20
183.1200274497
 10
90.4448446426
 20
183.1534900485
 10
91.0902624019
 20
183.1878763103
 10
91.7814570053
 20
183.2215101905
 10
93.3599045133
 20
183.2897841431
 10
94.5521095163
 20
183.3357314513
 10
95.797006085
 20
183.3797525391
 10
96.9230581752
 20
183.4165595164
 10
97.8796563568
 20
183.4457927127
 10
98.7935052408
 20
183.4739032476
 10
99.8077350673
 20
183.506619983
 10
100.9093353388
 20
183.5440184056
 10
102.1009815983
 20
183.5868261057
 10
103.3527325893
 20
183.6348141446
 10
104.2941150401
 20
183.6733889899
 10
105.2022505991
 20
183.7132235949
 10
106.0422066981
 20
183.753233065
 10
106.7703684771
 20
183.7922403638
 10
107.5103716912
 20
183.8477569062
 10
108.0240759914
 20
183.9148559577
 10
108.3638703179
 20
184.0051781353
 10
108.4566315461
 20
184.0475756064
 10
108.5550122388
 20
184.1129115219
 10
108.6831258133
 20
184.2478346037
 10
108.7866049296
 20
184.4540191176
 10
108.8186271818
 20
184.6664295227
 10
108.7913293513
 20
184.8592038746
 10
108.7142260968
 20
185.0336879586
 10
108.6182650348
 20
185.1537372607
 10
108.6182650348
 20
185.1537372607
  0
LWPOLYLINE
  5
6D
330
1F
100
AcDbEntity
  8
0
  6
Continuous
 62
     7
370
    30
100
AcDbPolyline
 90
       32
 70
   128
 43
0.0
 10
105.798895655
 20
185.1420519394
 10
105.6579929877
 20
185.1350570276
 10
104.3310604693
 20
185.0753396208
 10
102.8967550976
 20
185.0171437256
 10
101.3313905409
 20
184.9589651643
 10
99.7328213814
 20
184.9041617158
 10
98.7499238802
 20
184.8725341125
 10
97.8564043897
 20
184.8450962967
 10
96.9271211194
 20
184.8167026774
 10
95.8419746778
 20
184.781327118
 10
94.6241404346
 20
184.7385153631
 10
93.3208441422
 20
184.6885012676
 10
92.3340043982
 20
184.6470734371
 10
91.4546708618
 20
184.6067356151
 10
90.7237229351
 20
184.5697590639
 10
90.1313907041
 20
184.5363234766
 10
89.5303809153
 20
184.4968297402
 10
89.0934601584
 20
184.4581647998
 10
88.7747446518
 20
184.4145919142
 10
88.5473424796
 20
184.3560406929
 10
88.3259355405
 20
184.245324664
 10
88.1391870057
 20
184.0587897377
 10
88.0629468325
 20
183.9108930055
 10
88.0220374326
 20
183.7337087792
 10
88.0288767055
 20
183.5447970732
 10
88.1008427719
 20
183.3334707342
 10
88.2246968195
 20
183.165462777
 10
88.4302394748
 20
183.0230355589
 10
88.643647324
 20
182.9493688918
 10
88.90589086
 20
182.8962470935
 10
89.4306477224
 20
182.8365751569
 10
89.9186492936
 20
182.8025062561
  0
LWPOLYLINE
  5
6E
330
1F
100
AcDbEntity
  8
0
  6
Continuous
 62
     7
370
    30
100
AcDbPolyline
 90
       36
 70
   128
 43
0.0
 10
107.7877553925
 20
115.2743027382
 10
107.7941536687
 20
115.280498484
 10
107.7170319103
 20
115.2715498595
 10
107.5387400323
 20
115.2519863242
 10
107.2328362023
 20
115.2250802942
 10
106.775582099
 20
115.1935175481
 10
106.1500851105
 20
115.159256657
 10
105.4030930971
 20
115.1229530024
 10
104.5871451824
 20
115.0863141594
 10
103.733500859
 20
115.0504225528
 10
102.8716833932
 20
115.016172831
 10
101.75361938
 20
114.9741870982
 10
100.7130427336
 20
114.9372539828
 10
99.740271562
 20
114.9044076002
 10
98.8233564728
 20
114.8748444866
 10
97.9734054663
 20
114.8486182342
 10
97.127142123
 20
114.8229563853
 10
96.1232929501
 20
114.7907397134
 10
94.97126728
 20
114.7510796185
 10
93.7091752326
 20
114.7039186008
 10
92.7288098631
 20
114.6640849455
 10
91.797768728
 20
114.6229527717
 10
91.0122305292
 20
114.5848707722
 10
90.3683235218
 20
114.5502974573
 10
89.7071350483
 20
114.509588832
 10
89.2255580874
 20
114.4717906848
 10
88.8810689548
 20
114.4325090468
 10
88.5133805498
 20
114.3482153107
 10
88.3453935062
 20
114.2643082747
 10
88.2527987207
 20
114.1926474294
 10
88.1395400577
 20
114.0613019781
 10
88.0407515005
 20
113.84048781
 10
88.0300381129
 20
113.5382115921
 10
88.1475800812
 20
113.2566440665
 10
88.2669674414
 20
113.1346688504
 10
88.2669674414
 20
113.1346688504
  0
LWPOLYLINE
  5
6F
330
1F
100
AcDbEntity
  8
0
  6
Continuous
 62
     7
370
    30
100
AcDbPolyline
 90
       32
 70
   128
 43
0.0
 10
90.2401053143
 20
113.1409918289
 10
90.4086762851
 20
113.151187245
 10
91.6930612011
 20
113.2173453714
 10
93.2814852031
 20
113.2866051236
 10
95.1216715483
 20
113.3563297145
 10
96.0619263843
 20
113.3886561069
 10
96.9302206198
 20
113.4167845197
 10
97.9574285858
 20
113.4481346219
 10
98.9727449415
 20
113.4795683494
 10
100.1241399934
 20
113.5171587281
 10
101.9621253261
 20
113.581700274
 10
103.6360153799
 20
113.6461368715
 10
104.6412958627
 20
113.6881732151
 10
105.6006022358
 20
113.7315323725
 10
106.4693339085
 20
113.7748920011
 10
107.2205100781
 20
113.821516822
 10
107.7779111376
 20
113.8725731624
 10
108.1540014236
 20
113.9319382737
 10
108.3714860018
 20
113.999606094
 10
108.5252511964
 20
114.0882893809
 10
108.7076826305
 20
114.2835700525
 10
108.779622191
 20
114.4326534925
 10
108.8154284511
 20
114.5974681747
 10
108.7743802307
 20
114.9115377938
 10
108.6524165656
 20
115.1216865771
 10
108.5280671702
 20
115.2390733652
 10
108.2962364974
 20
115.3583960796
 10
108.0535890085
 20
115.4175819747
 10
107.8209368748
 20
115.4504795874
 10
107.5432155738
 20
115.4786443306
 10
107.1844157499
 20
115.5063640517
 10
106.9186492936
 20
115.5233726643
  0
LINE
  5
70
330
1F
100
AcDbEntity
  8
0
  6
Continuous
 62
     7
370
    30
100
AcDbLine
 10
86.4186492936
 20
185.2335556129
 30
0.0
 11
86.5281830977
 21
185.1416458382
 31
0.0
  0
LINE
  5
71
330
1F
100
AcDbEntity
  8
0
  6
Continuous
 62
     7
370
    30
100
AcDbLine
 10
110.3091154894
 20
185.1416458382
 30
0.0
 11
110.4186492936
 21
185.2335556129
 31
0.0
  0
LINE
  5
72
330
1F
100
AcDbEntity
  8
0
  6
Continuous
 62
     7
370
    30
100
AcDbLine
 10
89.9186492936
 20
185.1416458382
 30
0.0
 11
89.9186492936
 21
184.5223437489
 31
0.0
  0
LINE
  5
73
330
1F
100
AcDbEntity
  8
0
  6
Continuous
 62
     7
370
    30
100
AcDbLine
 10
89.9186492936
 20
183.122346034
 30
0.0
 11
89.9186492936
 21
178.8800603731
 31
0.0
  0
LINE
  5
74
330
1F
100
AcDbEntity
  8
0
  6
Continuous
 62
     7
370
    30
100
AcDbLine
 10
89.9186492936
 20
177.4443531868
 30
0.0
 11
89.9186492936
 21
171.3206139464
 31
0.0
  0
LINE
  5
75
330
1F
100
AcDbEntity
  8
0
  6
Continuous
 62
     7
370
    30
100
AcDbLine
 10
106.9186492936
 20
170.1416458382
 30
0.0
 11
106.9186492936
 21
172.4594618169
 31
0.0
  0
LINE
  5
76
330
1F
100
AcDbEntity
  8
0
  6
Continuous
 62
     7
370
    30
100
AcDbLine
 10
106.9186492936
 20
173.8996295627
 30
0.0
 11
106.9186492936
 21
180.0181119624
 31
0.0
  0
LINE
  5
77
330
1F
100
AcDbEntity
  8
0
  6
Continuous
 62
     7
370
    30
100
AcDbLine
 10
106.9186492936
 20
181.4548898711
 30
0.0
 11
106.9186492936
 21
183.8033646914
 31
0.0
  0
LINE
  5
78
330
1F
100
AcDbEntity
  8
0
  6
Continuous
 62
     7
370
    30
100
AcDbLine
 10
92.4186492936
 20
87.1416458382
 30
0.0
 11
92.4186492936
 21
85.6416458382
 31
0.0
  0
LINE
  5
79
330
1F
100
AcDbEntity
  8
0
  6
Continuous
 62
     7
370
    30
100
AcDbLine
 10
104.4186492936
 20
85.6416458382
 30
0.0
 11
104.4186492936
 21
87.1416458382
 31
0.0
  0
LINE
  5
7A
330
1F
100
AcDbEntity
  8
0
  6
Continuous
 62
     7
370
    30
100
AcDbLine
 10
92.4186492936
 20
170.1416458382
 30
0.0
 11
92.4186492936
 21
164.2315464144
 31
0.0
  0
LINE
  5
7B
330
1F
100
AcDbEntity
  8
0
  6
Continuous
 62
     7
370
    30
100
AcDbLine
 10
92.4186492936
 20
162.82601527
 30
0.0
 11
92.4186492936
 21
156.6774557384
 31
0.0
  0
LINE
  5
7C
330
1F
100
AcDbEntity
  8
0
  6
Continuous
 62
     7
370
    30
100
AcDbLine
 10
92.4186492936
 20
155.2706644808
 30
0.0
 11
92.4186492936
 21
149.1213430029
 31
0.0
  0
LINE
  5
7D
330
1F
100
AcDbEntity
  8
0
  6
Continuous
 62
     7
370
    30
100
AcDbLine
 10
92.4186492936
 20
147.7151440062
 30
0.0
 11
92.4186492936
 21
141.5650413666
 31
0.0
  0
LINE
  5
7E
330
1F
100
AcDbEntity
  8
0
  6
Continuous
 62
     7
370
    30
100
AcDbLine
 10
92.4186492936
 20
140.1592905262
 30
0.0
 11
92.4186492936
 21
134.0105263511
 31
0.0
  0
LINE
  5
7F
330
1F
100
AcDbEntity
  8
0
  6
Continuous
 62
     7
370
    30
100
AcDbLine
 10
92.4186492936
 20
132.603856674
 30
0.0
 11
92.4186492936
 21
126.453385223
 31
0.0
  0
LINE
  5
80
330
1F
100
AcDbEntity
  8
0
  6
Continuous
 62
     7
370
    30
100
AcDbLine
 10
92.4186492936
 20
125.0483615132
 30
0.0
 11
92.4186492936
 21
120.1416458382
 31
0.0
  0
LINE
  5
81
330
1F
100
AcDbEntity
  8
0
  6
Continuous
 62
     7
370
    30
100
AcDbLine
 10
104.4186492936
 20
120.1416458382
 30
0.0
 11
104.4186492936
 21
126.6610708141
 31
0.0
  0
LINE
  5
82
330
1F
100
AcDbEntity
  8
0
  6
Continuous
 62
     7
370
    30
100
AcDbLine
 10
104.4186492936
 20
128.0674180579
 30
0.0
 11
104.4186492936
 21
134.2169302862
 31
0.0
  0
LINE
  5
83
330
1F
100
AcDbEntity
  8
0
  6
Continuous
 62
     7
370
    30
100
AcDbLine
 10
104.4186492936
 20
135.623375845
 30
0.0
 11
104.4186492936
 21
141.7726682331
 31
0.0
  0
LINE
  5
84
330
1F
100
AcDbEntity
  8
0
  6
Continuous
 62
     7
370
    30
100
AcDbLine
 10
104.4186492936
 20
143.1785418855
 30
0.0
 11
104.4186492936
 21
149.3276735126
 31
0.0
  0
LINE
  5
85
330
1F
100
AcDbEntity
  8
0
  6
Continuous
 62
     7
370
    30
100
AcDbLine
 10
104.4186492936
 20
150.7337001325
 30
0.0
 11
104.4186492936
 21
156.883344702
 31
0.0
  0
LINE
  5
86
330
1F
100
AcDbEntity
  8
0
  6
Continuous
 62
     7
370
    30
100
AcDbLine
 10
104.4186492936
 20
158.2895232606
 30
0.0
 11
104.4186492936
 21
164.4382703973
 31
0.0
  0
LINE
  5
87
330
1F
100
AcDbEntity
  8
0
  6
Continuous
 62
     7
370
    30
100
AcDbLine
 10
104.4186492936
 20
165.8453364743
 30
0.0
 11
104.4186492936
 21
170.1416458382
 31
0.0
  0
LINE
  5
88
330
1F
100
AcDbEntity
  8
0
  6
Continuous
 62
     7
370
    30
100
AcDbLine
 10
92.4186492936
 20
85.6416458382
 30
0.0
 11
92.9186492936
 21
85.1416458382
 31
0.0
  0
LINE
  5
89
330
1F
100
AcDbEntity
  8
0
  6
Continuous
 62
     7
370
    30
100
AcDbLine
 10
103.9186492936
 20
85.1416458382
 30
0.0
 11
104.4186492936
 21
85.6416458382
 31
0.0
  0
LINE
  5
8A
330
1F
100
AcDbEntity
  8
0
  6
Continuous
 62
     7
370
    30
100
AcDbLine
 10
106.1686492936
 20
87.1416458382
 30
0.0
 11
90.6686492936
 21
87.1416458382
 31
0.0
  0
LINE
  5
8B
330
1F
100
AcDbEntity
  8
0
  6
Continuous
 62
     7
370
    30
100
AcDbLine
 10
87.4186492936
 20
108.6416458382
 30
0.0
 11
109.4186492936
 21
108.6416458382
 31
0.0
  0
LINE
  5
8C
330
1F
100
AcDbEntity
  8
0
  6
Continuous
 62
     7
370
    30
100
AcDbLine
 10
108.9186492936
 20
108.1416458382
 30
0.0
 11
87.9186492936
 21
108.1416458382
 31
0.0
  0
LINE
  5
8D
330
1F
100
AcDbEntity
  8
0
  6
Continuous
 62
     7
370
    30
100
AcDbLine
 10
90.2641929609
 20
113.1416458382
 30
0.0
 11
108.9186492936
 21
113.1416458382
 31
0.0
  0
LINE
  5
8E
330
1F
100
AcDbEntity
  8
0
  6
Continuous
 62
     7
370
    30
100
AcDbLine
 10
87.9186492936
 20
113.1416458382
 30
0.0
 11
90.2641929609
 21
113.1416458382
 31
0.0
  0
LINE
  5
8F
330
1F
100
AcDbEntity
  8
0
  6
Continuous
 62
     7
370
    30
100
AcDbLine
 10
89.8758855164
 20
112.6416458382
 30
0.0
 11
87.4186492936
 21
112.6416458382
 31
0.0
  0
LINE
  5
90
330
1F
100
AcDbEntity
  8
0
  6
Continuous
 62
     7
370
    30
100
AcDbLine
 10
109.4186492936
 20
112.6416458382
 30
0.0
 11
89.8758855164
 21
112.6416458382
 31
0.0
  0
LINE
  5
91
330
1F
100
AcDbEntity
  8
0
  6
Continuous
 62
     7
370
    30
100
AcDbLine
 10
88.4186492936
 20
88.6416458382
 30
0.0
 11
108.4186492936
 21
88.6416458382
 31
0.0
  0
LINE
  5
92
330
1F
100
AcDbEntity
  8
0
  6
Continuous
 62
     7
370
    30
100
AcDbLine
 10
107.9186492936
 20
88.1416458382
 30
0.0
 11
88.9186492936
 21
88.1416458382
 31
0.0
  0
LINE
  5
93
330
1F
100
AcDbEntity
  8
0
  6
Continuous
 62
     7
370
    30
100
AcDbLine
 10
91.8174227385
 20
119.6416458382
 30
0.0
 11
89.9186492936
 21
119.6416458382
 31
0.0
  0
LINE
  5
94
330
1F
100
AcDbEntity
  8
0
  6
Continuous
 62
     7
370
    30
100
AcDbLine
 10
97.9266242117
 20
119.6416458382
 30
0.0
 11
91.8174227385
 21
119.6416458382
 31
0.0
  0
LINE
  5
95
330
1F
100
AcDbEntity
  8
0
  6
Continuous
 62
     7
370
    30
100
AcDbLine
 10
92.2057301829
 20
120.1416458382
 30
0.0
 11
101.8803063307
 21
120.1416458382
 31
0.0
  0
LINE
  5
96
330
1F
100
AcDbEntity
  8
0
  6
Continuous
 62
     7
370
    30
100
AcDbLine
 10
90.4186492936
 20
120.1416458382
 30
0.0
 11
92.2057301829
 21
120.1416458382
 31
0.0
  0
LINE
  5
97
330
1F
100
AcDbEntity
  8
0
  6
Continuous
 62
     7
370
    30
100
AcDbLine
 10
98.4186492936
 20
189.1416458382
 30
0.0
 11
86.4186492936
 21
189.1416458382
 31
0.0
  0
LINE
  5
98
330
1F
100
AcDbEntity
  8
0
  6
Continuous
 62
     7
370
    30
100
AcDbLine
 10
98.4186492936
 20
186.7391364045
 30
0.0
 11
98.4186492936
 21
189.1416458382
 31
0.0
  0
LINE
  5
99
330
1F
100
AcDbEntity
  8
0
  6
Continuous
 62
     7
370
    30
100
AcDbLine
 10
98.3999627647
 20
186.7822233992
 30
0.0
 11
98.4186492936
 21
186.7391364045
 31
0.0
  0
ARC
  5
9A
330
1F
100
AcDbEntity
  8
0
  6
Continuous
 62
     7
370
    30
100
AcDbCircle
 10
92.4186492936
 20
197.8999930711
 30
0.0
 40
12.62461537305457
100
AcDbArc
 50
241.7199348044
 51
298.2800651956
  0
LINE
  5
9B
330
1F
100
AcDbEntity
  8
0
  6
Continuous
 62
     7
370
    30
100
AcDbLine
 10
86.4186492936
 20
186.7391364045
 30
0.0
 11
86.4373358224
 21
186.7822233992
 31
0.0
  0
LINE
  5
9C
330
1F
100
AcDbEntity
  8
0
  6
Continuous
 62
     7
370
    30
100
AcDbLine
 10
86.4186492936
 20
186.7391364045
 30
0.0
 11
86.4186492936
 21
189.1416458382
 31
0.0
  0
LINE
  5
9D
330
1F
100
AcDbEntity
  8
0
  6
Continuous
 62
     7
370
    30
100
AcDbLine
 10
110.4186492936
 20
186.7822233992
 30
0.0
 11
110.4186492936
 21
185.2471650819
 31
0.0
  0
LINE
  5
9E
330
1F
100
AcDbEntity
  8
0
  6
Continuous
 62
     7
370
    30
100
AcDbLine
 10
86.4186492936
 20
186.7822233992
 30
0.0
 11
86.4186492936
 21
185.2471650819
 31
0.0
  0
ARC
  5
9F
330
1F
100
AcDbEntity
  8
0
  6
Continuous
 62
     7
370
    30
100
AcDbCircle
 10
104.4186492936
 20
197.8999934806
 30
0.0
 40
12.62461573368021
100
AcDbArc
 50
241.7199356849
 51
298.2800643151
  0
LINE
  5
A0
330
1F
100
AcDbEntity
  8
0
  6
Continuous
 62
     7
370
    30
100
AcDbLine
 10
86.5281830977
 20
185.1416458382
 30
0.0
 11
110.3091154894
 21
185.1416458382
 31
0.0
  0
LINE
  5
A1
330
1F
100
AcDbEntity
  8
0
  6
Continuous
 62
     7
370
    30
100
AcDbLine
 10
110.4186492936
 20
189.1416458382
 30
0.0
 11
98.4186492936
 21
189.1416458382
 31
0.0
  0
LINE
  5
A2
330
1F
100
AcDbEntity
  8
0
  6
Continuous
 62
     7
370
    30
100
AcDbLine
 10
110.4186492936
 20
186.7391364045
 30
0.0
 11
110.4186492936
 21
189.1416458382
 31
0.0
  0
LINE
  5
A3
330
1F
100
AcDbEntity
  8
0
  6
Continuous
 62
     7
370
    30
100
AcDbLine
 10
110.3999627647
 20
186.7822233992
 30
0.0
 11
110.4186492936
 21
186.7391364045
 31
0.0
  0
LINE
  5
A4
330
1F
100
AcDbEntity
  8
0
  6
Continuous
 62
     7
370
    30
100
AcDbLine
 10
98.4186492936
 20
186.7391364045
 30
0.0
 11
98.4373358224
 21
186.7822233992
 31
0.0
  0
LINE
  5
A5
330
1F
100
AcDbEntity
  8
0
  6
Continuous
 62
     7
370
    30
100
AcDbLine
 10
106.9186492936
 20
170.1416458382
 30
0.0
 11
90.9739748477
 21
170.1416458382
 31
0.0
  0
LINE
  5
A6
330
1F
100
AcDbEntity
  8
0
  6
Continuous
 62
     7
370
    30
100
AcDbLine
 10
92.4186492936
 20
85.6416458382
 30
0.0
 11
104.4186492936
 21
85.6416458382
 31
0.0
  0
LINE
  5
A7
330
1F
100
AcDbEntity
  8
0
  6
Continuous
 62
     7
370
    30
100
AcDbLine
 10
103.9186492936
 20
85.1416458382
 30
0.0
 11
92.9186492936
 21
85.1416458382
 31
0.0
  0
LINE
  5
A8
330
1F
100
AcDbEntity
  8
0
  6
HIDDEN
 62
     7
370
     0
100
AcDbLine
 10
97.4186492936
 20
87.1416458382
 30
0.0
 11
97.4186492936
 21
88.1416458382
 31
0.0
  0
LINE
  5
A9
330
1F
100
AcDbEntity
  8
0
  6
HIDDEN
 62
     7
370
     0
100
AcDbLine
 10
99.4186492936
 20
87.1416458382
 30
0.0
 11
99.4186492936
 21
88.1416458382
 31
0.0
  0
LINE
  5
AA
330
1F
100
AcDbEntity
  8
0
  6
HIDDEN
 62
     7
370
     0
100
AcDbLine
 10
106.9186492936
 20
119.6416458382
 30
0.0
 11
97.9266242117
 21
119.6416458382
 31
0.0
  0
LINE
  5
AB
330
1F
100
AcDbEntity
  8
0
  6
HIDDEN
 62
     7
370
     0
100
AcDbLine
 10
101.8803063307
 20
120.1416458382
 30
0.0
 11
106.4186492936
 21
120.1416458382
 31
0.0
  0
LWPOLYLINE
  5
AC
330
1F
100
AcDbEntity
  8
0
  6
HIDDEN
 62
     7
370
     0
100
AcDbPolyline
 90
       17
 70
   128
 43
0.0
 10
99.0961712656
 20
114.4416458382
 10
99.1148819361
 20
114.4949301654
 10
99.1307440766
 20
114.6466710914
 10
99.1413428201
 20
114.8737674355
 10
99.1450646038
 20
115.1416458382
 10
99.1413428201
 20
115.4095242409
 10
99.1307440766
 20
115.636620585
 10
99.1148819361
 20
115.788361511
 10
99.0961712656
 20
115.8416458382
 10
99.0774605952
 20
115.788361511
 10
99.0615984546
 20
115.636620585
 10
99.0509997112
 20
115.4095242409
 10
99.0472779274
 20
115.1416458382
 10
99.0509997112
 20
114.8737674355
 10
99.0615984546
 20
114.6466710914
 10
99.0774605952
 20
114.4949301654
 10
99.0961712656
 20
114.4416458382
  0
LWPOLYLINE
  5
AD
330
1F
100
AcDbEntity
  8
0
  6
HIDDEN
 62
     7
370
     0
100
AcDbPolyline
 90
       17
 70
   128
 43
0.0
 10
99.0961712656
 20
182.4416458382
 10
99.1148819361
 20
182.4949301654
 10
99.1307440766
 20
182.6466710914
 10
99.1413428201
 20
182.8737674355
 10
99.1450646038
 20
183.1416458382
 10
99.1413428201
 20
183.4095242409
 10
99.1307440766
 20
183.636620585
 10
99.1148819361
 20
183.788361511
 10
99.0961712656
 20
183.8416458382
 10
99.0774605952
 20
183.788361511
 10
99.0615984546
 20
183.636620585
 10
99.0509997112
 20
183.4095242409
 10
99.0472779274
 20
183.1416458382
 10
99.0509997112
 20
182.8737674355
 10
99.0615984546
 20
182.6466710914
 10
99.0774605952
 20
182.4949301654
 10
99.0961712656
 20
182.4416458382
  0
LWPOLYLINE
  5
AE
330
1F
100
AcDbEntity
  8
0
  6
HIDDEN
 62
     7
370
     0
100
AcDbPolyline
 90
        9
 70
   128
 43
0.0
 10
99.1450646038
 20
185.1416458382
 10
99.1413428201
 20
184.8737674355
 10
99.1307440766
 20
184.6466710914
 10
99.1148819361
 20
184.4949301654
 10
99.0961712656
 20
184.4416458382
 10
99.0774605952
 20
184.4949301654
 10
99.0615984546
 20
184.6466710914
 10
99.0509997112
 20
184.8737674355
 10
99.0472779274
 20
185.1416458382
  0
LWPOLYLINE
  5
AF
330
1F
100
AcDbEntity
  8
0
  6
HIDDEN
 62
     7
370
     0
100
AcDbPolyline
 90
        9
 70
   128
 43
0.0
 10
99.1450646038
 20
113.1416458382
 10
99.1413428201
 20
113.4095242409
 10
99.1307440766
 20
113.636620585
 10
99.1148819361
 20
113.788361511
 10
99.0961712656
 20
113.8416458382
 10
99.0774605952
 20
113.788361511
 10
99.0615984546
 20
113.636620585
 10
99.0509997112
 20
113.4095242409
 10
99.0472779274
 20
113.1416458382
  0
LINE
  5
B0
330
1F
100
AcDbEntity
  8
0
  6
HIDDEN
 62
     7
370
     0
100
AcDbLine
 10
90.1516560159
 20
113.1416458382
 30
0.0
 11
90.2444336755
 21
113.1416458382
 31
0.0
  0
LINE
  5
B1
330
1F
100
AcDbEntity
  8
0
  6
HIDDEN
 62
     7
370
     0
100
AcDbLine
 10
86.4373358224
 20
186.7822233992
 30
0.0
 11
86.4186492936
 21
186.7822233992
 31
0.0
  0
LINE
  5
B2
330
1F
100
AcDbEntity
  8
0
  6
HIDDEN
 62
     7
370
     0
100
AcDbLine
 10
98.4373358224
 20
186.7822233992
 30
0.0
 11
98.3999627647
 21
186.7822233992
 31
0.0
  0
LINE
  5
B3
330
1F
100
AcDbEntity
  8
0
  6
HIDDEN
 62
     7
370
     0
100
AcDbLine
 10
110.4186492936
 20
186.7822233992
 30
0.0
 11
110.3999627647
 21
186.7822233992
 31
0.0
  0
LINE
  5
B4
330
1F
100
AcDbEntity
  8
0
  6
HIDDEN
 62
     7
370
     0
100
AcDbLine
 10
90.9739748477
 20
170.1416458382
 30
0.0
 11
89.9186492936
 21
170.1416458382
 31
0.0
  0
LINE
  5
B5
330
1F
100
AcDbEntity
  8
0
  6
HIDDEN
 62
     7
370
     0
100
AcDbLine
 10
92.4186492936
 20
88.4416458382
 30
0.0
 11
104.4186492936
 21
88.4416458382
 31
0.0
  0
LINE
  5
B6
330
1F
100
AcDbEntity
  8
0
  6
HIDDEN
 62
     7
370
     0
100
AcDbLine
 10
102.7611462977
 20
92.5416458382
 30
0.0
 11
94.0761522894
 21
92.5416458382
 31
0.0
  0
LINE
  5
B7
330
1F
100
AcDbEntity
  8
0
  6
HIDDEN
 62
     7
370
     0
100
AcDbLine
 10
94.0761522894
 20
181.7416458382
 30
0.0
 11
102.7611462977
 21
181.7416458382
 31
0.0
  0
LINE
  5
B8
330
1F
100
AcDbEntity
  8
0
  6
HIDDEN
 62
     7
370
     0
100
AcDbLine
 10
94.4686492936
 20
177.2016458382
 30
0.0
 11
102.3686492936
 21
177.2016458382
 31
0.0
  0
LINE
  5
B9
330
1F
100
AcDbEntity
  8
0
  6
HIDDEN
 62
     7
370
     0
100
AcDbLine
 10
94.9186492936
 20
176.9312585596
 30
0.0
 11
101.9186492936
 21
176.9312585596
 31
0.0
  0
LINE
  5
BA
330
1F
100
AcDbEntity
  8
0
  6
HIDDEN
 62
     7
370
     0
100
AcDbLine
 10
102.3686492936
 20
97.0816458382
 30
0.0
 11
94.4686492936
 21
97.0816458382
 31
0.0
  0
LINE
  5
BB
330
1F
100
AcDbEntity
  8
0
  6
HIDDEN
 62
     7
370
     0
100
AcDbLine
 10
94.9186492936
 20
97.3520331168
 30
0.0
 11
101.9186492936
 21
97.3520331168
 31
0.0
  0
LINE
  5
BC
330
1F
100
AcDbEntity
  8
0
  6
HIDDEN
 62
     7
370
     0
100
AcDbLine
 10
92.6686492936
 20
88.1416458382
 30
0.0
 11
92.6686492936
 21
87.1416458382
 31
0.0
  0
LINE
  5
BD
330
1F
100
AcDbEntity
  8
0
  6
HIDDEN
 62
     7
370
     0
100
AcDbLine
 10
104.1686492936
 20
87.1416458382
 30
0.0
 11
104.1686492936
 21
88.1416458382
 31
0.0
  0
LINE
  5
BE
330
1F
100
AcDbEntity
  8
0
  6
HIDDEN
 62
     7
370
     0
100
AcDbLine
 10
99.9186492936
 20
88.1416458382
 30
0.0
 11
99.9186492936
 21
87.1416458382
 31
0.0
  0
LINE
  5
BF
330
1F
100
AcDbEntity
  8
0
  6
HIDDEN
 62
     7
370
     0
100
AcDbLine
 10
100.9186492936
 20
87.1416458382
 30
0.0
 11
100.9186492936
 21
88.1416458382
 31
0.0
  0
LINE
  5
C0
330
1F
100
AcDbEntity
  8
0
  6
HIDDEN
 62
     7
370
     0
100
AcDbLine
 10
95.9186492936
 20
88.1416458382
 30
0.0
 11
95.9186492936
 21
87.1416458382
 31
0.0
  0
LINE
  5
C1
330
1F
100
AcDbEntity
  8
0
  6
HIDDEN
 62
     7
370
     0
100
AcDbLine
 10
96.9186492936
 20
87.1416458382
 30
0.0
 11
96.9186492936
 21
88.1416458382
 31
0.0
  0
LINE
  5
C2
330
1F
100
AcDbEntity
  8
0
  6
HIDDEN
 62
     7
370
     0
100
AcDbLine
 10
89.9186492936
 20
118.436366423
 30
0.0
 11
89.9186492936
 21
117.0029217771
 31
0.0
  0
LINE
  5
C3
330
1F
100
AcDbEntity
  8
0
  6
HIDDEN
 62
     7
370
     0
100
AcDbLine
 10
89.9186492936
 20
114.5226115245
 30
0.0
 11
89.9186492936
 21
113.1416458382
 31
0.0
  0
LINE
  5
C4
330
1F
100
AcDbEntity
  8
0
  6
HIDDEN
 62
     7
370
     0
100
AcDbLine
 10
106.9186492936
 20
113.802780598
 30
0.0
 11
106.9186492936
 21
115.2033930058
 31
0.0
  0
LINE
  5
C5
330
1F
100
AcDbEntity
  8
0
  6
HIDDEN
 62
     7
370
     0
100
AcDbLine
 10
106.9186492936
 20
119.6416458382
 30
0.0
 11
106.4186492936
 21
120.1416458382
 31
0.0
  0
LINE
  5
C6
330
1F
100
AcDbEntity
  8
0
  6
HIDDEN
 62
     7
370
     0
100
AcDbLine
 10
91.9186492936
 20
120.1416458382
 30
0.0
 11
92.4186492936
 21
119.6416458382
 31
0.0
  0
LINE
  5
C7
330
1F
100
AcDbEntity
  8
0
  6
HIDDEN
 62
     7
370
     0
100
AcDbLine
 10
104.4186492936
 20
119.6416458382
 30
0.0
 11
104.9186492936
 21
120.1416458382
 31
0.0
  0
LINE
  5
C8
330
1F
100
AcDbEntity
  8
0
  6
HIDDEN
 62
     7
370
     0
100
AcDbLine
 10
104.9186492936
 20
88.1416458382
 30
0.0
 11
104.4186492936
 21
88.6416458382
 31
0.0
  0
LINE
  5
C9
330
1F
100
AcDbEntity
  8
0
  6
HIDDEN
 62
     7
370
     0
100
AcDbLine
 10
92.4186492936
 20
88.6416458382
 30
0.0
 11
91.9186492936
 21
88.1416458382
 31
0.0
  0
LINE
  5
CA
330
1F
100
AcDbEntity
  8
0
  6
HIDDEN
 62
     7
370
     0
100
AcDbLine
 10
92.4186492936
 20
119.6416458382
 30
0.0
 11
92.4186492936
 21
88.6416458382
 31
0.0
  0
LINE
  5
CB
330
1F
100
AcDbEntity
  8
0
  6
HIDDEN
 62
     7
370
     0
100
AcDbLine
 10
104.4186492936
 20
88.6416458382
 30
0.0
 11
104.4186492936
 21
119.6416458382
 31
0.0
  0
LWPOLYLINE
  5
CC
330
1F
100
AcDbEntity
  8
0
  6
HIDDEN
 62
     7
370
     0
100
AcDbPolyline
 90
       20
 70
   128
 43
0.0
 10
99.0965278369
 20
115.841627223
 10
97.509788814
 20
116.0338465291
 10
95.9620242927
 20
116.2319550507
 10
94.5136100555
 20
116.4277641369
 10
93.2128412165
 20
116.613805834
 10
92.1300109511
 20
116.7780812996
 10
91.2699446902
 20
116.9241570408
 10
90.5986236539
 20
117.0595887422
 10
90.0995256782
 20
117.1794944477
 10
89.6913876469
 20
117.298159389
 10
89.4029311742
 20
117.4008837283
 10
89.3406566385
 20
117.4245203443
 10
89.3236133115
 20
117.4250735736
 10
89.3322132918
 20
117.4061584855
 10
89.3523555888
 20
117.3716548601
 10
89.4010366868
 20
117.2491952706
 10
89.4110389134
 20
117.0197622886
 10
89.3198477467
 20
116.8037442316
 10
89.2933699866
 20
116.7724106909
 10
89.2963780684
 20
116.7737285843
  0
LWPOLYLINE
  5
CD
330
1F
100
AcDbEntity
  8
0
  6
HIDDEN
 62
     7
370
     0
100
AcDbPolyline
 90
       13
 70
   128
 43
0.0
 10
104.4186492936
 20
122.676785325
 10
103.4823655884
 20
122.8202867466
 10
102.1181168485
 20
123.0138419765
 10
100.8312503234
 20
123.1840675654
 10
99.7245802935
 20
123.3220857801
 10
98.8232955505
 20
123.4295154706
 10
98.1175917164
 20
123.5144984729
 10
97.3696795927
 20
123.6068955162
 10
96.396895865
 20
123.7307479861
 10
95.2230322398
 20
123.8860612134
 10
93.9012466131
 20
124.0695621991
 10
92.6608122474
 20
124.251872141
 10
92.4186492936
 20
124.2899967714
  0
LWPOLYLINE
  5
CE
330
1F
100
AcDbEntity
  8
0
  6
HIDDEN
 62
     7
370
     0
100
AcDbPolyline
 90
       11
 70
   128
 43
0.0
 10
90.3626146961
 20
124.6708242645
 10
90.1895570388
 20
124.7117276956
 10
89.9016531527
 20
124.7892940059
 10
89.6287212531
 20
124.8743334808
 10
89.422653785
 20
124.9514887157
 10
89.3193354538
 20
124.9902335884
 10
89.3724788647
 20
124.8882025806
 10
89.4177257094
 20
124.6336569941
 10
89.3494507056
 20
124.4033445457
 10
89.2916663106
 20
124.3269296395
 10
89.2947224406
 20
124.3280151929
  0
LWPOLYLINE
  5
CF
330
1F
100
AcDbEntity
  8
0
  6
HIDDEN
 62
     7
370
     0
100
AcDbPolyline
 90
       13
 70
   128
 43
0.0
 10
104.4186492936
 20
130.2325084313
 10
103.8559103683
 20
130.320096827
 10
102.8827285425
 20
130.4627465504
 10
101.821794606
 20
130.609581954
 10
100.6909868337
 20
130.7575297482
 10
99.5625773485
 20
130.8972326103
 10
98.5131621404
 20
131.0221564012
 10
97.5290773372
 20
131.1425560149
 10
96.6230563396
 20
131.2571283543
 10
94.9153046239
 20
131.4834679597
 10
93.3095517019
 20
131.710701492
 10
92.5699160183
 20
131.8212561587
 10
92.4186492936
 20
131.8449510348
  0
LWPOLYLINE
  5
D0
330
1F
100
AcDbEntity
  8
0
  6
HIDDEN
 62
     7
370
     0
100
AcDbPolyline
 90
       10
 70
   128
 43
0.0
 10
90.3668652705
 20
132.2257966189
 10
89.9175569459
 20
132.3398098448
 10
89.491683838
 20
132.480097082
 10
89.3327292537
 20
132.5367729684
 10
89.3547195087
 20
132.4846112065
 10
89.403642538
 20
132.3499304208
 10
89.4070035856
 20
132.1096772202
 10
89.3460843821
 20
131.9533050569
 10
89.2969277461
 20
131.8879678674
 10
89.2968962755
 20
131.8858014934
  0
LWPOLYLINE
  5
D1
330
1F
100
AcDbEntity
  8
0
  6
HIDDEN
 62
     7
370
     0
100
AcDbPolyline
 90
       13
 70
   128
 43
0.0
 10
104.4186492936
 20
137.7880365781
 10
104.2247192738
 20
137.819267151
 10
102.9262172123
 20
138.0121026199
 10
101.6911921154
 20
138.1826569427
 10
100.6433377348
 20
138.319140261
 10
99.8187262676
 20
138.4217411138
 10
99.1136814296
 20
138.5062734369
 10
98.2228073089
 20
138.6128037119
 10
97.1229064138
 20
138.7490250131
 10
95.8350256202
 20
138.9153657636
 10
94.4281795731
 20
139.106328416
 10
93.1929564954
 20
139.2833988009
 10
92.4186492936
 20
139.4006645379
  0
LWPOLYLINE
  5
D2
330
1F
100
AcDbEntity
  8
0
  6
HIDDEN
 62
     7
370
     0
100
AcDbPolyline
 90
       13
 70
   128
 43
0.0
 10
90.3624591685
 20
139.78059257
 10
90.3480695721
 20
139.7837878564
 10
89.9260576684
 20
139.8936497137
 10
89.5779821782
 20
140.0042582855
 10
89.3537268567
 20
140.0947644055
 10
89.3246242475
 20
140.1004200056
 10
89.3534302687
 20
140.0440134241
 10
89.4034377763
 20
139.9073156285
 10
89.4184949951
 20
139.7649702268
 10
89.4009524547
 20
139.6398980649
 10
89.365051719
 20
139.5416953389
 10
89.3313415168
 20
139.4800710844
 10
89.3428379096
 20
139.4778304693
  0
ARC
  5
D3
330
1F
100
AcDbEntity
  8
0
  6
HIDDEN
 62
     7
370
     0
100
AcDbCircle
 10
159.9601104184
 20
604.0306280736
 30
0.0
 40
462.0380243131495
100
AcDbArc
 50
261.5942905517
 51
263.0957937846
  0
LWPOLYLINE
  5
D4
330
1F
100
AcDbEntity
  8
0
  6
HIDDEN
 62
     7
370
     0
100
AcDbPolyline
 90
       11
 70
   128
 43
0.0
 10
90.3622078793
 20
147.3381365798
 10
89.9385232477
 20
147.4454549554
 10
89.5310401437
 20
147.5765039578
 10
89.3448342101
 20
147.6516077246
 10
89.3423161001
 20
147.6195445124
 10
89.3835644189
 20
147.5297279614
 10
89.4137092537
 20
147.4078508574
 10
89.4150783252
 20
147.2711550975
 10
89.3901811153
 20
147.1581929881
 10
89.3479653747
 20
147.0593379226
 10
89.3621471932
 20
147.0497938612
  0
LWPOLYLINE
  5
D5
330
1F
100
AcDbEntity
  8
0
  6
HIDDEN
 62
     7
370
     0
100
AcDbPolyline
 90
       13
 70
   128
 43
0.0
 10
104.4186492936
 20
152.8990572946
 10
104.1585854824
 20
152.9405929654
 10
103.1694170145
 20
153.0882469046
 10
102.1747387875
 20
153.2283176906
 10
101.2026226593
 20
153.3582850858
 10
99.9788956612
 20
153.5132425216
 10
98.7907353077
 20
153.6556119317
 10
97.4224064148
 20
153.8225244224
 10
96.2806004081
 20
153.9680621605
 10
95.0824484129
 20
154.1273383313
 10
93.9849202063
 20
154.2798607097
 10
93.0341295849
 20
154.418036648
 10
92.4186492936
 20
154.5116000184
  0
LWPOLYLINE
  5
D6
330
1F
100
AcDbEntity
  8
0
  6
HIDDEN
 62
     7
370
     0
100
AcDbPolyline
 90
       12
 70
   128
 43
0.0
 10
90.3657628697
 20
154.8938895254
 10
90.1647390313
 20
154.9398805758
 10
89.6669398782
 20
155.0836367033
 10
89.4042523574
 20
155.1826727223
 10
89.3020454605
 20
155.2323308146
 10
89.2987020274
 20
155.2275632182
 10
89.3447971439
 20
155.1641849332
 10
89.4053136151
 20
155.0108568816
 10
89.406227998
 20
154.7733285582
 10
89.3609465216
 20
154.6408559379
 10
89.3419386345
 20
154.5899567023
 10
89.3452303903
 20
154.5911173796
  0
LWPOLYLINE
  5
D7
330
1F
100
AcDbEntity
  8
0
  6
HIDDEN
 62
     7
370
     0
100
AcDbPolyline
 90
       13
 70
   128
 43
0.0
 10
104.4186492936
 20
160.4547601428
 10
104.2539156825
 20
160.4813787596
 10
102.9918853969
 20
160.6693715283
 10
101.603755895
 20
160.8609852726
 10
100.3690348917
 20
161.0203923172
 10
99.349262025
 20
161.1450169908
 10
98.5450373331
 20
161.2405480038
 10
97.6163230416
 20
161.3539356044
 10
96.4130160124
 20
161.5064374627
 10
94.9749323039
 20
161.6975414602
 10
93.9335152078
 20
161.8427319527
 10
92.9794164704
 20
161.9817105828
 10
92.4186492936
 20
162.0671754013
  0
LWPOLYLINE
  5
D8
330
1F
100
AcDbEntity
  8
0
  6
HIDDEN
 62
     7
370
     0
100
AcDbPolyline
 90
       11
 70
   128
 43
0.0
 10
90.3627105734
 20
162.4479787978
 10
89.9004355868
 20
162.5670430756
 10
89.5635492789
 20
162.6752859192
 10
89.3761567754
 20
162.7512094784
 10
89.2959506373
 20
162.7919303647
 10
89.2873763966
 20
162.7941312258
 10
89.3456937039
 20
162.7171290647
 10
89.4172636516
 20
162.4850276547
 10
89.3769354837
 20
162.2357381086
 10
89.3254807267
 20
162.1363585931
 10
89.3357304986
 20
162.1398421259
  0
LWPOLYLINE
  5
D9
330
1F
100
AcDbEntity
  8
0
  6
HIDDEN
 62
     7
370
     0
100
AcDbPolyline
 90
       15
 70
   128
 43
0.0
 10
104.4186492936
 20
168.0105185526
 10
104.1559588932
 20
168.0520993034
 10
103.2948012976
 20
168.1811281815
 10
102.3151035814
 20
168.3201143883
 10
101.2247846102
 20
168.4665025192
 10
100.0973501657
 20
168.6097530441
 10
99.044080657
 20
168.7366978794
 10
98.0619626825
 20
168.8546213198
 10
97.1494153696
 20
168.9679030815
 10
96.2610667576
 20
169.0817141921
 10
95.3378173093
 20
169.2039066172
 10
94.3979401381
 20
169.3327735468
 10
93.4639357283
 20
169.4659209133
 10
92.5592551583
 20
169.6006552056
 10
92.4186492936
 20
169.6229666571
  0
LWPOLYLINE
  5
DA
330
1F
100
AcDbEntity
  8
0
  6
HIDDEN
 62
     7
370
     0
100
AcDbPolyline
 90
       12
 70
   128
 43
0.0
 10
90.3692649245
 20
170.0053924412
 10
90.0965727249
 20
170.0683530217
 10
89.6931130121
 20
170.1862028279
 10
89.4304224336
 20
170.2830806392
 10
89.3087527042
 20
170.3405435083
 10
89.3034267643
 20
170.3319125565
 10
89.4023284085
 20
170.1338202043
 10
89.4070143475
 20
169.8881117277
 10
89.3576440228
 20
169.7519229291
 10
89.3358155797
 20
169.7152719765
 10
89.3227639806
 20
169.693905714
 10
89.3262718591
 20
169.692992675
  0
LWPOLYLINE
  5
DB
330
1F
100
AcDbEntity
  8
0
  6
HIDDEN
 62
     7
370
     0
100
AcDbPolyline
 90
       30
 70
   128
 43
0.0
 10
106.9186492936
 20
175.1018571232
 10
106.230615966
 20
175.2568276092
 10
105.5724587363
 20
175.3770816812
 10
104.8513473792
 20
175.4977857093
 10
103.9885842017
 20
175.6332964779
 10
102.9784401399
 20
175.7824028753
 10
101.8308850411
 20
175.9416898181
 10
100.6851833052
 20
176.0916008502
 10
99.6197128473
 20
176.2236739208
 10
98.6516214866
 20
176.3388820114
 10
97.758487235
 20
176.4474498145
 10
96.814966776
 20
176.5658898136
 10
95.7939130394
 20
176.6985827474
 10
94.7196409837
 20
176.8436810606
 10
93.6261266345
 20
176.9979523614
 10
92.5779633928
 20
177.1533471519
 10
91.6649546251
 20
177.2983247567
 10
90.8750448657
 20
177.4452646089
 10
90.2229860829
 20
177.5920101851
 10
89.7236140915
 20
177.732548649
 10
89.4913336501
 20
177.814077688
 10
89.3503529753
 20
177.8734532053
 10
89.3036965205
 20
177.891797226
 10
89.3246723806
 20
177.8608027985
 10
89.3680985084
 20
177.7853719612
 10
89.418663928
 20
177.5537114565
 10
89.3959737736
 20
177.4004396412
 10
89.3424040398
 20
177.2811342823
 10
89.3065771067
 20
177.2296197584
 10
89.312507161
 20
177.2320170333
  0
ARC
  5
DC
330
1F
100
AcDbEntity
  8
0
  6
HIDDEN
 62
     7
370
     0
100
AcDbCircle
 10
89.4446410021
 20
93.5046999401
 30
0.0
 40
90.85108337484822
100
AcDbArc
 50
78.910810262
 51
83.9014709249
  0
LWPOLYLINE
  5
DD
330
1F
100
AcDbEntity
  8
0
  6
HIDDEN
 62
     7
370
     0
100
AcDbPolyline
 90
       19
 70
   128
 43
0.0
 10
99.0958142805
 20
182.4416644966
 10
100.4515132964
 20
182.2762244757
 10
101.7078483437
 20
182.1123351643
 10
102.8350146176
 20
181.9555310733
 10
103.816609845
 20
181.8100701358
 10
104.8932788638
 20
181.638453719
 10
105.7206213332
 20
181.4948747331
 10
106.3473764173
 20
181.368937633
 10
106.9842762814
 20
181.2076028033
 10
107.348907795
 20
181.0844696131
 10
107.5257024189
 20
181.0043879658
 10
107.5396533018
 20
180.9996009068
 10
107.4927988156
 20
181.0622981423
 10
107.4245062407
 20
181.2534092228
 10
107.4268731045
 20
181.4282010074
 10
107.4605938601
 20
181.5435260603
 10
107.492753005
 20
181.6074071761
 10
107.5176040016
 20
181.6470341363
 10
107.5169552335
 20
181.6549058559
  0
LWPOLYLINE
  5
DE
330
1F
100
AcDbEntity
  8
0
  6
HIDDEN
 62
     7
370
     0
100
AcDbPolyline
 90
       29
 70
   128
 43
0.0
 10
89.9186492936
 20
176.2410917242
 10
90.4523961647
 20
176.1141697722
 10
91.2232274252
 20
175.9645298898
 10
92.2365573358
 20
175.7992117158
 10
93.2267716607
 20
175.651920913
 10
94.4476330728
 20
175.4791378353
 10
95.8765286278
 20
175.2868323819
 10
97.2277552774
 20
175.1134263738
 10
98.3847682577
 20
174.9709637067
 10
99.3289178229
 20
174.8584648814
 10
100.0766739069
 20
174.7675509507
 10
100.8110998506
 20
174.6748385155
 10
101.7364795701
 20
174.552893916
 10
102.8220920953
 20
174.4017670294
 10
104.0026602277
 20
174.2256828642
 10
105.0369702727
 20
174.0584030279
 10
105.8490911455
 20
173.9146543488
 10
106.4796562408
 20
173.7826639912
 10
106.9513901709
 20
173.661123302
 10
107.2996713241
 20
173.548319798
 10
107.4485218179
 20
173.4892232016
 10
107.5142511392
 20
173.4611587566
 10
107.5184316409
 20
173.4681987451
 10
107.4789980389
 20
173.5309227485
 10
107.4277026657
 20
173.6788933491
 10
107.4477721698
 20
173.9549993566
 10
107.5131145244
 20
174.0830034047
 10
107.544729159
 20
174.1237526046
 10
107.5432230298
 20
174.1230559463
  0
ARC
  5
DF
330
1F
100
AcDbEntity
  8
0
  6
HIDDEN
 62
     7
370
     0
100
AcDbCircle
 10
50.1394687777
 20
-191.5654392198
 30
0.0
 40
362.257732514656
100
AcDbArc
 50
81.3825884111
 51
83.297722099
  0
LWPOLYLINE
  5
E0
330
1F
100
AcDbEntity
  8
0
  6
HIDDEN
 62
     7
370
     0
100
AcDbPolyline
 90
       12
 70
   128
 43
0.0
 10
106.4756090818
 20
166.2271569108
 10
106.544207779
 20
166.2118711074
 10
106.9012907388
 20
166.1200432305
 10
107.2364803425
 20
166.0165323788
 10
107.4714626745
 20
165.9234891437
 10
107.5214809565
 20
165.9070985003
 10
107.4655499634
 20
166.0025052598
 10
107.4287260629
 20
166.1180663205
 10
107.4235825871
 20
166.296719226
 10
107.480071558
 20
166.4739627779
 10
107.535322006
 20
166.5559877976
 10
107.5301671273
 20
166.5566818651
  0
ARC
  5
E1
330
1F
100
AcDbEntity
  8
0
  6
HIDDEN
 62
     7
370
     0
100
AcDbCircle
 10
50.525322597
 20
-196.313433112
 30
0.0
 40
359.4247033331084
100
AcDbArc
 50
81.3763591807
 51
83.3065836439
  0
LWPOLYLINE
  5
E2
330
1F
100
AcDbEntity
  8
0
  6
HIDDEN
 62
     7
370
     0
100
AcDbPolyline
 90
        9
 70
   128
 43
0.0
 10
106.471845195
 20
158.6726230859
 10
106.9874639237
 20
158.540249597
 10
107.3575556726
 20
158.4159114736
 10
107.4968253159
 20
158.3625087985
 10
107.4650089289
 20
158.4448693299
 10
107.4191641597
 20
158.6926256384
 10
107.4869079819
 20
158.9318042822
 10
107.5342169259
 20
158.9999155194
 10
107.5489464362
 20
159.0172946943
  0
LWPOLYLINE
  5
E3
330
1F
100
AcDbEntity
  8
0
  6
HIDDEN
 62
     7
370
     0
100
AcDbPolyline
 90
       14
 70
   128
 43
0.0
 10
92.4186492936
 20
153.1062430389
 10
92.8030080516
 20
153.0474022992
 10
93.7074477662
 20
152.9161864334
 10
94.628884909
 20
152.7875251643
 10
95.480094519
 20
152.6725505473
 10
96.5792258714
 20
152.5290172687
 10
97.4311041105
 20
152.4213252832
 10
98.148634938
 20
152.3329296152
 10
99.0395155356
 20
152.2260857589
 10
100.1169505181
 20
152.0958902821
 10
101.3788611455
 20
151.9340608421
 10
102.7588847545
 20
151.7441618862
 10
103.9783290199
 20
151.5627935848
 10
104.4186492936
 20
151.4918950728
  0
LWPOLYLINE
  5
E4
330
1F
100
AcDbEntity
  8
0
  6
HIDDEN
 62
     7
370
     0
100
AcDbPolyline
 90
       11
 70
   128
 43
0.0
 10
106.4756438439
 20
151.1146779408
 10
106.7591033375
 20
151.0472228897
 10
107.1462241597
 20
150.934703066
 10
107.4327712179
 20
150.8266827665
 10
107.5133530824
 20
150.8005410293
 10
107.4716456351
 20
150.8746588879
 10
107.4304872039
 20
150.9978365497
 10
107.4240998694
 20
151.1896841279
 10
107.4697700673
 20
151.3432961785
 10
107.518952029
 20
151.4264317748
 10
107.525031361
 20
151.4418037398
  0
LWPOLYLINE
  5
E5
330
1F
100
AcDbEntity
  8
0
  6
HIDDEN
 62
     7
370
     0
100
AcDbPolyline
 90
       13
 70
   128
 43
0.0
 10
92.4186492936
 20
145.550288042
 10
93.2014026171
 20
145.4333832979
 10
94.3320048453
 20
145.2729194544
 10
95.3486151653
 20
145.1345294298
 10
96.2076208972
 20
145.021397968
 10
96.9119110688
 20
144.93104581
 10
97.7400669206
 20
144.8274508674
 10
98.7598017543
 20
144.7037295875
 10
99.9593904928
 20
144.559817833
 10
101.3440377171
 20
144.3831122076
 10
102.712938572
 20
144.1951692584
 10
103.8536144136
 20
144.0264687184
 10
104.4186492936
 20
143.936638471
  0
LWPOLYLINE
  5
E6
330
1F
100
AcDbEntity
  8
0
  6
HIDDEN
 62
     7
370
     0
100
AcDbPolyline
 90
       12
 70
   128
 43
0.0
 10
106.4796113774
 20
143.5596434512
 10
106.5252408706
 20
143.5497720542
 10
106.9984404101
 20
143.425318021
 10
107.3704770344
 20
143.2979460936
 10
107.5083447965
 20
143.2416156091
 10
107.4833074665
 20
143.2928111589
 10
107.444174356
 20
143.3891111822
 10
107.42230642
 20
143.4926197806
 10
107.4193824911
 20
143.584650167
 10
107.4339845344
 20
143.686887657
 10
107.4696729172
 20
143.7937144924
 10
107.5086130057
 20
143.8752559038
  0
LWPOLYLINE
  5
E7
330
1F
100
AcDbEntity
  8
0
  6
HIDDEN
 62
     7
370
     0
100
AcDbPolyline
 90
       13
 70
   128
 43
0.0
 10
92.4186492936
 20
137.993994926
 10
93.3371082928
 20
137.8581600027
 10
94.3474193565
 20
137.7152260776
 10
95.3526310749
 20
137.5784360591
 10
96.3267741475
 20
137.4504065617
 10
97.5432048566
 20
137.2962657613
 10
98.7737296391
 20
137.1465128092
 10
100.1571064009
 20
136.9797870609
 10
101.2989412563
 20
136.8335143235
 10
102.4595467783
 20
136.6755080975
 10
103.4920820076
 20
136.5257498461
 10
104.3788459058
 20
136.388693346
 10
104.4186492936
 20
136.3821320018
  0
LWPOLYLINE
  5
E8
330
1F
100
AcDbEntity
  8
0
  6
HIDDEN
 62
     7
370
     0
100
AcDbPolyline
 90
       10
 70
   128
 43
0.0
 10
106.4766160679
 20
136.0052600616
 10
107.0488597519
 20
135.8549533235
 10
107.4093138112
 20
135.7265593503
 10
107.5359596203
 20
135.6645292776
 10
107.5222382224
 20
135.6863271188
 10
107.4402192695
 20
135.8482560009
 10
107.4204568219
 20
136.0447379943
 10
107.4673265243
 20
136.2294579752
 10
107.5242165
 20
136.3297991904
 10
107.5080864564
 20
136.3235947352
  0
LWPOLYLINE
  5
E9
330
1F
100
AcDbEntity
  8
0
  6
HIDDEN
 62
     7
370
     0
100
AcDbPolyline
 90
       13
 70
   128
 43
0.0
 10
92.4186492936
 20
130.4394919944
 10
92.9498077633
 20
130.3590841964
 10
94.1988268987
 20
130.1803336776
 10
95.4873171573
 20
130.0049245863
 10
96.6489324729
 20
129.8534247287
 10
97.6441304972
 20
129.7281962778
 10
98.4552598936
 20
129.6291256228
 10
99.1628169575
 20
129.5448629578
 10
100.0970711354
 20
129.4316888183
 10
101.283702739
 20
129.2799683323
 10
102.675737225
 20
129.0893639475
 10
104.0456612974
 20
128.8856822009
 10
104.4186492936
 20
128.8250005004
  0
LWPOLYLINE
  5
EA
330
1F
100
AcDbEntity
  8
0
  6
HIDDEN
 62
     7
370
     0
100
AcDbPolyline
 90
       11
 70
   128
 43
0.0
 10
106.470085122
 20
128.4491010281
 10
106.6303961822
 20
128.4139088648
 10
107.0794709178
 20
128.290242184
 10
107.3560331145
 20
128.1933007968
 10
107.4994644273
 20
128.1286065186
 10
107.5496387038
 20
128.099877046
 10
107.5342412063
 20
128.1169457593
 10
107.4586787067
 20
128.2400710619
 10
107.4229321715
 20
128.5130586501
 10
107.4885662288
 20
128.718235262
 10
107.4859273478
 20
128.741441714
  0
LWPOLYLINE
  5
EB
330
1F
100
AcDbEntity
  8
0
  6
HIDDEN
 62
     7
370
     0
100
AcDbPolyline
 90
       12
 70
   128
 43
0.0
 10
92.4186492936
 20
122.8831605222
 10
93.6330109694
 20
122.704568081
 10
95.0835833859
 20
122.5034507232
 10
96.3575043122
 20
122.3353240577
 10
97.386971863
 20
122.2046082448
 10
98.1496205617
 20
122.1105874144
 10
98.9052026018
 20
122.0197648983
 10
99.8304340482
 20
121.9089813643
 10
100.930522646
 20
121.7705431312
 10
102.1757226804
 20
121.6039757917
 10
103.4540078083
 20
121.4203357241
 10
104.4186492936
 20
121.2704810837
  0
LWPOLYLINE
  5
EC
330
1F
100
AcDbEntity
  8
0
  6
HIDDEN
 62
     7
370
     0
100
AcDbPolyline
 90
       10
 70
   128
 43
0.0
 10
106.4747301827
 20
120.8918138783
 10
106.7454814213
 20
120.828992368
 10
107.1590853319
 20
120.7085655143
 10
107.4156883859
 20
120.6127504311
 10
107.5282947792
 20
120.5591147382
 10
107.4987597125
 20
120.6077555869
 10
107.4239357307
 20
120.8124141752
 10
107.43796662
 20
121.0334595432
 10
107.483941578
 20
121.1484590768
 10
107.516838794
 20
121.2101396958
  0
ARC
  5
ED
330
1F
100
AcDbEntity
  8
0
  6
HIDDEN
 62
     7
370
     0
100
AcDbCircle
 10
109.365509699
 20
215.8213831248
 30
0.0
 40
101.8985475515995
100
AcDbArc
 50
258.9978800826
 51
264.2157085546
  0
LWPOLYLINE
  5
EE
330
1F
100
AcDbEntity
  8
0
  6
HIDDEN
 62
     7
370
     0
100
AcDbPolyline
 90
       26
 70
   128
 43
0.0
 10
99.096276262
 20
183.8416442241
 10
98.0235490534
 20
183.8745416165
 10
96.9274491706
 20
183.9100213117
 10
95.8291740019
 20
183.9475308031
 10
94.7518130384
 20
183.9863841452
 10
93.7188875898
 20
184.0257981778
 10
92.7598570385
 20
184.0646378604
 10
91.9045297413
 20
184.1015252277
 10
91.1628718381
 20
184.1356966332
 10
90.5388436152
 20
184.1665103621
 10
90.0227592938
 20
184.1950957711
 10
89.6007900094
 20
184.2241846479
 10
89.2816563405
 20
184.2527197191
 10
89.136781515
 20
184.2614220094
 10
89.167620808
 20
184.211767941
 10
89.2899752775
 20
184.0680010452
 10
89.322099633
 20
184.0169056878
 10
89.3437544867
 20
183.9772000074
 10
89.3697932538
 20
183.9195482281
 10
89.4120544285
 20
183.7599393043
 10
89.4165395359
 20
183.6108800698
 10
89.3803051998
 20
183.4379838613
 10
89.3194580596
 20
183.3084755925
 10
89.1701670707
 20
183.1360289029
 10
89.0827395127
 20
183.0747162609
 10
89.0680491976
 20
183.0599424738
  0
ARC
  5
EF
330
1F
100
AcDbEntity
  8
0
  6
HIDDEN
 62
     7
370
     0
100
AcDbCircle
 10
107.7748434322
 20
520.042826427
 30
0.0
 40
337.7127140309066
100
AcDbArc
 50
266.9691343606
 51
268.5274109225
  0
LWPOLYLINE
  5
F0
330
1F
100
AcDbEntity
  8
0
  6
HIDDEN
 62
     7
370
     0
100
AcDbPolyline
 90
       20
 70
   128
 43
0.0
 10
99.0960662414
 20
184.4416474531
 10
100.2941438804
 20
184.4044475913
 10
101.4321927831
 20
184.366310142
 10
102.4854948155
 20
184.3283406257
 10
103.4365386724
 20
184.291530189
 10
104.5295412239
 20
184.2456249966
 10
105.4197672204
 20
184.204538695
 10
106.1197677518
 20
184.1689713996
 10
106.8644367166
 20
184.1262656032
 10
107.3300346783
 20
184.0942956413
 10
107.6078724302
 20
184.0687995688
 10
107.7452276777
 20
184.0533100398
 10
107.7465059096
 20
184.0686267002
 10
107.6458707326
 20
184.1479766745
 10
107.5080934915
 20
184.3242244104
 10
107.4431705538
 20
184.4822667938
 10
107.4186464483
 20
184.6693235676
 10
107.451476865
 20
184.8749533048
 10
107.5482322797
 20
185.0672927323
 10
107.5986265034
 20
185.1234780586
  0
LWPOLYLINE
  5
F1
330
1F
100
AcDbEntity
  8
0
  6
HIDDEN
 62
     7
370
     0
100
AcDbPolyline
 90
       22
 70
   128
 43
0.0
 10
99.0960811196
 20
114.441647028
 10
100.2829930778
 20
114.4048044418
 10
101.4114311276
 20
114.3670202777
 10
102.4572745079
 20
114.3293678906
 10
103.4033113736
 20
114.2928122812
 10
104.4934286545
 20
114.2471207809
 10
105.3845123867
 20
114.2060901153
 10
106.0881040257
 20
114.1704275426
 10
106.8408960186
 20
114.1273507319
 10
107.3143996065
 20
114.0950584805
 10
107.5992397418
 20
114.0692393399
 10
107.7487465293
 20
114.051545614
 10
107.7973047857
 20
114.0478952048
 10
107.7580830349
 20
114.0725236021
 10
107.6435165887
 20
114.1567063425
 10
107.5430899001
 20
114.2703450001
 10
107.4430751119
 20
114.4830582454
 10
107.4298811869
 20
114.7887113793
 10
107.5453025468
 20
115.0625217201
 10
107.6910576298
 20
115.2118337477
 10
107.7808439364
 20
115.2676100569
 10
107.7877553925
 20
115.2743027382
  0
ARC
  5
F2
330
1F
100
AcDbEntity
  8
0
  6
HIDDEN
 62
     7
370
     0
100
AcDbCircle
 10
91.9168594469
 20
-156.8986399443
 30
0.0
 40
272.8347607111003
100
AcDbArc
 50
86.8480081335
 51
88.492138919
  0
LWPOLYLINE
  5
F3
330
1F
100
AcDbEntity
  8
0
  6
HIDDEN
 62
     7
370
     0
100
AcDbPolyline
 90
       21
 70
   128
 43
0.0
 10
99.0962613856
 20
113.8416446491
 10
97.6447960991
 20
113.8865867085
 10
96.3317509256
 20
113.9301160172
 10
95.1951666451
 20
113.9701360709
 10
94.2414812883
 20
114.0055744761
 10
92.5996395943
 20
114.0713855406
 10
91.2836898474
 20
114.1301468306
 10
90.2733057696
 20
114.1813825877
 10
89.5188298804
 20
114.2327466656
 10
89.2504141292
 20
114.2582433084
 10
89.1134104281
 20
114.2677683844
 10
89.1615414591
 20
114.2051571586
 10
89.2061881901
 20
114.1625605921
 10
89.2874430594
 20
114.0687768507
 10
89.3371493609
 20
113.9895302613
 10
89.3830392109
 20
113.8833119132
 10
89.4181954937
 20
113.6397839516
 10
89.3859411924
 20
113.4551991532
 10
89.3376561501
 20
113.3409043092
 10
89.233799891
 20
113.1956774261
 10
89.1862320547
 20
113.1588986202
  0
LINE
  5
F4
330
1F
100
AcDbEntity
  8
0
  6
HIDDEN
 62
     7
370
     0
100
AcDbLine
 10
89.9186492936
 20
184.5223437489
 30
0.0
 11
89.9186492936
 21
183.122346034
 31
0.0
  0
LINE
  5
F5
330
1F
100
AcDbEntity
  8
0
  6
HIDDEN
 62
     7
370
     0
100
AcDbLine
 10
89.9186492936
 20
178.8800603731
 30
0.0
 11
89.9186492936
 21
177.4443531868
 31
0.0
  0
LINE
  5
F6
330
1F
100
AcDbEntity
  8
0
  6
HIDDEN
 62
     7
370
     0
100
AcDbLine
 10
89.9186492936
 20
171.3206139464
 30
0.0
 11
89.9186492936
 21
170.1416458382
 31
0.0
  0
LINE
  5
F7
330
1F
100
AcDbEntity
  8
0
  6
HIDDEN
 62
     7
370
     0
100
AcDbLine
 10
106.9186492936
 20
172.4594618169
 30
0.0
 11
106.9186492936
 21
173.8996295627
 31
0.0
  0
LINE
  5
F8
330
1F
100
AcDbEntity
  8
0
  6
HIDDEN
 62
     7
370
     0
100
AcDbLine
 10
106.9186492936
 20
180.0181119624
 30
0.0
 11
106.9186492936
 21
181.4548898711
 31
0.0
  0
LINE
  5
F9
330
1F
100
AcDbEntity
  8
0
  6
HIDDEN
 62
     7
370
     0
100
AcDbLine
 10
106.9186492936
 20
183.8033646914
 30
0.0
 11
106.9186492936
 21
185.1416458382
 31
0.0
  0
LINE
  5
FA
330
1F
100
AcDbEntity
  8
0
  6
HIDDEN
 62
     7
370
     0
100
AcDbLine
 10
92.4186492936
 20
164.2315464144
 30
0.0
 11
92.4186492936
 21
162.82601527
 31
0.0
  0
LINE
  5
FB
330
1F
100
AcDbEntity
  8
0
  6
HIDDEN
 62
     7
370
     0
100
AcDbLine
 10
92.4186492936
 20
156.6774557384
 30
0.0
 11
92.4186492936
 21
155.2706644808
 31
0.0
  0
LINE
  5
FC
330
1F
100
AcDbEntity
  8
0
  6
HIDDEN
 62
     7
370
     0
100
AcDbLine
 10
92.4186492936
 20
149.1213430029
 30
0.0
 11
92.4186492936
 21
147.7151440062
 31
0.0
  0
LINE
  5
FD
330
1F
100
AcDbEntity
  8
0
  6
HIDDEN
 62
     7
370
     0
100
AcDbLine
 10
92.4186492936
 20
141.5650413666
 30
0.0
 11
92.4186492936
 21
140.1592905262
 31
0.0
  0
LINE
  5
FE
330
1F
100
AcDbEntity
  8
0
  6
HIDDEN
 62
     7
370
     0
100
AcDbLine
 10
92.4186492936
 20
134.0105263511
 30
0.0
 11
92.4186492936
 21
132.603856674
 31
0.0
  0
LINE
  5
FF
330
1F
100
AcDbEntity
  8
0
  6
HIDDEN
 62
     7
370
     0
100
AcDbLine
 10
92.4186492936
 20
126.453385223
 30
0.0
 11
92.4186492936
 21
125.0483615132
 31
0.0
  0
LINE
  5
100
330
1F
100
AcDbEntity
  8
0
  6
HIDDEN
 62
     7
370
     0
100
AcDbLine
 10
92.4186492936
 20
120.1416458382
 30
0.0
 11
92.4186492936
 21
88.4416458382
 31
0.0
  0
LINE
  5
101
330
1F
100
AcDbEntity
  8
0
  6
HIDDEN
 62
     7
370
     0
100
AcDbLine
 10
104.4186492936
 20
88.4416458382
 30
0.0
 11
104.4186492936
 21
120.1416458382
 31
0.0
  0
LINE
  5
102
330
1F
100
AcDbEntity
  8
0
  6
HIDDEN
 62
     7
370
     0
100
AcDbLine
 10
104.4186492936
 20
126.6610708141
 30
0.0
 11
104.4186492936
 21
128.0674180579
 31
0.0
  0
LINE
  5
103
330
1F
100
AcDbEntity
  8
0
  6
HIDDEN
 62
     7
370
     0
100
AcDbLine
 10
104.4186492936
 20
134.2169302862
 30
0.0
 11
104.4186492936
 21
135.623375845
 31
0.0
  0
LINE
  5
104
330
1F
100
AcDbEntity
  8
0
  6
HIDDEN
 62
     7
370
     0
100
AcDbLine
 10
104.4186492936
 20
141.7726682331
 30
0.0
 11
104.4186492936
 21
143.1785418855
 31
0.0
  0
LINE
  5
105
330
1F
100
AcDbEntity
  8
0
  6
HIDDEN
 62
     7
370
     0
100
AcDbLine
 10
104.4186492936
 20
149.3276735126
 30
0.0
 11
104.4186492936
 21
150.7337001325
 31
0.0
  0
LINE
  5
106
330
1F
100
AcDbEntity
  8
0
  6
HIDDEN
 62
     7
370
     0
100
AcDbLine
 10
104.4186492936
 20
156.883344702
 30
0.0
 11
104.4186492936
 21
158.2895232606
 31
0.0
  0
LINE
  5
107
330
1F
100
AcDbEntity
  8
0
  6
HIDDEN
 62
     7
370
     0
100
AcDbLine
 10
104.4186492936
 20
164.4382703973
 30
0.0
 11
104.4186492936
 21
165.8453364743
 31
0.0
  0
LINE
  5
108
330
1F
100
AcDbEntity
  8
0
  6
HIDDEN
 62
     7
370
     0
100
AcDbLine
 10
104.1186492936
 20
87.1416458382
 30
0.0
 11
104.1186492936
 21
88.4416458382
 31
0.0
  0
LINE
  5
109
330
1F
100
AcDbEntity
  8
0
  6
HIDDEN
 62
     7
370
     0
100
AcDbLine
 10
92.7186492936
 20
88.4416458382
 30
0.0
 11
92.7186492936
 21
87.1416458382
 31
0.0
  0
LINE
  5
10A
330
1F
100
AcDbEntity
  8
0
  6
HIDDEN
 62
     7
370
     0
100
AcDbLine
 10
102.9921492936
 20
85.1416458382
 30
0.0
 11
102.7611462977
 21
92.5416458382
 31
0.0
  0
LINE
  5
10B
330
1F
100
AcDbEntity
  8
0
  6
HIDDEN
 62
     7
370
     0
100
AcDbLine
 10
94.0761522894
 20
92.5416458382
 30
0.0
 11
93.8451492936
 21
85.1416458382
 31
0.0
  0
LINE
  5
10C
330
1F
100
AcDbEntity
  8
0
  6
HIDDEN
 62
     7
370
     0
100
AcDbLine
 10
93.8451492936
 20
189.1416458382
 30
0.0
 11
94.0761522894
 21
181.7416458382
 31
0.0
  0
LINE
  5
10D
330
1F
100
AcDbEntity
  8
0
  6
HIDDEN
 62
     7
370
     0
100
AcDbLine
 10
102.7611462977
 20
181.7416458382
 30
0.0
 11
102.9921492936
 21
189.1416458382
 31
0.0
  0
LINE
  5
10E
330
1F
100
AcDbEntity
  8
0
  6
HIDDEN
 62
     7
370
     0
100
AcDbLine
 10
94.4686492936
 20
181.7416458382
 30
0.0
 11
94.4686492936
 21
177.2016458382
 31
0.0
  0
LINE
  5
10F
330
1F
100
AcDbEntity
  8
0
  6
HIDDEN
 62
     7
370
     0
100
AcDbLine
 10
102.3686492936
 20
177.2016458382
 30
0.0
 11
102.3686492936
 21
181.7416458382
 31
0.0
  0
LINE
  5
110
330
1F
100
AcDbEntity
  8
0
  6
HIDDEN
 62
     7
370
     0
100
AcDbLine
 10
94.4686492936
 20
177.2016458382
 30
0.0
 11
94.9186492936
 21
176.9312585596
 31
0.0
  0
LINE
  5
111
330
1F
100
AcDbEntity
  8
0
  6
HIDDEN
 62
     7
370
     0
100
AcDbLine
 10
101.9186492936
 20
176.9312585596
 30
0.0
 11
102.3686492936
 21
177.2016458382
 31
0.0
  0
LINE
  5
112
330
1F
100
AcDbEntity
  8
0
  6
HIDDEN
 62
     7
370
     0
100
AcDbLine
 10
102.3686492936
 20
97.0816458382
 30
0.0
 11
101.9186492936
 21
97.3520331168
 31
0.0
  0
LINE
  5
113
330
1F
100
AcDbEntity
  8
0
  6
HIDDEN
 62
     7
370
     0
100
AcDbLine
 10
94.9186492936
 20
97.3520331168
 30
0.0
 11
94.4686492936
 21
97.0816458382
 31
0.0
  0
LINE
  5
114
330
1F
100
AcDbEntity
  8
0
  6
HIDDEN
 62
     7
370
     0
100
AcDbLine
 10
102.3686492936
 20
92.5416458382
 30
0.0
 11
102.3686492936
 21
97.0816458382
 31
0.0
  0
LINE
  5
115
330
1F
100
AcDbEntity
  8
0
  6
HIDDEN
 62
     7
370
     0
100
AcDbLine
 10
94.4686492936
 20
97.0816458382
 30
0.0
 11
94.4686492936
 21
92.5416458382
 31
0.0
  0
LINE
  5
116
330
1F
100
AcDbEntity
  8
0
  6
HIDDEN
 62
     7
370
     0
100
AcDbLine
 10
94.9186492936
 20
176.9312585596
 30
0.0
 11
94.9186492936
 21
97.3520331168
 31
0.0
  0
LINE
  5
117
330
1F
100
AcDbEntity
  8
0
  6
HIDDEN
 62
     7
370
     0
100
AcDbLine
 10
101.9186492936
 20
97.3520331168
 30
0.0
 11
101.9186492936
 21
176.9312585596
 31
0.0
  0
DIMENSION
  5
118
330
1F
100
AcDbEntity
  8
0
  6
Continuous
 62
     7
370
     0
100
AcDbDimension
  2
*D1
 10
122.0748580338
 20
170.1416458382
 30
0.0
 11
122.0748580338
 21
177.6416458382
 31
0.0
 70
   160
 71
     1
 42
15.0
  3
SLDDIMSTYLE0
100
AcDbAlignedDimension
 13
110.3091154894
 23
185.1416458382
 33
0.0
 14
106.9186492936
 24
170.1416458382
 34
0.0
 50
90.0
100
AcDbRotatedDimension
1001
ACAD
1000
DSTYLE
1002
{
1070
    77
1070
     3
1070
   143
1040
0.0393700787
1070
    41
1040
3.0
1070
    44
1040
1.0
1070
    42
1040
1.0
1070
   147
1040
1.524
1070
    73
1070
     0
1070
    74
1070
     0
1070
   140
1040
3.5
1070
   284
1070
    12
1070
    78
1070
    12
1002
}
  0
DIMENSION
  5
130
330
1F
100
AcDbEntity
  8
0
  6
Continuous
 62
     7
370
     0
100
AcDbDimension
  2
*D2
 10
135.4495650458
 20
185.1416458382
 30
0.0
 11
135.4495650458
 21
194.0280508594
 31
0.0
 70
   160
 71
     1
 42
4.0
  3
SLDDIMSTYLE0
100
AcDbAlignedDimension
 13
110.4186492936
 23
189.1416458382
 33
0.0
 14
110.3091154894
 24
185.1416458382
 34
0.0
 50
90.0
100
AcDbRotatedDimension
1001
ACAD
1000
DSTYLE
1002
{
1070
    77
1070
     3
1070
   143
1040
0.0393700787
1070
    41
1040
3.0
1070
    44
1040
1.0
1070
    42
1040
1.0
1070
   147
1040
1.524
1070
    73
1070
     0
1070
    74
1070
     0
1070
   140
1040
3.5
1070
   284
1070
    12
1070
    78
1070
    12
1002
}
  0
DIMENSION
  5
147
330
1F
100
AcDbEntity
  8
0
  6
Continuous
 62
     7
370
     0
100
AcDbDimension
  2
*D3
 10
122.0748580338
 20
170.1416458382
 30
0.0
 11
122.0748580338
 21
145.1416458382
 31
0.0
 70
   160
  1
<>ST
 71
     1
 42
50.0
  3
SLDDIMSTYLE0
100
AcDbAlignedDimension
 13
106.4186492936
 23
120.1416458382
 33
0.0
 14
106.9186492936
 24
170.1416458382
 34
0.0
 50
90.0
100
AcDbRotatedDimension
1001
ACAD
1000
DSTYLE
1002
{
1070
    77
1070
     3
1070
   143
1040
0.0393700787
1070
    41
1040
3.0
1070
    44
1040
1.0
1070
    42
1040
1.0
1070
   147
1040
1.524
1070
    73
1070
     0
1070
    74
1070
     0
1070
   140
1040
3.5
1070
   284
1070
    12
1070
    78
1070
    12
1002
}
  0
DIMENSION
  5
15C
330
1F
100
AcDbEntity
  8
0
  6
Continuous
 62
     7
370
     0
100
AcDbDimension
  2
*D4
 10
135.4495650458
 20
185.1416458382
 30
0.0
 11
135.4495650458
 21
149.1416458382
 31
0.0
 70
   160
 71
     1
 42
72.0
  3
SLDDIMSTYLE0
100
AcDbAlignedDimension
 13
108.9186492936
 23
113.1416458382
 33
0.0
 14
110.3091154894
 24
185.1416458382
 34
0.0
 50
90.0
100
AcDbRotatedDimension
1001
ACAD
1000
DSTYLE
1002
{
1070
    77
1070
     3
1070
   143
1040
0.0393700787
1070
    41
1040
3.0
1070
    44
1040
1.0
1070
    42
1040
1.0
1070
   147
1040
1.524
1070
    73
1070
     0
1070
    74
1070
     0
1070
   140
1040
3.5
1070
   284
1070
    12
1070
    78
1070
    12
1002
}
  0
DIMENSION
  5
170
330
1F
100
AcDbEntity
  8
0
  6
Continuous
 62
     7
370
     0
100
AcDbDimension
  2
*D5
 10
108.4186492936
 20
69.0786381731
 30
0.0
 11
98.4186492936
 21
69.0786381731
 31
0.0
 70
   160
  1
%%c<>
 71
     1
 42
20.0
  3
SLDDIMSTYLE0
100
AcDbAlignedDimension
 13
88.4186492936
 23
88.6416458382
 33
0.0
 14
108.4186492936
 24
88.6416458382
 34
0.0
100
AcDbRotatedDimension
1001
ACAD
1000
DSTYLE
1002
{
1070
    77
1070
     3
1070
   143
1040
0.0393700787
1070
    41
1040
3.0
1070
    44
1040
1.0
1070
    42
1040
1.0
1070
   147
1040
1.524
1070
    73
1070
     0
1070
    74
1070
     0
1070
   140
1040
3.5
1070
   284
1070
    12
1070
    78
1070
    12
1002
}
  0
DIMENSION
  5
184
330
1F
100
AcDbEntity
  8
0
  6
Continuous
 62
     7
370
     0
100
AcDbDimension
  2
*D6
 10
135.4495650458
 20
108.1416458382
 30
0.0
 11
135.4495650458
 21
110.6416458382
 31
0.0
 70
   160
 71
     1
 42
5.0
  3
SLDDIMSTYLE0
100
AcDbAlignedDimension
 13
108.9186492936
 23
113.1416458382
 33
0.0
 14
108.9186492936
 24
108.1416458382
 34
0.0
 50
90.0
100
AcDbRotatedDimension
1001
ACAD
1000
DSTYLE
1002
{
1070
    77
1070
     3
1070
   143
1040
0.0393700787
1070
    41
1040
3.0
1070
    44
1040
1.0
1070
    42
1040
1.0
1070
   147
1040
1.524
1070
    73
1070
     0
1070
    74
1070
     0
1070
   140
1040
3.5
1070
   284
1070
    12
1070
    78
1070
    12
1002
}
  0
DIMENSION
  5
19B
330
1F
100
AcDbEntity
  8
0
  6
Continuous
 62
     7
370
     0
100
AcDbDimension
  2
*D7
 10
135.4495650458
 20
88.1416458382
 30
0.0
 11
135.4495650458
 21
98.1416458382
 31
0.0
 70
   160
 71
     1
 42
20.0
  3
SLDDIMSTYLE0
100
AcDbAlignedDimension
 13
108.9186492936
 23
108.1416458382
 33
0.0
 14
107.9186492936
 24
88.1416458382
 34
0.0
 50
90.0
100
AcDbRotatedDimension
1001
ACAD
1000
DSTYLE
1002
{
1070
    77
1070
     3
1070
   143
1040
0.0393700787
1070
    41
1040
3.0
1070
    44
1040
1.0
1070
    42
1040
1.0
1070
   147
1040
1.524
1070
    73
1070
     0
1070
    74
1070
     0
1070
   140
1040
3.5
1070
   284
1070
    12
1070
    78
1070
    12
1002
}
  0
DIMENSION
  5
1AF
330
1F
100
AcDbEntity
  8
0
  6
Continuous
 62
     7
370
     0
100
AcDbDimension
  2
*D8
 10
149.2131888814
 20
85.1416458382
 30
0.0
 11
149.2131888814
 21
137.1416458382
 31
0.0
 70
   160
 71
     1
 42
104.0
  3
SLDDIMSTYLE0
100
AcDbAlignedDimension
 13
110.4186492936
 23
189.1416458382
 33
0.0
 14
103.9186492936
 24
85.1416458382
 34
0.0
 50
90.0
100
AcDbRotatedDimension
1001
ACAD
1000
DSTYLE
1002
{
1070
    77
1070
     3
1070
   143
1040
0.0393700787
1070
    41
1040
3.0
1070
    44
1040
1.0
1070
    42
1040
1.0
1070
   147
1040
1.524
1070
    73
1070
     0
1070
    74
1070
     0
1070
   140
1040
3.5
1070
   284
1070
    12
1070
    78
1070
    12
1002
}
  0
LINE
  5
1C3
330
1F
100
AcDbEntity
  8
0
  6
Continuous
 62
     7
370
    30
100
AcDbLine
 10
98.4186492936
 20
218.3378732559
 30
0.0
 11
86.4186492936
 21
225.2660764862
 31
0.0
  0
LINE
  5
1C4
330
1F
100
AcDbEntity
  8
0
  6
Continuous
 62
     7
370
    30
100
AcDbLine
 10
86.4186492936
 20
225.2660764862
 30
0.0
 11
86.4186492936
 21
239.1224829467
 31
0.0
  0
LINE
  5
1C5
330
1F
100
AcDbEntity
  8
0
  6
Continuous
 62
     7
370
    30
100
AcDbLine
 10
110.4186492936
 20
239.1224829467
 30
0.0
 11
110.4186492936
 21
225.2660764862
 31
0.0
  0
LINE
  5
1C6
330
1F
100
AcDbEntity
  8
0
  6
Continuous
 62
     7
370
    30
100
AcDbLine
 10
110.4186492936
 20
225.2660764862
 30
0.0
 11
98.4186492936
 21
218.3378732559
 31
0.0
  0
CIRCLE
  5
1C7
330
1F
100
AcDbEntity
  8
0
  6
Continuous
 62
     7
370
    30
100
AcDbCircle
 10
98.4186492936
 20
232.1942797164
 30
0.0
 40
4.573499999999996
  0
LINE
  5
1C8
330
1F
100
AcDbEntity
  8
0
  6
Continuous
 62
     7
370
    30
100
AcDbLine
 10
86.4186492936
 20
239.1224829467
 30
0.0
 11
98.4186492936
 21
246.050686177
 31
0.0
  0
LINE
  5
1C9
330
1F
100
AcDbEntity
  8
0
  6
Continuous
 62
     7
370
    30
100
AcDbLine
 10
98.4186492936
 20
246.050686177
 30
0.0
 11
110.4186492936
 21
239.1224829467
 31
0.0
  0
CIRCLE
  5
1CA
330
1F
100
AcDbEntity
  8
0
  6
Continuous
 62
     7
370
    30
100
AcDbCircle
 10
98.4186492936
 20
232.1942797164
 30
0.0
 40
4.342497004116694
  0
CIRCLE
  5
1CB
330
1F
100
AcDbEntity
  8
0
  6
Continuous
 62
     7
370
    30
100
AcDbCircle
 10
98.4186492936
 20
232.1942797164
 30
0.0
 40
3.950000000000003
  0
CIRCLE
  5
1CC
330
1F
100
AcDbEntity
  8
0
  6
Continuous
 62
     7
370
    30
100
AcDbCircle
 10
98.4186492936
 20
232.1942797164
 30
0.0
 40
3.5
  0
ARC
  5
1CD
330
1F
100
AcDbEntity
  8
0
  6
HIDDEN
 62
     7
370
     0
100
AcDbCircle
 10
98.4186492936
 20
232.1942797164
 30
0.0
 40
13.84563039809167
100
AcDbArc
 50
89.9226716639
 51
90.0773283361
  0
ARC
  5
1CE
330
1F
100
AcDbEntity
  8
0
  6
HIDDEN
 62
     7
370
     0
100
AcDbCircle
 10
98.4186492936
 20
232.1942797164
 30
0.0
 40
13.84563039809165
100
AcDbArc
 50
29.9226716639
 51
30.0773283361
  0
ARC
  5
1CF
330
1F
100
AcDbEntity
  8
0
  6
HIDDEN
 62
     7
370
     0
100
AcDbCircle
 10
98.4186492936
 20
232.1942797164
 30
0.0
 40
13.84563039809165
100
AcDbArc
 50
149.9226716639
 51
150.0773283361
  0
ARC
  5
1D0
330
1F
100
AcDbEntity
  8
0
  6
HIDDEN
 62
     7
370
     0
100
AcDbCircle
 10
98.4186492936
 20
232.1942797164
 30
0.0
 40
13.84563039809165
100
AcDbArc
 50
209.9226716639
 51
210.0773283361
  0
ARC
  5
1D1
330
1F
100
AcDbEntity
  8
0
  6
HIDDEN
 62
     7
370
     0
100
AcDbCircle
 10
98.4186492936
 20
232.1942797164
 30
0.0
 40
13.84563039809165
100
AcDbArc
 50
329.9226716639
 51
330.0773283361
  0
ARC
  5
1D2
330
1F
100
AcDbEntity
  8
0
  6
HIDDEN
 62
     7
370
     0
100
AcDbCircle
 10
98.4186492936
 20
232.1942797164
 30
0.0
 40
13.84563039809164
100
AcDbArc
 50
269.9226716639
 51
270.0773283361
  0
CIRCLE
  5
1D3
330
1F
100
AcDbEntity
  8
0
  6
HIDDEN
 62
     7
370
     0
100
AcDbCircle
 10
98.4186492936
 20
232.1942797164
 30
0.0
 40
11.89046619582841
  0
CIRCLE
  5
1D4
330
1F
100
AcDbEntity
  8
0
  6
HIDDEN
 62
     7
370
     0
100
AcDbCircle
 10
98.4186492936
 20
232.1942797164
 30
0.0
 40
8.5
  0
CIRCLE
  5
1D5
330
1F
100
AcDbEntity
  8
0
  6
HIDDEN
 62
     7
370
     0
100
AcDbCircle
 10
98.4186492936
 20
232.1942797164
 30
0.0
 40
6.000000000000014
  0
CIRCLE
  5
1D6
330
1F
100
AcDbEntity
  8
0
  6
HIDDEN
 62
     7
370
     0
100
AcDbCircle
 10
98.4186492936
 20
232.1942797164
 30
0.0
 40
5.700000000000003
  0
CIRCLE
  5
1D7
330
1F
100
AcDbEntity
  8
0
  6
HIDDEN
 62
     7
370
     0
100
AcDbCircle
 10
98.4186492936
 20
232.1942797164
 30
0.0
 40
5.500000000000014
  0
DIMENSION
  5
1D8
330
1F
100
AcDbEntity
  8
0
  6
Continuous
 62
     7
370
     0
100
AcDbDimension
  2
*D9
 10
110.4186492936
 20
258.208501065
 30
0.0
 11
98.4186492936
 21
258.208501065
 31
0.0
 70
   160
 71
     1
 42
24.0
  3
SLDDIMSTYLE0
100
AcDbAlignedDimension
 13
86.4186492936
 23
239.1224829467
 33
0.0
 14
110.4186492936
 24
239.1224829467
 34
0.0
100
AcDbRotatedDimension
1001
ACAD
1000
DSTYLE
1002
{
1070
    77
1070
     3
1070
   143
1040
0.0393700787
1070
    41
1040
3.0
1070
    44
1040
1.0
1070
    42
1040
1.0
1070
   147
1040
1.524
1070
    73
1070
     0
1070
    74
1070
     0
1070
   140
1040
3.5
1070
   284
1070
    12
1070
    78
1070
    12
1002
}
  0
DIMENSION
  5
1EB
330
1F
100
AcDbEntity
  8
0
  6
Continuous
 62
     7
370
     0
100
AcDbDimension
  2
*D10
 10
69.5770456933
 20
218.3378732559
 30
0.0
 11
69.5770456933
 21
232.1942797164
 31
0.0
 70
   160
  1
(<>)
 71
     1
 42
27.7128129211
  3
SLDDIMSTYLE0
100
AcDbAlignedDimension
 13
98.4186492936
 23
246.050686177
 33
0.0
 14
98.4186492936
 24
218.3378732559
 34
0.0
 50
90.0
100
AcDbRotatedDimension
1001
ACAD
1000
DSTYLE
1002
{
1070
    77
1070
     3
1070
   143
1040
0.0393700787
1070
    41
1040
3.0
1070
    44
1040
1.0
1070
    42
1040
1.0
1070
   147
1040
1.524
1070
    73
1070
     0
1070
    74
1070
     0
1070
   140
1040
3.5
1070
   284
1070
    12
1070
    78
1070
    12
1002
}
  0
MTEXT
  5
201
330
1F
100
AcDbEntity
  8
0
  6
Continuous
 62
     7
370
     0
100
AcDbMText
 10
60.3869472181
 20
211.5372843215
 30
25.0
 40
3.5
 41
0.0
 71
     1
 72
     1
  1
PT1/8
  7
SLDTEXTSTYLE0
 73
     1
 44
1.0
  0
LEADER
  5
209
330
1F
100
AcDbEntity
  8
0
  6
Continuous
 62
     7
370
     0
100
AcDbLeader
  3
SLDDIMSTYLE1
 76
     3
 10
95.1212042701
 20
229.0250907718
 30
0.0
 10
71.0688782006
 20
207.461830538
 30
0.0
 10
60.3867372896
 20
207.461830538
 30
0.0
  0
INSERT
  5
215
330
1F
100
AcDbEntity
  8
0
  6
Continuous
 62
     7
370
     0
100
AcDbBlockReference
  2
SW_CENTERMARKSYMBOL_0
 10
98.4186492936
 20
232.1942797164
 30
0.0
  0
ENDSEC
  0
SECTION
  2
OBJECTS
  0
DICTIONARY
  5
C
330
0
100
AcDbDictionary
281
     1
  3
ACAD_GROUP
350
D
  3
ACAD_LAYOUT
350
1A
  3
ACAD_MLINESTYLE
350
17
  3
ACAD_PLOTSETTINGS
350
19
  3
ACAD_PLOTSTYLENAME
350
E
  0
DICTIONARY
  5
D
102
{ACAD_REACTORS
330
C
102
}
330
C
100
AcDbDictionary
281
     1
  0
DICTIONARY
  5
1A
102
{ACAD_REACTORS
330
C
102
}
330
C
100
AcDbDictionary
281
     1
  3
Layout1
350
1E
  3
Layout2
350
26
  3
Model
350
22
  0
DICTIONARY
  5
17
102
{ACAD_REACTORS
330
C
102
}
330
C
100
AcDbDictionary
281
     1
  3
Standard
350
18
  0
DICTIONARY
  5
19
102
{ACAD_REACTORS
330
C
102
}
330
C
100
AcDbDictionary
281
     1
  0
ACDBDICTIONARYWDFLT
  5
E
102
{ACAD_REACTORS
330
C
102
}
330
C
100
AcDbDictionary
281
     1
  3
Normal
350
F
100
AcDbDictionaryWithDefault
340
F
  0
LAYOUT
  5
1E
102
{ACAD_REACTORS
330
1A
102
}
330
1A
100
AcDbPlotSettings
  1

  2

  4

  6

 40
0.0
 41
0.0
 42
0.0
 43
0.0
 44
0.0
 45
0.0
 46
0.0
 47
0.0
 48
0.0
 49
0.0
140
0.0
141
0.0
142
1.0
143
1.0
 70
   688
 72
     0
 73
     0
 74
     5
  7

 75
    16
147
1.0
148
0.0
149
0.0
100
AcDbLayout
  1
Layout1
 70
     1
 71
     1
 10
0.0
 20
0.0
 11
0.0
 21
0.0
 12
0.0
 22
0.0
 32
0.0
 14
0.0
 24
0.0
 34
0.0
 15
0.0
 25
0.0
 35
0.0
146
0.0
 13
0.0
 23
0.0
 33
0.0
 16
1.0
 26
0.0
 36
0.0
 17
0.0
 27
1.0
 37
0.0
 76
     0
330
1B
  0
LAYOUT
  5
26
102
{ACAD_REACTORS
330
1A
102
}
330
1A
100
AcDbPlotSettings
  1

  2

  4

  6

 40
0.0
 41
0.0
 42
0.0
 43
0.0
 44
0.0
 45
0.0
 46
0.0
 47
0.0
 48
0.0
 49
0.0
140
0.0
141
0.0
142
1.0
143
1.0
 70
   688
 72
     0
 73
     0
 74
     5
  7

 75
    16
147
1.0
148
0.0
149
0.0
100
AcDbLayout
  1
Layout2
 70
     1
 71
     2
 10
0.0
 20
0.0
 11
0.0
 21
0.0
 12
0.0
 22
0.0
 32
0.0
 14
0.0
 24
0.0
 34
0.0
 15
0.0
 25
0.0
 35
0.0
146
0.0
 13
0.0
 23
0.0
 33
0.0
 16
1.0
 26
0.0
 36
0.0
 17
0.0
 27
1.0
 37
0.0
 76
     0
330
23
  0
LAYOUT
  5
22
102
{ACAD_REACTORS
330
1A
102
}
330
1A
100
AcDbPlotSettings
  1

  2

  4

  6

 40
0.0
 41
0.0
 42
0.0
 43
0.0
 44
0.0
 45
0.0
 46
0.0
 47
0.0
 48
0.0
 49
0.0
140
0.0
141
0.0
142
1.0
143
1.0
 70
  1712
 72
     0
 73
     0
 74
     0
  7

 75
     0
147
1.0
148
0.0
149
0.0
100
AcDbLayout
  1
Model
 70
     1
 71
     0
 10
0.0
 20
0.0
 11
0.0
 21
0.0
 12
0.0
 22
0.0
 32
0.0
 14
0.0
 24
0.0
 34
0.0
 15
210.0
 25
297.0
 35
0.0
146
0.0
 13
0.0
 23
0.0
 33
0.0
 16
1.0
 26
0.0
 36
0.0
 17
0.0
 27
1.0
 37
0.0
 76
     0
330
1F
  0
MLINESTYLE
  5
18
102
{ACAD_REACTORS
330
17
102
}
330
17
100
AcDbMlineStyle
  2
Standard
 70
     0
  3

 62
   256
 51
90.0
 52
90.0
 71
     2
 49
0.5
 62
   256
  6
BYLAYER
 49
-0.5
 62
   256
  6
BYLAYER
  0
ACDBPLACEHOLDER
  5
F
102
{ACAD_REACTORS
330
E
102
}
330
E
  0
ENDSEC
  0
EOF
