  0
SECTION
  2
HEADER
  9
$ACADVER
  1
AC1015
  9
$ACADMAINTVER
 70
     6
  9
$DWGCODEPAGE
  3
DOS932
  9
$INSBASE
 10
0.0
 20
0.0
 30
0.0
  9
$EXTMIN
 10
0.0
 20
0.0
 30
0.0
  9
$EXTMAX
 10
210.0
 20
297.0
 30
0.0
  9
$LIMMIN
 10
0.0
 20
0.0
  9
$LIMMAX
 10
0.0
 20
0.0
  9
$ORTHOMODE
 70
     0
  9
$REGENMODE
 70
     1
  9
$FILLMODE
 70
     1
  9
$QTEXTMODE
 70
     0
  9
$MIRRTEXT
 70
     1
  9
$LTSCALE
 40
1.0
  9
$ATTMODE
 70
     1
  9
$TEXTSIZE
 40
3.5
  9
$TRACEWID
 40
1.0
  9
$TEXTSTYLE
  7
Standard
  9
$CLAYER
  8
0
  9
$CELTYPE
  6
ByLayer
  9
$CECOLOR
 62
   256
  9
$CELTSCALE
 40
1.0
  9
$DISPSILH
 70
     0
  9
$DIMSCALE
 40
1.0
  9
$DIMASZ
 40
3.0
  9
$DIMEXO
 40
1.0
  9
$DIMDLI
 40
3.75
  9
$DIMRND
 40
0.0
  9
$DIMDLE
 40
0.0
  9
$DIMEXE
 40
1.0
  9
$DIMTP
 40
0.0
  9
$DIMTM
 40
0.0
  9
$DIMTXT
 40
3.5
  9
$DIMCEN
 40
2.5
  9
$DIMTSZ
 40
0.0
  9
$DIMTOL
 70
     0
  9
$DIMLIM
 70
     0
  9
$DIMTIH
 70
     1
  9
$DIMTOH
 70
     1
  9
$DIMSE1
 70
     0
  9
$DIMSE2
 70
     0
  9
$DIMTAD
 70
     1
  9
$DIMZIN
 70
     0
  9
$DIMBLK
  1

  9
$DIMASO
 70
     1
  9
$DIMSHO
 70
     1
  9
$DIMPOST
  1

  9
$DIMAPOST
  1

  9
$DIMALT
 70
     0
  9
$DIMALTD
 70
     3
  9
$DIMALTF
 40
0.0393700787
  9
$DIMLFAC
 40
1.0
  9
$DIMTOFL
 70
     1
  9
$DIMTVP
 40
0.0
  9
$DIMTIX
 70
     0
  9
$DIMSOXD
 70
     0
  9
$DIMSAH
 70
     0
  9
$DIMBLK1
  1

  9
$DIMBLK2
  1

  9
$DIMSTYLE
  2
ISO-25
  9
$DIMCLRD
 70
     0
  9
$DIMCLRE
 70
     0
  9
$DIMCLRT
 70
     0
  9
$DIMTFAC
 40
1.0
  9
$DIMGAP
 40
1.524
  9
$DIMJUST
 70
     0
  9
$DIMSD1
 70
     0
  9
$DIMSD2
 70
     0
  9
$DIMTOLJ
 70
     0
  9
$DIMTZIN
 70
     0
  9
$DIMALTZ
 70
     0
  9
$DIMALTTZ
 70
     0
  9
$DIMUPT
 70
     0
  9
$DIMDEC
 70
     2
  9
$DIMTDEC
 70
     2
  9
$DIMALTU
 70
     2
  9
$DIMALTTD
 70
     3
  9
$DIMTXSTY
  7
Standard
  9
$DIMAUNIT
 70
     0
  9
$DIMADEC
 70
     0
  9
$DIMALTRND
 40
0.0
  9
$DIMAZIN
 70
     0
  9
$DIMDSEP
 70
    44
  9
$DIMATFIT
 70
     3
  9
$DIMFRAC
 70
     0
  9
$DIMLDRBLK
  1

  9
$DIMLUNIT
 70
     2
  9
$DIMLWD
 70
    -2
  9
$DIMLWE
 70
    -2
  9
$DIMTMOVE
 70
     0
  9
$LUNITS
 70
     2
  9
$LUPREC
 70
     1
  9
$SKETCHINC
 40
1.0
  9
$FILLETRAD
 40
10.0
  9
$AUNITS
 70
     0
  9
$AUPREC
 70
     0
  9
$MENU
  1
.
  9
$ELEVATION
 40
0.0
  9
$PELEVATION
 40
0.0
  9
$THICKNESS
 40
0.0
  9
$LIMCHECK
 70
     0
  9
$CHAMFERA
 40
10.0
  9
$CHAMFERB
 40
10.0
  9
$CHAMFERC
 40
20.0
  9
$CHAMFERD
 40
0.0
  9
$SKPOLY
 70
     0
  9
$TDCREATE
 40
2454979.694184931
  9
$TDUCREATE
 40
2454979.319184931
  9
$TDUPDATE
 40
2454979.694184942
  9
$TDUUPDATE
 40
2454979.319184942
  9
$TDINDWG
 40
0.0000000116
  9
$TDUSRTIMER
 40
0.0000000116
  9
$USRTIMER
 70
     1
  9
$ANGBASE
 50
0.0
  9
$ANGDIR
 70
     0
  9
$PDMODE
 70
     0
  9
$PDSIZE
 40
-1.0
  9
$PLINEWID
 40
0.0
  9
$SPLFRAME
 70
     0
  9
$SPLINETYPE
 70
     6
  9
$SPLINESEGS
 70
     8
  9
$HANDSEED
  5
20B
  9
$SURFTAB1
 70
     6
  9
$SURFTAB2
 70
     6
  9
$SURFTYPE
 70
     6
  9
$SURFU
 70
     6
  9
$SURFV
 70
     6
  9
$UCSBASE
  2

  9
$UCSNAME
  2

  9
$UCSORG
 10
0.0
 20
0.0
 30
0.0
  9
$UCSXDIR
 10
1.0
 20
0.0
 30
0.0
  9
$UCSYDIR
 10
0.0
 20
1.0
 30
0.0
  9
$UCSORTHOREF
  2

  9
$UCSORTHOVIEW
 70
     0
  9
$UCSORGTOP
 10
0.0
 20
0.0
 30
0.0
  9
$UCSORGBOTTOM
 10
0.0
 20
0.0
 30
0.0
  9
$UCSORGLEFT
 10
0.0
 20
0.0
 30
0.0
  9
$UCSORGRIGHT
 10
0.0
 20
0.0
 30
0.0
  9
$UCSORGFRONT
 10
0.0
 20
0.0
 30
0.0
  9
$UCSORGBACK
 10
0.0
 20
0.0
 30
0.0
  9
$PUCSBASE
  2

  9
$PUCSNAME
  2

  9
$PUCSORG
 10
0.0
 20
0.0
 30
0.0
  9
$PUCSXDIR
 10
1.0
 20
0.0
 30
0.0
  9
$PUCSYDIR
 10
0.0
 20
1.0
 30
0.0
  9
$PUCSORTHOREF
  2

  9
$PUCSORTHOVIEW
 70
     0
  9
$PUCSORGTOP
 10
0.0
 20
0.0
 30
0.0
  9
$PUCSORGBOTTOM
 10
0.0
 20
0.0
 30
0.0
  9
$PUCSORGLEFT
 10
0.0
 20
0.0
 30
0.0
  9
$PUCSORGRIGHT
 10
0.0
 20
0.0
 30
0.0
  9
$PUCSORGFRONT
 10
0.0
 20
0.0
 30
0.0
  9
$PUCSORGBACK
 10
0.0
 20
0.0
 30
0.0
  9
$USERI1
 70
     0
  9
$USERI2
 70
     0
  9
$USERI3
 70
     0
  9
$USERI4
 70
     0
  9
$USERI5
 70
     0
  9
$USERR1
 40
0.0
  9
$USERR2
 40
0.0
  9
$USERR3
 40
0.0
  9
$USERR4
 40
0.0
  9
$USERR5
 40
0.0
  9
$WORLDVIEW
 70
     1
  9
$SHADEDGE
 70
     3
  9
$SHADEDIF
 70
    70
  9
$TILEMODE
 70
     1
  9
$MAXACTVP
 70
    64
  9
$PINSBASE
 10
0.0
 20
0.0
 30
0.0
  9
$PLIMCHECK
 70
     0
  9
$PEXTMIN
 10
1.0000000000E+20
 20
1.0000000000E+20
 30
1.0000000000E+20
  9
$PEXTMAX
 10
-1.0000000000E+20
 20
-1.0000000000E+20
 30
-1.0000000000E+20
  9
$PLIMMIN
 10
0.0
 20
0.0
  9
$PLIMMAX
 10
420.0
 20
297.0
  9
$UNITMODE
 70
     0
  9
$VISRETAIN
 70
     1
  9
$PLINEGEN
 70
     0
  9
$PSLTSCALE
 70
     1
  9
$TREEDEPTH
 70
  3020
  9
$CMLSTYLE
  2
Standard
  9
$CMLJUST
 70
     0
  9
$CMLSCALE
 40
20.0
  9
$PROXYGRAPHICS
 70
     1
  9
$MEASUREMENT
 70
     1
  9
$CELWEIGHT
370
    -1
  9
$ENDCAPS
280
     0
  9
$JOINSTYLE
280
     0
  9
$LWDISPLAY
290
     1
  9
$INSUNITS
 70
     4
  9
$HYPERLINKBASE
  1

  9
$STYLESHEET
  1

  9
$XEDIT
290
     1
  9
$CEPSNTYPE
380
     0
  9
$PSTYLEMODE
290
     1
  9
$FINGERPRINTGUID
  2
{38AC41BC-AB67-4307-806A-4CA5834FF056}
  9
$VERSIONGUID
  2
{FAEB1C32-E019-11D5-929B-00C0DF256EC4}
  9
$EXTNAMES
290
     1
  9
$PSVPSCALE
 40
0.0
  9
$OLESTARTUP
290
     0
  0
ENDSEC
  0
SECTION
  2
CLASSES
  0
CLASS
  1
ACDBDICTIONARYWDFLT
  2
AcDbDictionaryWithDefault
  3
ObjectDBX Classes
 90
        0
280
     0
281
     0
  0
CLASS
  1
ACDBPLACEHOLDER
  2
AcDbPlaceHolder
  3
ObjectDBX Classes
 90
        0
280
     0
281
     0
  0
CLASS
  1
LAYOUT
  2
AcDbLayout
  3
ObjectDBX Classes
 90
        0
280
     0
281
     0
  0
ENDSEC
  0
SECTION
  2
TABLES
  0
TABLE
  2
VPORT
  5
8
330
0
100
AcDbSymbolTable
 70
     1
  0
VPORT
  5
29
330
8
100
AcDbSymbolTableRecord
100
AcDbViewportTableRecord
  2
*Active
 70
     0
 10
0.0
 20
0.0
 11
1.0
 21
1.0
 12
105.0
 22
148.5
 13
0.0
 23
0.0
 14
10.0
 24
10.0
 15
10.0
 25
10.0
 16
0.0
 26
0.0
 36
1.0
 17
0.0
 27
0.0
 37
0.0
 40
297.0
 41
1.9729729729
 42
50.0
 43
0.0
 44
0.0
 50
0.0
 51
0.0
 71
     0
 72
  2000
 73
     1
 74
     3
 75
     0
 76
     0
 77
     0
 78
     0
281
     0
 65
     1
110
0.0
120
0.0
130
0.0
111
1.0
121
0.0
131
0.0
112
0.0
122
1.0
132
0.0
 79
     0
146
0.0
  0
ENDTAB
  0
TABLE
  2
LTYPE
  5
5
330
0
100
AcDbSymbolTable
 70
     6
  0
LTYPE
  5
14
330
5
100
AcDbSymbolTableRecord
100
AcDbLinetypeTableRecord
  2
ByBlock
 70
     0
  3

 72
    65
 73
     0
 40
0.0
  0
LTYPE
  5
15
330
5
100
AcDbSymbolTableRecord
100
AcDbLinetypeTableRecord
  2
ByLayer
 70
     0
  3

 72
    65
 73
     0
 40
0.0
  0
LTYPE
  5
16
330
5
100
AcDbSymbolTableRecord
100
AcDbLinetypeTableRecord
  2
Continuous
 70
     0
  3
Solid line
 72
    65
 73
     0
 40
0.0
  0
LTYPE
  5
2A
330
5
100
AcDbSymbolTableRecord
100
AcDbLinetypeTableRecord
  2
HIDDEN
 70
     0
  3
Hidden __ __ __ __ __ __ __ __ __ __ __ __ __ __
 72
    65
 73
     2
 40
1.905
 49
1.27
 74
     0
 49
-0.635
 74
     0
  0
LTYPE
  5
2B
330
5
100
AcDbSymbolTableRecord
100
AcDbLinetypeTableRecord
  2
PHANTOM
 70
     0
  3
Phantom ______  __  __  ______  __  __  ______
 72
    65
 73
     6
 40
12.7
 49
6.35
 74
     0
 49
-1.27
 74
     0
 49
1.27
 74
     0
 49
-1.27
 74
     0
 49
1.27
 74
     0
 49
-1.27
 74
     0
  0
LTYPE
  5
2C
330
5
100
AcDbSymbolTableRecord
100
AcDbLinetypeTableRecord
  2
CENTER
 70
     0
  3
Center ____ _ ____ _ ____ _ ____ _ ____ _ ____
 72
    65
 73
     4
 40
10.16
 49
6.35
 74
     0
 49
-1.27
 74
     0
 49
1.27
 74
     0
 49
-1.27
 74
     0
  0
LTYPE
  5
2D
330
5
100
AcDbSymbolTableRecord
100
AcDbLinetypeTableRecord
  2
CENTERX2
 70
     0
  3
Center (2x) ________  __  ________  __  _____
 72
    65
 73
     4
 40
20.32
 49
12.7
 74
     0
 49
-2.54
 74
     0
 49
2.54
 74
     0
 49
-2.54
 74
     0
  0
LTYPE
  5
2E
330
5
100
AcDbSymbolTableRecord
100
AcDbLinetypeTableRecord
  2
DOT2
 70
     0
  3
Dot (.5x) ........................................
 72
    65
 73
     2
 40
0.635
 49
0.0
 74
     0
 49
-0.635
 74
     0
  0
ENDTAB
  0
TABLE
  2
LAYER
  5
2
330
0
100
AcDbSymbolTable
 70
     2
  0
LAYER
  5
10
330
2
100
AcDbSymbolTableRecord
100
AcDbLayerTableRecord
  2
0
 70
     0
 62
     7
  6
Continuous
370
    -3
390
F
  0
LAYER
  5
117
330
2
100
AcDbSymbolTableRecord
100
AcDbLayerTableRecord
  2
Defpoints
 70
     0
 62
     7
  6
Continuous
290
     0
370
    -3
390
F
  0
ENDTAB
  0
TABLE
  2
STYLE
  5
3
330
0
100
AcDbSymbolTable
 70
     2
  0
STYLE
  5
11
330
3
100
AcDbSymbolTableRecord
100
AcDbTextStyleTableRecord
  2
Standard
 70
     0
 40
0.0
 41
1.0
 50
0.0
 71
     0
 42
2.5
  3
txt
  4
bigfont
  0
STYLE
  5
37
330
3
100
AcDbSymbolTableRecord
100
AcDbTextStyleTableRecord
  2
SLDTEXTSTYLE0
 70
     0
 40
0.0
 41
0.7
 50
0.0
 71
     0
 42
0.2
  3
TXT
  4
bigfont
  0
ENDTAB
  0
TABLE
  2
VIEW
  5
6
330
0
100
AcDbSymbolTable
 70
     0
  0
ENDTAB
  0
TABLE
  2
UCS
  5
7
330
0
100
AcDbSymbolTable
 70
     0
  0
ENDTAB
  0
TABLE
  2
APPID
  5
9
330
0
100
AcDbSymbolTable
 70
     1
  0
APPID
  5
12
330
9
100
AcDbSymbolTableRecord
100
AcDbRegAppTableRecord
  2
ACAD
 70
     0
  0
ENDTAB
  0
TABLE
  2
DIMSTYLE
  5
A
330
0
100
AcDbSymbolTable
 70
     3
100
AcDbDimStyleTable
  0
DIMSTYLE
105
27
330
A
100
AcDbSymbolTableRecord
100
AcDbDimStyleTableRecord
  2
ISO-25
 70
     0
 41
2.5
 42
0.625
 43
3.75
 44
1.25
 73
     0
 74
     0
 77
     1
 78
     8
140
2.5
141
2.5
143
0.0393700787
147
0.625
171
     3
172
     1
271
     2
272
     2
274
     3
278
    44
283
     0
284
     8
340
11
  0
DIMSTYLE
105
125
102
{ACAD_REACTORS
330
116
330
12C
330
143
330
158
330
16F
330
186
330
19A
330
1D4
330
1E8
102
}
330
A
100
AcDbSymbolTableRecord
100
AcDbDimStyleTableRecord
  2
SLDDIMSTYLE0
 70
     0
 41
3.0
 44
0.0
 73
     0
 74
     0
 77
     3
 78
    12
140
3.5
147
0.875
173
     1
271
     1
272
     3
284
    12
340
37
  0
DIMSTYLE
105
1AF
330
A
100
AcDbSymbolTableRecord
100
AcDbDimStyleTableRecord
  2
SLDDIMSTYLE1
 70
     0
 41
3.0
 44
0.0
140
3.0
147
0.75
173
     1
271
     0
272
     0
340
11
341
1B0
343
1B0
344
1B0
  0
ENDTAB
  0
TABLE
  2
BLOCK_RECORD
  5
1
330
0
100
AcDbSymbolTable
 70
    12
  0
BLOCK_RECORD
  5
1F
330
1
100
AcDbSymbolTableRecord
100
AcDbBlockTableRecord
  2
*Model_Space
340
22
  0
BLOCK_RECORD
  5
1B
330
1
100
AcDbSymbolTableRecord
100
AcDbBlockTableRecord
  2
*Paper_Space
340
1E
  0
BLOCK_RECORD
  5
23
330
1
100
AcDbSymbolTableRecord
100
AcDbBlockTableRecord
  2
*Paper_Space0
340
26
  0
BLOCK_RECORD
  5
118
330
1
100
AcDbSymbolTableRecord
100
AcDbBlockTableRecord
  2
*D1
340
0
  0
BLOCK_RECORD
  5
12D
330
1
100
AcDbSymbolTableRecord
100
AcDbBlockTableRecord
  2
*D2
340
0
  0
BLOCK_RECORD
  5
144
330
1
100
AcDbSymbolTableRecord
100
AcDbBlockTableRecord
  2
*D3
340
0
  0
BLOCK_RECORD
  5
159
330
1
100
AcDbSymbolTableRecord
100
AcDbBlockTableRecord
  2
*D4
340
0
  0
BLOCK_RECORD
  5
170
330
1
100
AcDbSymbolTableRecord
100
AcDbBlockTableRecord
  2
*D5
340
0
  0
BLOCK_RECORD
  5
187
330
1
100
AcDbSymbolTableRecord
100
AcDbBlockTableRecord
  2
*D6
340
0
  0
BLOCK_RECORD
  5
19B
330
1
100
AcDbSymbolTableRecord
100
AcDbBlockTableRecord
  2
*D7
340
0
  0
BLOCK_RECORD
  5
1B0
330
1
100
AcDbSymbolTableRecord
100
AcDbBlockTableRecord
  2
_Open30
340
0
  0
BLOCK_RECORD
  5
1D5
330
1
100
AcDbSymbolTableRecord
100
AcDbBlockTableRecord
  2
*D9
340
0
  0
BLOCK_RECORD
  5
1E9
330
1
100
AcDbSymbolTableRecord
100
AcDbBlockTableRecord
  2
*D10
340
0
  0
BLOCK_RECORD
  5
1FF
330
1
100
AcDbSymbolTableRecord
100
AcDbBlockTableRecord
  2
SW_CENTERMARKSYMBOL_0
340
0
102
{BLKREFS
331
20A
102
}
  0
ENDTAB
  0
ENDSEC
  0
SECTION
  2
BLOCKS
  0
BLOCK
  5
20
330
1F
100
AcDbEntity
  8
0
100
AcDbBlockBegin
  2
*Model_Space
 70
     0
 71
     0
 10
0.0
 20
0.0
 30
0.0
  3
*Model_Space
  1

  0
ENDBLK
  5
21
330
1F
100
AcDbEntity
  8
0
100
AcDbBlockEnd
  0
BLOCK
  5
1C
330
1B
100
AcDbEntity
 67
     1
  8
0
100
AcDbBlockBegin
  2
*Paper_Space
 70
     0
 71
     0
 10
0.0
 20
0.0
 30
0.0
  3
*Paper_Space
  1

  0
ENDBLK
  5
1D
330
1B
100
AcDbEntity
 67
     1
  8
0
100
AcDbBlockEnd
  0
BLOCK
  5
24
330
23
100
AcDbEntity
  8
0
100
AcDbBlockBegin
  2
*Paper_Space0
 70
     0
 71
     0
 10
0.0
 20
0.0
 30
0.0
  3
*Paper_Space0
  1

  0
ENDBLK
  5
25
330
23
100
AcDbEntity
  8
0
100
AcDbBlockEnd
  0
BLOCK
  5
123
330
118
100
AcDbEntity
  8
0
100
AcDbBlockBegin
  2
*D1
 70
     1
 71
     0
 10
0.0
 20
0.0
 30
0.0
  3
*D1
  1

  0
SOLID
  5
126
330
118
100
AcDbEntity
  8
0
  6
Continuous
 62
     7
370
     0
100
AcDbTrace
 10
136.6748376233
 20
178.044209091
 30
0.0
 11
135.9248376233
 21
175.044209091
 31
0.0
 12
137.4248376233
 22
175.044209091
 32
0.0
 13
137.4248376233
 23
175.044209091
 33
0.0
  0
SOLID
  5
127
330
118
100
AcDbEntity
  8
0
  6
Continuous
 62
     7
370
     0
100
AcDbTrace
 10
136.6748376233
 20
146.044209091
 30
0.0
 11
137.4248376233
 21
149.044209091
 31
0.0
 12
135.9248376233
 22
149.044209091
 32
0.0
 13
135.9248376233
 23
149.044209091
 33
0.0
  0
LINE
  5
128
330
118
100
AcDbEntity
  8
0
  6
Continuous
 62
     7
370
     0
100
AcDbLine
 10
116.8353560476
 20
178.044209091
 30
0.0
 11
137.6748376233
 21
178.044209091
 31
0.0
  0
LINE
  5
129
330
118
100
AcDbEntity
  8
0
  6
Continuous
 62
     7
370
     0
100
AcDbLine
 10
118.3858520701
 20
146.044209091
 30
0.0
 11
137.6748376233
 21
146.044209091
 31
0.0
  0
LINE
  5
12A
330
118
100
AcDbEntity
  8
0
  6
Continuous
 62
     7
370
     0
100
AcDbLine
 10
136.6748376233
 20
178.044209091
 30
0.0
 11
136.6748376233
 21
146.044209091
 31
0.0
  0
MTEXT
  5
12B
330
118
100
AcDbEntity
  8
0
  6
Continuous
 62
     7
370
     0
100
AcDbMText
 10
132.6021105834
 20
160.0076868082
 30
0.0
 40
3.5
 41
0.0
 71
     1
 72
     1
  1
32
  7
SLDTEXTSTYLE0
 11
-7.044197039909883E-15
 21
1.0
 31
0.0
 73
     1
 44
1.0
  0
ENDBLK
  5
124
330
118
100
AcDbEntity
  8
0
100
AcDbBlockEnd
  0
BLOCK
  5
138
330
12D
100
AcDbEntity
  8
0
100
AcDbBlockBegin
  2
*D2
 70
     1
 71
     0
 10
0.0
 20
0.0
 30
0.0
  3
*D2
  1

  0
SOLID
  5
13B
330
12D
100
AcDbEntity
  8
0
  6
Continuous
 62
     7
370
     0
100
AcDbTrace
 10
123.9891142462
 20
146.044209091
 30
0.0
 11
123.2391142462
 21
143.044209091
 31
0.0
 12
124.7391142462
 22
143.044209091
 32
0.0
 13
124.7391142462
 23
143.044209091
 33
0.0
  0
SOLID
  5
13C
330
12D
100
AcDbEntity
  8
0
  6
Continuous
 62
     7
370
     0
100
AcDbTrace
 10
123.9891142462
 20
153.044209091
 30
0.0
 11
124.7391142462
 21
156.044209091
 31
0.0
 12
123.2391142462
 22
156.044209091
 32
0.0
 13
123.2391142462
 23
156.044209091
 33
0.0
  0
LINE
  5
13D
330
12D
100
AcDbEntity
  8
0
  6
Continuous
 62
     7
370
     0
100
AcDbLine
 10
118.3858520701
 20
146.044209091
 30
0.0
 11
124.9891142462
 21
146.044209091
 31
0.0
  0
LINE
  5
13E
330
12D
100
AcDbEntity
  8
0
  6
Continuous
 62
     7
370
     0
100
AcDbLine
 10
113.4448898518
 20
153.044209091
 30
0.0
 11
124.9891142462
 21
153.044209091
 31
0.0
  0
LINE
  5
13F
330
12D
100
AcDbEntity
  8
0
  6
Continuous
 62
     7
370
     0
100
AcDbLine
 10
123.9891142462
 20
146.044209091
 30
0.0
 11
123.9891142462
 21
141.044209091
 31
0.0
  0
LINE
  5
140
330
12D
100
AcDbEntity
  8
0
  6
Continuous
 62
     7
370
     0
100
AcDbLine
 10
123.9891142462
 20
146.044209091
 30
0.0
 11
123.9891142462
 21
153.044209091
 31
0.0
  0
LINE
  5
141
330
12D
100
AcDbEntity
  8
0
  6
Continuous
 62
     7
370
     0
100
AcDbLine
 10
123.9891142462
 20
153.044209091
 30
0.0
 11
123.9891142462
 21
158.044209091
 31
0.0
  0
MTEXT
  5
142
330
12D
100
AcDbEntity
  8
0
  6
Continuous
 62
     7
370
     0
100
AcDbMText
 10
119.9163872063
 20
148.5265052902
 30
0.0
 40
3.5
 41
0.0
 71
     1
 72
     1
  1
7
  7
SLDTEXTSTYLE0
 11
6.123031769111886E-17
 21
1.0
 31
0.0
 73
     1
 44
1.0
  0
ENDBLK
  5
139
330
12D
100
AcDbEntity
  8
0
100
AcDbBlockEnd
  0
BLOCK
  5
14F
330
144
100
AcDbEntity
  8
0
100
AcDbBlockBegin
  2
*D3
 70
     1
 71
     0
 10
0.0
 20
0.0
 30
0.0
  3
*D3
  1

  0
SOLID
  5
151
330
144
100
AcDbEntity
  8
0
  6
Continuous
 62
     7
370
     0
100
AcDbTrace
 10
123.9891142462
 20
173.044209091
 30
0.0
 11
123.2391142462
 21
170.044209091
 31
0.0
 12
124.7391142462
 22
170.044209091
 32
0.0
 13
124.7391142462
 23
170.044209091
 33
0.0
  0
SOLID
  5
152
330
144
100
AcDbEntity
  8
0
  6
Continuous
 62
     7
370
     0
100
AcDbTrace
 10
123.9891142462
 20
153.044209091
 30
0.0
 11
124.7391142462
 21
156.044209091
 31
0.0
 12
123.2391142462
 22
156.044209091
 32
0.0
 13
123.2391142462
 23
156.044209091
 33
0.0
  0
LINE
  5
153
330
144
100
AcDbEntity
  8
0
  6
Continuous
 62
     7
370
     0
100
AcDbLine
 10
113.4448898518
 20
173.044209091
 30
0.0
 11
124.9891142462
 21
173.044209091
 31
0.0
  0
LINE
  5
154
330
144
100
AcDbEntity
  8
0
  6
Continuous
 62
     7
370
     0
100
AcDbLine
 10
113.4448898518
 20
153.044209091
 30
0.0
 11
124.9891142462
 21
153.044209091
 31
0.0
  0
LINE
  5
155
330
144
100
AcDbEntity
  8
0
  6
Continuous
 62
     7
370
     0
100
AcDbLine
 10
123.9891142462
 20
173.044209091
 30
0.0
 11
123.9891142462
 21
153.044209091
 31
0.0
  0
MTEXT
  5
156
330
144
100
AcDbEntity
  8
0
  6
Continuous
 62
     7
370
     0
100
AcDbMText
 10
119.9163872063
 20
158.9711645254
 30
0.0
 40
3.5
 41
0.0
 71
     1
 72
     1
  1
20
  7
SLDTEXTSTYLE0
 11
-7.044197039909883E-15
 21
1.0
 31
0.0
 73
     1
 44
1.0
  0
MTEXT
  5
157
330
144
100
AcDbEntity
  8
0
  6
Continuous
 62
     7
370
     0
100
AcDbMText
 10
119.9163872063
 20
163.044209091
 30
0.0
 40
3.5
 41
0.0
 71
     1
 72
     1
  1
ST
  7
SLDTEXTSTYLE0
 11
-7.044197039909883E-15
 21
1.0
 31
0.0
 73
     1
 44
1.0
  0
ENDBLK
  5
150
330
144
100
AcDbEntity
  8
0
100
AcDbBlockEnd
  0
BLOCK
  5
164
330
159
100
AcDbEntity
  8
0
100
AcDbBlockBegin
  2
*D4
 70
     1
 71
     0
 10
0.0
 20
0.0
 30
0.0
  3
*D4
  1

  0
SOLID
  5
167
330
159
100
AcDbEntity
  8
0
  6
Continuous
 62
     7
370
     0
100
AcDbTrace
 10
136.6748376233
 20
182.044209091
 30
0.0
 11
137.4248376233
 21
185.044209091
 31
0.0
 12
135.9248376233
 22
185.044209091
 32
0.0
 13
135.9248376233
 23
185.044209091
 33
0.0
  0
SOLID
  5
168
330
159
100
AcDbEntity
  8
0
  6
Continuous
 62
     7
370
     0
100
AcDbTrace
 10
136.6748376233
 20
178.044209091
 30
0.0
 11
135.9248376233
 21
175.044209091
 31
0.0
 12
137.4248376233
 22
175.044209091
 32
0.0
 13
137.4248376233
 23
175.044209091
 33
0.0
  0
LINE
  5
169
330
159
100
AcDbEntity
  8
0
  6
Continuous
 62
     7
370
     0
100
AcDbLine
 10
116.9448898518
 20
182.044209091
 30
0.0
 11
137.6748376233
 21
182.044209091
 31
0.0
  0
LINE
  5
16A
330
159
100
AcDbEntity
  8
0
  6
Continuous
 62
     7
370
     0
100
AcDbLine
 10
116.8353560476
 20
178.044209091
 30
0.0
 11
137.6748376233
 21
178.044209091
 31
0.0
  0
LINE
  5
16B
330
159
100
AcDbEntity
  8
0
  6
Continuous
 62
     7
370
     0
100
AcDbLine
 10
136.6748376233
 20
182.044209091
 30
0.0
 11
136.6748376233
 21
187.044209091
 31
0.0
  0
LINE
  5
16C
330
159
100
AcDbEntity
  8
0
  6
Continuous
 62
     7
370
     0
100
AcDbLine
 10
136.6748376233
 20
182.044209091
 30
0.0
 11
136.6748376233
 21
178.044209091
 31
0.0
  0
LINE
  5
16D
330
159
100
AcDbEntity
  8
0
  6
Continuous
 62
     7
370
     0
100
AcDbLine
 10
136.6748376233
 20
178.044209091
 30
0.0
 11
136.6748376233
 21
173.044209091
 31
0.0
  0
MTEXT
  5
16E
330
159
100
AcDbEntity
  8
0
  6
Continuous
 62
     7
370
     0
100
AcDbMText
 10
132.6021105834
 20
179.0265052902
 30
0.0
 40
3.5
 41
0.0
 71
     1
 72
     1
  1
4
  7
SLDTEXTSTYLE0
 11
-7.044197039909883E-15
 21
1.0
 31
0.0
 73
     1
 44
1.0
  0
ENDBLK
  5
165
330
159
100
AcDbEntity
  8
0
100
AcDbBlockEnd
  0
BLOCK
  5
17B
330
170
100
AcDbEntity
  8
0
100
AcDbBlockBegin
  2
*D5
 70
     1
 71
     0
 10
0.0
 20
0.0
 30
0.0
  3
*D5
  1

  0
SOLID
  5
17E
330
170
100
AcDbEntity
  8
0
  6
Continuous
 62
     7
370
     0
100
AcDbTrace
 10
136.6748376233
 20
146.044209091
 30
0.0
 11
137.4248376233
 21
149.044209091
 31
0.0
 12
135.9248376233
 22
149.044209091
 32
0.0
 13
135.9248376233
 23
149.044209091
 33
0.0
  0
SOLID
  5
17F
330
170
100
AcDbEntity
  8
0
  6
Continuous
 62
     7
370
     0
100
AcDbTrace
 10
136.6748376233
 20
141.044209091
 30
0.0
 11
135.9248376233
 21
138.044209091
 31
0.0
 12
137.4248376233
 22
138.044209091
 32
0.0
 13
137.4248376233
 23
138.044209091
 33
0.0
  0
LINE
  5
180
330
170
100
AcDbEntity
  8
0
  6
Continuous
 62
     7
370
     0
100
AcDbLine
 10
118.3858520701
 20
146.044209091
 30
0.0
 11
137.6748376233
 21
146.044209091
 31
0.0
  0
LINE
  5
181
330
170
100
AcDbEntity
  8
0
  6
Continuous
 62
     7
370
     0
100
AcDbLine
 10
120.5333471199
 20
141.044209091
 30
0.0
 11
137.6748376233
 21
141.044209091
 31
0.0
  0
LINE
  5
182
330
170
100
AcDbEntity
  8
0
  6
Continuous
 62
     7
370
     0
100
AcDbLine
 10
136.6748376233
 20
146.044209091
 30
0.0
 11
136.6748376233
 21
151.044209091
 31
0.0
  0
LINE
  5
183
330
170
100
AcDbEntity
  8
0
  6
Continuous
 62
     7
370
     0
100
AcDbLine
 10
136.6748376233
 20
146.044209091
 30
0.0
 11
136.6748376233
 21
141.044209091
 31
0.0
  0
LINE
  5
184
330
170
100
AcDbEntity
  8
0
  6
Continuous
 62
     7
370
     0
100
AcDbLine
 10
136.6748376233
 20
141.044209091
 30
0.0
 11
136.6748376233
 21
136.044209091
 31
0.0
  0
MTEXT
  5
185
330
170
100
AcDbEntity
  8
0
  6
Continuous
 62
     7
370
     0
100
AcDbMText
 10
132.6021105834
 20
142.5265052902
 30
0.0
 40
3.5
 41
0.0
 71
     1
 72
     1
  1
5
  7
SLDTEXTSTYLE0
 11
-7.044197039909883E-15
 21
1.0
 31
0.0
 73
     1
 44
1.0
  0
ENDBLK
  5
17C
330
170
100
AcDbEntity
  8
0
100
AcDbBlockEnd
  0
BLOCK
  5
192
330
187
100
AcDbEntity
  8
0
100
AcDbBlockBegin
  2
*D6
 70
     1
 71
     0
 10
0.0
 20
0.0
 30
0.0
  3
*D6
  1

  0
SOLID
  5
194
330
187
100
AcDbEntity
  8
0
  6
Continuous
 62
     7
370
     0
100
AcDbTrace
 10
136.6748376233
 20
141.044209091
 30
0.0
 11
135.9248376233
 21
138.044209091
 31
0.0
 12
137.4248376233
 22
138.044209091
 32
0.0
 13
137.4248376233
 23
138.044209091
 33
0.0
  0
SOLID
  5
195
330
187
100
AcDbEntity
  8
0
  6
Continuous
 62
     7
370
     0
100
AcDbTrace
 10
136.6748376233
 20
121.044209091
 30
0.0
 11
137.4248376233
 21
124.044209091
 31
0.0
 12
135.9248376233
 22
124.044209091
 32
0.0
 13
135.9248376233
 23
124.044209091
 33
0.0
  0
LINE
  5
196
330
187
100
AcDbEntity
  8
0
  6
Continuous
 62
     7
370
     0
100
AcDbLine
 10
120.5333471199
 20
141.044209091
 30
0.0
 11
137.6748376233
 21
141.044209091
 31
0.0
  0
LINE
  5
197
330
187
100
AcDbEntity
  8
0
  6
Continuous
 62
     7
370
     0
100
AcDbLine
 10
112.6948898518
 20
121.044209091
 30
0.0
 11
137.6748376233
 21
121.044209091
 31
0.0
  0
LINE
  5
198
330
187
100
AcDbEntity
  8
0
  6
Continuous
 62
     7
370
     0
100
AcDbLine
 10
136.6748376233
 20
141.044209091
 30
0.0
 11
136.6748376233
 21
121.044209091
 31
0.0
  0
MTEXT
  5
199
330
187
100
AcDbEntity
  8
0
  6
Continuous
 62
     7
370
     0
100
AcDbMText
 10
132.6021105834
 20
129.0076868082
 30
0.0
 40
3.5
 41
0.0
 71
     1
 72
     1
  1
20
  7
SLDTEXTSTYLE0
 11
-7.044197039909883E-15
 21
1.0
 31
0.0
 73
     1
 44
1.0
  0
ENDBLK
  5
193
330
187
100
AcDbEntity
  8
0
100
AcDbBlockEnd
  0
BLOCK
  5
1A6
330
19B
100
AcDbEntity
  8
0
100
AcDbBlockBegin
  2
*D7
 70
     1
 71
     0
 10
0.0
 20
0.0
 30
0.0
  3
*D7
  1

  0
SOLID
  5
1A8
330
19B
100
AcDbEntity
  8
0
  6
Continuous
 62
     7
370
     0
100
AcDbTrace
 10
150.5616190652
 20
182.044209091
 30
0.0
 11
149.8116190652
 21
179.044209091
 31
0.0
 12
151.3116190652
 22
179.044209091
 32
0.0
 13
151.3116190652
 23
179.044209091
 33
0.0
  0
SOLID
  5
1A9
330
19B
100
AcDbEntity
  8
0
  6
Continuous
 62
     7
370
     0
100
AcDbTrace
 10
150.5616190652
 20
118.044209091
 30
0.0
 11
151.3116190652
 21
121.044209091
 31
0.0
 12
149.8116190652
 22
121.044209091
 32
0.0
 13
149.8116190652
 23
121.044209091
 33
0.0
  0
LINE
  5
1AA
330
19B
100
AcDbEntity
  8
0
  6
Continuous
 62
     7
370
     0
100
AcDbLine
 10
116.9448898518
 20
182.044209091
 30
0.0
 11
151.5616190652
 21
182.044209091
 31
0.0
  0
LINE
  5
1AB
330
19B
100
AcDbEntity
  8
0
  6
Continuous
 62
     7
370
     0
100
AcDbLine
 10
110.4448898518
 20
118.044209091
 30
0.0
 11
151.5616190652
 21
118.044209091
 31
0.0
  0
LINE
  5
1AC
330
19B
100
AcDbEntity
  8
0
  6
Continuous
 62
     7
370
     0
100
AcDbLine
 10
150.5616190652
 20
182.044209091
 30
0.0
 11
150.5616190652
 21
118.044209091
 31
0.0
  0
MTEXT
  5
1AD
330
19B
100
AcDbEntity
  8
0
  6
Continuous
 62
     7
370
     0
100
AcDbMText
 10
146.4888920253
 20
148.0076868082
 30
0.0
 40
3.5
 41
0.0
 71
     1
 72
     1
  1
64
  7
SLDTEXTSTYLE0
 11
-7.044197039909883E-15
 21
1.0
 31
0.0
 73
     1
 44
1.0
  0
ENDBLK
  5
1A7
330
19B
100
AcDbEntity
  8
0
100
AcDbBlockEnd
  0
BLOCK
  5
1B1
330
1B0
100
AcDbEntity
  8
0
100
AcDbBlockBegin
  2
_Open30
 70
     0
 71
     0
 10
0.0
 20
0.0
 30
0.0
  3
_Open30
  1

  0
LINE
  5
1B3
330
1B0
100
AcDbEntity
  8
0
  6
ByBlock
 62
     0
370
    -2
100
AcDbLine
 10
-1.0
 20
0.267949
 30
0.0
 11
0.0
 21
0.0
 31
0.0
  0
LINE
  5
1B4
330
1B0
100
AcDbEntity
  8
0
  6
ByBlock
 62
     0
370
    -2
100
AcDbLine
 10
0.0
 20
0.0
 30
0.0
 11
-1.0
 21
-0.267949
 31
0.0
  0
LINE
  5
1B5
330
1B0
100
AcDbEntity
  8
0
  6
ByBlock
 62
     0
370
    -2
100
AcDbLine
 10
0.0
 20
0.0
 30
0.0
 11
-1.0
 21
0.0
 31
0.0
  0
ENDBLK
  5
1B2
330
1B0
100
AcDbEntity
  8
0
100
AcDbBlockEnd
  0
BLOCK
  5
1E0
330
1D5
100
AcDbEntity
  8
0
100
AcDbBlockBegin
  2
*D9
 70
     1
 71
     0
 10
0.0
 20
0.0
 30
0.0
  3
*D9
  1

  0
SOLID
  5
1E2
330
1D5
100
AcDbEntity
  8
0
  6
Continuous
 62
     7
370
     0
100
AcDbTrace
 10
76.9858531981
 20
238.8827511646
 30
0.0
 11
76.2358531981
 21
235.8827511646
 31
0.0
 12
77.7358531981
 22
235.8827511646
 32
0.0
 13
77.7358531981
 23
235.8827511646
 33
0.0
  0
SOLID
  5
1E3
330
1D5
100
AcDbEntity
  8
0
  6
Continuous
 62
     7
370
     0
100
AcDbTrace
 10
76.9858531981
 20
211.8827511646
 30
0.0
 11
77.7358531981
 21
214.8827511646
 31
0.0
 12
76.2358531981
 22
214.8827511646
 32
0.0
 13
76.2358531981
 23
214.8827511646
 33
0.0
  0
LINE
  5
1E4
330
1D5
100
AcDbEntity
  8
0
  6
Continuous
 62
     7
370
     0
100
AcDbLine
 10
95.1506612177
 20
238.8827511646
 30
0.0
 11
75.9858531981
 21
238.8827511646
 31
0.0
  0
LINE
  5
1E5
330
1D5
100
AcDbEntity
  8
0
  6
Continuous
 62
     7
370
     0
100
AcDbLine
 10
95.1506612177
 20
211.8827511646
 30
0.0
 11
75.9858531981
 21
211.8827511646
 31
0.0
  0
LINE
  5
1E6
330
1D5
100
AcDbEntity
  8
0
  6
Continuous
 62
     7
370
     0
100
AcDbLine
 10
76.9858531981
 20
238.8827511646
 30
0.0
 11
76.9858531981
 21
211.8827511646
 31
0.0
  0
MTEXT
  5
1E7
330
1D5
100
AcDbEntity
  8
0
  6
Continuous
 62
     7
370
     0
100
AcDbMText
 10
72.9131261582
 20
223.3462288818
 30
0.0
 40
3.5
 41
0.0
 71
     1
 72
     1
  1
27
  7
SLDTEXTSTYLE0
 11
-8.820553879310134E-15
 21
1.0
 31
0.0
 73
     1
 44
1.0
  0
ENDBLK
  5
1E1
330
1D5
100
AcDbEntity
  8
0
100
AcDbBlockEnd
  0
BLOCK
  5
1F3
330
1E9
100
AcDbEntity
  8
0
100
AcDbBlockBegin
  2
*D10
 70
     1
 71
     0
 10
0.0
 20
0.0
 30
0.0
  3
*D10
  1

  0
ARC
  5
1F5
330
1E9
100
AcDbEntity
  8
0
  6
Continuous
 62
     7
370
     0
100
AcDbCircle
 10
102.3573898518
 20
252.9261612693
 30
0.0
 40
4.553802262067817
100
AcDbArc
 50
153.4349488229
 51
206.5650511771
  0
ARC
  5
1F6
330
1E9
100
AcDbEntity
  8
0
  6
Continuous
 62
     7
370
     0
100
AcDbCircle
 10
105.5323898518
 20
252.9261612693
 30
0.0
 40
4.553802262067804
100
AcDbArc
 50
333.4349488229
 51
26.5650511771
  0
SOLID
  5
1F7
330
1E9
100
AcDbEntity
  8
0
  6
Continuous
 62
     7
370
     0
100
AcDbTrace
 10
119.5333471199
 20
250.8896389865
 30
0.0
 11
116.5333471199
 21
251.6396389865
 31
0.0
 12
116.5333471199
 22
250.1396389865
 32
0.0
 13
116.5333471199
 23
250.1396389865
 33
0.0
  0
SOLID
  5
1F8
330
1E9
100
AcDbEntity
  8
0
  6
Continuous
 62
     7
370
     0
100
AcDbTrace
 10
88.3564325837
 20
250.8896389865
 30
0.0
 11
91.3564325837
 21
250.1396389865
 31
0.0
 12
91.3564325837
 22
251.6396389865
 32
0.0
 13
91.3564325837
 23
251.6396389865
 33
0.0
  0
LINE
  5
1F9
330
1E9
100
AcDbEntity
  8
0
  6
Continuous
 62
     7
370
     0
100
AcDbLine
 10
119.5333471199
 20
226.3827511646
 30
0.0
 11
119.5333471199
 21
251.8896389865
 31
0.0
  0
LINE
  5
1FA
330
1E9
100
AcDbEntity
  8
0
  6
Continuous
 62
     7
370
     0
100
AcDbLine
 10
88.3564325837
 20
226.3827511646
 30
0.0
 11
88.3564325837
 21
251.8896389865
 31
0.0
  0
LINE
  5
1FB
330
1E9
100
AcDbEntity
  8
0
  6
Continuous
 62
     7
370
     0
100
AcDbLine
 10
119.5333471199
 20
250.8896389865
 30
0.0
 11
88.3564325837
 21
250.8896389865
 31
0.0
  0
MTEXT
  5
1FC
330
1E9
100
AcDbEntity
  8
0
  6
Continuous
 62
     7
370
     0
100
AcDbMText
 10
99.8718452862
 20
254.9623660264
 30
0.0
 40
3.5
 41
0.0
 71
     1
 72
     1
  1
31.2
  7
SLDTEXTSTYLE0
 73
     1
 44
1.0
  0
ENDBLK
  5
1F4
330
1E9
100
AcDbEntity
  8
0
100
AcDbBlockEnd
  0
BLOCK
  5
200
330
1FF
100
AcDbEntity
  8
0
100
AcDbBlockBegin
  2
SW_CENTERMARKSYMBOL_0
 70
     0
 71
     0
 10
0.0
 20
0.0
 30
0.0
  3
SW_CENTERMARKSYMBOL_0
  1

  0
LINE
  5
202
330
1FF
100
AcDbEntity
  8
0
  6
Continuous
 62
     7
370
     0
100
AcDbLine
 10
0.0
 20
0.0
 30
0.0
 11
0.0
 21
2.5
 31
0.0
  0
LINE
  5
203
330
1FF
100
AcDbEntity
  8
0
  6
Continuous
 62
     7
370
     0
100
AcDbLine
 10
0.0
 20
0.0
 30
0.0
 11
-2.5
 21
0.0
 31
0.0
  0
LINE
  5
204
330
1FF
100
AcDbEntity
  8
0
  6
Continuous
 62
     7
370
     0
100
AcDbLine
 10
0.0
 20
0.0
 30
0.0
 11
0.0
 21
-2.5
 31
0.0
  0
LINE
  5
205
330
1FF
100
AcDbEntity
  8
0
  6
Continuous
 62
     7
370
     0
100
AcDbLine
 10
0.0
 20
0.0
 30
0.0
 11
2.5
 21
0.0
 31
0.0
  0
LINE
  5
206
330
1FF
100
AcDbEntity
  8
0
  6
Continuous
 62
     7
370
     0
100
AcDbLine
 10
0.0
 20
5.0
 30
0.0
 11
0.0
 21
17.7999621395
 31
0.0
  0
LINE
  5
207
330
1FF
100
AcDbEntity
  8
0
  6
Continuous
 62
     7
370
     0
100
AcDbLine
 10
-5.0
 20
0.0
 30
0.0
 11
-20.3745857516
 21
0.0
 31
0.0
  0
LINE
  5
208
330
1FF
100
AcDbEntity
  8
0
  6
Continuous
 62
     7
370
     0
100
AcDbLine
 10
0.0
 20
-5.0
 30
0.0
 11
0.0
 21
-18.2282652674
 31
0.0
  0
LINE
  5
209
330
1FF
100
AcDbEntity
  8
0
  6
Continuous
 62
     7
370
     0
100
AcDbLine
 10
5.0
 20
0.0
 30
0.0
 11
18.1672389162
 21
0.0
 31
0.0
  0
ENDBLK
  5
201
330
1FF
100
AcDbEntity
  8
0
100
AcDbBlockEnd
  0
ENDSEC
  0
SECTION
  2
ENTITIES
  0
LINE
  5
2F
330
1F
100
AcDbEntity
  8
0
  6
Continuous
 62
     7
370
     0
100
AcDbLine
 10
20.2604743903
 20
285.0
 30
0.0
 11
196.7604743903
 21
285.0
 31
0.0
  0
LINE
  5
30
330
1F
100
AcDbEntity
  8
0
  6
Continuous
 62
     7
370
     0
100
AcDbLine
 10
20.2604743903
 20
285.0
 30
0.0
 11
20.2604743903
 21
10.0
 31
0.0
  0
LINE
  5
31
330
1F
100
AcDbEntity
  8
0
  6
Continuous
 62
     7
370
     0
100
AcDbLine
 10
20.2604743903
 20
10.0
 30
0.0
 11
196.7604743903
 21
10.0
 31
0.0
  0
LINE
  5
32
330
1F
100
AcDbEntity
  8
0
  6
Continuous
 62
     7
370
     0
100
AcDbLine
 10
196.7604743903
 20
285.0
 30
0.0
 11
196.7604743903
 21
10.0
 31
0.0
  0
LINE
  5
33
330
1F
100
AcDbEntity
  8
0
  6
Continuous
 62
     7
370
     0
100
AcDbLine
 10
127.0104743903
 20
50.75
 30
0.0
 11
196.7604743903
 21
50.75
 31
0.0
  0
LINE
  5
34
330
1F
100
AcDbEntity
  8
0
  6
Continuous
 62
     7
370
     0
100
AcDbLine
 10
127.0104743903
 20
50.75
 30
0.0
 11
127.0104743903
 21
10.0
 31
0.0
  0
LINE
  5
35
330
1F
100
AcDbEntity
  8
0
  6
Continuous
 62
     7
370
     0
100
AcDbLine
 10
127.0104743903
 20
22.75
 30
0.0
 11
196.7604743903
 21
22.75
 31
0.0
  0
LINE
  5
36
330
1F
100
AcDbEntity
  8
0
  6
Continuous
 62
     7
370
     0
100
AcDbLine
 10
127.0104743903
 20
36.75
 30
0.0
 11
196.7604743903
 21
36.75
 31
0.0
  0
MTEXT
  5
38
330
1F
100
AcDbEntity
  8
0
  6
Continuous
 62
     7
370
     0
100
AcDbMText
 10
147.1315216739
 20
29.8861652342
 30
0.0
 40
4.2333333333
 41
0.0
 71
     1
 72
     1
  1
VFI-L-20-M17
  7
SLDTEXTSTYLE0
 73
     1
 44
1.0
  0
MTEXT
  5
39
330
1F
100
AcDbEntity
  8
0
  6
Continuous
 62
     7
370
     0
100
AcDbMText
 10
145.0404326081
 20
43.4099788511
 30
0.0
 40
4.2333333333
 41
0.0
 71
     1
 72
     1
  1
吸着金具ラージ
  7
SLDTEXTSTYLE0
 73
     1
 44
1.0
  0
MTEXT
  5
3A
330
1F
100
AcDbEntity
  8
0
  6
Continuous
 62
     7
370
     0
100
AcDbMText
 10
155.4313557439
 20
16.2918259049
 30
0.0
 40
4.2333333333
 41
0.0
 71
     1
 72
     1
  1
210888
  7
SLDTEXTSTYLE0
 73
     1
 44
1.0
  0
LWPOLYLINE
  5
3B
330
1F
100
AcDbEntity
  8
0
  6
Continuous
 62
     7
370
    30
100
AcDbPolyline
 90
       42
 70
   128
 43
0.0
 10
94.7200480916
 20
175.0161718342
 10
94.7182397383
 20
175.0073310805
 10
94.8123854038
 20
175.0080463068
 10
95.011796727
 20
175.031775462
 10
95.3197884266
 20
175.0691626795
 10
95.7321203966
 20
175.1131260205
 10
96.2364473101
 20
175.1593444247
 10
96.8277030545
 20
175.2064270673
 10
97.5013905635
 20
175.253546098
 10
98.249815367
 20
175.2998423824
 10
99.057028518
 20
175.3441937909
 10
100.1524688916
 20
175.4008794412
 10
101.2434231167
 20
175.4572811474
 10
102.2915238816
 20
175.5114138737
 10
103.833460012
 20
175.5909573346
 10
105.4101891904
 20
175.6721815406
 10
106.4744445691
 20
175.7269404337
 10
107.6076953359
 20
175.7851993673
 10
108.773630596
 20
175.8451200739
 10
109.6619942299
 20
175.8937602244
 10
110.5593535583
 20
175.9498387176
 10
111.4297984994
 20
176.0131443111
 10
112.1969532885
 20
176.0800412844
 10
112.9799348725
 20
176.1694560627
 10
113.5284887104
 20
176.2650727434
 10
113.8921970646
 20
176.3774642585
 10
113.9904607237
 20
176.4264219649
 10
114.1066877903
 20
176.5124689574
 10
114.2361092474
 20
176.6673564861
 10
114.3256263175
 20
176.8817402466
 10
114.3438463994
 20
177.0850611509
 10
114.3110330614
 20
177.2642523082
 10
114.2525072552
 20
177.3990683349
 10
114.2029331377
 20
177.4757614092
 10
114.0962394638
 20
177.5908642393
 10
113.9583106133
 20
177.6851504483
 10
113.8425006215
 20
177.7380668321
 10
113.6858768068
 20
177.7892910306
 10
113.4580766946
 20
177.8430310545
 10
113.1285329583
 20
177.9003536498
 10
112.6621495112
 20
177.9620879418
 10
112.4448898518
 20
177.9846667944
  0
LWPOLYLINE
  5
3C
330
1F
100
AcDbEntity
  8
0
  6
Continuous
 62
     7
370
    30
100
AcDbPolyline
 90
       41
 70
   128
 43
0.0
 10
113.2042077401
 20
177.609953859
 10
113.2057114894
 20
177.6154709728
 10
113.1423936057
 20
177.6048006375
 10
113.0388830138
 20
177.5871961299
 10
112.6531946512
 20
177.5341423481
 10
112.092037269
 20
177.4737927314
 10
111.3534078616
 20
177.4092795959
 10
110.4911178782
 20
177.3464291712
 10
109.5399754245
 20
177.2873160475
 10
108.5299175783
 20
177.2329329153
 10
107.4389339034
 20
177.1767529844
 10
106.2654489986
 20
177.1162963444
 10
105.0486836145
 20
177.0535929716
 10
103.9283335126
 20
176.9958479304
 10
102.9541142455
 20
176.9456275936
 10
101.9925318338
 20
176.8960516063
 10
100.9241748489
 20
176.8409604002
 10
99.7861208066
 20
176.7822584042
 10
98.6625711653
 20
176.7237301531
 10
97.8406108306
 20
176.6761430082
 10
97.0461527493
 20
176.6238205896
 10
96.3005603943
 20
176.5671024313
 10
95.6264905826
 20
176.5065389992
 10
95.0582020809
 20
176.4442002527
 10
94.6428066545
 20
176.3859020312
 10
94.3497696338
 20
176.3308930471
 10
94.1440586149
 20
176.2768919385
 10
93.9967342286
 20
176.2212754076
 10
93.8833820335
 20
176.1596633382
 10
93.7281583897
 20
176.0257311738
 10
93.5835720247
 20
175.7785242741
 10
93.5465334409
 20
175.5949002183
 10
93.5534139189
 20
175.4365038902
 10
93.6051526485
 20
175.2595146748
 10
93.6851484041
 20
175.1237800412
 10
93.7767850381
 20
175.0253303364
 10
94.1439492222
 20
174.8169798957
 10
94.4393494391
 20
174.7404796835
 10
94.6684686481
 20
174.7011794372
 10
95.1520724545
 20
174.6366706572
 10
95.4448898518
 20
174.6062563523
  0
LWPOLYLINE
  5
3D
330
1F
100
AcDbEntity
  8
0
  6
Continuous
 62
     7
370
    30
100
AcDbPolyline
 90
       43
 70
   128
 43
0.0
 10
113.2300922151
 20
149.6132071235
 10
113.2342599761
 20
149.621436068
 10
113.1671873265
 20
149.6096935243
 10
113.064391845
 20
149.5916872113
 10
112.836772174
 20
149.5578940554
 10
112.4964129164
 20
149.51601584
 10
112.0148495652
 20
149.4664994818
 10
111.3657025134
 20
149.4102987951
 10
110.5583376389
 20
149.3509719059
 10
109.7003667005
 20
149.2966718915
 10
108.8313687147
 20
149.2484808111
 10
107.9581299249
 20
149.2034989318
 10
106.7797720165
 20
149.1427979405
 10
105.6266880687
 20
149.083380688
 10
104.5459594421
 20
149.0276826291
 10
103.5716392437
 20
148.9774613907
 10
102.714288197
 20
148.9332638609
 10
101.8059330979
 20
148.8864310708
 10
100.7819049982
 20
148.8336256618
 10
99.6800684065
 20
148.7767938453
 10
98.6178842288
 20
148.7213246401
 10
97.6190019914
 20
148.6623796616
 10
96.7006821769
 20
148.5989915269
 10
95.8913315489
 20
148.5324497865
 10
95.2154476398
 20
148.4641681255
 10
94.6786099939
 20
148.39297014
 10
94.263045283
 20
148.3103137995
 10
94.0178212
 20
148.2293473827
 10
93.8250152508
 20
148.1173174879
 10
93.7415903614
 20
148.0412740508
 10
93.6661863032
 20
147.9462997263
 10
93.5993649501
 20
147.8208618672
 10
93.5505242077
 20
147.6361578714
 10
93.560663976
 20
147.3968520274
 10
93.600915759
 20
147.2682426764
 10
93.6630403548
 20
147.1514677535
 10
93.8327367249
 20
146.9705874195
 10
94.0457212359
 20
146.8512292579
 10
94.3031478251
 20
146.7696258084
 10
94.4869102669
 20
146.7312892558
 10
94.6205383577
 20
146.7084214752
 10
95.00074498
 20
146.6547980857
 10
95.4448898518
 20
146.6055986612
  0
LWPOLYLINE
  5
3E
330
1F
100
AcDbEntity
  8
0
  6
Continuous
 62
     7
370
    30
100
AcDbPolyline
 90
       43
 70
   128
 43
0.0
 10
94.687787293
 20
146.9964347842
 10
94.7230889084
 20
146.9904430456
 10
94.8267076642
 20
147.003309079
 10
94.9703990816
 20
147.0239974074
 10
95.2173717658
 20
147.0566116572
 10
95.508858415
 20
147.0900269119
 10
95.8786901813
 20
147.1271884707
 10
96.3364175663
 20
147.1676942909
 10
97.0938475136
 20
147.225713037
 10
98.0114965989
 20
147.285672829
 10
99.0774869107
 20
147.3452388711
 10
99.9875854309
 20
147.3923467177
 10
101.0087413003
 20
147.4451527774
 10
102.0135219435
 20
147.4970606608
 10
102.9307966347
 20
147.5444053252
 10
103.9834852322
 20
147.5986907416
 10
104.8718250852
 20
147.6444611772
 10
105.8889214207
 20
147.6968204155
 10
107.055065107
 20
147.7567911949
 10
108.2469902672
 20
147.8180166671
 10
109.3316797201
 20
147.8748468364
 10
110.3396921716
 20
147.9351605092
 10
111.2450796913
 20
147.9985206782
 10
112.0134115473
 20
148.0622690375
 10
112.6368440884
 20
148.1248963449
 10
113.1674587468
 20
148.192796004
 10
113.6462697609
 20
148.2848067815
 10
113.8023899052
 20
148.3323789563
 10
113.9730323358
 20
148.4123246631
 10
114.1646606442
 20
148.5704591641
 10
114.3138565851
 20
148.837822042
 10
114.3441231161
 20
149.0795259916
 10
114.3078875783
 20
149.2738938975
 10
114.163248385
 20
149.5250537099
 10
114.0406786148
 20
149.6372121321
 10
113.9348416572
 20
149.703095671
 10
113.8503545047
 20
149.7422474102
 10
113.74669316
 20
149.7794849051
 10
113.6104560231
 20
149.8171122932
 10
113.3906278015
 20
149.8627981222
 10
113.0285223375
 20
149.9193060762
 10
112.4549755118
 20
149.9874989469
 10
112.4448898518
 20
149.9884614354
  0
LWPOLYLINE
  5
3F
330
1F
100
AcDbEntity
  8
0
  6
Continuous
 62
     7
370
    30
100
AcDbPolyline
 90
       43
 70
   128
 43
0.0
 10
94.7743170278
 20
150.7681769567
 10
94.7779879117
 20
150.7628202456
 10
94.8563424754
 20
150.7817929747
 10
95.2074843263
 20
150.8614105746
 10
95.7687434934
 20
150.9629870447
 10
96.5014360331
 20
151.0710604974
 10
97.3593600842
 20
151.1764764082
 10
98.2925062771
 20
151.2739317279
 10
99.2623565887
 20
151.3616407931
 10
100.2798372092
 20
151.4494865283
 10
101.3404327213
 20
151.5409429252
 10
102.3905356766
 20
151.6313760242
 10
103.2866298204
 20
151.7084573013
 10
103.9973333898
 20
151.7695347879
 10
104.812362908
 20
151.8395165002
 10
105.9240941695
 20
151.9348692809
 10
106.8093684139
 20
152.0107148426
 10
107.7826031516
 20
152.0940141038
 10
108.8087352013
 20
152.1817626492
 10
109.8313585505
 20
152.2761068907
 10
110.7330478755
 20
152.372144435
 10
111.5001331045
 20
152.4666855249
 10
112.4040811758
 20
152.6013691974
 10
113.0458817561
 20
152.7245143758
 10
113.4796012409
 20
152.8359456336
 10
113.7562082212
 20
152.9351879447
 10
113.8828668372
 20
152.996602724
 10
113.980320841
 20
153.0563278159
 10
114.0634444672
 20
153.1203534439
 10
114.2339777992
 20
153.320878272
 10
114.3135932937
 20
153.5003638214
 10
114.3444709755
 20
153.739470719
 10
114.3269813759
 20
153.8773485882
 10
114.2773385793
 20
154.0251773632
 10
114.0938918091
 20
154.2782894076
 10
113.8726492716
 20
154.4363240093
 10
113.638031999
 20
154.5412211571
 10
113.098765674
 20
154.6939492468
 10
112.4506996905
 20
154.8212026797
 10
111.7507413659
 20
154.9293112172
 10
111.0183609053
 20
155.0242844699
 10
110.1135836222
 20
155.1249069469
 10
109.9448898518
 20
155.1409464106
  0
LINE
  5
40
330
1F
100
AcDbEntity
  8
0
  6
Continuous
 62
     7
370
    30
100
AcDbLine
 10
97.9448898518
 20
156.1908806146
 30
0.0
 11
97.7204083294
 21
156.2147683711
 31
0.0
  0
LWPOLYLINE
  5
41
330
1F
100
AcDbEntity
  8
0
  6
Continuous
 62
     7
370
    30
100
AcDbPolyline
 90
       47
 70
   128
 43
0.0
 10
94.7313429864
 20
155.7396609635
 10
94.7260147264
 20
155.7341013296
 10
94.826583808
 20
155.7649106773
 10
95.1147361369
 20
155.8385106928
 10
95.6189422523
 20
155.9374571425
 10
96.3455829892
 20
156.0499769422
 10
97.3066400953
 20
156.1706324317
 10
98.0736937557
 20
156.2524527143
 10
98.9318473039
 20
156.3330035271
 10
99.8879505879
 20
156.4156780848
 10
100.8956256689
 20
156.5026056281
 10
101.8155106367
 20
156.5818701874
 10
102.6155985898
 20
156.6507429804
 10
103.2766840331
 20
156.7076020879
 10
103.7885579108
 20
156.7515978874
 10
104.1528796228
 20
156.7828956988
 10
104.5807113646
 20
156.8196327574
 10
105.1754431591
 20
156.87067105
 10
105.9291507545
 20
156.9353014173
 10
106.8246039985
 20
157.0120113636
 10
107.7296742393
 20
157.0894600814
 10
108.5544328994
 20
157.1599631624
 10
109.6612899725
 20
157.259378837
 10
110.6418412033
 20
157.361659463
 10
111.4886444553
 20
157.4649405236
 10
112.3005668598
 20
157.5838185291
 10
112.8138395142
 20
157.6757198414
 10
113.2755866306
 20
157.7789657627
 10
113.6550063996
 20
157.8943083131
 10
113.8638517836
 20
157.9866816542
 10
114.0359800797
 20
158.0990186824
 10
114.1758580462
 20
158.2394002344
 10
114.2683506764
 20
158.3854743388
 10
114.3294698706
 20
158.5637032137
 10
114.3447700486
 20
158.7011569928
 10
114.3362564795
 20
158.8277953788
 10
114.2414446454
 20
159.0940467872
 10
114.1326602128
 20
159.2401971273
 10
113.9784558084
 20
159.3733092626
 10
113.7961719687
 20
159.4765637056
 10
113.5665426588
 20
159.5665300484
 10
113.2693198286
 20
159.6525424467
 10
112.9253590013
 20
159.7316324388
 10
112.139768758
 20
159.871846773
 10
111.2889315291
 20
159.9908650881
 10
110.3753743322
 20
160.0973391394
 10
109.9448898518
 20
160.1400744362
  0
LINE
  5
42
330
1F
100
AcDbEntity
  8
0
  6
Continuous
 62
     7
370
    30
100
AcDbLine
 10
97.9448898518
 20
161.1914175188
 30
0.0
 11
97.7323821093
 21
161.2148045782
 31
0.0
  0
LWPOLYLINE
  5
43
330
1F
100
AcDbEntity
  8
0
  6
Continuous
 62
     7
370
    30
100
AcDbPolyline
 90
       43
 70
   128
 43
0.0
 10
94.73215621
 20
160.7358383089
 10
94.773586411
 20
160.7473330884
 10
95.0183524052
 20
160.8152695125
 10
95.384141717
 20
160.8937136776
 10
95.8474464033
 20
160.9750655429
 10
96.4425148515
 20
161.0630059043
 10
97.2589975048
 20
161.1650332319
 10
98.3199434791
 20
161.2765803947
 10
99.1634297506
 20
161.3530999317
 10
100.1413796861
 20
161.4375420323
 10
101.2321802949
 20
161.5316136165
 10
102.2393289598
 20
161.6183608207
 10
103.110552004
 20
161.6933174396
 10
103.8255218815
 20
161.7547740343
 10
104.3748451904
 20
161.8019577814
 10
104.7568212318
 20
161.8347498354
 10
105.1713844721
 20
161.8703230611
 10
105.7660962387
 20
161.9213244549
 10
106.5294392784
 20
161.9867348006
 10
107.4393841134
 20
162.0646288041
 10
108.822011698
 20
162.1828368592
 10
109.975094328
 20
162.2904337762
 10
110.9272468874
 20
162.3946491555
 10
111.6829138517
 20
162.4912281855
 10
112.3582603163
 20
162.5932210181
 10
112.9846828221
 20
162.7106199922
 10
113.5160601572
 20
162.8466792143
 10
113.9678743955
 20
163.0506147739
 10
114.1103498647
 20
163.1667264961
 10
114.2373333196
 20
163.3278924498
 10
114.3205223896
 20
163.5250763058
 10
114.3432532343
 20
163.6649503867
 10
114.3407454868
 20
163.7930113373
 10
114.284890782
 20
164.0086990712
 10
114.1096268965
 20
164.2661538417
 10
113.9764329442
 20
164.3757469832
 10
113.8124856863
 20
164.4687932311
 10
113.5518807852
 20
164.5708219035
 10
113.1267348114
 20
164.6869517469
 10
112.4864320656
 20
164.8145255075
 10
111.5835565934
 20
164.9520842834
 10
110.3844410017
 20
165.0962874603
 10
109.9448898518
 20
165.1402480047
  0
LINE
  5
44
330
1F
100
AcDbEntity
  8
0
  6
Continuous
 62
     7
370
    30
100
AcDbLine
 10
97.9448898518
 20
166.1917718961
 30
0.0
 11
97.7186841376
 21
166.2152064466
 31
0.0
  0
LWPOLYLINE
  5
45
330
1F
100
AcDbEntity
  8
0
  6
Continuous
 62
     7
370
    30
100
AcDbPolyline
 90
       43
 70
   128
 43
0.0
 10
94.754239445
 20
165.7511664047
 10
94.7773015482
 20
165.7511042825
 10
94.8545749028
 20
165.7722536467
 10
94.9672485276
 20
165.8022600129
 10
95.1581823507
 20
165.8472522948
 10
95.4328167667
 20
165.9030276326
 10
95.8160530546
 20
165.9700507272
 10
96.3289985137
 20
166.047367119
 10
96.9897471847
 20
166.1333223997
 10
97.8096773505
 20
166.2254280336
 10
98.7485336979
 20
166.3166455621
 10
99.6577392271
 20
166.3958055685
 10
100.529528282
 20
166.4710305371
 10
101.3361325351
 20
166.5405714012
 10
102.0540028898
 20
166.602407257
 10
102.6719766701
 20
166.6555944599
 10
103.5856331191
 20
166.7341595493
 10
104.5373704955
 20
166.8159124389
 10
105.5393394525
 20
166.901883705
 10
106.6553474804
 20
166.9975180101
 10
107.8539979437
 20
167.1000999159
 10
109.0847349722
 20
167.2058917882
 10
109.9242637942
 20
167.285363644
 10
110.7231100036
 20
167.3709665377
 10
111.4275239161
 20
167.4570463457
 10
112.3015320614
 20
167.5842409918
 10
112.9651646595
 20
167.7068373356
 10
113.4431976768
 20
167.8245930976
 10
113.7738402616
 20
167.9424737008
 10
114.0188535544
 20
168.0841577113
 10
114.1430336155
 20
168.1980226423
 10
114.2379090321
 20
168.3270880868
 10
114.3237617642
 20
168.5379488379
 10
114.3401203198
 20
168.7989490142
 10
114.2635323136
 20
169.0548279923
 10
114.1579522039
 20
169.2128309773
 10
113.829277536
 20
169.4605197062
 10
113.3653287652
 20
169.6273610519
 10
112.7120825375
 20
169.7738266979
 10
111.8081416834
 20
169.9210003271
 10
110.9632490278
 20
170.0308049514
 10
109.9859839941
 20
170.1378899108
 10
109.9448898518
 20
170.1417425298
  0
LWPOLYLINE
  5
46
330
1F
100
AcDbEntity
  8
0
  6
Continuous
 62
     7
370
    30
100
AcDbPolyline
 90
        3
 70
   128
 43
0.0
 10
97.9448898518
 20
171.1910593915
 10
97.7777369449
 20
171.2074720733
 10
97.7177077183
 20
171.214247859
  0
LWPOLYLINE
  5
47
330
1F
100
AcDbEntity
  8
0
  6
Continuous
 62
     7
370
    30
100
AcDbPolyline
 90
       43
 70
   128
 43
0.0
 10
94.7965950226
 20
170.7790773245
 10
94.8084465909
 20
170.7696632474
 10
94.9346915812
 20
170.7960588257
 10
95.1163557422
 20
170.8380468943
 10
95.3050300856
 20
170.8780387824
 10
95.5065174524
 20
170.9166676051
 10
95.7617375706
 20
170.9610679902
 10
96.0785322162
 20
171.0109890774
 10
96.6095285078
 20
171.0853809131
 10
97.2779273358
 20
171.1672433462
 10
98.0922276924
 20
171.2542772228
 10
99.0413363103
 20
171.3425837033
 10
99.9897608759
 20
171.4244697116
 10
100.8838921672
 20
171.5015925696
 10
102.0533433933
 20
171.6023491699
 10
102.9556397664
 20
171.6799953372
 10
103.6840856086
 20
171.7426205981
 10
104.5728895744
 20
171.8189614014
 10
105.6254747947
 20
171.9092691332
 10
106.7279978461
 20
172.0037398262
 10
107.8130032599
 20
172.0965880144
 10
108.8552966902
 20
172.1857261399
 10
109.866281237
 20
172.2795335154
 10
110.8279980505
 20
172.3830389708
 10
111.6693172635
 20
172.4894986642
 10
112.3763400091
 20
172.5965854346
 10
112.9481040934
 20
172.7032896519
 10
113.391007115
 20
172.8098150609
 10
113.7394776952
 20
172.9282981831
 10
114.0845442159
 20
173.141677198
 10
114.2406409199
 20
173.3328121123
 10
114.302446302
 20
173.4656409588
 10
114.3435691908
 20
173.6703138605
 10
114.3125230988
 20
173.9323018075
 10
114.2251387668
 20
174.1228670465
 10
114.1422736697
 20
174.2320246315
 10
114.0922040618
 20
174.2831183641
 10
114.0015910504
 20
174.356649913
 10
113.8547259526
 20
174.4429102526
 10
113.6103185118
 20
174.54322682
 10
113.2114256864
 20
174.6589723041
 10
112.5901457874
 20
174.7905767094
 10
112.4448898518
 20
174.8137992248
  0
LWPOLYLINE
  5
48
330
1F
100
AcDbEntity
  8
0
  6
Continuous
 62
     7
370
    30
100
AcDbPolyline
 90
       43
 70
   128
 43
0.0
 10
113.1603307768
 20
174.1924221919
 10
113.1225239435
 20
174.1826743698
 10
112.9122680899
 20
174.1234427388
 10
112.485979233
 20
174.0314265841
 10
111.837180553
 20
173.922366883
 10
110.9482243946
 20
173.802199068
 10
109.821214692
 20
173.6774807929
 10
108.9503644937
 20
173.5953584719
 10
107.9834202497
 20
173.5120300472
 10
107.0011380179
 20
173.4276298386
 10
106.1110033814
 20
173.3511421515
 10
105.3425276398
 20
173.2851101725
 10
104.7141160928
 20
173.2311165821
 10
104.2356459899
 20
173.1900086856
 10
103.8828229
 20
173.1596973845
 10
103.4143570407
 20
173.1194531078
 10
102.7778031186
 20
173.0647725762
 10
101.9815963293
 20
172.9963832151
 10
101.0529618889
 20
172.9166254338
 10
99.7212627255
 20
172.8022527907
 10
98.5543142146
 20
172.7005965201
 10
97.5087242765
 20
172.5967281014
 10
96.5932988259
 20
172.4899068597
 10
95.7402442349
 20
172.3703250115
 10
94.9537081629
 20
172.2293909408
 10
94.5053639055
 20
172.1218276941
 10
94.1550266099
 20
172.0037903723
 10
93.9043637857
 20
171.8684484534
 10
93.7512639884
 20
171.7338211536
 10
93.6443369597
 20
171.5871099411
 10
93.5526291855
 20
171.3218125097
 10
93.545113035
 20
171.196259638
 10
93.5618888263
 20
171.0562673463
 10
93.6261112027
 20
170.8760658743
 10
93.7644681703
 20
170.6812859431
 10
93.9787027593
 20
170.5131053048
 10
94.2533866974
 20
170.3874642696
 10
94.6403598952
 20
170.2723197202
 10
95.1074894316
 20
170.1695206574
 10
95.6247567898
 20
170.078044182
 10
96.4399606195
 20
169.9598182205
 10
97.294232542
 20
169.8564603019
 10
97.9448898518
 20
169.7891292872
  0
LINE
  5
49
330
1F
100
AcDbEntity
  8
0
  6
Continuous
 62
     7
370
    30
100
AcDbLine
 10
109.9448898518
 20
168.7392567451
 30
0.0
 11
110.1708318811
 21
168.7147545479
 31
0.0
  0
LWPOLYLINE
  5
4A
330
1F
100
AcDbEntity
  8
0
  6
Continuous
 62
     7
370
    30
100
AcDbPolyline
 90
       44
 70
   128
 43
0.0
 10
113.1552674429
 20
169.1919114586
 10
113.144280203
 20
169.191836395
 10
113.0444870981
 20
169.1603166564
 10
112.9006633501
 20
169.1219101708
 10
112.5105049406
 20
169.0372981487
 10
112.0076630091
 20
168.9494213538
 10
111.3194255968
 20
168.8497350322
 10
110.3934984903
 20
168.7378973058
 10
109.6369615129
 20
168.6592669617
 10
108.7722360533
 20
168.579816634
 10
107.7814652585
 20
168.4946877028
 10
106.7035383581
 20
168.4020598551
 10
105.7218218264
 20
168.3177010822
 10
104.8766998645
 20
168.2450854733
 10
104.1881489326
 20
168.1859280763
 10
103.6656346733
 20
168.1410391687
 10
103.3011969694
 20
168.1097321691
 10
102.8512989525
 20
168.0710856122
 10
102.2199288695
 20
168.0168539518
 10
101.4189899906
 20
167.9480620908
 10
100.4716624512
 20
167.8667014658
 10
99.5206191677
 20
167.7850198039
 10
98.69136293
 20
167.7130702221
 10
97.6170788067
 20
167.6082941738
 10
96.7417114881
 20
167.508486903
 10
96.0208901549
 20
167.4124850835
 10
95.3236509326
 20
167.3009986428
 10
94.6885826892
 20
167.1697395324
 10
94.1676147316
 20
167.0081845892
 10
93.936778335
 20
166.8883509319
 10
93.7229326193
 20
166.7006584568
 10
93.5730247208
 20
166.4178364375
 10
93.5480167795
 20
166.146415752
 10
93.6020509141
 20
165.9272855358
 10
93.6895550871
 20
165.7696213734
 10
93.8511945512
 20
165.5996360795
 10
93.9840422485
 20
165.5094410682
 10
94.1778087219
 20
165.4167440884
 10
94.4813551421
 20
165.3150015166
 10
94.9537219014
 20
165.2008670541
 10
95.646305158
 20
165.0749223409
 10
96.6120378722
 20
164.9377956592
 10
97.4235441429
 20
164.8422513192
 10
97.9448898518
 20
164.7891742497
  0
LINE
  5
4B
330
1F
100
AcDbEntity
  8
0
  6
Continuous
 62
     7
370
    30
100
AcDbLine
 10
109.9448898518
 20
163.7385083552
 30
0.0
 11
110.1645663504
 21
163.7146802237
 31
0.0
  0
LWPOLYLINE
  5
4C
330
1F
100
AcDbEntity
  8
0
  6
Continuous
 62
     7
370
    30
100
AcDbPolyline
 90
       43
 70
   128
 43
0.0
 10
113.1451441467
 20
164.1846197504
 10
113.1239446541
 20
164.1833730446
 10
113.0504595984
 20
164.1621859546
 10
112.8925808734
 20
164.1201190307
 10
112.6658951803
 20
164.0685714212
 10
112.3440615034
 20
164.0061724458
 10
111.9078816983
 20
163.933689503
 10
111.3399334464
 20
163.852405819
 10
110.6273645372
 20
163.7642561345
 10
109.765699728
 20
163.6719527959
 10
108.8626813441
 20
163.5876543103
 10
108.0013847298
 20
163.5135831634
 10
106.797221616
 20
163.4101117756
 10
105.7686557412
 20
163.3217239762
 10
104.8691024421
 20
163.2444323837
 10
103.9284897894
 20
163.1636205099
 10
102.9482289575
 20
163.0794105656
 10
101.8516685075
 20
162.9852232644
 10
100.6395752846
 20
162.8811206958
 10
99.363933117
 20
162.7715309044
 10
98.0649854705
 20
162.6539622857
 10
96.8612604291
 20
162.5229528696
 10
95.8980079196
 20
162.3942258525
 10
95.1678324333
 20
162.2721368092
 10
94.6419335863
 20
162.1584954632
 10
94.2734756803
 20
162.049935786
 10
94.121339891
 20
161.9895380392
 10
93.9818801113
 20
161.9186504053
 10
93.8520521461
 20
161.830237266
 10
93.688374519
 20
161.6581018484
 10
93.5913244086
 20
161.474354046
 10
93.544931386
 20
161.2136357361
 10
93.5778264649
 20
160.994557207
 10
93.6380094625
 20
160.8523716594
 10
93.8772997812
 20
160.5819820979
 10
94.1375685335
 20
160.4338039444
 10
94.3946379112
 20
160.3403253765
 10
94.6903755163
 20
160.2599821329
 10
95.1940060509
 20
160.1531691026
 10
95.8310998979
 20
160.0459092798
 10
96.6048194416
 20
159.9386129381
 10
97.5101789853
 20
159.8327665594
 10
97.9448898518
 20
159.7892643318
  0
LINE
  5
4D
330
1F
100
AcDbEntity
  8
0
  6
Continuous
 62
     7
370
    30
100
AcDbLine
 10
109.9448898518
 20
158.7379147974
 30
0.0
 11
110.1722047452
 21
158.7143734667
 31
0.0
  0
LWPOLYLINE
  5
4E
330
1F
100
AcDbEntity
  8
0
  6
Continuous
 62
     7
370
    30
100
AcDbPolyline
 90
       44
 70
   128
 43
0.0
 10
113.1067620913
 20
159.1604560702
 10
113.0554795683
 20
159.1589687876
 10
112.9202848991
 20
159.1264840011
 10
112.751240052
 20
159.0871240293
 10
112.5757558048
 20
159.0501821652
 10
112.3575002058
 20
159.0086914136
 10
112.081532826
 20
158.9613232255
 10
111.6097637461
 20
158.8895778499
 10
111.0034918924
 20
158.8092091428
 10
110.2501729349
 20
158.7222057922
 10
109.3455879788
 20
158.6313353514
 10
108.3938193857
 20
158.5472786248
 10
107.4906519438
 20
158.4696935438
 10
106.2829912611
 20
158.3659224814
 10
105.3245382998
 20
158.2835638804
 10
104.5956011873
 20
158.2209338875
 10
103.7413628169
 20
158.147544764
 10
102.7118674935
 20
158.0591080372
 10
101.5925311904
 20
157.9629660154
 10
100.4723210123
 20
157.8667577506
 10
99.3797720028
 20
157.7729086333
 10
98.3283208402
 20
157.6794670482
 10
97.3096494874
 20
157.5749032259
 10
96.4063240571
 20
157.465562697
 10
95.6439485761
 20
157.3548625654
 10
95.026595011
 20
157.2442977099
 10
94.549555594
 20
157.1341701055
 10
94.1909606665
 20
157.0187241731
 10
93.8573299012
 20
156.8331634037
 10
93.7489659777
 20
156.7322835662
 10
93.6507459605
 20
156.5995674745
 10
93.5715645644
 20
156.4129123218
 10
93.5455062517
 20
156.1849930283
 10
93.6010125944
 20
155.9295427132
 10
93.6974328444
 20
155.758420996
 10
93.783725989
 20
155.6593618733
 10
93.9353637859
 20
155.5390543218
 10
94.1032509973
 20
155.4482080299
 10
94.3074853814
 20
155.3682837352
 10
94.7255946492
 20
155.2514200727
 10
95.3182360535
 20
155.1303841967
 10
96.1148056228
 20
155.0043204892
 10
97.1305202953
 20
154.875115095
 10
97.9448898518
 20
154.7900841822
  0
LWPOLYLINE
  5
4F
330
1F
100
AcDbEntity
  8
0
  6
Continuous
 62
     7
370
    30
100
AcDbPolyline
 90
        3
 70
   128
 43
0.0
 10
109.9448898518
 20
153.7385500891
 10
110.0824198603
 20
153.7251858154
 10
110.1701238095
 20
153.715327925
  0
LWPOLYLINE
  5
50
330
1F
100
AcDbEntity
  8
0
  6
Continuous
 62
     7
370
    30
100
AcDbPolyline
 90
       40
 70
   128
 43
0.0
 10
113.0850533093
 20
154.1377951977
 10
113.0771544396
 20
154.1469659592
 10
112.9378061274
 20
154.1191161139
 10
112.6902180225
 20
154.0682653605
 10
112.1509804725
 20
153.9717784403
 10
111.4620365518
 20
153.8689126855
 10
110.6816640975
 20
153.7705977194
 10
109.811274911
 20
153.6765557983
 10
108.8510141058
 20
153.586661675
 10
107.7960643581
 20
153.4959468497
 10
106.6215467017
 20
153.3950152291
 10
105.3512892529
 20
153.2858627635
 10
104.237210913
 20
153.1901431413
 10
103.4314204061
 20
153.1209188566
 10
103.0676343646
 20
153.0896686442
 10
102.643521585
 20
153.0532382234
 10
102.0479902394
 20
153.0020861638
 10
101.2923002649
 20
152.9371795127
 10
100.3975433694
 20
152.8603250285
 10
99.3979270217
 20
152.7744457189
 10
98.3507888112
 20
152.6815780555
 10
97.3991956493
 20
152.5847522281
 10
96.5798880543
 20
152.4880223457
 10
95.6018192558
 20
152.3479034054
 10
94.8990003501
 20
152.2173918551
 10
94.4232344247
 20
152.0976295365
 10
94.1287921463
 20
151.9922402476
 10
93.9984238878
 20
151.9281687294
 10
93.9006479809
 20
151.8669498522
 10
93.8163653006
 20
151.8002460407
 10
93.6436572608
 20
151.587556502
 10
93.5681199396
 20
151.3995460963
 10
93.5473915618
 20
151.1532674024
 10
93.6328425219
 20
150.8625898736
 10
93.8247186812
 20
150.6247721941
 10
94.043920991
 20
150.4785641057
 10
94.2702134672
 20
150.381495327
 10
94.7788547609
 20
150.2386678947
 10
95.3904304176
 20
150.1172223657
 10
95.4448898518
 20
150.1086569211
  0
LINE
  5
51
330
1F
100
AcDbEntity
  8
0
  6
Continuous
 62
     7
370
    30
100
AcDbLine
 10
88.3564325837
 20
126.2183983117
 30
0.0
 11
90.6354976828
 21
124.3060356275
 31
0.0
  0
LINE
  5
52
330
1F
100
AcDbEntity
  8
0
  6
Continuous
 62
     7
370
    30
100
AcDbLine
 10
117.2542820207
 20
124.3060356275
 30
0.0
 11
119.5333471199
 21
126.2183983117
 31
0.0
  0
LINE
  5
53
330
1F
100
AcDbEntity
  8
0
  6
Continuous
 62
     7
370
    30
100
AcDbLine
 10
119.5333471199
 20
135.3883165684
 30
0.0
 11
117.2542820207
 21
137.3006792526
 31
0.0
  0
LINE
  5
54
330
1F
100
AcDbEntity
  8
0
  6
Continuous
 62
     7
370
    30
100
AcDbLine
 10
90.6354976828
 20
137.3006792526
 30
0.0
 11
88.3564325837
 21
135.3883165684
 31
0.0
  0
LINE
  5
55
330
1F
100
AcDbEntity
  8
0
  6
Continuous
 62
     7
370
    30
100
AcDbLine
 10
111.6948898518
 20
120.044209091
 30
0.0
 11
111.6948898518
 21
121.044209091
 31
0.0
  0
LINE
  5
56
330
1F
100
AcDbEntity
  8
0
  6
Continuous
 62
     7
370
    30
100
AcDbLine
 10
96.1948898518
 20
121.044209091
 30
0.0
 11
96.1948898518
 21
120.044209091
 31
0.0
  0
LINE
  5
57
330
1F
100
AcDbEntity
  8
0
  6
Continuous
 62
     7
370
    30
100
AcDbLine
 10
119.5333471199
 20
144.2422467868
 30
0.0
 11
117.3858520701
 21
146.044209091
 31
0.0
  0
LINE
  5
58
330
1F
100
AcDbEntity
  8
0
  6
Continuous
 62
     7
370
    30
100
AcDbLine
 10
90.5039276335
 20
146.044209091
 30
0.0
 11
88.3564325837
 21
144.2422467868
 31
0.0
  0
LINE
  5
59
330
1F
100
AcDbEntity
  8
0
  6
Continuous
 62
     7
370
    30
100
AcDbLine
 10
112.4448898518
 20
146.044209091
 30
0.0
 11
112.4448898518
 21
148.1056134616
 31
0.0
  0
LINE
  5
5A
330
1F
100
AcDbEntity
  8
0
  6
Continuous
 62
     7
370
    30
100
AcDbLine
 10
112.4448898518
 20
149.510718023
 30
0.0
 11
112.4448898518
 21
152.6091993425
 31
0.0
  0
LINE
  5
5B
330
1F
100
AcDbEntity
  8
0
  6
Continuous
 62
     7
370
    30
100
AcDbLine
 10
95.4448898518
 20
153.044209091
 30
0.0
 11
95.4448898518
 21
152.3187620439
 31
0.0
  0
LINE
  5
5C
330
1F
100
AcDbEntity
  8
0
  6
Continuous
 62
     7
370
    30
100
AcDbLine
 10
95.4448898518
 20
150.9043761361
 30
0.0
 11
95.4448898518
 21
148.487347691
 31
0.0
  0
LINE
  5
5D
330
1F
100
AcDbEntity
  8
0
  6
Continuous
 62
     7
370
    30
100
AcDbLine
 10
95.4448898518
 20
147.0826937258
 30
0.0
 11
95.4448898518
 21
146.044209091
 31
0.0
  0
LINE
  5
5E
330
1F
100
AcDbEntity
  8
0
  6
Continuous
 62
     7
370
    30
100
AcDbLine
 10
95.4448898518
 20
141.044209091
 30
0.0
 11
95.4448898518
 21
137.3006792526
 31
0.0
  0
LINE
  5
5F
330
1F
100
AcDbEntity
  8
0
  6
Continuous
 62
     7
370
    30
100
AcDbLine
 10
95.4448898518
 20
132.3006792526
 30
0.0
 11
95.4448898518
 21
129.3060356275
 31
0.0
  0
LINE
  5
60
330
1F
100
AcDbEntity
  8
0
  6
Continuous
 62
     7
370
    30
100
AcDbLine
 10
95.4448898518
 20
124.3060356275
 30
0.0
 11
95.4448898518
 21
121.544209091
 31
0.0
  0
LINE
  5
61
330
1F
100
AcDbEntity
  8
0
  6
Continuous
 62
     7
370
    30
100
AcDbLine
 10
112.4448898518
 20
121.544209091
 30
0.0
 11
112.4448898518
 21
124.3060356275
 31
0.0
  0
LINE
  5
62
330
1F
100
AcDbEntity
  8
0
  6
Continuous
 62
     7
370
    30
100
AcDbLine
 10
112.4448898518
 20
129.3060356275
 30
0.0
 11
112.4448898518
 21
132.3006792526
 31
0.0
  0
LINE
  5
63
330
1F
100
AcDbEntity
  8
0
  6
Continuous
 62
     7
370
    30
100
AcDbLine
 10
112.4448898518
 20
137.3006792526
 30
0.0
 11
112.4448898518
 21
141.044209091
 31
0.0
  0
LINE
  5
64
330
1F
100
AcDbEntity
  8
0
  6
Continuous
 62
     7
370
    30
100
AcDbLine
 10
95.4448898518
 20
121.544209091
 30
0.0
 11
95.9448898518
 21
121.044209091
 31
0.0
  0
LINE
  5
65
330
1F
100
AcDbEntity
  8
0
  6
Continuous
 62
     7
370
    30
100
AcDbLine
 10
111.9448898518
 20
121.044209091
 30
0.0
 11
112.4448898518
 21
121.544209091
 31
0.0
  0
LINE
  5
66
330
1F
100
AcDbEntity
  8
0
  6
Continuous
 62
     7
370
    30
100
AcDbLine
 10
91.9448898518
 20
178.1361188657
 30
0.0
 11
92.054423656
 21
178.044209091
 31
0.0
  0
LINE
  5
67
330
1F
100
AcDbEntity
  8
0
  6
Continuous
 62
     7
370
    30
100
AcDbLine
 10
115.8353560476
 20
178.044209091
 30
0.0
 11
115.9448898518
 21
178.1361188657
 31
0.0
  0
LINE
  5
68
330
1F
100
AcDbEntity
  8
0
  6
Continuous
 62
     7
370
    30
100
AcDbLine
 10
95.4448898518
 20
178.044209091
 30
0.0
 11
95.4448898518
 21
176.4866181986
 31
0.0
  0
LINE
  5
69
330
1F
100
AcDbEntity
  8
0
  6
Continuous
 62
     7
370
    30
100
AcDbLine
 10
95.4448898518
 20
175.0825011471
 30
0.0
 11
95.4448898518
 21
173.044209091
 31
0.0
  0
LINE
  5
6A
330
1F
100
AcDbEntity
  8
0
  6
Continuous
 62
     7
370
    30
100
AcDbLine
 10
112.4448898518
 20
174.0245196717
 30
0.0
 11
112.4448898518
 21
176.1083550957
 31
0.0
  0
LINE
  5
6B
330
1F
100
AcDbEntity
  8
0
  6
Continuous
 62
     7
370
    30
100
AcDbLine
 10
112.4448898518
 20
177.5117402285
 30
0.0
 11
112.4448898518
 21
178.044209091
 31
0.0
  0
LINE
  5
6C
330
1F
100
AcDbEntity
  8
0
  6
Continuous
 62
     7
370
    30
100
AcDbLine
 10
97.9448898518
 20
173.044209091
 30
0.0
 11
97.9448898518
 21
172.640056587
 31
0.0
  0
LINE
  5
6D
330
1F
100
AcDbEntity
  8
0
  6
Continuous
 62
     7
370
    30
100
AcDbLine
 10
97.9448898518
 20
171.2385294912
 30
0.0
 11
97.9448898518
 21
167.6402659261
 31
0.0
  0
LINE
  5
6E
330
1F
100
AcDbEntity
  8
0
  6
Continuous
 62
     7
370
    30
100
AcDbLine
 10
97.9448898518
 20
166.2385650276
 30
0.0
 11
97.9448898518
 21
162.6408914793
 31
0.0
  0
LINE
  5
6F
330
1F
100
AcDbEntity
  8
0
  6
Continuous
 62
     7
370
    30
100
AcDbLine
 10
97.9448898518
 20
161.2371475027
 30
0.0
 11
97.9448898518
 21
157.6401089082
 31
0.0
  0
LINE
  5
70
330
1F
100
AcDbEntity
  8
0
  6
Continuous
 62
     7
370
    30
100
AcDbLine
 10
97.9448898518
 20
156.2387134255
 30
0.0
 11
97.9448898518
 21
153.044209091
 31
0.0
  0
LINE
  5
71
330
1F
100
AcDbEntity
  8
0
  6
Continuous
 62
     7
370
    30
100
AcDbLine
 10
109.9448898518
 20
153.6909923353
 30
0.0
 11
109.9448898518
 21
157.2889609458
 31
0.0
  0
LINE
  5
72
330
1F
100
AcDbEntity
  8
0
  6
Continuous
 62
     7
370
    30
100
AcDbLine
 10
109.9448898518
 20
158.6915384589
 30
0.0
 11
109.9448898518
 21
162.2876153238
 31
0.0
  0
LINE
  5
73
330
1F
100
AcDbEntity
  8
0
  6
Continuous
 62
     7
370
    30
100
AcDbLine
 10
109.9448898518
 20
163.6911480172
 30
0.0
 11
109.9448898518
 21
167.2875738944
 31
0.0
  0
LINE
  5
74
330
1F
100
AcDbEntity
  8
0
  6
Continuous
 62
     7
370
    30
100
AcDbLine
 10
109.9448898518
 20
168.6912713606
 30
0.0
 11
109.9448898518
 21
172.2879938234
 31
0.0
  0
LINE
  5
75
330
1F
100
AcDbEntity
  8
0
  6
Continuous
 62
     7
370
    30
100
AcDbLine
 10
97.9448898518
 20
118.544209091
 30
0.0
 11
98.4448898518
 21
118.044209091
 31
0.0
  0
LINE
  5
76
330
1F
100
AcDbEntity
  8
0
  6
Continuous
 62
     7
370
    30
100
AcDbLine
 10
109.4448898518
 20
118.044209091
 30
0.0
 11
109.9448898518
 21
118.544209091
 31
0.0
  0
LINE
  5
77
330
1F
100
AcDbEntity
  8
0
  6
Continuous
 62
     7
370
    30
100
AcDbLine
 10
97.9448898518
 20
120.044209091
 30
0.0
 11
97.9448898518
 21
118.544209091
 31
0.0
  0
LINE
  5
78
330
1F
100
AcDbEntity
  8
0
  6
Continuous
 62
     7
370
    30
100
AcDbLine
 10
109.9448898518
 20
118.544209091
 30
0.0
 11
109.9448898518
 21
120.044209091
 31
0.0
  0
LWPOLYLINE
  5
79
330
1F
100
AcDbEntity
  8
0
  6
Continuous
 62
     7
370
    30
100
AcDbPolyline
 90
       11
 70
   128
 43
0.0
 10
88.3564325837
 20
126.2183983117
 10
89.1398734865
 20
125.6130847261
 10
89.9448141657
 20
125.1102608832
 10
90.7817797965
 20
124.7321180985
 10
91.6402872796
 20
124.5126303257
 10
92.4807325048
 20
124.472388876
 10
93.3278743431
 20
124.6085545513
 10
94.189939448
 20
124.9228788001
 10
95.0416466796
 20
125.3942705625
 10
95.6000900097
 20
125.781760191
 10
96.1506612177
 20
126.2183983117
  0
ARC
  5
7A
330
1F
100
AcDbEntity
  8
0
  6
Continuous
 62
     7
370
    30
100
AcDbCircle
 10
103.9448898518
 20
143.2366131327
 30
0.0
 40
18.71816325641057
100
AcDbArc
 50
245.3925368361
 51
294.6074631639
  0
ARC
  5
7B
330
1F
100
AcDbEntity
  8
0
  6
Continuous
 62
     7
370
    30
100
AcDbCircle
 10
115.6362328029
 20
129.9256174806
 30
0.0
 40
5.378752082606052
100
AcDbArc
 50
223.5695091122
 51
316.4304908878
  0
LINE
  5
7C
330
1F
100
AcDbEntity
  8
0
  6
Continuous
 62
     7
370
    30
100
AcDbLine
 10
117.2542820207
 20
124.3060356275
 30
0.0
 11
90.6354976828
 21
124.3060356275
 31
0.0
  0
LINE
  5
7D
330
1F
100
AcDbEntity
  8
0
  6
Continuous
 62
     7
370
    30
100
AcDbLine
 10
96.1506612177
 20
129.3060356275
 30
0.0
 11
111.7391184858
 21
129.3060356275
 31
0.0
  0
LINE
  5
7E
330
1F
100
AcDbEntity
  8
0
  6
Continuous
 62
     7
370
    30
100
AcDbLine
 10
111.7391184858
 20
129.3060356275
 30
0.0
 11
111.7391184858
 21
126.2183983117
 31
0.0
  0
LINE
  5
7F
330
1F
100
AcDbEntity
  8
0
  6
Continuous
 62
     7
370
    30
100
AcDbLine
 10
96.1506612177
 20
129.3060356275
 30
0.0
 11
96.1506612177
 21
126.2183983117
 31
0.0
  0
LINE
  5
80
330
1F
100
AcDbEntity
  8
0
  6
Continuous
 62
     7
370
    30
100
AcDbLine
 10
88.3564325837
 20
129.3060356275
 30
0.0
 11
88.3564325837
 21
126.2183983117
 31
0.0
  0
LINE
  5
81
330
1F
100
AcDbEntity
  8
0
  6
Continuous
 62
     7
370
    30
100
AcDbLine
 10
88.3564325837
 20
129.3060356275
 30
0.0
 11
96.1506612177
 21
129.3060356275
 31
0.0
  0
LINE
  5
82
330
1F
100
AcDbEntity
  8
0
  6
Continuous
 62
     7
370
    30
100
AcDbLine
 10
119.5333471199
 20
129.3060356275
 30
0.0
 11
119.5333471199
 21
126.2183983117
 31
0.0
  0
LINE
  5
83
330
1F
100
AcDbEntity
  8
0
  6
Continuous
 62
     7
370
    30
100
AcDbLine
 10
111.7391184858
 20
129.3060356275
 30
0.0
 11
119.5333471199
 21
129.3060356275
 31
0.0
  0
ARC
  5
84
330
1F
100
AcDbEntity
  8
0
  6
Continuous
 62
     7
370
    30
100
AcDbCircle
 10
103.9448898518
 20
118.484606705
 30
0.0
 40
18.61411848968595
100
AcDbArc
 50
65.2457744265
 51
114.7542255735
  0
LWPOLYLINE
  5
85
330
1F
100
AcDbEntity
  8
0
  6
Continuous
 62
     7
370
    30
100
AcDbPolyline
 90
       11
 70
   128
 43
0.0
 10
96.1506612177
 20
135.3883165684
 10
95.3672203149
 20
135.9936301541
 10
94.5622796357
 20
136.4964539969
 10
93.7253140049
 20
136.8745967816
 10
92.8668065218
 20
137.0940845544
 10
92.0263612966
 20
137.1343260042
 10
91.1792194583
 20
136.9981603288
 10
90.3171543534
 20
136.6838360801
 10
89.4654471218
 20
136.2124443176
 10
88.9070037917
 20
135.8249546892
 10
88.3564325837
 20
135.3883165684
  0
ARC
  5
86
330
1F
100
AcDbEntity
  8
0
  6
Continuous
 62
     7
370
    30
100
AcDbCircle
 10
115.6362328029
 20
131.6168022743
 30
0.0
 40
5.423266549854986
100
AcDbArc
 50
44.061669536
 51
135.938330464
  0
LINE
  5
87
330
1F
100
AcDbEntity
  8
0
  6
Continuous
 62
     7
370
    30
100
AcDbLine
 10
115.471161579
 20
137.3006792526
 30
0.0
 11
117.2542820207
 21
137.3006792526
 31
0.0
  0
LINE
  5
88
330
1F
100
AcDbEntity
  8
0
  6
Continuous
 62
     7
370
    30
100
AcDbLine
 10
90.6354976828
 20
137.3006792526
 30
0.0
 11
115.471161579
 21
137.3006792526
 31
0.0
  0
LINE
  5
89
330
1F
100
AcDbEntity
  8
0
  6
Continuous
 62
     7
370
    30
100
AcDbLine
 10
111.7391184858
 20
132.3006792526
 30
0.0
 11
96.1506612177
 21
132.3006792526
 31
0.0
  0
LINE
  5
8A
330
1F
100
AcDbEntity
  8
0
  6
Continuous
 62
     7
370
    30
100
AcDbLine
 10
96.1506612177
 20
132.3006792526
 30
0.0
 11
96.1506612177
 21
135.3883165684
 31
0.0
  0
LINE
  5
8B
330
1F
100
AcDbEntity
  8
0
  6
Continuous
 62
     7
370
    30
100
AcDbLine
 10
111.7391184858
 20
132.3006792526
 30
0.0
 11
111.7391184858
 21
135.3883165684
 31
0.0
  0
LINE
  5
8C
330
1F
100
AcDbEntity
  8
0
  6
Continuous
 62
     7
370
    30
100
AcDbLine
 10
88.3564325837
 20
132.3006792526
 30
0.0
 11
88.3564325837
 21
135.3883165684
 31
0.0
  0
LINE
  5
8D
330
1F
100
AcDbEntity
  8
0
  6
Continuous
 62
     7
370
    30
100
AcDbLine
 10
96.1506612177
 20
132.3006792526
 30
0.0
 11
88.3564325837
 21
132.3006792526
 31
0.0
  0
LINE
  5
8E
330
1F
100
AcDbEntity
  8
0
  6
Continuous
 62
     7
370
    30
100
AcDbLine
 10
119.5333471199
 20
132.3006792526
 30
0.0
 11
119.5333471199
 21
135.3883165684
 31
0.0
  0
LINE
  5
8F
330
1F
100
AcDbEntity
  8
0
  6
Continuous
 62
     7
370
    30
100
AcDbLine
 10
119.5333471199
 20
132.3006792526
 30
0.0
 11
111.7391184858
 21
132.3006792526
 31
0.0
  0
LINE
  5
90
330
1F
100
AcDbEntity
  8
0
  6
Continuous
 62
     7
370
    30
100
AcDbLine
 10
96.1948898518
 20
120.044209091
 30
0.0
 11
111.6948898518
 21
120.044209091
 31
0.0
  0
LINE
  5
91
330
1F
100
AcDbEntity
  8
0
  6
Continuous
 62
     7
370
    30
100
AcDbLine
 10
90.5039276335
 20
146.044209091
 30
0.0
 11
117.3858520701
 21
146.044209091
 31
0.0
  0
LWPOLYLINE
  5
92
330
1F
100
AcDbEntity
  8
0
  6
Continuous
 62
     7
370
    30
100
AcDbPolyline
 90
       11
 70
   128
 43
0.0
 10
119.5333471199
 20
144.2422467868
 10
118.749906217
 20
144.8475603724
 10
117.9449655378
 20
145.3503842153
 10
117.1079999071
 20
145.728527
 10
116.249492424
 20
145.9480147727
 10
115.4090471988
 20
145.9882562225
 10
114.5619053604
 20
145.8520905471
 10
113.6998402556
 20
145.5377662984
 10
112.848133024
 20
145.066374536
 10
112.2896896938
 20
144.6788849075
 10
111.7391184858
 20
144.2422467868
  0
ARC
  5
93
330
1F
100
AcDbEntity
  8
0
  6
Continuous
 62
     7
370
    30
100
AcDbCircle
 10
103.9448898518
 20
127.3334251305
 30
0.0
 40
18.61876069464439
100
AcDbArc
 50
65.2523612462
 51
114.7476387538
  0
LWPOLYLINE
  5
94
330
1F
100
AcDbEntity
  8
0
  6
Continuous
 62
     7
370
    30
100
AcDbPolyline
 90
       12
 70
   128
 43
0.0
 10
96.1506612177
 20
144.2422467868
 10
95.5912055109
 20
144.6855006924
 10
94.8711676285
 20
145.1727193139
 10
94.1332249275
 20
145.5636558589
 10
93.3691053945
 20
145.8410112105
 10
92.589485876
 20
145.980650063
 10
91.7791487146
 20
145.9667283168
 10
90.9654214868
 20
145.7902497411
 10
90.1414200054
 20
145.4530569138
 10
89.328361855
 20
144.9767154443
 10
88.8393057817
 20
144.6280121357
 10
88.3564325837
 20
144.2422467868
  0
LINE
  5
95
330
1F
100
AcDbEntity
  8
0
  6
Continuous
 62
     7
370
    30
100
AcDbLine
 10
111.7391184858
 20
141.044209091
 30
0.0
 11
96.1506612177
 21
141.044209091
 31
0.0
  0
LINE
  5
96
330
1F
100
AcDbEntity
  8
0
  6
Continuous
 62
     7
370
    30
100
AcDbLine
 10
96.1506612177
 20
141.044209091
 30
0.0
 11
96.1506612177
 21
144.2422467868
 31
0.0
  0
LINE
  5
97
330
1F
100
AcDbEntity
  8
0
  6
Continuous
 62
     7
370
    30
100
AcDbLine
 10
111.7391184858
 20
141.044209091
 30
0.0
 11
111.7391184858
 21
144.2422467868
 31
0.0
  0
LINE
  5
98
330
1F
100
AcDbEntity
  8
0
  6
Continuous
 62
     7
370
    30
100
AcDbLine
 10
119.5333471199
 20
141.044209091
 30
0.0
 11
119.5333471199
 21
144.2422467868
 31
0.0
  0
LINE
  5
99
330
1F
100
AcDbEntity
  8
0
  6
Continuous
 62
     7
370
    30
100
AcDbLine
 10
119.5333471199
 20
141.044209091
 30
0.0
 11
111.7391184858
 21
141.044209091
 31
0.0
  0
LINE
  5
9A
330
1F
100
AcDbEntity
  8
0
  6
Continuous
 62
     7
370
    30
100
AcDbLine
 10
88.3564325837
 20
141.044209091
 30
0.0
 11
88.3564325837
 21
144.2422467868
 31
0.0
  0
LINE
  5
9B
330
1F
100
AcDbEntity
  8
0
  6
Continuous
 62
     7
370
    30
100
AcDbLine
 10
96.1506612177
 20
141.044209091
 30
0.0
 11
88.3564325837
 21
141.044209091
 31
0.0
  0
LINE
  5
9C
330
1F
100
AcDbEntity
  8
0
  6
Continuous
 62
     7
370
    30
100
AcDbLine
 10
96.5836739196
 20
153.044209091
 30
0.0
 11
102.532630235
 21
153.044209091
 31
0.0
  0
LINE
  5
9D
330
1F
100
AcDbEntity
  8
0
  6
Continuous
 62
     7
370
    30
100
AcDbLine
 10
95.4448898518
 20
153.044209091
 30
0.0
 11
96.5836739196
 21
153.044209091
 31
0.0
  0
LINE
  5
9E
330
1F
100
AcDbEntity
  8
0
  6
Continuous
 62
     7
370
    30
100
AcDbLine
 10
95.4448898518
 20
121.544209091
 30
0.0
 11
112.4448898518
 21
121.544209091
 31
0.0
  0
LINE
  5
9F
330
1F
100
AcDbEntity
  8
0
  6
Continuous
 62
     7
370
    30
100
AcDbLine
 10
111.9448898518
 20
121.044209091
 30
0.0
 11
95.9448898518
 21
121.044209091
 31
0.0
  0
LINE
  5
A0
330
1F
100
AcDbEntity
  8
0
  6
Continuous
 62
     7
370
    30
100
AcDbLine
 10
103.9448898518
 20
182.044209091
 30
0.0
 11
91.9448898518
 21
182.044209091
 31
0.0
  0
LINE
  5
A1
330
1F
100
AcDbEntity
  8
0
  6
Continuous
 62
     7
370
    30
100
AcDbLine
 10
103.9448898518
 20
179.6416996573
 30
0.0
 11
103.9448898518
 21
182.044209091
 31
0.0
  0
LINE
  5
A2
330
1F
100
AcDbEntity
  8
0
  6
Continuous
 62
     7
370
    30
100
AcDbLine
 10
103.926203323
 20
179.684786652
 30
0.0
 11
103.9448898518
 21
179.6416996573
 31
0.0
  0
ARC
  5
A3
330
1F
100
AcDbEntity
  8
0
  6
Continuous
 62
     7
370
    30
100
AcDbCircle
 10
97.9448898518
 20
190.9452462613
 30
0.0
 40
12.75045338224812
100
AcDbArc
 50
242.0237229305
 51
297.9762770695
  0
LINE
  5
A4
330
1F
100
AcDbEntity
  8
0
  6
Continuous
 62
     7
370
    30
100
AcDbLine
 10
91.9448898518
 20
179.6416996573
 30
0.0
 11
91.9635763806
 21
179.684786652
 31
0.0
  0
LINE
  5
A5
330
1F
100
AcDbEntity
  8
0
  6
Continuous
 62
     7
370
    30
100
AcDbLine
 10
91.9448898518
 20
179.6416996573
 30
0.0
 11
91.9448898518
 21
182.044209091
 31
0.0
  0
LINE
  5
A6
330
1F
100
AcDbEntity
  8
0
  6
Continuous
 62
     7
370
    30
100
AcDbLine
 10
115.9448898518
 20
179.684786652
 30
0.0
 11
115.9448898518
 21
178.1497283348
 31
0.0
  0
LINE
  5
A7
330
1F
100
AcDbEntity
  8
0
  6
Continuous
 62
     7
370
    30
100
AcDbLine
 10
91.9448898518
 20
179.684786652
 30
0.0
 11
91.9448898518
 21
178.1497283348
 31
0.0
  0
ARC
  5
A8
330
1F
100
AcDbEntity
  8
0
  6
Continuous
 62
     7
370
    30
100
AcDbCircle
 10
109.9448898518
 20
190.8025567334
 30
0.0
 40
12.62461573368002
100
AcDbArc
 50
241.7199356849
 51
298.2800643151
  0
LINE
  5
A9
330
1F
100
AcDbEntity
  8
0
  6
Continuous
 62
     7
370
    30
100
AcDbLine
 10
92.054423656
 20
178.044209091
 30
0.0
 11
115.8353560476
 21
178.044209091
 31
0.0
  0
LINE
  5
AA
330
1F
100
AcDbEntity
  8
0
  6
Continuous
 62
     7
370
    30
100
AcDbLine
 10
115.9448898518
 20
182.044209091
 30
0.0
 11
103.9448898518
 21
182.044209091
 31
0.0
  0
LINE
  5
AB
330
1F
100
AcDbEntity
  8
0
  6
Continuous
 62
     7
370
    30
100
AcDbLine
 10
115.9448898518
 20
179.6416996573
 30
0.0
 11
115.9448898518
 21
182.044209091
 31
0.0
  0
LINE
  5
AC
330
1F
100
AcDbEntity
  8
0
  6
Continuous
 62
     7
370
    30
100
AcDbLine
 10
115.926203323
 20
179.684786652
 30
0.0
 11
115.9448898518
 21
179.6416996573
 31
0.0
  0
LINE
  5
AD
330
1F
100
AcDbEntity
  8
0
  6
Continuous
 62
     7
370
    30
100
AcDbLine
 10
103.9448898518
 20
179.6416996573
 30
0.0
 11
103.9635763806
 21
179.684786652
 31
0.0
  0
LINE
  5
AE
330
1F
100
AcDbEntity
  8
0
  6
Continuous
 62
     7
370
    30
100
AcDbLine
 10
102.5318593697
 20
173.044209091
 30
0.0
 11
95.4448898518
 21
173.044209091
 31
0.0
  0
LINE
  5
AF
330
1F
100
AcDbEntity
  8
0
  6
Continuous
 62
     7
370
    30
100
AcDbLine
 10
109.4448898518
 20
118.044209091
 30
0.0
 11
98.4448898518
 21
118.044209091
 31
0.0
  0
LINE
  5
B0
330
1F
100
AcDbEntity
  8
0
  6
Continuous
 62
     7
370
    30
100
AcDbLine
 10
97.9448898518
 20
118.544209091
 30
0.0
 11
109.9448898518
 21
118.544209091
 31
0.0
  0
LWPOLYLINE
  5
B1
330
1F
100
AcDbEntity
  8
0
  6
HIDDEN
 62
     7
370
     0
100
AcDbPolyline
 90
       18
 70
   128
 43
0.0
 10
108.8367016535
 20
173.844209091
 10
108.964226228
 20
173.8914785305
 10
109.074527902
 20
174.026902849
 10
109.1527098233
 20
174.232192242
 10
109.1882130903
 20
174.4796212394
 10
109.1762427899
 20
174.7357731841
 10
109.1184155776
 20
174.9660533365
 10
109.0225413388
 20
175.139361086
 10
108.9015684207
 20
175.2322902608
 10
108.7718348863
 20
175.2322902608
 10
108.6508619683
 20
175.139361086
 10
108.5549877295
 20
174.9660533365
 10
108.4971605172
 20
174.7357731841
 10
108.4851902168
 20
174.4796212394
 10
108.5206934837
 20
174.232192242
 10
108.598875405
 20
174.026902849
 10
108.7091770791
 20
173.8914785305
 10
108.8367016535
 20
173.844209091
  0
ARC
  5
B2
330
1F
100
AcDbEntity
  8
0
  6
HIDDEN
 62
     7
370
     0
100
AcDbCircle
 10
108.0673466624
 20
177.567590237
 30
0.0
 40
1.122615848030734
100
AcDbArc
 50
358.8065927815
 51
25.1228763187
  0
LWPOLYLINE
  5
B3
330
1F
100
AcDbEntity
  8
0
  6
HIDDEN
 62
     7
370
     0
100
AcDbPolyline
 90
       12
 70
   128
 43
0.0
 10
109.189719
 20
177.544209091
 10
109.1673465684
 20
177.2989758195
 10
109.103064974
 20
177.0848258058
 10
109.0050218931
 20
176.9289025122
 10
108.8856442626
 20
176.8509691785
 10
108.7600631683
 20
176.8609038358
 10
108.6441959834
 20
176.9574472688
 10
108.5527288456
 20
177.1283626207
 10
108.4972551925
 20
177.351986412
 10
108.484806296
 20
177.5999743813
 10
108.516960051
 20
177.8408941135
 10
108.5896409766
 20
178.044209091
  0
LINE
  5
B4
330
1F
100
AcDbEntity
  8
0
  6
HIDDEN
 62
     7
370
     0
100
AcDbLine
 10
111.8666167048
 20
178.044209091
 30
0.0
 11
111.8548109012
 21
178.044209091
 31
0.0
  0
LWPOLYLINE
  5
B5
330
1F
100
AcDbEntity
  8
0
  6
HIDDEN
 62
     7
370
     0
100
AcDbPolyline
 90
       18
 70
   128
 43
0.0
 10
108.8367016535
 20
148.844209091
 10
108.964226228
 20
148.8914785305
 10
109.074527902
 20
149.026902849
 10
109.1527098233
 20
149.232192242
 10
109.1882130903
 20
149.4796212394
 10
109.1762427899
 20
149.7357731841
 10
109.1184155776
 20
149.9660533365
 10
109.0225413388
 20
150.139361086
 10
108.9015684207
 20
150.2322902608
 10
108.7718348863
 20
150.2322902608
 10
108.6508619683
 20
150.139361086
 10
108.5549877295
 20
149.9660533365
 10
108.4971605172
 20
149.7357731841
 10
108.4851902168
 20
149.4796212394
 10
108.5206934837
 20
149.232192242
 10
108.598875405
 20
149.026902849
 10
108.7091770791
 20
148.8914785305
 10
108.8367016535
 20
148.844209091
  0
LWPOLYLINE
  5
B6
330
1F
100
AcDbEntity
  8
0
  6
HIDDEN
 62
     7
370
     0
100
AcDbPolyline
 90
       14
 70
   128
 43
0.0
 10
109.0837623305
 20
146.044209091
 10
109.1573550944
 20
146.2514190406
 10
109.1889155615
 20
146.497008863
 10
109.174306683
 20
146.748785845
 10
109.1154434383
 20
146.9737462401
 10
109.020041813
 20
147.1424015075
 10
108.9006073628
 20
147.2326437657
 10
108.7727959442
 20
147.2326437657
 10
108.653361494
 20
147.1424015075
 10
108.5579598688
 20
146.9737462401
 10
108.499096624
 20
146.748785845
 10
108.4844877455
 20
146.497008863
 10
108.5160482126
 20
146.2514190406
 10
108.5896409766
 20
146.044209091
  0
LINE
  5
B7
330
1F
100
AcDbEntity
  8
0
  6
HIDDEN
 62
     7
370
     0
100
AcDbLine
 10
109.2913190507
 20
121.044209091
 30
0.0
 11
109.2913190507
 21
120.044209091
 31
0.0
  0
LINE
  5
B8
330
1F
100
AcDbEntity
  8
0
  6
HIDDEN
 62
     7
370
     0
100
AcDbLine
 10
110.5490685828
 20
121.044209091
 30
0.0
 11
110.5490685828
 21
120.044209091
 31
0.0
  0
LINE
  5
B9
330
1F
100
AcDbEntity
  8
0
  6
HIDDEN
 62
     7
370
     0
100
AcDbLine
 10
108.9762992514
 20
121.044209091
 30
0.0
 11
108.9762992514
 21
120.044209091
 31
0.0
  0
LINE
  5
BA
330
1F
100
AcDbEntity
  8
0
  6
HIDDEN
 62
     7
370
     0
100
AcDbLine
 10
107.7185497193
 20
121.044209091
 30
0.0
 11
107.7185497193
 21
120.044209091
 31
0.0
  0
LINE
  5
BB
330
1F
100
AcDbEntity
  8
0
  6
HIDDEN
 62
     7
370
     0
100
AcDbLine
 10
102.532630235
 20
153.044209091
 30
0.0
 11
112.4448898518
 21
153.044209091
 31
0.0
  0
LINE
  5
BC
330
1F
100
AcDbEntity
  8
0
  6
HIDDEN
 62
     7
370
     0
100
AcDbLine
 10
91.9635763806
 20
179.684786652
 30
0.0
 11
91.9448898518
 21
179.684786652
 31
0.0
  0
LINE
  5
BD
330
1F
100
AcDbEntity
  8
0
  6
HIDDEN
 62
     7
370
     0
100
AcDbLine
 10
103.9635763806
 20
179.684786652
 30
0.0
 11
103.926203323
 21
179.684786652
 31
0.0
  0
LINE
  5
BE
330
1F
100
AcDbEntity
  8
0
  6
HIDDEN
 62
     7
370
     0
100
AcDbLine
 10
115.9448898518
 20
179.684786652
 30
0.0
 11
115.926203323
 21
179.684786652
 31
0.0
  0
LINE
  5
BF
330
1F
100
AcDbEntity
  8
0
  6
HIDDEN
 62
     7
370
     0
100
AcDbLine
 10
112.4448898518
 20
173.044209091
 30
0.0
 11
102.5318593697
 21
173.044209091
 31
0.0
  0
LINE
  5
C0
330
1F
100
AcDbEntity
  8
0
  6
HIDDEN
 62
     7
370
     0
100
AcDbLine
 10
97.9448898518
 20
121.344209091
 30
0.0
 11
109.9448898518
 21
121.344209091
 31
0.0
  0
LINE
  5
C1
330
1F
100
AcDbEntity
  8
0
  6
HIDDEN
 62
     7
370
     0
100
AcDbLine
 10
108.2873868559
 20
125.444209091
 30
0.0
 11
99.6023928477
 21
125.444209091
 31
0.0
  0
LINE
  5
C2
330
1F
100
AcDbEntity
  8
0
  6
HIDDEN
 62
     7
370
     0
100
AcDbLine
 10
99.6023928477
 20
174.644209091
 30
0.0
 11
108.2873868559
 21
174.644209091
 31
0.0
  0
LINE
  5
C3
330
1F
100
AcDbEntity
  8
0
  6
HIDDEN
 62
     7
370
     0
100
AcDbLine
 10
100.4448898518
 20
169.8338218125
 30
0.0
 11
107.4448898518
 21
169.8338218125
 31
0.0
  0
LINE
  5
C4
330
1F
100
AcDbEntity
  8
0
  6
HIDDEN
 62
     7
370
     0
100
AcDbLine
 10
99.9948898518
 20
170.104209091
 30
0.0
 11
107.8948898518
 21
170.104209091
 31
0.0
  0
LINE
  5
C5
330
1F
100
AcDbEntity
  8
0
  6
HIDDEN
 62
     7
370
     0
100
AcDbLine
 10
107.8948898518
 20
129.984209091
 30
0.0
 11
99.9948898518
 21
129.984209091
 31
0.0
  0
LINE
  5
C6
330
1F
100
AcDbEntity
  8
0
  6
HIDDEN
 62
     7
370
     0
100
AcDbLine
 10
100.4448898518
 20
130.2545963696
 30
0.0
 11
107.4448898518
 21
130.2545963696
 31
0.0
  0
LWPOLYLINE
  5
C7
330
1F
100
AcDbEntity
  8
0
  6
HIDDEN
 62
     7
370
     0
100
AcDbPolyline
 90
       30
 70
   128
 43
0.0
 10
108.8461660904
 20
175.243957472
 10
107.7638398412
 20
175.2997937348
 10
106.6915129043
 20
175.3550971765
 10
105.6652303616
 20
175.4080148027
 10
104.271167019
 20
175.4798827591
 10
103.1007309585
 20
175.5402117234
 10
102.3415878611
 20
175.5793358497
 10
101.7338655685
 20
175.6106528794
 10
101.1389754225
 20
175.6413045936
 10
100.510697803
 20
175.6736678092
 10
99.8585393839
 20
175.7072426062
 10
99.0265445695
 20
175.7500812488
 10
98.1710151921
 20
175.7976392528
 10
97.3051111321
 20
175.8525688996
 10
96.4678236859
 20
175.9145474637
 10
95.763765613
 20
175.9765081986
 10
95.258180644
 20
176.0292009272
 10
94.9324657845
 20
176.0674151376
 10
94.7584876557
 20
176.0853704145
 10
94.7025278591
 20
176.0777103762
 10
94.7173365279
 20
176.0556123433
 10
94.801333684
 20
175.9650045732
 10
94.9001763144
 20
175.7895433144
 10
94.9441385768
 20
175.5785054795
 10
94.9266078187
 20
175.389809984
 10
94.8732136327
 20
175.242956952
 10
94.8278835155
 20
175.1658904273
 10
94.7904022369
 20
175.1156975613
 10
94.7252666902
 20
175.0416847382
 10
94.7200480916
 20
175.0161718342
  0
LWPOLYLINE
  5
C8
330
1F
100
AcDbEntity
  8
0
  6
HIDDEN
 62
     7
370
     0
100
AcDbPolyline
 90
        3
 70
   128
 43
0.0
 10
112.4448898518
 20
177.9846667944
 10
112.0231570719
 20
178.0284956502
 10
111.8546821979
 20
178.0429791268
  0
LWPOLYLINE
  5
C9
330
1F
100
AcDbEntity
  8
0
  6
HIDDEN
 62
     7
370
     0
100
AcDbPolyline
 90
       22
 70
   128
 43
0.0
 10
108.827205679
 20
176.8444623901
 10
109.8309544024
 20
176.7887789167
 10
110.6905017815
 20
176.7341141993
 10
111.3999833289
 20
176.6824975994
 10
111.9640772807
 20
176.6355836046
 10
112.5125945202
 20
176.5823873484
 10
112.8677678072
 20
176.5413999542
 10
113.0761990439
 20
176.5132987538
 10
113.1812212842
 20
176.4980616524
 10
113.2187652263
 20
176.4952924398
 10
113.2158388612
 20
176.5044624912
 10
113.1937352473
 20
176.5224457074
 10
113.1437555951
 20
176.566827176
 10
113.0107313557
 20
176.7541435618
 10
112.9633252918
 20
176.889077872
 10
112.9474987962
 20
176.9869047399
 10
112.9498542422
 20
177.1288187949
 10
112.9907540815
 20
177.2926983693
 10
113.0483339077
 20
177.4105396597
 10
113.1394576338
 20
177.5387008015
 10
113.2018793761
 20
177.601411312
 10
113.2042077401
 20
177.609953859
  0
LWPOLYLINE
  5
CA
330
1F
100
AcDbEntity
  8
0
  6
HIDDEN
 62
     7
370
     0
100
AcDbPolyline
 90
       17
 70
   128
 43
0.0
 10
95.4448898518
 20
174.6062563523
 10
95.7943635164
 20
174.5699572843
 10
96.5902987265
 20
174.5027692037
 10
97.4938615345
 20
174.4388568628
 10
98.4741016116
 20
174.3795624938
 10
99.4962125676
 20
174.3255553533
 10
100.1192262544
 20
174.2935592679
 10
100.744852918
 20
174.2614122914
 10
101.3665510127
 20
174.229449724
 10
101.9783058454
 20
174.197980941
 10
102.6830340566
 20
174.1617079462
 10
103.4263523396
 20
174.1234236348
 10
104.3089073258
 20
174.077934805
 10
105.3196663319
 20
174.0257936499
 10
106.436050315
 20
173.9681474528
 10
107.6217886553
 20
173.9068523038
 10
108.827205679
 20
173.8444623901
  0
LWPOLYLINE
  5
CB
330
1F
100
AcDbEntity
  8
0
  6
HIDDEN
 62
     7
370
     0
100
AcDbPolyline
 90
       20
 70
   128
 43
0.0
 10
108.8284613819
 20
148.8443998207
 10
109.7934364967
 20
148.7907905663
 10
110.6305023731
 20
148.7374150135
 10
111.332376884
 20
148.6861400114
 10
111.9005856806
 20
148.638609292
 10
112.4657431592
 20
148.5833991973
 10
112.8413367536
 20
148.5398464675
 10
113.0659044983
 20
148.5100090086
 10
113.1775020394
 20
148.4957764385
 10
113.2097876286
 20
148.4992104782
 10
113.1877589586
 20
148.5251092518
 10
113.0892684652
 20
148.6284836485
 10
113.0292673775
 20
148.7188899397
 10
112.9712772434
 20
148.8589778709
 10
112.9453921978
 20
149.0728239402
 10
113.0078069596
 20
149.3317301245
 10
113.0694557502
 20
149.438127715
 10
113.1335382045
 20
149.5162091837
 10
113.2230728017
 20
149.5993477961
 10
113.2300922151
 20
149.6132071235
  0
ARC
  5
CC
330
1F
100
AcDbEntity
  8
0
  6
HIDDEN
 62
     7
370
     0
100
AcDbCircle
 10
117.9908285423
 20
447.8443953918
 30
0.0
 40
302.0813334304468
100
AcDbArc
 50
265.7197307236
 51
267.5298094521
  0
LWPOLYLINE
  5
CD
330
1F
100
AcDbEntity
  8
0
  6
HIDDEN
 62
     7
370
     0
100
AcDbPolyline
 90
       33
 70
   128
 43
0.0
 10
108.8449118247
 20
147.2440197525
 10
107.6377351641
 20
147.3062955502
 10
106.4523862948
 20
147.3674263602
 10
105.3375460059
 20
147.4249084597
 10
104.3286489428
 20
147.4769195294
 10
103.4476522824
 20
147.5223309924
 10
102.7051649995
 20
147.5605985858
 10
101.8497078701
 20
147.6046834467
 10
101.0873223552
 20
147.6439667783
 10
100.3152228789
 20
147.6837441515
 10
99.5458066637
 20
147.7233737886
 10
98.5378135172
 20
147.7766483504
 10
97.558022659
 20
147.8359212929
 10
96.6451999691
 20
147.9008143773
 10
96.0293771282
 20
147.9522842414
 10
95.5132024415
 20
148.0028990438
 10
95.1227974435
 20
148.0486814364
 10
94.8443065237
 20
148.0886154933
 10
94.7422464963
 20
148.1060374714
 10
94.6712897488
 20
148.1187178269
 10
94.6518900581
 20
148.1146216089
 10
94.7050790529
 20
148.0662378786
 10
94.761242462
 20
148.0111903668
 10
94.8268786749
 20
147.928872418
 10
94.888753027
 20
147.8167469175
 10
94.9312436666
 20
147.6820828752
 10
94.9359031807
 20
147.4362693266
 10
94.882927834
 20
147.2631972487
 10
94.8209104518
 20
147.1557761272
 10
94.7571762052
 20
147.0777448665
 10
94.705317484
 20
147.0255965855
 10
94.6826698234
 20
146.9973033717
 10
94.687787293
 20
146.9964347842
  0
ARC
  5
CE
330
1F
100
AcDbEntity
  8
0
  6
HIDDEN
 62
     7
370
     0
100
AcDbCircle
 10
105.555496846
 20
78.4232401217
 30
0.0
 40
71.89606830473016
100
AcDbArc
 50
84.5012327507
 51
87.3776673045
  0
LWPOLYLINE
  5
CF
330
1F
100
AcDbEntity
  8
0
  6
HIDDEN
 62
     7
370
     0
100
AcDbPolyline
 90
       26
 70
   128
 43
0.0
 10
108.8504621121
 20
150.2436770969
 10
107.5156147821
 20
150.3583214645
 10
106.2304990922
 20
150.46869625
 10
105.0591703392
 20
150.5693074764
 10
104.0435491904
 20
150.6565537246
 10
103.2054534938
 20
150.7285568531
 10
102.5520104297
 20
150.7847003452
 10
102.0817363172
 20
150.8251082937
 10
101.6771609697
 20
150.8598732838
 10
100.685353164
 20
150.9451051473
 10
99.5012046096
 20
151.0468439071
 10
98.6415989249
 20
151.1222862006
 10
97.7383902816
 20
151.2116354224
 10
96.9421464762
 20
151.3023087097
 10
96.0225594053
 20
151.4274464199
 10
95.3993687587
 20
151.5333448137
 10
95.0141052607
 20
151.6159610786
 10
94.7939770449
 20
151.6753678686
 10
94.7503279946
 20
151.6720994608
 10
94.8260610326
 20
151.5845887845
 10
94.932761621
 20
151.3390552638
 10
94.9305289535
 20
151.0795735918
 10
94.8696086652
 20
150.9138092134
 10
94.8092445307
 20
150.8218271899
 10
94.7704192216
 20
150.7738648025
 10
94.7743170278
 20
150.7681769567
  0
LWPOLYLINE
  5
D0
330
1F
100
AcDbEntity
  8
0
  6
HIDDEN
 62
     7
370
     0
100
AcDbPolyline
 90
       17
 70
   128
 43
0.0
 10
109.9448898518
 20
155.1409464106
 10
109.0114169597
 20
155.2297013455
 10
108.1585289894
 20
155.3031110491
 10
107.1885829882
 20
155.3864146735
 10
106.2747026221
 20
155.4649033908
 10
105.512795378
 20
155.530343906
 10
104.9229295127
 20
155.5810113397
 10
104.5150030792
 20
155.6160529221
 10
104.1257739804
 20
155.649489952
 10
103.5689671878
 20
155.697325589
 10
102.8484361259
 20
155.7592316795
 10
101.9754210922
 20
155.8342452966
 10
100.972373894
 20
155.9204379638
 10
99.8970836684
 20
156.0128379037
 10
98.9384181937
 20
156.0954760838
 10
98.0968286705
 20
156.1747123462
 10
97.9448898518
 20
156.1908806146
  0
LWPOLYLINE
  5
D1
330
1F
100
AcDbEntity
  8
0
  6
HIDDEN
 62
     7
370
     0
100
AcDbPolyline
 90
       15
 70
   128
 43
0.0
 10
97.7204083294
 20
156.2147683711
 10
97.3639944718
 20
156.2526954457
 10
96.471961296
 20
156.3629358265
 10
95.8130763054
 20
156.4605474202
 10
95.3266221063
 20
156.5476223589
 10
94.9524335336
 20
156.6311562719
 10
94.817848455
 20
156.668467801
 10
94.7336355851
 20
156.6957188985
 10
94.7371837121
 20
156.6842552211
 10
94.8218037421
 20
156.5923156224
 10
94.924796618
 20
156.3741080275
 10
94.928590886
 20
156.0707447835
 10
94.8344566436
 20
155.8565962987
 10
94.7572596545
 20
155.7667030345
 10
94.7313429864
 20
155.7396609635
  0
LWPOLYLINE
  5
D2
330
1F
100
AcDbEntity
  8
0
  6
HIDDEN
 62
     7
370
     0
100
AcDbPolyline
 90
       17
 70
   128
 43
0.0
 10
109.9448898518
 20
160.1400744362
 10
109.3323748352
 20
160.2008803706
 10
108.1687381344
 20
160.3022337954
 10
106.8412710996
 20
160.4162429667
 10
105.9149011935
 20
160.4958062185
 10
105.1196618429
 20
160.5641124307
 10
104.482997284
 20
160.618802417
 10
104.0133561561
 20
160.6591476231
 10
103.6619839097
 20
160.6893342546
 10
103.1881525349
 20
160.730043562
 10
102.565121362
 20
160.7835747821
 10
101.8025102832
 20
160.8491027449
 10
100.9182926316
 20
160.9250820083
 10
99.9413590448
 20
161.0090230427
 10
98.9736945547
 20
161.0923325632
 10
98.1020531941
 20
161.1741212623
 10
97.9448898518
 20
161.1914175188
  0
LWPOLYLINE
  5
D3
330
1F
100
AcDbEntity
  8
0
  6
HIDDEN
 62
     7
370
     0
100
AcDbPolyline
 90
       15
 70
   128
 43
0.0
 10
97.7323821093
 20
161.2148045782
 10
96.9719185308
 20
161.2984956791
 10
96.0779888585
 20
161.4185542597
 10
95.4230995638
 20
161.5277700458
 10
94.9899736719
 20
161.6203373071
 10
94.7722831133
 20
161.6810591146
 10
94.7209448576
 20
161.6951542871
 10
94.7375739041
 20
161.6801873898
 10
94.7829989677
 20
161.6365958577
 10
94.8824077222
 20
161.4902010584
 10
94.9440008909
 20
161.1806595855
 10
94.8650544967
 20
160.9039788166
 10
94.7680771483
 20
160.7727063851
 10
94.7317872846
 20
160.7357359508
 10
94.73215621
 20
160.7358383089
  0
LWPOLYLINE
  5
D4
330
1F
100
AcDbEntity
  8
0
  6
HIDDEN
 62
     7
370
     0
100
AcDbPolyline
 90
       17
 70
   128
 43
0.0
 10
109.9448898518
 20
165.1402480047
 10
109.420836426
 20
165.1926598204
 10
108.3753590378
 20
165.2844556392
 10
107.3881943286
 20
165.3692621188
 10
106.5097090631
 20
165.4447181725
 10
105.7722820848
 20
165.5080562543
 10
105.1956191808
 20
165.5575878946
 10
104.7900878544
 20
165.5924224138
 10
104.4168240618
 20
165.6244869286
 10
103.9031409035
 20
165.6686161534
 10
103.2506193927
 20
165.72467649
 10
102.4659694949
 20
165.7920940525
 10
101.6137549303
 20
165.8653233878
 10
100.4123046829
 20
165.9685696445
 10
99.3257359187
 20
166.0619318032
 10
98.3458084091
 20
166.1502373744
 10
97.9448898518
 20
166.1917718961
  0
LWPOLYLINE
  5
D5
330
1F
100
AcDbEntity
  8
0
  6
HIDDEN
 62
     7
370
     0
100
AcDbPolyline
 90
       17
 70
   128
 43
0.0
 10
97.7186841376
 20
166.2152064466
 10
97.4500555304
 20
166.243035941
 10
96.6491677536
 20
166.3393648217
 10
95.929804036
 20
166.4413507441
 10
95.3414614425
 20
166.5411127929
 10
94.942805316
 20
166.6210693197
 10
94.8304202848
 20
166.6443662873
 10
94.7915959774
 20
166.6433662836
 10
94.8069215787
 20
166.6124128359
 10
94.849405492
 20
166.5501252244
 10
94.8993263442
 20
166.4516081686
 10
94.9428327497
 20
166.2658791516
 10
94.9050579553
 20
165.9921380227
 10
94.8457579314
 20
165.87336315
 10
94.7912024836
 20
165.800756968
 10
94.7502531423
 20
165.7511771425
 10
94.754239445
 20
165.7511664047
  0
LWPOLYLINE
  5
D6
330
1F
100
AcDbEntity
  8
0
  6
HIDDEN
 62
     7
370
     0
100
AcDbPolyline
 90
       13
 70
   128
 43
0.0
 10
109.9448898518
 20
170.1417425298
 10
108.9455683916
 20
170.2354299658
 10
107.8758601184
 20
170.3273858882
 10
106.7669371045
 20
170.4226270258
 10
105.6472110329
 20
170.5187973151
 10
104.5643704513
 20
170.6118119365
 10
103.6365847736
 20
170.6915163393
 10
102.888371184
 20
170.7557999066
 10
102.0556528903
 20
170.8273513297
 10
100.9516463755
 20
170.9222189889
 10
99.6423198867
 20
171.0347082237
 10
98.7016357144
 20
171.1167547965
 10
97.9448898518
 20
171.1910593915
  0
LWPOLYLINE
  5
D7
330
1F
100
AcDbEntity
  8
0
  6
HIDDEN
 62
     7
370
     0
100
AcDbPolyline
 90
       18
 70
   128
 43
0.0
 10
97.7177077183
 20
171.214247859
 10
97.0017028097
 20
171.2950667555
 10
96.1110239822
 20
171.4141674717
 10
95.5083245591
 20
171.5130480184
 10
95.2362241476
 20
171.5660998048
 10
95.0089509463
 20
171.6169767694
 10
94.8255609822
 20
171.6608088458
 10
94.7811846041
 20
171.6650779159
 10
94.7837756959
 20
171.6450329409
 10
94.8168880877
 20
171.5993228402
 10
94.8842372123
 20
171.4863738058
 10
94.9332645356
 20
171.336287608
 10
94.9231405377
 20
171.0489822214
 10
94.8814956337
 20
170.9372381362
 10
94.8561399186
 20
170.890284858
 10
94.8290840688
 20
170.8483292598
 10
94.7864010957
 20
170.7871746843
 10
94.7965950226
 20
170.7790773245
  0
ARC
  5
D8
330
1F
100
AcDbEntity
  8
0
  6
HIDDEN
 62
     7
370
     0
100
AcDbCircle
 10
105.6470577626
 20
133.2160234101
 30
0.0
 40
42.14956077883273
100
AcDbArc
 50
80.7188677918
 51
85.6412664744
  0
LWPOLYLINE
  5
D9
330
1F
100
AcDbEntity
  8
0
  6
HIDDEN
 62
     7
370
     0
100
AcDbPolyline
 90
       17
 70
   128
 43
0.0
 10
108.822856201
 20
173.8447476799
 10
109.9644622477
 20
173.7373651017
 10
110.9071371511
 20
173.6325803023
 10
111.6489359127
 20
173.5352060491
 10
112.2050979612
 20
173.4487722688
 10
112.7034695081
 20
173.3542055364
 10
112.989892774
 20
173.2852391256
 10
113.1312438021
 20
173.2421426535
 10
113.164921111
 20
173.2321545177
 10
113.1303245475
 20
173.2646934242
 10
113.0361001295
 20
173.3841866813
 10
112.9486182313
 20
173.6454222319
 10
112.9968663161
 20
173.9671966365
 10
113.0991644417
 20
174.1282514542
 10
113.149617397
 20
174.1779319233
 10
113.1682797147
 20
174.1944716847
 10
113.1603307768
 20
174.1924221919
  0
LWPOLYLINE
  5
DA
330
1F
100
AcDbEntity
  8
0
  6
HIDDEN
 62
     7
370
     0
100
AcDbPolyline
 90
       18
 70
   128
 43
0.0
 10
97.9448898518
 20
169.7891292872
 10
98.2847300421
 20
169.7539621039
 10
99.4021100924
 20
169.654258443
 10
100.2364207062
 20
169.5829329481
 10
101.1511389211
 20
169.5046508304
 10
102.0376976434
 20
169.4286954114
 10
102.7790135039
 20
169.3651223518
 10
103.359313666
 20
169.3153192294
 10
103.7712604102
 20
169.2799444618
 10
104.148121828
 20
169.2475678892
 10
104.6778533225
 20
169.2020342843
 10
105.3569129884
 20
169.1436242576
 10
106.1741484585
 20
169.0732679164
 10
107.1089683614
 20
168.9927063121
 10
108.1238934019
 20
168.9051415656
 10
109.0685311379
 20
168.8231832681
 10
109.9184881969
 20
168.7421198625
 10
109.9448898518
 20
168.7392567451
  0
LWPOLYLINE
  5
DB
330
1F
100
AcDbEntity
  8
0
  6
HIDDEN
 62
     7
370
     0
100
AcDbPolyline
 90
       15
 70
   128
 43
0.0
 10
110.1708318811
 20
168.7147545479
 10
110.6753499321
 20
168.6600422804
 10
111.61865267
 20
168.5394997461
 10
112.3264101124
 20
168.4276736226
 10
112.8121992663
 20
168.3300090291
 10
113.0804703759
 20
168.2597392593
 10
113.1657155832
 20
168.2340418876
 10
113.1576271212
 20
168.243947076
 10
113.1209430091
 20
168.2779295235
 10
113.0339026329
 20
168.3897822324
 10
112.9496614709
 20
168.6362181405
 10
112.9826116161
 20
168.9316954731
 10
113.0918075482
 20
169.122457955
 10
113.1611982714
 20
169.1919519773
 10
113.1552674429
 20
169.1919114586
  0
LWPOLYLINE
  5
DC
330
1F
100
AcDbEntity
  8
0
  6
HIDDEN
 62
     7
370
     0
100
AcDbPolyline
 90
       16
 70
   128
 43
0.0
 10
97.9448898518
 20
164.7891742497
 10
98.3690455012
 20
164.7459918882
 10
99.4102532238
 20
164.6536144492
 10
100.4269267256
 20
164.5666558444
 10
101.3779727182
 20
164.4852295138
 10
102.2313800279
 20
164.4120915954
 10
103.0968646652
 20
164.3378473938
 10
103.7703971015
 20
164.2800186263
 10
104.3147863912
 20
164.2332451025
 10
104.9640003451
 20
164.1774268967
 10
105.7296526128
 20
164.1115434012
 10
106.7986833842
 20
164.0194532652
 10
107.854542304
 20
163.9283775448
 10
108.8612824161
 20
163.841427154
 10
109.8273137265
 20
163.7512617421
 10
109.9448898518
 20
163.7385083552
  0
LWPOLYLINE
  5
DD
330
1F
100
AcDbEntity
  8
0
  6
HIDDEN
 62
     7
370
     0
100
AcDbPolyline
 90
       16
 70
   128
 43
0.0
 10
110.1645663504
 20
163.7146802237
 10
110.7492582718
 20
163.6512591656
 10
111.5832881182
 20
163.5442768228
 10
112.2794989656
 20
163.4364427309
 10
112.7924614056
 20
163.3383519224
 10
112.9684177878
 20
163.298116975
 10
113.0839690206
 20
163.2687104535
 10
113.122995938
 20
163.2643581728
 10
113.1034521543
 20
163.2936906897
 10
113.0500795556
 20
163.3639509731
 10
112.9861197975
 20
163.4885173267
 10
112.9449126533
 20
163.7070770116
 10
113.007052924
 20
163.9895178231
 10
113.1159766634
 20
164.1472693367
 10
113.1484792504
 20
164.1848158822
 10
113.1451441467
 20
164.1846197504
  0
LWPOLYLINE
  5
DE
330
1F
100
AcDbEntity
  8
0
  6
HIDDEN
 62
     7
370
     0
100
AcDbPolyline
 90
       16
 70
   128
 43
0.0
 10
97.9448898518
 20
159.7892643318
 10
98.5086731253
 20
159.7328456172
 10
99.5334572675
 20
159.6430413349
 10
100.6027342417
 20
159.5515942006
 10
101.702773568
 20
159.4574003235
 10
102.5872346298
 20
159.381574731
 10
103.4097718999
 20
159.3109872561
 10
104.1234757423
 20
159.2496857109
 10
104.7218637863
 20
159.1982504031
 10
105.3518974283
 20
159.1440559775
 10
106.0198361813
 20
159.0865568215
 10
106.803884878
 20
159.0190059962
 10
107.6824703053
 20
158.9432408579
 10
108.6244047711
 20
158.8619378037
 10
109.5892130959
 20
158.7747496215
 10
109.9448898518
 20
158.7379147974
  0
LWPOLYLINE
  5
DF
330
1F
100
AcDbEntity
  8
0
  6
HIDDEN
 62
     7
370
     0
100
AcDbPolyline
 90
       19
 70
   128
 43
0.0
 10
110.1722047452
 20
158.7143734667
 10
110.4397007043
 20
158.6866708788
 10
111.440646095
 20
158.5639340479
 10
112.1399987215
 20
158.4590809985
 10
112.3934636541
 20
158.4147968808
 10
112.5934029118
 20
158.3762920101
 10
112.7832542079
 20
158.3358516817
 10
112.9638134535
 20
158.2940068369
 10
113.0857557688
 20
158.269244334
 10
113.1019178404
 20
158.2897695438
 10
113.0572920849
 20
158.3532848747
 10
113.0302166177
 20
158.3961032827
 10
113.0051326365
 20
158.4438186631
 10
112.9451727609
 20
158.6953141866
 10
112.9588683047
 20
158.8478851129
 10
113.0106245785
 20
158.9969113628
 10
113.0778843414
 20
159.1062089502
 10
113.112542694
 20
159.1606237177
 10
113.1067620913
 20
159.1604560702
  0
LWPOLYLINE
  5
E0
330
1F
100
AcDbEntity
  8
0
  6
HIDDEN
 62
     7
370
     0
100
AcDbPolyline
 90
       13
 70
   128
 43
0.0
 10
97.9448898518
 20
154.7900841822
 10
98.3503875301
 20
154.7477448813
 10
99.594576891
 20
154.6378288744
 10
100.8141235327
 20
154.5335033619
 10
101.9680986218
 20
154.4346621829
 10
103.0122600913
 20
154.3451094097
 10
103.9770497567
 20
154.2622666318
 10
104.9080430307
 20
154.1822398768
 10
105.82753761
 20
154.1031166494
 10
106.9407898193
 20
154.0072019168
 10
108.22900086
 20
153.8960679503
 10
109.1408624672
 20
153.8166802525
 10
109.9448898518
 20
153.7385500891
  0
LWPOLYLINE
  5
E1
330
1F
100
AcDbEntity
  8
0
  6
HIDDEN
 62
     7
370
     0
100
AcDbPolyline
 90
       17
 70
   128
 43
0.0
 10
110.1701238095
 20
153.715327925
 10
110.9041390882
 20
153.6328248877
 10
111.5657678798
 20
153.546666988
 10
112.0788454884
 20
153.4692168668
 10
112.4616738204
 20
153.4021359861
 10
112.7355655156
 20
153.3463795595
 10
112.9259464975
 20
153.3013915597
 10
113.0682978887
 20
153.2630067897
 10
113.1289569089
 20
153.2477888742
 10
113.1345581176
 20
153.2603098191
 10
113.059099553
 20
153.3509725276
 10
112.9549222491
 20
153.60116648
 10
112.9591168899
 20
153.8488128226
 10
113.0102191626
 20
153.9958834551
 10
113.0584757411
 20
154.0778956356
 10
113.0934003441
 20
154.1281041065
 10
113.0850533093
 20
154.1377951977
  0
ARC
  5
E2
330
1F
100
AcDbEntity
  8
0
  6
HIDDEN
 62
     7
370
     0
100
AcDbCircle
 10
136.0470798966
 20
508.4342330299
 30
0.0
 40
360.6185745771759
100
AcDbArc
 50
263.5353374885
 51
265.6704432944
  0
LINE
  5
E3
330
1F
100
AcDbEntity
  8
0
  6
HIDDEN
 62
     7
370
     0
100
AcDbLine
 10
112.4448898518
 20
124.3060356275
 30
0.0
 11
112.4448898518
 21
129.3060356275
 31
0.0
  0
LINE
  5
E4
330
1F
100
AcDbEntity
  8
0
  6
HIDDEN
 62
     7
370
     0
100
AcDbLine
 10
95.4448898518
 20
129.3060356275
 30
0.0
 11
95.4448898518
 21
124.3060356275
 31
0.0
  0
LINE
  5
E5
330
1F
100
AcDbEntity
  8
0
  6
HIDDEN
 62
     7
370
     0
100
AcDbLine
 10
95.4448898518
 20
137.3006792526
 30
0.0
 11
95.4448898518
 21
132.3006792526
 31
0.0
  0
LINE
  5
E6
330
1F
100
AcDbEntity
  8
0
  6
HIDDEN
 62
     7
370
     0
100
AcDbLine
 10
112.4448898518
 20
132.3006792526
 30
0.0
 11
112.4448898518
 21
137.3006792526
 31
0.0
  0
LINE
  5
E7
330
1F
100
AcDbEntity
  8
0
  6
HIDDEN
 62
     7
370
     0
100
AcDbLine
 10
109.6948898518
 20
120.044209091
 30
0.0
 11
109.6948898518
 21
121.044209091
 31
0.0
  0
LINE
  5
E8
330
1F
100
AcDbEntity
  8
0
  6
HIDDEN
 62
     7
370
     0
100
AcDbLine
 10
98.1948898518
 20
121.044209091
 30
0.0
 11
98.1948898518
 21
120.044209091
 31
0.0
  0
LINE
  5
E9
330
1F
100
AcDbEntity
  8
0
  6
HIDDEN
 62
     7
370
     0
100
AcDbLine
 10
110.7564323491
 20
120.044209091
 30
0.0
 11
110.7564323491
 21
121.044209091
 31
0.0
  0
LINE
  5
EA
330
1F
100
AcDbEntity
  8
0
  6
HIDDEN
 62
     7
370
     0
100
AcDbLine
 10
109.7564323491
 20
121.044209091
 30
0.0
 11
109.7564323491
 21
120.044209091
 31
0.0
  0
LINE
  5
EB
330
1F
100
AcDbEntity
  8
0
  6
HIDDEN
 62
     7
370
     0
100
AcDbLine
 10
108.240933285
 20
120.044209091
 30
0.0
 11
108.240933285
 21
121.044209091
 31
0.0
  0
LINE
  5
EC
330
1F
100
AcDbEntity
  8
0
  6
HIDDEN
 62
     7
370
     0
100
AcDbLine
 10
107.240933285
 20
121.044209091
 30
0.0
 11
107.240933285
 21
120.044209091
 31
0.0
  0
LINE
  5
ED
330
1F
100
AcDbEntity
  8
0
  6
HIDDEN
 62
     7
370
     0
100
AcDbLine
 10
112.4448898518
 20
148.1056134616
 30
0.0
 11
112.4448898518
 21
149.510718023
 31
0.0
  0
LINE
  5
EE
330
1F
100
AcDbEntity
  8
0
  6
HIDDEN
 62
     7
370
     0
100
AcDbLine
 10
112.4448898518
 20
152.6091993425
 30
0.0
 11
112.4448898518
 21
153.044209091
 31
0.0
  0
LINE
  5
EF
330
1F
100
AcDbEntity
  8
0
  6
HIDDEN
 62
     7
370
     0
100
AcDbLine
 10
95.4448898518
 20
152.3187620439
 30
0.0
 11
95.4448898518
 21
150.9043761361
 31
0.0
  0
LINE
  5
F0
330
1F
100
AcDbEntity
  8
0
  6
HIDDEN
 62
     7
370
     0
100
AcDbLine
 10
95.4448898518
 20
148.487347691
 30
0.0
 11
95.4448898518
 21
147.0826937258
 31
0.0
  0
LINE
  5
F1
330
1F
100
AcDbEntity
  8
0
  6
HIDDEN
 62
     7
370
     0
100
AcDbLine
 10
95.4448898518
 20
137.3006792526
 30
0.0
 11
95.4448898518
 21
132.3006792526
 31
0.0
  0
LINE
  5
F2
330
1F
100
AcDbEntity
  8
0
  6
HIDDEN
 62
     7
370
     0
100
AcDbLine
 10
95.4448898518
 20
129.3060356275
 30
0.0
 11
95.4448898518
 21
124.3060356275
 31
0.0
  0
LINE
  5
F3
330
1F
100
AcDbEntity
  8
0
  6
HIDDEN
 62
     7
370
     0
100
AcDbLine
 10
112.4448898518
 20
124.3060356275
 30
0.0
 11
112.4448898518
 21
129.3060356275
 31
0.0
  0
LINE
  5
F4
330
1F
100
AcDbEntity
  8
0
  6
HIDDEN
 62
     7
370
     0
100
AcDbLine
 10
112.4448898518
 20
132.3006792526
 30
0.0
 11
112.4448898518
 21
137.3006792526
 31
0.0
  0
LINE
  5
F5
330
1F
100
AcDbEntity
  8
0
  6
HIDDEN
 62
     7
370
     0
100
AcDbLine
 10
110.4448898518
 20
121.044209091
 30
0.0
 11
109.9448898518
 21
121.544209091
 31
0.0
  0
LINE
  5
F6
330
1F
100
AcDbEntity
  8
0
  6
HIDDEN
 62
     7
370
     0
100
AcDbLine
 10
97.9448898518
 20
121.544209091
 30
0.0
 11
97.4448898518
 21
121.044209091
 31
0.0
  0
LINE
  5
F7
330
1F
100
AcDbEntity
  8
0
  6
HIDDEN
 62
     7
370
     0
100
AcDbLine
 10
97.9448898518
 20
153.044209091
 30
0.0
 11
97.9448898518
 21
121.544209091
 31
0.0
  0
LINE
  5
F8
330
1F
100
AcDbEntity
  8
0
  6
HIDDEN
 62
     7
370
     0
100
AcDbLine
 10
109.9448898518
 20
121.544209091
 30
0.0
 11
109.9448898518
 21
153.044209091
 31
0.0
  0
LINE
  5
F9
330
1F
100
AcDbEntity
  8
0
  6
HIDDEN
 62
     7
370
     0
100
AcDbLine
 10
95.4448898518
 20
176.4866181986
 30
0.0
 11
95.4448898518
 21
175.0825011471
 31
0.0
  0
LINE
  5
FA
330
1F
100
AcDbEntity
  8
0
  6
HIDDEN
 62
     7
370
     0
100
AcDbLine
 10
112.4448898518
 20
173.044209091
 30
0.0
 11
112.4448898518
 21
174.0245196717
 31
0.0
  0
LINE
  5
FB
330
1F
100
AcDbEntity
  8
0
  6
HIDDEN
 62
     7
370
     0
100
AcDbLine
 10
112.4448898518
 20
176.1083550957
 30
0.0
 11
112.4448898518
 21
177.5117402285
 31
0.0
  0
LINE
  5
FC
330
1F
100
AcDbEntity
  8
0
  6
HIDDEN
 62
     7
370
     0
100
AcDbLine
 10
97.9448898518
 20
172.640056587
 30
0.0
 11
97.9448898518
 21
171.2385294912
 31
0.0
  0
LINE
  5
FD
330
1F
100
AcDbEntity
  8
0
  6
HIDDEN
 62
     7
370
     0
100
AcDbLine
 10
97.9448898518
 20
167.6402659261
 30
0.0
 11
97.9448898518
 21
166.2385650276
 31
0.0
  0
LINE
  5
FE
330
1F
100
AcDbEntity
  8
0
  6
HIDDEN
 62
     7
370
     0
100
AcDbLine
 10
97.9448898518
 20
162.6408914793
 30
0.0
 11
97.9448898518
 21
161.2371475027
 31
0.0
  0
LINE
  5
FF
330
1F
100
AcDbEntity
  8
0
  6
HIDDEN
 62
     7
370
     0
100
AcDbLine
 10
97.9448898518
 20
157.6401089082
 30
0.0
 11
97.9448898518
 21
156.2387134255
 31
0.0
  0
LINE
  5
100
330
1F
100
AcDbEntity
  8
0
  6
HIDDEN
 62
     7
370
     0
100
AcDbLine
 10
97.9448898518
 20
153.044209091
 30
0.0
 11
97.9448898518
 21
121.344209091
 31
0.0
  0
LINE
  5
101
330
1F
100
AcDbEntity
  8
0
  6
HIDDEN
 62
     7
370
     0
100
AcDbLine
 10
109.9448898518
 20
121.344209091
 30
0.0
 11
109.9448898518
 21
153.6909923353
 31
0.0
  0
LINE
  5
102
330
1F
100
AcDbEntity
  8
0
  6
HIDDEN
 62
     7
370
     0
100
AcDbLine
 10
109.9448898518
 20
157.2889609458
 30
0.0
 11
109.9448898518
 21
158.6915384589
 31
0.0
  0
LINE
  5
103
330
1F
100
AcDbEntity
  8
0
  6
HIDDEN
 62
     7
370
     0
100
AcDbLine
 10
109.9448898518
 20
162.2876153238
 30
0.0
 11
109.9448898518
 21
163.6911480172
 31
0.0
  0
LINE
  5
104
330
1F
100
AcDbEntity
  8
0
  6
HIDDEN
 62
     7
370
     0
100
AcDbLine
 10
109.9448898518
 20
167.2875738944
 30
0.0
 11
109.9448898518
 21
168.6912713606
 31
0.0
  0
LINE
  5
105
330
1F
100
AcDbEntity
  8
0
  6
HIDDEN
 62
     7
370
     0
100
AcDbLine
 10
109.9448898518
 20
172.2879938234
 30
0.0
 11
109.9448898518
 21
173.044209091
 31
0.0
  0
LINE
  5
106
330
1F
100
AcDbEntity
  8
0
  6
HIDDEN
 62
     7
370
     0
100
AcDbLine
 10
109.6448898518
 20
120.044209091
 30
0.0
 11
109.6448898518
 21
121.344209091
 31
0.0
  0
LINE
  5
107
330
1F
100
AcDbEntity
  8
0
  6
HIDDEN
 62
     7
370
     0
100
AcDbLine
 10
98.2448898518
 20
121.344209091
 30
0.0
 11
98.2448898518
 21
120.044209091
 31
0.0
  0
LINE
  5
108
330
1F
100
AcDbEntity
  8
0
  6
HIDDEN
 62
     7
370
     0
100
AcDbLine
 10
108.5183898518
 20
118.044209091
 30
0.0
 11
108.2873868559
 21
125.444209091
 31
0.0
  0
LINE
  5
109
330
1F
100
AcDbEntity
  8
0
  6
HIDDEN
 62
     7
370
     0
100
AcDbLine
 10
99.6023928477
 20
125.444209091
 30
0.0
 11
99.3713898518
 21
118.044209091
 31
0.0
  0
LINE
  5
10A
330
1F
100
AcDbEntity
  8
0
  6
HIDDEN
 62
     7
370
     0
100
AcDbLine
 10
99.3713898518
 20
182.044209091
 30
0.0
 11
99.6023928477
 21
174.644209091
 31
0.0
  0
LINE
  5
10B
330
1F
100
AcDbEntity
  8
0
  6
HIDDEN
 62
     7
370
     0
100
AcDbLine
 10
108.2873868559
 20
174.644209091
 30
0.0
 11
108.5183898518
 21
182.044209091
 31
0.0
  0
LINE
  5
10C
330
1F
100
AcDbEntity
  8
0
  6
HIDDEN
 62
     7
370
     0
100
AcDbLine
 10
99.9948898518
 20
170.104209091
 30
0.0
 11
100.4448898518
 21
169.8338218125
 31
0.0
  0
LINE
  5
10D
330
1F
100
AcDbEntity
  8
0
  6
HIDDEN
 62
     7
370
     0
100
AcDbLine
 10
107.4448898518
 20
169.8338218125
 30
0.0
 11
107.8948898518
 21
170.104209091
 31
0.0
  0
LINE
  5
10E
330
1F
100
AcDbEntity
  8
0
  6
HIDDEN
 62
     7
370
     0
100
AcDbLine
 10
107.8948898518
 20
129.984209091
 30
0.0
 11
107.4448898518
 21
130.2545963696
 31
0.0
  0
LINE
  5
10F
330
1F
100
AcDbEntity
  8
0
  6
HIDDEN
 62
     7
370
     0
100
AcDbLine
 10
100.4448898518
 20
130.2545963696
 30
0.0
 11
99.9948898518
 21
129.984209091
 31
0.0
  0
LINE
  5
110
330
1F
100
AcDbEntity
  8
0
  6
HIDDEN
 62
     7
370
     0
100
AcDbLine
 10
107.8948898518
 20
125.444209091
 30
0.0
 11
107.8948898518
 21
129.984209091
 31
0.0
  0
LINE
  5
111
330
1F
100
AcDbEntity
  8
0
  6
HIDDEN
 62
     7
370
     0
100
AcDbLine
 10
99.9948898518
 20
129.984209091
 30
0.0
 11
99.9948898518
 21
125.444209091
 31
0.0
  0
LINE
  5
112
330
1F
100
AcDbEntity
  8
0
  6
HIDDEN
 62
     7
370
     0
100
AcDbLine
 10
99.9948898518
 20
174.644209091
 30
0.0
 11
99.9948898518
 21
170.104209091
 31
0.0
  0
LINE
  5
113
330
1F
100
AcDbEntity
  8
0
  6
HIDDEN
 62
     7
370
     0
100
AcDbLine
 10
107.8948898518
 20
170.104209091
 30
0.0
 11
107.8948898518
 21
174.644209091
 31
0.0
  0
LINE
  5
114
330
1F
100
AcDbEntity
  8
0
  6
HIDDEN
 62
     7
370
     0
100
AcDbLine
 10
100.4448898518
 20
169.8338218125
 30
0.0
 11
100.4448898518
 21
130.2545963696
 31
0.0
  0
LINE
  5
115
330
1F
100
AcDbEntity
  8
0
  6
HIDDEN
 62
     7
370
     0
100
AcDbLine
 10
107.4448898518
 20
130.2545963696
 30
0.0
 11
107.4448898518
 21
169.8338218125
 31
0.0
  0
DIMENSION
  5
116
330
1F
100
AcDbEntity
  8
0
  6
Continuous
 62
     7
370
     0
100
AcDbDimension
  2
*D1
 10
136.6748376233
 20
146.044209091
 30
0.0
 11
136.6748376233
 21
162.044209091
 31
0.0
 70
   160
 71
     1
 42
32.0
  3
SLDDIMSTYLE0
100
AcDbAlignedDimension
 13
115.8353560476
 23
178.044209091
 33
0.0
 14
117.3858520701
 24
146.044209091
 34
0.0
 50
90.0
100
AcDbRotatedDimension
1001
ACAD
1000
DSTYLE
1002
{
1070
    77
1070
     3
1070
   143
1040
0.0393700787
1070
    41
1040
3.0
1070
    44
1040
1.0
1070
    42
1040
1.0
1070
   147
1040
1.524
1070
    73
1070
     0
1070
    74
1070
     0
1070
   140
1040
3.5
1070
   284
1070
    12
1070
    78
1070
    12
1002
}
  0
DIMENSION
  5
12C
330
1F
100
AcDbEntity
  8
0
  6
Continuous
 62
     7
370
     0
100
AcDbDimension
  2
*D2
 10
123.9891142462
 20
153.044209091
 30
0.0
 11
123.9891142462
 21
149.544209091
 31
0.0
 70
   160
 71
     1
 42
7.0
  3
SLDDIMSTYLE0
100
AcDbAlignedDimension
 13
117.3858520701
 23
146.044209091
 33
0.0
 14
112.4448898518
 24
153.044209091
 34
0.0
 50
90.0
100
AcDbRotatedDimension
1001
ACAD
1000
DSTYLE
1002
{
1070
    77
1070
     3
1070
   143
1040
0.0393700787
1070
    41
1040
3.0
1070
    44
1040
1.0
1070
    42
1040
1.0
1070
   147
1040
1.524
1070
    73
1070
     0
1070
    74
1070
     0
1070
   140
1040
3.5
1070
   284
1070
    12
1070
    78
1070
    12
1002
}
  0
DIMENSION
  5
143
330
1F
100
AcDbEntity
  8
0
  6
Continuous
 62
     7
370
     0
100
AcDbDimension
  2
*D3
 10
123.9891142462
 20
153.044209091
 30
0.0
 11
123.9891142462
 21
163.044209091
 31
0.0
 70
   160
  1
<>ST
 71
     1
 42
20.0
  3
SLDDIMSTYLE0
100
AcDbAlignedDimension
 13
112.4448898518
 23
173.044209091
 33
0.0
 14
112.4448898518
 24
153.044209091
 34
0.0
 50
90.0
100
AcDbRotatedDimension
1001
ACAD
1000
DSTYLE
1002
{
1070
    77
1070
     3
1070
   143
1040
0.0393700787
1070
    41
1040
3.0
1070
    44
1040
1.0
1070
    42
1040
1.0
1070
   147
1040
1.524
1070
    73
1070
     0
1070
    74
1070
     0
1070
   140
1040
3.5
1070
   284
1070
    12
1070
    78
1070
    12
1002
}
  0
DIMENSION
  5
158
330
1F
100
AcDbEntity
  8
0
  6
Continuous
 62
     7
370
     0
100
AcDbDimension
  2
*D4
 10
136.6748376233
 20
178.044209091
 30
0.0
 11
136.6748376233
 21
180.044209091
 31
0.0
 70
   160
 71
     1
 42
4.0
  3
SLDDIMSTYLE0
100
AcDbAlignedDimension
 13
115.9448898518
 23
182.044209091
 33
0.0
 14
115.8353560476
 24
178.044209091
 34
0.0
 50
90.0
100
AcDbRotatedDimension
1001
ACAD
1000
DSTYLE
1002
{
1070
    77
1070
     3
1070
   143
1040
0.0393700787
1070
    41
1040
3.0
1070
    44
1040
1.0
1070
    42
1040
1.0
1070
   147
1040
1.524
1070
    73
1070
     0
1070
    74
1070
     0
1070
   140
1040
3.5
1070
   284
1070
    12
1070
    78
1070
    12
1002
}
  0
DIMENSION
  5
16F
330
1F
100
AcDbEntity
  8
0
  6
Continuous
 62
     7
370
     0
100
AcDbDimension
  2
*D5
 10
136.6748376233
 20
141.044209091
 30
0.0
 11
136.6748376233
 21
143.544209091
 31
0.0
 70
   160
 71
     1
 42
5.0
  3
SLDDIMSTYLE0
100
AcDbAlignedDimension
 13
117.3858520701
 23
146.044209091
 33
0.0
 14
119.5333471199
 24
141.044209091
 34
0.0
 50
90.0
100
AcDbRotatedDimension
1001
ACAD
1000
DSTYLE
1002
{
1070
    77
1070
     3
1070
   143
1040
0.0393700787
1070
    41
1040
3.0
1070
    44
1040
1.0
1070
    42
1040
1.0
1070
   147
1040
1.524
1070
    73
1070
     0
1070
    74
1070
     0
1070
   140
1040
3.5
1070
   284
1070
    12
1070
    78
1070
    12
1002
}
  0
DIMENSION
  5
186
330
1F
100
AcDbEntity
  8
0
  6
Continuous
 62
     7
370
     0
100
AcDbDimension
  2
*D6
 10
136.6748376233
 20
121.044209091
 30
0.0
 11
136.6748376233
 21
131.044209091
 31
0.0
 70
   160
 71
     1
 42
20.0
  3
SLDDIMSTYLE0
100
AcDbAlignedDimension
 13
119.5333471199
 23
141.044209091
 33
0.0
 14
111.6948898518
 24
121.044209091
 34
0.0
 50
90.0
100
AcDbRotatedDimension
1001
ACAD
1000
DSTYLE
1002
{
1070
    77
1070
     3
1070
   143
1040
0.0393700787
1070
    41
1040
3.0
1070
    44
1040
1.0
1070
    42
1040
1.0
1070
   147
1040
1.524
1070
    73
1070
     0
1070
    74
1070
     0
1070
   140
1040
3.5
1070
   284
1070
    12
1070
    78
1070
    12
1002
}
  0
DIMENSION
  5
19A
330
1F
100
AcDbEntity
  8
0
  6
Continuous
 62
     7
370
     0
100
AcDbDimension
  2
*D7
 10
150.5616190652
 20
118.044209091
 30
0.0
 11
150.5616190652
 21
150.044209091
 31
0.0
 70
   160
 71
     1
 42
64.0
  3
SLDDIMSTYLE0
100
AcDbAlignedDimension
 13
115.9448898518
 23
182.044209091
 33
0.0
 14
109.4448898518
 24
118.044209091
 34
0.0
 50
90.0
100
AcDbRotatedDimension
1001
ACAD
1000
DSTYLE
1002
{
1070
    77
1070
     3
1070
   143
1040
0.0393700787
1070
    41
1040
3.0
1070
    44
1040
1.0
1070
    42
1040
1.0
1070
   147
1040
1.524
1070
    73
1070
     0
1070
    74
1070
     0
1070
   140
1040
3.5
1070
   284
1070
    12
1070
    78
1070
    12
1002
}
  0
MTEXT
  5
1AE
330
1F
100
AcDbEntity
  8
0
  6
Continuous
 62
     7
370
     0
100
AcDbMText
 10
140.6116893951
 20
112.2360024011
 30
0.0
 40
3.5
 41
0.0
 71
     1
 72
     1
  1
M17 P=1.0
  7
SLDTEXTSTYLE0
 73
     1
 44
1.0
  0
LEADER
  5
1B6
330
1F
100
AcDbEntity
  8
0
  6
Continuous
 62
     7
370
     0
100
AcDbLeader
  3
SLDDIMSTYLE1
 76
     3
 10
112.4448898518
 20
131.0606203014
 30
0.0
 10
140.1095118926
 20
108.1615358587
 30
0.0
 10
158.9415564811
 20
108.1615358587
 30
0.0
  0
LINE
  5
1B7
330
1F
100
AcDbEntity
  8
0
  6
CENTERX2
 62
     7
370
     0
100
AcDbLine
 10
103.9448898518
 20
119.344209091
 30
0.0
 11
103.9448898518
 21
175.044209091
 31
0.0
  0
CIRCLE
  5
1B8
330
1F
100
AcDbEntity
  8
0
  6
Continuous
 62
     7
370
    30
100
AcDbCircle
 10
103.9448898518
 20
225.3827511646
 30
0.0
 40
10.39999999999997
  0
CIRCLE
  5
1B9
330
1F
100
AcDbEntity
  8
0
  6
Continuous
 62
     7
370
    30
100
AcDbCircle
 10
103.9448898518
 20
225.3827511646
 30
0.0
 40
9.000000000000034
  0
LINE
  5
1BA
330
1F
100
AcDbEntity
  8
0
  6
Continuous
 62
     7
370
    30
100
AcDbLine
 10
109.0837623305
 20
234.1819562338
 30
0.0
 11
109.189719
 21
234.3633840602
 31
0.0
  0
LINE
  5
1BB
330
1F
100
AcDbEntity
  8
0
  6
Continuous
 62
     7
370
    30
100
AcDbLine
 10
108.4836844951
 20
233.154453031
 30
0.0
 11
108.5896409766
 21
233.3358805352
 31
0.0
  0
LWPOLYLINE
  5
1BC
330
1F
100
AcDbEntity
  8
0
  6
Continuous
 62
     7
370
    30
100
AcDbPolyline
 90
       21
 70
   128
 43
0.0
 10
108.5896409766
 20
233.3358805352
 10
109.7853504705
 20
232.6084925586
 10
110.8852202371
 20
231.7443957976
 10
111.3548048482
 20
231.3310340278
 10
111.5940329792
 20
231.1294279135
 10
111.7106789347
 20
231.0460036454
 10
111.7510462179
 20
231.0231152259
 10
111.7936421421
 20
231.0058640436
 10
111.816161575
 20
231.0018502961
 10
111.8335799927
 20
231.003319151
 10
111.8452841951
 20
231.0084252081
 10
111.8545839869
 20
231.0172283922
 10
111.8620072221
 20
231.031755844
 10
111.8666167048
 20
231.0601577705
 10
111.8535402889
 20
231.1512744289
 10
111.6885819967
 20
231.5332439838
 10
111.2359030975
 20
232.223197357
 10
110.6891364749
 20
232.8623693055
 10
110.0359849149
 20
233.4774443345
 10
109.3151962414
 20
234.0279992447
 10
109.0837623305
 20
234.1819562338
  0
LINE
  5
1BD
330
1F
100
AcDbEntity
  8
0
  6
Continuous
 62
     7
370
    30
100
AcDbLine
 10
109.0837623305
 20
234.1819562338
 30
0.0
 11
108.5896409766
 21
233.3358805352
 31
0.0
  0
LINE
  5
1BE
330
1F
100
AcDbEntity
  8
0
  6
Continuous
 62
     7
370
    30
100
AcDbLine
 10
109.1735557547
 20
228.3257178439
 30
0.0
 11
108.9762992514
 21
228.1661698276
 31
0.0
  0
LINE
  5
1BF
330
1F
100
AcDbEntity
  8
0
  6
Continuous
 62
     7
370
    30
100
AcDbLine
 10
107.7185497193
 20
229.7211830476
 30
0.0
 11
107.9158062226
 21
229.880731064
 31
0.0
  0
ARC
  5
1C0
330
1F
100
AcDbEntity
  8
0
  6
Continuous
 62
     7
370
    30
100
AcDbCircle
 10
103.9448898518
 20
225.3827511646
 30
0.0
 40
5.750000000000007
100
AcDbArc
 50
48.9825636883
 51
28.9517433518
  0
CIRCLE
  5
1C1
330
1F
100
AcDbEntity
  8
0
  6
Continuous
 62
     7
370
    30
100
AcDbCircle
 10
103.9448898518
 20
225.3827511646
 30
0.0
 40
8.499999999999996
  0
CIRCLE
  5
1C2
330
1F
100
AcDbEntity
  8
0
  6
Continuous
 62
     7
370
    30
100
AcDbCircle
 10
103.9448898518
 20
225.3827511646
 30
0.0
 40
6.0
  0
CIRCLE
  5
1C3
330
1F
100
AcDbEntity
  8
0
  6
Continuous
 62
     7
370
    30
100
AcDbCircle
 10
103.9448898518
 20
225.3827511646
 30
0.0
 40
13.44096221828357
  0
LINE
  5
1C4
330
1F
100
AcDbEntity
  8
0
  6
Continuous
 62
     7
370
    30
100
AcDbLine
 10
119.5333471199
 20
225.3827511646
 30
0.0
 11
111.7391184858
 21
211.8827511646
 31
0.0
  0
LINE
  5
1C5
330
1F
100
AcDbEntity
  8
0
  6
Continuous
 62
     7
370
    30
100
AcDbLine
 10
111.7391184858
 20
211.8827511646
 30
0.0
 11
96.1506612177
 21
211.8827511646
 31
0.0
  0
LINE
  5
1C6
330
1F
100
AcDbEntity
  8
0
  6
Continuous
 62
     7
370
    30
100
AcDbLine
 10
96.1506612177
 20
211.8827511646
 30
0.0
 11
88.3564325837
 21
225.3827511646
 31
0.0
  0
LINE
  5
1C7
330
1F
100
AcDbEntity
  8
0
  6
Continuous
 62
     7
370
    30
100
AcDbLine
 10
88.3564325837
 20
225.3827511646
 30
0.0
 11
96.1506612177
 21
238.8827511646
 31
0.0
  0
LINE
  5
1C8
330
1F
100
AcDbEntity
  8
0
  6
Continuous
 62
     7
370
    30
100
AcDbLine
 10
96.1506612177
 20
238.8827511646
 30
0.0
 11
111.7391184858
 21
238.8827511646
 31
0.0
  0
LINE
  5
1C9
330
1F
100
AcDbEntity
  8
0
  6
Continuous
 62
     7
370
    30
100
AcDbLine
 10
111.7391184858
 20
238.8827511646
 30
0.0
 11
119.5333471199
 21
225.3827511646
 31
0.0
  0
LWPOLYLINE
  5
1CA
330
1F
100
AcDbEntity
  8
0
  6
HIDDEN
 62
     7
370
     0
100
AcDbPolyline
 90
       21
 70
   128
 43
0.0
 10
108.5896409766
 20
233.3358805352
 10
107.3681789639
 20
234.0201133033
 10
106.0747025123
 20
234.5536109118
 10
105.4837209662
 20
234.7595758611
 10
105.190496368
 20
234.8689875785
 10
105.0612268533
 20
234.9293690484
 10
105.0216107222
 20
234.9532412707
 10
104.9857251295
 20
234.981913785
 10
104.9713733414
 20
234.9993916174
 10
104.9641370586
 20
235.0152993179
 10
104.9628797513
 20
235.0279877545
 10
104.9660112738
 20
235.0403835439
 10
104.9750798465
 20
235.054007254
 10
104.9977210769
 20
235.0720275894
 10
105.0843236758
 20
235.1055307302
 10
105.5029247017
 20
235.1493511346
 10
106.3357340267
 20
235.0918401437
 10
107.1704001865
 20
234.9255043257
 10
108.0159471256
 20
234.6600935694
 10
108.8388446627
 20
234.3064688497
 10
109.0837623305
 20
234.1819562338
  0
CIRCLE
  5
1CB
330
1F
100
AcDbEntity
  8
0
  6
HIDDEN
 62
     7
370
     0
100
AcDbCircle
 10
103.9448898518
 20
225.3827511646
 30
0.0
 40
13.30939216893381
  0
CIRCLE
  5
1CC
330
1F
100
AcDbEntity
  8
0
  6
HIDDEN
 62
     7
370
     0
100
AcDbCircle
 10
107.740933285
 20
231.0254503638
 30
0.0
 40
0.499999999999996
  0
LINE
  5
1CD
330
1F
100
AcDbEntity
  8
0
  6
HIDDEN
 62
     7
370
     0
100
AcDbLine
 10
110.5490685828
 20
229.4382811286
 30
0.0
 11
109.1735557547
 21
228.3257178439
 31
0.0
  0
ARC
  5
1CE
330
1F
100
AcDbEntity
  8
0
  6
HIDDEN
 62
     7
370
     0
100
AcDbCircle
 10
103.9448898518
 20
225.3827511646
 30
0.0
 40
7.750000000000005
100
AcDbArc
 50
46.3808273216
 51
31.5534797185
  0
LINE
  5
1CF
330
1F
100
AcDbEntity
  8
0
  6
HIDDEN
 62
     7
370
     0
100
AcDbLine
 10
107.9158062226
 20
229.880731064
 30
0.0
 11
109.2913190507
 21
230.9932943487
 31
0.0
  0
CIRCLE
  5
1D0
330
1F
100
AcDbEntity
  8
0
  6
HIDDEN
 62
     7
370
     0
100
AcDbCircle
 10
110.2564323491
 20
227.9154239237
 30
0.0
 40
0.4999999999999739
  0
CIRCLE
  5
1D1
330
1F
100
AcDbEntity
  8
0
  6
HIDDEN
 62
     7
370
     0
100
AcDbCircle
 10
103.9448898518
 20
225.3827511646
 30
0.0
 40
6.49999999999998
  0
CIRCLE
  5
1D2
330
1F
100
AcDbEntity
  8
0
  6
HIDDEN
 62
     7
370
     0
100
AcDbCircle
 10
103.9448898518
 20
225.3827511646
 30
0.0
 40
8.000000000000018
  0
LINE
  5
1D3
330
1F
100
AcDbEntity
  8
0
  6
HIDDEN
 62
     7
370
     0
100
AcDbLine
 10
109.189719
 20
234.3633840602
 30
0.0
 11
108.9877764038
 21
234.4650643543
 31
0.0
  0
DIMENSION
  5
1D4
330
1F
100
AcDbEntity
  8
0
  6
Continuous
 62
     7
370
     0
100
AcDbDimension
  2
*D9
 10
76.9858531981
 20
211.8827511646
 30
0.0
 11
76.9858531981
 21
225.3827511646
 31
0.0
 70
   160
 71
     1
 42
27.0
  3
SLDDIMSTYLE0
100
AcDbAlignedDimension
 13
96.1506612177
 23
238.8827511646
 33
0.0
 14
96.1506612177
 24
211.8827511646
 34
0.0
 50
90.0
100
AcDbRotatedDimension
1001
ACAD
1000
DSTYLE
1002
{
1070
    77
1070
     3
1070
   143
1040
0.0393700787
1070
    41
1040
3.0
1070
    44
1040
1.0
1070
    42
1040
1.0
1070
   147
1040
1.524
1070
    73
1070
     0
1070
    74
1070
     0
1070
   140
1040
3.5
1070
   284
1070
    12
1070
    78
1070
    12
1002
}
  0
DIMENSION
  5
1E8
330
1F
100
AcDbEntity
  8
0
  6
Continuous
 62
     7
370
     0
100
AcDbDimension
  2
*D10
 10
88.3564325837
 20
250.8896389865
 30
0.0
 11
103.9448898518
 21
250.8896389865
 31
0.0
 70
   160
  1
(<>)
 71
     1
 42
31.1769145362
  3
SLDDIMSTYLE0
100
AcDbAlignedDimension
 13
119.5333471199
 23
225.3827511646
 33
0.0
 14
88.3564325837
 24
225.3827511646
 34
0.0
100
AcDbRotatedDimension
1001
ACAD
1000
DSTYLE
1002
{
1070
    77
1070
     3
1070
   143
1040
0.0393700787
1070
    41
1040
3.0
1070
    44
1040
1.0
1070
    42
1040
1.0
1070
   147
1040
1.524
1070
    73
1070
     0
1070
    74
1070
     0
1070
   140
1040
3.5
1070
   284
1070
    12
1070
    78
1070
    12
1002
}
  0
MTEXT
  5
1FD
330
1F
100
AcDbEntity
  8
0
  6
Continuous
 62
     7
370
     0
100
AcDbMText
 10
120.3964891831
 20
209.8736480034
 30
-4.0
 40
3.5
 41
0.0
 71
     1
 72
     1
  1
ＰＴ1/8
  7
SLDTEXTSTYLE0
 73
     1
 44
1.0
  0
LEADER
  5
1FE
330
1F
100
AcDbEntity
  8
0
  6
Continuous
 62
     7
370
     0
100
AcDbLeader
  3
SLDDIMSTYLE1
 76
     3
 10
105.4597630804
 20
219.5771367181
 30
0.0
 10
119.8958856876
 20
205.8009079665
 30
0.0
 10
134.6526563484
 20
205.8009079665
 30
0.0
  0
INSERT
  5
20A
330
1F
100
AcDbEntity
  8
0
  6
Continuous
 62
     7
370
     0
100
AcDbBlockReference
  2
SW_CENTERMARKSYMBOL_0
 10
103.9448898518
 20
225.3827511646
 30
0.0
  0
ENDSEC
  0
SECTION
  2
OBJECTS
  0
DICTIONARY
  5
C
330
0
100
AcDbDictionary
281
     1
  3
ACAD_GROUP
350
D
  3
ACAD_LAYOUT
350
1A
  3
ACAD_MLINESTYLE
350
17
  3
ACAD_PLOTSETTINGS
350
19
  3
ACAD_PLOTSTYLENAME
350
E
  0
DICTIONARY
  5
D
102
{ACAD_REACTORS
330
C
102
}
330
C
100
AcDbDictionary
281
     1
  0
DICTIONARY
  5
1A
102
{ACAD_REACTORS
330
C
102
}
330
C
100
AcDbDictionary
281
     1
  3
Layout1
350
1E
  3
Layout2
350
26
  3
Model
350
22
  0
DICTIONARY
  5
17
102
{ACAD_REACTORS
330
C
102
}
330
C
100
AcDbDictionary
281
     1
  3
Standard
350
18
  0
DICTIONARY
  5
19
102
{ACAD_REACTORS
330
C
102
}
330
C
100
AcDbDictionary
281
     1
  0
ACDBDICTIONARYWDFLT
  5
E
102
{ACAD_REACTORS
330
C
102
}
330
C
100
AcDbDictionary
281
     1
  3
Normal
350
F
100
AcDbDictionaryWithDefault
340
F
  0
LAYOUT
  5
1E
102
{ACAD_REACTORS
330
1A
102
}
330
1A
100
AcDbPlotSettings
  1

  2

  4

  6

 40
0.0
 41
0.0
 42
0.0
 43
0.0
 44
0.0
 45
0.0
 46
0.0
 47
0.0
 48
0.0
 49
0.0
140
0.0
141
0.0
142
1.0
143
1.0
 70
   688
 72
     0
 73
     0
 74
     5
  7

 75
    16
147
1.0
148
0.0
149
0.0
100
AcDbLayout
  1
Layout1
 70
     1
 71
     1
 10
0.0
 20
0.0
 11
0.0
 21
0.0
 12
0.0
 22
0.0
 32
0.0
 14
0.0
 24
0.0
 34
0.0
 15
0.0
 25
0.0
 35
0.0
146
0.0
 13
0.0
 23
0.0
 33
0.0
 16
1.0
 26
0.0
 36
0.0
 17
0.0
 27
1.0
 37
0.0
 76
     0
330
1B
  0
LAYOUT
  5
26
102
{ACAD_REACTORS
330
1A
102
}
330
1A
100
AcDbPlotSettings
  1

  2

  4

  6

 40
0.0
 41
0.0
 42
0.0
 43
0.0
 44
0.0
 45
0.0
 46
0.0
 47
0.0
 48
0.0
 49
0.0
140
0.0
141
0.0
142
1.0
143
1.0
 70
   688
 72
     0
 73
     0
 74
     5
  7

 75
    16
147
1.0
148
0.0
149
0.0
100
AcDbLayout
  1
Layout2
 70
     1
 71
     2
 10
0.0
 20
0.0
 11
0.0
 21
0.0
 12
0.0
 22
0.0
 32
0.0
 14
0.0
 24
0.0
 34
0.0
 15
0.0
 25
0.0
 35
0.0
146
0.0
 13
0.0
 23
0.0
 33
0.0
 16
1.0
 26
0.0
 36
0.0
 17
0.0
 27
1.0
 37
0.0
 76
     0
330
23
  0
LAYOUT
  5
22
102
{ACAD_REACTORS
330
1A
102
}
330
1A
100
AcDbPlotSettings
  1

  2

  4

  6

 40
0.0
 41
0.0
 42
0.0
 43
0.0
 44
0.0
 45
0.0
 46
0.0
 47
0.0
 48
0.0
 49
0.0
140
0.0
141
0.0
142
1.0
143
1.0
 70
  1712
 72
     0
 73
     0
 74
     0
  7

 75
     0
147
1.0
148
0.0
149
0.0
100
AcDbLayout
  1
Model
 70
     1
 71
     0
 10
0.0
 20
0.0
 11
0.0
 21
0.0
 12
0.0
 22
0.0
 32
0.0
 14
0.0
 24
0.0
 34
0.0
 15
210.0
 25
297.0
 35
0.0
146
0.0
 13
0.0
 23
0.0
 33
0.0
 16
1.0
 26
0.0
 36
0.0
 17
0.0
 27
1.0
 37
0.0
 76
     0
330
1F
  0
MLINESTYLE
  5
18
102
{ACAD_REACTORS
330
17
102
}
330
17
100
AcDbMlineStyle
  2
Standard
 70
     0
  3

 62
   256
 51
90.0
 52
90.0
 71
     2
 49
0.5
 62
   256
  6
BYLAYER
 49
-0.5
 62
   256
  6
BYLAYER
  0
ACDBPLACEHOLDER
  5
F
102
{ACAD_REACTORS
330
E
102
}
330
E
  0
ENDSEC
  0
EOF
