  0
SECTION
  2
HEADER
  9
$ACADVER
  1
AC1015
  9
$ACADMAINTVER
 70
     6
  9
$DWGCODEPAGE
  3
DOS932
  9
$INSBASE
 10
0.0
 20
0.0
 30
0.0
  9
$EXTMIN
 10
0.0
 20
0.0
 30
0.0
  9
$EXTMAX
 10
210.0
 20
297.0
 30
0.0
  9
$LIMMIN
 10
0.0
 20
0.0
  9
$LIMMAX
 10
0.0
 20
0.0
  9
$ORTHOMODE
 70
     0
  9
$REGENMODE
 70
     1
  9
$FILLMODE
 70
     1
  9
$QTEXTMODE
 70
     0
  9
$MIRRTEXT
 70
     1
  9
$LTSCALE
 40
1.0
  9
$ATTMODE
 70
     1
  9
$TEXTSIZE
 40
3.5
  9
$TRACEWID
 40
1.0
  9
$TEXTSTYLE
  7
Standard
  9
$CLAYER
  8
0
  9
$CELTYPE
  6
ByLayer
  9
$CECOLOR
 62
   256
  9
$CELTSCALE
 40
1.0
  9
$DISPSILH
 70
     0
  9
$DIMSCALE
 40
1.0
  9
$DIMASZ
 40
3.0
  9
$DIMEXO
 40
1.0
  9
$DIMDLI
 40
3.75
  9
$DIMRND
 40
0.0
  9
$DIMDLE
 40
0.0
  9
$DIMEXE
 40
1.0
  9
$DIMTP
 40
0.0
  9
$DIMTM
 40
0.0
  9
$DIMTXT
 40
3.5
  9
$DIMCEN
 40
2.5
  9
$DIMTSZ
 40
0.0
  9
$DIMTOL
 70
     0
  9
$DIMLIM
 70
     0
  9
$DIMTIH
 70
     1
  9
$DIMTOH
 70
     1
  9
$DIMSE1
 70
     0
  9
$DIMSE2
 70
     0
  9
$DIMTAD
 70
     1
  9
$DIMZIN
 70
     0
  9
$DIMBLK
  1

  9
$DIMASO
 70
     1
  9
$DIMSHO
 70
     1
  9
$DIMPOST
  1

  9
$DIMAPOST
  1

  9
$DIMALT
 70
     0
  9
$DIMALTD
 70
     3
  9
$DIMALTF
 40
0.0393700787
  9
$DIMLFAC
 40
1.0
  9
$DIMTOFL
 70
     1
  9
$DIMTVP
 40
0.0
  9
$DIMTIX
 70
     0
  9
$DIMSOXD
 70
     0
  9
$DIMSAH
 70
     0
  9
$DIMBLK1
  1

  9
$DIMBLK2
  1

  9
$DIMSTYLE
  2
ISO-25
  9
$DIMCLRD
 70
     0
  9
$DIMCLRE
 70
     0
  9
$DIMCLRT
 70
     0
  9
$DIMTFAC
 40
1.0
  9
$DIMGAP
 40
1.524
  9
$DIMJUST
 70
     0
  9
$DIMSD1
 70
     0
  9
$DIMSD2
 70
     0
  9
$DIMTOLJ
 70
     0
  9
$DIMTZIN
 70
     0
  9
$DIMALTZ
 70
     0
  9
$DIMALTTZ
 70
     0
  9
$DIMUPT
 70
     0
  9
$DIMDEC
 70
     2
  9
$DIMTDEC
 70
     2
  9
$DIMALTU
 70
     2
  9
$DIMALTTD
 70
     3
  9
$DIMTXSTY
  7
Standard
  9
$DIMAUNIT
 70
     0
  9
$DIMADEC
 70
     0
  9
$DIMALTRND
 40
0.0
  9
$DIMAZIN
 70
     0
  9
$DIMDSEP
 70
    44
  9
$DIMATFIT
 70
     3
  9
$DIMFRAC
 70
     0
  9
$DIMLDRBLK
  1

  9
$DIMLUNIT
 70
     2
  9
$DIMLWD
 70
    -2
  9
$DIMLWE
 70
    -2
  9
$DIMTMOVE
 70
     0
  9
$LUNITS
 70
     2
  9
$LUPREC
 70
     1
  9
$SKETCHINC
 40
1.0
  9
$FILLETRAD
 40
10.0
  9
$AUNITS
 70
     0
  9
$AUPREC
 70
     0
  9
$MENU
  1
.
  9
$ELEVATION
 40
0.0
  9
$PELEVATION
 40
0.0
  9
$THICKNESS
 40
0.0
  9
$LIMCHECK
 70
     0
  9
$CHAMFERA
 40
10.0
  9
$CHAMFERB
 40
10.0
  9
$CHAMFERC
 40
20.0
  9
$CHAMFERD
 40
0.0
  9
$SKPOLY
 70
     0
  9
$TDCREATE
 40
2455013.743916007
  9
$TDUCREATE
 40
2455013.368916007
  9
$TDUPDATE
 40
2455013.743916018
  9
$TDUUPDATE
 40
2455013.368916018
  9
$TDINDWG
 40
0.0000000116
  9
$TDUSRTIMER
 40
0.0000000116
  9
$USRTIMER
 70
     1
  9
$ANGBASE
 50
0.0
  9
$ANGDIR
 70
     0
  9
$PDMODE
 70
     0
  9
$PDSIZE
 40
-1.0
  9
$PLINEWID
 40
0.0
  9
$SPLFRAME
 70
     0
  9
$SPLINETYPE
 70
     6
  9
$SPLINESEGS
 70
     8
  9
$HANDSEED
  5
23D
  9
$SURFTAB1
 70
     6
  9
$SURFTAB2
 70
     6
  9
$SURFTYPE
 70
     6
  9
$SURFU
 70
     6
  9
$SURFV
 70
     6
  9
$UCSBASE
  2

  9
$UCSNAME
  2

  9
$UCSORG
 10
0.0
 20
0.0
 30
0.0
  9
$UCSXDIR
 10
1.0
 20
0.0
 30
0.0
  9
$UCSYDIR
 10
0.0
 20
1.0
 30
0.0
  9
$UCSORTHOREF
  2

  9
$UCSORTHOVIEW
 70
     0
  9
$UCSORGTOP
 10
0.0
 20
0.0
 30
0.0
  9
$UCSORGBOTTOM
 10
0.0
 20
0.0
 30
0.0
  9
$UCSORGLEFT
 10
0.0
 20
0.0
 30
0.0
  9
$UCSORGRIGHT
 10
0.0
 20
0.0
 30
0.0
  9
$UCSORGFRONT
 10
0.0
 20
0.0
 30
0.0
  9
$UCSORGBACK
 10
0.0
 20
0.0
 30
0.0
  9
$PUCSBASE
  2

  9
$PUCSNAME
  2

  9
$PUCSORG
 10
0.0
 20
0.0
 30
0.0
  9
$PUCSXDIR
 10
1.0
 20
0.0
 30
0.0
  9
$PUCSYDIR
 10
0.0
 20
1.0
 30
0.0
  9
$PUCSORTHOREF
  2

  9
$PUCSORTHOVIEW
 70
     0
  9
$PUCSORGTOP
 10
0.0
 20
0.0
 30
0.0
  9
$PUCSORGBOTTOM
 10
0.0
 20
0.0
 30
0.0
  9
$PUCSORGLEFT
 10
0.0
 20
0.0
 30
0.0
  9
$PUCSORGRIGHT
 10
0.0
 20
0.0
 30
0.0
  9
$PUCSORGFRONT
 10
0.0
 20
0.0
 30
0.0
  9
$PUCSORGBACK
 10
0.0
 20
0.0
 30
0.0
  9
$USERI1
 70
     0
  9
$USERI2
 70
     0
  9
$USERI3
 70
     0
  9
$USERI4
 70
     0
  9
$USERI5
 70
     0
  9
$USERR1
 40
0.0
  9
$USERR2
 40
0.0
  9
$USERR3
 40
0.0
  9
$USERR4
 40
0.0
  9
$USERR5
 40
0.0
  9
$WORLDVIEW
 70
     1
  9
$SHADEDGE
 70
     3
  9
$SHADEDIF
 70
    70
  9
$TILEMODE
 70
     1
  9
$MAXACTVP
 70
    64
  9
$PINSBASE
 10
0.0
 20
0.0
 30
0.0
  9
$PLIMCHECK
 70
     0
  9
$PEXTMIN
 10
1.0000000000E+20
 20
1.0000000000E+20
 30
1.0000000000E+20
  9
$PEXTMAX
 10
-1.0000000000E+20
 20
-1.0000000000E+20
 30
-1.0000000000E+20
  9
$PLIMMIN
 10
0.0
 20
0.0
  9
$PLIMMAX
 10
420.0
 20
297.0
  9
$UNITMODE
 70
     0
  9
$VISRETAIN
 70
     1
  9
$PLINEGEN
 70
     0
  9
$PSLTSCALE
 70
     1
  9
$TREEDEPTH
 70
  3020
  9
$CMLSTYLE
  2
Standard
  9
$CMLJUST
 70
     0
  9
$CMLSCALE
 40
20.0
  9
$PROXYGRAPHICS
 70
     1
  9
$MEASUREMENT
 70
     1
  9
$CELWEIGHT
370
    -1
  9
$ENDCAPS
280
     0
  9
$JOINSTYLE
280
     0
  9
$LWDISPLAY
290
     1
  9
$INSUNITS
 70
     4
  9
$HYPERLINKBASE
  1

  9
$STYLESHEET
  1

  9
$XEDIT
290
     1
  9
$CEPSNTYPE
380
     0
  9
$PSTYLEMODE
290
     1
  9
$FINGERPRINTGUID
  2
{43932A7F-66FF-432A-AEA2-FA27574C7CC7}
  9
$VERSIONGUID
  2
{FAEB1C32-E019-11D5-929B-00C0DF256EC4}
  9
$EXTNAMES
290
     1
  9
$PSVPSCALE
 40
0.0
  9
$OLESTARTUP
290
     0
  0
ENDSEC
  0
SECTION
  2
CLASSES
  0
CLASS
  1
ACDBDICTIONARYWDFLT
  2
AcDbDictionaryWithDefault
  3
ObjectDBX Classes
 90
        0
280
     0
281
     0
  0
CLASS
  1
ACDBPLACEHOLDER
  2
AcDbPlaceHolder
  3
ObjectDBX Classes
 90
        0
280
     0
281
     0
  0
CLASS
  1
LAYOUT
  2
AcDbLayout
  3
ObjectDBX Classes
 90
        0
280
     0
281
     0
  0
ENDSEC
  0
SECTION
  2
TABLES
  0
TABLE
  2
VPORT
  5
8
330
0
100
AcDbSymbolTable
 70
     1
  0
VPORT
  5
29
330
8
100
AcDbSymbolTableRecord
100
AcDbViewportTableRecord
  2
*Active
 70
     0
 10
0.0
 20
0.0
 11
1.0
 21
1.0
 12
105.0
 22
148.5
 13
0.0
 23
0.0
 14
10.0
 24
10.0
 15
10.0
 25
10.0
 16
0.0
 26
0.0
 36
1.0
 17
0.0
 27
0.0
 37
0.0
 40
297.0
 41
1.9729729729
 42
50.0
 43
0.0
 44
0.0
 50
0.0
 51
0.0
 71
     0
 72
  2000
 73
     1
 74
     3
 75
     0
 76
     0
 77
     0
 78
     0
281
     0
 65
     1
110
0.0
120
0.0
130
0.0
111
1.0
121
0.0
131
0.0
112
0.0
122
1.0
132
0.0
 79
     0
146
0.0
  0
ENDTAB
  0
TABLE
  2
LTYPE
  5
5
330
0
100
AcDbSymbolTable
 70
     6
  0
LTYPE
  5
14
330
5
100
AcDbSymbolTableRecord
100
AcDbLinetypeTableRecord
  2
ByBlock
 70
     0
  3

 72
    65
 73
     0
 40
0.0
  0
LTYPE
  5
15
330
5
100
AcDbSymbolTableRecord
100
AcDbLinetypeTableRecord
  2
ByLayer
 70
     0
  3

 72
    65
 73
     0
 40
0.0
  0
LTYPE
  5
16
330
5
100
AcDbSymbolTableRecord
100
AcDbLinetypeTableRecord
  2
Continuous
 70
     0
  3
Solid line
 72
    65
 73
     0
 40
0.0
  0
LTYPE
  5
2A
330
5
100
AcDbSymbolTableRecord
100
AcDbLinetypeTableRecord
  2
HIDDEN
 70
     0
  3
Hidden __ __ __ __ __ __ __ __ __ __ __ __ __ __
 72
    65
 73
     2
 40
1.905
 49
1.27
 74
     0
 49
-0.635
 74
     0
  0
LTYPE
  5
2B
330
5
100
AcDbSymbolTableRecord
100
AcDbLinetypeTableRecord
  2
PHANTOM
 70
     0
  3
Phantom ______  __  __  ______  __  __  ______
 72
    65
 73
     6
 40
12.7
 49
6.35
 74
     0
 49
-1.27
 74
     0
 49
1.27
 74
     0
 49
-1.27
 74
     0
 49
1.27
 74
     0
 49
-1.27
 74
     0
  0
LTYPE
  5
2C
330
5
100
AcDbSymbolTableRecord
100
AcDbLinetypeTableRecord
  2
CENTER
 70
     0
  3
Center ____ _ ____ _ ____ _ ____ _ ____ _ ____
 72
    65
 73
     4
 40
10.16
 49
6.35
 74
     0
 49
-1.27
 74
     0
 49
1.27
 74
     0
 49
-1.27
 74
     0
  0
LTYPE
  5
2D
330
5
100
AcDbSymbolTableRecord
100
AcDbLinetypeTableRecord
  2
CENTERX2
 70
     0
  3
Center (2x) ________  __  ________  __  _____
 72
    65
 73
     4
 40
20.32
 49
12.7
 74
     0
 49
-2.54
 74
     0
 49
2.54
 74
     0
 49
-2.54
 74
     0
  0
LTYPE
  5
2E
330
5
100
AcDbSymbolTableRecord
100
AcDbLinetypeTableRecord
  2
DOT2
 70
     0
  3
Dot (.5x) ........................................
 72
    65
 73
     2
 40
0.635
 49
0.0
 74
     0
 49
-0.635
 74
     0
  0
ENDTAB
  0
TABLE
  2
LAYER
  5
2
330
0
100
AcDbSymbolTable
 70
     2
  0
LAYER
  5
10
330
2
100
AcDbSymbolTableRecord
100
AcDbLayerTableRecord
  2
0
 70
     0
 62
     7
  6
Continuous
370
    -3
390
F
  0
LAYER
  5
149
330
2
100
AcDbSymbolTableRecord
100
AcDbLayerTableRecord
  2
Defpoints
 70
     0
 62
     7
  6
Continuous
290
     0
370
    -3
390
F
  0
ENDTAB
  0
TABLE
  2
STYLE
  5
3
330
0
100
AcDbSymbolTable
 70
     2
  0
STYLE
  5
11
330
3
100
AcDbSymbolTableRecord
100
AcDbTextStyleTableRecord
  2
Standard
 70
     0
 40
0.0
 41
1.0
 50
0.0
 71
     0
 42
2.5
  3
txt
  4
bigfont
  0
STYLE
  5
37
330
3
100
AcDbSymbolTableRecord
100
AcDbTextStyleTableRecord
  2
SLDTEXTSTYLE0
 70
     0
 40
0.0
 41
0.7
 50
0.0
 71
     0
 42
0.2
  3
TXT
  4
bigfont
  0
ENDTAB
  0
TABLE
  2
VIEW
  5
6
330
0
100
AcDbSymbolTable
 70
     0
  0
ENDTAB
  0
TABLE
  2
UCS
  5
7
330
0
100
AcDbSymbolTable
 70
     0
  0
ENDTAB
  0
TABLE
  2
APPID
  5
9
330
0
100
AcDbSymbolTable
 70
     1
  0
APPID
  5
12
330
9
100
AcDbSymbolTableRecord
100
AcDbRegAppTableRecord
  2
ACAD
 70
     0
  0
ENDTAB
  0
TABLE
  2
DIMSTYLE
  5
A
330
0
100
AcDbSymbolTable
 70
     3
100
AcDbDimStyleTable
  0
DIMSTYLE
105
27
330
A
100
AcDbSymbolTableRecord
100
AcDbDimStyleTableRecord
  2
ISO-25
 70
     0
 41
2.5
 42
0.625
 43
3.75
 44
1.25
 73
     0
 74
     0
 77
     1
 78
     8
140
2.5
141
2.5
143
0.0393700787
147
0.625
171
     3
172
     1
271
     2
272
     2
274
     3
278
    44
283
     0
284
     8
340
11
  0
DIMSTYLE
105
157
102
{ACAD_REACTORS
330
148
330
15E
330
175
330
18A
330
1A1
330
1B5
330
1CC
330
206
330
219
102
}
330
A
100
AcDbSymbolTableRecord
100
AcDbDimStyleTableRecord
  2
SLDDIMSTYLE0
 70
     0
 41
3.0
 44
0.0
 73
     0
 74
     0
 77
     3
 78
    12
140
3.5
147
0.875
173
     1
271
     1
272
     3
284
    12
340
37
  0
DIMSTYLE
105
1E1
330
A
100
AcDbSymbolTableRecord
100
AcDbDimStyleTableRecord
  2
SLDDIMSTYLE1
 70
     0
 41
3.0
 44
0.0
140
3.0
147
0.75
173
     1
271
     0
272
     0
340
11
341
1E2
343
1E2
344
1E2
  0
ENDTAB
  0
TABLE
  2
BLOCK_RECORD
  5
1
330
0
100
AcDbSymbolTable
 70
    12
  0
BLOCK_RECORD
  5
1F
330
1
100
AcDbSymbolTableRecord
100
AcDbBlockTableRecord
  2
*Model_Space
340
22
  0
BLOCK_RECORD
  5
1B
330
1
100
AcDbSymbolTableRecord
100
AcDbBlockTableRecord
  2
*Paper_Space
340
1E
  0
BLOCK_RECORD
  5
23
330
1
100
AcDbSymbolTableRecord
100
AcDbBlockTableRecord
  2
*Paper_Space0
340
26
  0
BLOCK_RECORD
  5
14A
330
1
100
AcDbSymbolTableRecord
100
AcDbBlockTableRecord
  2
*D1
340
0
  0
BLOCK_RECORD
  5
15F
330
1
100
AcDbSymbolTableRecord
100
AcDbBlockTableRecord
  2
*D2
340
0
  0
BLOCK_RECORD
  5
176
330
1
100
AcDbSymbolTableRecord
100
AcDbBlockTableRecord
  2
*D3
340
0
  0
BLOCK_RECORD
  5
18B
330
1
100
AcDbSymbolTableRecord
100
AcDbBlockTableRecord
  2
*D4
340
0
  0
BLOCK_RECORD
  5
1A2
330
1
100
AcDbSymbolTableRecord
100
AcDbBlockTableRecord
  2
*D5
340
0
  0
BLOCK_RECORD
  5
1B6
330
1
100
AcDbSymbolTableRecord
100
AcDbBlockTableRecord
  2
*D6
340
0
  0
BLOCK_RECORD
  5
1CD
330
1
100
AcDbSymbolTableRecord
100
AcDbBlockTableRecord
  2
*D7
340
0
  0
BLOCK_RECORD
  5
1E2
330
1
100
AcDbSymbolTableRecord
100
AcDbBlockTableRecord
  2
_Open30
340
0
  0
BLOCK_RECORD
  5
207
330
1
100
AcDbSymbolTableRecord
100
AcDbBlockTableRecord
  2
*D9
340
0
  0
BLOCK_RECORD
  5
21A
330
1
100
AcDbSymbolTableRecord
100
AcDbBlockTableRecord
  2
*D10
340
0
  0
BLOCK_RECORD
  5
231
330
1
100
AcDbSymbolTableRecord
100
AcDbBlockTableRecord
  2
SW_CENTERMARKSYMBOL_0
340
0
102
{BLKREFS
331
23C
102
}
  0
ENDTAB
  0
ENDSEC
  0
SECTION
  2
BLOCKS
  0
BLOCK
  5
20
330
1F
100
AcDbEntity
  8
0
100
AcDbBlockBegin
  2
*Model_Space
 70
     0
 71
     0
 10
0.0
 20
0.0
 30
0.0
  3
*Model_Space
  1

  0
ENDBLK
  5
21
330
1F
100
AcDbEntity
  8
0
100
AcDbBlockEnd
  0
BLOCK
  5
1C
330
1B
100
AcDbEntity
 67
     1
  8
0
100
AcDbBlockBegin
  2
*Paper_Space
 70
     0
 71
     0
 10
0.0
 20
0.0
 30
0.0
  3
*Paper_Space
  1

  0
ENDBLK
  5
1D
330
1B
100
AcDbEntity
 67
     1
  8
0
100
AcDbBlockEnd
  0
BLOCK
  5
24
330
23
100
AcDbEntity
  8
0
100
AcDbBlockBegin
  2
*Paper_Space0
 70
     0
 71
     0
 10
0.0
 20
0.0
 30
0.0
  3
*Paper_Space0
  1

  0
ENDBLK
  5
25
330
23
100
AcDbEntity
  8
0
100
AcDbBlockEnd
  0
BLOCK
  5
155
330
14A
100
AcDbEntity
  8
0
100
AcDbBlockBegin
  2
*D1
 70
     1
 71
     0
 10
0.0
 20
0.0
 30
0.0
  3
*D1
  1

  0
SOLID
  5
158
330
14A
100
AcDbEntity
  8
0
  6
Continuous
 62
     7
370
     0
100
AcDbTrace
 10
141.9078302004
 20
191.7939489527
 30
0.0
 11
141.1578302004
 21
188.7939489527
 31
0.0
 12
142.6578302004
 22
188.7939489527
 32
0.0
 13
142.6578302004
 23
188.7939489527
 33
0.0
  0
SOLID
  5
159
330
14A
100
AcDbEntity
  8
0
  6
Continuous
 62
     7
370
     0
100
AcDbTrace
 10
141.9078302004
 20
119.7939489527
 30
0.0
 11
142.6578302004
 21
122.7939489527
 31
0.0
 12
141.1578302004
 22
122.7939489527
 32
0.0
 13
141.1578302004
 23
122.7939489527
 33
0.0
  0
LINE
  5
15A
330
14A
100
AcDbEntity
  8
0
  6
Continuous
 62
     7
370
     0
100
AcDbLine
 10
117.4797193753
 20
191.7939489527
 30
0.0
 11
142.9078302004
 21
191.7939489527
 31
0.0
  0
LINE
  5
15B
330
14A
100
AcDbEntity
  8
0
  6
Continuous
 62
     7
370
     0
100
AcDbLine
 10
119.0302153977
 20
119.7939489527
 30
0.0
 11
142.9078302004
 21
119.7939489527
 31
0.0
  0
LINE
  5
15C
330
14A
100
AcDbEntity
  8
0
  6
Continuous
 62
     7
370
     0
100
AcDbLine
 10
141.9078302004
 20
191.7939489527
 30
0.0
 11
141.9078302004
 21
119.7939489527
 31
0.0
  0
MTEXT
  5
15D
330
14A
100
AcDbEntity
  8
0
  6
Continuous
 62
     7
370
     0
100
AcDbMText
 10
137.8351031605
 20
153.7573044327
 30
0.0
 40
3.5
 41
0.0
 71
     1
 72
     1
  1
72
  7
SLDTEXTSTYLE0
 11
-7.044197039909883E-15
 21
1.0
 31
0.0
 73
     1
 44
1.0
  0
ENDBLK
  5
156
330
14A
100
AcDbEntity
  8
0
100
AcDbBlockEnd
  0
BLOCK
  5
16A
330
15F
100
AcDbEntity
  8
0
100
AcDbBlockBegin
  2
*D2
 70
     1
 71
     0
 10
0.0
 20
0.0
 30
0.0
  3
*D2
  1

  0
SOLID
  5
16D
330
15F
100
AcDbEntity
  8
0
  6
Continuous
 62
     7
370
     0
100
AcDbTrace
 10
130.1275196928
 20
119.7939489527
 30
0.0
 11
129.3775196928
 21
116.7939489527
 31
0.0
 12
130.8775196928
 22
116.7939489527
 32
0.0
 13
130.8775196928
 23
116.7939489527
 33
0.0
  0
SOLID
  5
16E
330
15F
100
AcDbEntity
  8
0
  6
Continuous
 62
     7
370
     0
100
AcDbTrace
 10
130.1275196928
 20
126.7939489527
 30
0.0
 11
130.8775196928
 21
129.7939489527
 31
0.0
 12
129.3775196928
 22
129.7939489527
 32
0.0
 13
129.3775196928
 23
129.7939489527
 33
0.0
  0
LINE
  5
16F
330
15F
100
AcDbEntity
  8
0
  6
Continuous
 62
     7
370
     0
100
AcDbLine
 10
119.0302153977
 20
119.7939489527
 30
0.0
 11
131.1275196928
 21
119.7939489527
 31
0.0
  0
LINE
  5
170
330
15F
100
AcDbEntity
  8
0
  6
Continuous
 62
     7
370
     0
100
AcDbLine
 10
114.0892531794
 20
126.7939489527
 30
0.0
 11
131.1275196928
 21
126.7939489527
 31
0.0
  0
LINE
  5
171
330
15F
100
AcDbEntity
  8
0
  6
Continuous
 62
     7
370
     0
100
AcDbLine
 10
130.1275196928
 20
119.7939489527
 30
0.0
 11
130.1275196928
 21
114.7939489527
 31
0.0
  0
LINE
  5
172
330
15F
100
AcDbEntity
  8
0
  6
Continuous
 62
     7
370
     0
100
AcDbLine
 10
130.1275196928
 20
119.7939489527
 30
0.0
 11
130.1275196928
 21
126.7939489527
 31
0.0
  0
LINE
  5
173
330
15F
100
AcDbEntity
  8
0
  6
Continuous
 62
     7
370
     0
100
AcDbLine
 10
130.1275196928
 20
126.7939489527
 30
0.0
 11
130.1275196928
 21
131.7939489527
 31
0.0
  0
MTEXT
  5
174
330
15F
100
AcDbEntity
  8
0
  6
Continuous
 62
     7
370
     0
100
AcDbMText
 10
126.054792653
 20
122.2766049081
 30
0.0
 40
3.5
 41
0.0
 71
     1
 72
     1
  1
7
  7
SLDTEXTSTYLE0
 11
6.123031769111886E-17
 21
1.0
 31
0.0
 73
     1
 44
1.0
  0
ENDBLK
  5
16B
330
15F
100
AcDbEntity
  8
0
100
AcDbBlockEnd
  0
BLOCK
  5
181
330
176
100
AcDbEntity
  8
0
100
AcDbBlockBegin
  2
*D3
 70
     1
 71
     0
 10
0.0
 20
0.0
 30
0.0
  3
*D3
  1

  0
SOLID
  5
183
330
176
100
AcDbEntity
  8
0
  6
Continuous
 62
     7
370
     0
100
AcDbTrace
 10
130.1275196928
 20
176.7939489527
 30
0.0
 11
129.3775196928
 21
173.7939489527
 31
0.0
 12
130.8775196928
 22
173.7939489527
 32
0.0
 13
130.8775196928
 23
173.7939489527
 33
0.0
  0
SOLID
  5
184
330
176
100
AcDbEntity
  8
0
  6
Continuous
 62
     7
370
     0
100
AcDbTrace
 10
130.1275196928
 20
126.7939489527
 30
0.0
 11
130.8775196928
 21
129.7939489527
 31
0.0
 12
129.3775196928
 22
129.7939489527
 32
0.0
 13
129.3775196928
 23
129.7939489527
 33
0.0
  0
LINE
  5
185
330
176
100
AcDbEntity
  8
0
  6
Continuous
 62
     7
370
     0
100
AcDbLine
 10
114.0892531794
 20
176.7939489527
 30
0.0
 11
131.1275196928
 21
176.7939489527
 31
0.0
  0
LINE
  5
186
330
176
100
AcDbEntity
  8
0
  6
Continuous
 62
     7
370
     0
100
AcDbLine
 10
114.0892531794
 20
126.7939489527
 30
0.0
 11
131.1275196928
 21
126.7939489527
 31
0.0
  0
LINE
  5
187
330
176
100
AcDbEntity
  8
0
  6
Continuous
 62
     7
370
     0
100
AcDbLine
 10
130.1275196928
 20
176.7939489527
 30
0.0
 11
130.1275196928
 21
126.7939489527
 31
0.0
  0
MTEXT
  5
188
330
176
100
AcDbEntity
  8
0
  6
Continuous
 62
     7
370
     0
100
AcDbMText
 10
126.054792653
 20
147.7206599127
 30
0.0
 40
3.5
 41
0.0
 71
     1
 72
     1
  1
50
  7
SLDTEXTSTYLE0
 11
-7.044197039909883E-15
 21
1.0
 31
0.0
 73
     1
 44
1.0
  0
MTEXT
  5
189
330
176
100
AcDbEntity
  8
0
  6
Continuous
 62
     7
370
     0
100
AcDbMText
 10
126.054792653
 20
151.7939489527
 30
0.0
 40
3.5
 41
0.0
 71
     1
 72
     1
  1
ST
  7
SLDTEXTSTYLE0
 11
-7.044197039909883E-15
 21
1.0
 31
0.0
 73
     1
 44
1.0
  0
ENDBLK
  5
182
330
176
100
AcDbEntity
  8
0
100
AcDbBlockEnd
  0
BLOCK
  5
197
330
18B
100
AcDbEntity
  8
0
100
AcDbBlockBegin
  2
*D4
 70
     1
 71
     0
 10
0.0
 20
0.0
 30
0.0
  3
*D4
  1

  0
SOLID
  5
199
330
18B
100
AcDbEntity
  8
0
  6
Continuous
 62
     7
370
     0
100
AcDbTrace
 10
141.9078302004
 20
195.7939489527
 30
0.0
 11
142.6578302004
 21
198.7939489527
 31
0.0
 12
141.1578302004
 22
198.7939489527
 32
0.0
 13
141.1578302004
 23
198.7939489527
 33
0.0
  0
SOLID
  5
19A
330
18B
100
AcDbEntity
  8
0
  6
Continuous
 62
     7
370
     0
100
AcDbTrace
 10
141.9078302004
 20
191.7939489527
 30
0.0
 11
141.1578302004
 21
188.7939489527
 31
0.0
 12
142.6578302004
 22
188.7939489527
 32
0.0
 13
142.6578302004
 23
188.7939489527
 33
0.0
  0
LINE
  5
19B
330
18B
100
AcDbEntity
  8
0
  6
Continuous
 62
     7
370
     0
100
AcDbLine
 10
117.5892531794
 20
195.7939489527
 30
0.0
 11
142.9078302004
 21
195.7939489527
 31
0.0
  0
LINE
  5
19C
330
18B
100
AcDbEntity
  8
0
  6
Continuous
 62
     7
370
     0
100
AcDbLine
 10
117.4797193753
 20
191.7939489527
 30
0.0
 11
142.9078302004
 21
191.7939489527
 31
0.0
  0
LINE
  5
19D
330
18B
100
AcDbEntity
  8
0
  6
Continuous
 62
     7
370
     0
100
AcDbLine
 10
141.9078302004
 20
195.7939489527
 30
0.0
 11
141.9078302004
 21
202.7650492738
 31
0.0
  0
LINE
  5
19E
330
18B
100
AcDbEntity
  8
0
  6
Continuous
 62
     7
370
     0
100
AcDbLine
 10
141.9078302004
 20
195.7939489527
 30
0.0
 11
141.9078302004
 21
191.7939489527
 31
0.0
  0
LINE
  5
19F
330
18B
100
AcDbEntity
  8
0
  6
Continuous
 62
     7
370
     0
100
AcDbLine
 10
141.9078302004
 20
191.7939489527
 30
0.0
 11
141.9078302004
 21
186.7939489527
 31
0.0
  0
MTEXT
  5
1A0
330
18B
100
AcDbEntity
  8
0
  6
Continuous
 62
     7
370
     0
100
AcDbMText
 10
137.8351031605
 20
199.1428611847
 30
0.0
 40
3.5
 41
0.0
 71
     1
 72
     1
  1
4
  7
SLDTEXTSTYLE0
 11
-7.044197039909883E-15
 21
1.0
 31
0.0
 73
     1
 44
1.0
  0
ENDBLK
  5
198
330
18B
100
AcDbEntity
  8
0
100
AcDbBlockEnd
  0
BLOCK
  5
1AD
330
1A2
100
AcDbEntity
  8
0
100
AcDbBlockBegin
  2
*D5
 70
     1
 71
     0
 10
0.0
 20
0.0
 30
0.0
  3
*D5
  1

  0
SOLID
  5
1AF
330
1A2
100
AcDbEntity
  8
0
  6
Continuous
 62
     7
370
     0
100
AcDbTrace
 10
141.9078302004
 20
94.7939489527
 30
0.0
 11
142.6578302004
 21
97.7939489527
 31
0.0
 12
141.1578302004
 22
97.7939489527
 32
0.0
 13
141.1578302004
 23
97.7939489527
 33
0.0
  0
SOLID
  5
1B0
330
1A2
100
AcDbEntity
  8
0
  6
Continuous
 62
     7
370
     0
100
AcDbTrace
 10
141.9078302004
 20
114.7939489527
 30
0.0
 11
141.1578302004
 21
111.7939489527
 31
0.0
 12
142.6578302004
 22
111.7939489527
 32
0.0
 13
142.6578302004
 23
111.7939489527
 33
0.0
  0
LINE
  5
1B1
330
1A2
100
AcDbEntity
  8
0
  6
Continuous
 62
     7
370
     0
100
AcDbLine
 10
113.5892531794
 20
94.7939489527
 30
0.0
 11
142.9078302004
 21
94.7939489527
 31
0.0
  0
LINE
  5
1B2
330
1A2
100
AcDbEntity
  8
0
  6
Continuous
 62
     7
370
     0
100
AcDbLine
 10
119.0892531794
 20
114.7939489527
 30
0.0
 11
142.9078302004
 21
114.7939489527
 31
0.0
  0
LINE
  5
1B3
330
1A2
100
AcDbEntity
  8
0
  6
Continuous
 62
     7
370
     0
100
AcDbLine
 10
141.9078302004
 20
94.7939489527
 30
0.0
 11
141.9078302004
 21
114.7939489527
 31
0.0
  0
MTEXT
  5
1B4
330
1A2
100
AcDbEntity
  8
0
  6
Continuous
 62
     7
370
     0
100
AcDbMText
 10
137.8351031605
 20
102.7573044327
 30
0.0
 40
3.5
 41
0.0
 71
     1
 72
     1
  1
20
  7
SLDTEXTSTYLE0
 11
6.123031769111886E-17
 21
1.0
 31
0.0
 73
     1
 44
1.0
  0
ENDBLK
  5
1AE
330
1A2
100
AcDbEntity
  8
0
100
AcDbBlockEnd
  0
BLOCK
  5
1C1
330
1B6
100
AcDbEntity
  8
0
100
AcDbBlockBegin
  2
*D6
 70
     1
 71
     0
 10
0.0
 20
0.0
 30
0.0
  3
*D6
  1

  0
SOLID
  5
1C4
330
1B6
100
AcDbEntity
  8
0
  6
Continuous
 62
     7
370
     0
100
AcDbTrace
 10
141.9078302004
 20
119.7939489527
 30
0.0
 11
142.6578302004
 21
122.7939489527
 31
0.0
 12
141.1578302004
 22
122.7939489527
 32
0.0
 13
141.1578302004
 23
122.7939489527
 33
0.0
  0
SOLID
  5
1C5
330
1B6
100
AcDbEntity
  8
0
  6
Continuous
 62
     7
370
     0
100
AcDbTrace
 10
141.9078302004
 20
114.7939489527
 30
0.0
 11
141.1578302004
 21
111.7939489527
 31
0.0
 12
142.6578302004
 22
111.7939489527
 32
0.0
 13
142.6578302004
 23
111.7939489527
 33
0.0
  0
LINE
  5
1C6
330
1B6
100
AcDbEntity
  8
0
  6
Continuous
 62
     7
370
     0
100
AcDbLine
 10
119.0302153977
 20
119.7939489527
 30
0.0
 11
142.9078302004
 21
119.7939489527
 31
0.0
  0
LINE
  5
1C7
330
1B6
100
AcDbEntity
  8
0
  6
Continuous
 62
     7
370
     0
100
AcDbLine
 10
119.0892531794
 20
114.7939489527
 30
0.0
 11
142.9078302004
 21
114.7939489527
 31
0.0
  0
LINE
  5
1C8
330
1B6
100
AcDbEntity
  8
0
  6
Continuous
 62
     7
370
     0
100
AcDbLine
 10
141.9078302004
 20
119.7939489527
 30
0.0
 11
141.9078302004
 21
124.7939489527
 31
0.0
  0
LINE
  5
1C9
330
1B6
100
AcDbEntity
  8
0
  6
Continuous
 62
     7
370
     0
100
AcDbLine
 10
141.9078302004
 20
119.7939489527
 30
0.0
 11
141.9078302004
 21
114.7939489527
 31
0.0
  0
LINE
  5
1CA
330
1B6
100
AcDbEntity
  8
0
  6
Continuous
 62
     7
370
     0
100
AcDbLine
 10
141.9078302004
 20
114.7939489527
 30
0.0
 11
141.9078302004
 21
109.7939489527
 31
0.0
  0
MTEXT
  5
1CB
330
1B6
100
AcDbEntity
  8
0
  6
Continuous
 62
     7
370
     0
100
AcDbMText
 10
137.8351031605
 20
116.2766049081
 30
0.0
 40
3.5
 41
0.0
 71
     1
 72
     1
  1
5
  7
SLDTEXTSTYLE0
 11
-7.044197039909883E-15
 21
1.0
 31
0.0
 73
     1
 44
1.0
  0
ENDBLK
  5
1C2
330
1B6
100
AcDbEntity
  8
0
100
AcDbBlockEnd
  0
BLOCK
  5
1D8
330
1CD
100
AcDbEntity
  8
0
100
AcDbBlockBegin
  2
*D7
 70
     1
 71
     0
 10
0.0
 20
0.0
 30
0.0
  3
*D7
  1

  0
SOLID
  5
1DA
330
1CD
100
AcDbEntity
  8
0
  6
Continuous
 62
     7
370
     0
100
AcDbTrace
 10
154.5130924715
 20
195.7939489527
 30
0.0
 11
153.7630924715
 21
192.7939489527
 31
0.0
 12
155.2630924715
 22
192.7939489527
 32
0.0
 13
155.2630924715
 23
192.7939489527
 33
0.0
  0
SOLID
  5
1DB
330
1CD
100
AcDbEntity
  8
0
  6
Continuous
 62
     7
370
     0
100
AcDbTrace
 10
154.5130924715
 20
91.7939489527
 30
0.0
 11
155.2630924715
 21
94.7939489527
 31
0.0
 12
153.7630924715
 22
94.7939489527
 32
0.0
 13
153.7630924715
 23
94.7939489527
 33
0.0
  0
LINE
  5
1DC
330
1CD
100
AcDbEntity
  8
0
  6
Continuous
 62
     7
370
     0
100
AcDbLine
 10
117.5892531794
 20
195.7939489527
 30
0.0
 11
155.5130924715
 21
195.7939489527
 31
0.0
  0
LINE
  5
1DD
330
1CD
100
AcDbEntity
  8
0
  6
Continuous
 62
     7
370
     0
100
AcDbLine
 10
111.0892531794
 20
91.7939489527
 30
0.0
 11
155.5130924715
 21
91.7939489527
 31
0.0
  0
LINE
  5
1DE
330
1CD
100
AcDbEntity
  8
0
  6
Continuous
 62
     7
370
     0
100
AcDbLine
 10
154.5130924715
 20
195.7939489527
 30
0.0
 11
154.5130924715
 21
91.7939489527
 31
0.0
  0
MTEXT
  5
1DF
330
1CD
100
AcDbEntity
  8
0
  6
Continuous
 62
     7
370
     0
100
AcDbMText
 10
150.4403654316
 20
140.7399603881
 30
0.0
 40
3.5
 41
0.0
 71
     1
 72
     1
  1
104
  7
SLDTEXTSTYLE0
 11
-7.044197039909883E-15
 21
1.0
 31
0.0
 73
     1
 44
1.0
  0
ENDBLK
  5
1D9
330
1CD
100
AcDbEntity
  8
0
100
AcDbBlockEnd
  0
BLOCK
  5
1E3
330
1E2
100
AcDbEntity
  8
0
100
AcDbBlockBegin
  2
_Open30
 70
     0
 71
     0
 10
0.0
 20
0.0
 30
0.0
  3
_Open30
  1

  0
LINE
  5
1E5
330
1E2
100
AcDbEntity
  8
0
  6
ByBlock
 62
     0
370
    -2
100
AcDbLine
 10
-1.0
 20
0.267949
 30
0.0
 11
0.0
 21
0.0
 31
0.0
  0
LINE
  5
1E6
330
1E2
100
AcDbEntity
  8
0
  6
ByBlock
 62
     0
370
    -2
100
AcDbLine
 10
0.0
 20
0.0
 30
0.0
 11
-1.0
 21
-0.267949
 31
0.0
  0
LINE
  5
1E7
330
1E2
100
AcDbEntity
  8
0
  6
ByBlock
 62
     0
370
    -2
100
AcDbLine
 10
0.0
 20
0.0
 30
0.0
 11
-1.0
 21
0.0
 31
0.0
  0
ENDBLK
  5
1E4
330
1E2
100
AcDbEntity
  8
0
100
AcDbBlockEnd
  0
BLOCK
  5
211
330
207
100
AcDbEntity
  8
0
100
AcDbBlockBegin
  2
*D9
 70
     1
 71
     0
 10
0.0
 20
0.0
 30
0.0
  3
*D9
  1

  0
SOLID
  5
213
330
207
100
AcDbEntity
  8
0
  6
Continuous
 62
     7
370
     0
100
AcDbTrace
 10
91.0892531794
 20
264.7843518817
 30
0.0
 11
94.0892531794
 21
264.0343518817
 31
0.0
 12
94.0892531794
 22
265.5343518817
 32
0.0
 13
94.0892531794
 23
265.5343518817
 33
0.0
  0
SOLID
  5
214
330
207
100
AcDbEntity
  8
0
  6
Continuous
 62
     7
370
     0
100
AcDbTrace
 10
118.0892531794
 20
264.7843518817
 30
0.0
 11
115.0892531794
 21
265.5343518817
 31
0.0
 12
115.0892531794
 22
264.0343518817
 32
0.0
 13
115.0892531794
 23
264.0343518817
 33
0.0
  0
LINE
  5
215
330
207
100
AcDbEntity
  8
0
  6
Continuous
 62
     7
370
     0
100
AcDbLine
 10
91.0892531794
 20
248.0604823978
 30
0.0
 11
91.0892531794
 21
265.7843518817
 31
0.0
  0
LINE
  5
216
330
207
100
AcDbEntity
  8
0
  6
Continuous
 62
     7
370
     0
100
AcDbLine
 10
118.0892531794
 20
248.0604823978
 30
0.0
 11
118.0892531794
 21
265.7843518817
 31
0.0
  0
LINE
  5
217
330
207
100
AcDbEntity
  8
0
  6
Continuous
 62
     7
370
     0
100
AcDbLine
 10
91.0892531794
 20
264.7843518817
 30
0.0
 11
118.0892531794
 21
264.7843518817
 31
0.0
  0
MTEXT
  5
218
330
207
100
AcDbEntity
  8
0
  6
Continuous
 62
     7
370
     0
100
AcDbMText
 10
102.5526086594
 20
268.8570789216
 30
0.0
 40
3.5
 41
0.0
 71
     1
 72
     1
  1
27
  7
SLDTEXTSTYLE0
 73
     1
 44
1.0
  0
ENDBLK
  5
212
330
207
100
AcDbEntity
  8
0
100
AcDbBlockEnd
  0
BLOCK
  5
225
330
21A
100
AcDbEntity
  8
0
100
AcDbBlockBegin
  2
*D10
 70
     1
 71
     0
 10
0.0
 20
0.0
 30
0.0
  3
*D10
  1

  0
ARC
  5
227
330
21A
100
AcDbEntity
  8
0
  6
Continuous
 62
     7
370
     0
100
AcDbCircle
 10
72.0963388907
 20
237.6787537638
 30
0.0
 40
4.554075592705903
100
AcDbArc
 50
243.4349488229
 51
296.5650511771
  0
ARC
  5
228
330
21A
100
AcDbEntity
  8
0
  6
Continuous
 62
     7
370
     0
100
AcDbCircle
 10
72.0963388907
 20
240.8537537638
 30
0.0
 40
4.554075592705903
100
AcDbArc
 50
63.4349488229
 51
116.5650511771
  0
SOLID
  5
229
330
21A
100
AcDbEntity
  8
0
  6
Continuous
 62
     7
370
     0
100
AcDbTrace
 10
74.1329834107
 20
254.8547110319
 30
0.0
 11
73.3829834107
 21
251.8547110319
 31
0.0
 12
74.8829834107
 22
251.8547110319
 32
0.0
 13
74.8829834107
 23
251.8547110319
 33
0.0
  0
SOLID
  5
22A
330
21A
100
AcDbEntity
  8
0
  6
Continuous
 62
     7
370
     0
100
AcDbTrace
 10
74.1329834107
 20
223.6777964957
 30
0.0
 11
74.8829834107
 21
226.6777964957
 31
0.0
 12
73.3829834107
 22
226.6777964957
 32
0.0
 13
73.3829834107
 23
226.6777964957
 33
0.0
  0
LINE
  5
22B
330
21A
100
AcDbEntity
  8
0
  6
Continuous
 62
     7
370
     0
100
AcDbLine
 10
103.5892531794
 20
254.8547110319
 30
0.0
 11
73.1329834107
 21
254.8547110319
 31
0.0
  0
LINE
  5
22C
330
21A
100
AcDbEntity
  8
0
  6
Continuous
 62
     7
370
     0
100
AcDbLine
 10
103.5892531794
 20
223.6777964957
 30
0.0
 11
73.1329834107
 21
223.6777964957
 31
0.0
  0
LINE
  5
22D
330
21A
100
AcDbEntity
  8
0
  6
Continuous
 62
     7
370
     0
100
AcDbLine
 10
74.1329834107
 20
254.8547110319
 30
0.0
 11
74.1329834107
 21
223.6777964957
 31
0.0
  0
MTEXT
  5
22E
330
21A
100
AcDbEntity
  8
0
  6
Continuous
 62
     7
370
     0
100
AcDbMText
 10
70.0602563708
 20
235.1929647238
 30
0.0
 40
3.5
 41
0.0
 71
     1
 72
     1
  1
31.2
  7
SLDTEXTSTYLE0
 11
-6.156018620209758E-15
 21
1.0
 31
0.0
 73
     1
 44
1.0
  0
ENDBLK
  5
226
330
21A
100
AcDbEntity
  8
0
100
AcDbBlockEnd
  0
BLOCK
  5
232
330
231
100
AcDbEntity
  8
0
100
AcDbBlockBegin
  2
SW_CENTERMARKSYMBOL_0
 70
     0
 71
     0
 10
0.0
 20
0.0
 30
0.0
  3
SW_CENTERMARKSYMBOL_0
  1

  0
LINE
  5
234
330
231
100
AcDbEntity
  8
0
  6
Continuous
 62
     7
370
     0
100
AcDbLine
 10
0.0
 20
0.0
 30
0.0
 11
0.0
 21
2.5
 31
0.0
  0
LINE
  5
235
330
231
100
AcDbEntity
  8
0
  6
Continuous
 62
     7
370
     0
100
AcDbLine
 10
0.0
 20
0.0
 30
0.0
 11
-2.5
 21
0.0
 31
0.0
  0
LINE
  5
236
330
231
100
AcDbEntity
  8
0
  6
Continuous
 62
     7
370
     0
100
AcDbLine
 10
0.0
 20
0.0
 30
0.0
 11
0.0
 21
-2.5
 31
0.0
  0
LINE
  5
237
330
231
100
AcDbEntity
  8
0
  6
Continuous
 62
     7
370
     0
100
AcDbLine
 10
0.0
 20
0.0
 30
0.0
 11
2.5
 21
0.0
 31
0.0
  0
LINE
  5
238
330
231
100
AcDbEntity
  8
0
  6
Continuous
 62
     7
370
     0
100
AcDbLine
 10
0.0
 20
5.0
 30
0.0
 11
0.0
 21
19.090290635
 31
0.0
  0
LINE
  5
239
330
231
100
AcDbEntity
  8
0
  6
Continuous
 62
     7
370
     0
100
AcDbLine
 10
-5.0
 20
0.0
 30
0.0
 11
-15.9409622183
 21
0.0
 31
0.0
  0
LINE
  5
23A
330
231
100
AcDbEntity
  8
0
  6
Continuous
 62
     7
370
     0
100
AcDbLine
 10
0.0
 20
-5.0
 30
0.0
 11
0.0
 21
-17.369318621
 31
0.0
  0
LINE
  5
23B
330
231
100
AcDbEntity
  8
0
  6
Continuous
 62
     7
370
     0
100
AcDbLine
 10
5.0
 20
0.0
 30
0.0
 11
15.9409622183
 21
0.0
 31
0.0
  0
ENDBLK
  5
233
330
231
100
AcDbEntity
  8
0
100
AcDbBlockEnd
  0
ENDSEC
  0
SECTION
  2
ENTITIES
  0
LINE
  5
2F
330
1F
100
AcDbEntity
  8
0
  6
Continuous
 62
     7
370
     0
100
AcDbLine
 10
20.2604743903
 20
285.0
 30
0.0
 11
196.7604743903
 21
285.0
 31
0.0
  0
LINE
  5
30
330
1F
100
AcDbEntity
  8
0
  6
Continuous
 62
     7
370
     0
100
AcDbLine
 10
20.2604743903
 20
285.0
 30
0.0
 11
20.2604743903
 21
10.0
 31
0.0
  0
LINE
  5
31
330
1F
100
AcDbEntity
  8
0
  6
Continuous
 62
     7
370
     0
100
AcDbLine
 10
20.2604743903
 20
10.0
 30
0.0
 11
196.7604743903
 21
10.0
 31
0.0
  0
LINE
  5
32
330
1F
100
AcDbEntity
  8
0
  6
Continuous
 62
     7
370
     0
100
AcDbLine
 10
196.7604743903
 20
285.0
 30
0.0
 11
196.7604743903
 21
10.0
 31
0.0
  0
LINE
  5
33
330
1F
100
AcDbEntity
  8
0
  6
Continuous
 62
     7
370
     0
100
AcDbLine
 10
127.0104743903
 20
50.75
 30
0.0
 11
196.7604743903
 21
50.75
 31
0.0
  0
LINE
  5
34
330
1F
100
AcDbEntity
  8
0
  6
Continuous
 62
     7
370
     0
100
AcDbLine
 10
127.0104743903
 20
50.75
 30
0.0
 11
127.0104743903
 21
10.0
 31
0.0
  0
LINE
  5
35
330
1F
100
AcDbEntity
  8
0
  6
Continuous
 62
     7
370
     0
100
AcDbLine
 10
127.0104743903
 20
22.75
 30
0.0
 11
196.7604743903
 21
22.75
 31
0.0
  0
LINE
  5
36
330
1F
100
AcDbEntity
  8
0
  6
Continuous
 62
     7
370
     0
100
AcDbLine
 10
127.0104743903
 20
36.75
 30
0.0
 11
196.7604743903
 21
36.75
 31
0.0
  0
MTEXT
  5
38
330
1F
100
AcDbEntity
  8
0
  6
Continuous
 62
     7
370
     0
100
AcDbMText
 10
148.6376854125
 20
29.8861652342
 30
0.0
 40
4.2333333333
 41
0.0
 71
     1
 72
     1
  1
VFIL-50-M17
  7
SLDTEXTSTYLE0
 73
     1
 44
1.0
  0
MTEXT
  5
39
330
1F
100
AcDbEntity
  8
0
  6
Continuous
 62
     7
370
     0
100
AcDbMText
 10
145.0404326081
 20
43.4099788511
 30
0.0
 40
4.2333333333
 41
0.0
 71
     1
 72
     1
  1
吸着金具ラージ
  7
SLDTEXTSTYLE0
 73
     1
 44
1.0
  0
MTEXT
  5
3A
330
1F
100
AcDbEntity
  8
0
  6
Continuous
 62
     7
370
     0
100
AcDbMText
 10
155.4367453077
 20
16.2918259049
 30
0.0
 40
4.2333333333
 41
0.0
 71
     1
 72
     1
  1
210889
  7
SLDTEXTSTYLE0
 73
     1
 44
1.0
  0
LINE
  5
3B
330
1F
100
AcDbEntity
  8
0
  6
Continuous
 62
     7
370
    30
100
AcDbLine
 10
92.5892531794
 20
191.8858587273
 30
0.0
 11
92.6987869836
 21
191.7939489527
 31
0.0
  0
LINE
  5
3C
330
1F
100
AcDbEntity
  8
0
  6
Continuous
 62
     7
370
    30
100
AcDbLine
 10
116.4797193753
 20
191.7939489527
 30
0.0
 11
116.5892531794
 21
191.8858587273
 31
0.0
  0
LINE
  5
3D
330
1F
100
AcDbEntity
  8
0
  6
Continuous
 62
     7
370
    30
100
AcDbLine
 10
96.0892531794
 20
191.7939489527
 30
0.0
 11
96.0892531794
 21
190.6155914479
 31
0.0
  0
LINE
  5
3E
330
1F
100
AcDbEntity
  8
0
  6
Continuous
 62
     7
370
    30
100
AcDbLine
 10
96.0892531794
 20
189.2185963546
 30
0.0
 11
96.0892531794
 21
183.4344550357
 31
0.0
  0
LINE
  5
3F
330
1F
100
AcDbEntity
  8
0
  6
Continuous
 62
     7
370
    30
100
AcDbLine
 10
96.0892531794
 20
181.9969274821
 30
0.0
 11
96.0892531794
 21
176.7939489527
 31
0.0
  0
LINE
  5
40
330
1F
100
AcDbEntity
  8
0
  6
Continuous
 62
     7
370
    30
100
AcDbLine
 10
113.0892531794
 20
176.7939489527
 30
0.0
 11
113.0892531794
 21
177.0139895018
 31
0.0
  0
LINE
  5
41
330
1F
100
AcDbEntity
  8
0
  6
Continuous
 62
     7
370
    30
100
AcDbLine
 10
113.0892531794
 20
178.4495836629
 30
0.0
 11
113.0892531794
 21
184.5709738679
 31
0.0
  0
LINE
  5
42
330
1F
100
AcDbEntity
  8
0
  6
Continuous
 62
     7
370
    30
100
AcDbLine
 10
113.0892531794
 20
186.0063764032
 30
0.0
 11
113.0892531794
 21
189.8990860521
 31
0.0
  0
LINE
  5
43
330
1F
100
AcDbEntity
  8
0
  6
Continuous
 62
     7
370
    30
100
AcDbLine
 10
113.0892531794
 20
191.300220123
 30
0.0
 11
113.0892531794
 21
191.7939489527
 31
0.0
  0
LINE
  5
44
330
1F
100
AcDbEntity
  8
0
  6
Continuous
 62
     7
370
    30
100
AcDbLine
 10
98.5892531794
 20
92.2939489527
 30
0.0
 11
99.0892531794
 21
91.7939489527
 31
0.0
  0
LINE
  5
45
330
1F
100
AcDbEntity
  8
0
  6
Continuous
 62
     7
370
    30
100
AcDbLine
 10
110.0892531794
 20
91.7939489527
 30
0.0
 11
110.5892531794
 21
92.2939489527
 31
0.0
  0
LINE
  5
46
330
1F
100
AcDbEntity
  8
0
  6
Continuous
 62
     7
370
    30
100
AcDbLine
 10
98.5892531794
 20
176.7939489527
 30
0.0
 11
98.5892531794
 21
176.346488418
 31
0.0
  0
LINE
  5
47
330
1F
100
AcDbEntity
  8
0
  6
Continuous
 62
     7
370
    30
100
AcDbLine
 10
98.5892531794
 20
174.9410585703
 30
0.0
 11
98.5892531794
 21
168.7918306514
 31
0.0
  0
LINE
  5
48
330
1F
100
AcDbEntity
  8
0
  6
Continuous
 62
     7
370
    30
100
AcDbLine
 10
98.5892531794
 20
167.3840729574
 30
0.0
 11
98.5892531794
 21
161.2356645797
 31
0.0
  0
LINE
  5
49
330
1F
100
AcDbEntity
  8
0
  6
Continuous
 62
     7
370
    30
100
AcDbLine
 10
98.5892531794
 20
159.8292338848
 30
0.0
 11
98.5892531794
 21
153.6799389252
 31
0.0
  0
LINE
  5
4A
330
1F
100
AcDbEntity
  8
0
  6
Continuous
 62
     7
370
    30
100
AcDbLine
 10
98.5892531794
 20
152.2736369976
 30
0.0
 11
98.5892531794
 21
146.1243163
 31
0.0
  0
LINE
  5
4B
330
1F
100
AcDbEntity
  8
0
  6
Continuous
 62
     7
370
    30
100
AcDbLine
 10
98.5892531794
 20
144.7182646683
 30
0.0
 11
98.5892531794
 21
138.5692030471
 31
0.0
  0
LINE
  5
4C
330
1F
100
AcDbEntity
  8
0
  6
Continuous
 62
     7
370
    30
100
AcDbLine
 10
98.5892531794
 20
137.1633586452
 30
0.0
 11
98.5892531794
 21
131.0138894307
 31
0.0
  0
LINE
  5
4D
330
1F
100
AcDbEntity
  8
0
  6
Continuous
 62
     7
370
    30
100
AcDbLine
 10
98.5892531794
 20
129.6073767944
 30
0.0
 11
98.5892531794
 21
126.7939489527
 31
0.0
  0
LINE
  5
4E
330
1F
100
AcDbEntity
  8
0
  6
Continuous
 62
     7
370
    30
100
AcDbLine
 10
110.5892531794
 20
126.7939489527
 30
0.0
 11
110.5892531794
 21
131.2174624482
 31
0.0
  0
LINE
  5
4F
330
1F
100
AcDbEntity
  8
0
  6
Continuous
 62
     7
370
    30
100
AcDbLine
 10
110.5892531794
 20
132.6240357437
 30
0.0
 11
110.5892531794
 21
138.7728563546
 31
0.0
  0
LINE
  5
50
330
1F
100
AcDbEntity
  8
0
  6
Continuous
 62
     7
370
    30
100
AcDbLine
 10
110.5892531794
 20
140.1797891828
 30
0.0
 11
110.5892531794
 21
146.3289917438
 31
0.0
  0
LINE
  5
51
330
1F
100
AcDbEntity
  8
0
  6
Continuous
 62
     7
370
    30
100
AcDbLine
 10
110.5892531794
 20
147.7362226405
 30
0.0
 11
110.5892531794
 21
153.8853273766
 31
0.0
  0
LINE
  5
52
330
1F
100
AcDbEntity
  8
0
  6
Continuous
 62
     7
370
    30
100
AcDbLine
 10
110.5892531794
 20
155.2910099419
 30
0.0
 11
110.5892531794
 21
161.4398715098
 31
0.0
  0
LINE
  5
53
330
1F
100
AcDbEntity
  8
0
  6
Continuous
 62
     7
370
    30
100
AcDbLine
 10
110.5892531794
 20
162.8481666873
 30
0.0
 11
110.5892531794
 21
168.9953933458
 31
0.0
  0
LINE
  5
54
330
1F
100
AcDbEntity
  8
0
  6
Continuous
 62
     7
370
    30
100
AcDbLine
 10
110.5892531794
 20
170.4021224702
 30
0.0
 11
110.5892531794
 21
176.5513776662
 31
0.0
  0
LINE
  5
55
330
1F
100
AcDbEntity
  8
0
  6
Continuous
 62
     7
370
    30
100
AcDbLine
 10
98.5892531794
 20
93.7939489527
 30
0.0
 11
98.5892531794
 21
92.2939489527
 31
0.0
  0
LINE
  5
56
330
1F
100
AcDbEntity
  8
0
  6
Continuous
 62
     7
370
    30
100
AcDbLine
 10
110.5892531794
 20
92.2939489527
 30
0.0
 11
110.5892531794
 21
93.7939489527
 31
0.0
  0
LINE
  5
57
330
1F
100
AcDbEntity
  8
0
  6
Continuous
 62
     7
370
    30
100
AcDbLine
 10
118.0982226996
 20
119.7368840508
 30
0.0
 11
118.0302153977
 21
119.7939489527
 31
0.0
  0
LINE
  5
58
330
1F
100
AcDbEntity
  8
0
  6
Continuous
 62
     7
370
    30
100
AcDbLine
 10
91.1482909612
 20
119.7939489527
 30
0.0
 11
91.0802836593
 21
119.7368840508
 31
0.0
  0
LINE
  5
59
330
1F
100
AcDbEntity
  8
0
  6
Continuous
 62
     7
370
    30
100
AcDbLine
 10
96.0892531794
 20
114.7939489527
 30
0.0
 11
96.0892531794
 21
112.339928897
 31
0.0
  0
LINE
  5
5A
330
1F
100
AcDbEntity
  8
0
  6
Continuous
 62
     7
370
    30
100
AcDbLine
 10
96.0892531794
 20
107.339928897
 30
0.0
 11
96.0892531794
 21
105.456989684
 31
0.0
  0
LINE
  5
5B
330
1F
100
AcDbEntity
  8
0
  6
Continuous
 62
     7
370
    30
100
AcDbLine
 10
96.0892531794
 20
100.456989684
 30
0.0
 11
96.0892531794
 21
95.2939489527
 31
0.0
  0
LINE
  5
5C
330
1F
100
AcDbEntity
  8
0
  6
Continuous
 62
     7
370
    30
100
AcDbLine
 10
113.0892531794
 20
95.2939489527
 30
0.0
 11
113.0892531794
 21
100.456989684
 31
0.0
  0
LINE
  5
5D
330
1F
100
AcDbEntity
  8
0
  6
Continuous
 62
     7
370
    30
100
AcDbLine
 10
113.0892531794
 20
105.456989684
 30
0.0
 11
113.0892531794
 21
107.339928897
 31
0.0
  0
LINE
  5
5E
330
1F
100
AcDbEntity
  8
0
  6
Continuous
 62
     7
370
    30
100
AcDbLine
 10
113.0892531794
 20
112.339928897
 30
0.0
 11
113.0892531794
 21
114.7939489527
 31
0.0
  0
LINE
  5
5F
330
1F
100
AcDbEntity
  8
0
  6
Continuous
 62
     7
370
    30
100
AcDbLine
 10
96.0892531794
 20
95.2939489527
 30
0.0
 11
96.5892531794
 21
94.7939489527
 31
0.0
  0
LINE
  5
60
330
1F
100
AcDbEntity
  8
0
  6
Continuous
 62
     7
370
    30
100
AcDbLine
 10
112.5892531794
 20
94.7939489527
 30
0.0
 11
113.0892531794
 21
95.2939489527
 31
0.0
  0
LINE
  5
61
330
1F
100
AcDbEntity
  8
0
  6
Continuous
 62
     7
370
    30
100
AcDbLine
 10
113.0892531794
 20
119.7939489527
 30
0.0
 11
113.0892531794
 21
119.8990919359
 31
0.0
  0
LINE
  5
62
330
1F
100
AcDbEntity
  8
0
  6
Continuous
 62
     7
370
    30
100
AcDbLine
 10
113.0892531794
 20
121.3013205373
 30
0.0
 11
113.0892531794
 21
124.1233398052
 31
0.0
  0
LINE
  5
63
330
1F
100
AcDbEntity
  8
0
  6
Continuous
 62
     7
370
    30
100
AcDbLine
 10
113.0892531794
 20
125.5603089325
 30
0.0
 11
113.0892531794
 21
126.7939489527
 31
0.0
  0
LINE
  5
64
330
1F
100
AcDbEntity
  8
0
  6
Continuous
 62
     7
370
    30
100
AcDbLine
 10
96.0892531794
 20
126.7939489527
 30
0.0
 11
96.0892531794
 21
122.9878911774
 31
0.0
  0
LINE
  5
65
330
1F
100
AcDbEntity
  8
0
  6
Continuous
 62
     7
370
    30
100
AcDbLine
 10
96.0892531794
 20
121.5599508637
 30
0.0
 11
96.0892531794
 21
120.6161423662
 31
0.0
  0
LINE
  5
66
330
1F
100
AcDbEntity
  8
0
  6
Continuous
 62
     7
370
    30
100
AcDbLine
 10
96.8392531794
 20
94.7939489527
 30
0.0
 11
96.8392531794
 21
93.7939489527
 31
0.0
  0
LINE
  5
67
330
1F
100
AcDbEntity
  8
0
  6
Continuous
 62
     7
370
    30
100
AcDbLine
 10
112.3392531794
 20
93.7939489527
 30
0.0
 11
112.3392531794
 21
94.7939489527
 31
0.0
  0
LWPOLYLINE
  5
68
330
1F
100
AcDbEntity
  8
0
  6
Continuous
 62
     7
370
    30
100
AcDbPolyline
 90
       34
 70
   128
 43
0.0
 10
95.1375697678
 20
189.1223771349
 10
95.4462753035
 20
189.1662431919
 10
96.0250890762
 20
189.2144732023
 10
96.7394936293
 20
189.2603804713
 10
97.4663002357
 20
189.2997474002
 10
98.350193508
 20
189.3412084545
 10
99.328075567
 20
189.3811396469
 10
100.4217132154
 20
189.4202380774
 10
101.6157594734
 20
189.4594973441
 10
102.7824513951
 20
189.4983414616
 10
103.8454506903
 20
189.5341850738
 10
104.8907500605
 20
189.569830998
 10
106.0591094114
 20
189.6101377821
 10
107.3047724011
 20
189.6536704485
 10
109.0731004863
 20
189.7165758223
 10
110.6273027355
 20
189.7735204605
 10
112.0026702856
 20
189.834406756
 10
113.1402026426
 20
189.90211884
 10
113.7189118378
 20
189.949909395
 10
114.148973316
 20
190.0015857891
 10
114.4677346928
 20
190.0732212138
 10
114.6912372912
 20
190.1860041867
 10
114.8839231754
 20
190.3915998729
 10
114.9591022258
 20
190.5587042877
 10
114.9891552141
 20
190.7521153252
 10
114.959644448
 20
190.9655958408
 10
114.9147717492
 20
191.0789764738
 10
114.8536461407
 20
191.1791673286
 10
114.7099004141
 20
191.3243067096
 10
114.5374179696
 20
191.4167683764
 10
114.3410630601
 20
191.4764431493
 10
114.1066292683
 20
191.521744071
 10
113.4035935168
 20
191.5971460927
 10
113.0892531794
 20
191.6194005132
  0
ARC
  5
69
330
1F
100
AcDbEntity
  8
0
  6
Continuous
 62
     7
370
    30
100
AcDbCircle
 10
95.2651764345
 20
191.8211587817
 30
0.0
 40
0.9924091801182543
100
AcDbArc
 50
181.4402752066
 51
201.1754263509
  0
ARC
  5
6A
330
1F
100
AcDbEntity
  8
0
  6
Continuous
 62
     7
370
    30
100
AcDbCircle
 10
95.9404099576
 20
193.9290564272
 30
0.0
 40
3.026648206796428
100
AcDbArc
 50
240.6860073424
 51
272.8188045066
  0
LWPOLYLINE
  5
6B
330
1F
100
AcDbEntity
  8
0
  6
Continuous
 62
     7
370
    30
100
AcDbPolyline
 90
       27
 70
   128
 43
0.0
 10
113.9304433919
 20
191.3710265234
 10
113.902886973
 20
191.3737562129
 10
113.7368490672
 20
191.3546336424
 10
113.4707890916
 20
191.3297425209
 10
113.0903197696
 20
191.3002893573
 10
112.5836155924
 20
191.2673982734
 10
111.9440880441
 20
191.2322884659
 10
111.1721368313
 20
191.1962415198
 10
110.2895021264
 20
191.1610354118
 10
109.3856525248
 20
191.1280476701
 10
108.482598103
 20
191.0955455221
 10
107.3299023091
 20
191.0546225902
 10
106.2849350348
 20
191.0180117326
 10
105.3798680188
 20
190.9866503158
 10
104.0561119165
 20
190.9413397887
 10
102.6923339359
 20
190.8953519526
 10
101.937792701
 20
190.8702174758
 10
101.0116656135
 20
190.8396347438
 10
99.9418342548
 20
190.8035757305
 10
98.7325266074
 20
190.7569004145
 10
97.884443777
 20
190.7190975602
 10
97.0439198688
 20
190.6759651187
 10
96.2572575248
 20
190.6279904643
 10
95.7345338573
 20
190.5894125376
 10
95.2953158506
 20
190.5492725053
 10
94.9614232251
 20
190.508314829
 10
94.7511105345
 20
190.4673654636
  0
LWPOLYLINE
  5
6C
330
1F
100
AcDbEntity
  8
0
  6
Continuous
 62
     7
370
    30
100
AcDbPolyline
 90
        3
 70
   128
 43
0.0
 10
94.4709055832
 20
122.3092356145
 10
94.4397683588
 20
122.2832648651
 10
94.3723687365
 20
122.1741833376
  0
LWPOLYLINE
  5
6D
330
1F
100
AcDbEntity
  8
0
  6
Continuous
 62
     7
370
    30
100
AcDbPolyline
 90
       11
 70
   128
 43
0.0
 10
94.3280361749
 20
121.4845412329
 10
94.3343324705
 20
121.4643744021
 10
94.4323398408
 20
121.302091537
 10
94.4984513679
 20
121.2301931754
 10
94.5652964658
 20
121.1747295128
 10
94.6918609961
 20
121.1004699107
 10
94.8048536186
 20
121.0574010497
 10
95.1190853578
 20
120.9926118461
 10
95.4700751987
 20
120.9494579952
 10
95.8584451771
 20
120.9154027684
 10
96.0892531794
 20
120.9006842293
  0
LWPOLYLINE
  5
6E
330
1F
100
AcDbEntity
  8
0
  6
Continuous
 62
     7
370
    30
100
AcDbPolyline
 90
       25
 70
   128
 43
0.0
 10
113.9710050859
 20
121.3822934825
 10
113.9571980845
 20
121.3850849996
 10
113.7523173443
 20
121.3593515462
 10
113.4845834597
 20
121.3328078017
 10
113.1051694309
 20
121.3022971065
 10
112.0888425988
 20
121.2399386127
 10
110.7788115147
 20
121.1799208042
 10
109.2420347187
 20
121.1228689062
 10
108.068848949
 20
121.0807924197
 10
106.9053070411
 20
121.0396936628
 10
105.8612413909
 20
121.0032911004
 10
104.4768358413
 20
120.9556693575
 10
103.0257612788
 20
120.9065292683
 10
102.2484649472
 20
120.8805407423
 10
101.2985021415
 20
120.849092182
 10
100.1967535127
 20
120.8125950751
 10
98.9468447166
 20
120.7659501085
 10
98.0624884424
 20
120.7278164318
 10
97.1803814631
 20
120.6839831571
 10
96.3502699424
 20
120.6348754896
 10
95.7965997165
 20
120.5951386828
 10
95.3304136274
 20
120.5535607717
 10
94.9757916517
 20
120.5108690856
 10
94.7528282674
 20
120.4678530877
 10
94.7528282674
 20
120.4678530877
  0
LWPOLYLINE
  5
6F
330
1F
100
AcDbEntity
  8
0
  6
Continuous
 62
     7
370
    30
100
AcDbPolyline
 90
       22
 70
   128
 43
0.0
 10
111.130300148
 20
119.7945289024
 10
111.686620895
 20
119.8189560365
 10
112.4034836248
 20
119.8559024766
 10
113.026623297
 20
119.8943389184
 10
113.5216750231
 20
119.931908676
 10
113.9750266866
 20
119.9774541104
 10
114.2590462144
 20
120.0195143937
 10
114.4405505939
 20
120.0622631939
 10
114.5718026296
 20
120.1129567138
 10
114.7777416172
 20
120.2575211736
 10
114.8921630411
 20
120.4049911503
 10
114.9433032149
 20
120.5120895093
 10
114.9849544148
 20
120.6854278429
 10
114.9699356308
 20
120.9274056569
 10
114.927958424
 20
121.0515217923
 10
114.8751244748
 20
121.1489572878
 10
114.7701349441
 20
121.2755079256
 10
114.6866020916
 20
121.3424882057
 10
114.2439731806
 20
121.5047296751
 10
113.7836906691
 20
121.5642943688
 10
113.2332853663
 20
121.6102633021
 10
113.0892531794
 20
121.6192715876
  0
LWPOLYLINE
  5
70
330
1F
100
AcDbEntity
  8
0
  6
Continuous
 62
     7
370
    30
100
AcDbPolyline
 90
       33
 70
   128
 43
0.0
 10
95.4708671764
 20
121.3396500676
 10
95.6521066171
 20
121.4255796581
 10
96.0468508693
 20
121.5492005093
 10
96.5310957821
 20
121.6719722264
 10
97.1500220751
 20
121.804994354
 10
97.9831186944
 20
121.9564877206
 10
99.0424008544
 20
122.120516879
 10
100.3757128832
 20
122.3125356585
 10
101.7886019428
 20
122.5055328234
 10
103.0469437857
 20
122.6698462049
 10
104.0950595361
 20
122.8017945362
 10
104.9099353775
 20
122.9014263107
 10
105.5869070623
 20
122.982250359
 10
106.4594953099
 20
123.0876290791
 10
107.553312797
 20
123.2267122084
 10
108.8353467659
 20
123.4005462752
 10
110.1865197922
 20
123.5986881679
 10
111.2610679958
 20
123.7703763551
 10
112.0450473365
 20
123.9065473024
 10
112.5968668829
 20
124.0122032005
 10
113.0148691992
 20
124.1040543377
 10
113.5008329059
 20
124.23004971
 10
114.0251324041
 20
124.4051683726
 10
114.452181671
 20
124.6128355248
 10
114.7465735759
 20
124.8509203099
 10
114.9384962375
 20
125.1639604673
 10
114.9573647153
 20
125.6794805021
 10
114.7997200549
 20
125.9862470698
 10
114.6263888567
 20
126.1603884576
 10
114.4538682812
 20
126.2801961508
 10
114.0106034626
 20
126.490162353
 10
113.3934078887
 20
126.6891131877
 10
113.0892531794
 20
126.7623021351
  0
ARC
  5
71
330
1F
100
AcDbEntity
  8
0
  6
Continuous
 62
     7
370
    30
100
AcDbCircle
 10
107.2627306258
 20
102.835210296
 30
0.0
 40
24.6262016691959
100
AcDbArc
 50
76.5039086324
 51
82.236718308
  0
ARC
  5
72
330
1F
100
AcDbEntity
  8
0
  6
Continuous
 62
     7
370
    30
100
AcDbCircle
 10
102.5726098027
 20
156.3810020221
 30
0.0
 40
27.82017818973974
100
AcDbArc
 50
257.461757841
 51
261.7679666474
  0
LWPOLYLINE
  5
73
330
1F
100
AcDbEntity
  8
0
  6
Continuous
 62
     7
370
    30
100
AcDbPolyline
 90
       36
 70
   128
 43
0.0
 10
95.5037706444
 20
128.9150465625
 10
95.6078707886
 20
128.9501728657
 10
95.9426686708
 20
129.0668242039
 10
96.4759123459
 20
129.2117268862
 10
97.1335027427
 20
129.3562968695
 10
97.8763160234
 20
129.4936481233
 10
98.66990372
 20
129.6202422745
 10
99.5526458985
 20
129.7508252843
 10
100.5430759256
 20
129.8914706749
 10
101.6284820225
 20
130.039693978
 10
102.7888075991
 20
130.1922335236
 10
103.9479657253
 20
130.3390919474
 10
105.0501760925
 20
130.4738705774
 10
106.0813091646
 20
130.596921938
 10
107.0593098815
 20
130.7184610999
 10
108.9362110657
 20
130.9703264257
 10
110.6537649714
 20
131.2271072041
 10
112.1583526653
 20
131.4830512424
 10
113.0229110238
 20
131.6621906124
 10
113.7609287444
 20
131.8659191534
 10
114.3702284703
 20
132.1222030742
 10
114.62837196
 20
132.2972058923
 10
114.8403779506
 20
132.5285579674
 10
114.971814436
 20
132.8370118422
 10
114.9815966367
 20
133.118432649
 10
114.913107951
 20
133.3549311033
 10
114.7020687977
 20
133.6490649972
 10
114.5582885546
 20
133.767776703
 10
114.3819540199
 20
133.877126796
 10
114.1141697503
 20
134.0038099378
 10
113.7086947908
 20
134.1506133348
 10
113.125265377
 20
134.3151561573
 10
112.3073111068
 20
134.4983527937
 10
111.5012495238
 20
134.6474348129
 10
110.757118843
 20
134.7666969866
 10
110.5892531794
 20
134.7914777364
  0
ARC
  5
74
330
1F
100
AcDbEntity
  8
0
  6
Continuous
 62
     7
370
    30
100
AcDbCircle
 10
104.1394756959
 20
172.5032697409
 30
0.0
 40
36.52588013304303
100
AcDbArc
 50
257.9762738841
 51
261.2598685825
  0
LWPOLYLINE
  5
75
330
1F
100
AcDbEntity
  8
0
  6
Continuous
 62
     7
370
    30
100
AcDbPolyline
 90
       38
 70
   128
 43
0.0
 10
95.4684789633
 20
136.4411707521
 10
95.4870686955
 20
136.4486580275
 10
95.6187700815
 20
136.5084285109
 10
95.9232129614
 20
136.6159665345
 10
96.4551558458
 20
136.7620137642
 10
97.1054141874
 20
136.9061123998
 10
97.7996289919
 20
137.0359707648
 10
98.5149298505
 20
137.1522677251
 10
99.3496424572
 20
137.2768279543
 10
100.3357973216
 20
137.418048144
 10
101.4721940682
 20
137.5742503113
 10
102.666660971
 20
137.7319983725
 10
103.788074601
 20
137.8747056313
 10
104.8093429625
 20
138.0003766636
 10
105.7161769431
 20
138.1086706967
 10
106.6028722522
 20
138.2165194613
 10
107.546627607
 20
138.3369485285
 10
108.5304608524
 20
138.4691748363
 10
109.5311199012
 20
138.611549149
 10
110.5181946015
 20
138.7612587059
 10
111.4484663237
 20
138.9130906864
 10
112.2945266331
 20
139.0639639056
 10
113.0554626496
 20
139.2253581397
 10
113.7144653865
 20
139.4061372051
 10
114.22691411
 20
139.6022158327
 10
114.5999885199
 20
139.8254039948
 10
114.8868604183
 20
140.1590379857
 10
114.9886714548
 20
140.5935827522
 10
114.9522432501
 20
140.8083884289
 10
114.8954944634
 20
140.9482145686
 10
114.830424366
 20
141.0558039859
 10
114.6485513776
 20
141.2502773994
 10
114.2967720164
 20
141.4745171619
 10
113.6134210933
 20
141.7365732856
 10
112.9108159719
 20
141.9232089641
 10
111.98828439
 20
142.1158716692
 10
111.0867925768
 20
142.2712238827
 10
110.5892531794
 20
142.3457746085
  0
ARC
  5
76
330
1F
100
AcDbEntity
  8
0
  6
Continuous
 62
     7
370
    30
100
AcDbCircle
 10
103.2866448621
 20
175.3598205828
 30
0.0
 40
31.75070330948771
100
AcDbArc
 50
257.7261813582
 51
261.4920831483
  0
LWPOLYLINE
  5
77
330
1F
100
AcDbEntity
  8
0
  6
Continuous
 62
     7
370
    30
100
AcDbPolyline
 90
       38
 70
   128
 43
0.0
 10
95.4937221361
 20
144.0138574933
 10
95.6457389059
 20
144.0739979285
 10
96.0790614509
 20
144.2178496563
 10
96.645187553
 20
144.3625036337
 10
97.268262072
 20
144.4939547964
 10
97.9316901226
 20
144.6141772603
 10
98.714292245
 20
144.7380574351
 10
99.6459579675
 20
144.875432323
 10
100.7395680949
 20
145.0298407302
 10
101.8872934912
 20
145.185329996
 10
102.9805033507
 20
145.3280011411
 10
103.9890735829
 20
145.4553140514
 10
104.8967032467
 20
145.56649547
 10
105.8268044746
 20
145.677410472
 10
106.8666456885
 20
145.8051339204
 10
108.0066989779
 20
145.9534461078
 10
109.2125806228
 20
146.120843597
 10
110.4112290588
 20
146.3000810678
 10
111.4354102343
 20
146.4664055528
 10
112.2682447473
 20
146.6143441617
 10
112.9435915606
 20
146.754243361
 10
113.3182457593
 20
146.8463219132
 10
113.6488412109
 20
146.9405272198
 10
113.9815674386
 20
147.0544000769
 10
114.3072888007
 20
147.1979614505
 10
114.5949942094
 20
147.3779554336
 10
114.7795708698
 20
147.5547623413
 10
114.8874412298
 20
147.7153951484
 10
114.9571147874
 20
147.8881130644
 10
114.9890850599
 20
148.1038936817
 10
114.9097608903
 20
148.4742831329
 10
114.6746491003
 20
148.7852425919
 10
114.1692554785
 20
149.0918598693
 10
113.4890437464
 20
149.3289388829
 10
112.5966551965
 20
149.5492237648
 10
111.7863181464
 20
149.7084798351
 10
110.8745566289
 20
149.8599056687
 10
110.5892531794
 20
149.9021073227
  0
ARC
  5
78
330
1F
100
AcDbEntity
  8
0
  6
Continuous
 62
     7
370
    30
100
AcDbCircle
 10
102.6952185269
 20
179.6956654414
 30
0.0
 40
28.48052030451055
100
AcDbArc
 50
257.5147679802
 51
261.7109261918
  0
LWPOLYLINE
  5
79
330
1F
100
AcDbEntity
  8
0
  6
Continuous
 62
     7
370
    30
100
AcDbPolyline
 90
       38
 70
   128
 43
0.0
 10
95.5076711317
 20
151.5784439325
 10
95.5896104188
 20
151.606132911
 10
95.8625645891
 20
151.7068718842
 10
96.6587784324
 20
151.9211426104
 10
97.1756862538
 20
152.0313147917
 10
97.8577987346
 20
152.1571641559
 10
98.7252526458
 20
152.2952928156
 10
99.8214630108
 20
152.4562322726
 10
101.1699713575
 20
152.6444359111
 10
102.5343846854
 20
152.8259411888
 10
103.7374390193
 20
152.9794813129
 10
104.7409991963
 20
153.1032037828
 10
105.5322175632
 20
153.1980091115
 10
106.2571942063
 20
153.2849908663
 10
107.2154340806
 20
153.4051119041
 10
108.3949869827
 20
153.5616461759
 10
109.7403209015
 20
153.7535553878
 10
110.9461464529
 20
153.9407246534
 10
111.8489182814
 20
154.0936420787
 10
112.500198808
 20
154.2148219807
 10
112.96291923
 20
154.3141678223
 10
113.3890249994
 20
154.4209288175
 10
113.8461173705
 20
154.5614583241
 10
114.2936170382
 20
154.7477607666
 10
114.625870734
 20
154.9588766912
 10
114.8296845303
 20
155.1765279654
 10
114.9535747947
 20
155.4315328211
 10
114.9887723876
 20
155.6466154865
 10
114.9503655001
 20
155.9252156914
 10
114.7864477662
 20
156.225250573
 10
114.6097672599
 20
156.3962566609
 10
114.4136629717
 20
156.5264153508
 10
113.9647874129
 20
156.7294249878
 10
113.2543983627
 20
156.94839244
 10
112.4057194337
 20
157.1447875004
 10
111.5014930214
 20
157.3139824841
 10
110.6001492593
 20
157.4568748572
 10
110.5892531794
 20
157.4584689759
  0
ARC
  5
7A
330
1F
100
AcDbEntity
  8
0
  6
Continuous
 62
     7
370
    30
100
AcDbCircle
 10
102.8727108191
 20
187.944557763
 30
0.0
 40
29.19145961516427
100
AcDbArc
 50
257.4755693246
 51
261.5621410115
  0
LWPOLYLINE
  5
7B
330
1F
100
AcDbEntity
  8
0
  6
Continuous
 62
     7
370
    30
100
AcDbPolyline
 90
       36
 70
   128
 43
0.0
 10
95.5321512207
 20
159.1634480243
 10
95.5368566462
 20
159.1465555428
 10
95.7337587378
 20
159.2194626672
 10
96.1272296067
 20
159.3431319472
 10
96.6584451507
 20
159.4769999791
 10
97.2915742652
 20
159.609731458
 10
98.0020193584
 20
159.7371445358
 10
98.7666724414
 20
159.8570565744
 10
100.47407933
 20
160.1040732964
 10
102.3695166922
 20
160.3599978079
 10
103.3741070734
 20
160.4892768388
 10
104.4367538619
 20
160.6216615403
 10
105.5379076839
 20
160.7542376112
 10
106.6775354319
 20
160.8924974292
 10
107.8161281436
 20
161.0391301576
 10
108.8901098627
 20
161.1860361624
 10
109.8802436576
 20
161.3300137586
 10
110.7729294833
 20
161.4683313048
 10
111.5820836288
 20
161.6026144942
 10
112.3310553081
 20
161.737540334
 10
113.0210444148
 20
161.8839027209
 10
113.636871359
 20
162.0488891629
 10
114.1391350696
 20
162.2304019989
 10
114.5225672127
 20
162.4375094955
 10
114.8091358956
 20
162.7055982902
 10
114.9745314918
 20
163.0730536525
 10
114.9433763546
 20
163.5016500603
 10
114.7780638004
 20
163.7905302789
 10
114.6228392231
 20
163.9412738727
 10
114.4681155054
 20
164.0495335361
 10
114.1603247633
 20
164.2065733134
 10
113.6694302891
 20
164.3854127364
 10
112.9084643591
 20
164.5900815215
 10
112.1103065443
 20
164.759192182
 10
111.0905480315
 20
164.9372169475
 10
110.5892531794
 20
165.0130556558
  0
ARC
  5
7C
330
1F
100
AcDbEntity
  8
0
  6
Continuous
 62
     7
370
    30
100
AcDbCircle
 10
103.4836110076
 20
199.2039188252
 30
0.0
 40
32.94420052546458
100
AcDbArc
 50
257.8202186826
 51
261.4562199279
  0
LWPOLYLINE
  5
7D
330
1F
100
AcDbEntity
  8
0
  6
Continuous
 62
     7
370
    30
100
AcDbPolyline
 90
       40
 70
   128
 43
0.0
 10
95.4967649875
 20
166.6871693359
 10
95.5901249219
 20
166.7205621004
 10
95.9175273569
 20
166.8363719821
 10
96.3287180116
 20
166.9521910157
 10
96.7163743143
 20
167.045320906
 10
97.1980266212
 20
167.1468318542
 10
97.8952101139
 20
167.274650216
 10
98.8436835672
 20
167.42418642
 10
99.650526348
 20
167.5427640235
 10
100.5473620862
 20
167.6698426985
 10
101.4031515404
 20
167.7871584207
 10
102.5549896618
 20
167.9397301894
 10
103.5045126665
 20
168.0613155311
 10
104.2289676741
 20
168.1516760499
 10
104.9613611938
 20
168.2409613994
 10
105.871240434
 20
168.3493948993
 10
106.966422936
 20
168.4844270822
 10
108.2307440227
 20
168.6503526509
 10
109.5515625336
 20
168.8367757843
 10
110.7091780858
 20
169.0137246242
 10
111.6815996308
 20
169.1754923465
 10
112.4763299005
 20
169.3214352735
 10
113.1272569064
 20
169.4646136567
 10
113.8084552693
 20
169.6589052641
 10
114.3412753486
 20
169.8819653377
 10
114.7570250833
 20
170.1954012911
 10
114.8972512149
 20
170.4016556619
 10
114.9829142475
 20
170.6826685138
 10
114.9752645483
 20
170.9368489019
 10
114.9194406976
 20
171.1193600723
 10
114.7676298612
 20
171.3570867836
 10
114.5233851808
 20
171.566869572
 10
114.1455166504
 20
171.7668996947
 10
113.689755101
 20
171.9346195568
 10
113.2359758093
 20
172.0650277678
 10
112.8189935905
 20
172.1667187344
 10
112.3042550538
 20
172.2768227036
 10
111.5779710855
 20
172.4120090312
 10
110.6063982096
 20
172.5670460319
 10
110.5892531794
 20
172.5695355132
  0
ARC
  5
7E
330
1F
100
AcDbEntity
  8
0
  6
Continuous
 62
     7
370
    30
100
AcDbCircle
 10
103.2700322643
 20
205.4508834211
 30
0.0
 40
31.61879542279984
100
AcDbArc
 50
257.7025014357
 51
261.4867647423
  0
LWPOLYLINE
  5
7F
330
1F
100
AcDbEntity
  8
0
  6
Continuous
 62
     7
370
    30
100
AcDbPolyline
 90
       37
 70
   128
 43
0.0
 10
95.4811969711
 20
174.2297673348
 10
95.4796568827
 20
174.22713077
 10
95.579842287
 20
174.2698437902
 10
95.9075749513
 20
174.3884965265
 10
96.4572203061
 20
174.5401871533
 10
97.0968751412
 20
174.682142109
 10
97.7642522207
 20
174.8075859382
 10
98.4890830295
 20
174.9260998966
 10
99.3481634023
 20
175.0543886436
 10
100.3640694154
 20
175.1997902447
 10
101.5231512524
 20
175.3588850362
 10
102.6772297597
 20
175.5111446206
 10
103.7558728334
 20
175.6484551073
 10
104.7349117576
 20
175.7691313389
 10
105.619152345
 20
175.8749483362
 10
106.555732403
 20
175.9884369333
 10
107.5756668142
 20
176.118527993
 10
108.656784184
 20
176.264463042
 10
109.7662057869
 20
176.4240742865
 10
110.8312183728
 20
176.5888031987
 10
111.7628710468
 20
176.7451727466
 10
112.5568307231
 20
176.8930917717
 10
113.2340381084
 20
177.0468659687
 10
113.7960743503
 20
177.2102461257
 10
114.1373536253
 20
177.3397176346
 10
114.4513858192
 20
177.5005469891
 10
114.7191290391
 20
177.7097213891
 10
114.8699055186
 20
177.90617126
 10
114.9631260351
 20
178.1329110193
 10
114.9703799774
 20
178.5167189793
 10
114.8891023858
 20
178.7383613985
 10
114.7767523843
 20
178.9027993079
 10
114.5661939966
 20
179.0933302874
 10
114.2055683991
 20
179.2973165569
 10
113.7425749544
 20
179.4737441209
 10
113.1947376417
 20
179.6312446785
 10
113.0892531794
 20
179.6557451228
  0
LWPOLYLINE
  5
80
330
1F
100
AcDbEntity
  8
0
  6
Continuous
 62
     7
370
    30
100
AcDbPolyline
 90
       36
 70
   128
 43
0.0
 10
95.5135830205
 20
181.8106119847
 10
95.5121734138
 20
181.7946982523
 10
95.7384767235
 20
181.8865685996
 10
96.136555973
 20
182.0118095625
 10
96.6089660868
 20
182.1318558882
 10
97.1146125139
 20
182.241281154
 10
97.7259181284
 20
182.3564318375
 10
98.5101422906
 20
182.4849032025
 10
99.5006346934
 20
182.6321734057
 10
100.7366695795
 20
182.8072173593
 10
102.1662586733
 20
182.9999958474
 10
103.488945702
 20
183.1704636944
 10
104.6189440638
 20
183.3105867639
 10
105.5347798958
 20
183.4205345102
 10
106.2500189604
 20
183.5063363915
 10
107.0400855687
 20
183.6049000364
 10
108.0330599486
 20
183.7347625173
 10
109.1965377836
 20
183.8963159084
 10
110.4368030428
 20
184.0818474337
 10
111.4832317401
 20
184.2523182
 10
112.5387784205
 20
184.4448412017
 10
113.3004096676
 20
184.6193570687
 10
113.9772823731
 20
184.8309941616
 10
114.3048127989
 20
184.975504295
 10
114.559056799
 20
185.1298558356
 10
114.7264252761
 20
185.2736752413
 10
114.8685359441
 20
185.4593210459
 10
114.9520045814
 20
185.6485840802
 10
114.9837178991
 20
185.990652687
 10
114.9282189922
 20
186.2093055324
 10
114.8077621264
 20
186.4206265524
 10
114.6018142266
 20
186.6242956476
 10
114.3512008655
 20
186.7825967001
 10
114.0459423642
 20
186.9208619239
 10
113.4605422753
 20
187.1145618935
 10
113.0892531794
 20
187.2076685731
  0
ARC
  5
81
330
1F
100
AcDbEntity
  8
0
  6
Continuous
 62
     7
370
    30
100
AcDbCircle
 10
95.0028620096
 20
186.9525328439
 30
0.0
 40
3.028107883404874
100
AcDbArc
 50
68.9753860319
 51
78.03362904
  0
LINE
  5
82
330
1F
100
AcDbEntity
  8
0
  6
Continuous
 62
     7
370
    30
100
AcDbLine
 10
94.4336525875
 20
190.2731698223
 30
0.0
 11
94.3616189358
 21
190.1594499144
 31
0.0
  0
LWPOLYLINE
  5
83
330
1F
100
AcDbEntity
  8
0
  6
Continuous
 62
     7
370
    30
100
AcDbPolyline
 90
       11
 70
   128
 43
0.0
 10
94.2462004853
 20
189.8107289039
 10
94.2452004817
 20
189.8054546079
 10
94.2724761926
 20
189.5523855466
 10
94.3540251191
 20
189.3062867631
 10
94.471754622
 20
189.0906975751
 10
94.6752780612
 20
188.8922548895
 10
94.8860187703
 20
188.7604821965
 10
95.1230681674
 20
188.6467772002
 10
95.3558346902
 20
188.5560201931
 10
95.858483625
 20
188.4024194835
 10
96.0892531794
 20
188.3457526082
  0
LWPOLYLINE
  5
84
330
1F
100
AcDbEntity
  8
0
  6
Continuous
 62
     7
370
    30
100
AcDbPolyline
 90
       35
 70
   128
 43
0.0
 10
113.6919419412
 20
186.2151851114
 10
113.6927468484
 20
186.2165383827
 10
113.5976842645
 20
186.1748361382
 10
113.2854290892
 20
186.0601830926
 10
112.7668279225
 20
185.9179423254
 10
112.1640311981
 20
185.7878087259
 10
111.5235188302
 20
185.6699689078
 10
110.8004327887
 20
185.5469547367
 10
109.9294210441
 20
185.4089467958
 10
108.9076713221
 20
185.2579668286
 10
107.753008682
 20
185.0987417824
 10
106.6143351073
 20
184.9517547531
 10
105.2301785556
 20
184.7843689196
 10
103.9941659968
 20
184.6337650724
 10
102.741933765
 20
184.4754906986
 10
101.7197455613
 20
184.3418735835
 10
100.6516070286
 20
184.1976341264
 10
99.5690522103
 20
184.0459633849
 10
98.5329049431
 20
183.894508409
 10
97.5998024676
 20
183.7451580206
 10
96.7634488894
 20
183.5874904667
 10
96.0428012825
 20
183.4239109371
 10
95.4498526297
 20
183.2560192177
 10
94.966456121
 20
183.0727302776
 10
94.577998325
 20
182.8468020619
 10
94.3123341977
 20
182.5563936514
 10
94.1923213842
 20
182.1884553182
 10
94.2043876912
 20
181.9596746627
 10
94.2638360252
 20
181.7712137137
 10
94.3538650221
 20
181.613571821
 10
94.5074289459
 20
181.441707227
 10
94.761735465
 20
181.2581264511
 10
95.0806519146
 20
181.1009172369
 10
95.5787224847
 20
180.9255650489
 10
96.0892531794
 20
180.7887262642
  0
LWPOLYLINE
  5
85
330
1F
100
AcDbEntity
  8
0
  6
Continuous
 62
     7
370
    30
100
AcDbPolyline
 90
       39
 70
   128
 43
0.0
 10
113.6695487748
 20
178.6436555368
 10
113.6705398902
 20
178.6522474963
 10
113.5789437572
 20
178.61211469
 10
113.2726932017
 20
178.5009479847
 10
112.8634447591
 20
178.3863559319
 10
112.3990871333
 20
178.2799026817
 10
111.8851131734
 20
178.1796189946
 10
111.2081028944
 20
178.0596541232
 10
110.3224158913
 20
177.9144700802
 10
109.2048151997
 20
177.7452617877
 10
107.8506076147
 20
177.5562299079
 10
106.4648877101
 20
177.3775833153
 10
105.2592460713
 20
177.2322876124
 10
104.2317014004
 20
177.1075829733
 10
103.3962080162
 20
177.0033543322
 10
102.6763995073
 20
176.9114897764
 10
101.7741810117
 20
176.7935378374
 10
100.689380351
 20
176.6472661827
 10
99.472685666
 20
176.4766057476
 10
98.3202275903
 20
176.306864687
 10
97.376736238
 20
176.1501987613
 10
96.6167481002
 20
176.0012883731
 10
96.0259362708
 20
175.8642810602
 10
95.5078352705
 20
175.718816694
 10
94.9913778568
 20
175.5266135296
 10
94.5906855666
 20
175.298295539
 10
94.3783225132
 20
175.0961291762
 10
94.3012912922
 20
174.9821615388
 10
94.2451679571
 20
174.8632524027
 10
94.1967279957
 20
174.6739399657
 10
94.2450635894
 20
174.2616196957
 10
94.5101300979
 20
173.8830627023
 10
94.8581954472
 20
173.6483411849
 10
95.33553486
 20
173.4487766871
 10
95.9666702117
 20
173.2638243042
 10
96.7081246057
 20
173.0981068384
 10
97.5344936081
 20
172.9466808654
 10
98.4482133628
 20
172.7948452565
 10
98.5892531794
 20
172.7731242601
  0
ARC
  5
86
330
1F
100
AcDbEntity
  8
0
  6
Continuous
 62
     7
370
    30
100
AcDbCircle
 10
107.702647077
 20
149.9805605612
 30
0.0
 40
21.37813858836759
100
AcDbArc
 50
76.6377112506
 51
82.2398724318
  0
LWPOLYLINE
  5
87
330
1F
100
AcDbEntity
  8
0
  6
Continuous
 62
     7
370
    30
100
AcDbPolyline
 90
       39
 70
   128
 43
0.0
 10
113.6312750037
 20
171.0516115677
 10
113.6103615269
 20
171.0668018241
 10
113.2965628759
 20
170.9522006158
 10
112.7922538189
 20
170.8123148768
 10
112.1829041433
 20
170.6799354728
 10
111.4976382382
 20
170.5541937125
 10
110.7459132227
 20
170.4269107097
 10
109.9546886743
 20
170.3017156489
 10
109.128742759
 20
170.1786579122
 10
107.4064075058
 20
169.9418955682
 10
105.6720748065
 20
169.7257811499
 10
104.7273135801
 20
169.6126555592
 10
103.6860637951
 20
169.4842478898
 10
102.5635695504
 20
169.3413571034
 10
101.4127497232
 20
169.1898062158
 10
100.3547008619
 20
169.0455077125
 10
99.4099020695
 20
168.9120290113
 10
98.5824058836
 20
168.7908277453
 10
97.8409780037
 20
168.674987629
 10
97.0456916588
 20
168.532772803
 10
96.2239723191
 20
168.356980806
 10
95.7009517725
 20
168.2205939773
 10
95.286921081
 20
168.089068145
 10
94.9908089571
 20
167.9722676096
 10
94.7819290474
 20
167.869073217
 10
94.6344431344
 20
167.7777743936
 10
94.5182526084
 20
167.6874717905
 10
94.3071281051
 20
167.4356143574
 10
94.2187893139
 20
167.2258831267
 10
94.1908673993
 20
166.9556137865
 10
94.2509211179
 20
166.6915306949
 10
94.3724221254
 20
166.4808070565
 10
94.7229899807
 20
166.1726569363
 10
95.1551842914
 20
165.9603583388
 10
95.6536895844
 20
165.7931220114
 10
96.2310695464
 20
165.6445822586
 10
96.8776699427
 20
165.5096599506
 10
98.3565315638
 20
165.2539828903
 10
98.5892531794
 20
165.2187649294
  0
ARC
  5
88
330
1F
100
AcDbEntity
  8
0
  6
Continuous
 62
     7
370
    30
100
AcDbCircle
 10
107.7371018547
 20
142.5819415219
 30
0.0
 40
21.21738946596025
100
AcDbArc
 50
76.6190372292
 51
82.2746180432
  0
LWPOLYLINE
  5
89
330
1F
100
AcDbEntity
  8
0
  6
Continuous
 62
     7
370
    30
100
AcDbPolyline
 90
       38
 70
   128
 43
0.0
 10
113.7125635619
 20
163.5654547473
 10
113.7143639819
 20
163.5684430656
 10
113.6491864229
 20
163.5326798442
 10
113.4815555898
 20
163.4609504866
 10
113.1695939184
 20
163.3575111692
 10
112.6758497172
 20
163.2292261799
 10
111.9857187899
 20
163.0867650429
 10
111.0601208015
 20
162.9233714547
 10
109.8575012426
 20
162.7312947012
 10
108.3991497424
 20
162.5198149057
 10
107.0152956852
 20
162.3357873296
 10
105.8695183256
 20
162.1938076881
 10
104.9896057702
 20
162.0888249326
 10
104.2762654002
 20
162.0019599984
 10
103.4019001831
 20
161.8929624437
 10
102.3469850602
 20
161.757683597
 10
101.1377851697
 20
161.5972355756
 10
99.8331420559
 20
161.4168518259
 10
98.6503009367
 20
161.2453248697
 10
97.6468622224
 20
161.0865392007
 10
96.7946289226
 20
160.9271357556
 10
96.0964207429
 20
160.7705192317
 10
95.5453157623
 20
160.6192596185
 10
95.1165644327
 20
160.4700336671
 10
94.7820411562
 20
160.3134874504
 10
94.519348019
 20
160.1329541079
 10
94.2600651598
 20
159.7882489926
 10
94.1910454813
 20
159.5050645055
 10
94.21402954
 20
159.2492690087
 10
94.3861629552
 20
158.9046697654
 10
94.6588623938
 20
158.656637371
 10
95.0556429433
 20
158.4452570228
 10
95.5747157563
 20
158.2604268338
 10
96.0736258971
 20
158.1255842861
 10
96.4947426837
 20
158.0303167445
 10
97.0084984516
 20
157.9293628949
 10
97.7415751958
 20
157.7999908624
 10
98.5892531794
 20
157.6622605242
  0
ARC
  5
8A
330
1F
100
AcDbEntity
  8
0
  6
Continuous
 62
     7
370
    30
100
AcDbCircle
 10
107.2820460073
 20
132.7671843769
 30
0.0
 40
23.5189926973012
100
AcDbArc
 50
76.8250438894
 51
81.9163580764
  0
LWPOLYLINE
  5
8B
330
1F
100
AcDbEntity
  8
0
  6
Continuous
 62
     7
370
    30
100
AcDbPolyline
 90
       39
 70
   128
 43
0.0
 10
113.6848425366
 20
155.9824435561
 10
113.6862101632
 20
155.9848644731
 10
113.5906558236
 20
155.945868261
 10
113.3339629585
 20
155.8530299808
 10
112.9917121945
 20
155.7529029154
 10
112.6194595807
 20
155.6614339896
 10
112.1374847574
 20
155.5604377779
 10
111.4486015001
 20
155.4345633811
 10
110.4891868116
 20
155.2742939364
 10
109.2276118445
 20
155.0819162232
 10
107.9525363398
 20
154.9032637659
 10
106.8563196154
 20
154.7599974906
 10
105.9845567057
 20
154.6521096641
 10
105.2859066285
 20
154.5688058405
 10
104.4215716031
 20
154.4642481666
 10
103.345352574
 20
154.3302606503
 10
102.0745449027
 20
154.1664967543
 10
100.6596668055
 20
153.9765180104
 10
99.3717190529
 20
153.7954143376
 10
98.3296688778
 20
153.641629773
 10
97.4908625813
 20
153.5039184705
 10
96.8259464207
 20
153.378165231
 10
96.2988468256
 20
153.2638195577
 10
95.8094551435
 20
153.1405489098
 10
95.3608022424
 20
153.0044198913
 10
94.9556528128
 20
152.846033209
 10
94.5255460771
 20
152.5801077743
 10
94.3325215172
 20
152.3634377322
 10
94.2224842165
 20
152.1281325663
 10
94.189358915
 20
151.909109194
 10
94.2079098023
 20
151.7202217166
 10
94.3446750752
 20
151.4051725711
 10
94.5611197834
 20
151.1732106759
 10
94.9863687419
 20
150.9196909632
 10
95.6862176057
 20
150.6722136923
 10
96.5734816389
 20
150.4584148551
 10
97.2548644488
 20
150.3291450765
 10
97.953090901
 20
150.2088761965
 10
98.5892531794
 20
150.1065475864
  0
ARC
  5
8C
330
1F
100
AcDbEntity
  8
0
  6
Continuous
 62
     7
370
    30
100
AcDbCircle
 10
107.7923294777
 20
127.724028173
 30
0.0
 40
20.95877063524781
100
AcDbArc
 50
76.6219131267
 51
82.3310664188
  0
LWPOLYLINE
  5
8D
330
1F
100
AcDbEntity
  8
0
  6
Continuous
 62
     7
370
    30
100
AcDbPolyline
 90
       38
 70
   128
 43
0.0
 10
113.6893769373
 20
148.4343900703
 10
113.6837231559
 20
148.4362368922
 10
113.5731804153
 20
148.3865138712
 10
113.3790826887
 20
148.3137197853
 10
112.9767755629
 20
148.1933706756
 10
112.4360885691
 20
148.0654169266
 10
111.7395013963
 20
147.9307612871
 10
110.8548313935
 20
147.7781378185
 10
109.7682821496
 20
147.6066519716
 10
108.5739059886
 20
147.4330237847
 10
107.4120988428
 20
147.2759732107
 10
106.3274810334
 20
147.1383821678
 10
105.3473591952
 20
147.0205803999
 10
104.4509266419
 20
146.9122885607
 10
103.487694114
 20
146.7926699419
 10
102.4275649639
 20
146.6570550824
 10
101.2932815311
 20
146.5070994423
 10
100.1351742149
 20
146.3482476847
 10
99.1055274663
 20
146.2012944744
 10
98.2311149032
 20
146.0709167188
 10
97.4836828719
 20
145.947113873
 10
96.8217457229
 20
145.8217623795
 10
95.9766850035
 20
145.6293359885
 10
95.2393311946
 20
145.4058054272
 10
94.6947294102
 20
145.148960082
 10
94.3906716851
 20
144.8859172175
 10
94.2243880607
 20
144.5782257876
 10
94.1900621449
 20
144.3039046018
 10
94.2096324234
 20
144.1568519279
 10
94.2831706141
 20
143.9549344027
 10
94.5222231432
 20
143.6528515428
 10
94.8314504837
 20
143.4406803082
 10
95.1454386828
 20
143.2963280218
 10
95.6270029172
 20
143.1335272492
 10
96.148329496
 20
142.9965994301
 10
96.8542216671
 20
142.8471220534
 10
97.7137001831
 20
142.6936201311
 10
98.5892531794
 20
142.5521164257
  0
ARC
  5
8E
330
1F
100
AcDbEntity
  8
0
  6
Continuous
 62
     7
370
    30
100
AcDbCircle
 10
107.6265675294
 20
119.3990483442
 30
0.0
 40
21.74388624602801
100
AcDbArc
 50
76.685508284
 51
82.1688766187
  0
LWPOLYLINE
  5
8F
330
1F
100
AcDbEntity
  8
0
  6
Continuous
 62
     7
370
    30
100
AcDbPolyline
 90
       39
 70
   128
 43
0.0
 10
113.6946455647
 20
140.8839585353
 10
113.6950939323
 20
140.890152873
 10
113.5857068653
 20
140.8368395826
 10
113.3478535866
 20
140.7469261427
 10
112.9746256322
 20
140.6364708093
 10
112.2714458249
 20
140.4754094491
 10
111.4425374858
 20
140.3223474778
 10
110.5051453317
 20
140.1657372762
 10
109.5042682002
 20
140.0115166893
 10
108.4872251995
 20
139.8653752928
 10
107.4892815686
 20
139.7305282088
 10
106.5377510165
 20
139.6088638134
 10
105.6517372573
 20
139.5011442607
 10
104.7355516203
 20
139.3914335659
 10
103.7046612038
 20
139.264353745
 10
102.5732255237
 20
139.1203848043
 10
101.3692445438
 20
138.9617499742
 10
100.2343941227
 20
138.8065481214
 10
99.2467457145
 20
138.6662549556
 10
98.406197732
 20
138.5421823897
 10
97.6756703006
 20
138.424942556
 10
96.9407259163
 20
138.290038621
 10
96.2137054435
 20
138.1324104874
 10
95.5538472704
 20
137.9548219783
 10
95.0901916441
 20
137.7922278784
 10
94.7900740142
 20
137.6512606944
 10
94.5962729966
 20
137.5280632245
 10
94.4226702646
 20
137.3711341697
 10
94.2265054985
 20
137.0299810149
 10
94.1895448941
 20
136.7664745619
 10
94.2508853028
 20
136.4690781095
 10
94.4185740662
 20
136.2009157143
 10
94.6400185563
 20
136.0039345334
 10
95.1471511825
 20
135.7405177324
 10
95.7177005705
 20
135.5525491709
 10
96.380906583
 20
135.3887118306
 10
97.1057574406
 20
135.245155421
 10
97.8815070316
 20
135.1097452998
 10
98.5892531794
 20
134.9951547525
  0
ARC
  5
90
330
1F
100
AcDbEntity
  8
0
  6
Continuous
 62
     7
370
    30
100
AcDbCircle
 10
107.5173069871
 20
111.415931862
 30
0.0
 40
22.18297138361457
100
AcDbArc
 50
76.65443383
 51
82.0399740552
  0
LWPOLYLINE
  5
91
330
1F
100
AcDbEntity
  8
0
  6
Continuous
 62
     7
370
    30
100
AcDbPolyline
 90
       35
 70
   128
 43
0.0
 10
113.6420719611
 20
133.2817333222
 10
113.6357289815
 20
133.2969364847
 10
113.442611047
 20
133.2237781469
 10
113.0662174632
 20
133.1057543497
 10
112.563875121
 20
132.981634595
 10
111.9697784244
 20
132.8617169929
 10
111.2881431829
 20
132.7400095809
 10
110.5232811952
 20
132.6130883498
 10
109.6912753145
 20
132.4839187415
 10
107.8743205902
 20
132.2260746962
 10
105.9395121434
 20
131.980006757
 10
104.9006424623
 20
131.8558704513
 10
103.789389224
 20
131.719388594
 10
102.622741801
 20
131.5712294848
 10
101.468047978
 20
131.4194332717
 10
100.3901564211
 20
131.2726504428
 10
99.4056952734
 20
131.1336479022
 10
98.5248155256
 20
131.0044374989
 10
97.7191158357
 20
130.8767673197
 10
96.9467573854
 20
130.73562863
 10
96.2313922092
 20
130.5810048639
 10
95.4120967626
 20
130.3541852223
 10
94.8060054409
 20
130.1024168848
 10
94.3808304429
 20
129.7633028527
 10
94.2050411407
 20
129.3905361977
 10
94.2336983081
 20
128.9601924019
 10
94.398148226
 20
128.666917062
 10
94.5542530116
 20
128.5114163356
 10
94.7730096668
 20
128.361542305
 10
95.1251360978
 20
128.1939720548
 10
95.6899463596
 20
128.0049084568
 10
96.2979386725
 20
127.8515861152
 10
97.0824345299
 20
127.6939509612
 10
98.0880749457
 20
127.5199416555
 10
98.5892531794
 20
127.4414480052
  0
LWPOLYLINE
  5
92
330
1F
100
AcDbEntity
  8
0
  6
Continuous
 62
     7
370
    30
100
AcDbPolyline
 90
       28
 70
   128
 43
0.0
 10
113.6853885094
 20
125.7646163966
 10
113.656838965
 20
125.755360064
 10
113.5260644177
 20
125.6995037126
 10
113.297022925
 20
125.6191305908
 10
112.90088924
 20
125.5069812487
 10
112.5259841272
 20
125.4183279512
 10
112.066851849
 20
125.3246868481
 10
111.3934830678
 20
125.2027225133
 10
110.4413543712
 20
125.0444366542
 10
109.1726875774
 20
124.8516997163
 10
107.8704289925
 20
124.6699987956
 10
106.7311258287
 20
124.5219633413
 10
105.8008017242
 20
124.4077938762
 10
105.0911056125
 20
124.3232565681
 10
104.3536894678
 20
124.2336996035
 10
103.3997477959
 20
124.1149126592
 10
102.2407852223
 20
123.9660509448
 10
100.9120296066
 20
123.788818071
 10
99.5545537305
 20
123.5994405658
 10
98.4362672277
 20
123.4355527429
 10
97.535976564
 20
123.2896161296
 10
96.8183836805
 20
123.1543787812
 10
96.2655718235
 20
123.0337848813
 10
95.6815861645
 20
122.881780168
 10
95.2301859896
 20
122.7337995154
 10
94.7894878984
 20
122.5366190902
 10
94.4336525875
 20
122.2731698223
 10
94.4336525875
 20
122.2731698223
  0
LINE
  5
93
330
1F
100
AcDbEntity
  8
0
  6
Continuous
 62
     7
370
    30
100
AcDbLine
 10
91.0802836593
 20
100.6244549658
 30
0.0
 11
91.2798610105
 21
100.456989684
 31
0.0
  0
LINE
  5
94
330
1F
100
AcDbEntity
  8
0
  6
Continuous
 62
     7
370
    30
100
AcDbLine
 10
117.8986453484
 20
100.456989684
 30
0.0
 11
118.0982226996
 21
100.6244549658
 31
0.0
  0
LINE
  5
95
330
1F
100
AcDbEntity
  8
0
  6
Continuous
 62
     7
370
    30
100
AcDbLine
 10
118.0892531794
 20
112.1799899363
 30
0.0
 11
117.8986453484
 21
112.339928897
 31
0.0
  0
LINE
  5
96
330
1F
100
AcDbEntity
  8
0
  6
Continuous
 62
     7
370
    30
100
AcDbLine
 10
91.2798610105
 20
112.339928897
 30
0.0
 11
91.0892531794
 21
112.1799899363
 31
0.0
  0
LINE
  5
97
330
1F
100
AcDbEntity
  8
0
  6
Continuous
 62
     7
370
    30
100
AcDbLine
 10
116.5892531794
 20
193.4345265137
 30
0.0
 11
116.5892531794
 21
191.8994681964
 31
0.0
  0
LINE
  5
98
330
1F
100
AcDbEntity
  8
0
  6
Continuous
 62
     7
370
    30
100
AcDbLine
 10
92.5892531794
 20
193.391439519
 30
0.0
 11
92.5892531794
 21
191.8994681964
 31
0.0
  0
ARC
  5
99
330
1F
100
AcDbEntity
  8
0
  6
Continuous
 62
     7
370
    30
100
AcDbCircle
 10
98.5892531794
 20
204.4382637461
 30
0.0
 40
12.52431011758615
100
AcDbArc
 50
241.4727754855
 51
298.5272245145
  0
ARC
  5
9A
330
1F
100
AcDbEntity
  8
0
  6
Continuous
 62
     7
370
    30
100
AcDbCircle
 10
110.5892531794
 20
204.4382641505
 30
0.0
 40
12.52431047284701
100
AcDbArc
 50
241.4727763689
 51
298.5272236311
  0
LINE
  5
9B
330
1F
100
AcDbEntity
  8
0
  6
Continuous
 62
     7
370
    30
100
AcDbLine
 10
92.6987869836
 20
191.7939489527
 30
0.0
 11
116.4797193753
 21
191.7939489527
 31
0.0
  0
LINE
  5
9C
330
1F
100
AcDbEntity
  8
0
  6
Continuous
 62
     7
370
    30
100
AcDbLine
 10
104.5892531794
 20
195.7939489527
 30
0.0
 11
92.5892531794
 21
195.7939489527
 31
0.0
  0
LINE
  5
9D
330
1F
100
AcDbEntity
  8
0
  6
Continuous
 62
     7
370
    30
100
AcDbLine
 10
104.5892531794
 20
193.391439519
 30
0.0
 11
104.5892531794
 21
195.7939489527
 31
0.0
  0
LINE
  5
9E
330
1F
100
AcDbEntity
  8
0
  6
Continuous
 62
     7
370
    30
100
AcDbLine
 10
104.5705666506
 20
193.4345265137
 30
0.0
 11
104.5892531794
 21
193.391439519
 31
0.0
  0
LINE
  5
9F
330
1F
100
AcDbEntity
  8
0
  6
Continuous
 62
     7
370
    30
100
AcDbLine
 10
92.5892531794
 20
193.391439519
 30
0.0
 11
92.6079397083
 21
193.4345265137
 31
0.0
  0
LINE
  5
A0
330
1F
100
AcDbEntity
  8
0
  6
Continuous
 62
     7
370
    30
100
AcDbLine
 10
92.5892531794
 20
193.391439519
 30
0.0
 11
92.5892531794
 21
195.7939489527
 31
0.0
  0
LINE
  5
A1
330
1F
100
AcDbEntity
  8
0
  6
Continuous
 62
     7
370
    30
100
AcDbLine
 10
116.5892531794
 20
195.7939489527
 30
0.0
 11
104.5892531794
 21
195.7939489527
 31
0.0
  0
LINE
  5
A2
330
1F
100
AcDbEntity
  8
0
  6
Continuous
 62
     7
370
    30
100
AcDbLine
 10
116.5892531794
 20
193.391439519
 30
0.0
 11
116.5892531794
 21
195.7939489527
 31
0.0
  0
LINE
  5
A3
330
1F
100
AcDbEntity
  8
0
  6
Continuous
 62
     7
370
    30
100
AcDbLine
 10
116.5705666506
 20
193.4345265137
 30
0.0
 11
116.5892531794
 21
193.391439519
 31
0.0
  0
LINE
  5
A4
330
1F
100
AcDbEntity
  8
0
  6
Continuous
 62
     7
370
    30
100
AcDbLine
 10
104.5892531794
 20
193.391439519
 30
0.0
 11
104.6079397083
 21
193.4345265137
 31
0.0
  0
LINE
  5
A5
330
1F
100
AcDbEntity
  8
0
  6
Continuous
 62
     7
370
    30
100
AcDbLine
 10
113.0892531794
 20
176.7939489527
 30
0.0
 11
112.044654364
 21
176.7939489527
 31
0.0
  0
LINE
  5
A6
330
1F
100
AcDbEntity
  8
0
  6
Continuous
 62
     7
370
    30
100
AcDbLine
 10
101.7734853643
 20
176.7939489527
 30
0.0
 11
96.0892531794
 21
176.7939489527
 31
0.0
  0
LINE
  5
A7
330
1F
100
AcDbEntity
  8
0
  6
Continuous
 62
     7
370
    30
100
AcDbLine
 10
110.0892531794
 20
91.7939489527
 30
0.0
 11
99.0892531794
 21
91.7939489527
 31
0.0
  0
LINE
  5
A8
330
1F
100
AcDbEntity
  8
0
  6
Continuous
 62
     7
370
    30
100
AcDbLine
 10
98.5892531794
 20
92.2939489527
 30
0.0
 11
110.5892531794
 21
92.2939489527
 31
0.0
  0
LINE
  5
A9
330
1F
100
AcDbEntity
  8
0
  6
Continuous
 62
     7
370
    30
100
AcDbLine
 10
104.5892531794
 20
114.7939489527
 30
0.0
 11
91.0892531794
 21
114.7939489527
 31
0.0
  0
LINE
  5
AA
330
1F
100
AcDbEntity
  8
0
  6
Continuous
 62
     7
370
    30
100
AcDbLine
 10
91.0892531794
 20
114.7939489527
 30
0.0
 11
91.0892531794
 21
117.9919866484
 31
0.0
  0
ARC
  5
AB
330
1F
100
AcDbEntity
  8
0
  6
Continuous
 62
     7
370
    30
100
AcDbCircle
 10
97.8392531794
 20
105.4831491482
 30
0.0
 40
14.21384942954334
100
AcDbArc
 50
61.6478803213
 51
118.3521196787
  0
LINE
  5
AC
330
1F
100
AcDbEntity
  8
0
  6
Continuous
 62
     7
370
    30
100
AcDbLine
 10
104.5892531794
 20
114.7939489527
 30
0.0
 11
104.5892531794
 21
117.9919866484
 31
0.0
  0
LINE
  5
AD
330
1F
100
AcDbEntity
  8
0
  6
Continuous
 62
     7
370
    30
100
AcDbLine
 10
111.3097342886
 20
119.7939489527
 30
0.0
 11
118.0302153977
 21
119.7939489527
 31
0.0
  0
LINE
  5
AE
330
1F
100
AcDbEntity
  8
0
  6
Continuous
 62
     7
370
    30
100
AcDbLine
 10
91.1482909612
 20
119.7939489527
 30
0.0
 11
111.3097342886
 21
119.7939489527
 31
0.0
  0
LINE
  5
AF
330
1F
100
AcDbEntity
  8
0
  6
Continuous
 62
     7
370
    30
100
AcDbLine
 10
91.0892531794
 20
117.9919866484
 30
0.0
 11
91.0892531794
 21
119.7261945929
 31
0.0
  0
LINE
  5
B0
330
1F
100
AcDbEntity
  8
0
  6
Continuous
 62
     7
370
    30
100
AcDbLine
 10
118.0892531794
 20
117.9919866484
 30
0.0
 11
118.0892531794
 21
119.7369336446
 31
0.0
  0
ARC
  5
B1
330
1F
100
AcDbEntity
  8
0
  6
Continuous
 62
     7
370
    30
100
AcDbCircle
 10
111.3392531794
 20
105.4559525716
 30
0.0
 40
14.2377895185198
100
AcDbArc
 50
61.6998543552
 51
118.3001456448
  0
LINE
  5
B2
330
1F
100
AcDbEntity
  8
0
  6
Continuous
 62
     7
370
    30
100
AcDbLine
 10
118.0892531794
 20
114.7939489527
 30
0.0
 11
118.0892531794
 21
117.9919866484
 31
0.0
  0
LINE
  5
B3
330
1F
100
AcDbEntity
  8
0
  6
Continuous
 62
     7
370
    30
100
AcDbLine
 10
118.0892531794
 20
114.7939489527
 30
0.0
 11
104.5892531794
 21
114.7939489527
 31
0.0
  0
LINE
  5
B4
330
1F
100
AcDbEntity
  8
0
  6
Continuous
 62
     7
370
    30
100
AcDbLine
 10
108.8392531794
 20
95.2939489527
 30
0.0
 11
113.0892531794
 21
95.2939489527
 31
0.0
  0
LINE
  5
B5
330
1F
100
AcDbEntity
  8
0
  6
Continuous
 62
     7
370
    30
100
AcDbLine
 10
96.0892531794
 20
95.2939489527
 30
0.0
 11
108.8392531794
 21
95.2939489527
 31
0.0
  0
LINE
  5
B6
330
1F
100
AcDbEntity
  8
0
  6
Continuous
 62
     7
370
    30
100
AcDbLine
 10
108.5892531794
 20
94.7939489527
 30
0.0
 11
96.5892531794
 21
94.7939489527
 31
0.0
  0
LINE
  5
B7
330
1F
100
AcDbEntity
  8
0
  6
Continuous
 62
     7
370
    30
100
AcDbLine
 10
112.5892531794
 20
94.7939489527
 30
0.0
 11
108.5892531794
 21
94.7939489527
 31
0.0
  0
LINE
  5
B8
330
1F
100
AcDbEntity
  8
0
  6
Continuous
 62
     7
370
    30
100
AcDbLine
 10
96.0892531794
 20
126.7939489527
 30
0.0
 11
113.0892531794
 21
126.7939489527
 31
0.0
  0
LINE
  5
B9
330
1F
100
AcDbEntity
  8
0
  6
Continuous
 62
     7
370
    30
100
AcDbLine
 10
112.3392531794
 20
93.7939489527
 30
0.0
 11
96.8392531794
 21
93.7939489527
 31
0.0
  0
ARC
  5
BA
330
1F
100
AcDbEntity
  8
0
  6
Continuous
 62
     7
370
    30
100
AcDbCircle
 10
94.9434936408
 20
189.794620524
 30
0.0
 40
0.69971032868283
100
AcDbArc
 50
105.7410673476
 51
285.9392706368
  0
ARC
  5
BB
330
1F
100
AcDbEntity
  8
0
  6
Continuous
 62
     7
370
    30
100
AcDbCircle
 10
94.9411643881
 20
191.7909423349
 30
0.0
 40
0.6962603219793523
100
AcDbArc
 50
179.7525824202
 51
0.2474175801
  0
ARC
  5
BC
330
1F
100
AcDbEntity
  8
0
  6
Continuous
 62
     7
370
    30
100
AcDbCircle
 10
94.9450699126
 20
121.794467195
 30
0.0
 40
0.7005291292784001
100
AcDbArc
 50
134.5491380169
 51
269.6805682731
  0
ARC
  5
BD
330
1F
100
AcDbEntity
  8
0
  6
Continuous
 62
     7
370
    30
100
AcDbCircle
 10
94.9405415855
 20
121.7891307014
 30
0.0
 40
0.69518202773798
100
AcDbArc
 50
270.0513303898
 51
319.7145865361
  0
ARC
  5
BE
330
1F
100
AcDbEntity
  8
0
  6
Continuous
 62
     7
370
    30
100
AcDbCircle
 10
94.94392501
 20
119.7954604769
 30
0.0
 40
0.6990160864895938
100
AcDbArc
 50
105.6355823519
 51
180.1238941819
  0
LINE
  5
BF
330
1F
100
AcDbEntity
  8
0
  6
Continuous
 62
     7
370
    30
100
AcDbLine
 10
91.0892531794
 20
102.3693523681
 30
0.0
 11
91.0892531794
 21
100.6244053719
 31
0.0
  0
ARC
  5
C0
330
1F
100
AcDbEntity
  8
0
  6
Continuous
 62
     7
370
    30
100
AcDbCircle
 10
97.8392531794
 20
114.8781898683
 30
0.0
 40
14.21384942954368
100
AcDbArc
 50
241.6478803213
 51
298.3521196787
  0
ARC
  5
C1
330
1F
100
AcDbEntity
  8
0
  6
Continuous
 62
     7
370
    30
100
AcDbCircle
 10
111.3392531794
 20
114.9084993608
 30
0.0
 40
14.24053044317214
100
AcDbArc
 50
241.7057921483
 51
298.2942078517
  0
LINE
  5
C2
330
1F
100
AcDbEntity
  8
0
  6
Continuous
 62
     7
370
    30
100
AcDbLine
 10
118.0892531794
 20
102.3693523681
 30
0.0
 11
118.0892531794
 21
100.6351444236
 31
0.0
  0
LINE
  5
C3
330
1F
100
AcDbEntity
  8
0
  6
Continuous
 62
     7
370
    30
100
AcDbLine
 10
117.8986453484
 20
100.456989684
 30
0.0
 11
91.2798610105
 21
100.456989684
 31
0.0
  0
LINE
  5
C4
330
1F
100
AcDbEntity
  8
0
  6
Continuous
 62
     7
370
    30
100
AcDbLine
 10
91.0892531794
 20
105.456989684
 30
0.0
 11
104.5892531794
 21
105.456989684
 31
0.0
  0
LINE
  5
C5
330
1F
100
AcDbEntity
  8
0
  6
Continuous
 62
     7
370
    30
100
AcDbLine
 10
104.5892531794
 20
105.456989684
 30
0.0
 11
104.5892531794
 21
102.3693523681
 31
0.0
  0
LINE
  5
C6
330
1F
100
AcDbEntity
  8
0
  6
Continuous
 62
     7
370
    30
100
AcDbLine
 10
91.0892531794
 20
105.456989684
 30
0.0
 11
91.0892531794
 21
102.3693523681
 31
0.0
  0
LINE
  5
C7
330
1F
100
AcDbEntity
  8
0
  6
Continuous
 62
     7
370
    30
100
AcDbLine
 10
118.0892531794
 20
105.456989684
 30
0.0
 11
118.0892531794
 21
102.3693523681
 31
0.0
  0
LINE
  5
C8
330
1F
100
AcDbEntity
  8
0
  6
Continuous
 62
     7
370
    30
100
AcDbLine
 10
104.5892531794
 20
105.456989684
 30
0.0
 11
118.0892531794
 21
105.456989684
 31
0.0
  0
ARC
  5
C9
330
1F
100
AcDbEntity
  8
0
  6
Continuous
 62
     7
370
    30
100
AcDbCircle
 10
111.3392531794
 20
97.9187287127
 30
0.0
 40
14.21384942954359
100
AcDbArc
 50
61.6478803213
 51
118.3521196787
  0
ARC
  5
CA
330
1F
100
AcDbEntity
  8
0
  6
Continuous
 62
     7
370
    30
100
AcDbCircle
 10
97.8392531794
 20
97.9187287127
 30
0.0
 40
14.21384942954381
100
AcDbArc
 50
61.6478803213
 51
118.3521196787
  0
LINE
  5
CB
330
1F
100
AcDbEntity
  8
0
  6
Continuous
 62
     7
370
    30
100
AcDbLine
 10
91.0892531794
 20
110.4275662129
 30
0.0
 11
91.0892531794
 21
112.1673153505
 31
0.0
  0
LINE
  5
CC
330
1F
100
AcDbEntity
  8
0
  6
Continuous
 62
     7
370
    30
100
AcDbLine
 10
118.0892531794
 20
110.4275662129
 30
0.0
 11
118.0892531794
 21
112.1673153505
 31
0.0
  0
LINE
  5
CD
330
1F
100
AcDbEntity
  8
0
  6
Continuous
 62
     7
370
    30
100
AcDbLine
 10
91.2798610105
 20
112.339928897
 30
0.0
 11
117.8986453484
 21
112.339928897
 31
0.0
  0
LINE
  5
CE
330
1F
100
AcDbEntity
  8
0
  6
Continuous
 62
     7
370
    30
100
AcDbLine
 10
104.5892531794
 20
107.339928897
 30
0.0
 11
91.0892531794
 21
107.339928897
 31
0.0
  0
LINE
  5
CF
330
1F
100
AcDbEntity
  8
0
  6
Continuous
 62
     7
370
    30
100
AcDbLine
 10
91.0892531794
 20
107.339928897
 30
0.0
 11
91.0892531794
 21
110.4275662129
 31
0.0
  0
LINE
  5
D0
330
1F
100
AcDbEntity
  8
0
  6
Continuous
 62
     7
370
    30
100
AcDbLine
 10
104.5892531794
 20
107.339928897
 30
0.0
 11
104.5892531794
 21
110.4275662129
 31
0.0
  0
LINE
  5
D1
330
1F
100
AcDbEntity
  8
0
  6
Continuous
 62
     7
370
    30
100
AcDbLine
 10
118.0892531794
 20
107.339928897
 30
0.0
 11
104.5892531794
 21
107.339928897
 31
0.0
  0
LINE
  5
D2
330
1F
100
AcDbEntity
  8
0
  6
Continuous
 62
     7
370
    30
100
AcDbLine
 10
118.0892531794
 20
107.339928897
 30
0.0
 11
118.0892531794
 21
110.4275662129
 31
0.0
  0
LINE
  5
D3
330
1F
100
AcDbEntity
  8
0
  6
HIDDEN
 62
     7
370
     0
100
AcDbLine
 10
92.5892531794
 20
193.391439519
 30
0.0
 11
92.5892531794
 21
193.4345265137
 31
0.0
  0
LINE
  5
D4
330
1F
100
AcDbEntity
  8
0
  6
HIDDEN
 62
     7
370
     0
100
AcDbLine
 10
92.6079397083
 20
193.4345265137
 30
0.0
 11
92.5892531794
 21
193.4345265137
 31
0.0
  0
LINE
  5
D5
330
1F
100
AcDbEntity
  8
0
  6
HIDDEN
 62
     7
370
     0
100
AcDbLine
 10
104.6079397083
 20
193.4345265137
 30
0.0
 11
104.5705666506
 21
193.4345265137
 31
0.0
  0
LINE
  5
D6
330
1F
100
AcDbEntity
  8
0
  6
HIDDEN
 62
     7
370
     0
100
AcDbLine
 10
116.5892531794
 20
193.4345265137
 30
0.0
 11
116.5705666506
 21
193.4345265137
 31
0.0
  0
LINE
  5
D7
330
1F
100
AcDbEntity
  8
0
  6
HIDDEN
 62
     7
370
     0
100
AcDbLine
 10
112.044654364
 20
176.7939489527
 30
0.0
 11
101.7734853643
 21
176.7939489527
 31
0.0
  0
LINE
  5
D8
330
1F
100
AcDbEntity
  8
0
  6
HIDDEN
 62
     7
370
     0
100
AcDbLine
 10
98.5892531794
 20
95.0939489527
 30
0.0
 11
110.5892531794
 21
95.0939489527
 31
0.0
  0
LINE
  5
D9
330
1F
100
AcDbEntity
  8
0
  6
HIDDEN
 62
     7
370
     0
100
AcDbLine
 10
108.9317501836
 20
99.1939489527
 30
0.0
 11
100.2467561753
 21
99.1939489527
 31
0.0
  0
LINE
  5
DA
330
1F
100
AcDbEntity
  8
0
  6
HIDDEN
 62
     7
370
     0
100
AcDbLine
 10
100.2467561753
 20
188.3939489527
 30
0.0
 11
108.9317501836
 21
188.3939489527
 31
0.0
  0
LINE
  5
DB
330
1F
100
AcDbEntity
  8
0
  6
HIDDEN
 62
     7
370
     0
100
AcDbLine
 10
100.6392531794
 20
183.8539489527
 30
0.0
 11
108.5392531794
 21
183.8539489527
 31
0.0
  0
LINE
  5
DC
330
1F
100
AcDbEntity
  8
0
  6
HIDDEN
 62
     7
370
     0
100
AcDbLine
 10
101.0892531794
 20
183.5835616741
 30
0.0
 11
108.0892531794
 21
183.5835616741
 31
0.0
  0
LINE
  5
DD
330
1F
100
AcDbEntity
  8
0
  6
HIDDEN
 62
     7
370
     0
100
AcDbLine
 10
108.5392531794
 20
103.7339489527
 30
0.0
 11
100.6392531794
 21
103.7339489527
 31
0.0
  0
LINE
  5
DE
330
1F
100
AcDbEntity
  8
0
  6
HIDDEN
 62
     7
370
     0
100
AcDbLine
 10
101.0892531794
 20
104.0043362312
 30
0.0
 11
108.0892531794
 21
104.0043362312
 31
0.0
  0
LINE
  5
DF
330
1F
100
AcDbEntity
  8
0
  6
HIDDEN
 62
     7
370
     0
100
AcDbLine
 10
103.5892531794
 20
93.7939489527
 30
0.0
 11
103.5892531794
 21
94.7939489527
 31
0.0
  0
LINE
  5
E0
330
1F
100
AcDbEntity
  8
0
  6
HIDDEN
 62
     7
370
     0
100
AcDbLine
 10
105.5892531794
 20
93.7939489527
 30
0.0
 11
105.5892531794
 21
94.7939489527
 31
0.0
  0
ARC
  5
E1
330
1F
100
AcDbEntity
  8
0
  6
HIDDEN
 62
     7
370
     0
100
AcDbCircle
 10
94.9387974404
 20
189.7932880765
 30
0.0
 40
0.6997357998914838
100
AcDbArc
 50
286.3389859884
 51
105.341351996
  0
ARC
  5
E2
330
1F
100
AcDbEntity
  8
0
  6
HIDDEN
 62
     7
370
     0
100
AcDbCircle
 10
94.9407345177
 20
121.7941690643
 30
0.0
 40
0.6983039108015782
100
AcDbArc
 50
319.3889960609
 51
125.4405035509
  0
ARC
  5
E3
330
1F
100
AcDbEntity
  8
0
  6
HIDDEN
 62
     7
370
     0
100
AcDbCircle
 10
94.9402991237
 20
119.7964188137
 30
0.0
 40
0.6971234699925202
100
AcDbArc
 50
359.7970045294
 51
105.3698300782
  0
LINE
  5
E4
330
1F
100
AcDbEntity
  8
0
  6
HIDDEN
 62
     7
370
     0
100
AcDbLine
 10
96.0892531794
 20
190.6155914479
 30
0.0
 11
96.0892531794
 21
189.2185963546
 31
0.0
  0
LINE
  5
E5
330
1F
100
AcDbEntity
  8
0
  6
HIDDEN
 62
     7
370
     0
100
AcDbLine
 10
96.0892531794
 20
183.4344550357
 30
0.0
 11
96.0892531794
 21
181.9969274821
 31
0.0
  0
LINE
  5
E6
330
1F
100
AcDbEntity
  8
0
  6
HIDDEN
 62
     7
370
     0
100
AcDbLine
 10
113.0892531794
 20
177.0139895018
 30
0.0
 11
113.0892531794
 21
178.4495836629
 31
0.0
  0
LINE
  5
E7
330
1F
100
AcDbEntity
  8
0
  6
HIDDEN
 62
     7
370
     0
100
AcDbLine
 10
113.0892531794
 20
184.5709738679
 30
0.0
 11
113.0892531794
 21
186.0063764032
 31
0.0
  0
LINE
  5
E8
330
1F
100
AcDbEntity
  8
0
  6
HIDDEN
 62
     7
370
     0
100
AcDbLine
 10
113.0892531794
 20
189.8990860521
 30
0.0
 11
113.0892531794
 21
191.300220123
 31
0.0
  0
LINE
  5
E9
330
1F
100
AcDbEntity
  8
0
  6
HIDDEN
 62
     7
370
     0
100
AcDbLine
 10
98.5892531794
 20
176.346488418
 30
0.0
 11
98.5892531794
 21
174.9410585703
 31
0.0
  0
LINE
  5
EA
330
1F
100
AcDbEntity
  8
0
  6
HIDDEN
 62
     7
370
     0
100
AcDbLine
 10
98.5892531794
 20
168.7918306514
 30
0.0
 11
98.5892531794
 21
167.3840729574
 31
0.0
  0
LINE
  5
EB
330
1F
100
AcDbEntity
  8
0
  6
HIDDEN
 62
     7
370
     0
100
AcDbLine
 10
98.5892531794
 20
161.2356645797
 30
0.0
 11
98.5892531794
 21
159.8292338848
 31
0.0
  0
LINE
  5
EC
330
1F
100
AcDbEntity
  8
0
  6
HIDDEN
 62
     7
370
     0
100
AcDbLine
 10
98.5892531794
 20
153.6799389252
 30
0.0
 11
98.5892531794
 21
152.2736369976
 31
0.0
  0
LINE
  5
ED
330
1F
100
AcDbEntity
  8
0
  6
HIDDEN
 62
     7
370
     0
100
AcDbLine
 10
98.5892531794
 20
146.1243163
 30
0.0
 11
98.5892531794
 21
144.7182646683
 31
0.0
  0
LINE
  5
EE
330
1F
100
AcDbEntity
  8
0
  6
HIDDEN
 62
     7
370
     0
100
AcDbLine
 10
98.5892531794
 20
138.5692030471
 30
0.0
 11
98.5892531794
 21
137.1633586452
 31
0.0
  0
LINE
  5
EF
330
1F
100
AcDbEntity
  8
0
  6
HIDDEN
 62
     7
370
     0
100
AcDbLine
 10
98.5892531794
 20
131.0138894307
 30
0.0
 11
98.5892531794
 21
129.6073767944
 31
0.0
  0
LINE
  5
F0
330
1F
100
AcDbEntity
  8
0
  6
HIDDEN
 62
     7
370
     0
100
AcDbLine
 10
98.5892531794
 20
126.7939489527
 30
0.0
 11
98.5892531794
 21
95.0939489527
 31
0.0
  0
LINE
  5
F1
330
1F
100
AcDbEntity
  8
0
  6
HIDDEN
 62
     7
370
     0
100
AcDbLine
 10
110.5892531794
 20
95.0939489527
 30
0.0
 11
110.5892531794
 21
126.7939489527
 31
0.0
  0
LINE
  5
F2
330
1F
100
AcDbEntity
  8
0
  6
HIDDEN
 62
     7
370
     0
100
AcDbLine
 10
110.5892531794
 20
131.2174624482
 30
0.0
 11
110.5892531794
 21
132.6240357437
 31
0.0
  0
LINE
  5
F3
330
1F
100
AcDbEntity
  8
0
  6
HIDDEN
 62
     7
370
     0
100
AcDbLine
 10
110.5892531794
 20
138.7728563546
 30
0.0
 11
110.5892531794
 21
140.1797891828
 31
0.0
  0
LINE
  5
F4
330
1F
100
AcDbEntity
  8
0
  6
HIDDEN
 62
     7
370
     0
100
AcDbLine
 10
110.5892531794
 20
146.3289917438
 30
0.0
 11
110.5892531794
 21
147.7362226405
 31
0.0
  0
LINE
  5
F5
330
1F
100
AcDbEntity
  8
0
  6
HIDDEN
 62
     7
370
     0
100
AcDbLine
 10
110.5892531794
 20
153.8853273766
 30
0.0
 11
110.5892531794
 21
155.2910099419
 31
0.0
  0
LINE
  5
F6
330
1F
100
AcDbEntity
  8
0
  6
HIDDEN
 62
     7
370
     0
100
AcDbLine
 10
110.5892531794
 20
161.4398715098
 30
0.0
 11
110.5892531794
 21
162.8481666873
 31
0.0
  0
LINE
  5
F7
330
1F
100
AcDbEntity
  8
0
  6
HIDDEN
 62
     7
370
     0
100
AcDbLine
 10
110.5892531794
 20
168.9953933458
 30
0.0
 11
110.5892531794
 21
170.4021224702
 31
0.0
  0
LINE
  5
F8
330
1F
100
AcDbEntity
  8
0
  6
HIDDEN
 62
     7
370
     0
100
AcDbLine
 10
110.5892531794
 20
176.5513776662
 30
0.0
 11
110.5892531794
 21
176.7939489527
 31
0.0
  0
LINE
  5
F9
330
1F
100
AcDbEntity
  8
0
  6
HIDDEN
 62
     7
370
     0
100
AcDbLine
 10
110.2892531794
 20
93.7939489527
 30
0.0
 11
110.2892531794
 21
95.0939489527
 31
0.0
  0
LINE
  5
FA
330
1F
100
AcDbEntity
  8
0
  6
HIDDEN
 62
     7
370
     0
100
AcDbLine
 10
98.8892531794
 20
95.0939489527
 30
0.0
 11
98.8892531794
 21
93.7939489527
 31
0.0
  0
LINE
  5
FB
330
1F
100
AcDbEntity
  8
0
  6
HIDDEN
 62
     7
370
     0
100
AcDbLine
 10
109.1627531794
 20
91.7939489527
 30
0.0
 11
108.9317501836
 21
99.1939489527
 31
0.0
  0
LINE
  5
FC
330
1F
100
AcDbEntity
  8
0
  6
HIDDEN
 62
     7
370
     0
100
AcDbLine
 10
100.2467561753
 20
99.1939489527
 30
0.0
 11
100.0157531794
 21
91.7939489527
 31
0.0
  0
LINE
  5
FD
330
1F
100
AcDbEntity
  8
0
  6
HIDDEN
 62
     7
370
     0
100
AcDbLine
 10
100.0157531794
 20
195.7939489527
 30
0.0
 11
100.2467561753
 21
188.3939489527
 31
0.0
  0
LINE
  5
FE
330
1F
100
AcDbEntity
  8
0
  6
HIDDEN
 62
     7
370
     0
100
AcDbLine
 10
108.9317501836
 20
188.3939489527
 30
0.0
 11
109.1627531794
 21
195.7939489527
 31
0.0
  0
LINE
  5
FF
330
1F
100
AcDbEntity
  8
0
  6
HIDDEN
 62
     7
370
     0
100
AcDbLine
 10
100.6392531794
 20
188.3939489527
 30
0.0
 11
100.6392531794
 21
183.8539489527
 31
0.0
  0
LINE
  5
100
330
1F
100
AcDbEntity
  8
0
  6
HIDDEN
 62
     7
370
     0
100
AcDbLine
 10
108.5392531794
 20
183.8539489527
 30
0.0
 11
108.5392531794
 21
188.3939489527
 31
0.0
  0
LINE
  5
101
330
1F
100
AcDbEntity
  8
0
  6
HIDDEN
 62
     7
370
     0
100
AcDbLine
 10
100.6392531794
 20
183.8539489527
 30
0.0
 11
101.0892531794
 21
183.5835616741
 31
0.0
  0
LINE
  5
102
330
1F
100
AcDbEntity
  8
0
  6
HIDDEN
 62
     7
370
     0
100
AcDbLine
 10
108.0892531794
 20
183.5835616741
 30
0.0
 11
108.5392531794
 21
183.8539489527
 31
0.0
  0
LINE
  5
103
330
1F
100
AcDbEntity
  8
0
  6
HIDDEN
 62
     7
370
     0
100
AcDbLine
 10
108.5392531794
 20
103.7339489527
 30
0.0
 11
108.0892531794
 21
104.0043362312
 31
0.0
  0
LINE
  5
104
330
1F
100
AcDbEntity
  8
0
  6
HIDDEN
 62
     7
370
     0
100
AcDbLine
 10
101.0892531794
 20
104.0043362312
 30
0.0
 11
100.6392531794
 21
103.7339489527
 31
0.0
  0
LINE
  5
105
330
1F
100
AcDbEntity
  8
0
  6
HIDDEN
 62
     7
370
     0
100
AcDbLine
 10
108.5392531794
 20
99.1939489527
 30
0.0
 11
108.5392531794
 21
103.7339489527
 31
0.0
  0
LINE
  5
106
330
1F
100
AcDbEntity
  8
0
  6
HIDDEN
 62
     7
370
     0
100
AcDbLine
 10
100.6392531794
 20
103.7339489527
 30
0.0
 11
100.6392531794
 21
99.1939489527
 31
0.0
  0
LINE
  5
107
330
1F
100
AcDbEntity
  8
0
  6
HIDDEN
 62
     7
370
     0
100
AcDbLine
 10
101.0892531794
 20
183.5835616741
 30
0.0
 11
101.0892531794
 21
104.0043362312
 31
0.0
  0
LINE
  5
108
330
1F
100
AcDbEntity
  8
0
  6
HIDDEN
 62
     7
370
     0
100
AcDbLine
 10
108.0892531794
 20
104.0043362312
 30
0.0
 11
108.0892531794
 21
183.5835616741
 31
0.0
  0
LINE
  5
109
330
1F
100
AcDbEntity
  8
0
  6
HIDDEN
 62
     7
370
     0
100
AcDbLine
 10
96.0892531794
 20
112.339928897
 30
0.0
 11
96.0892531794
 21
107.339928897
 31
0.0
  0
LINE
  5
10A
330
1F
100
AcDbEntity
  8
0
  6
HIDDEN
 62
     7
370
     0
100
AcDbLine
 10
96.0892531794
 20
105.456989684
 30
0.0
 11
96.0892531794
 21
100.456989684
 31
0.0
  0
LINE
  5
10B
330
1F
100
AcDbEntity
  8
0
  6
HIDDEN
 62
     7
370
     0
100
AcDbLine
 10
113.0892531794
 20
100.456989684
 30
0.0
 11
113.0892531794
 21
105.456989684
 31
0.0
  0
LINE
  5
10C
330
1F
100
AcDbEntity
  8
0
  6
HIDDEN
 62
     7
370
     0
100
AcDbLine
 10
113.0892531794
 20
107.339928897
 30
0.0
 11
113.0892531794
 21
112.339928897
 31
0.0
  0
LINE
  5
10D
330
1F
100
AcDbEntity
  8
0
  6
HIDDEN
 62
     7
370
     0
100
AcDbLine
 10
113.0892531794
 20
119.8990919359
 30
0.0
 11
113.0892531794
 21
121.3013205373
 31
0.0
  0
LINE
  5
10E
330
1F
100
AcDbEntity
  8
0
  6
HIDDEN
 62
     7
370
     0
100
AcDbLine
 10
113.0892531794
 20
124.1233398052
 30
0.0
 11
113.0892531794
 21
125.5603089325
 31
0.0
  0
LINE
  5
10F
330
1F
100
AcDbEntity
  8
0
  6
HIDDEN
 62
     7
370
     0
100
AcDbLine
 10
96.0892531794
 20
122.9878911774
 30
0.0
 11
96.0892531794
 21
121.5599508637
 31
0.0
  0
LINE
  5
110
330
1F
100
AcDbEntity
  8
0
  6
HIDDEN
 62
     7
370
     0
100
AcDbLine
 10
96.0892531794
 20
120.6161423662
 30
0.0
 11
96.0892531794
 21
119.7939489527
 31
0.0
  0
LINE
  5
111
330
1F
100
AcDbEntity
  8
0
  6
HIDDEN
 62
     7
370
     0
100
AcDbLine
 10
111.0892531794
 20
94.7939489527
 30
0.0
 11
110.5892531794
 21
95.2939489527
 31
0.0
  0
LINE
  5
112
330
1F
100
AcDbEntity
  8
0
  6
HIDDEN
 62
     7
370
     0
100
AcDbLine
 10
98.5892531794
 20
95.2939489527
 30
0.0
 11
98.0892531794
 21
94.7939489527
 31
0.0
  0
LINE
  5
113
330
1F
100
AcDbEntity
  8
0
  6
HIDDEN
 62
     7
370
     0
100
AcDbLine
 10
98.5892531794
 20
126.7939489527
 30
0.0
 11
98.5892531794
 21
95.2939489527
 31
0.0
  0
LINE
  5
114
330
1F
100
AcDbEntity
  8
0
  6
HIDDEN
 62
     7
370
     0
100
AcDbLine
 10
110.5892531794
 20
95.2939489527
 30
0.0
 11
110.5892531794
 21
126.7939489527
 31
0.0
  0
LINE
  5
115
330
1F
100
AcDbEntity
  8
0
  6
HIDDEN
 62
     7
370
     0
100
AcDbLine
 10
98.8392531794
 20
94.7939489527
 30
0.0
 11
98.8392531794
 21
93.7939489527
 31
0.0
  0
LINE
  5
116
330
1F
100
AcDbEntity
  8
0
  6
HIDDEN
 62
     7
370
     0
100
AcDbLine
 10
110.3392531794
 20
93.7939489527
 30
0.0
 11
110.3392531794
 21
94.7939489527
 31
0.0
  0
LINE
  5
117
330
1F
100
AcDbEntity
  8
0
  6
HIDDEN
 62
     7
370
     0
100
AcDbLine
 10
102.0892531794
 20
94.7939489527
 30
0.0
 11
102.0892531794
 21
93.7939489527
 31
0.0
  0
LINE
  5
118
330
1F
100
AcDbEntity
  8
0
  6
HIDDEN
 62
     7
370
     0
100
AcDbLine
 10
103.0892531794
 20
93.7939489527
 30
0.0
 11
103.0892531794
 21
94.7939489527
 31
0.0
  0
LINE
  5
119
330
1F
100
AcDbEntity
  8
0
  6
HIDDEN
 62
     7
370
     0
100
AcDbLine
 10
106.0892531794
 20
94.7939489527
 30
0.0
 11
106.0892531794
 21
93.7939489527
 31
0.0
  0
LINE
  5
11A
330
1F
100
AcDbEntity
  8
0
  6
HIDDEN
 62
     7
370
     0
100
AcDbLine
 10
107.0892531794
 20
93.7939489527
 30
0.0
 11
107.0892531794
 21
94.7939489527
 31
0.0
  0
LWPOLYLINE
  5
11B
330
1F
100
AcDbEntity
  8
0
  6
HIDDEN
 62
     7
370
     0
100
AcDbPolyline
 90
        3
 70
   128
 43
0.0
 10
95.6547407579
 20
191.7927737464
 10
95.6314129557
 20
191.6799187675
 10
95.6084360943
 20
191.6226131688
  0
LINE
  5
11C
330
1F
100
AcDbEntity
  8
0
  6
HIDDEN
 62
     7
370
     0
100
AcDbLine
 10
95.1689734002
 20
191.1431907348
 30
0.0
 11
95.1375697678
 21
191.1223771349
 31
0.0
  0
ARC
  5
11D
330
1F
100
AcDbEntity
  8
0
  6
HIDDEN
 62
     7
370
     0
100
AcDbCircle
 10
106.2292779864
 20
87.6285704016
 30
0.0
 40
104.2168508780686
100
AcDbArc
 50
86.22583094
 51
88.1940511303
  0
LWPOLYLINE
  5
11E
330
1F
100
AcDbEntity
  8
0
  6
HIDDEN
 62
     7
370
     0
100
AcDbPolyline
 90
       33
 70
   128
 43
0.0
 10
96.0892531794
 20
190.9060703103
 10
96.4809386934
 20
190.875254657
 10
97.2591098548
 20
190.830527383
 10
98.1621341632
 20
190.7891969942
 10
99.1264719863
 20
190.7521009347
 10
100.0920849381
 20
190.7170675761
 10
101.341941605
 20
190.6724449114
 10
102.4822974077
 20
190.6323282688
 10
103.4635029241
 20
190.598215098
 10
104.8003056559
 20
190.5523035838
 10
106.2436417642
 20
190.5034550619
 10
107.2483673785
 20
190.469910923
 10
108.309984423
 20
190.4349207814
 10
109.4186701231
 20
190.3972269977
 10
110.283956113
 20
190.3641464706
 10
111.1494951645
 20
190.3269166173
 10
111.9802437984
 20
190.285955206
 10
112.7143595603
 20
190.2435079407
 10
113.2522032883
 20
190.2071430052
 10
113.6035884633
 20
190.1815042324
 10
113.7967313843
 20
190.1721186879
 10
113.8651314928
 20
190.1851207593
 10
113.8637422147
 20
190.2017191285
 10
113.834515181
 20
190.2331752952
 10
113.740465962
 20
190.3314657762
 10
113.6365259223
 20
190.5119188489
 10
113.5902685654
 20
190.7254446057
 10
113.6064419618
 20
190.9162387073
 10
113.6665845628
 20
191.0805624619
 10
113.7359961809
 20
191.188771489
 10
113.8636014079
 20
191.3156137389
 10
113.9405262777
 20
191.3700277308
 10
113.9304433919
 20
191.3710265234
  0
LINE
  5
11F
330
1F
100
AcDbEntity
  8
0
  6
HIDDEN
 62
     7
370
     0
100
AcDbLine
 10
94.7528282674
 20
122.4678530877
 30
0.0
 11
94.7255083303
 21
122.4566003746
 31
0.0
  0
LWPOLYLINE
  5
120
330
1F
100
AcDbEntity
  8
0
  6
HIDDEN
 62
     7
370
     0
100
AcDbPolyline
 90
       33
 70
   128
 43
0.0
 10
96.0892531794
 20
120.9006842293
 10
96.9120145977
 20
120.8482170445
 10
97.8268843959
 20
120.8035311369
 10
98.7891005383
 20
120.7644550068
 10
99.7915830783
 20
120.7278913353
 10
100.8872952647
 20
120.6885858277
 10
102.0598987086
 20
120.647125876
 10
103.2507042657
 20
120.6055830482
 10
104.2904167129
 20
120.5697397637
 10
105.1447927664
 20
120.5405761788
 10
106.0443409345
 20
120.5101548727
 10
107.109099229
 20
120.4745365495
 10
108.2963508665
 20
120.4353605767
 10
109.5575020099
 20
120.3921275973
 10
110.4538509362
 20
120.3571337722
 10
111.2638966231
 20
120.3215201669
 10
111.9758207506
 20
120.2860624981
 10
112.5826077858
 20
120.2514931732
 10
113.476114035
 20
120.1875226349
 10
113.7602457264
 20
120.1604881966
 10
113.9056892605
 20
120.1475780926
 10
113.9017507727
 20
120.1761940177
 10
113.8450053568
 20
120.2241704167
 10
113.8046760516
 20
120.2618676457
 10
113.7337404673
 20
120.3408505588
 10
113.6411375201
 20
120.5007403167
 10
113.5897195133
 20
120.7371260197
 10
113.6105131094
 20
120.933150011
 10
113.6575342029
 20
121.0623268563
 10
113.7588188976
 20
121.2158186803
 10
113.8571993902
 20
121.307981848
 10
113.9780444952
 20
121.3808702458
 10
113.9710050859
 20
121.3822934825
  0
LWPOLYLINE
  5
121
330
1F
100
AcDbEntity
  8
0
  6
HIDDEN
 62
     7
370
     0
100
AcDbPolyline
 90
       22
 70
   128
 43
0.0
 10
113.0892531794
 20
121.6192715876
 10
112.1681548441
 20
121.6768803553
 10
110.9016565834
 20
121.7385491692
 10
109.9168081071
 20
121.7788968088
 10
108.8146576603
 20
121.8184412303
 10
107.6150622367
 20
121.8578417654
 10
106.498532595
 20
121.8949384008
 10
105.5645042776
 20
121.9263534867
 10
104.6668986543
 20
121.9568566322
 10
103.8544261768
 20
121.9847274668
 10
102.9304302967
 20
122.01672835
 10
101.9125770629
 20
122.052369421
 10
100.8446680348
 20
122.0902368662
 10
99.8231435515
 20
122.1269680651
 10
98.8770989361
 20
122.1614956069
 10
97.9962427583
 20
122.1966778422
 10
97.1811823225
 20
122.2350376012
 10
96.4614857958
 20
122.2758283626
 10
95.8700567774
 20
122.3176159059
 10
95.5153536439
 20
122.3472750906
 10
95.3965344519
 20
122.3419323838
 10
95.4531455378
 20
122.2621107264
  0
LWPOLYLINE
  5
122
330
1F
100
AcDbEntity
  8
0
  6
HIDDEN
 62
     7
370
     0
100
AcDbPolyline
 90
        3
 70
   128
 43
0.0
 10
95.4905643576
 20
121.3850898217
 10
95.3176910308
 20
121.2134855608
 10
95.1365818114
 20
121.122085881
  0
LINE
  5
123
330
1F
100
AcDbEntity
  8
0
  6
HIDDEN
 62
     7
370
     0
100
AcDbLine
 10
113.0892531794
 20
126.7623021351
 30
0.0
 11
113.0099696763
 21
126.7813801765
 31
0.0
  0
LWPOLYLINE
  5
124
330
1F
100
AcDbEntity
  8
0
  6
HIDDEN
 62
     7
370
     0
100
AcDbPolyline
 90
       13
 70
   128
 43
0.0
 10
110.5892531794
 20
127.235703249
 10
109.598562888
 20
127.3808437278
 10
108.2984655891
 20
127.5622350387
 10
107.063727665
 20
127.7273329799
 10
105.9751674201
 20
127.8678191329
 10
105.0634354708
 20
127.9820751258
 10
104.3351091388
 20
128.0711714624
 10
103.5078435713
 20
128.1700577763
 10
102.4159853069
 20
128.3036946781
 10
101.5466118247
 20
128.4159893514
 10
100.5846721151
 20
128.5469191231
 10
99.5992588877
 20
128.6893415691
 10
98.5892531794
 20
128.8474736517
  0
LWPOLYLINE
  5
125
330
1F
100
AcDbEntity
  8
0
  6
HIDDEN
 62
     7
370
     0
100
AcDbPolyline
 90
       11
 70
   128
 43
0.0
 10
96.5330940466
 20
129.2242981731
 10
96.094043663
 20
129.3330355169
 10
95.7473951667
 20
129.4422840964
 10
95.5538998813
 20
129.5208410793
 10
95.4709926066
 20
129.5642406869
 10
95.4619835018
 20
129.5680312144
 10
95.5189965808
 20
129.4935939026
 10
95.5881517913
 20
129.2651212215
 10
95.5455150538
 20
129.0131562999
 10
95.5013247549
 20
128.9142212509
 10
95.5037706444
 20
128.9150465625
  0
LWPOLYLINE
  5
126
330
1F
100
AcDbEntity
  8
0
  6
HIDDEN
 62
     7
370
     0
100
AcDbPolyline
 90
       13
 70
   128
 43
0.0
 10
110.5892531794
 20
134.7914777364
 10
109.9546251659
 20
134.8851631134
 10
109.0349158514
 20
135.0160878783
 10
108.000512622
 20
135.1582215472
 10
106.8629621352
 20
135.3091404525
 10
105.7262649869
 20
135.4548692144
 10
104.3332282463
 20
135.6269546918
 10
103.108472291
 20
135.7735740038
 10
101.9586221696
 20
135.9176500329
 10
100.2316554792
 20
136.1524637132
 10
99.3983823419
 20
136.2751104812
 10
98.6006292786
 20
136.399642323
 10
98.5892531794
 20
136.4015391797
  0
LWPOLYLINE
  5
127
330
1F
100
AcDbEntity
  8
0
  6
HIDDEN
 62
     7
370
     0
100
AcDbPolyline
 90
       10
 70
   128
 43
0.0
 10
96.5305240504
 20
136.7787155191
 10
96.5104041665
 20
136.7828922735
 10
95.9801070723
 20
136.9216051266
 10
95.6132801137
 20
137.0486347811
 10
95.51484812
 20
137.0811199385
 10
95.5541644369
 20
136.9777165078
 10
95.5855725023
 20
136.7196091794
 10
95.5240319917
 20
136.5253926392
 10
95.4629443949
 20
136.4389416271
 10
95.4684789633
 20
136.4411707521
  0
LWPOLYLINE
  5
128
330
1F
100
AcDbEntity
  8
0
  6
HIDDEN
 62
     7
370
     0
100
AcDbPolyline
 90
       13
 70
   128
 43
0.0
 10
110.5892531794
 20
142.3457746085
 10
109.9865034062
 20
142.4360899349
 10
108.7542647259
 20
142.6107122257
 10
107.6345012633
 20
142.7629229204
 10
106.6882401667
 20
142.8874161294
 10
105.9430222067
 20
142.9830099914
 10
105.1533278424
 20
143.0820559637
 10
104.1675966529
 20
143.2025014755
 10
103.0039108123
 20
143.3418578945
 10
101.6556084611
 20
143.5127222501
 10
100.260833893
 20
143.7038468776
 10
99.0892380188
 20
143.8780186104
 10
98.5892531794
 20
143.9585200997
  0
LWPOLYLINE
  5
129
330
1F
100
AcDbEntity
  8
0
  6
HIDDEN
 62
     7
370
     0
100
AcDbPolyline
 90
       12
 70
   128
 43
0.0
 10
96.5369564553
 20
144.3348489138
 10
96.4174017381
 20
144.3611955239
 10
95.9925757066
 20
144.4743243516
 10
95.6539061234
 20
144.5897338922
 10
95.5026131035
 20
144.6537137663
 10
95.5377097283
 20
144.5749340815
 10
95.5729538849
 20
144.4730646729
 10
95.5883201347
 20
144.3723306304
 10
95.5859782777
 20
144.2797415298
 10
95.5453236551
 20
144.1196880945
 10
95.4937068679
 20
144.0138514529
 10
95.4937221361
 20
144.0138574933
  0
LWPOLYLINE
  5
12A
330
1F
100
AcDbEntity
  8
0
  6
HIDDEN
 62
     7
370
     0
100
AcDbPolyline
 90
       13
 70
   128
 43
0.0
 10
110.5892531794
 20
149.9021073227
 10
109.8643302457
 20
150.0093368249
 10
108.7840313134
 20
150.1621425538
 10
107.709549946
 20
150.308449397
 10
106.6742219396
 20
150.4447904348
 10
105.7033814281
 20
150.5688644797
 10
104.8036712989
 20
150.6807396601
 10
103.8550294422
 20
150.7955110564
 10
102.8243827488
 20
150.9194425452
 10
101.7038181432
 20
151.061945578
 10
100.536958944
 20
151.2202772855
 10
99.4800678633
 20
151.3738788251
 10
98.5892531794
 20
151.5126726021
  0
LWPOLYLINE
  5
12B
330
1F
100
AcDbEntity
  8
0
  6
HIDDEN
 62
     7
370
     0
100
AcDbPolyline
 90
       10
 70
   128
 43
0.0
 10
96.5380727552
 20
151.8886592602
 10
96.006239034
 20
152.0254852429
 10
95.6335944073
 20
152.1526630412
 10
95.4926569624
 20
152.215092309
 10
95.4981643548
 20
152.1944745292
 10
95.550461566
 20
152.0967972441
 10
95.5886911245
 20
151.9206895666
 10
95.556971625
 20
151.7085579905
 10
95.4929501679
 20
151.5734694146
 10
95.5076711317
 20
151.5784439325
  0
LWPOLYLINE
  5
12C
330
1F
100
AcDbEntity
  8
0
  6
HIDDEN
 62
     7
370
     0
100
AcDbPolyline
 90
       13
 70
   128
 43
0.0
 10
110.5892531794
 20
157.4584689759
 10
109.7050427276
 20
157.5878307596
 10
108.4724689913
 20
157.7606612475
 10
107.2359944456
 20
157.9268987868
 10
106.0390274038
 20
158.0819228949
 10
105.1209944321
 20
158.1971739819
 10
104.1290161968
 20
158.3182552975
 10
103.076923718
 20
158.4440740711
 10
101.9534617202
 20
158.5849842298
 10
100.8602572634
 20
158.7308687554
 10
99.873567542
 20
158.8709899688
 10
99.0038810604
 20
159.0023883746
 10
98.5892531794
 20
159.0690784577
  0
LWPOLYLINE
  5
12D
330
1F
100
AcDbEntity
  8
0
  6
HIDDEN
 62
     7
370
     0
100
AcDbPolyline
 90
       11
 70
   128
 43
0.0
 10
96.5423710772
 20
159.4477489379
 10
96.139323765
 20
159.5428294477
 10
95.6894576417
 20
159.6860597291
 10
95.5395071367
 20
159.7499847361
 10
95.4717917485
 20
159.7861046252
 10
95.4595390582
 20
159.7928928559
 10
95.5202519545
 20
159.7138992527
 10
95.5890248492
 20
159.4342110773
 10
95.5602458289
 20
159.2752587766
 10
95.5254024517
 20
159.1876761114
 10
95.5321512207
 20
159.1634480243
  0
LWPOLYLINE
  5
12E
330
1F
100
AcDbEntity
  8
0
  6
HIDDEN
 62
     7
370
     0
100
AcDbPolyline
 90
       13
 70
   128
 43
0.0
 10
110.5892531794
 20
165.0130556558
 10
110.280195291
 20
165.0598116737
 10
109.3388990452
 20
165.1955457139
 10
108.2993478151
 20
165.3398928466
 10
106.8481810574
 20
165.5332908527
 10
105.6231527151
 20
165.6900718602
 10
104.6658664486
 20
165.8087262253
 10
103.8569145608
 20
165.9063973859
 10
102.8442362766
 20
166.0281069069
 10
101.6056358449
 20
166.1859699499
 10
100.2009768857
 20
166.3790783793
 10
98.9257247486
 20
166.570150315
 10
98.5892531794
 20
166.6253121989
  0
LWPOLYLINE
  5
12F
330
1F
100
AcDbEntity
  8
0
  6
HIDDEN
 62
     7
370
     0
100
AcDbPolyline
 90
       13
 70
   128
 43
0.0
 10
96.5330478549
 20
167.0012788694
 10
96.4749182429
 20
167.0135387461
 10
96.0256646023
 20
167.1305663953
 10
95.7236298341
 20
167.2288627942
 10
95.5477198124
 20
167.3012434805
 10
95.488056156
 20
167.3313699531
 10
95.4651768748
 20
167.3440595457
 10
95.478757358
 20
167.3276883472
 10
95.5520109988
 20
167.204089346
 10
95.5866435366
 20
166.9537037602
 10
95.5401574529
 20
166.7801346565
 10
95.4905591342
 20
166.6849496407
 10
95.4967649875
 20
166.6871693359
  0
LWPOLYLINE
  5
130
330
1F
100
AcDbEntity
  8
0
  6
HIDDEN
 62
     7
370
     0
100
AcDbPolyline
 90
       12
 70
   128
 43
0.0
 10
110.5892531794
 20
172.5695355132
 10
109.3342032164
 20
172.7517704482
 10
108.0133030507
 20
172.9342771836
 10
106.8655802499
 20
173.0865786879
 10
105.9442213684
 20
173.2050803281
 10
105.223179245
 20
173.2956093655
 10
104.3693443582
 20
173.4003599628
 10
103.3328295724
 20
173.5242787595
 10
102.1090917978
 20
173.6760496566
 10
100.7252091923
 20
173.8606581432
 10
99.4244692242
 20
174.0489407889
 10
98.5892531794
 20
174.1804735877
  0
LWPOLYLINE
  5
131
330
1F
100
AcDbEntity
  8
0
  6
HIDDEN
 62
     7
370
     0
100
AcDbPolyline
 90
       10
 70
   128
 43
0.0
 10
96.5356168039
 20
174.5575852417
 10
96.4046447172
 20
174.586513594
 10
95.9835161324
 20
174.6993443045
 10
95.6498559513
 20
174.8137167962
 10
95.4975169303
 20
174.8770728733
 10
95.5477632771
 20
174.7728666538
 10
95.589297208
 20
174.5672099266
 10
95.5576034767
 20
174.3784289099
 10
95.5018285145
 20
174.2650876456
 10
95.4811969711
 20
174.2297673348
  0
LWPOLYLINE
  5
132
330
1F
100
AcDbEntity
  8
0
  6
HIDDEN
 62
     7
370
     0
100
AcDbPolyline
 90
       28
 70
   128
 43
0.0
 10
113.0892531794
 20
179.6557451228
 10
112.5229949067
 20
179.7872676142
 10
111.7121040934
 20
179.9440246027
 10
110.7689111397
 20
180.0982293727
 10
109.6882883735
 20
180.2569003269
 10
108.6088600237
 20
180.408577426
 10
107.639632616
 20
180.5400141338
 10
106.8194042288
 20
180.6481483735
 10
106.1121293408
 20
180.7392784829
 10
105.2372650419
 20
180.8494142577
 10
104.1665994592
 20
180.9803992383
 10
102.9206341801
 20
181.1298272055
 10
101.4979964546
 20
181.3113245099
 10
100.1590048315
 20
181.4962229913
 10
99.0477902116
 20
181.6622269291
 10
98.161087396
 20
181.805181088
 10
97.4778991386
 20
181.9237793756
 10
96.9393028634
 20
182.0249148597
 10
96.4091141803
 20
182.140916369
 10
95.9218770208
 20
182.2735304336
 10
95.5785934848
 20
182.3985442874
 10
95.5039349909
 20
182.4176989251
 10
95.5619308762
 20
182.2896433641
 10
95.5889079806
 20
182.1380027748
 10
95.5871139952
 20
182.0691081175
 10
95.5747252629
 20
181.9909205261
 10
95.5158336611
 20
181.8360205565
 10
95.5135830205
 20
181.8106119847
  0
LWPOLYLINE
  5
133
330
1F
100
AcDbEntity
  8
0
  6
HIDDEN
 62
     7
370
     0
100
AcDbPolyline
 90
       19
 70
   128
 43
0.0
 10
113.0892531794
 20
187.2076685731
 10
112.7359499455
 20
187.2962650102
 10
111.9112999553
 20
187.4634101538
 10
111.0228957401
 20
187.6146330448
 10
110.0934196881
 20
187.7538642416
 10
109.1220651197
 20
187.8927716457
 10
108.1374032566
 20
188.0285877533
 10
107.1649069697
 20
188.1584854587
 10
105.9234178608
 20
188.3188300595
 10
104.7068732723
 20
188.4703784859
 10
103.3484287858
 20
188.6335212811
 10
102.227536397
 20
188.7720240891
 10
101.0422890487
 20
188.9281542598
 10
99.9489846952
 20
189.082187342
 10
98.9979213728
 20
189.2255418927
 10
98.192261071
 20
189.3555156551
 10
97.4793139304
 20
189.4790721531
 10
96.7565019773
 20
189.6177845967
 10
96.0892531794
 20
189.7790486461
  0
LWPOLYLINE
  5
134
330
1F
100
AcDbEntity
  8
0
  6
HIDDEN
 62
     7
370
     0
100
AcDbPolyline
 90
        7
 70
   128
 43
0.0
 10
95.6307024598
 20
189.9148383182
 10
95.6247921159
 20
189.9152386128
 10
95.652197847
 20
189.8575795535
 10
95.6688841413
 20
189.7550516322
 10
95.639292435
 20
189.6140989465
 10
95.5608047625
 20
189.4560152163
 10
95.4708671764
 20
189.3396500676
  0
LWPOLYLINE
  5
135
330
1F
100
AcDbEntity
  8
0
  6
HIDDEN
 62
     7
370
     0
100
AcDbPolyline
 90
       28
 70
   128
 43
0.0
 10
96.0892531794
 20
188.3457526082
 10
96.2508027918
 20
188.306083113
 10
96.6913984461
 20
188.2122154211
 10
97.2518748603
 20
188.1074762401
 10
97.965654386
 20
187.9845652624
 10
99.1109942656
 20
187.8027434552
 10
100.4658268149
 20
187.605585377
 10
101.6931779594
 20
187.4400531115
 10
102.708808729
 20
187.3111122242
 10
103.484580533
 20
187.2171394022
 10
104.2244884394
 20
187.1289655863
 10
105.1768441446
 20
187.0124340381
 10
106.3338336737
 20
186.866101265
 10
107.6644530621
 20
186.690994802
 10
109.0513473389
 20
186.499756024
 10
110.2097051858
 20
186.3317681467
 10
111.1274682497
 20
186.1897401211
 10
111.8533967699
 20
186.0605222413
 10
112.4065353098
 20
185.9466533922
 10
113.2352066894
 20
185.7326186456
 10
113.5340378114
 20
185.6286403276
 10
113.6837471917
 20
185.5669477872
 10
113.6726857946
 20
185.5975569472
 10
113.6252131828
 20
185.6982944367
 10
113.5932838611
 20
185.8295556911
 10
113.5931515511
 20
185.9609056693
 10
113.6536004229
 20
186.1507224249
 10
113.6919419412
 20
186.2151851114
  0
LWPOLYLINE
  5
136
330
1F
100
AcDbEntity
  8
0
  6
HIDDEN
 62
     7
370
     0
100
AcDbPolyline
 90
       29
 70
   128
 43
0.0
 10
96.0892531794
 20
180.7887262642
 10
96.0966303113
 20
180.7867489536
 10
96.739770828
 20
180.6471351217
 10
97.5318400202
 20
180.5026527059
 10
98.5104097747
 20
180.3404942119
 10
99.6802490384
 20
180.1622887006
 10
100.8950019648
 20
179.9908589197
 10
102.0543157654
 20
179.8378565424
 10
103.1199397175
 20
179.7052799879
 10
104.0741379987
 20
179.5914875234
 10
104.9695096338
 20
179.4825457919
 10
105.9555793504
 20
179.3589709099
 10
107.0316314848
 20
179.2196653437
 10
108.1702778917
 20
179.0667997787
 10
109.2937567888
 20
178.9097271388
 10
110.2632061131
 20
178.7682160785
 10
111.0771578799
 20
178.6424430972
 10
111.764436981
 20
178.5218582609
 10
112.3925191024
 20
178.394212904
 10
112.977389102
 20
178.2519392028
 10
113.4541554389
 20
178.1038126603
 10
113.6749736975
 20
178.0147392335
 10
113.6484721519
 20
178.0850598132
 10
113.5975079549
 20
178.2442731304
 10
113.589232419
 20
178.3413723866
 10
113.5979204307
 20
178.4371343626
 10
113.626908041
 20
178.5414987081
 10
113.6677153803
 20
178.6277618761
 10
113.6695487748
 20
178.6436555368
  0
ARC
  5
137
330
1F
100
AcDbEntity
  8
0
  6
HIDDEN
 62
     7
370
     0
100
AcDbCircle
 10
39.1670281248
 20
-315.5889286454
 30
0.0
 40
491.9639169171868
100
AcDbArc
 50
81.6524263319
 51
83.0625480591
  0
LWPOLYLINE
  5
138
330
1F
100
AcDbEntity
  8
0
  6
HIDDEN
 62
     7
370
     0
100
AcDbPolyline
 90
       10
 70
   128
 43
0.0
 10
112.6432970874
 20
170.7799544701
 10
113.1584547049
 20
170.6454547205
 10
113.5106927929
 20
170.5278720915
 10
113.673916164
 20
170.4574907486
 10
113.7152458545
 20
170.4366248228
 10
113.702173145
 20
170.4547006192
 10
113.6368436779
 20
170.5606612332
 10
113.589552921
 20
170.8048317227
 10
113.6495921361
 20
171.0383071355
 10
113.6312750037
 20
171.0516115677
  0
LWPOLYLINE
  5
139
330
1F
100
AcDbEntity
  8
0
  6
HIDDEN
 62
     7
370
     0
100
AcDbPolyline
 90
       12
 70
   128
 43
0.0
 10
98.5892531794
 20
165.2187649294
 10
100.0537956373
 20
164.9971344681
 10
101.9196450699
 20
164.7440352331
 10
102.8894129785
 20
164.6222268061
 10
103.908255623
 20
164.5002205989
 10
104.9962187139
 20
164.3681374271
 10
106.1457542444
 20
164.2235853888
 10
107.3148571954
 20
164.0710803998
 10
108.4179767589
 20
163.9216300001
 10
109.4295339214
 20
163.7791590372
 10
110.3354502783
 20
163.6462997386
 10
110.5892531794
 20
163.6067565882
  0
LWPOLYLINE
  5
13A
330
1F
100
AcDbEntity
  8
0
  6
HIDDEN
 62
     7
370
     0
100
AcDbPolyline
 90
        9
 70
   128
 43
0.0
 10
112.6473292935
 20
163.2233388159
 10
113.1381460622
 20
163.096219363
 10
113.5220872477
 20
162.9690196989
 10
113.6710272402
 20
162.9125527675
 10
113.648068811
 20
162.9795045181
 10
113.5898204184
 20
163.2039281965
 10
113.6420587684
 20
163.4614086476
 10
113.7102542986
 20
163.5616218561
 10
113.7125635619
 20
163.5654547473
  0
LWPOLYLINE
  5
13B
330
1F
100
AcDbEntity
  8
0
  6
HIDDEN
 62
     7
370
     0
100
AcDbPolyline
 90
       14
 70
   128
 43
0.0
 10
98.5892531794
 20
157.6622605242
 10
98.7552319206
 20
157.6352923728
 10
99.609681272
 20
157.5059755661
 10
100.5274857741
 20
157.3747730168
 10
101.3866116078
 20
157.2581369509
 10
102.5212130303
 20
157.1121915863
 10
103.438662406
 20
157.000373724
 10
104.1364355871
 20
156.9173410266
 10
104.8809206394
 20
156.8267957796
 10
105.8229676836
 20
156.7091461325
 10
106.948319633
 20
156.5639573945
 10
108.2210053813
 20
156.3931839881
 10
109.5087995384
 20
156.2122062924
 10
110.5892531794
 20
156.0524887171
  0
LWPOLYLINE
  5
13C
330
1F
100
AcDbEntity
  8
0
  6
HIDDEN
 62
     7
370
     0
100
AcDbPolyline
 90
       10
 70
   128
 43
0.0
 10
112.6426194406
 20
155.667124769
 10
112.8686368864
 20
155.6141619061
 10
113.3025384954
 20
155.4892017306
 10
113.5811061603
 20
155.3882418222
 10
113.7043408527
 20
155.3331087524
 10
113.6528930056
 20
155.4188480275
 10
113.5893748386
 20
155.6586891707
 10
113.6186418989
 20
155.8491454615
 10
113.6583368373
 20
155.9355242447
 10
113.6848425366
 20
155.9824435561
  0
LWPOLYLINE
  5
13D
330
1F
100
AcDbEntity
  8
0
  6
HIDDEN
 62
     7
370
     0
100
AcDbPolyline
 90
       14
 70
   128
 43
0.0
 10
98.5892531794
 20
150.1065475864
 10
98.7760867402
 20
150.076494848
 10
99.7446997111
 20
149.9306603183
 10
100.8570838437
 20
149.7738108838
 10
102.032777622
 20
149.6183915936
 10
103.1345896666
 20
149.4812861209
 10
104.1426773974
 20
149.361035311
 10
105.0691739107
 20
149.2480059452
 10
105.9835658782
 20
149.1331853913
 10
106.9694713271
 20
149.0056214851
 10
108.0061166251
 20
148.8669853778
 10
109.0644686472
 20
148.7201186196
 10
110.1042277341
 20
148.5696453546
 10
110.5892531794
 20
148.4953373361
  0
LWPOLYLINE
  5
13E
330
1F
100
AcDbEntity
  8
0
  6
HIDDEN
 62
     7
370
     0
100
AcDbPolyline
 90
       10
 70
   128
 43
0.0
 10
112.6416826887
 20
148.1140708404
 10
113.1732394486
 20
147.9739292342
 10
113.5493406433
 20
147.8452714418
 10
113.7029035779
 20
147.7780746392
 10
113.6616430471
 20
147.8477501651
 10
113.589812271
 20
148.0915442064
 10
113.6056427853
 20
148.2502515106
 10
113.6512187103
 20
148.3673473826
 10
113.6944195093
 20
148.4327429014
 10
113.6893769373
 20
148.4343900703
  0
ARC
  5
13F
330
1F
100
AcDbEntity
  8
0
  6
HIDDEN
 62
     7
370
     0
100
AcDbCircle
 10
45.4019974698
 20
-298.8631031722
 30
0.0
 40
444.6080074207408
100
AcDbArc
 50
81.5690513933
 51
83.1294064716
  0
LWPOLYLINE
  5
140
330
1F
100
AcDbEntity
  8
0
  6
HIDDEN
 62
     7
370
     0
100
AcDbPolyline
 90
       12
 70
   128
 43
0.0
 10
112.6340948202
 20
140.5584731831
 10
112.9718477676
 20
140.4754759661
 10
113.3744321481
 20
140.354577477
 10
113.6289580721
 20
140.2614203306
 10
113.6767856521
 20
140.2444853044
 10
113.6858106957
 20
140.2493634284
 10
113.6632550139
 20
140.289574848
 10
113.6278450276
 20
140.361361994
 10
113.5942221486
 20
140.4890835485
 10
113.6009905627
 20
140.6752816815
 10
113.6941203456
 20
140.8767024715
 10
113.6946455647
 20
140.8839585353
  0
ARC
  5
141
330
1F
100
AcDbEntity
  8
0
  6
HIDDEN
 62
     7
370
     0
100
AcDbCircle
 10
72.196542456
 20
-107.2482788402
 30
0.0
 40
243.676950691124
100
AcDbArc
 50
80.934946992
 51
83.7820821345
  0
LWPOLYLINE
  5
142
330
1F
100
AcDbEntity
  8
0
  6
HIDDEN
 62
     7
370
     0
100
AcDbPolyline
 90
       11
 70
   128
 43
0.0
 10
112.6376606057
 20
132.9998656607
 10
113.0038842521
 20
132.9118576248
 10
113.476134702
 20
132.763248584
 10
113.6766831126
 20
132.6781564999
 10
113.7160497251
 20
132.6579175194
 10
113.7078201789
 20
132.6701672206
 10
113.658734726
 20
132.7400727293
 10
113.5991944145
 20
132.9017632726
 10
113.6045629334
 20
133.1348899665
 10
113.6502425175
 20
133.2621497347
 10
113.6420719611
 20
133.2817333222
  0
LWPOLYLINE
  5
143
330
1F
100
AcDbEntity
  8
0
  6
HIDDEN
 62
     7
370
     0
100
AcDbPolyline
 90
       25
 70
   128
 43
0.0
 10
98.5892531794
 20
127.4414480052
 10
99.3542032772
 20
127.3216428713
 10
100.8505723375
 20
127.1080331047
 10
102.2540128255
 20
126.9235579793
 10
103.4304761802
 20
126.7791258336
 10
104.3627071384
 20
126.6678250618
 10
105.1777569012
 20
126.567875579
 10
106.2236927642
 20
126.4358162487
 10
107.498884033
 20
126.2687592009
 10
108.9318473171
 20
126.0721859541
 10
110.2127904442
 20
125.8869020449
 10
111.2416025394
 20
125.7263195583
 10
112.0640596998
 20
125.5748137102
 10
112.6904980973
 20
125.4367662368
 10
113.1404548881
 20
125.3172158632
 10
113.4447588041
 20
125.2187424651
 10
113.6268794733
 20
125.1462407967
 10
113.7081262508
 20
125.1072853758
 10
113.718346242
 20
125.1032871522
 10
113.7044192502
 20
125.1204952061
 10
113.6177843899
 20
125.2770558178
 10
113.5995524348
 20
125.556586436
 10
113.6566621608
 20
125.7110868558
 10
113.6905039966
 20
125.7662749397
 10
113.6853885094
 20
125.7646163966
  0
LINE
  5
144
330
1F
100
AcDbEntity
  8
0
  6
HIDDEN
 62
     7
370
     0
100
AcDbLine
 10
113.0892531794
 20
100.456989684
 30
0.0
 11
113.0892531794
 21
105.456989684
 31
0.0
  0
LINE
  5
145
330
1F
100
AcDbEntity
  8
0
  6
HIDDEN
 62
     7
370
     0
100
AcDbLine
 10
96.0892531794
 20
105.456989684
 30
0.0
 11
96.0892531794
 21
100.456989684
 31
0.0
  0
LINE
  5
146
330
1F
100
AcDbEntity
  8
0
  6
HIDDEN
 62
     7
370
     0
100
AcDbLine
 10
96.0892531794
 20
112.339928897
 30
0.0
 11
96.0892531794
 21
107.339928897
 31
0.0
  0
LINE
  5
147
330
1F
100
AcDbEntity
  8
0
  6
HIDDEN
 62
     7
370
     0
100
AcDbLine
 10
113.0892531794
 20
107.339928897
 30
0.0
 11
113.0892531794
 21
112.339928897
 31
0.0
  0
DIMENSION
  5
148
330
1F
100
AcDbEntity
  8
0
  6
Continuous
 62
     7
370
     0
100
AcDbDimension
  2
*D1
 10
141.9078302004
 20
119.7939489527
 30
0.0
 11
141.9078302004
 21
155.7939489527
 31
0.0
 70
   160
 71
     1
 42
72.0
  3
SLDDIMSTYLE0
100
AcDbAlignedDimension
 13
116.4797193753
 23
191.7939489527
 33
0.0
 14
118.0302153977
 24
119.7939489527
 34
0.0
 50
90.0
100
AcDbRotatedDimension
1001
ACAD
1000
DSTYLE
1002
{
1070
    77
1070
     3
1070
   143
1040
0.0393700787
1070
    41
1040
3.0
1070
    44
1040
1.0
1070
    42
1040
1.0
1070
   147
1040
1.524
1070
    73
1070
     0
1070
    74
1070
     0
1070
   140
1040
3.5
1070
   284
1070
    12
1070
    78
1070
    12
1002
}
  0
DIMENSION
  5
15E
330
1F
100
AcDbEntity
  8
0
  6
Continuous
 62
     7
370
     0
100
AcDbDimension
  2
*D2
 10
130.1275196928
 20
126.7939489527
 30
0.0
 11
130.1275196928
 21
123.2939489527
 31
0.0
 70
   160
 71
     1
 42
7.0
  3
SLDDIMSTYLE0
100
AcDbAlignedDimension
 13
118.0302153977
 23
119.7939489527
 33
0.0
 14
113.0892531794
 24
126.7939489527
 34
0.0
 50
90.0
100
AcDbRotatedDimension
1001
ACAD
1000
DSTYLE
1002
{
1070
    77
1070
     3
1070
   143
1040
0.0393700787
1070
    41
1040
3.0
1070
    44
1040
1.0
1070
    42
1040
1.0
1070
   147
1040
1.524
1070
    73
1070
     0
1070
    74
1070
     0
1070
   140
1040
3.5
1070
   284
1070
    12
1070
    78
1070
    12
1002
}
  0
DIMENSION
  5
175
330
1F
100
AcDbEntity
  8
0
  6
Continuous
 62
     7
370
     0
100
AcDbDimension
  2
*D3
 10
130.1275196928
 20
126.7939489527
 30
0.0
 11
130.1275196928
 21
151.7939489527
 31
0.0
 70
   160
  1
<>ST
 71
     1
 42
50.0
  3
SLDDIMSTYLE0
100
AcDbAlignedDimension
 13
113.0892531794
 23
176.7939489527
 33
0.0
 14
113.0892531794
 24
126.7939489527
 34
0.0
 50
90.0
100
AcDbRotatedDimension
1001
ACAD
1000
DSTYLE
1002
{
1070
    77
1070
     3
1070
   143
1040
0.0393700787
1070
    41
1040
3.0
1070
    44
1040
1.0
1070
    42
1040
1.0
1070
   147
1040
1.524
1070
    73
1070
     0
1070
    74
1070
     0
1070
   140
1040
3.5
1070
   284
1070
    12
1070
    78
1070
    12
1002
}
  0
DIMENSION
  5
18A
330
1F
100
AcDbEntity
  8
0
  6
Continuous
 62
     7
370
     0
100
AcDbDimension
  2
*D4
 10
141.9078302004
 20
191.7939489527
 30
0.0
 11
141.9078302004
 21
200.1602052292
 31
0.0
 70
   160
 71
     1
 42
4.0
  3
SLDDIMSTYLE0
100
AcDbAlignedDimension
 13
116.5892531794
 23
195.7939489527
 33
0.0
 14
116.4797193753
 24
191.7939489527
 34
0.0
 50
90.0
100
AcDbRotatedDimension
1001
ACAD
1000
DSTYLE
1002
{
1070
    77
1070
     3
1070
   143
1040
0.0393700787
1070
    41
1040
3.0
1070
    44
1040
1.0
1070
    42
1040
1.0
1070
   147
1040
1.524
1070
    73
1070
     0
1070
    74
1070
     0
1070
   140
1040
3.5
1070
   284
1070
    12
1070
    78
1070
    12
1002
}
  0
DIMENSION
  5
1A1
330
1F
100
AcDbEntity
  8
0
  6
Continuous
 62
     7
370
     0
100
AcDbDimension
  2
*D5
 10
141.9078302004
 20
114.7939489527
 30
0.0
 11
141.9078302004
 21
104.7939489527
 31
0.0
 70
   160
 71
     1
 42
20.0
  3
SLDDIMSTYLE0
100
AcDbAlignedDimension
 13
112.5892531794
 23
94.7939489527
 33
0.0
 14
118.0892531794
 24
114.7939489527
 34
0.0
 50
90.0
100
AcDbRotatedDimension
1001
ACAD
1000
DSTYLE
1002
{
1070
    77
1070
     3
1070
   143
1040
0.0393700787
1070
    41
1040
3.0
1070
    44
1040
1.0
1070
    42
1040
1.0
1070
   147
1040
1.524
1070
    73
1070
     0
1070
    74
1070
     0
1070
   140
1040
3.5
1070
   284
1070
    12
1070
    78
1070
    12
1002
}
  0
DIMENSION
  5
1B5
330
1F
100
AcDbEntity
  8
0
  6
Continuous
 62
     7
370
     0
100
AcDbDimension
  2
*D6
 10
141.9078302004
 20
114.7939489527
 30
0.0
 11
141.9078302004
 21
117.2939489527
 31
0.0
 70
   160
 71
     1
 42
5.0
  3
SLDDIMSTYLE0
100
AcDbAlignedDimension
 13
118.0302153977
 23
119.7939489527
 33
0.0
 14
118.0892531794
 24
114.7939489527
 34
0.0
 50
90.0
100
AcDbRotatedDimension
1001
ACAD
1000
DSTYLE
1002
{
1070
    77
1070
     3
1070
   143
1040
0.0393700787
1070
    41
1040
3.0
1070
    44
1040
1.0
1070
    42
1040
1.0
1070
   147
1040
1.524
1070
    73
1070
     0
1070
    74
1070
     0
1070
   140
1040
3.5
1070
   284
1070
    12
1070
    78
1070
    12
1002
}
  0
DIMENSION
  5
1CC
330
1F
100
AcDbEntity
  8
0
  6
Continuous
 62
     7
370
     0
100
AcDbDimension
  2
*D7
 10
154.5130924715
 20
91.7939489527
 30
0.0
 11
154.5130924715
 21
143.7939489527
 31
0.0
 70
   160
 71
     1
 42
104.0
  3
SLDDIMSTYLE0
100
AcDbAlignedDimension
 13
116.5892531794
 23
195.7939489527
 33
0.0
 14
110.0892531794
 24
91.7939489527
 34
0.0
 50
90.0
100
AcDbRotatedDimension
1001
ACAD
1000
DSTYLE
1002
{
1070
    77
1070
     3
1070
   143
1040
0.0393700787
1070
    41
1040
3.0
1070
    44
1040
1.0
1070
    42
1040
1.0
1070
   147
1040
1.524
1070
    73
1070
     0
1070
    74
1070
     0
1070
   140
1040
3.5
1070
   284
1070
    12
1070
    78
1070
    12
1002
}
  0
MTEXT
  5
1E0
330
1F
100
AcDbEntity
  8
0
  6
Continuous
 62
     7
370
     0
100
AcDbMText
 10
152.607733212
 20
83.6487217664
 30
0.0
 40
3.5
 41
0.0
 71
     1
 72
     1
  1
M17 P=1.0
  7
SLDTEXTSTYLE0
 73
     1
 44
1.0
  0
LEADER
  5
1E8
330
1F
100
AcDbEntity
  8
0
  6
Continuous
 62
     7
370
     0
100
AcDbLeader
  3
SLDDIMSTYLE1
 76
     3
 10
113.0892531794
 20
106.0540774557
 30
0.0
 10
152.1038458281
 20
79.5739528471
 30
0.0
 10
170.9356029389
 20
79.5739528471
 30
0.0
  0
CIRCLE
  5
1E9
330
1F
100
AcDbEntity
  8
0
  6
Continuous
 62
     7
370
    30
100
AcDbCircle
 10
104.5892531794
 20
239.2662537638
 30
0.0
 40
10.39999999999997
  0
ARC
  5
1EA
330
1F
100
AcDbEntity
  8
0
  6
Continuous
 62
     7
370
    30
100
AcDbCircle
 10
104.5891811633
 20
239.2201478022
 30
0.0
 40
8.995281634062923
100
AcDbArc
 50
185.6382379075
 51
163.8219530505
  0
LINE
  5
1EB
330
1F
100
AcDbEntity
  8
0
  6
Continuous
 62
     7
370
    30
100
AcDbLine
 10
94.2449105578
 20
238.1917419091
 30
0.0
 11
94.3011060683
 21
237.8473335392
 31
0.0
  0
CIRCLE
  5
1EC
330
1F
100
AcDbEntity
  8
0
  6
Continuous
 62
     7
370
    30
100
AcDbCircle
 10
104.5892531794
 20
239.2662537638
 30
0.0
 40
6.000000000000007
  0
CIRCLE
  5
1ED
330
1F
100
AcDbEntity
  8
0
  6
Continuous
 62
     7
370
    30
100
AcDbCircle
 10
104.5892531794
 20
239.2662537638
 30
0.0
 40
8.500000000000014
  0
CIRCLE
  5
1EE
330
1F
100
AcDbEntity
  8
0
  6
Continuous
 62
     7
370
    30
100
AcDbCircle
 10
104.5892531794
 20
239.2662537638
 30
0.0
 40
13.44096221828355
  0
LINE
  5
1EF
330
1F
100
AcDbEntity
  8
0
  6
Continuous
 62
     7
370
    30
100
AcDbLine
 10
104.5892531794
 20
223.6777964957
 30
0.0
 11
91.0892531794
 21
231.4720251297
 31
0.0
  0
LINE
  5
1F0
330
1F
100
AcDbEntity
  8
0
  6
Continuous
 62
     7
370
    30
100
AcDbLine
 10
91.0892531794
 20
231.4720251297
 30
0.0
 11
91.0892531794
 21
247.0604823978
 31
0.0
  0
LINE
  5
1F1
330
1F
100
AcDbEntity
  8
0
  6
Continuous
 62
     7
370
    30
100
AcDbLine
 10
91.0892531794
 20
247.0604823978
 30
0.0
 11
104.5892531794
 21
254.8547110319
 31
0.0
  0
LINE
  5
1F2
330
1F
100
AcDbEntity
  8
0
  6
Continuous
 62
     7
370
    30
100
AcDbLine
 10
104.5892531794
 20
254.8547110319
 30
0.0
 11
118.0892531794
 21
247.0604823978
 31
0.0
  0
LINE
  5
1F3
330
1F
100
AcDbEntity
  8
0
  6
Continuous
 62
     7
370
    30
100
AcDbLine
 10
118.0892531794
 20
247.0604823978
 30
0.0
 11
118.0892531794
 21
231.4720251297
 31
0.0
  0
LINE
  5
1F4
330
1F
100
AcDbEntity
  8
0
  6
Continuous
 62
     7
370
    30
100
AcDbLine
 10
118.0892531794
 20
231.4720251297
 30
0.0
 11
104.5892531794
 21
223.6777964957
 31
0.0
  0
LINE
  5
1F5
330
1F
100
AcDbEntity
  8
0
  6
Continuous
 62
     7
370
    30
100
AcDbLine
 10
105.5892531794
 20
244.9286295902
 30
0.0
 11
105.5892531794
 21
245.1823335469
 31
0.0
  0
LINE
  5
1F6
330
1F
100
AcDbEntity
  8
0
  6
Continuous
 62
     7
370
    30
100
AcDbLine
 10
103.5892531794
 20
245.1823335469
 30
0.0
 11
103.5892531794
 21
244.9286295902
 31
0.0
  0
ARC
  5
1F7
330
1F
100
AcDbEntity
  8
0
  6
Continuous
 62
     7
370
    30
100
AcDbCircle
 10
104.5892531794
 20
239.2662537638
 30
0.0
 40
5.749999999999996
100
AcDbArc
 50
100.0154101683
 51
79.9845898317
  0
LWPOLYLINE
  5
1F8
330
1F
100
AcDbEntity
  8
0
  6
Continuous
 62
     7
370
    30
100
AcDbPolyline
 90
       41
 70
   128
 43
0.0
 10
95.6374182184
 20
238.3363877357
 10
95.6000780062
 20
239.7384932429
 10
95.7774519817
 20
241.1298089107
 10
96.1768509419
 20
242.5099769167
 10
96.8298089673
 20
243.8865940541
 10
97.7292222718
 20
245.170455936
 10
98.8031807778
 20
246.2569416701
 10
100.0798266692
 20
247.1739486548
 10
101.4572452814
 20
247.8518670532
 10
102.9672046437
 20
248.3080668164
 10
104.532288228
 20
248.5115956388
 10
106.1526877788
 20
248.4568278402
 10
107.7545567638
 20
248.1440001221
 10
108.5434560081
 20
247.8857792092
 10
109.3334092959
 20
247.6314730884
 10
109.4209493679
 20
247.6123772253
 10
109.4509926509
 20
247.6090076193
 10
109.4801685184
 20
247.609454941
 10
109.4949614181
 20
247.6127332086
 10
109.5047270815
 20
247.6177615509
 10
109.5102892063
 20
247.6234521742
 10
109.513575942
 20
247.6307325931
 10
109.5143356804
 20
247.6404381239
 10
109.5104151263
 20
247.6567769212
 10
109.4832388823
 20
247.7019949559
 10
109.3084453666
 20
247.8705147736
 10
108.4951665615
 20
248.3927320457
 10
107.1808847497
 20
248.9524701172
 10
105.7544091699
 20
249.301710818
 10
104.2946931347
 20
249.4251995933
 10
102.7979942253
 20
249.3214225934
 10
101.2365227834
 20
248.9596590753
 10
99.7143808809
 20
248.3306983237
 10
98.3177459789
 20
247.4615033025
 10
97.0479611724
 20
246.3453742605
 10
95.9838561693
 20
245.0409660725
 10
95.1283656599
 20
243.5355413524
 10
94.5491791821
 20
241.9427522249
 10
94.2507956663
 20
240.3688770952
 10
94.2034228593
 20
238.7266834679
 10
94.2449105578
 20
238.1917419091
  0
LINE
  5
1F9
330
1F
100
AcDbEntity
  8
0
  6
Continuous
 62
     7
370
    30
100
AcDbLine
 10
94.2449105578
 20
238.1917419091
 30
0.0
 11
95.6374182184
 21
238.3363877357
 31
0.0
  0
CIRCLE
  5
1FA
330
1F
100
AcDbEntity
  8
0
  6
HIDDEN
 62
     7
370
     0
100
AcDbCircle
 10
104.5892531794
 20
239.2662537638
 30
0.0
 40
6.50000000000001
  0
CIRCLE
  5
1FB
330
1F
100
AcDbEntity
  8
0
  6
HIDDEN
 62
     7
370
     0
100
AcDbCircle
 10
104.5892531794
 20
239.2662537638
 30
0.0
 40
8.000000000000016
  0
CIRCLE
  5
1FC
330
1F
100
AcDbEntity
  8
0
  6
HIDDEN
 62
     7
370
     0
100
AcDbCircle
 10
106.5892531794
 20
245.7662537638
 30
0.0
 40
0.5
  0
LINE
  5
1FD
330
1F
100
AcDbEntity
  8
0
  6
HIDDEN
 62
     7
370
     0
100
AcDbLine
 10
105.5892531794
 20
245.1823335469
 30
0.0
 11
105.5892531794
 21
246.9514668383
 31
0.0
  0
ARC
  5
1FE
330
1F
100
AcDbEntity
  8
0
  6
HIDDEN
 62
     7
370
     0
100
AcDbCircle
 10
104.5892531794
 20
239.2662537638
 30
0.0
 40
7.749999999999988
100
AcDbArc
 50
97.4136738015
 51
82.5863261985
  0
LINE
  5
1FF
330
1F
100
AcDbEntity
  8
0
  6
HIDDEN
 62
     7
370
     0
100
AcDbLine
 10
103.5892531794
 20
246.9514668383
 30
0.0
 11
103.5892531794
 21
245.1823335469
 31
0.0
  0
CIRCLE
  5
200
330
1F
100
AcDbEntity
  8
0
  6
HIDDEN
 62
     7
370
     0
100
AcDbCircle
 10
102.5892531794
 20
245.7662537638
 30
0.0
 40
0.5
  0
LINE
  5
201
330
1F
100
AcDbEntity
  8
0
  6
HIDDEN
 62
     7
370
     0
100
AcDbLine
 10
95.6374182184
 20
238.3363877357
 30
0.0
 11
95.7475243825
 21
237.7326526558
 31
0.0
  0
LWPOLYLINE
  5
202
330
1F
100
AcDbEntity
  8
0
  6
HIDDEN
 62
     7
370
     0
100
AcDbPolyline
 90
       35
 70
   128
 43
0.0
 10
97.6065125866
 20
233.5952429697
 10
97.9455191379
 20
233.1492735618
 10
99.0896791805
 20
232.077757522
 10
100.3640746456
 20
231.2352880784
 10
101.8019818128
 20
230.6003479634
 10
103.2893593482
 20
230.2201044669
 10
104.8608616856
 20
230.0840941272
 10
106.434362171
 20
230.2066909812
 10
108.0088917296
 20
230.5934386874
 10
109.5122426046
 20
231.2289241595
 10
110.231178325
 20
231.6438677116
 10
110.9520469481
 20
232.0550043416
 10
111.0334840549
 20
232.0914911655
 10
111.0621173618
 20
232.1009132897
 10
111.0907624198
 20
232.1064288168
 10
111.1057520427
 20
232.1062334389
 10
111.1163489082
 20
232.1032956352
 10
111.1229382905
 20
232.0988578202
 10
111.1276268372
 20
232.0924076147
 10
111.1303528814
 20
232.0830379361
 10
111.1298415568
 20
232.0661701319
 10
111.1123431647
 20
232.016018775
 10
110.9746284446
 20
231.8137563568
 10
110.2798641491
 20
231.1309830953
 10
109.1058065447
 20
230.3133516912
 10
107.778566342
 20
229.6793000927
 10
106.3734596812
 20
229.2602814953
 10
104.8856420862
 20
229.0565619121
 10
103.2829012257
 20
229.092511245
 10
101.664203197
 20
229.3981448918
 10
100.1195893924
 20
229.9645554386
 10
98.6488474908
 20
230.7985775921
 10
97.3411171339
 20
231.8589086698
 10
96.196700403
 20
233.1586079344
 10
95.3327301525
 20
234.5553862429
  0
LINE
  5
203
330
1F
100
AcDbEntity
  8
0
  6
HIDDEN
 62
     7
370
     0
100
AcDbLine
 10
94.2756442035
 20
238.0415624437
 30
0.0
 11
94.2449105578
 21
238.1917419091
 31
0.0
  0
CIRCLE
  5
204
330
1F
100
AcDbEntity
  8
0
  6
HIDDEN
 62
     7
370
     0
100
AcDbCircle
 10
104.5892531794
 20
239.2662537638
 30
0.0
 40
13.3093921689338
  0
ARC
  5
205
330
1F
100
AcDbEntity
  8
0
  6
HIDDEN
 62
     7
370
     0
100
AcDbCircle
 10
103.3788571987
 20
239.3317849808
 30
0.0
 40
7.805170924586431
100
AcDbArc
 50
162.1332791827
 51
187.3269117753
  0
DIMENSION
  5
206
330
1F
100
AcDbEntity
  8
0
  6
Continuous
 62
     7
370
     0
100
AcDbDimension
  2
*D9
 10
118.0892531794
 20
264.7843518817
 30
0.0
 11
104.5892531794
 21
264.7843518817
 31
0.0
 70
   160
 71
     1
 42
27.0
  3
SLDDIMSTYLE0
100
AcDbAlignedDimension
 13
91.0892531794
 23
247.0604823978
 33
0.0
 14
118.0892531794
 24
247.0604823978
 34
0.0
100
AcDbRotatedDimension
1001
ACAD
1000
DSTYLE
1002
{
1070
    77
1070
     3
1070
   143
1040
0.0393700787
1070
    41
1040
3.0
1070
    44
1040
1.0
1070
    42
1040
1.0
1070
   147
1040
1.524
1070
    73
1070
     0
1070
    74
1070
     0
1070
   140
1040
3.5
1070
   284
1070
    12
1070
    78
1070
    12
1002
}
  0
DIMENSION
  5
219
330
1F
100
AcDbEntity
  8
0
  6
Continuous
 62
     7
370
     0
100
AcDbDimension
  2
*D10
 10
74.1329834107
 20
223.6777964957
 30
0.0
 11
74.1329834107
 21
239.2662537638
 31
0.0
 70
   160
  1
(<>)
 71
     1
 42
31.1769145362
  3
SLDDIMSTYLE0
100
AcDbAlignedDimension
 13
104.5892531794
 23
254.8547110319
 33
0.0
 14
104.5892531794
 24
223.6777964957
 34
0.0
 50
90.0
100
AcDbRotatedDimension
1001
ACAD
1000
DSTYLE
1002
{
1070
    77
1070
     3
1070
   143
1040
0.0393700787
1070
    41
1040
3.0
1070
    44
1040
1.0
1070
    42
1040
1.0
1070
   147
1040
1.524
1070
    73
1070
     0
1070
    74
1070
     0
1070
   140
1040
3.5
1070
   284
1070
    12
1070
    78
1070
    12
1002
}
  0
MTEXT
  5
22F
330
1F
100
AcDbEntity
  8
0
  6
Continuous
 62
     7
370
     0
100
AcDbMText
 10
126.1458055377
 20
216.2916508578
 30
17.6
 40
3.5
 41
0.0
 71
     1
 72
     1
  1
PT1/8
  7
SLDTEXTSTYLE0
 73
     1
 44
1.0
  0
LEADER
  5
230
330
1F
100
AcDbEntity
  8
0
  6
Continuous
 62
     7
370
     0
100
AcDbLeader
  3
SLDDIMSTYLE1
 76
     3
 10
106.0382487171
 20
235.1726377385
 30
0.0
 10
125.6450749459
 20
212.2160519503
 30
0.0
 10
136.326341115
 20
212.2160519503
 30
0.0
  0
INSERT
  5
23C
330
1F
100
AcDbEntity
  8
0
  6
Continuous
 62
     7
370
     0
100
AcDbBlockReference
  2
SW_CENTERMARKSYMBOL_0
 10
104.5892531794
 20
239.2662537638
 30
0.0
  0
ENDSEC
  0
SECTION
  2
OBJECTS
  0
DICTIONARY
  5
C
330
0
100
AcDbDictionary
281
     1
  3
ACAD_GROUP
350
D
  3
ACAD_LAYOUT
350
1A
  3
ACAD_MLINESTYLE
350
17
  3
ACAD_PLOTSETTINGS
350
19
  3
ACAD_PLOTSTYLENAME
350
E
  0
DICTIONARY
  5
D
102
{ACAD_REACTORS
330
C
102
}
330
C
100
AcDbDictionary
281
     1
  0
DICTIONARY
  5
1A
102
{ACAD_REACTORS
330
C
102
}
330
C
100
AcDbDictionary
281
     1
  3
Layout1
350
1E
  3
Layout2
350
26
  3
Model
350
22
  0
DICTIONARY
  5
17
102
{ACAD_REACTORS
330
C
102
}
330
C
100
AcDbDictionary
281
     1
  3
Standard
350
18
  0
DICTIONARY
  5
19
102
{ACAD_REACTORS
330
C
102
}
330
C
100
AcDbDictionary
281
     1
  0
ACDBDICTIONARYWDFLT
  5
E
102
{ACAD_REACTORS
330
C
102
}
330
C
100
AcDbDictionary
281
     1
  3
Normal
350
F
100
AcDbDictionaryWithDefault
340
F
  0
LAYOUT
  5
1E
102
{ACAD_REACTORS
330
1A
102
}
330
1A
100
AcDbPlotSettings
  1

  2

  4

  6

 40
0.0
 41
0.0
 42
0.0
 43
0.0
 44
0.0
 45
0.0
 46
0.0
 47
0.0
 48
0.0
 49
0.0
140
0.0
141
0.0
142
1.0
143
1.0
 70
   688
 72
     0
 73
     0
 74
     5
  7

 75
    16
147
1.0
148
0.0
149
0.0
100
AcDbLayout
  1
Layout1
 70
     1
 71
     1
 10
0.0
 20
0.0
 11
0.0
 21
0.0
 12
0.0
 22
0.0
 32
0.0
 14
0.0
 24
0.0
 34
0.0
 15
0.0
 25
0.0
 35
0.0
146
0.0
 13
0.0
 23
0.0
 33
0.0
 16
1.0
 26
0.0
 36
0.0
 17
0.0
 27
1.0
 37
0.0
 76
     0
330
1B
  0
LAYOUT
  5
26
102
{ACAD_REACTORS
330
1A
102
}
330
1A
100
AcDbPlotSettings
  1

  2

  4

  6

 40
0.0
 41
0.0
 42
0.0
 43
0.0
 44
0.0
 45
0.0
 46
0.0
 47
0.0
 48
0.0
 49
0.0
140
0.0
141
0.0
142
1.0
143
1.0
 70
   688
 72
     0
 73
     0
 74
     5
  7

 75
    16
147
1.0
148
0.0
149
0.0
100
AcDbLayout
  1
Layout2
 70
     1
 71
     2
 10
0.0
 20
0.0
 11
0.0
 21
0.0
 12
0.0
 22
0.0
 32
0.0
 14
0.0
 24
0.0
 34
0.0
 15
0.0
 25
0.0
 35
0.0
146
0.0
 13
0.0
 23
0.0
 33
0.0
 16
1.0
 26
0.0
 36
0.0
 17
0.0
 27
1.0
 37
0.0
 76
     0
330
23
  0
LAYOUT
  5
22
102
{ACAD_REACTORS
330
1A
102
}
330
1A
100
AcDbPlotSettings
  1

  2

  4

  6

 40
0.0
 41
0.0
 42
0.0
 43
0.0
 44
0.0
 45
0.0
 46
0.0
 47
0.0
 48
0.0
 49
0.0
140
0.0
141
0.0
142
1.0
143
1.0
 70
  1712
 72
     0
 73
     0
 74
     0
  7

 75
     0
147
1.0
148
0.0
149
0.0
100
AcDbLayout
  1
Model
 70
     1
 71
     0
 10
0.0
 20
0.0
 11
0.0
 21
0.0
 12
0.0
 22
0.0
 32
0.0
 14
0.0
 24
0.0
 34
0.0
 15
210.0
 25
297.0
 35
0.0
146
0.0
 13
0.0
 23
0.0
 33
0.0
 16
1.0
 26
0.0
 36
0.0
 17
0.0
 27
1.0
 37
0.0
 76
     0
330
1F
  0
MLINESTYLE
  5
18
102
{ACAD_REACTORS
330
17
102
}
330
17
100
AcDbMlineStyle
  2
Standard
 70
     0
  3

 62
   256
 51
90.0
 52
90.0
 71
     2
 49
0.5
 62
   256
  6
BYLAYER
 49
-0.5
 62
   256
  6
BYLAYER
  0
ACDBPLACEHOLDER
  5
F
102
{ACAD_REACTORS
330
E
102
}
330
E
  0
ENDSEC
  0
EOF
