  0
SECTION
  2
HEADER
  9
$ACADVER
  1
AC1015
  9
$ACADMAINTVER
 70
     6
  9
$DWGCODEPAGE
  3
DOS932
  9
$INSBASE
 10
0.0
 20
0.0
 30
0.0
  9
$EXTMIN
 10
0.0
 20
0.0
 30
0.0
  9
$EXTMAX
 10
210.0
 20
297.0
 30
0.0
  9
$LIMMIN
 10
0.0
 20
0.0
  9
$LIMMAX
 10
210.0
 20
297.0
  9
$ORTHOMODE
 70
     0
  9
$REGENMODE
 70
     1
  9
$FILLMODE
 70
     1
  9
$QTEXTMODE
 70
     0
  9
$MIRRTEXT
 70
     1
  9
$LTSCALE
 40
1.0
  9
$ATTMODE
 70
     1
  9
$TEXTSIZE
 40
3.5
  9
$TRACEWID
 40
1.0
  9
$TEXTSTYLE
  7
Standard
  9
$CLAYER
  8
0
  9
$CELTYPE
  6
ByLayer
  9
$CECOLOR
 62
   256
  9
$CELTSCALE
 40
1.0
  9
$DISPSILH
 70
     0
  9
$DIMSCALE
 40
1.0
  9
$DIMASZ
 40
3.0
  9
$DIMEXO
 40
1.0
  9
$DIMDLI
 40
3.75
  9
$DIMRND
 40
0.0
  9
$DIMDLE
 40
0.0
  9
$DIMEXE
 40
1.0
  9
$DIMTP
 40
0.0
  9
$DIMTM
 40
0.0
  9
$DIMTXT
 40
3.5
  9
$DIMCEN
 40
2.5
  9
$DIMTSZ
 40
0.0
  9
$DIMTOL
 70
     0
  9
$DIMLIM
 70
     0
  9
$DIMTIH
 70
     1
  9
$DIMTOH
 70
     1
  9
$DIMSE1
 70
     0
  9
$DIMSE2
 70
     0
  9
$DIMTAD
 70
     1
  9
$DIMZIN
 70
     0
  9
$DIMBLK
  1

  9
$DIMASO
 70
     1
  9
$DIMSHO
 70
     1
  9
$DIMPOST
  1

  9
$DIMAPOST
  1

  9
$DIMALT
 70
     0
  9
$DIMALTD
 70
     3
  9
$DIMALTF
 40
0.0393700787
  9
$DIMLFAC
 40
1.0
  9
$DIMTOFL
 70
     1
  9
$DIMTVP
 40
0.0
  9
$DIMTIX
 70
     0
  9
$DIMSOXD
 70
     0
  9
$DIMSAH
 70
     0
  9
$DIMBLK1
  1

  9
$DIMBLK2
  1

  9
$DIMSTYLE
  2
ISO-25
  9
$DIMCLRD
 70
     0
  9
$DIMCLRE
 70
     0
  9
$DIMCLRT
 70
     0
  9
$DIMTFAC
 40
1.0
  9
$DIMGAP
 40
1.524
  9
$DIMJUST
 70
     0
  9
$DIMSD1
 70
     0
  9
$DIMSD2
 70
     0
  9
$DIMTOLJ
 70
     0
  9
$DIMTZIN
 70
     0
  9
$DIMALTZ
 70
     0
  9
$DIMALTTZ
 70
     0
  9
$DIMUPT
 70
     0
  9
$DIMDEC
 70
     1
  9
$DIMTDEC
 70
     3
  9
$DIMALTU
 70
     2
  9
$DIMALTTD
 70
     3
  9
$DIMTXSTY
  7
Standard
  9
$DIMAUNIT
 70
     0
  9
$DIMADEC
 70
     2
  9
$DIMALTRND
 40
0.0
  9
$DIMAZIN
 70
     0
  9
$DIMDSEP
 70
    44
  9
$DIMATFIT
 70
     3
  9
$DIMFRAC
 70
     0
  9
$DIMLDRBLK
  1

  9
$DIMLUNIT
 70
     2
  9
$DIMLWD
 70
    -2
  9
$DIMLWE
 70
    -2
  9
$DIMTMOVE
 70
     0
  9
$LUNITS
 70
     2
  9
$LUPREC
 70
     1
  9
$SKETCHINC
 40
1.0
  9
$FILLETRAD
 40
10.0
  9
$AUNITS
 70
     0
  9
$AUPREC
 70
     2
  9
$MENU
  1
.
  9
$ELEVATION
 40
0.0
  9
$PELEVATION
 40
0.0
  9
$THICKNESS
 40
0.0
  9
$LIMCHECK
 70
     0
  9
$CHAMFERA
 40
10.0
  9
$CHAMFERB
 40
10.0
  9
$CHAMFERC
 40
20.0
  9
$CHAMFERD
 40
0.0
  9
$SKPOLY
 70
     0
  9
$TDCREATE
 40
2456029.841340417
  9
$TDUCREATE
 40
2456029.466340417
  9
$TDUPDATE
 40
2456029.841340428
  9
$TDUUPDATE
 40
2456029.466340428
  9
$TDINDWG
 40
0.0000000116
  9
$TDUSRTIMER
 40
0.0000000116
  9
$USRTIMER
 70
     1
  9
$ANGBASE
 50
0.0
  9
$ANGDIR
 70
     0
  9
$PDMODE
 70
     0
  9
$PDSIZE
 40
-1.0
  9
$PLINEWID
 40
0.0
  9
$SPLFRAME
 70
     0
  9
$SPLINETYPE
 70
     6
  9
$SPLINESEGS
 70
     8
  9
$HANDSEED
  5
31F
  9
$SURFTAB1
 70
     6
  9
$SURFTAB2
 70
     6
  9
$SURFTYPE
 70
     6
  9
$SURFU
 70
     6
  9
$SURFV
 70
     6
  9
$UCSBASE
  2

  9
$UCSNAME
  2

  9
$UCSORG
 10
0.0
 20
0.0
 30
0.0
  9
$UCSXDIR
 10
1.0
 20
0.0
 30
0.0
  9
$UCSYDIR
 10
0.0
 20
1.0
 30
0.0
  9
$UCSORTHOREF
  2

  9
$UCSORTHOVIEW
 70
     0
  9
$UCSORGTOP
 10
0.0
 20
0.0
 30
0.0
  9
$UCSORGBOTTOM
 10
0.0
 20
0.0
 30
0.0
  9
$UCSORGLEFT
 10
0.0
 20
0.0
 30
0.0
  9
$UCSORGRIGHT
 10
0.0
 20
0.0
 30
0.0
  9
$UCSORGFRONT
 10
0.0
 20
0.0
 30
0.0
  9
$UCSORGBACK
 10
0.0
 20
0.0
 30
0.0
  9
$PUCSBASE
  2

  9
$PUCSNAME
  2

  9
$PUCSORG
 10
0.0
 20
0.0
 30
0.0
  9
$PUCSXDIR
 10
1.0
 20
0.0
 30
0.0
  9
$PUCSYDIR
 10
0.0
 20
1.0
 30
0.0
  9
$PUCSORTHOREF
  2

  9
$PUCSORTHOVIEW
 70
     0
  9
$PUCSORGTOP
 10
0.0
 20
0.0
 30
0.0
  9
$PUCSORGBOTTOM
 10
0.0
 20
0.0
 30
0.0
  9
$PUCSORGLEFT
 10
0.0
 20
0.0
 30
0.0
  9
$PUCSORGRIGHT
 10
0.0
 20
0.0
 30
0.0
  9
$PUCSORGFRONT
 10
0.0
 20
0.0
 30
0.0
  9
$PUCSORGBACK
 10
0.0
 20
0.0
 30
0.0
  9
$USERI1
 70
     0
  9
$USERI2
 70
     0
  9
$USERI3
 70
     0
  9
$USERI4
 70
     0
  9
$USERI5
 70
     0
  9
$USERR1
 40
0.0
  9
$USERR2
 40
0.0
  9
$USERR3
 40
0.0
  9
$USERR4
 40
0.0
  9
$USERR5
 40
0.0
  9
$WORLDVIEW
 70
     1
  9
$SHADEDGE
 70
     3
  9
$SHADEDIF
 70
    70
  9
$TILEMODE
 70
     1
  9
$MAXACTVP
 70
    64
  9
$PINSBASE
 10
0.0
 20
0.0
 30
0.0
  9
$PLIMCHECK
 70
     0
  9
$PEXTMIN
 10
1.0000000000E+20
 20
1.0000000000E+20
 30
1.0000000000E+20
  9
$PEXTMAX
 10
-1.0000000000E+20
 20
-1.0000000000E+20
 30
-1.0000000000E+20
  9
$PLIMMIN
 10
0.0
 20
0.0
  9
$PLIMMAX
 10
420.0
 20
297.0
  9
$UNITMODE
 70
     0
  9
$VISRETAIN
 70
     1
  9
$PLINEGEN
 70
     0
  9
$PSLTSCALE
 70
     1
  9
$TREEDEPTH
 70
  3020
  9
$CMLSTYLE
  2
Standard
  9
$CMLJUST
 70
     0
  9
$CMLSCALE
 40
20.0
  9
$PROXYGRAPHICS
 70
     1
  9
$MEASUREMENT
 70
     1
  9
$CELWEIGHT
370
    -1
  9
$ENDCAPS
280
     0
  9
$JOINSTYLE
280
     0
  9
$LWDISPLAY
290
     1
  9
$INSUNITS
 70
     4
  9
$HYPERLINKBASE
  1

  9
$STYLESHEET
  1

  9
$XEDIT
290
     1
  9
$CEPSNTYPE
380
     0
  9
$PSTYLEMODE
290
     1
  9
$FINGERPRINTGUID
  2
{03CAFF61-F48D-497B-8584-51ECFA4B2185}
  9
$VERSIONGUID
  2
{FAEB1C32-E019-11D5-929B-00C0DF256EC4}
  9
$EXTNAMES
290
     1
  9
$PSVPSCALE
 40
0.0
  9
$OLESTARTUP
290
     0
  0
ENDSEC
  0
SECTION
  2
CLASSES
  0
CLASS
  1
ACDBDICTIONARYWDFLT
  2
AcDbDictionaryWithDefault
  3
ObjectDBX Classes
 90
        0
280
     0
281
     0
  0
CLASS
  1
VISUALSTYLE
  2
AcDbVisualStyle
  3
ObjectDBX Classes
 90
     4095
280
     0
281
     0
  0
CLASS
  1
MATERIAL
  2
AcDbMaterial
  3
ObjectDBX Classes
 90
     1153
280
     0
281
     0
  0
CLASS
  1
SCALE
  2
AcDbScale
  3
ObjectDBX Classes
 90
     1153
280
     0
281
     0
  0
CLASS
  1
DICTIONARYVAR
  2
AcDbDictionaryVar
  3
ObjectDBX Classes
 90
        0
280
     0
281
     0
  0
CLASS
  1
ACDBPLACEHOLDER
  2
AcDbPlaceHolder
  3
ObjectDBX Classes
 90
        0
280
     0
281
     0
  0
CLASS
  1
LAYOUT
  2
AcDbLayout
  3
ObjectDBX Classes
 90
        0
280
     0
281
     0
  0
ENDSEC
  0
SECTION
  2
TABLES
  0
TABLE
  2
VPORT
  5
8
330
0
100
AcDbSymbolTable
 70
     1
  0
VPORT
  5
29
330
8
100
AcDbSymbolTableRecord
100
AcDbViewportTableRecord
  2
*Active
 70
     0
 10
0.0
 20
0.0
 11
1.0
 21
1.0
 12
105.0
 22
148.5
 13
0.0
 23
0.0
 14
10.0
 24
10.0
 15
10.0
 25
10.0
 16
0.0
 26
0.0
 36
1.0
 17
0.0
 27
0.0
 37
0.0
 40
297.0
 41
0.7070707071
 42
50.0
 43
0.0
 44
0.0
 50
0.0
 51
0.0
 71
     0
 72
  2000
 73
     1
 74
     3
 75
     0
 76
     0
 77
     0
 78
     0
281
     0
 65
     1
110
0.0
120
0.0
130
0.0
111
1.0
121
0.0
131
0.0
112
0.0
122
1.0
132
0.0
 79
     0
146
0.0
  0
ENDTAB
  0
TABLE
  2
LTYPE
  5
5
330
0
100
AcDbSymbolTable
 70
     6
  0
LTYPE
  5
14
330
5
100
AcDbSymbolTableRecord
100
AcDbLinetypeTableRecord
  2
ByBlock
 70
     0
  3

 72
    65
 73
     0
 40
0.0
  0
LTYPE
  5
15
330
5
100
AcDbSymbolTableRecord
100
AcDbLinetypeTableRecord
  2
ByLayer
 70
     0
  3

 72
    65
 73
     0
 40
0.0
  0
LTYPE
  5
16
330
5
100
AcDbSymbolTableRecord
100
AcDbLinetypeTableRecord
  2
Continuous
 70
     0
  3
Solid line
 72
    65
 73
     0
 40
0.0
  0
LTYPE
  5
3F
330
5
100
AcDbSymbolTableRecord
100
AcDbLinetypeTableRecord
  2
HIDDEN
 70
     0
  3
Hidden __ __ __ __ __ __ __ __ __ __ __ __ __ __
 72
    65
 73
     2
 40
1.905
 49
1.27
 74
     0
 49
-0.635
 74
     0
  0
LTYPE
  5
40
330
5
100
AcDbSymbolTableRecord
100
AcDbLinetypeTableRecord
  2
PHANTOM
 70
     0
  3
Phantom ______  __  __  ______  __  __  ______
 72
    65
 73
     6
 40
12.7
 49
6.35
 74
     0
 49
-1.27
 74
     0
 49
1.27
 74
     0
 49
-1.27
 74
     0
 49
1.27
 74
     0
 49
-1.27
 74
     0
  0
LTYPE
  5
41
330
5
100
AcDbSymbolTableRecord
100
AcDbLinetypeTableRecord
  2
CENTER
 70
     0
  3
Center ____ _ ____ _ ____ _ ____ _ ____ _ ____
 72
    65
 73
     4
 40
10.16
 49
6.35
 74
     0
 49
-1.27
 74
     0
 49
1.27
 74
     0
 49
-1.27
 74
     0
  0
LTYPE
  5
42
330
5
100
AcDbSymbolTableRecord
100
AcDbLinetypeTableRecord
  2
CENTERX2
 70
     0
  3
Center (2x) ________  __  ________  __  _____
 72
    65
 73
     4
 40
20.32
 49
12.7
 74
     0
 49
-2.54
 74
     0
 49
2.54
 74
     0
 49
-2.54
 74
     0
  0
LTYPE
  5
43
330
5
100
AcDbSymbolTableRecord
100
AcDbLinetypeTableRecord
  2
DOT2
 70
     0
  3
Dot (.5x) ........................................
 72
    65
 73
     2
 40
0.635
 49
0.0
 74
     0
 49
-0.635
 74
     0
  0
ENDTAB
  0
TABLE
  2
LAYER
  5
2
330
0
100
AcDbSymbolTable
 70
     1
  0
LAYER
  5
10
330
2
100
AcDbSymbolTableRecord
100
AcDbLayerTableRecord
  2
0
 70
     0
 62
     7
  6
Continuous
370
    -3
390
F
  0
ENDTAB
  0
TABLE
  2
STYLE
  5
3
330
0
100
AcDbSymbolTable
 70
     2
  0
STYLE
  5
11
330
3
100
AcDbSymbolTableRecord
100
AcDbTextStyleTableRecord
  2
Standard
 70
     0
 40
0.0
 41
1.0
 50
0.0
 71
     0
 42
2.5
  3
txt
  4
bigfont
  0
STYLE
  5
4C
330
3
100
AcDbSymbolTableRecord
100
AcDbTextStyleTableRecord
  2
SLDTEXTSTYLE0
 70
     0
 40
0.0
 41
0.7
 50
0.0
 71
     0
 42
0.2
  3
TXT
  4
bigfont
  0
ENDTAB
  0
TABLE
  2
VIEW
  5
6
330
0
100
AcDbSymbolTable
 70
     0
  0
ENDTAB
  0
TABLE
  2
UCS
  5
7
330
0
100
AcDbSymbolTable
 70
     0
  0
ENDTAB
  0
TABLE
  2
APPID
  5
9
330
0
100
AcDbSymbolTable
 70
     1
  0
APPID
  5
12
330
9
100
AcDbSymbolTableRecord
100
AcDbRegAppTableRecord
  2
ACAD
 70
     0
  0
ENDTAB
  0
TABLE
  2
DIMSTYLE
  5
A
330
0
100
AcDbSymbolTable
 70
     4
100
AcDbDimStyleTable
  0
DIMSTYLE
105
27
330
A
100
AcDbSymbolTableRecord
100
AcDbDimStyleTableRecord
  2
ISO-25
 70
     0
 41
2.5
 42
0.625
 43
3.75
 44
1.25
 73
     0
 74
     0
 77
     1
 78
     8
140
2.5
141
2.5
143
0.0393700787
147
0.625
171
     3
172
     1
271
     2
272
     2
274
     3
278
    44
283
     0
284
     8
340
11
  0
DIMSTYLE
105
2AD
102
{ACAD_REACTORS
330
2AC
330
2CF
330
2E5
102
}
330
A
100
AcDbSymbolTableRecord
100
AcDbDimStyleTableRecord
  2
SLDDIMSTYLE0
 70
     0
 41
3.0
 44
0.0
 45
0.000000001
 73
     0
 74
     0
 77
     3
 78
    12
140
3.5
147
0.875
173
     1
271
     1
272
     3
276
     2
284
    12
340
4C
341
2AE
343
2AE
344
2AE
  0
DIMSTYLE
105
2C1
102
{ACAD_REACTORS
330
2C0
330
2D9
330
311
102
}
330
A
100
AcDbSymbolTableRecord
100
AcDbDimStyleTableRecord
  2
SLDDIMSTYLE1
 70
     0
 41
3.0
 44
0.0
 45
0.000000001
 73
     0
 74
     0
 77
     3
 78
    12
140
3.5
147
0.875
173
     1
271
     1
272
     3
276
     2
284
    12
340
4C
341
2AE
343
2AE
344
2AE
  0
DIMSTYLE
105
2FA
330
A
100
AcDbSymbolTableRecord
100
AcDbDimStyleTableRecord
  2
SLDDIMSTYLE2
 70
     0
 41
3.0
 44
0.0
 45
0.000000001
140
0.0
146
3.0
147
0.0
173
     1
271
     0
272
     0
276
     2
340
11
341
2AE
343
2AE
344
2AE
  0
ENDTAB
  0
TABLE
  2
BLOCK_RECORD
  5
1
330
0
100
AcDbSymbolTable
 70
     9
  0
BLOCK_RECORD
  5
1F
330
1
100
AcDbSymbolTableRecord
100
AcDbBlockTableRecord
  2
*Model_Space
340
22
  0
BLOCK_RECORD
  5
1B
330
1
100
AcDbSymbolTableRecord
100
AcDbBlockTableRecord
  2
*Paper_Space
340
1E
  0
BLOCK_RECORD
  5
23
330
1
100
AcDbSymbolTableRecord
100
AcDbBlockTableRecord
  2
*Paper_Space0
340
26
  0
BLOCK_RECORD
  5
2AE
330
1
100
AcDbSymbolTableRecord
100
AcDbBlockTableRecord
  2
_OPEN30
340
0
102
{BLKREFS
331
2B9
331
2BA
331
2C7
331
2C8
331
2D3
331
2D4
331
2DD
331
2DE
331
2E9
331
2EA
331
315
331
316
102
}
  0
BLOCK_RECORD
  5
2B4
330
1
100
AcDbSymbolTableRecord
100
AcDbBlockTableRecord
  2
*D2
340
0
  0
BLOCK_RECORD
  5
2C2
330
1
100
AcDbSymbolTableRecord
100
AcDbBlockTableRecord
  2
*D3
340
0
  0
BLOCK_RECORD
  5
2D0
330
1
100
AcDbSymbolTableRecord
100
AcDbBlockTableRecord
  2
*D4
340
0
  0
BLOCK_RECORD
  5
2DA
330
1
100
AcDbSymbolTableRecord
100
AcDbBlockTableRecord
  2
*D5
340
0
  0
BLOCK_RECORD
  5
2E6
330
1
100
AcDbSymbolTableRecord
100
AcDbBlockTableRecord
  2
*D6
340
0
  0
BLOCK_RECORD
  5
2EF
330
1
100
AcDbSymbolTableRecord
100
AcDbBlockTableRecord
  2
SW_NOTE_0
340
0
102
{BLKREFS
331
2F9
102
}
  0
BLOCK_RECORD
  5
312
330
1
100
AcDbSymbolTableRecord
100
AcDbBlockTableRecord
  2
*D8
340
0
  0
ENDTAB
  0
ENDSEC
  0
SECTION
  2
BLOCKS
  0
BLOCK
  5
20
330
1F
100
AcDbEntity
  8
0
100
AcDbBlockBegin
  2
*Model_Space
 70
     0
 10
0.0
 20
0.0
 30
0.0
  3
*Model_Space
  1

  0
ENDBLK
  5
21
330
1F
100
AcDbEntity
  8
0
100
AcDbBlockEnd
  0
BLOCK
  5
1C
330
1B
100
AcDbEntity
 67
     1
  8
0
100
AcDbBlockBegin
  2
*Paper_Space
 70
     0
 10
0.0
 20
0.0
 30
0.0
  3
*Paper_Space
  1

  0
ENDBLK
  5
1D
330
1B
100
AcDbEntity
 67
     1
  8
0
100
AcDbBlockEnd
  0
BLOCK
  5
24
330
23
100
AcDbEntity
  8
0
100
AcDbBlockBegin
  2
*Paper_Space0
 70
     0
 10
0.0
 20
0.0
 30
0.0
  3
*Paper_Space0
  1

  0
ENDBLK
  5
25
330
23
100
AcDbEntity
  8
0
100
AcDbBlockEnd
  0
BLOCK
  5
2AF
330
2AE
100
AcDbEntity
  8
0
100
AcDbBlockBegin
  2
_OPEN30
 70
     0
 10
0.0
 20
0.0
 30
0.0
  3
_OPEN30
  1

  0
LINE
  5
2B1
330
2AE
100
AcDbEntity
  8
0
  6
ByBlock
 62
     0
370
    -2
100
AcDbLine
 10
-1.0
 20
0.267949
 30
0.0
 11
0.0
 21
0.0
 31
0.0
  0
LINE
  5
2B2
330
2AE
100
AcDbEntity
  8
0
  6
ByBlock
 62
     0
370
    -2
100
AcDbLine
 10
0.0
 20
0.0
 30
0.0
 11
-1.0
 21
-0.267949
 31
0.0
  0
LINE
  5
2B3
330
2AE
100
AcDbEntity
  8
0
  6
ByBlock
 62
     0
370
    -2
100
AcDbLine
 10
0.0
 20
0.0
 30
0.0
 11
-1.0
 21
0.0
 31
0.0
  0
ENDBLK
  5
2B0
330
2AE
100
AcDbEntity
  8
0
100
AcDbBlockEnd
  0
BLOCK
  5
2B5
330
2B4
100
AcDbEntity
  8
0
100
AcDbBlockBegin
  2
*D2
 70
     1
 10
0.0
 20
0.0
 30
0.0
  3
*D2
  1

  0
ARC
  5
2B7
330
2B4
100
AcDbEntity
  8
0
  6
Continuous
 62
     7
370
     0
100
AcDbCircle
 10
110.8833968026
 20
89.1193732528
 30
0.0
 40
4.550945040761952
100
AcDbArc
 50
153.4349488229
 51
206.5650511771
  0
ARC
  5
2B8
330
2B4
100
AcDbEntity
  8
0
  6
Continuous
 62
     7
370
     0
100
AcDbCircle
 10
113.855827867
 20
89.1193732528
 30
0.0
 40
4.550945040761952
100
AcDbArc
 50
333.4349488229
 51
26.5650511771
  0
INSERT
  5
2B9
330
2B4
100
AcDbEntity
  8
0
  6
Continuous
 62
     7
370
     0
100
AcDbBlockReference
  2
_OPEN30
 10
96.3696123348
 20
87.0841287582
 30
0.0
 41
3.0
 42
3.0
 50
180.0
  0
INSERT
  5
2BA
330
2B4
100
AcDbEntity
  8
0
  6
Continuous
 62
     7
370
     0
100
AcDbBlockReference
  2
_OPEN30
 10
128.3696123348
 20
87.0841287582
 30
0.0
 41
3.0
 42
3.0
 50
0.0
  0
LINE
  5
2BB
330
2B4
100
AcDbEntity
  8
0
  6
Continuous
 62
     7
370
     0
100
AcDbLine
 10
96.3696123348
 20
97.9159118943
 30
0.0
 11
96.3696123348
 21
86.0841287582
 31
0.0
  0
LINE
  5
2BC
330
2B4
100
AcDbEntity
  8
0
  6
Continuous
 62
     7
370
     0
100
AcDbLine
 10
128.3696123348
 20
97.9159118943
 30
0.0
 11
128.3696123348
 21
86.0841287582
 31
0.0
  0
LINE
  5
2BD
330
2B4
100
AcDbEntity
  8
0
  6
Continuous
 62
     7
370
     0
100
AcDbLine
 10
96.3696123348
 20
87.0841287582
 30
0.0
 11
128.3696123348
 21
87.0841287582
 31
0.0
  0
MTEXT
  5
2BE
330
2B4
100
AcDbEntity
  8
0
  6
Continuous
 62
     7
370
     0
100
AcDbMText
 10
108.4004078134
 20
91.5958656146
 30
0.0
 40
3.5
 41
0.0
 71
     1
 72
     1
  1
%%c
  7
SLDTEXTSTYLE0
 73
     1
 44
1.0
  0
MTEXT
  5
2BF
330
2B4
100
AcDbEntity
  8
0
  6
Continuous
 62
     7
370
     0
100
AcDbMText
 10
112.268327867
 20
91.5958656146
 30
0.0
 40
3.5
 41
0.0
 71
     1
 72
     1
  1
30
  7
SLDTEXTSTYLE0
 73
     1
 44
1.0
  0
ENDBLK
  5
2B6
330
2B4
100
AcDbEntity
  8
0
100
AcDbBlockEnd
  0
BLOCK
  5
2C3
330
2C2
100
AcDbEntity
  8
0
100
AcDbBlockBegin
  2
*D3
 70
     1
 10
0.0
 20
0.0
 30
0.0
  3
*D3
  1

  0
ARC
  5
2C5
330
2C2
100
AcDbEntity
  8
0
  6
Continuous
 62
     7
370
     0
100
AcDbCircle
 10
145.4700738067
 20
104.6248693948
 30
0.0
 40
4.550945040761984
100
AcDbArc
 50
243.4349488229
 51
296.5650511771
  0
ARC
  5
2C6
330
2C2
100
AcDbEntity
  8
0
  6
Continuous
 62
     7
370
     0
100
AcDbCircle
 10
145.4700738067
 20
101.6922248833
 30
0.0
 40
4.550945040761984
100
AcDbArc
 50
63.4349488229
 51
116.5650511771
  0
INSERT
  5
2C7
330
2C2
100
AcDbEntity
  8
0
  6
Continuous
 62
     7
370
     0
100
AcDbBlockReference
  2
_OPEN30
 10
147.5053183013
 20
98.6159118943
 30
0.0
 41
3.0
 42
3.0
 50
90.0
  0
INSERT
  5
2C8
330
2C2
100
AcDbEntity
  8
0
  6
Continuous
 62
     7
370
     0
100
AcDbBlockReference
  2
_OPEN30
 10
147.5053183013
 20
107.7011823839
 30
0.0
 41
3.0
 42
3.0
 50
270.0
  0
LINE
  5
2C9
330
2C2
100
AcDbEntity
  8
0
  6
Continuous
 62
     7
370
     0
100
AcDbLine
 10
129.0696123348
 20
98.6159118943
 30
0.0
 11
148.5053183013
 21
98.6159118943
 31
0.0
  0
LINE
  5
2CA
330
2C2
100
AcDbEntity
  8
0
  6
Continuous
 62
     7
370
     0
100
AcDbLine
 10
119.8868359573
 20
107.7011823839
 30
0.0
 11
148.5053183013
 21
107.7011823839
 31
0.0
  0
LINE
  5
2CB
330
2C2
100
AcDbEntity
  8
0
  6
Continuous
 62
     7
370
     0
100
AcDbLine
 10
147.5053183013
 20
98.6159118943
 30
0.0
 11
147.5053183013
 21
93.6159118943
 31
0.0
  0
LINE
  5
2CC
330
2C2
100
AcDbEntity
  8
0
  6
Continuous
 62
     7
370
     0
100
AcDbLine
 10
147.5053183013
 20
98.6159118943
 30
0.0
 11
147.5053183013
 21
107.7011823839
 31
0.0
  0
LINE
  5
2CD
330
2C2
100
AcDbEntity
  8
0
  6
Continuous
 62
     7
370
     0
100
AcDbLine
 10
147.5053183013
 20
107.7011823839
 30
0.0
 11
147.5053183013
 21
112.7011823839
 31
0.0
  0
MTEXT
  5
2CE
330
2C2
100
AcDbEntity
  8
0
  6
Continuous
 62
     7
370
     0
100
AcDbMText
 10
142.993581445
 20
102.1418804056
 30
0.0
 40
3.5
 41
0.0
 71
     1
 72
     1
  1
9
  7
SLDTEXTSTYLE0
 11
6.123233995736766E-17
 21
1.0
 31
0.0
 73
     1
 44
1.0
  0
ENDBLK
  5
2C4
330
2C2
100
AcDbEntity
  8
0
100
AcDbBlockEnd
  0
BLOCK
  5
2D1
330
2D0
100
AcDbEntity
  8
0
100
AcDbBlockBegin
  2
*D4
 70
     1
 10
0.0
 20
0.0
 30
0.0
  3
*D4
  1

  0
INSERT
  5
2D3
330
2D0
100
AcDbEntity
  8
0
  6
Continuous
 62
     7
370
     0
100
AcDbBlockReference
  2
_OPEN30
 10
80.9612083981
 20
98.6159118943
 30
0.0
 41
3.0
 42
3.0
 50
270.0
  0
INSERT
  5
2D4
330
2D0
100
AcDbEntity
  8
0
  6
Continuous
 62
     7
370
     0
100
AcDbBlockReference
  2
_OPEN30
 10
80.9612083981
 20
139.6159118943
 30
0.0
 41
3.0
 42
3.0
 50
90.0
  0
LINE
  5
2D5
330
2D0
100
AcDbEntity
  8
0
  6
Continuous
 62
     7
370
     0
100
AcDbLine
 10
95.6696123348
 20
98.6159118943
 30
0.0
 11
79.9612083981
 21
98.6159118943
 31
0.0
  0
LINE
  5
2D6
330
2D0
100
AcDbEntity
  8
0
  6
Continuous
 62
     7
370
     0
100
AcDbLine
 10
107.3696123348
 20
139.6159118943
 30
0.0
 11
79.9612083981
 21
139.6159118943
 31
0.0
  0
LINE
  5
2D7
330
2D0
100
AcDbEntity
  8
0
  6
Continuous
 62
     7
370
     0
100
AcDbLine
 10
80.9612083981
 20
98.6159118943
 30
0.0
 11
80.9612083981
 21
139.6159118943
 31
0.0
  0
MTEXT
  5
2D8
330
2D0
100
AcDbEntity
  8
0
  6
Continuous
 62
     7
370
     0
100
AcDbMText
 10
76.4494715417
 20
117.0806673997
 30
0.0
 40
3.5
 41
0.0
 71
     1
 72
     1
  1
41
  7
SLDTEXTSTYLE0
 11
6.123233995736766E-17
 21
1.0
 31
0.0
 73
     1
 44
1.0
  0
ENDBLK
  5
2D2
330
2D0
100
AcDbEntity
  8
0
100
AcDbBlockEnd
  0
BLOCK
  5
2DB
330
2DA
100
AcDbEntity
  8
0
100
AcDbBlockBegin
  2
*D5
 70
     1
 10
0.0
 20
0.0
 30
0.0
  3
*D5
  1

  0
INSERT
  5
2DD
330
2DA
100
AcDbEntity
  8
0
  6
Continuous
 62
     7
370
     0
100
AcDbBlockReference
  2
_OPEN30
 10
96.7849020469
 20
139.6159118943
 30
0.0
 41
3.0
 42
3.0
 50
270.0
  0
INSERT
  5
2DE
330
2DA
100
AcDbEntity
  8
0
  6
Continuous
 62
     7
370
     0
100
AcDbBlockReference
  2
_OPEN30
 10
96.7849020469
 20
129.6159118943
 30
0.0
 41
3.0
 42
3.0
 50
90.0
  0
LINE
  5
2DF
330
2DA
100
AcDbEntity
  8
0
  6
Continuous
 62
     7
370
     0
100
AcDbLine
 10
107.3696123348
 20
139.6159118943
 30
0.0
 11
95.7849020469
 21
139.6159118943
 31
0.0
  0
LINE
  5
2E0
330
2DA
100
AcDbEntity
  8
0
  6
Continuous
 62
     7
370
     0
100
AcDbLine
 10
103.3696123348
 20
129.6159118943
 30
0.0
 11
95.7849020469
 21
129.6159118943
 31
0.0
  0
LINE
  5
2E1
330
2DA
100
AcDbEntity
  8
0
  6
Continuous
 62
     7
370
     0
100
AcDbLine
 10
96.7849020469
 20
139.6159118943
 30
0.0
 11
96.7849020469
 21
144.6159118943
 31
0.0
  0
LINE
  5
2E2
330
2DA
100
AcDbEntity
  8
0
  6
Continuous
 62
     7
370
     0
100
AcDbLine
 10
96.7849020469
 20
139.6159118943
 30
0.0
 11
96.7849020469
 21
129.6159118943
 31
0.0
  0
LINE
  5
2E3
330
2DA
100
AcDbEntity
  8
0
  6
Continuous
 62
     7
370
     0
100
AcDbLine
 10
96.7849020469
 20
129.6159118943
 30
0.0
 11
96.7849020469
 21
124.6159118943
 31
0.0
  0
MTEXT
  5
2E4
330
2DA
100
AcDbEntity
  8
0
  6
Continuous
 62
     7
370
     0
100
AcDbMText
 10
92.2731651906
 20
132.5806673997
 30
0.0
 40
3.5
 41
0.0
 71
     1
 72
     1
  1
10
  7
SLDTEXTSTYLE0
 11
-7.044195017643634E-15
 21
1.0
 31
0.0
 73
     1
 44
1.0
  0
ENDBLK
  5
2DC
330
2DA
100
AcDbEntity
  8
0
100
AcDbBlockEnd
  0
BLOCK
  5
2E7
330
2E6
100
AcDbEntity
  8
0
100
AcDbBlockBegin
  2
*D6
 70
     1
 10
0.0
 20
0.0
 30
0.0
  3
*D6
  1

  0
INSERT
  5
2E9
330
2E6
100
AcDbEntity
  8
0
  6
Continuous
 62
     7
370
     0
100
AcDbBlockReference
  2
_OPEN30
 10
88.8256788942
 20
119.6159118943
 30
0.0
 41
3.0
 42
3.0
 50
270.0
  0
INSERT
  5
2EA
330
2E6
100
AcDbEntity
  8
0
  6
Continuous
 62
     7
370
     0
100
AcDbBlockReference
  2
_OPEN30
 10
88.8256788942
 20
139.6159118943
 30
0.0
 41
3.0
 42
3.0
 50
90.0
  0
LINE
  5
2EB
330
2E6
100
AcDbEntity
  8
0
  6
Continuous
 62
     7
370
     0
100
AcDbLine
 10
99.3696123348
 20
119.6159118943
 30
0.0
 11
87.8256788942
 21
119.6159118943
 31
0.0
  0
LINE
  5
2EC
330
2E6
100
AcDbEntity
  8
0
  6
Continuous
 62
     7
370
     0
100
AcDbLine
 10
108.8696123348
 20
139.6159118943
 30
0.0
 11
87.8256788942
 21
139.6159118943
 31
0.0
  0
LINE
  5
2ED
330
2E6
100
AcDbEntity
  8
0
  6
Continuous
 62
     7
370
     0
100
AcDbLine
 10
88.8256788942
 20
119.6159118943
 30
0.0
 11
88.8256788942
 21
139.6159118943
 31
0.0
  0
MTEXT
  5
2EE
330
2E6
100
AcDbEntity
  8
0
  6
Continuous
 62
     7
370
     0
100
AcDbMText
 10
84.3139420379
 20
127.5806673997
 30
0.0
 40
3.5
 41
0.0
 71
     1
 72
     1
  1
20
  7
SLDTEXTSTYLE0
 11
6.123233995736766E-17
 21
1.0
 31
0.0
 73
     1
 44
1.0
  0
ENDBLK
  5
2E8
330
2E6
100
AcDbEntity
  8
0
100
AcDbBlockEnd
  0
BLOCK
  5
2F0
330
2EF
100
AcDbEntity
  8
0
100
AcDbBlockBegin
  2
SW_NOTE_0
 70
     0
 10
0.0
 20
0.0
 30
0.0
  3
SW_NOTE_0
  1

  0
LINE
  5
2F2
330
2EF
100
AcDbEntity
  8
0
  6
Continuous
 62
     0
370
     0
100
AcDbLine
 10
0.0
 20
0.0011906241
 30
0.0
 11
10.1819555561
 21
0.0011906241
 31
0.0
  0
LINE
  5
2F3
330
2EF
100
AcDbEntity
  8
0
  6
Continuous
 62
     0
370
     0
100
AcDbLine
 10
10.1819555561
 20
0.0011906241
 30
0.0
 11
0.0
 21
0.0011906241
 31
0.0
  0
LINE
  5
2F4
330
2EF
100
AcDbEntity
  8
0
  6
Continuous
 62
     0
370
     0
100
AcDbLine
 10
0.0
 20
0.0011906241
 30
0.0
 11
10.1819555561
 21
0.0011906241
 31
0.0
  0
LINE
  5
2F5
330
2EF
100
AcDbEntity
  8
0
  6
Continuous
 62
     0
370
     0
100
AcDbLine
 10
10.1819555561
 20
0.0011906241
 30
0.0
 11
0.0
 21
0.0011906241
 31
0.0
  0
LINE
  5
2F6
330
2EF
100
AcDbEntity
  8
0
  6
Continuous
 62
     0
370
     0
100
AcDbLine
 10
0.0
 20
0.0011906241
 30
0.0
 11
10.1819555561
 21
0.0011906241
 31
0.0
  0
LINE
  5
2F7
330
2EF
100
AcDbEntity
  8
0
  6
Continuous
 62
     0
370
     0
100
AcDbLine
 10
10.1819555561
 20
0.0011906241
 30
0.0
 11
0.0
 21
0.0011906241
 31
0.0
  0
MTEXT
  5
2F8
330
2EF
100
AcDbEntity
  8
0
  6
Continuous
 62
     0
370
     0
100
AcDbMText
 10
0.0003555324
 20
4.5145711094
 30
0.0
 40
3.5
 41
0.0
 71
     1
 72
     1
  1
R 1/8
  7
SLDTEXTSTYLE0
 73
     1
 44
1.0
  0
ENDBLK
  5
2F1
330
2EF
100
AcDbEntity
  8
0
100
AcDbBlockEnd
  0
BLOCK
  5
313
330
312
100
AcDbEntity
  8
0
100
AcDbBlockBegin
  2
*D8
 70
     1
 10
0.0
 20
0.0
 30
0.0
  3
*D8
  1

  0
INSERT
  5
315
330
312
100
AcDbEntity
  8
0
  6
Continuous
 62
     7
370
     0
100
AcDbBlockReference
  2
_OPEN30
 10
120.8696123348
 20
232.0490463685
 30
-12.0216947431
 41
3.0
 42
3.0
 50
180.0
  0
INSERT
  5
316
330
312
100
AcDbEntity
  8
0
  6
Continuous
 62
     7
370
     0
100
AcDbBlockReference
  2
_OPEN30
 10
103.8696123348
 20
232.0490463685
 30
-12.0216947431
 41
3.0
 42
3.0
 50
0.0
  0
LINE
  5
317
330
312
100
AcDbEntity
  8
0
  6
Continuous
 62
     7
370
     0
100
AcDbLine
 10
120.8696123348
 20
210.9882497839
 30
0.0
 11
120.8696123348
 21
233.0490463685
 31
0.0
  0
LINE
  5
318
330
312
100
AcDbEntity
  8
0
  6
Continuous
 62
     7
370
     0
100
AcDbLine
 10
103.8696123348
 20
210.9882497839
 30
0.0
 11
103.8696123348
 21
233.0490463685
 31
0.0
  0
LINE
  5
319
330
312
100
AcDbEntity
  8
0
  6
Continuous
 62
     7
370
     0
100
AcDbLine
 10
120.8696123348
 20
232.0490463685
 30
0.0
 11
125.8696123348
 21
232.0490463685
 31
0.0
  0
LINE
  5
31A
330
312
100
AcDbEntity
  8
0
  6
Continuous
 62
     7
370
     0
100
AcDbLine
 10
120.8696123348
 20
232.0490463685
 30
0.0
 11
103.8696123348
 21
232.0490463685
 31
0.0
  0
LINE
  5
31B
330
312
100
AcDbEntity
  8
0
  6
Continuous
 62
     7
370
     0
100
AcDbLine
 10
103.8696123348
 20
232.0490463685
 30
0.0
 11
98.8696123348
 21
232.0490463685
 31
0.0
  0
MTEXT
  5
31C
330
312
100
AcDbEntity
  8
0
  6
Continuous
 62
     7
370
     0
100
AcDbMText
 10
110.3343678402
 20
236.5607832249
 30
0.0
 40
3.5
 41
0.0
 71
     1
 72
     1
  1
17
  7
SLDTEXTSTYLE0
 73
     1
 44
1.0
  0
ENDBLK
  5
314
330
312
100
AcDbEntity
  8
0
100
AcDbBlockEnd
  0
ENDSEC
  0
SECTION
  2
ENTITIES
  0
LINE
  5
44
330
1F
100
AcDbEntity
  8
0
  6
Continuous
 62
     7
370
     0
100
AcDbLine
 10
20.2604743903
 20
285.0
 30
0.0
 11
196.7604743903
 21
285.0
 31
0.0
  0
LINE
  5
45
330
1F
100
AcDbEntity
  8
0
  6
Continuous
 62
     7
370
     0
100
AcDbLine
 10
20.2604743903
 20
285.0
 30
0.0
 11
20.2604743903
 21
10.0
 31
0.0
  0
LINE
  5
46
330
1F
100
AcDbEntity
  8
0
  6
Continuous
 62
     7
370
     0
100
AcDbLine
 10
20.2604743903
 20
10.0
 30
0.0
 11
196.7604743903
 21
10.0
 31
0.0
  0
LINE
  5
47
330
1F
100
AcDbEntity
  8
0
  6
Continuous
 62
     7
370
     0
100
AcDbLine
 10
196.7604743903
 20
285.0
 30
0.0
 11
196.7604743903
 21
10.0
 31
0.0
  0
LINE
  5
48
330
1F
100
AcDbEntity
  8
0
  6
Continuous
 62
     7
370
     0
100
AcDbLine
 10
127.0104743903
 20
50.75
 30
0.0
 11
196.7604743903
 21
50.75
 31
0.0
  0
LINE
  5
49
330
1F
100
AcDbEntity
  8
0
  6
Continuous
 62
     7
370
     0
100
AcDbLine
 10
127.0104743903
 20
50.75
 30
0.0
 11
127.0104743903
 21
10.0
 31
0.0
  0
LINE
  5
4A
330
1F
100
AcDbEntity
  8
0
  6
Continuous
 62
     7
370
     0
100
AcDbLine
 10
127.0104743903
 20
22.75
 30
0.0
 11
196.7604743903
 21
22.75
 31
0.0
  0
LINE
  5
4B
330
1F
100
AcDbEntity
  8
0
  6
Continuous
 62
     7
370
     0
100
AcDbLine
 10
127.0104743903
 20
36.75
 30
0.0
 11
196.7604743903
 21
36.75
 31
0.0
  0
MTEXT
  5
6F
330
1F
100
AcDbEntity
  8
0
  6
Continuous
 62
     7
370
     0
100
AcDbMText
 10
145.7409862894
 20
30.4171580599
 30
0.0
 40
4.2333333333
 41
0.0
 71
     1
 72
     1
  1
VAPNP-30C-1-M
  7
SLDTEXTSTYLE0
 73
     1
 44
1.0
  0
MTEXT
  5
70
330
1F
100
AcDbEntity
  8
0
  6
Continuous
 62
     7
370
     0
100
AcDbMText
 10
139.0343892037
 20
43.9409718514
 30
0.0
 40
4.2333333333
 41
0.0
 71
     1
 72
     1
  1
吸着パット・薄鋼板用
  7
SLDTEXTSTYLE0
 73
     1
 44
1.0
  0
MTEXT
  5
71
330
1F
100
AcDbEntity
  8
0
  6
Continuous
 62
     7
370
     0
100
AcDbMText
 10
155.5014210039
 20
16.8228189052
 30
0.0
 40
4.2333333333
 41
0.0
 71
     1
 72
     1
  1
210818
  7
SLDTEXTSTYLE0
 73
     1
 44
1.0
  0
LINE
  5
72
330
1F
100
AcDbEntity
  8
0
  6
Continuous
 62
     7
370
    30
100
AcDbLine
 10
117.3696126184
 20
129.6159122733
 30
0.0
 11
117.3696126184
 21
138.6159137485
 31
0.0
  0
LINE
  5
73
330
1F
100
AcDbEntity
  8
0
  6
Continuous
 62
     7
370
    30
100
AcDbLine
 10
107.3696123472
 20
138.6159137485
 30
0.0
 11
107.3696123472
 21
129.6159122733
 31
0.0
  0
LINE
  5
74
330
1F
100
AcDbEntity
  8
0
  6
Continuous
 62
     7
370
    30
100
AcDbLine
 10
117.3696126184
 20
138.6159137485
 30
0.0
 11
116.3696124545
 21
139.6159120497
 31
0.0
  0
LINE
  5
75
330
1F
100
AcDbEntity
  8
0
  6
Continuous
 62
     7
370
    30
100
AcDbLine
 10
108.3696123074
 20
139.6159120497
 30
0.0
 11
107.3696123472
 21
138.6159137485
 31
0.0
  0
ARC
  5
76
330
1F
100
AcDbEntity
  8
0
  6
Continuous
 62
     7
370
    30
100
AcDbCircle
 10
126.4011052439
 20
107.6605118559
 30
0.0
 40
2.000000000000001
100
AcDbArc
 50
303.75
 51
53.35
  0
ARC
  5
77
330
1F
100
AcDbEntity
  8
0
  6
Continuous
 62
     7
370
    30
100
AcDbCircle
 10
98.3381194257
 20
107.6605118559
 30
0.0
 40
2.000000000000004
100
AcDbArc
 50
126.65
 51
236.25
  0
ARC
  5
78
330
1F
100
AcDbEntity
  8
0
  6
Continuous
 62
     7
370
    30
100
AcDbCircle
 10
128.0696123348
 20
99.8303363484
 30
0.0
 40
0.2999999999999939
100
AcDbArc
 50
0.0
 51
71.45
  0
ARC
  5
79
330
1F
100
AcDbEntity
  8
0
  6
Continuous
 62
     7
370
    30
100
AcDbCircle
 10
96.6696123348
 20
99.8303363484
 30
0.0
 40
0.2999999999999972
100
AcDbArc
 50
108.55
 51
180.0
  0
LINE
  5
7A
330
1F
100
AcDbEntity
  8
0
  6
Continuous
 62
     7
370
    30
100
AcDbLine
 10
96.3696119702
 20
99.8303364624
 30
0.0
 11
96.3696119702
 21
98.9159122703
 31
0.0
  0
LINE
  5
7B
330
1F
100
AcDbEntity
  8
0
  6
Continuous
 62
     7
370
    30
100
AcDbLine
 10
128.3696125588
 20
98.9159122703
 30
0.0
 11
128.3696125588
 21
99.8303364624
 31
0.0
  0
ARC
  5
7C
330
1F
100
AcDbEntity
  8
0
  6
Continuous
 62
     7
370
    30
100
AcDbCircle
 10
128.0696123348
 20
98.9159118943
 30
0.0
 40
0.2999999999999972
100
AcDbArc
 50
270.0
 51
0.0
  0
ARC
  5
7D
330
1F
100
AcDbEntity
  8
0
  6
Continuous
 62
     7
370
    30
100
AcDbCircle
 10
96.6696123348
 20
98.9159118943
 30
0.0
 40
0.2999999999999972
100
AcDbArc
 50
180.0
 51
270.0
  0
LINE
  5
7E
330
1F
100
AcDbEntity
  8
0
  6
Continuous
 62
     7
370
    30
100
AcDbLine
 10
128.1650512806
 20
100.1147502695
 30
0.0
 11
123.8005495957
 21
101.5793290583
 31
0.0
  0
LINE
  5
7F
330
1F
100
AcDbEntity
  8
0
  6
Continuous
 62
     7
370
    30
100
AcDbLine
 10
100.9386758647
 20
101.5793290583
 30
0.0
 11
96.5741723171
 21
100.1147502695
 31
0.0
  0
LINE
  5
80
330
1F
100
AcDbEntity
  8
0
  6
Continuous
 62
     7
370
    30
100
AcDbLine
 10
127.5949552051
 20
109.2651056253
 30
0.0
 11
123.3082077793
 21
112.454534102
 31
0.0
  0
LINE
  5
81
330
1F
100
AcDbEntity
  8
0
  6
Continuous
 62
     7
370
    30
100
AcDbLine
 10
101.4310176811
 20
112.454534102
 30
0.0
 11
97.144269324
 21
109.2651056253
 31
0.0
  0
LINE
  5
82
330
1F
100
AcDbEntity
  8
0
  6
Continuous
 62
     7
370
    30
100
AcDbLine
 10
97.2269791505
 20
105.9975725959
 30
0.0
 11
101.1761137611
 21
103.358845053
 31
0.0
  0
LINE
  5
83
330
1F
100
AcDbEntity
  8
0
  6
Continuous
 62
     7
370
    30
100
AcDbLine
 10
123.5631107679
 20
103.358845053
 30
0.0
 11
127.5122463099
 21
105.9975725959
 31
0.0
  0
ARC
  5
84
330
1F
100
AcDbEntity
  8
0
  6
Continuous
 62
     7
370
    30
100
AcDbCircle
 10
102.3696123348
 20
115.8340735714
 30
0.0
 40
2.000000000000004
100
AcDbArc
 50
180.0
 51
239.2135356198
  0
ARC
  5
85
330
1F
100
AcDbEntity
  8
0
  6
Continuous
 62
     7
370
    30
100
AcDbCircle
 10
122.3696123348
 20
115.8340735714
 30
0.0
 40
2.000000000000004
100
AcDbArc
 50
300.7864643802
 51
0.0
  0
LINE
  5
86
330
1F
100
AcDbEntity
  8
0
  6
Continuous
 62
     7
370
    30
100
AcDbLine
 10
100.3696121602
 20
119.6159115655
 30
0.0
 11
100.3696121602
 21
115.8340732229
 31
0.0
  0
LINE
  5
87
330
1F
100
AcDbEntity
  8
0
  6
Continuous
 62
     7
370
    30
100
AcDbLine
 10
124.3696119032
 20
115.8340732229
 30
0.0
 11
124.3696119032
 21
119.6159115655
 31
0.0
  0
ARC
  5
88
330
1F
100
AcDbEntity
  8
0
  6
Continuous
 62
     7
370
    30
100
AcDbCircle
 10
100.6205437319
 20
102.5273753702
 30
0.0
 40
1.000000000000004
100
AcDbArc
 50
288.55
 51
56.25
  0
ARC
  5
89
330
1F
100
AcDbEntity
  8
0
  6
Continuous
 62
     7
370
    30
100
AcDbCircle
 10
124.1186809377
 20
102.5273753702
 30
0.0
 40
1.000000000000004
100
AcDbArc
 50
123.75
 51
251.45
  0
ARC
  5
8A
330
1F
100
AcDbEntity
  8
0
  6
Continuous
 62
     7
370
    30
100
AcDbCircle
 10
100.834092548
 20
113.2568310557
 30
0.0
 40
1.000000000000009
100
AcDbArc
 50
306.65
 51
59.2135356198
  0
ARC
  5
8B
330
1F
100
AcDbEntity
  8
0
  6
Continuous
 62
     7
370
    30
100
AcDbCircle
 10
123.9051321216
 20
113.2568310557
 30
0.0
 40
1.000000000000009
100
AcDbArc
 50
120.7864643802
 51
233.35
  0
LINE
  5
8C
330
1F
100
AcDbEntity
  8
0
  6
Continuous
 62
     7
370
    30
100
AcDbLine
 10
104.3696123502
 20
129.6159122733
 30
0.0
 11
120.3696121788
 21
129.6159122733
 31
0.0
  0
SPLINE
  5
8D
330
1F
100
AcDbEntity
  8
0
  6
Continuous
 62
     7
370
    30
100
AcDbSpline
210
0.0
220
0.0
230
1.0
 70
    24
 71
     3
 72
     8
 73
     4
 74
     0
 42
0.00000001
 43
0.00000001
 40
0.0
 40
0.0
 40
0.0
 40
0.0
 40
0.0007216906218459
 40
0.0007216906218459
 40
0.0007216906218459
 40
0.0007216906218459
 10
120.3696123348017
 20
129.6159118942732
 30
0.0
 10
120.536184487812
 20
129.4493397412629
 30
0.0
 10
120.702854861334
 20
129.2826693677409
 30
0.0
 10
120.8696123348017
 20
129.1159118942732
 30
0.0
  0
LINE
  5
8E
330
1F
100
AcDbEntity
  8
0
  6
Continuous
 62
     7
370
    30
100
AcDbLine
 10
120.8696122608
 20
129.11591126
 30
0.0
 11
103.8696122683
 21
129.11591126
 31
0.0
  0
SPLINE
  5
8F
330
1F
100
AcDbEntity
  8
0
  6
Continuous
 62
     7
370
    30
100
AcDbSpline
210
0.0
220
0.0
230
1.0
 70
    24
 71
     3
 72
     8
 73
     4
 74
     0
 42
0.00000001
 43
0.00000001
 40
0.0
 40
0.0
 40
0.0
 40
0.0
 40
0.0007216906218459
 40
0.0007216906218459
 40
0.0007216906218459
 40
0.0007216906218459
 10
103.8696123348017
 20
129.1159118942732
 30
0.0
 10
104.0363698082694
 20
129.2826693677409
 30
0.0
 10
104.2030401817915
 20
129.4493397412629
 30
0.0
 10
104.3696123348017
 20
129.6159118942732
 30
0.0
  0
LINE
  5
90
330
1F
100
AcDbEntity
  8
0
  6
Continuous
 62
     7
370
    30
100
AcDbLine
 10
103.8696122683
 20
119.6159115655
 30
0.0
 11
103.8696122683
 21
129.11591126
 31
0.0
  0
LINE
  5
91
330
1F
100
AcDbEntity
  8
0
  6
Continuous
 62
     7
370
    30
100
AcDbLine
 10
120.8696122608
 20
119.6159115655
 30
0.0
 11
120.8696122608
 21
129.11591126
 31
0.0
  0
LINE
  5
92
330
1F
100
AcDbEntity
  8
0
  6
Continuous
 62
     7
370
    30
100
AcDbLine
 10
112.3696122645
 20
138.6159137485
 30
0.0
 11
107.3696123472
 21
138.6159137485
 31
0.0
  0
LINE
  5
93
330
1F
100
AcDbEntity
  8
0
  6
Continuous
 62
     7
370
    30
100
AcDbLine
 10
117.3696126184
 20
138.6159137485
 30
0.0
 11
112.3696122645
 21
138.6159137485
 31
0.0
  0
LINE
  5
94
330
1F
100
AcDbEntity
  8
0
  6
Continuous
 62
     7
370
    30
100
AcDbLine
 10
112.3696122645
 20
139.6159120497
 30
0.0
 11
116.3696124545
 21
139.6159120497
 31
0.0
  0
LINE
  5
95
330
1F
100
AcDbEntity
  8
0
  6
Continuous
 62
     7
370
    30
100
AcDbLine
 10
108.3696123074
 20
139.6159120497
 30
0.0
 11
112.3696122645
 21
139.6159120497
 31
0.0
  0
LINE
  5
96
330
1F
100
AcDbEntity
  8
0
  6
Continuous
 62
     7
370
    30
100
AcDbLine
 10
128.0696130684
 20
98.6159118486
 30
0.0
 11
96.6696123919
 21
98.6159118486
 31
0.0
  0
LINE
  5
97
330
1F
100
AcDbEntity
  8
0
  6
Continuous
 62
     7
370
    30
100
AcDbLine
 10
112.3696122645
 20
119.6159115655
 30
0.0
 11
124.3696119032
 21
119.6159115655
 31
0.0
  0
LINE
  5
98
330
1F
100
AcDbEntity
  8
0
  6
Continuous
 62
     7
370
    30
100
AcDbLine
 10
100.3696121602
 20
119.6159115655
 30
0.0
 11
112.3696122645
 21
119.6159115655
 31
0.0
  0
LINE
  5
99
330
1F
100
AcDbEntity
  8
0
  6
Continuous
 62
    18
370
    30
100
AcDbLine
 10
112.3696122645
 20
109.2651056253
 30
0.0
 11
127.5949552051
 21
109.2651056253
 31
0.0
  0
LINE
  5
9A
330
1F
100
AcDbEntity
  8
0
  6
Continuous
 62
    18
370
    30
100
AcDbLine
 10
97.144269324
 20
109.2651056253
 30
0.0
 11
112.3696122645
 21
109.2651056253
 31
0.0
  0
LINE
  5
9B
330
1F
100
AcDbEntity
  8
0
  6
Continuous
 62
    18
370
    30
100
AcDbLine
 10
127.5122463099
 20
105.9975725959
 30
0.0
 11
97.2269791505
 21
105.9975725959
 31
0.0
  0
LINE
  5
9C
330
1F
100
AcDbEntity
  8
0
  6
Continuous
 62
    18
370
    30
100
AcDbLine
 10
112.3696122645
 20
100.1147502695
 30
0.0
 11
128.1650512806
 21
100.1147502695
 31
0.0
  0
LINE
  5
9D
330
1F
100
AcDbEntity
  8
0
  6
Continuous
 62
    18
370
    30
100
AcDbLine
 10
96.5741723171
 20
100.1147502695
 30
0.0
 11
112.3696122645
 21
100.1147502695
 31
0.0
  0
LINE
  5
9E
330
1F
100
AcDbEntity
  8
0
  6
Continuous
 62
    18
370
    30
100
AcDbLine
 10
128.3696125588
 20
99.8303364624
 30
0.0
 11
96.3696119702
 21
99.8303364624
 31
0.0
  0
LINE
  5
9F
330
1F
100
AcDbEntity
  8
0
  6
Continuous
 62
    18
370
    30
100
AcDbLine
 10
96.3696119702
 20
98.9159122703
 30
0.0
 11
128.3696125588
 21
98.9159122703
 31
0.0
  0
LINE
  5
A0
330
1F
100
AcDbEntity
  8
0
  6
Continuous
 62
    18
370
    30
100
AcDbLine
 10
123.8005495957
 20
101.5793290583
 30
0.0
 11
100.9386758647
 21
101.5793290583
 31
0.0
  0
LINE
  5
A1
330
1F
100
AcDbEntity
  8
0
  6
Continuous
 62
    18
370
    30
100
AcDbLine
 10
112.3696122645
 20
112.454534102
 30
0.0
 11
123.3082077793
 21
112.454534102
 31
0.0
  0
LINE
  5
A2
330
1F
100
AcDbEntity
  8
0
  6
Continuous
 62
    18
370
    30
100
AcDbLine
 10
101.4310176811
 20
112.454534102
 30
0.0
 11
112.3696122645
 21
112.454534102
 31
0.0
  0
LINE
  5
A3
330
1F
100
AcDbEntity
  8
0
  6
Continuous
 62
    18
370
    30
100
AcDbLine
 10
112.3696122645
 20
103.358845053
 30
0.0
 11
123.5631107679
 21
103.358845053
 31
0.0
  0
LINE
  5
A4
330
1F
100
AcDbEntity
  8
0
  6
Continuous
 62
    18
370
    30
100
AcDbLine
 10
101.1761137611
 20
103.358845053
 30
0.0
 11
112.3696122645
 21
103.358845053
 31
0.0
  0
LINE
  5
A5
330
1F
100
AcDbEntity
  8
0
  6
Continuous
 62
    18
370
    30
100
AcDbLine
 10
112.3696122645
 20
115.8340732229
 30
0.0
 11
124.3696119032
 21
115.8340732229
 31
0.0
  0
LINE
  5
A6
330
1F
100
AcDbEntity
  8
0
  6
Continuous
 62
    18
370
    30
100
AcDbLine
 10
100.3696121602
 20
115.8340732229
 30
0.0
 11
112.3696122645
 21
115.8340732229
 31
0.0
  0
LINE
  5
A7
330
1F
100
AcDbEntity
  8
0
  6
Continuous
 62
    18
370
    30
100
AcDbLine
 10
112.3696122645
 20
114.1159120609
 30
0.0
 11
123.393291547
 21
114.1159120609
 31
0.0
  0
LINE
  5
A8
330
1F
100
AcDbEntity
  8
0
  6
Continuous
 62
    18
370
    30
100
AcDbLine
 10
101.3459325163
 20
114.1159120609
 30
0.0
 11
112.3696122645
 21
114.1159120609
 31
0.0
  0
LINE
  5
A9
330
1F
100
AcDbEntity
  8
0
  6
HIDDEN
 62
     7
370
     0
100
AcDbLine
 10
112.3696122645
 20
116.1159119231
 30
0.0
 11
122.3696125067
 21
116.1159119231
 31
0.0
  0
LINE
  5
AA
330
1F
100
AcDbEntity
  8
0
  6
HIDDEN
 62
     7
370
     0
100
AcDbLine
 10
102.369612488
 20
116.1159119231
 30
0.0
 11
112.3696122645
 21
116.1159119231
 31
0.0
  0
LINE
  5
AB
330
1F
100
AcDbEntity
  8
0
  6
HIDDEN
 62
     7
370
     0
100
AcDbLine
 10
122.3696125067
 20
117.4159115774
 30
0.0
 11
102.369612488
 21
117.4159115774
 31
0.0
  0
LINE
  5
AC
330
1F
100
AcDbEntity
  8
0
  6
HIDDEN
 62
     7
370
     0
100
AcDbLine
 10
114.3696121267
 20
116.615912005
 30
0.0
 11
110.3696124024
 21
116.615912005
 31
0.0
  0
LINE
  5
AD
330
1F
100
AcDbEntity
  8
0
  6
HIDDEN
 62
     7
370
     0
100
AcDbLine
 10
112.3696122645
 20
117.6159121689
 30
0.0
 11
122.3696125067
 21
117.6159121689
 31
0.0
  0
LINE
  5
AE
330
1F
100
AcDbEntity
  8
0
  6
HIDDEN
 62
     7
370
     0
100
AcDbLine
 10
102.369612488
 20
117.6159121689
 30
0.0
 11
112.3696122645
 21
117.6159121689
 31
0.0
  0
LINE
  5
AF
330
1F
100
AcDbEntity
  8
0
  6
HIDDEN
 62
     7
370
     0
100
AcDbLine
 10
112.3696122645
 20
139.1159110365
 30
0.0
 11
114.3696121267
 21
139.1159110365
 31
0.0
  0
LINE
  5
B0
330
1F
100
AcDbEntity
  8
0
  6
HIDDEN
 62
     7
370
     0
100
AcDbLine
 10
110.3696124024
 20
139.1159110365
 30
0.0
 11
112.3696122645
 21
139.1159110365
 31
0.0
  0
LINE
  5
B1
330
1F
100
AcDbEntity
  8
0
  6
HIDDEN
 62
     7
370
     0
100
AcDbLine
 10
97.3773188284
 20
98.9159122703
 30
0.0
 11
127.3619047693
 21
98.9159122703
 31
0.0
  0
LINE
  5
B2
330
1F
100
AcDbEntity
  8
0
  6
HIDDEN
 62
     7
370
     0
100
AcDbLine
 10
112.3696122645
 20
99.1159119305
 30
0.0
 11
127.3696123949
 21
99.1159119305
 31
0.0
  0
LINE
  5
B3
330
1F
100
AcDbEntity
  8
0
  6
HIDDEN
 62
     7
370
     0
100
AcDbLine
 10
97.3696121341
 20
99.1159119305
 30
0.0
 11
112.3696122645
 21
99.1159119305
 31
0.0
  0
SPLINE
  5
B4
330
1F
100
AcDbEntity
  8
0
  6
HIDDEN
 62
     7
370
     0
100
AcDbSpline
210
0.0
220
0.0
230
1.0
 70
     8
 71
     3
 72
     9
 73
     5
 74
     0
 42
0.00000001
 43
0.00000001
 40
0.0
 40
0.0
 40
0.0
 40
0.0
 40
0.5320334730343648
 40
1.0
 40
1.0
 40
1.0
 40
1.0
 10
100.7649897924491
 20
100.2540919591778
 30
0.0
 10
100.7371629622267
 20
100.2451102324032
 30
0.0
 10
100.6848601812314
 20
100.2282283495335
 30
0.0
 10
100.6795595247884
 20
100.2265362217934
 30
0.0
 10
100.6770789950021
 20
100.2257443626517
 30
0.0
  0
SPLINE
  5
B5
330
1F
100
AcDbEntity
  8
0
  6
HIDDEN
 62
     7
370
     0
100
AcDbSpline
210
0.0
220
0.0
230
1.0
 70
     8
 71
     3
 72
     8
 73
     4
 74
     0
 42
0.00000001
 43
0.00000001
 40
0.0000002483637648
 40
0.0000002483637648
 40
0.0000002483637648
 40
0.0000002483637648
 40
0.00021815595592
 40
0.00021815595592
 40
0.00021815595592
 40
0.00021815595592
 10
100.8881353673071
 20
100.2934811092231
 30
0.0
 10
100.8470708671581
 20
100.2805027911143
 30
0.0
 10
100.806022259268
 20
100.267371295056
 30
0.0
 10
100.7649895690987
 20
100.2540917386848
 30
0.0
  0
SPLINE
  5
B6
330
1F
100
AcDbEntity
  8
0
  6
HIDDEN
 62
     7
370
     0
100
AcDbSpline
210
0.0
220
0.0
230
1.0
 70
     8
 71
     3
 72
    12
 73
     8
 74
     0
 42
0.00000001
 43
0.00000001
 40
0.0
 40
0.0
 40
0.0
 40
0.0
 40
0.4999999999999997
 40
0.4999999999999997
 40
0.7499999999999998
 40
0.7499999999999998
 40
1.0
 40
1.0
 40
1.0
 40
1.0
 10
100.4789160256043
 20
100.1373014034574
 30
0.0
 10
100.6570505116326
 20
100.1967496924574
 30
0.0
 10
100.8292715997158
 20
100.2579613654973
 30
0.0
 10
100.9620380244856
 20
100.3093739696524
 30
0.0
 10
100.9832634907066
 20
100.3188783986418
 30
0.0
 10
100.9730539117471
 20
100.3193948045601
 30
0.0
 10
100.9412950429132
 20
100.3102820730258
 30
0.0
 10
100.8881353673071
 20
100.2934811092231
 30
0.0
  0
SPLINE
  5
B7
330
1F
100
AcDbEntity
  8
0
  6
HIDDEN
 62
     7
370
     0
100
AcDbSpline
210
0.0
220
0.0
230
1.0
 70
     8
 71
     3
 72
     8
 73
     4
 74
     0
 42
0.00000001
 43
0.00000001
 40
0.0
 40
0.0
 40
0.0
 40
0.0
 40
1.0
 40
1.0
 40
1.0
 40
1.0
 10
100.4789160256043
 20
100.1373014034574
 30
0.0
 10
100.0716157272949
 20
100.0013742936442
 30
0.0
 10
99.6643380798033
 20
99.86537905580322
 30
0.0
 10
99.25707739520392
 20
99.7293329952063
 30
0.0
  0
SPLINE
  5
B8
330
1F
100
AcDbEntity
  8
0
  6
HIDDEN
 62
     7
370
     0
100
AcDbSpline
210
0.0
220
0.0
230
1.0
 70
     8
 71
     3
 72
     8
 73
     4
 74
     0
 42
0.00000001
 43
0.00000001
 40
0.0
 40
0.0
 40
0.0
 40
0.0
 40
1.0
 40
1.0
 40
1.0
 40
1.0
 10
98.96211218481774
 20
99.63367400442449
 30
0.0
 10
99.04887672424856
 20
99.66085831780725
 30
0.0
 10
99.15200421623597
 20
99.69423313751457
 30
0.0
 10
99.25707739520392
 20
99.7293329952063
 30
0.0
  0
SPLINE
  5
B9
330
1F
100
AcDbEntity
  8
0
  6
HIDDEN
 62
     7
370
     0
100
AcDbSpline
210
0.0
220
0.0
230
1.0
 70
     8
 71
     3
 72
     8
 73
     4
 74
     0
 42
0.00000001
 43
0.00000001
 40
0.0000002554908098
 40
0.0000002554908098
 40
0.0000002554908098
 40
0.0000002554908098
 40
0.0013136577947781
 40
0.0013136577947781
 40
0.0013136577947781
 40
0.0013136577947781
 10
98.96211218481776
 20
99.63367400442449
 30
0.0
 10
98.61940492602666
 20
99.52629993683057
 30
0.0
 10
98.27724922670427
 20
99.41620266657264
 30
0.0
 10
97.93556643961585
 20
99.30393252223419
 30
0.0
  0
SPLINE
  5
BA
330
1F
100
AcDbEntity
  8
0
  6
HIDDEN
 62
     7
370
     0
100
AcDbSpline
210
0.0
220
0.0
230
1.0
 70
     8
 71
     3
 72
    10
 73
     6
 74
     0
 42
0.00000001
 43
0.00000001
 40
0.0
 40
0.0
 40
0.0
 40
0.0
 40
0.5
 40
0.5
 40
1.0
 40
1.0
 40
1.0
 40
1.0
 10
97.73053165000174
 20
99.23702413296706
 30
0.0
 10
97.7305316500004
 20
99.23702413296661
 30
0.0
 10
97.74997091727877
 20
99.24331478099259
 30
0.0
 10
97.8213981506145
 20
99.26654938133012
 30
0.0
 10
97.87319320484629
 20
99.28343792216936
 30
0.0
 10
97.93556643961585
 20
99.30393252223419
 30
0.0
  0
SPLINE
  5
BB
330
1F
100
AcDbEntity
  8
0
  6
HIDDEN
 62
     7
370
     0
100
AcDbSpline
210
0.0
220
0.0
230
1.0
 70
     8
 71
     3
 72
     8
 73
     4
 74
     0
 42
0.00000001
 43
0.00000001
 40
0.0000002422839179
 40
0.0000002422839179
 40
0.0000002422839179
 40
0.0000002422839179
 40
0.0013136445878862
 40
0.0013136445878862
 40
0.0013136445878862
 40
0.0013136445878862
 10
98.87979311063559
 20
99.30393252223419
 30
0.0
 10
99.09993553765405
 20
99.41620266657263
 30
0.0
 10
99.3203826567755
 20
99.52629993683055
 30
0.0
 10
99.54118513954026
 20
99.63367400442448
 30
0.0
  0
SPLINE
  5
BC
330
1F
100
AcDbEntity
  8
0
  6
HIDDEN
 62
     7
370
     0
100
AcDbSpline
210
0.0
220
0.0
230
1.0
 70
     8
 71
     3
 72
     8
 73
     4
 74
     0
 42
0.00000001
 43
0.00000001
 40
0.0
 40
0.0
 40
0.0
 40
0.0
 40
1.0
 40
1.0
 40
1.0
 40
1.0
 10
99.54118513954026
 20
99.63367400442448
 30
0.0
 10
99.59708683554481
 20
99.66085844732798
 30
0.0
 10
99.67978083027961
 20
99.69423328049177
 30
0.0
 10
99.77685539431185
 20
99.7293329952063
 30
0.0
  0
SPLINE
  5
BD
330
1F
100
AcDbEntity
  8
0
  6
HIDDEN
 62
     7
370
     0
100
AcDbSpline
210
0.0
220
0.0
230
1.0
 70
     8
 71
     3
 72
     8
 73
     4
 74
     0
 42
0.00000001
 43
0.00000001
 40
0.0000002282152697
 40
0.0000002282152697
 40
0.0000002282152697
 40
0.0000002282152697
 40
0.0012883772209633
 40
0.0012883772209633
 40
0.0012883772209633
 40
0.0012883772209633
 10
100.9056870969704
 20
100.1373014034574
 30
0.0
 10
100.5293906366154
 20
100.0013742751636
 30
0.0
 10
100.153115171021
 20
99.86537904344142
 30
0.0
 10
99.77685539431185
 20
99.7293329952063
 30
0.0
  0
SPLINE
  5
BE
330
1F
100
AcDbEntity
  8
0
  6
HIDDEN
 62
     7
370
     0
100
AcDbSpline
210
0.0
220
0.0
230
1.0
 70
     8
 71
     3
 72
    12
 73
     8
 74
     0
 42
0.00000001
 43
0.00000001
 40
0.0
 40
0.0
 40
0.0
 40
0.0
 40
0.2499999999999992
 40
0.2499999999999992
 40
0.4999999999999984
 40
0.4999999999999984
 40
1.0
 40
1.0
 40
1.0
 40
1.0
 10
100.9056870969704
 20
100.1373014034574
 30
0.0
 10
100.9715409212063
 20
100.16108935301
 30
0.0
 10
101.0419287755456
 20
100.184961264721
 30
0.0
 10
101.1837487382651
 20
100.230135315341
 30
0.0
 10
101.2548661572843
 20
100.2512958017444
 30
0.0
 10
101.4482570589468
 20
100.3038093404351
 30
0.0
 10
101.550846464703
 20
100.3236879860526
 30
0.0
 10
101.5844205987884
 20
100.3181839331964
 30
0.0
  0
SPLINE
  5
BF
330
1F
100
AcDbEntity
  8
0
  6
HIDDEN
 62
     7
370
     0
100
AcDbSpline
210
0.0
220
0.0
230
1.0
 70
     8
 71
     3
 72
     9
 73
     5
 74
     0
 42
0.00000001
 43
0.00000001
 40
0.0
 40
0.0
 40
0.0
 40
0.0
 40
0.4182463491503085
 40
0.9999999999999999
 40
0.9999999999999999
 40
0.9999999999999999
 40
0.9999999999999999
 10
101.5918449825474
 20
100.3079740923935
 30
0.0
 10
101.5935649118435
 20
100.3068039933909
 30
0.0
 10
101.5976771516745
 20
100.3040063622699
 30
0.0
 10
101.5896891727205
 20
100.2973523260262
 30
0.0
 10
101.5850421368011
 20
100.2934813161486
 30
0.0
  0
SPLINE
  5
C0
330
1F
100
AcDbEntity
  8
0
  6
HIDDEN
 62
     7
370
     0
100
AcDbSpline
210
0.0
220
0.0
230
1.0
 70
     8
 71
     3
 72
     8
 73
     4
 74
     0
 42
0.00000001
 43
0.00000001
 40
0.0000002082633701
 40
0.0000002082633701
 40
0.0000002082633701
 40
0.0000002082633701
 40
0.000218115855525
 40
0.000218115855525
 40
0.000218115855525
 40
0.000218115855525
 10
101.5850419654628
 20
100.2934811092231
 30
0.0
 10
101.5694869874881
 20
100.2805027911143
 30
0.0
 10
101.5539380294026
 20
100.267371295056
 30
0.0
 10
101.538395100851
 20
100.2540917386849
 30
0.0
  0
SPLINE
  5
C1
330
1F
100
AcDbEntity
  8
0
  6
HIDDEN
 62
     7
370
     0
100
AcDbSpline
210
0.0
220
0.0
230
1.0
 70
     8
 71
     3
 72
    10
 73
     6
 74
     0
 42
0.00000001
 43
0.00000001
 40
0.0
 40
0.0
 40
0.0
 40
0.0
 40
0.5
 40
0.5
 40
1.0
 40
1.0
 40
1.0
 40
1.0
 10
101.7582826572575
 20
100.2540917386848
 30
0.0
 10
101.6723998556347
 20
100.2351705571719
 30
0.0
 10
101.6040707705005
 20
100.2248486417743
 30
0.0
 10
101.5251739716119
 20
100.2247955357307
 30
0.0
 10
101.5162456618894
 20
100.235167716591
 30
0.0
 10
101.538395100851
 20
100.2540917386849
 30
0.0
  0
SPLINE
  5
C2
330
1F
100
AcDbEntity
  8
0
  6
HIDDEN
 62
     7
370
     0
100
AcDbSpline
210
0.0
220
0.0
230
1.0
 70
     8
 71
     3
 72
     8
 73
     4
 74
     0
 42
0.00000001
 43
0.00000001
 40
0.0000002408251663
 40
0.0000002408251663
 40
0.0000002408251663
 40
0.0000002408251663
 40
0.0002181484173214
 40
0.0002181484173214
 40
0.0002181484173214
 40
0.0002181484173214
 10
101.9391795576047
 20
100.2934811092231
 30
0.0
 10
101.8788572331783
 20
100.2805027911143
 30
0.0
 10
101.8185582539284
 20
100.267371295056
 30
0.0
 10
101.7582826572575
 20
100.2540917386848
 30
0.0
  0
SPLINE
  5
C3
330
1F
100
AcDbEntity
  8
0
  6
HIDDEN
 62
     7
370
     0
100
AcDbSpline
210
0.0
220
0.0
230
1.0
 70
     8
 71
     3
 72
    12
 73
     8
 74
     0
 42
0.00000001
 43
0.00000001
 40
0.0
 40
0.0
 40
0.0
 40
0.0
 40
0.4999999999999991
 40
0.4999999999999991
 40
0.7499999999999996
 40
0.7499999999999996
 40
1.0
 40
1.0
 40
1.0
 40
1.0
 10
101.8623956778831
 20
100.1373014034574
 30
0.0
 10
102.0269697127962
 20
100.1967494140379
 30
0.0
 10
102.1484699165757
 20
100.2579616370251
 30
0.0
 10
102.1780578007071
 20
100.3093739220828
 30
0.0
 10
102.1619359820113
 20
100.3188784160702
 30
0.0
 10
102.0815973337941
 20
100.3193947886099
 30
0.0
 10
102.0172679648843
 20
100.3102817912253
 30
0.0
 10
101.9391795576047
 20
100.2934811092231
 30
0.0
  0
SPLINE
  5
C4
330
1F
100
AcDbEntity
  8
0
  6
HIDDEN
 62
     7
370
     0
100
AcDbSpline
210
0.0
220
0.0
230
1.0
 70
     8
 71
     3
 72
     8
 73
     4
 74
     0
 42
0.00000001
 43
0.00000001
 40
0.0000002282152696
 40
0.0000002282152696
 40
0.0000002282152696
 40
0.0000002282152696
 40
0.0012883772209633
 40
0.0012883772209633
 40
0.0012883772209633
 40
0.0012883772209633
 10
101.8623956778831
 20
100.1373014034574
 30
0.0
 10
101.4860992175282
 20
100.0013742751636
 30
0.0
 10
101.1098237519337
 20
99.86537904344142
 30
0.0
 10
100.7335639752246
 20
99.7293329952063
 30
0.0
  0
SPLINE
  5
C5
330
1F
100
AcDbEntity
  8
0
  6
HIDDEN
 62
     7
370
     0
100
AcDbSpline
210
0.0
220
0.0
230
1.0
 70
     8
 71
     3
 72
     8
 73
     4
 74
     0
 42
0.00000001
 43
0.00000001
 40
0.0
 40
0.0
 40
0.0
 40
0.0
 40
1.0
 40
1.0
 40
1.0
 40
1.0
 10
100.4242095886388
 20
99.63367400442449
 30
0.0
 10
100.5286294498817
 20
99.66085866318645
 30
0.0
 10
100.6364895698902
 20
99.69423333787509
 30
0.0
 10
100.7335639752246
 20
99.7293329952063
 30
0.0
  0
SPLINE
  5
C6
330
1F
100
AcDbEntity
  8
0
  6
HIDDEN
 62
     7
370
     0
100
AcDbSpline
210
0.0
220
0.0
230
1.0
 70
     8
 71
     3
 72
     8
 73
     4
 74
     0
 42
0.00000001
 43
0.00000001
 40
0.0000002122951039
 40
0.0000002122951039
 40
0.0000002122951039
 40
0.0000002122951039
 40
0.0013136145990722
 40
0.0013136145990722
 40
0.0013136145990722
 40
0.0013136145990722
 10
100.4242095886388
 20
99.63367400442449
 30
0.0
 10
100.0117716273234
 20
99.52629993683057
 30
0.0
 10
99.59999745137274
 20
99.41620266657264
 30
0.0
 10
99.18879241118641
 20
99.30393252223419
 30
0.0
  0
SPLINE
  5
C7
330
1F
100
AcDbEntity
  8
0
  6
HIDDEN
 62
     7
370
     0
100
AcDbSpline
210
0.0
220
0.0
230
1.0
 70
     8
 71
     3
 72
    10
 73
     6
 74
     0
 42
0.00000001
 43
0.00000001
 40
0.0
 40
0.0
 40
0.0
 40
0.0
 40
0.5
 40
0.5
 40
1.0
 40
1.0
 40
1.0
 40
1.0
 10
98.84486531533051
 20
99.23702413296706
 30
0.0
 10
98.87519430223506
 20
99.23702413296661
 30
0.0
 10
98.92355005009105
 20
99.24331474538288
 30
0.0
 10
99.04280609886372
 20
99.26654932495192
 30
0.0
 10
99.11372744289157
 20
99.28343774711875
 30
0.0
 10
99.18879241118641
 20
99.30393252223419
 30
0.0
  0
SPLINE
  5
C8
330
1F
100
AcDbEntity
  8
0
  6
HIDDEN
 62
     7
370
     0
100
AcDbSpline
210
0.0
220
0.0
230
1.0
 70
     8
 71
     3
 72
    10
 73
     6
 74
     0
 42
0.00000001
 43
0.00000001
 40
0.0
 40
0.0
 40
0.0
 40
0.0
 40
0.5
 40
0.5
 40
1.0
 40
1.0
 40
1.0
 40
1.0
 10
98.87979311063559
 20
99.30393252223419
 30
0.0
 10
98.8395167380936
 20
99.28339202842663
 30
0.0
 10
98.8147895349931
 20
99.26651412819174
 30
0.0
 10
98.80211514028598
 20
99.24331630939045
 30
0.0
 10
98.81446090730697
 20
99.23702413296749
 30
0.0
 10
98.84486531533051
 20
99.23702413296706
 30
0.0
  0
SPLINE
  5
C9
330
1F
100
AcDbEntity
  8
0
  6
HIDDEN
 62
     7
370
     0
100
AcDbSpline
210
0.0
220
0.0
230
1.0
 70
     8
 71
     3
 72
     8
 73
     4
 74
     0
 42
0.00000001
 43
0.00000001
 40
0.0000002094082048
 40
0.0000002094082048
 40
0.0000002094082048
 40
0.0000002094082048
 40
0.0013136117121732
 40
0.0013136117121732
 40
0.0013136117121732
 40
0.0013136117121732
 10
101.8777224730189
 20
99.30393252223419
 30
0.0
 10
101.9428098510499
 20
99.41620266657263
 30
0.0
 10
102.0079873144423
 20
99.52629993683055
 30
0.0
 10
102.0732698447593
 20
99.63367400442448
 30
0.0
  0
SPLINE
  5
CA
330
1F
100
AcDbEntity
  8
0
  6
HIDDEN
 62
     7
370
     0
100
AcDbSpline
210
0.0
220
0.0
230
1.0
 70
     8
 71
     3
 72
     8
 73
     4
 74
     0
 42
0.00000001
 43
0.00000001
 40
0.0
 40
0.0
 40
0.0
 40
0.0
 40
1.0
 40
1.0
 40
1.0
 40
1.0
 10
102.0732698447593
 20
99.63367400442448
 30
0.0
 10
102.0897979683235
 20
99.66085879411828
 30
0.0
 10
102.1394699501729
 20
99.69423381002979
 30
0.0
 10
102.2137664839837
 20
99.72933299520642
 30
0.0
  0
SPLINE
  5
CB
330
1F
100
AcDbEntity
  8
0
  6
HIDDEN
 62
     7
370
     0
100
AcDbSpline
210
0.0
220
0.0
230
1.0
 70
     8
 71
     3
 72
     8
 73
     4
 74
     0
 42
0.00000001
 43
0.00000001
 40
0.0000002981776187
 40
0.0000002981776187
 40
0.0000002981776187
 40
0.0000002981776187
 40
0.0012884471833121
 40
0.0012884471833121
 40
0.0012884471833121
 40
0.0012884471833121
 10
103.0777368650553
 20
100.1373014034574
 30
0.0
 10
102.7897320229844
 20
100.0013742751636
 30
0.0
 10
102.5017432496076
 20
99.86537904344148
 30
0.0
 10
102.2137664839837
 20
99.72933299520642
 30
0.0
  0
SPLINE
  5
CC
330
1F
100
AcDbEntity
  8
0
  6
HIDDEN
 62
     7
370
     0
100
AcDbSpline
210
0.0
220
0.0
230
1.0
 70
     8
 71
     3
 72
    12
 73
     8
 74
     0
 42
0.00000001
 43
0.00000001
 40
0.0
 40
0.0
 40
0.0
 40
0.0
 40
0.4999999999999994
 40
0.4999999999999994
 40
0.7499999999999997
 40
0.7499999999999997
 40
1.0
 40
1.0
 40
1.0
 40
1.0
 10
103.0777368650553
 20
100.1373014034574
 30
0.0
 10
103.2036936617061
 20
100.1967481319772
 30
0.0
 10
103.3949794338474
 20
100.2579623796417
 30
0.0
 10
103.660826435744
 20
100.3093734960016
 30
0.0
 10
103.7418598520689
 20
100.318878336489
 30
0.0
 10
103.8656589894133
 20
100.3193948617842
 30
0.0
 10
103.9078493723796
 20
100.3102821728886
 30
0.0
 10
103.9238016399766
 20
100.2934811092231
 30
0.0
  0
SPLINE
  5
CD
330
1F
100
AcDbEntity
  8
0
  6
HIDDEN
 62
     7
370
     0
100
AcDbSpline
210
0.0
220
0.0
230
1.0
 70
     8
 71
     3
 72
     8
 73
     4
 74
     0
 42
0.00000001
 43
0.00000001
 40
0.0000002063612483
 40
0.0000002063612483
 40
0.0000002063612483
 40
0.0000002063612483
 40
0.0002181139534033
 40
0.0002181139534033
 40
0.0002181139534033
 40
0.0002181139534033
 10
103.9238016399766
 20
100.2934811092231
 30
0.0
 10
103.9361242885667
 20
100.2805027911143
 30
0.0
 10
103.9484421682025
 20
100.267371295056
 30
0.0
 10
103.9607552712435
 20
100.2540917386849
 30
0.0
  0
SPLINE
  5
CE
330
1F
100
AcDbEntity
  8
0
  6
HIDDEN
 62
     7
370
     0
100
AcDbSpline
210
0.0
220
0.0
230
1.0
 70
     8
 71
     3
 72
    10
 73
     6
 74
     0
 42
0.00000001
 43
0.00000001
 40
0.0
 40
0.0
 40
0.0
 40
0.0
 40
0.5
 40
0.5
 40
1.0
 40
1.0
 40
1.0
 40
1.0
 10
104.3670544968793
 20
100.2540917386848
 30
0.0
 10
104.2668275367369
 20
100.2351703565161
 30
0.0
 10
104.172805267585
 20
100.2248486466502
 30
0.0
 10
104.0271897308539
 20
100.2247955308947
 30
0.0
 10
103.9783020421572
 20
100.2351677247598
 30
0.0
 10
103.9607552712435
 20
100.2540917386849
 30
0.0
  0
SPLINE
  5
CF
330
1F
100
AcDbEntity
  8
0
  6
HIDDEN
 62
     7
370
     0
100
AcDbSpline
210
0.0
220
0.0
230
1.0
 70
     8
 71
     3
 72
     8
 73
     4
 74
     0
 42
0.00000001
 43
0.00000001
 40
0.0000002063612482
 40
0.0000002063612482
 40
0.0000002063612482
 40
0.0000002063612482
 40
0.0002181139534034
 40
0.0002181139534034
 40
0.0002181139534034
 40
0.0002181139534034
 10
104.5781625861219
 20
100.2934811092231
 30
0.0
 10
104.507765964489
 20
100.2805027911143
 30
0.0
 10
104.4373965868584
 20
100.267371295056
 30
0.0
 10
104.3670544968793
 20
100.2540917386848
 30
0.0
  0
SPLINE
  5
D0
330
1F
100
AcDbEntity
  8
0
  6
HIDDEN
 62
     7
370
     0
100
AcDbSpline
210
0.0
220
0.0
230
1.0
 70
     8
 71
     3
 72
    12
 73
     8
 74
     0
 42
0.00000001
 43
0.00000001
 40
0.0
 40
0.0
 40
0.0
 40
0.0
 40
0.499999999999998
 40
0.499999999999998
 40
0.749999999999999
 40
0.749999999999999
 40
1.0
 40
1.0
 40
1.0
 40
1.0
 10
104.8455038180217
 20
100.1373014034574
 30
0.0
 10
104.9714606146912
 20
100.1967481319772
 30
0.0
 10
105.0237425655976
 20
100.2579623796417
 30
0.0
 10
104.9456501965842
 20
100.3093734960016
 30
0.0
 10
104.8946357529552
 20
100.3188783364889
 30
0.0
 10
104.7563984350651
 20
100.3193948617842
 30
0.0
 10
104.669294434788
 20
100.3102821728887
 30
0.0
 10
104.5781625861219
 20
100.2934811092231
 30
0.0
  0
SPLINE
  5
D1
330
1F
100
AcDbEntity
  8
0
  6
HIDDEN
 62
     7
370
     0
100
AcDbSpline
210
0.0
220
0.0
230
1.0
 70
     8
 71
     3
 72
     8
 73
     4
 74
     0
 42
0.00000001
 43
0.00000001
 40
0.0000002981776187
 40
0.0000002981776187
 40
0.0000002981776187
 40
0.0000002981776187
 40
0.0012884471833124
 40
0.0012884471833124
 40
0.0012884471833124
 40
0.0012884471833124
 10
104.8455038180217
 20
100.1373014034574
 30
0.0
 10
104.5574989759507
 20
100.0013742751636
 30
0.0
 10
104.2695102025738
 20
99.86537904344142
 30
0.0
 10
103.9815334369499
 20
99.7293329952063
 30
0.0
  0
SPLINE
  5
D2
330
1F
100
AcDbEntity
  8
0
  6
HIDDEN
 62
     7
370
     0
100
AcDbSpline
210
0.0
220
0.0
230
1.0
 70
     8
 71
     3
 72
     8
 73
     4
 74
     0
 42
0.00000001
 43
0.00000001
 40
0.0
 40
0.0
 40
0.0
 40
0.0
 40
1.0
 40
1.0
 40
1.0
 40
1.0
 10
103.7048862752177
 20
99.63367400442449
 30
0.0
 10
103.8110638909942
 20
99.66085879437145
 30
0.0
 10
103.907236905506
 20
99.6942338111531
 30
0.0
 10
103.9815334369499
 20
99.7293329952063
 30
0.0
  0
SPLINE
  5
D3
330
1F
100
AcDbEntity
  8
0
  6
HIDDEN
 62
     7
370
     0
100
AcDbSpline
210
0.0
220
0.0
230
1.0
 70
     8
 71
     3
 72
     8
 73
     4
 74
     0
 42
0.00000001
 43
0.00000001
 40
0.0000002087815986
 40
0.0000002087815986
 40
0.0000002087815986
 40
0.0000002087815986
 40
0.001313611085567
 40
0.001313611085567
 40
0.001313611085567
 40
0.001313611085567
 10
103.7048862752177
 20
99.63367400442449
 30
0.0
 10
103.2855075522287
 20
99.52629993683055
 30
0.0
 10
102.8668037851961
 20
99.41620266657264
 30
0.0
 10
102.4486787316973
 20
99.30393252223419
 30
0.0
  0
SPLINE
  5
D4
330
1F
100
AcDbEntity
  8
0
  6
HIDDEN
 62
     7
370
     0
100
AcDbSpline
210
0.0
220
0.0
230
1.0
 70
     8
 71
     3
 72
    10
 73
     6
 74
     0
 42
0.00000001
 43
0.00000001
 40
0.0
 40
0.0
 40
0.0
 40
0.0
 40
0.5
 40
0.5
 40
1.0
 40
1.0
 40
1.0
 40
1.0
 10
102.0182191122367
 20
99.23702413296706
 30
0.0
 10
102.0742593807642
 20
99.23702413296661
 30
0.0
 10
102.1441700844053
 20
99.24331469979293
 30
0.0
 10
102.2930998856145
 20
99.26654935831145
 30
0.0
 10
102.3723504946068
 20
99.28343773933837
 30
0.0
 10
102.4486787316973
 20
99.30393252223419
 30
0.0
  0
SPLINE
  5
D5
330
1F
100
AcDbEntity
  8
0
  6
HIDDEN
 62
     7
370
     0
100
AcDbSpline
210
0.0
220
0.0
230
1.0
 70
     8
 71
     3
 72
    10
 73
     6
 74
     0
 42
0.00000001
 43
0.00000001
 40
0.0
 40
0.0
 40
0.0
 40
0.0
 40
0.5
 40
0.5
 40
1.0
 40
1.0
 40
1.0
 40
1.0
 10
101.8777224730189
 20
99.30393252223419
 30
0.0
 10
101.8658142313187
 20
99.28339182670476
 30
0.0
 10
101.8718880729231
 20
99.26651409009557
 30
0.0
 10
101.9197834250553
 20
99.24331625803815
 30
0.0
 10
101.9620394958652
 20
99.23702413296749
 30
0.0
 10
102.0182191122367
 20
99.23702413296706
 30
0.0
  0
SPLINE
  5
D6
330
1F
100
AcDbEntity
  8
0
  6
HIDDEN
 62
     7
370
     0
100
AcDbSpline
210
0.0
220
0.0
230
1.0
 70
     8
 71
     3
 72
     8
 73
     4
 74
     0
 42
0.00000001
 43
0.00000001
 40
0.0000002129322567
 40
0.0000002129322567
 40
0.0000002129322567
 40
0.0000002129322567
 40
0.001313615236225
 40
0.001313615236225
 40
0.001313615236225
 40
0.001313615236225
 10
106.4729469576402
 20
99.30393252223419
 30
0.0
 10
106.3730703233971
 20
99.41620266657263
 30
0.0
 10
106.2730554530941
 20
99.52629993683055
 30
0.0
 10
106.1728793575102
 20
99.63367400442448
 30
0.0
  0
SPLINE
  5
D7
330
1F
100
AcDbEntity
  8
0
  6
HIDDEN
 62
     7
370
     0
100
AcDbSpline
210
0.0
220
0.0
230
1.0
 70
     8
 71
     3
 72
     8
 73
     4
 74
     0
 42
0.00000001
 43
0.00000001
 40
0.0
 40
0.0
 40
0.0
 40
0.0
 40
1.0
 40
1.0
 40
1.0
 40
1.0
 10
106.1728793575102
 20
99.63367400442448
 30
0.0
 10
106.1475170606694
 20
99.66085866318645
 30
0.0
 10
106.15660350623
 20
99.69423333787508
 30
0.0
 10
106.1968130414703
 20
99.7293329952063
 30
0.0
  0
SPLINE
  5
D8
330
1F
100
AcDbEntity
  8
0
  6
HIDDEN
 62
     7
370
     0
100
AcDbSpline
210
0.0
220
0.0
230
1.0
 70
     8
 71
     3
 72
     8
 73
     4
 74
     0
 42
0.00000001
 43
0.00000001
 40
0.0000002282152697
 40
0.0000002282152697
 40
0.0000002282152697
 40
0.0000002282152697
 40
0.0012883772209633
 40
0.0012883772209633
 40
0.0012883772209633
 40
0.0012883772209633
 10
106.6643904423482
 20
100.1373014034574
 30
0.0
 10
106.5085233449962
 20
100.0013742751636
 30
0.0
 10
106.3526649439587
 20
99.86537904344142
 30
0.0
 10
106.1968130414703
 20
99.7293329952063
 30
0.0
  0
SPLINE
  5
D9
330
1F
100
AcDbEntity
  8
0
  6
HIDDEN
 62
     7
370
     0
100
AcDbSpline
210
0.0
220
0.0
230
1.0
 70
     8
 71
     3
 72
    12
 73
     8
 74
     0
 42
0.00000001
 43
0.00000001
 40
0.0
 40
0.0
 40
0.0
 40
0.0
 40
0.4999999999999996
 40
0.4999999999999996
 40
0.7499999999999998
 40
0.7499999999999998
 40
1.0
 40
1.0
 40
1.0
 40
1.0
 10
106.6643904423482
 20
100.1373014034574
 30
0.0
 10
106.7325592396094
 20
100.1967494140379
 30
0.0
 10
106.8892712427074
 20
100.2579616370252
 30
0.0
 10
107.1647729459949
 20
100.3093739220829
 30
0.0
 10
107.2591597363641
 20
100.3188784160702
 30
0.0
 10
107.4264351584792
 20
100.3193947886099
 30
0.0
 10
107.4987479361686
 20
100.3102817912253
 30
0.0
 10
107.5483594313129
 20
100.2934811092231
 30
0.0
  0
SPLINE
  5
DA
330
1F
100
AcDbEntity
  8
0
  6
HIDDEN
 62
     7
370
     0
100
AcDbSpline
210
0.0
220
0.0
230
1.0
 70
     8
 71
     3
 72
     8
 73
     4
 74
     0
 42
0.00000001
 43
0.00000001
 40
0.0000002408251664
 40
0.0000002408251664
 40
0.0000002408251664
 40
0.0000002408251664
 40
0.0002181484173213
 40
0.0002181484173213
 40
0.0002181484173213
 40
0.0002181484173213
 10
107.5483594313129
 20
100.2934811092231
 30
0.0
 10
107.586683694925
 20
100.2805027911143
 30
0.0
 10
107.6249931267695
 20
100.267371295056
 30
0.0
 10
107.6632877030837
 20
100.2540917386849
 30
0.0
  0
SPLINE
  5
DB
330
1F
100
AcDbEntity
  8
0
  6
HIDDEN
 62
     7
370
     0
100
AcDbSpline
210
0.0
220
0.0
230
1.0
 70
     8
 71
     3
 72
    10
 73
     6
 74
     0
 42
0.00000001
 43
0.00000001
 40
0.0
 40
0.0
 40
0.0
 40
0.0
 40
0.5
 40
0.5
 40
1.0
 40
1.0
 40
1.0
 40
1.0
 10
108.1941432239574
 20
100.2540917386848
 30
0.0
 10
108.0948316286155
 20
100.2351703501195
 30
0.0
 10
107.9894295368831
 20
100.2248486273768
 30
0.0
 10
107.7992629094194
 20
100.2247955500179
 30
0.0
 10
107.7178588982006
 20
100.2351678770979
 30
0.0
 10
107.6632877030837
 20
100.2540917386849
 30
0.0
  0
SPLINE
  5
DC
330
1F
100
AcDbEntity
  8
0
  6
HIDDEN
 62
     7
370
     0
100
AcDbSpline
210
0.0
220
0.0
230
1.0
 70
     8
 71
     3
 72
     8
 73
     4
 74
     0
 42
0.00000001
 43
0.00000001
 40
0.0000002082633699
 40
0.0000002082633699
 40
0.0000002082633699
 40
0.0000002082633699
 40
0.0002181158555251
 40
0.0002181158555251
 40
0.0002181158555251
 40
0.0002181158555251
 10
108.4033232092078
 20
100.2934811092231
 30
0.0
 10
108.3335695378649
 20
100.2805027911143
 30
0.0
 10
108.263842861698
 20
100.267371295056
 30
0.0
 10
108.1941432239574
 20
100.2540917386848
 30
0.0
  0
SPLINE
  5
DD
330
1F
100
AcDbEntity
  8
0
  6
HIDDEN
 62
     7
370
     0
100
AcDbSpline
210
0.0
220
0.0
230
1.0
 70
     8
 71
     3
 72
    12
 73
     8
 74
     0
 42
0.00000001
 43
0.00000001
 40
0.0
 40
0.0
 40
0.0
 40
0.0
 40
0.5000000000000016
 40
0.5000000000000016
 40
0.7500000000000008
 40
0.7500000000000008
 40
1.0
 40
1.0
 40
1.0
 40
1.0
 10
108.9740892736264
 20
100.1373014034574
 30
0.0
 10
109.0422580258152
 20
100.1967493747104
 30
0.0
 10
109.0173596248569
 20
100.25796155136
 30
0.0
 10
108.8434725503502
 20
100.3093738647924
 30
0.0
 10
108.7653312693883
 20
100.3188783794783
 30
0.0
 10
108.5902418719894
 20
100.3193948221819
 30
0.0
 10
108.4936226673382
 20
100.3102821617009
 30
0.0
 10
108.4033232092078
 20
100.2934811092231
 30
0.0
  0
SPLINE
  5
DE
330
1F
100
AcDbEntity
  8
0
  6
HIDDEN
 62
     7
370
     0
100
AcDbSpline
210
0.0
220
0.0
230
1.0
 70
     8
 71
     3
 72
     8
 73
     4
 74
     0
 42
0.00000001
 43
0.00000001
 40
0.0000002282152696
 40
0.0000002282152696
 40
0.0000002282152696
 40
0.0000002282152696
 40
0.0012883772209633
 40
0.0012883772209633
 40
0.0012883772209633
 40
0.0012883772209633
 10
108.9740892736264
 20
100.1373014034574
 30
0.0
 10
108.8182221762744
 20
100.0013742751636
 30
0.0
 10
108.6623637752369
 20
99.86537904344142
 30
0.0
 10
108.5065118727485
 20
99.7293329952063
 30
0.0
  0
SPLINE
  5
DF
330
1F
100
AcDbEntity
  8
0
  6
HIDDEN
 62
     7
370
     0
100
AcDbSpline
210
0.0
220
0.0
230
1.0
 70
     8
 71
     3
 72
     8
 73
     4
 74
     0
 42
0.00000001
 43
0.00000001
 40
0.0
 40
0.0
 40
0.0
 40
0.0
 40
1.0
 40
1.0
 40
1.0
 40
1.0
 10
108.3046889584309
 20
99.63367400442449
 30
0.0
 10
108.396458073795
 20
99.660858447328
 30
0.0
 10
108.4663022717564
 20
99.69423328049179
 30
0.0
 10
108.5065118727485
 20
99.7293329952063
 30
0.0
  0
SPLINE
  5
E0
330
1F
100
AcDbEntity
  8
0
  6
HIDDEN
 62
     7
370
     0
100
AcDbSpline
210
0.0
220
0.0
230
1.0
 70
     8
 71
     3
 72
     8
 73
     4
 74
     0
 42
0.00000001
 43
0.00000001
 40
0.0000002415589206
 40
0.0000002415589206
 40
0.0000002415589206
 40
0.0000002415589206
 40
0.0013136438628889
 40
0.0013136438628889
 40
0.0013136438628889
 40
0.0013136438628889
 10
108.3046889584309
 20
99.63367400442449
 30
0.0
 10
107.9422160826659
 20
99.52629993683055
 30
0.0
 10
107.580326577523
 20
99.41620266657264
 30
0.0
 10
107.2189372597937
 20
99.30393252223419
 30
0.0
  0
SPLINE
  5
E1
330
1F
100
AcDbEntity
  8
0
  6
HIDDEN
 62
     7
370
     0
100
AcDbSpline
210
0.0
220
0.0
230
1.0
 70
     8
 71
     3
 72
    10
 73
     6
 74
     0
 42
0.00000001
 43
0.00000001
 40
0.0
 40
0.0
 40
0.0
 40
0.0
 40
0.5
 40
0.5
 40
1.0
 40
1.0
 40
1.0
 40
1.0
 10
106.7674786916653
 20
99.23702413296706
 30
0.0
 10
106.8406989565533
 20
99.23702413296661
 30
0.0
 10
106.9215214389484
 20
99.24331471738996
 30
0.0
 10
107.0774514421162
 20
99.26654940953644
 30
0.0
 10
107.1529664973354
 20
99.28343787377797
 30
0.0
 10
107.2189372597937
 20
99.30393252223419
 30
0.0
  0
SPLINE
  5
E2
330
1F
100
AcDbEntity
  8
0
  6
HIDDEN
 62
     7
370
     0
100
AcDbSpline
210
0.0
220
0.0
230
1.0
 70
     8
 71
     3
 72
    10
 73
     6
 74
     0
 42
0.00000001
 43
0.00000001
 40
0.0
 40
0.0
 40
0.0
 40
0.0
 40
0.5
 40
0.5
 40
1.0
 40
1.0
 40
1.0
 40
1.0
 10
106.4729469576402
 20
99.30393252223419
 30
0.0
 10
106.4912201450456
 20
99.2833918482069
 30
0.0
 10
106.5271700203598
 20
99.26651409415429
 30
0.0
 10
106.6283433879487
 20
99.24331626351271
 30
0.0
 10
106.6940764292607
 20
99.23702413296749
 30
0.0
 10
106.7674786916653
 20
99.23702413296706
 30
0.0
  0
SPLINE
  5
E3
330
1F
100
AcDbEntity
  8
0
  6
HIDDEN
 62
     7
370
     0
100
AcDbSpline
210
0.0
220
0.0
230
1.0
 70
     8
 71
     3
 72
     8
 73
     4
 74
     0
 42
0.00000001
 43
0.00000001
 40
0.0000002562576294
 40
0.0000002562576294
 40
0.0000002562576294
 40
0.0000002562576294
 40
0.0013136585615977
 40
0.0013136585615977
 40
0.0013136585615977
 40
0.0013136585615977
 10
111.9658852925294
 20
99.30393252223419
 30
0.0
 10
111.7162499581917
 20
99.41620266657263
 30
0.0
 10
111.4662691115599
 20
99.52629993683055
 30
0.0
 10
111.2158852925292
 20
99.63367400442448
 30
0.0
  0
SPLINE
  5
E4
330
1F
100
AcDbEntity
  8
0
  6
HIDDEN
 62
     7
370
     0
100
AcDbSpline
210
0.0
220
0.0
230
1.0
 70
     8
 71
     3
 72
     8
 73
     4
 74
     0
 42
0.00000001
 43
0.00000001
 40
0.0
 40
0.0
 40
0.0
 40
0.0
 40
1.0
 40
1.0
 40
1.0
 40
1.0
 10
111.2158852925292
 20
99.63367400442448
 30
0.0
 10
111.152494640057
 20
99.66085831780724
 30
0.0
 10
111.1196123348096
 20
99.69423313751456
 30
0.0
 10
111.1196123348017
 20
99.7293329952063
 30
0.0
  0
SPLINE
  5
E5
330
1F
100
AcDbEntity
  8
0
  6
HIDDEN
 62
     7
370
     0
100
AcDbSpline
210
0.0
220
0.0
230
1.0
 70
    24
 71
     3
 72
     8
 73
     4
 74
     0
 42
0.00000001
 43
0.00000001
 40
0.0
 40
0.0
 40
0.0
 40
0.0
 40
1.0
 40
1.0
 40
1.0
 40
1.0
 10
111.1196123348017
 20
100.1373014034574
 30
0.0
 10
111.1196123348017
 20
100.0013742936442
 30
0.0
 10
111.1196123348017
 20
99.86537905580322
 30
0.0
 10
111.1196123348017
 20
99.7293329952063
 30
0.0
  0
SPLINE
  5
E6
330
1F
100
AcDbEntity
  8
0
  6
HIDDEN
 62
     7
370
     0
100
AcDbSpline
210
0.0
220
0.0
230
1.0
 70
     8
 71
     3
 72
    12
 73
     8
 74
     0
 42
0.00000001
 43
0.00000001
 40
0.0
 40
0.0
 40
0.0
 40
0.0
 40
0.5000000000000002
 40
0.5000000000000002
 40
0.7500000000000008
 40
0.7500000000000008
 40
1.0
 40
1.0
 40
1.0
 40
1.0
 10
111.1196123348017
 20
100.1373014034574
 30
0.0
 10
111.1196123347885
 20
100.1967496924575
 30
0.0
 10
111.2178981640168
 20
100.2579613654973
 30
0.0
 10
111.4611069404701
 20
100.3093739696524
 30
0.0
 10
111.5544783383459
 20
100.3188783986418
 30
0.0
 10
111.7397645404744
 20
100.3193948045601
 30
0.0
 10
111.8311898177391
 20
100.3102820730258
 30
0.0
 10
111.9069092724389
 20
100.2934811092231
 30
0.0
  0
SPLINE
  5
E7
330
1F
100
AcDbEntity
  8
0
  6
HIDDEN
 62
     7
370
     0
100
AcDbSpline
210
0.0
220
0.0
230
1.0
 70
     8
 71
     3
 72
     8
 73
     4
 74
     0
 42
0.00000001
 43
0.00000001
 40
0.000000248363765
 40
0.000000248363765
 40
0.000000248363765
 40
0.000000248363765
 40
0.0002181559559199
 40
0.0002181559559199
 40
0.0002181559559199
 40
0.0002181559559199
 10
111.9069092724389
 20
100.2934811092231
 30
0.0
 10
111.9654006293483
 20
100.2805027911143
 30
0.0
 10
112.023869349679
 20
100.267371295056
 30
0.0
 10
112.0823153971638
 20
100.2540917386849
 30
0.0
  0
SPLINE
  5
E8
330
1F
100
AcDbEntity
  8
0
  6
HIDDEN
 62
     7
370
     0
100
AcDbSpline
210
0.0
220
0.0
230
1.0
 70
     8
 71
     3
 72
    10
 73
     6
 74
     0
 42
0.00000001
 43
0.00000001
 40
0.0
 40
0.0
 40
0.0
 40
0.0
 40
0.5
 40
0.5
 40
1.0
 40
1.0
 40
1.0
 40
1.0
 10
112.6569092724396
 20
100.2540917386848
 30
0.0
 10
112.573633382933
 20
100.2351705811978
 30
0.0
 10
112.4728981282815
 20
100.2248486186948
 30
0.0
 10
112.2671293010911
 20
100.2247955586301
 30
0.0
 10
112.1656031242436
 20
100.2351678915767
 30
0.0
 10
112.0823153971638
 20
100.2540917386849
 30
0.0
  0
SPLINE
  5
E9
330
1F
100
AcDbEntity
  8
0
  6
HIDDEN
 62
     7
370
     0
100
AcDbSpline
210
0.0
220
0.0
230
1.0
 70
     8
 71
     3
 72
     8
 73
     4
 74
     0
 42
0.00000001
 43
0.00000001
 40
0.0000002483637648
 40
0.0000002483637648
 40
0.0000002483637648
 40
0.0000002483637648
 40
0.00021815595592
 40
0.00021815595592
 40
0.00021815595592
 40
0.00021815595592
 10
112.8323153971647
 20
100.2934811092231
 30
0.0
 10
112.7738240402552
 20
100.2805027911143
 30
0.0
 10
112.7153553199245
 20
100.267371295056
 30
0.0
 10
112.6569092724396
 20
100.2540917386848
 30
0.0
  0
SPLINE
  5
EA
330
1F
100
AcDbEntity
  8
0
  6
HIDDEN
 62
     7
370
     0
100
AcDbSpline
210
0.0
220
0.0
230
1.0
 70
     8
 71
     3
 72
    12
 73
     8
 74
     0
 42
0.00000001
 43
0.00000001
 40
0.0
 40
0.0
 40
0.0
 40
0.0
 40
0.4999999999999987
 40
0.4999999999999987
 40
0.7499999999999993
 40
0.7499999999999993
 40
1.0
 40
1.0
 40
1.0
 40
1.0
 10
113.6196123348017
 20
100.1373014034574
 30
0.0
 10
113.6196123348149
 20
100.1967496924574
 30
0.0
 10
113.5213265055867
 20
100.2579613654973
 30
0.0
 10
113.2781177291334
 20
100.3093739696524
 30
0.0
 10
113.1847463312576
 20
100.3188783986418
 30
0.0
 10
112.9994601291292
 20
100.3193948045601
 30
0.0
 10
112.9080348518646
 20
100.3102820730258
 30
0.0
 10
112.8323153971647
 20
100.2934811092231
 30
0.0
  0
SPLINE
  5
EB
330
1F
100
AcDbEntity
  8
0
  6
HIDDEN
 62
     7
370
     0
100
AcDbSpline
210
0.0
220
0.0
230
1.0
 70
    24
 71
     3
 72
     8
 73
     4
 74
     0
 42
0.00000001
 43
0.00000001
 40
0.0
 40
0.0
 40
0.0
 40
0.0
 40
1.0
 40
1.0
 40
1.0
 40
1.0
 10
113.6196123348017
 20
100.1373014034574
 30
0.0
 10
113.6196123348017
 20
100.0013742936442
 30
0.0
 10
113.6196123348017
 20
99.86537905580322
 30
0.0
 10
113.6196123348017
 20
99.7293329952063
 30
0.0
  0
SPLINE
  5
EC
330
1F
100
AcDbEntity
  8
0
  6
HIDDEN
 62
     7
370
     0
100
AcDbSpline
210
0.0
220
0.0
230
1.0
 70
     8
 71
     3
 72
     8
 73
     4
 74
     0
 42
0.00000001
 43
0.00000001
 40
0.0
 40
0.0
 40
0.0
 40
0.0
 40
1.0
 40
1.0
 40
1.0
 40
1.0
 10
113.5233393770743
 20
99.63367400442449
 30
0.0
 10
113.5867300295464
 20
99.66085831780725
 30
0.0
 10
113.6196123347939
 20
99.69423313751457
 30
0.0
 10
113.6196123348017
 20
99.7293329952063
 30
0.0
  0
SPLINE
  5
ED
330
1F
100
AcDbEntity
  8
0
  6
HIDDEN
 62
     7
370
     0
100
AcDbSpline
210
0.0
220
0.0
230
1.0
 70
     8
 71
     3
 72
     8
 73
     4
 74
     0
 42
0.00000001
 43
0.00000001
 40
0.0000002554908098
 40
0.0000002554908098
 40
0.0000002554908098
 40
0.0000002554908098
 40
0.0013136577947781
 40
0.0013136577947781
 40
0.0013136577947781
 40
0.0013136577947781
 10
113.5233393770743
 20
99.63367400442449
 30
0.0
 10
113.2729555580436
 20
99.52629993683057
 30
0.0
 10
113.0229747114118
 20
99.41620266657264
 30
0.0
 10
112.7733393770741
 20
99.30393252223419
 30
0.0
  0
SPLINE
  5
EE
330
1F
100
AcDbEntity
  8
0
  6
HIDDEN
 62
     7
370
     0
100
AcDbSpline
210
0.0
220
0.0
230
1.0
 70
     8
 71
     3
 72
    10
 73
     6
 74
     0
 42
0.00000001
 43
0.00000001
 40
0.0
 40
0.0
 40
0.0
 40
0.0
 40
0.5
 40
0.5
 40
1.0
 40
1.0
 40
1.0
 40
1.0
 10
112.3696123347932
 20
99.23702413296706
 30
0.0
 10
112.4488661297859
 20
99.23702413296661
 30
0.0
 10
112.528295497967
 20
99.24331478099259
 30
0.0
 10
112.6674860392333
 20
99.26654938133012
 30
0.0
 10
112.7277691467149
 20
99.28343792216936
 30
0.0
 10
112.7733393770741
 20
99.30393252223419
 30
0.0
  0
SPLINE
  5
EF
330
1F
100
AcDbEntity
  8
0
  6
HIDDEN
 62
     7
370
     0
100
AcDbSpline
210
0.0
220
0.0
230
1.0
 70
     8
 71
     3
 72
    10
 73
     6
 74
     0
 42
0.00000001
 43
0.00000001
 40
0.0
 40
0.0
 40
0.0
 40
0.0
 40
0.5
 40
0.5
 40
1.0
 40
1.0
 40
1.0
 40
1.0
 10
111.9658852925294
 20
99.30393252223419
 30
0.0
 10
112.0115573793764
 20
99.2833921135797
 30
0.0
 10
112.0719106849548
 20
99.26651414428635
 30
0.0
 10
112.2109589809017
 20
99.24331633106314
 30
0.0
 10
112.2901615464025
 20
99.23702413296749
 30
0.0
 10
112.3696123347932
 20
99.23702413296706
 30
0.0
  0
SPLINE
  5
F0
330
1F
100
AcDbEntity
  8
0
  6
HIDDEN
 62
     7
370
     0
100
AcDbSpline
210
0.0
220
0.0
230
1.0
 70
     8
 71
     3
 72
     8
 73
     4
 74
     0
 42
0.00000001
 43
0.00000001
 40
0.0000002422839179
 40
0.0000002422839179
 40
0.0000002422839179
 40
0.0000002422839179
 40
0.0013136445878862
 40
0.0013136445878862
 40
0.0013136445878862
 40
0.0013136445878862
 10
117.52028740981
 20
99.30393252223419
 30
0.0
 10
117.1588980920807
 20
99.41620266657263
 30
0.0
 10
116.7970085869378
 20
99.52629993683055
 30
0.0
 10
116.4345357111727
 20
99.63367400442448
 30
0.0
  0
SPLINE
  5
F1
330
1F
100
AcDbEntity
  8
0
  6
HIDDEN
 62
     7
370
     0
100
AcDbSpline
210
0.0
220
0.0
230
1.0
 70
     8
 71
     3
 72
     8
 73
     4
 74
     0
 42
0.00000001
 43
0.00000001
 40
0.0
 40
0.0
 40
0.0
 40
0.0
 40
1.0
 40
1.0
 40
1.0
 40
1.0
 10
116.4345357111727
 20
99.63367400442448
 30
0.0
 10
116.3427665958087
 20
99.66085844732798
 30
0.0
 10
116.2729223978472
 20
99.69423328049177
 30
0.0
 10
116.2327127968551
 20
99.7293329952063
 30
0.0
  0
SPLINE
  5
F2
330
1F
100
AcDbEntity
  8
0
  6
HIDDEN
 62
     7
370
     0
100
AcDbSpline
210
0.0
220
0.0
230
1.0
 70
     8
 71
     3
 72
     8
 73
     4
 74
     0
 42
0.00000001
 43
0.00000001
 40
0.0000002282152697
 40
0.0000002282152697
 40
0.0000002282152697
 40
0.0000002282152697
 40
0.0012883772209633
 40
0.0012883772209633
 40
0.0012883772209633
 40
0.0012883772209633
 10
115.7651353959772
 20
100.1373014034574
 30
0.0
 10
115.9210024933293
 20
100.0013742751636
 30
0.0
 10
116.0768608943667
 20
99.86537904344142
 30
0.0
 10
116.2327127968551
 20
99.7293329952063
 30
0.0
  0
SPLINE
  5
F3
330
1F
100
AcDbEntity
  8
0
  6
HIDDEN
 62
     7
370
     0
100
AcDbSpline
210
0.0
220
0.0
230
1.0
 70
     8
 71
     3
 72
    12
 73
     8
 74
     0
 42
0.00000001
 43
0.00000001
 40
0.0
 40
0.0
 40
0.0
 40
0.0
 40
0.4999999999999971
 40
0.4999999999999971
 40
0.7499999999999986
 40
0.7499999999999986
 40
1.0
 40
1.0
 40
1.0
 40
1.0
 10
115.7651353959772
 20
100.1373014034574
 30
0.0
 10
115.6969666437884
 20
100.1967493747104
 30
0.0
 10
115.7218650447467
 20
100.25796155136
 30
0.0
 10
115.8957521192535
 20
100.3093738647924
 30
0.0
 10
115.9738934002154
 20
100.3188783794783
 30
0.0
 10
116.1489827976144
 20
100.3193948221819
 30
0.0
 10
116.2456020022656
 20
100.3102821617009
 30
0.0
 10
116.335901460396
 20
100.2934811092231
 30
0.0
  0
SPLINE
  5
F4
330
1F
100
AcDbEntity
  8
0
  6
HIDDEN
 62
     7
370
     0
100
AcDbSpline
210
0.0
220
0.0
230
1.0
 70
     8
 71
     3
 72
     8
 73
     4
 74
     0
 42
0.00000001
 43
0.00000001
 40
0.0000002082633701
 40
0.0000002082633701
 40
0.0000002082633701
 40
0.0000002082633701
 40
0.000218115855525
 40
0.000218115855525
 40
0.000218115855525
 40
0.000218115855525
 10
116.335901460396
 20
100.2934811092231
 30
0.0
 10
116.4056551317388
 20
100.2805027911143
 30
0.0
 10
116.4753818079056
 20
100.267371295056
 30
0.0
 10
116.5450814456461
 20
100.2540917386849
 30
0.0
  0
SPLINE
  5
F5
330
1F
100
AcDbEntity
  8
0
  6
HIDDEN
 62
     7
370
     0
100
AcDbSpline
210
0.0
220
0.0
230
1.0
 70
     8
 71
     3
 72
    10
 73
     6
 74
     0
 42
0.00000001
 43
0.00000001
 40
0.0
 40
0.0
 40
0.0
 40
0.0
 40
0.5
 40
0.5
 40
1.0
 40
1.0
 40
1.0
 40
1.0
 10
117.0759369665199
 20
100.2540917386848
 30
0.0
 10
117.0213734999967
 20
100.2351705571719
 30
0.0
 10
116.9406413994294
 20
100.2248486417743
 30
0.0
 10
116.7505996955165
 20
100.2247955357307
 30
0.0
 10
116.6444068634365
 20
100.235167716591
 30
0.0
 10
116.5450814456461
 20
100.2540917386849
 30
0.0
  0
SPLINE
  5
F6
330
1F
100
AcDbEntity
  8
0
  6
HIDDEN
 62
     7
370
     0
100
AcDbSpline
210
0.0
220
0.0
230
1.0
 70
     8
 71
     3
 72
     8
 73
     4
 74
     0
 42
0.00000001
 43
0.00000001
 40
0.0000002408251663
 40
0.0000002408251663
 40
0.0000002408251663
 40
0.0000002408251663
 40
0.0002181484173214
 40
0.0002181484173214
 40
0.0002181484173214
 40
0.0002181484173214
 10
117.1908652382908
 20
100.2934811092231
 30
0.0
 10
117.1525409746787
 20
100.2805027911143
 30
0.0
 10
117.1142315428341
 20
100.267371295056
 30
0.0
 10
117.0759369665199
 20
100.2540917386848
 30
0.0
  0
SPLINE
  5
F7
330
1F
100
AcDbEntity
  8
0
  6
HIDDEN
 62
     7
370
     0
100
AcDbSpline
210
0.0
220
0.0
230
1.0
 70
     8
 71
     3
 72
    12
 73
     8
 74
     0
 42
0.00000001
 43
0.00000001
 40
0.0
 40
0.0
 40
0.0
 40
0.0
 40
0.5000000000000024
 40
0.5000000000000024
 40
0.7500000000000012
 40
0.7500000000000012
 40
1.0
 40
1.0
 40
1.0
 40
1.0
 10
118.0748342272554
 20
100.1373014034574
 30
0.0
 10
118.0066654299943
 20
100.1967494140379
 30
0.0
 10
117.8499534268963
 20
100.2579616370251
 30
0.0
 10
117.5744517236088
 20
100.3093739220828
 30
0.0
 10
117.4800649332396
 20
100.3188784160702
 30
0.0
 10
117.3127895111246
 20
100.3193947886099
 30
0.0
 10
117.2404767334351
 20
100.3102817912253
 30
0.0
 10
117.1908652382908
 20
100.2934811092231
 30
0.0
  0
SPLINE
  5
F8
330
1F
100
AcDbEntity
  8
0
  6
HIDDEN
 62
     7
370
     0
100
AcDbSpline
210
0.0
220
0.0
230
1.0
 70
     8
 71
     3
 72
     8
 73
     4
 74
     0
 42
0.00000001
 43
0.00000001
 40
0.0000002282152696
 40
0.0000002282152696
 40
0.0000002282152696
 40
0.0000002282152696
 40
0.0012883772209633
 40
0.0012883772209633
 40
0.0012883772209633
 40
0.0012883772209633
 10
118.0748342272554
 20
100.1373014034574
 30
0.0
 10
118.2307013246075
 20
100.0013742751636
 30
0.0
 10
118.3865597256449
 20
99.86537904344142
 30
0.0
 10
118.5424116281333
 20
99.7293329952063
 30
0.0
  0
SPLINE
  5
F9
330
1F
100
AcDbEntity
  8
0
  6
HIDDEN
 62
     7
370
     0
100
AcDbSpline
210
0.0
220
0.0
230
1.0
 70
     8
 71
     3
 72
     8
 73
     4
 74
     0
 42
0.00000001
 43
0.00000001
 40
0.0
 40
0.0
 40
0.0
 40
0.0
 40
1.0
 40
1.0
 40
1.0
 40
1.0
 10
118.5663453120934
 20
99.63367400442449
 30
0.0
 10
118.5917076089343
 20
99.66085866318645
 30
0.0
 10
118.5826211633736
 20
99.69423333787509
 30
0.0
 10
118.5424116281333
 20
99.7293329952063
 30
0.0
  0
SPLINE
  5
FA
330
1F
100
AcDbEntity
  8
0
  6
HIDDEN
 62
     7
370
     0
100
AcDbSpline
210
0.0
220
0.0
230
1.0
 70
     8
 71
     3
 72
     8
 73
     4
 74
     0
 42
0.00000001
 43
0.00000001
 40
0.0000002122951039
 40
0.0000002122951039
 40
0.0000002122951039
 40
0.0000002122951039
 40
0.0013136145990722
 40
0.0013136145990722
 40
0.0013136145990722
 40
0.0013136145990722
 10
118.5663453120934
 20
99.63367400442449
 30
0.0
 10
118.4661692165096
 20
99.52629993683057
 30
0.0
 10
118.3661543462066
 20
99.41620266657264
 30
0.0
 10
118.2662777119635
 20
99.30393252223419
 30
0.0
  0
SPLINE
  5
FB
330
1F
100
AcDbEntity
  8
0
  6
HIDDEN
 62
     7
370
     0
100
AcDbSpline
210
0.0
220
0.0
230
1.0
 70
     8
 71
     3
 72
    10
 73
     6
 74
     0
 42
0.00000001
 43
0.00000001
 40
0.0
 40
0.0
 40
0.0
 40
0.0
 40
0.5
 40
0.5
 40
1.0
 40
1.0
 40
1.0
 40
1.0
 10
117.9717459779226
 20
99.23702413296706
 30
0.0
 10
118.0449666294442
 20
99.23702413296661
 30
0.0
 10
118.1109107652935
 20
99.24331474538288
 30
0.0
 10
118.2121721451989
 20
99.26654932495192
 30
0.0
 10
118.2480453566854
 20
99.28343774711875
 30
0.0
 10
118.2662777119635
 20
99.30393252223419
 30
0.0
  0
SPLINE
  5
FC
330
1F
100
AcDbEntity
  8
0
  6
HIDDEN
 62
     7
370
     0
100
AcDbSpline
210
0.0
220
0.0
230
1.0
 70
     8
 71
     3
 72
    10
 73
     6
 74
     0
 42
0.00000001
 43
0.00000001
 40
0.0
 40
0.0
 40
0.0
 40
0.0
 40
0.5
 40
0.5
 40
1.0
 40
1.0
 40
1.0
 40
1.0
 10
117.52028740981
 20
99.30393252223419
 30
0.0
 10
117.5864057450744
 20
99.28339202842663
 30
0.0
 10
117.661973887219
 20
99.26651412819174
 30
0.0
 10
117.8177287154665
 20
99.24331630939045
 30
0.0
 10
117.8983432437127
 20
99.23702413296749
 30
0.0
 10
117.9717459779226
 20
99.23702413296706
 30
0.0
  0
SPLINE
  5
FD
330
1F
100
AcDbEntity
  8
0
  6
HIDDEN
 62
     7
370
     0
100
AcDbSpline
210
0.0
220
0.0
230
1.0
 70
     8
 71
     3
 72
     8
 73
     4
 74
     0
 42
0.00000001
 43
0.00000001
 40
0.0000002094082048
 40
0.0000002094082048
 40
0.0000002094082048
 40
0.0000002094082048
 40
0.0013136117121732
 40
0.0013136117121732
 40
0.0013136117121732
 40
0.0013136117121732
 10
122.2905459379064
 20
99.30393252223419
 30
0.0
 10
121.8724208844075
 20
99.41620266657263
 30
0.0
 10
121.4537171173749
 20
99.52629993683055
 30
0.0
 10
121.0343383943859
 20
99.63367400442448
 30
0.0
  0
SPLINE
  5
FE
330
1F
100
AcDbEntity
  8
0
  6
HIDDEN
 62
     7
370
     0
100
AcDbSpline
210
0.0
220
0.0
230
1.0
 70
     8
 71
     3
 72
     8
 73
     4
 74
     0
 42
0.00000001
 43
0.00000001
 40
0.0
 40
0.0
 40
0.0
 40
0.0
 40
1.0
 40
1.0
 40
1.0
 40
1.0
 10
121.0343383943859
 20
99.63367400442448
 30
0.0
 10
120.9281607786095
 20
99.66085879437144
 30
0.0
 10
120.8319877640976
 20
99.69423381115308
 30
0.0
 10
120.7576912326537
 20
99.7293329952063
 30
0.0
  0
SPLINE
  5
FF
330
1F
100
AcDbEntity
  8
0
  6
HIDDEN
 62
     7
370
     0
100
AcDbSpline
210
0.0
220
0.0
230
1.0
 70
     8
 71
     3
 72
     8
 73
     4
 74
     0
 42
0.00000001
 43
0.00000001
 40
0.0000002981776187
 40
0.0000002981776187
 40
0.0000002981776187
 40
0.0000002981776187
 40
0.0012884471833124
 40
0.0012884471833124
 40
0.0012884471833124
 40
0.0012884471833124
 10
119.8937208515819
 20
100.1373014034574
 30
0.0
 10
120.1817256936529
 20
100.0013742751636
 30
0.0
 10
120.4697144670298
 20
99.86537904344142
 30
0.0
 10
120.7576912326537
 20
99.7293329952063
 30
0.0
  0
SPLINE
  5
100
330
1F
100
AcDbEntity
  8
0
  6
HIDDEN
 62
     7
370
     0
100
AcDbSpline
210
0.0
220
0.0
230
1.0
 70
     8
 71
     3
 72
    12
 73
     8
 74
     0
 42
0.00000001
 43
0.00000001
 40
0.0
 40
0.0
 40
0.0
 40
0.0
 40
0.5000000000000028
 40
0.5000000000000028
 40
0.7500000000000013
 40
0.7500000000000013
 40
1.0
 40
1.0
 40
1.0
 40
1.0
 10
119.8937208515819
 20
100.1373014034574
 30
0.0
 10
119.7677640549124
 20
100.1967481319772
 30
0.0
 10
119.715482104006
 20
100.2579623796417
 30
0.0
 10
119.7935744730195
 20
100.3093734960016
 30
0.0
 10
119.8445889166485
 20
100.318878336489
 30
0.0
 10
119.9828262345386
 20
100.3193948617842
 30
0.0
 10
120.0699302348158
 20
100.3102821728886
 30
0.0
 10
120.1610620834819
 20
100.2934811092231
 30
0.0
  0
SPLINE
  5
101
330
1F
100
AcDbEntity
  8
0
  6
HIDDEN
 62
     7
370
     0
100
AcDbSpline
210
0.0
220
0.0
230
1.0
 70
     8
 71
     3
 72
     8
 73
     4
 74
     0
 42
0.00000001
 43
0.00000001
 40
0.0000002063612484
 40
0.0000002063612484
 40
0.0000002063612484
 40
0.0000002063612484
 40
0.0002181139534033
 40
0.0002181139534033
 40
0.0002181139534033
 40
0.0002181139534033
 10
120.1610620834819
 20
100.2934811092231
 30
0.0
 10
120.2314587051147
 20
100.2805027911143
 30
0.0
 10
120.3018280827452
 20
100.267371295056
 30
0.0
 10
120.3721701727242
 20
100.2540917386849
 30
0.0
  0
SPLINE
  5
102
330
1F
100
AcDbEntity
  8
0
  6
HIDDEN
 62
     7
370
     0
100
AcDbSpline
210
0.0
220
0.0
230
1.0
 70
     8
 71
     3
 72
    10
 73
     6
 74
     0
 42
0.00000001
 43
0.00000001
 40
0.0
 40
0.0
 40
0.0
 40
0.0
 40
0.5
 40
0.5
 40
1.0
 40
1.0
 40
1.0
 40
1.0
 10
120.7784693983601
 20
100.2540917386848
 30
0.0
 10
120.76092506767
 20
100.2351703565161
 30
0.0
 10
120.7124862543028
 20
100.2248486466502
 30
0.0
 10
120.5671045667817
 20
100.2247955308947
 30
0.0
 10
120.4724110733355
 20
100.2351677247598
 30
0.0
 10
120.3721701727242
 20
100.2540917386849
 30
0.0
  0
SPLINE
  5
103
330
1F
100
AcDbEntity
  8
0
  6
HIDDEN
 62
     7
370
     0
100
AcDbSpline
210
0.0
220
0.0
230
1.0
 70
     8
 71
     3
 72
     8
 73
     4
 74
     0
 42
0.00000001
 43
0.00000001
 40
0.0000002063612482
 40
0.0000002063612482
 40
0.0000002063612482
 40
0.0000002063612482
 40
0.0002181139534034
 40
0.0002181139534034
 40
0.0002181139534034
 40
0.0002181139534034
 10
120.815423029627
 20
100.2934811092231
 30
0.0
 10
120.8031003810369
 20
100.2805027911143
 30
0.0
 10
120.7907825014011
 20
100.267371295056
 30
0.0
 10
120.7784693983601
 20
100.2540917386848
 30
0.0
  0
SPLINE
  5
104
330
1F
100
AcDbEntity
  8
0
  6
HIDDEN
 62
     7
370
     0
100
AcDbSpline
210
0.0
220
0.0
230
1.0
 70
     8
 71
     3
 72
    12
 73
     8
 74
     0
 42
0.00000001
 43
0.00000001
 40
0.0
 40
0.0
 40
0.0
 40
0.0
 40
0.4999999999999978
 40
0.4999999999999978
 40
0.7499999999999989
 40
0.7499999999999989
 40
1.0
 40
1.0
 40
1.0
 40
1.0
 10
121.6614878045483
 20
100.1373014034574
 30
0.0
 10
121.5355310078975
 20
100.1967481319772
 30
0.0
 10
121.3442452357562
 20
100.2579623796417
 30
0.0
 10
121.0783982338597
 20
100.3093734960016
 30
0.0
 10
120.9973648175348
 20
100.3188783364889
 30
0.0
 10
120.8735656801903
 20
100.3193948617842
 30
0.0
 10
120.831375297224
 20
100.3102821728887
 30
0.0
 10
120.815423029627
 20
100.2934811092231
 30
0.0
  0
SPLINE
  5
105
330
1F
100
AcDbEntity
  8
0
  6
HIDDEN
 62
     7
370
     0
100
AcDbSpline
210
0.0
220
0.0
230
1.0
 70
     8
 71
     3
 72
     8
 73
     4
 74
     0
 42
0.00000001
 43
0.00000001
 40
0.0000002981776187
 40
0.0000002981776187
 40
0.0000002981776187
 40
0.0000002981776187
 40
0.0012884471833124
 40
0.0012884471833124
 40
0.0012884471833124
 40
0.0012884471833124
 10
121.6614878045483
 20
100.1373014034574
 30
0.0
 10
121.9494926466193
 20
100.0013742751636
 30
0.0
 10
122.2374814199962
 20
99.86537904344142
 30
0.0
 10
122.5254581856201
 20
99.7293329952063
 30
0.0
  0
SPLINE
  5
106
330
1F
100
AcDbEntity
  8
0
  6
HIDDEN
 62
     7
370
     0
100
AcDbSpline
210
0.0
220
0.0
230
1.0
 70
     8
 71
     3
 72
     8
 73
     4
 74
     0
 42
0.00000001
 43
0.00000001
 40
0.0
 40
0.0
 40
0.0
 40
0.0
 40
1.0
 40
1.0
 40
1.0
 40
1.0
 10
122.6659548248443
 20
99.63367400442449
 30
0.0
 10
122.6494267012801
 20
99.66085879411827
 30
0.0
 10
122.5997547194307
 20
99.69423381002973
 30
0.0
 10
122.5254581856201
 20
99.7293329952063
 30
0.0
  0
SPLINE
  5
107
330
1F
100
AcDbEntity
  8
0
  6
HIDDEN
 62
     7
370
     0
100
AcDbSpline
210
0.0
220
0.0
230
1.0
 70
     8
 71
     3
 72
     8
 73
     4
 74
     0
 42
0.00000001
 43
0.00000001
 40
0.0000002087815986
 40
0.0000002087815986
 40
0.0000002087815986
 40
0.0000002087815986
 40
0.001313611085567
 40
0.001313611085567
 40
0.001313611085567
 40
0.001313611085567
 10
122.6659548248443
 20
99.63367400442449
 30
0.0
 10
122.7312373551613
 20
99.52629993683055
 30
0.0
 10
122.7964148185537
 20
99.41620266657264
 30
0.0
 10
122.8615021965847
 20
99.30393252223419
 30
0.0
  0
SPLINE
  5
108
330
1F
100
AcDbEntity
  8
0
  6
HIDDEN
 62
     7
370
     0
100
AcDbSpline
210
0.0
220
0.0
230
1.0
 70
     8
 71
     3
 72
    10
 73
     6
 74
     0
 42
0.00000001
 43
0.00000001
 40
0.0
 40
0.0
 40
0.0
 40
0.0
 40
0.5
 40
0.5
 40
1.0
 40
1.0
 40
1.0
 40
1.0
 10
122.7210055573548
 20
99.23702413296706
 30
0.0
 10
122.7770458258842
 20
99.23702413296661
 30
0.0
 10
122.8194656076542
 20
99.24331469979293
 30
0.0
 10
122.8673817927375
 20
99.26654935831145
 30
0.0
 10
122.8733838209419
 20
99.28343773933837
 30
0.0
 10
122.8615021965847
 20
99.30393252223419
 30
0.0
  0
SPLINE
  5
109
330
1F
100
AcDbEntity
  8
0
  6
HIDDEN
 62
     7
370
     0
100
AcDbSpline
210
0.0
220
0.0
230
1.0
 70
     8
 71
     3
 72
    10
 73
     6
 74
     0
 42
0.00000001
 43
0.00000001
 40
0.0
 40
0.0
 40
0.0
 40
0.0
 40
0.5
 40
0.5
 40
1.0
 40
1.0
 40
1.0
 40
1.0
 10
122.2905459379064
 20
99.30393252223419
 30
0.0
 10
122.3670451663365
 20
99.28339182670476
 30
0.0
 10
122.4463231365113
 20
99.26651409009557
 30
0.0
 10
122.5950723475498
 20
99.24331625803815
 30
0.0
 10
122.6648259409814
 20
99.23702413296749
 30
0.0
 10
122.7210055573548
 20
99.23702413296706
 30
0.0
  0
SPLINE
  5
10A
330
1F
100
AcDbEntity
  8
0
  6
HIDDEN
 62
     7
370
     0
100
AcDbSpline
210
0.0
220
0.0
230
1.0
 70
     8
 71
     3
 72
     8
 73
     4
 74
     0
 42
0.00000001
 43
0.00000001
 40
0.0000002129322567
 40
0.0000002129322567
 40
0.0000002129322567
 40
0.0000002129322567
 40
0.001313615236225
 40
0.001313615236225
 40
0.001313615236225
 40
0.001313615236225
 10
125.5504322584171
 20
99.30393252223419
 30
0.0
 10
125.1392272182308
 20
99.41620266657263
 30
0.0
 10
124.7274530422802
 20
99.52629993683055
 30
0.0
 10
124.3150150809647
 20
99.63367400442448
 30
0.0
  0
SPLINE
  5
10B
330
1F
100
AcDbEntity
  8
0
  6
HIDDEN
 62
     7
370
     0
100
AcDbSpline
210
0.0
220
0.0
230
1.0
 70
     8
 71
     3
 72
     8
 73
     4
 74
     0
 42
0.00000001
 43
0.00000001
 40
0.0
 40
0.0
 40
0.0
 40
0.0
 40
1.0
 40
1.0
 40
1.0
 40
1.0
 10
124.3150150809647
 20
99.63367400442448
 30
0.0
 10
124.2105952197219
 20
99.66085866318645
 30
0.0
 10
124.1027350997134
 20
99.69423333787508
 30
0.0
 10
124.005660694379
 20
99.7293329952063
 30
0.0
  0
SPLINE
  5
10C
330
1F
100
AcDbEntity
  8
0
  6
HIDDEN
 62
     7
370
     0
100
AcDbSpline
210
0.0
220
0.0
230
1.0
 70
     8
 71
     3
 72
     8
 73
     4
 74
     0
 42
0.00000001
 43
0.00000001
 40
0.0000002282152697
 40
0.0000002282152697
 40
0.0000002282152697
 40
0.0000002282152697
 40
0.0012883772209633
 40
0.0012883772209633
 40
0.0012883772209633
 40
0.0012883772209633
 10
122.8768289917204
 20
100.1373014034574
 30
0.0
 10
123.2531254520754
 20
100.0013742751636
 30
0.0
 10
123.6294009176698
 20
99.86537904344142
 30
0.0
 10
124.0056606943789
 20
99.7293329952063
 30
0.0
  0
SPLINE
  5
10D
330
1F
100
AcDbEntity
  8
0
  6
HIDDEN
 62
     7
370
     0
100
AcDbSpline
210
0.0
220
0.0
230
1.0
 70
     8
 71
     3
 72
    12
 73
     8
 74
     0
 42
0.00000001
 43
0.00000001
 40
0.0
 40
0.0
 40
0.0
 40
0.0
 40
0.4999999999999989
 40
0.4999999999999989
 40
0.7499999999999994
 40
0.7499999999999994
 40
1.0
 40
1.0
 40
1.0
 40
1.0
 10
122.8768289917204
 20
100.1373014034574
 30
0.0
 10
122.7122549568073
 20
100.1967494140379
 30
0.0
 10
122.5907547530278
 20
100.2579616370252
 30
0.0
 10
122.5611668688964
 20
100.3093739220829
 30
0.0
 10
122.5772886875922
 20
100.3188784160702
 30
0.0
 10
122.6576273358096
 20
100.3193947886099
 30
0.0
 10
122.7219567047194
 20
100.3102817912253
 30
0.0
 10
122.800045111999
 20
100.2934811092231
 30
0.0
  0
SPLINE
  5
10E
330
1F
100
AcDbEntity
  8
0
  6
HIDDEN
 62
     7
370
     0
100
AcDbSpline
210
0.0
220
0.0
230
1.0
 70
     8
 71
     3
 72
     8
 73
     4
 74
     0
 42
0.00000001
 43
0.00000001
 40
0.0000002408251664
 40
0.0000002408251664
 40
0.0000002408251664
 40
0.0000002408251664
 40
0.0002181484173213
 40
0.0002181484173213
 40
0.0002181484173213
 40
0.0002181484173213
 10
122.800045111999
 20
100.2934811092231
 30
0.0
 10
122.8603674364253
 20
100.2805027911143
 30
0.0
 10
122.9206664156751
 20
100.267371295056
 30
0.0
 10
122.980942012346
 20
100.2540917386849
 30
0.0
  0
SPLINE
  5
10F
330
1F
100
AcDbEntity
  8
0
  6
HIDDEN
 62
     7
370
     0
100
AcDbSpline
210
0.0
220
0.0
230
1.0
 70
     8
 71
     3
 72
    10
 73
     6
 74
     0
 42
0.00000001
 43
0.00000001
 40
0.0
 40
0.0
 40
0.0
 40
0.0
 40
0.5
 40
0.5
 40
1.0
 40
1.0
 40
1.0
 40
1.0
 10
123.2008295687526
 20
100.2540917386848
 30
0.0
 10
123.2229759253261
 20
100.2351703501195
 30
0.0
 10
123.2142050596163
 20
100.2248486273768
 30
0.0
 10
123.1356143144646
 20
100.2247955500179
 30
0.0
 10
123.0668369787619
 20
100.2351678770979
 30
0.0
 10
122.980942012346
 20
100.2540917386849
 30
0.0
  0
SPLINE
  5
110
330
1F
100
AcDbEntity
  8
0
  6
HIDDEN
 62
     7
370
     0
100
AcDbSpline
210
0.0
220
0.0
230
1.0
 70
     8
 71
     3
 72
     8
 73
     4
 74
     0
 42
0.00000001
 43
0.00000001
 40
0.0000002082633699
 40
0.0000002082633699
 40
0.0000002082633699
 40
0.0000002082633699
 40
0.0002181158555251
 40
0.0002181158555251
 40
0.0002181158555251
 40
0.0002181158555251
 10
123.1541827041407
 20
100.2934811092231
 30
0.0
 10
123.1697376821154
 20
100.2805027911143
 30
0.0
 10
123.1852866402009
 20
100.267371295056
 30
0.0
 10
123.2008295687526
 20
100.2540917386848
 30
0.0
  0
SPLINE
  5
111
330
1F
100
AcDbEntity
  8
0
  6
HIDDEN
 62
     7
370
     0
100
AcDbSpline
210
0.0
220
0.0
230
1.0
 70
     8
 71
     3
 72
    12
 73
     8
 74
     0
 42
0.00000001
 43
0.00000001
 40
0.0
 40
0.0
 40
0.0
 40
0.0
 40
0.5000000000000039
 40
0.5000000000000039
 40
0.7500000000000019
 40
0.7500000000000019
 40
1.0
 40
1.0
 40
1.0
 40
1.0
 10
123.8335375726331
 20
100.1373014034574
 30
0.0
 10
123.6689636466034
 20
100.1967493747104
 30
0.0
 10
123.4722380809223
 20
100.25796155136
 30
0.0
 10
123.2565071629888
 20
100.3093738647924
 30
0.0
 10
123.2011654442528
 20
100.3188783794783
 30
0.0
 10
123.1396917154825
 20
100.3193948221819
 30
0.0
 10
123.1340460424344
 20
100.3102821617009
 30
0.0
 10
123.1541827041407
 20
100.2934811092231
 30
0.0
  0
SPLINE
  5
112
330
1F
100
AcDbEntity
  8
0
  6
HIDDEN
 62
     7
370
     0
100
AcDbSpline
210
0.0
220
0.0
230
1.0
 70
     8
 71
     3
 72
     8
 73
     4
 74
     0
 42
0.00000001
 43
0.00000001
 40
0.0000002282152696
 40
0.0000002282152696
 40
0.0000002282152696
 40
0.0000002282152696
 40
0.0012883772209633
 40
0.0012883772209633
 40
0.0012883772209633
 40
0.0012883772209633
 10
123.8335375726331
 20
100.1373014034574
 30
0.0
 10
124.2098340329881
 20
100.0013742751636
 30
0.0
 10
124.5861094985825
 20
99.86537904344142
 30
0.0
 10
124.9623692752917
 20
99.7293329952063
 30
0.0
  0
SPLINE
  5
113
330
1F
100
AcDbEntity
  8
0
  6
HIDDEN
 62
     7
370
     0
100
AcDbSpline
210
0.0
220
0.0
230
1.0
 70
     8
 71
     3
 72
     8
 73
     4
 74
     0
 42
0.00000001
 43
0.00000001
 40
0.0
 40
0.0
 40
0.0
 40
0.0
 40
1.0
 40
1.0
 40
1.0
 40
1.0
 10
125.1980395300633
 20
99.63367400442449
 30
0.0
 10
125.1421378340587
 20
99.660858447328
 30
0.0
 10
125.0594438393239
 20
99.69423328049179
 30
0.0
 10
124.9623692752917
 20
99.7293329952063
 30
0.0
  0
SPLINE
  5
114
330
1F
100
AcDbEntity
  8
0
  6
HIDDEN
 62
     7
370
     0
100
AcDbSpline
210
0.0
220
0.0
230
1.0
 70
     8
 71
     3
 72
     8
 73
     4
 74
     0
 42
0.00000001
 43
0.00000001
 40
0.0000002415589206
 40
0.0000002415589206
 40
0.0000002415589206
 40
0.0000002415589206
 40
0.0013136438628889
 40
0.0013136438628889
 40
0.0013136438628889
 40
0.0013136438628889
 10
125.1980395300633
 20
99.63367400442449
 30
0.0
 10
125.418842012828
 20
99.52629993683057
 30
0.0
 10
125.6392891319495
 20
99.41620266657264
 30
0.0
 10
125.859431558968
 20
99.30393252223419
 30
0.0
  0
SPLINE
  5
115
330
1F
100
AcDbEntity
  8
0
  6
HIDDEN
 62
     7
370
     0
100
AcDbSpline
210
0.0
220
0.0
230
1.0
 70
     8
 71
     3
 72
    10
 73
     6
 74
     0
 42
0.00000001
 43
0.00000001
 40
0.0
 40
0.0
 40
0.0
 40
0.0
 40
0.5
 40
0.5
 40
1.0
 40
1.0
 40
1.0
 40
1.0
 10
125.8943593542665
 20
99.23702413296706
 30
0.0
 10
125.9246881810251
 20
99.23702413296661
 30
0.0
 10
125.9371252498716
 20
99.24331471738996
 30
0.0
 10
125.924400985943
 20
99.26654940953644
 30
0.0
 10
125.8996180366677
 20
99.28343787377797
 30
0.0
 10
125.859431558968
 20
99.30393252223419
 30
0.0
  0
SPLINE
  5
116
330
1F
100
AcDbEntity
  8
0
  6
HIDDEN
 62
     7
370
     0
100
AcDbSpline
210
0.0
220
0.0
230
1.0
 70
     8
 71
     3
 72
    10
 73
     6
 74
     0
 42
0.00000001
 43
0.00000001
 40
0.0
 40
0.0
 40
0.0
 40
0.0
 40
0.5
 40
0.5
 40
1.0
 40
1.0
 40
1.0
 40
1.0
 10
125.5504322584171
 20
99.30393252223419
 30
0.0
 10
125.6256653378693
 20
99.2833918482069
 30
0.0
 10
125.6965843355229
 20
99.26651409415429
 30
0.0
 10
125.81568191353
 20
99.24331626351271
 30
0.0
 10
125.8639551416682
 20
99.23702413296749
 30
0.0
 10
125.8943593542665
 20
99.23702413296706
 30
0.0
  0
SPLINE
  5
117
330
1F
100
AcDbEntity
  8
0
  6
HIDDEN
 62
     7
370
     0
100
AcDbSpline
210
0.0
220
0.0
230
1.0
 70
     8
 71
     3
 72
     8
 73
     4
 74
     0
 42
0.00000001
 43
0.00000001
 40
0.0000002562576294
 40
0.0000002562576294
 40
0.0000002562576294
 40
0.0000002562576294
 40
0.0013136585615977
 40
0.0013136585615977
 40
0.0013136585615977
 40
0.0013136585615977
 10
126.8036582299876
 20
99.30393252223419
 30
0.0
 10
126.4619754428992
 20
99.41620266657263
 30
0.0
 10
126.1198197435768
 20
99.52629993683055
 30
0.0
 10
125.7771124847858
 20
99.63367400442448
 30
0.0
  0
SPLINE
  5
118
330
1F
100
AcDbEntity
  8
0
  6
HIDDEN
 62
     7
370
     0
100
AcDbSpline
210
0.0
220
0.0
230
1.0
 70
     8
 71
     3
 72
     8
 73
     4
 74
     0
 42
0.00000001
 43
0.00000001
 40
0.0
 40
0.0
 40
0.0
 40
0.0
 40
1.0
 40
1.0
 40
1.0
 40
1.0
 10
125.7771124847858
 20
99.63367400442448
 30
0.0
 10
125.6903479453549
 20
99.66085831780724
 30
0.0
 10
125.5872204533675
 20
99.69423313751456
 30
0.0
 10
125.4821472743996
 20
99.7293329952063
 30
0.0
  0
SPLINE
  5
119
330
1F
100
AcDbEntity
  8
0
  6
HIDDEN
 62
     7
370
     0
100
AcDbSpline
210
0.0
220
0.0
230
1.0
 70
     8
 71
     3
 72
     8
 73
     4
 74
     0
 42
0.00000001
 43
0.00000001
 40
0.0
 40
0.0
 40
0.0
 40
0.0
 40
1.0
 40
1.0
 40
1.0
 40
1.0
 10
124.2603086439992
 20
100.1373014034574
 30
0.0
 10
124.6676089423086
 20
100.0013742936442
 30
0.0
 10
125.0748865898002
 20
99.86537905580322
 30
0.0
 10
125.4821472743996
 20
99.7293329952063
 30
0.0
  0
SPLINE
  5
11A
330
1F
100
AcDbEntity
  8
0
  6
HIDDEN
 62
     7
370
     0
100
AcDbSpline
210
0.0
220
0.0
230
1.0
 70
     8
 71
     3
 72
    12
 73
     8
 74
     0
 42
0.00000001
 43
0.00000001
 40
0.0
 40
0.0
 40
0.0
 40
0.0
 40
0.2302817135910438
 40
0.460963223803694
 40
0.6867684954450334
 40
0.900933774530716
 40
0.9999999999999999
 40
0.9999999999999999
 40
0.9999999999999999
 40
0.9999999999999999
 10
124.2603081605263
 20
100.1373013143533
 30
0.0
 10
124.2015077415731
 20
100.1571380753503
 30
0.0
 10
124.0838048191003
 20
100.1968460363361
 30
0.0
 10
123.9279338030024
 20
100.2521456625747
 30
0.0
 10
123.8172051427616
 20
100.2934316345862
 30
0.0
 10
123.7615353583131
 20
100.3159131155079
 30
0.0
 10
123.7656965903263
 20
100.3163228120693
 30
0.0
 10
123.7670126697846
 20
100.3164523874515
 30
0.0
  0
SPLINE
  5
11B
330
1F
100
AcDbEntity
  8
0
  6
HIDDEN
 62
     7
370
     0
100
AcDbSpline
210
0.0
220
0.0
230
1.0
 70
     8
 71
     3
 72
     8
 73
     4
 74
     0
 42
0.00000001
 43
0.00000001
 40
0.0
 40
0.0
 40
0.0
 40
0.0
 40
1.0
 40
1.0
 40
1.0
 40
1.0
 10
123.7673214199012
 20
100.3181833999386
 30
0.0
 10
123.7798525871841
 20
100.3154358570793
 30
0.0
 10
123.8086269678049
 20
100.3069012088877
 30
0.0
 10
123.8510893022965
 20
100.2934811092231
 30
0.0
  0
SPLINE
  5
11C
330
1F
100
AcDbEntity
  8
0
  6
HIDDEN
 62
     7
370
     0
100
AcDbSpline
210
0.0
220
0.0
230
1.0
 70
     8
 71
     3
 72
     8
 73
     4
 74
     0
 42
0.00000001
 43
0.00000001
 40
0.000000248363765
 40
0.000000248363765
 40
0.000000248363765
 40
0.000000248363765
 40
0.0002181559559199
 40
0.0002181559559199
 40
0.0002181559559199
 40
0.0002181559559199
 10
123.8510893022965
 20
100.2934811092231
 30
0.0
 10
123.8921538024454
 20
100.2805027911143
 30
0.0
 10
123.9332024103355
 20
100.267371295056
 30
0.0
 10
123.9742351005047
 20
100.2540917386849
 30
0.0
  0
SPLINE
  5
11D
330
1F
100
AcDbEntity
  8
0
  6
HIDDEN
 62
     7
370
     0
100
AcDbSpline
210
0.0
220
0.0
230
1.0
 70
     8
 71
     3
 72
    10
 73
     6
 74
     0
 42
0.00000001
 43
0.00000001
 40
0.0
 40
0.0
 40
0.0
 40
0.0
 40
0.0651749338805272
 40
0.5878124475542458
 40
1.0
 40
1.0
 40
1.0
 40
1.0
 10
124.06214506839
 20
100.2257443626517
 30
0.0
 10
124.0630758864251
 20
100.2254453926013
 30
0.0
 10
124.0714709302695
 20
100.2227489830065
 30
0.0
 10
124.0421438164532
 20
100.2321514538996
 30
0.0
 10
123.9950156466341
 20
100.2473781370165
 30
0.0
 10
123.9742356679269
 20
100.2540919591778
 30
0.0
  0
SPLINE
  5
11E
330
1F
100
AcDbEntity
  8
0
  6
HIDDEN
 62
     7
370
     0
100
AcDbSpline
210
0.0
220
0.0
230
1.0
 70
     8
 71
     3
 72
    10
 73
     6
 74
     0
 42
0.00000001
 43
0.00000001
 40
0.0
 40
0.0
 40
0.0
 40
0.0
 40
0.5
 40
0.5
 40
1.0
 40
1.0
 40
1.0
 40
1.0
 10
126.8036582299876
 20
99.30393252223419
 30
0.0
 10
126.8661708785495
 20
99.2833921135797
 30
0.0
 10
126.9179347212182
 20
99.26651414428633
 30
0.0
 10
126.989249109933
 20
99.24331633106314
 30
0.0
 10
127.0086930196004
 20
99.23702413296749
 30
0.0
 10
127.0086930196017
 20
99.23702413296706
 30
0.0
  0
SPLINE
  5
11F
330
1F
100
AcDbEntity
  8
0
  6
HIDDEN
 62
     7
370
     0
100
AcDbSpline
210
0.0
220
0.0
230
1.0
 70
     8
 71
     3
 72
    10
 73
     6
 74
     0
 42
0.00000001
 43
0.00000001
 40
0.0
 40
0.0
 40
0.0
 40
0.0
 40
0.4531346884812433
 40
0.9072622871335627
 40
1.0
 40
1.0
 40
1.0
 40
1.0
 10
119.8937212443777
 20
100.1373013143533
 30
0.0
 10
119.8574375227176
 20
100.1569062949862
 30
0.0
 10
119.7847905743911
 20
100.1961592147479
 30
0.0
 10
119.7415315785746
 20
100.2395208990079
 30
0.0
 10
119.7508906736679
 20
100.2561490235591
 30
0.0
 10
119.7524777940341
 20
100.2589688298398
 30
0.0
  0
LINE
  5
120
330
1F
100
AcDbEntity
  8
0
  6
HIDDEN
 62
     7
370
     0
100
AcDbLine
 10
118.0748342863
 20
100.1373013144
 30
0.0
 11
117.9815222836
 21
100.1952207309
 31
0.0
  0
LINE
  5
121
330
1F
100
AcDbEntity
  8
0
  6
HIDDEN
 62
     7
370
     0
100
AcDbLine
 10
101.7144461489
 20
100.5712645722
 30
0.0
 11
123.0247783801
 21
100.5712645722
 31
0.0
  0
LINE
  5
122
330
1F
100
AcDbEntity
  8
0
  6
HIDDEN
 62
     7
370
     0
100
AcDbLine
 10
98.1313464559
 20
106.8378219509
 30
0.0
 11
126.6078780732
 21
106.8378219509
 31
0.0
  0
LINE
  5
123
330
1F
100
AcDbEntity
  8
0
  6
HIDDEN
 62
     7
370
     0
100
AcDbLine
 10
98.0880446127
 20
108.4715884074
 30
0.0
 11
126.651178985
 21
108.4715884074
 31
0.0
  0
LINE
  5
124
330
1F
100
AcDbEntity
  8
0
  6
HIDDEN
 62
     7
370
     0
100
AcDbLine
 10
111.9658853254
 20
99.3039324542
 30
0.0
 11
111.9658853254
 21
99.2664192465
 31
0.0
  0
SPLINE
  5
125
330
1F
100
AcDbEntity
  8
0
  6
HIDDEN
 62
     7
370
     0
100
AcDbSpline
210
0.0
220
0.0
230
1.0
 70
     8
 71
     3
 72
    10
 73
     6
 74
     0
 42
0.00000001
 43
0.00000001
 40
0.0
 40
0.0
 40
0.0
 40
0.0
 40
0.5
 40
0.5
 40
1.0
 40
1.0
 40
1.0
 40
1.0
 10
112.3696123348017
 20
99.23702413321905
 30
0.0
 10
112.291218443143
 20
99.23702413321905
 30
0.0
 10
112.2126459783026
 20
99.23970679903954
 30
0.0
 10
112.0731492848819
 20
99.24984801960848
 30
0.0
 10
112.0122500448992
 20
99.25725800555976
 30
0.0
 10
111.9658852925294
 20
99.2664188305475
 30
0.0
  0
LINE
  5
126
330
1F
100
AcDbEntity
  8
0
  6
HIDDEN
 62
     7
370
     0
100
AcDbLine
 10
112.7733392036
 20
99.3039324542
 30
0.0
 11
112.7733392036
 21
99.2664192465
 31
0.0
  0
SPLINE
  5
127
330
1F
100
AcDbEntity
  8
0
  6
HIDDEN
 62
     7
370
     0
100
AcDbSpline
210
0.0
220
0.0
230
1.0
 70
     8
 71
     3
 72
     8
 73
     4
 74
     0
 42
0.00000001
 43
0.00000001
 40
0.0
 40
0.0
 40
0.0
 40
0.0
 40
1.0
 40
1.0
 40
1.0
 40
1.0
 10
112.773339377074
 20
99.2664188305475
 30
0.0
 10
112.6804223539718
 20
99.24806013038166
 30
0.0
 10
112.5267287934131
 20
99.23702413321905
 30
0.0
 10
112.3696123348017
 20
99.23702413321905
 30
0.0
  0
LINE
  5
128
330
1F
100
AcDbEntity
  8
0
  6
HIDDEN
 62
     7
370
     0
100
AcDbLine
 10
113.5233393266
 20
99.6336741966
 30
0.0
 11
113.5233393266
 21
99.4112832134
 31
0.0
  0
SPLINE
  5
129
330
1F
100
AcDbEntity
  8
0
  6
HIDDEN
 62
     7
370
     0
100
AcDbSpline
210
0.0
220
0.0
230
1.0
 70
     8
 71
     3
 72
     8
 73
     4
 74
     0
 42
0.00000001
 43
0.00000001
 40
0.0000002493681955
 40
0.0000002493681955
 40
0.0000002493681955
 40
0.0000002493681955
 40
0.0012798125332719
 40
0.0012798125332719
 40
0.0012798125332719
 40
0.0012798125332719
 10
112.773339377074
 20
99.2664188305475
 30
0.0
 10
113.0232650920556
 20
99.31579956953534
 30
0.0
 10
113.2732614695949
 20
99.36416859116467
 30
0.0
 10
113.523339377074
 20
99.41128334113853
 30
0.0
  0
LINE
  5
12A
330
1F
100
AcDbEntity
  8
0
  6
HIDDEN
 62
     7
370
     0
100
AcDbLine
 10
111.2158852025
 20
99.6336741966
 30
0.0
 11
111.2158852025
 21
99.4112832134
 31
0.0
  0
SPLINE
  5
12B
330
1F
100
AcDbEntity
  8
0
  6
HIDDEN
 62
     7
370
     0
100
AcDbSpline
210
0.0
220
0.0
230
1.0
 70
     8
 71
     3
 72
     8
 73
     4
 74
     0
 42
0.00000001
 43
0.00000001
 40
0.0000002492162788
 40
0.0000002492162788
 40
0.0000002492162788
 40
0.0000002492162788
 40
0.0012798123813552
 40
0.0012798123813552
 40
0.0012798123813552
 40
0.0012798123813552
 10
111.2158852925294
 20
99.41128334113853
 30
0.0
 10
111.4659632000086
 20
99.36416859116467
 30
0.0
 10
111.7159595775479
 20
99.31579956953534
 30
0.0
 10
111.9658852925294
 20
99.2664188305475
 30
0.0
  0
LINE
  5
12C
330
1F
100
AcDbEntity
  8
0
  6
HIDDEN
 62
     7
370
     0
100
AcDbLine
 10
102.3421622208
 20
111.6367388179
 30
0.0
 11
122.3970623082
 21
111.6367388179
 31
0.0
  0
LINE
  5
12D
330
1F
100
AcDbEntity
  8
0
  6
HIDDEN
 62
     7
370
     0
100
AcDbLine
 10
102.1834136314
 20
104.1302965616
 30
0.0
 11
122.5558108977
 21
104.1302965616
 31
0.0
  0
LINE
  5
12E
330
1F
100
AcDbEntity
  8
0
  6
HIDDEN
 62
     7
370
     0
100
AcDbLine
 10
107.2189372476
 20
99.3039324542
 30
0.0
 11
107.2189372476
 21
99.2664192465
 31
0.0
  0
SPLINE
  5
12F
330
1F
100
AcDbEntity
  8
0
  6
HIDDEN
 62
     7
370
     0
100
AcDbSpline
210
0.0
220
0.0
230
1.0
 70
     8
 71
     3
 72
     8
 73
     4
 74
     0
 42
0.00000001
 43
0.00000001
 40
0.0
 40
0.0
 40
0.0
 40
0.0
 40
1.0
 40
1.0
 40
1.0
 40
1.0
 10
107.2189372597936
 20
99.2664188305475
 30
0.0
 10
107.0844235989008
 20
99.24806005213053
 30
0.0
 10
106.9126349480774
 20
99.23702413321905
 30
0.0
 10
106.7674786916732
 20
99.23702413321905
 30
0.0
  0
LINE
  5
130
330
1F
100
AcDbEntity
  8
0
  6
HIDDEN
 62
     7
370
     0
100
AcDbLine
 10
117.5202875725
 20
99.3039324542
 30
0.0
 11
117.5202875725
 21
99.2664192465
 31
0.0
  0
SPLINE
  5
131
330
1F
100
AcDbEntity
  8
0
  6
HIDDEN
 62
     7
370
     0
100
AcDbSpline
210
0.0
220
0.0
230
1.0
 70
     8
 71
     3
 72
    10
 73
     6
 74
     0
 42
0.00000001
 43
0.00000001
 40
0.0
 40
0.0
 40
0.0
 40
0.0
 40
0.5
 40
0.5
 40
1.0
 40
1.0
 40
1.0
 40
1.0
 10
117.9717459779305
 20
99.23702413321905
 30
0.0
 10
117.8993200914935
 20
99.23702413321905
 30
0.0
 10
117.8195072083131
 20
99.23970675451743
 30
0.0
 10
117.663470124769
 20
99.24984805100605
 30
0.0
 10
117.587408379929
 20
99.257257983914
 30
0.0
 10
117.5202874098101
 20
99.2664188305475
 30
0.0
  0
LINE
  5
132
330
1F
100
AcDbEntity
  8
0
  6
HIDDEN
 62
     7
370
     0
100
AcDbLine
 10
106.4729469922
 20
99.3039324542
 30
0.0
 11
106.4729469922
 21
99.2664192465
 31
0.0
  0
SPLINE
  5
133
330
1F
100
AcDbEntity
  8
0
  6
HIDDEN
 62
     7
370
     0
100
AcDbSpline
210
0.0
220
0.0
230
1.0
 70
     8
 71
     3
 72
    10
 73
     6
 74
     0
 42
0.00000001
 43
0.00000001
 40
0.0
 40
0.0
 40
0.0
 40
0.0
 40
0.5
 40
0.5
 40
1.0
 40
1.0
 40
1.0
 40
1.0
 10
106.7674786916732
 20
99.23702413321905
 30
0.0
 10
106.695052440168
 20
99.23702413321905
 30
0.0
 10
106.6296824333187
 20
99.23970678007463
 30
0.0
 10
106.5279617722299
 20
99.249848009308
 30
0.0
 10
106.4914971779229
 20
99.25725793626586
 30
0.0
 10
106.4729469576402
 20
99.2664188305475
 30
0.0
  0
LINE
  5
134
330
1F
100
AcDbEntity
  8
0
  6
HIDDEN
 62
     7
370
     0
100
AcDbLine
 10
118.2662778861
 20
99.3039324542
 30
0.0
 11
118.2662778861
 21
99.2664192465
 31
0.0
  0
SPLINE
  5
135
330
1F
100
AcDbEntity
  8
0
  6
HIDDEN
 62
     7
370
     0
100
AcDbSpline
210
0.0
220
0.0
230
1.0
 70
     8
 71
     3
 72
     8
 73
     4
 74
     0
 42
0.00000001
 43
0.00000001
 40
0.0
 40
0.0
 40
0.0
 40
0.0
 40
1.0
 40
1.0
 40
1.0
 40
1.0
 10
118.2662777119635
 20
99.2664188305475
 30
0.0
 10
118.2291020339762
 20
99.24805988651885
 30
0.0
 10
118.116901337562
 20
99.23702413321905
 30
0.0
 10
117.9717459779305
 20
99.23702413321905
 30
0.0
  0
LINE
  5
136
330
1F
100
AcDbEntity
  8
0
  6
HIDDEN
 62
     7
370
     0
100
AcDbLine
 10
108.3046889376
 20
99.6336741966
 30
0.0
 11
108.3046889376
 21
99.4112832134
 31
0.0
  0
SPLINE
  5
137
330
1F
100
AcDbEntity
  8
0
  6
HIDDEN
 62
     7
370
     0
100
AcDbSpline
210
0.0
220
0.0
230
1.0
 70
     8
 71
     3
 72
     8
 73
     4
 74
     0
 42
0.00000001
 43
0.00000001
 40
0.000000235770167
 40
0.000000235770167
 40
0.000000235770167
 40
0.000000235770167
 40
0.0012797989352435
 40
0.0012797989352435
 40
0.0012797989352435
 40
0.0012797989352435
 10
107.2189372597936
 20
99.2664188305475
 30
0.0
 10
107.5807469525593
 20
99.31579956953534
 30
0.0
 10
107.9426589413145
 20
99.36416859116467
 30
0.0
 10
108.3046889584306
 20
99.41128334113853
 30
0.0
  0
LINE
  5
138
330
1F
100
AcDbEntity
  8
0
  6
HIDDEN
 62
     7
370
     0
100
AcDbLine
 10
116.4345358825
 20
99.6336741966
 30
0.0
 11
116.4345358825
 21
99.4112832134
 31
0.0
  0
SPLINE
  5
139
330
1F
100
AcDbEntity
  8
0
  6
HIDDEN
 62
     7
370
     0
100
AcDbSpline
210
0.0
220
0.0
230
1.0
 70
     8
 71
     3
 72
     8
 73
     4
 74
     0
 42
0.00000001
 43
0.00000001
 40
0.0000002356265358
 40
0.0000002356265358
 40
0.0000002356265358
 40
0.0000002356265358
 40
0.0012797987916123
 40
0.0012797987916123
 40
0.0012797987916123
 40
0.0012797987916123
 10
116.434535711173
 20
99.41128334113853
 30
0.0
 10
116.7965657282891
 20
99.36416859116467
 30
0.0
 10
117.1584777170443
 20
99.31579956953534
 30
0.0
 10
117.5202874098101
 20
99.2664188305475
 30
0.0
  0
LINE
  5
13A
330
1F
100
AcDbEntity
  8
0
  6
HIDDEN
 62
     7
370
     0
100
AcDbLine
 10
113.6196124694
 20
99.7293331322
 30
0.0
 11
113.6196124694
 21
99.4533091446
 31
0.0
  0
SPLINE
  5
13B
330
1F
100
AcDbEntity
  8
0
  6
HIDDEN
 62
     7
370
     0
100
AcDbSpline
210
0.0
220
0.0
230
1.0
 70
     8
 71
     3
 72
     8
 73
     4
 74
     0
 42
0.00000001
 43
0.00000001
 40
0.0
 40
0.0
 40
0.0
 40
0.0
 40
1.0
 40
1.0
 40
1.0
 40
1.0
 10
113.6196123348017
 20
99.45330896918868
 30
0.0
 10
113.6196123347982
 20
99.4377752794412
 30
0.0
 10
113.5860700041751
 20
99.42310180939587
 30
0.0
 10
113.523339377074
 20
99.41128334113853
 30
0.0
  0
LINE
  5
13C
330
1F
100
AcDbEntity
  8
0
  6
HIDDEN
 62
     7
370
     0
100
AcDbLine
 10
111.1196122925
 20
99.7293331322
 30
0.0
 11
111.1196122925
 21
99.4533091446
 31
0.0
  0
SPLINE
  5
13D
330
1F
100
AcDbEntity
  8
0
  6
HIDDEN
 62
     7
370
     0
100
AcDbSpline
210
0.0
220
0.0
230
1.0
 70
     8
 71
     3
 72
     8
 73
     4
 74
     0
 42
0.00000001
 43
0.00000001
 40
0.0
 40
0.0
 40
0.0
 40
0.0
 40
1.0
 40
1.0
 40
1.0
 40
1.0
 10
111.1196123348017
 20
99.45330896918868
 30
0.0
 10
111.1196123348053
 20
99.4377752794412
 30
0.0
 10
111.1531546654283
 20
99.42310180939587
 30
0.0
 10
111.2158852925294
 20
99.41128334113853
 30
0.0
  0
LINE
  5
13E
330
1F
100
AcDbEntity
  8
0
  6
HIDDEN
 62
     7
370
     0
100
AcDbLine
 10
106.1728793989
 20
99.6336741966
 30
0.0
 11
106.1728793989
 21
99.4112832134
 31
0.0
  0
SPLINE
  5
13F
330
1F
100
AcDbEntity
  8
0
  6
HIDDEN
 62
     7
370
     0
100
AcDbSpline
210
0.0
220
0.0
230
1.0
 70
     8
 71
     3
 72
     8
 73
     4
 74
     0
 42
0.00000001
 43
0.00000001
 40
0.0000002070813958
 40
0.0000002070813958
 40
0.0000002070813958
 40
0.0000002070813958
 40
0.0012797702464722
 40
0.0012797702464722
 40
0.0012797702464722
 40
0.0012797702464722
 10
106.1728793575103
 20
99.41128334113853
 30
0.0
 10
106.2729330609006
 20
99.36416859116467
 30
0.0
 10
106.3729541449665
 20
99.31579956953534
 30
0.0
 10
106.4729469576402
 20
99.2664188305475
 30
0.0
  0
LINE
  5
140
330
1F
100
AcDbEntity
  8
0
  6
HIDDEN
 62
     7
370
     0
100
AcDbLine
 10
118.566345363
 20
99.6336741966
 30
0.0
 11
118.566345363
 21
99.4112832134
 31
0.0
  0
SPLINE
  5
141
330
1F
100
AcDbEntity
  8
0
  6
HIDDEN
 62
     7
370
     0
100
AcDbSpline
210
0.0
220
0.0
230
1.0
 70
     8
 71
     3
 72
     8
 73
     4
 74
     0
 42
0.00000001
 43
0.00000001
 40
0.0000002072076238
 40
0.0000002072076238
 40
0.0000002072076238
 40
0.0000002072076238
 40
0.0012797703727003
 40
0.0012797703727003
 40
0.0012797703727003
 40
0.0012797703727003
 10
118.2662777119635
 20
99.2664188305475
 30
0.0
 10
118.3662705246371
 20
99.31579956953534
 30
0.0
 10
118.466291608703
 20
99.36416859116467
 30
0.0
 10
118.5663453120934
 20
99.41128334113853
 30
0.0
  0
LINE
  5
142
330
1F
100
AcDbEntity
  8
0
  6
HIDDEN
 62
     7
370
     0
100
AcDbLine
 10
108.5065118946
 20
99.7293331322
 30
0.0
 11
108.5065118946
 21
99.4533091446
 31
0.0
  0
SPLINE
  5
143
330
1F
100
AcDbEntity
  8
0
  6
HIDDEN
 62
     7
370
     0
100
AcDbSpline
210
0.0
220
0.0
230
1.0
 70
     8
 71
     3
 72
     8
 73
     4
 74
     0
 42
0.00000001
 43
0.00000001
 40
0.0
 40
0.0
 40
0.0
 40
0.0
 40
1.0
 40
1.0
 40
1.0
 40
1.0
 10
108.5065118727483
 20
99.45330896918868
 30
0.0
 10
108.4660067389624
 20
99.43777536224141
 30
0.0
 10
108.3955025147665
 20
99.42310185838448
 30
0.0
 10
108.3046889584306
 20
99.41128334113853
 30
0.0
  0
LINE
  5
144
330
1F
100
AcDbEntity
  8
0
  6
HIDDEN
 62
     7
370
     0
100
AcDbLine
 10
116.2327126927
 20
99.7293331322
 30
0.0
 11
116.2327126927
 21
99.4533091446
 31
0.0
  0
SPLINE
  5
145
330
1F
100
AcDbEntity
  8
0
  6
HIDDEN
 62
     7
370
     0
100
AcDbSpline
210
0.0
220
0.0
230
1.0
 70
     8
 71
     3
 72
     8
 73
     4
 74
     0
 42
0.00000001
 43
0.00000001
 40
0.0
 40
0.0
 40
0.0
 40
0.0
 40
1.0
 40
1.0
 40
1.0
 40
1.0
 10
116.2327127968553
 20
99.45330896918868
 30
0.0
 10
116.2732179306413
 20
99.43777536224141
 30
0.0
 10
116.3437221548371
 20
99.42310185838448
 30
0.0
 10
116.434535711173
 20
99.41128334113853
 30
0.0
  0
LINE
  5
146
330
1F
100
AcDbEntity
  8
0
  6
HIDDEN
 62
     7
370
     0
100
AcDbLine
 10
108.9740893199
 20
100.1373013144
 30
0.0
 11
108.9740893199
 21
99.6325407771
 31
0.0
  0
LINE
  5
147
330
1F
100
AcDbEntity
  8
0
  6
HIDDEN
 62
     7
370
     0
100
AcDbLine
 10
108.5065118946
 20
99.4533091446
 30
0.0
 11
108.9740893199
 21
99.6325407771
 31
0.0
  0
LINE
  5
148
330
1F
100
AcDbEntity
  8
0
  6
HIDDEN
 62
     7
370
     0
100
AcDbLine
 10
115.7651356748
 20
100.1373013144
 30
0.0
 11
115.7651356748
 21
99.6325407771
 31
0.0
  0
LINE
  5
149
330
1F
100
AcDbEntity
  8
0
  6
HIDDEN
 62
     7
370
     0
100
AcDbLine
 10
116.2327126927
 20
99.4533091446
 30
0.0
 11
115.7651356748
 21
99.6325407771
 31
0.0
  0
LINE
  5
14A
330
1F
100
AcDbEntity
  8
0
  6
HIDDEN
 62
     7
370
     0
100
AcDbLine
 10
106.1968129921
 20
99.7293331322
 30
0.0
 11
106.1968129921
 21
99.4533091446
 31
0.0
  0
SPLINE
  5
14B
330
1F
100
AcDbEntity
  8
0
  6
HIDDEN
 62
     7
370
     0
100
AcDbSpline
210
0.0
220
0.0
230
1.0
 70
     8
 71
     3
 72
     8
 73
     4
 74
     0
 42
0.00000001
 43
0.00000001
 40
0.0
 40
0.0
 40
0.0
 40
0.0
 40
1.0
 40
1.0
 40
1.0
 40
1.0
 10
106.1968130414701
 20
99.45330896918868
 30
0.0
 10
106.1563079849364
 20
99.4377753918649
 30
0.0
 10
106.1477811891872
 20
99.42310193340576
 30
0.0
 10
106.1728793575103
 20
99.41128334113853
 30
0.0
  0
LINE
  5
14C
330
1F
100
AcDbEntity
  8
0
  6
HIDDEN
 62
     7
370
     0
100
AcDbLine
 10
118.5424113042
 20
99.7293331322
 30
0.0
 11
118.5424113042
 21
99.4533091446
 31
0.0
  0
SPLINE
  5
14D
330
1F
100
AcDbEntity
  8
0
  6
HIDDEN
 62
     7
370
     0
100
AcDbSpline
210
0.0
220
0.0
230
1.0
 70
     8
 71
     3
 72
     8
 73
     4
 74
     0
 42
0.00000001
 43
0.00000001
 40
0.0
 40
0.0
 40
0.0
 40
0.0
 40
1.0
 40
1.0
 40
1.0
 40
1.0
 10
118.5424116281335
 20
99.45330896918868
 30
0.0
 10
118.5829166846673
 20
99.4377753918649
 30
0.0
 10
118.5914434804165
 20
99.42310193340576
 30
0.0
 10
118.5663453120934
 20
99.41128334113853
 30
0.0
  0
LINE
  5
14E
330
1F
100
AcDbEntity
  8
0
  6
HIDDEN
 62
     7
370
     0
100
AcDbLine
 10
111.9069093234
 20
100.2934813161
 30
0.0
 11
111.9069093234
 21
99.7011545708
 31
0.0
  0
SPLINE
  5
14F
330
1F
100
AcDbEntity
  8
0
  6
HIDDEN
 62
     7
370
     0
100
AcDbSpline
210
0.0
220
0.0
230
1.0
 70
     8
 71
     3
 72
    14
 73
    10
 74
     0
 42
0.00000001
 43
0.00000001
 40
0.0
 40
0.0
 40
0.0
 40
0.0
 40
0.25
 40
0.25
 40
0.5
 40
0.5
 40
0.75
 40
0.75
 40
1.0
 40
1.0
 40
1.0
 40
1.0
 10
111.9069092724392
 20
99.70115476612956
 30
0.0
 10
111.8316984841193
 20
99.70848630728722
 30
0.0
 10
111.7428739385078
 20
99.71240030147476
 30
0.0
 10
111.5612891336173
 20
99.71245611008524
 30
0.0
 10
111.4679305777688
 20
99.70849587898104
 30
0.0
 10
111.3069722775597
 20
99.69407281625419
 30
0.0
 10
111.2387756381701
 20
99.68367981371912
 30
0.0
 10
111.144668475591
 20
99.65944919432077
 30
0.0
 10
111.1196123347987
 20
99.64591159570408
 30
0.0
 10
111.1196123348017
 20
99.63254072190999
 30
0.0
  0
LINE
  5
150
330
1F
100
AcDbEntity
  8
0
  6
HIDDEN
 62
     7
370
     0
100
AcDbLine
 10
112.8323152057
 20
100.2934813161
 30
0.0
 11
112.8323152057
 21
99.7011545708
 31
0.0
  0
SPLINE
  5
151
330
1F
100
AcDbEntity
  8
0
  6
HIDDEN
 62
     7
370
     0
100
AcDbSpline
210
0.0
220
0.0
230
1.0
 70
     8
 71
     3
 72
    14
 73
    10
 74
     0
 42
0.00000001
 43
0.00000001
 40
0.0
 40
0.0
 40
0.0
 40
0.0
 40
0.25
 40
0.25
 40
0.5
 40
0.5
 40
0.75
 40
0.75
 40
1.0
 40
1.0
 40
1.0
 40
1.0
 10
112.8323153971642
 20
99.70115476612956
 30
0.0
 10
112.9075261854842
 20
99.70848630728722
 30
0.0
 10
112.9963507310957
 20
99.71240030147476
 30
0.0
 10
113.1779355359862
 20
99.71245611008524
 30
0.0
 10
113.2712940918346
 20
99.70849587898104
 30
0.0
 10
113.4322523920438
 20
99.69407281625419
 30
0.0
 10
113.5004490314334
 20
99.68367981371912
 30
0.0
 10
113.5945561940125
 20
99.65944919432077
 30
0.0
 10
113.6196123348048
 20
99.64591159570408
 30
0.0
 10
113.6196123348017
 20
99.63254072190999
 30
0.0
  0
SPLINE
  5
152
330
1F
100
AcDbEntity
  8
0
  6
HIDDEN
 62
     7
370
     0
100
AcDbSpline
210
0.0
220
0.0
230
1.0
 70
     8
 71
     3
 72
    10
 73
     6
 74
     0
 42
0.00000001
 43
0.00000001
 40
0.0
 40
0.0
 40
0.0
 40
0.0
 40
0.5
 40
0.5
 40
1.0
 40
1.0
 40
1.0
 40
1.0
 10
112.0823153971642
 20
99.68384993130076
 30
0.0
 10
112.1663364946532
 20
99.67546295939889
 30
0.0
 10
112.2669905446168
 20
99.67100406043716
 30
0.0
 10
112.4713265231246
 20
99.67097788877702
 30
0.0
 10
112.5728832617291
 20
99.67546246896197
 30
0.0
 10
112.6569092724392
 20
99.68384993130076
 30
0.0
  0
LINE
  5
153
330
1F
100
AcDbEntity
  8
0
  6
HIDDEN
 62
     7
370
     0
100
AcDbLine
 10
106.1968129921
 20
99.4533091446
 30
0.0
 11
106.6643904756
 21
99.6325407771
 31
0.0
  0
LINE
  5
154
330
1F
100
AcDbEntity
  8
0
  6
HIDDEN
 62
     7
370
     0
100
AcDbLine
 10
118.5424113042
 20
99.4533091446
 30
0.0
 11
118.0748342863
 21
99.6325407771
 31
0.0
  0
LINE
  5
155
330
1F
100
AcDbEntity
  8
0
  6
HIDDEN
 62
     7
370
     0
100
AcDbLine
 10
112.0823155484
 20
100.2540919592
 30
0.0
 11
112.0823155484
 21
99.6838501317
 31
0.0
  0
SPLINE
  5
156
330
1F
100
AcDbEntity
  8
0
  6
HIDDEN
 62
     7
370
     0
100
AcDbSpline
210
0.0
220
0.0
230
1.0
 70
     8
 71
     3
 72
     8
 73
     4
 74
     0
 42
0.00000001
 43
0.00000001
 40
0.0000002451817734
 40
0.0000002451817734
 40
0.0000002451817734
 40
0.0000002451817734
 40
0.0002152606545094
 40
0.0002152606545094
 40
0.0002152606545094
 40
0.0002152606545094
 10
112.0823153971642
 20
99.68384993130076
 30
0.0
 10
112.023851183191
 20
99.6896858193638
 30
0.0
 10
111.9653824683674
 20
99.6954548040347
 30
0.0
 10
111.9069092724392
 20
99.70115476612956
 30
0.0
  0
LINE
  5
157
330
1F
100
AcDbEntity
  8
0
  6
HIDDEN
 62
     7
370
     0
100
AcDbLine
 10
112.6569094463
 20
100.2540919592
 30
0.0
 11
112.6569094463
 21
99.6838501317
 31
0.0
  0
SPLINE
  5
158
330
1F
100
AcDbEntity
  8
0
  6
HIDDEN
 62
     7
370
     0
100
AcDbSpline
210
0.0
220
0.0
230
1.0
 70
     8
 71
     3
 72
     8
 73
     4
 74
     0
 42
0.00000001
 43
0.00000001
 40
0.0000002451817734
 40
0.0000002451817734
 40
0.0000002451817734
 40
0.0000002451817734
 40
0.0002152606545094
 40
0.0002152606545094
 40
0.0002152606545094
 40
0.0002152606545094
 10
112.6569092724392
 20
99.68384993130076
 30
0.0
 10
112.7153734864125
 20
99.6896858193638
 30
0.0
 10
112.7738422012361
 20
99.6954548040347
 30
0.0
 10
112.8323153971642
 20
99.70115476612956
 30
0.0
  0
LINE
  5
159
330
1F
100
AcDbEntity
  8
0
  6
HIDDEN
 62
     7
370
     0
100
AcDbLine
 10
116.3359013713
 20
100.2934813161
 30
0.0
 11
116.3359013713
 21
99.7011545708
 31
0.0
  0
SPLINE
  5
15A
330
1F
100
AcDbEntity
  8
0
  6
HIDDEN
 62
     7
370
     0
100
AcDbSpline
210
0.0
220
0.0
230
1.0
 70
     8
 71
     3
 72
    10
 73
     6
 74
     0
 42
0.00000001
 43
0.00000001
 40
0.0
 40
0.0
 40
0.0
 40
0.0
 40
0.5
 40
0.5
 40
1.0
 40
1.0
 40
1.0
 40
1.0
 10
116.3359014603964
 20
99.70115476612956
 30
0.0
 10
116.1988658272006
 20
99.71235619106191
 30
0.0
 10
116.0509223707668
 20
99.71531630711289
 30
0.0
 10
115.8246009334697
 20
99.70323751825534
 30
0.0
 10
115.747500074366
 20
99.68837816135219
 30
0.0
 10
115.7307075676131
 20
99.66952341345137
 30
0.0
  0
SPLINE
  5
15B
330
1F
100
AcDbEntity
  8
0
  6
HIDDEN
 62
     7
370
     0
100
AcDbSpline
210
0.0
220
0.0
230
1.0
 70
     8
 71
     3
 72
     9
 73
     5
 74
     0
 42
0.00000001
 43
0.00000001
 40
0.0
 40
0.0
 40
0.0
 40
0.0
 40
0.5521620022698782
 40
1.0
 40
1.0
 40
1.0
 40
1.0
 10
115.733598298473
 20
99.66094658124385
 30
0.0
 10
115.7328311141929
 20
99.65582688141495
 30
0.0
 10
115.7314416953686
 20
99.64655478408149
 30
0.0
 10
115.7547136218558
 20
99.63687551951827
 30
0.0
 10
115.7651356748172
 20
99.63254077705679
 30
0.0
  0
LINE
  5
15C
330
1F
100
AcDbEntity
  8
0
  6
HIDDEN
 62
     7
370
     0
100
AcDbLine
 10
108.403323216
 20
100.2934813161
 30
0.0
 11
108.403323216
 21
99.7011545708
 31
0.0
  0
SPLINE
  5
15D
330
1F
100
AcDbEntity
  8
0
  6
HIDDEN
 62
     7
370
     0
100
AcDbSpline
210
0.0
220
0.0
230
1.0
 70
     8
 71
     3
 72
    14
 73
    10
 74
     0
 42
0.00000001
 43
0.00000001
 40
0.0
 40
0.0
 40
0.0
 40
0.0
 40
0.25
 40
0.25
 40
0.5
 40
0.5
 40
0.75
 40
0.75
 40
1.0
 40
1.0
 40
1.0
 40
1.0
 10
108.4033232092072
 20
99.70115476612956
 30
0.0
 10
108.4930167752405
 20
99.70848640479468
 30
0.0
 10
108.5869482450353
 20
99.712400315072
 30
0.0
 10
108.7592321038486
 20
99.71245609678027
 30
0.0
 10
108.8378963558441
 20
99.70849589864002
 30
0.0
 10
108.9543104633434
 20
99.69407273895743
 30
0.0
 10
108.9927719406463
 20
99.68367967497826
 30
0.0
 10
109.020142294889
 20
99.6594493180426
 30
0.0
 10
109.0089887072352
 20
99.64591155570666
 30
0.0
 10
108.9740892736261
 20
99.63254072190999
 30
0.0
  0
SPLINE
  5
15E
330
1F
100
AcDbEntity
  8
0
  6
HIDDEN
 62
     7
370
     0
100
AcDbSpline
210
0.0
220
0.0
230
1.0
 70
     8
 71
     3
 72
    10
 73
     6
 74
     0
 42
0.00000001
 43
0.00000001
 40
0.0
 40
0.0
 40
0.0
 40
0.0
 40
0.5
 40
0.5
 40
1.0
 40
1.0
 40
1.0
 40
1.0
 10
107.663287703084
 20
99.68384993130076
 30
0.0
 10
107.7183394581724
 20
99.67546294594301
 30
0.0
 10
107.7992006603324
 20
99.67100406700781
 30
0.0
 10
107.9879109804882
 20
99.6709778822648
 30
0.0
 10
108.0939374954939
 20
99.67546240271565
 30
0.0
 10
108.1941432239569
 20
99.68384993130076
 30
0.0
  0
SPLINE
  5
15F
330
1F
100
AcDbEntity
  8
0
  6
HIDDEN
 62
     7
370
     0
100
AcDbSpline
210
0.0
220
0.0
230
1.0
 70
     8
 71
     3
 72
    10
 73
     6
 74
     0
 42
0.00000001
 43
0.00000001
 40
0.0
 40
0.0
 40
0.0
 40
0.0
 40
0.5
 40
0.5
 40
1.0
 40
1.0
 40
1.0
 40
1.0
 10
116.5450814456467
 20
99.68384993130076
 30
0.0
 10
116.6452817748735
 20
99.6754628546484
 30
0.0
 10
116.7504046744735
 20
99.67100405928845
 30
0.0
 10
116.9392556383307
 20
99.6709778899167
 30
0.0
 10
117.0208820392216
 20
99.67546246266548
 30
0.0
 10
117.0759369665196
 20
99.68384993130076
 30
0.0
  0
LINE
  5
160
330
1F
100
AcDbEntity
  8
0
  6
HIDDEN
 62
     7
370
     0
100
AcDbLine
 10
108.1941432181
 20
100.2540919592
 30
0.0
 11
108.1941432181
 21
99.6838501317
 31
0.0
  0
SPLINE
  5
161
330
1F
100
AcDbEntity
  8
0
  6
HIDDEN
 62
     7
370
     0
100
AcDbSpline
210
0.0
220
0.0
230
1.0
 70
     8
 71
     3
 72
     8
 73
     4
 74
     0
 42
0.00000001
 43
0.00000001
 40
0.0000002055951198
 40
0.0000002055951198
 40
0.0000002055951198
 40
0.0000002055951198
 40
0.0002152210678558
 40
0.0002152210678558
 40
0.0002152210678558
 40
0.0002152210678558
 10
108.1941432239569
 20
99.68384993130076
 30
0.0
 10
108.2638645260823
 20
99.6896858193638
 30
0.0
 10
108.3335911956817
 20
99.6954548040347
 30
0.0
 10
108.4033232092072
 20
99.70115476612956
 30
0.0
  0
LINE
  5
162
330
1F
100
AcDbEntity
  8
0
  6
HIDDEN
 62
     7
370
     0
100
AcDbLine
 10
116.5450810782
 20
100.2540919592
 30
0.0
 11
116.5450810782
 21
99.6838501317
 31
0.0
  0
SPLINE
  5
163
330
1F
100
AcDbEntity
  8
0
  6
HIDDEN
 62
     7
370
     0
100
AcDbSpline
210
0.0
220
0.0
230
1.0
 70
     8
 71
     3
 72
     8
 73
     4
 74
     0
 42
0.00000001
 43
0.00000001
 40
0.0000002055951198
 40
0.0000002055951198
 40
0.0000002055951198
 40
0.0000002055951198
 40
0.0002152210678558
 40
0.0002152210678558
 40
0.0002152210678558
 40
0.0002152210678558
 10
116.5450814456467
 20
99.68384993130076
 30
0.0
 10
116.4753601435213
 20
99.6896858193638
 30
0.0
 10
116.4056334739219
 20
99.6954548040347
 30
0.0
 10
116.3359014603964
 20
99.70115476612956
 30
0.0
  0
LINE
  5
164
330
1F
100
AcDbEntity
  8
0
  6
HIDDEN
 62
     7
370
     0
100
AcDbLine
 10
107.663287703
 20
100.2540919592
 30
0.0
 11
107.663287703
 21
99.6838501317
 31
0.0
  0
SPLINE
  5
165
330
1F
100
AcDbEntity
  8
0
  6
HIDDEN
 62
     7
370
     0
100
AcDbSpline
210
0.0
220
0.0
230
1.0
 70
     8
 71
     3
 72
     8
 73
     4
 74
     0
 42
0.00000001
 43
0.00000001
 40
0.0000002377397542
 40
0.0000002377397542
 40
0.0000002377397542
 40
0.0000002377397542
 40
0.0002152532124901
 40
0.0002152532124901
 40
0.0002152532124901
 40
0.0002152532124901
 10
107.663287703084
 20
99.68384993130076
 30
0.0
 10
107.6249812238609
 20
99.6896858193638
 30
0.0
 10
107.5866717956247
 20
99.6954548040347
 30
0.0
 10
107.5483594313132
 20
99.70115476612956
 30
0.0
  0
LINE
  5
166
330
1F
100
AcDbEntity
  8
0
  6
HIDDEN
 62
     7
370
     0
100
AcDbLine
 10
117.0759368083
 20
100.2540919592
 30
0.0
 11
117.0759368083
 21
99.6838501317
 31
0.0
  0
SPLINE
  5
167
330
1F
100
AcDbEntity
  8
0
  6
HIDDEN
 62
     7
370
     0
100
AcDbSpline
210
0.0
220
0.0
230
1.0
 70
     8
 71
     3
 72
     8
 73
     4
 74
     0
 42
0.00000001
 43
0.00000001
 40
0.0000002377397542
 40
0.0000002377397542
 40
0.0000002377397542
 40
0.0000002377397542
 40
0.0002152532124901
 40
0.0002152532124901
 40
0.0002152532124901
 40
0.0002152532124901
 10
117.0759369665196
 20
99.68384993130076
 30
0.0
 10
117.1142434457427
 20
99.6896858193638
 30
0.0
 10
117.1525528739789
 20
99.6954548040347
 30
0.0
 10
117.1908652382904
 20
99.70115476612956
 30
0.0
  0
LINE
  5
168
330
1F
100
AcDbEntity
  8
0
  6
HIDDEN
 62
     7
370
     0
100
AcDbLine
 10
107.54835943
 20
100.2934813161
 30
0.0
 11
107.54835943
 21
99.7011545708
 31
0.0
  0
LINE
  5
169
330
1F
100
AcDbEntity
  8
0
  6
HIDDEN
 62
     7
370
     0
100
AcDbLine
 10
106.6643904756
 20
100.1373013144
 30
0.0
 11
106.6643904756
 21
99.6325407771
 31
0.0
  0
SPLINE
  5
16A
330
1F
100
AcDbEntity
  8
0
  6
HIDDEN
 62
     7
370
     0
100
AcDbSpline
210
0.0
220
0.0
230
1.0
 70
     8
 71
     3
 72
    14
 73
    10
 74
     0
 42
0.00000001
 43
0.00000001
 40
0.0
 40
0.0
 40
0.0
 40
0.0
 40
0.25
 40
0.25
 40
0.5
 40
0.5
 40
0.75
 40
0.75
 40
1.0
 40
1.0
 40
1.0
 40
1.0
 10
107.5483594313132
 20
99.70115476612956
 30
0.0
 10
107.4990824995811
 20
99.70848599321741
 30
0.0
 10
107.4288880952149
 20
99.71240026100064
 30
0.0
 10
107.2656458179816
 20
99.71245614968954
 30
0.0
 10
107.1718050912308
 20
99.70849580342691
 30
0.0
 10
106.9908096510116
 20
99.69407303741177
 30
0.0
 10
106.9032604617206
 20
99.68368022472578
 30
0.0
 10
106.7567385248926
 20
99.65944872465536
 30
0.0
 10
106.699289915132
 20
99.64591157071774
 30
0.0
 10
106.6643904423478
 20
99.63254072190999
 30
0.0
  0
LINE
  5
16B
330
1F
100
AcDbEntity
  8
0
  6
HIDDEN
 62
     7
370
     0
100
AcDbLine
 10
117.190864808
 20
100.2934813161
 30
0.0
 11
117.190864808
 21
99.7011545708
 31
0.0
  0
LINE
  5
16C
330
1F
100
AcDbEntity
  8
0
  6
HIDDEN
 62
     7
370
     0
100
AcDbLine
 10
118.0748342863
 20
100.1373013144
 30
0.0
 11
118.0748342863
 21
99.6325407771
 31
0.0
  0
SPLINE
  5
16D
330
1F
100
AcDbEntity
  8
0
  6
HIDDEN
 62
     7
370
     0
100
AcDbSpline
210
0.0
220
0.0
230
1.0
 70
     8
 71
     3
 72
    14
 73
    10
 74
     0
 42
0.00000001
 43
0.00000001
 40
0.0
 40
0.0
 40
0.0
 40
0.0
 40
0.25
 40
0.25
 40
0.5
 40
0.5
 40
0.75
 40
0.75
 40
1.0
 40
1.0
 40
1.0
 40
1.0
 10
117.1908652382904
 20
99.70115476612956
 30
0.0
 10
117.2401421700225
 20
99.70848599321742
 30
0.0
 10
117.3103365743887
 20
99.71240026100064
 30
0.0
 10
117.473578851622
 20
99.71245614968954
 30
0.0
 10
117.5674195783728
 20
99.70849580342691
 30
0.0
 10
117.748415018592
 20
99.69407303741177
 30
0.0
 10
117.835964207883
 20
99.68368022472578
 30
0.0
 10
117.982486144711
 20
99.65944872465536
 30
0.0
 10
118.0399347544716
 20
99.64591157071774
 30
0.0
 10
118.0748342272558
 20
99.63254072190999
 30
0.0
  0
LINE
  5
16E
330
1F
100
AcDbEntity
  8
0
  6
HIDDEN
 62
     7
370
     0
100
AcDbLine
 10
102.448678515
 20
99.3039324542
 30
0.0
 11
102.448678515
 21
99.2664192465
 31
0.0
  0
SPLINE
  5
16F
330
1F
100
AcDbEntity
  8
0
  6
HIDDEN
 62
     7
370
     0
100
AcDbSpline
210
0.0
220
0.0
230
1.0
 70
     8
 71
     3
 72
     8
 73
     4
 74
     0
 42
0.00000001
 43
0.00000001
 40
0.0
 40
0.0
 40
0.0
 40
0.0
 40
1.0
 40
1.0
 40
1.0
 40
1.0
 10
102.4486787316971
 20
99.2664188305475
 30
0.0
 10
102.2930457431303
 20
99.24805986675966
 30
0.0
 10
102.1293161328829
 20
99.23702413321905
 30
0.0
 10
102.0182191122428
 20
99.23702413321905
 30
0.0
  0
LINE
  5
170
330
1F
100
AcDbEntity
  8
0
  6
HIDDEN
 62
     7
370
     0
100
AcDbLine
 10
122.2905460141
 20
99.3039324542
 30
0.0
 11
122.2905460141
 21
99.2664192465
 31
0.0
  0
SPLINE
  5
171
330
1F
100
AcDbEntity
  8
0
  6
HIDDEN
 62
     7
370
     0
100
AcDbSpline
210
0.0
220
0.0
230
1.0
 70
     8
 71
     3
 72
    10
 73
     6
 74
     0
 42
0.00000001
 43
0.00000001
 40
0.0
 40
0.0
 40
0.0
 40
0.0
 40
0.5
 40
0.5
 40
1.0
 40
1.0
 40
1.0
 40
1.0
 10
122.7210055573608
 20
99.23702413321905
 30
0.0
 10
122.6655732598337
 20
99.23702413321905
 30
0.0
 10
122.5966708497993
 20
99.23970674707853
 30
0.0
 10
122.4478497383427
 20
99.24984803688751
 30
0.0
 10
122.3682049042528
 20
99.25725793115154
 30
0.0
 10
122.2905459379065
 20
99.2664188305475
 30
0.0
  0
LINE
  5
172
330
1F
100
AcDbEntity
  8
0
  6
HIDDEN
 62
     7
370
     0
100
AcDbLine
 10
103.7048864505
 20
99.6336741966
 30
0.0
 11
103.7048864505
 21
99.4112832134
 31
0.0
  0
SPLINE
  5
173
330
1F
100
AcDbEntity
  8
0
  6
HIDDEN
 62
     7
370
     0
100
AcDbSpline
210
0.0
220
0.0
230
1.0
 70
     8
 71
     3
 72
     8
 73
     4
 74
     0
 42
0.00000001
 43
0.00000001
 40
0.0000002037783158
 40
0.0000002037783158
 40
0.0000002037783158
 40
0.0000002037783158
 40
0.0012797669433923
 40
0.0012797669433923
 40
0.0012797669433923
 40
0.0012797669433923
 10
102.4486787316971
 20
99.2664188305475
 30
0.0
 10
102.8672901563365
 20
99.31579956953534
 30
0.0
 10
103.28601993676
 20
99.36416859116467
 30
0.0
 10
103.7048862752173
 20
99.41128334113853
 30
0.0
  0
LINE
  5
174
330
1F
100
AcDbEntity
  8
0
  6
HIDDEN
 62
     7
370
     0
100
AcDbLine
 10
121.0343380785
 20
99.6336741966
 30
0.0
 11
121.0343380785
 21
99.4112832134
 31
0.0
  0
SPLINE
  5
175
330
1F
100
AcDbEntity
  8
0
  6
HIDDEN
 62
     7
370
     0
100
AcDbSpline
210
0.0
220
0.0
230
1.0
 70
     8
 71
     3
 72
     8
 73
     4
 74
     0
 42
0.00000001
 43
0.00000001
 40
0.0000002036541772
 40
0.0000002036541772
 40
0.0000002036541772
 40
0.0000002036541772
 40
0.0012797668192537
 40
0.0012797668192537
 40
0.0012797668192537
 40
0.0012797668192537
 10
121.0343383943863
 20
99.41128334113853
 30
0.0
 10
121.4532047328437
 20
99.36416859116467
 30
0.0
 10
121.8719345132671
 20
99.31579956953534
 30
0.0
 10
122.2905459379065
 20
99.2664188305475
 30
0.0
  0
LINE
  5
176
330
1F
100
AcDbEntity
  8
0
  6
HIDDEN
 62
     7
370
     0
100
AcDbLine
 10
101.8777223631
 20
99.3039324542
 30
0.0
 11
101.8777223631
 21
99.2664192465
 31
0.0
  0
SPLINE
  5
177
330
1F
100
AcDbEntity
  8
0
  6
HIDDEN
 62
     7
370
     0
100
AcDbSpline
210
0.0
220
0.0
230
1.0
 70
     8
 71
     3
 72
    10
 73
     6
 74
     0
 42
0.00000001
 43
0.00000001
 40
0.0
 40
0.0
 40
0.0
 40
0.0
 40
0.5
 40
0.5
 40
1.0
 40
1.0
 40
1.0
 40
1.0
 10
102.0182191122428
 20
99.23702413321905
 30
0.0
 10
101.9627868147156
 20
99.23702413321905
 30
0.0
 10
101.9205710118459
 20
99.23970674707853
 30
0.0
 10
101.8721123977549
 20
99.24984803688751
 30
0.0
 10
101.8656337008754
 20
99.25725793115154
 30
0.0
 10
101.8777224730188
 20
99.2664188305475
 30
0.0
  0
LINE
  5
178
330
1F
100
AcDbEntity
  8
0
  6
HIDDEN
 62
     7
370
     0
100
AcDbLine
 10
122.8615026316
 20
99.3039324542
 30
0.0
 11
122.8615026316
 21
99.2664192465
 31
0.0
  0
SPLINE
  5
179
330
1F
100
AcDbEntity
  8
0
  6
HIDDEN
 62
     7
370
     0
100
AcDbSpline
210
0.0
220
0.0
230
1.0
 70
     8
 71
     3
 72
     8
 73
     4
 74
     0
 42
0.00000001
 43
0.00000001
 40
0.0
 40
0.0
 40
0.0
 40
0.0
 40
1.0
 40
1.0
 40
1.0
 40
1.0
 10
122.8615021965848
 20
99.2664188305475
 30
0.0
 10
122.8857287840002
 20
99.24805986675966
 30
0.0
 10
122.832102578001
 20
99.23702413321905
 30
0.0
 10
122.7210055573608
 20
99.23702413321905
 30
0.0
  0
LINE
  5
17A
330
1F
100
AcDbEntity
  8
0
  6
HIDDEN
 62
     7
370
     0
100
AcDbLine
 10
103.981533493
 20
99.7293331322
 30
0.0
 11
103.981533493
 21
99.4533091446
 31
0.0
  0
SPLINE
  5
17B
330
1F
100
AcDbEntity
  8
0
  6
HIDDEN
 62
     7
370
     0
100
AcDbSpline
210
0.0
220
0.0
230
1.0
 70
     8
 71
     3
 72
     8
 73
     4
 74
     0
 42
0.00000001
 43
0.00000001
 40
0.0
 40
0.0
 40
0.0
 40
0.0
 40
1.0
 40
1.0
 40
1.0
 40
1.0
 10
103.9815334369495
 20
99.45330896918868
 30
0.0
 10
103.9066912034074
 20
99.43777567243883
 30
0.0
 10
103.8099581752139
 20
99.42310199506932
 30
0.0
 10
103.7048862752173
 20
99.41128334113853
 30
0.0
  0
LINE
  5
17C
330
1F
100
AcDbEntity
  8
0
  6
HIDDEN
 62
     7
370
     0
100
AcDbLine
 10
120.7576915017
 20
99.7293331322
 30
0.0
 11
120.7576915017
 21
99.4533091446
 31
0.0
  0
SPLINE
  5
17D
330
1F
100
AcDbEntity
  8
0
  6
HIDDEN
 62
     7
370
     0
100
AcDbSpline
210
0.0
220
0.0
230
1.0
 70
     8
 71
     3
 72
     8
 73
     4
 74
     0
 42
0.00000001
 43
0.00000001
 40
0.0
 40
0.0
 40
0.0
 40
0.0
 40
1.0
 40
1.0
 40
1.0
 40
1.0
 10
120.7576912326541
 20
99.45330896918868
 30
0.0
 10
120.8325334661962
 20
99.43777567243883
 30
0.0
 10
120.9292664943898
 20
99.42310199506932
 30
0.0
 10
121.0343383943863
 20
99.41128334113853
 30
0.0
  0
LINE
  5
17E
330
1F
100
AcDbEntity
  8
0
  6
HIDDEN
 62
     7
370
     0
100
AcDbLine
 10
104.8455037503
 20
100.1373013144
 30
0.0
 11
104.8455037503
 21
99.6325407771
 31
0.0
  0
LINE
  5
17F
330
1F
100
AcDbEntity
  8
0
  6
HIDDEN
 62
     7
370
     0
100
AcDbLine
 10
103.981533493
 20
99.4533091446
 30
0.0
 11
104.8455037503
 21
99.6325407771
 31
0.0
  0
LINE
  5
180
330
1F
100
AcDbEntity
  8
0
  6
HIDDEN
 62
     7
370
     0
100
AcDbLine
 10
119.8937212444
 20
100.1373013144
 30
0.0
 11
119.8937212444
 21
99.6325407771
 31
0.0
  0
LINE
  5
181
330
1F
100
AcDbEntity
  8
0
  6
HIDDEN
 62
     7
370
     0
100
AcDbLine
 10
120.7576915017
 20
99.4533091446
 30
0.0
 11
119.8937212444
 21
99.6325407771
 31
0.0
  0
LINE
  5
182
330
1F
100
AcDbEntity
  8
0
  6
HIDDEN
 62
     7
370
     0
100
AcDbLine
 10
103.8698299649
 20
111.2190569413
 30
0.0
 11
120.8693943313
 21
111.2190569413
 31
0.0
  0
LINE
  5
183
330
1F
100
AcDbEntity
  8
0
  6
HIDDEN
 62
     7
370
     0
100
AcDbLine
 10
122.3696125067
 20
116.3159115833
 30
0.0
 11
102.369612488
 21
116.3159115833
 31
0.0
  0
LINE
  5
184
330
1F
100
AcDbEntity
  8
0
  6
HIDDEN
 62
     7
370
     0
100
AcDbLine
 10
122.3696125067
 20
117.6159121689
 30
0.0
 11
102.369612488
 21
117.6159121689
 31
0.0
  0
SPLINE
  5
185
330
1F
100
AcDbEntity
  8
0
  6
HIDDEN
 62
     7
370
     0
100
AcDbSpline
210
0.0
220
0.0
230
1.0
 70
     8
 71
     3
 72
     8
 73
     4
 74
     0
 42
0.00000001
 43
0.00000001
 40
0.0000002036541772
 40
0.0000002036541772
 40
0.0000002036541772
 40
0.0000002036541772
 40
0.0012797668192537
 40
0.0012797668192537
 40
0.0012797668192537
 40
0.0012797668192537
 10
102.0732698447592
 20
99.41128334113853
 30
0.0
 10
102.0080670747087
 20
99.36416859116467
 30
0.0
 10
101.9428855619455
 20
99.31579956953534
 30
0.0
 10
101.8777224730188
 20
99.2664188305475
 30
0.0
  0
SPLINE
  5
186
330
1F
100
AcDbEntity
  8
0
  6
HIDDEN
 62
     7
370
     0
100
AcDbSpline
210
0.0
220
0.0
230
1.0
 70
     8
 71
     3
 72
     8
 73
     4
 74
     0
 42
0.00000001
 43
0.00000001
 40
0.0000002037783158
 40
0.0000002037783158
 40
0.0000002037783158
 40
0.0000002037783158
 40
0.0012797669433923
 40
0.0012797669433923
 40
0.0012797669433923
 40
0.0012797669433923
 10
122.8615021965848
 20
99.2664188305475
 30
0.0
 10
122.7963391076581
 20
99.31579956953534
 30
0.0
 10
122.7311575948949
 20
99.36416859116467
 30
0.0
 10
122.6659548248443
 20
99.41128334113853
 30
0.0
  0
LINE
  5
187
330
1F
100
AcDbEntity
  8
0
  6
HIDDEN
 62
     7
370
     0
100
AcDbLine
 10
120.161062046
 20
100.2934813161
 30
0.0
 11
120.161062046
 21
99.7011545708
 31
0.0
  0
SPLINE
  5
188
330
1F
100
AcDbEntity
  8
0
  6
HIDDEN
 62
     7
370
     0
100
AcDbSpline
210
0.0
220
0.0
230
1.0
 70
     8
 71
     3
 72
    14
 73
    10
 74
     0
 42
0.00000001
 43
0.00000001
 40
0.0
 40
0.0
 40
0.0
 40
0.0
 40
0.25
 40
0.25
 40
0.5
 40
0.5
 40
0.75
 40
0.75
 40
1.0
 40
1.0
 40
1.0
 40
1.0
 10
120.1610620834823
 20
99.70115476612956
 30
0.0
 10
120.0705416736403
 20
99.70848641279146
 30
0.0
 10
119.985803297836
 20
99.71240031922247
 30
0.0
 10
119.8490483613628
 20
99.71245609271986
 30
0.0
 10
119.7970541064644
 20
99.70849588868855
 30
0.0
 10
119.7429080705674
 20
99.69407270680786
 30
0.0
 10
119.7400370539139
 20
99.68367962978627
 30
0.0
 10
119.7835694879934
 20
99.6594492633659
 30
0.0
 10
119.8292358158157
 20
99.64591140868922
 30
0.0
 10
119.8937208515826
 20
99.63254072190999
 30
0.0
  0
LINE
  5
189
330
1F
100
AcDbEntity
  8
0
  6
HIDDEN
 62
     7
370
     0
100
AcDbLine
 10
104.578162483
 20
100.2934813161
 30
0.0
 11
104.578162483
 21
99.7011545708
 31
0.0
  0
SPLINE
  5
18A
330
1F
100
AcDbEntity
  8
0
  6
HIDDEN
 62
     7
370
     0
100
AcDbSpline
210
0.0
220
0.0
230
1.0
 70
     8
 71
     3
 72
    14
 73
    10
 74
     0
 42
0.00000001
 43
0.00000001
 40
0.0
 40
0.0
 40
0.0
 40
0.0
 40
0.25
 40
0.25
 40
0.5
 40
0.5
 40
0.75
 40
0.75
 40
1.0
 40
1.0
 40
1.0
 40
1.0
 10
104.5781625861213
 20
99.70115476612956
 30
0.0
 10
104.6686829959633
 20
99.70848641279146
 30
0.0
 10
104.7534213717676
 20
99.71240031922247
 30
0.0
 10
104.8901763082408
 20
99.71245609271986
 30
0.0
 10
104.9421705631392
 20
99.70849588868855
 30
0.0
 10
104.9963165990362
 20
99.69407270680786
 30
0.0
 10
104.9991876156897
 20
99.68367962978627
 30
0.0
 10
104.9556551816102
 20
99.6594492633659
 30
0.0
 10
104.9099888537879
 20
99.64591140868922
 30
0.0
 10
104.845503818021
 20
99.63254072190999
 30
0.0
  0
LINE
  5
18B
330
1F
100
AcDbEntity
  8
0
  6
HIDDEN
 62
     7
370
     0
100
AcDbLine
 10
102.0732698358
 20
99.6336741966
 30
0.0
 11
102.0732698358
 21
99.4112832134
 31
0.0
  0
SPLINE
  5
18C
330
1F
100
AcDbEntity
  8
0
  6
HIDDEN
 62
     7
370
     0
100
AcDbSpline
210
0.0
220
0.0
230
1.0
 70
     8
 71
     3
 72
     8
 73
     4
 74
     0
 42
0.00000001
 43
0.00000001
 40
0.0
 40
0.0
 40
0.0
 40
0.0
 40
1.0
 40
1.0
 40
1.0
 40
1.0
 10
102.2137664839831
 20
99.45330896918868
 30
0.0
 10
102.1389242472327
 20
99.4377756717719
 30
0.0
 10
102.0896258472131
 20
99.42310199494263
 30
0.0
 10
102.0732698447592
 20
99.41128334113853
 30
0.0
  0
LINE
  5
18D
330
1F
100
AcDbEntity
  8
0
  6
HIDDEN
 62
     7
370
     0
100
AcDbLine
 10
122.6659546933
 20
99.6336741966
 30
0.0
 11
122.6659546933
 21
99.4112832134
 31
0.0
  0
SPLINE
  5
18E
330
1F
100
AcDbEntity
  8
0
  6
HIDDEN
 62
     7
370
     0
100
AcDbSpline
210
0.0
220
0.0
230
1.0
 70
     8
 71
     3
 72
     8
 73
     4
 74
     0
 42
0.00000001
 43
0.00000001
 40
0.0
 40
0.0
 40
0.0
 40
0.0
 40
1.0
 40
1.0
 40
1.0
 40
1.0
 10
122.5254581856205
 20
99.45330896918868
 30
0.0
 10
122.6003004223709
 20
99.4377756717719
 30
0.0
 10
122.6495988223905
 20
99.42310199494263
 30
0.0
 10
122.6659548248443
 20
99.41128334113853
 30
0.0
  0
LINE
  5
18F
330
1F
100
AcDbEntity
  8
0
  6
HIDDEN
 62
     7
370
     0
100
AcDbLine
 10
112.3696122645
 20
108.2011823903
 30
0.0
 11
119.6196125216
 21
108.2011823903
 31
0.0
  0
LINE
  5
190
330
1F
100
AcDbEntity
  8
0
  6
HIDDEN
 62
     7
370
     0
100
AcDbLine
 10
105.1196122403
 20
108.2011823903
 30
0.0
 11
112.3696122645
 21
108.2011823903
 31
0.0
  0
SPLINE
  5
191
330
1F
100
AcDbEntity
  8
0
  6
HIDDEN
 62
     7
370
     0
100
AcDbSpline
210
0.0
220
0.0
230
1.0
 70
     8
 71
     3
 72
     8
 73
     4
 74
     0
 42
0.00000001
 43
0.00000001
 40
0.0000002037173671
 40
0.0000002037173671
 40
0.0000002037173671
 40
0.0000002037173671
 40
0.000215219190103
 40
0.000215219190103
 40
0.000215219190103
 40
0.000215219190103
 10
104.3670544968788
 20
99.68384993130076
 30
0.0
 10
104.4374184509329
 20
99.6896858193638
 30
0.0
 10
104.5077878219354
 20
99.6954548040347
 30
0.0
 10
104.5781625861213
 20
99.70115476612956
 30
0.0
  0
SPLINE
  5
192
330
1F
100
AcDbEntity
  8
0
  6
HIDDEN
 62
     7
370
     0
100
AcDbSpline
210
0.0
220
0.0
230
1.0
 70
     8
 71
     3
 72
     8
 73
     4
 74
     0
 42
0.00000001
 43
0.00000001
 40
0.0000002037173671
 40
0.0000002037173671
 40
0.0000002037173671
 40
0.0000002037173671
 40
0.000215219190103
 40
0.000215219190103
 40
0.000215219190103
 40
0.000215219190103
 10
120.3721701727248
 20
99.68384993130076
 30
0.0
 10
120.3018062186707
 20
99.6896858193638
 30
0.0
 10
120.2314368476682
 20
99.6954548040347
 30
0.0
 10
120.1610620834823
 20
99.70115476612956
 30
0.0
  0
LINE
  5
193
330
1F
100
AcDbEntity
  8
0
  6
HIDDEN
 62
     7
370
     0
100
AcDbLine
 10
104.3670544728
 20
100.2540919592
 30
0.0
 11
104.3670544728
 21
99.6838501317
 31
0.0
  0
SPLINE
  5
194
330
1F
100
AcDbEntity
  8
0
  6
HIDDEN
 62
     7
370
     0
100
AcDbSpline
210
0.0
220
0.0
230
1.0
 70
     8
 71
     3
 72
    10
 73
     6
 74
     0
 42
0.00000001
 43
0.00000001
 40
0.0
 40
0.0
 40
0.0
 40
0.0
 40
0.5
 40
0.5
 40
1.0
 40
1.0
 40
1.0
 40
1.0
 10
103.9607552712436
 20
99.68384993130076
 30
0.0
 10
103.9784566097897
 20
99.67546285529049
 30
0.0
 10
104.0272151048516
 20
99.67100406520603
 30
0.0
 10
104.1715697053341
 20
99.6709778840516
 30
0.0
 10
104.2659251567783
 20
99.67546240509313
 30
0.0
 10
104.3670544968788
 20
99.68384993130076
 30
0.0
  0
LINE
  5
195
330
1F
100
AcDbEntity
  8
0
  6
HIDDEN
 62
     7
370
     0
100
AcDbLine
 10
120.372170522
 20
100.2540919592
 30
0.0
 11
120.372170522
 21
99.6838501317
 31
0.0
  0
SPLINE
  5
196
330
1F
100
AcDbEntity
  8
0
  6
HIDDEN
 62
     7
370
     0
100
AcDbSpline
210
0.0
220
0.0
230
1.0
 70
     8
 71
     3
 72
    10
 73
     6
 74
     0
 42
0.00000001
 43
0.00000001
 40
0.0
 40
0.0
 40
0.0
 40
0.0
 40
0.5
 40
0.5
 40
1.0
 40
1.0
 40
1.0
 40
1.0
 10
120.3721701727248
 20
99.68384993130076
 30
0.0
 10
120.4732940847455
 20
99.67546285529049
 30
0.0
 10
120.5668817684228
 20
99.67100406520603
 30
0.0
 10
120.7114987381453
 20
99.6709778840516
 30
0.0
 10
120.7607671096501
 20
99.67546240509313
 30
0.0
 10
120.77846939836
 20
99.68384993130076
 30
0.0
  0
LINE
  5
197
330
1F
100
AcDbEntity
  8
0
  6
HIDDEN
 62
     7
370
     0
100
AcDbLine
 10
102.2137663654
 20
99.7293331322
 30
0.0
 11
102.2137663654
 21
99.4533091446
 31
0.0
  0
LINE
  5
198
330
1F
100
AcDbEntity
  8
0
  6
HIDDEN
 62
     7
370
     0
100
AcDbLine
 10
102.2137663654
 20
99.4533091446
 30
0.0
 11
103.0777370884
 21
99.6325407771
 31
0.0
  0
LINE
  5
199
330
1F
100
AcDbEntity
  8
0
  6
HIDDEN
 62
     7
370
     0
100
AcDbLine
 10
122.5254581637
 20
99.7293331322
 30
0.0
 11
122.5254581637
 21
99.4533091446
 31
0.0
  0
LINE
  5
19A
330
1F
100
AcDbEntity
  8
0
  6
HIDDEN
 62
     7
370
     0
100
AcDbLine
 10
122.5254581637
 20
99.4533091446
 30
0.0
 11
121.6614879063
 21
99.6325407771
 31
0.0
  0
LINE
  5
19B
330
1F
100
AcDbEntity
  8
0
  6
HIDDEN
 62
     7
370
     0
100
AcDbLine
 10
103.9607552207
 20
100.2540919592
 30
0.0
 11
103.9607552207
 21
99.6838501317
 31
0.0
  0
SPLINE
  5
19C
330
1F
100
AcDbEntity
  8
0
  6
HIDDEN
 62
     7
370
     0
100
AcDbSpline
210
0.0
220
0.0
230
1.0
 70
     8
 71
     3
 72
     8
 73
     4
 74
     0
 42
0.00000001
 43
0.00000001
 40
0.0000002037173671
 40
0.0000002037173671
 40
0.0000002037173671
 40
0.0000002037173671
 40
0.000215219190103
 40
0.000215219190103
 40
0.000215219190103
 40
0.000215219190103
 10
103.9607552712436
 20
99.68384993130076
 30
0.0
 10
103.9484383409832
 20
99.6896858193638
 30
0.0
 10
103.9361204625076
 20
99.6954548040347
 30
0.0
 10
103.9238016399767
 20
99.70115476612956
 30
0.0
  0
LINE
  5
19D
330
1F
100
AcDbEntity
  8
0
  6
HIDDEN
 62
     7
370
     0
100
AcDbLine
 10
120.7784693084
 20
100.2540919592
 30
0.0
 11
120.7784693084
 21
99.6838501317
 31
0.0
  0
SPLINE
  5
19E
330
1F
100
AcDbEntity
  8
0
  6
HIDDEN
 62
     7
370
     0
100
AcDbSpline
210
0.0
220
0.0
230
1.0
 70
     8
 71
     3
 72
     8
 73
     4
 74
     0
 42
0.00000001
 43
0.00000001
 40
0.0000002037173671
 40
0.0000002037173671
 40
0.0000002037173671
 40
0.0000002037173671
 40
0.000215219190103
 40
0.000215219190103
 40
0.000215219190103
 40
0.000215219190103
 10
120.77846939836
 20
99.68384993130076
 30
0.0
 10
120.7907863286203
 20
99.6896858193638
 30
0.0
 10
120.803104207096
 20
99.6954548040347
 30
0.0
 10
120.8154230296269
 20
99.70115476612956
 30
0.0
  0
LINE
  5
19F
330
1F
100
AcDbEntity
  8
0
  6
HIDDEN
 62
     7
370
     0
100
AcDbLine
 10
103.9238017379
 20
100.2934813161
 30
0.0
 11
103.9238017379
 21
99.7011545708
 31
0.0
  0
LINE
  5
1A0
330
1F
100
AcDbEntity
  8
0
  6
HIDDEN
 62
     7
370
     0
100
AcDbLine
 10
103.0777370884
 20
100.1373013144
 30
0.0
 11
103.0777370884
 21
99.6325407771
 31
0.0
  0
SPLINE
  5
1A1
330
1F
100
AcDbEntity
  8
0
  6
HIDDEN
 62
     7
370
     0
100
AcDbSpline
210
0.0
220
0.0
230
1.0
 70
     8
 71
     3
 72
    14
 73
    10
 74
     0
 42
0.00000001
 43
0.00000001
 40
0.0
 40
0.0
 40
0.0
 40
0.0
 40
0.25
 40
0.25
 40
0.5
 40
0.5
 40
0.75
 40
0.75
 40
1.0
 40
1.0
 40
1.0
 40
1.0
 10
103.9238016399767
 20
99.70115476612956
 30
0.0
 10
103.9079564023115
 20
99.70848641279146
 30
0.0
 10
103.867078113109
 20
99.71240031922247
 30
0.0
 10
103.7470342330969
 20
99.71245609271986
 30
0.0
 10
103.6669998394859
 20
99.70849588868855
 30
0.0
 10
103.4935151979687
 20
99.69407270680786
 30
0.0
 10
103.3999418895703
 20
99.68367962978627
 30
0.0
 10
103.2233234646577
 20
99.6594492633659
 30
0.0
 10
103.1422219008172
 20
99.64591140868922
 30
0.0
 10
103.0777368650546
 20
99.63254072190999
 30
0.0
  0
LINE
  5
1A2
330
1F
100
AcDbEntity
  8
0
  6
HIDDEN
 62
     7
370
     0
100
AcDbLine
 10
120.8154232568
 20
100.2934813161
 30
0.0
 11
120.8154232568
 21
99.7011545708
 31
0.0
  0
LINE
  5
1A3
330
1F
100
AcDbEntity
  8
0
  6
HIDDEN
 62
     7
370
     0
100
AcDbLine
 10
121.6614879063
 20
100.1373013144
 30
0.0
 11
121.6614879063
 21
99.6325407771
 31
0.0
  0
SPLINE
  5
1A4
330
1F
100
AcDbEntity
  8
0
  6
HIDDEN
 62
     7
370
     0
100
AcDbSpline
210
0.0
220
0.0
230
1.0
 70
     8
 71
     3
 72
    14
 73
    10
 74
     0
 42
0.00000001
 43
0.00000001
 40
0.0
 40
0.0
 40
0.0
 40
0.0
 40
0.25
 40
0.25
 40
0.5
 40
0.5
 40
0.75
 40
0.75
 40
1.0
 40
1.0
 40
1.0
 40
1.0
 10
120.8154230296269
 20
99.70115476612956
 30
0.0
 10
120.831268267292
 20
99.70848641279146
 30
0.0
 10
120.8721465564945
 20
99.71240031922247
 30
0.0
 10
120.9921904365067
 20
99.71245609271986
 30
0.0
 10
121.0722248301177
 20
99.70849588868855
 30
0.0
 10
121.2457094716349
 20
99.69407270680786
 30
0.0
 10
121.3392827800333
 20
99.68367962978627
 30
0.0
 10
121.5159012049459
 20
99.6594492633659
 30
0.0
 10
121.5970027687864
 20
99.64591140868922
 30
0.0
 10
121.6614878045489
 20
99.63254072190999
 30
0.0
  0
LINE
  5
1A5
330
1F
100
AcDbEntity
  8
0
  6
HIDDEN
 62
     7
370
     0
100
AcDbLine
 10
113.7778162352
 20
107.7011823665
 30
0.0
 11
113.7778162352
 21
108.2011823903
 31
0.0
  0
LINE
  5
1A6
330
1F
100
AcDbEntity
  8
0
  6
HIDDEN
 62
     7
370
     0
100
AcDbLine
 10
113.0136953994
 20
107.7011823665
 30
0.0
 11
113.0136953994
 21
108.2011823903
 31
0.0
  0
LINE
  5
1A7
330
1F
100
AcDbEntity
  8
0
  6
HIDDEN
 62
     7
370
     0
100
AcDbLine
 10
113.7778162352
 20
107.7011823665
 30
0.0
 11
112.7457557573
 21
107.7011823665
 31
0.0
  0
LINE
  5
1A8
330
1F
100
AcDbEntity
  8
0
  6
HIDDEN
 62
     7
370
     0
100
AcDbLine
 10
111.7255291297
 20
107.7011823665
 30
0.0
 11
111.7255291297
 21
108.2011823903
 31
0.0
  0
LINE
  5
1A9
330
1F
100
AcDbEntity
  8
0
  6
HIDDEN
 62
     7
370
     0
100
AcDbLine
 10
110.9614082939
 20
107.7011823665
 30
0.0
 11
110.9614082939
 21
108.2011823903
 31
0.0
  0
LINE
  5
1AA
330
1F
100
AcDbEntity
  8
0
  6
HIDDEN
 62
     7
370
     0
100
AcDbLine
 10
111.9934687718
 20
107.7011823665
 30
0.0
 11
110.9614082939
 21
107.7011823665
 31
0.0
  0
LINE
  5
1AB
330
1F
100
AcDbEntity
  8
0
  6
HIDDEN
 62
     7
370
     0
100
AcDbLine
 10
114.8295383296
 20
107.7011823665
 30
0.0
 11
114.8295383296
 21
108.2011823903
 31
0.0
  0
LINE
  5
1AC
330
1F
100
AcDbEntity
  8
0
  6
HIDDEN
 62
     7
370
     0
100
AcDbLine
 10
114.8295383296
 20
107.7011823665
 30
0.0
 11
113.7778162352
 21
107.7011823665
 31
0.0
  0
LINE
  5
1AD
330
1F
100
AcDbEntity
  8
0
  6
HIDDEN
 62
     7
370
     0
100
AcDbLine
 10
109.9096861995
 20
107.7011823665
 30
0.0
 11
109.9096861995
 21
108.2011823903
 31
0.0
  0
LINE
  5
1AE
330
1F
100
AcDbEntity
  8
0
  6
HIDDEN
 62
     7
370
     0
100
AcDbLine
 10
110.9614082939
 20
107.7011823665
 30
0.0
 11
109.9096861995
 21
107.7011823665
 31
0.0
  0
LINE
  5
1AF
330
1F
100
AcDbEntity
  8
0
  6
HIDDEN
 62
     7
370
     0
100
AcDbLine
 10
100.4242095492
 20
99.6336741966
 30
0.0
 11
100.4242095492
 21
99.4112832134
 31
0.0
  0
LINE
  5
1B0
330
1F
100
AcDbEntity
  8
0
  6
HIDDEN
 62
     7
370
     0
100
AcDbLine
 10
100.7335641748
 20
99.7293331322
 30
0.0
 11
100.7335641748
 21
99.4533091446
 31
0.0
  0
SPLINE
  5
1B1
330
1F
100
AcDbEntity
  8
0
  6
HIDDEN
 62
     7
370
     0
100
AcDbSpline
210
0.0
220
0.0
230
1.0
 70
     8
 71
     3
 72
     8
 73
     4
 74
     0
 42
0.00000001
 43
0.00000001
 40
0.0
 40
0.0
 40
0.0
 40
0.0
 40
1.0
 40
1.0
 40
1.0
 40
1.0
 10
100.7335639752241
 20
99.45330896918868
 30
0.0
 10
100.6357761183864
 20
99.4377753918649
 30
0.0
 10
100.5275419985758
 20
99.42310193340576
 30
0.0
 10
100.4242095886385
 20
99.41128334113853
 30
0.0
  0
LINE
  5
1B2
330
1F
100
AcDbEntity
  8
0
  6
HIDDEN
 62
     7
370
     0
100
AcDbLine
 10
124.3150159112
 20
99.6336741966
 30
0.0
 11
124.3150159112
 21
99.4112832134
 31
0.0
  0
SPLINE
  5
1B3
330
1F
100
AcDbEntity
  8
0
  6
HIDDEN
 62
     7
370
     0
100
AcDbSpline
210
0.0
220
0.0
230
1.0
 70
     8
 71
     3
 72
     8
 73
     4
 74
     0
 42
0.00000001
 43
0.00000001
 40
0.0
 40
0.0
 40
0.0
 40
0.0
 40
1.0
 40
1.0
 40
1.0
 40
1.0
 10
124.0056606943794
 20
99.45330896918868
 30
0.0
 10
124.1034485512172
 20
99.4377753918649
 30
0.0
 10
124.2116826710277
 20
99.42310193340576
 30
0.0
 10
124.3150150809651
 20
99.41128334113853
 30
0.0
  0
LINE
  5
1B4
330
1F
100
AcDbEntity
  8
0
  6
HIDDEN
 62
     7
370
     0
100
AcDbLine
 10
124.0056603542
 20
99.7293331322
 30
0.0
 11
124.0056603542
 21
99.4533091446
 31
0.0
  0
LINE
  5
1B5
330
1F
100
AcDbEntity
  8
0
  6
HIDDEN
 62
     7
370
     0
100
AcDbLine
 10
99.1887924588
 20
99.3039324542
 30
0.0
 11
99.1887924588
 21
99.2664192465
 31
0.0
  0
SPLINE
  5
1B6
330
1F
100
AcDbEntity
  8
0
  6
HIDDEN
 62
     7
370
     0
100
AcDbSpline
210
0.0
220
0.0
230
1.0
 70
     8
 71
     3
 72
     8
 73
     4
 74
     0
 42
0.00000001
 43
0.00000001
 40
0.0000002072076238
 40
0.0000002072076238
 40
0.0000002072076238
 40
0.0000002072076238
 40
0.0012797703727003
 40
0.0012797703727003
 40
0.0012797703727003
 40
0.0012797703727003
 10
99.18879241118626
 20
99.2664188305475
 30
0.0
 10
99.60047577301992
 20
99.31579956953534
 30
0.0
 10
100.0122755318371
 20
99.36416859116467
 30
0.0
 10
100.4242095886385
 20
99.41128334113853
 30
0.0
  0
LINE
  5
1B7
330
1F
100
AcDbEntity
  8
0
  6
HIDDEN
 62
     7
370
     0
100
AcDbLine
 10
125.5504320702
 20
99.3039324542
 30
0.0
 11
125.5504320702
 21
99.2664192465
 31
0.0
  0
SPLINE
  5
1B8
330
1F
100
AcDbEntity
  8
0
  6
HIDDEN
 62
     7
370
     0
100
AcDbSpline
210
0.0
220
0.0
230
1.0
 70
     8
 71
     3
 72
     8
 73
     4
 74
     0
 42
0.00000001
 43
0.00000001
 40
0.0000002070813958
 40
0.0000002070813958
 40
0.0000002070813958
 40
0.0000002070813958
 40
0.0012797702464722
 40
0.0012797702464722
 40
0.0012797702464722
 40
0.0012797702464722
 10
124.3150150809651
 20
99.41128334113853
 30
0.0
 10
124.7269491377665
 20
99.36416859116467
 30
0.0
 10
125.1387488965836
 20
99.31579956953534
 30
0.0
 10
125.5504322584173
 20
99.2664188305475
 30
0.0
  0
LINE
  5
1B9
330
1F
100
AcDbEntity
  8
0
  6
HIDDEN
 62
     7
370
     0
100
AcDbLine
 10
101.8623955875
 20
100.1373013144
 30
0.0
 11
101.8623955875
 21
99.6325407771
 31
0.0
  0
LINE
  5
1BA
330
1F
100
AcDbEntity
  8
0
  6
HIDDEN
 62
     7
370
     0
100
AcDbLine
 10
100.7335641748
 20
99.4533091446
 30
0.0
 11
101.8623955875
 21
99.6325407771
 31
0.0
  0
LINE
  5
1BB
330
1F
100
AcDbEntity
  8
0
  6
HIDDEN
 62
     7
370
     0
100
AcDbLine
 10
122.8768294073
 20
100.1373013144
 30
0.0
 11
122.8768294073
 21
99.6325407771
 31
0.0
  0
LINE
  5
1BC
330
1F
100
AcDbEntity
  8
0
  6
HIDDEN
 62
     7
370
     0
100
AcDbLine
 10
124.0056603542
 20
99.4533091446
 30
0.0
 11
122.8768294073
 21
99.6325407771
 31
0.0
  0
SPLINE
  5
1BD
330
1F
100
AcDbEntity
  8
0
  6
HIDDEN
 62
     7
370
     0
100
AcDbSpline
210
0.0
220
0.0
230
1.0
 70
     8
 71
     3
 72
    10
 73
     6
 74
     0
 42
0.00000001
 43
0.00000001
 40
0.0
 40
0.0
 40
0.0
 40
0.0
 40
0.5
 40
0.5
 40
1.0
 40
1.0
 40
1.0
 40
1.0
 10
125.8943593542698
 20
99.23702413321905
 30
0.0
 10
125.8643594186245
 20
99.23702413321905
 30
0.0
 10
125.8168569803854
 20
99.23970678007463
 30
0.0
 10
125.6979092319639
 20
99.249848009308
 30
0.0
 10
125.6268059181199
 20
99.25725793626586
 30
0.0
 10
125.5504322584173
 20
99.2664188305475
 30
0.0
  0
SPLINE
  5
1BE
330
1F
100
AcDbEntity
  8
0
  6
HIDDEN
 62
     7
370
     0
100
AcDbSpline
210
0.0
220
0.0
230
1.0
 70
     8
 71
     3
 72
     8
 73
     4
 74
     0
 42
0.00000001
 43
0.00000001
 40
0.0
 40
0.0
 40
0.0
 40
0.0
 40
1.0
 40
1.0
 40
1.0
 40
1.0
 10
99.18879241118626
 20
99.2664188305475
 30
0.0
 10
99.03573532956993
 20
99.24805988651885
 30
0.0
 10
98.90499063394428
 20
99.23702413321905
 30
0.0
 10
98.84486531533376
 20
99.23702413321905
 30
0.0
  0
LINE
  5
1BF
330
1F
100
AcDbEntity
  8
0
  6
HIDDEN
 62
     7
370
     0
100
AcDbLine
 10
101.9391794084
 20
100.2934813161
 30
0.0
 11
101.9391794084
 21
99.7011545708
 31
0.0
  0
SPLINE
  5
1C0
330
1F
100
AcDbEntity
  8
0
  6
HIDDEN
 62
     7
370
     0
100
AcDbSpline
210
0.0
220
0.0
230
1.0
 70
     8
 71
     3
 72
    14
 73
    10
 74
     0
 42
0.00000001
 43
0.00000001
 40
0.0
 40
0.0
 40
0.0
 40
0.0
 40
0.25
 40
0.25
 40
0.5
 40
0.5
 40
0.75
 40
0.75
 40
1.0
 40
1.0
 40
1.0
 40
1.0
 10
101.9391795576041
 20
99.70115476612956
 30
0.0
 10
102.0167413626496
 20
99.70848599321742
 30
0.0
 10
102.0793885154844
 20
99.71240026100064
 30
0.0
 10
102.1597967811344
 20
99.71245614968954
 30
0.0
 10
102.1772049473328
 20
99.70849580342691
 30
0.0
 10
102.1608406128796
 20
99.69407303741177
 30
0.0
 10
102.1276861448495
 20
99.68368022472578
 30
0.0
 10
102.0198734708857
 20
99.65944872465536
 30
0.0
 10
101.9466504584054
 20
99.64591157071774
 30
0.0
 10
101.8623956778823
 20
99.63254072190999
 30
0.0
  0
LINE
  5
1C1
330
1F
100
AcDbEntity
  8
0
  6
HIDDEN
 62
     7
370
     0
100
AcDbLine
 10
122.8000446549
 20
100.2934813161
 30
0.0
 11
122.8000446549
 21
99.7011545708
 31
0.0
  0
SPLINE
  5
1C2
330
1F
100
AcDbEntity
  8
0
  6
HIDDEN
 62
     7
370
     0
100
AcDbSpline
210
0.0
220
0.0
230
1.0
 70
     8
 71
     3
 72
    14
 73
    10
 74
     0
 42
0.00000001
 43
0.00000001
 40
0.0
 40
0.0
 40
0.0
 40
0.0
 40
0.25
 40
0.25
 40
0.5
 40
0.5
 40
0.75
 40
0.75
 40
1.0
 40
1.0
 40
1.0
 40
1.0
 10
122.8000451119994
 20
99.70115476612956
 30
0.0
 10
122.7224833069539
 20
99.70848599321741
 30
0.0
 10
122.6598361541191
 20
99.71240026100064
 30
0.0
 10
122.5794278884692
 20
99.71245614968954
 30
0.0
 10
122.5620197222708
 20
99.70849580342691
 30
0.0
 10
122.578384056724
 20
99.69407303741177
 30
0.0
 10
122.611538524754
 20
99.68368022472578
 30
0.0
 10
122.7193511987178
 20
99.65944872465536
 30
0.0
 10
122.7925742111981
 20
99.64591157071774
 30
0.0
 10
122.8768289917212
 20
99.63254072190999
 30
0.0
  0
SPLINE
  5
1C3
330
1F
100
AcDbEntity
  8
0
  6
HIDDEN
 62
     7
370
     0
100
AcDbSpline
210
0.0
220
0.0
230
1.0
 70
     8
 71
     3
 72
    10
 73
     6
 74
     0
 42
0.00000001
 43
0.00000001
 40
0.0
 40
0.0
 40
0.0
 40
0.0
 40
0.5
 40
0.5
 40
1.0
 40
1.0
 40
1.0
 40
1.0
 10
98.84486531533376
 20
99.23702413321905
 30
0.0
 10
98.81486553090468
 20
99.23702413321905
 30
0.0
 10
98.80223105363272
 20
99.23970675451743
 30
0.0
 10
98.8144125575501
 20
99.24984805100605
 30
0.0
 10
98.83890597717571
 20
99.257257983914
 30
0.0
 10
98.8797931106355
 20
99.2664188305475
 30
0.0
  0
SPLINE
  5
1C4
330
1F
100
AcDbEntity
  8
0
  6
HIDDEN
 62
     7
370
     0
100
AcDbSpline
210
0.0
220
0.0
230
1.0
 70
     8
 71
     3
 72
     8
 73
     4
 74
     0
 42
0.00000001
 43
0.00000001
 40
0.0
 40
0.0
 40
0.0
 40
0.0
 40
1.0
 40
1.0
 40
1.0
 40
1.0
 10
125.859431558968
 20
99.2664188305475
 30
0.0
 10
125.9413713461216
 20
99.24806005213053
 30
0.0
 10
125.9544850443357
 20
99.23702413321905
 30
0.0
 10
125.8943593542698
 20
99.23702413321905
 30
0.0
  0
LINE
  5
1C5
330
1F
100
AcDbEntity
  8
0
  6
HIDDEN
 62
     7
370
     0
100
AcDbLine
 10
114.0654174938
 20
107.7011823665
 30
0.0
 11
114.0654174938
 21
108.2011823903
 31
0.0
  0
LINE
  5
1C6
330
1F
100
AcDbEntity
  8
0
  6
HIDDEN
 62
     7
370
     0
100
AcDbLine
 10
115.0974779717
 20
107.7011823665
 30
0.0
 11
114.8295383296
 21
107.7011823665
 31
0.0
  0
LINE
  5
1C7
330
1F
100
AcDbEntity
  8
0
  6
HIDDEN
 62
     7
370
     0
100
AcDbLine
 10
110.6738070353
 20
107.7011823665
 30
0.0
 11
110.6738070353
 21
108.2011823903
 31
0.0
  0
LINE
  5
1C8
330
1F
100
AcDbEntity
  8
0
  6
HIDDEN
 62
     7
370
     0
100
AcDbLine
 10
109.9096861995
 20
107.7011823665
 30
0.0
 11
109.6417465574
 21
107.7011823665
 31
0.0
  0
LINE
  5
1C9
330
1F
100
AcDbEntity
  8
0
  6
HIDDEN
 62
     7
370
     0
100
AcDbLine
 10
98.8797926671
 20
99.3039324542
 30
0.0
 11
98.8797926671
 21
99.2664192465
 31
0.0
  0
SPLINE
  5
1CA
330
1F
100
AcDbEntity
  8
0
  6
HIDDEN
 62
     7
370
     0
100
AcDbSpline
210
0.0
220
0.0
230
1.0
 70
     8
 71
     3
 72
     8
 73
     4
 74
     0
 42
0.00000001
 43
0.00000001
 40
0.0000002356265358
 40
0.0000002356265358
 40
0.0000002356265358
 40
0.0000002356265358
 40
0.0012797987916123
 40
0.0012797987916123
 40
0.0012797987916123
 40
0.0012797987916123
 10
99.54118513954008
 20
99.41128334113853
 30
0.0
 10
99.32065242672431
 20
99.36416859116467
 30
0.0
 10
99.10019161157828
 20
99.31579956953534
 30
0.0
 10
98.8797931106355
 20
99.2664188305475
 30
0.0
  0
LINE
  5
1CB
330
1F
100
AcDbEntity
  8
0
  6
HIDDEN
 62
     7
370
     0
100
AcDbLine
 10
125.859431862
 20
99.3039324542
 30
0.0
 11
125.859431862
 21
99.2664192465
 31
0.0
  0
SPLINE
  5
1CC
330
1F
100
AcDbEntity
  8
0
  6
HIDDEN
 62
     7
370
     0
100
AcDbSpline
210
0.0
220
0.0
230
1.0
 70
     8
 71
     3
 72
     8
 73
     4
 74
     0
 42
0.00000001
 43
0.00000001
 40
0.000000235770167
 40
0.000000235770167
 40
0.000000235770167
 40
0.000000235770167
 40
0.0012797989352435
 40
0.0012797989352435
 40
0.0012797989352435
 40
0.0012797989352435
 10
125.859431558968
 20
99.2664188305475
 30
0.0
 10
125.6390330580253
 20
99.31579956953534
 30
0.0
 10
125.4185722428792
 20
99.36416859116467
 30
0.0
 10
125.1980395300635
 20
99.41128334113853
 30
0.0
  0
SPLINE
  5
1CD
330
1F
100
AcDbEntity
  8
0
  6
HIDDEN
 62
     7
370
     0
100
AcDbSpline
210
0.0
220
0.0
230
1.0
 70
     8
 71
     3
 72
     8
 73
     4
 74
     0
 42
0.00000001
 43
0.00000001
 40
0.0000002377397542
 40
0.0000002377397542
 40
0.0000002377397542
 40
0.0000002377397542
 40
0.0002152532124901
 40
0.0002152532124901
 40
0.0002152532124901
 40
0.0002152532124901
 10
101.7582826572571
 20
99.68384993130076
 30
0.0
 10
101.818576989086
 20
99.6896858193638
 30
0.0
 10
101.8788759626563
 20
99.6954548040347
 30
0.0
 10
101.9391795576041
 20
99.70115476612956
 30
0.0
  0
SPLINE
  5
1CE
330
1F
100
AcDbEntity
  8
0
  6
HIDDEN
 62
     7
370
     0
100
AcDbSpline
210
0.0
220
0.0
230
1.0
 70
     8
 71
     3
 72
     8
 73
     4
 74
     0
 42
0.00000001
 43
0.00000001
 40
0.0000002377397542
 40
0.0000002377397542
 40
0.0000002377397542
 40
0.0000002377397542
 40
0.0002152532124901
 40
0.0002152532124901
 40
0.0002152532124901
 40
0.0002152532124901
 10
122.9809420123465
 20
99.68384993130076
 30
0.0
 10
122.9206476805176
 20
99.6896858193638
 30
0.0
 10
122.8603487069472
 20
99.6954548040347
 30
0.0
 10
122.8000451119994
 20
99.70115476612956
 30
0.0
  0
LINE
  5
1CF
330
1F
100
AcDbEntity
  8
0
  6
HIDDEN
 62
     7
370
     0
100
AcDbLine
 10
101.538394983
 20
100.2540919592
 30
0.0
 11
101.538394983
 21
99.6838501317
 31
0.0
  0
LINE
  5
1D0
330
1F
100
AcDbEntity
  8
0
  6
HIDDEN
 62
     7
370
     0
100
AcDbLine
 10
101.7582825712
 20
100.2540919592
 30
0.0
 11
101.7582825712
 21
99.6838501317
 31
0.0
  0
SPLINE
  5
1D1
330
1F
100
AcDbEntity
  8
0
  6
HIDDEN
 62
     7
370
     0
100
AcDbSpline
210
0.0
220
0.0
230
1.0
 70
     8
 71
     3
 72
    10
 73
     6
 74
     0
 42
0.00000001
 43
0.00000001
 40
0.0
 40
0.0
 40
0.0
 40
0.0
 40
0.5
 40
0.5
 40
1.0
 40
1.0
 40
1.0
 40
1.0
 10
101.5383951008508
 20
99.68384993130076
 30
0.0
 10
101.5160505577747
 20
99.6754628546484
 30
0.0
 10
101.5252830724664
 20
99.67100405928845
 30
0.0
 10
101.6033069846137
 20
99.6709778899167
 30
0.0
 10
101.6716262972232
 20
99.67546246266548
 30
0.0
 10
101.758282657257
 20
99.68384993130076
 30
0.0
  0
LINE
  5
1D2
330
1F
100
AcDbEntity
  8
0
  6
HIDDEN
 62
     7
370
     0
100
AcDbLine
 10
123.2008300117
 20
100.2540919592
 30
0.0
 11
123.2008300117
 21
99.6838501317
 31
0.0
  0
LINE
  5
1D3
330
1F
100
AcDbEntity
  8
0
  6
HIDDEN
 62
     7
370
     0
100
AcDbLine
 10
122.9809419579
 20
100.2540919592
 30
0.0
 11
122.9809419579
 21
99.6838501317
 31
0.0
  0
SPLINE
  5
1D4
330
1F
100
AcDbEntity
  8
0
  6
HIDDEN
 62
     7
370
     0
100
AcDbSpline
210
0.0
220
0.0
230
1.0
 70
     8
 71
     3
 72
    10
 73
     6
 74
     0
 42
0.00000001
 43
0.00000001
 40
0.0
 40
0.0
 40
0.0
 40
0.0
 40
0.5
 40
0.5
 40
1.0
 40
1.0
 40
1.0
 40
1.0
 10
122.9809420123465
 20
99.68384993130076
 30
0.0
 10
123.0675933793278
 20
99.67546294594301
 30
0.0
 10
123.1353986377684
 20
99.67100406700781
 30
0.0
 10
123.2137658479836
 20
99.6709778822648
 30
0.0
 10
123.2231753158515
 20
99.67546240271565
 30
0.0
 10
123.2008295687527
 20
99.68384993130076
 30
0.0
  0
LINE
  5
1D5
330
1F
100
AcDbEntity
  8
0
  6
HIDDEN
 62
     7
370
     0
100
AcDbLine
 10
116.9329825184
 20
107.7011823665
 30
0.0
 11
116.9329825184
 21
108.2011823903
 31
0.0
  0
LINE
  5
1D6
330
1F
100
AcDbEntity
  8
0
  6
HIDDEN
 62
     7
370
     0
100
AcDbLine
 10
116.9329825184
 20
107.7011823665
 30
0.0
 11
115.9009225062
 21
107.7011823665
 31
0.0
  0
LINE
  5
1D7
330
1F
100
AcDbEntity
  8
0
  6
HIDDEN
 62
     7
370
     0
100
AcDbLine
 10
116.1688621483
 20
107.7011823665
 30
0.0
 11
116.1688621483
 21
108.2011823903
 31
0.0
  0
LINE
  5
1D8
330
1F
100
AcDbEntity
  8
0
  6
HIDDEN
 62
     7
370
     0
100
AcDbLine
 10
108.5703628464
 20
107.7011823665
 30
0.0
 11
108.5703628464
 21
108.2011823903
 31
0.0
  0
LINE
  5
1D9
330
1F
100
AcDbEntity
  8
0
  6
HIDDEN
 62
     7
370
     0
100
AcDbLine
 10
108.8383024885
 20
107.7011823665
 30
0.0
 11
107.8062420252
 21
107.7011823665
 31
0.0
  0
LINE
  5
1DA
330
1F
100
AcDbEntity
  8
0
  6
HIDDEN
 62
     7
370
     0
100
AcDbLine
 10
107.8062420252
 20
107.7011823665
 30
0.0
 11
107.8062420252
 21
108.2011823903
 31
0.0
  0
LINE
  5
1DB
330
1F
100
AcDbEntity
  8
0
  6
HIDDEN
 62
     7
370
     0
100
AcDbLine
 10
101.5850421368
 20
100.2934813161
 30
0.0
 11
101.5850421368
 21
99.7011545708
 31
0.0
  0
SPLINE
  5
1DC
330
1F
100
AcDbEntity
  8
0
  6
HIDDEN
 62
     7
370
     0
100
AcDbSpline
210
0.0
220
0.0
230
1.0
 70
     8
 71
     3
 72
     8
 73
     4
 74
     0
 42
0.00000001
 43
0.00000001
 40
0.0000002055951198
 40
0.0000002055951198
 40
0.0000002055951198
 40
0.0000002055951198
 40
0.0002152210678558
 40
0.0002152210678558
 40
0.0002152210678558
 40
0.0002152210678558
 10
101.5383951008508
 20
99.68384993130076
 30
0.0
 10
101.5539428605321
 20
99.6896858193638
 30
0.0
 10
101.5694918171531
 20
99.6954548040347
 30
0.0
 10
101.5850419654627
 20
99.70115476612956
 30
0.0
  0
LINE
  5
1DD
330
1F
100
AcDbEntity
  8
0
  6
HIDDEN
 62
     7
370
     0
100
AcDbLine
 10
123.1541828579
 20
100.2934813161
 30
0.0
 11
123.1541828579
 21
99.7011545708
 31
0.0
  0
SPLINE
  5
1DE
330
1F
100
AcDbEntity
  8
0
  6
HIDDEN
 62
     7
370
     0
100
AcDbSpline
210
0.0
220
0.0
230
1.0
 70
     8
 71
     3
 72
     8
 73
     4
 74
     0
 42
0.00000001
 43
0.00000001
 40
0.0000002055951198
 40
0.0000002055951198
 40
0.0000002055951198
 40
0.0000002055951198
 40
0.0002152210678558
 40
0.0002152210678558
 40
0.0002152210678558
 40
0.0002152210678558
 10
123.2008295687527
 20
99.68384993130076
 30
0.0
 10
123.1852818090714
 20
99.6896858193638
 30
0.0
 10
123.1697328524504
 20
99.6954548040347
 30
0.0
 10
123.1541827041408
 20
99.70115476612956
 30
0.0
  0
LINE
  5
1DF
330
1F
100
AcDbEntity
  8
0
  6
HIDDEN
 62
     7
370
     0
100
AcDbLine
 10
117.9847046128
 20
107.7011823665
 30
0.0
 11
117.9847046128
 21
108.2011823903
 31
0.0
  0
LINE
  5
1E0
330
1F
100
AcDbEntity
  8
0
  6
HIDDEN
 62
     7
370
     0
100
AcDbLine
 10
117.9847046128
 20
107.7011823665
 30
0.0
 11
116.9329825184
 21
107.7011823665
 31
0.0
  0
LINE
  5
1E1
330
1F
100
AcDbEntity
  8
0
  6
HIDDEN
 62
     7
370
     0
100
AcDbLine
 10
106.7545199162
 20
107.7011823665
 30
0.0
 11
106.7545199162
 21
108.2011823903
 31
0.0
  0
LINE
  5
1E2
330
1F
100
AcDbEntity
  8
0
  6
HIDDEN
 62
     7
370
     0
100
AcDbLine
 10
107.8062420252
 20
107.7011823665
 30
0.0
 11
106.7545199162
 21
107.7011823665
 31
0.0
  0
LINE
  5
1E3
330
1F
100
AcDbEntity
  8
0
  6
HIDDEN
 62
     7
370
     0
100
AcDbLine
 10
99.5411853633
 20
99.6336741966
 30
0.0
 11
99.5411853633
 21
99.4112832134
 31
0.0
  0
LINE
  5
1E4
330
1F
100
AcDbEntity
  8
0
  6
HIDDEN
 62
     7
370
     0
100
AcDbLine
 10
125.1980400971
 20
99.6336741966
 30
0.0
 11
125.1980400971
 21
99.4112832134
 31
0.0
  0
LINE
  5
1E5
330
1F
100
AcDbEntity
  8
0
  6
HIDDEN
 62
     7
370
     0
100
AcDbLine
 10
100.9056870221
 20
100.1373013144
 30
0.0
 11
100.9056870221
 21
99.6325407771
 31
0.0
  0
LINE
  5
1E6
330
1F
100
AcDbEntity
  8
0
  6
HIDDEN
 62
     7
370
     0
100
AcDbLine
 10
101.5850421368
 20
99.7011545708
 30
0.0
 11
101.5907851375
 21
99.7074051422
 31
0.0
  0
SPLINE
  5
1E7
330
1F
100
AcDbEntity
  8
0
  6
HIDDEN
 62
     7
370
     0
100
AcDbSpline
210
0.0
220
0.0
230
1.0
 70
     8
 71
     3
 72
    10
 73
     6
 74
     0
 42
0.00000001
 43
0.00000001
 40
0.0
 40
0.0
 40
0.0
 40
0.0
 40
0.5
 40
0.5
 40
1.0
 40
1.0
 40
1.0
 40
1.0
 10
101.5937676483706
 20
99.71065073912314
 30
0.0
 10
101.5759568583793
 20
99.71578348789718
 30
0.0
 10
101.482429282654
 20
99.70916020657067
 30
0.0
 10
101.216582511636
 20
99.67854138388111
 30
0.0
 10
101.0484982703797
 20
99.65520420279404
 30
0.0
 10
100.9056870969696
 20
99.63254072190999
 30
0.0
  0
LINE
  5
1E8
330
1F
100
AcDbEntity
  8
0
  6
HIDDEN
 62
     7
370
     0
100
AcDbLine
 10
123.8335370413
 20
100.1373013144
 30
0.0
 11
123.8335370413
 21
99.6325407771
 31
0.0
  0
SPLINE
  5
1E9
330
1F
100
AcDbEntity
  8
0
  6
HIDDEN
 62
     7
370
     0
100
AcDbSpline
210
0.0
220
0.0
230
1.0
 70
     8
 71
     3
 72
    14
 73
    10
 74
     0
 42
0.00000001
 43
0.00000001
 40
0.0
 40
0.0
 40
0.0
 40
0.0
 40
0.25
 40
0.25
 40
0.5
 40
0.5
 40
0.75
 40
0.75
 40
1.0
 40
1.0
 40
1.0
 40
1.0
 10
123.1541827041408
 20
99.70115476612956
 30
0.0
 10
123.1341811555861
 20
99.70848640479468
 30
0.0
 10
123.1395197623717
 20
99.712400315072
 30
0.0
 10
123.1980919302887
 20
99.71245609678027
 30
0.0
 10
123.2521366839872
 20
99.70849589864002
 30
0.0
 10
123.3916946462272
 20
99.69407273895743
 30
0.0
 10
123.4770463443189
 20
99.68367967497826
 30
0.0
 10
123.6568796076497
 20
99.65944931804259
 30
0.0
 10
123.7492828867036
 20
99.64591155570666
 30
0.0
 10
123.833537572634
 20
99.63254072190999
 30
0.0
  0
LINE
  5
1EA
330
1F
100
AcDbEntity
  8
0
  6
HIDDEN
 62
     7
370
     0
100
AcDbLine
 10
99.7768556095
 20
99.7293331322
 30
0.0
 11
99.7768556095
 21
99.4533091446
 31
0.0
  0
LINE
  5
1EB
330
1F
100
AcDbEntity
  8
0
  6
HIDDEN
 62
     7
370
     0
100
AcDbLine
 10
99.7768556095
 20
99.4533091446
 30
0.0
 11
100.9056870221
 21
99.6325407771
 31
0.0
  0
LINE
  5
1EC
330
1F
100
AcDbEntity
  8
0
  6
HIDDEN
 62
     7
370
     0
100
AcDbLine
 10
124.9623689196
 20
99.7293331322
 30
0.0
 11
124.9623689196
 21
99.4533091446
 31
0.0
  0
LINE
  5
1ED
330
1F
100
AcDbEntity
  8
0
  6
HIDDEN
 62
     7
370
     0
100
AcDbLine
 10
124.9623689196
 20
99.4533091446
 30
0.0
 11
123.8335370413
 21
99.6325407771
 31
0.0
  0
LINE
  5
1EE
330
1F
100
AcDbEntity
  8
0
  6
HIDDEN
 62
     7
370
     0
100
AcDbLine
 10
114.1210505134
 20
107.7011823665
 30
0.0
 11
114.1210505134
 21
108.2011823903
 31
0.0
  0
LINE
  5
1EF
330
1F
100
AcDbEntity
  8
0
  6
HIDDEN
 62
     7
370
     0
100
AcDbLine
 10
113.3569296776
 20
107.7011823665
 30
0.0
 11
113.3569296776
 21
108.2011823903
 31
0.0
  0
LINE
  5
1F0
330
1F
100
AcDbEntity
  8
0
  6
HIDDEN
 62
     7
370
     0
100
AcDbLine
 10
111.3822950843
 20
107.7011823665
 30
0.0
 11
111.3822950843
 21
108.2011823903
 31
0.0
  0
LINE
  5
1F1
330
1F
100
AcDbEntity
  8
0
  6
HIDDEN
 62
     7
370
     0
100
AcDbLine
 10
110.6181742485
 20
107.7011823665
 30
0.0
 11
110.6181742485
 21
108.2011823903
 31
0.0
  0
LINE
  5
1F2
330
1F
100
AcDbEntity
  8
0
  6
HIDDEN
 62
     7
370
     0
100
AcDbLine
 10
115.1727726078
 20
107.7011823665
 30
0.0
 11
115.1727726078
 21
108.2011823903
 31
0.0
  0
LINE
  5
1F3
330
1F
100
AcDbEntity
  8
0
  6
HIDDEN
 62
     7
370
     0
100
AcDbLine
 10
115.1727726078
 20
107.7011823665
 30
0.0
 11
115.0974779717
 21
107.7011823665
 31
0.0
  0
LINE
  5
1F4
330
1F
100
AcDbEntity
  8
0
  6
HIDDEN
 62
     7
370
     0
100
AcDbLine
 10
109.566452154
 20
107.7011823665
 30
0.0
 11
109.566452154
 21
108.2011823903
 31
0.0
  0
LINE
  5
1F5
330
1F
100
AcDbEntity
  8
0
  6
HIDDEN
 62
     7
370
     0
100
AcDbLine
 10
109.6417465574
 20
107.7011823665
 30
0.0
 11
109.566452154
 21
107.7011823665
 31
0.0
  0
LINE
  5
1F6
330
1F
100
AcDbEntity
  8
0
  6
HIDDEN
 62
     7
370
     0
100
AcDbLine
 10
117.2205842427
 20
107.7011823665
 30
0.0
 11
117.2205842427
 21
108.2011823903
 31
0.0
  0
LINE
  5
1F7
330
1F
100
AcDbEntity
  8
0
  6
HIDDEN
 62
     7
370
     0
100
AcDbLine
 10
118.2526442549
 20
107.7011823665
 30
0.0
 11
117.9847046128
 21
107.7011823665
 31
0.0
  0
LINE
  5
1F8
330
1F
100
AcDbEntity
  8
0
  6
HIDDEN
 62
     7
370
     0
100
AcDbLine
 10
107.5186407666
 20
107.7011823665
 30
0.0
 11
107.5186407666
 21
108.2011823903
 31
0.0
  0
LINE
  5
1F9
330
1F
100
AcDbEntity
  8
0
  6
HIDDEN
 62
     7
370
     0
100
AcDbLine
 10
106.7545199162
 20
107.7011823665
 30
0.0
 11
106.4865803906
 21
107.7011823665
 31
0.0
  0
LINE
  5
1FA
330
1F
100
AcDbEntity
  8
0
  6
HIDDEN
 62
     7
370
     0
100
AcDbLine
 10
114.408651772
 20
107.7011823665
 30
0.0
 11
114.408651772
 21
108.2011823903
 31
0.0
  0
LINE
  5
1FB
330
1F
100
AcDbEntity
  8
0
  6
HIDDEN
 62
     7
370
     0
100
AcDbLine
 10
115.4407122499
 20
107.7011823665
 30
0.0
 11
115.1727726078
 21
107.7011823665
 31
0.0
  0
LINE
  5
1FC
330
1F
100
AcDbEntity
  8
0
  6
HIDDEN
 62
     7
370
     0
100
AcDbLine
 10
110.3305729898
 20
107.7011823665
 30
0.0
 11
110.3305729898
 21
108.2011823903
 31
0.0
  0
LINE
  5
1FD
330
1F
100
AcDbEntity
  8
0
  6
HIDDEN
 62
     7
370
     0
100
AcDbLine
 10
109.566452154
 20
107.7011823665
 30
0.0
 11
109.298512512
 21
107.7011823665
 31
0.0
  0
LINE
  5
1FE
330
1F
100
AcDbEntity
  8
0
  6
HIDDEN
 62
     7
370
     0
100
AcDbLine
 10
118.8550227648
 20
107.7011823665
 30
0.0
 11
118.8550227648
 21
108.2011823903
 31
0.0
  0
LINE
  5
1FF
330
1F
100
AcDbEntity
  8
0
  6
HIDDEN
 62
     7
370
     0
100
AcDbLine
 10
118.8868358127
 20
107.7011823665
 30
0.0
 11
118.2526442549
 21
107.7011823665
 31
0.0
  0
LINE
  5
200
330
1F
100
AcDbEntity
  8
0
  6
HIDDEN
 62
     7
370
     0
100
AcDbLine
 10
117.6186492062
 20
107.7011823665
 30
0.0
 11
117.6186492062
 21
108.2011823903
 31
0.0
  0
LINE
  5
201
330
1F
100
AcDbEntity
  8
0
  6
HIDDEN
 62
     7
370
     0
100
AcDbLine
 10
107.1205754393
 20
107.7011823665
 30
0.0
 11
107.1205754393
 21
108.2011823903
 31
0.0
  0
LINE
  5
202
330
1F
100
AcDbEntity
  8
0
  6
HIDDEN
 62
     7
370
     0
100
AcDbLine
 10
106.4865803906
 20
107.7011823665
 30
0.0
 11
105.8523887164
 21
107.7011823665
 31
0.0
  0
LINE
  5
203
330
1F
100
AcDbEntity
  8
0
  6
HIDDEN
 62
     7
370
     0
100
AcDbLine
 10
105.884201997
 20
107.7011823665
 30
0.0
 11
105.884201997
 21
108.2011823903
 31
0.0
  0
LINE
  5
204
330
1F
100
AcDbEntity
  8
0
  6
HIDDEN
 62
     7
370
     0
100
AcDbLine
 10
98.9621122694
 20
99.6336741966
 30
0.0
 11
98.9621122694
 21
99.4112832134
 31
0.0
  0
LINE
  5
205
330
1F
100
AcDbEntity
  8
0
  6
HIDDEN
 62
     7
370
     0
100
AcDbLine
 10
99.25707703
 20
99.7293331322
 30
0.0
 11
99.25707703
 21
99.4533091446
 31
0.0
  0
SPLINE
  5
206
330
1F
100
AcDbEntity
  8
0
  6
HIDDEN
 62
     7
370
     0
100
AcDbSpline
210
0.0
220
0.0
230
1.0
 70
     8
 71
     3
 72
     8
 73
     4
 74
     0
 42
0.00000001
 43
0.00000001
 40
0.0
 40
0.0
 40
0.0
 40
0.0
 40
1.0
 40
1.0
 40
1.0
 40
1.0
 10
99.25707739520338
 20
99.45330896918868
 30
0.0
 10
99.15123181563237
 20
99.4377752794412
 30
0.0
 10
99.04797332927218
 20
99.42310180939587
 30
0.0
 10
98.96211218481743
 20
99.41128334113853
 30
0.0
  0
LINE
  5
207
330
1F
100
AcDbEntity
  8
0
  6
HIDDEN
 62
     7
370
     0
100
AcDbLine
 10
100.4789159029
 20
100.1373013144
 30
0.0
 11
100.4789159029
 21
99.6325407771
 31
0.0
  0
LWPOLYLINE
  5
208
330
1F
100
AcDbEntity
  8
0
  6
HIDDEN
 62
     7
370
     0
100
AcDbPolyline
 90
        3
 70
   128
 43
0.0
 10
99.25707703
 20
99.4533091446
 10
99.4099145151
 20
99.4757377205
 10
100.4789159029
 20
99.6325407771
  0
SPLINE
  5
209
330
1F
100
AcDbEntity
  8
0
  6
HIDDEN
 62
     7
370
     0
100
AcDbSpline
210
0.0
220
0.0
230
1.0
 70
     8
 71
     3
 72
     8
 73
     4
 74
     0
 42
0.00000001
 43
0.00000001
 40
0.0
 40
0.0
 40
0.0
 40
0.0
 40
1.0
 40
1.0
 40
1.0
 40
1.0
 10
97.93556643961573
 20
99.2664188305475
 30
0.0
 10
97.80838833999296
 20
99.24806013038166
 30
0.0
 10
97.73053165000174
 20
99.23702413321905
 30
0.0
 10
97.73053165000174
 20
99.23702413321905
 30
0.0
  0
SPLINE
  5
20A
330
1F
100
AcDbEntity
  8
0
  6
HIDDEN
 62
     7
370
     0
100
AcDbSpline
210
0.0
220
0.0
230
1.0
 70
     8
 71
     3
 72
     8
 73
     4
 74
     0
 42
0.00000001
 43
0.00000001
 40
0.0000002493681955
 40
0.0000002493681955
 40
0.0000002493681955
 40
0.0000002493681955
 40
0.0012798125332719
 40
0.0012798125332719
 40
0.0012798125332719
 40
0.0012798125332719
 10
97.93556643961573
 20
99.2664188305475
 30
0.0
 10
98.27764667872347
 20
99.31579956953534
 30
0.0
 10
98.61982363562856
 20
99.36416859116467
 30
0.0
 10
98.96211218481743
 20
99.41128334113853
 30
0.0
  0
SPLINE
  5
20B
330
1F
100
AcDbEntity
  8
0
  6
HIDDEN
 62
     7
370
     0
100
AcDbSpline
210
0.0
220
0.0
230
1.0
 70
     8
 71
     3
 72
    14
 73
    10
 74
     0
 42
0.00000001
 43
0.00000001
 40
0.0
 40
0.0
 40
0.0
 40
0.0
 40
0.2500000000000001
 40
0.2500000000000001
 40
0.5000000000000002
 40
0.5000000000000002
 40
0.7500000000000001
 40
0.7500000000000001
 40
1.0
 40
1.0
 40
1.0
 40
1.0
 10
100.8881353673068
 20
99.70115476612956
 30
0.0
 10
100.9409379280863
 20
99.70848630728722
 30
0.0
 10
100.9719522782275
 20
99.71240030147476
 30
0.0
 10
100.9837690473369
 20
99.71245611008524
 30
0.0
 10
100.9639415098295
 20
99.70849587898104
 30
0.0
 10
100.8795570998453
 20
99.69407281625419
 30
0.0
 10
100.8154214123903
 20
99.68367981371912
 30
0.0
 10
100.6597496381604
 20
99.65944919432077
 30
0.0
 10
100.5701129132986
 20
99.64591159570408
 30
0.0
 10
100.4789160256034
 20
99.63254072190999
 30
0.0
  0
SPLINE
  5
20C
330
1F
100
AcDbEntity
  8
0
  6
HIDDEN
 62
     7
370
     0
100
AcDbSpline
210
0.0
220
0.0
230
1.0
 70
     8
 71
     3
 72
     8
 73
     4
 74
     0
 42
0.00000001
 43
0.00000001
 40
0.0000002451817734
 40
0.0000002451817734
 40
0.0000002451817734
 40
0.0000002451817734
 40
0.0002152606545094
 40
0.0002152606545094
 40
0.0002152606545094
 40
0.0002152606545094
 10
100.7649895690984
 20
99.68384993130076
 30
0.0
 10
100.8060350132506
 20
99.6896858193638
 30
0.0
 10
100.8470836172744
 20
99.6954548040347
 30
0.0
 10
100.8881353673068
 20
99.70115476612956
 30
0.0
  0
SPLINE
  5
20D
330
1F
100
AcDbEntity
  8
0
  6
HIDDEN
 62
     7
370
     0
100
AcDbSpline
210
0.0
220
0.0
230
1.0
 70
     8
 71
     3
 72
    10
 73
     6
 74
     0
 42
0.00000001
 43
0.00000001
 40
0.0
 40
0.0
 40
0.0
 40
0.0
 40
0.0946434674018811
 40
0.639025587104331
 40
1.0
 40
1.0
 40
1.0
 40
1.0
 10
100.6782147428818
 20
99.67155667367516
 30
0.0
 10
100.6769462038105
 20
99.6713775986844
 30
0.0
 10
100.6683811232286
 20
99.67016849778986
 30
0.0
 10
100.6996760811278
 20
99.6745777360731
 30
0.0
 10
100.7463717695048
 20
99.68120698567596
 30
0.0
 10
100.7649897924491
 20
99.68385013166008
 30
0.0
  0
LINE
  5
20E
330
1F
100
AcDbEntity
  8
0
  6
HIDDEN
 62
     7
370
     0
100
AcDbLine
 10
100.8881353169
 20
100.2934813161
 30
0.0
 11
100.8881353169
 21
99.7011545708
 31
0.0
  0
LINE
  5
20F
330
1F
100
AcDbEntity
  8
0
  6
HIDDEN
 62
     7
370
     0
100
AcDbLine
 10
124.2603081605
 20
100.1373013144
 30
0.0
 11
124.2603081605
 21
99.6325407771
 31
0.0
  0
SPLINE
  5
210
330
1F
100
AcDbEntity
  8
0
  6
HIDDEN
 62
     7
370
     0
100
AcDbSpline
210
0.0
220
0.0
230
1.0
 70
     8
 71
     3
 72
     8
 73
     4
 74
     0
 42
0.00000001
 43
0.00000001
 40
0.0
 40
0.0
 40
0.0
 40
0.0
 40
1.0
 40
1.0
 40
1.0
 40
1.0
 10
123.8510893022967
 20
99.70115476612956
 30
0.0
 10
123.8188866090211
 20
99.70562605251516
 30
0.0
 10
123.7950251197594
 20
99.70880198723364
 30
0.0
 10
123.779574525456
 20
99.71064944612732
 30
0.0
  0
SPLINE
  5
211
330
1F
100
AcDbEntity
  8
0
  6
HIDDEN
 62
     7
370
     0
100
AcDbSpline
210
0.0
220
0.0
230
1.0
 70
     8
 71
     3
 72
    13
 73
     9
 74
     0
 42
0.00000001
 43
0.00000001
 40
0.0
 40
0.0
 40
0.0
 40
0.0
 40
0.035370681332039
 40
0.2463975093614092
 40
0.4579708279096912
 40
0.6714495764210704
 40
0.8872947729729432
 40
1.0
 40
1.0
 40
1.0
 40
1.0
 10
123.7641833118029
 20
99.71167665320573
 30
0.0
 10
123.7629560563652
 20
99.71177585293097
 30
0.0
 10
123.7544068095927
 20
99.71246689320243
 30
0.0
 10
123.7923840013011
 20
99.70547339862709
 30
0.0
 10
123.8777499707904
 20
99.69107573351289
 30
0.0
 10
124.0108688118881
 20
99.66998174138307
 30
0.0
 10
124.1457423302714
 20
99.64943087950282
 30
0.0
 10
124.2310458317818
 20
99.63685483587524
 30
0.0
 10
124.2603081605263
 20
99.63254077705679
 30
0.0
  0
LINE
  5
212
330
1F
100
AcDbEntity
  8
0
  6
HIDDEN
 62
     7
370
     0
100
AcDbLine
 10
123.8510887465
 20
100.2934813161
 30
0.0
 11
123.8510887465
 21
99.7011545708
 31
0.0
  0
LINE
  5
213
330
1F
100
AcDbEntity
  8
0
  6
HIDDEN
 62
     7
370
     0
100
AcDbLine
 10
125.4821474991
 20
99.7293331322
 30
0.0
 11
125.4821474991
 21
99.4533091446
 31
0.0
  0
LWPOLYLINE
  5
214
330
1F
100
AcDbEntity
  8
0
  6
HIDDEN
 62
     7
370
     0
100
AcDbPolyline
 90
        3
 70
   128
 43
0.0
 10
125.4821474991
 20
99.4533091446
 10
124.4322284452
 20
99.6073326689
 10
124.2603081605
 20
99.6325407771
  0
SPLINE
  5
215
330
1F
100
AcDbEntity
  8
0
  6
HIDDEN
 62
     7
370
     0
100
AcDbSpline
210
0.0
220
0.0
230
1.0
 70
     8
 71
     3
 72
     9
 73
     5
 74
     0
 42
0.00000001
 43
0.00000001
 40
0.0
 40
0.0
 40
0.0
 40
0.0
 40
0.5470168338674454
 40
1.0
 40
1.0
 40
1.0
 40
1.0
 10
123.9742356679269
 20
99.68385013166008
 30
0.0
 10
124.0029606132604
 20
99.67977715330572
 30
0.0
 10
124.0554726084224
 20
99.67233135255118
 30
0.0
 10
124.0592828703412
 20
99.67179818816629
 30
0.0
 10
124.0610088548489
 20
99.67155667367516
 30
0.0
  0
SPLINE
  5
216
330
1F
100
AcDbEntity
  8
0
  6
HIDDEN
 62
     7
370
     0
100
AcDbSpline
210
0.0
220
0.0
230
1.0
 70
     8
 71
     3
 72
     8
 73
     4
 74
     0
 42
0.00000001
 43
0.00000001
 40
0.0000002451817734
 40
0.0000002451817734
 40
0.0000002451817734
 40
0.0000002451817734
 40
0.0002152606545094
 40
0.0002152606545094
 40
0.0002152606545094
 40
0.0002152606545094
 10
123.9742351005051
 20
99.68384993130076
 30
0.0
 10
123.9331896563528
 20
99.6896858193638
 30
0.0
 10
123.8921410523291
 20
99.6954548040347
 30
0.0
 10
123.8510893022967
 20
99.70115476612956
 30
0.0
  0
SPLINE
  5
217
330
1F
100
AcDbEntity
  8
0
  6
HIDDEN
 62
     7
370
     0
100
AcDbSpline
210
0.0
220
0.0
230
1.0
 70
     8
 71
     3
 72
     8
 73
     4
 74
     0
 42
0.00000001
 43
0.00000001
 40
0.0
 40
0.0
 40
0.0
 40
0.0
 40
1.0
 40
1.0
 40
1.0
 40
1.0
 10
125.4821472744001
 20
99.45330896918868
 30
0.0
 10
125.5879928539711
 20
99.4377752794412
 30
0.0
 10
125.6912513403313
 20
99.42310180939587
 30
0.0
 10
125.7771124847861
 20
99.41128334113853
 30
0.0
  0
SPLINE
  5
218
330
1F
100
AcDbEntity
  8
0
  6
HIDDEN
 62
     7
370
     0
100
AcDbSpline
210
0.0
220
0.0
230
1.0
 70
     8
 71
     3
 72
     8
 73
     4
 74
     0
 42
0.00000001
 43
0.00000001
 40
0.0000002492162788
 40
0.0000002492162788
 40
0.0000002492162788
 40
0.0000002492162788
 40
0.0012798123813552
 40
0.0012798123813552
 40
0.0012798123813552
 40
0.0012798123813552
 10
125.7771124847861
 20
99.41128334113853
 30
0.0
 10
126.1194010339749
 20
99.36416859116467
 30
0.0
 10
126.46157799088
 20
99.31579956953534
 30
0.0
 10
126.8036582299878
 20
99.2664188305475
 30
0.0
  0
SPLINE
  5
219
330
1F
100
AcDbEntity
  8
0
  6
HIDDEN
 62
     7
370
     0
100
AcDbSpline
210
0.0
220
0.0
230
1.0
 70
     8
 71
     3
 72
    10
 73
     6
 74
     0
 42
0.00000001
 43
0.00000001
 40
0.0
 40
0.0
 40
0.0
 40
0.0
 40
0.5000000000000001
 40
0.5000000000000001
 40
1.0
 40
1.0
 40
1.0
 40
1.0
 10
127.0086930196017
 20
99.23702413321905
 30
0.0
 10
127.0086930196017
 20
99.23702413321905
 30
0.0
 10
126.9898223748085
 20
99.23970679903952
 30
0.0
 10
126.9188558574465
 20
99.24984801960848
 30
0.0
 10
126.8671189490142
 20
99.25725800555976
 30
0.0
 10
126.8036582299878
 20
99.2664188305475
 30
0.0
  0
LINE
  5
21A
330
1F
100
AcDbEntity
  8
0
  6
HIDDEN
 62
     7
370
     0
100
AcDbLine
 10
125.7771122596
 20
99.6336741966
 30
0.0
 11
125.7771122596
 21
99.4112832134
 31
0.0
  0
LINE
  5
21B
330
1F
100
AcDbEntity
  8
0
  6
HIDDEN
 62
     7
370
     0
100
AcDbLine
 10
97.9355666182
 20
99.3039324542
 30
0.0
 11
97.9355666182
 21
99.2664192465
 31
0.0
  0
LINE
  5
21C
330
1F
100
AcDbEntity
  8
0
  6
HIDDEN
 62
     7
370
     0
100
AcDbLine
 10
126.8036588422
 20
99.3039324542
 30
0.0
 11
126.8036588422
 21
99.2664192465
 31
0.0
  0
LINE
  5
21D
330
1F
100
AcDbEntity
  8
0
  6
HIDDEN
 62
     7
370
     0
100
AcDbLine
 10
117.2169269389
 20
107.7011823665
 30
0.0
 11
117.2169269389
 21
108.2011823903
 31
0.0
  0
LINE
  5
21E
330
1F
100
AcDbEntity
  8
0
  6
HIDDEN
 62
     7
370
     0
100
AcDbLine
 10
107.5222975465
 20
107.7011823665
 30
0.0
 11
107.5222975465
 21
108.2011823903
 31
0.0
  0
LINE
  5
21F
330
1F
100
AcDbEntity
  8
0
  6
HIDDEN
 62
     7
370
     0
100
AcDbLine
 10
100.7649897924
 20
100.2540919592
 30
0.0
 11
100.7649897924
 21
99.6838501317
 31
0.0
  0
LINE
  5
220
330
1F
100
AcDbEntity
  8
0
  6
HIDDEN
 62
     7
370
     0
100
AcDbLine
 10
123.9742356679
 20
100.2540919592
 30
0.0
 11
123.9742356679
 21
99.6838501317
 31
0.0
  0
LINE
  5
221
330
1F
100
AcDbEntity
  8
0
  6
HIDDEN
 62
     7
370
     0
100
AcDbLine
 10
116.2552208966
 20
107.7011823665
 30
0.0
 11
116.2552208966
 21
108.2011823903
 31
0.0
  0
LINE
  5
222
330
1F
100
AcDbEntity
  8
0
  6
HIDDEN
 62
     7
370
     0
100
AcDbLine
 10
115.018847338
 20
107.7011823665
 30
0.0
 11
115.018847338
 21
108.2011823903
 31
0.0
  0
LINE
  5
223
330
1F
100
AcDbEntity
  8
0
  6
HIDDEN
 62
     7
370
     0
100
AcDbLine
 10
115.9009225062
 20
107.7011823665
 30
0.0
 11
115.4407122499
 21
107.7011823665
 31
0.0
  0
LINE
  5
224
330
1F
100
AcDbEntity
  8
0
  6
HIDDEN
 62
     7
370
     0
100
AcDbLine
 10
109.720377191
 20
107.7011823665
 30
0.0
 11
109.720377191
 21
108.2011823903
 31
0.0
  0
LINE
  5
225
330
1F
100
AcDbEntity
  8
0
  6
HIDDEN
 62
     7
370
     0
100
AcDbLine
 10
108.484003807
 20
107.7011823665
 30
0.0
 11
108.484003807
 21
108.2011823903
 31
0.0
  0
LINE
  5
226
330
1F
100
AcDbEntity
  8
0
  6
HIDDEN
 62
     7
370
     0
100
AcDbLine
 10
109.298512512
 20
107.7011823665
 30
0.0
 11
108.8383024885
 21
107.7011823665
 31
0.0
  0
LINE
  5
227
330
1F
100
AcDbEntity
  8
0
  6
HIDDEN
 62
     7
370
     0
100
AcDbLine
 10
114.6171255364
 20
107.7011823665
 30
0.0
 11
114.6171255364
 21
108.2011823903
 31
0.0
  0
LINE
  5
228
330
1F
100
AcDbEntity
  8
0
  6
HIDDEN
 62
     7
370
     0
100
AcDbLine
 10
110.1220994583
 20
107.7011823665
 30
0.0
 11
110.1220994583
 21
108.2011823903
 31
0.0
  0
LINE
  5
229
330
1F
100
AcDbEntity
  8
0
  6
HIDDEN
 62
     7
370
     0
100
AcDbLine
 10
118.4533004976
 20
107.7011823665
 30
0.0
 11
118.4533004976
 21
108.2011823903
 31
0.0
  0
LINE
  5
22A
330
1F
100
AcDbEntity
  8
0
  6
HIDDEN
 62
     7
370
     0
100
AcDbLine
 10
106.2859240315
 20
107.7011823665
 30
0.0
 11
106.2859240315
 21
108.2011823903
 31
0.0
  0
LINE
  5
22B
330
1F
100
AcDbEntity
  8
0
  6
HIDDEN
 62
     7
370
     0
100
AcDbLine
 10
115.8534986294
 20
107.7011823665
 30
0.0
 11
115.8534986294
 21
108.2011823903
 31
0.0
  0
LINE
  5
22C
330
1F
100
AcDbEntity
  8
0
  6
HIDDEN
 62
     7
370
     0
100
AcDbLine
 10
108.8857258997
 20
107.7011823665
 30
0.0
 11
108.8857258997
 21
108.2011823903
 31
0.0
  0
LINE
  5
22D
330
1F
100
AcDbEntity
  8
0
  6
HIDDEN
 62
     7
370
     0
100
AcDbLine
 10
117.649855963
 20
107.7011823665
 30
0.0
 11
117.649855963
 21
108.2011823903
 31
0.0
  0
LINE
  5
22E
330
1F
100
AcDbEntity
  8
0
  6
HIDDEN
 62
     7
370
     0
100
AcDbLine
 10
116.4134833357
 20
107.7011823665
 30
0.0
 11
116.4134833357
 21
108.2011823903
 31
0.0
  0
LINE
  5
22F
330
1F
100
AcDbEntity
  8
0
  6
HIDDEN
 62
     7
370
     0
100
AcDbLine
 10
108.3257417172
 20
107.7011823665
 30
0.0
 11
108.3257417172
 21
108.2011823903
 31
0.0
  0
LINE
  5
230
330
1F
100
AcDbEntity
  8
0
  6
HIDDEN
 62
     7
370
     0
100
AcDbLine
 10
107.089368275
 20
107.7011823665
 30
0.0
 11
107.089368275
 21
108.2011823903
 31
0.0
  0
LINE
  5
231
330
1F
100
AcDbEntity
  8
0
  6
HIDDEN
 62
     7
370
     0
100
AcDbLine
 10
113.0196125573
 20
107.7011823665
 30
0.0
 11
113.0196125573
 21
108.2011823903
 31
0.0
  0
LINE
  5
232
330
1F
100
AcDbEntity
  8
0
  6
HIDDEN
 62
     7
370
     0
100
AcDbLine
 10
111.7196124374
 20
107.7011823665
 30
0.0
 11
111.7196124374
 21
108.2011823903
 31
0.0
  0
LINE
  5
233
330
1F
100
AcDbEntity
  8
0
  6
HIDDEN
 62
     7
370
     0
100
AcDbLine
 10
112.7457557573
 20
107.7011823665
 30
0.0
 11
111.9934687718
 21
107.7011823665
 31
0.0
  0
LINE
  5
234
330
1F
100
AcDbEntity
  8
0
  6
HIDDEN
 62
     7
370
     0
100
AcDbLine
 10
116.0117610684
 20
107.7011823665
 30
0.0
 11
116.0117610684
 21
108.2011823903
 31
0.0
  0
LINE
  5
235
330
1F
100
AcDbEntity
  8
0
  6
HIDDEN
 62
     7
370
     0
100
AcDbLine
 10
108.7274638099
 20
107.7011823665
 30
0.0
 11
108.7274638099
 21
108.2011823903
 31
0.0
  0
LINE
  5
236
330
1F
100
AcDbEntity
  8
0
  6
HIDDEN
 62
     7
370
     0
100
AcDbLine
 10
101.5311967908
 20
99.6754398232
 30
0.0
 11
101.5264083958
 21
99.6763404121
 31
0.0
  0
LINE
  5
237
330
1F
100
AcDbEntity
  8
0
  6
HIDDEN
 62
     7
370
     0
100
AcDbLine
 10
117.2481346271
 20
107.7011823665
 30
0.0
 11
117.2481346271
 21
108.2011823903
 31
0.0
  0
LINE
  5
238
330
1F
100
AcDbEntity
  8
0
  6
HIDDEN
 62
     7
370
     0
100
AcDbLine
 10
107.4910903531
 20
107.7011823665
 30
0.0
 11
107.4910903531
 21
108.2011823903
 31
0.0
  0
LINE
  5
239
330
1F
100
AcDbEntity
  8
0
  6
HIDDEN
 62
     7
370
     0
100
AcDbLine
 10
109.7696122574
 20
107.7011823665
 30
0.0
 11
109.7696122574
 21
108.2011823903
 31
0.0
  0
LINE
  5
23A
330
1F
100
AcDbEntity
  8
0
  6
HIDDEN
 62
     7
370
     0
100
AcDbLine
 10
114.9696125044
 20
107.7011823665
 30
0.0
 11
114.9696125044
 21
108.2011823903
 31
0.0
  0
LINE
  5
23B
330
1F
100
AcDbEntity
  8
0
  6
HIDDEN
 62
     7
370
     0
100
AcDbLine
 10
113.6696123845
 20
107.7011823665
 30
0.0
 11
113.6696123845
 21
108.2011823903
 31
0.0
  0
LINE
  5
23C
330
1F
100
AcDbEntity
  8
0
  6
HIDDEN
 62
     7
370
     0
100
AcDbLine
 10
111.0696123774
 20
107.7011823665
 30
0.0
 11
111.0696123774
 21
108.2011823903
 31
0.0
  0
LINE
  5
23D
330
1F
100
AcDbEntity
  8
0
  6
HIDDEN
 62
     7
370
     0
100
AcDbLine
 10
102.369612488
 20
117.4159115774
 30
0.0
 11
102.369612488
 21
116.1159119231
 31
0.0
  0
LINE
  5
23E
330
1F
100
AcDbEntity
  8
0
  6
HIDDEN
 62
     7
370
     0
100
AcDbLine
 10
122.3696125067
 20
116.1159119231
 30
0.0
 11
122.3696125067
 21
117.4159115774
 31
0.0
  0
ARC
  5
23F
330
1F
100
AcDbEntity
  8
0
  6
HIDDEN
 62
     7
370
     0
100
AcDbCircle
 10
102.5696123348
 20
117.4159118943
 30
0.0
 40
0.2000000000000028
100
AcDbArc
 50
90.0
 51
180.0
  0
ARC
  5
240
330
1F
100
AcDbEntity
  8
0
  6
HIDDEN
 62
     7
370
     0
100
AcDbCircle
 10
122.1696123348
 20
117.4159118943
 30
0.0
 40
0.2000000000000028
100
AcDbArc
 50
0.0
 51
90.0
  0
LINE
  5
241
330
1F
100
AcDbEntity
  8
0
  6
HIDDEN
 62
     7
370
     0
100
AcDbLine
 10
114.8696122086
 20
116.1159119231
 30
0.0
 11
114.3696121267
 21
116.615912005
 31
0.0
  0
LINE
  5
242
330
1F
100
AcDbEntity
  8
0
  6
HIDDEN
 62
     7
370
     0
100
AcDbLine
 10
110.3696124024
 20
116.615912005
 30
0.0
 11
109.8696123204
 21
116.1159119231
 31
0.0
  0
LINE
  5
243
330
1F
100
AcDbEntity
  8
0
  6
HIDDEN
 62
     7
370
     0
100
AcDbLine
 10
110.3696124024
 20
117.6159121689
 30
0.0
 11
110.3696124024
 21
116.615912005
 31
0.0
  0
LINE
  5
244
330
1F
100
AcDbEntity
  8
0
  6
HIDDEN
 62
     7
370
     0
100
AcDbLine
 10
114.3696121267
 20
116.615912005
 30
0.0
 11
114.3696121267
 21
117.6159121689
 31
0.0
  0
LINE
  5
245
330
1F
100
AcDbEntity
  8
0
  6
HIDDEN
 62
     7
370
     0
100
AcDbLine
 10
122.3696125067
 20
117.6159121689
 30
0.0
 11
122.3696125067
 21
119.6159115655
 31
0.0
  0
LINE
  5
246
330
1F
100
AcDbEntity
  8
0
  6
HIDDEN
 62
     7
370
     0
100
AcDbLine
 10
102.369612488
 20
119.6159115655
 30
0.0
 11
102.369612488
 21
117.6159121689
 31
0.0
  0
LINE
  5
247
330
1F
100
AcDbEntity
  8
0
  6
HIDDEN
 62
     7
370
     0
100
AcDbLine
 10
109.8696123204
 20
139.6159120497
 30
0.0
 11
110.3696124024
 21
139.1159110365
 31
0.0
  0
LINE
  5
248
330
1F
100
AcDbEntity
  8
0
  6
HIDDEN
 62
     7
370
     0
100
AcDbLine
 10
114.3696121267
 20
139.1159110365
 30
0.0
 11
114.8696122086
 21
139.6159120497
 31
0.0
  0
LINE
  5
249
330
1F
100
AcDbEntity
  8
0
  6
HIDDEN
 62
     7
370
     0
100
AcDbLine
 10
110.3696124024
 20
139.1159110365
 30
0.0
 11
110.3696124024
 21
117.6159121689
 31
0.0
  0
LINE
  5
24A
330
1F
100
AcDbEntity
  8
0
  6
HIDDEN
 62
     7
370
     0
100
AcDbLine
 10
114.3696121267
 20
117.6159121689
 30
0.0
 11
114.3696121267
 21
139.1159110365
 31
0.0
  0
ARC
  5
24B
330
1F
100
AcDbEntity
  8
0
  6
HIDDEN
 62
     7
370
     0
100
AcDbCircle
 10
127.6696123348
 20
98.9159118943
 30
0.0
 40
0.2999999999999972
100
AcDbArc
 50
180.0
 51
270.0
  0
ARC
  5
24C
330
1F
100
AcDbEntity
  8
0
  6
HIDDEN
 62
     7
370
     0
100
AcDbCircle
 10
97.0696123348
 20
98.9159118943
 30
0.0
 40
0.2999999999999972
100
AcDbArc
 50
270.0
 51
0.0
  0
LINE
  5
24D
330
1F
100
AcDbEntity
  8
0
  6
HIDDEN
 62
     7
370
     0
100
AcDbLine
 10
124.0621581069
 20
100.2257811499
 30
0.0
 11
123.0326033524
 21
100.5712645722
 31
0.0
  0
LINE
  5
24E
330
1F
100
AcDbEntity
  8
0
  6
HIDDEN
 62
     7
370
     0
100
AcDbLine
 10
127.3696123949
 20
99.1159119305
 30
0.0
 11
127.0086932323
 21
99.2370239121
 31
0.0
  0
LINE
  5
24F
330
1F
100
AcDbEntity
  8
0
  6
HIDDEN
 62
     7
370
     0
100
AcDbLine
 10
97.7305312968
 20
99.2370239121
 30
0.0
 11
97.3696121341
 21
99.1159119305
 31
0.0
  0
LINE
  5
250
330
1F
100
AcDbEntity
  8
0
  6
HIDDEN
 62
     7
370
     0
100
AcDbLine
 10
101.7066216423
 20
100.5712645722
 30
0.0
 11
100.6770664221
 21
100.2257811499
 31
0.0
  0
LINE
  5
251
330
1F
100
AcDbEntity
  8
0
  6
HIDDEN
 62
     7
370
     0
100
AcDbLine
 10
97.3696121341
 20
99.1159119305
 30
0.0
 11
97.3696121341
 21
98.9159122703
 31
0.0
  0
LINE
  5
252
330
1F
100
AcDbEntity
  8
0
  6
HIDDEN
 62
     7
370
     0
100
AcDbLine
 10
127.3696123949
 20
98.9159122703
 30
0.0
 11
127.3696123949
 21
99.1159119305
 31
0.0
  0
ARC
  5
253
330
1F
100
AcDbEntity
  8
0
  6
HIDDEN
 62
     7
370
     0
100
AcDbCircle
 10
98.6849701348
 20
107.6692915763
 30
0.0
 40
1.000000000000001
100
AcDbArc
 50
126.65
 51
236.25
  0
ARC
  5
254
330
1F
100
AcDbEntity
  8
0
  6
HIDDEN
 62
     7
370
     0
100
AcDbCircle
 10
126.0542545348
 20
107.6692915763
 30
0.0
 40
0.9999999999999843
100
AcDbArc
 50
303.75
 51
53.35
  0
LINE
  5
255
330
1F
100
AcDbEntity
  8
0
  6
HIDDEN
 62
     7
370
     0
100
AcDbLine
 10
126.651178985
 20
108.4715884074
 30
0.0
 11
122.3970623082
 21
111.6367388179
 31
0.0
  0
LINE
  5
256
330
1F
100
AcDbEntity
  8
0
  6
HIDDEN
 62
     7
370
     0
100
AcDbLine
 10
102.3421622208
 20
111.6367388179
 30
0.0
 11
98.0880446127
 21
108.4715884074
 31
0.0
  0
LINE
  5
257
330
1F
100
AcDbEntity
  8
0
  6
HIDDEN
 62
     7
370
     0
100
AcDbLine
 10
98.1293999917
 20
106.8378219509
 30
0.0
 11
102.1814979008
 21
104.1302965616
 31
0.0
  0
LINE
  5
258
330
1F
100
AcDbEntity
  8
0
  6
HIDDEN
 62
     7
370
     0
100
AcDbLine
 10
122.5577266282
 20
104.1302965616
 30
0.0
 11
126.6098245374
 21
106.8378219509
 31
0.0
  0
LINE
  5
259
330
1F
100
AcDbEntity
  8
0
  6
HIDDEN
 62
     7
370
     0
100
AcDbLine
 10
106.1587528652
 20
99.6677103114
 30
0.0
 11
106.1587528652
 21
99.4112832134
 31
0.0
  0
LINE
  5
25A
330
1F
100
AcDbEntity
  8
0
  6
HIDDEN
 62
     7
370
     0
100
AcDbLine
 10
118.5804716638
 20
99.4112832134
 30
0.0
 11
118.5804716638
 21
99.6677103114
 31
0.0
  0
LINE
  5
25B
330
1F
100
AcDbEntity
  8
0
  6
HIDDEN
 62
     7
370
     0
100
AcDbLine
 10
115.7270753152
 20
100.2020477911
 30
0.0
 11
115.7270753152
 21
99.6609465812
 31
0.0
  0
LINE
  5
25C
330
1F
100
AcDbEntity
  8
0
  6
HIDDEN
 62
     7
370
     0
100
AcDbLine
 10
109.0121495631
 20
99.6609465812
 30
0.0
 11
109.0121495631
 21
100.2020477911
 31
0.0
  0
ARC
  5
25D
330
1F
100
AcDbEntity
  8
0
  6
HIDDEN
 62
     7
370
     0
100
AcDbCircle
 10
123.6688672171
 20
102.4673574059
 30
0.0
 40
2.000000000000009
100
AcDbArc
 50
123.75
 51
251.45
  0
ARC
  5
25E
330
1F
100
AcDbEntity
  8
0
  6
HIDDEN
 62
     7
370
     0
100
AcDbCircle
 10
101.0703574525
 20
102.4673574059
 30
0.0
 40
2.000000000000009
100
AcDbArc
 50
288.55
 51
56.25
  0
LINE
  5
25F
330
1F
100
AcDbEntity
  8
0
  6
HIDDEN
 62
     7
370
     0
100
AcDbLine
 10
101.8717726088
 20
99.2863607255
 30
0.0
 11
101.8717726088
 21
99.2370239121
 31
0.0
  0
LINE
  5
260
330
1F
100
AcDbEntity
  8
0
  6
HIDDEN
 62
     7
370
     0
100
AcDbLine
 10
122.8674519203
 20
99.2370239121
 30
0.0
 11
122.8674519203
 21
99.2854643275
 31
0.0
  0
ARC
  5
261
330
1F
100
AcDbEntity
  8
0
  6
HIDDEN
 62
     7
370
     0
100
AcDbCircle
 10
102.9390875915
 20
110.8344417677
 30
0.0
 40
1.000000000000001
100
AcDbArc
 50
90.0
 51
126.65
  0
ARC
  5
262
330
1F
100
AcDbEntity
  8
0
  6
HIDDEN
 62
     7
370
     0
100
AcDbCircle
 10
102.9390875915
 20
110.8344417677
 30
0.0
 40
1.0
100
AcDbArc
 50
22.619864948
 51
90.0
  0
ARC
  5
263
330
1F
100
AcDbEntity
  8
0
  6
HIDDEN
 62
     7
370
     0
100
AcDbCircle
 10
121.8001370781
 20
110.8344417677
 30
0.0
 40
1.000000000000001
100
AcDbArc
 50
53.35
 51
90.0
  0
ARC
  5
264
330
1F
100
AcDbEntity
  8
0
  6
HIDDEN
 62
     7
370
     0
100
AcDbCircle
 10
121.8001370781
 20
110.8344417677
 30
0.0
 40
1.0
100
AcDbArc
 50
90.0
 51
157.380135052
  0
LINE
  5
265
330
1F
100
AcDbEntity
  8
0
  6
HIDDEN
 62
     7
370
     0
100
AcDbLine
 10
121.800136692
 20
111.8344418367
 30
0.0
 11
102.9390873714
 21
111.8344418367
 31
0.0
  0
ARC
  5
266
330
1F
100
AcDbEntity
  8
0
  6
HIDDEN
 62
     7
370
     0
100
AcDbCircle
 10
102.5696123348
 20
116.3159118943
 30
0.0
 40
0.2000000000000028
100
AcDbArc
 50
180.0
 51
270.0
  0
ARC
  5
267
330
1F
100
AcDbEntity
  8
0
  6
HIDDEN
 62
     7
370
     0
100
AcDbCircle
 10
122.1696123348
 20
116.3159118943
 30
0.0
 40
0.2000000000000028
100
AcDbArc
 50
270.0
 51
0.0
  0
LINE
  5
268
330
1F
100
AcDbEntity
  8
0
  6
HIDDEN
 62
     7
370
     0
100
AcDbLine
 10
122.3696125067
 20
116.3159115833
 30
0.0
 11
122.3696125067
 21
117.6159121689
 31
0.0
  0
LINE
  5
269
330
1F
100
AcDbEntity
  8
0
  6
HIDDEN
 62
     7
370
     0
100
AcDbLine
 10
102.369612488
 20
117.6159121689
 30
0.0
 11
102.369612488
 21
116.3159115833
 31
0.0
  0
LINE
  5
26A
330
1F
100
AcDbEntity
  8
0
  6
HIDDEN
 62
     7
370
     0
100
AcDbLine
 10
119.7472744948
 20
100.2589688298
 30
0.0
 11
119.7472744948
 21
99.6862040495
 31
0.0
  0
LINE
  5
26B
330
1F
100
AcDbEntity
  8
0
  6
HIDDEN
 62
     7
370
     0
100
AcDbLine
 10
104.9919504999
 20
99.6862040495
 30
0.0
 11
104.9919504999
 21
100.2589688298
 31
0.0
  0
LINE
  5
26C
330
1F
100
AcDbEntity
  8
0
  6
HIDDEN
 62
     7
370
     0
100
AcDbLine
 10
103.8621644816
 20
111.2190569413
 30
0.0
 11
105.1196122403
 21
108.2011823903
 31
0.0
  0
LINE
  5
26D
330
1F
100
AcDbEntity
  8
0
  6
HIDDEN
 62
     7
370
     0
100
AcDbLine
 10
119.6196125216
 20
108.2011823903
 30
0.0
 11
120.8770600474
 21
111.2190569413
 31
0.0
  0
LINE
  5
26E
330
1F
100
AcDbEntity
  8
0
  6
HIDDEN
 62
     7
370
     0
100
AcDbLine
 10
120.3696121788
 20
117.6159121689
 30
0.0
 11
120.3696121788
 21
119.6159115655
 31
0.0
  0
LINE
  5
26F
330
1F
100
AcDbEntity
  8
0
  6
HIDDEN
 62
     7
370
     0
100
AcDbLine
 10
104.3696123502
 20
119.6159115655
 30
0.0
 11
104.3696123502
 21
117.6159121689
 31
0.0
  0
LINE
  5
270
330
1F
100
AcDbEntity
  8
0
  6
HIDDEN
 62
     7
370
     0
100
AcDbLine
 10
112.7457557573
 20
108.2011823903
 30
0.0
 11
112.7457557573
 21
107.7011823665
 31
0.0
  0
LINE
  5
271
330
1F
100
AcDbEntity
  8
0
  6
HIDDEN
 62
     7
370
     0
100
AcDbLine
 10
111.9934687718
 20
107.7011823665
 30
0.0
 11
111.9934687718
 21
108.2011823903
 31
0.0
  0
LINE
  5
272
330
1F
100
AcDbEntity
  8
0
  6
HIDDEN
 62
     7
370
     0
100
AcDbLine
 10
102.1710540495
 20
99.7045599518
 30
0.0
 11
102.1710540495
 21
100.319142047
 31
0.0
  0
LINE
  5
273
330
1F
100
AcDbEntity
  8
0
  6
HIDDEN
 62
     7
370
     0
100
AcDbLine
 10
122.5681704796
 20
100.319142047
 30
0.0
 11
122.5681704796
 21
99.7045599518
 31
0.0
  0
LINE
  5
274
330
1F
100
AcDbEntity
  8
0
  6
HIDDEN
 62
     7
370
     0
100
AcDbLine
 10
115.0974779717
 20
107.7011823665
 30
0.0
 11
115.0974779717
 21
108.2011823903
 31
0.0
  0
LINE
  5
275
330
1F
100
AcDbEntity
  8
0
  6
HIDDEN
 62
     7
370
     0
100
AcDbLine
 10
109.6417465574
 20
108.2011823903
 30
0.0
 11
109.6417465574
 21
107.7011823665
 31
0.0
  0
LINE
  5
276
330
1F
100
AcDbEntity
  8
0
  6
HIDDEN
 62
     7
370
     0
100
AcDbLine
 10
101.5264083958
 20
100.2375619148
 30
0.0
 11
101.5264083958
 21
99.6709908952
 31
0.0
  0
LINE
  5
277
330
1F
100
AcDbEntity
  8
0
  6
HIDDEN
 62
     7
370
     0
100
AcDbLine
 10
123.2128161332
 20
99.6709908952
 30
0.0
 11
123.2128161332
 21
100.2387437631
 31
0.0
  0
LINE
  5
278
330
1F
100
AcDbEntity
  8
0
  6
HIDDEN
 62
     7
370
     0
100
AcDbLine
 10
115.9009225062
 20
108.2011823903
 30
0.0
 11
115.9009225062
 21
107.7011823665
 31
0.0
  0
LINE
  5
279
330
1F
100
AcDbEntity
  8
0
  6
HIDDEN
 62
     7
370
     0
100
AcDbLine
 10
108.8383024885
 20
107.7011823665
 30
0.0
 11
108.8383024885
 21
108.2011823903
 31
0.0
  0
LINE
  5
27A
330
1F
100
AcDbEntity
  8
0
  6
HIDDEN
 62
     7
370
     0
100
AcDbLine
 10
101.597028724
 20
99.7074051422
 30
0.0
 11
101.597028724
 21
100.319142047
 31
0.0
  0
LINE
  5
27B
330
1F
100
AcDbEntity
  8
0
  6
HIDDEN
 62
     7
370
     0
100
AcDbLine
 10
123.1421958051
 20
100.319142047
 30
0.0
 11
123.1421958051
 21
99.7074051422
 31
0.0
  0
LINE
  5
27C
330
1F
100
AcDbEntity
  8
0
  6
HIDDEN
 62
     7
370
     0
100
AcDbLine
 10
113.0889900355
 20
108.2011823903
 30
0.0
 11
113.0889900355
 21
107.7011823665
 31
0.0
  0
LINE
  5
27D
330
1F
100
AcDbEntity
  8
0
  6
HIDDEN
 62
     7
370
     0
100
AcDbLine
 10
111.6502344935
 20
107.7011823665
 30
0.0
 11
111.6502344935
 21
108.2011823903
 31
0.0
  0
LINE
  5
27E
330
1F
100
AcDbEntity
  8
0
  6
HIDDEN
 62
     7
370
     0
100
AcDbLine
 10
118.2526442549
 20
107.7011823665
 30
0.0
 11
118.2526442549
 21
108.2011823903
 31
0.0
  0
LINE
  5
27F
330
1F
100
AcDbEntity
  8
0
  6
HIDDEN
 62
     7
370
     0
100
AcDbLine
 10
106.4865803906
 20
108.2011823903
 30
0.0
 11
106.4865803906
 21
107.7011823665
 31
0.0
  0
LINE
  5
280
330
1F
100
AcDbEntity
  8
0
  6
HIDDEN
 62
     7
370
     0
100
AcDbLine
 10
115.4407122499
 20
107.7011823665
 30
0.0
 11
115.4407122499
 21
108.2011823903
 31
0.0
  0
LINE
  5
281
330
1F
100
AcDbEntity
  8
0
  6
HIDDEN
 62
     7
370
     0
100
AcDbLine
 10
109.298512512
 20
108.2011823903
 30
0.0
 11
109.298512512
 21
107.7011823665
 31
0.0
  0
LINE
  5
282
330
1F
100
AcDbEntity
  8
0
  6
HIDDEN
 62
     7
370
     0
100
AcDbLine
 10
110.3696124024
 20
116.1159119231
 30
0.0
 11
110.3696124024
 21
108.2011823903
 31
0.0
  0
LINE
  5
283
330
1F
100
AcDbEntity
  8
0
  6
HIDDEN
 62
     7
370
     0
100
AcDbLine
 10
114.3696121267
 20
108.2011823903
 30
0.0
 11
114.3696121267
 21
116.1159119231
 31
0.0
  0
LINE
  5
284
330
1F
100
AcDbEntity
  8
0
  6
HIDDEN
 62
     7
370
     0
100
AcDbLine
 10
118.8868358127
 20
107.7011823665
 30
0.0
 11
118.8868358127
 21
108.2011823903
 31
0.0
  0
LINE
  5
285
330
1F
100
AcDbEntity
  8
0
  6
HIDDEN
 62
     7
370
     0
100
AcDbLine
 10
105.8523887164
 20
108.2011823903
 30
0.0
 11
105.8523887164
 21
107.7011823665
 31
0.0
  0
LINE
  5
286
330
1F
100
AcDbEntity
  8
0
  6
HIDDEN
 62
     7
370
     0
100
AcDbLine
 10
100.6782114833
 20
99.6715808881
 30
0.0
 11
97.7305312968
 21
99.2370239121
 31
0.0
  0
LINE
  5
287
330
1F
100
AcDbEntity
  8
0
  6
HIDDEN
 62
     7
370
     0
100
AcDbLine
 10
100.9789159848
 20
99.7116766532
 30
0.0
 11
100.9789159848
 21
100.319142047
 31
0.0
  0
LINE
  5
288
330
1F
100
AcDbEntity
  8
0
  6
HIDDEN
 62
     7
370
     0
100
AcDbLine
 10
123.7603090099
 20
100.319142047
 30
0.0
 11
123.7603090099
 21
99.7116766532
 31
0.0
  0
LINE
  5
289
330
1F
100
AcDbEntity
  8
0
  6
HIDDEN
 62
     7
370
     0
100
AcDbLine
 10
127.0086932323
 20
99.2370239121
 30
0.0
 11
124.0610125801
 21
99.6715808881
 31
0.0
  0
LINE
  5
28A
330
1F
100
AcDbEntity
  8
0
  6
HIDDEN
 62
     7
370
     0
100
AcDbLine
 10
100.6742091245
 20
100.2257303928
 30
0.0
 11
100.6742091245
 21
99.6709908952
 31
0.0
  0
LINE
  5
28B
330
1F
100
AcDbEntity
  8
0
  6
HIDDEN
 62
     7
370
     0
100
AcDbLine
 10
124.0650154046
 20
99.6709908952
 30
0.0
 11
124.0650154046
 21
100.2257303928
 31
0.0
  0
LINE
  5
28C
330
1F
100
AcDbEntity
  8
0
  6
HIDDEN
 62
     7
370
     0
100
AcDbLine
 10
116.2870339445
 20
107.7011823665
 30
0.0
 11
116.2870339445
 21
108.2011823903
 31
0.0
  0
LINE
  5
28D
330
1F
100
AcDbEntity
  8
0
  6
HIDDEN
 62
     7
370
     0
100
AcDbLine
 10
108.4521905264
 20
108.2011823903
 30
0.0
 11
108.4521905264
 21
107.7011823665
 31
0.0
  0
LINE
  5
28E
330
1F
100
AcDbEntity
  8
0
  6
HIDDEN
 62
     7
370
     0
100
AcDbLine
 10
117.1851138911
 20
108.2011823903
 30
0.0
 11
117.1851138911
 21
107.7011823665
 31
0.0
  0
LINE
  5
28F
330
1F
100
AcDbEntity
  8
0
  6
HIDDEN
 62
     7
370
     0
100
AcDbLine
 10
107.5541108053
 20
107.7011823665
 30
0.0
 11
107.5541108053
 21
108.2011823903
 31
0.0
  0
LINE
  5
290
330
1F
100
AcDbEntity
  8
0
  6
HIDDEN
 62
     7
370
     0
100
AcDbLine
 10
114.5853120229
 20
108.2011823903
 30
0.0
 11
114.5853120229
 21
107.7011823665
 31
0.0
  0
LINE
  5
291
330
1F
100
AcDbEntity
  8
0
  6
HIDDEN
 62
     7
370
     0
100
AcDbLine
 10
110.153912739
 20
107.7011823665
 30
0.0
 11
110.153912739
 21
108.2011823903
 31
0.0
  0
LINE
  5
292
330
1F
100
AcDbEntity
  8
0
  6
HIDDEN
 62
     7
370
     0
100
AcDbLine
 10
117.6816699422
 20
107.7011823665
 30
0.0
 11
117.6816699422
 21
108.2011823903
 31
0.0
  0
LINE
  5
293
330
1F
100
AcDbEntity
  8
0
  6
HIDDEN
 62
     7
370
     0
100
AcDbLine
 10
107.0575549943
 20
108.2011823903
 30
0.0
 11
107.0575549943
 21
107.7011823665
 31
0.0
  0
LINE
  5
294
330
1F
100
AcDbEntity
  8
0
  6
HIDDEN
 62
     7
370
     0
100
AcDbLine
 10
113.6696123845
 20
107.7011823665
 30
0.0
 11
113.6696123845
 21
108.2011823903
 31
0.0
  0
LINE
  5
295
330
1F
100
AcDbEntity
  8
0
  6
HIDDEN
 62
     7
370
     0
100
AcDbLine
 10
111.0696123774
 20
108.2011823903
 30
0.0
 11
111.0696123774
 21
107.7011823665
 31
0.0
  0
LINE
  5
296
330
1F
100
AcDbEntity
  8
0
  6
HIDDEN
 62
     7
370
     0
100
AcDbLine
 10
115.9799480206
 20
108.2011823903
 30
0.0
 11
115.9799480206
 21
107.7011823665
 31
0.0
  0
LINE
  5
297
330
1F
100
AcDbEntity
  8
0
  6
HIDDEN
 62
     7
370
     0
100
AcDbLine
 10
108.7592770905
 20
107.7011823665
 30
0.0
 11
108.7592770905
 21
108.2011823903
 31
0.0
  0
LINE
  5
298
330
1F
100
AcDbEntity
  8
0
  6
HIDDEN
 62
     7
370
     0
100
AcDbLine
 10
101.5264083958
 20
100.2387437631
 30
0.0
 11
101.5264083958
 21
100.2375619148
 31
0.0
  0
LINE
  5
299
330
1F
100
AcDbEntity
  8
0
  6
HIDDEN
 62
     7
370
     0
100
AcDbLine
 10
109.1196123139
 20
108.2011823903
 30
0.0
 11
109.1196123139
 21
107.7011823665
 31
0.0
  0
LINE
  5
29A
330
1F
100
AcDbEntity
  8
0
  6
HIDDEN
 62
     7
370
     0
100
AcDbLine
 10
115.6196127972
 20
107.7011823665
 30
0.0
 11
115.6196127972
 21
108.2011823903
 31
0.0
  0
LINE
  5
29B
330
1F
100
AcDbEntity
  8
0
  6
HIDDEN
 62
     7
370
     0
100
AcDbLine
 10
113.0196125573
 20
108.2011823903
 30
0.0
 11
113.0196125573
 21
107.7011823665
 31
0.0
  0
LINE
  5
29C
330
1F
100
AcDbEntity
  8
0
  6
HIDDEN
 62
     7
370
     0
100
AcDbLine
 10
111.7196124374
 20
107.7011823665
 30
0.0
 11
111.7196124374
 21
108.2011823903
 31
0.0
  0
LINE
  5
29D
330
1F
100
AcDbEntity
  8
0
  6
HIDDEN
 62
     7
370
     0
100
AcDbLine
 10
122.8674519203
 20
99.2854643275
 30
0.0
 11
122.8674519203
 21
99.2863607255
 31
0.0
  0
LINE
  5
29E
330
1F
100
AcDbEntity
  8
0
  6
HIDDEN
 62
     7
370
     0
100
AcDbLine
 10
127.5949552051
 20
109.2651056253
 30
0.0
 11
97.144269324
 21
109.2651056253
 31
0.0
  0
LINE
  5
29F
330
1F
100
AcDbEntity
  8
0
  6
HIDDEN
 62
     7
370
     0
100
AcDbLine
 10
112.3696122645
 20
105.9975725959
 30
0.0
 11
127.5122463099
 21
105.9975725959
 31
0.0
  0
LINE
  5
2A0
330
1F
100
AcDbEntity
  8
0
  6
HIDDEN
 62
     7
370
     0
100
AcDbLine
 10
97.2269791505
 20
105.9975725959
 30
0.0
 11
112.3696122645
 21
105.9975725959
 31
0.0
  0
LINE
  5
2A1
330
1F
100
AcDbEntity
  8
0
  6
HIDDEN
 62
     7
370
     0
100
AcDbLine
 10
128.1650512806
 20
100.1147502695
 30
0.0
 11
96.5741723171
 21
100.1147502695
 31
0.0
  0
LINE
  5
2A2
330
1F
100
AcDbEntity
  8
0
  6
HIDDEN
 62
     7
370
     0
100
AcDbLine
 10
112.3696122645
 20
99.8303364624
 30
0.0
 11
128.3696125588
 21
99.8303364624
 31
0.0
  0
LINE
  5
2A3
330
1F
100
AcDbEntity
  8
0
  6
HIDDEN
 62
     7
370
     0
100
AcDbLine
 10
96.3696119702
 20
99.8303364624
 30
0.0
 11
112.3696122645
 21
99.8303364624
 31
0.0
  0
LINE
  5
2A4
330
1F
100
AcDbEntity
  8
0
  6
HIDDEN
 62
     7
370
     0
100
AcDbLine
 10
112.3696122645
 20
98.9159122703
 30
0.0
 11
96.3696119702
 21
98.9159122703
 31
0.0
  0
LINE
  5
2A5
330
1F
100
AcDbEntity
  8
0
  6
HIDDEN
 62
     7
370
     0
100
AcDbLine
 10
128.3696125588
 20
98.9159122703
 30
0.0
 11
112.3696122645
 21
98.9159122703
 31
0.0
  0
LINE
  5
2A6
330
1F
100
AcDbEntity
  8
0
  6
HIDDEN
 62
     7
370
     0
100
AcDbLine
 10
112.3696122645
 20
101.5793290583
 30
0.0
 11
123.8005495957
 21
101.5793290583
 31
0.0
  0
LINE
  5
2A7
330
1F
100
AcDbEntity
  8
0
  6
HIDDEN
 62
     7
370
     0
100
AcDbLine
 10
100.9386758647
 20
101.5793290583
 30
0.0
 11
112.3696122645
 21
101.5793290583
 31
0.0
  0
LINE
  5
2A8
330
1F
100
AcDbEntity
  8
0
  6
HIDDEN
 62
     7
370
     0
100
AcDbLine
 10
123.3082077793
 20
112.454534102
 30
0.0
 11
101.4310176811
 21
112.454534102
 31
0.0
  0
LINE
  5
2A9
330
1F
100
AcDbEntity
  8
0
  6
HIDDEN
 62
     7
370
     0
100
AcDbLine
 10
123.5631107679
 20
103.358845053
 30
0.0
 11
101.1761137611
 21
103.358845053
 31
0.0
  0
LINE
  5
2AA
330
1F
100
AcDbEntity
  8
0
  6
HIDDEN
 62
     7
370
     0
100
AcDbLine
 10
124.3696119032
 20
115.8340732229
 30
0.0
 11
100.3696121602
 21
115.8340732229
 31
0.0
  0
LINE
  5
2AB
330
1F
100
AcDbEntity
  8
0
  6
HIDDEN
 62
     7
370
     0
100
AcDbLine
 10
123.393291547
 20
114.1159120609
 30
0.0
 11
101.3459325163
 21
114.1159120609
 31
0.0
  0
DIMENSION
  5
2AC
330
1F
100
AcDbEntity
  8
0
  6
Continuous
 62
     7
370
     0
100
AcDbDimension
  2
*D2
 10
128.3696123348
 20
87.0841287582
 30
0.0
 11
112.3696123348
 21
87.0841287582
 31
0.0
 70
   160
  1
(%%c<>)
 71
     2
 42
-1.0
  3
SLDDIMSTYLE0
100
AcDbAlignedDimension
 13
96.3696123348
 23
98.9159118943
 33
0.0
 14
128.3696123348
 24
98.9159118943
 34
0.0
100
AcDbRotatedDimension
  0
DIMENSION
  5
2C0
330
1F
100
AcDbEntity
  8
0
  6
Continuous
 62
     7
370
     0
100
AcDbDimension
  2
*D3
 10
147.5053183013
 20
107.7011823839
 30
0.0
 11
147.5053183013
 21
103.1585471391
 31
0.0
 70
   160
  1
(<>)
 71
     2
 42
-1.0
  3
SLDDIMSTYLE1
100
AcDbAlignedDimension
 13
128.0696123348
 23
98.6159118943
 33
0.0
 14
118.8868359573
 24
107.7011823839
 34
0.0
 50
90.0
100
AcDbRotatedDimension
  0
DIMENSION
  5
2CF
330
1F
100
AcDbEntity
  8
0
  6
Continuous
 62
     7
370
     0
100
AcDbDimension
  2
*D4
 10
80.9612083981
 20
139.6159118943
 30
0.0
 11
80.9612083981
 21
119.1159118943
 31
0.0
 70
   160
 71
     2
 42
-1.0
  3
SLDDIMSTYLE0
100
AcDbAlignedDimension
 13
96.6696123348
 23
98.6159118943
 33
0.0
 14
108.3696123348
 24
139.6159118943
 34
0.0
 50
90.0
100
AcDbRotatedDimension
  0
DIMENSION
  5
2D9
330
1F
100
AcDbEntity
  8
0
  6
Continuous
 62
     7
370
     0
100
AcDbDimension
  2
*D5
 10
96.7849020469
 20
129.6159118943
 30
0.0
 11
96.7849020469
 21
134.6159118943
 31
0.0
 70
   160
 71
     2
 42
-1.0
  3
SLDDIMSTYLE1
100
AcDbAlignedDimension
 13
108.3696123348
 23
139.6159118943
 33
0.0
 14
104.3696123348
 24
129.6159118943
 34
0.0
 50
90.0
100
AcDbRotatedDimension
  0
DIMENSION
  5
2E5
330
1F
100
AcDbEntity
  8
0
  6
Continuous
 62
     7
370
     0
100
AcDbDimension
  2
*D6
 10
88.8256788942
 20
139.6159118943
 30
0.0
 11
88.8256788942
 21
129.6159118943
 31
0.0
 70
   160
 71
     2
 42
-1.0
  3
SLDDIMSTYLE0
100
AcDbAlignedDimension
 13
100.3696123348
 23
119.6159118943
 33
0.0
 14
109.8696123348
 24
139.6159118943
 34
0.0
 50
90.0
100
AcDbRotatedDimension
  0
INSERT
  5
2F9
330
1F
100
AcDbEntity
  8
0
  6
Continuous
 62
     7
370
     0
100
AcDbBlockReference
  2
SW_NOTE_0
 10
135.2335073377
 20
154.6125276374
 30
0.0
  0
LEADER
  5
2FB
330
1F
100
AcDbEntity
  8
0
  6
Continuous
 62
     7
370
     0
100
AcDbLeader
  3
SLDDIMSTYLE2
 76
     2
 10
117.3696123348
 20
134.2833885364
 30
0.0
 10
135.2335073377
 20
154.6125276374
 30
0.0
  0
CIRCLE
  5
2FC
330
1F
100
AcDbEntity
  8
0
  6
Continuous
 62
     7
370
    30
100
AcDbCircle
 10
112.3696123348
 20
204.7204229075
 30
0.0
 40
16.03149290910429
  0
CIRCLE
  5
2FD
330
1F
100
AcDbEntity
  8
0
  6
Continuous
 62
     7
370
    30
100
AcDbCircle
 10
112.3696123348
 20
204.7204229075
 30
0.0
 40
4.0
  0
CIRCLE
  5
2FE
330
1F
100
AcDbEntity
  8
0
  6
Continuous
 62
     7
370
    30
100
AcDbCircle
 10
112.3696123348
 20
204.7204229075
 30
0.0
 40
5.000000000000028
  0
CIRCLE
  5
2FF
330
1F
100
AcDbEntity
  8
0
  6
Continuous
 62
     7
370
    30
100
AcDbCircle
 10
112.3696123348
 20
204.7204229075
 30
0.0
 40
2.500000000000028
  0
CIRCLE
  5
300
330
1F
100
AcDbEntity
  8
0
  6
Continuous
 62
     7
370
    30
100
AcDbCircle
 10
112.3696123348
 20
204.7204229075
 30
0.0
 40
2.000000000000028
  0
ARC
  5
301
330
1F
100
AcDbEntity
  8
0
  6
Continuous
 62
     7
370
    30
100
AcDbCircle
 10
112.3696123348
 20
204.7204229075
 30
0.0
 40
9.49999999999998
100
AcDbArc
 50
32.6368975036
 51
147.3631024964
  0
LINE
  5
302
330
1F
100
AcDbEntity
  8
0
  6
Continuous
 62
     7
370
    30
100
AcDbLine
 10
120.3696121788
 20
199.596947341
 30
0.0
 11
120.3696121788
 21
209.843898474
 31
0.0
  0
ARC
  5
303
330
1F
100
AcDbEntity
  8
0
  6
Continuous
 62
     7
370
    30
100
AcDbCircle
 10
112.3696123348
 20
204.7204229075
 30
0.0
 40
9.500000000000014
100
AcDbArc
 50
212.6368975036
 51
327.3631024964
  0
LINE
  5
304
330
1F
100
AcDbEntity
  8
0
  6
Continuous
 62
     7
370
    30
100
AcDbLine
 10
104.3696123502
 20
209.843898474
 30
0.0
 11
104.3696123502
 21
199.596947341
 31
0.0
  0
SPLINE
  5
305
330
1F
100
AcDbEntity
  8
0
  6
Continuous
 62
     7
370
    30
100
AcDbSpline
210
0.0
220
0.0
230
1.0
 70
     8
 71
     3
 72
     8
 73
     4
 74
     0
 42
0.00000001
 43
0.00000001
 40
0.0
 40
0.0
 40
0.0
 40
0.0
 40
0.0007216906218459
 40
0.0007216906218459
 40
0.0007216906218459
 40
0.0007216906218459
 10
103.8696123348017
 20
209.9882497839154
 30
0.0
 10
104.0363698082694
 20
209.9407660271274
 30
0.0
 10
104.2030401817915
 20
209.892665623351
 30
0.0
 10
104.3696123348017
 20
209.8438982904688
 30
0.0
  0
ARC
  5
306
330
1F
100
AcDbEntity
  8
0
  6
Continuous
 62
     7
370
    30
100
AcDbCircle
 10
112.3696123348
 20
204.7204229075
 30
0.0
 40
9.999999999999986
100
AcDbArc
 50
31.7883306171
 51
148.2116693829
  0
SPLINE
  5
307
330
1F
100
AcDbEntity
  8
0
  6
Continuous
 62
     7
370
    30
100
AcDbSpline
210
0.0
220
0.0
230
1.0
 70
     8
 71
     3
 72
     8
 73
     4
 74
     0
 42
0.00000001
 43
0.00000001
 40
0.0
 40
0.0
 40
0.0
 40
0.0
 40
0.0007216906218459
 40
0.0007216906218459
 40
0.0007216906218459
 40
0.0007216906218459
 10
120.3696123348017
 20
209.8438982904688
 30
0.0
 10
120.536184487812
 20
209.892665623351
 30
0.0
 10
120.702854861334
 20
209.9407660271274
 30
0.0
 10
120.8696123348017
 20
209.9882497839154
 30
0.0
  0
LINE
  5
308
330
1F
100
AcDbEntity
  8
0
  6
Continuous
 62
     7
370
    30
100
AcDbLine
 10
120.8696122608
 20
209.9882497478
 30
0.0
 11
120.8696122608
 21
199.4525960672
 31
0.0
  0
SPLINE
  5
309
330
1F
100
AcDbEntity
  8
0
  6
Continuous
 62
     7
370
    30
100
AcDbSpline
210
0.0
220
0.0
230
1.0
 70
     8
 71
     3
 72
     8
 73
     4
 74
     0
 42
0.00000001
 43
0.00000001
 40
0.0
 40
0.0
 40
0.0
 40
0.0
 40
0.0007216906218459
 40
0.0007216906218459
 40
0.0007216906218459
 40
0.0007216906218459
 10
120.3696123348017
 20
199.5969475245092
 30
0.0
 10
120.536184487812
 20
199.548180191627
 30
0.0
 10
120.702854861334
 20
199.5000797878506
 30
0.0
 10
120.8696123348017
 20
199.4525960310626
 30
0.0
  0
SPLINE
  5
30A
330
1F
100
AcDbEntity
  8
0
  6
Continuous
 62
     7
370
    30
100
AcDbSpline
210
0.0
220
0.0
230
1.0
 70
     8
 71
     3
 72
     8
 73
     4
 74
     0
 42
0.00000001
 43
0.00000001
 40
0.0
 40
0.0
 40
0.0
 40
0.0
 40
0.0007216906218459
 40
0.0007216906218459
 40
0.0007216906218459
 40
0.0007216906218459
 10
103.8696123348017
 20
199.4525960310626
 30
0.0
 10
104.0363698082694
 20
199.5000797878506
 30
0.0
 10
104.2030401817915
 20
199.548180191627
 30
0.0
 10
104.3696123348017
 20
199.5969475245092
 30
0.0
  0
LINE
  5
30B
330
1F
100
AcDbEntity
  8
0
  6
Continuous
 62
     7
370
    30
100
AcDbLine
 10
103.8696122683
 20
199.4525960672
 30
0.0
 11
103.8696122683
 21
209.9882497478
 31
0.0
  0
ARC
  5
30C
330
1F
100
AcDbEntity
  8
0
  6
Continuous
 62
     7
370
    30
100
AcDbCircle
 10
112.3696123348
 20
204.7204229075
 30
0.0
 40
10.00000000000001
100
AcDbArc
 50
211.7883306171
 51
328.2116693829
  0
ARC
  5
30D
330
1F
100
AcDbEntity
  8
0
  6
Continuous
 62
     7
370
    30
100
AcDbCircle
 10
112.3696123348
 20
204.7204229075
 30
0.0
 40
10.0
100
AcDbArc
 50
148.2116693829
 51
211.7883306171
  0
ARC
  5
30E
330
1F
100
AcDbEntity
  8
0
  6
Continuous
 62
     7
370
    30
100
AcDbCircle
 10
112.3696123348
 20
204.7204229075
 30
0.0
 40
10.00000000000001
100
AcDbArc
 50
328.2116693829
 51
31.7883306171
  0
CIRCLE
  5
30F
330
1F
100
AcDbEntity
  8
0
  6
Continuous
 62
     7
370
    30
100
AcDbCircle
 10
112.3696123348
 20
204.7204229075
 30
0.0
 40
12.00000000000003
  0
CIRCLE
  5
310
330
1F
100
AcDbEntity
  8
0
  6
Continuous
 62
     7
370
    30
100
AcDbCircle
 10
112.3696123348
 20
204.7204229075
 30
0.0
 40
15.22534338562997
  0
DIMENSION
  5
311
330
1F
100
AcDbEntity
  8
0
  6
Continuous
 62
     7
370
     0
100
AcDbDimension
  2
*D8
 10
103.8696123348
 20
232.0490463685
 30
0.0
 11
112.3696123348
 21
232.0490463685
 31
0.0
 70
   160
 71
     2
 42
-1.0
  3
SLDDIMSTYLE1
100
AcDbAlignedDimension
 13
120.8696123348
 23
209.9882497839
 33
0.0
 14
103.8696123348
 24
209.9882497839
 34
0.0
100
AcDbRotatedDimension
  0
ENDSEC
  0
SECTION
  2
OBJECTS
  0
DICTIONARY
  5
C
330
0
100
AcDbDictionary
281
     1
  3
ACAD_GROUP
350
D
  3
ACAD_LAYOUT
350
1A
  3
ACAD_MLINESTYLE
350
17
  3
ACAD_PLOTSETTINGS
350
19
  3
ACAD_PLOTSTYLENAME
350
E
  3
ACAD_SCALELIST
350
4D
  3
AcDbVariableDictionary
350
31D
  0
DICTIONARY
  5
D
102
{ACAD_REACTORS
330
C
102
}
330
C
100
AcDbDictionary
281
     1
  0
DICTIONARY
  5
1A
102
{ACAD_REACTORS
330
C
102
}
330
C
100
AcDbDictionary
281
     1
  3
Layout1
350
1E
  3
Layout2
350
26
  3
Model
350
22
  0
DICTIONARY
  5
17
102
{ACAD_REACTORS
330
C
102
}
330
C
100
AcDbDictionary
281
     1
  3
Standard
350
18
  0
DICTIONARY
  5
19
102
{ACAD_REACTORS
330
C
102
}
330
C
100
AcDbDictionary
281
     1
  0
ACDBDICTIONARYWDFLT
  5
E
102
{ACAD_REACTORS
330
C
102
}
330
C
100
AcDbDictionary
281
     1
  3
Normal
350
F
100
AcDbDictionaryWithDefault
340
F
  0
DICTIONARY
  5
4D
102
{ACAD_REACTORS
330
C
102
}
330
C
100
AcDbDictionary
281
     1
  3
A0
350
4E
  3
A1
350
4F
  3
A2
350
50
  3
A3
350
51
  3
A4
350
52
  3
A5
350
53
  3
A6
350
54
  3
A7
350
55
  3
A8
350
56
  3
A9
350
57
  3
B0
350
58
  3
B1
350
59
  3
B2
350
5A
  3
B3
350
5B
  3
B4
350
5C
  3
B5
350
5D
  3
B6
350
5E
  3
B7
350
5F
  3
B8
350
60
  3
B9
350
61
  3
C0
350
62
  3
C1
350
63
  3
C2
350
64
  3
C3
350
65
  3
C4
350
66
  3
C5
350
67
  3
C6
350
68
  3
C7
350
69
  3
C8
350
6A
  3
C9
350
6B
  3
D0
350
6C
  3
D1
350
6D
  3
D2
350
6E
  0
DICTIONARY
  5
31D
102
{ACAD_REACTORS
330
C
102
}
330
C
100
AcDbDictionary
281
     1
  3
CANNOSCALE
350
31E
  0
LAYOUT
  5
1E
102
{ACAD_REACTORS
330
1A
102
}
330
1A
100
AcDbPlotSettings
  1

  2
none_device
  4

  6

 40
0.0
 41
0.0
 42
0.0
 43
0.0
 44
0.0
 45
0.0
 46
0.0
 47
0.0
 48
0.0
 49
0.0
140
0.0
141
0.0
142
1.0
143
1.0
 70
   688
 72
     0
 73
     0
 74
     5
  7

 75
    16
147
1.0
148
0.0
149
0.0
100
AcDbLayout
  1
Layout1
 70
     1
 71
     1
 10
0.0
 20
0.0
 11
420.0
 21
297.0
 12
0.0
 22
0.0
 32
0.0
 14
1.0000000000E+20
 24
1.0000000000E+20
 34
1.0000000000E+20
 15
-1.0000000000E+20
 25
-1.0000000000E+20
 35
-1.0000000000E+20
146
0.0
 13
0.0
 23
0.0
 33
0.0
 16
1.0
 26
0.0
 36
0.0
 17
0.0
 27
1.0
 37
0.0
 76
     0
330
1B
  0
LAYOUT
  5
26
102
{ACAD_REACTORS
330
1A
102
}
330
1A
100
AcDbPlotSettings
  1

  2
none_device
  4

  6

 40
0.0
 41
0.0
 42
0.0
 43
0.0
 44
0.0
 45
0.0
 46
0.0
 47
0.0
 48
0.0
 49
0.0
140
0.0
141
0.0
142
1.0
143
1.0
 70
   688
 72
     0
 73
     0
 74
     5
  7

 75
    16
147
1.0
148
0.0
149
0.0
100
AcDbLayout
  1
Layout2
 70
     1
 71
     2
 10
0.0
 20
0.0
 11
0.0
 21
0.0
 12
0.0
 22
0.0
 32
0.0
 14
0.0
 24
0.0
 34
0.0
 15
0.0
 25
0.0
 35
0.0
146
0.0
 13
0.0
 23
0.0
 33
0.0
 16
1.0
 26
0.0
 36
0.0
 17
0.0
 27
1.0
 37
0.0
 76
     0
330
23
  0
LAYOUT
  5
22
102
{ACAD_REACTORS
330
1A
102
}
330
1A
100
AcDbPlotSettings
  1

  2
none_device
  4

  6

 40
0.0
 41
0.0
 42
0.0
 43
0.0
 44
0.0
 45
0.0
 46
0.0
 47
0.0
 48
0.0
 49
0.0
140
0.0
141
0.0
142
1.0
143
1.0
 70
  1712
 72
     0
 73
     0
 74
     0
  7

 75
     0
147
1.0
148
0.0
149
0.0
100
AcDbLayout
  1
Model
 70
     1
 71
     0
 10
0.0
 20
0.0
 11
210.0
 21
297.0
 12
0.0
 22
0.0
 32
0.0
 14
0.0
 24
0.0
 34
0.0
 15
210.0
 25
297.0
 35
0.0
146
0.0
 13
0.0
 23
0.0
 33
0.0
 16
1.0
 26
0.0
 36
0.0
 17
0.0
 27
1.0
 37
0.0
 76
     0
330
1F
331
29
  0
MLINESTYLE
  5
18
102
{ACAD_REACTORS
330
17
102
}
330
17
100
AcDbMlineStyle
  2
Standard
 70
     0
  3

 62
   256
 51
90.0
 52
90.0
 71
     2
 49
0.5
 62
   256
  6
BYLAYER
 49
-0.5
 62
   256
  6
BYLAYER
  0
ACDBPLACEHOLDER
  5
F
102
{ACAD_REACTORS
330
E
102
}
330
E
  0
SCALE
  5
4E
102
{ACAD_REACTORS
330
4D
102
}
330
4D
100
AcDbScale
 70
     0
300
1:1
140
1.0
141
1.0
290
     1
  0
SCALE
  5
4F
102
{ACAD_REACTORS
330
4D
102
}
330
4D
100
AcDbScale
 70
     0
300
1:2
140
1.0
141
2.0
290
     0
  0
SCALE
  5
50
102
{ACAD_REACTORS
330
4D
102
}
330
4D
100
AcDbScale
 70
     0
300
1:4
140
1.0
141
4.0
290
     0
  0
SCALE
  5
51
102
{ACAD_REACTORS
330
4D
102
}
330
4D
100
AcDbScale
 70
     0
300
1:5
140
1.0
141
5.0
290
     0
  0
SCALE
  5
52
102
{ACAD_REACTORS
330
4D
102
}
330
4D
100
AcDbScale
 70
     0
300
1:8
140
1.0
141
8.0
290
     0
  0
SCALE
  5
53
102
{ACAD_REACTORS
330
4D
102
}
330
4D
100
AcDbScale
 70
     0
300
1:10
140
1.0
141
10.0
290
     0
  0
SCALE
  5
54
102
{ACAD_REACTORS
330
4D
102
}
330
4D
100
AcDbScale
 70
     0
300
1:16
140
1.0
141
16.0
290
     0
  0
SCALE
  5
55
102
{ACAD_REACTORS
330
4D
102
}
330
4D
100
AcDbScale
 70
     0
300
1:20
140
1.0
141
20.0
290
     0
  0
SCALE
  5
56
102
{ACAD_REACTORS
330
4D
102
}
330
4D
100
AcDbScale
 70
     0
300
1:30
140
1.0
141
30.0
290
     0
  0
SCALE
  5
57
102
{ACAD_REACTORS
330
4D
102
}
330
4D
100
AcDbScale
 70
     0
300
1:40
140
1.0
141
40.0
290
     0
  0
SCALE
  5
58
102
{ACAD_REACTORS
330
4D
102
}
330
4D
100
AcDbScale
 70
     0
300
1:50
140
1.0
141
50.0
290
     0
  0
SCALE
  5
59
102
{ACAD_REACTORS
330
4D
102
}
330
4D
100
AcDbScale
 70
     0
300
1:100
140
1.0
141
100.0
290
     0
  0
SCALE
  5
5A
102
{ACAD_REACTORS
330
4D
102
}
330
4D
100
AcDbScale
 70
     0
300
2:1
140
2.0
141
1.0
290
     0
  0
SCALE
  5
5B
102
{ACAD_REACTORS
330
4D
102
}
330
4D
100
AcDbScale
 70
     0
300
4:1
140
4.0
141
1.0
290
     0
  0
SCALE
  5
5C
102
{ACAD_REACTORS
330
4D
102
}
330
4D
100
AcDbScale
 70
     0
300
8:1
140
8.0
141
1.0
290
     0
  0
SCALE
  5
5D
102
{ACAD_REACTORS
330
4D
102
}
330
4D
100
AcDbScale
 70
     0
300
10:1
140
10.0
141
1.0
290
     0
  0
SCALE
  5
5E
102
{ACAD_REACTORS
330
4D
102
}
330
4D
100
AcDbScale
 70
     0
300
100:1
140
100.0
141
1.0
290
     0
  0
SCALE
  5
5F
102
{ACAD_REACTORS
330
4D
102
}
330
4D
100
AcDbScale
 70
     0
300
1/128" = 1'-0"
140
0.0078125
141
12.0
290
     0
  0
SCALE
  5
60
102
{ACAD_REACTORS
330
4D
102
}
330
4D
100
AcDbScale
 70
     0
300
1/64" = 1'-0"
140
0.015625
141
12.0
290
     0
  0
SCALE
  5
61
102
{ACAD_REACTORS
330
4D
102
}
330
4D
100
AcDbScale
 70
     0
300
1/32" = 1'-0"
140
0.03125
141
12.0
290
     0
  0
SCALE
  5
62
102
{ACAD_REACTORS
330
4D
102
}
330
4D
100
AcDbScale
 70
     0
300
1/16" = 1'-0"
140
0.0625
141
12.0
290
     0
  0
SCALE
  5
63
102
{ACAD_REACTORS
330
4D
102
}
330
4D
100
AcDbScale
 70
     0
300
3/32" = 1'-0"
140
0.09375
141
12.0
290
     0
  0
SCALE
  5
64
102
{ACAD_REACTORS
330
4D
102
}
330
4D
100
AcDbScale
 70
     0
300
1/8" = 1'-0"
140
0.125
141
12.0
290
     0
  0
SCALE
  5
65
102
{ACAD_REACTORS
330
4D
102
}
330
4D
100
AcDbScale
 70
     0
300
3/16" = 1'-0"
140
0.1875
141
12.0
290
     0
  0
SCALE
  5
66
102
{ACAD_REACTORS
330
4D
102
}
330
4D
100
AcDbScale
 70
     0
300
1/4" = 1'-0"
140
0.25
141
12.0
290
     0
  0
SCALE
  5
67
102
{ACAD_REACTORS
330
4D
102
}
330
4D
100
AcDbScale
 70
     0
300
3/8" = 1'-0"
140
0.375
141
12.0
290
     0
  0
SCALE
  5
68
102
{ACAD_REACTORS
330
4D
102
}
330
4D
100
AcDbScale
 70
     0
300
1/2" = 1'-0"
140
0.5
141
12.0
290
     0
  0
SCALE
  5
69
102
{ACAD_REACTORS
330
4D
102
}
330
4D
100
AcDbScale
 70
     0
300
3/4" = 1'-0"
140
0.75
141
12.0
290
     0
  0
SCALE
  5
6A
102
{ACAD_REACTORS
330
4D
102
}
330
4D
100
AcDbScale
 70
     0
300
1" = 1'-0"
140
1.0
141
12.0
290
     0
  0
SCALE
  5
6B
102
{ACAD_REACTORS
330
4D
102
}
330
4D
100
AcDbScale
 70
     0
300
1-1/2" = 1'-0"
140
1.5
141
12.0
290
     0
  0
SCALE
  5
6C
102
{ACAD_REACTORS
330
4D
102
}
330
4D
100
AcDbScale
 70
     0
300
3" = 1'-0"
140
3.0
141
12.0
290
     0
  0
SCALE
  5
6D
102
{ACAD_REACTORS
330
4D
102
}
330
4D
100
AcDbScale
 70
     0
300
6" = 1'-0"
140
6.0
141
12.0
290
     0
  0
SCALE
  5
6E
102
{ACAD_REACTORS
330
4D
102
}
330
4D
100
AcDbScale
 70
     0
300
1'-0" = 1'-0"
140
12.0
141
12.0
290
     0
  0
DICTIONARYVAR
  5
31E
102
{ACAD_REACTORS
330
31D
102
}
330
31D
100
DictionaryVariables
280
     0
  1
1:1
  0
ENDSEC
  0
EOF
