  0
SECTION
  2
HEADER
  9
$ACADVER
  1
AC1015
  9
$ACADMAINTVER
 70
     6
  9
$DWGCODEPAGE
  3
DOS932
  9
$INSBASE
 10
0.0
 20
0.0
 30
0.0
  9
$EXTMIN
 10
0.0
 20
0.0
 30
0.0
  9
$EXTMAX
 10
210.0
 20
297.0
 30
0.0
  9
$LIMMIN
 10
0.0
 20
0.0
  9
$LIMMAX
 10
210.0
 20
297.0
  9
$ORTHOMODE
 70
     0
  9
$REGENMODE
 70
     1
  9
$FILLMODE
 70
     1
  9
$QTEXTMODE
 70
     0
  9
$MIRRTEXT
 70
     1
  9
$LTSCALE
 40
1.0
  9
$ATTMODE
 70
     1
  9
$TEXTSIZE
 40
3.5
  9
$TRACEWID
 40
1.0
  9
$TEXTSTYLE
  7
Standard
  9
$CLAYER
  8
0
  9
$CELTYPE
  6
ByLayer
  9
$CECOLOR
 62
   256
  9
$CELTSCALE
 40
1.0
  9
$DISPSILH
 70
     0
  9
$DIMSCALE
 40
1.0
  9
$DIMASZ
 40
3.0
  9
$DIMEXO
 40
1.0
  9
$DIMDLI
 40
3.75
  9
$DIMRND
 40
0.0
  9
$DIMDLE
 40
0.0
  9
$DIMEXE
 40
1.0
  9
$DIMTP
 40
0.0
  9
$DIMTM
 40
0.0
  9
$DIMTXT
 40
3.5
  9
$DIMCEN
 40
2.5
  9
$DIMTSZ
 40
0.0
  9
$DIMTOL
 70
     0
  9
$DIMLIM
 70
     0
  9
$DIMTIH
 70
     1
  9
$DIMTOH
 70
     1
  9
$DIMSE1
 70
     0
  9
$DIMSE2
 70
     0
  9
$DIMTAD
 70
     1
  9
$DIMZIN
 70
     0
  9
$DIMBLK
  1

  9
$DIMASO
 70
     1
  9
$DIMSHO
 70
     1
  9
$DIMPOST
  1

  9
$DIMAPOST
  1

  9
$DIMALT
 70
     0
  9
$DIMALTD
 70
     3
  9
$DIMALTF
 40
0.0393700787
  9
$DIMLFAC
 40
1.0
  9
$DIMTOFL
 70
     1
  9
$DIMTVP
 40
0.0
  9
$DIMTIX
 70
     0
  9
$DIMSOXD
 70
     0
  9
$DIMSAH
 70
     0
  9
$DIMBLK1
  1

  9
$DIMBLK2
  1

  9
$DIMSTYLE
  2
ISO-25
  9
$DIMCLRD
 70
     0
  9
$DIMCLRE
 70
     0
  9
$DIMCLRT
 70
     0
  9
$DIMTFAC
 40
1.0
  9
$DIMGAP
 40
1.524
  9
$DIMJUST
 70
     0
  9
$DIMSD1
 70
     0
  9
$DIMSD2
 70
     0
  9
$DIMTOLJ
 70
     0
  9
$DIMTZIN
 70
     0
  9
$DIMALTZ
 70
     0
  9
$DIMALTTZ
 70
     0
  9
$DIMUPT
 70
     0
  9
$DIMDEC
 70
     1
  9
$DIMTDEC
 70
     3
  9
$DIMALTU
 70
     2
  9
$DIMALTTD
 70
     3
  9
$DIMTXSTY
  7
Standard
  9
$DIMAUNIT
 70
     0
  9
$DIMADEC
 70
     2
  9
$DIMALTRND
 40
0.0
  9
$DIMAZIN
 70
     0
  9
$DIMDSEP
 70
    44
  9
$DIMATFIT
 70
     3
  9
$DIMFRAC
 70
     0
  9
$DIMLDRBLK
  1

  9
$DIMLUNIT
 70
     2
  9
$DIMLWD
 70
    -2
  9
$DIMLWE
 70
    -2
  9
$DIMTMOVE
 70
     0
  9
$LUNITS
 70
     2
  9
$LUPREC
 70
     1
  9
$SKETCHINC
 40
1.0
  9
$FILLETRAD
 40
10.0
  9
$AUNITS
 70
     0
  9
$AUPREC
 70
     2
  9
$MENU
  1
.
  9
$ELEVATION
 40
0.0
  9
$PELEVATION
 40
0.0
  9
$THICKNESS
 40
0.0
  9
$LIMCHECK
 70
     0
  9
$CHAMFERA
 40
10.0
  9
$CHAMFERB
 40
10.0
  9
$CHAMFERC
 40
20.0
  9
$CHAMFERD
 40
0.0
  9
$SKPOLY
 70
     0
  9
$TDCREATE
 40
2456029.837826968
  9
$TDUCREATE
 40
2456029.462826968
  9
$TDUPDATE
 40
2456029.837826979
  9
$TDUUPDATE
 40
2456029.462826979
  9
$TDINDWG
 40
0.0000000116
  9
$TDUSRTIMER
 40
0.0000000116
  9
$USRTIMER
 70
     1
  9
$ANGBASE
 50
0.0
  9
$ANGDIR
 70
     0
  9
$PDMODE
 70
     0
  9
$PDSIZE
 40
-1.0
  9
$PLINEWID
 40
0.0
  9
$SPLFRAME
 70
     0
  9
$SPLINETYPE
 70
     6
  9
$SPLINESEGS
 70
     8
  9
$HANDSEED
  5
2F1
  9
$SURFTAB1
 70
     6
  9
$SURFTAB2
 70
     6
  9
$SURFTYPE
 70
     6
  9
$SURFU
 70
     6
  9
$SURFV
 70
     6
  9
$UCSBASE
  2

  9
$UCSNAME
  2

  9
$UCSORG
 10
0.0
 20
0.0
 30
0.0
  9
$UCSXDIR
 10
1.0
 20
0.0
 30
0.0
  9
$UCSYDIR
 10
0.0
 20
1.0
 30
0.0
  9
$UCSORTHOREF
  2

  9
$UCSORTHOVIEW
 70
     0
  9
$UCSORGTOP
 10
0.0
 20
0.0
 30
0.0
  9
$UCSORGBOTTOM
 10
0.0
 20
0.0
 30
0.0
  9
$UCSORGLEFT
 10
0.0
 20
0.0
 30
0.0
  9
$UCSORGRIGHT
 10
0.0
 20
0.0
 30
0.0
  9
$UCSORGFRONT
 10
0.0
 20
0.0
 30
0.0
  9
$UCSORGBACK
 10
0.0
 20
0.0
 30
0.0
  9
$PUCSBASE
  2

  9
$PUCSNAME
  2

  9
$PUCSORG
 10
0.0
 20
0.0
 30
0.0
  9
$PUCSXDIR
 10
1.0
 20
0.0
 30
0.0
  9
$PUCSYDIR
 10
0.0
 20
1.0
 30
0.0
  9
$PUCSORTHOREF
  2

  9
$PUCSORTHOVIEW
 70
     0
  9
$PUCSORGTOP
 10
0.0
 20
0.0
 30
0.0
  9
$PUCSORGBOTTOM
 10
0.0
 20
0.0
 30
0.0
  9
$PUCSORGLEFT
 10
0.0
 20
0.0
 30
0.0
  9
$PUCSORGRIGHT
 10
0.0
 20
0.0
 30
0.0
  9
$PUCSORGFRONT
 10
0.0
 20
0.0
 30
0.0
  9
$PUCSORGBACK
 10
0.0
 20
0.0
 30
0.0
  9
$USERI1
 70
     0
  9
$USERI2
 70
     0
  9
$USERI3
 70
     0
  9
$USERI4
 70
     0
  9
$USERI5
 70
     0
  9
$USERR1
 40
0.0
  9
$USERR2
 40
0.0
  9
$USERR3
 40
0.0
  9
$USERR4
 40
0.0
  9
$USERR5
 40
0.0
  9
$WORLDVIEW
 70
     1
  9
$SHADEDGE
 70
     3
  9
$SHADEDIF
 70
    70
  9
$TILEMODE
 70
     1
  9
$MAXACTVP
 70
    64
  9
$PINSBASE
 10
0.0
 20
0.0
 30
0.0
  9
$PLIMCHECK
 70
     0
  9
$PEXTMIN
 10
1.0000000000E+20
 20
1.0000000000E+20
 30
1.0000000000E+20
  9
$PEXTMAX
 10
-1.0000000000E+20
 20
-1.0000000000E+20
 30
-1.0000000000E+20
  9
$PLIMMIN
 10
0.0
 20
0.0
  9
$PLIMMAX
 10
420.0
 20
297.0
  9
$UNITMODE
 70
     0
  9
$VISRETAIN
 70
     1
  9
$PLINEGEN
 70
     0
  9
$PSLTSCALE
 70
     1
  9
$TREEDEPTH
 70
  3020
  9
$CMLSTYLE
  2
Standard
  9
$CMLJUST
 70
     0
  9
$CMLSCALE
 40
20.0
  9
$PROXYGRAPHICS
 70
     1
  9
$MEASUREMENT
 70
     1
  9
$CELWEIGHT
370
    -1
  9
$ENDCAPS
280
     0
  9
$JOINSTYLE
280
     0
  9
$LWDISPLAY
290
     1
  9
$INSUNITS
 70
     4
  9
$HYPERLINKBASE
  1

  9
$STYLESHEET
  1

  9
$XEDIT
290
     1
  9
$CEPSNTYPE
380
     0
  9
$PSTYLEMODE
290
     1
  9
$FINGERPRINTGUID
  2
{624E8C38-A721-40A6-A3D0-DD2B350424D5}
  9
$VERSIONGUID
  2
{FAEB1C32-E019-11D5-929B-00C0DF256EC4}
  9
$EXTNAMES
290
     1
  9
$PSVPSCALE
 40
0.0
  9
$OLESTARTUP
290
     0
  0
ENDSEC
  0
SECTION
  2
CLASSES
  0
CLASS
  1
ACDBDICTIONARYWDFLT
  2
AcDbDictionaryWithDefault
  3
ObjectDBX Classes
 90
        0
280
     0
281
     0
  0
CLASS
  1
VISUALSTYLE
  2
AcDbVisualStyle
  3
ObjectDBX Classes
 90
     4095
280
     0
281
     0
  0
CLASS
  1
MATERIAL
  2
AcDbMaterial
  3
ObjectDBX Classes
 90
     1153
280
     0
281
     0
  0
CLASS
  1
SCALE
  2
AcDbScale
  3
ObjectDBX Classes
 90
     1153
280
     0
281
     0
  0
CLASS
  1
DICTIONARYVAR
  2
AcDbDictionaryVar
  3
ObjectDBX Classes
 90
        0
280
     0
281
     0
  0
CLASS
  1
ACDBPLACEHOLDER
  2
AcDbPlaceHolder
  3
ObjectDBX Classes
 90
        0
280
     0
281
     0
  0
CLASS
  1
LAYOUT
  2
AcDbLayout
  3
ObjectDBX Classes
 90
        0
280
     0
281
     0
  0
ENDSEC
  0
SECTION
  2
TABLES
  0
TABLE
  2
VPORT
  5
8
330
0
100
AcDbSymbolTable
 70
     1
  0
VPORT
  5
29
330
8
100
AcDbSymbolTableRecord
100
AcDbViewportTableRecord
  2
*Active
 70
     0
 10
0.0
 20
0.0
 11
1.0
 21
1.0
 12
105.0
 22
148.5
 13
0.0
 23
0.0
 14
10.0
 24
10.0
 15
10.0
 25
10.0
 16
0.0
 26
0.0
 36
1.0
 17
0.0
 27
0.0
 37
0.0
 40
297.0
 41
0.7070707071
 42
50.0
 43
0.0
 44
0.0
 50
0.0
 51
0.0
 71
     0
 72
  2000
 73
     1
 74
     3
 75
     0
 76
     0
 77
     0
 78
     0
281
     0
 65
     1
110
0.0
120
0.0
130
0.0
111
1.0
121
0.0
131
0.0
112
0.0
122
1.0
132
0.0
 79
     0
146
0.0
  0
ENDTAB
  0
TABLE
  2
LTYPE
  5
5
330
0
100
AcDbSymbolTable
 70
     6
  0
LTYPE
  5
14
330
5
100
AcDbSymbolTableRecord
100
AcDbLinetypeTableRecord
  2
ByBlock
 70
     0
  3

 72
    65
 73
     0
 40
0.0
  0
LTYPE
  5
15
330
5
100
AcDbSymbolTableRecord
100
AcDbLinetypeTableRecord
  2
ByLayer
 70
     0
  3

 72
    65
 73
     0
 40
0.0
  0
LTYPE
  5
16
330
5
100
AcDbSymbolTableRecord
100
AcDbLinetypeTableRecord
  2
Continuous
 70
     0
  3
Solid line
 72
    65
 73
     0
 40
0.0
  0
LTYPE
  5
3F
330
5
100
AcDbSymbolTableRecord
100
AcDbLinetypeTableRecord
  2
HIDDEN
 70
     0
  3
Hidden __ __ __ __ __ __ __ __ __ __ __ __ __ __
 72
    65
 73
     2
 40
1.905
 49
1.27
 74
     0
 49
-0.635
 74
     0
  0
LTYPE
  5
40
330
5
100
AcDbSymbolTableRecord
100
AcDbLinetypeTableRecord
  2
PHANTOM
 70
     0
  3
Phantom ______  __  __  ______  __  __  ______
 72
    65
 73
     6
 40
12.7
 49
6.35
 74
     0
 49
-1.27
 74
     0
 49
1.27
 74
     0
 49
-1.27
 74
     0
 49
1.27
 74
     0
 49
-1.27
 74
     0
  0
LTYPE
  5
41
330
5
100
AcDbSymbolTableRecord
100
AcDbLinetypeTableRecord
  2
CENTER
 70
     0
  3
Center ____ _ ____ _ ____ _ ____ _ ____ _ ____
 72
    65
 73
     4
 40
10.16
 49
6.35
 74
     0
 49
-1.27
 74
     0
 49
1.27
 74
     0
 49
-1.27
 74
     0
  0
LTYPE
  5
42
330
5
100
AcDbSymbolTableRecord
100
AcDbLinetypeTableRecord
  2
CENTERX2
 70
     0
  3
Center (2x) ________  __  ________  __  _____
 72
    65
 73
     4
 40
20.32
 49
12.7
 74
     0
 49
-2.54
 74
     0
 49
2.54
 74
     0
 49
-2.54
 74
     0
  0
LTYPE
  5
43
330
5
100
AcDbSymbolTableRecord
100
AcDbLinetypeTableRecord
  2
DOT2
 70
     0
  3
Dot (.5x) ........................................
 72
    65
 73
     2
 40
0.635
 49
0.0
 74
     0
 49
-0.635
 74
     0
  0
ENDTAB
  0
TABLE
  2
LAYER
  5
2
330
0
100
AcDbSymbolTable
 70
     1
  0
LAYER
  5
10
330
2
100
AcDbSymbolTableRecord
100
AcDbLayerTableRecord
  2
0
 70
     0
 62
     7
  6
Continuous
370
    -3
390
F
  0
ENDTAB
  0
TABLE
  2
STYLE
  5
3
330
0
100
AcDbSymbolTable
 70
     2
  0
STYLE
  5
11
330
3
100
AcDbSymbolTableRecord
100
AcDbTextStyleTableRecord
  2
Standard
 70
     0
 40
0.0
 41
1.0
 50
0.0
 71
     0
 42
2.5
  3
txt
  4
bigfont
  0
STYLE
  5
4C
330
3
100
AcDbSymbolTableRecord
100
AcDbTextStyleTableRecord
  2
SLDTEXTSTYLE0
 70
     0
 40
0.0
 41
0.7
 50
0.0
 71
     0
 42
0.2
  3
TXT
  4
bigfont
  0
ENDTAB
  0
TABLE
  2
VIEW
  5
6
330
0
100
AcDbSymbolTable
 70
     0
  0
ENDTAB
  0
TABLE
  2
UCS
  5
7
330
0
100
AcDbSymbolTable
 70
     0
  0
ENDTAB
  0
TABLE
  2
APPID
  5
9
330
0
100
AcDbSymbolTable
 70
     1
  0
APPID
  5
12
330
9
100
AcDbSymbolTableRecord
100
AcDbRegAppTableRecord
  2
ACAD
 70
     0
  0
ENDTAB
  0
TABLE
  2
DIMSTYLE
  5
A
330
0
100
AcDbSymbolTable
 70
     4
100
AcDbDimStyleTable
  0
DIMSTYLE
105
27
330
A
100
AcDbSymbolTableRecord
100
AcDbDimStyleTableRecord
  2
ISO-25
 70
     0
 41
2.5
 42
0.625
 43
3.75
 44
1.25
 73
     0
 74
     0
 77
     1
 78
     8
140
2.5
141
2.5
143
0.0393700787
147
0.625
171
     3
172
     1
271
     2
272
     2
274
     3
278
    44
283
     0
284
     8
340
11
  0
DIMSTYLE
105
28F
102
{ACAD_REACTORS
330
28E
330
2BD
102
}
330
A
100
AcDbSymbolTableRecord
100
AcDbDimStyleTableRecord
  2
SLDDIMSTYLE0
 70
     0
 41
3.0
 44
0.0
 45
0.000000001
 73
     0
 74
     0
 77
     3
 78
    12
140
3.5
147
0.875
173
     1
271
     1
272
     3
276
     2
284
    12
340
4C
341
290
343
290
344
290
  0
DIMSTYLE
105
2A3
102
{ACAD_REACTORS
330
2A2
330
2B1
330
2DA
102
}
330
A
100
AcDbSymbolTableRecord
100
AcDbDimStyleTableRecord
  2
SLDDIMSTYLE1
 70
     0
 41
3.0
 44
0.0
 45
0.000000001
 73
     0
 74
     0
 77
     3
 78
    12
140
3.5
147
0.875
173
     1
271
     1
272
     3
276
     2
284
    12
340
4C
341
290
343
290
344
290
  0
DIMSTYLE
105
2E7
102
{ACAD_REACTORS
330
2E6
102
}
330
A
100
AcDbSymbolTableRecord
100
AcDbDimStyleTableRecord
  2
SLDDIMSTYLE2
 70
     0
  3
<>
 41
3.0
 44
0.0
 45
0.000000001
 78
    12
140
3.5
141
0.0
147
0.875
173
     1
271
     1
272
     3
276
     2
284
    12
340
4C
341
290
343
290
344
290
  0
ENDTAB
  0
TABLE
  2
BLOCK_RECORD
  5
1
330
0
100
AcDbSymbolTable
 70
     8
  0
BLOCK_RECORD
  5
1F
330
1
100
AcDbSymbolTableRecord
100
AcDbBlockTableRecord
  2
*Model_Space
340
22
  0
BLOCK_RECORD
  5
1B
330
1
100
AcDbSymbolTableRecord
100
AcDbBlockTableRecord
  2
*Paper_Space
340
1E
  0
BLOCK_RECORD
  5
23
330
1
100
AcDbSymbolTableRecord
100
AcDbBlockTableRecord
  2
*Paper_Space0
340
26
  0
BLOCK_RECORD
  5
290
330
1
100
AcDbSymbolTableRecord
100
AcDbBlockTableRecord
  2
_OPEN30
340
0
102
{BLKREFS
331
29B
331
29C
331
2A9
331
2AA
331
2B5
331
2B6
331
2C1
331
2C2
331
2DE
331
2DF
331
2EB
102
}
  0
BLOCK_RECORD
  5
296
330
1
100
AcDbSymbolTableRecord
100
AcDbBlockTableRecord
  2
*D2
340
0
  0
BLOCK_RECORD
  5
2A4
330
1
100
AcDbSymbolTableRecord
100
AcDbBlockTableRecord
  2
*D3
340
0
  0
BLOCK_RECORD
  5
2B2
330
1
100
AcDbSymbolTableRecord
100
AcDbBlockTableRecord
  2
*D4
340
0
  0
BLOCK_RECORD
  5
2BE
330
1
100
AcDbSymbolTableRecord
100
AcDbBlockTableRecord
  2
*D5
340
0
  0
BLOCK_RECORD
  5
2DB
330
1
100
AcDbSymbolTableRecord
100
AcDbBlockTableRecord
  2
*D6
340
0
  0
BLOCK_RECORD
  5
2E8
330
1
100
AcDbSymbolTableRecord
100
AcDbBlockTableRecord
  2
*D7
340
0
  0
ENDTAB
  0
ENDSEC
  0
SECTION
  2
BLOCKS
  0
BLOCK
  5
20
330
1F
100
AcDbEntity
  8
0
100
AcDbBlockBegin
  2
*Model_Space
 70
     0
 10
0.0
 20
0.0
 30
0.0
  3
*Model_Space
  1

  0
ENDBLK
  5
21
330
1F
100
AcDbEntity
  8
0
100
AcDbBlockEnd
  0
BLOCK
  5
1C
330
1B
100
AcDbEntity
 67
     1
  8
0
100
AcDbBlockBegin
  2
*Paper_Space
 70
     0
 10
0.0
 20
0.0
 30
0.0
  3
*Paper_Space
  1

  0
ENDBLK
  5
1D
330
1B
100
AcDbEntity
 67
     1
  8
0
100
AcDbBlockEnd
  0
BLOCK
  5
24
330
23
100
AcDbEntity
  8
0
100
AcDbBlockBegin
  2
*Paper_Space0
 70
     0
 10
0.0
 20
0.0
 30
0.0
  3
*Paper_Space0
  1

  0
ENDBLK
  5
25
330
23
100
AcDbEntity
  8
0
100
AcDbBlockEnd
  0
BLOCK
  5
291
330
290
100
AcDbEntity
  8
0
100
AcDbBlockBegin
  2
_OPEN30
 70
     0
 10
0.0
 20
0.0
 30
0.0
  3
_OPEN30
  1

  0
LINE
  5
293
330
290
100
AcDbEntity
  8
0
  6
ByBlock
 62
     0
370
    -2
100
AcDbLine
 10
-1.0
 20
0.267949
 30
0.0
 11
0.0
 21
0.0
 31
0.0
  0
LINE
  5
294
330
290
100
AcDbEntity
  8
0
  6
ByBlock
 62
     0
370
    -2
100
AcDbLine
 10
0.0
 20
0.0
 30
0.0
 11
-1.0
 21
-0.267949
 31
0.0
  0
LINE
  5
295
330
290
100
AcDbEntity
  8
0
  6
ByBlock
 62
     0
370
    -2
100
AcDbLine
 10
0.0
 20
0.0
 30
0.0
 11
-1.0
 21
0.0
 31
0.0
  0
ENDBLK
  5
292
330
290
100
AcDbEntity
  8
0
100
AcDbBlockEnd
  0
BLOCK
  5
297
330
296
100
AcDbEntity
  8
0
100
AcDbBlockBegin
  2
*D2
 70
     1
 10
0.0
 20
0.0
 30
0.0
  3
*D2
  1

  0
ARC
  5
299
330
296
100
AcDbEntity
  8
0
  6
Continuous
 62
     7
370
     0
100
AcDbCircle
 10
107.5996689238
 20
74.5297652854
 30
0.0
 40
4.55265763759703
100
AcDbArc
 50
153.4349488229
 51
206.5650511771
  0
ARC
  5
29A
330
296
100
AcDbEntity
  8
0
  6
Continuous
 62
     7
370
     0
100
AcDbCircle
 10
110.5717021558
 20
74.5297652854
 30
0.0
 40
4.55265763759703
100
AcDbArc
 50
333.4349488229
 51
26.5650511771
  0
INSERT
  5
29B
330
296
100
AcDbEntity
  8
0
  6
Continuous
 62
     7
370
     0
100
AcDbBlockReference
  2
_OPEN30
 10
93.0856855398
 20
72.4937548942
 30
0.0
 41
3.0
 42
3.0
 50
180.0
  0
INSERT
  5
29C
330
296
100
AcDbEntity
  8
0
  6
Continuous
 62
     7
370
     0
100
AcDbBlockReference
  2
_OPEN30
 10
125.0856855398
 20
72.4937548942
 30
0.0
 41
3.0
 42
3.0
 50
0.0
  0
LINE
  5
29D
330
296
100
AcDbEntity
  8
0
  6
Continuous
 62
     7
370
     0
100
AcDbLine
 10
93.0856855398
 20
88.5528612195
 30
0.0
 11
93.0856855398
 21
71.4937548942
 31
0.0
  0
LINE
  5
29E
330
296
100
AcDbEntity
  8
0
  6
Continuous
 62
     7
370
     0
100
AcDbLine
 10
125.0856855398
 20
88.5528612195
 30
0.0
 11
125.0856855398
 21
71.4937548942
 31
0.0
  0
LINE
  5
29F
330
296
100
AcDbEntity
  8
0
  6
Continuous
 62
     7
370
     0
100
AcDbLine
 10
93.0856855398
 20
72.4937548942
 30
0.0
 11
125.0856855398
 21
72.4937548942
 31
0.0
  0
MTEXT
  5
2A0
330
296
100
AcDbEntity
  8
0
  6
Continuous
 62
     7
370
     0
100
AcDbMText
 10
105.1151481414
 20
77.0054917506
 30
0.0
 40
3.5
 41
0.0
 71
     1
 72
     1
  1
%%c
  7
SLDTEXTSTYLE0
 73
     1
 44
1.0
  0
MTEXT
  5
2A1
330
296
100
AcDbEntity
  8
0
  6
Continuous
 62
     7
370
     0
100
AcDbMText
 10
108.9842021558
 20
77.0054917506
 30
0.0
 40
3.5
 41
0.0
 71
     1
 72
     1
  1
30
  7
SLDTEXTSTYLE0
 73
     1
 44
1.0
  0
ENDBLK
  5
298
330
296
100
AcDbEntity
  8
0
100
AcDbBlockEnd
  0
BLOCK
  5
2A5
330
2A4
100
AcDbEntity
  8
0
100
AcDbBlockBegin
  2
*D3
 70
     1
 10
0.0
 20
0.0
 30
0.0
  3
*D3
  1

  0
ARC
  5
2A7
330
2A4
100
AcDbEntity
  8
0
  6
Continuous
 62
     7
370
     0
100
AcDbCircle
 10
143.1116039638
 20
95.2630691696
 30
0.0
 40
4.552657637597112
100
AcDbArc
 50
243.4349488229
 51
296.5650511771
  0
ARC
  5
2A8
330
2A4
100
AcDbEntity
  8
0
  6
Continuous
 62
     7
370
     0
100
AcDbCircle
 10
143.1116039638
 20
92.3279237589
 30
0.0
 40
4.552657637597138
100
AcDbArc
 50
63.4349488229
 51
116.5650511771
  0
INSERT
  5
2A9
330
2A4
100
AcDbEntity
  8
0
  6
Continuous
 62
     7
370
     0
100
AcDbBlockReference
  2
_OPEN30
 10
145.147614355
 20
89.2528612195
 30
0.0
 41
3.0
 42
3.0
 50
90.0
  0
INSERT
  5
2AA
330
2A4
100
AcDbEntity
  8
0
  6
Continuous
 62
     7
370
     0
100
AcDbBlockReference
  2
_OPEN30
 10
145.147614355
 20
98.3381317091
 30
0.0
 41
3.0
 42
3.0
 50
270.0
  0
LINE
  5
2AB
330
2A4
100
AcDbEntity
  8
0
  6
Continuous
 62
     7
370
     0
100
AcDbLine
 10
125.7856855398
 20
89.2528612195
 30
0.0
 11
146.147614355
 21
89.2528612195
 31
0.0
  0
LINE
  5
2AC
330
2A4
100
AcDbEntity
  8
0
  6
Continuous
 62
     7
370
     0
100
AcDbLine
 10
116.6029091623
 20
98.3381317091
 30
0.0
 11
146.147614355
 21
98.3381317091
 31
0.0
  0
LINE
  5
2AD
330
2A4
100
AcDbEntity
  8
0
  6
Continuous
 62
     7
370
     0
100
AcDbLine
 10
145.147614355
 20
89.2528612195
 30
0.0
 11
145.147614355
 21
84.2528612195
 31
0.0
  0
LINE
  5
2AE
330
2A4
100
AcDbEntity
  8
0
  6
Continuous
 62
     7
370
     0
100
AcDbLine
 10
145.147614355
 20
89.2528612195
 30
0.0
 11
145.147614355
 21
98.3381317091
 31
0.0
  0
LINE
  5
2AF
330
2A4
100
AcDbEntity
  8
0
  6
Continuous
 62
     7
370
     0
100
AcDbLine
 10
145.147614355
 20
98.3381317091
 30
0.0
 11
145.147614355
 21
103.3381317091
 31
0.0
  0
MTEXT
  5
2B0
330
2A4
100
AcDbEntity
  8
0
  6
Continuous
 62
     7
370
     0
100
AcDbMText
 10
140.6358774987
 20
92.7785483873
 30
0.0
 40
3.5
 41
0.0
 71
     1
 72
     1
  1
9
  7
SLDTEXTSTYLE0
 11
6.123233995736766E-17
 21
1.0
 31
0.0
 73
     1
 44
1.0
  0
ENDBLK
  5
2A6
330
2A4
100
AcDbEntity
  8
0
100
AcDbBlockEnd
  0
BLOCK
  5
2B3
330
2B2
100
AcDbEntity
  8
0
100
AcDbBlockBegin
  2
*D4
 70
     1
 10
0.0
 20
0.0
 30
0.0
  3
*D4
  1

  0
INSERT
  5
2B5
330
2B2
100
AcDbEntity
  8
0
  6
Continuous
 62
     7
370
     0
100
AcDbBlockReference
  2
_OPEN30
 10
72.8371809417
 20
120.2528612195
 30
0.0
 41
3.0
 42
3.0
 50
270.0
  0
INSERT
  5
2B6
330
2B2
100
AcDbEntity
  8
0
  6
Continuous
 62
     7
370
     0
100
AcDbBlockReference
  2
_OPEN30
 10
72.8371809417
 20
110.2528612195
 30
0.0
 41
3.0
 42
3.0
 50
90.0
  0
LINE
  5
2B7
330
2B2
100
AcDbEntity
  8
0
  6
Continuous
 62
     7
370
     0
100
AcDbLine
 10
100.0856855398
 20
120.2528612195
 30
0.0
 11
71.8371809417
 21
120.2528612195
 31
0.0
  0
LINE
  5
2B8
330
2B2
100
AcDbEntity
  8
0
  6
Continuous
 62
     7
370
     0
100
AcDbLine
 10
96.0856855398
 20
110.2528612195
 30
0.0
 11
71.8371809417
 21
110.2528612195
 31
0.0
  0
LINE
  5
2B9
330
2B2
100
AcDbEntity
  8
0
  6
Continuous
 62
     7
370
     0
100
AcDbLine
 10
72.8371809417
 20
120.2528612195
 30
0.0
 11
72.8371809417
 21
125.2528612195
 31
0.0
  0
LINE
  5
2BA
330
2B2
100
AcDbEntity
  8
0
  6
Continuous
 62
     7
370
     0
100
AcDbLine
 10
72.8371809417
 20
120.2528612195
 30
0.0
 11
72.8371809417
 21
110.2528612195
 31
0.0
  0
LINE
  5
2BB
330
2B2
100
AcDbEntity
  8
0
  6
Continuous
 62
     7
370
     0
100
AcDbLine
 10
72.8371809417
 20
110.2528612195
 30
0.0
 11
72.8371809417
 21
105.2528612195
 31
0.0
  0
MTEXT
  5
2BC
330
2B2
100
AcDbEntity
  8
0
  6
Continuous
 62
     7
370
     0
100
AcDbMText
 10
68.3254440854
 20
113.2168508283
 30
0.0
 40
3.5
 41
0.0
 71
     1
 72
     1
  1
10
  7
SLDTEXTSTYLE0
 11
-7.044195017643634E-15
 21
1.0
 31
0.0
 73
     1
 44
1.0
  0
ENDBLK
  5
2B4
330
2B2
100
AcDbEntity
  8
0
100
AcDbBlockEnd
  0
BLOCK
  5
2BF
330
2BE
100
AcDbEntity
  8
0
100
AcDbBlockBegin
  2
*D5
 70
     1
 10
0.0
 20
0.0
 30
0.0
  3
*D5
  1

  0
INSERT
  5
2C1
330
2BE
100
AcDbEntity
  8
0
  6
Continuous
 62
     7
370
     0
100
AcDbBlockReference
  2
_OPEN30
 10
61.9568108815
 20
120.2528612195
 30
0.0
 41
3.0
 42
3.0
 50
90.0
  0
INSERT
  5
2C2
330
2BE
100
AcDbEntity
  8
0
  6
Continuous
 62
     7
370
     0
100
AcDbBlockReference
  2
_OPEN30
 10
61.9568108815
 20
89.2528612195
 30
0.0
 41
3.0
 42
3.0
 50
270.0
  0
LINE
  5
2C3
330
2BE
100
AcDbEntity
  8
0
  6
Continuous
 62
     7
370
     0
100
AcDbLine
 10
100.0856855398
 20
120.2528612195
 30
0.0
 11
60.9568108815
 21
120.2528612195
 31
0.0
  0
LINE
  5
2C4
330
2BE
100
AcDbEntity
  8
0
  6
Continuous
 62
     7
370
     0
100
AcDbLine
 10
92.3856855398
 20
89.2528612195
 30
0.0
 11
60.9568108815
 21
89.2528612195
 31
0.0
  0
LINE
  5
2C5
330
2BE
100
AcDbEntity
  8
0
  6
Continuous
 62
     7
370
     0
100
AcDbLine
 10
61.9568108815
 20
120.2528612195
 30
0.0
 11
61.9568108815
 21
89.2528612195
 31
0.0
  0
MTEXT
  5
2C6
330
2BE
100
AcDbEntity
  8
0
  6
Continuous
 62
     7
370
     0
100
AcDbMText
 10
57.4450740251
 20
102.7168508283
 30
0.0
 40
3.5
 41
0.0
 71
     1
 72
     1
  1
31
  7
SLDTEXTSTYLE0
 11
-7.044195017643634E-15
 21
1.0
 31
0.0
 73
     1
 44
1.0
  0
ENDBLK
  5
2C0
330
2BE
100
AcDbEntity
  8
0
100
AcDbBlockEnd
  0
BLOCK
  5
2DC
330
2DB
100
AcDbEntity
  8
0
100
AcDbBlockBegin
  2
*D6
 70
     1
 10
0.0
 20
0.0
 30
0.0
  3
*D6
  1

  0
INSERT
  5
2DE
330
2DB
100
AcDbEntity
  8
0
  6
Continuous
 62
     7
370
     0
100
AcDbBlockReference
  2
_OPEN30
 10
100.5856855398
 20
220.2413542929
 30
-6.0763702198
 41
3.0
 42
3.0
 50
0.0
  0
INSERT
  5
2DF
330
2DB
100
AcDbEntity
  8
0
  6
Continuous
 62
     7
370
     0
100
AcDbBlockReference
  2
_OPEN30
 10
117.5856855398
 20
220.2413542929
 30
-6.0763702198
 41
3.0
 42
3.0
 50
180.0
  0
LINE
  5
2E0
330
2DB
100
AcDbEntity
  8
0
  6
Continuous
 62
     7
370
     0
100
AcDbLine
 10
100.5856855398
 20
202.2619818955
 30
0.0
 11
100.5856855398
 21
221.2413542929
 31
0.0
  0
LINE
  5
2E1
330
2DB
100
AcDbEntity
  8
0
  6
Continuous
 62
     7
370
     0
100
AcDbLine
 10
117.5856855398
 20
202.2619818955
 30
0.0
 11
117.5856855398
 21
221.2413542929
 31
0.0
  0
LINE
  5
2E2
330
2DB
100
AcDbEntity
  8
0
  6
Continuous
 62
     7
370
     0
100
AcDbLine
 10
100.5856855398
 20
220.2413542929
 30
0.0
 11
95.5856855398
 21
220.2413542929
 31
0.0
  0
LINE
  5
2E3
330
2DB
100
AcDbEntity
  8
0
  6
Continuous
 62
     7
370
     0
100
AcDbLine
 10
100.5856855398
 20
220.2413542929
 30
0.0
 11
117.5856855398
 21
220.2413542929
 31
0.0
  0
LINE
  5
2E4
330
2DB
100
AcDbEntity
  8
0
  6
Continuous
 62
     7
370
     0
100
AcDbLine
 10
117.5856855398
 20
220.2413542929
 30
0.0
 11
122.5856855398
 21
220.2413542929
 31
0.0
  0
MTEXT
  5
2E5
330
2DB
100
AcDbEntity
  8
0
  6
Continuous
 62
     7
370
     0
100
AcDbMText
 10
107.0496751486
 20
224.7530911492
 30
0.0
 40
3.5
 41
0.0
 71
     1
 72
     1
  1
17
  7
SLDTEXTSTYLE0
 73
     1
 44
1.0
  0
ENDBLK
  5
2DD
330
2DB
100
AcDbEntity
  8
0
100
AcDbBlockEnd
  0
BLOCK
  5
2E9
330
2E8
100
AcDbEntity
  8
0
100
AcDbBlockBegin
  2
*D7
 70
     1
 10
0.0
 20
0.0
 30
0.0
  3
*D7
  1

  0
INSERT
  5
2EB
330
2E8
100
AcDbEntity
  8
0
  6
Continuous
 62
     7
370
     0
100
AcDbBlockReference
  2
_OPEN30
 10
111.3734353624
 20
192.0303607379
 30
-6.0763702198
 41
3.0
 42
3.0
 50
119.9918915852
  0
LINE
  5
2EC
330
2E8
100
AcDbEntity
  8
0
  6
Continuous
 62
     7
370
     0
100
AcDbLine
 10
111.3734353624
 20
192.0303607379
 30
0.0
 11
123.9585948944
 21
170.2250991269
 31
0.0
  0
LINE
  5
2ED
330
2E8
100
AcDbEntity
  8
0
  6
Continuous
 62
     7
370
     0
100
AcDbLine
 10
123.9585948944
 20
170.2250991269
 30
0.0
 11
140.9413857159
 21
170.2250991269
 31
0.0
  0
MTEXT
  5
2EE
330
2E8
100
AcDbEntity
  8
0
  6
Continuous
 62
     7
370
     0
100
AcDbMText
 10
127.1335948944
 20
174.7368359833
 30
0.0
 40
3.5
 41
0.0
 71
     1
 72
     1
  1
Rc 1/8
  7
SLDTEXTSTYLE0
 73
     1
 44
1.0
  0
ENDBLK
  5
2EA
330
2E8
100
AcDbEntity
  8
0
100
AcDbBlockEnd
  0
ENDSEC
  0
SECTION
  2
ENTITIES
  0
LINE
  5
44
330
1F
100
AcDbEntity
  8
0
  6
Continuous
 62
     7
370
     0
100
AcDbLine
 10
20.2604743903
 20
285.0
 30
0.0
 11
196.7604743903
 21
285.0
 31
0.0
  0
LINE
  5
45
330
1F
100
AcDbEntity
  8
0
  6
Continuous
 62
     7
370
     0
100
AcDbLine
 10
20.2604743903
 20
285.0
 30
0.0
 11
20.2604743903
 21
10.0
 31
0.0
  0
LINE
  5
46
330
1F
100
AcDbEntity
  8
0
  6
Continuous
 62
     7
370
     0
100
AcDbLine
 10
20.2604743903
 20
10.0
 30
0.0
 11
196.7604743903
 21
10.0
 31
0.0
  0
LINE
  5
47
330
1F
100
AcDbEntity
  8
0
  6
Continuous
 62
     7
370
     0
100
AcDbLine
 10
196.7604743903
 20
285.0
 30
0.0
 11
196.7604743903
 21
10.0
 31
0.0
  0
LINE
  5
48
330
1F
100
AcDbEntity
  8
0
  6
Continuous
 62
     7
370
     0
100
AcDbLine
 10
127.0104743903
 20
50.75
 30
0.0
 11
196.7604743903
 21
50.75
 31
0.0
  0
LINE
  5
49
330
1F
100
AcDbEntity
  8
0
  6
Continuous
 62
     7
370
     0
100
AcDbLine
 10
127.0104743903
 20
50.75
 30
0.0
 11
127.0104743903
 21
10.0
 31
0.0
  0
LINE
  5
4A
330
1F
100
AcDbEntity
  8
0
  6
Continuous
 62
     7
370
     0
100
AcDbLine
 10
127.0104743903
 20
22.75
 30
0.0
 11
196.7604743903
 21
22.75
 31
0.0
  0
LINE
  5
4B
330
1F
100
AcDbEntity
  8
0
  6
Continuous
 62
     7
370
     0
100
AcDbLine
 10
127.0104743903
 20
36.75
 30
0.0
 11
196.7604743903
 21
36.75
 31
0.0
  0
MTEXT
  5
6F
330
1F
100
AcDbEntity
  8
0
  6
Continuous
 62
     7
370
     0
100
AcDbMText
 10
145.7453970332
 20
30.4171580599
 30
0.0
 40
4.2333333333
 41
0.0
 71
     1
 72
     1
  1
VAPNP-30C-1-F
  7
SLDTEXTSTYLE0
 73
     1
 44
1.0
  0
MTEXT
  5
70
330
1F
100
AcDbEntity
  8
0
  6
Continuous
 62
     7
370
     0
100
AcDbMText
 10
139.0343892037
 20
43.9409718514
 30
0.0
 40
4.2333333333
 41
0.0
 71
     1
 72
     1
  1
吸着パット・薄鋼板用
  7
SLDTEXTSTYLE0
 73
     1
 44
1.0
  0
MTEXT
  5
71
330
1F
100
AcDbEntity
  8
0
  6
Continuous
 62
     7
370
     0
100
AcDbMText
 10
155.5122001313
 20
16.8228189052
 30
0.0
 40
4.2333333333
 41
0.0
 71
     1
 72
     1
  1
210919
  7
SLDTEXTSTYLE0
 73
     1
 44
1.0
  0
ARC
  5
72
330
1F
100
AcDbEntity
  8
0
  6
Continuous
 62
     7
370
    30
100
AcDbCircle
 10
123.1171784489
 20
98.2974611811
 30
0.0
 40
2.000000000000004
100
AcDbArc
 50
303.75
 51
53.35
  0
ARC
  5
73
330
1F
100
AcDbEntity
  8
0
  6
Continuous
 62
     7
370
    30
100
AcDbCircle
 10
95.0541926307
 20
98.2974611811
 30
0.0
 40
2.000000000000001
100
AcDbArc
 50
126.65
 51
236.25
  0
LINE
  5
74
330
1F
100
AcDbEntity
  8
0
  6
Continuous
 62
     7
370
    30
100
AcDbLine
 10
93.0856854913
 20
90.4672857671
 30
0.0
 11
93.0856854913
 21
89.5528611093
 31
0.0
  0
LINE
  5
75
330
1F
100
AcDbEntity
  8
0
  6
Continuous
 62
     7
370
    30
100
AcDbLine
 10
125.0856860799
 20
89.5528611093
 30
0.0
 11
125.0856860799
 21
90.4672857671
 31
0.0
  0
ARC
  5
76
330
1F
100
AcDbEntity
  8
0
  6
Continuous
 62
     7
370
    30
100
AcDbCircle
 10
124.7856855398
 20
90.4672856736
 30
0.0
 40
0.2999999999999972
100
AcDbArc
 50
0.0
 51
71.45
  0
ARC
  5
77
330
1F
100
AcDbEntity
  8
0
  6
Continuous
 62
     7
370
    30
100
AcDbCircle
 10
93.3856855398
 20
90.4672856736
 30
0.0
 40
0.2999999999999939
100
AcDbArc
 50
108.55
 51
180.0
  0
ARC
  5
78
330
1F
100
AcDbEntity
  8
0
  6
Continuous
 62
     7
370
    30
100
AcDbCircle
 10
124.7856855398
 20
89.5528612195
 30
0.0
 40
0.2999999999999972
100
AcDbArc
 50
270.0
 51
0.0
  0
ARC
  5
79
330
1F
100
AcDbEntity
  8
0
  6
Continuous
 62
     7
370
    30
100
AcDbCircle
 10
93.3856855398
 20
89.5528612195
 30
0.0
 40
0.2999999999999972
100
AcDbArc
 50
180.0
 51
270.0
  0
LINE
  5
7A
330
1F
100
AcDbEntity
  8
0
  6
Continuous
 62
     7
370
    30
100
AcDbLine
 10
124.8811248017
 20
90.7516995742
 30
0.0
 11
120.5166221854
 21
92.216278363
 31
0.0
  0
LINE
  5
7B
330
1F
100
AcDbEntity
  8
0
  6
Continuous
 62
     7
370
    30
100
AcDbLine
 10
97.6547493857
 20
92.216278363
 30
0.0
 11
93.2902458382
 21
90.7516995742
 31
0.0
  0
LINE
  5
7C
330
1F
100
AcDbEntity
  8
0
  6
Continuous
 62
     7
370
    30
100
AcDbLine
 10
124.3110287261
 20
99.90205493
 30
0.0
 11
120.024280369
 21
103.0914834067
 31
0.0
  0
LINE
  5
7D
330
1F
100
AcDbEntity
  8
0
  6
Continuous
 62
     7
370
    30
100
AcDbLine
 10
98.1470912022
 20
103.0914834067
 30
0.0
 11
93.8603419137
 21
99.90205493
 31
0.0
  0
LINE
  5
7E
330
1F
100
AcDbEntity
  8
0
  6
Continuous
 62
     7
370
    30
100
AcDbLine
 10
93.9430517403
 20
96.634522017
 30
0.0
 11
97.8921872822
 21
93.9957941248
 31
0.0
  0
LINE
  5
7F
330
1F
100
AcDbEntity
  8
0
  6
Continuous
 62
     7
370
    30
100
AcDbLine
 10
120.279184289
 20
93.9957941248
 30
0.0
 11
124.2283198309
 21
96.634522017
 31
0.0
  0
LINE
  5
80
330
1F
100
AcDbEntity
  8
0
  6
Continuous
 62
     7
370
    30
100
AcDbLine
 10
97.0856852156
 20
110.2528613358
 30
0.0
 11
97.0856852156
 21
106.4710229933
 31
0.0
  0
LINE
  5
81
330
1F
100
AcDbEntity
  8
0
  6
Continuous
 62
     7
370
    30
100
AcDbLine
 10
121.0856854242
 20
106.4710229933
 30
0.0
 11
121.0856854242
 21
110.2528613358
 31
0.0
  0
ARC
  5
82
330
1F
100
AcDbEntity
  8
0
  6
Continuous
 62
     7
370
    30
100
AcDbCircle
 10
99.0856855398
 20
106.4710228966
 30
0.0
 40
2.000000000000016
100
AcDbArc
 50
180.0
 51
239.2135356198
  0
ARC
  5
83
330
1F
100
AcDbEntity
  8
0
  6
Continuous
 62
     7
370
    30
100
AcDbCircle
 10
119.0856855398
 20
106.4710228966
 30
0.0
 40
2.000000000000016
100
AcDbArc
 50
300.7864643802
 51
0.0
  0
ARC
  5
84
330
1F
100
AcDbEntity
  8
0
  6
Continuous
 62
     7
370
    30
100
AcDbCircle
 10
97.3366169369
 20
93.1643246954
 30
0.0
 40
1.000000000000004
100
AcDbArc
 50
288.55
 51
56.25
  0
ARC
  5
85
330
1F
100
AcDbEntity
  8
0
  6
Continuous
 62
     7
370
    30
100
AcDbCircle
 10
120.8347541427
 20
93.1643246954
 30
0.0
 40
1.000000000000004
100
AcDbArc
 50
123.75
 51
251.45
  0
ARC
  5
86
330
1F
100
AcDbEntity
  8
0
  6
Continuous
 62
     7
370
    30
100
AcDbCircle
 10
97.550165753
 20
103.8937803809
 30
0.0
 40
1.000000000000009
100
AcDbArc
 50
306.65
 51
59.2135356198
  0
ARC
  5
87
330
1F
100
AcDbEntity
  8
0
  6
Continuous
 62
     7
370
    30
100
AcDbCircle
 10
120.6212053266
 20
103.8937803809
 30
0.0
 40
1.000000000000009
100
AcDbArc
 50
120.7864643802
 51
233.35
  0
LINE
  5
88
330
1F
100
AcDbEntity
  8
0
  6
Continuous
 62
     7
370
    30
100
AcDbLine
 10
124.7856847269
 20
89.2528616189
 30
0.0
 11
93.385685913
 21
89.2528616189
 31
0.0
  0
LINE
  5
89
330
1F
100
AcDbEntity
  8
0
  6
Continuous
 62
     7
370
    30
100
AcDbLine
 10
109.0856855528
 20
110.2528613358
 30
0.0
 11
121.0856854242
 21
110.2528613358
 31
0.0
  0
LINE
  5
8A
330
1F
100
AcDbEntity
  8
0
  6
Continuous
 62
     7
370
    30
100
AcDbLine
 10
97.0856852156
 20
110.2528613358
 30
0.0
 11
109.0856855528
 21
110.2528613358
 31
0.0
  0
LINE
  5
8B
330
1F
100
AcDbEntity
  8
0
  6
Continuous
 62
     7
370
    30
100
AcDbLine
 10
101.0856854056
 20
120.2528620436
 30
0.0
 11
117.0856856999
 21
120.2528620436
 31
0.0
  0
SPLINE
  5
8C
330
1F
100
AcDbEntity
  8
0
  6
Continuous
 62
     7
370
    30
100
AcDbSpline
210
0.0
220
0.0
230
1.0
 70
    24
 71
     3
 72
     8
 73
     4
 74
     0
 42
0.00000001
 43
0.00000001
 40
0.0
 40
0.0
 40
0.0
 40
0.0
 40
0.0007216906218459
 40
0.0007216906218459
 40
0.0007216906218459
 40
0.0007216906218459
 10
117.5856855398015
 20
119.7528612194862
 30
0.0
 10
117.4189280663338
 20
119.9196186929539
 30
0.0
 10
117.2522576928117
 20
120.086289066476
 30
0.0
 10
117.0856855398015
 20
120.2528612194862
 30
0.0
  0
LINE
  5
8D
330
1F
100
AcDbEntity
  8
0
  6
Continuous
 62
     7
370
    30
100
AcDbLine
 10
117.5856857819
 20
119.7528610303
 30
0.0
 11
100.5856853237
 21
119.7528610303
 31
0.0
  0
SPLINE
  5
8E
330
1F
100
AcDbEntity
  8
0
  6
Continuous
 62
     7
370
    30
100
AcDbSpline
210
0.0
220
0.0
230
1.0
 70
    24
 71
     3
 72
     8
 73
     4
 74
     0
 42
0.00000001
 43
0.00000001
 40
0.0
 40
0.0
 40
0.0
 40
0.0
 40
0.0007216906218459
 40
0.0007216906218459
 40
0.0007216906218459
 40
0.0007216906218459
 10
101.0856855398015
 20
120.2528612194862
 30
0.0
 10
100.9191133867913
 20
120.086289066476
 30
0.0
 10
100.7524430132692
 20
119.9196186929539
 30
0.0
 10
100.5856855398015
 20
119.7528612194862
 30
0.0
  0
LINE
  5
8F
330
1F
100
AcDbEntity
  8
0
  6
Continuous
 62
     7
370
    30
100
AcDbLine
 10
100.5856853237
 20
110.2528613358
 30
0.0
 11
100.5856853237
 21
119.7528610303
 31
0.0
  0
LINE
  5
90
330
1F
100
AcDbEntity
  8
0
  6
Continuous
 62
     7
370
    30
100
AcDbLine
 10
117.5856857819
 20
110.2528613358
 30
0.0
 11
117.5856857819
 21
119.7528610303
 31
0.0
  0
LINE
  5
91
330
1F
100
AcDbEntity
  8
0
  6
Continuous
 62
    18
370
    30
100
AcDbLine
 10
109.0856855528
 20
99.90205493
 30
0.0
 11
124.3110287261
 21
99.90205493
 31
0.0
  0
LINE
  5
92
330
1F
100
AcDbEntity
  8
0
  6
Continuous
 62
    18
370
    30
100
AcDbLine
 10
93.8603419137
 20
99.90205493
 30
0.0
 11
109.0856855528
 21
99.90205493
 31
0.0
  0
LINE
  5
93
330
1F
100
AcDbEntity
  8
0
  6
Continuous
 62
    18
370
    30
100
AcDbLine
 10
124.2283198309
 20
96.634522017
 30
0.0
 11
93.9430517403
 21
96.634522017
 31
0.0
  0
LINE
  5
94
330
1F
100
AcDbEntity
  8
0
  6
Continuous
 62
    18
370
    30
100
AcDbLine
 10
125.0856860799
 20
90.4672857671
 30
0.0
 11
93.0856854913
 21
90.4672857671
 31
0.0
  0
LINE
  5
95
330
1F
100
AcDbEntity
  8
0
  6
Continuous
 62
    18
370
    30
100
AcDbLine
 10
93.0856854913
 20
89.5528611093
 30
0.0
 11
125.0856860799
 21
89.5528611093
 31
0.0
  0
LINE
  5
96
330
1F
100
AcDbEntity
  8
0
  6
Continuous
 62
    18
370
    30
100
AcDbLine
 10
109.0856855528
 20
90.7516995742
 30
0.0
 11
124.8811248017
 21
90.7516995742
 31
0.0
  0
LINE
  5
97
330
1F
100
AcDbEntity
  8
0
  6
Continuous
 62
    18
370
    30
100
AcDbLine
 10
93.2902458382
 20
90.7516995742
 30
0.0
 11
109.0856855528
 21
90.7516995742
 31
0.0
  0
LINE
  5
98
330
1F
100
AcDbEntity
  8
0
  6
Continuous
 62
    18
370
    30
100
AcDbLine
 10
120.5166221854
 20
92.216278363
 30
0.0
 11
97.6547493857
 21
92.216278363
 31
0.0
  0
LINE
  5
99
330
1F
100
AcDbEntity
  8
0
  6
Continuous
 62
    18
370
    30
100
AcDbLine
 10
109.0856855528
 20
103.0914834067
 30
0.0
 11
120.024280369
 21
103.0914834067
 31
0.0
  0
LINE
  5
9A
330
1F
100
AcDbEntity
  8
0
  6
Continuous
 62
    18
370
    30
100
AcDbLine
 10
98.1470912022
 20
103.0914834067
 30
0.0
 11
109.0856855528
 21
103.0914834067
 31
0.0
  0
LINE
  5
9B
330
1F
100
AcDbEntity
  8
0
  6
Continuous
 62
    18
370
    30
100
AcDbLine
 10
109.0856855528
 20
93.9957941248
 30
0.0
 11
120.279184289
 21
93.9957941248
 31
0.0
  0
LINE
  5
9C
330
1F
100
AcDbEntity
  8
0
  6
Continuous
 62
    18
370
    30
100
AcDbLine
 10
97.8921872822
 20
93.9957941248
 30
0.0
 11
109.0856855528
 21
93.9957941248
 31
0.0
  0
LINE
  5
9D
330
1F
100
AcDbEntity
  8
0
  6
Continuous
 62
    18
370
    30
100
AcDbLine
 10
109.0856855528
 20
106.4710229933
 30
0.0
 11
121.0856854242
 21
106.4710229933
 31
0.0
  0
LINE
  5
9E
330
1F
100
AcDbEntity
  8
0
  6
Continuous
 62
    18
370
    30
100
AcDbLine
 10
97.0856852156
 20
106.4710229933
 30
0.0
 11
109.0856855528
 21
106.4710229933
 31
0.0
  0
LINE
  5
9F
330
1F
100
AcDbEntity
  8
0
  6
Continuous
 62
    18
370
    30
100
AcDbLine
 10
109.0856855528
 20
104.7528613656
 30
0.0
 11
120.1093650681
 21
104.7528613656
 31
0.0
  0
LINE
  5
A0
330
1F
100
AcDbEntity
  8
0
  6
Continuous
 62
    18
370
    30
100
AcDbLine
 10
98.0620055718
 20
104.7528613656
 30
0.0
 11
109.0856855528
 21
104.7528613656
 31
0.0
  0
LINE
  5
A1
330
1F
100
AcDbEntity
  8
0
  6
HIDDEN
 62
     7
370
     0
100
AcDbLine
 10
94.0874300224
 20
89.5528611093
 30
0.0
 11
124.0839406175
 21
89.5528611093
 31
0.0
  0
LINE
  5
A2
330
1F
100
AcDbEntity
  8
0
  6
HIDDEN
 62
     7
370
     0
100
AcDbLine
 10
109.0856855528
 20
89.7528607696
 30
0.0
 11
124.085685916
 21
89.7528607696
 31
0.0
  0
LINE
  5
A3
330
1F
100
AcDbEntity
  8
0
  6
HIDDEN
 62
     7
370
     0
100
AcDbLine
 10
94.0856856552
 20
89.7528607696
 30
0.0
 11
109.0856855528
 21
89.7528607696
 31
0.0
  0
SPLINE
  5
A4
330
1F
100
AcDbEntity
  8
0
  6
HIDDEN
 62
     7
370
     0
100
AcDbSpline
210
0.0
220
0.0
230
1.0
 70
     8
 71
     3
 72
     9
 73
     5
 74
     0
 42
0.00000001
 43
0.00000001
 40
0.0
 40
0.0
 40
0.0
 40
0.0
 40
0.5320335731992458
 40
1.0
 40
1.0
 40
1.0
 40
1.0
 10
97.48106238219148
 20
90.89104126388028
 30
0.0
 10
97.45323550490926
 20
90.88205953706712
 30
0.0
 10
97.40093264530796
 20
90.86517765730318
 30
0.0
 10
97.39563239132387
 20
90.86348552735818
 30
0.0
 10
97.3931520504058
 20
90.86269366735414
 30
0.0
  0
SPLINE
  5
A5
330
1F
100
AcDbEntity
  8
0
  6
HIDDEN
 62
     7
370
     0
100
AcDbSpline
210
0.0
220
0.0
230
1.0
 70
     8
 71
     3
 72
     8
 73
     4
 74
     0
 42
0.00000001
 43
0.00000001
 40
0.0000002483637648
 40
0.0000002483637648
 40
0.0000002483637648
 40
0.0000002483637648
 40
0.00021815595592
 40
0.00021815595592
 40
0.00021815595592
 40
0.00021815595592
 10
97.60420857230686
 20
90.9304304344362
 30
0.0
 10
97.56314407215783
 20
90.9174521163274
 30
0.0
 10
97.52209546426775
 20
90.90432062026905
 30
0.0
 10
97.48106277409845
 20
90.89104106389794
 30
0.0
  0
SPLINE
  5
A6
330
1F
100
AcDbEntity
  8
0
  6
HIDDEN
 62
     7
370
     0
100
AcDbSpline
210
0.0
220
0.0
230
1.0
 70
     8
 71
     3
 72
    12
 73
     8
 74
     0
 42
0.00000001
 43
0.00000001
 40
0.0
 40
0.0
 40
0.0
 40
0.0
 40
0.5000000000000002
 40
0.5000000000000002
 40
0.7500000000000001
 40
0.7500000000000001
 40
1.0
 40
1.0
 40
1.0
 40
1.0
 10
97.19498923060407
 20
90.7742507286705
 30
0.0
 10
97.37312371663238
 20
90.83369901767054
 30
0.0
 10
97.54534480471558
 20
90.8949106907104
 30
0.0
 10
97.67811122948531
 20
90.94632329486548
 30
0.0
 10
97.69933669570639
 20
90.95582772385487
 30
0.0
 10
97.6891271167468
 20
90.95634412977316
 30
0.0
 10
97.65736824791296
 20
90.9472313982389
 30
0.0
 10
97.60420857230686
 20
90.9304304344362
 30
0.0
  0
SPLINE
  5
A7
330
1F
100
AcDbEntity
  8
0
  6
HIDDEN
 62
     7
370
     0
100
AcDbSpline
210
0.0
220
0.0
230
1.0
 70
     8
 71
     3
 72
     8
 73
     4
 74
     0
 42
0.00000001
 43
0.00000001
 40
0.0
 40
0.0
 40
0.0
 40
0.0
 40
1.0
 40
1.0
 40
1.0
 40
1.0
 10
97.19498923060407
 20
90.7742507286705
 30
0.0
 10
96.78768893229461
 20
90.6383236188573
 30
0.0
 10
96.38041128480305
 20
90.50232838101631
 30
0.0
 10
95.97315060020367
 20
90.36628232041942
 30
0.0
  0
SPLINE
  5
A8
330
1F
100
AcDbEntity
  8
0
  6
HIDDEN
 62
     7
370
     0
100
AcDbSpline
210
0.0
220
0.0
230
1.0
 70
     8
 71
     3
 72
     8
 73
     4
 74
     0
 42
0.00000001
 43
0.00000001
 40
0.0
 40
0.0
 40
0.0
 40
0.0
 40
1.0
 40
1.0
 40
1.0
 40
1.0
 10
95.67818538981749
 20
90.27062332963759
 30
0.0
 10
95.7649499292483
 20
90.29780764302035
 30
0.0
 10
95.86807742123571
 20
90.33118246272767
 30
0.0
 10
95.97315060020367
 20
90.36628232041942
 30
0.0
  0
SPLINE
  5
A9
330
1F
100
AcDbEntity
  8
0
  6
HIDDEN
 62
     7
370
     0
100
AcDbSpline
210
0.0
220
0.0
230
1.0
 70
     8
 71
     3
 72
     8
 73
     4
 74
     0
 42
0.00000001
 43
0.00000001
 40
0.0000002554908098
 40
0.0000002554908098
 40
0.0000002554908098
 40
0.0000002554908098
 40
0.0013136577947781
 40
0.0013136577947781
 40
0.0013136577947781
 40
0.0013136577947781
 10
95.6781853898175
 20
90.27062332963759
 30
0.0
 10
95.33547813102642
 20
90.16324926204366
 30
0.0
 10
94.99332243170403
 20
90.05315199178574
 30
0.0
 10
94.65163964461561
 20
89.94088184744729
 30
0.0
  0
SPLINE
  5
AA
330
1F
100
AcDbEntity
  8
0
  6
HIDDEN
 62
     7
370
     0
100
AcDbSpline
210
0.0
220
0.0
230
1.0
 70
     8
 71
     3
 72
    10
 73
     6
 74
     0
 42
0.00000001
 43
0.00000001
 40
0.0
 40
0.0
 40
0.0
 40
0.0
 40
0.5
 40
0.5
 40
1.0
 40
1.0
 40
1.0
 40
1.0
 10
94.4466048550015
 20
89.87397345818016
 30
0.0
 10
94.44660485500015
 20
89.8739734581797
 30
0.0
 10
94.46604412227852
 20
89.8802641062057
 30
0.0
 10
94.53747135561424
 20
89.90349870654323
 30
0.0
 10
94.58926640984603
 20
89.92038724738245
 30
0.0
 10
94.65163964461561
 20
89.94088184744729
 30
0.0
  0
SPLINE
  5
AB
330
1F
100
AcDbEntity
  8
0
  6
HIDDEN
 62
     7
370
     0
100
AcDbSpline
210
0.0
220
0.0
230
1.0
 70
     8
 71
     3
 72
     8
 73
     4
 74
     0
 42
0.00000001
 43
0.00000001
 40
0.0000002422839179
 40
0.0000002422839179
 40
0.0000002422839179
 40
0.0000002422839179
 40
0.0013136445878862
 40
0.0013136445878862
 40
0.0013136445878862
 40
0.0013136445878862
 10
95.59586631563533
 20
89.94088184744729
 30
0.0
 10
95.81600874265379
 20
90.05315199178573
 30
0.0
 10
96.03645586177524
 20
90.16324926204365
 30
0.0
 10
96.25725834454
 20
90.27062332963757
 30
0.0
  0
SPLINE
  5
AC
330
1F
100
AcDbEntity
  8
0
  6
HIDDEN
 62
     7
370
     0
100
AcDbSpline
210
0.0
220
0.0
230
1.0
 70
     8
 71
     3
 72
     8
 73
     4
 74
     0
 42
0.00000001
 43
0.00000001
 40
0.0
 40
0.0
 40
0.0
 40
0.0
 40
1.0
 40
1.0
 40
1.0
 40
1.0
 10
96.25725834454
 20
90.27062332963757
 30
0.0
 10
96.31316004054456
 20
90.29780777254108
 30
0.0
 10
96.39585403527937
 20
90.33118260570487
 30
0.0
 10
96.49292859931161
 20
90.36628232041942
 30
0.0
  0
SPLINE
  5
AD
330
1F
100
AcDbEntity
  8
0
  6
HIDDEN
 62
     7
370
     0
100
AcDbSpline
210
0.0
220
0.0
230
1.0
 70
     8
 71
     3
 72
     8
 73
     4
 74
     0
 42
0.00000001
 43
0.00000001
 40
0.0000002282152697
 40
0.0000002282152697
 40
0.0000002282152697
 40
0.0000002282152697
 40
0.0012883772209633
 40
0.0012883772209633
 40
0.0012883772209633
 40
0.0012883772209633
 10
97.62176030197013
 20
90.7742507286705
 30
0.0
 10
97.24546384161515
 20
90.63832360037668
 30
0.0
 10
96.86918837602073
 20
90.50232836865452
 30
0.0
 10
96.49292859931161
 20
90.36628232041942
 30
0.0
  0
SPLINE
  5
AE
330
1F
100
AcDbEntity
  8
0
  6
HIDDEN
 62
     7
370
     0
100
AcDbSpline
210
0.0
220
0.0
230
1.0
 70
     8
 71
     3
 72
    12
 73
     8
 74
     0
 42
0.00000001
 43
0.00000001
 40
0.0
 40
0.0
 40
0.0
 40
0.0
 40
0.2499999999999998
 40
0.2499999999999998
 40
0.4999999999999997
 40
0.4999999999999997
 40
1.0
 40
1.0
 40
1.0
 40
1.0
 10
97.62176030197014
 20
90.7742507286705
 30
0.0
 10
97.687614126206
 20
90.79803867822311
 30
0.0
 10
97.75800198054537
 20
90.82191058993408
 30
0.0
 10
97.89982194326484
 20
90.86708464055407
 30
0.0
 10
97.97093936228407
 20
90.88824512695749
 30
0.0
 10
98.16433026394658
 20
90.94075866564823
 30
0.0
 10
98.26691966970274
 20
90.9606373112657
 30
0.0
 10
98.30049380378817
 20
90.95513325840949
 30
0.0
  0
SPLINE
  5
AF
330
1F
100
AcDbEntity
  8
0
  6
HIDDEN
 62
     7
370
     0
100
AcDbSpline
210
0.0
220
0.0
230
1.0
 70
     8
 71
     3
 72
     9
 73
     5
 74
     0
 42
0.00000001
 43
0.00000001
 40
0.0
 40
0.0
 40
0.0
 40
0.0
 40
0.4182461873739962
 40
1.0
 40
1.0
 40
1.0
 40
1.0
 10
98.30791850361234
 20
90.94492339709595
 30
0.0
 10
98.30963824462688
 20
90.94375329766288
 30
0.0
 10
98.31375003587915
 20
90.94095566443063
 30
0.0
 10
98.3057621659758
 20
90.93430163047444
 30
0.0
 10
98.30111519220478
 20
90.93043062085107
 30
0.0
  0
SPLINE
  5
B0
330
1F
100
AcDbEntity
  8
0
  6
HIDDEN
 62
     7
370
     0
100
AcDbSpline
210
0.0
220
0.0
230
1.0
 70
     8
 71
     3
 72
     8
 73
     4
 74
     0
 42
0.00000001
 43
0.00000001
 40
0.0000002082633701
 40
0.0000002082633701
 40
0.0000002082633701
 40
0.0000002082633701
 40
0.000218115855525
 40
0.000218115855525
 40
0.000218115855525
 40
0.000218115855525
 10
98.30111517046252
 20
90.93043043443618
 30
0.0
 10
98.28556019248788
 20
90.9174521163274
 30
0.0
 10
98.27001123440235
 20
90.90432062026905
 30
0.0
 10
98.25446830585074
 20
90.89104106389797
 30
0.0
  0
SPLINE
  5
B1
330
1F
100
AcDbEntity
  8
0
  6
HIDDEN
 62
     7
370
     0
100
AcDbSpline
210
0.0
220
0.0
230
1.0
 70
     8
 71
     3
 72
    10
 73
     6
 74
     0
 42
0.00000001
 43
0.00000001
 40
0.0
 40
0.0
 40
0.0
 40
0.0
 40
0.5
 40
0.5
 40
1.0
 40
1.0
 40
1.0
 40
1.0
 10
98.47435586225723
 20
90.89104106389794
 30
0.0
 10
98.38847306063445
 20
90.87211988238495
 30
0.0
 10
98.32014397550023
 20
90.86179796698741
 30
0.0
 10
98.2412471766117
 20
90.86174486094377
 30
0.0
 10
98.23231886688913
 20
90.8721170418041
 30
0.0
 10
98.25446830585074
 20
90.89104106389797
 30
0.0
  0
SPLINE
  5
B2
330
1F
100
AcDbEntity
  8
0
  6
HIDDEN
 62
     7
370
     0
100
AcDbSpline
210
0.0
220
0.0
230
1.0
 70
     8
 71
     3
 72
     8
 73
     4
 74
     0
 42
0.00000001
 43
0.00000001
 40
0.0000002408251663
 40
0.0000002408251663
 40
0.0000002408251663
 40
0.0000002408251663
 40
0.0002181484173214
 40
0.0002181484173214
 40
0.0002181484173214
 40
0.0002181484173214
 10
98.6552527626044
 20
90.9304304344362
 30
0.0
 10
98.59493043817807
 20
90.9174521163274
 30
0.0
 10
98.53463145892819
 20
90.90432062026905
 30
0.0
 10
98.47435586225723
 20
90.89104106389794
 30
0.0
  0
SPLINE
  5
B3
330
1F
100
AcDbEntity
  8
0
  6
HIDDEN
 62
     7
370
     0
100
AcDbSpline
210
0.0
220
0.0
230
1.0
 70
     8
 71
     3
 72
    12
 73
     8
 74
     0
 42
0.00000001
 43
0.00000001
 40
0.0
 40
0.0
 40
0.0
 40
0.0
 40
0.5000000000000009
 40
0.5000000000000009
 40
0.7500000000000004
 40
0.7500000000000004
 40
1.0
 40
1.0
 40
1.0
 40
1.0
 10
98.57846888288289
 20
90.7742507286705
 30
0.0
 10
98.74304291779595
 20
90.83369873925102
 30
0.0
 10
98.86454312157544
 20
90.89491096223824
 30
0.0
 10
98.89413100570685
 20
90.94632324729595
 30
0.0
 10
98.87800918701106
 20
90.95582774128329
 30
0.0
 10
98.7976705387938
 20
90.95634411382296
 30
0.0
 10
98.73334116988401
 20
90.94723111643842
 30
0.0
 10
98.6552527626044
 20
90.9304304344362
 30
0.0
  0
SPLINE
  5
B4
330
1F
100
AcDbEntity
  8
0
  6
HIDDEN
 62
     7
370
     0
100
AcDbSpline
210
0.0
220
0.0
230
1.0
 70
     8
 71
     3
 72
     8
 73
     4
 74
     0
 42
0.00000001
 43
0.00000001
 40
0.0000002282152696
 40
0.0000002282152696
 40
0.0000002282152696
 40
0.0000002282152696
 40
0.0012883772209633
 40
0.0012883772209633
 40
0.0012883772209633
 40
0.0012883772209633
 10
98.57846888288289
 20
90.7742507286705
 30
0.0
 10
98.2021724225279
 20
90.63832360037668
 30
0.0
 10
97.82589695693349
 20
90.50232836865452
 30
0.0
 10
97.44963718022436
 20
90.36628232041942
 30
0.0
  0
SPLINE
  5
B5
330
1F
100
AcDbEntity
  8
0
  6
HIDDEN
 62
     7
370
     0
100
AcDbSpline
210
0.0
220
0.0
230
1.0
 70
     8
 71
     3
 72
     8
 73
     4
 74
     0
 42
0.00000001
 43
0.00000001
 40
0.0
 40
0.0
 40
0.0
 40
0.0
 40
1.0
 40
1.0
 40
1.0
 40
1.0
 10
97.14028279363859
 20
90.27062332963759
 30
0.0
 10
97.24470265488144
 20
90.29780798839954
 30
0.0
 10
97.35256277488995
 20
90.33118266308819
 30
0.0
 10
97.44963718022436
 20
90.36628232041942
 30
0.0
  0
SPLINE
  5
B6
330
1F
100
AcDbEntity
  8
0
  6
HIDDEN
 62
     7
370
     0
100
AcDbSpline
210
0.0
220
0.0
230
1.0
 70
     8
 71
     3
 72
     8
 73
     4
 74
     0
 42
0.00000001
 43
0.00000001
 40
0.0000002122951039
 40
0.0000002122951039
 40
0.0000002122951039
 40
0.0000002122951039
 40
0.0013136145990722
 40
0.0013136145990722
 40
0.0013136145990722
 40
0.0013136145990722
 10
97.14028279363859
 20
90.27062332963759
 30
0.0
 10
96.72784483232313
 20
90.16324926204366
 30
0.0
 10
96.31607065637249
 20
90.05315199178574
 30
0.0
 10
95.90486561618614
 20
89.94088184744729
 30
0.0
  0
SPLINE
  5
B7
330
1F
100
AcDbEntity
  8
0
  6
HIDDEN
 62
     7
370
     0
100
AcDbSpline
210
0.0
220
0.0
230
1.0
 70
     8
 71
     3
 72
    10
 73
     6
 74
     0
 42
0.00000001
 43
0.00000001
 40
0.0
 40
0.0
 40
0.0
 40
0.0
 40
0.5
 40
0.5
 40
1.0
 40
1.0
 40
1.0
 40
1.0
 10
95.56093852033027
 20
89.87397345818016
 30
0.0
 10
95.5912675072348
 20
89.8739734581797
 30
0.0
 10
95.63962325509081
 20
89.88026407059597
 30
0.0
 10
95.75887930386347
 20
89.90349865016502
 30
0.0
 10
95.82980064789132
 20
89.92038707233185
 30
0.0
 10
95.90486561618616
 20
89.94088184744729
 30
0.0
  0
SPLINE
  5
B8
330
1F
100
AcDbEntity
  8
0
  6
HIDDEN
 62
     7
370
     0
100
AcDbSpline
210
0.0
220
0.0
230
1.0
 70
     8
 71
     3
 72
    10
 73
     6
 74
     0
 42
0.00000001
 43
0.00000001
 40
0.0
 40
0.0
 40
0.0
 40
0.0
 40
0.5
 40
0.5
 40
1.0
 40
1.0
 40
1.0
 40
1.0
 10
95.59586631563533
 20
89.94088184744729
 30
0.0
 10
95.55558994309334
 20
89.92034135363973
 30
0.0
 10
95.53086273999284
 20
89.90346345340484
 30
0.0
 10
95.51818834528572
 20
89.88026563460355
 30
0.0
 10
95.53053411230673
 20
89.87397345818059
 30
0.0
 10
95.56093852033027
 20
89.87397345818016
 30
0.0
  0
SPLINE
  5
B9
330
1F
100
AcDbEntity
  8
0
  6
HIDDEN
 62
     7
370
     0
100
AcDbSpline
210
0.0
220
0.0
230
1.0
 70
     8
 71
     3
 72
     8
 73
     4
 74
     0
 42
0.00000001
 43
0.00000001
 40
0.0000002094082048
 40
0.0000002094082048
 40
0.0000002094082048
 40
0.0000002094082048
 40
0.0013136117121732
 40
0.0013136117121732
 40
0.0013136117121732
 40
0.0013136117121732
 10
98.59379567801862
 20
89.94088184744729
 30
0.0
 10
98.65888305604965
 20
90.05315199178573
 30
0.0
 10
98.72406051944202
 20
90.16324926204365
 30
0.0
 10
98.78934304975904
 20
90.27062332963757
 30
0.0
  0
SPLINE
  5
BA
330
1F
100
AcDbEntity
  8
0
  6
HIDDEN
 62
     7
370
     0
100
AcDbSpline
210
0.0
220
0.0
230
1.0
 70
     8
 71
     3
 72
     8
 73
     4
 74
     0
 42
0.00000001
 43
0.00000001
 40
0.0
 40
0.0
 40
0.0
 40
0.0
 40
1.0
 40
1.0
 40
1.0
 40
1.0
 10
98.78934304975903
 20
90.27062332963757
 30
0.0
 10
98.80587117332328
 20
90.29780811933138
 30
0.0
 10
98.85554315517267
 20
90.33118313524288
 30
0.0
 10
98.92983968898345
 20
90.36628232041951
 30
0.0
  0
SPLINE
  5
BB
330
1F
100
AcDbEntity
  8
0
  6
HIDDEN
 62
     7
370
     0
100
AcDbSpline
210
0.0
220
0.0
230
1.0
 70
     8
 71
     3
 72
     8
 73
     4
 74
     0
 42
0.00000001
 43
0.00000001
 40
0.0000002981776187
 40
0.0000002981776187
 40
0.0000002981776187
 40
0.0000002981776187
 40
0.0012884471833121
 40
0.0012884471833121
 40
0.0012884471833121
 40
0.0012884471833121
 10
99.79381007005503
 20
90.7742507286705
 30
0.0
 10
99.50580522798414
 20
90.63832360037672
 30
0.0
 10
99.21781645460732
 20
90.50232836865459
 30
0.0
 10
98.92983968898345
 20
90.36628232041951
 30
0.0
  0
SPLINE
  5
BC
330
1F
100
AcDbEntity
  8
0
  6
HIDDEN
 62
     7
370
     0
100
AcDbSpline
210
0.0
220
0.0
230
1.0
 70
     8
 71
     3
 72
    12
 73
     8
 74
     0
 42
0.00000001
 43
0.00000001
 40
0.0
 40
0.0
 40
0.0
 40
0.0
 40
0.4999999999999994
 40
0.4999999999999994
 40
0.7499999999999997
 40
0.7499999999999997
 40
1.0
 40
1.0
 40
1.0
 40
1.0
 10
99.79381007005503
 20
90.7742507286705
 30
0.0
 10
99.91976686670588
 20
90.83369745719028
 30
0.0
 10
100.1110526388472
 20
90.89491170485483
 30
0.0
 10
100.3768996407437
 20
90.94632282121466
 30
0.0
 10
100.4579330570686
 20
90.95582766170205
 30
0.0
 10
100.5817321944131
 20
90.9563441869973
 30
0.0
 10
100.6239225773794
 20
90.94723149810174
 30
0.0
 10
100.6398748449763
 20
90.93043043443618
 30
0.0
  0
SPLINE
  5
BD
330
1F
100
AcDbEntity
  8
0
  6
HIDDEN
 62
     7
370
     0
100
AcDbSpline
210
0.0
220
0.0
230
1.0
 70
     8
 71
     3
 72
     8
 73
     4
 74
     0
 42
0.00000001
 43
0.00000001
 40
0.0000002063612483
 40
0.0000002063612483
 40
0.0000002063612483
 40
0.0000002063612483
 40
0.0002181139534033
 40
0.0002181139534033
 40
0.0002181139534033
 40
0.0002181139534033
 10
100.6398748449763
 20
90.93043043443618
 30
0.0
 10
100.6521974935664
 20
90.9174521163274
 30
0.0
 10
100.6645153732023
 20
90.90432062026905
 30
0.0
 10
100.6768284762432
 20
90.89104106389797
 30
0.0
  0
SPLINE
  5
BE
330
1F
100
AcDbEntity
  8
0
  6
HIDDEN
 62
     7
370
     0
100
AcDbSpline
210
0.0
220
0.0
230
1.0
 70
     8
 71
     3
 72
    10
 73
     6
 74
     0
 42
0.00000001
 43
0.00000001
 40
0.0
 40
0.0
 40
0.0
 40
0.0
 40
0.5
 40
0.5
 40
1.0
 40
1.0
 40
1.0
 40
1.0
 10
101.0831277018791
 20
90.89104106389794
 30
0.0
 10
100.9829007417367
 20
90.87211968172923
 30
0.0
 10
100.8888784725847
 20
90.86179797186333
 30
0.0
 10
100.7432629358537
 20
90.86174485610783
 30
0.0
 10
100.6943752471569
 20
90.87211704997287
 30
0.0
 10
100.6768284762433
 20
90.89104106389797
 30
0.0
  0
SPLINE
  5
BF
330
1F
100
AcDbEntity
  8
0
  6
HIDDEN
 62
     7
370
     0
100
AcDbSpline
210
0.0
220
0.0
230
1.0
 70
     8
 71
     3
 72
     8
 73
     4
 74
     0
 42
0.00000001
 43
0.00000001
 40
0.0000002063612482
 40
0.0000002063612482
 40
0.0000002063612482
 40
0.0000002063612482
 40
0.0002181139534034
 40
0.0002181139534034
 40
0.0002181139534034
 40
0.0002181139534034
 10
101.2942357911216
 20
90.9304304344362
 30
0.0
 10
101.2238391694887
 20
90.9174521163274
 30
0.0
 10
101.1534697918582
 20
90.90432062026905
 30
0.0
 10
101.0831277018791
 20
90.89104106389794
 30
0.0
  0
SPLINE
  5
C0
330
1F
100
AcDbEntity
  8
0
  6
HIDDEN
 62
     7
370
     0
100
AcDbSpline
210
0.0
220
0.0
230
1.0
 70
     8
 71
     3
 72
    12
 73
     8
 74
     0
 42
0.00000001
 43
0.00000001
 40
0.0
 40
0.0
 40
0.0
 40
0.0
 40
0.5000000000000022
 40
0.5000000000000022
 40
0.7500000000000011
 40
0.7500000000000011
 40
1.0
 40
1.0
 40
1.0
 40
1.0
 10
101.5615770230214
 20
90.7742507286705
 30
0.0
 10
101.6875338196909
 20
90.83369745719027
 30
0.0
 10
101.7398157705974
 20
90.8949117048548
 30
0.0
 10
101.6617234015839
 20
90.94632282121465
 30
0.0
 10
101.6107089579549
 20
90.95582766170203
 30
0.0
 10
101.4724716400648
 20
90.9563441869973
 30
0.0
 10
101.3853676397877
 20
90.94723149810177
 30
0.0
 10
101.2942357911216
 20
90.9304304344362
 30
0.0
  0
SPLINE
  5
C1
330
1F
100
AcDbEntity
  8
0
  6
HIDDEN
 62
     7
370
     0
100
AcDbSpline
210
0.0
220
0.0
230
1.0
 70
     8
 71
     3
 72
     8
 73
     4
 74
     0
 42
0.00000001
 43
0.00000001
 40
0.0000002981776187
 40
0.0000002981776187
 40
0.0000002981776187
 40
0.0000002981776187
 40
0.0012884471833124
 40
0.0012884471833124
 40
0.0012884471833124
 40
0.0012884471833124
 10
101.5615770230214
 20
90.7742507286705
 30
0.0
 10
101.2735721809505
 20
90.63832360037668
 30
0.0
 10
100.9855834075736
 20
90.50232836865452
 30
0.0
 10
100.6976066419496
 20
90.36628232041942
 30
0.0
  0
SPLINE
  5
C2
330
1F
100
AcDbEntity
  8
0
  6
HIDDEN
 62
     7
370
     0
100
AcDbSpline
210
0.0
220
0.0
230
1.0
 70
     8
 71
     3
 72
     8
 73
     4
 74
     0
 42
0.00000001
 43
0.00000001
 40
0.0
 40
0.0
 40
0.0
 40
0.0
 40
1.0
 40
1.0
 40
1.0
 40
1.0
 10
100.4209594802175
 20
90.27062332963759
 30
0.0
 10
100.5271370959939
 20
90.29780811958454
 30
0.0
 10
100.6233101105057
 20
90.33118313636619
 30
0.0
 10
100.6976066419496
 20
90.36628232041942
 30
0.0
  0
SPLINE
  5
C3
330
1F
100
AcDbEntity
  8
0
  6
HIDDEN
 62
     7
370
     0
100
AcDbSpline
210
0.0
220
0.0
230
1.0
 70
     8
 71
     3
 72
     8
 73
     4
 74
     0
 42
0.00000001
 43
0.00000001
 40
0.0000002087815986
 40
0.0000002087815986
 40
0.0000002087815986
 40
0.0000002087815986
 40
0.001313611085567
 40
0.001313611085567
 40
0.001313611085567
 40
0.001313611085567
 10
100.4209594802175
 20
90.27062332963759
 30
0.0
 10
100.0015807572285
 20
90.16324926204366
 30
0.0
 10
99.58287699019587
 20
90.05315199178574
 30
0.0
 10
99.16475193669702
 20
89.94088184744729
 30
0.0
  0
SPLINE
  5
C4
330
1F
100
AcDbEntity
  8
0
  6
HIDDEN
 62
     7
370
     0
100
AcDbSpline
210
0.0
220
0.0
230
1.0
 70
     8
 71
     3
 72
    10
 73
     6
 74
     0
 42
0.00000001
 43
0.00000001
 40
0.0
 40
0.0
 40
0.0
 40
0.0
 40
0.5
 40
0.5
 40
1.0
 40
1.0
 40
1.0
 40
1.0
 10
98.73429231723651
 20
89.87397345818016
 30
0.0
 10
98.79033258576395
 20
89.8739734581797
 30
0.0
 10
98.86024328940508
 20
89.88026402500603
 30
0.0
 10
99.00917309061424
 20
89.90349868352455
 30
0.0
 10
99.08842369960657
 20
89.92038706455146
 30
0.0
 10
99.16475193669702
 20
89.94088184744729
 30
0.0
  0
SPLINE
  5
C5
330
1F
100
AcDbEntity
  8
0
  6
HIDDEN
 62
     7
370
     0
100
AcDbSpline
210
0.0
220
0.0
230
1.0
 70
     8
 71
     3
 72
    10
 73
     6
 74
     0
 42
0.00000001
 43
0.00000001
 40
0.0
 40
0.0
 40
0.0
 40
0.0
 40
0.5
 40
0.5
 40
1.0
 40
1.0
 40
1.0
 40
1.0
 10
98.59379567801862
 20
89.94088184744729
 30
0.0
 10
98.58188743631848
 20
89.92034115191785
 30
0.0
 10
98.5879612779228
 20
89.90346341530866
 30
0.0
 10
98.635856630055
 20
89.88026558325126
 30
0.0
 10
98.67811270086499
 20
89.87397345818059
 30
0.0
 10
98.73429231723651
 20
89.87397345818016
 30
0.0
  0
SPLINE
  5
C6
330
1F
100
AcDbEntity
  8
0
  6
HIDDEN
 62
     7
370
     0
100
AcDbSpline
210
0.0
220
0.0
230
1.0
 70
     8
 71
     3
 72
     8
 73
     4
 74
     0
 42
0.00000001
 43
0.00000001
 40
0.0000002129322567
 40
0.0000002129322567
 40
0.0000002129322567
 40
0.0000002129322567
 40
0.001313615236225
 40
0.001313615236225
 40
0.001313615236225
 40
0.001313615236225
 10
103.1890201626399
 20
89.94088184744729
 30
0.0
 10
103.0891435283968
 20
90.05315199178573
 30
0.0
 10
102.9891286580938
 20
90.16324926204365
 30
0.0
 10
102.8889525625099
 20
90.27062332963757
 30
0.0
  0
LINE
  5
C7
330
1F
100
AcDbEntity
  8
0
  6
HIDDEN
 62
     7
370
     0
100
AcDbLine
 10
102.8889526871
 20
90.2706230357
 30
0.0
 11
102.8813689274
 21
90.3046600818
 31
0.0
  0
SPLINE
  5
C8
330
1F
100
AcDbEntity
  8
0
  6
HIDDEN
 62
     7
370
     0
100
AcDbSpline
210
0.0
220
0.0
230
1.0
 70
     8
 71
     3
 72
     8
 73
     4
 74
     0
 42
0.00000001
 43
0.00000001
 40
0.0
 40
0.0
 40
0.0
 40
0.0
 40
1.0
 40
1.0
 40
1.0
 40
1.0
 10
102.877869001303
 20
90.3203687444742
 30
0.0
 10
102.8831040184489
 20
90.33520818001112
 30
0.0
 10
102.8948188330106
 20
90.35051093640566
 30
0.0
 10
102.9128862464701
 20
90.3662823204194
 30
0.0
  0
SPLINE
  5
C9
330
1F
100
AcDbEntity
  8
0
  6
HIDDEN
 62
     7
370
     0
100
AcDbSpline
210
0.0
220
0.0
230
1.0
 70
     8
 71
     3
 72
     8
 73
     4
 74
     0
 42
0.00000001
 43
0.00000001
 40
0.0000002282152697
 40
0.0000002282152697
 40
0.0000002282152697
 40
0.0000002282152697
 40
0.0012883772209633
 40
0.0012883772209633
 40
0.0012883772209633
 40
0.0012883772209633
 10
103.3804636473479
 20
90.7742507286705
 30
0.0
 10
103.2245965499959
 20
90.63832360037668
 30
0.0
 10
103.0687381489584
 20
90.50232836865452
 30
0.0
 10
102.9128862464701
 20
90.36628232041942
 30
0.0
  0
SPLINE
  5
CA
330
1F
100
AcDbEntity
  8
0
  6
HIDDEN
 62
     7
370
     0
100
AcDbSpline
210
0.0
220
0.0
230
1.0
 70
     8
 71
     3
 72
    12
 73
     8
 74
     0
 42
0.00000001
 43
0.00000001
 40
0.0
 40
0.0
 40
0.0
 40
0.0
 40
0.4999999999999998
 40
0.4999999999999998
 40
0.7499999999999999
 40
0.7499999999999999
 40
1.0
 40
1.0
 40
1.0
 40
1.0
 10
103.3804636473479
 20
90.7742507286705
 30
0.0
 10
103.4486324446091
 20
90.83369873925103
 30
0.0
 10
103.6053444477071
 20
90.89491096223827
 30
0.0
 10
103.8808461509947
 20
90.94632324729595
 30
0.0
 10
103.9752329413639
 20
90.95582774128329
 30
0.0
 10
104.1425083634789
 20
90.95634411382295
 30
0.0
 10
104.2148211411684
 20
90.9472311164384
 30
0.0
 10
104.2644326363127
 20
90.93043043443618
 30
0.0
  0
SPLINE
  5
CB
330
1F
100
AcDbEntity
  8
0
  6
HIDDEN
 62
     7
370
     0
100
AcDbSpline
210
0.0
220
0.0
230
1.0
 70
     8
 71
     3
 72
     8
 73
     4
 74
     0
 42
0.00000001
 43
0.00000001
 40
0.0000002408251664
 40
0.0000002408251664
 40
0.0000002408251664
 40
0.0000002408251664
 40
0.0002181484173213
 40
0.0002181484173213
 40
0.0002181484173213
 40
0.0002181484173213
 10
104.2644326363127
 20
90.93043043443618
 30
0.0
 10
104.3027568999248
 20
90.9174521163274
 30
0.0
 10
104.3410663317692
 20
90.90432062026905
 30
0.0
 10
104.3793609080834
 20
90.89104106389797
 30
0.0
  0
SPLINE
  5
CC
330
1F
100
AcDbEntity
  8
0
  6
HIDDEN
 62
     7
370
     0
100
AcDbSpline
210
0.0
220
0.0
230
1.0
 70
     8
 71
     3
 72
    10
 73
     6
 74
     0
 42
0.00000001
 43
0.00000001
 40
0.0
 40
0.0
 40
0.0
 40
0.0
 40
0.5
 40
0.5
 40
1.0
 40
1.0
 40
1.0
 40
1.0
 10
104.9102164289572
 20
90.89104106389794
 30
0.0
 10
104.8109048336153
 20
90.87211967533263
 30
0.0
 10
104.7055027418829
 20
90.86179795258994
 30
0.0
 10
104.5153361144191
 20
90.86174487523098
 30
0.0
 10
104.4339321032004
 20
90.87211720231102
 30
0.0
 10
104.3793609080834
 20
90.89104106389797
 30
0.0
  0
SPLINE
  5
CD
330
1F
100
AcDbEntity
  8
0
  6
HIDDEN
 62
     7
370
     0
100
AcDbSpline
210
0.0
220
0.0
230
1.0
 70
     8
 71
     3
 72
     8
 73
     4
 74
     0
 42
0.00000001
 43
0.00000001
 40
0.0000002082633699
 40
0.0000002082633699
 40
0.0000002082633699
 40
0.0000002082633699
 40
0.0002181158555251
 40
0.0002181158555251
 40
0.0002181158555251
 40
0.0002181158555251
 10
105.1193964142075
 20
90.9304304344362
 30
0.0
 10
105.0496427428646
 20
90.9174521163274
 30
0.0
 10
104.9799160666977
 20
90.90432062026905
 30
0.0
 10
104.9102164289572
 20
90.89104106389794
 30
0.0
  0
SPLINE
  5
CE
330
1F
100
AcDbEntity
  8
0
  6
HIDDEN
 62
     7
370
     0
100
AcDbSpline
210
0.0
220
0.0
230
1.0
 70
     8
 71
     3
 72
    12
 73
     8
 74
     0
 42
0.00000001
 43
0.00000001
 40
0.0
 40
0.0
 40
0.0
 40
0.0
 40
0.5000000000000018
 40
0.5000000000000018
 40
0.7500000000000009
 40
0.7500000000000009
 40
1.0
 40
1.0
 40
1.0
 40
1.0
 10
105.6901624786262
 20
90.7742507286705
 30
0.0
 10
105.758331230815
 20
90.83369869992346
 30
0.0
 10
105.7334328298567
 20
90.89491087657306
 30
0.0
 10
105.5595457553499
 20
90.94632319000547
 30
0.0
 10
105.4814044743881
 20
90.9558277046914
 30
0.0
 10
105.3063150769891
 20
90.95634414739501
 30
0.0
 10
105.2096958723379
 20
90.94723148691399
 30
0.0
 10
105.1193964142075
 20
90.9304304344362
 30
0.0
  0
SPLINE
  5
CF
330
1F
100
AcDbEntity
  8
0
  6
HIDDEN
 62
     7
370
     0
100
AcDbSpline
210
0.0
220
0.0
230
1.0
 70
     8
 71
     3
 72
     8
 73
     4
 74
     0
 42
0.00000001
 43
0.00000001
 40
0.0000002282152696
 40
0.0000002282152696
 40
0.0000002282152696
 40
0.0000002282152696
 40
0.0012883772209633
 40
0.0012883772209633
 40
0.0012883772209633
 40
0.0012883772209633
 10
105.6901624786262
 20
90.7742507286705
 30
0.0
 10
105.5342953812741
 20
90.63832360037668
 30
0.0
 10
105.3784369802367
 20
90.50232836865452
 30
0.0
 10
105.2225850777483
 20
90.36628232041942
 30
0.0
  0
SPLINE
  5
D0
330
1F
100
AcDbEntity
  8
0
  6
HIDDEN
 62
     7
370
     0
100
AcDbSpline
210
0.0
220
0.0
230
1.0
 70
     8
 71
     3
 72
     8
 73
     4
 74
     0
 42
0.00000001
 43
0.00000001
 40
0.0
 40
0.0
 40
0.0
 40
0.0
 40
1.0
 40
1.0
 40
1.0
 40
1.0
 10
105.0207621634307
 20
90.27062332963759
 30
0.0
 10
105.1125312787947
 20
90.29780777254109
 30
0.0
 10
105.1823754767562
 20
90.33118260570488
 30
0.0
 10
105.2225850777483
 20
90.3662823204194
 30
0.0
  0
SPLINE
  5
D1
330
1F
100
AcDbEntity
  8
0
  6
HIDDEN
 62
     7
370
     0
100
AcDbSpline
210
0.0
220
0.0
230
1.0
 70
     8
 71
     3
 72
     8
 73
     4
 74
     0
 42
0.00000001
 43
0.00000001
 40
0.0000002415589206
 40
0.0000002415589206
 40
0.0000002415589206
 40
0.0000002415589206
 40
0.0013136438628889
 40
0.0013136438628889
 40
0.0013136438628889
 40
0.0013136438628889
 10
105.0207621634307
 20
90.27062332963759
 30
0.0
 10
104.6582892876656
 20
90.16324926204366
 30
0.0
 10
104.2963997825227
 20
90.05315199178574
 30
0.0
 10
103.9350104647935
 20
89.94088184744729
 30
0.0
  0
SPLINE
  5
D2
330
1F
100
AcDbEntity
  8
0
  6
HIDDEN
 62
     7
370
     0
100
AcDbSpline
210
0.0
220
0.0
230
1.0
 70
     8
 71
     3
 72
    10
 73
     6
 74
     0
 42
0.00000001
 43
0.00000001
 40
0.0
 40
0.0
 40
0.0
 40
0.0
 40
0.5
 40
0.5
 40
1.0
 40
1.0
 40
1.0
 40
1.0
 10
103.483551896665
 20
89.87397345818016
 30
0.0
 10
103.5567721615531
 20
89.8739734581797
 30
0.0
 10
103.6375946439482
 20
89.88026404260306
 30
0.0
 10
103.793524647116
 20
89.90349873474953
 30
0.0
 10
103.8690397023351
 20
89.92038719899107
 30
0.0
 10
103.9350104647935
 20
89.94088184744729
 30
0.0
  0
SPLINE
  5
D3
330
1F
100
AcDbEntity
  8
0
  6
HIDDEN
 62
     7
370
     0
100
AcDbSpline
210
0.0
220
0.0
230
1.0
 70
     8
 71
     3
 72
    10
 73
     6
 74
     0
 42
0.00000001
 43
0.00000001
 40
0.0
 40
0.0
 40
0.0
 40
0.0
 40
0.5
 40
0.5
 40
1.0
 40
1.0
 40
1.0
 40
1.0
 10
103.1890201626399
 20
89.94088184744729
 30
0.0
 10
103.2072933500454
 20
89.92034117342
 30
0.0
 10
103.2432432253596
 20
89.9034634193674
 30
0.0
 10
103.3444165929484
 20
89.8802655887258
 30
0.0
 10
103.4101496342604
 20
89.87397345818059
 30
0.0
 10
103.483551896665
 20
89.87397345818016
 30
0.0
  0
SPLINE
  5
D4
330
1F
100
AcDbEntity
  8
0
  6
HIDDEN
 62
     7
370
     0
100
AcDbSpline
210
0.0
220
0.0
230
1.0
 70
     8
 71
     3
 72
     8
 73
     4
 74
     0
 42
0.00000001
 43
0.00000001
 40
0.0000002562576294
 40
0.0000002562576294
 40
0.0000002562576294
 40
0.0000002562576294
 40
0.0013136585615977
 40
0.0013136585615977
 40
0.0013136585615977
 40
0.0013136585615977
 10
108.6819584975291
 20
89.94088184744729
 30
0.0
 10
108.4323231631915
 20
90.05315199178573
 30
0.0
 10
108.1823423165597
 20
90.16324926204365
 30
0.0
 10
107.931958497529
 20
90.27062332963757
 30
0.0
  0
SPLINE
  5
D5
330
1F
100
AcDbEntity
  8
0
  6
HIDDEN
 62
     7
370
     0
100
AcDbSpline
210
0.0
220
0.0
230
1.0
 70
     8
 71
     3
 72
     8
 73
     4
 74
     0
 42
0.00000001
 43
0.00000001
 40
0.0
 40
0.0
 40
0.0
 40
0.0
 40
1.0
 40
1.0
 40
1.0
 40
1.0
 10
107.931958497529
 20
90.27062332963757
 30
0.0
 10
107.8685678450568
 20
90.29780764302033
 30
0.0
 10
107.8356855398094
 20
90.33118246272765
 30
0.0
 10
107.8356855398015
 20
90.36628232041942
 30
0.0
  0
SPLINE
  5
D6
330
1F
100
AcDbEntity
  8
0
  6
HIDDEN
 62
     7
370
     0
100
AcDbSpline
210
0.0
220
0.0
230
1.0
 70
    24
 71
     3
 72
     8
 73
     4
 74
     0
 42
0.00000001
 43
0.00000001
 40
0.0
 40
0.0
 40
0.0
 40
0.0
 40
1.0
 40
1.0
 40
1.0
 40
1.0
 10
107.8356855398015
 20
90.7742507286705
 30
0.0
 10
107.8356855398015
 20
90.6383236188573
 30
0.0
 10
107.8356855398015
 20
90.50232838101631
 30
0.0
 10
107.8356855398015
 20
90.36628232041942
 30
0.0
  0
SPLINE
  5
D7
330
1F
100
AcDbEntity
  8
0
  6
HIDDEN
 62
     7
370
     0
100
AcDbSpline
210
0.0
220
0.0
230
1.0
 70
     8
 71
     3
 72
    12
 73
     8
 74
     0
 42
0.00000001
 43
0.00000001
 40
0.0
 40
0.0
 40
0.0
 40
0.0
 40
0.4999999999999991
 40
0.4999999999999991
 40
0.7499999999999996
 40
0.7499999999999996
 40
1.0
 40
1.0
 40
1.0
 40
1.0
 10
107.8356855398015
 20
90.7742507286705
 30
0.0
 10
107.8356855397883
 20
90.83369901767055
 30
0.0
 10
107.9339713690165
 20
90.89491069071042
 30
0.0
 10
108.1771801454699
 20
90.9463232948655
 30
0.0
 10
108.2705515433457
 20
90.95582772385487
 30
0.0
 10
108.4558377454741
 20
90.95634412977314
 30
0.0
 10
108.5472630227388
 20
90.94723139823887
 30
0.0
 10
108.6229824774386
 20
90.93043043443618
 30
0.0
  0
SPLINE
  5
D8
330
1F
100
AcDbEntity
  8
0
  6
HIDDEN
 62
     7
370
     0
100
AcDbSpline
210
0.0
220
0.0
230
1.0
 70
     8
 71
     3
 72
     8
 73
     4
 74
     0
 42
0.00000001
 43
0.00000001
 40
0.000000248363765
 40
0.000000248363765
 40
0.000000248363765
 40
0.000000248363765
 40
0.0002181559559199
 40
0.0002181559559199
 40
0.0002181559559199
 40
0.0002181559559199
 10
108.6229824774386
 20
90.93043043443618
 30
0.0
 10
108.6814738343481
 20
90.91745211632738
 30
0.0
 10
108.7399425546787
 20
90.90432062026905
 30
0.0
 10
108.7983886021635
 20
90.89104106389797
 30
0.0
  0
SPLINE
  5
D9
330
1F
100
AcDbEntity
  8
0
  6
HIDDEN
 62
     7
370
     0
100
AcDbSpline
210
0.0
220
0.0
230
1.0
 70
     8
 71
     3
 72
    10
 73
     6
 74
     0
 42
0.00000001
 43
0.00000001
 40
0.0
 40
0.0
 40
0.0
 40
0.0
 40
0.5
 40
0.5
 40
1.0
 40
1.0
 40
1.0
 40
1.0
 10
109.3729824774394
 20
90.89104106389794
 30
0.0
 10
109.2897065879328
 20
90.8721199064109
 30
0.0
 10
109.1889713332813
 20
90.86179794390787
 30
0.0
 10
108.9832025060909
 20
90.86174488384316
 30
0.0
 10
108.8816763292434
 20
90.87211721678983
 30
0.0
 10
108.7983886021635
 20
90.89104106389797
 30
0.0
  0
SPLINE
  5
DA
330
1F
100
AcDbEntity
  8
0
  6
HIDDEN
 62
     7
370
     0
100
AcDbSpline
210
0.0
220
0.0
230
1.0
 70
     8
 71
     3
 72
     8
 73
     4
 74
     0
 42
0.00000001
 43
0.00000001
 40
0.0000002483637648
 40
0.0000002483637648
 40
0.0000002483637648
 40
0.0000002483637648
 40
0.00021815595592
 40
0.00021815595592
 40
0.00021815595592
 40
0.00021815595592
 10
109.5483886021645
 20
90.9304304344362
 30
0.0
 10
109.489897245255
 20
90.9174521163274
 30
0.0
 10
109.4314285249242
 20
90.90432062026905
 30
0.0
 10
109.3729824774394
 20
90.89104106389794
 30
0.0
  0
SPLINE
  5
DB
330
1F
100
AcDbEntity
  8
0
  6
HIDDEN
 62
     7
370
     0
100
AcDbSpline
210
0.0
220
0.0
230
1.0
 70
     8
 71
     3
 72
    12
 73
     8
 74
     0
 42
0.00000001
 43
0.00000001
 40
0.0
 40
0.0
 40
0.0
 40
0.0
 40
0.4999999999999993
 40
0.4999999999999993
 40
0.7499999999999997
 40
0.7499999999999997
 40
1.0
 40
1.0
 40
1.0
 40
1.0
 10
110.3356855398015
 20
90.7742507286705
 30
0.0
 10
110.3356855398147
 20
90.83369901767055
 30
0.0
 10
110.2373997105865
 20
90.8949106907104
 30
0.0
 10
109.9941909341332
 20
90.94632329486546
 30
0.0
 10
109.9008195362574
 20
90.95582772385487
 30
0.0
 10
109.715533334129
 20
90.95634412977316
 30
0.0
 10
109.6241080568643
 20
90.9472313982389
 30
0.0
 10
109.5483886021645
 20
90.9304304344362
 30
0.0
  0
SPLINE
  5
DC
330
1F
100
AcDbEntity
  8
0
  6
HIDDEN
 62
     7
370
     0
100
AcDbSpline
210
0.0
220
0.0
230
1.0
 70
    24
 71
     3
 72
     8
 73
     4
 74
     0
 42
0.00000001
 43
0.00000001
 40
0.0
 40
0.0
 40
0.0
 40
0.0
 40
1.0
 40
1.0
 40
1.0
 40
1.0
 10
110.3356855398015
 20
90.7742507286705
 30
0.0
 10
110.3356855398015
 20
90.6383236188573
 30
0.0
 10
110.3356855398015
 20
90.50232838101631
 30
0.0
 10
110.3356855398015
 20
90.36628232041942
 30
0.0
  0
SPLINE
  5
DD
330
1F
100
AcDbEntity
  8
0
  6
HIDDEN
 62
     7
370
     0
100
AcDbSpline
210
0.0
220
0.0
230
1.0
 70
     8
 71
     3
 72
     8
 73
     4
 74
     0
 42
0.00000001
 43
0.00000001
 40
0.0
 40
0.0
 40
0.0
 40
0.0
 40
1.0
 40
1.0
 40
1.0
 40
1.0
 10
110.239412582074
 20
90.27062332963759
 30
0.0
 10
110.3028032345462
 20
90.29780764302035
 30
0.0
 10
110.3356855397936
 20
90.33118246272767
 30
0.0
 10
110.3356855398015
 20
90.36628232041942
 30
0.0
  0
SPLINE
  5
DE
330
1F
100
AcDbEntity
  8
0
  6
HIDDEN
 62
     7
370
     0
100
AcDbSpline
210
0.0
220
0.0
230
1.0
 70
     8
 71
     3
 72
     8
 73
     4
 74
     0
 42
0.00000001
 43
0.00000001
 40
0.0000002554908098
 40
0.0000002554908098
 40
0.0000002554908098
 40
0.0000002554908098
 40
0.0013136577947781
 40
0.0013136577947781
 40
0.0013136577947781
 40
0.0013136577947781
 10
110.239412582074
 20
90.27062332963759
 30
0.0
 10
109.9890287630433
 20
90.16324926204366
 30
0.0
 10
109.7390479164115
 20
90.05315199178574
 30
0.0
 10
109.4894125820739
 20
89.94088184744729
 30
0.0
  0
SPLINE
  5
DF
330
1F
100
AcDbEntity
  8
0
  6
HIDDEN
 62
     7
370
     0
100
AcDbSpline
210
0.0
220
0.0
230
1.0
 70
     8
 71
     3
 72
    10
 73
     6
 74
     0
 42
0.00000001
 43
0.00000001
 40
0.0
 40
0.0
 40
0.0
 40
0.0
 40
0.5
 40
0.5
 40
1.0
 40
1.0
 40
1.0
 40
1.0
 10
109.085685539793
 20
89.87397345818016
 30
0.0
 10
109.1649393347856
 20
89.8739734581797
 30
0.0
 10
109.2443687029667
 20
89.88026410620569
 30
0.0
 10
109.3835592442331
 20
89.90349870654322
 30
0.0
 10
109.4438423517147
 20
89.92038724738245
 30
0.0
 10
109.4894125820739
 20
89.94088184744729
 30
0.0
  0
SPLINE
  5
E0
330
1F
100
AcDbEntity
  8
0
  6
HIDDEN
 62
     7
370
     0
100
AcDbSpline
210
0.0
220
0.0
230
1.0
 70
     8
 71
     3
 72
    10
 73
     6
 74
     0
 42
0.00000001
 43
0.00000001
 40
0.0
 40
0.0
 40
0.0
 40
0.0
 40
0.5
 40
0.5
 40
1.0
 40
1.0
 40
1.0
 40
1.0
 10
108.6819584975291
 20
89.94088184744729
 30
0.0
 10
108.7276305843761
 20
89.92034143879279
 30
0.0
 10
108.7879838899546
 20
89.90346346949944
 30
0.0
 10
108.9270321859015
 20
89.88026565627624
 30
0.0
 10
109.0062347514023
 20
89.87397345818059
 30
0.0
 10
109.085685539793
 20
89.87397345818016
 30
0.0
  0
SPLINE
  5
E1
330
1F
100
AcDbEntity
  8
0
  6
HIDDEN
 62
     7
370
     0
100
AcDbSpline
210
0.0
220
0.0
230
1.0
 70
     8
 71
     3
 72
     8
 73
     4
 74
     0
 42
0.00000001
 43
0.00000001
 40
0.0000002422839179
 40
0.0000002422839179
 40
0.0000002422839179
 40
0.0000002422839179
 40
0.0013136445878862
 40
0.0013136445878862
 40
0.0013136445878862
 40
0.0013136445878862
 10
114.2363606148097
 20
89.94088184744729
 30
0.0
 10
113.8749712970805
 20
90.05315199178573
 30
0.0
 10
113.5130817919376
 20
90.16324926204365
 30
0.0
 10
113.1506089161725
 20
90.27062332963757
 30
0.0
  0
SPLINE
  5
E2
330
1F
100
AcDbEntity
  8
0
  6
HIDDEN
 62
     7
370
     0
100
AcDbSpline
210
0.0
220
0.0
230
1.0
 70
     8
 71
     3
 72
     8
 73
     4
 74
     0
 42
0.00000001
 43
0.00000001
 40
0.0
 40
0.0
 40
0.0
 40
0.0
 40
1.0
 40
1.0
 40
1.0
 40
1.0
 10
113.1506089161725
 20
90.27062332963757
 30
0.0
 10
113.0588398008084
 20
90.29780777254108
 30
0.0
 10
112.988995602847
 20
90.33118260570487
 30
0.0
 10
112.9487860018548
 20
90.3662823204194
 30
0.0
  0
SPLINE
  5
E3
330
1F
100
AcDbEntity
  8
0
  6
HIDDEN
 62
     7
370
     0
100
AcDbSpline
210
0.0
220
0.0
230
1.0
 70
     8
 71
     3
 72
     8
 73
     4
 74
     0
 42
0.00000001
 43
0.00000001
 40
0.0000002282152697
 40
0.0000002282152697
 40
0.0000002282152697
 40
0.0000002282152697
 40
0.0012883772209633
 40
0.0012883772209633
 40
0.0012883772209633
 40
0.0012883772209633
 10
112.481208600977
 20
90.7742507286705
 30
0.0
 10
112.637075698329
 20
90.63832360037668
 30
0.0
 10
112.7929340993665
 20
90.50232836865452
 30
0.0
 10
112.9487860018548
 20
90.3662823204194
 30
0.0
  0
SPLINE
  5
E4
330
1F
100
AcDbEntity
  8
0
  6
HIDDEN
 62
     7
370
     0
100
AcDbSpline
210
0.0
220
0.0
230
1.0
 70
     8
 71
     3
 72
    12
 73
     8
 74
     0
 42
0.00000001
 43
0.00000001
 40
0.0
 40
0.0
 40
0.0
 40
0.0
 40
0.5000000000000027
 40
0.5000000000000027
 40
0.7500000000000013
 40
0.7500000000000013
 40
1.0
 40
1.0
 40
1.0
 40
1.0
 10
112.481208600977
 20
90.7742507286705
 30
0.0
 10
112.4130398487882
 20
90.83369869992347
 30
0.0
 10
112.4379382497465
 20
90.89491087657308
 30
0.0
 10
112.6118253242533
 20
90.94632319000549
 30
0.0
 10
112.6899666052151
 20
90.9558277046914
 30
0.0
 10
112.8650560026141
 20
90.956344147395
 30
0.0
 10
112.9616752072653
 20
90.94723148691398
 30
0.0
 10
113.0519746653957
 20
90.93043043443618
 30
0.0
  0
SPLINE
  5
E5
330
1F
100
AcDbEntity
  8
0
  6
HIDDEN
 62
     7
370
     0
100
AcDbSpline
210
0.0
220
0.0
230
1.0
 70
     8
 71
     3
 72
     8
 73
     4
 74
     0
 42
0.00000001
 43
0.00000001
 40
0.0000002082633701
 40
0.0000002082633701
 40
0.0000002082633701
 40
0.0000002082633701
 40
0.000218115855525
 40
0.000218115855525
 40
0.000218115855525
 40
0.000218115855525
 10
113.0519746653957
 20
90.93043043443618
 30
0.0
 10
113.1217283367386
 20
90.91745211632738
 30
0.0
 10
113.1914550129054
 20
90.90432062026905
 30
0.0
 10
113.2611546506459
 20
90.89104106389797
 30
0.0
  0
SPLINE
  5
E6
330
1F
100
AcDbEntity
  8
0
  6
HIDDEN
 62
     7
370
     0
100
AcDbSpline
210
0.0
220
0.0
230
1.0
 70
     8
 71
     3
 72
    10
 73
     6
 74
     0
 42
0.00000001
 43
0.00000001
 40
0.0
 40
0.0
 40
0.0
 40
0.0
 40
0.5
 40
0.5
 40
1.0
 40
1.0
 40
1.0
 40
1.0
 10
113.7920101715196
 20
90.89104106389794
 30
0.0
 10
113.7374467049964
 20
90.87211988238495
 30
0.0
 10
113.6567146044291
 20
90.86179796698741
 30
0.0
 10
113.4666729005163
 20
90.86174486094377
 30
0.0
 10
113.3604800684363
 20
90.8721170418041
 30
0.0
 10
113.2611546506459
 20
90.89104106389797
 30
0.0
  0
SPLINE
  5
E7
330
1F
100
AcDbEntity
  8
0
  6
HIDDEN
 62
     7
370
     0
100
AcDbSpline
210
0.0
220
0.0
230
1.0
 70
     8
 71
     3
 72
     8
 73
     4
 74
     0
 42
0.00000001
 43
0.00000001
 40
0.0000002408251663
 40
0.0000002408251663
 40
0.0000002408251663
 40
0.0000002408251663
 40
0.0002181484173214
 40
0.0002181484173214
 40
0.0002181484173214
 40
0.0002181484173214
 10
113.9069384432905
 20
90.9304304344362
 30
0.0
 10
113.8686141796784
 20
90.9174521163274
 30
0.0
 10
113.8303047478339
 20
90.90432062026905
 30
0.0
 10
113.7920101715196
 20
90.89104106389794
 30
0.0
  0
SPLINE
  5
E8
330
1F
100
AcDbEntity
  8
0
  6
HIDDEN
 62
     7
370
     0
100
AcDbSpline
210
0.0
220
0.0
230
1.0
 70
     8
 71
     3
 72
    12
 73
     8
 74
     0
 42
0.00000001
 43
0.00000001
 40
0.0
 40
0.0
 40
0.0
 40
0.0
 40
0.5000000000000002
 40
0.5000000000000002
 40
0.7500000000000001
 40
0.7500000000000001
 40
1.0
 40
1.0
 40
1.0
 40
1.0
 10
114.7909074322552
 20
90.7742507286705
 30
0.0
 10
114.722738634994
 20
90.83369873925102
 30
0.0
 10
114.566026631896
 20
90.89491096223824
 30
0.0
 10
114.2905249286085
 20
90.94632324729595
 30
0.0
 10
114.1961381382393
 20
90.95582774128329
 30
0.0
 10
114.0288627161243
 20
90.95634411382296
 30
0.0
 10
113.9565499384348
 20
90.94723111643842
 30
0.0
 10
113.9069384432905
 20
90.9304304344362
 30
0.0
  0
SPLINE
  5
E9
330
1F
100
AcDbEntity
  8
0
  6
HIDDEN
 62
     7
370
     0
100
AcDbSpline
210
0.0
220
0.0
230
1.0
 70
     8
 71
     3
 72
     8
 73
     4
 74
     0
 42
0.00000001
 43
0.00000001
 40
0.0000002282152696
 40
0.0000002282152696
 40
0.0000002282152696
 40
0.0000002282152696
 40
0.0012883772209633
 40
0.0012883772209633
 40
0.0012883772209633
 40
0.0012883772209633
 10
114.7909074322552
 20
90.7742507286705
 30
0.0
 10
114.9467745296072
 20
90.63832360037668
 30
0.0
 10
115.1026329306447
 20
90.50232836865452
 30
0.0
 10
115.2584848331331
 20
90.3662823204194
 30
0.0
  0
SPLINE
  5
EA
330
1F
100
AcDbEntity
  8
0
  6
HIDDEN
 62
     7
370
     0
100
AcDbSpline
210
0.0
220
0.0
230
1.0
 70
     8
 71
     3
 72
     8
 73
     4
 74
     0
 42
0.00000001
 43
0.00000001
 40
0.0
 40
0.0
 40
0.0
 40
0.0
 40
1.0
 40
1.0
 40
1.0
 40
1.0
 10
115.2824185170932
 20
90.27062332963759
 30
0.0
 10
115.307780813934
 20
90.29780798839954
 30
0.0
 10
115.2986943683733
 20
90.33118266308819
 30
0.0
 10
115.2584848331331
 20
90.3662823204194
 30
0.0
  0
SPLINE
  5
EB
330
1F
100
AcDbEntity
  8
0
  6
HIDDEN
 62
     7
370
     0
100
AcDbSpline
210
0.0
220
0.0
230
1.0
 70
     8
 71
     3
 72
     8
 73
     4
 74
     0
 42
0.00000001
 43
0.00000001
 40
0.0000002122951039
 40
0.0000002122951039
 40
0.0000002122951039
 40
0.0000002122951039
 40
0.0013136145990722
 40
0.0013136145990722
 40
0.0013136145990722
 40
0.0013136145990722
 10
115.2824185170932
 20
90.27062332963759
 30
0.0
 10
115.1822424215093
 20
90.16324926204366
 30
0.0
 10
115.0822275512063
 20
90.05315199178574
 30
0.0
 10
114.9823509169632
 20
89.94088184744729
 30
0.0
  0
SPLINE
  5
EC
330
1F
100
AcDbEntity
  8
0
  6
HIDDEN
 62
     7
370
     0
100
AcDbSpline
210
0.0
220
0.0
230
1.0
 70
     8
 71
     3
 72
    10
 73
     6
 74
     0
 42
0.00000001
 43
0.00000001
 40
0.0
 40
0.0
 40
0.0
 40
0.0
 40
0.5
 40
0.5
 40
1.0
 40
1.0
 40
1.0
 40
1.0
 10
114.6878191829224
 20
89.87397345818016
 30
0.0
 10
114.7610398344439
 20
89.8739734581797
 30
0.0
 10
114.8269839702932
 20
89.88026407059597
 30
0.0
 10
114.9282453501987
 20
89.90349865016502
 30
0.0
 10
114.9641185616851
 20
89.92038707233185
 30
0.0
 10
114.9823509169632
 20
89.94088184744729
 30
0.0
  0
SPLINE
  5
ED
330
1F
100
AcDbEntity
  8
0
  6
HIDDEN
 62
     7
370
     0
100
AcDbSpline
210
0.0
220
0.0
230
1.0
 70
     8
 71
     3
 72
    10
 73
     6
 74
     0
 42
0.00000001
 43
0.00000001
 40
0.0
 40
0.0
 40
0.0
 40
0.0
 40
0.5
 40
0.5
 40
1.0
 40
1.0
 40
1.0
 40
1.0
 10
114.2363606148097
 20
89.94088184744729
 30
0.0
 10
114.3024789500741
 20
89.92034135363973
 30
0.0
 10
114.3780470922188
 20
89.90346345340484
 30
0.0
 10
114.5338019204662
 20
89.88026563460355
 30
0.0
 10
114.6144164487125
 20
89.87397345818059
 30
0.0
 10
114.6878191829224
 20
89.87397345818016
 30
0.0
  0
SPLINE
  5
EE
330
1F
100
AcDbEntity
  8
0
  6
HIDDEN
 62
     7
370
     0
100
AcDbSpline
210
0.0
220
0.0
230
1.0
 70
     8
 71
     3
 72
     8
 73
     4
 74
     0
 42
0.00000001
 43
0.00000001
 40
0.0000002094082048
 40
0.0000002094082048
 40
0.0000002094082048
 40
0.0000002094082048
 40
0.0013136117121732
 40
0.0013136117121732
 40
0.0013136117121732
 40
0.0013136117121732
 10
119.0066191429061
 20
89.94088184744729
 30
0.0
 10
118.5884940894073
 20
90.05315199178573
 30
0.0
 10
118.1697903223747
 20
90.16324926204365
 30
0.0
 10
117.7504115993857
 20
90.27062332963757
 30
0.0
  0
SPLINE
  5
EF
330
1F
100
AcDbEntity
  8
0
  6
HIDDEN
 62
     7
370
     0
100
AcDbSpline
210
0.0
220
0.0
230
1.0
 70
     8
 71
     3
 72
     8
 73
     4
 74
     0
 42
0.00000001
 43
0.00000001
 40
0.0
 40
0.0
 40
0.0
 40
0.0
 40
1.0
 40
1.0
 40
1.0
 40
1.0
 10
117.7504115993857
 20
90.27062332963757
 30
0.0
 10
117.6442339836092
 20
90.29780811958453
 30
0.0
 10
117.5480609690974
 20
90.33118313636619
 30
0.0
 10
117.4737644376535
 20
90.3662823204194
 30
0.0
  0
SPLINE
  5
F0
330
1F
100
AcDbEntity
  8
0
  6
HIDDEN
 62
     7
370
     0
100
AcDbSpline
210
0.0
220
0.0
230
1.0
 70
     8
 71
     3
 72
     8
 73
     4
 74
     0
 42
0.00000001
 43
0.00000001
 40
0.0000002981776187
 40
0.0000002981776187
 40
0.0000002981776187
 40
0.0000002981776187
 40
0.0012884471833124
 40
0.0012884471833124
 40
0.0012884471833124
 40
0.0012884471833124
 10
116.6097940565817
 20
90.7742507286705
 30
0.0
 10
116.8977988986527
 20
90.63832360037668
 30
0.0
 10
117.1857876720295
 20
90.50232836865452
 30
0.0
 10
117.4737644376535
 20
90.36628232041942
 30
0.0
  0
SPLINE
  5
F1
330
1F
100
AcDbEntity
  8
0
  6
HIDDEN
 62
     7
370
     0
100
AcDbSpline
210
0.0
220
0.0
230
1.0
 70
     8
 71
     3
 72
    12
 73
     8
 74
     0
 42
0.00000001
 43
0.00000001
 40
0.0
 40
0.0
 40
0.0
 40
0.0
 40
0.5000000000000028
 40
0.5000000000000028
 40
0.7500000000000013
 40
0.7500000000000013
 40
1.0
 40
1.0
 40
1.0
 40
1.0
 10
116.6097940565817
 20
90.7742507286705
 30
0.0
 10
116.4838372599121
 20
90.83369745719028
 30
0.0
 10
116.4315553090057
 20
90.89491170485483
 30
0.0
 10
116.5096476780192
 20
90.94632282121466
 30
0.0
 10
116.5606621216482
 20
90.95582766170205
 30
0.0
 10
116.6988994395384
 20
90.9563441869973
 30
0.0
 10
116.7860034398155
 20
90.94723149810176
 30
0.0
 10
116.8771352884816
 20
90.93043043443618
 30
0.0
  0
SPLINE
  5
F2
330
1F
100
AcDbEntity
  8
0
  6
HIDDEN
 62
     7
370
     0
100
AcDbSpline
210
0.0
220
0.0
230
1.0
 70
     8
 71
     3
 72
     8
 73
     4
 74
     0
 42
0.00000001
 43
0.00000001
 40
0.0000002063612484
 40
0.0000002063612484
 40
0.0000002063612484
 40
0.0000002063612484
 40
0.0002181139534033
 40
0.0002181139534033
 40
0.0002181139534033
 40
0.0002181139534033
 10
116.8771352884816
 20
90.93043043443618
 30
0.0
 10
116.9475319101145
 20
90.91745211632738
 30
0.0
 10
117.0179012877449
 20
90.90432062026905
 30
0.0
 10
117.0882433777239
 20
90.89104106389797
 30
0.0
  0
SPLINE
  5
F3
330
1F
100
AcDbEntity
  8
0
  6
HIDDEN
 62
     7
370
     0
100
AcDbSpline
210
0.0
220
0.0
230
1.0
 70
     8
 71
     3
 72
    10
 73
     6
 74
     0
 42
0.00000001
 43
0.00000001
 40
0.0
 40
0.0
 40
0.0
 40
0.0
 40
0.5
 40
0.5
 40
1.0
 40
1.0
 40
1.0
 40
1.0
 10
117.4945426033598
 20
90.89104106389794
 30
0.0
 10
117.4769982726698
 20
90.87211968172923
 30
0.0
 10
117.4285594593026
 20
90.86179797186333
 30
0.0
 10
117.2831777717815
 20
90.86174485610783
 30
0.0
 10
117.1884842783353
 20
90.87211704997287
 30
0.0
 10
117.0882433777239
 20
90.89104106389797
 30
0.0
  0
SPLINE
  5
F4
330
1F
100
AcDbEntity
  8
0
  6
HIDDEN
 62
     7
370
     0
100
AcDbSpline
210
0.0
220
0.0
230
1.0
 70
     8
 71
     3
 72
     8
 73
     4
 74
     0
 42
0.00000001
 43
0.00000001
 40
0.0000002063612482
 40
0.0000002063612482
 40
0.0000002063612482
 40
0.0000002063612482
 40
0.0002181139534034
 40
0.0002181139534034
 40
0.0002181139534034
 40
0.0002181139534034
 10
117.5314962346268
 20
90.9304304344362
 30
0.0
 10
117.5191735860367
 20
90.9174521163274
 30
0.0
 10
117.5068557064008
 20
90.90432062026905
 30
0.0
 10
117.4945426033598
 20
90.89104106389794
 30
0.0
  0
SPLINE
  5
F5
330
1F
100
AcDbEntity
  8
0
  6
HIDDEN
 62
     7
370
     0
100
AcDbSpline
210
0.0
220
0.0
230
1.0
 70
     8
 71
     3
 72
    12
 73
     8
 74
     0
 42
0.00000001
 43
0.00000001
 40
0.0
 40
0.0
 40
0.0
 40
0.0
 40
0.4999999999999978
 40
0.4999999999999978
 40
0.7499999999999989
 40
0.7499999999999989
 40
1.0
 40
1.0
 40
1.0
 40
1.0
 10
118.377561009548
 20
90.7742507286705
 30
0.0
 10
118.2516042128972
 20
90.83369745719027
 30
0.0
 10
118.060318440756
 20
90.8949117048548
 30
0.0
 10
117.7944714388594
 20
90.94632282121465
 30
0.0
 10
117.7134380225346
 20
90.95582766170203
 30
0.0
 10
117.5896388851901
 20
90.9563441869973
 30
0.0
 10
117.5474485022238
 20
90.94723149810177
 30
0.0
 10
117.5314962346268
 20
90.9304304344362
 30
0.0
  0
SPLINE
  5
F6
330
1F
100
AcDbEntity
  8
0
  6
HIDDEN
 62
     7
370
     0
100
AcDbSpline
210
0.0
220
0.0
230
1.0
 70
     8
 71
     3
 72
     8
 73
     4
 74
     0
 42
0.00000001
 43
0.00000001
 40
0.0000002981776187
 40
0.0000002981776187
 40
0.0000002981776187
 40
0.0000002981776187
 40
0.0012884471833124
 40
0.0012884471833124
 40
0.0012884471833124
 40
0.0012884471833124
 10
118.377561009548
 20
90.7742507286705
 30
0.0
 10
118.665565851619
 20
90.63832360037668
 30
0.0
 10
118.9535546249959
 20
90.50232836865452
 30
0.0
 10
119.2415313906199
 20
90.36628232041942
 30
0.0
  0
SPLINE
  5
F7
330
1F
100
AcDbEntity
  8
0
  6
HIDDEN
 62
     7
370
     0
100
AcDbSpline
210
0.0
220
0.0
230
1.0
 70
     8
 71
     3
 72
     8
 73
     4
 74
     0
 42
0.00000001
 43
0.00000001
 40
0.0
 40
0.0
 40
0.0
 40
0.0
 40
1.0
 40
1.0
 40
1.0
 40
1.0
 10
119.3820280298441
 20
90.27062332963759
 30
0.0
 10
119.3654999062798
 20
90.29780811933138
 30
0.0
 10
119.3158279244305
 20
90.33118313524282
 30
0.0
 10
119.2415313906199
 20
90.36628232041942
 30
0.0
  0
SPLINE
  5
F8
330
1F
100
AcDbEntity
  8
0
  6
HIDDEN
 62
     7
370
     0
100
AcDbSpline
210
0.0
220
0.0
230
1.0
 70
     8
 71
     3
 72
     8
 73
     4
 74
     0
 42
0.00000001
 43
0.00000001
 40
0.0000002087815986
 40
0.0000002087815986
 40
0.0000002087815986
 40
0.0000002087815986
 40
0.001313611085567
 40
0.001313611085567
 40
0.001313611085567
 40
0.001313611085567
 10
119.3820280298441
 20
90.27062332963759
 30
0.0
 10
119.4473105601611
 20
90.16324926204366
 30
0.0
 10
119.5124880235535
 20
90.05315199178574
 30
0.0
 10
119.5775754015845
 20
89.94088184744729
 30
0.0
  0
SPLINE
  5
F9
330
1F
100
AcDbEntity
  8
0
  6
HIDDEN
 62
     7
370
     0
100
AcDbSpline
210
0.0
220
0.0
230
1.0
 70
     8
 71
     3
 72
    10
 73
     6
 74
     0
 42
0.00000001
 43
0.00000001
 40
0.0
 40
0.0
 40
0.0
 40
0.0
 40
0.5
 40
0.5
 40
1.0
 40
1.0
 40
1.0
 40
1.0
 10
119.4370787623546
 20
89.87397345818016
 30
0.0
 10
119.4931190308839
 20
89.8739734581797
 30
0.0
 10
119.5355388126539
 20
89.88026402500603
 30
0.0
 10
119.5834549977372
 20
89.90349868352455
 30
0.0
 10
119.5894570259416
 20
89.92038706455146
 30
0.0
 10
119.5775754015845
 20
89.94088184744729
 30
0.0
  0
SPLINE
  5
FA
330
1F
100
AcDbEntity
  8
0
  6
HIDDEN
 62
     7
370
     0
100
AcDbSpline
210
0.0
220
0.0
230
1.0
 70
     8
 71
     3
 72
    10
 73
     6
 74
     0
 42
0.00000001
 43
0.00000001
 40
0.0
 40
0.0
 40
0.0
 40
0.0
 40
0.5
 40
0.5
 40
1.0
 40
1.0
 40
1.0
 40
1.0
 10
119.0066191429061
 20
89.94088184744729
 30
0.0
 10
119.0831183713362
 20
89.92034115191785
 30
0.0
 10
119.162396341511
 20
89.90346341530866
 30
0.0
 10
119.3111455525496
 20
89.88026558325126
 30
0.0
 10
119.3808991459811
 20
89.87397345818059
 30
0.0
 10
119.4370787623546
 20
89.87397345818016
 30
0.0
  0
SPLINE
  5
FB
330
1F
100
AcDbEntity
  8
0
  6
HIDDEN
 62
     7
370
     0
100
AcDbSpline
210
0.0
220
0.0
230
1.0
 70
     8
 71
     3
 72
     8
 73
     4
 74
     0
 42
0.00000001
 43
0.00000001
 40
0.0000002129322567
 40
0.0000002129322567
 40
0.0000002129322567
 40
0.0000002129322567
 40
0.001313615236225
 40
0.001313615236225
 40
0.001313615236225
 40
0.001313615236225
 10
122.2665054634169
 20
89.94088184744729
 30
0.0
 10
121.8553004232306
 20
90.05315199178573
 30
0.0
 10
121.4435262472799
 20
90.16324926204365
 30
0.0
 10
121.0310882859645
 20
90.27062332963757
 30
0.0
  0
SPLINE
  5
FC
330
1F
100
AcDbEntity
  8
0
  6
HIDDEN
 62
     7
370
     0
100
AcDbSpline
210
0.0
220
0.0
230
1.0
 70
     8
 71
     3
 72
     8
 73
     4
 74
     0
 42
0.00000001
 43
0.00000001
 40
0.0
 40
0.0
 40
0.0
 40
0.0
 40
1.0
 40
1.0
 40
1.0
 40
1.0
 10
121.0310882859645
 20
90.27062332963757
 30
0.0
 10
120.9266684247216
 20
90.29780798839954
 30
0.0
 10
120.8188083047131
 20
90.33118266308819
 30
0.0
 10
120.7217338993787
 20
90.3662823204194
 30
0.0
  0
SPLINE
  5
FD
330
1F
100
AcDbEntity
  8
0
  6
HIDDEN
 62
     7
370
     0
100
AcDbSpline
210
0.0
220
0.0
230
1.0
 70
     8
 71
     3
 72
     8
 73
     4
 74
     0
 42
0.00000001
 43
0.00000001
 40
0.0000002282152697
 40
0.0000002282152697
 40
0.0000002282152697
 40
0.0000002282152697
 40
0.0012883772209633
 40
0.0012883772209633
 40
0.0012883772209633
 40
0.0012883772209633
 10
119.5929021967202
 20
90.7742507286705
 30
0.0
 10
119.9691986570752
 20
90.63832360037668
 30
0.0
 10
120.3454741226696
 20
90.50232836865452
 30
0.0
 10
120.7217338993787
 20
90.36628232041942
 30
0.0
  0
SPLINE
  5
FE
330
1F
100
AcDbEntity
  8
0
  6
HIDDEN
 62
     7
370
     0
100
AcDbSpline
210
0.0
220
0.0
230
1.0
 70
     8
 71
     3
 72
    12
 73
     8
 74
     0
 42
0.00000001
 43
0.00000001
 40
0.0
 40
0.0
 40
0.0
 40
0.0
 40
0.5
 40
0.5
 40
0.75
 40
0.75
 40
1.0
 40
1.0
 40
1.0
 40
1.0
 10
119.5929021967201
 20
90.7742507286705
 30
0.0
 10
119.4283281618071
 20
90.83369873925103
 30
0.0
 10
119.3068279580276
 20
90.89491096223827
 30
0.0
 10
119.2772400738962
 20
90.94632324729595
 30
0.0
 10
119.293361892592
 20
90.95582774128329
 30
0.0
 10
119.3737005408093
 20
90.95634411382295
 30
0.0
 10
119.4380299097191
 20
90.9472311164384
 30
0.0
 10
119.5161183169988
 20
90.93043043443618
 30
0.0
  0
SPLINE
  5
FF
330
1F
100
AcDbEntity
  8
0
  6
HIDDEN
 62
     7
370
     0
100
AcDbSpline
210
0.0
220
0.0
230
1.0
 70
     8
 71
     3
 72
     8
 73
     4
 74
     0
 42
0.00000001
 43
0.00000001
 40
0.0000002408251664
 40
0.0000002408251664
 40
0.0000002408251664
 40
0.0000002408251664
 40
0.0002181484173213
 40
0.0002181484173213
 40
0.0002181484173213
 40
0.0002181484173213
 10
119.5161183169988
 20
90.93043043443618
 30
0.0
 10
119.576440641425
 20
90.91745211632738
 30
0.0
 10
119.6367396206748
 20
90.90432062026905
 30
0.0
 10
119.6970152173457
 20
90.89104106389797
 30
0.0
  0
SPLINE
  5
100
330
1F
100
AcDbEntity
  8
0
  6
HIDDEN
 62
     7
370
     0
100
AcDbSpline
210
0.0
220
0.0
230
1.0
 70
     8
 71
     3
 72
    10
 73
     6
 74
     0
 42
0.00000001
 43
0.00000001
 40
0.0
 40
0.0
 40
0.0
 40
0.0
 40
0.5
 40
0.5
 40
1.0
 40
1.0
 40
1.0
 40
1.0
 10
119.9169027737523
 20
90.89104106389794
 30
0.0
 10
119.9390491303259
 20
90.87211967533263
 30
0.0
 10
119.930278264616
 20
90.86179795258994
 30
0.0
 10
119.8516875194644
 20
90.861744875231
 30
0.0
 10
119.7829101837616
 20
90.87211720231102
 30
0.0
 10
119.6970152173457
 20
90.89104106389797
 30
0.0
  0
SPLINE
  5
101
330
1F
100
AcDbEntity
  8
0
  6
HIDDEN
 62
     7
370
     0
100
AcDbSpline
210
0.0
220
0.0
230
1.0
 70
     8
 71
     3
 72
     8
 73
     4
 74
     0
 42
0.00000001
 43
0.00000001
 40
0.0000002082633699
 40
0.0000002082633699
 40
0.0000002082633699
 40
0.0000002082633699
 40
0.0002181158555251
 40
0.0002181158555251
 40
0.0002181158555251
 40
0.0002181158555251
 10
119.8702559091405
 20
90.9304304344362
 30
0.0
 10
119.8858108871151
 20
90.9174521163274
 30
0.0
 10
119.9013598452007
 20
90.90432062026905
 30
0.0
 10
119.9169027737523
 20
90.89104106389794
 30
0.0
  0
SPLINE
  5
102
330
1F
100
AcDbEntity
  8
0
  6
HIDDEN
 62
     7
370
     0
100
AcDbSpline
210
0.0
220
0.0
230
1.0
 70
     8
 71
     3
 72
    12
 73
     8
 74
     0
 42
0.00000001
 43
0.00000001
 40
0.0
 40
0.0
 40
0.0
 40
0.0
 40
0.5
 40
0.5
 40
0.75
 40
0.75
 40
1.0
 40
1.0
 40
1.0
 40
1.0
 10
120.5496107776329
 20
90.7742507286705
 30
0.0
 10
120.3850368516031
 20
90.83369869992346
 30
0.0
 10
120.1883112859221
 20
90.89491087657306
 30
0.0
 10
119.9725803679886
 20
90.94632319000547
 30
0.0
 10
119.9172386492526
 20
90.9558277046914
 30
0.0
 10
119.8557649204822
 20
90.95634414739501
 30
0.0
 10
119.8501192474341
 20
90.94723148691399
 30
0.0
 10
119.8702559091405
 20
90.9304304344362
 30
0.0
  0
SPLINE
  5
103
330
1F
100
AcDbEntity
  8
0
  6
HIDDEN
 62
     7
370
     0
100
AcDbSpline
210
0.0
220
0.0
230
1.0
 70
     8
 71
     3
 72
     8
 73
     4
 74
     0
 42
0.00000001
 43
0.00000001
 40
0.0000002282152696
 40
0.0000002282152696
 40
0.0000002282152696
 40
0.0000002282152696
 40
0.0012883772209633
 40
0.0012883772209633
 40
0.0012883772209633
 40
0.0012883772209633
 10
120.5496107776329
 20
90.7742507286705
 30
0.0
 10
120.9259072379879
 20
90.63832360037668
 30
0.0
 10
121.3021827035823
 20
90.50232836865452
 30
0.0
 10
121.6784424802914
 20
90.36628232041942
 30
0.0
  0
SPLINE
  5
104
330
1F
100
AcDbEntity
  8
0
  6
HIDDEN
 62
     7
370
     0
100
AcDbSpline
210
0.0
220
0.0
230
1.0
 70
     8
 71
     3
 72
     8
 73
     4
 74
     0
 42
0.00000001
 43
0.00000001
 40
0.0
 40
0.0
 40
0.0
 40
0.0
 40
1.0
 40
1.0
 40
1.0
 40
1.0
 10
121.914112735063
 20
90.27062332963759
 30
0.0
 10
121.8582110390584
 20
90.29780777254109
 30
0.0
 10
121.7755170443236
 20
90.33118260570488
 30
0.0
 10
121.6784424802914
 20
90.36628232041942
 30
0.0
  0
SPLINE
  5
105
330
1F
100
AcDbEntity
  8
0
  6
HIDDEN
 62
     7
370
     0
100
AcDbSpline
210
0.0
220
0.0
230
1.0
 70
     8
 71
     3
 72
     8
 73
     4
 74
     0
 42
0.00000001
 43
0.00000001
 40
0.0000002415589206
 40
0.0000002415589206
 40
0.0000002415589206
 40
0.0000002415589206
 40
0.0013136438628889
 40
0.0013136438628889
 40
0.0013136438628889
 40
0.0013136438628889
 10
121.914112735063
 20
90.27062332963759
 30
0.0
 10
122.1349152178278
 20
90.16324926204366
 30
0.0
 10
122.3553623369492
 20
90.05315199178574
 30
0.0
 10
122.5755047639677
 20
89.94088184744729
 30
0.0
  0
SPLINE
  5
106
330
1F
100
AcDbEntity
  8
0
  6
HIDDEN
 62
     7
370
     0
100
AcDbSpline
210
0.0
220
0.0
230
1.0
 70
     8
 71
     3
 72
    10
 73
     6
 74
     0
 42
0.00000001
 43
0.00000001
 40
0.0
 40
0.0
 40
0.0
 40
0.0
 40
0.5
 40
0.5
 40
1.0
 40
1.0
 40
1.0
 40
1.0
 10
122.6104325592663
 20
89.87397345818016
 30
0.0
 10
122.6407613860249
 20
89.8739734581797
 30
0.0
 10
122.6531984548713
 20
89.88026404260306
 30
0.0
 10
122.6404741909427
 20
89.90349873474953
 30
0.0
 10
122.6156912416675
 20
89.92038719899107
 30
0.0
 10
122.5755047639677
 20
89.94088184744729
 30
0.0
  0
SPLINE
  5
107
330
1F
100
AcDbEntity
  8
0
  6
HIDDEN
 62
     7
370
     0
100
AcDbSpline
210
0.0
220
0.0
230
1.0
 70
     8
 71
     3
 72
    10
 73
     6
 74
     0
 42
0.00000001
 43
0.00000001
 40
0.0
 40
0.0
 40
0.0
 40
0.0
 40
0.5
 40
0.5
 40
1.0
 40
1.0
 40
1.0
 40
1.0
 10
122.2665054634169
 20
89.94088184744729
 30
0.0
 10
122.341738542869
 20
89.92034117342
 30
0.0
 10
122.4126575405227
 20
89.9034634193674
 30
0.0
 10
122.5317551185297
 20
89.8802655887258
 30
0.0
 10
122.580028346668
 20
89.87397345818059
 30
0.0
 10
122.6104325592663
 20
89.87397345818016
 30
0.0
  0
SPLINE
  5
108
330
1F
100
AcDbEntity
  8
0
  6
HIDDEN
 62
     7
370
     0
100
AcDbSpline
210
0.0
220
0.0
230
1.0
 70
     8
 71
     3
 72
     8
 73
     4
 74
     0
 42
0.00000001
 43
0.00000001
 40
0.0000002562576294
 40
0.0000002562576294
 40
0.0000002562576294
 40
0.0000002562576294
 40
0.0013136585615977
 40
0.0013136585615977
 40
0.0013136585615977
 40
0.0013136585615977
 10
123.5197314349874
 20
89.94088184744729
 30
0.0
 10
123.178048647899
 20
90.05315199178573
 30
0.0
 10
122.8358929485766
 20
90.16324926204365
 30
0.0
 10
122.4931856897855
 20
90.27062332963757
 30
0.0
  0
SPLINE
  5
109
330
1F
100
AcDbEntity
  8
0
  6
HIDDEN
 62
     7
370
     0
100
AcDbSpline
210
0.0
220
0.0
230
1.0
 70
     8
 71
     3
 72
     8
 73
     4
 74
     0
 42
0.00000001
 43
0.00000001
 40
0.0
 40
0.0
 40
0.0
 40
0.0
 40
1.0
 40
1.0
 40
1.0
 40
1.0
 10
122.4931856897855
 20
90.27062332963757
 30
0.0
 10
122.4064211503547
 20
90.29780764302033
 30
0.0
 10
122.3032936583673
 20
90.33118246272765
 30
0.0
 10
122.1982204793993
 20
90.3662823204194
 30
0.0
  0
SPLINE
  5
10A
330
1F
100
AcDbEntity
  8
0
  6
HIDDEN
 62
     7
370
     0
100
AcDbSpline
210
0.0
220
0.0
230
1.0
 70
     8
 71
     3
 72
     8
 73
     4
 74
     0
 42
0.00000001
 43
0.00000001
 40
0.0
 40
0.0
 40
0.0
 40
0.0
 40
1.0
 40
1.0
 40
1.0
 40
1.0
 10
120.9763818489989
 20
90.7742507286705
 30
0.0
 10
121.3836821473084
 20
90.6383236188573
 30
0.0
 10
121.7909597947999
 20
90.50232838101631
 30
0.0
 10
122.1982204793993
 20
90.36628232041942
 30
0.0
  0
SPLINE
  5
10B
330
1F
100
AcDbEntity
  8
0
  6
HIDDEN
 62
     7
370
     0
100
AcDbSpline
210
0.0
220
0.0
230
1.0
 70
     8
 71
     3
 72
    12
 73
     8
 74
     0
 42
0.00000001
 43
0.00000001
 40
0.0
 40
0.0
 40
0.0
 40
0.0
 40
0.2302825636310036
 40
0.4609622901713772
 40
0.686768935841925
 40
0.900933798578219
 40
1.0
 40
1.0
 40
1.0
 40
1.0
 10
120.9763816815913
 20
90.77425061905578
 30
0.0
 10
120.9175807840661
 20
90.79408705851819
 30
0.0
 10
120.7998775764938
 20
90.83379414888257
 30
0.0
 10
120.6440085082408
 20
90.88909564815697
 30
0.0
 10
120.5332769269662
 20
90.93038064912778
 30
0.0
 10
120.477609624176
 20
90.95286244759143
 30
0.0
 10
120.4817695816415
 20
90.95327212323632
 30
0.0
 10
120.483085259527
 20
90.95340169215396
 30
0.0
  0
SPLINE
  5
10C
330
1F
100
AcDbEntity
  8
0
  6
HIDDEN
 62
     7
370
     0
100
AcDbSpline
210
0.0
220
0.0
230
1.0
 70
     8
 71
     3
 72
     8
 73
     4
 74
     0
 42
0.00000001
 43
0.00000001
 40
0.0
 40
0.0
 40
0.0
 40
0.0
 40
1.0
 40
1.0
 40
1.0
 40
1.0
 10
120.483394624901
 20
90.95513272515171
 30
0.0
 10
120.4959257921838
 20
90.95238518229243
 30
0.0
 10
120.5247001728046
 20
90.94385053410078
 30
0.0
 10
120.5671625072962
 20
90.93043043443618
 30
0.0
  0
SPLINE
  5
10D
330
1F
100
AcDbEntity
  8
0
  6
HIDDEN
 62
     7
370
     0
100
AcDbSpline
210
0.0
220
0.0
230
1.0
 70
     8
 71
     3
 72
     8
 73
     4
 74
     0
 42
0.00000001
 43
0.00000001
 40
0.000000248363765
 40
0.000000248363765
 40
0.000000248363765
 40
0.000000248363765
 40
0.0002181559559199
 40
0.0002181559559199
 40
0.0002181559559199
 40
0.0002181559559199
 10
120.5671625072962
 20
90.93043043443618
 30
0.0
 10
120.6082270074452
 20
90.9174521163274
 30
0.0
 10
120.6492756153352
 20
90.90432062026905
 30
0.0
 10
120.6903083055045
 20
90.89104106389797
 30
0.0
  0
SPLINE
  5
10E
330
1F
100
AcDbEntity
  8
0
  6
HIDDEN
 62
     7
370
     0
100
AcDbSpline
210
0.0
220
0.0
230
1.0
 70
     8
 71
     3
 72
    10
 73
     6
 74
     0
 42
0.00000001
 43
0.00000001
 40
0.0
 40
0.0
 40
0.0
 40
0.0
 40
0.0651742296073938
 40
0.5878111294599668
 40
1.0
 40
1.0
 40
1.0
 40
1.0
 10
120.7782195207775
 20
90.86269366735414
 30
0.0
 10
120.7791496734995
 20
90.86239453104825
 30
0.0
 10
120.787538788728
 20
90.85969659889186
 30
0.0
 10
120.7582192221238
 20
90.86910132149104
 30
0.0
 10
120.7110891333073
 20
90.88432760257452
 30
0.0
 10
120.6903082576693
 20
90.89104126388028
 30
0.0
  0
SPLINE
  5
10F
330
1F
100
AcDbEntity
  8
0
  6
HIDDEN
 62
     7
370
     0
100
AcDbSpline
210
0.0
220
0.0
230
1.0
 70
     8
 71
     3
 72
    10
 73
     6
 74
     0
 42
0.00000001
 43
0.00000001
 40
0.0
 40
0.0
 40
0.0
 40
0.0
 40
0.5
 40
0.5
 40
1.0
 40
1.0
 40
1.0
 40
1.0
 10
123.5197314349874
 20
89.94088184744729
 30
0.0
 10
123.5822440835492
 20
89.9203414387928
 30
0.0
 10
123.634007926218
 20
89.90346346949944
 30
0.0
 10
123.7053223149328
 20
89.88026565627624
 30
0.0
 10
123.7247662246001
 20
89.87397345818059
 30
0.0
 10
123.7247662246015
 20
89.87397345818016
 30
0.0
  0
LINE
  5
110
330
1F
100
AcDbEntity
  8
0
  6
HIDDEN
 62
     7
370
     0
100
AcDbLine
 10
98.4244325456
 20
91.2082138769
 30
0.0
 11
119.7469380942
 21
91.2082138769
 31
0.0
  0
LINE
  5
111
330
1F
100
AcDbEntity
  8
0
  6
HIDDEN
 62
     7
370
     0
100
AcDbLine
 10
94.8471955282
 20
97.4747712556
 30
0.0
 11
123.324176043
 21
97.4747712556
 31
0.0
  0
LINE
  5
112
330
1F
100
AcDbEntity
  8
0
  6
HIDDEN
 62
     7
370
     0
100
AcDbLine
 10
94.8058448059
 20
99.1085377703
 30
0.0
 11
123.365525834
 21
99.1085377703
 31
0.0
  0
LINE
  5
113
330
1F
100
AcDbEntity
  8
0
  6
HIDDEN
 62
     7
370
     0
100
AcDbLine
 10
109.4894126083
 20
89.9408817589
 30
0.0
 11
109.4894126083
 21
89.9033680856
 31
0.0
  0
SPLINE
  5
114
330
1F
100
AcDbEntity
  8
0
  6
HIDDEN
 62
     7
370
     0
100
AcDbSpline
210
0.0
220
0.0
230
1.0
 70
     8
 71
     3
 72
     8
 73
     4
 74
     0
 42
0.00000001
 43
0.00000001
 40
0.0
 40
0.0
 40
0.0
 40
0.0
 40
1.0
 40
1.0
 40
1.0
 40
1.0
 10
109.4894125820738
 20
89.90336815576059
 30
0.0
 10
109.3964955589716
 20
89.88500945559475
 30
0.0
 10
109.2428019984129
 20
89.87397345843215
 30
0.0
 10
109.0856855398015
 20
89.87397345843215
 30
0.0
  0
LINE
  5
115
330
1F
100
AcDbEntity
  8
0
  6
HIDDEN
 62
     7
370
     0
100
AcDbLine
 10
108.6819584972
 20
89.9408817589
 30
0.0
 11
108.6819584972
 21
89.9033680856
 31
0.0
  0
SPLINE
  5
116
330
1F
100
AcDbEntity
  8
0
  6
HIDDEN
 62
     7
370
     0
100
AcDbSpline
210
0.0
220
0.0
230
1.0
 70
     8
 71
     3
 72
    10
 73
     6
 74
     0
 42
0.00000001
 43
0.00000001
 40
0.0
 40
0.0
 40
0.0
 40
0.0
 40
0.5
 40
0.5
 40
1.0
 40
1.0
 40
1.0
 40
1.0
 10
109.0856855398015
 20
89.87397345843215
 30
0.0
 10
109.0072916481427
 20
89.87397345843215
 30
0.0
 10
108.9287191833024
 20
89.87665612425263
 30
0.0
 10
108.7892224898817
 20
89.88679734482159
 30
0.0
 10
108.7283232498989
 20
89.89420733077287
 30
0.0
 10
108.6819584975292
 20
89.90336815576059
 30
0.0
  0
LINE
  5
117
330
1F
100
AcDbEntity
  8
0
  6
HIDDEN
 62
     7
370
     0
100
AcDbLine
 10
107.9319584907
 20
90.2706230357
 30
0.0
 11
107.9319584907
 21
90.0482325181
 31
0.0
  0
SPLINE
  5
118
330
1F
100
AcDbEntity
  8
0
  6
HIDDEN
 62
     7
370
     0
100
AcDbSpline
210
0.0
220
0.0
230
1.0
 70
     8
 71
     3
 72
     8
 73
     4
 74
     0
 42
0.00000001
 43
0.00000001
 40
0.0000002492162788
 40
0.0000002492162788
 40
0.0000002492162788
 40
0.0000002492162788
 40
0.0012798123813552
 40
0.0012798123813552
 40
0.0012798123813552
 40
0.0012798123813552
 10
107.9319584975292
 20
90.04823266635164
 30
0.0
 10
108.1820364050083
 20
90.00111791637777
 30
0.0
 10
108.4320327825476
 20
89.95274889474844
 30
0.0
 10
108.6819584975292
 20
89.90336815576059
 30
0.0
  0
LINE
  5
119
330
1F
100
AcDbEntity
  8
0
  6
HIDDEN
 62
     7
370
     0
100
AcDbLine
 10
110.2394126148
 20
90.2706230357
 30
0.0
 11
110.2394126148
 21
90.0482325181
 31
0.0
  0
SPLINE
  5
11A
330
1F
100
AcDbEntity
  8
0
  6
HIDDEN
 62
     7
370
     0
100
AcDbSpline
210
0.0
220
0.0
230
1.0
 70
     8
 71
     3
 72
     8
 73
     4
 74
     0
 42
0.00000001
 43
0.00000001
 40
0.0000002493681955
 40
0.0000002493681955
 40
0.0000002493681955
 40
0.0000002493681955
 40
0.0012798125332719
 40
0.0012798125332719
 40
0.0012798125332719
 40
0.0012798125332719
 10
109.4894125820738
 20
89.90336815576059
 30
0.0
 10
109.7393382970553
 20
89.95274889474844
 30
0.0
 10
109.9893346745946
 20
90.00111791637777
 30
0.0
 10
110.2394125820738
 20
90.04823266635164
 30
0.0
  0
LINE
  5
11B
330
1F
100
AcDbEntity
  8
0
  6
HIDDEN
 62
     7
370
     0
100
AcDbLine
 10
99.0582357419
 20
102.2736878897
 30
0.0
 11
119.1131358293
 21
102.2736878897
 31
0.0
  0
LINE
  5
11C
330
1F
100
AcDbEntity
  8
0
  6
HIDDEN
 62
     7
370
     0
100
AcDbLine
 10
98.8993111325
 20
94.7672458663
 30
0.0
 11
119.2720604387
 21
94.7672458663
 31
0.0
  0
LINE
  5
11D
330
1F
100
AcDbEntity
  8
0
  6
HIDDEN
 62
     7
370
     0
100
AcDbLine
 10
103.9350104776
 20
89.9408817589
 30
0.0
 11
103.9350104776
 21
89.9033680856
 31
0.0
  0
SPLINE
  5
11E
330
1F
100
AcDbEntity
  8
0
  6
HIDDEN
 62
     7
370
     0
100
AcDbSpline
210
0.0
220
0.0
230
1.0
 70
     8
 71
     3
 72
     8
 73
     4
 74
     0
 42
0.00000001
 43
0.00000001
 40
0.0
 40
0.0
 40
0.0
 40
0.0
 40
1.0
 40
1.0
 40
1.0
 40
1.0
 10
103.9350104647933
 20
89.90336815576059
 30
0.0
 10
103.8004968039006
 20
89.88500937734362
 30
0.0
 10
103.6287081530771
 20
89.87397345843215
 30
0.0
 10
103.4835518966729
 20
89.87397345843215
 30
0.0
  0
LINE
  5
11F
330
1F
100
AcDbEntity
  8
0
  6
HIDDEN
 62
     7
370
     0
100
AcDbLine
 10
114.2363606279
 20
89.9408817589
 30
0.0
 11
114.2363606279
 21
89.9033680856
 31
0.0
  0
SPLINE
  5
120
330
1F
100
AcDbEntity
  8
0
  6
HIDDEN
 62
     7
370
     0
100
AcDbSpline
210
0.0
220
0.0
230
1.0
 70
     8
 71
     3
 72
    10
 73
     6
 74
     0
 42
0.00000001
 43
0.00000001
 40
0.0
 40
0.0
 40
0.0
 40
0.0
 40
0.5
 40
0.5
 40
1.0
 40
1.0
 40
1.0
 40
1.0
 10
114.6878191829303
 20
89.87397345843215
 30
0.0
 10
114.6153932964933
 20
89.87397345843215
 30
0.0
 10
114.5355804133129
 20
89.87665607973052
 30
0.0
 10
114.3795433297687
 20
89.88679737621915
 30
0.0
 10
114.3034815849288
 20
89.8942073091271
 30
0.0
 10
114.2363606148098
 20
89.90336815576059
 30
0.0
  0
LINE
  5
121
330
1F
100
AcDbEntity
  8
0
  6
HIDDEN
 62
     7
370
     0
100
AcDbLine
 10
103.189020164
 20
89.9408817589
 30
0.0
 11
103.189020164
 21
89.9033680856
 31
0.0
  0
SPLINE
  5
122
330
1F
100
AcDbEntity
  8
0
  6
HIDDEN
 62
     7
370
     0
100
AcDbSpline
210
0.0
220
0.0
230
1.0
 70
     8
 71
     3
 72
    10
 73
     6
 74
     0
 42
0.00000001
 43
0.00000001
 40
0.0
 40
0.0
 40
0.0
 40
0.0
 40
0.5
 40
0.5
 40
1.0
 40
1.0
 40
1.0
 40
1.0
 10
103.4835518966729
 20
89.87397345843215
 30
0.0
 10
103.4111256451677
 20
89.87397345843215
 30
0.0
 10
103.3457556383184
 20
89.87665610528772
 30
0.0
 10
103.2440349772297
 20
89.8867973345211
 30
0.0
 10
103.2075703829226
 20
89.89420726147895
 30
0.0
 10
103.1890201626399
 20
89.90336815576059
 30
0.0
  0
LINE
  5
123
330
1F
100
AcDbEntity
  8
0
  6
HIDDEN
 62
     7
370
     0
100
AcDbLine
 10
114.9823509415
 20
89.9408817589
 30
0.0
 11
114.9823509415
 21
89.9033680856
 31
0.0
  0
SPLINE
  5
124
330
1F
100
AcDbEntity
  8
0
  6
HIDDEN
 62
     7
370
     0
100
AcDbSpline
210
0.0
220
0.0
230
1.0
 70
     8
 71
     3
 72
     8
 73
     4
 74
     0
 42
0.00000001
 43
0.00000001
 40
0.0
 40
0.0
 40
0.0
 40
0.0
 40
1.0
 40
1.0
 40
1.0
 40
1.0
 10
114.9823509169632
 20
89.90336815576059
 30
0.0
 10
114.945175238976
 20
89.88500921173194
 30
0.0
 10
114.8329745425618
 20
89.87397345843215
 30
0.0
 10
114.6878191829303
 20
89.87397345843215
 30
0.0
  0
LINE
  5
125
330
1F
100
AcDbEntity
  8
0
  6
HIDDEN
 62
     7
370
     0
100
AcDbLine
 10
105.0207621676
 20
90.2706230357
 30
0.0
 11
105.0207621676
 21
90.0482325181
 31
0.0
  0
SPLINE
  5
126
330
1F
100
AcDbEntity
  8
0
  6
HIDDEN
 62
     7
370
     0
100
AcDbSpline
210
0.0
220
0.0
230
1.0
 70
     8
 71
     3
 72
     8
 73
     4
 74
     0
 42
0.00000001
 43
0.00000001
 40
0.000000235770167
 40
0.000000235770167
 40
0.000000235770167
 40
0.000000235770167
 40
0.0012797989352435
 40
0.0012797989352435
 40
0.0012797989352435
 40
0.0012797989352435
 10
103.9350104647933
 20
89.90336815576059
 30
0.0
 10
104.2968201575591
 20
89.95274889474844
 30
0.0
 10
104.6587321463143
 20
90.00111791637777
 30
0.0
 10
105.0207621634304
 20
90.04823266635164
 30
0.0
  0
LINE
  5
127
330
1F
100
AcDbEntity
  8
0
  6
HIDDEN
 62
     7
370
     0
100
AcDbLine
 10
113.1506089379
 20
90.2706230357
 30
0.0
 11
113.1506089379
 21
90.0482325181
 31
0.0
  0
SPLINE
  5
128
330
1F
100
AcDbEntity
  8
0
  6
HIDDEN
 62
     7
370
     0
100
AcDbSpline
210
0.0
220
0.0
230
1.0
 70
     8
 71
     3
 72
     8
 73
     4
 74
     0
 42
0.00000001
 43
0.00000001
 40
0.0000002356265358
 40
0.0000002356265358
 40
0.0000002356265358
 40
0.0000002356265358
 40
0.0012797987916123
 40
0.0012797987916123
 40
0.0012797987916123
 40
0.0012797987916123
 10
113.1506089161728
 20
90.04823266635164
 30
0.0
 10
113.5126389332889
 20
90.00111791637777
 30
0.0
 10
113.8745509220441
 20
89.95274889474844
 30
0.0
 10
114.2363606148098
 20
89.90336815576059
 30
0.0
  0
LINE
  5
129
330
1F
100
AcDbEntity
  8
0
  6
HIDDEN
 62
     7
370
     0
100
AcDbLine
 10
110.3356855248
 20
90.3662819713
 30
0.0
 11
110.3356855248
 21
90.0902584493
 31
0.0
  0
SPLINE
  5
12A
330
1F
100
AcDbEntity
  8
0
  6
HIDDEN
 62
     7
370
     0
100
AcDbSpline
210
0.0
220
0.0
230
1.0
 70
     8
 71
     3
 72
     8
 73
     4
 74
     0
 42
0.00000001
 43
0.00000001
 40
0.0
 40
0.0
 40
0.0
 40
0.0
 40
1.0
 40
1.0
 40
1.0
 40
1.0
 10
110.3356855398015
 20
90.09025829440178
 30
0.0
 10
110.335685539798
 20
90.07472460465429
 30
0.0
 10
110.3021432091749
 20
90.06005113460897
 30
0.0
 10
110.2394125820738
 20
90.04823266635164
 30
0.0
  0
LINE
  5
12B
330
1F
100
AcDbEntity
  8
0
  6
HIDDEN
 62
     7
370
     0
100
AcDbLine
 10
107.835685537
 20
90.3662819713
 30
0.0
 11
107.835685537
 21
90.0902584493
 31
0.0
  0
SPLINE
  5
12C
330
1F
100
AcDbEntity
  8
0
  6
HIDDEN
 62
     7
370
     0
100
AcDbSpline
210
0.0
220
0.0
230
1.0
 70
     8
 71
     3
 72
     8
 73
     4
 74
     0
 42
0.00000001
 43
0.00000001
 40
0.0
 40
0.0
 40
0.0
 40
0.0
 40
1.0
 40
1.0
 40
1.0
 40
1.0
 10
107.8356855398015
 20
90.09025829440178
 30
0.0
 10
107.835685539805
 20
90.07472460465429
 30
0.0
 10
107.8692278704281
 20
90.06005113460897
 30
0.0
 10
107.9319584975292
 20
90.04823266635164
 30
0.0
  0
LINE
  5
12D
330
1F
100
AcDbEntity
  8
0
  6
HIDDEN
 62
     7
370
     0
100
AcDbLine
 10
102.8889526871
 20
90.2706230357
 30
0.0
 11
102.8889526871
 21
90.0482325181
 31
0.0
  0
SPLINE
  5
12E
330
1F
100
AcDbEntity
  8
0
  6
HIDDEN
 62
     7
370
     0
100
AcDbSpline
210
0.0
220
0.0
230
1.0
 70
     8
 71
     3
 72
     8
 73
     4
 74
     0
 42
0.00000001
 43
0.00000001
 40
0.0000002070813958
 40
0.0000002070813958
 40
0.0000002070813958
 40
0.0000002070813958
 40
0.0012797702464722
 40
0.0012797702464722
 40
0.0012797702464722
 40
0.0012797702464722
 10
102.88895256251
 20
90.04823266635164
 30
0.0
 10
102.9890062659004
 20
90.00111791637777
 30
0.0
 10
103.0890273499662
 20
89.95274889474844
 30
0.0
 10
103.1890201626399
 20
89.90336815576059
 30
0.0
  0
LINE
  5
12F
330
1F
100
AcDbEntity
  8
0
  6
HIDDEN
 62
     7
370
     0
100
AcDbLine
 10
115.2824184184
 20
90.2706230357
 30
0.0
 11
115.2824184184
 21
90.0482325181
 31
0.0
  0
SPLINE
  5
130
330
1F
100
AcDbEntity
  8
0
  6
HIDDEN
 62
     7
370
     0
100
AcDbSpline
210
0.0
220
0.0
230
1.0
 70
     8
 71
     3
 72
     8
 73
     4
 74
     0
 42
0.00000001
 43
0.00000001
 40
0.0000002072076238
 40
0.0000002072076238
 40
0.0000002072076238
 40
0.0000002072076238
 40
0.0012797703727003
 40
0.0012797703727003
 40
0.0012797703727003
 40
0.0012797703727003
 10
114.9823509169632
 20
89.90336815576059
 30
0.0
 10
115.0823437296369
 20
89.95274889474844
 30
0.0
 10
115.1823648137027
 20
90.00111791637777
 30
0.0
 10
115.2824185170931
 20
90.04823266635164
 30
0.0
  0
LINE
  5
131
330
1F
100
AcDbEntity
  8
0
  6
HIDDEN
 62
     7
370
     0
100
AcDbLine
 10
105.2225851246
 20
90.3662819713
 30
0.0
 11
105.2225851246
 21
90.0902584493
 31
0.0
  0
SPLINE
  5
132
330
1F
100
AcDbEntity
  8
0
  6
HIDDEN
 62
     7
370
     0
100
AcDbSpline
210
0.0
220
0.0
230
1.0
 70
     8
 71
     3
 72
     8
 73
     4
 74
     0
 42
0.00000001
 43
0.00000001
 40
0.0
 40
0.0
 40
0.0
 40
0.0
 40
1.0
 40
1.0
 40
1.0
 40
1.0
 10
105.2225850777481
 20
90.09025829440178
 30
0.0
 10
105.1820799439621
 20
90.0747246874545
 30
0.0
 10
105.1115757197663
 20
90.06005118359758
 30
0.0
 10
105.0207621634304
 20
90.04823266635164
 30
0.0
  0
LINE
  5
133
330
1F
100
AcDbEntity
  8
0
  6
HIDDEN
 62
     7
370
     0
100
AcDbLine
 10
112.9487862137
 20
90.3662819713
 30
0.0
 11
112.9487862137
 21
90.0902584493
 31
0.0
  0
SPLINE
  5
134
330
1F
100
AcDbEntity
  8
0
  6
HIDDEN
 62
     7
370
     0
100
AcDbSpline
210
0.0
220
0.0
230
1.0
 70
     8
 71
     3
 72
     8
 73
     4
 74
     0
 42
0.00000001
 43
0.00000001
 40
0.0
 40
0.0
 40
0.0
 40
0.0
 40
1.0
 40
1.0
 40
1.0
 40
1.0
 10
112.9487860018551
 20
90.09025829440178
 30
0.0
 10
112.989291135641
 20
90.0747246874545
 30
0.0
 10
113.0597953598369
 20
90.06005118359758
 30
0.0
 10
113.1506089161728
 20
90.04823266635164
 30
0.0
  0
LINE
  5
135
330
1F
100
AcDbEntity
  8
0
  6
HIDDEN
 62
     7
370
     0
100
AcDbLine
 10
105.6901623753
 20
90.7742506191
 30
0.0
 11
105.6901623753
 21
90.2694896161
 31
0.0
  0
LINE
  5
136
330
1F
100
AcDbEntity
  8
0
  6
HIDDEN
 62
     7
370
     0
100
AcDbLine
 10
105.2225851246
 20
90.0902584493
 30
0.0
 11
105.6901623753
 21
90.2694896161
 31
0.0
  0
LINE
  5
137
330
1F
100
AcDbEntity
  8
0
  6
HIDDEN
 62
     7
370
     0
100
AcDbLine
 10
112.4812087302
 20
90.7742506191
 30
0.0
 11
112.4812087302
 21
90.2694896161
 31
0.0
  0
LINE
  5
138
330
1F
100
AcDbEntity
  8
0
  6
HIDDEN
 62
     7
370
     0
100
AcDbLine
 10
112.9487862137
 20
90.0902584493
 30
0.0
 11
112.4812087302
 21
90.2694896161
 31
0.0
  0
LINE
  5
139
330
1F
100
AcDbEntity
  8
0
  6
HIDDEN
 62
     7
370
     0
100
AcDbLine
 10
102.9128862803
 20
90.3662819713
 30
0.0
 11
102.9128862803
 21
90.0902584493
 31
0.0
  0
SPLINE
  5
13A
330
1F
100
AcDbEntity
  8
0
  6
HIDDEN
 62
     7
370
     0
100
AcDbSpline
210
0.0
220
0.0
230
1.0
 70
     8
 71
     3
 72
     8
 73
     4
 74
     0
 42
0.00000001
 43
0.00000001
 40
0.0
 40
0.0
 40
0.0
 40
0.0
 40
1.0
 40
1.0
 40
1.0
 40
1.0
 10
102.9128862464699
 20
90.09025829440178
 30
0.0
 10
102.8723811899361
 20
90.074724717078
 30
0.0
 10
102.8638543941869
 20
90.06005125861886
 30
0.0
 10
102.88895256251
 20
90.04823266635164
 30
0.0
  0
LINE
  5
13B
330
1F
100
AcDbEntity
  8
0
  6
HIDDEN
 62
     7
370
     0
100
AcDbLine
 10
115.2584848252
 20
90.3662819713
 30
0.0
 11
115.2584848252
 21
90.0902584493
 31
0.0
  0
SPLINE
  5
13C
330
1F
100
AcDbEntity
  8
0
  6
HIDDEN
 62
     7
370
     0
100
AcDbSpline
210
0.0
220
0.0
230
1.0
 70
     8
 71
     3
 72
     8
 73
     4
 74
     0
 42
0.00000001
 43
0.00000001
 40
0.0
 40
0.0
 40
0.0
 40
0.0
 40
1.0
 40
1.0
 40
1.0
 40
1.0
 10
115.2584848331333
 20
90.09025829440178
 30
0.0
 10
115.298989889667
 20
90.074724717078
 30
0.0
 10
115.3075166854162
 20
90.06005125861886
 30
0.0
 10
115.2824185170931
 20
90.04823266635164
 30
0.0
  0
LINE
  5
13D
330
1F
100
AcDbEntity
  8
0
  6
HIDDEN
 62
     7
370
     0
100
AcDbLine
 10
108.6229824952
 20
90.9304306209
 30
0.0
 11
108.6229824952
 21
90.3381038755
 31
0.0
  0
SPLINE
  5
13E
330
1F
100
AcDbEntity
  8
0
  6
HIDDEN
 62
     7
370
     0
100
AcDbSpline
210
0.0
220
0.0
230
1.0
 70
     8
 71
     3
 72
    14
 73
    10
 74
     0
 42
0.00000001
 43
0.00000001
 40
0.0
 40
0.0
 40
0.0
 40
0.0
 40
0.25
 40
0.25
 40
0.5
 40
0.5
 40
0.75
 40
0.75
 40
1.0
 40
1.0
 40
1.0
 40
1.0
 10
108.622982477439
 20
90.33810409134267
 30
0.0
 10
108.547771689119
 20
90.34543563250031
 30
0.0
 10
108.4589471435076
 20
90.34934962668785
 30
0.0
 10
108.277362338617
 20
90.34940543529834
 30
0.0
 10
108.1840037827686
 20
90.34544520419414
 30
0.0
 10
108.0230454825594
 20
90.33102214146729
 30
0.0
 10
107.9548488431698
 20
90.32062913893222
 30
0.0
 10
107.8607416805908
 20
90.29639851953387
 30
0.0
 10
107.8356855397984
 20
90.28286092091717
 30
0.0
 10
107.8356855398015
 20
90.26949004712309
 30
0.0
  0
LINE
  5
13F
330
1F
100
AcDbEntity
  8
0
  6
HIDDEN
 62
     7
370
     0
100
AcDbLine
 10
109.5483886103
 20
90.9304306209
 30
0.0
 11
109.5483886103
 21
90.3381038755
 31
0.0
  0
SPLINE
  5
140
330
1F
100
AcDbEntity
  8
0
  6
HIDDEN
 62
     7
370
     0
100
AcDbSpline
210
0.0
220
0.0
230
1.0
 70
     8
 71
     3
 72
    14
 73
    10
 74
     0
 42
0.00000001
 43
0.00000001
 40
0.0
 40
0.0
 40
0.0
 40
0.0
 40
0.25
 40
0.25
 40
0.5
 40
0.5
 40
0.75
 40
0.75
 40
1.0
 40
1.0
 40
1.0
 40
1.0
 10
109.548388602164
 20
90.33810409134267
 30
0.0
 10
109.6235993904839
 20
90.34543563250031
 30
0.0
 10
109.7124239360954
 20
90.34934962668785
 30
0.0
 10
109.894008740986
 20
90.34940543529834
 30
0.0
 10
109.9873672968344
 20
90.34544520419414
 30
0.0
 10
110.1483255970435
 20
90.33102214146729
 30
0.0
 10
110.2165222364331
 20
90.32062913893222
 30
0.0
 10
110.3106293990122
 20
90.29639851953387
 30
0.0
 10
110.3356855398045
 20
90.28286092091717
 30
0.0
 10
110.3356855398015
 20
90.26949004712309
 30
0.0
  0
SPLINE
  5
141
330
1F
100
AcDbEntity
  8
0
  6
HIDDEN
 62
     7
370
     0
100
AcDbSpline
210
0.0
220
0.0
230
1.0
 70
     8
 71
     3
 72
    10
 73
     6
 74
     0
 42
0.00000001
 43
0.00000001
 40
0.0
 40
0.0
 40
0.0
 40
0.0
 40
0.5
 40
0.5
 40
1.0
 40
1.0
 40
1.0
 40
1.0
 10
108.798388602164
 20
90.32079925651387
 30
0.0
 10
108.8824096996529
 20
90.31241228461198
 30
0.0
 10
108.9830637496166
 20
90.30795338565026
 30
0.0
 10
109.1873997281243
 20
90.30792721399011
 30
0.0
 10
109.2889564667289
 20
90.31241179417506
 30
0.0
 10
109.372982477439
 20
90.32079925651387
 30
0.0
  0
LINE
  5
142
330
1F
100
AcDbEntity
  8
0
  6
HIDDEN
 62
     7
370
     0
100
AcDbLine
 10
102.9128862803
 20
90.0902584493
 30
0.0
 11
103.3804637638
 21
90.2694896161
 31
0.0
  0
LINE
  5
143
330
1F
100
AcDbEntity
  8
0
  6
HIDDEN
 62
     7
370
     0
100
AcDbLine
 10
115.2584848252
 20
90.0902584493
 30
0.0
 11
114.7909073417
 21
90.2694896161
 31
0.0
  0
LINE
  5
144
330
1F
100
AcDbEntity
  8
0
  6
HIDDEN
 62
     7
370
     0
100
AcDbLine
 10
108.7983886038
 20
90.8910412639
 30
0.0
 11
108.7983886038
 21
90.3207989707
 31
0.0
  0
SPLINE
  5
145
330
1F
100
AcDbEntity
  8
0
  6
HIDDEN
 62
     7
370
     0
100
AcDbSpline
210
0.0
220
0.0
230
1.0
 70
     8
 71
     3
 72
     8
 73
     4
 74
     0
 42
0.00000001
 43
0.00000001
 40
0.0000002451817734
 40
0.0000002451817734
 40
0.0000002451817734
 40
0.0000002451817734
 40
0.0002152606545094
 40
0.0002152606545094
 40
0.0002152606545094
 40
0.0002152606545094
 10
108.798388602164
 20
90.32079925651387
 30
0.0
 10
108.7399243881907
 20
90.3266351445769
 30
0.0
 10
108.6814556733671
 20
90.33240412924779
 30
0.0
 10
108.622982477439
 20
90.33810409134267
 30
0.0
  0
LINE
  5
146
330
1F
100
AcDbEntity
  8
0
  6
HIDDEN
 62
     7
370
     0
100
AcDbLine
 10
109.3729825017
 20
90.8910412639
 30
0.0
 11
109.3729825017
 21
90.3207989707
 31
0.0
  0
SPLINE
  5
147
330
1F
100
AcDbEntity
  8
0
  6
HIDDEN
 62
     7
370
     0
100
AcDbSpline
210
0.0
220
0.0
230
1.0
 70
     8
 71
     3
 72
     8
 73
     4
 74
     0
 42
0.00000001
 43
0.00000001
 40
0.0000002451817734
 40
0.0000002451817734
 40
0.0000002451817734
 40
0.0000002451817734
 40
0.0002152606545094
 40
0.0002152606545094
 40
0.0002152606545094
 40
0.0002152606545094
 10
109.372982477439
 20
90.32079925651387
 30
0.0
 10
109.4314466914122
 20
90.3266351445769
 30
0.0
 10
109.4899154062359
 20
90.33240412924779
 30
0.0
 10
109.548388602164
 20
90.33810409134267
 30
0.0
  0
LINE
  5
148
330
1F
100
AcDbEntity
  8
0
  6
HIDDEN
 62
     7
370
     0
100
AcDbLine
 10
113.0519748923
 20
90.9304306209
 30
0.0
 11
113.0519748923
 21
90.3381038755
 31
0.0
  0
SPLINE
  5
149
330
1F
100
AcDbEntity
  8
0
  6
HIDDEN
 62
     7
370
     0
100
AcDbSpline
210
0.0
220
0.0
230
1.0
 70
     8
 71
     3
 72
    10
 73
     6
 74
     0
 42
0.00000001
 43
0.00000001
 40
0.0
 40
0.0
 40
0.0
 40
0.0
 40
0.5
 40
0.5
 40
1.0
 40
1.0
 40
1.0
 40
1.0
 10
113.0519746653962
 20
90.33810409134267
 30
0.0
 10
112.9149390322004
 20
90.34930551627501
 30
0.0
 10
112.7669955757665
 20
90.35226563232598
 30
0.0
 10
112.5406741384695
 20
90.34018684346843
 30
0.0
 10
112.4635732793657
 20
90.32532748656529
 30
0.0
 10
112.4467807726129
 20
90.30647273866447
 30
0.0
  0
SPLINE
  5
14A
330
1F
100
AcDbEntity
  8
0
  6
HIDDEN
 62
     7
370
     0
100
AcDbSpline
210
0.0
220
0.0
230
1.0
 70
     8
 71
     3
 72
     9
 73
     5
 74
     0
 42
0.00000001
 43
0.00000001
 40
0.0
 40
0.0
 40
0.0
 40
0.0
 40
0.5521622490391285
 40
1.0
 40
1.0
 40
1.0
 40
1.0
 10
112.4496713538767
 20
90.29789588594629
 30
0.0
 10
112.4489044164063
 20
90.29277624043534
 30
0.0
 10
112.4475154451906
 20
90.28350424561884
 30
0.0
 10
112.4707868960199
 20
90.27382454945703
 30
0.0
 10
112.4812087302209
 20
90.26948961609796
 30
0.0
  0
LINE
  5
14B
330
1F
100
AcDbEntity
  8
0
  6
HIDDEN
 62
     7
370
     0
100
AcDbLine
 10
105.119396446
 20
90.9304306209
 30
0.0
 11
105.119396446
 21
90.3381038755
 31
0.0
  0
SPLINE
  5
14C
330
1F
100
AcDbEntity
  8
0
  6
HIDDEN
 62
     7
370
     0
100
AcDbSpline
210
0.0
220
0.0
230
1.0
 70
     8
 71
     3
 72
    14
 73
    10
 74
     0
 42
0.00000001
 43
0.00000001
 40
0.0
 40
0.0
 40
0.0
 40
0.0
 40
0.25
 40
0.25
 40
0.5
 40
0.5
 40
0.75
 40
0.75
 40
1.0
 40
1.0
 40
1.0
 40
1.0
 10
105.1193964142069
 20
90.33810409134267
 30
0.0
 10
105.2090899802403
 20
90.3454357300078
 30
0.0
 10
105.3030214500351
 20
90.3493496402851
 30
0.0
 10
105.4753053088484
 20
90.34940542199337
 30
0.0
 10
105.5539695608439
 20
90.34544522385312
 30
0.0
 10
105.6703836683431
 20
90.33102206417053
 30
0.0
 10
105.7088451456461
 20
90.32062900019136
 30
0.0
 10
105.7362154998887
 20
90.2963986432557
 30
0.0
 10
105.7250619122349
 20
90.28286088091976
 30
0.0
 10
105.6901624786258
 20
90.26949004712309
 30
0.0
  0
SPLINE
  5
14D
330
1F
100
AcDbEntity
  8
0
  6
HIDDEN
 62
     7
370
     0
100
AcDbSpline
210
0.0
220
0.0
230
1.0
 70
     8
 71
     3
 72
    10
 73
     6
 74
     0
 42
0.00000001
 43
0.00000001
 40
0.0
 40
0.0
 40
0.0
 40
0.0
 40
0.5
 40
0.5
 40
1.0
 40
1.0
 40
1.0
 40
1.0
 10
104.3793609080838
 20
90.32079925651387
 30
0.0
 10
104.4344126631722
 20
90.3124122711561
 30
0.0
 10
104.5152738653321
 20
90.30795339222091
 30
0.0
 10
104.7039841854879
 20
90.30792720747789
 30
0.0
 10
104.8100107004937
 20
90.31241172792876
 30
0.0
 10
104.9102164289567
 20
90.32079925651387
 30
0.0
  0
SPLINE
  5
14E
330
1F
100
AcDbEntity
  8
0
  6
HIDDEN
 62
     7
370
     0
100
AcDbSpline
210
0.0
220
0.0
230
1.0
 70
     8
 71
     3
 72
    10
 73
     6
 74
     0
 42
0.00000001
 43
0.00000001
 40
0.0
 40
0.0
 40
0.0
 40
0.0
 40
0.5
 40
0.5
 40
1.0
 40
1.0
 40
1.0
 40
1.0
 10
113.2611546506465
 20
90.32079925651387
 30
0.0
 10
113.3613549798733
 20
90.3124121798615
 30
0.0
 10
113.4664778794733
 20
90.30795338450153
 30
0.0
 10
113.6553288433304
 20
90.3079272151298
 30
0.0
 10
113.7369552442213
 20
90.31241178787857
 30
0.0
 10
113.7920101715194
 20
90.32079925651387
 30
0.0
  0
LINE
  5
14F
330
1F
100
AcDbEntity
  8
0
  6
HIDDEN
 62
     7
370
     0
100
AcDbLine
 10
104.9102165063
 20
90.8910412639
 30
0.0
 11
104.9102165063
 21
90.3207989707
 31
0.0
  0
SPLINE
  5
150
330
1F
100
AcDbEntity
  8
0
  6
HIDDEN
 62
     7
370
     0
100
AcDbSpline
210
0.0
220
0.0
230
1.0
 70
     8
 71
     3
 72
     8
 73
     4
 74
     0
 42
0.00000001
 43
0.00000001
 40
0.0000002055951198
 40
0.0000002055951198
 40
0.0000002055951198
 40
0.0000002055951198
 40
0.0002152210678558
 40
0.0002152210678558
 40
0.0002152210678558
 40
0.0002152210678558
 10
104.9102164289567
 20
90.32079925651387
 30
0.0
 10
104.9799377310821
 20
90.3266351445769
 30
0.0
 10
105.0496644006814
 20
90.33240412924779
 30
0.0
 10
105.1193964142069
 20
90.33810409134267
 30
0.0
  0
LINE
  5
151
330
1F
100
AcDbEntity
  8
0
  6
HIDDEN
 62
     7
370
     0
100
AcDbLine
 10
113.2611545992
 20
90.8910412639
 30
0.0
 11
113.2611545992
 21
90.3207989707
 31
0.0
  0
SPLINE
  5
152
330
1F
100
AcDbEntity
  8
0
  6
HIDDEN
 62
     7
370
     0
100
AcDbSpline
210
0.0
220
0.0
230
1.0
 70
     8
 71
     3
 72
     8
 73
     4
 74
     0
 42
0.00000001
 43
0.00000001
 40
0.0000002055951198
 40
0.0000002055951198
 40
0.0000002055951198
 40
0.0000002055951198
 40
0.0002152210678558
 40
0.0002152210678558
 40
0.0002152210678558
 40
0.0002152210678558
 10
113.2611546506465
 20
90.32079925651385
 30
0.0
 10
113.1914333485211
 20
90.3266351445769
 30
0.0
 10
113.1217066789217
 20
90.33240412924779
 30
0.0
 10
113.0519746653962
 20
90.33810409134267
 30
0.0
  0
LINE
  5
153
330
1F
100
AcDbEntity
  8
0
  6
HIDDEN
 62
     7
370
     0
100
AcDbLine
 10
104.379361009
 20
90.8910412639
 30
0.0
 11
104.379361009
 21
90.3207989707
 31
0.0
  0
SPLINE
  5
154
330
1F
100
AcDbEntity
  8
0
  6
HIDDEN
 62
     7
370
     0
100
AcDbSpline
210
0.0
220
0.0
230
1.0
 70
     8
 71
     3
 72
     8
 73
     4
 74
     0
 42
0.00000001
 43
0.00000001
 40
0.0000002377397542
 40
0.0000002377397542
 40
0.0000002377397542
 40
0.0000002377397542
 40
0.0002152532124901
 40
0.0002152532124901
 40
0.0002152532124901
 40
0.0002152532124901
 10
104.3793609080838
 20
90.32079925651387
 30
0.0
 10
104.3410544288606
 20
90.3266351445769
 30
0.0
 10
104.3027450006244
 20
90.33240412924779
 30
0.0
 10
104.2644326363129
 20
90.33810409134267
 30
0.0
  0
LINE
  5
155
330
1F
100
AcDbEntity
  8
0
  6
HIDDEN
 62
     7
370
     0
100
AcDbLine
 10
113.7920103294
 20
90.8910412639
 30
0.0
 11
113.7920103294
 21
90.3207989707
 31
0.0
  0
SPLINE
  5
156
330
1F
100
AcDbEntity
  8
0
  6
HIDDEN
 62
     7
370
     0
100
AcDbSpline
210
0.0
220
0.0
230
1.0
 70
     8
 71
     3
 72
     8
 73
     4
 74
     0
 42
0.00000001
 43
0.00000001
 40
0.0000002377397542
 40
0.0000002377397542
 40
0.0000002377397542
 40
0.0000002377397542
 40
0.0002152532124901
 40
0.0002152532124901
 40
0.0002152532124901
 40
0.0002152532124901
 10
113.7920101715194
 20
90.32079925651387
 30
0.0
 10
113.8303166507425
 20
90.3266351445769
 30
0.0
 10
113.8686260789787
 20
90.33240412924779
 30
0.0
 10
113.9069384432902
 20
90.33810409134267
 30
0.0
  0
LINE
  5
157
330
1F
100
AcDbEntity
  8
0
  6
HIDDEN
 62
     7
370
     0
100
AcDbLine
 10
104.2644325436
 20
90.9304306209
 30
0.0
 11
104.2644325436
 21
90.3381038755
 31
0.0
  0
LINE
  5
158
330
1F
100
AcDbEntity
  8
0
  6
HIDDEN
 62
     7
370
     0
100
AcDbLine
 10
103.3804637638
 20
90.7742506191
 30
0.0
 11
103.3804637638
 21
90.2694896161
 31
0.0
  0
SPLINE
  5
159
330
1F
100
AcDbEntity
  8
0
  6
HIDDEN
 62
     7
370
     0
100
AcDbSpline
210
0.0
220
0.0
230
1.0
 70
     8
 71
     3
 72
    14
 73
    10
 74
     0
 42
0.00000001
 43
0.00000001
 40
0.0
 40
0.0
 40
0.0
 40
0.0
 40
0.25
 40
0.25
 40
0.5
 40
0.5
 40
0.75
 40
0.75
 40
1.0
 40
1.0
 40
1.0
 40
1.0
 10
104.2644326363129
 20
90.33810409134267
 30
0.0
 10
104.2151557045808
 20
90.34543531843052
 30
0.0
 10
104.1449613002146
 20
90.34934958621373
 30
0.0
 10
103.9817190229814
 20
90.34940547490264
 30
0.0
 10
103.8878782962306
 20
90.34544512864001
 30
0.0
 10
103.7068828560113
 20
90.33102236262488
 30
0.0
 10
103.6193336667203
 20
90.32062954993887
 30
0.0
 10
103.4728117298923
 20
90.29639804986846
 30
0.0
 10
103.4153631201317
 20
90.28286089593084
 30
0.0
 10
103.3804636473476
 20
90.26949004712309
 30
0.0
  0
LINE
  5
15A
330
1F
100
AcDbEntity
  8
0
  6
HIDDEN
 62
     7
370
     0
100
AcDbLine
 10
113.9069383291
 20
90.9304306209
 30
0.0
 11
113.9069383291
 21
90.3381038755
 31
0.0
  0
LINE
  5
15B
330
1F
100
AcDbEntity
  8
0
  6
HIDDEN
 62
     7
370
     0
100
AcDbLine
 10
114.7909073417
 20
90.7742506191
 30
0.0
 11
114.7909073417
 21
90.2694896161
 31
0.0
  0
SPLINE
  5
15C
330
1F
100
AcDbEntity
  8
0
  6
HIDDEN
 62
     7
370
     0
100
AcDbSpline
210
0.0
220
0.0
230
1.0
 70
     8
 71
     3
 72
    14
 73
    10
 74
     0
 42
0.00000001
 43
0.00000001
 40
0.0
 40
0.0
 40
0.0
 40
0.0
 40
0.25
 40
0.25
 40
0.5
 40
0.5
 40
0.75
 40
0.75
 40
1.0
 40
1.0
 40
1.0
 40
1.0
 10
113.9069384432902
 20
90.33810409134267
 30
0.0
 10
113.9562153750223
 20
90.34543531843052
 30
0.0
 10
114.0264097793885
 20
90.34934958621373
 30
0.0
 10
114.1896520566217
 20
90.34940547490264
 30
0.0
 10
114.2834927833725
 20
90.34544512864001
 30
0.0
 10
114.4644882235918
 20
90.33102236262488
 30
0.0
 10
114.5520374128828
 20
90.32062954993887
 30
0.0
 10
114.6985593497108
 20
90.29639804986846
 30
0.0
 10
114.7560079594714
 20
90.28286089593084
 30
0.0
 10
114.7909074322555
 20
90.26949004712309
 30
0.0
  0
LINE
  5
15D
330
1F
100
AcDbEntity
  8
0
  6
HIDDEN
 62
     7
370
     0
100
AcDbLine
 10
99.1647520361
 20
89.9408817589
 30
0.0
 11
99.1647520361
 21
89.9033680856
 31
0.0
  0
SPLINE
  5
15E
330
1F
100
AcDbEntity
  8
0
  6
HIDDEN
 62
     7
370
     0
100
AcDbSpline
210
0.0
220
0.0
230
1.0
 70
     8
 71
     3
 72
     8
 73
     4
 74
     0
 42
0.00000001
 43
0.00000001
 40
0.0
 40
0.0
 40
0.0
 40
0.0
 40
1.0
 40
1.0
 40
1.0
 40
1.0
 10
99.16475193669685
 20
89.90336815576059
 30
0.0
 10
99.00911894813
 20
89.88500919197276
 30
0.0
 10
98.84538933788264
 20
89.87397345843215
 30
0.0
 10
98.73429231724252
 20
89.87397345843215
 30
0.0
  0
LINE
  5
15F
330
1F
100
AcDbEntity
  8
0
  6
HIDDEN
 62
     7
370
     0
100
AcDbLine
 10
119.0066195351
 20
89.9408817589
 30
0.0
 11
119.0066195351
 21
89.9033680856
 31
0.0
  0
SPLINE
  5
160
330
1F
100
AcDbEntity
  8
0
  6
HIDDEN
 62
     7
370
     0
100
AcDbSpline
210
0.0
220
0.0
230
1.0
 70
     8
 71
     3
 72
    10
 73
     6
 74
     0
 42
0.00000001
 43
0.00000001
 40
0.0
 40
0.0
 40
0.0
 40
0.0
 40
0.5
 40
0.5
 40
1.0
 40
1.0
 40
1.0
 40
1.0
 10
119.4370787623606
 20
89.87397345843215
 30
0.0
 10
119.3816464648335
 20
89.87397345843215
 30
0.0
 10
119.312744054799
 20
89.87665607229164
 30
0.0
 10
119.1639229433425
 20
89.88679736210061
 30
0.0
 10
119.0842781092525
 20
89.89420725636464
 30
0.0
 10
119.0066191429063
 20
89.90336815576059
 30
0.0
  0
LINE
  5
161
330
1F
100
AcDbEntity
  8
0
  6
HIDDEN
 62
     7
370
     0
100
AcDbLine
 10
100.4209595059
 20
90.2706230357
 30
0.0
 11
100.4209595059
 21
90.0482325181
 31
0.0
  0
SPLINE
  5
162
330
1F
100
AcDbEntity
  8
0
  6
HIDDEN
 62
     7
370
     0
100
AcDbSpline
210
0.0
220
0.0
230
1.0
 70
     8
 71
     3
 72
     8
 73
     4
 74
     0
 42
0.00000001
 43
0.00000001
 40
0.0000002037783158
 40
0.0000002037783158
 40
0.0000002037783158
 40
0.0000002037783158
 40
0.0012797669433923
 40
0.0012797669433923
 40
0.0012797669433923
 40
0.0012797669433923
 10
99.16475193669685
 20
89.90336815576059
 30
0.0
 10
99.58336336133623
 20
89.95274889474844
 30
0.0
 10
100.0020931417597
 20
90.00111791637777
 30
0.0
 10
100.4209594802171
 20
90.04823266635164
 30
0.0
  0
LINE
  5
163
330
1F
100
AcDbEntity
  8
0
  6
HIDDEN
 62
     7
370
     0
100
AcDbLine
 10
117.7504115996
 20
90.2706230357
 30
0.0
 11
117.7504115996
 21
90.0482325181
 31
0.0
  0
SPLINE
  5
164
330
1F
100
AcDbEntity
  8
0
  6
HIDDEN
 62
     7
370
     0
100
AcDbSpline
210
0.0
220
0.0
230
1.0
 70
     8
 71
     3
 72
     8
 73
     4
 74
     0
 42
0.00000001
 43
0.00000001
 40
0.0000002036541772
 40
0.0000002036541772
 40
0.0000002036541772
 40
0.0000002036541772
 40
0.0012797668192537
 40
0.0012797668192537
 40
0.0012797668192537
 40
0.0012797668192537
 10
117.750411599386
 20
90.04823266635164
 30
0.0
 10
118.1692779378434
 20
90.00111791637777
 30
0.0
 10
118.5880077182669
 20
89.95274889474844
 30
0.0
 10
119.0066191429063
 20
89.90336815576059
 30
0.0
  0
LINE
  5
165
330
1F
100
AcDbEntity
  8
0
  6
HIDDEN
 62
     7
370
     0
100
AcDbLine
 10
98.5937954185
 20
89.9408817589
 30
0.0
 11
98.5937954185
 21
89.9033680856
 31
0.0
  0
SPLINE
  5
166
330
1F
100
AcDbEntity
  8
0
  6
HIDDEN
 62
     7
370
     0
100
AcDbSpline
210
0.0
220
0.0
230
1.0
 70
     8
 71
     3
 72
    10
 73
     6
 74
     0
 42
0.00000001
 43
0.00000001
 40
0.0
 40
0.0
 40
0.0
 40
0.0
 40
0.5
 40
0.5
 40
1.0
 40
1.0
 40
1.0
 40
1.0
 10
98.73429231724252
 20
89.87397345843215
 30
0.0
 10
98.67886001971539
 20
89.87397345843215
 30
0.0
 10
98.63664421684562
 20
89.87665607229164
 30
0.0
 10
98.58818560275469
 20
89.88679736210061
 30
0.0
 10
98.5817069058752
 20
89.89420725636464
 30
0.0
 10
98.5937956780186
 20
89.90336815576059
 30
0.0
  0
LINE
  5
167
330
1F
100
AcDbEntity
  8
0
  6
HIDDEN
 62
     7
370
     0
100
AcDbLine
 10
119.5775752214
 20
89.9408817589
 30
0.0
 11
119.5775752214
 21
89.9033680856
 31
0.0
  0
SPLINE
  5
168
330
1F
100
AcDbEntity
  8
0
  6
HIDDEN
 62
     7
370
     0
100
AcDbSpline
210
0.0
220
0.0
230
1.0
 70
     8
 71
     3
 72
     8
 73
     4
 74
     0
 42
0.00000001
 43
0.00000001
 40
0.0
 40
0.0
 40
0.0
 40
0.0
 40
1.0
 40
1.0
 40
1.0
 40
1.0
 10
119.5775754015845
 20
89.90336815576059
 30
0.0
 10
119.6018019889999
 20
89.88500919197276
 30
0.0
 10
119.5481757830007
 20
89.87397345843215
 30
0.0
 10
119.4370787623606
 20
89.87397345843215
 30
0.0
  0
LINE
  5
169
330
1F
100
AcDbEntity
  8
0
  6
HIDDEN
 62
     7
370
     0
100
AcDbLine
 10
100.6976065484
 20
90.3662819713
 30
0.0
 11
100.6976065484
 21
90.0902584493
 31
0.0
  0
SPLINE
  5
16A
330
1F
100
AcDbEntity
  8
0
  6
HIDDEN
 62
     7
370
     0
100
AcDbSpline
210
0.0
220
0.0
230
1.0
 70
     8
 71
     3
 72
     8
 73
     4
 74
     0
 42
0.00000001
 43
0.00000001
 40
0.0
 40
0.0
 40
0.0
 40
0.0
 40
1.0
 40
1.0
 40
1.0
 40
1.0
 10
100.6976066419492
 20
90.09025829440178
 30
0.0
 10
100.6227644084072
 20
90.07472499765193
 30
0.0
 10
100.5260313802136
 20
90.06005132028241
 30
0.0
 10
100.4209594802171
 20
90.04823266635164
 30
0.0
  0
LINE
  5
16B
330
1F
100
AcDbEntity
  8
0
  6
HIDDEN
 62
     7
370
     0
100
AcDbLine
 10
117.4737640915
 20
90.3662819713
 30
0.0
 11
117.4737640915
 21
90.0902584493
 31
0.0
  0
SPLINE
  5
16C
330
1F
100
AcDbEntity
  8
0
  6
HIDDEN
 62
     7
370
     0
100
AcDbSpline
210
0.0
220
0.0
230
1.0
 70
     8
 71
     3
 72
     8
 73
     4
 74
     0
 42
0.00000001
 43
0.00000001
 40
0.0
 40
0.0
 40
0.0
 40
0.0
 40
1.0
 40
1.0
 40
1.0
 40
1.0
 10
117.4737644376539
 20
90.09025829440178
 30
0.0
 10
117.5486066711959
 20
90.07472499765193
 30
0.0
 10
117.6453396993895
 20
90.06005132028241
 30
0.0
 10
117.750411599386
 20
90.04823266635164
 30
0.0
  0
LINE
  5
16D
330
1F
100
AcDbEntity
  8
0
  6
HIDDEN
 62
     7
370
     0
100
AcDbLine
 10
101.5615768057
 20
90.7742506191
 30
0.0
 11
101.5615768057
 21
90.2694896161
 31
0.0
  0
LINE
  5
16E
330
1F
100
AcDbEntity
  8
0
  6
HIDDEN
 62
     7
370
     0
100
AcDbLine
 10
100.6976065484
 20
90.0902584493
 30
0.0
 11
101.5615768057
 21
90.2694896161
 31
0.0
  0
LINE
  5
16F
330
1F
100
AcDbEntity
  8
0
  6
HIDDEN
 62
     7
370
     0
100
AcDbLine
 10
116.6097938341
 20
90.7742506191
 30
0.0
 11
116.6097938341
 21
90.2694896161
 31
0.0
  0
LINE
  5
170
330
1F
100
AcDbEntity
  8
0
  6
HIDDEN
 62
     7
370
     0
100
AcDbLine
 10
117.4737640915
 20
90.0902584493
 30
0.0
 11
116.6097938341
 21
90.2694896161
 31
0.0
  0
LINE
  5
171
330
1F
100
AcDbEntity
  8
0
  6
HIDDEN
 62
     7
370
     0
100
AcDbLine
 10
100.5851372403
 20
101.8560064788
 30
0.0
 11
117.5862333995
 21
101.8560064788
 31
0.0
  0
SPLINE
  5
172
330
1F
100
AcDbEntity
  8
0
  6
HIDDEN
 62
     7
370
     0
100
AcDbSpline
210
0.0
220
0.0
230
1.0
 70
     8
 71
     3
 72
     8
 73
     4
 74
     0
 42
0.00000001
 43
0.00000001
 40
0.0000002036541772
 40
0.0000002036541772
 40
0.0000002036541772
 40
0.0000002036541772
 40
0.0012797668192537
 40
0.0012797668192537
 40
0.0012797668192537
 40
0.0012797668192537
 10
98.78934304975898
 20
90.04823266635164
 30
0.0
 10
98.72414027970848
 20
90.00111791637777
 30
0.0
 10
98.65895876694523
 20
89.95274889474844
 30
0.0
 10
98.5937956780186
 20
89.90336815576059
 30
0.0
  0
SPLINE
  5
173
330
1F
100
AcDbEntity
  8
0
  6
HIDDEN
 62
     7
370
     0
100
AcDbSpline
210
0.0
220
0.0
230
1.0
 70
     8
 71
     3
 72
     8
 73
     4
 74
     0
 42
0.00000001
 43
0.00000001
 40
0.0000002037783158
 40
0.0000002037783158
 40
0.0000002037783158
 40
0.0000002037783158
 40
0.0012797669433923
 40
0.0012797669433923
 40
0.0012797669433923
 40
0.0012797669433923
 10
119.5775754015845
 20
89.90336815576059
 30
0.0
 10
119.5124123126579
 20
89.95274889474844
 30
0.0
 10
119.4472307998946
 20
90.00111791637777
 30
0.0
 10
119.3820280298441
 20
90.04823266635164
 30
0.0
  0
LINE
  5
174
330
1F
100
AcDbEntity
  8
0
  6
HIDDEN
 62
     7
370
     0
100
AcDbLine
 10
116.8771355671
 20
90.9304306209
 30
0.0
 11
116.8771355671
 21
90.3381038755
 31
0.0
  0
SPLINE
  5
175
330
1F
100
AcDbEntity
  8
0
  6
HIDDEN
 62
     7
370
     0
100
AcDbSpline
210
0.0
220
0.0
230
1.0
 70
     8
 71
     3
 72
    14
 73
    10
 74
     0
 42
0.00000001
 43
0.00000001
 40
0.0
 40
0.0
 40
0.0
 40
0.0
 40
0.25
 40
0.25
 40
0.5
 40
0.5
 40
0.75
 40
0.75
 40
1.0
 40
1.0
 40
1.0
 40
1.0
 10
116.8771352884821
 20
90.33810409134267
 30
0.0
 10
116.78661487864
 20
90.34543573800455
 30
0.0
 10
116.7018765028357
 20
90.34934964443556
 30
0.0
 10
116.5651215663626
 20
90.34940541793296
 30
0.0
 10
116.5131273114642
 20
90.34544521390164
 30
0.0
 10
116.4589812755671
 20
90.33102203202095
 30
0.0
 10
116.4561102589136
 20
90.32062895499938
 30
0.0
 10
116.4996426929932
 20
90.296398588579
 30
0.0
 10
116.5453090208155
 20
90.28286073390231
 30
0.0
 10
116.6097940565823
 20
90.26949004712309
 30
0.0
  0
LINE
  5
176
330
1F
100
AcDbEntity
  8
0
  6
HIDDEN
 62
     7
370
     0
100
AcDbLine
 10
101.2942360041
 20
90.9304306209
 30
0.0
 11
101.2942360041
 21
90.3381038755
 31
0.0
  0
SPLINE
  5
177
330
1F
100
AcDbEntity
  8
0
  6
HIDDEN
 62
     7
370
     0
100
AcDbSpline
210
0.0
220
0.0
230
1.0
 70
     8
 71
     3
 72
    14
 73
    10
 74
     0
 42
0.00000001
 43
0.00000001
 40
0.0
 40
0.0
 40
0.0
 40
0.0
 40
0.25
 40
0.25
 40
0.5
 40
0.5
 40
0.75
 40
0.75
 40
1.0
 40
1.0
 40
1.0
 40
1.0
 10
101.294235791121
 20
90.33810409134267
 30
0.0
 10
101.3847562009631
 20
90.34543573800455
 30
0.0
 10
101.4694945767674
 20
90.34934964443556
 30
0.0
 10
101.6062495132405
 20
90.34940541793296
 30
0.0
 10
101.6582437681389
 20
90.34544521390164
 30
0.0
 10
101.712389804036
 20
90.33102203202095
 30
0.0
 10
101.7152608206895
 20
90.32062895499938
 30
0.0
 10
101.6717283866099
 20
90.296398588579
 30
0.0
 10
101.6260620587876
 20
90.28286073390231
 30
0.0
 10
101.5615770230208
 20
90.26949004712309
 30
0.0
  0
LINE
  5
178
330
1F
100
AcDbEntity
  8
0
  6
HIDDEN
 62
     7
370
     0
100
AcDbLine
 10
98.7893433568
 20
90.2706230357
 30
0.0
 11
98.7893433568
 21
90.0482325181
 31
0.0
  0
SPLINE
  5
179
330
1F
100
AcDbEntity
  8
0
  6
HIDDEN
 62
     7
370
     0
100
AcDbSpline
210
0.0
220
0.0
230
1.0
 70
     8
 71
     3
 72
     8
 73
     4
 74
     0
 42
0.00000001
 43
0.00000001
 40
0.0
 40
0.0
 40
0.0
 40
0.0
 40
1.0
 40
1.0
 40
1.0
 40
1.0
 10
98.92983968898287
 20
90.09025829440178
 30
0.0
 10
98.85499745223241
 20
90.074724996985
 30
0.0
 10
98.80569905221286
 20
90.06005132015572
 30
0.0
 10
98.78934304975898
 20
90.04823266635164
 30
0.0
  0
LINE
  5
17A
330
1F
100
AcDbEntity
  8
0
  6
HIDDEN
 62
     7
370
     0
100
AcDbLine
 10
119.3820282144
 20
90.2706230357
 30
0.0
 11
119.3820282144
 21
90.0482325181
 31
0.0
  0
SPLINE
  5
17B
330
1F
100
AcDbEntity
  8
0
  6
HIDDEN
 62
     7
370
     0
100
AcDbSpline
210
0.0
220
0.0
230
1.0
 70
     8
 71
     3
 72
     8
 73
     4
 74
     0
 42
0.00000001
 43
0.00000001
 40
0.0
 40
0.0
 40
0.0
 40
0.0
 40
1.0
 40
1.0
 40
1.0
 40
1.0
 10
119.2415313906202
 20
90.09025829440178
 30
0.0
 10
119.3163736273707
 20
90.074724996985
 30
0.0
 10
119.3656720273902
 20
90.06005132015572
 30
0.0
 10
119.3820280298441
 20
90.04823266635164
 30
0.0
  0
LINE
  5
17C
330
1F
100
AcDbEntity
  8
0
  6
HIDDEN
 62
     7
370
     0
100
AcDbLine
 10
109.0856855528
 20
98.8381317095
 30
0.0
 11
116.3356851113
 21
98.8381317095
 31
0.0
  0
LINE
  5
17D
330
1F
100
AcDbEntity
  8
0
  6
HIDDEN
 62
     7
370
     0
100
AcDbLine
 10
101.8356855285
 20
98.8381317095
 30
0.0
 11
109.0856855528
 21
98.8381317095
 31
0.0
  0
SPLINE
  5
17E
330
1F
100
AcDbEntity
  8
0
  6
HIDDEN
 62
     7
370
     0
100
AcDbSpline
210
0.0
220
0.0
230
1.0
 70
     8
 71
     3
 72
     8
 73
     4
 74
     0
 42
0.00000001
 43
0.00000001
 40
0.0000002037173671
 40
0.0000002037173671
 40
0.0000002037173671
 40
0.0000002037173671
 40
0.000215219190103
 40
0.000215219190103
 40
0.000215219190103
 40
0.000215219190103
 10
101.0831277018786
 20
90.32079925651387
 30
0.0
 10
101.1534916559327
 20
90.3266351445769
 30
0.0
 10
101.2238610269351
 20
90.33240412924779
 30
0.0
 10
101.294235791121
 20
90.33810409134267
 30
0.0
  0
SPLINE
  5
17F
330
1F
100
AcDbEntity
  8
0
  6
HIDDEN
 62
     7
370
     0
100
AcDbSpline
210
0.0
220
0.0
230
1.0
 70
     8
 71
     3
 72
     8
 73
     4
 74
     0
 42
0.00000001
 43
0.00000001
 40
0.0000002037173671
 40
0.0000002037173671
 40
0.0000002037173671
 40
0.0000002037173671
 40
0.000215219190103
 40
0.000215219190103
 40
0.000215219190103
 40
0.000215219190103
 10
117.0882433777245
 20
90.32079925651387
 30
0.0
 10
117.0178794236704
 20
90.3266351445769
 30
0.0
 10
116.947510052668
 20
90.33240412924779
 30
0.0
 10
116.8771352884821
 20
90.33810409134267
 30
0.0
  0
LINE
  5
180
330
1F
100
AcDbEntity
  8
0
  6
HIDDEN
 62
     7
370
     0
100
AcDbLine
 10
101.0831275282
 20
90.8910412639
 30
0.0
 11
101.0831275282
 21
90.3207989707
 31
0.0
  0
SPLINE
  5
181
330
1F
100
AcDbEntity
  8
0
  6
HIDDEN
 62
     7
370
     0
100
AcDbSpline
210
0.0
220
0.0
230
1.0
 70
     8
 71
     3
 72
    10
 73
     6
 74
     0
 42
0.00000001
 43
0.00000001
 40
0.0
 40
0.0
 40
0.0
 40
0.0
 40
0.5
 40
0.5
 40
1.0
 40
1.0
 40
1.0
 40
1.0
 10
100.6768284762434
 20
90.32079925651387
 30
0.0
 10
100.6945298147894
 20
90.3124121805036
 30
0.0
 10
100.7432883098513
 20
90.30795339041913
 30
0.0
 10
100.8876429103339
 20
90.3079272092647
 30
0.0
 10
100.981998361778
 20
90.31241173030622
 30
0.0
 10
101.0831277018786
 20
90.32079925651387
 30
0.0
  0
LINE
  5
182
330
1F
100
AcDbEntity
  8
0
  6
HIDDEN
 62
     7
370
     0
100
AcDbLine
 10
117.0882431117
 20
90.8910412639
 30
0.0
 11
117.0882431117
 21
90.3207989707
 31
0.0
  0
SPLINE
  5
183
330
1F
100
AcDbEntity
  8
0
  6
HIDDEN
 62
     7
370
     0
100
AcDbSpline
210
0.0
220
0.0
230
1.0
 70
     8
 71
     3
 72
    10
 73
     6
 74
     0
 42
0.00000001
 43
0.00000001
 40
0.0
 40
0.0
 40
0.0
 40
0.0
 40
0.5
 40
0.5
 40
1.0
 40
1.0
 40
1.0
 40
1.0
 10
117.0882433777245
 20
90.32079925651387
 30
0.0
 10
117.1893672897452
 20
90.3124121805036
 30
0.0
 10
117.2829549734226
 20
90.30795339041913
 30
0.0
 10
117.427571943145
 20
90.3079272092647
 30
0.0
 10
117.4768403146499
 20
90.31241173030622
 30
0.0
 10
117.4945426033597
 20
90.32079925651387
 30
0.0
  0
LINE
  5
184
330
1F
100
AcDbEntity
  8
0
  6
HIDDEN
 62
     7
370
     0
100
AcDbLine
 10
98.9298398865
 20
90.3662819713
 30
0.0
 11
98.9298398865
 21
90.0902584493
 31
0.0
  0
LINE
  5
185
330
1F
100
AcDbEntity
  8
0
  6
HIDDEN
 62
     7
370
     0
100
AcDbLine
 10
98.9298398865
 20
90.0902584493
 30
0.0
 11
99.7938101438
 21
90.2694896161
 31
0.0
  0
LINE
  5
186
330
1F
100
AcDbEntity
  8
0
  6
HIDDEN
 62
     7
370
     0
100
AcDbLine
 10
119.2415316847
 20
90.3662819713
 30
0.0
 11
119.2415316847
 21
90.0902584493
 31
0.0
  0
LINE
  5
187
330
1F
100
AcDbEntity
  8
0
  6
HIDDEN
 62
     7
370
     0
100
AcDbLine
 10
119.2415316847
 20
90.0902584493
 30
0.0
 11
118.3775614274
 21
90.2694896161
 31
0.0
  0
LINE
  5
188
330
1F
100
AcDbEntity
  8
0
  6
HIDDEN
 62
     7
370
     0
100
AcDbLine
 10
100.6768282761
 20
90.8910412639
 30
0.0
 11
100.6768282761
 21
90.3207989707
 31
0.0
  0
SPLINE
  5
189
330
1F
100
AcDbEntity
  8
0
  6
HIDDEN
 62
     7
370
     0
100
AcDbSpline
210
0.0
220
0.0
230
1.0
 70
     8
 71
     3
 72
     8
 73
     4
 74
     0
 42
0.00000001
 43
0.00000001
 40
0.0000002037173671
 40
0.0000002037173671
 40
0.0000002037173671
 40
0.0000002037173671
 40
0.000215219190103
 40
0.000215219190103
 40
0.000215219190103
 40
0.000215219190103
 10
100.6768284762434
 20
90.32079925651387
 30
0.0
 10
100.664511545983
 20
90.3266351445769
 30
0.0
 10
100.6521936675074
 20
90.33240412924779
 30
0.0
 10
100.6398748449764
 20
90.33810409134267
 30
0.0
  0
LINE
  5
18A
330
1F
100
AcDbEntity
  8
0
  6
HIDDEN
 62
     7
370
     0
100
AcDbLine
 10
117.4945428294
 20
90.8910412639
 30
0.0
 11
117.4945428294
 21
90.3207989707
 31
0.0
  0
SPLINE
  5
18B
330
1F
100
AcDbEntity
  8
0
  6
HIDDEN
 62
     7
370
     0
100
AcDbSpline
210
0.0
220
0.0
230
1.0
 70
     8
 71
     3
 72
     8
 73
     4
 74
     0
 42
0.00000001
 43
0.00000001
 40
0.0000002037173671
 40
0.0000002037173671
 40
0.0000002037173671
 40
0.0000002037173671
 40
0.000215219190103
 40
0.000215219190103
 40
0.000215219190103
 40
0.000215219190103
 10
117.4945426033597
 20
90.32079925651387
 30
0.0
 10
117.5068595336201
 20
90.3266351445769
 30
0.0
 10
117.5191774120957
 20
90.33240412924779
 30
0.0
 10
117.5314962346267
 20
90.33810409134267
 30
0.0
  0
LINE
  5
18C
330
1F
100
AcDbEntity
  8
0
  6
HIDDEN
 62
     7
370
     0
100
AcDbLine
 10
100.6398747933
 20
90.9304306209
 30
0.0
 11
100.6398747933
 21
90.3381038755
 31
0.0
  0
LINE
  5
18D
330
1F
100
AcDbEntity
  8
0
  6
HIDDEN
 62
     7
370
     0
100
AcDbLine
 10
99.7938101438
 20
90.7742506191
 30
0.0
 11
99.7938101438
 21
90.2694896161
 31
0.0
  0
SPLINE
  5
18E
330
1F
100
AcDbEntity
  8
0
  6
HIDDEN
 62
     7
370
     0
100
AcDbSpline
210
0.0
220
0.0
230
1.0
 70
     8
 71
     3
 72
    14
 73
    10
 74
     0
 42
0.00000001
 43
0.00000001
 40
0.0
 40
0.0
 40
0.0
 40
0.0
 40
0.25
 40
0.25
 40
0.5
 40
0.5
 40
0.75
 40
0.75
 40
1.0
 40
1.0
 40
1.0
 40
1.0
 10
100.6398748449764
 20
90.33810409134267
 30
0.0
 10
100.6240296073113
 20
90.34543573800455
 30
0.0
 10
100.5831513181088
 20
90.34934964443556
 30
0.0
 10
100.4631074380966
 20
90.34940541793296
 30
0.0
 10
100.3830730444856
 20
90.34544521390164
 30
0.0
 10
100.2095884029685
 20
90.33102203202095
 30
0.0
 10
100.11601509457
 20
90.32062895499938
 30
0.0
 10
99.93939666965747
 20
90.296398588579
 30
0.0
 10
99.85829510581691
 20
90.28286073390231
 30
0.0
 10
99.79381007005439
 20
90.26949004712309
 30
0.0
  0
LINE
  5
18F
330
1F
100
AcDbEntity
  8
0
  6
HIDDEN
 62
     7
370
     0
100
AcDbLine
 10
117.5314958465
 20
90.9304306209
 30
0.0
 11
117.5314958465
 21
90.3381038755
 31
0.0
  0
LINE
  5
190
330
1F
100
AcDbEntity
  8
0
  6
HIDDEN
 62
     7
370
     0
100
AcDbLine
 10
118.3775614274
 20
90.7742506191
 30
0.0
 11
118.3775614274
 21
90.2694896161
 31
0.0
  0
SPLINE
  5
191
330
1F
100
AcDbEntity
  8
0
  6
HIDDEN
 62
     7
370
     0
100
AcDbSpline
210
0.0
220
0.0
230
1.0
 70
     8
 71
     3
 72
    14
 73
    10
 74
     0
 42
0.00000001
 43
0.00000001
 40
0.0
 40
0.0
 40
0.0
 40
0.0
 40
0.25
 40
0.25
 40
0.5
 40
0.5
 40
0.75
 40
0.75
 40
1.0
 40
1.0
 40
1.0
 40
1.0
 10
117.5314962346267
 20
90.33810409134267
 30
0.0
 10
117.5473414722918
 20
90.34543573800455
 30
0.0
 10
117.5882197614943
 20
90.34934964443556
 30
0.0
 10
117.7082636415065
 20
90.34940541793296
 30
0.0
 10
117.7882980351175
 20
90.34544521390164
 30
0.0
 10
117.9617826766346
 20
90.33102203202095
 30
0.0
 10
118.055355985033
 20
90.32062895499938
 30
0.0
 10
118.2319744099456
 20
90.296398588579
 30
0.0
 10
118.3130759737862
 20
90.28286073390231
 30
0.0
 10
118.3775610095487
 20
90.26949004712309
 30
0.0
  0
LINE
  5
192
330
1F
100
AcDbEntity
  8
0
  6
HIDDEN
 62
     7
370
     0
100
AcDbLine
 10
110.4938895234
 20
98.3381317004
 30
0.0
 11
110.4938895234
 21
98.8381317095
 31
0.0
  0
LINE
  5
193
330
1F
100
AcDbEntity
  8
0
  6
HIDDEN
 62
     7
370
     0
100
AcDbLine
 10
109.7297686876
 20
98.3381317004
 30
0.0
 11
109.7297686876
 21
98.8381317095
 31
0.0
  0
LINE
  5
194
330
1F
100
AcDbEntity
  8
0
  6
HIDDEN
 62
     7
370
     0
100
AcDbLine
 10
110.4938895234
 20
98.3381317004
 30
0.0
 11
109.4618291619
 21
98.3381317004
 31
0.0
  0
LINE
  5
195
330
1F
100
AcDbEntity
  8
0
  6
HIDDEN
 62
     7
370
     0
100
AcDbLine
 10
108.4416023597
 20
98.3381317004
 30
0.0
 11
108.4416023597
 21
98.8381317095
 31
0.0
  0
LINE
  5
196
330
1F
100
AcDbEntity
  8
0
  6
HIDDEN
 62
     7
370
     0
100
AcDbLine
 10
107.6774815057
 20
98.3381317004
 30
0.0
 11
107.6774815057
 21
98.8381317095
 31
0.0
  0
LINE
  5
197
330
1F
100
AcDbEntity
  8
0
  6
HIDDEN
 62
     7
370
     0
100
AcDbLine
 10
108.7095419436
 20
98.3381317004
 30
0.0
 11
107.6774815057
 21
98.3381317004
 31
0.0
  0
LINE
  5
198
330
1F
100
AcDbEntity
  8
0
  6
HIDDEN
 62
     7
370
     0
100
AcDbLine
 10
111.5456116178
 20
98.3381317004
 30
0.0
 11
111.5456116178
 21
98.8381317095
 31
0.0
  0
LINE
  5
199
330
1F
100
AcDbEntity
  8
0
  6
HIDDEN
 62
     7
370
     0
100
AcDbLine
 10
111.5456116178
 20
98.3381317004
 30
0.0
 11
110.4938895234
 21
98.3381317004
 31
0.0
  0
LINE
  5
19A
330
1F
100
AcDbEntity
  8
0
  6
HIDDEN
 62
     7
370
     0
100
AcDbLine
 10
106.6257593713
 20
98.3381317004
 30
0.0
 11
106.6257593713
 21
98.8381317095
 31
0.0
  0
LINE
  5
19B
330
1F
100
AcDbEntity
  8
0
  6
HIDDEN
 62
     7
370
     0
100
AcDbLine
 10
107.6774815057
 20
98.3381317004
 30
0.0
 11
106.6257593713
 21
98.3381317004
 31
0.0
  0
LINE
  5
19C
330
1F
100
AcDbEntity
  8
0
  6
HIDDEN
 62
     7
370
     0
100
AcDbLine
 10
97.1402830702
 20
90.2706230357
 30
0.0
 11
97.1402830702
 21
90.0482325181
 31
0.0
  0
LINE
  5
19D
330
1F
100
AcDbEntity
  8
0
  6
HIDDEN
 62
     7
370
     0
100
AcDbLine
 10
97.4496367646
 20
90.3662819713
 30
0.0
 11
97.4496367646
 21
90.0902584493
 31
0.0
  0
SPLINE
  5
19E
330
1F
100
AcDbEntity
  8
0
  6
HIDDEN
 62
     7
370
     0
100
AcDbSpline
210
0.0
220
0.0
230
1.0
 70
     8
 71
     3
 72
     8
 73
     4
 74
     0
 42
0.00000001
 43
0.00000001
 40
0.0
 40
0.0
 40
0.0
 40
0.0
 40
1.0
 40
1.0
 40
1.0
 40
1.0
 10
97.44963718022387
 20
90.09025829440178
 30
0.0
 10
97.35184932338615
 20
90.074724717078
 30
0.0
 10
97.24361520357554
 20
90.06005125861886
 30
0.0
 10
97.14028279363822
 20
90.04823266635164
 30
0.0
  0
LINE
  5
19F
330
1F
100
AcDbEntity
  8
0
  6
HIDDEN
 62
     7
370
     0
100
AcDbLine
 10
121.0310885009
 20
90.2706230357
 30
0.0
 11
121.0310885009
 21
90.0482325181
 31
0.0
  0
LINE
  5
1A0
330
1F
100
AcDbEntity
  8
0
  6
HIDDEN
 62
     7
370
     0
100
AcDbLine
 10
120.7217338753
 20
90.3662819713
 30
0.0
 11
120.7217338753
 21
90.0902584493
 31
0.0
  0
SPLINE
  5
1A1
330
1F
100
AcDbEntity
  8
0
  6
HIDDEN
 62
     7
370
     0
100
AcDbSpline
210
0.0
220
0.0
230
1.0
 70
     8
 71
     3
 72
     8
 73
     4
 74
     0
 42
0.00000001
 43
0.00000001
 40
0.0
 40
0.0
 40
0.0
 40
0.0
 40
1.0
 40
1.0
 40
1.0
 40
1.0
 10
120.7217338993792
 20
90.09025829440178
 30
0.0
 10
120.8195217562169
 20
90.074724717078
 30
0.0
 10
120.9277558760275
 20
90.06005125861886
 30
0.0
 10
121.0310882859648
 20
90.04823266635164
 30
0.0
  0
LINE
  5
1A2
330
1F
100
AcDbEntity
  8
0
  6
HIDDEN
 62
     7
370
     0
100
AcDbLine
 10
95.9048659799
 20
89.9408817589
 30
0.0
 11
95.9048659799
 21
89.9033680856
 31
0.0
  0
SPLINE
  5
1A3
330
1F
100
AcDbEntity
  8
0
  6
HIDDEN
 62
     7
370
     0
100
AcDbSpline
210
0.0
220
0.0
230
1.0
 70
     8
 71
     3
 72
     8
 73
     4
 74
     0
 42
0.00000001
 43
0.00000001
 40
0.0000002072076238
 40
0.0000002072076238
 40
0.0000002072076238
 40
0.0000002072076238
 40
0.0012797703727003
 40
0.0012797703727003
 40
0.0012797703727003
 40
0.0012797703727003
 10
95.904865616186
 20
89.90336815576059
 30
0.0
 10
96.31654897801967
 20
89.95274889474844
 30
0.0
 10
96.72834873683685
 20
90.00111791637777
 30
0.0
 10
97.14028279363822
 20
90.04823266635164
 30
0.0
  0
LINE
  5
1A4
330
1F
100
AcDbEntity
  8
0
  6
HIDDEN
 62
     7
370
     0
100
AcDbLine
 10
122.2665055913
 20
89.9408817589
 30
0.0
 11
122.2665055913
 21
89.9033680856
 31
0.0
  0
SPLINE
  5
1A5
330
1F
100
AcDbEntity
  8
0
  6
HIDDEN
 62
     7
370
     0
100
AcDbSpline
210
0.0
220
0.0
230
1.0
 70
     8
 71
     3
 72
     8
 73
     4
 74
     0
 42
0.00000001
 43
0.00000001
 40
0.0000002070813958
 40
0.0000002070813958
 40
0.0000002070813958
 40
0.0000002070813958
 40
0.0012797702464722
 40
0.0012797702464722
 40
0.0012797702464722
 40
0.0012797702464722
 10
121.0310882859648
 20
90.04823266635164
 30
0.0
 10
121.4430223427662
 20
90.00111791637777
 30
0.0
 10
121.8548221015834
 20
89.95274889474844
 30
0.0
 10
122.266505463417
 20
89.90336815576059
 30
0.0
  0
LINE
  5
1A6
330
1F
100
AcDbEntity
  8
0
  6
HIDDEN
 62
     7
370
     0
100
AcDbLine
 10
98.5784686429
 20
90.7742506191
 30
0.0
 11
98.5784686429
 21
90.2694896161
 31
0.0
  0
LINE
  5
1A7
330
1F
100
AcDbEntity
  8
0
  6
HIDDEN
 62
     7
370
     0
100
AcDbLine
 10
97.4496367646
 20
90.0902584493
 30
0.0
 11
98.5784686429
 21
90.2694896161
 31
0.0
  0
LINE
  5
1A8
330
1F
100
AcDbEntity
  8
0
  6
HIDDEN
 62
     7
370
     0
100
AcDbLine
 10
119.592901997
 20
90.7742506191
 30
0.0
 11
119.592901997
 21
90.2694896161
 31
0.0
  0
LINE
  5
1A9
330
1F
100
AcDbEntity
  8
0
  6
HIDDEN
 62
     7
370
     0
100
AcDbLine
 10
120.7217338753
 20
90.0902584493
 30
0.0
 11
119.592901997
 21
90.2694896161
 31
0.0
  0
SPLINE
  5
1AA
330
1F
100
AcDbEntity
  8
0
  6
HIDDEN
 62
     7
370
     0
100
AcDbSpline
210
0.0
220
0.0
230
1.0
 70
     8
 71
     3
 72
    10
 73
     6
 74
     0
 42
0.00000001
 43
0.00000001
 40
0.0
 40
0.0
 40
0.0
 40
0.0
 40
0.5
 40
0.5
 40
1.0
 40
1.0
 40
1.0
 40
1.0
 10
122.6104325592695
 20
89.87397345843215
 30
0.0
 10
122.5804326236242
 20
89.87397345843215
 30
0.0
 10
122.5329301853852
 20
89.87665610528772
 30
0.0
 10
122.4139824369636
 20
89.8867973345211
 30
0.0
 10
122.3428791231196
 20
89.89420726147895
 30
0.0
 10
122.266505463417
 20
89.90336815576059
 30
0.0
  0
SPLINE
  5
1AB
330
1F
100
AcDbEntity
  8
0
  6
HIDDEN
 62
     7
370
     0
100
AcDbSpline
210
0.0
220
0.0
230
1.0
 70
     8
 71
     3
 72
     8
 73
     4
 74
     0
 42
0.00000001
 43
0.00000001
 40
0.0
 40
0.0
 40
0.0
 40
0.0
 40
1.0
 40
1.0
 40
1.0
 40
1.0
 10
95.904865616186
 20
89.90336815576059
 30
0.0
 10
95.75180853456968
 20
89.88500921173194
 30
0.0
 10
95.62106383894402
 20
89.87397345843215
 30
0.0
 10
95.56093852033351
 20
89.87397345843215
 30
0.0
  0
LINE
  5
1AC
330
1F
100
AcDbEntity
  8
0
  6
HIDDEN
 62
     7
370
     0
100
AcDbLine
 10
98.6552524638
 20
90.9304306209
 30
0.0
 11
98.6552524638
 21
90.3381038755
 31
0.0
  0
SPLINE
  5
1AD
330
1F
100
AcDbEntity
  8
0
  6
HIDDEN
 62
     7
370
     0
100
AcDbSpline
210
0.0
220
0.0
230
1.0
 70
     8
 71
     3
 72
    14
 73
    10
 74
     0
 42
0.00000001
 43
0.00000001
 40
0.0
 40
0.0
 40
0.0
 40
0.0
 40
0.25
 40
0.25
 40
0.5
 40
0.5
 40
0.75
 40
0.75
 40
1.0
 40
1.0
 40
1.0
 40
1.0
 10
98.65525276260387
 20
90.33810409134267
 30
0.0
 10
98.73281456764936
 20
90.34543531843052
 30
0.0
 10
98.79546172048418
 20
90.34934958621373
 30
0.0
 10
98.87586998613412
 20
90.34940547490264
 30
0.0
 10
98.8932781523325
 20
90.34544512864001
 30
0.0
 10
98.8769138178793
 20
90.33102236262488
 30
0.0
 10
98.8437593498493
 20
90.32062954993887
 30
0.0
 10
98.73594667588549
 20
90.29639804986846
 30
0.0
 10
98.66272366340519
 20
90.28286089593084
 30
0.0
 10
98.57846888288206
 20
90.26949004712309
 30
0.0
  0
LINE
  5
1AE
330
1F
100
AcDbEntity
  8
0
  6
HIDDEN
 62
     7
370
     0
100
AcDbLine
 10
119.516118176
 20
90.9304306209
 30
0.0
 11
119.516118176
 21
90.3381038755
 31
0.0
  0
SPLINE
  5
1AF
330
1F
100
AcDbEntity
  8
0
  6
HIDDEN
 62
     7
370
     0
100
AcDbSpline
210
0.0
220
0.0
230
1.0
 70
     8
 71
     3
 72
    14
 73
    10
 74
     0
 42
0.00000001
 43
0.00000001
 40
0.0
 40
0.0
 40
0.0
 40
0.0
 40
0.25
 40
0.25
 40
0.5
 40
0.5
 40
0.75
 40
0.75
 40
1.0
 40
1.0
 40
1.0
 40
1.0
 10
119.5161183169992
 20
90.33810409134267
 30
0.0
 10
119.4385565119537
 20
90.34543531843052
 30
0.0
 10
119.3759093591189
 20
90.34934958621373
 30
0.0
 10
119.2955010934689
 20
90.34940547490264
 30
0.0
 10
119.2780929272705
 20
90.34544512864001
 30
0.0
 10
119.2944572617237
 20
90.33102236262488
 30
0.0
 10
119.3276117297538
 20
90.32062954993887
 30
0.0
 10
119.4354244037175
 20
90.29639804986846
 30
0.0
 10
119.5086474161978
 20
90.28286089593084
 30
0.0
 10
119.592902196721
 20
90.26949004712309
 30
0.0
  0
SPLINE
  5
1B0
330
1F
100
AcDbEntity
  8
0
  6
HIDDEN
 62
     7
370
     0
100
AcDbSpline
210
0.0
220
0.0
230
1.0
 70
     8
 71
     3
 72
    10
 73
     6
 74
     0
 42
0.00000001
 43
0.00000001
 40
0.0
 40
0.0
 40
0.0
 40
0.0
 40
0.5
 40
0.5
 40
1.0
 40
1.0
 40
1.0
 40
1.0
 10
95.56093852033351
 20
89.87397345843215
 30
0.0
 10
95.53093873590441
 20
89.87397345843215
 30
0.0
 10
95.51830425863247
 20
89.87665607973052
 30
0.0
 10
95.53048576254984
 20
89.88679737621915
 30
0.0
 10
95.55497918217547
 20
89.8942073091271
 30
0.0
 10
95.59586631563525
 20
89.90336815576059
 30
0.0
  0
SPLINE
  5
1B1
330
1F
100
AcDbEntity
  8
0
  6
HIDDEN
 62
     7
370
     0
100
AcDbSpline
210
0.0
220
0.0
230
1.0
 70
     8
 71
     3
 72
     8
 73
     4
 74
     0
 42
0.00000001
 43
0.00000001
 40
0.0
 40
0.0
 40
0.0
 40
0.0
 40
1.0
 40
1.0
 40
1.0
 40
1.0
 10
122.5755047639678
 20
89.90336815576059
 30
0.0
 10
122.6574445511213
 20
89.88500937734362
 30
0.0
 10
122.6705582493355
 20
89.87397345843215
 30
0.0
 10
122.6104325592695
 20
89.87397345843215
 30
0.0
  0
LINE
  5
1B2
330
1F
100
AcDbEntity
  8
0
  6
HIDDEN
 62
     7
370
     0
100
AcDbLine
 10
110.781490782
 20
98.3381317004
 30
0.0
 11
110.781490782
 21
98.8381317095
 31
0.0
  0
LINE
  5
1B3
330
1F
100
AcDbEntity
  8
0
  6
HIDDEN
 62
     7
370
     0
100
AcDbLine
 10
111.8135510271
 20
98.3381317004
 30
0.0
 11
111.5456116178
 21
98.3381317004
 31
0.0
  0
LINE
  5
1B4
330
1F
100
AcDbEntity
  8
0
  6
HIDDEN
 62
     7
370
     0
100
AcDbLine
 10
107.3898802362
 20
98.3381317004
 30
0.0
 11
107.3898802362
 21
98.8381317095
 31
0.0
  0
LINE
  5
1B5
330
1F
100
AcDbEntity
  8
0
  6
HIDDEN
 62
     7
370
     0
100
AcDbLine
 10
106.6257593713
 20
98.3381317004
 30
0.0
 11
106.3578198456
 21
98.3381317004
 31
0.0
  0
LINE
  5
1B6
330
1F
100
AcDbEntity
  8
0
  6
HIDDEN
 62
     7
370
     0
100
AcDbLine
 10
95.5958661881
 20
89.9408817589
 30
0.0
 11
95.5958661881
 21
89.9033680856
 31
0.0
  0
SPLINE
  5
1B7
330
1F
100
AcDbEntity
  8
0
  6
HIDDEN
 62
     7
370
     0
100
AcDbSpline
210
0.0
220
0.0
230
1.0
 70
     8
 71
     3
 72
     8
 73
     4
 74
     0
 42
0.00000001
 43
0.00000001
 40
0.0000002356265358
 40
0.0000002356265358
 40
0.0000002356265358
 40
0.0000002356265358
 40
0.0012797987916123
 40
0.0012797987916123
 40
0.0012797987916123
 40
0.0012797987916123
 10
96.25725834453982
 20
90.04823266635164
 30
0.0
 10
96.03672563172405
 20
90.00111791637777
 30
0.0
 10
95.81626481657803
 20
89.95274889474844
 30
0.0
 10
95.59586631563525
 20
89.90336815576059
 30
0.0
  0
LINE
  5
1B8
330
1F
100
AcDbEntity
  8
0
  6
HIDDEN
 62
     7
370
     0
100
AcDbLine
 10
122.5755044517
 20
89.9408817589
 30
0.0
 11
122.5755044517
 21
89.9033680856
 31
0.0
  0
SPLINE
  5
1B9
330
1F
100
AcDbEntity
  8
0
  6
HIDDEN
 62
     7
370
     0
100
AcDbSpline
210
0.0
220
0.0
230
1.0
 70
     8
 71
     3
 72
     8
 73
     4
 74
     0
 42
0.00000001
 43
0.00000001
 40
0.000000235770167
 40
0.000000235770167
 40
0.000000235770167
 40
0.000000235770167
 40
0.0012797989352435
 40
0.0012797989352435
 40
0.0012797989352435
 40
0.0012797989352435
 10
122.5755047639678
 20
89.90336815576059
 30
0.0
 10
122.355106263025
 20
89.95274889474844
 30
0.0
 10
122.134645447879
 20
90.00111791637777
 30
0.0
 10
121.9141127350632
 20
90.04823266635164
 30
0.0
  0
SPLINE
  5
1BA
330
1F
100
AcDbEntity
  8
0
  6
HIDDEN
 62
     7
370
     0
100
AcDbSpline
210
0.0
220
0.0
230
1.0
 70
     8
 71
     3
 72
     8
 73
     4
 74
     0
 42
0.00000001
 43
0.00000001
 40
0.0000002377397542
 40
0.0000002377397542
 40
0.0000002377397542
 40
0.0000002377397542
 40
0.0002152532124901
 40
0.0002152532124901
 40
0.0002152532124901
 40
0.0002152532124901
 10
98.4743558622568
 20
90.32079925651387
 30
0.0
 10
98.53465019408573
 20
90.3266351445769
 30
0.0
 10
98.59494916765605
 20
90.33240412924779
 30
0.0
 10
98.65525276260388
 20
90.33810409134267
 30
0.0
  0
SPLINE
  5
1BB
330
1F
100
AcDbEntity
  8
0
  6
HIDDEN
 62
     7
370
     0
100
AcDbSpline
210
0.0
220
0.0
230
1.0
 70
     8
 71
     3
 72
     8
 73
     4
 74
     0
 42
0.00000001
 43
0.00000001
 40
0.0000002377397542
 40
0.0000002377397542
 40
0.0000002377397542
 40
0.0000002377397542
 40
0.0002152532124901
 40
0.0002152532124901
 40
0.0002152532124901
 40
0.0002152532124901
 10
119.6970152173462
 20
90.32079925651387
 30
0.0
 10
119.6367208855173
 20
90.3266351445769
 30
0.0
 10
119.576421911947
 20
90.33240412924779
 30
0.0
 10
119.5161183169992
 20
90.33810409134267
 30
0.0
  0
LINE
  5
1BC
330
1F
100
AcDbEntity
  8
0
  6
HIDDEN
 62
     7
370
     0
100
AcDbLine
 10
98.2544680384
 20
90.8910412639
 30
0.0
 11
98.2544680384
 21
90.3207989707
 31
0.0
  0
LINE
  5
1BD
330
1F
100
AcDbEntity
  8
0
  6
HIDDEN
 62
     7
370
     0
100
AcDbLine
 10
98.4743560922
 20
90.8910412639
 30
0.0
 11
98.4743560922
 21
90.3207989707
 31
0.0
  0
SPLINE
  5
1BE
330
1F
100
AcDbEntity
  8
0
  6
HIDDEN
 62
     7
370
     0
100
AcDbSpline
210
0.0
220
0.0
230
1.0
 70
     8
 71
     3
 72
    10
 73
     6
 74
     0
 42
0.00000001
 43
0.00000001
 40
0.0
 40
0.0
 40
0.0
 40
0.0
 40
0.5
 40
0.5
 40
1.0
 40
1.0
 40
1.0
 40
1.0
 10
98.2544683058506
 20
90.32079925651387
 30
0.0
 10
98.23212376277444
 20
90.3124121798615
 30
0.0
 10
98.24135627746611
 20
90.30795338450153
 30
0.0
 10
98.31938018961343
 20
90.3079272151298
 30
0.0
 10
98.38769950222294
 20
90.31241178787857
 30
0.0
 10
98.4743558622568
 20
90.32079925651387
 30
0.0
  0
LINE
  5
1BF
330
1F
100
AcDbEntity
  8
0
  6
HIDDEN
 62
     7
370
     0
100
AcDbLine
 10
119.9169026015
 20
90.8910412639
 30
0.0
 11
119.9169026015
 21
90.3207989707
 31
0.0
  0
LINE
  5
1C0
330
1F
100
AcDbEntity
  8
0
  6
HIDDEN
 62
     7
370
     0
100
AcDbLine
 10
119.6970154789
 20
90.8910412639
 30
0.0
 11
119.6970154789
 21
90.3207989707
 31
0.0
  0
SPLINE
  5
1C1
330
1F
100
AcDbEntity
  8
0
  6
HIDDEN
 62
     7
370
     0
100
AcDbSpline
210
0.0
220
0.0
230
1.0
 70
     8
 71
     3
 72
    10
 73
     6
 74
     0
 42
0.00000001
 43
0.00000001
 40
0.0
 40
0.0
 40
0.0
 40
0.0
 40
0.5
 40
0.5
 40
1.0
 40
1.0
 40
1.0
 40
1.0
 10
119.6970152173462
 20
90.32079925651387
 30
0.0
 10
119.7836665843276
 20
90.3124122711561
 30
0.0
 10
119.8514718427681
 20
90.30795339222091
 30
0.0
 10
119.9298390529833
 20
90.30792720747789
 30
0.0
 10
119.9392485208512
 20
90.31241172792876
 30
0.0
 10
119.9169027737524
 20
90.32079925651387
 30
0.0
  0
LINE
  5
1C2
330
1F
100
AcDbEntity
  8
0
  6
HIDDEN
 62
     7
370
     0
100
AcDbLine
 10
113.4281821807
 20
112.7528608143
 30
0.0
 11
104.743188692
 21
112.7528608143
 31
0.0
  0
LINE
  5
1C3
330
1F
100
AcDbEntity
  8
0
  6
HIDDEN
 62
     7
370
     0
100
AcDbLine
 10
113.6490560395
 20
98.3381317004
 30
0.0
 11
113.6490560395
 21
98.8381317095
 31
0.0
  0
LINE
  5
1C4
330
1F
100
AcDbEntity
  8
0
  6
HIDDEN
 62
     7
370
     0
100
AcDbLine
 10
113.6490560395
 20
98.3381317004
 30
0.0
 11
112.6169955616
 21
98.3381317004
 31
0.0
  0
LINE
  5
1C5
330
1F
100
AcDbEntity
  8
0
  6
HIDDEN
 62
     7
370
     0
100
AcDbLine
 10
112.8849352037
 20
98.3381317004
 30
0.0
 11
112.8849352037
 21
98.8381317095
 31
0.0
  0
LINE
  5
1C6
330
1F
100
AcDbEntity
  8
0
  6
HIDDEN
 62
     7
370
     0
100
AcDbLine
 10
105.2864361347
 20
98.3381317004
 30
0.0
 11
105.2864361347
 21
98.8381317095
 31
0.0
  0
LINE
  5
1C7
330
1F
100
AcDbEntity
  8
0
  6
HIDDEN
 62
     7
370
     0
100
AcDbLine
 10
105.5543755439
 20
98.3381317004
 30
0.0
 11
104.5223152989
 21
98.3381317004
 31
0.0
  0
LINE
  5
1C8
330
1F
100
AcDbEntity
  8
0
  6
HIDDEN
 62
     7
370
     0
100
AcDbLine
 10
104.5223152989
 20
98.3381317004
 30
0.0
 11
104.5223152989
 21
98.8381317095
 31
0.0
  0
LINE
  5
1C9
330
1F
100
AcDbEntity
  8
0
  6
HIDDEN
 62
     7
370
     0
100
AcDbLine
 10
98.3011151922
 20
90.9304306209
 30
0.0
 11
98.3011151922
 21
90.3381038755
 31
0.0
  0
SPLINE
  5
1CA
330
1F
100
AcDbEntity
  8
0
  6
HIDDEN
 62
     7
370
     0
100
AcDbSpline
210
0.0
220
0.0
230
1.0
 70
     8
 71
     3
 72
     8
 73
     4
 74
     0
 42
0.00000001
 43
0.00000001
 40
0.0000002055951198
 40
0.0000002055951198
 40
0.0000002055951198
 40
0.0000002055951198
 40
0.0002152210678558
 40
0.0002152210678558
 40
0.0002152210678558
 40
0.0002152210678558
 10
98.2544683058506
 20
90.32079925651387
 30
0.0
 10
98.27001606553188
 20
90.3266351445769
 30
0.0
 10
98.28556502215287
 20
90.33240412924779
 30
0.0
 10
98.30111517046242
 20
90.33810409134267
 30
0.0
  0
LINE
  5
1CB
330
1F
100
AcDbEntity
  8
0
  6
HIDDEN
 62
     7
370
     0
100
AcDbLine
 10
119.8702554477
 20
90.9304306209
 30
0.0
 11
119.8702554477
 21
90.3381038755
 31
0.0
  0
SPLINE
  5
1CC
330
1F
100
AcDbEntity
  8
0
  6
HIDDEN
 62
     7
370
     0
100
AcDbSpline
210
0.0
220
0.0
230
1.0
 70
     8
 71
     3
 72
     8
 73
     4
 74
     0
 42
0.00000001
 43
0.00000001
 40
0.0000002055951198
 40
0.0000002055951198
 40
0.0000002055951198
 40
0.0000002055951198
 40
0.0002152210678558
 40
0.0002152210678558
 40
0.0002152210678558
 40
0.0002152210678558
 10
119.9169027737524
 20
90.32079925651387
 30
0.0
 10
119.9013550140711
 20
90.3266351445769
 30
0.0
 10
119.8858060574502
 20
90.33240412924779
 30
0.0
 10
119.8702559091406
 20
90.33810409134267
 30
0.0
  0
LINE
  5
1CD
330
1F
100
AcDbEntity
  8
0
  6
HIDDEN
 62
     7
370
     0
100
AcDbLine
 10
114.7007781339
 20
98.3381317004
 30
0.0
 11
114.7007781339
 21
98.8381317095
 31
0.0
  0
LINE
  5
1CE
330
1F
100
AcDbEntity
  8
0
  6
HIDDEN
 62
     7
370
     0
100
AcDbLine
 10
114.7007781339
 20
98.3381317004
 30
0.0
 11
113.6490560395
 21
98.3381317004
 31
0.0
  0
LINE
  5
1CF
330
1F
100
AcDbEntity
  8
0
  6
HIDDEN
 62
     7
370
     0
100
AcDbLine
 10
103.4705929716
 20
98.3381317004
 30
0.0
 11
103.4705929716
 21
98.8381317095
 31
0.0
  0
LINE
  5
1D0
330
1F
100
AcDbEntity
  8
0
  6
HIDDEN
 62
     7
370
     0
100
AcDbLine
 10
104.5223152989
 20
98.3381317004
 30
0.0
 11
103.4705929716
 21
98.3381317004
 31
0.0
  0
LINE
  5
1D1
330
1F
100
AcDbEntity
  8
0
  6
HIDDEN
 62
     7
370
     0
100
AcDbLine
 10
96.257257953
 20
90.2706230357
 30
0.0
 11
96.257257953
 21
90.0482325181
 31
0.0
  0
LINE
  5
1D2
330
1F
100
AcDbEntity
  8
0
  6
HIDDEN
 62
     7
370
     0
100
AcDbLine
 10
121.9141126868
 20
90.2706230357
 30
0.0
 11
121.9141126868
 21
90.0482325181
 31
0.0
  0
LINE
  5
1D3
330
1F
100
AcDbEntity
  8
0
  6
HIDDEN
 62
     7
370
     0
100
AcDbLine
 10
97.6217600775
 20
90.7742506191
 30
0.0
 11
97.6217600775
 21
90.2694896161
 31
0.0
  0
LINE
  5
1D4
330
1F
100
AcDbEntity
  8
0
  6
HIDDEN
 62
     7
370
     0
100
AcDbLine
 10
98.3011151922
 20
90.3381038755
 30
0.0
 11
98.3068586585
 21
90.3443539813
 31
0.0
  0
SPLINE
  5
1D5
330
1F
100
AcDbEntity
  8
0
  6
HIDDEN
 62
     7
370
     0
100
AcDbSpline
210
0.0
220
0.0
230
1.0
 70
     8
 71
     3
 72
    10
 73
     6
 74
     0
 42
0.00000001
 43
0.00000001
 40
0.0
 40
0.0
 40
0.0
 40
0.0
 40
0.5
 40
0.5
 40
1.0
 40
1.0
 40
1.0
 40
1.0
 10
98.30984085337035
 20
90.34760006433623
 30
0.0
 10
98.29203006337909
 20
90.35273281311028
 30
0.0
 10
98.19850248765377
 20
90.34610953178377
 30
0.0
 10
97.9326557166358
 20
90.3154907090942
 30
0.0
 10
97.7645714753794
 20
90.29215352800713
 30
0.0
 10
97.62176030196932
 20
90.26949004712309
 30
0.0
  0
LINE
  5
1D6
330
1F
100
AcDbEntity
  8
0
  6
HIDDEN
 62
     7
370
     0
100
AcDbLine
 10
120.5496105624
 20
90.7742506191
 30
0.0
 11
120.5496105624
 21
90.2694896161
 31
0.0
  0
SPLINE
  5
1D7
330
1F
100
AcDbEntity
  8
0
  6
HIDDEN
 62
     7
370
     0
100
AcDbSpline
210
0.0
220
0.0
230
1.0
 70
     8
 71
     3
 72
    14
 73
    10
 74
     0
 42
0.00000001
 43
0.00000001
 40
0.0
 40
0.0
 40
0.0
 40
0.0
 40
0.25
 40
0.25
 40
0.5
 40
0.5
 40
0.75
 40
0.75
 40
1.0
 40
1.0
 40
1.0
 40
1.0
 10
119.8702559091406
 20
90.33810409134267
 30
0.0
 10
119.8502543605858
 20
90.3454357300078
 30
0.0
 10
119.8555929673714
 20
90.3493496402851
 30
0.0
 10
119.9141651352884
 20
90.34940542199337
 30
0.0
 10
119.9682098889869
 20
90.34544522385312
 30
0.0
 10
120.1077678512269
 20
90.33102206417054
 30
0.0
 10
120.1931195493187
 20
90.32062900019136
 30
0.0
 10
120.3729528126494
 20
90.2963986432557
 30
0.0
 10
120.4653560917034
 20
90.28286088091976
 30
0.0
 10
120.5496107776337
 20
90.26949004712309
 30
0.0
  0
LINE
  5
1D8
330
1F
100
AcDbEntity
  8
0
  6
HIDDEN
 62
     7
370
     0
100
AcDbLine
 10
113.0356855949
 20
111.2528614997
 30
0.0
 11
105.1356855107
 21
111.2528614997
 31
0.0
  0
LINE
  5
1D9
330
1F
100
AcDbEntity
  8
0
  6
HIDDEN
 62
     7
370
     0
100
AcDbLine
 10
111.0856856478
 20
110.0811831951
 30
0.0
 11
107.085685516
 21
110.0811831951
 31
0.0
  0
LINE
  5
1DA
330
1F
100
AcDbEntity
  8
0
  6
HIDDEN
 62
     7
370
     0
100
AcDbLine
 10
96.4929281992
 20
90.3662819713
 30
0.0
 11
96.4929281992
 21
90.0902584493
 31
0.0
  0
LINE
  5
1DB
330
1F
100
AcDbEntity
  8
0
  6
HIDDEN
 62
     7
370
     0
100
AcDbLine
 10
96.4929281992
 20
90.0902584493
 30
0.0
 11
97.6217600775
 21
90.2694896161
 31
0.0
  0
LINE
  5
1DC
330
1F
100
AcDbEntity
  8
0
  6
HIDDEN
 62
     7
370
     0
100
AcDbLine
 10
121.6784424407
 20
90.3662819713
 30
0.0
 11
121.6784424407
 21
90.0902584493
 31
0.0
  0
LINE
  5
1DD
330
1F
100
AcDbEntity
  8
0
  6
HIDDEN
 62
     7
370
     0
100
AcDbLine
 10
121.6784424407
 20
90.0902584493
 30
0.0
 11
120.5496105624
 21
90.2694896161
 31
0.0
  0
LINE
  5
1DE
330
1F
100
AcDbEntity
  8
0
  6
HIDDEN
 62
     7
370
     0
100
AcDbLine
 10
110.8371235688
 20
98.3381317004
 30
0.0
 11
110.8371235688
 21
98.8381317095
 31
0.0
  0
LINE
  5
1DF
330
1F
100
AcDbEntity
  8
0
  6
HIDDEN
 62
     7
370
     0
100
AcDbLine
 10
110.0730029659
 20
98.3381317004
 30
0.0
 11
110.0730029659
 21
98.8381317095
 31
0.0
  0
LINE
  5
1E0
330
1F
100
AcDbEntity
  8
0
  6
HIDDEN
 62
     7
370
     0
100
AcDbLine
 10
108.098368227
 20
98.3381317004
 30
0.0
 11
108.098368227
 21
98.8381317095
 31
0.0
  0
LINE
  5
1E1
330
1F
100
AcDbEntity
  8
0
  6
HIDDEN
 62
     7
370
     0
100
AcDbLine
 10
107.3342473912
 20
98.3381317004
 30
0.0
 11
107.3342473912
 21
98.8381317095
 31
0.0
  0
LINE
  5
1E2
330
1F
100
AcDbEntity
  8
0
  6
HIDDEN
 62
     7
370
     0
100
AcDbLine
 10
111.8888456632
 20
98.3381317004
 30
0.0
 11
111.8888456632
 21
98.8381317095
 31
0.0
  0
LINE
  5
1E3
330
1F
100
AcDbEntity
  8
0
  6
HIDDEN
 62
     7
370
     0
100
AcDbLine
 10
111.8888456632
 20
98.3381317004
 30
0.0
 11
111.8135510271
 21
98.3381317004
 31
0.0
  0
LINE
  5
1E4
330
1F
100
AcDbEntity
  8
0
  6
HIDDEN
 62
     7
370
     0
100
AcDbLine
 10
106.2825253259
 20
98.3381317004
 30
0.0
 11
106.2825253259
 21
98.8381317095
 31
0.0
  0
LINE
  5
1E5
330
1F
100
AcDbEntity
  8
0
  6
HIDDEN
 62
     7
370
     0
100
AcDbLine
 10
106.3578198456
 20
98.3381317004
 30
0.0
 11
106.2825253259
 21
98.3381317004
 31
0.0
  0
LINE
  5
1E6
330
1F
100
AcDbEntity
  8
0
  6
HIDDEN
 62
     7
370
     0
100
AcDbLine
 10
113.9366572981
 20
98.3381317004
 30
0.0
 11
113.9366572981
 21
98.8381317095
 31
0.0
  0
LINE
  5
1E7
330
1F
100
AcDbEntity
  8
0
  6
HIDDEN
 62
     7
370
     0
100
AcDbLine
 10
114.9687173103
 20
98.3381317004
 30
0.0
 11
114.7007781339
 21
98.3381317004
 31
0.0
  0
LINE
  5
1E8
330
1F
100
AcDbEntity
  8
0
  6
HIDDEN
 62
     7
370
     0
100
AcDbLine
 10
104.2347140403
 20
98.3381317004
 30
0.0
 11
104.2347140403
 21
98.8381317095
 31
0.0
  0
LINE
  5
1E9
330
1F
100
AcDbEntity
  8
0
  6
HIDDEN
 62
     7
370
     0
100
AcDbLine
 10
103.4705929716
 20
98.3381317004
 30
0.0
 11
103.2026533296
 21
98.3381317004
 31
0.0
  0
LINE
  5
1EA
330
1F
100
AcDbEntity
  8
0
  6
HIDDEN
 62
     7
370
     0
100
AcDbLine
 10
111.1247250603
 20
98.3381317004
 30
0.0
 11
111.1247250603
 21
98.8381317095
 31
0.0
  0
LINE
  5
1EB
330
1F
100
AcDbEntity
  8
0
  6
HIDDEN
 62
     7
370
     0
100
AcDbLine
 10
112.1567853053
 20
98.3381317004
 30
0.0
 11
111.8888456632
 21
98.3381317004
 31
0.0
  0
LINE
  5
1EC
330
1F
100
AcDbEntity
  8
0
  6
HIDDEN
 62
     7
370
     0
100
AcDbLine
 10
107.0466461617
 20
98.3381317004
 30
0.0
 11
107.0466461617
 21
98.8381317095
 31
0.0
  0
LINE
  5
1ED
330
1F
100
AcDbEntity
  8
0
  6
HIDDEN
 62
     7
370
     0
100
AcDbLine
 10
106.2825253259
 20
98.3381317004
 30
0.0
 11
106.0145856838
 21
98.3381317004
 31
0.0
  0
LINE
  5
1EE
330
1F
100
AcDbEntity
  8
0
  6
HIDDEN
 62
     7
370
     0
100
AcDbLine
 10
115.5710962859
 20
98.3381317004
 30
0.0
 11
115.5710962859
 21
98.8381317095
 31
0.0
  0
LINE
  5
1EF
330
1F
100
AcDbEntity
  8
0
  6
HIDDEN
 62
     7
370
     0
100
AcDbLine
 10
114.3347222616
 20
98.3381317004
 30
0.0
 11
114.3347222616
 21
98.8381317095
 31
0.0
  0
LINE
  5
1F0
330
1F
100
AcDbEntity
  8
0
  6
HIDDEN
 62
     7
370
     0
100
AcDbLine
 10
115.6029093337
 20
98.3381317004
 30
0.0
 11
114.9687173103
 21
98.3381317004
 31
0.0
  0
LINE
  5
1F1
330
1F
100
AcDbEntity
  8
0
  6
HIDDEN
 62
     7
370
     0
100
AcDbLine
 10
103.8366486111
 20
98.3381317004
 30
0.0
 11
103.8366486111
 21
98.8381317095
 31
0.0
  0
LINE
  5
1F2
330
1F
100
AcDbEntity
  8
0
  6
HIDDEN
 62
     7
370
     0
100
AcDbLine
 10
103.2026533296
 20
98.3381317004
 30
0.0
 11
102.5684617718
 21
98.3381317004
 31
0.0
  0
LINE
  5
1F3
330
1F
100
AcDbEntity
  8
0
  6
HIDDEN
 62
     7
370
     0
100
AcDbLine
 10
102.6002752853
 20
98.3381317004
 30
0.0
 11
102.6002752853
 21
98.8381317095
 31
0.0
  0
LINE
  5
1F4
330
1F
100
AcDbEntity
  8
0
  6
HIDDEN
 62
     7
370
     0
100
AcDbLine
 10
95.6781857905
 20
90.2706230357
 30
0.0
 11
95.6781857905
 21
90.0482325181
 31
0.0
  0
LINE
  5
1F5
330
1F
100
AcDbEntity
  8
0
  6
HIDDEN
 62
     7
370
     0
100
AcDbLine
 10
95.9731505511
 20
90.3662819713
 30
0.0
 11
95.9731505511
 21
90.0902584493
 31
0.0
  0
SPLINE
  5
1F6
330
1F
100
AcDbEntity
  8
0
  6
HIDDEN
 62
     7
370
     0
100
AcDbSpline
210
0.0
220
0.0
230
1.0
 70
     8
 71
     3
 72
     8
 73
     4
 74
     0
 42
0.00000001
 43
0.00000001
 40
0.0
 40
0.0
 40
0.0
 40
0.0
 40
1.0
 40
1.0
 40
1.0
 40
1.0
 10
95.97315060020313
 20
90.09025829440178
 30
0.0
 10
95.86730502063212
 20
90.07472460465429
 30
0.0
 10
95.76404653427193
 20
90.06005113460897
 30
0.0
 10
95.67818538981717
 20
90.04823266635164
 30
0.0
  0
LINE
  5
1F7
330
1F
100
AcDbEntity
  8
0
  6
HIDDEN
 62
     7
370
     0
100
AcDbLine
 10
97.1949889583
 20
90.7742506191
 30
0.0
 11
97.1949889583
 21
90.2694896161
 31
0.0
  0
LWPOLYLINE
  5
1F8
330
1F
100
AcDbEntity
  8
0
  6
HIDDEN
 62
     7
370
     0
100
AcDbPolyline
 90
        3
 70
   128
 43
0.0
 10
95.9731505511
 20
90.0902584493
 10
96.1259880361
 20
90.1126874908
 10
97.1949889583
 20
90.2694896161
  0
SPLINE
  5
1F9
330
1F
100
AcDbEntity
  8
0
  6
HIDDEN
 62
     7
370
     0
100
AcDbSpline
210
0.0
220
0.0
230
1.0
 70
     8
 71
     3
 72
     8
 73
     4
 74
     0
 42
0.00000001
 43
0.00000001
 40
0.0
 40
0.0
 40
0.0
 40
0.0
 40
1.0
 40
1.0
 40
1.0
 40
1.0
 10
94.65163964461547
 20
89.90336815576059
 30
0.0
 10
94.5244615449927
 20
89.88500945559475
 30
0.0
 10
94.4466048550015
 20
89.87397345843215
 30
0.0
 10
94.4466048550015
 20
89.87397345843215
 30
0.0
  0
SPLINE
  5
1FA
330
1F
100
AcDbEntity
  8
0
  6
HIDDEN
 62
     7
370
     0
100
AcDbSpline
210
0.0
220
0.0
230
1.0
 70
     8
 71
     3
 72
     8
 73
     4
 74
     0
 42
0.00000001
 43
0.00000001
 40
0.0000002493681955
 40
0.0000002493681955
 40
0.0000002493681955
 40
0.0000002493681955
 40
0.0012798125332719
 40
0.0012798125332719
 40
0.0012798125332719
 40
0.0012798125332719
 10
94.65163964461547
 20
89.90336815576059
 30
0.0
 10
94.99371988372323
 20
89.95274889474844
 30
0.0
 10
95.33589684062831
 20
90.00111791637777
 30
0.0
 10
95.67818538981717
 20
90.04823266635164
 30
0.0
  0
SPLINE
  5
1FB
330
1F
100
AcDbEntity
  8
0
  6
HIDDEN
 62
     7
370
     0
100
AcDbSpline
210
0.0
220
0.0
230
1.0
 70
     8
 71
     3
 72
    14
 73
    10
 74
     0
 42
0.00000001
 43
0.00000001
 40
0.0
 40
0.0
 40
0.0
 40
0.0
 40
0.25
 40
0.25
 40
0.5
 40
0.5
 40
0.75
 40
0.75
 40
1.0
 40
1.0
 40
1.0
 40
1.0
 10
97.6042085723065
 20
90.33810409134267
 30
0.0
 10
97.65701113308606
 20
90.34543563250031
 30
0.0
 10
97.68802548322729
 20
90.34934962668785
 30
0.0
 10
97.69984225233667
 20
90.34940543529834
 30
0.0
 10
97.6800147148292
 20
90.34544520419414
 30
0.0
 10
97.59563030484506
 20
90.33102214146729
 30
0.0
 10
97.53149461739005
 20
90.32062913893222
 30
0.0
 10
97.37582284316015
 20
90.29639851953387
 30
0.0
 10
97.28618611829837
 20
90.28286092091717
 30
0.0
 10
97.19498923060316
 20
90.26949004712309
 30
0.0
  0
SPLINE
  5
1FC
330
1F
100
AcDbEntity
  8
0
  6
HIDDEN
 62
     7
370
     0
100
AcDbSpline
210
0.0
220
0.0
230
1.0
 70
     8
 71
     3
 72
     8
 73
     4
 74
     0
 42
0.00000001
 43
0.00000001
 40
0.0000002451817734
 40
0.0000002451817734
 40
0.0000002451817734
 40
0.0000002451817734
 40
0.0002152606545094
 40
0.0002152606545094
 40
0.0002152606545094
 40
0.0002152606545094
 10
97.48106277409815
 20
90.32079925651387
 30
0.0
 10
97.5221082182504
 20
90.3266351445769
 30
0.0
 10
97.56315682227411
 20
90.33240412924779
 30
0.0
 10
97.6042085723065
 20
90.33810409134267
 30
0.0
  0
SPLINE
  5
1FD
330
1F
100
AcDbEntity
  8
0
  6
HIDDEN
 62
     7
370
     0
100
AcDbSpline
210
0.0
220
0.0
230
1.0
 70
     8
 71
     3
 72
    10
 73
     6
 74
     0
 42
0.00000001
 43
0.00000001
 40
0.0
 40
0.0
 40
0.0
 40
0.0
 40
0.0946437417558025
 40
0.6390262992838667
 40
1.0
 40
1.0
 40
1.0
 40
1.0
 10
97.39428826394683
 20
90.30850644403888
 30
0.0
 10
97.39301955518532
 20
90.30832702416718
 30
0.0
 10
97.3844533441534
 20
90.30711559682399
 30
0.0
 10
97.41574943546115
 20
90.3115285379895
 30
0.0
 10
97.46244459942555
 20
90.31815638740018
 30
0.0
 10
97.48106238219148
 20
90.32079897070125
 30
0.0
  0
LINE
  5
1FE
330
1F
100
AcDbEntity
  8
0
  6
HIDDEN
 62
     7
370
     0
100
AcDbLine
 10
97.6042083723
 20
90.9304306209
 30
0.0
 11
97.6042083723
 21
90.3381038755
 31
0.0
  0
LINE
  5
1FF
330
1F
100
AcDbEntity
  8
0
  6
HIDDEN
 62
     7
370
     0
100
AcDbLine
 10
120.9763816816
 20
90.7742506191
 30
0.0
 11
120.9763816816
 21
90.2694896161
 31
0.0
  0
LINE
  5
200
330
1F
100
AcDbEntity
  8
0
  6
HIDDEN
 62
     7
370
     0
100
AcDbLine
 10
122.1982200888
 20
90.3662819713
 30
0.0
 11
122.1982200888
 21
90.0902584493
 31
0.0
  0
LWPOLYLINE
  5
201
330
1F
100
AcDbEntity
  8
0
  6
HIDDEN
 62
     7
370
     0
100
AcDbPolyline
 90
        3
 70
   128
 43
0.0
 10
122.1982200888
 20
90.0902584493
 10
121.1483010349
 20
90.2442824393
 10
120.9763816816
 20
90.2694896161
  0
SPLINE
  5
202
330
1F
100
AcDbEntity
  8
0
  6
HIDDEN
 62
     7
370
     0
100
AcDbSpline
210
0.0
220
0.0
230
1.0
 70
     8
 71
     3
 72
     9
 73
     5
 74
     0
 42
0.00000001
 43
0.00000001
 40
0.0
 40
0.0
 40
0.0
 40
0.0
 40
0.5470164921488314
 40
1.0
 40
1.0
 40
1.0
 40
1.0
 10
120.6903082576693
 20
90.32079897070125
 30
0.0
 10
120.719032997204
 20
90.31672588991837
 30
0.0
 10
120.7715446489494
 20
90.30927989726308
 30
0.0
 10
120.7753565699087
 20
90.30874757654504
 30
0.0
 10
120.7770833072365
 20
90.3085064440389
 30
0.0
  0
SPLINE
  5
203
330
1F
100
AcDbEntity
  8
0
  6
HIDDEN
 62
     7
370
     0
100
AcDbSpline
210
0.0
220
0.0
230
1.0
 70
     8
 71
     3
 72
     8
 73
     4
 74
     0
 42
0.00000001
 43
0.00000001
 40
0.0000002451817734
 40
0.0000002451817734
 40
0.0000002451817734
 40
0.0000002451817734
 40
0.0002152606545094
 40
0.0002152606545094
 40
0.0002152606545094
 40
0.0002152606545094
 10
120.6903083055048
 20
90.32079925651387
 30
0.0
 10
120.6492628613526
 20
90.3266351445769
 30
0.0
 10
120.6082142573289
 20
90.33240412924779
 30
0.0
 10
120.5671625072965
 20
90.33810409134267
 30
0.0
  0
SPLINE
  5
204
330
1F
100
AcDbEntity
  8
0
  6
HIDDEN
 62
     7
370
     0
100
AcDbSpline
210
0.0
220
0.0
230
1.0
 70
     8
 71
     3
 72
     8
 73
     4
 74
     0
 42
0.00000001
 43
0.00000001
 40
0.0
 40
0.0
 40
0.0
 40
0.0
 40
1.0
 40
1.0
 40
1.0
 40
1.0
 10
120.5671625072965
 20
90.33810409134267
 30
0.0
 10
120.5349598140208
 20
90.34257537772827
 30
0.0
 10
120.5110983247591
 20
90.34575131244674
 30
0.0
 10
120.4956477304557
 20
90.34759877134042
 30
0.0
  0
SPLINE
  5
205
330
1F
100
AcDbEntity
  8
0
  6
HIDDEN
 62
     7
370
     0
100
AcDbSpline
210
0.0
220
0.0
230
1.0
 70
     8
 71
     3
 72
    13
 73
     9
 74
     0
 42
0.00000001
 43
0.00000001
 40
0.0
 40
0.0
 40
0.0
 40
0.0
 40
0.0353709030870051
 40
0.2463977488181803
 40
0.4579702006435125
 40
0.6714487026589026
 40
0.8872936499823365
 40
1.0
 40
1.0
 40
1.0
 40
1.0
 10
120.4802577641905
 20
90.34862595790818
 30
0.0
 10
120.4790298295936
 20
90.34872515786941
 30
0.0
 10
120.4704758970118
 20
90.3494161961239
 30
0.0
 10
120.5084594886827
 20
90.34242273802685
 30
0.0
 10
120.5938219359538
 20
90.32802501754428
 30
0.0
 10
120.72694160189
 20
90.30693099166582
 30
0.0
 10
120.8618152344466
 20
90.28638031326165
 30
0.0
 10
120.9471190361291
 20
90.27380385028283
 30
0.0
 10
120.9763816815913
 20
90.26948961609796
 30
0.0
  0
SPLINE
  5
206
330
1F
100
AcDbEntity
  8
0
  6
HIDDEN
 62
     7
370
     0
100
AcDbSpline
210
0.0
220
0.0
230
1.0
 70
     8
 71
     3
 72
     8
 73
     4
 74
     0
 42
0.00000001
 43
0.00000001
 40
0.0
 40
0.0
 40
0.0
 40
0.0
 40
1.0
 40
1.0
 40
1.0
 40
1.0
 10
122.1982204793999
 20
90.09025829440178
 30
0.0
 10
122.3040660589709
 20
90.07472460465429
 30
0.0
 10
122.4073245453311
 20
90.06005113460897
 30
0.0
 10
122.4931856897858
 20
90.04823266635164
 30
0.0
  0
SPLINE
  5
207
330
1F
100
AcDbEntity
  8
0
  6
HIDDEN
 62
     7
370
     0
100
AcDbSpline
210
0.0
220
0.0
230
1.0
 70
     8
 71
     3
 72
     8
 73
     4
 74
     0
 42
0.00000001
 43
0.00000001
 40
0.0000002492162788
 40
0.0000002492162788
 40
0.0000002492162788
 40
0.0000002492162788
 40
0.0012798123813552
 40
0.0012798123813552
 40
0.0012798123813552
 40
0.0012798123813552
 10
122.4931856897858
 20
90.04823266635164
 30
0.0
 10
122.8354742389747
 20
90.00111791637777
 30
0.0
 10
123.1776511958798
 20
89.95274889474844
 30
0.0
 10
123.5197314349875
 20
89.90336815576059
 30
0.0
  0
SPLINE
  5
208
330
1F
100
AcDbEntity
  8
0
  6
HIDDEN
 62
     7
370
     0
100
AcDbSpline
210
0.0
220
0.0
230
1.0
 70
     8
 71
     3
 72
    10
 73
     6
 74
     0
 42
0.00000001
 43
0.00000001
 40
0.0
 40
0.0
 40
0.0
 40
0.0
 40
0.5
 40
0.5
 40
1.0
 40
1.0
 40
1.0
 40
1.0
 10
123.7247662246015
 20
89.87397345843215
 30
0.0
 10
123.7247662246015
 20
89.87397345843215
 30
0.0
 10
123.7058955798083
 20
89.87665612425263
 30
0.0
 10
123.6349290624462
 20
89.88679734482159
 30
0.0
 10
123.5831921540139
 20
89.89420733077287
 30
0.0
 10
123.5197314349875
 20
89.90336815576059
 30
0.0
  0
LINE
  5
209
330
1F
100
AcDbEntity
  8
0
  6
HIDDEN
 62
     7
370
     0
100
AcDbLine
 10
120.5671622676
 20
90.9304306209
 30
0.0
 11
120.5671622676
 21
90.3381038755
 31
0.0
  0
LINE
  5
20A
330
1F
100
AcDbEntity
  8
0
  6
HIDDEN
 62
     7
370
     0
100
AcDbLine
 10
122.4931857807
 20
90.2706230357
 30
0.0
 11
122.4931857807
 21
90.0482325181
 31
0.0
  0
LINE
  5
20B
330
1F
100
AcDbEntity
  8
0
  6
HIDDEN
 62
     7
370
     0
100
AcDbLine
 10
94.6516392079
 20
89.9408817589
 30
0.0
 11
94.6516392079
 21
89.9033680856
 31
0.0
  0
LINE
  5
20C
330
1F
100
AcDbEntity
  8
0
  6
HIDDEN
 62
     7
370
     0
100
AcDbLine
 10
123.5197323633
 20
89.9408817589
 30
0.0
 11
123.5197323633
 21
89.9033680856
 31
0.0
  0
LINE
  5
20D
330
1F
100
AcDbEntity
  8
0
  6
HIDDEN
 62
     7
370
     0
100
AcDbLine
 10
113.93300046
 20
98.3381317004
 30
0.0
 11
113.93300046
 21
98.8381317095
 31
0.0
  0
LINE
  5
20E
330
1F
100
AcDbEntity
  8
0
  6
HIDDEN
 62
     7
370
     0
100
AcDbLine
 10
104.2383706455
 20
98.3381317004
 30
0.0
 11
104.2383706455
 21
98.8381317095
 31
0.0
  0
LINE
  5
20F
330
1F
100
AcDbEntity
  8
0
  6
HIDDEN
 62
     7
370
     0
100
AcDbLine
 10
97.4810623822
 20
90.8910412639
 30
0.0
 11
97.4810623822
 21
90.3207989707
 31
0.0
  0
LINE
  5
210
330
1F
100
AcDbEntity
  8
0
  6
HIDDEN
 62
     7
370
     0
100
AcDbLine
 10
120.6903082577
 20
90.8910412639
 30
0.0
 11
120.6903082577
 21
90.3207989707
 31
0.0
  0
LINE
  5
211
330
1F
100
AcDbEntity
  8
0
  6
HIDDEN
 62
     7
370
     0
100
AcDbLine
 10
112.971293952
 20
98.3381317004
 30
0.0
 11
112.971293952
 21
98.8381317095
 31
0.0
  0
LINE
  5
212
330
1F
100
AcDbEntity
  8
0
  6
HIDDEN
 62
     7
370
     0
100
AcDbLine
 10
112.6169955616
 20
98.3381317004
 30
0.0
 11
112.1567853053
 21
98.3381317004
 31
0.0
  0
LINE
  5
213
330
1F
100
AcDbEntity
  8
0
  6
HIDDEN
 62
     7
370
     0
100
AcDbLine
 10
111.7349203934
 20
98.3381317004
 30
0.0
 11
111.7349203934
 21
98.8381317095
 31
0.0
  0
LINE
  5
214
330
1F
100
AcDbEntity
  8
0
  6
HIDDEN
 62
     7
370
     0
100
AcDbLine
 10
106.4364504793
 20
98.3381317004
 30
0.0
 11
106.4364504793
 21
98.8381317095
 31
0.0
  0
LINE
  5
215
330
1F
100
AcDbEntity
  8
0
  6
HIDDEN
 62
     7
370
     0
100
AcDbLine
 10
106.0145856838
 20
98.3381317004
 30
0.0
 11
105.5543755439
 21
98.3381317004
 31
0.0
  0
LINE
  5
216
330
1F
100
AcDbEntity
  8
0
  6
HIDDEN
 62
     7
370
     0
100
AcDbLine
 10
105.2000769206
 20
98.3381317004
 30
0.0
 11
105.2000769206
 21
98.8381317095
 31
0.0
  0
LINE
  5
217
330
1F
100
AcDbEntity
  8
0
  6
HIDDEN
 62
     7
370
     0
100
AcDbLine
 10
111.3331985918
 20
98.3381317004
 30
0.0
 11
111.3331985918
 21
98.8381317095
 31
0.0
  0
LINE
  5
218
330
1F
100
AcDbEntity
  8
0
  6
HIDDEN
 62
     7
370
     0
100
AcDbLine
 10
106.8381725719
 20
98.3381317004
 30
0.0
 11
106.8381725719
 21
98.8381317095
 31
0.0
  0
LINE
  5
219
330
1F
100
AcDbEntity
  8
0
  6
HIDDEN
 62
     7
370
     0
100
AcDbLine
 10
115.1693740186
 20
98.3381317004
 30
0.0
 11
115.1693740186
 21
98.8381317095
 31
0.0
  0
LINE
  5
21A
330
1F
100
AcDbEntity
  8
0
  6
HIDDEN
 62
     7
370
     0
100
AcDbLine
 10
103.0019970869
 20
98.3381317004
 30
0.0
 11
103.0019970869
 21
98.8381317095
 31
0.0
  0
LINE
  5
21B
330
1F
100
AcDbEntity
  8
0
  6
HIDDEN
 62
     7
370
     0
100
AcDbLine
 10
112.5695721504
 20
98.3381317004
 30
0.0
 11
112.5695721504
 21
98.8381317095
 31
0.0
  0
LINE
  5
21C
330
1F
100
AcDbEntity
  8
0
  6
HIDDEN
 62
     7
370
     0
100
AcDbLine
 10
105.6017991879
 20
98.3381317004
 30
0.0
 11
105.6017991879
 21
98.8381317095
 31
0.0
  0
LINE
  5
21D
330
1F
100
AcDbEntity
  8
0
  6
HIDDEN
 62
     7
370
     0
100
AcDbLine
 10
114.3659294841
 20
98.3381317004
 30
0.0
 11
114.3659294841
 21
98.8381317095
 31
0.0
  0
LINE
  5
21E
330
1F
100
AcDbEntity
  8
0
  6
HIDDEN
 62
     7
370
     0
100
AcDbLine
 10
113.1295559255
 20
98.3381317004
 30
0.0
 11
113.1295559255
 21
98.8381317095
 31
0.0
  0
LINE
  5
21F
330
1F
100
AcDbEntity
  8
0
  6
HIDDEN
 62
     7
370
     0
100
AcDbLine
 10
105.0418149472
 20
98.3381317004
 30
0.0
 11
105.0418149472
 21
98.8381317095
 31
0.0
  0
LINE
  5
220
330
1F
100
AcDbEntity
  8
0
  6
HIDDEN
 62
     7
370
     0
100
AcDbLine
 10
103.8054413886
 20
98.3381317004
 30
0.0
 11
103.8054413886
 21
98.8381317095
 31
0.0
  0
LINE
  5
221
330
1F
100
AcDbEntity
  8
0
  6
HIDDEN
 62
     7
370
     0
100
AcDbLine
 10
109.7356856127
 20
98.3381317004
 30
0.0
 11
109.7356856127
 21
98.8381317095
 31
0.0
  0
LINE
  5
222
330
1F
100
AcDbEntity
  8
0
  6
HIDDEN
 62
     7
370
     0
100
AcDbLine
 10
109.4618291619
 20
98.3381317004
 30
0.0
 11
108.7095419436
 21
98.3381317004
 31
0.0
  0
LINE
  5
223
330
1F
100
AcDbEntity
  8
0
  6
HIDDEN
 62
     7
370
     0
100
AcDbLine
 10
108.435685551
 20
98.3381317004
 30
0.0
 11
108.435685551
 21
98.8381317095
 31
0.0
  0
LINE
  5
224
330
1F
100
AcDbEntity
  8
0
  6
HIDDEN
 62
     7
370
     0
100
AcDbLine
 10
112.7278341238
 20
98.3381317004
 30
0.0
 11
112.7278341238
 21
98.8381317095
 31
0.0
  0
LINE
  5
225
330
1F
100
AcDbEntity
  8
0
  6
HIDDEN
 62
     7
370
     0
100
AcDbLine
 10
105.4435369817
 20
98.3381317004
 30
0.0
 11
105.4435369817
 21
98.8381317095
 31
0.0
  0
LINE
  5
226
330
1F
100
AcDbEntity
  8
0
  6
HIDDEN
 62
     7
370
     0
100
AcDbLine
 10
98.2472698462
 20
90.3123891279
 30
0.0
 11
98.2424819169
 21
90.3132897168
 31
0.0
  0
LINE
  5
227
330
1F
100
AcDbEntity
  8
0
  6
HIDDEN
 62
     7
370
     0
100
AcDbLine
 10
113.9642076825
 20
98.3381317004
 30
0.0
 11
113.9642076825
 21
98.8381317095
 31
0.0
  0
LINE
  5
228
330
1F
100
AcDbEntity
  8
0
  6
HIDDEN
 62
     7
370
     0
100
AcDbLine
 10
104.2071636559
 20
98.3381317004
 30
0.0
 11
104.2071636559
 21
98.8381317095
 31
0.0
  0
LINE
  5
229
330
1F
100
AcDbEntity
  8
0
  6
HIDDEN
 62
     7
370
     0
100
AcDbLine
 10
111.6856855598
 20
98.3381317004
 30
0.0
 11
111.6856855598
 21
98.8381317095
 31
0.0
  0
LINE
  5
22A
330
1F
100
AcDbEntity
  8
0
  6
HIDDEN
 62
     7
370
     0
100
AcDbLine
 10
106.4856855457
 20
98.3381317004
 30
0.0
 11
106.4856855457
 21
98.8381317095
 31
0.0
  0
LINE
  5
22B
330
1F
100
AcDbEntity
  8
0
  6
HIDDEN
 62
     7
370
     0
100
AcDbLine
 10
110.3856854399
 20
98.3381317004
 30
0.0
 11
110.3856854399
 21
98.8381317095
 31
0.0
  0
LINE
  5
22C
330
1F
100
AcDbEntity
  8
0
  6
HIDDEN
 62
     7
370
     0
100
AcDbLine
 10
107.7856855419
 20
98.3381317004
 30
0.0
 11
107.7856855419
 21
98.8381317095
 31
0.0
  0
ARC
  5
22D
330
1F
100
AcDbEntity
  8
0
  6
HIDDEN
 62
     7
370
     0
100
AcDbCircle
 10
124.3856855398
 20
89.5528612195
 30
0.0
 40
0.2999999999999972
100
AcDbArc
 50
180.0
 51
270.0
  0
ARC
  5
22E
330
1F
100
AcDbEntity
  8
0
  6
HIDDEN
 62
     7
370
     0
100
AcDbCircle
 10
93.7856855398
 20
89.5528612195
 30
0.0
 40
0.2999999999999972
100
AcDbArc
 50
270.0
 51
0.0
  0
LINE
  5
22F
330
1F
100
AcDbEntity
  8
0
  6
HIDDEN
 62
     7
370
     0
100
AcDbLine
 10
120.778231628
 20
90.8627299889
 30
0.0
 11
119.7486759422
 21
91.2082138769
 31
0.0
  0
LINE
  5
230
330
1F
100
AcDbEntity
  8
0
  6
HIDDEN
 62
     7
370
     0
100
AcDbLine
 10
124.085685916
 20
89.7528607696
 30
0.0
 11
123.7247667533
 21
89.8739736825
 31
0.0
  0
LINE
  5
231
330
1F
100
AcDbEntity
  8
0
  6
HIDDEN
 62
     7
370
     0
100
AcDbLine
 10
94.4466048178
 20
89.8739736825
 30
0.0
 11
94.0856856552
 21
89.7528607696
 31
0.0
  0
LINE
  5
232
330
1F
100
AcDbEntity
  8
0
  6
HIDDEN
 62
     7
370
     0
100
AcDbLine
 10
98.4226946977
 20
91.2082138769
 30
0.0
 11
97.3931399432
 21
90.8627299889
 31
0.0
  0
LINE
  5
233
330
1F
100
AcDbEntity
  8
0
  6
HIDDEN
 62
     7
370
     0
100
AcDbLine
 10
94.0856856552
 20
89.7528607696
 30
0.0
 11
94.0856856552
 21
89.5528611093
 31
0.0
  0
LINE
  5
234
330
1F
100
AcDbEntity
  8
0
  6
HIDDEN
 62
     7
370
     0
100
AcDbLine
 10
124.085685916
 20
89.5528611093
 30
0.0
 11
124.085685916
 21
89.7528607696
 31
0.0
  0
ARC
  5
235
330
1F
100
AcDbEntity
  8
0
  6
HIDDEN
 62
     7
370
     0
100
AcDbCircle
 10
95.4010433398
 20
98.3062409015
 30
0.0
 40
0.9999999999999923
100
AcDbArc
 50
126.65
 51
236.25
  0
ARC
  5
236
330
1F
100
AcDbEntity
  8
0
  6
HIDDEN
 62
     7
370
     0
100
AcDbCircle
 10
122.7703277398
 20
98.3062409015
 30
0.0
 40
1.000000000000001
100
AcDbArc
 50
303.75
 51
53.35
  0
LINE
  5
237
330
1F
100
AcDbEntity
  8
0
  6
HIDDEN
 62
     7
370
     0
100
AcDbLine
 10
123.367252506
 20
99.1085377703
 30
0.0
 11
119.1131358293
 21
102.2736878897
 31
0.0
  0
LINE
  5
238
330
1F
100
AcDbEntity
  8
0
  6
HIDDEN
 62
     7
370
     0
100
AcDbLine
 10
99.0582357419
 20
102.2736878897
 30
0.0
 11
94.8041181338
 21
99.1085377703
 31
0.0
  0
LINE
  5
239
330
1F
100
AcDbEntity
  8
0
  6
HIDDEN
 62
     7
370
     0
100
AcDbLine
 10
94.8454735127
 20
97.4747712556
 30
0.0
 11
98.8975714219
 21
94.7672458663
 31
0.0
  0
LINE
  5
23A
330
1F
100
AcDbEntity
  8
0
  6
HIDDEN
 62
     7
370
     0
100
AcDbLine
 10
119.2738001493
 20
94.7672458663
 30
0.0
 11
123.3258980584
 21
97.4747712556
 31
0.0
  0
LINE
  5
23B
330
1F
100
AcDbEntity
  8
0
  6
HIDDEN
 62
     7
370
     0
100
AcDbLine
 10
102.8748259206
 20
90.3046600818
 30
0.0
 11
102.8748259206
 21
90.0482325181
 31
0.0
  0
LINE
  5
23C
330
1F
100
AcDbEntity
  8
0
  6
HIDDEN
 62
     7
370
     0
100
AcDbLine
 10
115.2965451849
 20
90.0482325181
 30
0.0
 11
115.2965451849
 21
90.3046600818
 31
0.0
  0
LINE
  5
23D
330
1F
100
AcDbEntity
  8
0
  6
HIDDEN
 62
     7
370
     0
100
AcDbLine
 10
112.4431483706
 20
90.8389970958
 30
0.0
 11
112.4431483706
 21
90.2978958859
 31
0.0
  0
LINE
  5
23E
330
1F
100
AcDbEntity
  8
0
  6
HIDDEN
 62
     7
370
     0
100
AcDbLine
 10
105.728222735
 20
90.2978958859
 30
0.0
 11
105.728222735
 21
90.8389970958
 31
0.0
  0
ARC
  5
23F
330
1F
100
AcDbEntity
  8
0
  6
HIDDEN
 62
     7
370
     0
100
AcDbCircle
 10
120.3849404221
 20
93.1043067311
 30
0.0
 40
2.000000000000009
100
AcDbArc
 50
123.75
 51
251.45
  0
ARC
  5
240
330
1F
100
AcDbEntity
  8
0
  6
HIDDEN
 62
     7
370
     0
100
AcDbCircle
 10
97.7864306575
 20
93.1043067311
 30
0.0
 40
2.000000000000009
100
AcDbArc
 50
288.55
 51
56.25
  0
LINE
  5
241
330
1F
100
AcDbEntity
  8
0
  6
HIDDEN
 62
     7
370
     0
100
AcDbLine
 10
98.5878461299
 20
89.9233104959
 30
0.0
 11
98.5878461299
 21
89.8739736825
 31
0.0
  0
LINE
  5
242
330
1F
100
AcDbEntity
  8
0
  6
HIDDEN
 62
     7
370
     0
100
AcDbLine
 10
119.5835254413
 20
89.8739736825
 30
0.0
 11
119.5835254413
 21
89.9224136322
 31
0.0
  0
ARC
  5
243
330
1F
100
AcDbEntity
  8
0
  6
HIDDEN
 62
     7
370
     0
100
AcDbCircle
 10
99.6551607965
 20
101.4713910929
 30
0.0
 40
1.000000000000001
100
AcDbArc
 50
90.0
 51
126.65
  0
ARC
  5
244
330
1F
100
AcDbEntity
  8
0
  6
HIDDEN
 62
     7
370
     0
100
AcDbCircle
 10
99.6551607965
 20
101.4713910929
 30
0.0
 40
1.0
100
AcDbArc
 50
22.619864948
 51
90.0
  0
ARC
  5
245
330
1F
100
AcDbEntity
  8
0
  6
HIDDEN
 62
     7
370
     0
100
AcDbCircle
 10
118.5162102831
 20
101.4713910929
 30
0.0
 40
1.0
100
AcDbArc
 50
53.35
 51
90.0
  0
ARC
  5
246
330
1F
100
AcDbEntity
  8
0
  6
HIDDEN
 62
     7
370
     0
100
AcDbCircle
 10
118.5162102831
 20
101.4713910929
 30
0.0
 40
1.000000000000011
100
AcDbArc
 50
90.0
 51
157.380135052
  0
LINE
  5
247
330
1F
100
AcDbEntity
  8
0
  6
HIDDEN
 62
     7
370
     0
100
AcDbLine
 10
118.516210213
 20
102.4713911414
 30
0.0
 11
99.6551604268
 21
102.4713911414
 31
0.0
  0
LINE
  5
248
330
1F
100
AcDbEntity
  8
0
  6
HIDDEN
 62
     7
370
     0
100
AcDbLine
 10
116.4633470846
 20
90.8959181345
 30
0.0
 11
116.4633470846
 21
90.3231533542
 31
0.0
  0
LINE
  5
249
330
1F
100
AcDbEntity
  8
0
  6
HIDDEN
 62
     7
370
     0
100
AcDbLine
 10
101.7080235553
 20
90.3231533542
 30
0.0
 11
101.7080235553
 21
90.8959181345
 31
0.0
  0
LINE
  5
24A
330
1F
100
AcDbEntity
  8
0
  6
HIDDEN
 62
     7
370
     0
100
AcDbLine
 10
100.578237537
 20
101.8560064788
 30
0.0
 11
101.8356855285
 21
98.8381317095
 31
0.0
  0
LINE
  5
24B
330
1F
100
AcDbEntity
  8
0
  6
HIDDEN
 62
     7
370
     0
100
AcDbLine
 10
116.3356851113
 20
98.8381317095
 30
0.0
 11
117.5931335685
 21
101.8560064788
 31
0.0
  0
LINE
  5
24C
330
1F
100
AcDbEntity
  8
0
  6
HIDDEN
 62
     7
370
     0
100
AcDbLine
 10
109.4618291619
 20
98.8381317095
 30
0.0
 11
109.4618291619
 21
98.3381317004
 31
0.0
  0
LINE
  5
24D
330
1F
100
AcDbEntity
  8
0
  6
HIDDEN
 62
     7
370
     0
100
AcDbLine
 10
108.7095419436
 20
98.3381317004
 30
0.0
 11
108.7095419436
 21
98.8381317095
 31
0.0
  0
LINE
  5
24E
330
1F
100
AcDbEntity
  8
0
  6
HIDDEN
 62
     7
370
     0
100
AcDbLine
 10
98.8871275705
 20
90.3415087908
 30
0.0
 11
98.8871275705
 21
90.9560913517
 31
0.0
  0
LINE
  5
24F
330
1F
100
AcDbEntity
  8
0
  6
HIDDEN
 62
     7
370
     0
100
AcDbLine
 10
119.2842440006
 20
90.9560913517
 30
0.0
 11
119.2842440006
 21
90.3415087908
 31
0.0
  0
LINE
  5
250
330
1F
100
AcDbEntity
  8
0
  6
HIDDEN
 62
     7
370
     0
100
AcDbLine
 10
111.8135510271
 20
98.3381317004
 30
0.0
 11
111.8135510271
 21
98.8381317095
 31
0.0
  0
LINE
  5
251
330
1F
100
AcDbEntity
  8
0
  6
HIDDEN
 62
     7
370
     0
100
AcDbLine
 10
106.3578198456
 20
98.8381317095
 30
0.0
 11
106.3578198456
 21
98.3381317004
 31
0.0
  0
LINE
  5
252
330
1F
100
AcDbEntity
  8
0
  6
HIDDEN
 62
     7
370
     0
100
AcDbLine
 10
98.2424819169
 20
90.8745112195
 30
0.0
 11
98.2424819169
 21
90.3079401999
 31
0.0
  0
LINE
  5
253
330
1F
100
AcDbEntity
  8
0
  6
HIDDEN
 62
     7
370
     0
100
AcDbLine
 10
119.9288896543
 20
90.3079401999
 30
0.0
 11
119.9288896543
 21
90.8756930679
 31
0.0
  0
LINE
  5
254
330
1F
100
AcDbEntity
  8
0
  6
HIDDEN
 62
     7
370
     0
100
AcDbLine
 10
104.5090639756
 20
120.2528620436
 30
0.0
 11
104.743188692
 21
112.7528608143
 31
0.0
  0
LINE
  5
255
330
1F
100
AcDbEntity
  8
0
  6
HIDDEN
 62
     7
370
     0
100
AcDbLine
 10
113.4281821807
 20
112.7528608143
 30
0.0
 11
113.6623068971
 21
120.2528620436
 31
0.0
  0
LINE
  5
256
330
1F
100
AcDbEntity
  8
0
  6
HIDDEN
 62
     7
370
     0
100
AcDbLine
 10
112.6169955616
 20
98.8381317095
 30
0.0
 11
112.6169955616
 21
98.3381317004
 31
0.0
  0
LINE
  5
257
330
1F
100
AcDbEntity
  8
0
  6
HIDDEN
 62
     7
370
     0
100
AcDbLine
 10
105.5543755439
 20
98.3381317004
 30
0.0
 11
105.5543755439
 21
98.8381317095
 31
0.0
  0
LINE
  5
258
330
1F
100
AcDbEntity
  8
0
  6
HIDDEN
 62
     7
370
     0
100
AcDbLine
 10
98.3131022451
 20
90.3443539813
 30
0.0
 11
98.3131022451
 21
90.9560913517
 31
0.0
  0
LINE
  5
259
330
1F
100
AcDbEntity
  8
0
  6
HIDDEN
 62
     7
370
     0
100
AcDbLine
 10
119.8582693261
 20
90.9560913517
 30
0.0
 11
119.8582693261
 21
90.3443539813
 31
0.0
  0
LINE
  5
25A
330
1F
100
AcDbEntity
  8
0
  6
HIDDEN
 62
     7
370
     0
100
AcDbLine
 10
113.0356855949
 20
111.2528614997
 30
0.0
 11
113.0356855949
 21
112.7528608143
 31
0.0
  0
LINE
  5
25B
330
1F
100
AcDbEntity
  8
0
  6
HIDDEN
 62
     7
370
     0
100
AcDbLine
 10
105.1356855107
 20
112.7528608143
 30
0.0
 11
105.1356855107
 21
111.2528614997
 31
0.0
  0
LINE
  5
25C
330
1F
100
AcDbEntity
  8
0
  6
HIDDEN
 62
     7
370
     0
100
AcDbLine
 10
105.1356855107
 20
111.2528614997
 30
0.0
 11
107.085685516
 21
110.0811831951
 31
0.0
  0
LINE
  5
25D
330
1F
100
AcDbEntity
  8
0
  6
HIDDEN
 62
     7
370
     0
100
AcDbLine
 10
111.0856856478
 20
110.0811831951
 30
0.0
 11
113.0356855949
 21
111.2528614997
 31
0.0
  0
LINE
  5
25E
330
1F
100
AcDbEntity
  8
0
  6
HIDDEN
 62
     7
370
     0
100
AcDbLine
 10
109.8050633238
 20
98.8381317095
 30
0.0
 11
109.8050633238
 21
98.3381317004
 31
0.0
  0
LINE
  5
25F
330
1F
100
AcDbEntity
  8
0
  6
HIDDEN
 62
     7
370
     0
100
AcDbLine
 10
108.3663078399
 20
98.3381317004
 30
0.0
 11
108.3663078399
 21
98.8381317095
 31
0.0
  0
LINE
  5
260
330
1F
100
AcDbEntity
  8
0
  6
HIDDEN
 62
     7
370
     0
100
AcDbLine
 10
114.9687173103
 20
98.3381317004
 30
0.0
 11
114.9687173103
 21
98.8381317095
 31
0.0
  0
LINE
  5
261
330
1F
100
AcDbEntity
  8
0
  6
HIDDEN
 62
     7
370
     0
100
AcDbLine
 10
103.2026533296
 20
98.8381317095
 30
0.0
 11
103.2026533296
 21
98.3381317004
 31
0.0
  0
LINE
  5
262
330
1F
100
AcDbEntity
  8
0
  6
HIDDEN
 62
     7
370
     0
100
AcDbLine
 10
112.1567853053
 20
98.3381317004
 30
0.0
 11
112.1567853053
 21
98.8381317095
 31
0.0
  0
LINE
  5
263
330
1F
100
AcDbEntity
  8
0
  6
HIDDEN
 62
     7
370
     0
100
AcDbLine
 10
106.0145856838
 20
98.8381317095
 30
0.0
 11
106.0145856838
 21
98.3381317004
 31
0.0
  0
LINE
  5
264
330
1F
100
AcDbEntity
  8
0
  6
HIDDEN
 62
     7
370
     0
100
AcDbLine
 10
107.085685516
 20
110.0811831951
 30
0.0
 11
107.085685516
 21
98.8381317095
 31
0.0
  0
LINE
  5
265
330
1F
100
AcDbEntity
  8
0
  6
HIDDEN
 62
     7
370
     0
100
AcDbLine
 10
111.0856856478
 20
98.8381317095
 30
0.0
 11
111.0856856478
 21
110.0811831951
 31
0.0
  0
LINE
  5
266
330
1F
100
AcDbEntity
  8
0
  6
HIDDEN
 62
     7
370
     0
100
AcDbLine
 10
115.6029093337
 20
98.3381317004
 30
0.0
 11
115.6029093337
 21
98.8381317095
 31
0.0
  0
LINE
  5
267
330
1F
100
AcDbEntity
  8
0
  6
HIDDEN
 62
     7
370
     0
100
AcDbLine
 10
102.5684617718
 20
98.8381317095
 30
0.0
 11
102.5684617718
 21
98.3381317004
 31
0.0
  0
LINE
  5
268
330
1F
100
AcDbEntity
  8
0
  6
HIDDEN
 62
     7
370
     0
100
AcDbLine
 10
97.3942845387
 20
90.3085306584
 30
0.0
 11
94.4466048178
 21
89.8739736825
 31
0.0
  0
LINE
  5
269
330
1F
100
AcDbEntity
  8
0
  6
HIDDEN
 62
     7
370
     0
100
AcDbLine
 10
97.6949890402
 20
90.3486259579
 30
0.0
 11
97.6949890402
 21
90.9560913517
 31
0.0
  0
LINE
  5
26A
330
1F
100
AcDbEntity
  8
0
  6
HIDDEN
 62
     7
370
     0
100
AcDbLine
 10
123.7247667533
 20
89.8739736825
 30
0.0
 11
120.7770861012
 21
90.3085306584
 31
0.0
  0
LINE
  5
26B
330
1F
100
AcDbEntity
  8
0
  6
HIDDEN
 62
     7
370
     0
100
AcDbLine
 10
120.4763815996
 20
90.9560913517
 30
0.0
 11
120.4763815996
 21
90.3486259579
 31
0.0
  0
LINE
  5
26C
330
1F
100
AcDbEntity
  8
0
  6
HIDDEN
 62
     7
370
     0
100
AcDbLine
 10
97.3902817142
 20
90.8626796975
 30
0.0
 11
97.3902817142
 21
90.3079401999
 31
0.0
  0
LINE
  5
26D
330
1F
100
AcDbEntity
  8
0
  6
HIDDEN
 62
     7
370
     0
100
AcDbLine
 10
120.7810889256
 20
90.3079401999
 30
0.0
 11
120.7810889256
 21
90.8626796975
 31
0.0
  0
LINE
  5
26E
330
1F
100
AcDbEntity
  8
0
  6
HIDDEN
 62
     7
370
     0
100
AcDbLine
 10
113.0031074655
 20
98.3381317004
 30
0.0
 11
113.0031074655
 21
98.8381317095
 31
0.0
  0
LINE
  5
26F
330
1F
100
AcDbEntity
  8
0
  6
HIDDEN
 62
     7
370
     0
100
AcDbLine
 10
105.16826364
 20
98.8381317095
 30
0.0
 11
105.16826364
 21
98.3381317004
 31
0.0
  0
LINE
  5
270
330
1F
100
AcDbEntity
  8
0
  6
HIDDEN
 62
     7
370
     0
100
AcDbLine
 10
113.9011869465
 20
98.8381317095
 30
0.0
 11
113.9011869465
 21
98.3381317004
 31
0.0
  0
LINE
  5
271
330
1F
100
AcDbEntity
  8
0
  6
HIDDEN
 62
     7
370
     0
100
AcDbLine
 10
104.2701839262
 20
98.3381317004
 30
0.0
 11
104.2701839262
 21
98.8381317095
 31
0.0
  0
LINE
  5
272
330
1F
100
AcDbEntity
  8
0
  6
HIDDEN
 62
     7
370
     0
100
AcDbLine
 10
111.3013853111
 20
98.8381317095
 30
0.0
 11
111.3013853111
 21
98.3381317004
 31
0.0
  0
LINE
  5
273
330
1F
100
AcDbEntity
  8
0
  6
HIDDEN
 62
     7
370
     0
100
AcDbLine
 10
106.8699858526
 20
98.3381317004
 30
0.0
 11
106.8699858526
 21
98.8381317095
 31
0.0
  0
LINE
  5
274
330
1F
100
AcDbEntity
  8
0
  6
HIDDEN
 62
     7
370
     0
100
AcDbLine
 10
114.3977429976
 20
98.3381317004
 30
0.0
 11
114.3977429976
 21
98.8381317095
 31
0.0
  0
LINE
  5
275
330
1F
100
AcDbEntity
  8
0
  6
HIDDEN
 62
     7
370
     0
100
AcDbLine
 10
103.7736281079
 20
98.8381317095
 30
0.0
 11
103.7736281079
 21
98.3381317004
 31
0.0
  0
LINE
  5
276
330
1F
100
AcDbEntity
  8
0
  6
HIDDEN
 62
     7
370
     0
100
AcDbLine
 10
107.7856855419
 20
98.8381317095
 30
0.0
 11
107.7856855419
 21
98.3381317004
 31
0.0
  0
LINE
  5
277
330
1F
100
AcDbEntity
  8
0
  6
HIDDEN
 62
     7
370
     0
100
AcDbLine
 10
110.3856854399
 20
98.3381317004
 30
0.0
 11
110.3856854399
 21
98.8381317095
 31
0.0
  0
LINE
  5
278
330
1F
100
AcDbEntity
  8
0
  6
HIDDEN
 62
     7
370
     0
100
AcDbLine
 10
112.6960206104
 20
98.8381317095
 30
0.0
 11
112.6960206104
 21
98.3381317004
 31
0.0
  0
LINE
  5
279
330
1F
100
AcDbEntity
  8
0
  6
HIDDEN
 62
     7
370
     0
100
AcDbLine
 10
105.4753502623
 20
98.3381317004
 30
0.0
 11
105.4753502623
 21
98.8381317095
 31
0.0
  0
LINE
  5
27A
330
1F
100
AcDbEntity
  8
0
  6
HIDDEN
 62
     7
370
     0
100
AcDbLine
 10
98.2424819169
 20
90.8756930679
 30
0.0
 11
98.2424819169
 21
90.8745112195
 31
0.0
  0
LINE
  5
27B
330
1F
100
AcDbEntity
  8
0
  6
HIDDEN
 62
     7
370
     0
100
AcDbLine
 10
112.335685387
 20
98.3381317004
 30
0.0
 11
112.335685387
 21
98.8381317095
 31
0.0
  0
LINE
  5
27C
330
1F
100
AcDbEntity
  8
0
  6
HIDDEN
 62
     7
370
     0
100
AcDbLine
 10
105.8356854857
 20
98.8381317095
 30
0.0
 11
105.8356854857
 21
98.3381317004
 31
0.0
  0
LINE
  5
27D
330
1F
100
AcDbEntity
  8
0
  6
HIDDEN
 62
     7
370
     0
100
AcDbLine
 10
108.435685551
 20
98.3381317004
 30
0.0
 11
108.435685551
 21
98.8381317095
 31
0.0
  0
LINE
  5
27E
330
1F
100
AcDbEntity
  8
0
  6
HIDDEN
 62
     7
370
     0
100
AcDbLine
 10
109.7356856127
 20
98.8381317095
 30
0.0
 11
109.7356856127
 21
98.3381317004
 31
0.0
  0
LINE
  5
27F
330
1F
100
AcDbEntity
  8
0
  6
HIDDEN
 62
     7
370
     0
100
AcDbLine
 10
119.5835254413
 20
89.9224136322
 30
0.0
 11
119.5835254413
 21
89.9233104959
 31
0.0
  0
LINE
  5
280
330
1F
100
AcDbEntity
  8
0
  6
HIDDEN
 62
     7
370
     0
100
AcDbLine
 10
124.3110287261
 20
99.90205493
 30
0.0
 11
93.8603419137
 21
99.90205493
 31
0.0
  0
LINE
  5
281
330
1F
100
AcDbEntity
  8
0
  6
HIDDEN
 62
     7
370
     0
100
AcDbLine
 10
109.0856855528
 20
96.634522017
 30
0.0
 11
124.2283198309
 21
96.634522017
 31
0.0
  0
LINE
  5
282
330
1F
100
AcDbEntity
  8
0
  6
HIDDEN
 62
     7
370
     0
100
AcDbLine
 10
93.9430517403
 20
96.634522017
 30
0.0
 11
109.0856855528
 21
96.634522017
 31
0.0
  0
LINE
  5
283
330
1F
100
AcDbEntity
  8
0
  6
HIDDEN
 62
     7
370
     0
100
AcDbLine
 10
109.0856855528
 20
90.4672857671
 30
0.0
 11
125.0856860799
 21
90.4672857671
 31
0.0
  0
LINE
  5
284
330
1F
100
AcDbEntity
  8
0
  6
HIDDEN
 62
     7
370
     0
100
AcDbLine
 10
93.0856854913
 20
90.4672857671
 30
0.0
 11
109.0856855528
 21
90.4672857671
 31
0.0
  0
LINE
  5
285
330
1F
100
AcDbEntity
  8
0
  6
HIDDEN
 62
     7
370
     0
100
AcDbLine
 10
109.0856855528
 20
89.5528611093
 30
0.0
 11
93.0856854913
 21
89.5528611093
 31
0.0
  0
LINE
  5
286
330
1F
100
AcDbEntity
  8
0
  6
HIDDEN
 62
     7
370
     0
100
AcDbLine
 10
125.0856860799
 20
89.5528611093
 30
0.0
 11
109.0856855528
 21
89.5528611093
 31
0.0
  0
LINE
  5
287
330
1F
100
AcDbEntity
  8
0
  6
HIDDEN
 62
     7
370
     0
100
AcDbLine
 10
124.8811248017
 20
90.7516995742
 30
0.0
 11
93.2902458382
 21
90.7516995742
 31
0.0
  0
LINE
  5
288
330
1F
100
AcDbEntity
  8
0
  6
HIDDEN
 62
     7
370
     0
100
AcDbLine
 10
109.0856855528
 20
92.216278363
 30
0.0
 11
120.5166221854
 21
92.216278363
 31
0.0
  0
LINE
  5
289
330
1F
100
AcDbEntity
  8
0
  6
HIDDEN
 62
     7
370
     0
100
AcDbLine
 10
97.6547493857
 20
92.216278363
 30
0.0
 11
109.0856855528
 21
92.216278363
 31
0.0
  0
LINE
  5
28A
330
1F
100
AcDbEntity
  8
0
  6
HIDDEN
 62
     7
370
     0
100
AcDbLine
 10
120.024280369
 20
103.0914834067
 30
0.0
 11
98.1470912022
 21
103.0914834067
 31
0.0
  0
LINE
  5
28B
330
1F
100
AcDbEntity
  8
0
  6
HIDDEN
 62
     7
370
     0
100
AcDbLine
 10
120.279184289
 20
93.9957941248
 30
0.0
 11
97.8921872822
 21
93.9957941248
 31
0.0
  0
LINE
  5
28C
330
1F
100
AcDbEntity
  8
0
  6
HIDDEN
 62
     7
370
     0
100
AcDbLine
 10
121.0856854242
 20
106.4710229933
 30
0.0
 11
97.0856852156
 21
106.4710229933
 31
0.0
  0
LINE
  5
28D
330
1F
100
AcDbEntity
  8
0
  6
HIDDEN
 62
     7
370
     0
100
AcDbLine
 10
120.1093650681
 20
104.7528613656
 30
0.0
 11
98.0620055718
 21
104.7528613656
 31
0.0
  0
DIMENSION
  5
28E
330
1F
100
AcDbEntity
  8
0
  6
Continuous
 62
     7
370
     0
100
AcDbDimension
  2
*D2
 10
125.0856855398
 20
72.4937548942
 30
0.0
 11
109.0856855398
 21
72.4937548942
 31
0.0
 70
   160
  1
(%%c<>)
 71
     2
 42
-1.0
  3
SLDDIMSTYLE0
100
AcDbAlignedDimension
 13
93.0856855398
 23
89.5528612195
 33
0.0
 14
125.0856855398
 24
89.5528612195
 34
0.0
100
AcDbRotatedDimension
  0
DIMENSION
  5
2A2
330
1F
100
AcDbEntity
  8
0
  6
Continuous
 62
     7
370
     0
100
AcDbDimension
  2
*D3
 10
145.147614355
 20
98.3381317091
 30
0.0
 11
145.147614355
 21
93.7954964643
 31
0.0
 70
   160
  1
(<>)
 71
     2
 42
-1.0
  3
SLDDIMSTYLE1
100
AcDbAlignedDimension
 13
124.7856855398
 23
89.2528612195
 33
0.0
 14
115.6029091623
 24
98.3381317091
 34
0.0
 50
90.0
100
AcDbRotatedDimension
  0
DIMENSION
  5
2B1
330
1F
100
AcDbEntity
  8
0
  6
Continuous
 62
     7
370
     0
100
AcDbDimension
  2
*D4
 10
72.8371809417
 20
110.2528612195
 30
0.0
 11
72.8371809417
 21
115.2528612195
 31
0.0
 70
   160
 71
     2
 42
-1.0
  3
SLDDIMSTYLE1
100
AcDbAlignedDimension
 13
101.0856855398
 23
120.2528612195
 33
0.0
 14
97.0856855398
 24
110.2528612195
 34
0.0
 50
90.0
100
AcDbRotatedDimension
  0
DIMENSION
  5
2BD
330
1F
100
AcDbEntity
  8
0
  6
Continuous
 62
     7
370
     0
100
AcDbDimension
  2
*D5
 10
61.9568108815
 20
89.2528612195
 30
0.0
 11
61.9568108815
 21
104.7528612195
 31
0.0
 70
   160
 71
     2
 42
-1.0
  3
SLDDIMSTYLE0
100
AcDbAlignedDimension
 13
101.0856855398
 23
120.2528612195
 33
0.0
 14
93.3856855398
 24
89.2528612195
 34
0.0
 50
90.0
100
AcDbRotatedDimension
  0
CIRCLE
  5
2C7
330
1F
100
AcDbEntity
  8
0
  6
Continuous
 62
     7
370
    30
100
AcDbCircle
 10
109.0856855398
 20
195.9941550191
 30
0.0
 40
16.03149290910423
  0
CIRCLE
  5
2C8
330
1F
100
AcDbEntity
  8
0
  6
Continuous
 62
     7
370
    30
100
AcDbCircle
 10
109.0856855398
 20
195.9941550191
 30
0.0
 40
4.576621499999987
  0
LINE
  5
2C9
330
1F
100
AcDbEntity
  8
0
  6
Continuous
 62
     7
370
    30
100
AcDbLine
 10
101.0856854056
 20
201.1176305856
 30
0.0
 11
101.0856854056
 21
190.8706794526
 31
0.0
  0
ARC
  5
2CA
330
1F
100
AcDbEntity
  8
0
  6
Continuous
 62
     7
370
    30
100
AcDbCircle
 10
109.0856855398
 20
195.9941550191
 30
0.0
 40
9.500000000000023
100
AcDbArc
 50
32.6368975036
 51
147.3631024964
  0
LINE
  5
2CB
330
1F
100
AcDbEntity
  8
0
  6
Continuous
 62
     7
370
    30
100
AcDbLine
 10
117.0856856999
 20
190.8706794526
 30
0.0
 11
117.0856856999
 21
201.1176305856
 31
0.0
  0
ARC
  5
2CC
330
1F
100
AcDbEntity
  8
0
  6
Continuous
 62
     7
370
    30
100
AcDbCircle
 10
109.0856855398
 20
195.9941550191
 30
0.0
 40
9.499999999999995
100
AcDbArc
 50
212.6368975036
 51
327.3631024964
  0
ARC
  5
2CD
330
1F
100
AcDbEntity
  8
0
  6
Continuous
 62
     7
370
    30
100
AcDbCircle
 10
109.0856855398
 20
195.9941550191
 30
0.0
 40
10.0
100
AcDbArc
 50
31.7883306171
 51
148.2116693829
  0
SPLINE
  5
2CE
330
1F
100
AcDbEntity
  8
0
  6
Continuous
 62
     7
370
    30
100
AcDbSpline
210
0.0
220
0.0
230
1.0
 70
     8
 71
     3
 72
     8
 73
     4
 74
     0
 42
0.00000001
 43
0.00000001
 40
0.0
 40
0.0
 40
0.0
 40
0.0
 40
0.0007216906218459
 40
0.0007216906218459
 40
0.0007216906218459
 40
0.0007216906218459
 10
117.0856855398015
 20
201.1176304020395
 30
0.0
 10
117.2522576928117
 20
201.1663977349217
 30
0.0
 10
117.4189280663338
 20
201.2144981386981
 30
0.0
 10
117.5856855398015
 20
201.2619818954861
 30
0.0
  0
SPLINE
  5
2CF
330
1F
100
AcDbEntity
  8
0
  6
Continuous
 62
     7
370
    30
100
AcDbSpline
210
0.0
220
0.0
230
1.0
 70
     8
 71
     3
 72
     8
 73
     4
 74
     0
 42
0.00000001
 43
0.00000001
 40
0.0
 40
0.0
 40
0.0
 40
0.0
 40
0.0007216906218459
 40
0.0007216906218459
 40
0.0007216906218459
 40
0.0007216906218459
 10
101.0856855398015
 20
201.1176304020395
 30
0.0
 10
100.9191133867913
 20
201.1663977349217
 30
0.0
 10
100.7524430132692
 20
201.2144981386981
 30
0.0
 10
100.5856855398015
 20
201.2619818954861
 30
0.0
  0
CIRCLE
  5
2D0
330
1F
100
AcDbEntity
  8
0
  6
Continuous
 62
     7
370
    30
100
AcDbCircle
 10
109.0856855398
 20
195.9941550191
 30
0.0
 40
4.342496842010178
  0
SPLINE
  5
2D1
330
1F
100
AcDbEntity
  8
0
  6
Continuous
 62
     7
370
    30
100
AcDbSpline
210
0.0
220
0.0
230
1.0
 70
     8
 71
     3
 72
     8
 73
     4
 74
     0
 42
0.00000001
 43
0.00000001
 40
0.0
 40
0.0
 40
0.0
 40
0.0
 40
0.0007216906218459
 40
0.0007216906218459
 40
0.0007216906218459
 40
0.0007216906218459
 10
101.0856855398015
 20
190.8706796360799
 30
0.0
 10
100.9191133867913
 20
190.8219123031978
 30
0.0
 10
100.7524430132692
 20
190.7738118994214
 30
0.0
 10
100.5856855398015
 20
190.7263281426333
 30
0.0
  0
LINE
  5
2D2
330
1F
100
AcDbEntity
  8
0
  6
Continuous
 62
     7
370
    30
100
AcDbLine
 10
100.5856853237
 20
190.7263281788
 30
0.0
 11
100.5856853237
 21
201.2619818593
 31
0.0
  0
LINE
  5
2D3
330
1F
100
AcDbEntity
  8
0
  6
Continuous
 62
     7
370
    30
100
AcDbLine
 10
117.5856857819
 20
201.2619818593
 30
0.0
 11
117.5856857819
 21
190.7263281788
 31
0.0
  0
SPLINE
  5
2D4
330
1F
100
AcDbEntity
  8
0
  6
Continuous
 62
     7
370
    30
100
AcDbSpline
210
0.0
220
0.0
230
1.0
 70
     8
 71
     3
 72
     8
 73
     4
 74
     0
 42
0.00000001
 43
0.00000001
 40
0.0
 40
0.0
 40
0.0
 40
0.0
 40
0.0007216906218459
 40
0.0007216906218459
 40
0.0007216906218459
 40
0.0007216906218459
 10
117.5856855398015
 20
190.7263281426333
 30
0.0
 10
117.4189280663338
 20
190.7738118994214
 30
0.0
 10
117.2522576928117
 20
190.8219123031978
 30
0.0
 10
117.0856855398015
 20
190.8706796360799
 30
0.0
  0
ARC
  5
2D5
330
1F
100
AcDbEntity
  8
0
  6
Continuous
 62
     7
370
    30
100
AcDbCircle
 10
109.0856855398
 20
195.9941550191
 30
0.0
 40
10.0
100
AcDbArc
 50
211.7883306171
 51
328.2116693829
  0
CIRCLE
  5
2D6
330
1F
100
AcDbEntity
  8
0
  6
Continuous
 62
     7
370
    30
100
AcDbCircle
 10
109.0856855398
 20
195.9941550191
 30
0.0
 40
3.949999999999989
  0
CIRCLE
  5
2D7
330
1F
100
AcDbEntity
  8
0
  6
Continuous
 62
     7
370
    30
100
AcDbCircle
 10
109.0856855398
 20
195.9941550191
 30
0.0
 40
2.0
  0
CIRCLE
  5
2D8
330
1F
100
AcDbEntity
  8
0
  6
Continuous
 62
     7
370
    30
100
AcDbCircle
 10
109.0856855398
 20
195.9941550191
 30
0.0
 40
12.0
  0
CIRCLE
  5
2D9
330
1F
100
AcDbEntity
  8
0
  6
Continuous
 62
     7
370
    30
100
AcDbCircle
 10
109.0856855398
 20
195.9941550191
 30
0.0
 40
15.22534338562994
  0
DIMENSION
  5
2DA
330
1F
100
AcDbEntity
  8
0
  6
Continuous
 62
     7
370
     0
100
AcDbDimension
  2
*D6
 10
117.5856855398
 20
220.2413542929
 30
0.0
 11
109.0856855398
 21
220.2413542929
 31
0.0
 70
   160
 71
     2
 42
-1.0
  3
SLDDIMSTYLE1
100
AcDbAlignedDimension
 13
100.5856855398
 23
201.2619818955
 33
0.0
 14
117.5856855398
 24
201.2619818955
 34
0.0
100
AcDbRotatedDimension
  0
DIMENSION
  5
2E6
330
1F
100
AcDbEntity
  8
0
  6
Continuous
 62
     7
370
     0
100
AcDbDimension
  2
*D7
 10
106.7979357172
 20
199.9579493003
 30
0.0
 11
133.2437403051
 21
172.2611095181
 31
0.0
 70
   163
  1
Rc 1/8
 71
     1
 42
-1.0
  3
SLDDIMSTYLE2
100
AcDbDiametricDimension
 15
111.3734353624
 25
192.0303607379
 35
0.0
 40
0.0
  0
ENDSEC
  0
SECTION
  2
OBJECTS
  0
DICTIONARY
  5
C
330
0
100
AcDbDictionary
281
     1
  3
ACAD_GROUP
350
D
  3
ACAD_LAYOUT
350
1A
  3
ACAD_MLINESTYLE
350
17
  3
ACAD_PLOTSETTINGS
350
19
  3
ACAD_PLOTSTYLENAME
350
E
  3
ACAD_SCALELIST
350
4D
  3
AcDbVariableDictionary
350
2EF
  0
DICTIONARY
  5
D
102
{ACAD_REACTORS
330
C
102
}
330
C
100
AcDbDictionary
281
     1
  0
DICTIONARY
  5
1A
102
{ACAD_REACTORS
330
C
102
}
330
C
100
AcDbDictionary
281
     1
  3
Layout1
350
1E
  3
Layout2
350
26
  3
Model
350
22
  0
DICTIONARY
  5
17
102
{ACAD_REACTORS
330
C
102
}
330
C
100
AcDbDictionary
281
     1
  3
Standard
350
18
  0
DICTIONARY
  5
19
102
{ACAD_REACTORS
330
C
102
}
330
C
100
AcDbDictionary
281
     1
  0
ACDBDICTIONARYWDFLT
  5
E
102
{ACAD_REACTORS
330
C
102
}
330
C
100
AcDbDictionary
281
     1
  3
Normal
350
F
100
AcDbDictionaryWithDefault
340
F
  0
DICTIONARY
  5
4D
102
{ACAD_REACTORS
330
C
102
}
330
C
100
AcDbDictionary
281
     1
  3
A0
350
4E
  3
A1
350
4F
  3
A2
350
50
  3
A3
350
51
  3
A4
350
52
  3
A5
350
53
  3
A6
350
54
  3
A7
350
55
  3
A8
350
56
  3
A9
350
57
  3
B0
350
58
  3
B1
350
59
  3
B2
350
5A
  3
B3
350
5B
  3
B4
350
5C
  3
B5
350
5D
  3
B6
350
5E
  3
B7
350
5F
  3
B8
350
60
  3
B9
350
61
  3
C0
350
62
  3
C1
350
63
  3
C2
350
64
  3
C3
350
65
  3
C4
350
66
  3
C5
350
67
  3
C6
350
68
  3
C7
350
69
  3
C8
350
6A
  3
C9
350
6B
  3
D0
350
6C
  3
D1
350
6D
  3
D2
350
6E
  0
DICTIONARY
  5
2EF
102
{ACAD_REACTORS
330
C
102
}
330
C
100
AcDbDictionary
281
     1
  3
CANNOSCALE
350
2F0
  0
LAYOUT
  5
1E
102
{ACAD_REACTORS
330
1A
102
}
330
1A
100
AcDbPlotSettings
  1

  2
none_device
  4

  6

 40
0.0
 41
0.0
 42
0.0
 43
0.0
 44
0.0
 45
0.0
 46
0.0
 47
0.0
 48
0.0
 49
0.0
140
0.0
141
0.0
142
1.0
143
1.0
 70
   688
 72
     0
 73
     0
 74
     5
  7

 75
    16
147
1.0
148
0.0
149
0.0
100
AcDbLayout
  1
Layout1
 70
     1
 71
     1
 10
0.0
 20
0.0
 11
420.0
 21
297.0
 12
0.0
 22
0.0
 32
0.0
 14
1.0000000000E+20
 24
1.0000000000E+20
 34
1.0000000000E+20
 15
-1.0000000000E+20
 25
-1.0000000000E+20
 35
-1.0000000000E+20
146
0.0
 13
0.0
 23
0.0
 33
0.0
 16
1.0
 26
0.0
 36
0.0
 17
0.0
 27
1.0
 37
0.0
 76
     0
330
1B
  0
LAYOUT
  5
26
102
{ACAD_REACTORS
330
1A
102
}
330
1A
100
AcDbPlotSettings
  1

  2
none_device
  4

  6

 40
0.0
 41
0.0
 42
0.0
 43
0.0
 44
0.0
 45
0.0
 46
0.0
 47
0.0
 48
0.0
 49
0.0
140
0.0
141
0.0
142
1.0
143
1.0
 70
   688
 72
     0
 73
     0
 74
     5
  7

 75
    16
147
1.0
148
0.0
149
0.0
100
AcDbLayout
  1
Layout2
 70
     1
 71
     2
 10
0.0
 20
0.0
 11
0.0
 21
0.0
 12
0.0
 22
0.0
 32
0.0
 14
0.0
 24
0.0
 34
0.0
 15
0.0
 25
0.0
 35
0.0
146
0.0
 13
0.0
 23
0.0
 33
0.0
 16
1.0
 26
0.0
 36
0.0
 17
0.0
 27
1.0
 37
0.0
 76
     0
330
23
  0
LAYOUT
  5
22
102
{ACAD_REACTORS
330
1A
102
}
330
1A
100
AcDbPlotSettings
  1

  2
none_device
  4

  6

 40
0.0
 41
0.0
 42
0.0
 43
0.0
 44
0.0
 45
0.0
 46
0.0
 47
0.0
 48
0.0
 49
0.0
140
0.0
141
0.0
142
1.0
143
1.0
 70
  1712
 72
     0
 73
     0
 74
     0
  7

 75
     0
147
1.0
148
0.0
149
0.0
100
AcDbLayout
  1
Model
 70
     1
 71
     0
 10
0.0
 20
0.0
 11
210.0
 21
297.0
 12
0.0
 22
0.0
 32
0.0
 14
0.0
 24
0.0
 34
0.0
 15
210.0
 25
297.0
 35
0.0
146
0.0
 13
0.0
 23
0.0
 33
0.0
 16
1.0
 26
0.0
 36
0.0
 17
0.0
 27
1.0
 37
0.0
 76
     0
330
1F
331
29
  0
MLINESTYLE
  5
18
102
{ACAD_REACTORS
330
17
102
}
330
17
100
AcDbMlineStyle
  2
Standard
 70
     0
  3

 62
   256
 51
90.0
 52
90.0
 71
     2
 49
0.5
 62
   256
  6
BYLAYER
 49
-0.5
 62
   256
  6
BYLAYER
  0
ACDBPLACEHOLDER
  5
F
102
{ACAD_REACTORS
330
E
102
}
330
E
  0
SCALE
  5
4E
102
{ACAD_REACTORS
330
4D
102
}
330
4D
100
AcDbScale
 70
     0
300
1:1
140
1.0
141
1.0
290
     1
  0
SCALE
  5
4F
102
{ACAD_REACTORS
330
4D
102
}
330
4D
100
AcDbScale
 70
     0
300
1:2
140
1.0
141
2.0
290
     0
  0
SCALE
  5
50
102
{ACAD_REACTORS
330
4D
102
}
330
4D
100
AcDbScale
 70
     0
300
1:4
140
1.0
141
4.0
290
     0
  0
SCALE
  5
51
102
{ACAD_REACTORS
330
4D
102
}
330
4D
100
AcDbScale
 70
     0
300
1:5
140
1.0
141
5.0
290
     0
  0
SCALE
  5
52
102
{ACAD_REACTORS
330
4D
102
}
330
4D
100
AcDbScale
 70
     0
300
1:8
140
1.0
141
8.0
290
     0
  0
SCALE
  5
53
102
{ACAD_REACTORS
330
4D
102
}
330
4D
100
AcDbScale
 70
     0
300
1:10
140
1.0
141
10.0
290
     0
  0
SCALE
  5
54
102
{ACAD_REACTORS
330
4D
102
}
330
4D
100
AcDbScale
 70
     0
300
1:16
140
1.0
141
16.0
290
     0
  0
SCALE
  5
55
102
{ACAD_REACTORS
330
4D
102
}
330
4D
100
AcDbScale
 70
     0
300
1:20
140
1.0
141
20.0
290
     0
  0
SCALE
  5
56
102
{ACAD_REACTORS
330
4D
102
}
330
4D
100
AcDbScale
 70
     0
300
1:30
140
1.0
141
30.0
290
     0
  0
SCALE
  5
57
102
{ACAD_REACTORS
330
4D
102
}
330
4D
100
AcDbScale
 70
     0
300
1:40
140
1.0
141
40.0
290
     0
  0
SCALE
  5
58
102
{ACAD_REACTORS
330
4D
102
}
330
4D
100
AcDbScale
 70
     0
300
1:50
140
1.0
141
50.0
290
     0
  0
SCALE
  5
59
102
{ACAD_REACTORS
330
4D
102
}
330
4D
100
AcDbScale
 70
     0
300
1:100
140
1.0
141
100.0
290
     0
  0
SCALE
  5
5A
102
{ACAD_REACTORS
330
4D
102
}
330
4D
100
AcDbScale
 70
     0
300
2:1
140
2.0
141
1.0
290
     0
  0
SCALE
  5
5B
102
{ACAD_REACTORS
330
4D
102
}
330
4D
100
AcDbScale
 70
     0
300
4:1
140
4.0
141
1.0
290
     0
  0
SCALE
  5
5C
102
{ACAD_REACTORS
330
4D
102
}
330
4D
100
AcDbScale
 70
     0
300
8:1
140
8.0
141
1.0
290
     0
  0
SCALE
  5
5D
102
{ACAD_REACTORS
330
4D
102
}
330
4D
100
AcDbScale
 70
     0
300
10:1
140
10.0
141
1.0
290
     0
  0
SCALE
  5
5E
102
{ACAD_REACTORS
330
4D
102
}
330
4D
100
AcDbScale
 70
     0
300
100:1
140
100.0
141
1.0
290
     0
  0
SCALE
  5
5F
102
{ACAD_REACTORS
330
4D
102
}
330
4D
100
AcDbScale
 70
     0
300
1/128" = 1'-0"
140
0.0078125
141
12.0
290
     0
  0
SCALE
  5
60
102
{ACAD_REACTORS
330
4D
102
}
330
4D
100
AcDbScale
 70
     0
300
1/64" = 1'-0"
140
0.015625
141
12.0
290
     0
  0
SCALE
  5
61
102
{ACAD_REACTORS
330
4D
102
}
330
4D
100
AcDbScale
 70
     0
300
1/32" = 1'-0"
140
0.03125
141
12.0
290
     0
  0
SCALE
  5
62
102
{ACAD_REACTORS
330
4D
102
}
330
4D
100
AcDbScale
 70
     0
300
1/16" = 1'-0"
140
0.0625
141
12.0
290
     0
  0
SCALE
  5
63
102
{ACAD_REACTORS
330
4D
102
}
330
4D
100
AcDbScale
 70
     0
300
3/32" = 1'-0"
140
0.09375
141
12.0
290
     0
  0
SCALE
  5
64
102
{ACAD_REACTORS
330
4D
102
}
330
4D
100
AcDbScale
 70
     0
300
1/8" = 1'-0"
140
0.125
141
12.0
290
     0
  0
SCALE
  5
65
102
{ACAD_REACTORS
330
4D
102
}
330
4D
100
AcDbScale
 70
     0
300
3/16" = 1'-0"
140
0.1875
141
12.0
290
     0
  0
SCALE
  5
66
102
{ACAD_REACTORS
330
4D
102
}
330
4D
100
AcDbScale
 70
     0
300
1/4" = 1'-0"
140
0.25
141
12.0
290
     0
  0
SCALE
  5
67
102
{ACAD_REACTORS
330
4D
102
}
330
4D
100
AcDbScale
 70
     0
300
3/8" = 1'-0"
140
0.375
141
12.0
290
     0
  0
SCALE
  5
68
102
{ACAD_REACTORS
330
4D
102
}
330
4D
100
AcDbScale
 70
     0
300
1/2" = 1'-0"
140
0.5
141
12.0
290
     0
  0
SCALE
  5
69
102
{ACAD_REACTORS
330
4D
102
}
330
4D
100
AcDbScale
 70
     0
300
3/4" = 1'-0"
140
0.75
141
12.0
290
     0
  0
SCALE
  5
6A
102
{ACAD_REACTORS
330
4D
102
}
330
4D
100
AcDbScale
 70
     0
300
1" = 1'-0"
140
1.0
141
12.0
290
     0
  0
SCALE
  5
6B
102
{ACAD_REACTORS
330
4D
102
}
330
4D
100
AcDbScale
 70
     0
300
1-1/2" = 1'-0"
140
1.5
141
12.0
290
     0
  0
SCALE
  5
6C
102
{ACAD_REACTORS
330
4D
102
}
330
4D
100
AcDbScale
 70
     0
300
3" = 1'-0"
140
3.0
141
12.0
290
     0
  0
SCALE
  5
6D
102
{ACAD_REACTORS
330
4D
102
}
330
4D
100
AcDbScale
 70
     0
300
6" = 1'-0"
140
6.0
141
12.0
290
     0
  0
SCALE
  5
6E
102
{ACAD_REACTORS
330
4D
102
}
330
4D
100
AcDbScale
 70
     0
300
1'-0" = 1'-0"
140
12.0
141
12.0
290
     0
  0
DICTIONARYVAR
  5
2F0
102
{ACAD_REACTORS
330
2EF
102
}
330
2EF
100
DictionaryVariables
280
     0
  1
1:1
  0
ENDSEC
  0
EOF
