  0
SECTION
  2
HEADER
  9
$ACADVER
  1
AC1015
  9
$ACADMAINTVER
 70
     6
  9
$DWGCODEPAGE
  3
DOS932
  9
$INSBASE
 10
0.0
 20
0.0
 30
0.0
  9
$EXTMIN
 10
0.0
 20
0.0
 30
0.0
  9
$EXTMAX
 10
210.0
 20
297.0
 30
0.0
  9
$LIMMIN
 10
0.0
 20
0.0
  9
$LIMMAX
 10
210.0
 20
297.0
  9
$ORTHOMODE
 70
     0
  9
$REGENMODE
 70
     1
  9
$FILLMODE
 70
     1
  9
$QTEXTMODE
 70
     0
  9
$MIRRTEXT
 70
     1
  9
$LTSCALE
 40
1.0
  9
$ATTMODE
 70
     1
  9
$TEXTSIZE
 40
3.5
  9
$TRACEWID
 40
1.0
  9
$TEXTSTYLE
  7
Standard
  9
$CLAYER
  8
0
  9
$CELTYPE
  6
ByLayer
  9
$CECOLOR
 62
   256
  9
$CELTSCALE
 40
1.0
  9
$DISPSILH
 70
     0
  9
$DIMSCALE
 40
1.0
  9
$DIMASZ
 40
3.0
  9
$DIMEXO
 40
1.0
  9
$DIMDLI
 40
3.75
  9
$DIMRND
 40
0.0
  9
$DIMDLE
 40
0.0
  9
$DIMEXE
 40
1.0
  9
$DIMTP
 40
0.0
  9
$DIMTM
 40
0.0
  9
$DIMTXT
 40
3.5
  9
$DIMCEN
 40
2.5
  9
$DIMTSZ
 40
0.0
  9
$DIMTOL
 70
     0
  9
$DIMLIM
 70
     0
  9
$DIMTIH
 70
     1
  9
$DIMTOH
 70
     1
  9
$DIMSE1
 70
     0
  9
$DIMSE2
 70
     0
  9
$DIMTAD
 70
     1
  9
$DIMZIN
 70
     0
  9
$DIMBLK
  1

  9
$DIMASO
 70
     1
  9
$DIMSHO
 70
     1
  9
$DIMPOST
  1

  9
$DIMAPOST
  1

  9
$DIMALT
 70
     0
  9
$DIMALTD
 70
     3
  9
$DIMALTF
 40
0.0393700787
  9
$DIMLFAC
 40
1.0
  9
$DIMTOFL
 70
     1
  9
$DIMTVP
 40
0.0
  9
$DIMTIX
 70
     0
  9
$DIMSOXD
 70
     0
  9
$DIMSAH
 70
     0
  9
$DIMBLK1
  1

  9
$DIMBLK2
  1

  9
$DIMSTYLE
  2
ISO-25
  9
$DIMCLRD
 70
     0
  9
$DIMCLRE
 70
     0
  9
$DIMCLRT
 70
     0
  9
$DIMTFAC
 40
1.0
  9
$DIMGAP
 40
1.524
  9
$DIMJUST
 70
     0
  9
$DIMSD1
 70
     0
  9
$DIMSD2
 70
     0
  9
$DIMTOLJ
 70
     0
  9
$DIMTZIN
 70
     0
  9
$DIMALTZ
 70
     0
  9
$DIMALTTZ
 70
     0
  9
$DIMUPT
 70
     0
  9
$DIMDEC
 70
     1
  9
$DIMTDEC
 70
     3
  9
$DIMALTU
 70
     2
  9
$DIMALTTD
 70
     3
  9
$DIMTXSTY
  7
Standard
  9
$DIMAUNIT
 70
     0
  9
$DIMADEC
 70
     2
  9
$DIMALTRND
 40
0.0
  9
$DIMAZIN
 70
     0
  9
$DIMDSEP
 70
    44
  9
$DIMATFIT
 70
     3
  9
$DIMFRAC
 70
     0
  9
$DIMLDRBLK
  1

  9
$DIMLUNIT
 70
     2
  9
$DIMLWD
 70
    -2
  9
$DIMLWE
 70
    -2
  9
$DIMTMOVE
 70
     0
  9
$LUNITS
 70
     2
  9
$LUPREC
 70
     1
  9
$SKETCHINC
 40
1.0
  9
$FILLETRAD
 40
10.0
  9
$AUNITS
 70
     0
  9
$AUPREC
 70
     2
  9
$MENU
  1
.
  9
$ELEVATION
 40
0.0
  9
$PELEVATION
 40
0.0
  9
$THICKNESS
 40
0.0
  9
$LIMCHECK
 70
     0
  9
$CHAMFERA
 40
10.0
  9
$CHAMFERB
 40
10.0
  9
$CHAMFERC
 40
20.0
  9
$CHAMFERD
 40
0.0
  9
$SKPOLY
 70
     0
  9
$TDCREATE
 40
2456561.859402153
  9
$TDUCREATE
 40
2456561.484402153
  9
$TDUPDATE
 40
2456561.859404502
  9
$TDUUPDATE
 40
2456561.484404502
  9
$TDINDWG
 40
0.0000000116
  9
$TDUSRTIMER
 40
0.0000000116
  9
$USRTIMER
 70
     1
  9
$ANGBASE
 50
0.0
  9
$ANGDIR
 70
     0
  9
$PDMODE
 70
     0
  9
$PDSIZE
 40
-1.0
  9
$PLINEWID
 40
0.0
  9
$SPLFRAME
 70
     0
  9
$SPLINETYPE
 70
     6
  9
$SPLINESEGS
 70
     8
  9
$HANDSEED
  5
2BA
  9
$SURFTAB1
 70
     6
  9
$SURFTAB2
 70
     6
  9
$SURFTYPE
 70
     6
  9
$SURFU
 70
     6
  9
$SURFV
 70
     6
  9
$UCSBASE
  2

  9
$UCSNAME
  2

  9
$UCSORG
 10
0.0
 20
0.0
 30
0.0
  9
$UCSXDIR
 10
1.0
 20
0.0
 30
0.0
  9
$UCSYDIR
 10
0.0
 20
1.0
 30
0.0
  9
$UCSORTHOREF
  2

  9
$UCSORTHOVIEW
 70
     0
  9
$UCSORGTOP
 10
0.0
 20
0.0
 30
0.0
  9
$UCSORGBOTTOM
 10
0.0
 20
0.0
 30
0.0
  9
$UCSORGLEFT
 10
0.0
 20
0.0
 30
0.0
  9
$UCSORGRIGHT
 10
0.0
 20
0.0
 30
0.0
  9
$UCSORGFRONT
 10
0.0
 20
0.0
 30
0.0
  9
$UCSORGBACK
 10
0.0
 20
0.0
 30
0.0
  9
$PUCSBASE
  2

  9
$PUCSNAME
  2

  9
$PUCSORG
 10
0.0
 20
0.0
 30
0.0
  9
$PUCSXDIR
 10
1.0
 20
0.0
 30
0.0
  9
$PUCSYDIR
 10
0.0
 20
1.0
 30
0.0
  9
$PUCSORTHOREF
  2

  9
$PUCSORTHOVIEW
 70
     0
  9
$PUCSORGTOP
 10
0.0
 20
0.0
 30
0.0
  9
$PUCSORGBOTTOM
 10
0.0
 20
0.0
 30
0.0
  9
$PUCSORGLEFT
 10
0.0
 20
0.0
 30
0.0
  9
$PUCSORGRIGHT
 10
0.0
 20
0.0
 30
0.0
  9
$PUCSORGFRONT
 10
0.0
 20
0.0
 30
0.0
  9
$PUCSORGBACK
 10
0.0
 20
0.0
 30
0.0
  9
$USERI1
 70
     0
  9
$USERI2
 70
     0
  9
$USERI3
 70
     0
  9
$USERI4
 70
     0
  9
$USERI5
 70
     0
  9
$USERR1
 40
0.0
  9
$USERR2
 40
0.0
  9
$USERR3
 40
0.0
  9
$USERR4
 40
0.0
  9
$USERR5
 40
0.0
  9
$WORLDVIEW
 70
     1
  9
$SHADEDGE
 70
     3
  9
$SHADEDIF
 70
    70
  9
$TILEMODE
 70
     1
  9
$MAXACTVP
 70
    64
  9
$PINSBASE
 10
0.0
 20
0.0
 30
0.0
  9
$PLIMCHECK
 70
     0
  9
$PEXTMIN
 10
1.0000000000E+20
 20
1.0000000000E+20
 30
1.0000000000E+20
  9
$PEXTMAX
 10
-1.0000000000E+20
 20
-1.0000000000E+20
 30
-1.0000000000E+20
  9
$PLIMMIN
 10
0.0
 20
0.0
  9
$PLIMMAX
 10
420.0
 20
297.0
  9
$UNITMODE
 70
     0
  9
$VISRETAIN
 70
     1
  9
$PLINEGEN
 70
     0
  9
$PSLTSCALE
 70
     1
  9
$TREEDEPTH
 70
  3020
  9
$CMLSTYLE
  2
Standard
  9
$CMLJUST
 70
     0
  9
$CMLSCALE
 40
20.0
  9
$PROXYGRAPHICS
 70
     1
  9
$MEASUREMENT
 70
     1
  9
$CELWEIGHT
370
    -1
  9
$ENDCAPS
280
     0
  9
$JOINSTYLE
280
     0
  9
$LWDISPLAY
290
     1
  9
$INSUNITS
 70
     4
  9
$HYPERLINKBASE
  1

  9
$STYLESHEET
  1

  9
$XEDIT
290
     1
  9
$CEPSNTYPE
380
     0
  9
$PSTYLEMODE
290
     1
  9
$FINGERPRINTGUID
  2
{A75FA3C1-D257-427F-B041-3974CA49E822}
  9
$VERSIONGUID
  2
{FAEB1C32-E019-11D5-929B-00C0DF256EC4}
  9
$EXTNAMES
290
     1
  9
$PSVPSCALE
 40
0.0
  9
$OLESTARTUP
290
     0
  0
ENDSEC
  0
SECTION
  2
CLASSES
  0
CLASS
  1
ACDBDICTIONARYWDFLT
  2
AcDbDictionaryWithDefault
  3
ObjectDBX Classes
 90
        0
280
     0
281
     0
  0
CLASS
  1
VISUALSTYLE
  2
AcDbVisualStyle
  3
ObjectDBX Classes
 90
     4095
280
     0
281
     0
  0
CLASS
  1
MATERIAL
  2
AcDbMaterial
  3
ObjectDBX Classes
 90
     1153
280
     0
281
     0
  0
CLASS
  1
ACDBPLACEHOLDER
  2
AcDbPlaceHolder
  3
ObjectDBX Classes
 90
        0
280
     0
281
     0
  0
CLASS
  1
LAYOUT
  2
AcDbLayout
  3
ObjectDBX Classes
 90
        0
280
     0
281
     0
  0
ENDSEC
  0
SECTION
  2
TABLES
  0
TABLE
  2
VPORT
  5
8
330
0
100
AcDbSymbolTable
 70
     1
  0
VPORT
  5
29
330
8
100
AcDbSymbolTableRecord
100
AcDbViewportTableRecord
  2
*Active
 70
     0
 10
0.0
 20
0.0
 11
1.0
 21
1.0
 12
105.0
 22
148.5
 13
0.0
 23
0.0
 14
10.0
 24
10.0
 15
10.0
 25
10.0
 16
0.0
 26
0.0
 36
1.0
 17
0.0
 27
0.0
 37
0.0
 40
297.0
 41
0.7070707071
 42
50.0
 43
0.0
 44
0.0
 50
0.0
 51
0.0
 71
     0
 72
  2000
 73
     1
 74
     3
 75
     0
 76
     0
 77
     0
 78
     0
281
     0
 65
     1
110
0.0
120
0.0
130
0.0
111
1.0
121
0.0
131
0.0
112
0.0
122
1.0
132
0.0
 79
     0
146
0.0
  0
ENDTAB
  0
TABLE
  2
LTYPE
  5
5
330
0
100
AcDbSymbolTable
 70
     6
  0
LTYPE
  5
14
330
5
100
AcDbSymbolTableRecord
100
AcDbLinetypeTableRecord
  2
ByBlock
 70
     0
  3

 72
    65
 73
     0
 40
0.0
  0
LTYPE
  5
15
330
5
100
AcDbSymbolTableRecord
100
AcDbLinetypeTableRecord
  2
ByLayer
 70
     0
  3

 72
    65
 73
     0
 40
0.0
  0
LTYPE
  5
16
330
5
100
AcDbSymbolTableRecord
100
AcDbLinetypeTableRecord
  2
Continuous
 70
     0
  3
Solid line
 72
    65
 73
     0
 40
0.0
  0
LTYPE
  5
3F
330
5
100
AcDbSymbolTableRecord
100
AcDbLinetypeTableRecord
  2
HIDDEN
 70
     0
  3
Hidden __ __ __ __ __ __ __ __ __ __ __ __ __ __
 72
    65
 73
     2
 40
1.905
 49
1.27
 74
     0
 49
-0.635
 74
     0
  0
LTYPE
  5
40
330
5
100
AcDbSymbolTableRecord
100
AcDbLinetypeTableRecord
  2
PHANTOM
 70
     0
  3
Phantom ______  __  __  ______  __  __  ______
 72
    65
 73
     6
 40
12.7
 49
6.35
 74
     0
 49
-1.27
 74
     0
 49
1.27
 74
     0
 49
-1.27
 74
     0
 49
1.27
 74
     0
 49
-1.27
 74
     0
  0
LTYPE
  5
41
330
5
100
AcDbSymbolTableRecord
100
AcDbLinetypeTableRecord
  2
CENTER
 70
     0
  3
Center ____ _ ____ _ ____ _ ____ _ ____ _ ____
 72
    65
 73
     4
 40
10.16
 49
6.35
 74
     0
 49
-1.27
 74
     0
 49
1.27
 74
     0
 49
-1.27
 74
     0
  0
LTYPE
  5
42
330
5
100
AcDbSymbolTableRecord
100
AcDbLinetypeTableRecord
  2
CENTERX2
 70
     0
  3
Center (2x) ________  __  ________  __  _____
 72
    65
 73
     4
 40
20.32
 49
12.7
 74
     0
 49
-2.54
 74
     0
 49
2.54
 74
     0
 49
-2.54
 74
     0
  0
LTYPE
  5
43
330
5
100
AcDbSymbolTableRecord
100
AcDbLinetypeTableRecord
  2
DOT2
 70
     0
  3
Dot (.5x) ........................................
 72
    65
 73
     2
 40
0.635
 49
0.0
 74
     0
 49
-0.635
 74
     0
  0
ENDTAB
  0
TABLE
  2
LAYER
  5
2
330
0
100
AcDbSymbolTable
 70
     1
  0
LAYER
  5
10
330
2
100
AcDbSymbolTableRecord
100
AcDbLayerTableRecord
  2
0
 70
     0
 62
     7
  6
Continuous
370
    -3
390
F
  0
ENDTAB
  0
TABLE
  2
STYLE
  5
3
330
0
100
AcDbSymbolTable
 70
     2
  0
STYLE
  5
11
330
3
100
AcDbSymbolTableRecord
100
AcDbTextStyleTableRecord
  2
Standard
 70
     0
 40
0.0
 41
1.0
 50
0.0
 71
     0
 42
3.5
  3
txt
  4
bigfont
  0
STYLE
  5
4C
330
3
100
AcDbSymbolTableRecord
100
AcDbTextStyleTableRecord
  2
SLDTEXTSTYLE0
 70
     0
 40
0.0
 41
0.7
 50
0.0
 71
     0
 42
0.2
  3
TXT
  4
bigfont
  0
ENDTAB
  0
TABLE
  2
VIEW
  5
6
330
0
100
AcDbSymbolTable
 70
     0
  0
ENDTAB
  0
TABLE
  2
UCS
  5
7
330
0
100
AcDbSymbolTable
 70
     0
  0
ENDTAB
  0
TABLE
  2
APPID
  5
9
330
0
100
AcDbSymbolTable
 70
     1
  0
APPID
  5
12
330
9
100
AcDbSymbolTableRecord
100
AcDbRegAppTableRecord
  2
ACAD
 70
     0
  0
ENDTAB
  0
TABLE
  2
DIMSTYLE
  5
A
330
0
100
AcDbSymbolTable
 70
     4
100
AcDbDimStyleTable
  0
DIMSTYLE
105
27
330
A
100
AcDbSymbolTableRecord
100
AcDbDimStyleTableRecord
  2
ISO-25
 70
     0
 41
2.5
 42
0.625
 43
3.75
 44
1.25
 73
     0
 74
     0
 77
     1
 78
     8
140
2.5
141
2.5
143
0.0393700787
147
0.625
171
     3
172
     1
178
     0
271
     2
272
     2
274
     3
278
    44
283
     0
284
     8
340
11
  0
DIMSTYLE
105
19D
102
{ACAD_REACTORS
330
19C
330
1B5
330
1C2
330
1EE
330
207
102
}
330
A
100
AcDbSymbolTableRecord
100
AcDbDimStyleTableRecord
  2
SLDDIMSTYLE0
 70
     0
 41
3.0
 44
0.0
 45
0.000000001
 73
     0
 74
     0
 77
     3
 78
    12
 79
     3
140
3.5
147
0.875
172
     1
173
     1
178
     0
271
     1
272
     3
276
     2
284
    12
289
     0
340
4C
  0
DIMSTYLE
105
1AB
102
{ACAD_REACTORS
330
1AA
330
1CE
330
1DA
330
1E4
330
1FB
102
}
330
A
100
AcDbSymbolTableRecord
100
AcDbDimStyleTableRecord
  2
SLDDIMSTYLE1
 70
     0
 41
3.0
 44
0.0
 45
0.000000001
 73
     0
 74
     0
 77
     3
 78
    12
 79
     3
140
3.5
147
0.875
173
     1
178
     0
271
     1
272
     3
276
     2
284
    12
340
4C
  0
DIMSTYLE
105
21E
330
A
100
AcDbSymbolTableRecord
100
AcDbDimStyleTableRecord
  2
SLDDIMSTYLE2
 70
     0
 41
3.0
 44
0.0
 45
0.000000001
140
0.0
146
3.0
147
0.0
173
     1
178
     0
271
     0
272
     0
276
     2
340
11
341
21F
343
21F
344
21F
  0
ENDTAB
  0
TABLE
  2
BLOCK_RECORD
  5
1
330
0
100
AcDbSymbolTable
 70
    16
  0
BLOCK_RECORD
  5
1F
330
1
100
AcDbSymbolTableRecord
100
AcDbBlockTableRecord
  2
*Model_Space
340
22
  0
BLOCK_RECORD
  5
1B
330
1
100
AcDbSymbolTableRecord
100
AcDbBlockTableRecord
  2
*Paper_Space
340
1E
  0
BLOCK_RECORD
  5
23
330
1
100
AcDbSymbolTableRecord
100
AcDbBlockTableRecord
  2
*Paper_Space0
340
26
  0
BLOCK_RECORD
  5
19E
330
1
100
AcDbSymbolTableRecord
100
AcDbBlockTableRecord
  2
_D
340
0
  0
BLOCK_RECORD
  5
1AC
330
1
100
AcDbSymbolTableRecord
100
AcDbBlockTableRecord
  2
_D_1
340
0
  0
BLOCK_RECORD
  5
1B6
330
1
100
AcDbSymbolTableRecord
100
AcDbBlockTableRecord
  2
_D_2
340
0
  0
BLOCK_RECORD
  5
1C3
330
1
100
AcDbSymbolTableRecord
100
AcDbBlockTableRecord
  2
_D_3
340
0
  0
BLOCK_RECORD
  5
1CF
330
1
100
AcDbSymbolTableRecord
100
AcDbBlockTableRecord
  2
_D_4
340
0
  0
BLOCK_RECORD
  5
1DB
330
1
100
AcDbSymbolTableRecord
100
AcDbBlockTableRecord
  2
_D_5
340
0
  0
BLOCK_RECORD
  5
1E5
330
1
100
AcDbSymbolTableRecord
100
AcDbBlockTableRecord
  2
_D_6
340
0
  0
BLOCK_RECORD
  5
1EF
330
1
100
AcDbSymbolTableRecord
100
AcDbBlockTableRecord
  2
_D_7
340
0
  0
BLOCK_RECORD
  5
1FC
330
1
100
AcDbSymbolTableRecord
100
AcDbBlockTableRecord
  2
_D_8
340
0
  0
BLOCK_RECORD
  5
208
330
1
100
AcDbSymbolTableRecord
100
AcDbBlockTableRecord
  2
_D_9
340
0
  0
BLOCK_RECORD
  5
213
330
1
100
AcDbSymbolTableRecord
100
AcDbBlockTableRecord
  2
SW_NOTE_0
340
0
102
{BLKREFS
331
21D
102
}
  0
BLOCK_RECORD
  5
21F
330
1
100
AcDbSymbolTableRecord
100
AcDbBlockTableRecord
  2
_OPEN30
340
0
102
{BLKREFS
331
23D
102
}
  0
BLOCK_RECORD
  5
226
330
1
100
AcDbSymbolTableRecord
100
AcDbBlockTableRecord
  2
SW_NOTE_1
340
0
102
{BLKREFS
331
230
102
}
  0
BLOCK_RECORD
  5
232
330
1
100
AcDbSymbolTableRecord
100
AcDbBlockTableRecord
  2
SW_NOTE_2
340
0
102
{BLKREFS
331
23C
102
}
  0
BLOCK_RECORD
  5
2AE
330
1
100
AcDbSymbolTableRecord
100
AcDbBlockTableRecord
  2
SW_NOTE_3
340
0
102
{BLKREFS
331
2B8
102
}
  0
ENDTAB
  0
ENDSEC
  0
SECTION
  2
BLOCKS
  0
BLOCK
  5
20
330
1F
100
AcDbEntity
  8
0
100
AcDbBlockBegin
  2
*Model_Space
 70
     0
 10
0.0
 20
0.0
 30
0.0
  3
*Model_Space
  1

  0
ENDBLK
  5
21
330
1F
100
AcDbEntity
  8
0
100
AcDbBlockEnd
  0
BLOCK
  5
1C
330
1B
100
AcDbEntity
 67
     1
  8
0
100
AcDbBlockBegin
  2
*Paper_Space
 70
     0
 10
0.0
 20
0.0
 30
0.0
  3
*Paper_Space
  1

  0
ENDBLK
  5
1D
330
1B
100
AcDbEntity
 67
     1
  8
0
100
AcDbBlockEnd
  0
BLOCK
  5
24
330
23
100
AcDbEntity
  8
0
100
AcDbBlockBegin
  2
*Paper_Space0
 70
     0
 10
0.0
 20
0.0
 30
0.0
  3
*Paper_Space0
  1

  0
ENDBLK
  5
25
330
23
100
AcDbEntity
  8
0
100
AcDbBlockEnd
  0
BLOCK
  5
19F
330
19E
100
AcDbEntity
  8
0
100
AcDbBlockBegin
  2
_D
 70
     0
 10
0.0
 20
0.0
 30
0.0
  3
_D
  1

  0
SOLID
  5
1A1
330
19E
100
AcDbEntity
  8
0
  6
Continuous
 62
     7
370
     0
100
AcDbTrace
 10
107.0182056602
 20
169.6296632989
 30
0.0
 11
110.0182056602
 21
168.8796632989
 31
0.0
 12
110.0182056602
 22
170.3796632989
 32
0.0
 13
110.0182056602
 23
170.3796632989
 33
0.0
  0
SOLID
  5
1A2
330
19E
100
AcDbEntity
  8
0
  6
Continuous
 62
     7
370
     0
100
AcDbTrace
 10
96.0182056602
 20
169.6296632989
 30
0.0
 11
93.0182056602
 21
170.3796632989
 31
0.0
 12
93.0182056602
 22
168.8796632989
 32
0.0
 13
93.0182056602
 23
168.8796632989
 33
0.0
  0
LINE
  5
1A3
330
19E
100
AcDbEntity
  8
0
  6
Continuous
 62
     7
370
     0
100
AcDbLine
 10
107.0182056602
 20
156.8055765216
 30
0.0
 11
107.0182056602
 21
170.6296632989
 31
0.0
  0
LINE
  5
1A4
330
19E
100
AcDbEntity
  8
0
  6
Continuous
 62
     7
370
     0
100
AcDbLine
 10
96.0182056602
 20
156.8055765216
 30
0.0
 11
96.0182056602
 21
170.6296632989
 31
0.0
  0
LINE
  5
1A5
330
19E
100
AcDbEntity
  8
0
  6
Continuous
 62
     7
370
     0
100
AcDbLine
 10
107.0182056602
 20
169.6296632989
 30
0.0
 11
112.0182056602
 21
169.6296632989
 31
0.0
  0
LINE
  5
1A6
330
19E
100
AcDbEntity
  8
0
  6
Continuous
 62
     7
370
     0
100
AcDbLine
 10
107.0182056602
 20
169.6296632989
 30
0.0
 11
96.0182056602
 21
169.6296632989
 31
0.0
  0
LINE
  5
1A7
330
19E
100
AcDbEntity
  8
0
  6
Continuous
 62
     7
370
     0
100
AcDbLine
 10
96.0182056602
 20
169.6296632989
 30
0.0
 11
91.0182056602
 21
169.6296632989
 31
0.0
  0
MTEXT
  5
1A8
330
19E
100
AcDbEntity
  8
0
  6
Continuous
 62
     7
370
     0
100
AcDbMText
 10
96.5280321565
 20
174.141400621
 30
0.0999999997
 40
3.5
 41
0.0
 71
     1
 72
     1
  1
%%c
  7
SLDTEXTSTYLE0
 73
     1
 44
1.0
  0
MTEXT
  5
1A9
330
19E
100
AcDbEntity
  8
0
  6
Continuous
 62
     7
370
     0
100
AcDbMText
 10
100.3979626715
 20
174.141400621
 30
0.0999999997
 40
3.5
 41
0.0
 71
     1
 72
     1
  1
11
  7
SLDTEXTSTYLE0
 73
     1
 44
1.0
  0
ENDBLK
  5
1A0
330
19E
100
AcDbEntity
  8
0
100
AcDbBlockEnd
  0
BLOCK
  5
1AD
330
1AC
100
AcDbEntity
  8
0
100
AcDbBlockBegin
  2
_D_1
 70
     0
 10
0.0
 20
0.0
 30
0.0
  3
_D_1
  1

  0
SOLID
  5
1AF
330
1AC
100
AcDbEntity
  8
0
  6
Continuous
 62
     7
370
     0
100
AcDbTrace
 10
124.1906304791
 20
155.8055765216
 30
0.0
 11
123.4406304791
 21
152.8055765216
 31
0.0
 12
124.9406304791
 22
152.8055765216
 32
0.0
 13
124.9406304791
 23
152.8055765216
 33
0.0
  0
SOLID
  5
1B0
330
1AC
100
AcDbEntity
  8
0
  6
Continuous
 62
     7
370
     0
100
AcDbTrace
 10
124.1906304791
 20
146.8055765216
 30
0.0
 11
124.9406304791
 21
149.8055765216
 31
0.0
 12
123.4406304791
 22
149.8055765216
 32
0.0
 13
123.4406304791
 23
149.8055765216
 33
0.0
  0
LINE
  5
1B1
330
1AC
100
AcDbEntity
  8
0
  6
Continuous
 62
     7
370
     0
100
AcDbLine
 10
108.0182056602
 20
155.8055765216
 30
0.0
 11
125.1906304791
 21
155.8055765216
 31
0.0
  0
LINE
  5
1B2
330
1AC
100
AcDbEntity
  8
0
  6
Continuous
 62
     7
370
     0
100
AcDbLine
 10
108.5182056602
 20
146.8055765216
 30
0.0
 11
125.1906304791
 21
146.8055765216
 31
0.0
  0
LINE
  5
1B3
330
1AC
100
AcDbEntity
  8
0
  6
Continuous
 62
     7
370
     0
100
AcDbLine
 10
124.1906304791
 20
155.8055765216
 30
0.0
 11
124.1906304791
 21
146.8055765216
 31
0.0
  0
MTEXT
  5
1B4
330
1AC
100
AcDbEntity
  8
0
  6
Continuous
 62
     7
370
     0
100
AcDbMText
 10
119.6788936228
 20
149.2687710241
 30
0.0999999997
 40
3.5
 41
0.0
 71
     1
 72
     1
  1
9
  7
SLDTEXTSTYLE0
 11
-1.059690869644414E-14
 21
1.0
 31
0.0
 73
     1
 44
1.0
  0
ENDBLK
  5
1AE
330
1AC
100
AcDbEntity
  8
0
100
AcDbBlockEnd
  0
BLOCK
  5
1B7
330
1B6
100
AcDbEntity
  8
0
100
AcDbBlockBegin
  2
_D_2
 70
     0
 10
0.0
 20
0.0
 30
0.0
  3
_D_2
  1

  0
SOLID
  5
1B9
330
1B6
100
AcDbEntity
  8
0
  6
Continuous
 62
     7
370
     0
100
AcDbTrace
 10
72.4468115634
 20
137.8055765216
 30
0.0
 11
73.1968115634
 21
140.8055765216
 31
0.0
 12
71.6968115634
 22
140.8055765216
 32
0.0
 13
71.6968115634
 23
140.8055765216
 33
0.0
  0
SOLID
  5
1BA
330
1B6
100
AcDbEntity
  8
0
  6
Continuous
 62
     7
370
     0
100
AcDbTrace
 10
72.4468115634
 20
132.8055765216
 30
0.0
 11
71.6968115634
 21
129.8055765216
 31
0.0
 12
73.1968115634
 22
129.8055765216
 32
0.0
 13
73.1968115634
 23
129.8055765216
 33
0.0
  0
LINE
  5
1BB
330
1B6
100
AcDbEntity
  8
0
  6
Continuous
 62
     7
370
     0
100
AcDbLine
 10
100.518205661
 20
137.8055765216
 30
0.0
 11
71.4468115634
 21
137.8055765216
 31
0.0
  0
LINE
  5
1BC
330
1B6
100
AcDbEntity
  8
0
  6
Continuous
 62
     7
370
     0
100
AcDbLine
 10
98.7682056601
 20
132.8055765216
 30
0.0
 11
71.4468115634
 21
132.8055765216
 31
0.0
  0
LINE
  5
1BD
330
1B6
100
AcDbEntity
  8
0
  6
Continuous
 62
     7
370
     0
100
AcDbLine
 10
72.4468115634
 20
137.8055765216
 30
0.0
 11
72.4468115634
 21
149.8492593411
 31
0.0
  0
LINE
  5
1BE
330
1B6
100
AcDbEntity
  8
0
  6
Continuous
 62
     7
370
     0
100
AcDbLine
 10
72.4468115634
 20
137.8055765216
 30
0.0
 11
72.4468115634
 21
132.8055765216
 31
0.0
  0
LINE
  5
1BF
330
1B6
100
AcDbEntity
  8
0
  6
Continuous
 62
     7
370
     0
100
AcDbLine
 10
72.4468115634
 20
132.8055765216
 30
0.0
 11
72.4468115634
 21
127.8055765216
 31
0.0
  0
MTEXT
  5
1C0
330
1B6
100
AcDbEntity
  8
0
  6
Continuous
 62
     7
370
     0
100
AcDbMText
 10
67.935074707
 20
141.7020373511
 30
0.0999999997
 40
3.5
 41
0.0
 71
     1
 72
     1
  1
5
  7
SLDTEXTSTYLE0
 11
-1.059690869644414E-14
 21
1.0
 31
0.0
 73
     1
 44
1.0
  0
MTEXT
  5
1C1
330
1B6
100
AcDbEntity
  8
0
  6
Continuous
 62
     7
370
     0
100
AcDbMText
 10
67.935074707
 20
145.7756483461
 30
0.0999999997
 40
3.5
 41
0.0
 71
     1
 72
     1
  1
st
  7
SLDTEXTSTYLE0
 11
-1.059690869644414E-14
 21
1.0
 31
0.0
 73
     1
 44
1.0
  0
ENDBLK
  5
1B8
330
1B6
100
AcDbEntity
  8
0
100
AcDbBlockEnd
  0
BLOCK
  5
1C4
330
1C3
100
AcDbEntity
  8
0
100
AcDbBlockBegin
  2
_D_3
 70
     0
 10
0.0
 20
0.0
 30
0.0
  3
_D_3
  1

  0
SOLID
  5
1C6
330
1C3
100
AcDbEntity
  8
0
  6
Continuous
 62
     7
370
     0
100
AcDbTrace
 10
124.1906304791
 20
132.8055765216
 30
0.0
 11
124.9406304791
 21
135.8055765216
 31
0.0
 12
123.4406304791
 22
135.8055765216
 32
0.0
 13
123.4406304791
 23
135.8055765216
 33
0.0
  0
SOLID
  5
1C7
330
1C3
100
AcDbEntity
  8
0
  6
Continuous
 62
     7
370
     0
100
AcDbTrace
 10
124.1906304791
 20
126.8055765216
 30
0.0
 11
123.4406304791
 21
123.8055765216
 31
0.0
 12
124.9406304791
 22
123.8055765216
 32
0.0
 13
124.9406304791
 23
123.8055765216
 33
0.0
  0
LINE
  5
1C8
330
1C3
100
AcDbEntity
  8
0
  6
Continuous
 62
     7
370
     0
100
AcDbLine
 10
104.5182056588
 20
132.8055765216
 30
0.0
 11
125.1906304791
 21
132.8055765216
 31
0.0
  0
LINE
  5
1C9
330
1C3
100
AcDbEntity
  8
0
  6
Continuous
 62
     7
370
     0
100
AcDbLine
 10
112.3331602364
 20
126.8055765216
 30
0.0
 11
125.1906304791
 21
126.8055765216
 31
0.0
  0
LINE
  5
1CA
330
1C3
100
AcDbEntity
  8
0
  6
Continuous
 62
     7
370
     0
100
AcDbLine
 10
124.1906304791
 20
132.8055765216
 30
0.0
 11
124.1906304791
 21
137.8055765216
 31
0.0
  0
LINE
  5
1CB
330
1C3
100
AcDbEntity
  8
0
  6
Continuous
 62
     7
370
     0
100
AcDbLine
 10
124.1906304791
 20
132.8055765216
 30
0.0
 11
124.1906304791
 21
126.8055765216
 31
0.0
  0
LINE
  5
1CC
330
1C3
100
AcDbEntity
  8
0
  6
Continuous
 62
     7
370
     0
100
AcDbLine
 10
124.1906304791
 20
126.8055765216
 30
0.0
 11
124.1906304791
 21
121.8055765216
 31
0.0
  0
MTEXT
  5
1CD
330
1C3
100
AcDbEntity
  8
0
  6
Continuous
 62
     7
370
     0
100
AcDbMText
 10
119.6788936228
 20
127.7687710241
 30
0.0999999997
 40
3.5
 41
0.0
 71
     1
 72
     1
  1
6
  7
SLDTEXTSTYLE0
 11
-1.059690869644414E-14
 21
1.0
 31
0.0
 73
     1
 44
1.0
  0
ENDBLK
  5
1C5
330
1C3
100
AcDbEntity
  8
0
100
AcDbBlockEnd
  0
BLOCK
  5
1D0
330
1CF
100
AcDbEntity
  8
0
100
AcDbBlockBegin
  2
_D_4
 70
     0
 10
0.0
 20
0.0
 30
0.0
  3
_D_4
  1

  0
SOLID
  5
1D2
330
1CF
100
AcDbEntity
  8
0
  6
Continuous
 62
     7
370
     0
100
AcDbTrace
 10
124.1906304791
 20
126.8055765216
 30
0.0
 11
124.9406304791
 21
129.8055765216
 31
0.0
 12
123.4406304791
 22
129.8055765216
 32
0.0
 13
123.4406304791
 23
129.8055765216
 33
0.0
  0
SOLID
  5
1D3
330
1CF
100
AcDbEntity
  8
0
  6
Continuous
 62
     7
370
     0
100
AcDbTrace
 10
124.1906304791
 20
111.8055765216
 30
0.0
 11
123.4406304791
 21
108.8055765216
 31
0.0
 12
124.9406304791
 22
108.8055765216
 32
0.0
 13
124.9406304791
 23
108.8055765216
 33
0.0
  0
LINE
  5
1D4
330
1CF
100
AcDbEntity
  8
0
  6
Continuous
 62
     7
370
     0
100
AcDbLine
 10
112.3331602364
 20
126.8055765216
 30
0.0
 11
125.1906304791
 21
126.8055765216
 31
0.0
  0
LINE
  5
1D5
330
1CF
100
AcDbEntity
  8
0
  6
Continuous
 62
     7
370
     0
100
AcDbLine
 10
107.5182056602
 20
111.8055765216
 30
0.0
 11
125.1906304791
 21
111.8055765216
 31
0.0
  0
LINE
  5
1D6
330
1CF
100
AcDbEntity
  8
0
  6
Continuous
 62
     7
370
     0
100
AcDbLine
 10
124.1906304791
 20
126.8055765216
 30
0.0
 11
124.1906304791
 21
131.8055765216
 31
0.0
  0
LINE
  5
1D7
330
1CF
100
AcDbEntity
  8
0
  6
Continuous
 62
     7
370
     0
100
AcDbLine
 10
124.1906304791
 20
126.8055765216
 30
0.0
 11
124.1906304791
 21
111.8055765216
 31
0.0
  0
LINE
  5
1D8
330
1CF
100
AcDbEntity
  8
0
  6
Continuous
 62
     7
370
     0
100
AcDbLine
 10
124.1906304791
 20
111.8055765216
 30
0.0
 11
124.1906304791
 21
106.8055765216
 31
0.0
  0
MTEXT
  5
1D9
330
1CF
100
AcDbEntity
  8
0
  6
Continuous
 62
     7
370
     0
100
AcDbMText
 10
119.6788936228
 20
116.2503681589
 30
0.0999999997
 40
3.5
 41
0.0
 71
     1
 72
     1
  1
15
  7
SLDTEXTSTYLE0
 11
-1.059690869644414E-14
 21
1.0
 31
0.0
 73
     1
 44
1.0
  0
ENDBLK
  5
1D1
330
1CF
100
AcDbEntity
  8
0
100
AcDbBlockEnd
  0
BLOCK
  5
1DC
330
1DB
100
AcDbEntity
  8
0
100
AcDbBlockBegin
  2
_D_5
 70
     0
 10
0.0
 20
0.0
 30
0.0
  3
_D_5
  1

  0
SOLID
  5
1DE
330
1DB
100
AcDbEntity
  8
0
  6
Continuous
 62
     7
370
     0
100
AcDbTrace
 10
132.543400768
 20
126.8055765216
 30
0.0
 11
131.793400768
 21
123.8055765216
 31
0.0
 12
133.293400768
 22
123.8055765216
 32
0.0
 13
133.293400768
 23
123.8055765216
 33
0.0
  0
SOLID
  5
1DF
330
1DB
100
AcDbEntity
  8
0
  6
Continuous
 62
     7
370
     0
100
AcDbTrace
 10
132.543400768
 20
109.8055765216
 30
0.0
 11
133.293400768
 21
112.8055765216
 31
0.0
 12
131.793400768
 22
112.8055765216
 32
0.0
 13
131.793400768
 23
112.8055765216
 33
0.0
  0
LINE
  5
1E0
330
1DB
100
AcDbEntity
  8
0
  6
Continuous
 62
     7
370
     0
100
AcDbLine
 10
112.3331602352
 20
126.8055765216
 30
0.0
 11
133.543400768
 21
126.8055765216
 31
0.0
  0
LINE
  5
1E1
330
1DB
100
AcDbEntity
  8
0
  6
Continuous
 62
     7
370
     0
100
AcDbLine
 10
105.0182056602
 20
109.8055765216
 30
0.0
 11
133.543400768
 21
109.8055765216
 31
0.0
  0
LINE
  5
1E2
330
1DB
100
AcDbEntity
  8
0
  6
Continuous
 62
     7
370
     0
100
AcDbLine
 10
132.543400768
 20
126.8055765216
 30
0.0
 11
132.543400768
 21
109.8055765216
 31
0.0
  0
MTEXT
  5
1E3
330
1DB
100
AcDbEntity
  8
0
  6
Continuous
 62
     7
370
     0
100
AcDbMText
 10
128.0316639116
 20
115.2503681589
 30
0.0999999997
 40
3.5
 41
0.0
 71
     1
 72
     1
  1
17
  7
SLDTEXTSTYLE0
 11
-1.059690869644414E-14
 21
1.0
 31
0.0
 73
     1
 44
1.0
  0
ENDBLK
  5
1DD
330
1DB
100
AcDbEntity
  8
0
100
AcDbBlockEnd
  0
BLOCK
  5
1E6
330
1E5
100
AcDbEntity
  8
0
100
AcDbBlockBegin
  2
_D_6
 70
     0
 10
0.0
 20
0.0
 30
0.0
  3
_D_6
  1

  0
SOLID
  5
1E8
330
1E5
100
AcDbEntity
  8
0
  6
Continuous
 62
     7
370
     0
100
AcDbTrace
 10
142.2064095336
 20
109.8055765216
 30
0.0
 11
142.9564095336
 21
112.8055765216
 31
0.0
 12
141.4564095336
 22
112.8055765216
 32
0.0
 13
141.4564095336
 23
112.8055765216
 33
0.0
  0
SOLID
  5
1E9
330
1E5
100
AcDbEntity
  8
0
  6
Continuous
 62
     7
370
     0
100
AcDbTrace
 10
142.2064095336
 20
155.8055765216
 30
0.0
 11
141.4564095336
 21
152.8055765216
 31
0.0
 12
142.9564095336
 22
152.8055765216
 32
0.0
 13
142.9564095336
 23
152.8055765216
 33
0.0
  0
LINE
  5
1EA
330
1E5
100
AcDbEntity
  8
0
  6
Continuous
 62
     7
370
     0
100
AcDbLine
 10
105.0182056602
 20
109.8055765216
 30
0.0
 11
143.2064095336
 21
109.8055765216
 31
0.0
  0
LINE
  5
1EB
330
1E5
100
AcDbEntity
  8
0
  6
Continuous
 62
     7
370
     0
100
AcDbLine
 10
108.0182056602
 20
155.8055765216
 30
0.0
 11
143.2064095336
 21
155.8055765216
 31
0.0
  0
LINE
  5
1EC
330
1E5
100
AcDbEntity
  8
0
  6
Continuous
 62
     7
370
     0
100
AcDbLine
 10
142.2064095336
 20
109.8055765216
 30
0.0
 11
142.2064095336
 21
155.8055765216
 31
0.0
  0
MTEXT
  5
1ED
330
1E5
100
AcDbEntity
  8
0
  6
Continuous
 62
     7
370
     0
100
AcDbMText
 10
137.6946726772
 20
129.7503681589
 30
0.0999999997
 40
3.5
 41
0.0
 71
     1
 72
     1
  1
46
  7
SLDTEXTSTYLE0
 11
-3.491481338843133E-15
 21
1.0
 31
0.0
 73
     1
 44
1.0
  0
ENDBLK
  5
1E7
330
1E5
100
AcDbEntity
  8
0
100
AcDbBlockEnd
  0
BLOCK
  5
1F0
330
1EF
100
AcDbEntity
  8
0
100
AcDbBlockBegin
  2
_D_7
 70
     0
 10
0.0
 20
0.0
 30
0.0
  3
_D_7
  1

  0
SOLID
  5
1F2
330
1EF
100
AcDbEntity
  8
0
  6
Continuous
 62
     7
370
     0
100
AcDbTrace
 10
98.5182056602
 20
102.433952426
 30
0.0
 11
95.5182056602
 21
103.183952426
 31
0.0
 12
95.5182056602
 22
101.683952426
 32
0.0
 13
95.5182056602
 23
101.683952426
 33
0.0
  0
SOLID
  5
1F3
330
1EF
100
AcDbEntity
  8
0
  6
Continuous
 62
     7
370
     0
100
AcDbTrace
 10
104.5182056602
 20
102.433952426
 30
0.0
 11
107.5182056602
 21
101.683952426
 31
0.0
 12
107.5182056602
 22
103.183952426
 32
0.0
 13
107.5182056602
 23
103.183952426
 33
0.0
  0
LINE
  5
1F4
330
1EF
100
AcDbEntity
  8
0
  6
Continuous
 62
     7
370
     0
100
AcDbLine
 10
98.5182056602
 20
109.3055765216
 30
0.0
 11
98.5182056602
 21
101.433952426
 31
0.0
  0
LINE
  5
1F5
330
1EF
100
AcDbEntity
  8
0
  6
Continuous
 62
     7
370
     0
100
AcDbLine
 10
104.5182056602
 20
109.3055765216
 30
0.0
 11
104.5182056602
 21
101.433952426
 31
0.0
  0
LINE
  5
1F6
330
1EF
100
AcDbEntity
  8
0
  6
Continuous
 62
     7
370
     0
100
AcDbLine
 10
98.5182056602
 20
102.433952426
 30
0.0
 11
93.5182056602
 21
102.433952426
 31
0.0
  0
LINE
  5
1F7
330
1EF
100
AcDbEntity
  8
0
  6
Continuous
 62
     7
370
     0
100
AcDbLine
 10
98.5182056602
 20
102.433952426
 30
0.0
 11
104.5182056602
 21
102.433952426
 31
0.0
  0
LINE
  5
1F8
330
1EF
100
AcDbEntity
  8
0
  6
Continuous
 62
     7
370
     0
100
AcDbLine
 10
104.5182056602
 20
102.433952426
 30
0.0
 11
118.0751245208
 21
102.433952426
 31
0.0
  0
MTEXT
  5
1F9
330
1EF
100
AcDbEntity
  8
0
  6
Continuous
 62
     7
370
     0
100
AcDbMText
 10
110.1315827779
 20
106.9456897481
 30
0.0999999997
 40
3.5
 41
0.0
 71
     1
 72
     1
  1
%%c
  7
SLDTEXTSTYLE0
 73
     1
 44
1.0
  0
MTEXT
  5
1FA
330
1EF
100
AcDbEntity
  8
0
  6
Continuous
 62
     7
370
     0
100
AcDbMText
 10
114.001513293
 20
106.9456897481
 30
0.0999999997
 40
3.5
 41
0.0
 71
     1
 72
     1
  1
6
  7
SLDTEXTSTYLE0
 73
     1
 44
1.0
  0
ENDBLK
  5
1F1
330
1EF
100
AcDbEntity
  8
0
100
AcDbBlockEnd
  0
BLOCK
  5
1FD
330
1FC
100
AcDbEntity
  8
0
100
AcDbBlockBegin
  2
_D_8
 70
     0
 10
0.0
 20
0.0
 30
0.0
  3
_D_8
  1

  0
SOLID
  5
1FF
330
1FC
100
AcDbEntity
  8
0
  6
Continuous
 62
     7
370
     0
100
AcDbTrace
 10
91.703251084
 20
92.8762317625
 30
0.0
 11
88.703251084
 21
93.6262317625
 31
0.0
 12
88.703251084
 22
92.1262317625
 32
0.0
 13
88.703251084
 23
92.1262317625
 33
0.0
  0
SOLID
  5
200
330
1FC
100
AcDbEntity
  8
0
  6
Continuous
 62
     7
370
     0
100
AcDbTrace
 10
111.3331602364
 20
92.8762317625
 30
0.0
 11
114.3331602364
 21
92.1262317625
 31
0.0
 12
114.3331602364
 22
93.6262317625
 32
0.0
 13
114.3331602364
 23
93.6262317625
 33
0.0
  0
LINE
  5
201
330
1FC
100
AcDbEntity
  8
0
  6
Continuous
 62
     7
370
     0
100
AcDbLine
 10
91.703251084
 20
113.6298411046
 30
0.0
 11
91.703251084
 21
91.8762317625
 31
0.0
  0
LINE
  5
202
330
1FC
100
AcDbEntity
  8
0
  6
Continuous
 62
     7
370
     0
100
AcDbLine
 10
111.3331602364
 20
113.6298411046
 30
0.0
 11
111.3331602364
 21
91.8762317625
 31
0.0
  0
LINE
  5
203
330
1FC
100
AcDbEntity
  8
0
  6
Continuous
 62
     7
370
     0
100
AcDbLine
 10
91.703251084
 20
92.8762317625
 30
0.0
 11
86.703251084
 21
92.8762317625
 31
0.0
  0
LINE
  5
204
330
1FC
100
AcDbEntity
  8
0
  6
Continuous
 62
     7
370
     0
100
AcDbLine
 10
91.703251084
 20
92.8762317625
 30
0.0
 11
111.3331602364
 21
92.8762317625
 31
0.0
  0
LINE
  5
205
330
1FC
100
AcDbEntity
  8
0
  6
Continuous
 62
     7
370
     0
100
AcDbLine
 10
111.3331602364
 20
92.8762317625
 30
0.0
 11
116.3331602364
 21
92.8762317625
 31
0.0
  0
MTEXT
  5
206
330
1FC
100
AcDbEntity
  8
0
  6
Continuous
 62
     7
370
     0
100
AcDbMText
 10
96.4261920329
 20
97.3879686189
 30
0.0999999997
 40
3.5
 41
0.0
 71
     1
 72
     1
  1
19.6
  7
SLDTEXTSTYLE0
 73
     1
 44
1.0
  0
ENDBLK
  5
1FE
330
1FC
100
AcDbEntity
  8
0
100
AcDbBlockEnd
  0
BLOCK
  5
209
330
208
100
AcDbEntity
  8
0
100
AcDbBlockBegin
  2
_D_9
 70
     0
 10
0.0
 20
0.0
 30
0.0
  3
_D_9
  1

  0
SOLID
  5
20B
330
208
100
AcDbEntity
  8
0
  6
Continuous
 62
     7
370
     0
100
AcDbTrace
 10
81.596308909
 20
126.8055765216
 30
0.0
 11
80.846308909
 21
123.8055765216
 31
0.0
 12
82.346308909
 22
123.8055765216
 32
0.0
 13
82.346308909
 23
123.8055765216
 33
0.0
  0
SOLID
  5
20C
330
208
100
AcDbEntity
  8
0
  6
Continuous
 62
     7
370
     0
100
AcDbTrace
 10
81.596308909
 20
129.8055765216
 30
0.0
 11
82.346308909
 21
132.8055765216
 31
0.0
 12
80.846308909
 22
132.8055765216
 32
0.0
 13
80.846308909
 23
132.8055765216
 33
0.0
  0
LINE
  5
20D
330
208
100
AcDbEntity
  8
0
  6
Continuous
 62
     7
370
     0
100
AcDbLine
 10
90.703251084
 20
126.8055765216
 30
0.0
 11
80.596308909
 21
126.8055765216
 31
0.0
  0
LINE
  5
20E
330
208
100
AcDbEntity
  8
0
  6
Continuous
 62
     7
370
     0
100
AcDbLine
 10
90.703251084
 20
129.8055765216
 30
0.0
 11
80.596308909
 21
129.8055765216
 31
0.0
  0
LINE
  5
20F
330
208
100
AcDbEntity
  8
0
  6
Continuous
 62
     7
370
     0
100
AcDbLine
 10
81.596308909
 20
126.8055765216
 30
0.0
 11
81.596308909
 21
117.2687710241
 31
0.0
  0
LINE
  5
210
330
208
100
AcDbEntity
  8
0
  6
Continuous
 62
     7
370
     0
100
AcDbLine
 10
81.596308909
 20
126.8055765216
 30
0.0
 11
81.596308909
 21
129.8055765216
 31
0.0
  0
LINE
  5
211
330
208
100
AcDbEntity
  8
0
  6
Continuous
 62
     7
370
     0
100
AcDbLine
 10
81.596308909
 20
129.8055765216
 30
0.0
 11
81.596308909
 21
134.8055765216
 31
0.0
  0
MTEXT
  5
212
330
208
100
AcDbEntity
  8
0
  6
Continuous
 62
     7
370
     0
100
AcDbMText
 10
77.0845720526
 20
117.2687710241
 30
0.0999999997
 40
3.5
 41
0.0
 71
     1
 72
     1
  1
3
  7
SLDTEXTSTYLE0
 11
-3.491481338843133E-15
 21
1.0
 31
0.0
 73
     1
 44
1.0
  0
ENDBLK
  5
20A
330
208
100
AcDbEntity
  8
0
100
AcDbBlockEnd
  0
BLOCK
  5
214
330
213
100
AcDbEntity
  8
0
100
AcDbBlockBegin
  2
SW_NOTE_0
 70
     0
 10
0.0
 20
0.0
 30
0.0
  3
SW_NOTE_0
  1

  0
LINE
  5
216
330
213
100
AcDbEntity
  8
0
  6
Continuous
 62
     0
370
     0
100
AcDbLine
 10
-4.0332147094
 20
0.0038552788
 30
0.0
 11
0.0
 21
0.0038552788
 31
0.0
  0
LINE
  5
217
330
213
100
AcDbEntity
  8
0
  6
Continuous
 62
     0
370
     0
100
AcDbLine
 10
0.0
 20
0.0038552788
 30
0.0
 11
-4.0332147094
 21
0.0038552788
 31
0.0
  0
LINE
  5
218
330
213
100
AcDbEntity
  8
0
  6
Continuous
 62
     0
370
     0
100
AcDbLine
 10
-4.0332147094
 20
0.0038552788
 30
0.0
 11
0.0
 21
0.0038552788
 31
0.0
  0
LINE
  5
219
330
213
100
AcDbEntity
  8
0
  6
Continuous
 62
     0
370
     0
100
AcDbLine
 10
0.0
 20
0.0038552788
 30
0.0
 11
-4.0332147094
 21
0.0038552788
 31
0.0
  0
LINE
  5
21A
330
213
100
AcDbEntity
  8
0
  6
Continuous
 62
     0
370
     0
100
AcDbLine
 10
-4.0332147094
 20
0.0038552788
 30
0.0
 11
0.0
 21
0.0038552788
 31
0.0
  0
LINE
  5
21B
330
213
100
AcDbEntity
  8
0
  6
Continuous
 62
     0
370
     0
100
AcDbLine
 10
0.0
 20
0.0038552788
 30
0.0
 11
-4.0332147094
 21
0.0038552788
 31
0.0
  0
MTEXT
  5
21C
330
213
100
AcDbEntity
  8
0
  6
Continuous
 62
     0
370
     0
100
AcDbMText
 10
-4.0285290187
 20
4.5281878995
 30
0.0
 40
3.5
 41
0.0
 71
     1
 72
     1
  1
PF
  7
SLDTEXTSTYLE0
 73
     1
 44
1.0
  0
ENDBLK
  5
215
330
213
100
AcDbEntity
  8
0
100
AcDbBlockEnd
  0
BLOCK
  5
220
330
21F
100
AcDbEntity
  8
0
100
AcDbBlockBegin
  2
_OPEN30
 70
     0
 10
0.0
 20
0.0
 30
0.0
  3
_OPEN30
  1

  0
LINE
  5
222
330
21F
100
AcDbEntity
  8
0
  6
ByBlock
 62
     0
370
    -2
100
AcDbLine
 10
-1.0
 20
0.267949
 30
0.0
 11
0.0
 21
0.0
 31
0.0
  0
LINE
  5
223
330
21F
100
AcDbEntity
  8
0
  6
ByBlock
 62
     0
370
    -2
100
AcDbLine
 10
0.0
 20
0.0
 30
0.0
 11
-1.0
 21
-0.267949
 31
0.0
  0
LINE
  5
224
330
21F
100
AcDbEntity
  8
0
  6
ByBlock
 62
     0
370
    -2
100
AcDbLine
 10
0.0
 20
0.0
 30
0.0
 11
-1.0
 21
0.0
 31
0.0
  0
ENDBLK
  5
221
330
21F
100
AcDbEntity
  8
0
100
AcDbBlockEnd
  0
BLOCK
  5
227
330
226
100
AcDbEntity
  8
0
100
AcDbBlockBegin
  2
SW_NOTE_1
 70
     0
 10
0.0
 20
0.0
 30
0.0
  3
SW_NOTE_1
  1

  0
LINE
  5
229
330
226
100
AcDbEntity
  8
0
  6
Continuous
 62
     0
370
     0
100
AcDbLine
 10
0.0
 20
0.0038552788
 30
0.0
 11
8.1850533808
 21
0.0038552788
 31
0.0
  0
LINE
  5
22A
330
226
100
AcDbEntity
  8
0
  6
Continuous
 62
     0
370
     0
100
AcDbLine
 10
8.1850533808
 20
0.0038552788
 30
0.0
 11
0.0
 21
0.0038552788
 31
0.0
  0
LINE
  5
22B
330
226
100
AcDbEntity
  8
0
  6
Continuous
 62
     0
370
     0
100
AcDbLine
 10
0.0
 20
0.0038552788
 30
0.0
 11
8.1850533808
 21
0.0038552788
 31
0.0
  0
LINE
  5
22C
330
226
100
AcDbEntity
  8
0
  6
Continuous
 62
     0
370
     0
100
AcDbLine
 10
8.1850533808
 20
0.0038552788
 30
0.0
 11
0.0
 21
0.0038552788
 31
0.0
  0
LINE
  5
22D
330
226
100
AcDbEntity
  8
0
  6
Continuous
 62
     0
370
     0
100
AcDbLine
 10
0.0
 20
0.0038552788
 30
0.0
 11
8.1850533808
 21
0.0038552788
 31
0.0
  0
LINE
  5
22E
330
226
100
AcDbEntity
  8
0
  6
Continuous
 62
     0
370
     0
100
AcDbLine
 10
8.1850533808
 20
0.0038552788
 30
0.0
 11
0.0
 21
0.0038552788
 31
0.0
  0
MTEXT
  5
22F
330
226
100
AcDbEntity
  8
0
  6
Continuous
 62
     0
370
     0
100
AcDbMText
 10
0.1137339249
 20
4.6296199527
 30
0.0
 40
3.5
 41
0.0
 71
     1
 72
     1
  1
BF-6
  7
SLDTEXTSTYLE0
 73
     1
 44
1.0
  0
ENDBLK
  5
228
330
226
100
AcDbEntity
  8
0
100
AcDbBlockEnd
  0
BLOCK
  5
233
330
232
100
AcDbEntity
  8
0
100
AcDbBlockBegin
  2
SW_NOTE_2
 70
     0
 10
0.0
 20
0.0
 30
0.0
  3
SW_NOTE_2
  1

  0
LINE
  5
235
330
232
100
AcDbEntity
  8
0
  6
Continuous
 62
     0
370
     0
100
AcDbLine
 10
-0.0314447648
 20
-0.042824065
 30
0.0
 11
18.2366453894
 21
-0.042824065
 31
0.0
  0
LINE
  5
236
330
232
100
AcDbEntity
  8
0
  6
Continuous
 62
     0
370
     0
100
AcDbLine
 10
18.2366453894
 20
-0.042824065
 30
0.0
 11
-0.0314447648
 21
-0.042824065
 31
0.0
  0
LINE
  5
237
330
232
100
AcDbEntity
  8
0
  6
Continuous
 62
     0
370
     0
100
AcDbLine
 10
-0.0314447648
 20
-0.042824065
 30
0.0
 11
18.2366453894
 21
-0.042824065
 31
0.0
  0
LINE
  5
238
330
232
100
AcDbEntity
  8
0
  6
Continuous
 62
     0
370
     0
100
AcDbLine
 10
18.2366453894
 20
-0.042824065
 30
0.0
 11
-0.0314447648
 21
-0.042824065
 31
0.0
  0
LINE
  5
239
330
232
100
AcDbEntity
  8
0
  6
Continuous
 62
     0
370
     0
100
AcDbLine
 10
-0.0314447648
 20
-0.042824065
 30
0.0
 11
18.2366453894
 21
-0.042824065
 31
0.0
  0
LINE
  5
23A
330
232
100
AcDbEntity
  8
0
  6
Continuous
 62
     0
370
     0
100
AcDbLine
 10
18.2366453894
 20
-0.042824065
 30
0.0
 11
-0.0314447648
 21
-0.042824065
 31
0.0
  0
MTEXT
  5
23B
330
232
100
AcDbEntity
  8
0
  6
Continuous
 62
     0
370
     0
100
AcDbMText
 10
0.0
 20
4.5117370892
 30
0.0
 40
3.5
 41
0.0
 71
     1
 72
     1
  1
M12 P=1.0
  7
SLDTEXTSTYLE0
 73
     1
 44
1.0
  0
ENDBLK
  5
234
330
232
100
AcDbEntity
  8
0
100
AcDbBlockEnd
  0
BLOCK
  5
2AF
330
2AE
100
AcDbEntity
  8
0
100
AcDbBlockBegin
  2
SW_NOTE_3
 70
     0
 10
0.0
 20
0.0
 30
0.0
  3
SW_NOTE_3
  1

  0
LINE
  5
2B1
330
2AE
100
AcDbEntity
  8
0
  6
Continuous
 62
     0
370
     0
100
AcDbLine
 10
0.0
 20
0.0038552788
 30
0.0
 11
4.1518386714
 21
0.0038552788
 31
0.0
  0
LINE
  5
2B2
330
2AE
100
AcDbEntity
  8
0
  6
Continuous
 62
     0
370
     0
100
AcDbLine
 10
4.1518386714
 20
0.0038552788
 30
0.0
 11
0.0
 21
0.0038552788
 31
0.0
  0
LINE
  5
2B3
330
2AE
100
AcDbEntity
  8
0
  6
Continuous
 62
     0
370
     0
100
AcDbLine
 10
0.0
 20
0.0038552788
 30
0.0
 11
4.1518386714
 21
0.0038552788
 31
0.0
  0
LINE
  5
2B4
330
2AE
100
AcDbEntity
  8
0
  6
Continuous
 62
     0
370
     0
100
AcDbLine
 10
4.1518386714
 20
0.0038552788
 30
0.0
 11
0.0
 21
0.0038552788
 31
0.0
  0
LINE
  5
2B5
330
2AE
100
AcDbEntity
  8
0
  6
Continuous
 62
     0
370
     0
100
AcDbLine
 10
0.0
 20
0.0038552788
 30
0.0
 11
4.1518386714
 21
0.0038552788
 31
0.0
  0
LINE
  5
2B6
330
2AE
100
AcDbEntity
  8
0
  6
Continuous
 62
     0
370
     0
100
AcDbLine
 10
4.1518386714
 20
0.0038552788
 30
0.0
 11
0.0
 21
0.0038552788
 31
0.0
  0
MTEXT
  5
2B7
330
2AE
100
AcDbEntity
  8
0
  6
Continuous
 62
     0
370
     0
100
AcDbMText
 10
0.0909597186
 20
4.599712266
 30
0.0
 40
3.5
 41
0.0
 71
     1
 72
     1
  1
M5
  7
SLDTEXTSTYLE0
 73
     1
 44
1.0
  0
ENDBLK
  5
2B0
330
2AE
100
AcDbEntity
  8
0
100
AcDbBlockEnd
  0
ENDSEC
  0
SECTION
  2
ENTITIES
  0
LINE
  5
44
330
1F
100
AcDbEntity
  8
0
  6
Continuous
 62
     7
370
     0
100
AcDbLine
 10
20.2604743903
 20
285.0
 30
0.0
 11
196.7604743903
 21
285.0
 31
0.0
  0
LINE
  5
45
330
1F
100
AcDbEntity
  8
0
  6
Continuous
 62
     7
370
     0
100
AcDbLine
 10
20.2604743903
 20
285.0
 30
0.0
 11
20.2604743903
 21
10.0
 31
0.0
  0
LINE
  5
46
330
1F
100
AcDbEntity
  8
0
  6
Continuous
 62
     7
370
     0
100
AcDbLine
 10
20.2604743903
 20
10.0
 30
0.0
 11
196.7604743903
 21
10.0
 31
0.0
  0
LINE
  5
47
330
1F
100
AcDbEntity
  8
0
  6
Continuous
 62
     7
370
     0
100
AcDbLine
 10
196.7604743903
 20
285.0
 30
0.0
 11
196.7604743903
 21
10.0
 31
0.0
  0
LINE
  5
48
330
1F
100
AcDbEntity
  8
0
  6
Continuous
 62
     7
370
     0
100
AcDbLine
 10
127.0104743903
 20
50.75
 30
0.0
 11
196.7604743903
 21
50.75
 31
0.0
  0
LINE
  5
49
330
1F
100
AcDbEntity
  8
0
  6
Continuous
 62
     7
370
     0
100
AcDbLine
 10
127.0104743903
 20
50.75
 30
0.0
 11
127.0104743903
 21
10.0
 31
0.0
  0
LINE
  5
4A
330
1F
100
AcDbEntity
  8
0
  6
Continuous
 62
     7
370
     0
100
AcDbLine
 10
127.0104743903
 20
22.75
 30
0.0
 11
196.7604743903
 21
22.75
 31
0.0
  0
LINE
  5
4B
330
1F
100
AcDbEntity
  8
0
  6
Continuous
 62
     7
370
     0
100
AcDbLine
 10
127.0104743903
 20
36.75
 30
0.0
 11
196.7604743903
 21
36.75
 31
0.0
  0
MTEXT
  5
4D
330
1F
100
AcDbEntity
  8
0
  6
Continuous
 62
     7
370
     0
100
AcDbMText
 10
162.0143327702
 20
30.4171582345
 30
0.0
 40
4.2333333333
 41
0.0
 71
     2
 72
     1
  1
VFIL-S-5A
  7
SLDTEXTSTYLE0
 73
     1
 44
1.0
  0
MTEXT
  5
4E
330
1F
100
AcDbEntity
  8
0
  6
Continuous
 62
     7
370
     0
100
AcDbMText
 10
159.9011939813
 20
43.9409718514
 30
0.0
 40
4.2333333333
 41
0.0
 71
     2
 72
     1
  1
吸着金具・スモール用(M5)
  7
SLDTEXTSTYLE0
 73
     1
 44
1.0
  0
MTEXT
  5
4F
330
1F
100
AcDbEntity
  8
0
  6
Continuous
 62
     7
370
     0
100
AcDbMText
 10
162.5824557417
 20
16.8228189052
 30
0.0
 40
4.2333333333
 41
0.0
 71
     2
 72
     1
  1
210974
  7
SLDTEXTSTYLE0
 73
     1
 44
1.0
  0
LINE
  5
50
330
1F
100
AcDbEntity
  8
0
  6
Continuous
 62
     7
370
     0
100
AcDbLine
 10
108.3182057504
 20
146.805576909
 30
0.0
 11
107.5182057124
 21
146.805576909
 31
0.0
  0
LINE
  5
51
330
1F
100
AcDbEntity
  8
0
  6
Continuous
 62
     7
370
     0
100
AcDbLine
 10
95.5182056081
 20
146.805576909
 30
0.0
 11
94.7182055701
 21
146.805576909
 31
0.0
  0
LINE
  5
52
330
1F
100
AcDbEntity
  8
0
  6
Continuous
 62
     7
370
     0
100
AcDbLine
 10
94.7182055701
 20
138.8055755977
 30
0.0
 11
95.5182056081
 21
138.8055755977
 31
0.0
  0
LINE
  5
53
330
1F
100
AcDbEntity
  8
0
  6
Continuous
 62
     7
370
     0
100
AcDbLine
 10
107.5182057124
 20
138.8055755977
 30
0.0
 11
108.3182057504
 21
138.8055755977
 31
0.0
  0
LINE
  5
54
330
1F
100
AcDbEntity
  8
0
  6
Continuous
 62
     7
370
     0
100
AcDbLine
 10
115.8182055827
 20
144.8055765812
 30
0.0
 11
113.3182061043
 21
145.1555769179
 31
0.0
  0
LINE
  5
55
330
1F
100
AcDbEntity
  8
0
  6
Continuous
 62
     7
370
     0
100
AcDbLine
 10
118.3182050612
 20
144.8055765812
 30
0.0
 11
115.8182055827
 21
145.1555769179
 31
0.0
  0
LINE
  5
56
330
1F
100
AcDbEntity
  8
0
  6
Continuous
 62
     7
370
     0
100
AcDbLine
 10
113.3182061043
 20
144.9055764113
 30
0.0
 11
110.8182056945
 21
144.9055764113
 31
0.0
  0
LINE
  5
57
330
1F
100
AcDbEntity
  8
0
  6
Continuous
 62
     7
370
     0
100
AcDbLine
 10
110.8182056945
 20
140.7055760954
 30
0.0
 11
113.3182061043
 21
140.7055760954
 31
0.0
  0
LINE
  5
58
330
1F
100
AcDbEntity
  8
0
  6
Continuous
 62
     7
370
     0
100
AcDbLine
 10
115.8182055827
 20
140.4555765201
 30
0.0
 11
118.3182050612
 21
140.8055768568
 31
0.0
  0
LINE
  5
59
330
1F
100
AcDbEntity
  8
0
  6
Continuous
 62
     7
370
     0
100
AcDbLine
 10
113.3182061043
 20
140.4555765201
 30
0.0
 11
115.8182055827
 21
140.8055768568
 31
0.0
  0
LINE
  5
5A
330
1F
100
AcDbEntity
  8
0
  6
Continuous
 62
     7
370
     0
100
AcDbLine
 10
97.7895679556
 20
111.7055750672
 30
0.0
 11
97.7895679556
 21
111.1055760865
 31
0.0
  0
SPLINE
  5
5B
330
1F
100
AcDbEntity
  8
0
  6
Continuous
 62
     7
370
     0
100
AcDbSpline
210
0.0
220
0.0
230
1.0
 70
     8
 71
     3
 72
    18
 73
    14
 74
     0
 42
0.00000001
 43
0.00000001
 12
1.0
 22
0.0
 32
0.0
 13
1.0
 23
0.0
 33
0.0
 40
0.0
 40
0.0
 40
0.0
 40
0.0
 40
0.0761704329187949
 40
0.1420506166809694
 40
0.2230229912464227
 40
0.2920660187085194
 40
0.3622219759283219
 40
0.4340565621373829
 40
0.5661550091536569
 40
0.7038778919338701
 40
0.8410927062906862
 40
0.9425537129922384
 40
1.0
 40
1.0
 40
1.0
 40
1.0
 10
95.51847196631763
 20
137.1429841254278
 30
0.0
 10
95.53037906851394
 20
137.0556041594193
 30
0.0
 10
95.55258468222856
 20
136.8926488290971
 30
0.0
 10
95.7078030002819
 20
136.7039648364185
 30
0.0
 10
95.88309129581069
 20
136.5975708627525
 30
0.0
 10
96.01030268935101
 20
136.5487442250093
 30
0.0
 10
96.16704087427479
 20
136.4986453117606
 30
0.0
 10
96.39348897317414
 20
136.4426766324707
 30
0.0
 10
96.72784883143716
 20
136.3788736359059
 30
0.0
 10
97.19874843380359
 20
136.3088258168094
 30
0.0
 10
97.71443525966977
 20
136.2443377924728
 30
0.0
 10
98.16045596861885
 20
136.1939654445214
 30
0.0
 10
98.42321580362918
 20
136.167035608294
 30
0.0
 10
98.51820563413833
 20
136.157300252132
 30
0.0
  0
SPLINE
  5
5C
330
1F
100
AcDbEntity
  8
0
  6
Continuous
 62
     7
370
     0
100
AcDbSpline
210
0.0
220
0.0
230
1.0
 70
     8
 71
     3
 72
    15
 73
    11
 74
     0
 42
0.00000001
 43
0.00000001
 12
1.0
 22
0.0
 32
0.0
 13
1.0
 23
0.0
 33
0.0
 40
0.0
 40
0.0
 40
0.0
 40
0.0
 40
0.0809644278413441
 40
0.1500721635955142
 40
0.2081218364755634
 40
0.2574423883775914
 40
0.446657517066242
 40
0.635830722339468
 40
0.8287329782676871
 40
0.9999999999999999
 40
0.9999999999999999
 40
0.9999999999999999
 40
0.9999999999999999
 10
95.5189907129917
 20
134.1425645385309
 30
0.0
 10
95.53212389304169
 20
134.0506493764206
 30
0.0
 10
95.55646698787405
 20
133.8802794051516
 30
0.0
 10
95.70453199659715
 20
133.7109220629342
 30
0.0
 10
95.84755941301442
 20
133.6174486610702
 30
0.0
 10
96.03193881322576
 20
133.535073757246
 30
0.0
 10
96.35961863720185
 20
133.4439392585253
 30
0.0
 10
96.94598704215403
 20
133.3426612379762
 30
0.0
 10
97.65745761038329
 20
133.2483933450079
 30
0.0
 10
98.24288296614279
 20
133.1867667383885
 30
0.0
 10
98.51820563413833
 20
133.1577840481325
 30
0.0
  0
SPLINE
  5
5D
330
1F
100
AcDbEntity
  8
0
  6
Continuous
 62
     7
370
     0
100
AcDbSpline
210
0.0
220
0.0
230
1.0
 70
     8
 71
     3
 72
    17
 73
    13
 74
     0
 42
0.00000001
 43
0.00000001
 12
1.0
 22
0.0
 32
0.0
 13
1.0
 23
0.0
 33
0.0
 40
0.0
 40
0.0
 40
0.0
 40
0.0
 40
0.0734473079630965
 40
0.13805281694754
 40
0.2405259762799242
 40
0.3209221621264157
 40
0.3985383932787164
 40
0.4998785111281936
 40
0.6247936238749152
 40
0.7731311752002803
 40
0.9145202398951028
 40
1.0
 40
1.0
 40
1.0
 40
1.0
 10
95.51969758682583
 20
131.142331216149
 30
0.0
 10
95.52414659450244
 20
131.0862137773754
 30
0.0
 10
95.53250902546704
 20
130.9807344791218
 30
0.0
 10
95.61048321178396
 20
130.8170988995356
 30
0.0
 10
95.73981952814569
 20
130.6812437567578
 30
0.0
 10
95.87213457118234
 20
130.605809334178
 30
0.0
 10
95.95527070979624
 20
130.5702917059966
 30
0.0
 10
96.08454327311041
 20
130.5245936606022
 30
0.0
 10
96.26675127290596
 20
130.4756682328409
 30
0.0
 10
96.51296345616744
 20
130.423291517142
 30
0.0
 10
96.76643043001955
 20
130.3776604282653
 30
0.0
 10
96.94930301948098
 20
130.3508317673024
 30
0.0
 10
97.01820585393045
 20
130.3407232497259
 30
0.0
  0
SPLINE
  5
5E
330
1F
100
AcDbEntity
  8
0
  6
Continuous
 62
     7
370
     0
100
AcDbSpline
210
0.0
220
0.0
230
1.0
 70
     8
 71
     3
 72
    35
 73
    31
 74
     0
 42
0.00000001
 43
0.00000001
 12
1.0
 22
0.0
 32
0.0
 13
1.0
 23
0.0
 33
0.0
 40
0.0
 40
0.0
 40
0.0
 40
0.0
 40
0.0284537311297269
 40
0.0523621620869403
 40
0.0719768670235438
 40
0.0916730841895811
 40
0.1153320954845117
 40
0.1430047215404482
 40
0.1747191983381291
 40
0.2104793223712709
 40
0.250275313594757
 40
0.2926034907353548
 40
0.3324434845370405
 40
0.3693538845690972
 40
0.4139353112388922
 40
0.4532269201588922
 40
0.4880067053272886
 40
0.524519524855958
 40
0.5640907905016422
 40
0.6067313684837423
 40
0.6405550557957487
 40
0.6739184056252123
 40
0.7376660155126414
 40
0.7975813781435321
 40
0.8562450162608373
 40
0.9173539635777815
 40
0.9336522145129706
 40
0.9528417904306463
 40
0.9756948869663113
 40
1.0
 40
1.0
 40
1.0
 40
1.0
 10
96.51928144954775
 20
131.1407237533852
 30
0.0
 10
96.50563377595539
 20
131.0564414292201
 30
0.0
 10
96.48051855667204
 20
130.9013403390018
 30
0.0
 10
96.37745528424799
 20
130.8004801248212
 30
0.0
 10
96.36422191926656
 20
130.7886775034475
 30
0.0
 10
96.42906810200189
 20
130.8092817358195
 30
0.0
 10
96.52941120920123
 20
130.833168926873
 30
0.0
 10
96.69835726737988
 20
130.8683454486369
 30
0.0
 10
96.94675538222819
 20
130.9115358388244
 30
0.0
 10
97.29219235317417
 20
130.9629673402015
 30
0.0
 10
97.74420717781403
 20
131.0211236461609
 30
0.0
 10
98.28371008134565
 20
131.0822054794318
 30
0.0
 10
98.86494129803071
 20
131.1419311616478
 30
0.0
 10
99.50017652292794
 20
131.2030045624096
 30
0.0
 10
100.169108595809
 20
131.2640475520292
 30
0.0
 10
100.8503842001996
 20
131.3241140245687
 30
0.0
 10
101.4948983043881
 20
131.3801043296282
 30
0.0
 10
102.1420355414677
 20
131.4362315305786
 30
0.0
 10
102.8269385596869
 20
131.4963859167082
 30
0.0
 10
103.4765091137385
 20
131.5552485530968
 30
0.0
 10
104.0631557119765
 20
131.6109315859081
 30
0.0
 10
104.7265757619209
 20
131.6773702540499
 30
0.0
 10
105.4519393117177
 20
131.7577202116789
 30
0.0
 10
106.1451042533682
 20
131.8513135987604
 30
0.0
 10
106.691774851965
 20
131.9477759028151
 30
0.0
 10
107.0078084858525
 20
132.0362768636681
 30
0.0
 10
107.1884857480917
 20
132.1171903986941
 30
0.0
 10
107.3307227842691
 20
132.2107262377864
 30
0.0
 10
107.4745628774332
 20
132.373158897081
 30
0.0
 10
107.4985829747648
 20
132.5346055641864
 30
0.0
 10
107.5109628167066
 20
132.6178143952414
 30
0.0
  0
SPLINE
  5
5F
330
1F
100
AcDbEntity
  8
0
  6
Continuous
 62
     7
370
     0
100
AcDbSpline
210
0.0
220
0.0
230
1.0
 70
     8
 71
     3
 72
    37
 73
    33
 74
     0
 42
0.00000001
 43
0.00000001
 12
1.0
 22
0.0
 32
0.0
 13
1.0
 23
0.0
 33
0.0
 40
0.0
 40
0.0
 40
0.0
 40
0.0
 40
0.0280776947391222
 40
0.0518446829186075
 40
0.0716050084306797
 40
0.0912427943812626
 40
0.1141367591039298
 40
0.1403173571978894
 40
0.1698141625185353
 40
0.2026465331568932
 40
0.2388088158852018
 40
0.27706957703438
 40
0.3134065035567332
 40
0.3475021986285607
 40
0.3894322198010763
 40
0.4272892309179
 40
0.4617126019306097
 40
0.4980440510818308
 40
0.5374471988881521
 40
0.5799243478353517
 40
0.6136656550456545
 40
0.6476780023043864
 40
0.6816588476163216
 40
0.7156219702019186
 40
0.7608603068874115
 40
0.8059729533196007
 40
0.8501564169013393
 40
0.9146999888019528
 40
0.9311780839492121
 40
0.950456858136504
 40
0.9733117243823891
 40
1.0
 40
1.0
 40
1.0
 40
1.0
 10
96.51865839474533
 20
134.1408918831869
 30
0.0
 10
96.5051328025575
 20
134.0563453200721
 30
0.0
 10
96.4801581725254
 20
133.9002324412453
 30
0.0
 10
96.37689677445105
 20
133.799631605777
 30
0.0
 10
96.36522319747925
 20
133.7887193439092
 30
0.0
 10
96.42891520567775
 20
133.8090117206926
 30
0.0
 10
96.52381645057228
 20
133.8318371796643
 30
0.0
 10
96.68027088817242
 20
133.8648250771628
 30
0.0
 10
96.90672263013947
 20
133.9048209288339
 30
0.0
 10
97.2162166775925
 20
133.9519536851197
 30
0.0
 10
97.6147437681347
 20
134.0048395723643
 30
0.0
 10
98.08666720766414
 20
134.0604050221226
 30
0.0
 10
98.5994556441585
 20
134.115087436033
 30
0.0
 10
99.17135188769313
 20
134.1718202819226
 30
0.0
 10
99.78792271467866
 20
134.2295023344446
 30
0.0
 10
100.4339790754718
 20
134.2874764773673
 30
0.0
 10
101.0638440301533
 20
134.3427032129291
 30
0.0
 10
101.7096076130124
 20
134.3987191641366
 30
0.0
 10
102.4005369194874
 20
134.4588129733905
 30
0.0
 10
103.0636032266308
 20
134.5176170702962
 30
0.0
 10
103.6737737005516
 20
134.5736786226138
 30
0.0
 10
104.2128388577732
 20
134.6255250386586
 30
0.0
 10
104.7225078983492
 20
134.6776065725211
 30
0.0
 10
105.2487589827049
 20
134.7355669180915
 30
0.0
 10
105.7707435783107
 20
134.7998187530965
 30
0.0
 10
106.2502977466023
 20
134.8693248073485
 30
0.0
 10
106.7151287357868
 20
134.9546489220063
 30
0.0
 10
107.0028326195875
 20
135.0343531426946
 30
0.0
 10
107.1897917003617
 20
135.1181567576927
 30
0.0
 10
107.3326221841108
 20
135.2116849622586
 30
0.0
 10
107.480751644358
 20
135.3809124832678
 30
0.0
 10
107.5049397758648
 20
135.5515274214138
 30
0.0
 10
107.5179696220968
 20
135.6434355710074
 30
0.0
  0
SPLINE
  5
60
330
1F
100
AcDbEntity
  8
0
  6
Continuous
 62
     7
370
     0
100
AcDbSpline
210
0.0
220
0.0
230
1.0
 70
     8
 71
     3
 72
    26
 73
    22
 74
     0
 42
0.00000001
 43
0.00000001
 12
1.0
 22
0.0
 32
0.0
 13
1.0
 23
0.0
 33
0.0
 40
0.0
 40
0.0
 40
0.0
 40
0.0
 40
0.002963149695647
 40
0.0534599282775353
 40
0.1096862384410081
 40
0.1716070213056971
 40
0.2391325175384661
 40
0.3070710860209529
 40
0.3689772590438971
 40
0.4247477652662738
 40
0.4743559714232116
 40
0.5039968542440815
 40
0.533806039919605
 40
0.5723492395459259
 40
0.620182953102544
 40
0.6773199185717205
 40
0.743823337044616
 40
0.7999081027333463
 40
0.861289360388247
 40
0.9279631009109273
 40
1.0
 40
1.0
 40
1.0
 40
1.0
 10
96.41429904364679
 20
136.8267591331526
 30
0.0
 10
96.41330763363729
 20
136.8250557499481
 30
0.0
 10
96.39542102194191
 20
136.7943240106536
 30
0.0
 10
96.4822187297559
 20
136.8363725761616
 30
0.0
 10
96.65107694500385
 20
136.8577820593685
 30
0.0
 10
96.97659098839961
 20
136.9180183442722
 30
0.0
 10
97.44257885732695
 20
136.9833175999825
 30
0.0
 10
98.01132449419973
 20
137.0522673640039
 30
0.0
 10
98.61430109458323
 20
137.1166807662438
 30
0.0
 10
99.20712120315095
 20
137.1752055227598
 30
0.0
 10
99.71422905954778
 20
137.2225516166685
 30
0.0
 10
100.1365609031962
 20
137.2608299852261
 30
0.0
 10
100.5230126025502
 20
137.2952456449328
 30
0.0
 10
100.988013476787
 20
137.336051198332
 30
0.0
 10
101.568728158165
 20
137.3864803797312
 30
0.0
 10
102.2634663983256
 20
137.4468078350581
 30
0.0
 10
102.9797582383016
 20
137.5100638238276
 30
0.0
 10
103.6866463127729
 20
137.5747842980123
 30
0.0
 10
104.3570259468253
 20
137.6396210830536
 30
0.0
 10
105.0348154706918
 20
137.7101827894636
 30
0.0
 10
105.4332598857502
 20
137.7591140846639
 30
0.0
 10
105.6401848930929
 20
137.7845256809517
 30
0.0
  0
SPLINE
  5
61
330
1F
100
AcDbEntity
  8
0
  6
Continuous
 62
     7
370
     0
100
AcDbSpline
210
0.0
220
0.0
230
1.0
 70
     8
 71
     3
 72
    28
 73
    24
 74
     0
 42
0.00000001
 43
0.00000001
 12
1.0
 22
0.0
 32
0.0
 13
1.0
 23
0.0
 33
0.0
 40
0.0
 40
0.0
 40
0.0
 40
0.0
 40
0.0654806914258885
 40
0.1261278246075467
 40
0.1819608584157688
 40
0.2329326390347523
 40
0.2932325763254636
 40
0.3447914969739235
 40
0.3875960774060007
 40
0.4216002151307074
 40
0.448293090018515
 40
0.4762897431101034
 40
0.5232698741553343
 40
0.5762985014639176
 40
0.6354502534138975
 40
0.7003279197303953
 40
0.7626847278615351
 40
0.8195260758576057
 40
0.8710023621524937
 40
0.917241372286558
 40
0.9604990734797904
 40
0.982043639552039
 40
1.0
 40
1.0
 40
1.0
 40
1.0
 10
105.5686206694755
 20
138.7796662036701
 30
0.0
 10
105.3634820296472
 20
138.75413104153
 30
0.0
 10
104.9683473751241
 20
138.7049456346321
 30
0.0
 10
104.2890393649951
 20
138.6339001484862
 30
0.0
 10
103.6146698288488
 20
138.5685460131754
 30
0.0
 10
102.9024896101997
 20
138.5033261348723
 30
0.0
 10
102.1814327542187
 20
138.4396620463137
 30
0.0
 10
101.4845734819893
 20
138.3791747877603
 30
0.0
 10
100.9067065090793
 20
138.3289910076642
 30
0.0
 10
100.4456153424661
 20
138.288532095681
 30
0.0
 10
100.0562495732119
 20
138.2538701569468
 30
0.0
 10
99.61733943866004
 20
138.2140943252547
 30
0.0
 10
99.08069585723148
 20
138.1638747497366
 30
0.0
 10
98.45082272781394
 20
138.1012649270544
 30
0.0
 10
97.80693774045058
 20
138.0312036240166
 30
0.0
 10
97.21183640568127
 20
137.9575789964748
 30
0.0
 10
96.70915114700777
 20
137.8817505224511
 30
0.0
 10
96.32105140159224
 20
137.8060983115709
 30
0.0
 10
96.02626885518157
 20
137.7213568889005
 30
0.0
 10
95.82057769886526
 20
137.6375380443381
 30
0.0
 10
95.64661683860498
 20
137.5002889964357
 30
0.0
 10
95.54046103790195
 20
137.3207084928055
 30
0.0
 10
95.52880393017799
 20
137.2062552785124
 30
0.0
 10
95.52350483351086
 20
137.1542270515486
 30
0.0
  0
SPLINE
  5
62
330
1F
100
AcDbEntity
  8
0
  6
Continuous
 62
     7
370
     0
100
AcDbSpline
210
0.0
220
0.0
230
1.0
 70
     8
 71
     3
 72
    36
 73
    32
 74
     0
 42
0.00000001
 43
0.00000001
 12
1.0
 22
0.0
 32
0.0
 13
1.0
 23
0.0
 33
0.0
 40
0.0
 40
0.0
 40
0.0
 40
0.0
 40
0.0155115001617056
 40
0.0489432193809531
 40
0.083145026719857
 40
0.1180375918289469
 40
0.1535254001863138
 40
0.1893158728095349
 40
0.2253341789814506
 40
0.2615566700011602
 40
0.2979647111335089
 40
0.3345602092846658
 40
0.3703226189480255
 40
0.4150755574027351
 40
0.4564622052745116
 40
0.4944674120154863
 40
0.5321570049319062
 40
0.5742408671203567
 40
0.6207872920677634
 40
0.6586492985380678
 40
0.6990628767771989
 40
0.7404765822652235
 40
0.7787253881518198
 40
0.8244411570052164
 40
0.8641425689677152
 40
0.8978360462680928
 40
0.9192334117335103
 40
0.9419421097922381
 40
0.9694718499272922
 40
0.9853102458321473
 40
1.0
 40
1.0
 40
1.0
 40
1.0
 10
106.6669275190744
 20
135.9716932509466
 30
0.0
 10
106.6609098989484
 20
135.9704288600649
 30
0.0
 10
106.6419225863797
 20
135.9664393452107
 30
0.0
 10
106.545560061752
 20
135.9401440893308
 30
0.0
 10
106.3682069626671
 20
135.9027858498917
 30
0.0
 10
106.1154825572126
 20
135.8574899170265
 30
0.0
 10
105.7907047301335
 20
135.8084082881765
 30
0.0
 10
105.4113639697968
 20
135.7585102090754
 30
0.0
 10
104.9822440864803
 20
135.7078969831796
 30
0.0
 10
104.508466412851
 20
135.6567373161233
 30
0.0
 10
103.9949150521821
 20
135.6050893339684
 30
0.0
 10
103.4519001113138
 20
135.5535293753098
 30
0.0
 10
102.8421544355104
 20
135.4980022819687
 30
0.0
 10
102.1867609382279
 20
135.4401797664874
 30
0.0
 10
101.5083585188926
 20
135.3812673490629
 30
0.0
 10
100.8682072851742
 20
135.325676307771
 30
0.0
 10
100.2324599991383
 20
135.2697675437925
 30
0.0
 10
99.56789917127466
 20
135.2097332156642
 30
0.0
 10
98.93185540426542
 20
135.1494465721397
 30
0.0
 10
98.3430598148792
 20
135.089751688048
 30
0.0
 10
97.8211053794847
 20
135.032288062094
 30
0.0
 10
97.34861074086533
 20
134.9743981762698
 30
0.0
 10
96.90921475894295
 20
134.9128552883988
 30
0.0
 10
96.53509376067043
 20
134.8497673566787
 30
0.0
 10
96.23891565763608
 20
134.7857807813454
 30
0.0
 10
96.03948228533304
 20
134.7262472058932
 30
0.0
 10
95.90999739381033
 20
134.6766454938028
 30
0.0
 10
95.75360585464004
 20
134.5937691807531
 30
0.0
 10
95.61525996041814
 20
134.4541344073752
 30
0.0
 10
95.53494429966234
 20
134.2918868635105
 30
0.0
 10
95.52646723331671
 20
134.1933944193817
 30
0.0
 10
95.52238817774389
 20
134.1460011188313
 30
0.0
  0
SPLINE
  5
63
330
1F
100
AcDbEntity
  8
0
  6
Continuous
 62
     7
370
     0
100
AcDbSpline
210
0.0
220
0.0
230
1.0
 70
     8
 71
     3
 72
    35
 73
    31
 74
     0
 42
0.00000001
 43
0.00000001
 12
1.0
 22
0.0
 32
0.0
 13
1.0
 23
0.0
 33
0.0
 40
0.0
 40
0.0
 40
0.0
 40
0.0
 40
0.0151749654641703
 40
0.0472121787436712
 40
0.0787093757287287
 40
0.1095729595739814
 40
0.1399126719449417
 40
0.2035606984495086
 40
0.2372651142112671
 40
0.2721971419987207
 40
0.3083407454547409
 40
0.3441398622417831
 40
0.3889240892687325
 40
0.4303708855125244
 40
0.4684548321494698
 40
0.5066950583104932
 40
0.5505572911098363
 40
0.600166692341807
 40
0.6412011235240328
 40
0.6855117577914729
 40
0.7311614415666363
 40
0.7730693079483602
 40
0.8227105247875205
 40
0.8652136008523008
 40
0.900536939570623
 40
0.9223842844524622
 40
0.9450252302510068
 40
0.9720833939496146
 40
0.9875495107903008
 40
1.0
 40
1.0
 40
1.0
 40
1.0
 10
106.6658183138881
 20
132.9708471183106
 30
0.0
 10
106.6600403886357
 20
132.9696991166383
 30
0.0
 10
106.6420641737686
 20
132.9661274669845
 30
0.0
 10
106.5528967148613
 20
132.9421380068513
 30
0.0
 10
106.3957097944024
 20
132.9087569260433
 30
0.0
 10
106.1826370637011
 20
132.8693630203278
 30
0.0
 10
105.8230540935056
 20
132.8120834637472
 30
0.0
 10
105.3697098381392
 20
132.7525176212071
 30
0.0
 10
104.8244912268889
 20
132.690459140637
 30
0.0
 10
104.3557886966161
 20
132.6411028553167
 30
0.0
 10
103.8444314527123
 20
132.5906173208392
 30
0.0
 10
103.2561273508419
 20
132.5354021570191
 30
0.0
 10
102.6133588430946
 20
132.4776057997629
 30
0.0
 10
101.9408421058692
 20
132.4187525892049
 30
0.0
 10
101.2976483532821
 20
132.3629996109129
 30
0.0
 10
100.6435446248757
 20
132.3060905125239
 30
0.0
 10
99.93864025008598
 20
132.2436042366287
 30
0.0
 10
99.24598405667409
 20
132.1796431489446
 30
0.0
 10
98.59066043605277
 20
132.1153443241434
 30
0.0
 10
97.99938739312219
 20
132.0527038207307
 30
0.0
 10
97.46273498605994
 20
131.9893267070041
 30
0.0
 10
96.97062081909328
 20
131.9223165239182
 30
0.0
 10
96.56013004196662
 20
131.8544712489422
 30
0.0
 10
96.24232962905126
 20
131.7868270404688
 30
0.0
 10
96.03402261144831
 20
131.7250501877393
 30
0.0
 10
95.9041961117944
 20
131.6747338699749
 30
0.0
 10
95.75024443871004
 20
131.5923506627248
 30
0.0
 10
95.61415696502726
 20
131.4528612064525
 30
0.0
 10
95.53700087565059
 20
131.2966395545658
 30
0.0
 10
95.52905799396332
 20
131.2046379981927
 30
0.0
 10
95.52551555894945
 20
131.1636063490435
 30
0.0
  0
SPLINE
  5
64
330
1F
100
AcDbEntity
  8
0
  6
Continuous
 62
     7
370
     0
100
AcDbSpline
210
0.0
220
0.0
230
1.0
 70
     8
 71
     3
 72
    19
 73
    15
 74
     0
 42
0.00000001
 43
0.00000001
 12
1.0
 22
0.0
 32
0.0
 13
1.0
 23
0.0
 33
0.0
 40
0.0
 40
0.0
 40
0.0
 40
0.0
 40
0.0486989405111521
 40
0.0934524015818035
 40
0.1709799831005356
 40
0.2345207568752033
 40
0.2944745123479804
 40
0.3905853091055619
 40
0.5055173096901261
 40
0.6392252477696109
 40
0.75182316435848
 40
0.8742416489563246
 40
0.9933909532656113
 40
1.0
 40
1.0
 40
1.0
 40
1.0
 10
107.5168660048458
 20
132.6216179166361
 30
0.0
 10
107.5124542357945
 20
132.6772600925833
 30
0.0
 10
107.5039881293711
 20
132.7840364396028
 30
0.0
 10
107.4217872839058
 20
132.953742669815
 30
0.0
 10
107.2837267730565
 20
133.0931544293329
 30
0.0
 10
107.1277136045442
 20
133.1763471383653
 30
0.0
 10
106.9980809850829
 20
133.2261676605861
 30
0.0
 10
106.7955820094419
 20
133.2864335734089
 30
0.0
 10
106.4894595510879
 20
133.3519796654938
 30
0.0
 10
106.0980899991849
 20
133.4172982911163
 30
0.0
 10
105.634207530874
 20
133.4815489226529
 30
0.0
 10
105.126972832361
 20
133.5422205103257
 30
0.0
 10
104.7437120116699
 20
133.5845980343898
 30
0.0
 10
104.5294651192671
 20
133.6059682314876
 30
0.0
 10
104.5182056862924
 20
133.60709131103
 30
0.0
  0
SPLINE
  5
65
330
1F
100
AcDbEntity
  8
0
  6
Continuous
 62
     7
370
     0
100
AcDbSpline
210
0.0
220
0.0
230
1.0
 70
     8
 71
     3
 72
    18
 73
    14
 74
     0
 42
0.00000001
 43
0.00000001
 12
1.0
 22
0.0
 32
0.0
 13
1.0
 23
0.0
 33
0.0
 40
0.0
 40
0.0
 40
0.0
 40
0.0
 40
0.0497649888375137
 40
0.0960469750983619
 40
0.1781581894956736
 40
0.2487747392928035
 40
0.3195300477487246
 40
0.429193725581542
 40
0.5563599194256306
 40
0.7011668716733901
 40
0.8195032184944113
 40
0.9326240661530012
 40
0.9999999999999999
 40
0.9999999999999999
 40
0.9999999999999999
 40
0.9999999999999999
 10
107.5180292267415
 20
135.6230638210102
 30
0.0
 10
107.5129679017527
 20
135.6807264244423
 30
0.0
 10
107.5031994889282
 20
135.7920158824593
 30
0.0
 10
107.4136472577097
 20
135.967185125033
 30
0.0
 10
107.2619265653393
 20
136.108824999373
 30
0.0
 10
107.0979559418467
 20
136.1890507690967
 30
0.0
 10
106.9399304270116
 20
136.2452955257677
 30
0.0
 10
106.6949797037436
 20
136.3107218879927
 30
0.0
 10
106.3307912482327
 20
136.3811365287528
 30
0.0
 10
105.8767841522325
 20
136.4497796549608
 30
0.0
 10
105.3701642145381
 20
136.5139121810341
 30
0.0
 10
104.9261049492481
 20
136.5648025271986
 30
0.0
 10
104.6290795019846
 20
136.5953866392753
 30
0.0
 10
104.5182056862924
 20
136.6068030927702
 30
0.0
  0
LINE
  5
66
330
1F
100
AcDbEntity
  8
0
  6
Continuous
 62
     7
370
     0
100
AcDbLine
 10
97.5182054702
 20
132.8055764769
 30
0.0
 11
97.0182058539
 21
132.3055773262
 31
0.0
  0
LINE
  5
67
330
1F
100
AcDbEntity
  8
0
  6
Continuous
 62
     7
370
     0
100
AcDbLine
 10
95.5182056081
 20
112.8055750613
 30
0.0
 11
96.518205772
 21
111.80557676
 31
0.0
  0
LINE
  5
68
330
1F
100
AcDbEntity
  8
0
  6
Continuous
 62
     7
370
     0
100
AcDbLine
 10
97.0182058539
 20
132.3055773262
 30
0.0
 11
97.0182058539
 21
131.9270896946
 31
0.0
  0
LINE
  5
69
330
1F
100
AcDbEntity
  8
0
  6
Continuous
 62
     7
370
     0
100
AcDbLine
 10
97.0182058539
 20
130.9209204499
 30
0.0
 11
97.0182058539
 21
129.8055759851
 31
0.0
  0
LINE
  5
6A
330
1F
100
AcDbEntity
  8
0
  6
Continuous
 62
     7
370
     0
100
AcDbLine
 10
96.01820569
 20
126.805577356
 30
0.0
 11
96.01820569
 21
125.3055761788
 31
0.0
  0
LINE
  5
6B
330
1F
100
AcDbEntity
  8
0
  6
Continuous
 62
     7
370
     0
100
AcDbLine
 10
95.5182056081
 20
125.3055761788
 30
0.0
 11
95.5182056081
 21
120.0727260892
 31
0.0
  0
LINE
  5
6C
330
1F
100
AcDbEntity
  8
0
  6
Continuous
 62
     7
370
     0
100
AcDbLine
 10
95.5182056081
 20
114.0727251057
 30
0.0
 11
95.5182056081
 21
112.8055750613
 31
0.0
  0
LINE
  5
6D
330
1F
100
AcDbEntity
  8
0
  6
Continuous
 62
     7
370
     0
100
AcDbLine
 10
107.5182057124
 20
112.8055750613
 30
0.0
 11
107.5182057124
 21
114.0727251057
 31
0.0
  0
LINE
  5
6E
330
1F
100
AcDbEntity
  8
0
  6
Continuous
 62
     7
370
     0
100
AcDbLine
 10
107.5182057124
 20
120.0727260892
 30
0.0
 11
107.5182057124
 21
125.3055761788
 31
0.0
  0
LINE
  5
6F
330
1F
100
AcDbEntity
  8
0
  6
Continuous
 62
     7
370
     0
100
AcDbLine
 10
107.0182056304
 20
125.3055761788
 30
0.0
 11
107.0182056304
 21
126.805577356
 31
0.0
  0
LINE
  5
70
330
1F
100
AcDbEntity
  8
0
  6
Continuous
 62
     7
370
     0
100
AcDbLine
 10
106.0182054665
 20
129.8055759851
 30
0.0
 11
106.0182054665
 21
131.8379062448
 31
0.0
  0
LINE
  5
71
330
1F
100
AcDbEntity
  8
0
  6
Continuous
 62
     7
370
     0
100
AcDbLine
 10
106.5182055485
 20
111.80557676
 30
0.0
 11
107.5182057124
 21
112.8055750613
 31
0.0
  0
LINE
  5
72
330
1F
100
AcDbEntity
  8
0
  6
Continuous
 62
     7
370
     0
100
AcDbLine
 10
105.5450135049
 20
132.7787692879
 30
0.0
 11
105.5182058502
 21
132.8055764769
 31
0.0
  0
LINE
  5
73
330
1F
100
AcDbEntity
  8
0
  6
Continuous
 62
     7
370
     0
100
AcDbLine
 10
104.0182056043
 20
109.8055764322
 30
0.0
 11
104.5182056863
 21
110.3055774454
 31
0.0
  0
LINE
  5
74
330
1F
100
AcDbEntity
  8
0
  6
Continuous
 62
     7
370
     0
100
AcDbLine
 10
104.5182056863
 20
110.3055774454
 30
0.0
 11
104.5182056863
 21
111.1055760865
 31
0.0
  0
LINE
  5
75
330
1F
100
AcDbEntity
  8
0
  6
Continuous
 62
     7
370
     0
100
AcDbLine
 10
103.5182057552
 20
111.705597419
 30
0.0
 11
103.5182057552
 21
111.80557676
 31
0.0
  0
LINE
  5
76
330
1F
100
AcDbEntity
  8
0
  6
Continuous
 62
     7
370
     0
100
AcDbLine
 10
104.5182056863
 20
132.8055764769
 30
0.0
 11
104.5182056863
 21
134.657325152
 31
0.0
  0
LINE
  5
77
330
1F
100
AcDbEntity
  8
0
  6
Continuous
 62
     7
370
     0
100
AcDbLine
 10
104.5182056863
 20
135.6584205512
 30
0.0
 11
104.5182056863
 21
137.6575566117
 31
0.0
  0
LINE
  5
78
330
1F
100
AcDbEntity
  8
0
  6
Continuous
 62
     7
370
     0
100
AcDbLine
 10
106.0182054665
 20
137.8055772964
 30
0.0
 11
106.0182054665
 21
138.8055755977
 31
0.0
  0
LINE
  5
79
330
1F
100
AcDbEntity
  8
0
  6
Continuous
 62
     7
370
     0
100
AcDbLine
 10
105.4182055544
 20
146.805576909
 30
0.0
 11
105.4182055544
 21
153.8055764266
 31
0.0
  0
LINE
  5
7A
330
1F
100
AcDbEntity
  8
0
  6
Continuous
 62
     7
370
     0
100
AcDbLine
 10
107.0182056304
 20
153.8055764266
 30
0.0
 11
107.0182056304
 21
155.8055765216
 31
0.0
  0
LINE
  5
7B
330
1F
100
AcDbEntity
  8
0
  6
Continuous
 62
     7
370
     0
100
AcDbLine
 10
96.01820569
 20
155.8055765216
 30
0.0
 11
96.01820569
 21
153.8055764266
 31
0.0
  0
LINE
  5
7C
330
1F
100
AcDbEntity
  8
0
  6
Continuous
 62
     7
370
     0
100
AcDbLine
 10
97.618205766
 20
153.8055764266
 30
0.0
 11
97.618205766
 21
146.805576909
 31
0.0
  0
LINE
  5
7D
330
1F
100
AcDbEntity
  8
0
  6
Continuous
 62
     7
370
     0
100
AcDbLine
 10
97.0182058539
 20
138.8055755977
 30
0.0
 11
97.0182058539
 21
137.9254776273
 31
0.0
  0
LINE
  5
7E
330
1F
100
AcDbEntity
  8
0
  6
Continuous
 62
     7
370
     0
100
AcDbLine
 10
98.5182056341
 20
137.6314833049
 30
0.0
 11
98.5182056341
 21
137.5740095262
 31
0.0
  0
LINE
  5
7F
330
1F
100
AcDbEntity
  8
0
  6
Continuous
 62
     7
370
     0
100
AcDbLine
 10
98.5182056341
 20
137.1054182981
 30
0.0
 11
98.5182056341
 21
135.106852207
 31
0.0
  0
LINE
  5
80
330
1F
100
AcDbEntity
  8
0
  6
Continuous
 62
     7
370
     0
100
AcDbLine
 10
98.5182056341
 20
134.1056878899
 30
0.0
 11
98.5182056341
 21
132.8055764769
 31
0.0
  0
LINE
  5
81
330
1F
100
AcDbEntity
  8
0
  6
Continuous
 62
     7
370
     0
100
AcDbLine
 10
99.5182055652
 20
111.80557676
 30
0.0
 11
99.5182055652
 21
111.7055750672
 31
0.0
  0
LINE
  5
82
330
1F
100
AcDbEntity
  8
0
  6
Continuous
 62
     7
370
     0
100
AcDbLine
 10
98.5182056341
 20
111.1055760865
 30
0.0
 11
98.5182056341
 21
110.3055774454
 31
0.0
  0
LINE
  5
83
330
1F
100
AcDbEntity
  8
0
  6
Continuous
 62
     7
370
     0
100
AcDbLine
 10
98.5182056341
 20
110.3055774454
 30
0.0
 11
99.0182057161
 21
109.8055764322
 31
0.0
  0
SPLINE
  5
84
330
1F
100
AcDbEntity
  8
0
  6
Continuous
 62
     7
370
     0
100
AcDbSpline
210
0.0
220
0.0
230
1.0
 70
     8
 71
     3
 72
     9
 73
     5
 74
     0
 42
0.00000001
 43
0.00000001
 12
1.0
 22
0.0
 32
0.0
 13
1.0
 23
0.0
 33
0.0
 40
0.0
 40
0.0
 40
0.0
 40
0.0
 40
0.9998183584471685
 40
1.0
 40
1.0
 40
1.0
 40
1.0
 10
110.1115442019019
 20
120.072726089172
 30
0.0
 10
110.3187527235208
 20
120.0064701668797
 30
0.0
 10
110.5259988896552
 20
119.9402022075723
 30
0.0
 10
110.7276705853075
 20
119.8308181552984
 30
0.0
 10
110.7277072172675
 20
119.8307982866093
 30
0.0
  0
SPLINE
  5
85
330
1F
100
AcDbEntity
  8
0
  6
Continuous
 62
     7
370
     0
100
AcDbSpline
210
0.0
220
0.0
230
1.0
 70
     8
 71
     3
 72
     9
 73
     5
 74
     0
 42
0.00000001
 43
0.00000001
 12
1.0
 22
0.0
 32
0.0
 13
1.0
 23
0.0
 33
0.0
 40
0.0
 40
0.0
 40
0.0
 40
0.0
 40
0.4990042013432003
 40
1.0
 40
1.0
 40
1.0
 40
1.0
 10
111.333160023025
 20
119.515608925037
 30
0.0
 10
111.1320782789583
 20
119.6268263993123
 30
0.0
 10
110.7291122447537
 20
119.8497052327487
 30
0.0
 10
110.3176733563808
 20
119.9982871652384
 30
0.0
 10
110.1115442019019
 20
120.072726089172
 30
0.0
  0
LINE
  5
86
330
1F
100
AcDbEntity
  8
0
  6
Continuous
 62
     7
370
     0
100
AcDbLine
 10
110.1115442019
 20
120.0727260892
 30
0.0
 11
110.3682055276
 21
120.0727260892
 31
0.0
  0
LINE
  5
87
330
1F
100
AcDbEntity
  8
0
  6
Continuous
 62
     7
370
     0
100
AcDbLine
 10
110.1115442019
 20
117.0727237348
 30
0.0
 11
110.3682055276
 21
117.0727237348
 31
0.0
  0
SPLINE
  5
88
330
1F
100
AcDbEntity
  8
0
  6
Continuous
 62
     7
370
     0
100
AcDbSpline
210
0.0
220
0.0
230
1.0
 70
     8
 71
     3
 72
     9
 73
     5
 74
     0
 42
0.00000001
 43
0.00000001
 12
1.0
 22
0.0
 32
0.0
 13
1.0
 23
0.0
 33
0.0
 40
0.0
 40
0.0
 40
0.0
 40
0.0
 40
0.9998191107325617
 40
1.0
 40
1.0
 40
1.0
 40
1.0
 10
110.1115442019019
 20
117.0727237347885
 30
0.0
 10
110.318333442216
 20
117.0032640869247
 30
0.0
 10
110.5251600952519
 20
116.9337918722829
 30
0.0
 10
110.7276705852933
 20
116.830818284333
 30
0.0
 10
110.7277072172675
 20
116.8307996575161
 30
0.0
  0
SPLINE
  5
89
330
1F
100
AcDbEntity
  8
0
  6
Continuous
 62
     7
370
     0
100
AcDbSpline
210
0.0
220
0.0
230
1.0
 70
     8
 71
     3
 72
     9
 73
     5
 74
     0
 42
0.00000001
 43
0.00000001
 12
1.0
 22
0.0
 32
0.0
 13
1.0
 23
0.0
 33
0.0
 40
0.0
 40
0.0
 40
0.0
 40
0.0
 40
0.4990045317069602
 40
1.0
 40
1.0
 40
1.0
 40
1.0
 10
111.333160023025
 20
116.5156065706535
 30
0.0
 10
111.1320783468833
 20
116.6268258827024
 30
0.0
 10
110.7291127155815
 20
116.8497082514625
 30
0.0
 10
110.3176734229753
 20
116.9982866369653
 30
0.0
 10
110.1115442019019
 20
117.0727237347885
 30
0.0
  0
SPLINE
  5
8A
330
1F
100
AcDbEntity
  8
0
  6
Continuous
 62
     7
370
     0
100
AcDbSpline
210
0.0
220
0.0
230
1.0
 70
     8
 71
     3
 72
     9
 73
     5
 74
     0
 42
0.00000001
 43
0.00000001
 12
1.0
 22
0.0
 32
0.0
 13
1.0
 23
0.0
 33
0.0
 40
0.0
 40
0.0
 40
0.0
 40
0.0
 40
0.4988477010872339
 40
1.0
 40
1.0
 40
1.0
 40
1.0
 10
107.6472995940659
 20
120.072726089172
 30
0.0
 10
107.4420516890159
 20
119.9986380150204
 30
0.0
 10
107.0306076659149
 20
119.8501195914813
 30
0.0
 10
106.6276340137859
 20
119.6272836629172
 30
0.0
 10
106.4256828416202
 20
119.515608925037
 30
0.0
  0
SPLINE
  5
8B
330
1F
100
AcDbEntity
  8
0
  6
Continuous
 62
     7
370
     0
100
AcDbSpline
210
0.0
220
0.0
230
1.0
 70
     8
 71
     3
 72
     9
 73
     5
 74
     0
 42
0.00000001
 43
0.00000001
 12
1.0
 22
0.0
 32
0.0
 13
1.0
 23
0.0
 33
0.0
 40
0.0
 40
0.0
 40
0.0
 40
0.0
 40
0.4990041721436719
 40
1.0
 40
1.0
 40
1.0
 40
1.0
 10
106.4256828416202
 20
119.515608925037
 30
0.0
 10
106.0235193216532
 20
119.6268264012925
 30
0.0
 10
105.2175871422901
 20
119.8497052517391
 30
0.0
 10
104.3947087010933
 20
119.9982871686865
 30
0.0
 10
103.9824500352207
 20
120.072726089172
 30
0.0
  0
LINE
  5
8C
330
1F
100
AcDbEntity
  8
0
  6
Continuous
 62
     7
370
     0
100
AcDbLine
 10
103.9824500352
 20
120.0727260892
 30
0.0
 11
107.6472995941
 21
120.0727260892
 31
0.0
  0
SPLINE
  5
8D
330
1F
100
AcDbEntity
  8
0
  6
Continuous
 62
     7
370
     0
100
AcDbSpline
210
0.0
220
0.0
230
1.0
 70
     8
 71
     3
 72
     9
 73
     5
 74
     0
 42
0.00000001
 43
0.00000001
 12
1.0
 22
0.0
 32
0.0
 13
1.0
 23
0.0
 33
0.0
 40
0.0
 40
0.0
 40
0.0
 40
0.0
 40
0.498847371102328
 40
1.0
 40
1.0
 40
1.0
 40
1.0
 10
107.6472995940659
 20
117.0727237347885
 30
0.0
 10
107.4420516230665
 20
116.99863748179
 30
0.0
 10
107.0306071955939
 20
116.8501226107288
 30
0.0
 10
106.6276339453536
 20
116.6272831514788
 30
0.0
 10
106.4256828416202
 20
116.5156065706535
 30
0.0
  0
SPLINE
  5
8E
330
1F
100
AcDbEntity
  8
0
  6
Continuous
 62
     7
370
     0
100
AcDbSpline
210
0.0
220
0.0
230
1.0
 70
     8
 71
     3
 72
     9
 73
     5
 74
     0
 42
0.00000001
 43
0.00000001
 12
1.0
 22
0.0
 32
0.0
 13
1.0
 23
0.0
 33
0.0
 40
0.0
 40
0.0
 40
0.0
 40
0.0
 40
0.4990045025073885
 40
1.0
 40
1.0
 40
1.0
 40
1.0
 10
106.4256828416202
 20
116.5156065706535
 30
0.0
 10
106.0235194575032
 20
116.6268258846825
 30
0.0
 10
105.2175880839461
 20
116.8497082704529
 30
0.0
 10
104.3947088342823
 20
116.9982866404135
 30
0.0
 10
103.9824500352207
 20
117.0727237347885
 30
0.0
  0
LINE
  5
8F
330
1F
100
AcDbEntity
  8
0
  6
Continuous
 62
     7
370
     0
100
AcDbLine
 10
103.9824500352
 20
117.0727237348
 30
0.0
 11
107.6472995941
 21
117.0727237348
 31
0.0
  0
SPLINE
  5
90
330
1F
100
AcDbEntity
  8
0
  6
Continuous
 62
     7
370
     0
100
AcDbSpline
210
0.0
220
0.0
230
1.0
 70
     8
 71
     3
 72
     9
 73
     5
 74
     0
 42
0.00000001
 43
0.00000001
 12
1.0
 22
0.0
 32
0.0
 13
1.0
 23
0.0
 33
0.0
 40
0.0
 40
0.0
 40
0.0
 40
0.0
 40
0.4988477467218753
 40
1.0
 40
1.0
 40
1.0
 40
1.0
 10
99.05396128521
 20
120.072726089172
 30
0.0
 10
98.6434655517811
 20
119.9986380203635
 30
0.0
 10
97.82057773455348
 20
119.8501196211218
 30
0.0
 10
97.01463066749153
 20
119.6272836660384
 30
0.0
 10
96.61072847881053
 20
119.515608925037
 30
0.0
  0
SPLINE
  5
91
330
1F
100
AcDbEntity
  8
0
  6
Continuous
 62
     7
370
     0
100
AcDbSpline
210
0.0
220
0.0
230
1.0
 70
     8
 71
     3
 72
     9
 73
     5
 74
     0
 42
0.00000001
 43
0.00000001
 12
1.0
 22
0.0
 32
0.0
 13
1.0
 23
0.0
 33
0.0
 40
0.0
 40
0.0
 40
0.0
 40
0.0
 40
0.4984265432024742
 40
1.0
 40
1.0
 40
1.0
 40
1.0
 10
96.61072847881053
 20
119.515608925037
 30
0.0
 10
96.40988054676717
 20
119.6267037559875
 30
0.0
 10
96.00691658992635
 20
119.8495948368612
 30
0.0
 10
95.5954782678351
 20
119.998193129739
 30
0.0
 10
95.38911172636483
 20
120.072726089172
 30
0.0
  0
LINE
  5
92
330
1F
100
AcDbEntity
  8
0
  6
Continuous
 62
     7
370
     0
100
AcDbLine
 10
95.3891117264
 20
120.0727260892
 30
0.0
 11
99.0539612852
 21
120.0727260892
 31
0.0
  0
LINE
  5
93
330
1F
100
AcDbEntity
  8
0
  6
Continuous
 62
     7
370
     0
100
AcDbLine
 10
95.3891117264
 20
117.0727237348
 30
0.0
 11
99.0539612852
 21
117.0727237348
 31
0.0
  0
SPLINE
  5
94
330
1F
100
AcDbEntity
  8
0
  6
Continuous
 62
     7
370
     0
100
AcDbSpline
210
0.0
220
0.0
230
1.0
 70
     8
 71
     3
 72
     9
 73
     5
 74
     0
 42
0.00000001
 43
0.00000001
 12
1.0
 22
0.0
 32
0.0
 13
1.0
 23
0.0
 33
0.0
 40
0.0
 40
0.0
 40
0.0
 40
0.0
 40
0.4988474167367364
 40
1.0
 40
1.0
 40
1.0
 40
1.0
 10
99.05396128521
 20
117.0727237347885
 30
0.0
 10
98.64346541988225
 20
116.9986374871332
 30
0.0
 10
97.82057679391114
 20
116.8501226403691
 30
0.0
 10
97.01463053062683
 20
116.6272831545999
 30
0.0
 10
96.61072847881053
 20
116.5156065706535
 30
0.0
  0
SPLINE
  5
95
330
1F
100
AcDbEntity
  8
0
  6
Continuous
 62
     7
370
     0
100
AcDbSpline
210
0.0
220
0.0
230
1.0
 70
     8
 71
     3
 72
     9
 73
     5
 74
     0
 42
0.00000001
 43
0.00000001
 12
1.0
 22
0.0
 32
0.0
 13
1.0
 23
0.0
 33
0.0
 40
0.0
 40
0.0
 40
0.0
 40
0.0
 40
0.4984265432024742
 40
1.0
 40
1.0
 40
1.0
 40
1.0
 10
96.61072847881053
 20
116.5156065706535
 30
0.0
 10
96.40988054676717
 20
116.6267014016041
 30
0.0
 10
96.00691658992635
 20
116.8495924824777
 30
0.0
 10
95.5954782678351
 20
116.9981907753556
 30
0.0
 10
95.38911172636483
 20
117.0727237347885
 30
0.0
  0
SPLINE
  5
96
330
1F
100
AcDbEntity
  8
0
  6
Continuous
 62
     7
370
     0
100
AcDbSpline
210
0.0
220
0.0
230
1.0
 70
     8
 71
     3
 72
     9
 73
     5
 74
     0
 42
0.00000001
 43
0.00000001
 12
1.0
 22
0.0
 32
0.0
 13
1.0
 23
0.0
 33
0.0
 40
0.0
 40
0.0
 40
0.0
 40
0.0
 40
0.5008257571632805
 40
0.9999999999999999
 40
0.9999999999999999
 40
0.9999999999999999
 40
0.9999999999999999
 10
92.92486711852882
 20
120.072726089172
 30
0.0
 10
92.71880766759632
 20
119.9983155797921
 30
0.0
 10
92.30736826380122
 20
119.8497399358368
 30
0.0
 10
91.90440178456635
 20
119.6268632339482
 30
0.0
 10
91.7032512974057
 20
119.515608925037
 30
0.0
  0
LINE
  5
97
330
1F
100
AcDbEntity
  8
0
  6
Continuous
 62
     7
370
     0
100
AcDbLine
 10
92.6682057928
 20
120.0727260892
 30
0.0
 11
92.9248671185
 21
120.0727260892
 31
0.0
  0
LINE
  5
98
330
1F
100
AcDbEntity
  8
0
  6
Continuous
 62
     7
370
     0
100
AcDbLine
 10
92.6682057928
 20
117.0727237348
 30
0.0
 11
92.9248671185
 21
117.0727237348
 31
0.0
  0
SPLINE
  5
99
330
1F
100
AcDbEntity
  8
0
  6
Continuous
 62
     7
370
     0
100
AcDbSpline
210
0.0
220
0.0
230
1.0
 70
     8
 71
     3
 72
     9
 73
     5
 74
     0
 42
0.00000001
 43
0.00000001
 12
1.0
 22
0.0
 32
0.0
 13
1.0
 23
0.0
 33
0.0
 40
0.0
 40
0.0
 40
0.0
 40
0.0
 40
0.5008257571632805
 40
0.9999999999999999
 40
0.9999999999999999
 40
0.9999999999999999
 40
0.9999999999999999
 10
92.92486711852882
 20
117.0727237347885
 30
0.0
 10
92.71880766759632
 20
116.9983132254086
 30
0.0
 10
92.30736826380122
 20
116.8497375814534
 30
0.0
 10
91.90440178456635
 20
116.6268608795647
 30
0.0
 10
91.7032512974057
 20
116.5156065706535
 30
0.0
  0
SPLINE
  5
9A
330
1F
100
AcDbEntity
  8
0
  6
Continuous
 62
     7
370
     0
100
AcDbSpline
210
0.0
220
0.0
230
1.0
 70
    24
 71
     3
 72
     9
 73
     5
 74
     0
 42
0.00000001
 43
0.00000001
 12
1.0
 22
0.0
 32
0.0
 13
1.0
 23
0.0
 33
0.0
 40
0.0
 40
0.0
 40
0.0
 40
0.0
 40
0.4998716600070353
 40
1.0
 40
1.0
 40
1.0
 40
1.0
 10
110.3681729313049
 20
117.0727237347885
 30
0.0
 10
110.3573640657281
 20
117.0727237347885
 30
0.0
 10
110.335740784311
 20
117.0727237347885
 30
0.0
 10
110.186288562288
 20
117.0727237347885
 30
0.0
 10
110.1115432705793
 20
117.0727237347885
 30
0.0
  0
LINE
  5
9B
330
1F
100
AcDbEntity
  8
0
  6
Continuous
 62
     7
370
     0
100
AcDbLine
 10
110.1115432706
 20
117.0727237348
 30
0.0
 11
107.6472995941
 21
117.0727237348
 31
0.0
  0
SPLINE
  5
9C
330
1F
100
AcDbEntity
  8
0
  6
Continuous
 62
     7
370
     0
100
AcDbSpline
210
0.0
220
0.0
230
1.0
 70
    24
 71
     3
 72
    11
 73
     7
 74
     0
 42
0.00000001
 43
0.00000001
 12
1.0
 22
0.0
 32
0.0
 13
1.0
 23
0.0
 33
0.0
 40
0.0
 40
0.0
 40
0.0
 40
0.0
 40
0.250000023155419
 40
0.5000000186352918
 40
0.749999982370063
 40
0.9999999999999999
 40
0.9999999999999999
 40
0.9999999999999999
 40
0.9999999999999999
 10
107.6472995940659
 20
117.0727237347885
 30
0.0
 10
107.3818524711436
 20
117.0727237347885
 30
0.0
 10
106.8509582546848
 20
117.0727237347885
 30
0.0
 10
105.9524725189139
 20
117.0727237347885
 30
0.0
 10
104.9983854721317
 20
117.0727237347885
 30
0.0
 10
104.3210952051928
 20
117.0727237347885
 30
0.0
 10
103.9824500352207
 20
117.0727237347885
 30
0.0
  0
LINE
  5
9D
330
1F
100
AcDbEntity
  8
0
  6
Continuous
 62
     7
370
     0
100
AcDbLine
 10
103.9824500352
 20
117.0727237348
 30
0.0
 11
99.0539612852
 21
117.0727237348
 31
0.0
  0
SPLINE
  5
9E
330
1F
100
AcDbEntity
  8
0
  6
Continuous
 62
     7
370
     0
100
AcDbSpline
210
0.0
220
0.0
230
1.0
 70
    24
 71
     3
 72
    11
 73
     7
 74
     0
 42
0.00000001
 43
0.00000001
 12
1.0
 22
0.0
 32
0.0
 13
1.0
 23
0.0
 33
0.0
 40
0.0
 40
0.0
 40
0.0
 40
0.0
 40
0.2499999626952285
 40
0.4999999447415671
 40
0.7499999585330095
 40
1.0
 40
1.0
 40
1.0
 40
1.0
 10
99.05396128521
 20
117.0727237347885
 30
0.0
 10
98.71531609040541
 20
117.0727237347885
 30
0.0
 10
98.03802567458357
 20
117.0727237347885
 30
0.0
 10
97.0839388229935
 20
117.0727237347885
 30
0.0
 10
96.18545306037673
 20
117.0727237347885
 30
0.0
 10
95.65455884749733
 20
117.0727237347885
 30
0.0
 10
95.38911172636483
 20
117.0727237347885
 30
0.0
  0
LINE
  5
9F
330
1F
100
AcDbEntity
  8
0
  6
Continuous
 62
     7
370
     0
100
AcDbLine
 10
95.3891117264
 20
117.0727237348
 30
0.0
 11
92.9248671185
 21
117.0727237348
 31
0.0
  0
SPLINE
  5
A0
330
1F
100
AcDbEntity
  8
0
  6
Continuous
 62
     7
370
     0
100
AcDbSpline
210
0.0
220
0.0
230
1.0
 70
    24
 71
     3
 72
    10
 73
     6
 74
     0
 42
0.00000001
 43
0.00000001
 12
1.0
 22
0.0
 32
0.0
 13
1.0
 23
0.0
 33
0.0
 40
0.0
 40
0.0
 40
0.0
 40
0.0
 40
0.4998716290612251
 40
0.9997433919636531
 40
1.0
 40
1.0
 40
1.0
 40
1.0
 10
92.92486711852882
 20
117.0727237347885
 30
0.0
 10
92.8546904303256
 20
117.0727237347887
 30
0.0
 10
92.71433703512926
 20
117.072723734789
 30
0.0
 10
92.64704144542421
 20
117.0727237347874
 30
0.0
 10
92.66822751888323
 20
117.0727237347885
 30
0.0
 10
92.6682383891258
 20
117.0727237347885
 30
0.0
  0
LINE
  5
A1
330
1F
100
AcDbEntity
  8
0
  6
Continuous
 62
     7
370
     0
100
AcDbLine
 10
95.3891117264
 20
120.0727260892
 30
0.0
 11
92.9248671185
 21
120.0727260892
 31
0.0
  0
SPLINE
  5
A2
330
1F
100
AcDbEntity
  8
0
  6
Continuous
 62
     7
370
     0
100
AcDbSpline
210
0.0
220
0.0
230
1.0
 70
    24
 71
     3
 72
    11
 73
     7
 74
     0
 42
0.00000001
 43
0.00000001
 12
1.0
 22
0.0
 32
0.0
 13
1.0
 23
0.0
 33
0.0
 40
0.0
 40
0.0
 40
0.0
 40
0.0
 40
0.2499999626952285
 40
0.4999999447415671
 40
0.7499999585330095
 40
1.0
 40
1.0
 40
1.0
 40
1.0
 10
99.05396128521
 20
120.072726089172
 30
0.0
 10
98.71531609040541
 20
120.072726089172
 30
0.0
 10
98.03802567458357
 20
120.072726089172
 30
0.0
 10
97.0839388229935
 20
120.072726089172
 30
0.0
 10
96.18545306037673
 20
120.072726089172
 30
0.0
 10
95.65455884749733
 20
120.072726089172
 30
0.0
 10
95.38911172636483
 20
120.072726089172
 30
0.0
  0
LINE
  5
A3
330
1F
100
AcDbEntity
  8
0
  6
Continuous
 62
     7
370
     0
100
AcDbLine
 10
103.9824500352
 20
120.0727260892
 30
0.0
 11
99.0539612852
 21
120.0727260892
 31
0.0
  0
SPLINE
  5
A4
330
1F
100
AcDbEntity
  8
0
  6
Continuous
 62
     7
370
     0
100
AcDbSpline
210
0.0
220
0.0
230
1.0
 70
    24
 71
     3
 72
    11
 73
     7
 74
     0
 42
0.00000001
 43
0.00000001
 12
1.0
 22
0.0
 32
0.0
 13
1.0
 23
0.0
 33
0.0
 40
0.0
 40
0.0
 40
0.0
 40
0.0
 40
0.250000023155419
 40
0.5000000186352918
 40
0.749999982370063
 40
0.9999999999999999
 40
0.9999999999999999
 40
0.9999999999999999
 40
0.9999999999999999
 10
107.6472995940659
 20
120.072726089172
 30
0.0
 10
107.3818524711436
 20
120.072726089172
 30
0.0
 10
106.8509582546848
 20
120.072726089172
 30
0.0
 10
105.9524725189139
 20
120.072726089172
 30
0.0
 10
104.9983854721317
 20
120.072726089172
 30
0.0
 10
104.3210952051928
 20
120.072726089172
 30
0.0
 10
103.9824500352207
 20
120.072726089172
 30
0.0
  0
LINE
  5
A5
330
1F
100
AcDbEntity
  8
0
  6
Continuous
 62
     7
370
     0
100
AcDbLine
 10
110.1115432706
 20
120.0727260892
 30
0.0
 11
107.6472995941
 21
120.0727260892
 31
0.0
  0
SPLINE
  5
A6
330
1F
100
AcDbEntity
  8
0
  6
Continuous
 62
     7
370
     0
100
AcDbSpline
210
0.0
220
0.0
230
1.0
 70
    24
 71
     3
 72
     9
 73
     5
 74
     0
 42
0.00000001
 43
0.00000001
 12
1.0
 22
0.0
 32
0.0
 13
1.0
 23
0.0
 33
0.0
 40
0.0
 40
0.0
 40
0.0
 40
0.0
 40
0.4998716600070353
 40
1.0
 40
1.0
 40
1.0
 40
1.0
 10
110.3681729313049
 20
120.072726089172
 30
0.0
 10
110.3573640657281
 20
120.072726089172
 30
0.0
 10
110.335740784311
 20
120.072726089172
 30
0.0
 10
110.186288562288
 20
120.072726089172
 30
0.0
 10
110.1115432705793
 20
120.072726089172
 30
0.0
  0
SPLINE
  5
A7
330
1F
100
AcDbEntity
  8
0
  6
Continuous
 62
     7
370
     0
100
AcDbSpline
210
0.0
220
0.0
230
1.0
 70
    24
 71
     3
 72
    10
 73
     6
 74
     0
 42
0.00000001
 43
0.00000001
 12
1.0
 22
0.0
 32
0.0
 13
1.0
 23
0.0
 33
0.0
 40
0.0
 40
0.0
 40
0.0
 40
0.0
 40
0.4998716290612251
 40
0.9997433919636531
 40
1.0
 40
1.0
 40
1.0
 40
1.0
 10
92.92486711852882
 20
120.072726089172
 30
0.0
 10
92.8546904303256
 20
120.0727260891726
 30
0.0
 10
92.71433703512926
 20
120.0727260891739
 30
0.0
 10
92.64704144542421
 20
120.0727260891675
 30
0.0
 10
92.66822751888323
 20
120.072726089172
 30
0.0
 10
92.6682383891258
 20
120.072726089172
 30
0.0
  0
LINE
  5
A8
330
1F
100
AcDbEntity
  8
0
  6
Continuous
 62
     7
370
     0
100
AcDbLine
 10
111.333160023
 20
119.515608925
 30
0.0
 11
111.333160023
 21
117.6298408989
 31
0.0
  0
LINE
  5
A9
330
1F
100
AcDbEntity
  8
0
  6
Continuous
 62
     7
370
     0
100
AcDbLine
 10
111.333160023
 20
116.5156065707
 30
0.0
 11
111.333160023
 21
114.6298422698
 31
0.0
  0
SPLINE
  5
AA
330
1F
100
AcDbEntity
  8
0
  6
Continuous
 62
     7
370
     0
100
AcDbSpline
210
0.0
220
0.0
230
1.0
 70
     8
 71
     3
 72
     9
 73
     5
 74
     0
 42
0.00000001
 43
0.00000001
 12
1.0
 22
0.0
 32
0.0
 13
1.0
 23
0.0
 33
0.0
 40
0.0
 40
0.0
 40
0.0
 40
0.0
 40
0.4990042007130907
 40
0.9999999999999999
 40
0.9999999999999999
 40
0.9999999999999999
 40
0.9999999999999999
 10
111.333160023025
 20
119.515608925037
 30
0.0
 10
111.1320782788288
 20
119.626826399355
 30
0.0
 10
110.7291122438557
 20
119.8497052331585
 30
0.0
 10
110.3176733562537
 20
119.9982871653127
 30
0.0
 10
110.1115442019019
 20
120.072726089172
 30
0.0
  0
SPLINE
  5
AB
330
1F
100
AcDbEntity
  8
0
  6
Continuous
 62
     7
370
     0
100
AcDbSpline
210
0.0
220
0.0
230
1.0
 70
     8
 71
     3
 72
     9
 73
     5
 74
     0
 42
0.00000001
 43
0.00000001
 12
1.0
 22
0.0
 32
0.0
 13
1.0
 23
0.0
 33
0.0
 40
0.0
 40
0.0
 40
0.0
 40
0.0
 40
0.4988473691636918
 40
1.0
 40
1.0
 40
1.0
 40
1.0
 10
110.1115442019019
 20
117.0727237347885
 30
0.0
 10
110.3167920178902
 20
117.146809988014
 30
0.0
 10
110.7282361362233
 20
117.2953248601074
 30
0.0
 10
111.1312090747343
 20
117.5181643182308
 30
0.0
 10
111.333160023025
 20
117.6298408989235
 30
0.0
  0
LINE
  5
AC
330
1F
100
AcDbEntity
  8
0
  6
Continuous
 62
     7
370
     0
100
AcDbLine
 10
107.6472995941
 20
117.0727237348
 30
0.0
 11
110.1115442019
 21
117.0727237348
 31
0.0
  0
SPLINE
  5
AD
330
1F
100
AcDbEntity
  8
0
  6
Continuous
 62
     7
370
     0
100
AcDbSpline
210
0.0
220
0.0
230
1.0
 70
     8
 71
     3
 72
     9
 73
     5
 74
     0
 42
0.00000001
 43
0.00000001
 12
1.0
 22
0.0
 32
0.0
 13
1.0
 23
0.0
 33
0.0
 40
0.0
 40
0.0
 40
0.0
 40
0.0
 40
0.4990041996681062
 40
1.0
 40
1.0
 40
1.0
 40
1.0
 10
106.4256828416202
 20
117.6298408989235
 30
0.0
 10
106.6267647414057
 20
117.5186234245347
 30
0.0
 10
107.029731089022
 20
117.2957445901224
 30
0.0
 10
107.4411702848594
 20
117.1471626585244
 30
0.0
 10
107.6472995940659
 20
117.0727237347885
 30
0.0
  0
LINE
  5
AE
330
1F
100
AcDbEntity
  8
0
  6
Continuous
 62
     7
370
     0
100
AcDbLine
 10
106.4256828416
 20
119.515608925
 30
0.0
 11
106.4256828416
 21
117.6298408989
 31
0.0
  0
SPLINE
  5
AF
330
1F
100
AcDbEntity
  8
0
  6
Continuous
 62
     7
370
     0
100
AcDbSpline
210
0.0
220
0.0
230
1.0
 70
     8
 71
     3
 72
     9
 73
     5
 74
     0
 42
0.00000001
 43
0.00000001
 12
1.0
 22
0.0
 32
0.0
 13
1.0
 23
0.0
 33
0.0
 40
0.0
 40
0.0
 40
0.0
 40
0.0
 40
0.4988477010872339
 40
1.0
 40
1.0
 40
1.0
 40
1.0
 10
107.6472995940659
 20
120.072726089172
 30
0.0
 10
107.4420516890159
 20
119.9986380150204
 30
0.0
 10
107.0306076659149
 20
119.8501195914813
 30
0.0
 10
106.6276340137859
 20
119.6272836629172
 30
0.0
 10
106.4256828416202
 20
119.515608925037
 30
0.0
  0
LINE
  5
B0
330
1F
100
AcDbEntity
  8
0
  6
Continuous
 62
     7
370
     0
100
AcDbLine
 10
110.1115442019
 20
120.0727260892
 30
0.0
 11
107.6472995941
 21
120.0727260892
 31
0.0
  0
LINE
  5
B1
330
1F
100
AcDbEntity
  8
0
  6
Continuous
 62
     7
370
     0
100
AcDbLine
 10
106.4256828416
 20
116.5156065707
 30
0.0
 11
106.4256828416
 21
114.6298422698
 31
0.0
  0
SPLINE
  5
B2
330
1F
100
AcDbEntity
  8
0
  6
Continuous
 62
     7
370
     0
100
AcDbSpline
210
0.0
220
0.0
230
1.0
 70
     8
 71
     3
 72
     9
 73
     5
 74
     0
 42
0.00000001
 43
0.00000001
 12
1.0
 22
0.0
 32
0.0
 13
1.0
 23
0.0
 33
0.0
 40
0.0
 40
0.0
 40
0.0
 40
0.0
 40
0.4990045300315923
 40
1.0
 40
1.0
 40
1.0
 40
1.0
 10
106.4256828416202
 20
114.6298422698303
 30
0.0
 10
106.6267646734807
 20
114.5186229576678
 30
0.0
 10
107.0297306181943
 20
114.2957405879318
 30
0.0
 10
107.4411702182649
 20
114.1471622033207
 30
0.0
 10
107.6472995940659
 20
114.0727251056954
 30
0.0
  0
LINE
  5
B3
330
1F
100
AcDbEntity
  8
0
  6
Continuous
 62
     7
370
     0
100
AcDbLine
 10
107.6472995941
 20
114.0727251057
 30
0.0
 11
110.1115442019
 21
114.0727251057
 31
0.0
  0
SPLINE
  5
B4
330
1F
100
AcDbEntity
  8
0
  6
Continuous
 62
     7
370
     0
100
AcDbSpline
210
0.0
220
0.0
230
1.0
 70
     8
 71
     3
 72
     9
 73
     5
 74
     0
 42
0.00000001
 43
0.00000001
 12
1.0
 22
0.0
 32
0.0
 13
1.0
 23
0.0
 33
0.0
 40
0.0
 40
0.0
 40
0.0
 40
0.0
 40
0.4988473691636918
 40
1.0
 40
1.0
 40
1.0
 40
1.0
 10
110.1115442019019
 20
114.0727251056954
 30
0.0
 10
110.3167920178902
 20
114.1468113589208
 30
0.0
 10
110.7282361362233
 20
114.2953262310142
 30
0.0
 10
111.1312090747343
 20
114.5181656891377
 30
0.0
 10
111.333160023025
 20
114.6298422698303
 30
0.0
  0
SPLINE
  5
B5
330
1F
100
AcDbEntity
  8
0
  6
Continuous
 62
     7
370
     0
100
AcDbSpline
210
0.0
220
0.0
230
1.0
 70
     8
 71
     3
 72
     9
 73
     5
 74
     0
 42
0.00000001
 43
0.00000001
 12
1.0
 22
0.0
 32
0.0
 13
1.0
 23
0.0
 33
0.0
 40
0.0
 40
0.0
 40
0.0
 40
0.0
 40
0.4990045310768516
 40
1.0
 40
1.0
 40
1.0
 40
1.0
 10
111.333160023025
 20
116.5156065706535
 30
0.0
 10
111.1320783467537
 20
116.6268258827451
 30
0.0
 10
110.7291127146835
 20
116.8497082518723
 30
0.0
 10
110.3176734228483
 20
116.9982866370397
 30
0.0
 10
110.1115442019019
 20
117.0727237347885
 30
0.0
  0
SPLINE
  5
B6
330
1F
100
AcDbEntity
  8
0
  6
Continuous
 62
     7
370
     0
100
AcDbSpline
210
0.0
220
0.0
230
1.0
 70
     8
 71
     3
 72
     9
 73
     5
 74
     0
 42
0.00000001
 43
0.00000001
 12
1.0
 22
0.0
 32
0.0
 13
1.0
 23
0.0
 33
0.0
 40
0.0
 40
0.0
 40
0.0
 40
0.0
 40
0.498847371102328
 40
1.0
 40
1.0
 40
1.0
 40
1.0
 10
107.6472995940659
 20
117.0727237347885
 30
0.0
 10
107.4420516230665
 20
116.99863748179
 30
0.0
 10
107.0306071955939
 20
116.8501226107288
 30
0.0
 10
106.6276339453536
 20
116.6272831514788
 30
0.0
 10
106.4256828416202
 20
116.5156065706535
 30
0.0
  0
LINE
  5
B7
330
1F
100
AcDbEntity
  8
0
  6
Continuous
 62
     7
370
     0
100
AcDbLine
 10
96.6107284788
 20
119.515608925
 30
0.0
 11
96.6107284788
 21
117.6298408989
 31
0.0
  0
SPLINE
  5
B8
330
1F
100
AcDbEntity
  8
0
  6
Continuous
 62
     7
370
     0
100
AcDbSpline
210
0.0
220
0.0
230
1.0
 70
     8
 71
     3
 72
     9
 73
     5
 74
     0
 42
0.00000001
 43
0.00000001
 12
1.0
 22
0.0
 32
0.0
 13
1.0
 23
0.0
 33
0.0
 40
0.0
 40
0.0
 40
0.0
 40
0.0
 40
0.4990041721436719
 40
1.0
 40
1.0
 40
1.0
 40
1.0
 10
96.61072847881053
 20
117.6298408989235
 30
0.0
 10
97.01289199877752
 20
117.5186234226681
 30
0.0
 10
97.81882417814057
 20
117.2957445722214
 30
0.0
 10
98.64170261933744
 20
117.1471626552741
 30
0.0
 10
99.05396128521
 20
117.0727237347885
 30
0.0
  0
LINE
  5
B9
330
1F
100
AcDbEntity
  8
0
  6
Continuous
 62
     7
370
     0
100
AcDbLine
 10
99.0539612852
 20
117.0727237348
 30
0.0
 11
103.9824500352
 21
117.0727237348
 31
0.0
  0
SPLINE
  5
BA
330
1F
100
AcDbEntity
  8
0
  6
Continuous
 62
     7
370
     0
100
AcDbSpline
210
0.0
220
0.0
230
1.0
 70
     8
 71
     3
 72
     9
 73
     5
 74
     0
 42
0.00000001
 43
0.00000001
 12
1.0
 22
0.0
 32
0.0
 13
1.0
 23
0.0
 33
0.0
 40
0.0
 40
0.0
 40
0.0
 40
0.0
 40
0.4988474167367364
 40
1.0
 40
1.0
 40
1.0
 40
1.0
 10
103.9824500352207
 20
117.0727237347885
 30
0.0
 10
104.3929459005485
 20
117.1468099824438
 30
0.0
 10
105.2158345265196
 20
117.2953248292079
 30
0.0
 10
106.0217807898039
 20
117.5181643149772
 30
0.0
 10
106.4256828416202
 20
117.6298408989235
 30
0.0
  0
SPLINE
  5
BB
330
1F
100
AcDbEntity
  8
0
  6
Continuous
 62
     7
370
     0
100
AcDbSpline
210
0.0
220
0.0
230
1.0
 70
     8
 71
     3
 72
     9
 73
     5
 74
     0
 42
0.00000001
 43
0.00000001
 12
1.0
 22
0.0
 32
0.0
 13
1.0
 23
0.0
 33
0.0
 40
0.0
 40
0.0
 40
0.0
 40
0.0
 40
0.4990041721436719
 40
1.0
 40
1.0
 40
1.0
 40
1.0
 10
106.4256828416202
 20
119.515608925037
 30
0.0
 10
106.0235193216532
 20
119.6268264012925
 30
0.0
 10
105.2175871422901
 20
119.8497052517391
 30
0.0
 10
104.3947087010933
 20
119.9982871686865
 30
0.0
 10
103.9824500352207
 20
120.072726089172
 30
0.0
  0
LINE
  5
BC
330
1F
100
AcDbEntity
  8
0
  6
Continuous
 62
     7
370
     0
100
AcDbLine
 10
103.9824500352
 20
120.0727260892
 30
0.0
 11
99.0539612852
 21
120.0727260892
 31
0.0
  0
SPLINE
  5
BD
330
1F
100
AcDbEntity
  8
0
  6
Continuous
 62
     7
370
     0
100
AcDbSpline
210
0.0
220
0.0
230
1.0
 70
     8
 71
     3
 72
     9
 73
     5
 74
     0
 42
0.00000001
 43
0.00000001
 12
1.0
 22
0.0
 32
0.0
 13
1.0
 23
0.0
 33
0.0
 40
0.0
 40
0.0
 40
0.0
 40
0.0
 40
0.4988477467218753
 40
1.0
 40
1.0
 40
1.0
 40
1.0
 10
99.05396128521
 20
120.072726089172
 30
0.0
 10
98.6434655517811
 20
119.9986380203635
 30
0.0
 10
97.82057773455348
 20
119.8501196211218
 30
0.0
 10
97.01463066749153
 20
119.6272836660384
 30
0.0
 10
96.61072847881053
 20
119.515608925037
 30
0.0
  0
SPLINE
  5
BE
330
1F
100
AcDbEntity
  8
0
  6
Continuous
 62
     7
370
     0
100
AcDbSpline
210
0.0
220
0.0
230
1.0
 70
     8
 71
     3
 72
     9
 73
     5
 74
     0
 42
0.00000001
 43
0.00000001
 12
1.0
 22
0.0
 32
0.0
 13
1.0
 23
0.0
 33
0.0
 40
0.0
 40
0.0
 40
0.0
 40
0.0
 40
0.4990045025073885
 40
1.0
 40
1.0
 40
1.0
 40
1.0
 10
106.4256828416202
 20
116.5156065706535
 30
0.0
 10
106.0235194575032
 20
116.6268258846825
 30
0.0
 10
105.2175880839461
 20
116.8497082704529
 30
0.0
 10
104.3947088342823
 20
116.9982866404135
 30
0.0
 10
103.9824500352207
 20
117.0727237347885
 30
0.0
  0
SPLINE
  5
BF
330
1F
100
AcDbEntity
  8
0
  6
Continuous
 62
     7
370
     0
100
AcDbSpline
210
0.0
220
0.0
230
1.0
 70
     8
 71
     3
 72
     9
 73
     5
 74
     0
 42
0.00000001
 43
0.00000001
 12
1.0
 22
0.0
 32
0.0
 13
1.0
 23
0.0
 33
0.0
 40
0.0
 40
0.0
 40
0.0
 40
0.0
 40
0.4988474167367364
 40
1.0
 40
1.0
 40
1.0
 40
1.0
 10
103.9824500352207
 20
114.0727251056954
 30
0.0
 10
104.3929459005485
 20
114.1468113533507
 30
0.0
 10
105.2158345265196
 20
114.2953262001147
 30
0.0
 10
106.0217807898039
 20
114.518165685884
 30
0.0
 10
106.4256828416202
 20
114.6298422698303
 30
0.0
  0
LINE
  5
C0
330
1F
100
AcDbEntity
  8
0
  6
Continuous
 62
     7
370
     0
100
AcDbLine
 10
99.0539612852
 20
114.0727251057
 30
0.0
 11
103.9824500352
 21
114.0727251057
 31
0.0
  0
SPLINE
  5
C1
330
1F
100
AcDbEntity
  8
0
  6
Continuous
 62
     7
370
     0
100
AcDbSpline
210
0.0
220
0.0
230
1.0
 70
     8
 71
     3
 72
     9
 73
     5
 74
     0
 42
0.00000001
 43
0.00000001
 12
1.0
 22
0.0
 32
0.0
 13
1.0
 23
0.0
 33
0.0
 40
0.0
 40
0.0
 40
0.0
 40
0.0
 40
0.4990045025073885
 40
1.0
 40
1.0
 40
1.0
 40
1.0
 10
96.61072847881053
 20
114.6298422698303
 30
0.0
 10
97.0128918629275
 20
114.5186229558013
 30
0.0
 10
97.81882323648465
 20
114.2957405700309
 30
0.0
 10
98.64170248614838
 20
114.1471622000704
 30
0.0
 10
99.05396128521
 20
114.0727251056954
 30
0.0
  0
LINE
  5
C2
330
1F
100
AcDbEntity
  8
0
  6
Continuous
 62
     7
370
     0
100
AcDbLine
 10
96.6107284788
 20
116.5156065707
 30
0.0
 11
96.6107284788
 21
114.6298422698
 31
0.0
  0
SPLINE
  5
C3
330
1F
100
AcDbEntity
  8
0
  6
Continuous
 62
     7
370
     0
100
AcDbSpline
210
0.0
220
0.0
230
1.0
 70
     8
 71
     3
 72
     9
 73
     5
 74
     0
 42
0.00000001
 43
0.00000001
 12
1.0
 22
0.0
 32
0.0
 13
1.0
 23
0.0
 33
0.0
 40
0.0
 40
0.0
 40
0.0
 40
0.0
 40
0.4988474167367364
 40
1.0
 40
1.0
 40
1.0
 40
1.0
 10
99.05396128521
 20
117.0727237347885
 30
0.0
 10
98.64346541988225
 20
116.9986374871332
 30
0.0
 10
97.82057679391114
 20
116.8501226403691
 30
0.0
 10
97.01463053062683
 20
116.6272831545999
 30
0.0
 10
96.61072847881053
 20
116.5156065706535
 30
0.0
  0
LINE
  5
C4
330
1F
100
AcDbEntity
  8
0
  6
Continuous
 62
     7
370
     0
100
AcDbLine
 10
91.7032512974
 20
116.5156065707
 30
0.0
 11
91.7032512974
 21
114.6298422698
 31
0.0
  0
SPLINE
  5
C5
330
1F
100
AcDbEntity
  8
0
  6
Continuous
 62
     7
370
     0
100
AcDbSpline
210
0.0
220
0.0
230
1.0
 70
     8
 71
     3
 72
     9
 73
     5
 74
     0
 42
0.00000001
 43
0.00000001
 12
1.0
 22
0.0
 32
0.0
 13
1.0
 23
0.0
 33
0.0
 40
0.0
 40
0.0
 40
0.0
 40
0.0
 40
0.4984265560992575
 40
1.0
 40
1.0
 40
1.0
 40
1.0
 10
91.7032512974057
 20
114.6298422698303
 30
0.0
 10
91.90409930368409
 20
114.5187474397524
 30
0.0
 10
92.30706339903699
 20
114.2958563663968
 30
0.0
 10
92.71850096274811
 20
114.1472580666548
 30
0.0
 10
92.92486711852882
 20
114.0727251056954
 30
0.0
  0
LINE
  5
C6
330
1F
100
AcDbEntity
  8
0
  6
Continuous
 62
     7
370
     0
100
AcDbLine
 10
92.9248671185
 20
114.0727251057
 30
0.0
 11
95.3891117264
 21
114.0727251057
 31
0.0
  0
SPLINE
  5
C7
330
1F
100
AcDbEntity
  8
0
  6
Continuous
 62
     7
370
     0
100
AcDbSpline
210
0.0
220
0.0
230
1.0
 70
     8
 71
     3
 72
     9
 73
     5
 74
     0
 42
0.00000001
 43
0.00000001
 12
1.0
 22
0.0
 32
0.0
 13
1.0
 23
0.0
 33
0.0
 40
0.0
 40
0.0
 40
0.0
 40
0.0
 40
0.5008257704155015
 40
1.0
 40
1.0
 40
1.0
 40
1.0
 10
95.38911172636483
 20
114.0727251056954
 30
0.0
 10
95.595171562807
 20
114.1471356135114
 30
0.0
 10
96.00661172546322
 20
114.2957112504126
 30
0.0
 10
96.4095780661498
 20
114.5185879600198
 30
0.0
 10
96.61072847881053
 20
114.6298422698303
 30
0.0
  0
SPLINE
  5
C8
330
1F
100
AcDbEntity
  8
0
  6
Continuous
 62
     7
370
     0
100
AcDbSpline
210
0.0
220
0.0
230
1.0
 70
     8
 71
     3
 72
     9
 73
     5
 74
     0
 42
0.00000001
 43
0.00000001
 12
1.0
 22
0.0
 32
0.0
 13
1.0
 23
0.0
 33
0.0
 40
0.0
 40
0.0
 40
0.0
 40
0.0
 40
0.4984265432024742
 40
1.0
 40
1.0
 40
1.0
 40
1.0
 10
96.61072847881053
 20
116.5156065706535
 30
0.0
 10
96.40988054676717
 20
116.6267014016041
 30
0.0
 10
96.00691658992635
 20
116.8495924824777
 30
0.0
 10
95.5954782678351
 20
116.9981907753556
 30
0.0
 10
95.38911172636483
 20
117.0727237347885
 30
0.0
  0
SPLINE
  5
C9
330
1F
100
AcDbEntity
  8
0
  6
Continuous
 62
     7
370
     0
100
AcDbSpline
210
0.0
220
0.0
230
1.0
 70
     8
 71
     3
 72
     9
 73
     5
 74
     0
 42
0.00000001
 43
0.00000001
 12
1.0
 22
0.0
 32
0.0
 13
1.0
 23
0.0
 33
0.0
 40
0.0
 40
0.0
 40
0.0
 40
0.0
 40
0.5008257572074454
 40
1.0
 40
1.0
 40
1.0
 40
1.0
 10
92.92486711852882
 20
117.0727237347885
 30
0.0
 10
92.71880766760522
 20
116.9983132254138
 30
0.0
 10
92.30736826386416
 20
116.8497375814821
 30
0.0
 10
91.90440178457543
 20
116.6268608795677
 30
0.0
 10
91.7032512974057
 20
116.5156065706535
 30
0.0
  0
LINE
  5
CA
330
1F
100
AcDbEntity
  8
0
  6
Continuous
 62
     7
370
     0
100
AcDbLine
 10
91.7032512974
 20
119.515608925
 30
0.0
 11
91.7032512974
 21
117.6298408989
 31
0.0
  0
SPLINE
  5
CB
330
1F
100
AcDbEntity
  8
0
  6
Continuous
 62
     7
370
     0
100
AcDbSpline
210
0.0
220
0.0
230
1.0
 70
     8
 71
     3
 72
     9
 73
     5
 74
     0
 42
0.00000001
 43
0.00000001
 12
1.0
 22
0.0
 32
0.0
 13
1.0
 23
0.0
 33
0.0
 40
0.0
 40
0.0
 40
0.0
 40
0.0
 40
0.4984265560992575
 40
1.0
 40
1.0
 40
1.0
 40
1.0
 10
91.7032512974057
 20
117.6298408989235
 30
0.0
 10
91.90409930368409
 20
117.5187460688456
 30
0.0
 10
92.30706339903699
 20
117.29585499549
 30
0.0
 10
92.71850096274811
 20
117.1472566957479
 30
0.0
 10
92.92486711852882
 20
117.0727237347885
 30
0.0
  0
SPLINE
  5
CC
330
1F
100
AcDbEntity
  8
0
  6
Continuous
 62
     7
370
     0
100
AcDbSpline
210
0.0
220
0.0
230
1.0
 70
     8
 71
     3
 72
     9
 73
     5
 74
     0
 42
0.00000001
 43
0.00000001
 12
1.0
 22
0.0
 32
0.0
 13
1.0
 23
0.0
 33
0.0
 40
0.0
 40
0.0
 40
0.0
 40
0.0
 40
0.5008257704155015
 40
1.0
 40
1.0
 40
1.0
 40
1.0
 10
95.38911172636483
 20
117.0727237347885
 30
0.0
 10
95.595171562807
 20
117.1471342426046
 30
0.0
 10
96.00661172546322
 20
117.2957098795058
 30
0.0
 10
96.4095780661498
 20
117.518586589113
 30
0.0
 10
96.61072847881053
 20
117.6298408989235
 30
0.0
  0
SPLINE
  5
CD
330
1F
100
AcDbEntity
  8
0
  6
Continuous
 62
     7
370
     0
100
AcDbSpline
210
0.0
220
0.0
230
1.0
 70
     8
 71
     3
 72
     9
 73
     5
 74
     0
 42
0.00000001
 43
0.00000001
 12
1.0
 22
0.0
 32
0.0
 13
1.0
 23
0.0
 33
0.0
 40
0.0
 40
0.0
 40
0.0
 40
0.0
 40
0.4984265432024742
 40
1.0
 40
1.0
 40
1.0
 40
1.0
 10
96.61072847881053
 20
119.515608925037
 30
0.0
 10
96.40988054676717
 20
119.6267037559875
 30
0.0
 10
96.00691658992635
 20
119.8495948368612
 30
0.0
 10
95.5954782678351
 20
119.998193129739
 30
0.0
 10
95.38911172636483
 20
120.072726089172
 30
0.0
  0
SPLINE
  5
CE
330
1F
100
AcDbEntity
  8
0
  6
Continuous
 62
     7
370
     0
100
AcDbSpline
210
0.0
220
0.0
230
1.0
 70
     8
 71
     3
 72
     9
 73
     5
 74
     0
 42
0.00000001
 43
0.00000001
 12
1.0
 22
0.0
 32
0.0
 13
1.0
 23
0.0
 33
0.0
 40
0.0
 40
0.0
 40
0.0
 40
0.0
 40
0.5008257572074454
 40
1.0
 40
1.0
 40
1.0
 40
1.0
 10
92.92486711852882
 20
120.072726089172
 30
0.0
 10
92.71880766760522
 20
119.9983155797973
 30
0.0
 10
92.30736826386416
 20
119.8497399358655
 30
0.0
 10
91.90440178457543
 20
119.6268632339512
 30
0.0
 10
91.7032512974057
 20
119.515608925037
 30
0.0
  0
SPLINE
  5
CF
330
1F
100
AcDbEntity
  8
0
  6
Continuous
 62
     7
370
     0
100
AcDbSpline
210
0.0
220
0.0
230
1.0
 70
     8
 71
     3
 72
     9
 73
     5
 74
     0
 42
0.00000001
 43
0.00000001
 12
1.0
 22
0.0
 32
0.0
 13
1.0
 23
0.0
 33
0.0
 40
0.0
 40
0.0
 40
0.0
 40
0.0
 40
0.4990045310768516
 40
1.0
 40
1.0
 40
1.0
 40
1.0
 10
91.7032512974057
 20
116.5156065706535
 30
0.0
 10
91.90433297367697
 20
116.6268258827451
 30
0.0
 10
92.30729860574718
 20
116.8497082518723
 30
0.0
 10
92.71873789758241
 20
116.9982866370397
 30
0.0
 10
92.92486711852882
 20
117.0727237347885
 30
0.0
  0
SPLINE
  5
D0
330
1F
100
AcDbEntity
  8
0
  6
Continuous
 62
     7
370
     0
100
AcDbSpline
210
0.0
220
0.0
230
1.0
 70
     8
 71
     3
 72
     9
 73
     5
 74
     0
 42
0.00000001
 43
0.00000001
 12
1.0
 22
0.0
 32
0.0
 13
1.0
 23
0.0
 33
0.0
 40
0.0
 40
0.0
 40
0.0
 40
0.0
 40
0.4990042007130907
 40
0.9999999999999999
 40
0.9999999999999999
 40
0.9999999999999999
 40
0.9999999999999999
 10
91.7032512974057
 20
119.515608925037
 30
0.0
 10
91.90433304160194
 20
119.626826399355
 30
0.0
 10
92.30729907657499
 20
119.8497052331585
 30
0.0
 10
92.71873796417695
 20
119.9982871653127
 30
0.0
 10
92.92486711852882
 20
120.072726089172
 30
0.0
  0
SPLINE
  5
D1
330
1F
100
AcDbEntity
  8
0
  6
Continuous
 62
     7
370
     0
100
AcDbSpline
210
0.0
220
0.0
230
1.0
 70
    24
 71
     3
 72
    10
 73
     6
 74
     0
 42
0.00000001
 43
0.00000001
 12
1.0
 22
0.0
 32
0.0
 13
1.0
 23
0.0
 33
0.0
 40
0.0
 40
0.0
 40
0.0
 40
0.0
 40
0.4998716290612251
 40
0.9997433919636531
 40
1.0
 40
1.0
 40
1.0
 40
1.0
 10
92.92486711852882
 20
114.0727251056954
 30
0.0
 10
92.8546904303256
 20
114.0727251056968
 30
0.0
 10
92.71433703512926
 20
114.0727251056996
 30
0.0
 10
92.64704144542421
 20
114.0727251056854
 30
0.0
 10
92.66822751888323
 20
114.0727251056954
 30
0.0
 10
92.6682383891258
 20
114.0727251056954
 30
0.0
  0
SPLINE
  5
D2
330
1F
100
AcDbEntity
  8
0
  6
Continuous
 62
     7
370
     0
100
AcDbSpline
210
0.0
220
0.0
230
1.0
 70
    24
 71
     3
 72
     9
 73
     5
 74
     0
 42
0.00000001
 43
0.00000001
 12
1.0
 22
0.0
 32
0.0
 13
1.0
 23
0.0
 33
0.0
 40
0.0
 40
0.0
 40
0.0
 40
0.0
 40
0.4998716600070353
 40
1.0
 40
1.0
 40
1.0
 40
1.0
 10
110.3681729313049
 20
114.0727251056954
 30
0.0
 10
110.3573640657281
 20
114.0727251056954
 30
0.0
 10
110.335740784311
 20
114.0727251056954
 30
0.0
 10
110.186288562288
 20
114.0727251056954
 30
0.0
 10
110.1115432705793
 20
114.0727251056954
 30
0.0
  0
LINE
  5
D3
330
1F
100
AcDbEntity
  8
0
  6
Continuous
 62
     7
370
     0
100
AcDbLine
 10
110.1115432706
 20
114.0727251057
 30
0.0
 11
107.6472995941
 21
114.0727251057
 31
0.0
  0
SPLINE
  5
D4
330
1F
100
AcDbEntity
  8
0
  6
Continuous
 62
     7
370
     0
100
AcDbSpline
210
0.0
220
0.0
230
1.0
 70
    24
 71
     3
 72
     9
 73
     5
 74
     0
 42
0.00000001
 43
0.00000001
 12
1.0
 22
0.0
 32
0.0
 13
1.0
 23
0.0
 33
0.0
 40
0.0
 40
0.0
 40
0.0
 40
0.0
 40
0.5000000276755452
 40
1.0
 40
1.0
 40
1.0
 40
1.0
 10
107.6472995940659
 20
114.0727251056954
 30
0.0
 10
107.3826247118535
 20
114.0727251056954
 30
0.0
 10
106.8532749767287
 20
114.0727251056954
 30
0.0
 10
106.2465620436523
 20
114.0727251056954
 30
0.0
 10
105.9432055939052
 20
114.0727251056954
 30
0.0
  0
SPLINE
  5
D5
330
1F
100
AcDbEntity
  8
0
  6
Continuous
 62
     7
370
     0
100
AcDbSpline
210
0.0
220
0.0
230
1.0
 70
    24
 71
     3
 72
     9
 73
     5
 74
     0
 42
0.00000001
 43
0.00000001
 12
1.0
 22
0.0
 32
0.0
 13
1.0
 23
0.0
 33
0.0
 40
0.0
 40
0.0
 40
0.0
 40
0.0
 40
0.4999999461048324
 40
1.0
 40
1.0
 40
1.0
 40
1.0
 10
105.9432055939052
 20
114.0727251056954
 30
0.0
 10
105.6290378164698
 20
114.0727251056954
 30
0.0
 10
105.0007021938707
 20
114.0727251056954
 30
0.0
 10
104.321867445828
 20
114.0727251056954
 30
0.0
 10
103.9824500352207
 20
114.0727251056954
 30
0.0
  0
LINE
  5
D6
330
1F
100
AcDbEntity
  8
0
  6
Continuous
 62
     7
370
     0
100
AcDbLine
 10
103.9824500352
 20
114.0727251057
 30
0.0
 11
99.0539612852
 21
114.0727251057
 31
0.0
  0
SPLINE
  5
D7
330
1F
100
AcDbEntity
  8
0
  6
Continuous
 62
     7
370
     0
100
AcDbSpline
210
0.0
220
0.0
230
1.0
 70
    24
 71
     3
 72
    11
 73
     7
 74
     0
 42
0.00000001
 43
0.00000001
 12
1.0
 22
0.0
 32
0.0
 13
1.0
 23
0.0
 33
0.0
 40
0.0
 40
0.0
 40
0.0
 40
0.0
 40
0.2499999626952285
 40
0.4999999447415671
 40
0.7499999585330095
 40
1.0
 40
1.0
 40
1.0
 40
1.0
 10
99.05396128521
 20
114.0727251056954
 30
0.0
 10
98.71531609040541
 20
114.0727251056954
 30
0.0
 10
98.03802567458357
 20
114.0727251056954
 30
0.0
 10
97.0839388229935
 20
114.0727251056954
 30
0.0
 10
96.18545306037673
 20
114.0727251056954
 30
0.0
 10
95.65455884749733
 20
114.0727251056954
 30
0.0
 10
95.38911172636483
 20
114.0727251056954
 30
0.0
  0
LINE
  5
D8
330
1F
100
AcDbEntity
  8
0
  6
Continuous
 62
     7
370
     0
100
AcDbLine
 10
103.9824500352
 20
117.0727237348
 30
0.0
 11
99.0539612852
 21
117.0727237348
 31
0.0
  0
SPLINE
  5
D9
330
1F
100
AcDbEntity
  8
0
  6
Continuous
 62
     7
370
     0
100
AcDbSpline
210
0.0
220
0.0
230
1.0
 70
    24
 71
     3
 72
     9
 73
     5
 74
     0
 42
0.00000001
 43
0.00000001
 12
1.0
 22
0.0
 32
0.0
 13
1.0
 23
0.0
 33
0.0
 40
0.0
 40
0.0
 40
0.0
 40
0.0
 40
0.4999999461048324
 40
1.0
 40
1.0
 40
1.0
 40
1.0
 10
105.9432055939052
 20
117.0727237347885
 30
0.0
 10
105.6290378164698
 20
117.0727237347885
 30
0.0
 10
105.0007021938707
 20
117.0727237347885
 30
0.0
 10
104.321867445828
 20
117.0727237347885
 30
0.0
 10
103.9824500352207
 20
117.0727237347885
 30
0.0
  0
SPLINE
  5
DA
330
1F
100
AcDbEntity
  8
0
  6
Continuous
 62
     7
370
     0
100
AcDbSpline
210
0.0
220
0.0
230
1.0
 70
    24
 71
     3
 72
     9
 73
     5
 74
     0
 42
0.00000001
 43
0.00000001
 12
1.0
 22
0.0
 32
0.0
 13
1.0
 23
0.0
 33
0.0
 40
0.0
 40
0.0
 40
0.0
 40
0.0
 40
0.5000000276755452
 40
1.0
 40
1.0
 40
1.0
 40
1.0
 10
107.6472995940659
 20
117.0727237347885
 30
0.0
 10
107.3826247118535
 20
117.0727237347885
 30
0.0
 10
106.8532749767287
 20
117.0727237347885
 30
0.0
 10
106.2465620436523
 20
117.0727237347885
 30
0.0
 10
105.9432055939052
 20
117.0727237347885
 30
0.0
  0
LINE
  5
DB
330
1F
100
AcDbEntity
  8
0
  6
Continuous
 62
     7
370
     0
100
AcDbLine
 10
110.1115432706
 20
117.0727237348
 30
0.0
 11
107.6472995941
 21
117.0727237348
 31
0.0
  0
SPLINE
  5
DC
330
1F
100
AcDbEntity
  8
0
  6
Continuous
 62
     7
370
     0
100
AcDbSpline
210
0.0
220
0.0
230
1.0
 70
    24
 71
     3
 72
     9
 73
     5
 74
     0
 42
0.00000001
 43
0.00000001
 12
1.0
 22
0.0
 32
0.0
 13
1.0
 23
0.0
 33
0.0
 40
0.0
 40
0.0
 40
0.0
 40
0.0
 40
0.4998716600070353
 40
1.0
 40
1.0
 40
1.0
 40
1.0
 10
110.3681729313049
 20
117.0727237347885
 30
0.0
 10
110.3573640657281
 20
117.0727237347885
 30
0.0
 10
110.335740784311
 20
117.0727237347885
 30
0.0
 10
110.186288562288
 20
117.0727237347885
 30
0.0
 10
110.1115432705793
 20
117.0727237347885
 30
0.0
  0
SPLINE
  5
DD
330
1F
100
AcDbEntity
  8
0
  6
Continuous
 62
     7
370
     0
100
AcDbSpline
210
0.0
220
0.0
230
1.0
 70
    24
 71
     3
 72
    10
 73
     6
 74
     0
 42
0.00000001
 43
0.00000001
 12
1.0
 22
0.0
 32
0.0
 13
1.0
 23
0.0
 33
0.0
 40
0.0
 40
0.0
 40
0.0
 40
0.0
 40
0.4998716290612251
 40
0.9997433919636531
 40
1.0
 40
1.0
 40
1.0
 40
1.0
 10
92.92486711852882
 20
117.0727237347885
 30
0.0
 10
92.8546904303256
 20
117.0727237347887
 30
0.0
 10
92.71433703512926
 20
117.072723734789
 30
0.0
 10
92.64704144542421
 20
117.0727237347874
 30
0.0
 10
92.66822751888323
 20
117.0727237347885
 30
0.0
 10
92.6682383891258
 20
117.0727237347885
 30
0.0
  0
SPLINE
  5
DE
330
1F
100
AcDbEntity
  8
0
  6
Continuous
 62
     7
370
     0
100
AcDbSpline
210
0.0
220
0.0
230
1.0
 70
    24
 71
     3
 72
    11
 73
     7
 74
     0
 42
0.00000001
 43
0.00000001
 12
1.0
 22
0.0
 32
0.0
 13
1.0
 23
0.0
 33
0.0
 40
0.0
 40
0.0
 40
0.0
 40
0.0
 40
0.2499999626952285
 40
0.4999999447415671
 40
0.7499999585330095
 40
1.0
 40
1.0
 40
1.0
 40
1.0
 10
99.05396128521
 20
117.0727237347885
 30
0.0
 10
98.71531609040541
 20
117.0727237347885
 30
0.0
 10
98.03802567458357
 20
117.0727237347885
 30
0.0
 10
97.0839388229935
 20
117.0727237347885
 30
0.0
 10
96.18545306037673
 20
117.0727237347885
 30
0.0
 10
95.65455884749733
 20
117.0727237347885
 30
0.0
 10
95.38911172636483
 20
117.0727237347885
 30
0.0
  0
SPLINE
  5
DF
330
1F
100
AcDbEntity
  8
0
  6
Continuous
 62
     7
370
     0
100
AcDbSpline
210
0.0
220
0.0
230
1.0
 70
     8
 71
     3
 72
     9
 73
     5
 74
     0
 42
0.00000001
 43
0.00000001
 12
1.0
 22
0.0
 32
0.0
 13
1.0
 23
0.0
 33
0.0
 40
0.0
 40
0.0
 40
0.0
 40
0.0
 40
0.4984265557639657
 40
1.0
 40
1.0
 40
1.0
 40
1.0
 10
91.7032512974057
 20
117.6298408989235
 30
0.0
 10
91.90409930375287
 20
117.5187460688229
 30
0.0
 10
92.30706339951485
 20
117.2958549952718
 30
0.0
 10
92.71850096281585
 20
117.1472566957083
 30
0.0
 10
92.92486711852882
 20
117.0727237347885
 30
0.0
  0
SPLINE
  5
E0
330
1F
100
AcDbEntity
  8
0
  6
Continuous
 62
     7
370
     0
100
AcDbSpline
210
0.0
220
0.0
230
1.0
 70
     8
 71
     3
 72
     9
 73
     5
 74
     0
 42
0.00000001
 43
0.00000001
 12
1.0
 22
0.0
 32
0.0
 13
1.0
 23
0.0
 33
0.0
 40
0.0
 40
0.0
 40
0.0
 40
0.0
 40
0.4984265557639657
 40
1.0
 40
1.0
 40
1.0
 40
1.0
 10
91.7032512974057
 20
114.6298422698303
 30
0.0
 10
91.90409930375287
 20
114.5187474397297
 30
0.0
 10
92.30706339951485
 20
114.2958563661787
 30
0.0
 10
92.71850096281585
 20
114.1472580666151
 30
0.0
 10
92.92486711852882
 20
114.0727251056954
 30
0.0
  0
LINE
  5
E1
330
1F
100
AcDbEntity
  8
0
  6
Continuous
 62
     7
370
     0
100
AcDbLine
 10
92.9248671185
 20
114.0727251057
 30
0.0
 11
92.6682057928
 21
114.0727251057
 31
0.0
  0
SPLINE
  5
E2
330
1F
100
AcDbEntity
  8
0
  6
Continuous
 62
     7
370
     0
100
AcDbSpline
210
0.0
220
0.0
230
1.0
 70
     8
 71
     3
 72
     9
 73
     5
 74
     0
 42
0.00000001
 43
0.00000001
 12
1.0
 22
0.0
 32
0.0
 13
1.0
 23
0.0
 33
0.0
 40
0.0
 40
0.0
 40
0.0
 40
0.0
 40
0.4988473695016291
 40
1.0
 40
1.0
 40
1.0
 40
1.0
 10
110.1115442019019
 20
117.0727237347885
 30
0.0
 10
110.3167920178227
 20
117.1468099879744
 30
0.0
 10
110.7282361357416
 20
117.2953248598879
 30
0.0
 10
111.1312090746643
 20
117.5181643182077
 30
0.0
 10
111.333160023025
 20
117.6298408989235
 30
0.0
  0
LINE
  5
E3
330
1F
100
AcDbEntity
  8
0
  6
Continuous
 62
     7
370
     0
100
AcDbLine
 10
110.3682055276
 20
114.0727251057
 30
0.0
 11
110.1115442019
 21
114.0727251057
 31
0.0
  0
SPLINE
  5
E4
330
1F
100
AcDbEntity
  8
0
  6
Continuous
 62
     7
370
     0
100
AcDbSpline
210
0.0
220
0.0
230
1.0
 70
     8
 71
     3
 72
     9
 73
     5
 74
     0
 42
0.00000001
 43
0.00000001
 12
1.0
 22
0.0
 32
0.0
 13
1.0
 23
0.0
 33
0.0
 40
0.0
 40
0.0
 40
0.0
 40
0.0
 40
0.4988473695016291
 40
1.0
 40
1.0
 40
1.0
 40
1.0
 10
110.1115442019019
 20
114.0727251056954
 30
0.0
 10
110.3167920178227
 20
114.1468113588813
 30
0.0
 10
110.7282361357416
 20
114.2953262307947
 30
0.0
 10
111.1312090746643
 20
114.5181656891146
 30
0.0
 10
111.333160023025
 20
114.6298422698303
 30
0.0
  0
SPLINE
  5
E5
330
1F
100
AcDbEntity
  8
0
  6
Continuous
 62
     7
370
     0
100
AcDbSpline
210
0.0
220
0.0
230
1.0
 70
     8
 71
     3
 72
     9
 73
     5
 74
     0
 42
0.00000001
 43
0.00000001
 12
1.0
 22
0.0
 32
0.0
 13
1.0
 23
0.0
 33
0.0
 40
0.0
 40
0.0
 40
0.0
 40
0.0
 40
0.4990041996681062
 40
1.0
 40
1.0
 40
1.0
 40
1.0
 10
106.4256828416202
 20
117.6298408989235
 30
0.0
 10
106.6267647414057
 20
117.5186234245347
 30
0.0
 10
107.029731089022
 20
117.2957445901224
 30
0.0
 10
107.4411702848594
 20
117.1471626585244
 30
0.0
 10
107.6472995940659
 20
117.0727237347885
 30
0.0
  0
LINE
  5
E6
330
1F
100
AcDbEntity
  8
0
  6
Continuous
 62
     7
370
     0
100
AcDbLine
 10
107.6472995941
 20
117.0727237348
 30
0.0
 11
105.9432055939
 21
117.0727237348
 31
0.0
  0
LINE
  5
E7
330
1F
100
AcDbEntity
  8
0
  6
Continuous
 62
     7
370
     0
100
AcDbLine
 10
105.9432055939
 20
117.0727237348
 30
0.0
 11
106.4256828416
 21
117.6298408989
 31
0.0
  0
LINE
  5
E8
330
1F
100
AcDbEntity
  8
0
  6
Continuous
 62
     7
370
     0
100
AcDbLine
 10
105.9432055939
 20
114.0727251057
 30
0.0
 11
106.4256828416
 21
114.6298422698
 31
0.0
  0
SPLINE
  5
E9
330
1F
100
AcDbEntity
  8
0
  6
Continuous
 62
     7
370
     0
100
AcDbSpline
210
0.0
220
0.0
230
1.0
 70
     8
 71
     3
 72
     9
 73
     5
 74
     0
 42
0.00000001
 43
0.00000001
 12
1.0
 22
0.0
 32
0.0
 13
1.0
 23
0.0
 33
0.0
 40
0.0
 40
0.0
 40
0.0
 40
0.0
 40
0.4990045300315923
 40
1.0
 40
1.0
 40
1.0
 40
1.0
 10
106.4256828416202
 20
114.6298422698303
 30
0.0
 10
106.6267646734807
 20
114.5186229576678
 30
0.0
 10
107.0297306181943
 20
114.2957405879318
 30
0.0
 10
107.4411702182649
 20
114.1471622033207
 30
0.0
 10
107.6472995940659
 20
114.0727251056954
 30
0.0
  0
LINE
  5
EA
330
1F
100
AcDbEntity
  8
0
  6
Continuous
 62
     7
370
     0
100
AcDbLine
 10
107.6472995941
 20
114.0727251057
 30
0.0
 11
105.9432055939
 21
114.0727251057
 31
0.0
  0
SPLINE
  5
EB
330
1F
100
AcDbEntity
  8
0
  6
Continuous
 62
     7
370
     0
100
AcDbSpline
210
0.0
220
0.0
230
1.0
 70
     8
 71
     3
 72
     9
 73
     5
 74
     0
 42
0.00000001
 43
0.00000001
 12
1.0
 22
0.0
 32
0.0
 13
1.0
 23
0.0
 33
0.0
 40
0.0
 40
0.0
 40
0.0
 40
0.0
 40
0.4990045025073885
 40
1.0
 40
1.0
 40
1.0
 40
1.0
 10
96.61072847881053
 20
114.6298422698303
 30
0.0
 10
97.0128918629275
 20
114.5186229558013
 30
0.0
 10
97.81882323648465
 20
114.2957405700309
 30
0.0
 10
98.64170248614838
 20
114.1471622000704
 30
0.0
 10
99.05396128521
 20
114.0727251056954
 30
0.0
  0
LINE
  5
EC
330
1F
100
AcDbEntity
  8
0
  6
Continuous
 62
     7
370
     0
100
AcDbLine
 10
99.0539612852
 20
114.0727251057
 30
0.0
 11
95.3891117264
 21
114.0727251057
 31
0.0
  0
SPLINE
  5
ED
330
1F
100
AcDbEntity
  8
0
  6
Continuous
 62
     7
370
     0
100
AcDbSpline
210
0.0
220
0.0
230
1.0
 70
     8
 71
     3
 72
     9
 73
     5
 74
     0
 42
0.00000001
 43
0.00000001
 12
1.0
 22
0.0
 32
0.0
 13
1.0
 23
0.0
 33
0.0
 40
0.0
 40
0.0
 40
0.0
 40
0.0
 40
0.5008256799152196
 40
1.0
 40
1.0
 40
1.0
 40
1.0
 10
95.38911172636483
 20
114.0727251056954
 30
0.0
 10
95.5951713479502
 20
114.1471356241912
 30
0.0
 10
96.0066111559494
 20
114.2957113092649
 30
0.0
 10
96.40957785219521
 20
114.5185879661613
 30
0.0
 10
96.61072847881053
 20
114.6298422698303
 30
0.0
  0
SPLINE
  5
EE
330
1F
100
AcDbEntity
  8
0
  6
Continuous
 62
     7
370
     0
100
AcDbSpline
210
0.0
220
0.0
230
1.0
 70
     8
 71
     3
 72
     9
 73
     5
 74
     0
 42
0.00000001
 43
0.00000001
 12
1.0
 22
0.0
 32
0.0
 13
1.0
 23
0.0
 33
0.0
 40
0.0
 40
0.0
 40
0.0
 40
0.0
 40
0.4990041721436719
 40
1.0
 40
1.0
 40
1.0
 40
1.0
 10
96.61072847881053
 20
117.6298408989235
 30
0.0
 10
97.01289199877752
 20
117.5186234226681
 30
0.0
 10
97.81882417814057
 20
117.2957445722214
 30
0.0
 10
98.64170261933744
 20
117.1471626552741
 30
0.0
 10
99.05396128521
 20
117.0727237347885
 30
0.0
  0
SPLINE
  5
EF
330
1F
100
AcDbEntity
  8
0
  6
Continuous
 62
     7
370
     0
100
AcDbSpline
210
0.0
220
0.0
230
1.0
 70
     8
 71
     3
 72
     9
 73
     5
 74
     0
 42
0.00000001
 43
0.00000001
 12
1.0
 22
0.0
 32
0.0
 13
1.0
 23
0.0
 33
0.0
 40
0.0
 40
0.0
 40
0.0
 40
0.0
 40
0.5008256799152196
 40
1.0
 40
1.0
 40
1.0
 40
1.0
 10
95.38911172636483
 20
117.0727237347885
 30
0.0
 10
95.5951713479502
 20
117.1471342532844
 30
0.0
 10
96.0066111559494
 20
117.2957099383581
 30
0.0
 10
96.40957785219521
 20
117.5185865952545
 30
0.0
 10
96.61072847881053
 20
117.6298408989235
 30
0.0
  0
LINE
  5
F0
330
1F
100
AcDbEntity
  8
0
  6
Continuous
 62
     7
370
     0
100
AcDbLine
 10
105.9432055939
 20
114.0727251057
 30
0.0
 11
103.9824500352
 21
114.0727251057
 31
0.0
  0
SPLINE
  5
F1
330
1F
100
AcDbEntity
  8
0
  6
Continuous
 62
     7
370
     0
100
AcDbSpline
210
0.0
220
0.0
230
1.0
 70
     8
 71
     3
 72
     9
 73
     5
 74
     0
 42
0.00000001
 43
0.00000001
 12
1.0
 22
0.0
 32
0.0
 13
1.0
 23
0.0
 33
0.0
 40
0.0
 40
0.0
 40
0.0
 40
0.0
 40
0.4988474167367364
 40
1.0
 40
1.0
 40
1.0
 40
1.0
 10
103.9824500352207
 20
114.0727251056954
 30
0.0
 10
104.3929459005485
 20
114.1468113533507
 30
0.0
 10
105.2158345265196
 20
114.2953262001147
 30
0.0
 10
106.0217807898039
 20
114.518165685884
 30
0.0
 10
106.4256828416202
 20
114.6298422698303
 30
0.0
  0
LINE
  5
F2
330
1F
100
AcDbEntity
  8
0
  6
Continuous
 62
     7
370
     0
100
AcDbLine
 10
105.9432055939
 20
117.0727237348
 30
0.0
 11
103.9824500352
 21
117.0727237348
 31
0.0
  0
SPLINE
  5
F3
330
1F
100
AcDbEntity
  8
0
  6
Continuous
 62
     7
370
     0
100
AcDbSpline
210
0.0
220
0.0
230
1.0
 70
     8
 71
     3
 72
     9
 73
     5
 74
     0
 42
0.00000001
 43
0.00000001
 12
1.0
 22
0.0
 32
0.0
 13
1.0
 23
0.0
 33
0.0
 40
0.0
 40
0.0
 40
0.0
 40
0.0
 40
0.4988474167367364
 40
1.0
 40
1.0
 40
1.0
 40
1.0
 10
103.9824500352207
 20
117.0727237347885
 30
0.0
 10
104.3929459005485
 20
117.1468099824438
 30
0.0
 10
105.2158345265196
 20
117.2953248292079
 30
0.0
 10
106.0217807898039
 20
117.5181643149772
 30
0.0
 10
106.4256828416202
 20
117.6298408989235
 30
0.0
  0
LINE
  5
F4
330
1F
100
AcDbEntity
  8
0
  6
Continuous
 62
     7
370
     0
100
AcDbLine
 10
108.3182057504
 20
145.4904553701
 30
0.0
 11
107.5182057124
 21
145.4904553701
 31
0.0
  0
LINE
  5
F5
330
1F
100
AcDbEntity
  8
0
  6
Continuous
 62
     7
370
     0
100
AcDbLine
 10
108.3182057504
 20
146.805576909
 30
0.0
 11
108.3182057504
 21
145.4904553701
 31
0.0
  0
LINE
  5
F6
330
1F
100
AcDbEntity
  8
0
  6
Continuous
 62
     7
370
     0
100
AcDbLine
 10
95.5182056081
 20
142.8055762533
 30
0.0
 11
94.7182055701
 21
142.8055762533
 31
0.0
  0
LINE
  5
F7
330
1F
100
AcDbEntity
  8
0
  6
Continuous
 62
     7
370
     0
100
AcDbLine
 10
94.7182055701
 20
146.3129789789
 30
0.0
 11
94.7182055701
 21
146.805576909
 31
0.0
  0
LINE
  5
F8
330
1F
100
AcDbEntity
  8
0
  6
Continuous
 62
     7
370
     0
100
AcDbLine
 10
95.5182056081
 20
144.8055765812
 30
0.0
 11
95.5182056081
 21
142.8055762533
 31
0.0
  0
SPLINE
  5
F9
330
1F
100
AcDbEntity
  8
0
  6
Continuous
 62
     7
370
     0
100
AcDbSpline
210
0.0
220
0.0
230
1.0
 70
    24
 71
     3
 72
    13
 73
     9
 74
     0
 42
0.00000001
 43
0.00000001
 12
1.0
 22
0.0
 32
0.0
 13
1.0
 23
0.0
 33
0.0
 40
0.0
 40
0.0
 40
0.0
 40
0.0
 40
0.1724209534853633
 40
0.3592964009990897
 40
0.5461717305877382
 40
0.7330471079366685
 40
0.9199226916201237
 40
1.0
 40
1.0
 40
1.0
 40
1.0
 10
107.5182057123694
 20
144.8055765811726
 30
0.0
 10
107.5182057123694
 20
144.5911253130641
 30
0.0
 10
107.5182057123694
 20
144.1442447729469
 30
0.0
 10
107.5182057123694
 20
143.393573644575
 30
0.0
 10
107.5182057123694
 20
142.605717804768
 30
0.0
 10
107.5182057123694
 20
141.8284190841259
 30
0.0
 10
107.5182057123694
 20
141.2160040948474
 30
0.0
 10
107.5182057123694
 20
140.9002830480145
 30
0.0
 10
107.5182057123694
 20
140.8055768568441
 30
0.0
  0
SPLINE
  5
FA
330
1F
100
AcDbEntity
  8
0
  6
Continuous
 62
     7
370
     0
100
AcDbSpline
210
0.0
220
0.0
230
1.0
 70
    24
 71
     3
 72
    13
 73
     9
 74
     0
 42
0.00000001
 43
0.00000001
 12
1.0
 22
0.0
 32
0.0
 13
1.0
 23
0.0
 33
0.0
 40
0.0
 40
0.0
 40
0.0
 40
0.0
 40
0.1915372750209147
 40
0.3830748026357286
 40
0.5746121803612988
 40
0.7661494741326306
 40
0.9576868197504239
 40
1.0
 40
1.0
 40
1.0
 40
1.0
 10
94.71820557006333
 20
142.805576253347
 30
0.0
 10
94.71820557006333
 20
142.5437372467536
 30
0.0
 10
94.71820557006333
 20
142.0200588882611
 30
0.0
 10
94.71820557006333
 20
141.2654789017492
 30
0.0
 10
94.71820557006333
 20
140.5670807767168
 30
0.0
 10
94.71820557006333
 20
139.9659706078131
 30
0.0
 10
94.71820557006333
 20
139.5706209854557
 30
0.0
 10
94.71820557006333
 20
139.4244826208169
 30
0.0
 10
94.71820557006333
 20
139.3980401788279
 30
0.0
  0
SPLINE
  5
FB
330
1F
100
AcDbEntity
  8
0
  6
Continuous
 62
     7
370
     0
100
AcDbSpline
210
0.0
220
0.0
230
1.0
 70
    24
 71
     3
 72
    11
 73
     7
 74
     0
 42
0.00000001
 43
0.00000001
 12
1.0
 22
0.0
 32
0.0
 13
1.0
 23
0.0
 33
0.0
 40
0.0
 40
0.0
 40
0.0
 40
0.0
 40
0.2027865480471152
 40
0.6012545249218549
 40
0.9997225989823062
 40
1.0
 40
1.0
 40
1.0
 40
1.0
 10
94.71820557006333
 20
139.2981744591519
 30
0.0
 10
94.71820557006333
 20
139.2316458893431
 30
0.0
 10
94.71820557006335
 20
139.0343911699383
 30
0.0
 10
94.71820557006319
 20
138.874063758207
 30
0.0
 10
94.71820557006363
 20
138.7797128411654
 30
0.0
 10
94.71820557006333
 20
138.8056115970441
 30
0.0
 10
94.71820557006333
 20
138.8056296144053
 30
0.0
  0
SPLINE
  5
FC
330
1F
100
AcDbEntity
  8
0
  6
Continuous
 62
     7
370
     0
100
AcDbSpline
210
0.0
220
0.0
230
1.0
 70
    24
 71
     3
 72
    10
 73
     6
 74
     0
 42
0.00000001
 43
0.00000001
 12
1.0
 22
0.0
 32
0.0
 13
1.0
 23
0.0
 33
0.0
 40
0.0
 40
0.0
 40
0.0
 40
0.0
 40
0.398411684823273
 40
0.7971008737172931
 40
1.0
 40
1.0
 40
1.0
 40
1.0
 10
94.71820557006333
 20
146.8055228922888
 30
0.0
 10
94.71820557006333
 20
146.7893342036561
 30
0.0
 10
94.71820557006333
 20
146.7569455505492
 30
0.0
 10
94.71820557006333
 20
146.574504342785
 30
0.0
 10
94.71820557006333
 20
146.3789380791634
 30
0.0
 10
94.71820557006333
 20
146.3129789788648
 30
0.0
  0
SPLINE
  5
FD
330
1F
100
AcDbEntity
  8
0
  6
Continuous
 62
     7
370
     0
100
AcDbSpline
210
0.0
220
0.0
230
1.0
 70
    24
 71
     3
 72
    13
 73
     9
 74
     0
 42
0.00000001
 43
0.00000001
 12
1.0
 22
0.0
 32
0.0
 13
1.0
 23
0.0
 33
0.0
 40
0.0
 40
0.0
 40
0.0
 40
0.0
 40
0.0422165720900498
 40
0.2337732024237741
 40
0.4253299567754197
 40
0.6168866192201538
 40
0.8084432138532326
 40
1.0
 40
1.0
 40
1.0
 40
1.0
 10
94.71820557006333
 20
146.2129186127707
 30
0.0
 10
94.71820557006333
 20
146.1865377272185
 30
0.0
 10
94.71820557006333
 20
146.0404542393138
 30
0.0
 10
94.71820557006333
 20
145.6451765951447
 30
0.0
 10
94.71820557006333
 20
145.044073464328
 30
0.0
 10
94.71820557006333
 20
144.345673443843
 30
0.0
 10
94.71820557006333
 20
143.5910940856816
 30
0.0
 10
94.71820557006333
 20
143.0674156180521
 30
0.0
 10
94.71820557006333
 20
142.805576253347
 30
0.0
  0
SPLINE
  5
FE
330
1F
100
AcDbEntity
  8
0
  6
Continuous
 62
     7
370
     0
100
AcDbSpline
210
0.0
220
0.0
230
1.0
 70
    24
 71
     3
 72
    10
 73
     6
 74
     0
 42
0.00000001
 43
0.00000001
 12
1.0
 22
0.0
 32
0.0
 13
1.0
 23
0.0
 33
0.0
 40
0.0
 40
0.0
 40
0.0
 40
0.0
 40
0.2533342453967373
 40
0.626666936073834
 40
1.0
 40
1.0
 40
1.0
 40
1.0
 10
95.5182056080613
 20
144.8055765811726
 30
0.0
 10
95.5182056080613
 20
144.6516899602018
 30
0.0
 10
95.5182056080613
 20
144.2710242625364
 30
0.0
 10
95.5182056080613
 20
143.589305045109
 30
0.0
 10
95.5182056080613
 20
143.0668192709958
 30
0.0
 10
95.5182056080613
 20
142.805576253347
 30
0.0
  0
SPLINE
  5
FF
330
1F
100
AcDbEntity
  8
0
  6
Continuous
 62
     7
370
     0
100
AcDbSpline
210
0.0
220
0.0
230
1.0
 70
    24
 71
     3
 72
    10
 73
     6
 74
     0
 42
0.00000001
 43
0.00000001
 12
1.0
 22
0.0
 32
0.0
 13
1.0
 23
0.0
 33
0.0
 40
0.0
 40
0.0
 40
0.0
 40
0.0
 40
0.3733327749757787
 40
0.7466660422921803
 40
1.0
 40
1.0
 40
1.0
 40
1.0
 10
95.5182056080613
 20
142.805576253347
 30
0.0
 10
95.5182056080613
 20
142.5443335684299
 30
0.0
 10
95.5182056080613
 20
142.0218478540764
 30
0.0
 10
95.5182056080613
 20
141.3401286629286
 30
0.0
 10
95.5182056080613
 20
140.9594631552861
 30
0.0
 10
95.5182056080613
 20
140.8055768568441
 30
0.0
  0
SPLINE
  5
100
330
1F
100
AcDbEntity
  8
0
  6
Continuous
 62
     7
370
     0
100
AcDbSpline
210
0.0
220
0.0
230
1.0
 70
    24
 71
     3
 72
    11
 73
     7
 74
     0
 42
0.00000001
 43
0.00000001
 12
1.0
 22
0.0
 32
0.0
 13
1.0
 23
0.0
 33
0.0
 40
0.0
 40
0.0
 40
0.0
 40
0.0
 40
0.2750390894125809
 40
0.5500780239704903
 40
0.82511705877476
 40
1.0
 40
1.0
 40
1.0
 40
1.0
 10
108.3182057503674
 20
145.490455370061
 30
0.0
 10
108.3182057503674
 20
145.2864155583755
 30
0.0
 10
108.3182057503674
 20
144.8783360498845
 30
0.0
 10
108.3182057503674
 20
144.1587006956917
 30
0.0
 10
108.3182057503674
 20
143.4879927849452
 30
0.0
 10
108.3182057503674
 20
143.0593114875495
 30
0.0
 10
108.3182057503674
 20
142.892684716396
 30
0.0
  0
SPLINE
  5
101
330
1F
100
AcDbEntity
  8
0
  6
Continuous
 62
     7
370
     0
100
AcDbSpline
210
0.0
220
0.0
230
1.0
 70
    24
 71
     3
 72
    13
 73
     9
 74
     0
 42
0.00000001
 43
0.00000001
 12
1.0
 22
0.0
 32
0.0
 13
1.0
 23
0.0
 33
0.0
 40
0.0
 40
0.0
 40
0.0
 40
0.0
 40
0.0338532879873028
 40
0.2270825837347467
 40
0.4203120928322611
 40
0.6135412921650977
 40
0.8067706394364045
 40
1.0
 40
1.0
 40
1.0
 40
1.0
 10
108.3182057503674
 20
142.7446938339993
 30
0.0
 10
108.3182057503674
 20
142.6989496260143
 30
0.0
 10
108.3182057503674
 20
142.3921046027472
 30
0.0
 10
108.3182057503674
 20
141.8255086878783
 30
0.0
 10
108.3182057503674
 20
141.0822966370162
 30
0.0
 10
108.3182057503674
 20
140.4075132888106
 30
0.0
 10
108.3182057503674
 20
139.8155060468379
 30
0.0
 10
108.3182057503674
 20
139.5209830081623
 30
0.0
 10
108.3182057503674
 20
139.3737214837595
 30
0.0
  0
SPLINE
  5
102
330
1F
100
AcDbEntity
  8
0
  6
Continuous
 62
     7
370
     0
100
AcDbSpline
210
0.0
220
0.0
230
1.0
 70
    24
 71
     3
 72
    10
 73
     6
 74
     0
 42
0.00000001
 43
0.00000001
 12
1.0
 22
0.0
 32
0.0
 13
1.0
 23
0.0
 33
0.0
 40
0.0
 40
0.0
 40
0.0
 40
0.0
 40
0.3071135761038372
 40
0.7036743861365915
 40
1.0
 40
1.0
 40
1.0
 40
1.0
 10
108.3182057503674
 20
139.2981744591519
 30
0.0
 10
108.3182057503674
 20
139.2055076423276
 30
0.0
 10
108.3182057503674
 20
138.9931846761101
 30
0.0
 10
108.3182057503674
 20
138.8302943561177
 30
0.0
 10
108.3182057503674
 20
138.823167193224
 30
0.0
 10
108.3182057503674
 20
138.8201191310211
 30
0.0
  0
SPLINE
  5
103
330
1F
100
AcDbEntity
  8
0
  6
Continuous
 62
     7
370
     0
100
AcDbSpline
210
0.0
220
0.0
230
1.0
 70
    24
 71
     3
 72
    12
 73
     8
 74
     0
 42
0.00000001
 43
0.00000001
 12
1.0
 22
0.0
 32
0.0
 13
1.0
 23
0.0
 33
0.0
 40
0.0
 40
0.0
 40
0.0
 40
0.0
 40
0.0594346236527325
 40
0.2945759452360305
 40
0.5297172764404926
 40
0.7648586733398253
 40
1.0
 40
1.0
 40
1.0
 40
1.0
 10
108.3182057503674
 20
146.7910333756729
 30
0.0
 10
108.3182057503674
 20
146.7953994242744
 30
0.0
 10
108.3182057503674
 20
146.8170388797747
 30
0.0
 10
108.3182057503674
 20
146.7029515984372
 30
0.0
 10
108.3182057503674
 20
146.4448513539105
 30
0.0
 10
108.3182057503674
 20
146.0421469823699
 30
0.0
 10
108.3182057503674
 20
145.6743525558533
 30
0.0
 10
108.3182057503674
 20
145.490455370061
 30
0.0
  0
LINE
  5
104
330
1F
100
AcDbEntity
  8
0
  6
Continuous
 62
     7
370
     0
100
AcDbLine
 10
94.7182055701
 20
138.8055755977
 30
0.0
 11
94.7182055701
 21
139.2981744592
 31
0.0
  0
LINE
  5
105
330
1F
100
AcDbEntity
  8
0
  6
Continuous
 62
     7
370
     0
100
AcDbLine
 10
95.5182056081
 20
142.8055762533
 30
0.0
 11
95.5182056081
 21
140.8055768568
 31
0.0
  0
LINE
  5
106
330
1F
100
AcDbEntity
  8
0
  6
Continuous
 62
     7
370
     0
100
AcDbLine
 10
108.3182057504
 20
145.4904553701
 30
0.0
 11
108.3182057504
 21
142.8055762533
 31
0.0
  0
LINE
  5
107
330
1F
100
AcDbEntity
  8
0
  6
Continuous
 62
     7
370
     0
100
AcDbLine
 10
108.3182057504
 20
139.2981744592
 30
0.0
 11
108.3182057504
 21
138.8055755977
 31
0.0
  0
LINE
  5
108
330
1F
100
AcDbEntity
  8
0
  6
Continuous
 62
     7
370
     0
100
AcDbLine
 10
115.8182055827
 20
144.5376276259
 30
0.0
 11
113.3182061043
 21
144.840735871
 31
0.0
  0
LINE
  5
109
330
1F
100
AcDbEntity
  8
0
  6
Continuous
 62
     7
370
     0
100
AcDbLine
 10
113.3182061043
 20
144.840735871
 30
0.0
 11
113.3182061043
 21
145.1555769179
 31
0.0
  0
SPLINE
  5
10A
330
1F
100
AcDbEntity
  8
0
  6
Continuous
 62
     7
370
     0
100
AcDbSpline
210
0.0
220
0.0
230
1.0
 70
    24
 71
     3
 72
    21
 73
    17
 74
     0
 42
0.00000001
 43
0.00000001
 12
1.0
 22
0.0
 32
0.0
 13
1.0
 23
0.0
 33
0.0
 40
0.0
 40
0.0
 40
0.0
 40
0.0
 40
0.0749965247592941
 40
0.1499931404853173
 40
0.2249897922086218
 40
0.2999862808102624
 40
0.3749828546774229
 40
0.4499795723285072
 40
0.5249761344467196
 40
0.5999726489562481
 40
0.6749693213404212
 40
0.7499658834912001
 40
0.8249624808465389
 40
0.8999590625195142
 40
0.9749556380620784
 40
1.0
 40
1.0
 40
1.0
 40
1.0
 10
115.8182055827293
 20
144.8407358710095
 30
0.0
 10
115.8182055827293
 20
144.7562589409166
 30
0.0
 10
115.8182055827293
 20
144.5873049782651
 30
0.0
 10
115.8182055827293
 20
144.2444458183238
 30
0.0
 10
115.8182055827293
 20
143.8519072369199
 30
0.0
 10
115.8182055827293
 20
143.4176546948148
 30
0.0
 10
115.8182055827293
 20
142.9602824621619
 30
0.0
 10
115.8182055827293
 20
142.4968592268699
 30
0.0
 10
115.8182055827293
 20
142.0453200962789
 30
0.0
 10
115.8182055827293
 20
141.6230223605632
 30
0.0
 10
115.8182055827293
 20
141.2460498868081
 30
0.0
 10
115.8182055827293
 20
140.9294597607215
 30
0.0
 10
115.8182055827293
 20
140.6832872353371
 30
0.0
 10
115.8182055827293
 20
140.5249430450764
 30
0.0
 10
115.8182055827293
 20
140.4517365220158
 30
0.0
 10
115.8182055827293
 20
140.4628573279505
 30
0.0
 10
115.8182055827293
 20
140.4656413231417
 30
0.0
  0
SPLINE
  5
10B
330
1F
100
AcDbEntity
  8
0
  6
Continuous
 62
     7
370
     0
100
AcDbSpline
210
0.0
220
0.0
230
1.0
 70
    24
 71
     3
 72
    10
 73
     6
 74
     0
 42
0.00000001
 43
0.00000001
 12
1.0
 22
0.0
 32
0.0
 13
1.0
 23
0.0
 33
0.0
 40
0.0
 40
0.0
 40
0.0
 40
0.0
 40
0.2498293142509366
 40
0.6249145083473867
 40
1.0
 40
1.0
 40
1.0
 40
1.0
 10
115.8182055827293
 20
145.1455111835524
 30
0.0
 10
115.8182055827293
 20
145.1454347415637
 30
0.0
 10
115.8182055827293
 20
145.145243532186
 30
0.0
 10
115.8182055827293
 20
145.0467135829935
 30
0.0
 10
115.8182055827293
 20
144.9093951264933
 30
0.0
 10
115.8182055827293
 20
144.8407358710095
 30
0.0
  0
LINE
  5
10C
330
1F
100
AcDbEntity
  8
0
  6
Continuous
 62
     7
370
     0
100
AcDbLine
 10
115.8182055827
 20
144.840735871
 30
0.0
 11
115.8182055827
 21
145.1555769179
 31
0.0
  0
LINE
  5
10D
330
1F
100
AcDbEntity
  8
0
  6
Continuous
 62
     7
370
     0
100
AcDbLine
 10
118.3182050612
 20
144.8055765812
 30
0.0
 11
118.3182050612
 21
144.5376276259
 31
0.0
  0
LINE
  5
10E
330
1F
100
AcDbEntity
  8
0
  6
Continuous
 62
     7
370
     0
100
AcDbLine
 10
118.3182050612
 20
144.5376276259
 30
0.0
 11
115.8182055827
 21
144.840735871
 31
0.0
  0
SPLINE
  5
10F
330
1F
100
AcDbEntity
  8
0
  6
Continuous
 62
     7
370
     0
100
AcDbSpline
210
0.0
220
0.0
230
1.0
 70
    24
 71
     3
 72
    10
 73
     6
 74
     0
 42
0.00000001
 43
0.00000001
 12
1.0
 22
0.0
 32
0.0
 13
1.0
 23
0.0
 33
0.0
 40
0.0
 40
0.0
 40
0.0
 40
0.0
 40
0.2498230015708365
 40
0.6249116191255687
 40
1.0
 40
1.0
 40
1.0
 40
1.0
 10
118.3182050611887
 20
144.7970102761313
 30
0.0
 10
118.3182050611887
 20
144.7969452874394
 30
0.0
 10
118.3182050611887
 20
144.7967827235905
 30
0.0
 10
118.3182050611887
 20
144.7129261891179
 30
0.0
 10
118.3182050611887
 20
144.596060467999
 30
0.0
 10
118.3182050611887
 20
144.5376276258751
 30
0.0
  0
SPLINE
  5
110
330
1F
100
AcDbEntity
  8
0
  6
Continuous
 62
     7
370
     0
100
AcDbSpline
210
0.0
220
0.0
230
1.0
 70
    24
 71
     3
 72
    21
 73
    17
 74
     0
 42
0.00000001
 43
0.00000001
 12
1.0
 22
0.0
 32
0.0
 13
1.0
 23
0.0
 33
0.0
 40
0.0
 40
0.0
 40
0.0
 40
0.0
 40
0.0749964832828242
 40
0.149992881805275
 40
0.2249894076626212
 40
0.2999858544090694
 40
0.3749823983738227
 40
0.4499788522675118
 40
0.5249752899570019
 40
0.5999717783588074
 40
0.6749681503259474
 40
0.7499646138599714
 40
0.8249610523166065
 40
0.8999575487039002
 40
0.9749539848857406
 40
1.0
 40
1.0
 40
1.0
 40
1.0
 10
118.3182050611887
 20
144.5376276258751
 30
0.0
 10
118.3182050611887
 20
144.4657319907074
 30
0.0
 10
118.3182050611887
 20
144.3219408016277
 30
0.0
 10
118.3182050611887
 20
144.0301465998639
 30
0.0
 10
118.3182050611887
 20
143.6960708450164
 30
0.0
 10
118.3182050611887
 20
143.3264938490525
 30
0.0
 10
118.3182050611887
 20
142.9372408181995
 30
0.0
 10
118.3182050611887
 20
142.5428380659757
 30
0.0
 10
118.3182050611887
 20
142.1585496357504
 30
0.0
 10
118.3182050611887
 20
141.7991469296365
 30
0.0
 10
118.3182050611887
 20
141.4783202028231
 30
0.0
 10
118.3182050611887
 20
141.2088813442244
 30
0.0
 10
118.3182050611887
 20
140.9993736982071
 30
0.0
 10
118.3182050611887
 20
140.8646112891613
 30
0.0
 10
118.3182050611887
 20
140.8023078327624
 30
0.0
 10
118.3182050611887
 20
140.8117734163716
 30
0.0
 10
118.3182050611887
 20
140.8141431618854
 30
0.0
  0
SPLINE
  5
111
330
1F
100
AcDbEntity
  8
0
  6
Continuous
 62
     7
370
     0
100
AcDbSpline
210
0.0
220
0.0
230
1.0
 70
    24
 71
     3
 72
    21
 73
    17
 74
     0
 42
0.00000001
 43
0.00000001
 12
1.0
 22
0.0
 32
0.0
 13
1.0
 23
0.0
 33
0.0
 40
0.0
 40
0.0
 40
0.0
 40
0.0
 40
0.0749965247592941
 40
0.1499931404853173
 40
0.2249897922086218
 40
0.2999862808102624
 40
0.3749828546774229
 40
0.4499795723285072
 40
0.5249761344467196
 40
0.5999726489562481
 40
0.6749693213404212
 40
0.7499658834912001
 40
0.8249624808465389
 40
0.8999590625195142
 40
0.9749556380620784
 40
1.0
 40
1.0
 40
1.0
 40
1.0
 10
113.31820610427
 20
144.8407358710095
 30
0.0
 10
113.31820610427
 20
144.7562589409166
 30
0.0
 10
113.31820610427
 20
144.5873049782651
 30
0.0
 10
113.31820610427
 20
144.2444458183238
 30
0.0
 10
113.31820610427
 20
143.8519072369199
 30
0.0
 10
113.31820610427
 20
143.4176546948148
 30
0.0
 10
113.31820610427
 20
142.9602824621619
 30
0.0
 10
113.31820610427
 20
142.4968592268699
 30
0.0
 10
113.31820610427
 20
142.0453200962789
 30
0.0
 10
113.31820610427
 20
141.6230223605632
 30
0.0
 10
113.31820610427
 20
141.2460498868081
 30
0.0
 10
113.31820610427
 20
140.9294597607215
 30
0.0
 10
113.31820610427
 20
140.6832872353371
 30
0.0
 10
113.31820610427
 20
140.5249430450764
 30
0.0
 10
113.31820610427
 20
140.4517365220158
 30
0.0
 10
113.31820610427
 20
140.4628573279505
 30
0.0
 10
113.31820610427
 20
140.4656413231417
 30
0.0
  0
SPLINE
  5
112
330
1F
100
AcDbEntity
  8
0
  6
Continuous
 62
     7
370
     0
100
AcDbSpline
210
0.0
220
0.0
230
1.0
 70
    24
 71
     3
 72
    10
 73
     6
 74
     0
 42
0.00000001
 43
0.00000001
 12
1.0
 22
0.0
 32
0.0
 13
1.0
 23
0.0
 33
0.0
 40
0.0
 40
0.0
 40
0.0
 40
0.0
 40
0.2498293142509366
 40
0.6249145083473867
 40
1.0
 40
1.0
 40
1.0
 40
1.0
 10
113.31820610427
 20
145.1455111835524
 30
0.0
 10
113.31820610427
 20
145.1454347415637
 30
0.0
 10
113.31820610427
 20
145.145243532186
 30
0.0
 10
113.31820610427
 20
145.0467135829935
 30
0.0
 10
113.31820610427
 20
144.9093951264933
 30
0.0
 10
113.31820610427
 20
144.8407358710095
 30
0.0
  0
LINE
  5
113
330
1F
100
AcDbEntity
  8
0
  6
Continuous
 62
     7
370
     0
100
AcDbLine
 10
113.3182061043
 20
144.6242294494
 30
0.0
 11
110.8182056945
 21
144.6242294494
 31
0.0
  0
LINE
  5
114
330
1F
100
AcDbEntity
  8
0
  6
Continuous
 62
     7
370
     0
100
AcDbLine
 10
110.8182056945
 20
146.3129789789
 30
0.0
 11
110.8182056945
 21
142.8055762533
 31
0.0
  0
LINE
  5
115
330
1F
100
AcDbEntity
  8
0
  6
Continuous
 62
     7
370
     0
100
AcDbLine
 10
110.8182056945
 20
142.8055762533
 30
0.0
 11
110.8182056945
 21
139.2981744592
 31
0.0
  0
LINE
  5
116
330
1F
100
AcDbEntity
  8
0
  6
Continuous
 62
     7
370
     0
100
AcDbLine
 10
110.8182056945
 20
146.3129789789
 30
0.0
 11
108.3182057504
 21
146.3129789789
 31
0.0
  0
LINE
  5
117
330
1F
100
AcDbEntity
  8
0
  6
Continuous
 62
     7
370
     0
100
AcDbLine
 10
110.8182056945
 20
146.3129789789
 30
0.0
 11
110.8182056945
 21
142.8055762533
 31
0.0
  0
LINE
  5
118
330
1F
100
AcDbEntity
  8
0
  6
Continuous
 62
     7
370
     0
100
AcDbLine
 10
108.3182057504
 20
142.8055762533
 30
0.0
 11
108.3182057504
 21
146.3129789789
 31
0.0
  0
LINE
  5
119
330
1F
100
AcDbEntity
  8
0
  6
Continuous
 62
     7
370
     0
100
AcDbLine
 10
110.8182056945
 20
142.8055762533
 30
0.0
 11
108.3182057504
 21
142.8055762533
 31
0.0
  0
LINE
  5
11A
330
1F
100
AcDbEntity
  8
0
  6
Continuous
 62
     7
370
     0
100
AcDbLine
 10
110.8182056945
 20
139.2981744592
 30
0.0
 11
108.3182057504
 21
139.2981744592
 31
0.0
  0
LINE
  5
11B
330
1F
100
AcDbEntity
  8
0
  6
Continuous
 62
     7
370
     0
100
AcDbLine
 10
108.3182057504
 20
139.2981744592
 30
0.0
 11
108.3182057504
 21
142.8055762533
 31
0.0
  0
LINE
  5
11C
330
1F
100
AcDbEntity
  8
0
  6
Continuous
 62
     7
370
     0
100
AcDbLine
 10
108.3182057504
 20
142.8055762533
 30
0.0
 11
108.3182057504
 21
142.717285942
 31
0.0
  0
LINE
  5
11D
330
1F
100
AcDbEntity
  8
0
  6
Continuous
 62
     7
370
     0
100
AcDbLine
 10
108.3182057504
 20
139.3864638392
 30
0.0
 11
108.3182057504
 21
139.2981744592
 31
0.0
  0
LINE
  5
11E
330
1F
100
AcDbEntity
  8
0
  6
Continuous
 62
     7
370
     0
100
AcDbLine
 10
108.3182057504
 20
146.3129789789
 30
0.0
 11
108.3182057504
 21
145.4904553701
 31
0.0
  0
LINE
  5
11F
330
1F
100
AcDbEntity
  8
0
  6
Continuous
 62
     7
370
     0
100
AcDbLine
 10
108.3182057504
 20
145.4295729507
 30
0.0
 11
108.3182057504
 21
142.8055762533
 31
0.0
  0
LINE
  5
120
330
1F
100
AcDbEntity
  8
0
  6
Continuous
 62
     7
370
     0
100
AcDbLine
 10
118.3182050612
 20
144.5376276259
 30
0.0
 11
118.3182050612
 21
140.8055768568
 31
0.0
  0
LINE
  5
121
330
1F
100
AcDbEntity
  8
0
  6
Continuous
 62
     7
370
     0
100
AcDbLine
 10
115.8182055827
 20
140.4555765201
 30
0.0
 11
115.8182055827
 21
144.840735871
 31
0.0
  0
LINE
  5
122
330
1F
100
AcDbEntity
  8
0
  6
Continuous
 62
     7
370
     0
100
AcDbLine
 10
113.3182061043
 20
140.4555765201
 30
0.0
 11
113.3182061043
 21
144.840735871
 31
0.0
  0
LINE
  5
123
330
1F
100
AcDbEntity
  8
0
  6
Continuous
 62
     7
370
     0
100
AcDbLine
 10
94.7182055701
 20
146.3129789789
 30
0.0
 11
94.7182055701
 21
146.2246886675
 31
0.0
  0
LINE
  5
124
330
1F
100
AcDbEntity
  8
0
  6
Continuous
 62
     7
370
     0
100
AcDbLine
 10
94.7182055701
 20
142.8938665647
 30
0.0
 11
94.7182055701
 21
142.8055762533
 31
0.0
  0
LINE
  5
125
330
1F
100
AcDbEntity
  8
0
  6
Continuous
 62
     7
370
     0
100
AcDbLine
 10
94.7182055701
 20
142.8055762533
 30
0.0
 11
94.7182055701
 21
142.717285942
 31
0.0
  0
LINE
  5
126
330
1F
100
AcDbEntity
  8
0
  6
Continuous
 62
     7
370
     0
100
AcDbLine
 10
94.7182055701
 20
139.3864638392
 30
0.0
 11
94.7182055701
 21
139.2981744592
 31
0.0
  0
LINE
  5
127
330
1F
100
AcDbEntity
  8
0
  6
Continuous
 62
     7
370
     0
100
AcDbLine
 10
92.2182056259
 20
139.2981744592
 30
0.0
 11
94.7182055701
 21
139.2981744592
 31
0.0
  0
LINE
  5
128
330
1F
100
AcDbEntity
  8
0
  6
Continuous
 62
     7
370
     0
100
AcDbLine
 10
94.7182055701
 20
146.3129789789
 30
0.0
 11
92.2182056259
 21
146.3129789789
 31
0.0
  0
LINE
  5
129
330
1F
100
AcDbEntity
  8
0
  6
Continuous
 62
     7
370
     0
100
AcDbLine
 10
94.7182055701
 20
146.3129789789
 30
0.0
 11
94.7182055701
 21
142.8055762533
 31
0.0
  0
LINE
  5
12A
330
1F
100
AcDbEntity
  8
0
  6
Continuous
 62
     7
370
     0
100
AcDbLine
 10
94.7182055701
 20
142.8055762533
 30
0.0
 11
92.2182056259
 21
142.8055762533
 31
0.0
  0
LINE
  5
12B
330
1F
100
AcDbEntity
  8
0
  6
Continuous
 62
     7
370
     0
100
AcDbLine
 10
92.2182056259
 20
142.8055762533
 30
0.0
 11
92.2182056259
 21
146.3129789789
 31
0.0
  0
LINE
  5
12C
330
1F
100
AcDbEntity
  8
0
  6
Continuous
 62
     7
370
     0
100
AcDbLine
 10
94.7182055701
 20
142.8055762533
 30
0.0
 11
94.7182055701
 21
139.2981744592
 31
0.0
  0
LINE
  5
12D
330
1F
100
AcDbEntity
  8
0
  6
Continuous
 62
     7
370
     0
100
AcDbLine
 10
92.2182056259
 20
139.2981744592
 30
0.0
 11
92.2182056259
 21
142.8055762533
 31
0.0
  0
LINE
  5
12E
330
1F
100
AcDbEntity
  8
0
  6
Continuous
 62
     7
370
     0
100
AcDbLine
 10
92.2182056259
 20
146.3129789789
 30
0.0
 11
92.2182056259
 21
142.8055762533
 31
0.0
  0
LINE
  5
12F
330
1F
100
AcDbEntity
  8
0
  6
Continuous
 62
     7
370
     0
100
AcDbLine
 10
92.2182056259
 20
142.8055762533
 30
0.0
 11
92.2182056259
 21
139.2981744592
 31
0.0
  0
LINE
  5
130
330
1F
100
AcDbEntity
  8
0
  6
Continuous
 62
     7
370
     0
100
AcDbLine
 10
97.7895679556
 20
111.7055750672
 30
0.0
 11
97.8254452951
 21
111.7055750672
 31
0.0
  0
LINE
  5
131
330
1F
100
AcDbEntity
  8
0
  6
Continuous
 62
     7
370
     0
100
AcDbLine
 10
97.8254452951
 20
111.7055750672
 30
0.0
 11
97.8254452951
 21
111.1055760865
 31
0.0
  0
LINE
  5
132
330
1F
100
AcDbEntity
  8
0
  6
Continuous
 62
     7
370
     0
100
AcDbLine
 10
97.8254452951
 20
111.1055760865
 30
0.0
 11
97.7895679556
 21
111.1055760865
 31
0.0
  0
LINE
  5
133
330
1F
100
AcDbEntity
  8
0
  6
Continuous
 62
     7
370
     0
100
AcDbLine
 10
106.0182054665
 20
111.1055760865
 30
0.0
 11
97.8254452951
 21
111.1055760865
 31
0.0
  0
LINE
  5
134
330
1F
100
AcDbEntity
  8
0
  6
Continuous
 62
     7
370
     0
100
AcDbLine
 10
97.8254452951
 20
111.7055750672
 30
0.0
 11
106.0182054665
 21
111.7055750672
 31
0.0
  0
LINE
  5
135
330
1F
100
AcDbEntity
  8
0
  6
Continuous
 62
     7
370
     0
100
AcDbLine
 10
106.0182054665
 20
111.7055750672
 30
0.0
 11
106.0182054665
 21
111.1055760865
 31
0.0
  0
SPLINE
  5
136
330
1F
100
AcDbEntity
  8
0
  6
Continuous
 62
     7
370
     0
100
AcDbSpline
210
0.0
220
0.0
230
1.0
 70
    24
 71
     3
 72
    23
 73
    19
 74
     0
 42
0.00000001
 43
0.00000001
 12
1.0
 22
0.0
 32
0.0
 13
1.0
 23
0.0
 33
0.0
 40
0.0
 40
0.0
 40
0.0
 40
0.0
 40
0.0624999959507016
 40
0.1249999995416795
 40
0.1875000127285535
 40
0.2499999991410128
 40
0.3124999966768848
 40
0.3749999988166376
 40
0.4374999957517281
 40
0.5000000013349559
 40
0.5624999890843282
 40
0.6250000088069092
 40
0.6875000045216272
 40
0.7500000039645592
 40
0.8124999983460597
 40
0.8750000005331221
 40
0.9375000036771104
 40
1.0
 40
1.0
 40
1.0
 40
1.0
 10
97.82544529513154
 20
111.105576086454
 30
0.0
 10
97.9700957168764
 20
111.105576086454
 30
0.0
 10
98.25939657804882
 20
111.105576086454
 30
0.0
 10
98.79962278109737
 20
111.105576086454
 30
0.0
 10
99.40122499227746
 20
111.105576086454
 30
0.0
 10
100.0575628960363
 20
111.105576086454
 30
0.0
 10
100.7499640064122
 20
111.105576086454
 30
0.0
 10
101.4617110803724
 20
111.105576086454
 30
0.0
 10
102.1748375411408
 20
111.105576086454
 30
0.0
 10
102.8715458054979
 20
111.105576086454
 30
0.0
 10
103.53439972441
 20
111.105576086454
 30
0.0
 10
104.1468055881236
 20
111.105576086454
 30
0.0
 10
104.6934959145255
 20
111.105576086454
 30
0.0
 10
105.1605975470827
 20
111.105576086454
 30
0.0
 10
105.537160554268
 20
111.105576086454
 30
0.0
 10
105.8110204197162
 20
111.105576086454
 30
0.0
 10
105.9855729066528
 20
111.105576086454
 30
0.0
 10
106.0073279469468
 20
111.105576086454
 30
0.0
 10
106.0182054665003
 20
111.105576086454
 30
0.0
  0
SPLINE
  5
137
330
1F
100
AcDbEntity
  8
0
  6
Continuous
 62
     7
370
     0
100
AcDbSpline
210
0.0
220
0.0
230
1.0
 70
    24
 71
     3
 72
    23
 73
    19
 74
     0
 42
0.00000001
 43
0.00000001
 12
1.0
 22
0.0
 32
0.0
 13
1.0
 23
0.0
 33
0.0
 40
0.0
 40
0.0
 40
0.0
 40
0.0
 40
0.0624999959507016
 40
0.1249999995416795
 40
0.1875000127285535
 40
0.2499999991410128
 40
0.3124999966768848
 40
0.3749999988166376
 40
0.4374999957517281
 40
0.5000000013349559
 40
0.5624999890843282
 40
0.6250000088069092
 40
0.6875000045216272
 40
0.7500000039645592
 40
0.8124999983460597
 40
0.8750000005331221
 40
0.9375000036771104
 40
1.0
 40
1.0
 40
1.0
 40
1.0
 10
97.82544529513154
 20
111.7055750672146
 30
0.0
 10
97.9700957168764
 20
111.7055750672146
 30
0.0
 10
98.25939657804882
 20
111.7055750672146
 30
0.0
 10
98.79962278109737
 20
111.7055750672146
 30
0.0
 10
99.40122499227746
 20
111.7055750672146
 30
0.0
 10
100.0575628960363
 20
111.7055750672146
 30
0.0
 10
100.7499640064122
 20
111.7055750672146
 30
0.0
 10
101.4617110803724
 20
111.7055750672146
 30
0.0
 10
102.1748375411408
 20
111.7055750672146
 30
0.0
 10
102.8715458054979
 20
111.7055750672146
 30
0.0
 10
103.53439972441
 20
111.7055750672146
 30
0.0
 10
104.1468055881236
 20
111.7055750672146
 30
0.0
 10
104.6934959145255
 20
111.7055750672146
 30
0.0
 10
105.1605975470827
 20
111.7055750672146
 30
0.0
 10
105.537160554268
 20
111.7055750672146
 30
0.0
 10
105.8110204197162
 20
111.7055750672146
 30
0.0
 10
105.9855729066528
 20
111.7055750672146
 30
0.0
 10
106.0073279469468
 20
111.7055750672146
 30
0.0
 10
106.0182054665003
 20
111.7055750672146
 30
0.0
  0
SPLINE
  5
138
330
1F
100
AcDbEntity
  8
0
  6
Continuous
 62
     7
370
     0
100
AcDbSpline
210
0.0
220
0.0
230
1.0
 70
    24
 71
     3
 72
    10
 73
     6
 74
     0
 42
0.00000001
 43
0.00000001
 12
1.0
 22
0.0
 32
0.0
 13
1.0
 23
0.0
 33
0.0
 40
0.0
 40
0.0
 40
0.0
 40
0.0
 40
0.2816894930268648
 40
0.6408450944156544
 40
0.9999999999999999
 40
0.9999999999999999
 40
0.9999999999999999
 40
0.9999999999999999
 10
97.7903598126087
 20
111.7055750672146
 30
0.0
 10
97.7906518754174
 20
111.7055750672146
 30
0.0
 10
97.79131631986016
 20
111.7055750672146
 30
0.0
 10
97.80288680910262
 20
111.7055750672146
 30
0.0
 10
97.81792580464449
 20
111.7055750672146
 30
0.0
 10
97.82544529513154
 20
111.7055750672146
 30
0.0
  0
SPLINE
  5
139
330
1F
100
AcDbEntity
  8
0
  6
Continuous
 62
     7
370
     0
100
AcDbSpline
210
0.0
220
0.0
230
1.0
 70
     8
 71
     3
 72
    11
 73
     7
 74
     0
 42
0.00000001
 43
0.00000001
 12
1.0
 22
0.0
 32
0.0
 13
1.0
 23
0.0
 33
0.0
 40
0.0
 40
0.0
 40
0.0
 40
0.0
 40
0.2081162680644553
 40
0.4762492896801181
 40
0.7381311492028589
 40
1.0
 40
1.0
 40
1.0
 40
1.0
 10
105.6368442390177
 20
137.7909778837486
 30
0.0
 10
105.6748835097253
 20
137.7976540936929
 30
0.0
 10
105.7619318496891
 20
137.812931804913
 30
0.0
 10
105.8753676830532
 20
137.9228904354923
 30
0.0
 10
105.9592147886453
 20
138.088201218625
 30
0.0
 10
105.9705315431549
 20
138.2174741303705
 30
0.0
 10
105.9761897798691
 20
138.282108980827
 30
0.0
  0
SPLINE
  5
13A
330
1F
100
AcDbEntity
  8
0
  6
Continuous
 62
     7
370
     0
100
AcDbSpline
210
0.0
220
0.0
230
1.0
 70
     8
 71
     3
 72
    26
 73
    22
 74
     0
 42
0.00000001
 43
0.00000001
 12
1.0
 22
0.0
 32
0.0
 13
1.0
 23
0.0
 33
0.0
 40
0.0
 40
0.0
 40
0.0
 40
0.0
 40
0.0526275370579824
 40
0.1052371090421119
 40
0.1578658113537436
 40
0.2105150122212361
 40
0.2631557384346292
 40
0.3157739024002735
 40
0.3684008900452952
 40
0.4210482109863425
 40
0.4736907357575915
 40
0.5263103289941082
 40
0.578933254285278
 40
0.6315785721349292
 40
0.6842238261671388
 40
0.7368466488681056
 40
0.7894661739557922
 40
0.8421087714976033
 40
0.8947561505519903
 40
0.9473828660170924
 40
1.0
 40
1.0
 40
1.0
 40
1.0
 10
105.9761888485465
 20
138.282108980827
 30
0.0
 10
105.7963022629636
 20
138.261538326465
 30
0.0
 10
105.4365904983536
 20
138.2204040397936
 30
0.0
 10
104.8111240060409
 20
138.1586579509685
 30
0.0
 10
104.1351333880395
 20
138.0969397291194
 30
0.0
 10
103.4146136815874
 20
138.0352393276686
 30
0.0
 10
102.6632176692501
 20
137.973530904943
 30
0.0
 10
101.892413150254
 20
137.9117901279914
 30
0.0
 10
101.1153142427875
 20
137.8500642993465
 30
0.0
 10
100.3449771083619
 20
137.7883619810374
 30
0.0
 10
99.59393595319877
 20
137.7266559393214
 30
0.0
 10
98.8748422101132
 20
137.6649191257987
 30
0.0
 10
98.20089375421203
 20
137.6031877130229
 30
0.0
 10
97.58206862975406
 20
137.5414840589608
 30
0.0
 10
97.02801959086393
 20
137.4797803403913
 30
0.0
 10
96.54833978313171
 20
137.418048884312
 30
0.0
 10
96.1536422145279
 20
137.3563120317112
 30
0.0
 10
95.84787857743973
 20
137.2946059304074
 30
0.0
 10
95.63735843655985
 20
137.2329043969701
 30
0.0
 10
95.51683995947784
 20
137.1711765809475
 30
0.0
 10
95.5225689182833
 20
137.1300261364939
 30
0.0
 10
95.5254331369016
 20
137.1094527874514
 30
0.0
  0
SPLINE
  5
13B
330
1F
100
AcDbEntity
  8
0
  6
Continuous
 62
     7
370
     0
100
AcDbSpline
210
0.0
220
0.0
230
1.0
 70
     8
 71
     3
 72
    33
 73
    29
 74
     0
 42
0.00000001
 43
0.00000001
 12
1.0
 22
0.0
 32
0.0
 13
1.0
 23
0.0
 33
0.0
 40
0.0
 40
0.0
 40
0.0
 40
0.0
 40
0.0030068346531721
 40
0.0441119281988614
 40
0.0852346452404444
 40
0.1263637709165049
 40
0.1674782565980291
 40
0.2085820331064166
 40
0.2497019472506461
 40
0.2908316074424427
 40
0.3319492298597347
 40
0.3730526318338677
 40
0.4141694804836783
 40
0.4552990843983408
 40
0.4964197153065863
 40
0.5375237380943081
 40
0.5786374424165456
 40
0.6197663279532011
 40
0.6608896985089833
 40
0.7019952655414161
 40
0.7431059045604297
 40
0.7842334829510608
 40
0.8253591979638276
 40
0.8664670558775075
 40
0.9075748949237152
 40
0.9487006137244873
 40
0.9898281939967889
 40
1.0
 40
1.0
 40
1.0
 40
1.0
 10
107.5146964889083
 20
135.6327160481735
 30
0.0
 10
107.5158601553131
 20
135.6312116774471
 30
0.0
 10
107.5329317853882
 20
135.6091417264448
 30
0.0
 10
107.4708611824052
 20
135.5664653489501
 30
0.0
 10
107.3225579235582
 20
135.5047610801168
 30
0.0
 10
107.0677218851104
 20
135.4430585886378
 30
0.0
 10
106.7242152205038
 20
135.3813376938183
 30
0.0
 10
106.2914646312372
 20
135.3195946275099
 30
0.0
 10
105.7786707577143
 20
135.2578824927543
 30
0.0
 10
105.1957029565912
 20
135.1961814839657
 30
0.0
 10
104.5521024316761
 20
135.1344657428501
 30
0.0
 10
103.857144525893
 20
135.0727219509377
 30
0.0
 10
103.1226933812824
 20
135.0110048970545
 30
0.0
 10
102.3618631969331
 20
134.9493038883681
 30
0.0
 10
101.5871004359912
 20
134.8875927478597
 30
0.0
 10
100.8110649580343
 20
134.8258503100681
 30
0.0
 10
100.0471166563476
 20
134.7641276963932
 30
0.0
 10
99.30754965994385
 20
134.7024260587197
 30
0.0
 10
98.60433822574153
 20
134.6407186136045
 30
0.0
 10
97.94970632697128
 20
134.5789795085151
 30
0.0
 10
97.35596139447784
 20
134.5172509744013
 30
0.0
 10
96.83125874304802
 20
134.4555481382299
 30
0.0
 10
96.3835178168432
 20
134.3938434499762
 30
0.0
 10
96.02165071839799
 20
134.3321090591871
 30
0.0
 10
95.75148922135037
 20
134.2703753975167
 30
0.0
 10
95.5853279826994
 20
134.2086683517919
 30
0.0
 10
95.51132204519664
 20
134.1624467256775
 30
0.0
 10
95.52542356057812
 20
134.1367719745114
 30
0.0
 10
95.52821965404485
 20
134.131681102924
 30
0.0
  0
SPLINE
  5
13C
330
1F
100
AcDbEntity
  8
0
  6
Continuous
 62
     7
370
     0
100
AcDbSpline
210
0.0
220
0.0
230
1.0
 70
     8
 71
     3
 72
    32
 73
    28
 74
     0
 42
0.00000001
 43
0.00000001
 12
1.0
 22
0.0
 32
0.0
 13
1.0
 23
0.0
 33
0.0
 40
0.0
 40
0.0
 40
0.0
 40
0.0
 40
0.0179003663870798
 40
0.0588142164243187
 40
0.099724242368957
 40
0.1406521086436217
 40
0.1815845882937021
 40
0.2225014288958728
 40
0.2634097205451614
 40
0.304334965148944
 40
0.3452682845699417
 40
0.3861882542936907
 40
0.4270956912372527
 40
0.4680179915822246
 40
0.5089515570709631
 40
0.5498745949065325
 40
0.5907821503208244
 40
0.631701341907466
 40
0.6726345076953497
 40
0.7135604275461008
 40
0.7544690893311561
 40
0.7953852145943637
 40
0.8363173869344852
 40
0.8772458453322395
 40
0.9181563805833719
 40
0.9590694667646629
 40
1.0
 40
1.0
 40
1.0
 40
1.0
 10
107.5047527577791
 20
132.6309739832207
 30
0.0
 10
107.5073909573673
 20
132.621978058368
 30
0.0
 10
107.5160591398055
 20
132.5924206593863
 30
0.0
 10
107.425450642684
 20
132.5422679473167
 30
0.0
 10
107.2346922304115
 20
132.4805312875075
 30
0.0
 10
106.9428030975791
 20
132.4188242846127
 30
0.0
 10
106.5632091475668
 20
132.3571223198948
 30
0.0
 10
106.0997891296525
 20
132.2953990473578
 30
0.0
 10
105.558471742915
 20
132.2336540414294
 30
0.0
 10
104.9494196378779
 20
132.1719448182188
 30
0.0
 10
104.2839276421681
 20
132.1102434436581
 30
0.0
 10
103.5727615748113
 20
132.0485251186836
 30
0.0
 10
102.8267044059268
 20
131.9867814492486
 30
0.0
 10
102.0586656263052
 20
131.9250669389819
 30
0.0
 10
101.2817833536407
 20
131.863366029303
 30
0.0
 10
100.5087403532613
 20
131.8016526740899
 30
0.0
 10
99.75260340652135
 20
131.7399092975637
 30
0.0
 10
99.02649325575953
 20
131.6781895404868
 30
0.0
 10
98.34156137944012
 20
131.6164882845601
 30
0.0
 10
97.70888227012624
 20
131.5547791061421
 30
0.0
 10
97.13994415215453
 20
131.4930380804562
 30
0.0
 10
96.64558124732073
 20
131.4313125857861
 30
0.0
 10
96.23197600885203
 20
131.3696104168665
 30
0.0
 10
95.9048400218588
 20
131.3079044682866
 30
0.0
 10
95.6730983324713
 20
131.2461676024792
 30
0.0
 10
95.53407667999137
 20
131.1844361294508
 30
0.0
 10
95.5252096081077
 20
131.1433032752483
 30
0.0
 10
95.52077512704466
 20
131.1227324638888
 30
0.0
  0
SPLINE
  5
13D
330
1F
100
AcDbEntity
  8
0
  6
Continuous
 62
     7
370
     0
100
AcDbSpline
210
0.0
220
0.0
230
1.0
 70
     8
 71
     3
 72
    12
 73
     8
 74
     0
 42
0.00000001
 43
0.00000001
 12
1.0
 22
0.0
 32
0.0
 13
1.0
 23
0.0
 33
0.0
 40
0.0
 40
0.0
 40
0.0
 40
0.0
 40
0.0247817506578863
 40
0.2943912068940139
 40
0.564018856583807
 40
0.8335382440106998
 40
1.0
 40
1.0
 40
1.0
 40
1.0
 10
106.0249868918273
 20
132.8451837633177
 30
0.0
 10
106.0174705210068
 20
132.8470756253325
 30
0.0
 10
105.9281808857476
 20
132.8695497253071
 30
0.0
 10
105.6859603000819
 20
132.9125787188794
 30
0.0
 10
105.2980314727726
 20
132.9742826996119
 30
0.0
 10
104.9048694131659
 20
133.0281472726924
 30
0.0
 10
104.6250452274609
 20
133.061431767646
 30
0.0
 10
104.5182056862924
 20
133.0741401050612
 30
0.0
  0
SPLINE
  5
13E
330
1F
100
AcDbEntity
  8
0
  6
Continuous
 62
     7
370
     0
100
AcDbSpline
210
0.0
220
0.0
230
1.0
 70
     8
 71
     3
 72
    12
 73
     8
 74
     0
 42
0.00000001
 43
0.00000001
 12
1.0
 22
0.0
 32
0.0
 13
1.0
 23
0.0
 33
0.0
 40
0.0
 40
0.0
 40
0.0
 40
0.0
 40
0.1078443619769776
 40
0.3764839817252159
 40
0.6450153287066678
 40
0.9136098838344149
 40
1.0
 40
1.0
 40
1.0
 40
1.0
 10
98.51820563413833
 20
133.6901503835245
 30
0.0
 10
98.44766565019718
 20
133.6984073513564
 30
0.0
 10
98.20141101492321
 20
133.7272323735397
 30
0.0
 10
97.83195627650964
 20
133.7766258116319
 30
0.0
 10
97.42631019885431
 20
133.8383671002791
 30
0.0
 10
97.15331397663746
 20
133.88612941317
 30
0.0
 10
97.04052932295487
 20
133.9133067454828
 30
0.0
 10
97.01308171712492
 20
133.9199207011982
 30
0.0
  0
SPLINE
  5
13F
330
1F
100
AcDbEntity
  8
0
  6
Continuous
 62
     7
370
     0
100
AcDbSpline
210
0.0
220
0.0
230
1.0
 70
     8
 71
     3
 72
    12
 73
     8
 74
     0
 42
0.00000001
 43
0.00000001
 12
1.0
 22
0.0
 32
0.0
 13
1.0
 23
0.0
 33
0.0
 40
0.0
 40
0.0
 40
0.0
 40
0.0
 40
0.132906812736684
 40
0.4014813753595008
 40
0.6701715249644
 40
0.9388677032524927
 40
1.0
 40
1.0
 40
1.0
 40
1.0
 10
106.0216951321873
 20
135.8445341918989
 30
0.0
 10
105.9777697926618
 20
135.8547153084862
 30
0.0
 10
105.8450812918789
 20
135.8854701554801
 30
0.0
 10
105.5430073019668
 20
135.9368122390181
 30
0.0
 10
105.1239241624494
 20
135.9985164356368
 30
0.0
 10
104.7768698638156
 20
136.0443360758792
 30
0.0
 10
104.5586515222932
 20
136.0695980891112
 30
0.0
 10
104.5182056862924
 20
136.0742802951857
 30
0.0
  0
SPLINE
  5
140
330
1F
100
AcDbEntity
  8
0
  6
Continuous
 62
     7
370
     0
100
AcDbSpline
210
0.0
220
0.0
230
1.0
 70
     8
 71
     3
 72
    11
 73
     7
 74
     0
 42
0.00000001
 43
0.00000001
 12
1.0
 22
0.0
 32
0.0
 13
1.0
 23
0.0
 33
0.0
 40
0.0
 40
0.0
 40
0.0
 40
0.0
 40
0.2143658446931941
 40
0.4830539859246392
 40
0.7516731603486425
 40
1.0
 40
1.0
 40
1.0
 40
1.0
 10
98.51820563413833
 20
136.6898845170065
 30
0.0
 10
98.38227366796954
 20
136.7063044898272
 30
0.0
 10
98.07596331257513
 20
136.7433054091255
 30
0.0
 10
97.66614283664934
 20
136.8008493576211
 30
0.0
 10
97.2875470924444
 20
136.8610189878086
 30
0.0
 10
97.09853374214237
 20
136.9006278242838
 30
0.0
 10
97.0077368568692
 20
136.9196548346802
 30
0.0
  0
SPLINE
  5
141
330
1F
100
AcDbEntity
  8
0
  6
Continuous
 62
     7
370
     0
100
AcDbSpline
210
0.0
220
0.0
230
1.0
 70
     8
 71
     3
 72
    11
 73
     7
 74
     0
 42
0.00000001
 43
0.00000001
 12
1.0
 22
0.0
 32
0.0
 13
1.0
 23
0.0
 33
0.0
 40
0.0
 40
0.0
 40
0.0
 40
0.0
 40
0.2483268396513575
 40
0.5169460140753609
 40
0.785634155306806
 40
1.0
 40
1.0
 40
1.0
 40
1.0
 10
97.0077368568692
 20
136.9196548346802
 30
0.0
 10
97.09853374214237
 20
136.9006278242838
 30
0.0
 10
97.2875470924444
 20
136.8610189878086
 30
0.0
 10
97.66614283664936
 20
136.8008493576211
 30
0.0
 10
98.07596331257513
 20
136.7433054091256
 30
0.0
 10
98.38227366796954
 20
136.7063044898272
 30
0.0
 10
98.51820563413833
 20
136.6898845170065
 30
0.0
  0
SPLINE
  5
142
330
1F
100
AcDbEntity
  8
0
  6
Continuous
 62
     7
370
     0
100
AcDbSpline
210
0.0
220
0.0
230
1.0
 70
     8
 71
     3
 72
    12
 73
     8
 74
     0
 42
0.00000001
 43
0.00000001
 12
1.0
 22
0.0
 32
0.0
 13
1.0
 23
0.0
 33
0.0
 40
0.0
 40
0.0
 40
0.0
 40
0.0
 40
0.0611323020473382
 40
0.3298285036298987
 40
0.598518676528743
 40
0.8670932624354843
 40
1.0
 40
1.0
 40
1.0
 40
1.0
 10
104.5182056862924
 20
136.0742802951857
 30
0.0
 10
104.5586515223254
 20
136.0695980891034
 30
0.0
 10
104.7768698640217
 20
136.0443360758294
 30
0.0
 10
105.1239241578637
 20
135.9985164367441
 30
0.0
 10
105.5430073184383
 20
135.9368122350407
 30
0.0
 10
105.8450812046187
 20
135.8854701737569
 30
0.0
 10
105.9777697853596
 20
135.8547153096941
 30
0.0
 10
106.0216951321873
 20
135.8445341918989
 30
0.0
  0
SPLINE
  5
143
330
1F
100
AcDbEntity
  8
0
  6
Continuous
 62
     7
370
     0
100
AcDbSpline
210
0.0
220
0.0
230
1.0
 70
     8
 71
     3
 72
    12
 73
     8
 74
     0
 42
0.00000001
 43
0.00000001
 12
1.0
 22
0.0
 32
0.0
 13
1.0
 23
0.0
 33
0.0
 40
0.0
 40
0.0
 40
0.0
 40
0.0
 40
0.0863901161655851
 40
0.3549846712933323
 40
0.623516018274784
 40
0.8921556380230223
 40
1.0
 40
1.0
 40
1.0
 40
1.0
 10
97.01308171712492
 20
133.9199207011982
 30
0.0
 10
97.04052932295487
 20
133.9133067454828
 30
0.0
 10
97.15331397663746
 20
133.88612941317
 30
0.0
 10
97.42631019885431
 20
133.8383671002791
 30
0.0
 10
97.83195627650964
 20
133.7766258116319
 30
0.0
 10
98.20141101492321
 20
133.7272323735397
 30
0.0
 10
98.44766565019718
 20
133.6984073513564
 30
0.0
 10
98.51820563413833
 20
133.6901503835245
 30
0.0
  0
SPLINE
  5
144
330
1F
100
AcDbEntity
  8
0
  6
Continuous
 62
     7
370
     0
100
AcDbSpline
210
0.0
220
0.0
230
1.0
 70
     8
 71
     3
 72
    12
 73
     8
 74
     0
 42
0.00000001
 43
0.00000001
 12
1.0
 22
0.0
 32
0.0
 13
1.0
 23
0.0
 33
0.0
 40
0.0
 40
0.0
 40
0.0
 40
0.0
 40
0.1664617559893002
 40
0.435981143416193
 40
0.705608793105986
 40
0.9752182493421138
 40
1.0
 40
1.0
 40
1.0
 40
1.0
 10
104.5182056862924
 20
133.0741401050612
 30
0.0
 10
104.6250452274609
 20
133.061431767646
 30
0.0
 10
104.9048694131659
 20
133.0281472726924
 30
0.0
 10
105.2980314727726
 20
132.9742826996119
 30
0.0
 10
105.6859603000819
 20
132.9125787188794
 30
0.0
 10
105.9281808857476
 20
132.8695497253071
 30
0.0
 10
106.0174705210068
 20
132.8470756253325
 30
0.0
 10
106.0249868918273
 20
132.8451837633177
 30
0.0
  0
SPLINE
  5
145
330
1F
100
AcDbEntity
  8
0
  6
Continuous
 62
     7
370
     0
100
AcDbSpline
210
0.0
220
0.0
230
1.0
 70
     8
 71
     3
 72
    12
 73
     8
 74
     0
 42
0.00000001
 43
0.00000001
 12
1.0
 22
0.0
 32
0.0
 13
1.0
 23
0.0
 33
0.0
 40
0.0
 40
0.0
 40
0.0
 40
0.0
 40
0.2327049228826085
 40
0.4654220323508004
 40
0.7036625100492248
 40
0.9419139498918185
 40
1.0
 40
1.0
 40
1.0
 40
1.0
 10
105.9761893142078
 20
138.282108980827
 30
0.0
 10
105.9705335471648
 20
138.34654361529
 30
0.0
 10
105.9592217168906
 20
138.4754162586104
 30
0.0
 10
105.87538867427
 20
138.6439160450721
 30
0.0
 10
105.7526456598567
 20
138.7504977707738
 30
0.0
 10
105.6406831148262
 20
138.7955476285985
 30
0.0
 10
105.5813123736714
 20
138.7762808712167
 30
0.0
 10
105.56967492663
 20
138.7725043330713
 30
0.0
  0
SPLINE
  5
146
330
1F
100
AcDbEntity
  8
0
  6
Continuous
 62
     7
370
     0
100
AcDbSpline
210
0.0
220
0.0
230
1.0
 70
     8
 71
     3
 72
    32
 73
    28
 74
     0
 42
0.00000001
 43
0.00000001
 12
1.0
 22
0.0
 32
0.0
 13
1.0
 23
0.0
 33
0.0
 40
0.0
 40
0.0
 40
0.0
 40
0.0
 40
0.0408898717480552
 40
0.0817623137744347
 40
0.122632207404818
 40
0.1635200063764895
 40
0.2044115156009987
 40
0.2452869936901896
 40
0.2861550157156471
 40
0.3270402786621761
 40
0.3679327803475298
 40
0.4088113217139869
 40
0.4496782384677795
 40
0.4905606222621976
 40
0.5314535232513325
 40
0.5723351702877962
 40
0.6132019686885508
 40
0.6540812874190931
 40
0.6949739425849376
 40
0.7358585309553064
 40
0.7767261832127001
 40
0.8176023759302172
 40
0.8584941921593952
 40
0.8993813995962081
 40
0.940250784426056
 40
0.9811239895495487
 40
1.0
 40
1.0
 40
1.0
 40
1.0
 10
95.52077512704466
 20
131.1227324638888
 30
0.0
 10
95.5252096081077
 20
131.1433032752483
 30
0.0
 10
95.53407667999139
 20
131.1844361294508
 30
0.0
 10
95.6730983324713
 20
131.2461676024792
 30
0.0
 10
95.9048400218588
 20
131.3079044682866
 30
0.0
 10
96.23197600885203
 20
131.3696104168665
 30
0.0
 10
96.64558124732073
 20
131.4313125857861
 30
0.0
 10
97.1399441521545
 20
131.4930380804562
 30
0.0
 10
97.70888227012635
 20
131.5547791061421
 30
0.0
 10
98.34156137943974
 20
131.6164882845601
 30
0.0
 10
99.02649325576097
 20
131.6781895404868
 30
0.0
 10
99.75260340651593
 20
131.7399092975637
 30
0.0
 10
100.5087403532815
 20
131.80165267409
 30
0.0
 10
101.2817833535654
 20
131.863366029303
 30
0.0
 10
102.0586656265866
 20
131.925066938982
 30
0.0
 10
102.8267044048772
 20
131.9867814492481
 30
0.0
 10
103.5727615787273
 20
132.0485251186853
 30
0.0
 10
104.2839276275461
 20
132.1102434436515
 30
0.0
 10
104.9494196924626
 20
132.1719448182434
 30
0.0
 10
105.558471539285
 20
132.2336540413374
 30
0.0
 10
106.0997898893309
 20
132.2953990477009
 30
0.0
 10
106.5632063112505
 20
132.3571223186136
 30
0.0
 10
106.9428136867924
 20
132.4188242893959
 30
0.0
 10
107.2346527236877
 20
132.4805312696619
 30
0.0
 10
107.4255980184749
 20
132.5422680138879
 30
0.0
 10
107.5165376991956
 20
132.5929205724204
 30
0.0
 10
107.5074907387158
 20
132.6229777346304
 30
0.0
 10
107.504632617167
 20
132.6324734125658
 30
0.0
  0
SPLINE
  5
147
330
1F
100
AcDbEntity
  8
0
  6
Continuous
 62
     7
370
     0
100
AcDbSpline
210
0.0
220
0.0
230
1.0
 70
     8
 71
     3
 72
    33
 73
    29
 74
     0
 42
0.00000001
 43
0.00000001
 12
1.0
 22
0.0
 32
0.0
 13
1.0
 23
0.0
 33
0.0
 40
0.0
 40
0.0
 40
0.0
 40
0.0
 40
0.009289082322504
 40
0.0504265025512425
 40
0.0915620608630863
 40
0.1326797351425549
 40
0.1737974282940098
 40
0.214932982816942
 40
0.2560704011635599
 40
0.2971908760857402
 40
0.3383062778078445
 40
0.3794394873128702
 40
0.420578213118253
 40
0.4617017540770448
 40
0.5028156111849706
 40
0.5439460803869869
 40
0.5850855247422518
 40
0.6262122107809112
 40
0.6673254469267157
 40
0.7084529069179837
 40
0.7495924075638474
 40
0.7907221598303585
 40
0.8318357706000268
 40
0.8729600931050487
 40
0.9140990591072911
 40
0.9552316149417615
 40
0.9963465430638383
 40
1.0
 40
1.0
 40
1.0
 40
1.0
 10
95.527678555629
 20
134.1330091689154
 30
0.0
 10
95.52517130121103
 20
134.1376573324962
 30
0.0
 10
95.51156047649076
 20
134.1628902483566
 30
0.0
 10
95.5855152243356
 20
134.2086679682727
 30
0.0
 10
95.75143907539955
 20
134.2703755002286
 30
0.0
 10
96.0216641523074
 20
134.332109031671
 30
0.0
 10
96.38351421549837
 20
134.3938434573527
 30
0.0
 10
96.83125970826474
 20
134.4555481362529
 30
0.0
 10
97.3559611359616
 20
134.5172509749308
 30
0.0
 10
97.94970639621803
 20
134.5789795083733
 30
0.0
 10
98.60433820717854
 20
134.6407186136425
 30
0.0
 10
99.30754966492123
 20
134.7024260587095
 30
0.0
 10
100.0471166550079
 20
134.7641276963959
 30
0.0
 10
100.8110649584171
 20
134.8258503100677
 30
0.0
 10
101.587100435799
 20
134.8875927478589
 30
0.0
 10
102.3618631973191
 20
134.9493038883717
 30
0.0
 10
103.1226933799306
 20
135.0110048970408
 30
0.0
 10
103.8571445309118
 20
135.0727219509891
 30
0.0
 10
104.552102412956
 20
135.1344657426583
 30
0.0
 10
105.1957030264904
 20
135.1961814846819
 30
0.0
 10
105.7786704967911
 20
135.2578824900808
 30
0.0
 10
106.2914656045871
 20
135.3195946374833
 30
0.0
 10
106.7242115890738
 20
135.381337656609
 30
0.0
 10
107.067735443947
 20
135.4430587275677
 30
0.0
 10
107.3225073049558
 20
135.504760561456
 30
0.0
 10
107.4710500242769
 20
135.5664672839081
 30
0.0
 10
107.5329688670373
 20
135.609460609561
 30
0.0
 10
107.515427638361
 20
135.6318586294088
 30
0.0
 10
107.5139961343322
 20
135.6336864862963
 30
0.0
  0
SPLINE
  5
148
330
1F
100
AcDbEntity
  8
0
  6
Continuous
 62
     7
370
     0
100
AcDbSpline
210
0.0
220
0.0
230
1.0
 70
     8
 71
     3
 72
    26
 73
    22
 74
     0
 42
0.00000001
 43
0.00000001
 12
1.0
 22
0.0
 32
0.0
 13
1.0
 23
0.0
 33
0.0
 40
0.0
 40
0.0
 40
0.0
 40
0.0
 40
0.0329790524493348
 40
0.0866966549952774
 40
0.1404353494612949
 40
0.1941691632998618
 40
0.2478794264207094
 40
0.3015930555103044
 40
0.3553295809050484
 40
0.4090661714400911
 40
0.4627799052464576
 40
0.5164902379287768
 40
0.5702239774883375
 40
0.623962612636397
 40
0.6776804930042143
 40
0.7313893667886338
 40
0.7851212705084465
 40
0.8388618245515141
 40
0.8925814551288712
 40
0.9462815588305671
 40
1.0
 40
1.0
 40
1.0
 40
1.0
 10
95.5304189723048
 20
137.1332722936197
 30
0.0
 10
95.52965473585057
 20
137.1459056570245
 30
0.0
 10
95.52764568042642
 20
137.1791167491324
 30
0.0
 10
95.63886248697608
 20
137.232904141534
 30
0.0
 10
95.8474755364356
 20
137.2946059988567
 30
0.0
 10
96.15375015186925
 20
137.35631201338
 30
0.0
 10
96.54831086515826
 20
137.4180488892233
 30
0.0
 10
97.02802734330159
 20
137.4797803390747
 30
0.0
 10
97.58206655208808
 20
137.5414840593136
 30
0.0
 10
98.20089431065823
 20
137.6031877129284
 30
0.0
 10
98.87484206105339
 20
137.6649191258241
 30
0.0
 10
99.59393599315746
 20
137.7266559393146
 30
0.0
 10
100.3449770976518
 20
137.7883619810392
 30
0.0
 10
101.1153142456561
 20
137.850064299346
 30
0.0
 10
101.8924131494857
 20
137.9117901279915
 30
0.0
 10
102.6632176694561
 20
137.973530904943
 30
0.0
 10
103.4146136815322
 20
138.0352393276687
 30
0.0
 10
104.1351333880543
 20
138.0969397291195
 30
0.0
 10
104.8111240060369
 20
138.1586579509685
 30
0.0
 10
105.4365904983545
 20
138.2204040397936
 30
0.0
 10
105.7963022629639
 20
138.261538326465
 30
0.0
 10
105.9761888485465
 20
138.282108980827
 30
0.0
  0
SPLINE
  5
149
330
1F
100
AcDbEntity
  8
0
  6
Continuous
 62
     7
370
     0
100
AcDbSpline
210
0.0
220
0.0
230
1.0
 70
     8
 71
     3
 72
    11
 73
     7
 74
     0
 42
0.00000001
 43
0.00000001
 12
1.0
 22
0.0
 32
0.0
 13
1.0
 23
0.0
 33
0.0
 40
0.0
 40
0.0
 40
0.0
 40
0.0
 40
0.014474525080534
 40
0.3426641677375475
 40
0.6712245992165596
 40
1.0
 40
1.0
 40
1.0
 40
1.0
 10
105.7400887969944
 20
138.745427060537
 30
0.0
 10
105.7421817668544
 20
138.7448822071284
 30
0.0
 10
105.7917299054754
 20
138.7319835635636
 30
0.0
 10
105.8725019494332
 20
138.6403578937346
 30
0.0
 10
105.9590015001894
 20
138.4795965483245
 30
0.0
 10
105.9704591043113
 20
138.3479525205595
 30
0.0
 10
105.9761897798691
 20
138.282108980827
 30
0.0
  0
SPLINE
  5
14A
330
1F
100
AcDbEntity
  8
0
  6
Continuous
 62
     7
370
     0
100
AcDbSpline
210
0.0
220
0.0
230
1.0
 70
     8
 71
     3
 72
    10
 73
     6
 74
     0
 42
0.00000001
 43
0.00000001
 12
1.0
 22
0.0
 32
0.0
 13
1.0
 23
0.0
 33
0.0
 40
0.0
 40
0.0
 40
0.0
 40
0.0
 40
0.3342287011607632
 40
0.6682063200918863
 40
1.0
 40
1.0
 40
1.0
 40
1.0
 10
105.9761897798691
 20
138.282108980827
 30
0.0
 10
105.9702972231403
 20
138.2170474136759
 30
0.0
 10
105.9585165363411
 20
138.0869731554976
 30
0.0
 10
105.8749563598536
 20
137.9162771036027
 30
0.0
 10
105.7899109521054
 20
137.8529704500085
 30
0.0
 10
105.7475277360592
 20
137.8214209560677
 30
0.0
  0
LINE
  5
14B
330
1F
100
AcDbEntity
  8
0
  6
Continuous
 62
     7
370
     0
100
AcDbLine
 10
103.5182057552
 20
132.8055764769
 30
0.0
 11
103.6353069961
 21
132.5713730637
 31
0.0
  0
LINE
  5
14C
330
1F
100
AcDbEntity
  8
0
  6
Continuous
 62
     7
370
     0
100
AcDbLine
 10
100.6375065793
 20
132.3055773262
 30
0.0
 11
97.0182058539
 21
132.3055773262
 31
0.0
  0
LINE
  5
14D
330
1F
100
AcDbEntity
  8
0
  6
Continuous
 62
     7
370
     0
100
AcDbLine
 10
97.5182054702
 20
132.8055764769
 30
0.0
 11
103.5182057552
 21
132.8055764769
 31
0.0
  0
LINE
  5
14E
330
1F
100
AcDbEntity
  8
0
  6
Continuous
 62
     7
370
     0
100
AcDbLine
 10
103.2682057142
 20
132.8055764769
 30
0.0
 11
103.4711705891
 21
132.8055764769
 31
0.0
  0
LINE
  5
14F
330
1F
100
AcDbEntity
  8
0
  6
Continuous
 62
     7
370
     0
100
AcDbLine
 10
95.5182056081
 20
112.8055750613
 30
0.0
 11
104.5182056863
 21
112.8055750613
 31
0.0
  0
LINE
  5
150
330
1F
100
AcDbEntity
  8
0
  6
Continuous
 62
     7
370
     0
100
AcDbLine
 10
104.5182056863
 20
112.8055750613
 30
0.0
 11
104.0182056043
 21
111.80557676
 31
0.0
  0
LINE
  5
151
330
1F
100
AcDbEntity
  8
0
  6
Continuous
 62
     7
370
     0
100
AcDbLine
 10
104.0182056043
 20
111.80557676
 30
0.0
 11
96.518205772
 21
111.80557676
 31
0.0
  0
SPLINE
  5
152
330
1F
100
AcDbEntity
  8
0
  6
Continuous
 62
     7
370
     0
100
AcDbSpline
210
0.0
220
0.0
230
1.0
 70
    24
 71
     3
 72
    13
 73
     9
 74
     0
 42
0.00000001
 43
0.00000001
 12
1.0
 22
0.0
 32
0.0
 13
1.0
 23
0.0
 33
0.0
 40
0.0
 40
0.0
 40
0.0
 40
0.0
 40
0.1874805235970321
 40
0.3749610951007092
 40
0.5624416333108339
 40
0.7499221888978707
 40
0.9374027555008898
 40
1.0
 40
1.0
 40
1.0
 40
1.0
 10
103.5182057552103
 20
132.8055764768644
 30
0.0
 10
103.7375251309494
 20
132.8055764768644
 30
0.0
 10
104.17616393847
 20
132.8055764768644
 30
0.0
 10
104.7106725473949
 20
132.8055764768644
 30
0.0
 10
105.1308604156985
 20
132.8055764768644
 30
0.0
 10
105.4000650800454
 20
132.8055764768644
 30
0.0
 10
105.5247471685367
 20
132.8055764768644
 30
0.0
 10
105.5058142274986
 20
132.8055764768644
 30
0.0
 10
105.5010751027677
 20
132.8055764768644
 30
0.0
  0
SPLINE
  5
153
330
1F
100
AcDbEntity
  8
0
  6
Continuous
 62
     7
370
     0
100
AcDbSpline
210
0.0
220
0.0
230
1.0
 70
    24
 71
     3
 72
    21
 73
    17
 74
     0
 42
0.00000001
 43
0.00000001
 12
1.0
 22
0.0
 32
0.0
 13
1.0
 23
0.0
 33
0.0
 40
0.0
 40
0.0
 40
0.0
 40
0.0
 40
0.0049411310925766
 40
0.0814841189409909
 40
0.1580271112869182
 40
0.2345701014733702
 40
0.311113091576496
 40
0.3876560906020657
 40
0.4641990653898695
 40
0.5407420597365963
 40
0.6172850404905108
 40
0.6938280283389252
 40
0.7703710206848524
 40
0.8469140108713045
 40
0.9234570009744303
 40
0.9999999999999999
 40
0.9999999999999999
 40
0.9999999999999999
 40
0.9999999999999999
 10
97.95744490326081
 20
132.8055764768644
 30
0.0
 10
97.9484551825172
 20
132.8055764768644
 30
0.0
 10
97.80020583219759
 20
132.8055764768644
 30
0.0
 10
97.63877003393144
 20
132.8055764768644
 30
0.0
 10
97.4985822810508
 20
132.8055764768644
 30
0.0
 10
97.52752031850112
 20
132.8055764768644
 30
0.0
 10
97.7058923727834
 20
132.8055764768644
 30
0.0
 10
98.0318207302009
 20
132.8055764768644
 30
0.0
 10
98.49144894389175
 20
132.8055764768644
 30
0.0
 10
99.0674616592847
 20
132.8055764768644
 30
0.0
 10
99.73766349697793
 20
132.8055764768644
 30
0.0
 10
100.4761896517829
 20
132.8055764768644
 30
0.0
 10
101.2551546667948
 20
132.8055764768644
 30
0.0
 10
102.0427504405095
 20
132.8055764768644
 30
0.0
 10
102.8157062957099
 20
132.8055764768644
 30
0.0
 10
103.2840392596114
 20
132.8055764768644
 30
0.0
 10
103.5182057552103
 20
132.8055764768644
 30
0.0
  0
SPLINE
  5
154
330
1F
100
AcDbEntity
  8
0
  6
Continuous
 62
     7
370
     0
100
AcDbSpline
210
0.0
220
0.0
230
1.0
 70
    24
 71
     3
 72
    18
 73
    14
 74
     0
 42
0.00000001
 43
0.00000001
 12
1.0
 22
0.0
 32
0.0
 13
1.0
 23
0.0
 33
0.0
 40
0.0
 40
0.0
 40
0.0
 40
0.0
 40
0.0937534147691956
 40
0.187506821998422
 40
0.2812602305597728
 40
0.3750136440648452
 40
0.4687670411027884
 40
0.5625204474299568
 40
0.6562738548763792
 40
0.7500272730164756
 40
0.8437806877856713
 40
0.9375340950148977
 40
1.0
 40
1.0
 40
1.0
 40
1.0
 10
103.2682057142321
 20
132.8055764768644
 30
0.0
 10
103.0633100731383
 20
132.8055764768644
 30
0.0
 10
102.653518807429
 20
132.8055764768644
 30
0.0
 10
101.9771819500547
 20
132.8055764768644
 30
0.0
 10
101.2880373121837
 20
132.8055764768644
 30
0.0
 10
100.6064369888979
 20
132.8055764768644
 30
0.0
 10
99.96024887342574
 20
132.8055764768644
 30
0.0
 10
99.3737390301851
 20
132.8055764768644
 30
0.0
 10
98.87003960315523
 20
132.8055764768644
 30
0.0
 10
98.46670023028653
 20
132.8055764768644
 30
0.0
 10
98.18585963427454
 20
132.8055764768644
 30
0.0
 10
98.03272865100158
 20
132.8055764768644
 30
0.0
 10
98.03305909818229
 20
132.8055764768644
 30
0.0
 10
98.03319123089943
 20
132.8055764768644
 30
0.0
  0
LINE
  5
155
330
1F
100
AcDbEntity
  8
0
  6
Continuous
 62
     7
370
     0
100
AcDbLine
 10
103.7682055634
 20
131.5833366696
 30
0.0
 11
103.7682055634
 21
129.8055759851
 31
0.0
  0
LINE
  5
156
330
1F
100
AcDbEntity
  8
0
  6
Continuous
 62
     7
370
     0
100
AcDbLine
 10
97.0182058539
 20
132.3055773262
 30
0.0
 11
100.634934732
 21
132.3055773262
 31
0.0
  0
LINE
  5
157
330
1F
100
AcDbEntity
  8
0
  6
Continuous
 62
     7
370
     0
100
AcDbLine
 10
91.7032512974
 20
129.8055759851
 30
0.0
 11
91.7032512974
 21
126.805577356
 31
0.0
  0
LINE
  5
158
330
1F
100
AcDbEntity
  8
0
  6
Continuous
 62
     7
370
     0
100
AcDbLine
 10
111.333160023
 20
126.805577356
 30
0.0
 11
111.333160023
 21
129.8055759851
 31
0.0
  0
LINE
  5
159
330
1F
100
AcDbEntity
  8
0
  6
Continuous
 62
     7
370
     0
100
AcDbLine
 10
106.4256828416
 20
126.805577356
 30
0.0
 11
106.4256828416
 21
129.8055759851
 31
0.0
  0
LINE
  5
15A
330
1F
100
AcDbEntity
  8
0
  6
Continuous
 62
     7
370
     0
100
AcDbLine
 10
106.4256828416
 20
129.8055759851
 30
0.0
 11
111.333160023
 21
129.8055759851
 31
0.0
  0
LINE
  5
15B
330
1F
100
AcDbEntity
  8
0
  6
Continuous
 62
     7
370
     0
100
AcDbLine
 10
111.333160023
 20
126.805577356
 30
0.0
 11
106.4256828416
 21
126.805577356
 31
0.0
  0
LINE
  5
15C
330
1F
100
AcDbEntity
  8
0
  6
Continuous
 62
     7
370
     0
100
AcDbLine
 10
96.6107284788
 20
129.8055759851
 30
0.0
 11
106.4256828416
 21
129.8055759851
 31
0.0
  0
LINE
  5
15D
330
1F
100
AcDbEntity
  8
0
  6
Continuous
 62
     7
370
     0
100
AcDbLine
 10
96.6107284788
 20
126.805577356
 30
0.0
 11
96.6107284788
 21
129.8055759851
 31
0.0
  0
LINE
  5
15E
330
1F
100
AcDbEntity
  8
0
  6
Continuous
 62
     7
370
     0
100
AcDbLine
 10
106.4256828416
 20
126.805577356
 30
0.0
 11
96.6107284788
 21
126.805577356
 31
0.0
  0
LINE
  5
15F
330
1F
100
AcDbEntity
  8
0
  6
Continuous
 62
     7
370
     0
100
AcDbLine
 10
91.7032512974
 20
129.8055759851
 30
0.0
 11
96.6107284788
 21
129.8055759851
 31
0.0
  0
LINE
  5
160
330
1F
100
AcDbEntity
  8
0
  6
Continuous
 62
     7
370
     0
100
AcDbLine
 10
96.6107284788
 20
126.805577356
 30
0.0
 11
91.7032512974
 21
126.805577356
 31
0.0
  0
LINE
  5
161
330
1F
100
AcDbEntity
  8
0
  6
Continuous
 62
     7
370
     0
100
AcDbLine
 10
106.4256828416
 20
126.805577356
 30
0.0
 11
111.333160023
 21
126.805577356
 31
0.0
  0
LINE
  5
162
330
1F
100
AcDbEntity
  8
0
  6
Continuous
 62
     7
370
     0
100
AcDbLine
 10
96.6107284788
 20
126.805577356
 30
0.0
 11
106.4256828416
 21
126.805577356
 31
0.0
  0
LINE
  5
163
330
1F
100
AcDbEntity
  8
0
  6
Continuous
 62
     7
370
     0
100
AcDbLine
 10
104.2682056453
 20
126.805577356
 30
0.0
 11
104.2682056453
 21
125.3055761788
 31
0.0
  0
SPLINE
  5
164
330
1F
100
AcDbEntity
  8
0
  6
Continuous
 62
     7
370
     0
100
AcDbSpline
210
0.0
220
0.0
230
1.0
 70
    24
 71
     3
 72
    18
 73
    14
 74
     0
 42
0.00000001
 43
0.00000001
 12
1.0
 22
0.0
 32
0.0
 13
1.0
 23
0.0
 33
0.0
 40
0.0
 40
0.0
 40
0.0
 40
0.0
 40
0.0624527192706272
 40
0.1562074424355372
 40
0.2499621666030064
 40
0.3437169064260502
 40
0.4374716423744702
 40
0.531226370493824
 40
0.6249810978385049
 40
0.7187358217487899
 40
0.8124905526676208
 40
0.9062452758325308
 40
1.0
 40
1.0
 40
1.0
 40
1.0
 10
96.53961827494834
 20
111.8055767599865
 30
0.0
 10
96.53943051941518
 20
111.8055767599865
 30
0.0
 10
96.5389609031682
 20
111.8055767599865
 30
0.0
 10
96.75771260641693
 20
111.8055767599865
 30
0.0
 10
97.15891195564
 20
111.8055767599865
 30
0.0
 10
97.73511151020179
 20
111.8055767599865
 30
0.0
 10
98.45468158494157
 20
111.8055767599865
 30
0.0
 10
99.29255327728933
 20
111.8055767599865
 30
0.0
 10
100.215678927319
 20
111.8055767599865
 30
0.0
 10
101.18939380187
 20
111.8055767599865
 30
0.0
 10
102.1738860890199
 20
111.8055767599865
 30
0.0
 10
103.1400815713561
 20
111.8055767599865
 30
0.0
 10
103.7254975922993
 20
111.8055767599865
 30
0.0
 10
104.018205604336
 20
111.8055767599865
 30
0.0
  0
SPLINE
  5
165
330
1F
100
AcDbEntity
  8
0
  6
Continuous
 62
     7
370
     0
100
AcDbSpline
210
0.0
220
0.0
230
1.0
 70
    24
 71
     3
 72
    13
 73
     9
 74
     0
 42
0.00000001
 43
0.00000001
 12
1.0
 22
0.0
 32
0.0
 13
1.0
 23
0.0
 33
0.0
 40
0.0
 40
0.0
 40
0.0
 40
0.0
 40
0.1874811074574186
 40
0.3749622071667621
 40
0.5624432912203425
 40
0.7499243737248114
 40
0.937405449361528
 40
1.0
 40
1.0
 40
1.0
 40
1.0
 10
104.018205604336
 20
111.8055767599865
 30
0.0
 10
104.2923549094169
 20
111.8055767599865
 30
0.0
 10
104.8406535082488
 20
111.8055767599865
 30
0.0
 10
105.508789296914
 20
111.8055767599865
 30
0.0
 10
106.0340243898978
 20
111.8055767599865
 30
0.0
 10
106.3705300672291
 20
111.8055767599865
 30
0.0
 10
106.5263822261046
 20
111.8055767599865
 30
0.0
 10
106.502716608398
 20
111.8055767599865
 30
0.0
 10
106.4967930454824
 20
111.8055767599865
 30
0.0
  0
LINE
  5
166
330
1F
100
AcDbEntity
  8
0
  6
Continuous
 62
     7
370
     0
100
AcDbLine
 10
104.5182056863
 20
125.3055761788
 30
0.0
 11
104.5182056863
 21
120.0727260892
 31
0.0
  0
LINE
  5
167
330
1F
100
AcDbEntity
  8
0
  6
Continuous
 62
     7
370
     0
100
AcDbLine
 10
104.5182056863
 20
114.0727251057
 30
0.0
 11
104.5182056863
 21
112.8055750613
 31
0.0
  0
LINE
  5
168
330
1F
100
AcDbEntity
  8
0
  6
Continuous
 62
     7
370
     0
100
AcDbLine
 10
95.5182056081
 20
125.3055761788
 30
0.0
 11
104.5182056863
 21
125.3055761788
 31
0.0
  0
SPLINE
  5
169
330
1F
100
AcDbEntity
  8
0
  6
Continuous
 62
     7
370
     0
100
AcDbSpline
210
0.0
220
0.0
230
1.0
 70
    24
 71
     3
 72
    18
 73
    14
 74
     0
 42
0.00000001
 43
0.00000001
 12
1.0
 22
0.0
 32
0.0
 13
1.0
 23
0.0
 33
0.0
 40
0.0
 40
0.0
 40
0.0
 40
0.0
 40
0.0624536117596997
 40
0.1562082526448831
 40
0.2499628995320102
 40
0.3437175267588375
 40
0.4374721589922252
 40
0.5312267930218267
 40
0.6249814449893917
 40
0.7187360761818875
 40
0.8124907122276893
 40
0.9062453531128728
 40
0.9999999999999999
 40
0.9999999999999999
 40
0.9999999999999999
 40
0.9999999999999999
 10
95.54390033223365
 20
125.3055761788412
 30
0.0
 10
95.54367489302601
 20
125.3055761788412
 30
0.0
 10
95.54311102708277
 20
125.3055761788412
 30
0.0
 10
95.80561393912564
 20
125.3055761788412
 30
0.0
 10
96.28705334206151
 20
125.3055761788412
 30
0.0
 10
96.9784928599231
 20
125.3055761788412
 30
0.0
 10
97.84197659702312
 20
125.3055761788412
 30
0.0
 10
98.84742279225426
 20
125.3055761788412
 30
0.0
 10
99.95517340739697
 20
125.3055761788412
 30
0.0
 10
101.1236314262006
 20
125.3055761788412
 30
0.0
 10
102.3050221771867
 20
125.3055761788412
 30
0.0
 10
103.4644567770992
 20
125.3055761788412
 30
0.0
 10
104.1669560423993
 20
125.3055761788412
 30
0.0
 10
104.5182056862924
 20
125.3055761788412
 30
0.0
  0
SPLINE
  5
16A
330
1F
100
AcDbEntity
  8
0
  6
Continuous
 62
     7
370
     0
100
AcDbSpline
210
0.0
220
0.0
230
1.0
 70
    24
 71
     3
 72
    13
 73
     9
 74
     0
 42
0.00000001
 43
0.00000001
 12
1.0
 22
0.0
 32
0.0
 13
1.0
 23
0.0
 33
0.0
 40
0.0
 40
0.0
 40
0.0
 40
0.0
 40
0.1874814318582047
 40
0.3749628737280442
 40
0.5624443191897786
 40
0.7499258005221163
 40
0.9374072403104811
 40
1.0
 40
1.0
 40
1.0
 40
1.0
 10
104.5182056862924
 20
125.3055761788412
 30
0.0
 10
104.8471847341382
 20
125.3055761788412
 30
0.0
 10
105.5051428473974
 20
125.3055761788412
 30
0.0
 10
106.3069059604838
 20
125.3055761788412
 30
0.0
 10
106.9371877425577
 20
125.3055761788412
 30
0.0
 10
107.3409951465956
 20
125.3055761788412
 30
0.0
 10
107.5280163717511
 20
125.3055761788412
 30
0.0
 10
107.4996188065172
 20
125.3055761788412
 30
0.0
 10
107.4925109881971
 20
125.3055761788412
 30
0.0
  0
LINE
  5
16B
330
1F
100
AcDbEntity
  8
0
  6
Continuous
 62
     7
370
     0
100
AcDbLine
 10
106.4256828416
 20
129.8055759851
 30
0.0
 11
111.333160023
 21
129.8055759851
 31
0.0
  0
LINE
  5
16C
330
1F
100
AcDbEntity
  8
0
  6
Continuous
 62
     7
370
     0
100
AcDbLine
 10
96.6107284788
 20
129.8055759851
 30
0.0
 11
106.4256828416
 21
129.8055759851
 31
0.0
  0
LINE
  5
16D
330
1F
100
AcDbEntity
  8
0
  6
Continuous
 62
     7
370
     0
100
AcDbLine
 10
107.5182057124
 20
112.8055750613
 30
0.0
 11
104.5182056863
 21
112.8055750613
 31
0.0
  0
LINE
  5
16E
330
1F
100
AcDbEntity
  8
0
  6
Continuous
 62
     7
370
     0
100
AcDbLine
 10
104.5182056863
 20
125.3055761788
 30
0.0
 11
107.5182057124
 21
125.3055761788
 31
0.0
  0
LINE
  5
16F
330
1F
100
AcDbEntity
  8
0
  6
Continuous
 62
     7
370
     0
100
AcDbLine
 10
106.5182055485
 20
111.80557676
 30
0.0
 11
104.0182056043
 21
111.80557676
 31
0.0
  0
LINE
  5
170
330
1F
100
AcDbEntity
  8
0
  6
Continuous
 62
     7
370
     0
100
AcDbLine
 10
98.0182055522
 20
132.8055764769
 30
0.0
 11
103.2682057142
 21
132.8055764769
 31
0.0
  0
LINE
  5
171
330
1F
100
AcDbEntity
  8
0
  6
Continuous
 62
     7
370
     0
100
AcDbLine
 10
103.5182057552
 20
132.8055764769
 30
0.0
 11
105.5182058502
 21
132.8055764769
 31
0.0
  0
LINE
  5
172
330
1F
100
AcDbEntity
  8
0
  6
Continuous
 62
     7
370
     0
100
AcDbLine
 10
101.5182056614
 20
110.3055774454
 30
0.0
 11
104.5182056863
 21
110.3055774454
 31
0.0
  0
LINE
  5
173
330
1F
100
AcDbEntity
  8
0
  6
Continuous
 62
     7
370
     0
100
AcDbLine
 10
104.0182056043
 20
109.8055764322
 30
0.0
 11
101.5182056612
 21
109.8055764322
 31
0.0
  0
LINE
  5
174
330
1F
100
AcDbEntity
  8
0
  6
Continuous
 62
     7
370
     0
100
AcDbLine
 10
101.5182056612
 20
109.8055764322
 30
0.0
 11
101.5182056614
 21
110.3055774454
 31
0.0
  0
SPLINE
  5
175
330
1F
100
AcDbEntity
  8
0
  6
Continuous
 62
     7
370
     0
100
AcDbSpline
210
0.0
220
0.0
230
1.0
 70
    24
 71
     3
 72
    15
 73
    11
 74
     0
 42
0.00000001
 43
0.00000001
 12
1.0
 22
0.0
 32
0.0
 13
1.0
 23
0.0
 33
0.0
 40
0.0
 40
0.0
 40
0.0
 40
0.0
 40
0.1248783642802601
 40
0.2498957389441409
 40
0.3749131207920328
 40
0.499930496309397
 40
0.6249478718267613
 40
0.749965253674653
 40
0.8749826283385339
 40
1.0
 40
1.0
 40
1.0
 40
1.0
 10
104.0181522861186
 20
109.805576432161
 30
0.0
 10
104.0088549041551
 20
109.805576432161
 30
0.0
 10
103.990249790696
 20
109.805576432161
 30
0.0
 10
103.84163300119
 20
109.805576432161
 30
0.0
 10
103.6105901060786
 20
109.805576432161
 30
0.0
 10
103.2972847744013
 20
109.805576432161
 30
0.0
 10
102.9161068235904
 20
109.805576432161
 30
0.0
 10
102.4810754127212
 20
109.805576432161
 30
0.0
 10
102.0090769361873
 20
109.8055764321609
 30
0.0
 10
101.6818294175628
 20
109.805576432161
 30
0.0
 10
101.5182056602154
 20
109.805576432161
 30
0.0
  0
SPLINE
  5
176
330
1F
100
AcDbEntity
  8
0
  6
Continuous
 62
     7
370
     0
100
AcDbSpline
210
0.0
220
0.0
230
1.0
 70
    24
 71
     3
 72
    16
 73
    12
 74
     0
 42
0.00000001
 43
0.00000001
 12
1.0
 22
0.0
 32
0.0
 13
1.0
 23
0.0
 33
0.0
 40
0.0
 40
0.0
 40
0.0
 40
0.0
 40
0.1249826246465082
 40
0.2499652522945965
 40
0.3749478871246992
 40
0.4999305156260337
 40
0.6249131441273683
 40
0.749895778957471
 40
0.8748784066055593
 40
0.9998610312520675
 40
1.0
 40
1.0
 40
1.0
 40
1.0
 10
101.5182056602154
 20
109.805576432161
 30
0.0
 10
101.3545832464217
 20
109.805576432161
 30
0.0
 10
101.0273384149047
 20
109.805576432161
 30
0.0
 10
100.5553197850634
 20
109.8055764321609
 30
0.0
 10
100.120364956766
 20
109.805576432161
 30
0.0
 10
99.73890082898647
 20
109.805576432161
 30
0.0
 10
99.42666362262086
 20
109.8055764321609
 30
0.0
 10
99.19163440311237
 20
109.8055764321612
 30
0.0
 10
99.05783968208111
 20
109.8055764321602
 30
0.0
 10
99.00222318835996
 20
109.8055764321626
 30
0.0
 10
99.01824124354545
 20
109.805576432161
 30
0.0
 10
99.01825903431211
 20
109.805576432161
 30
0.0
  0
LINE
  5
177
330
1F
100
AcDbEntity
  8
0
  6
Continuous
 62
     7
370
     0
100
AcDbLine
 10
101.5182056614
 20
110.3055774454
 30
0.0
 11
101.5182056614
 21
111.1055760865
 31
0.0
  0
LINE
  5
178
330
1F
100
AcDbEntity
  8
0
  6
Continuous
 62
     7
370
     0
100
AcDbLine
 10
101.518205661
 20
111.7055750672
 30
0.0
 11
101.518205661
 21
111.80557676
 31
0.0
  0
LINE
  5
179
330
1F
100
AcDbEntity
  8
0
  6
Continuous
 62
     7
370
     0
100
AcDbLine
 10
101.5182056614
 20
132.8055764769
 30
0.0
 11
101.5182056614
 21
134.3821062927
 31
0.0
  0
LINE
  5
17A
330
1F
100
AcDbEntity
  8
0
  6
Continuous
 62
     7
370
     0
100
AcDbLine
 10
101.5182056614
 20
135.3821288083
 30
0.0
 11
101.5182056614
 21
137.3820918832
 31
0.0
  0
LINE
  5
17B
330
1F
100
AcDbEntity
  8
0
  6
Continuous
 62
     7
370
     0
100
AcDbLine
 10
101.5182056621
 20
138.3821069483
 30
0.0
 11
101.5182056621
 21
138.8055755977
 31
0.0
  0
LINE
  5
17C
330
1F
100
AcDbEntity
  8
0
  6
Continuous
 62
     7
370
     0
100
AcDbLine
 10
106.0182054665
 20
137.8055772964
 30
0.0
 11
105.7149463471
 21
137.8055772964
 31
0.0
  0
LINE
  5
17D
330
1F
100
AcDbEntity
  8
0
  6
Continuous
 62
     7
370
     0
100
AcDbLine
 10
95.5182056081
 20
146.805576909
 30
0.0
 11
95.5182056081
 21
142.8360277076
 31
0.0
  0
LINE
  5
17E
330
1F
100
AcDbEntity
  8
0
  6
Continuous
 62
     7
370
     0
100
AcDbLine
 10
95.5182056081
 20
142.7751247991
 30
0.0
 11
95.5182056081
 21
138.8055755977
 31
0.0
  0
LINE
  5
17F
330
1F
100
AcDbEntity
  8
0
  6
Continuous
 62
     7
370
     0
100
AcDbLine
 10
101.5182056602
 20
146.805576909
 30
0.0
 11
101.5182056602
 21
138.8055755977
 31
0.0
  0
LINE
  5
180
330
1F
100
AcDbEntity
  8
0
  6
Continuous
 62
     7
370
     0
100
AcDbLine
 10
101.5182056602
 20
138.8055755977
 30
0.0
 11
95.5182056081
 21
138.8055755977
 31
0.0
  0
LINE
  5
181
330
1F
100
AcDbEntity
  8
0
  6
Continuous
 62
     7
370
     0
100
AcDbLine
 10
95.5182056081
 20
138.8055755977
 30
0.0
 11
95.5182056081
 21
146.805576909
 31
0.0
  0
LINE
  5
182
330
1F
100
AcDbEntity
  8
0
  6
Continuous
 62
     7
370
     0
100
AcDbLine
 10
95.5182056081
 20
146.805576909
 30
0.0
 11
101.5182056602
 21
146.805576909
 31
0.0
  0
LINE
  5
183
330
1F
100
AcDbEntity
  8
0
  6
Continuous
 62
     7
370
     0
100
AcDbLine
 10
107.5182057124
 20
146.805576909
 30
0.0
 11
107.5182057124
 21
138.8055755977
 31
0.0
  0
LINE
  5
184
330
1F
100
AcDbEntity
  8
0
  6
Continuous
 62
     7
370
     0
100
AcDbLine
 10
107.5182057124
 20
138.8055755977
 30
0.0
 11
101.5182056602
 21
138.8055755977
 31
0.0
  0
LINE
  5
185
330
1F
100
AcDbEntity
  8
0
  6
Continuous
 62
     7
370
     0
100
AcDbLine
 10
101.5182056602
 20
146.805576909
 30
0.0
 11
107.5182057124
 21
146.805576909
 31
0.0
  0
LINE
  5
186
330
1F
100
AcDbEntity
  8
0
  6
Continuous
 62
     7
370
     0
100
AcDbLine
 10
107.5182057124
 20
138.8055755977
 30
0.0
 11
107.5182057124
 21
140.8055768568
 31
0.0
  0
LINE
  5
187
330
1F
100
AcDbEntity
  8
0
  6
Continuous
 62
     7
370
     0
100
AcDbLine
 10
107.5182057124
 20
144.8055765812
 30
0.0
 11
107.5182057124
 21
146.805576909
 31
0.0
  0
LINE
  5
188
330
1F
100
AcDbEntity
  8
0
  6
Continuous
 62
     7
370
     0
100
AcDbLine
 10
101.5182056602
 20
146.805576909
 30
0.0
 11
95.5182056081
 21
146.805576909
 31
0.0
  0
LINE
  5
189
330
1F
100
AcDbEntity
  8
0
  6
Continuous
 62
     7
370
     0
100
AcDbLine
 10
107.5182057124
 20
146.805576909
 30
0.0
 11
101.5182056602
 21
146.805576909
 31
0.0
  0
LINE
  5
18A
330
1F
100
AcDbEntity
  8
0
  6
Continuous
 62
     7
370
     0
100
AcDbLine
 10
101.5182056618
 20
146.805576909
 30
0.0
 11
101.5182056618
 21
153.8055764266
 31
0.0
  0
SPLINE
  5
18B
330
1F
100
AcDbEntity
  8
0
  6
Continuous
 62
     7
370
     0
100
AcDbSpline
210
0.0
220
0.0
230
1.0
 70
    24
 71
     3
 72
    16
 73
    12
 74
     0
 42
0.00000001
 43
0.00000001
 12
1.0
 22
0.0
 32
0.0
 13
1.0
 23
0.0
 33
0.0
 40
0.0
 40
0.0
 40
0.0
 40
0.0
 40
0.1249920812599723
 40
0.2499841786530571
 40
0.3749762441907873
 40
0.4999683370124202
 40
0.6249604298340531
 40
0.7499524953717833
 40
0.8749445927648681
 40
0.9999366740248404
 40
1.0
 40
1.0
 40
1.0
 40
1.0
 10
101.5182056602154
 20
155.8055765215679
 30
0.0
 10
101.1582363594243
 20
155.8055765215679
 30
0.0
 10
100.4382977113799
 20
155.8055765215679
 30
0.0
 10
99.39985665488481
 20
155.8055765215679
 30
0.0
 10
98.44295620848712
 20
155.8055765215679
 30
0.0
 10
97.60373426416739
 20
155.8055765215679
 30
0.0
 10
96.91681655646752
 20
155.8055765215679
 30
0.0
 10
96.39973563181591
 20
155.8055765215679
 30
0.0
 10
96.10545022085832
 20
155.8055765215679
 30
0.0
 10
95.98297442582974
 20
155.8055765215679
 30
0.0
 10
96.01824138246631
 20
155.8055765215679
 30
0.0
 10
96.01825924106572
 20
155.8055765215679
 30
0.0
  0
SPLINE
  5
18C
330
1F
100
AcDbEntity
  8
0
  6
Continuous
 62
     7
370
     0
100
AcDbSpline
210
0.0
220
0.0
230
1.0
 70
    24
 71
     3
 72
    15
 73
    11
 74
     0
 42
0.00000001
 43
0.00000001
 12
1.0
 22
0.0
 32
0.0
 13
1.0
 23
0.0
 33
0.0
 40
0.0
 40
0.0
 40
0.0
 40
0.0
 40
0.1249445797595285
 40
0.2499525096507383
 40
0.3749604076825585
 40
0.4999683330017374
 40
0.6249762583209162
 40
0.7499841563527365
 40
0.8749920862439462
 40
1.0
 40
1.0
 40
1.0
 40
1.0
 10
107.018152079365
 20
155.8055765215679
 30
0.0
 10
106.9976895984419
 20
155.8055765215679
 30
0.0
 10
106.9567542615891
 20
155.8055765215679
 30
0.0
 10
106.6297496343325
 20
155.8055765215679
 30
0.0
 10
106.1214505915805
 20
155.8055765215679
 30
0.0
 10
105.4321798009674
 20
155.8055765215679
 30
0.0
 10
104.593588305293
 20
155.8055765215679
 30
0.0
 10
103.6365191473124
 20
155.8055765215679
 30
0.0
 10
102.5981224886088
 20
155.8055765215679
 30
0.0
 10
101.8781779208589
 20
155.8055765215679
 30
0.0
 10
101.5182056602154
 20
155.8055765215679
 30
0.0
  0
LINE
  5
18D
330
1F
100
AcDbEntity
  8
0
  6
Continuous
 62
     7
370
     0
100
AcDbLine
 10
101.5182056625
 20
155.8055765216
 30
0.0
 11
107.0182056304
 21
155.8055765216
 31
0.0
  0
LINE
  5
18E
330
1F
100
AcDbEntity
  8
0
  6
Continuous
 62
     7
370
     0
100
AcDbLine
 10
107.0182056304
 20
153.8055764266
 30
0.0
 11
101.5182056625
 21
153.8055764266
 31
0.0
  0
LINE
  5
18F
330
1F
100
AcDbEntity
  8
0
  6
Continuous
 62
     7
370
     0
100
AcDbLine
 10
101.5182056625
 20
153.8055764266
 30
0.0
 11
101.5182056625
 21
155.8055765216
 31
0.0
  0
SPLINE
  5
190
330
1F
100
AcDbEntity
  8
0
  6
Continuous
 62
     7
370
     0
100
AcDbSpline
210
0.0
220
0.0
230
1.0
 70
    24
 71
     3
 72
    16
 73
    12
 74
     0
 42
0.00000001
 43
0.00000001
 12
1.0
 22
0.0
 32
0.0
 13
1.0
 23
0.0
 33
0.0
 40
0.0
 40
0.0
 40
0.0
 40
0.0
 40
0.1249920812599723
 40
0.2499841786530571
 40
0.3749762441907873
 40
0.4999683370124202
 40
0.6249604298340531
 40
0.7499524953717833
 40
0.8749445927648681
 40
0.9999366740248404
 40
1.0
 40
1.0
 40
1.0
 40
1.0
 10
101.5182056602154
 20
153.805576426573
 30
0.0
 10
101.1582363594243
 20
153.805576426573
 30
0.0
 10
100.4382977113799
 20
153.805576426573
 30
0.0
 10
99.39985665488481
 20
153.805576426573
 30
0.0
 10
98.44295620848712
 20
153.805576426573
 30
0.0
 10
97.60373426416739
 20
153.805576426573
 30
0.0
 10
96.91681655646752
 20
153.805576426573
 30
0.0
 10
96.39973563181591
 20
153.805576426573
 30
0.0
 10
96.10545022085832
 20
153.8055764265731
 30
0.0
 10
95.98297442582974
 20
153.8055764265729
 30
0.0
 10
96.01824138246631
 20
153.805576426573
 30
0.0
 10
96.01825924106572
 20
153.805576426573
 30
0.0
  0
SPLINE
  5
191
330
1F
100
AcDbEntity
  8
0
  6
Continuous
 62
     7
370
     0
100
AcDbSpline
210
0.0
220
0.0
230
1.0
 70
    24
 71
     3
 72
    15
 73
    11
 74
     0
 42
0.00000001
 43
0.00000001
 12
1.0
 22
0.0
 32
0.0
 13
1.0
 23
0.0
 33
0.0
 40
0.0
 40
0.0
 40
0.0
 40
0.0
 40
0.1249445797595285
 40
0.2499525096507383
 40
0.3749604076825585
 40
0.4999683330017374
 40
0.6249762583209162
 40
0.7499841563527365
 40
0.8749920862439462
 40
1.0
 40
1.0
 40
1.0
 40
1.0
 10
107.018152079365
 20
153.805576426573
 30
0.0
 10
106.9976895984419
 20
153.805576426573
 30
0.0
 10
106.9567542615891
 20
153.805576426573
 30
0.0
 10
106.6297496343325
 20
153.805576426573
 30
0.0
 10
106.1214505915805
 20
153.805576426573
 30
0.0
 10
105.4321798009674
 20
153.805576426573
 30
0.0
 10
104.593588305293
 20
153.805576426573
 30
0.0
 10
103.6365191473124
 20
153.805576426573
 30
0.0
 10
102.5981224886088
 20
153.805576426573
 30
0.0
 10
101.8781779208589
 20
153.805576426573
 30
0.0
 10
101.5182056602154
 20
153.805576426573
 30
0.0
  0
LINE
  5
192
330
1F
100
AcDbEntity
  8
0
  6
Continuous
 62
     7
370
     0
100
AcDbLine
 10
101.5182056602
 20
138.8055755977
 30
0.0
 11
95.5182056081
 21
138.8055755977
 31
0.0
  0
LINE
  5
193
330
1F
100
AcDbEntity
  8
0
  6
Continuous
 62
     7
370
     0
100
AcDbLine
 10
107.5182057124
 20
138.8055755977
 30
0.0
 11
101.5182056602
 21
138.8055755977
 31
0.0
  0
SPLINE
  5
194
330
1F
100
AcDbEntity
  8
0
  6
Continuous
 62
     7
370
     0
100
AcDbSpline
210
0.0
220
0.0
230
1.0
 70
    24
 71
     3
 72
     9
 73
     5
 74
     0
 42
0.00000001
 43
0.00000001
 12
1.0
 22
0.0
 32
0.0
 13
1.0
 23
0.0
 33
0.0
 40
0.0
 40
0.0
 40
0.0
 40
0.0
 40
0.501946703868419
 40
1.0
 40
1.0
 40
1.0
 40
1.0
 10
100.7218096659582
 20
137.8055772964283
 30
0.0
 10
100.694377462273
 20
137.8055772964283
 30
0.0
 10
100.6397258359673
 20
137.8055772964283
 30
0.0
 10
100.5881944789204
 20
137.8055772964283
 30
0.0
 10
100.562529116689
 20
137.8055772964283
 30
0.0
  0
SPLINE
  5
195
330
1F
100
AcDbEntity
  8
0
  6
Continuous
 62
     7
370
     0
100
AcDbSpline
210
0.0
220
0.0
230
1.0
 70
    24
 71
     3
 72
    11
 73
     7
 74
     0
 42
0.00000001
 43
0.00000001
 12
1.0
 22
0.0
 32
0.0
 13
1.0
 23
0.0
 33
0.0
 40
0.0
 40
0.0
 40
0.0
 40
0.0
 40
0.0239282263376985
 40
0.5118131296346515
 40
0.9996980222481713
 40
1.0
 40
1.0
 40
1.0
 40
1.0
 10
105.6552685935113
 20
137.8055772964283
 30
0.0
 10
105.6621271070678
 20
137.8055772964283
 30
0.0
 10
105.8088273780544
 20
137.8055772964283
 30
0.0
 10
105.9340618328358
 20
137.8055772964276
 30
0.0
 10
106.0470448264201
 20
137.8055772964296
 30
0.0
 10
106.0181697766917
 20
137.8055772964283
 30
0.0
 10
106.0181519154522
 20
137.8055772964283
 30
0.0
  0
SPLINE
  5
196
330
1F
100
AcDbEntity
  8
0
  6
Continuous
 62
     7
370
     0
100
AcDbSpline
210
0.0
220
0.0
230
1.0
 70
    24
 71
     3
 72
    15
 73
    11
 74
     0
 42
0.00000001
 43
0.00000001
 12
1.0
 22
0.0
 32
0.0
 13
1.0
 23
0.0
 33
0.0
 40
0.0
 40
0.0
 40
0.0
 40
0.0
 40
0.1248985704215256
 40
0.2499130582935767
 40
0.3749275565241859
 40
0.4999420369359602
 40
0.6249565173477344
 40
0.7499710155783434
 40
0.8749855034503946
 40
1.0
 40
1.0
 40
1.0
 40
1.0
 10
104.5181521352443
 20
111.8055767599865
 30
0.0
 10
104.5069939090216
 20
111.8055767599865
 30
0.0
 10
104.4846671007079
 20
111.8055767599865
 30
0.0
 10
104.3063191045333
 20
111.8055767599865
 30
0.0
 10
104.0290666709725
 20
111.8055767599865
 30
0.0
 10
103.6531007680983
 20
111.8055767599865
 30
0.0
 10
103.195686974007
 20
111.8055767599865
 30
0.0
 10
102.6736494208053
 20
111.8055767599865
 30
0.0
 10
102.1072511816234
 20
111.8055767599865
 30
0.0
 10
101.7145541718944
 20
111.8055767599865
 30
0.0
 10
101.5182056602154
 20
111.8055767599865
 30
0.0
  0
LINE
  5
197
330
1F
100
AcDbEntity
  8
0
  6
Continuous
 62
     7
370
     0
100
AcDbLine
 10
96.01820569
 20
155.8055765216
 30
0.0
 11
101.5182056625
 21
155.8055765216
 31
0.0
  0
LINE
  5
198
330
1F
100
AcDbEntity
  8
0
  6
Continuous
 62
     7
370
     0
100
AcDbLine
 10
101.5182056625
 20
153.8055764266
 30
0.0
 11
96.01820569
 21
153.8055764266
 31
0.0
  0
LINE
  5
199
330
1F
100
AcDbEntity
  8
0
  6
Continuous
 62
     7
370
     0
100
AcDbLine
 10
100.7188374664
 20
137.8055772964
 30
0.0
 11
100.5612091998
 21
137.8055772964
 31
0.0
  0
LINE
  5
19A
330
1F
100
AcDbEntity
  8
0
  6
Continuous
 62
     7
370
     0
100
AcDbLine
 10
101.5182056614
 20
110.3055774454
 30
0.0
 11
98.5182056341
 21
110.3055774454
 31
0.0
  0
LINE
  5
19B
330
1F
100
AcDbEntity
  8
0
  6
Continuous
 62
     7
370
     0
100
AcDbLine
 10
101.5182056612
 20
109.8055764322
 30
0.0
 11
99.0182057161
 21
109.8055764322
 31
0.0
  0
DIMENSION
  5
19C
330
1F
100
AcDbEntity
  8
0
  6
Continuous
 62
     7
370
     0
100
AcDbDimension
  2
_D
 10
96.0182056602
 20
169.6296632989
 30
0.0
 11
101.5182056602
 21
169.6296632989
 31
0.0
 70
   160
  1
%%c<>
 71
     2
 42
-1.0
  3
SLDDIMSTYLE0
100
AcDbAlignedDimension
 13
107.0182056602
 23
155.8055765216
 33
0.0
 14
96.0182056602
 24
155.8055765216
 34
0.0
 50
0.0
100
AcDbRotatedDimension
  0
DIMENSION
  5
1AA
330
1F
100
AcDbEntity
  8
0
  6
Continuous
 62
     7
370
     0
100
AcDbDimension
  2
_D_1
 10
124.1906304791
 20
146.8055765216
 30
0.0
 11
124.1906304791
 21
151.3055765216
 31
0.0
 70
   160
  1
<>
 71
     2
 42
-1.0
  3
SLDDIMSTYLE1
100
AcDbAlignedDimension
 13
107.0182056602
 23
155.8055765216
 33
0.0
 14
107.5182056602
 24
146.8055765216
 34
0.0
 50
90.0
100
AcDbRotatedDimension
  0
DIMENSION
  5
1B5
330
1F
100
AcDbEntity
  8
0
  6
Continuous
 62
     7
370
     0
100
AcDbDimension
  2
_D_2
 10
72.4468115634
 20
132.8055765216
 30
0.0
 11
72.4468115634
 21
145.7756483461
 31
0.0
 70
   160
  1
<>st
 71
     2
 42
-1.0
  3
SLDDIMSTYLE0
100
AcDbAlignedDimension
 13
101.518205661
 23
137.8055765216
 33
0.0
 14
99.7682056601
 24
132.8055765216
 34
0.0
 50
90.0
100
AcDbRotatedDimension
  0
DIMENSION
  5
1C2
330
1F
100
AcDbEntity
  8
0
  6
Continuous
 62
     7
370
     0
100
AcDbDimension
  2
_D_3
 10
124.1906304791
 20
126.8055765216
 30
0.0
 11
124.1906304791
 21
129.8055765216
 31
0.0
 70
   160
  1
<>
 71
     2
 42
-1.0
  3
SLDDIMSTYLE0
100
AcDbAlignedDimension
 13
103.5182056588
 23
132.8055765216
 33
0.0
 14
111.3331602364
 24
126.8055765216
 34
0.0
 50
90.0
100
AcDbRotatedDimension
  0
DIMENSION
  5
1CE
330
1F
100
AcDbEntity
  8
0
  6
Continuous
 62
     7
370
     0
100
AcDbDimension
  2
_D_4
 10
124.1906304791
 20
111.8055765216
 30
0.0
 11
124.1906304791
 21
119.3055765216
 31
0.0
 70
   160
  1
<>
 71
     2
 42
-1.0
  3
SLDDIMSTYLE1
100
AcDbAlignedDimension
 13
111.3331602364
 23
126.8055765216
 33
0.0
 14
106.5182056602
 24
111.8055765216
 34
0.0
 50
90.0
100
AcDbRotatedDimension
  0
DIMENSION
  5
1DA
330
1F
100
AcDbEntity
  8
0
  6
Continuous
 62
     7
370
     0
100
AcDbDimension
  2
_D_5
 10
132.543400768
 20
109.8055765216
 30
0.0
 11
132.543400768
 21
118.3055765216
 31
0.0
 70
   160
  1
<>
 71
     2
 42
-1.0
  3
SLDDIMSTYLE1
100
AcDbAlignedDimension
 13
111.3331602352
 23
126.8055765216
 33
0.0
 14
104.0182056602
 24
109.8055765216
 34
0.0
 50
90.0
100
AcDbRotatedDimension
  0
DIMENSION
  5
1E4
330
1F
100
AcDbEntity
  8
0
  6
Continuous
 62
     7
370
     0
100
AcDbDimension
  2
_D_6
 10
142.2064095336
 20
155.8055765216
 30
0.0
 11
142.2064095336
 21
132.8055765216
 31
0.0
 70
   160
  1
<>
 71
     2
 42
-1.0
  3
SLDDIMSTYLE1
100
AcDbAlignedDimension
 13
104.0182056602
 23
109.8055765216
 33
0.0
 14
107.0182056602
 24
155.8055765216
 34
0.0
 50
90.0
100
AcDbRotatedDimension
  0
DIMENSION
  5
1EE
330
1F
100
AcDbEntity
  8
0
  6
Continuous
 62
     7
370
     0
100
AcDbDimension
  2
_D_7
 10
104.5182056602
 20
102.433952426
 30
0.0
 11
114.1033536493
 21
102.433952426
 31
0.0
 70
   160
  1
%%c<>
 71
     2
 42
-1.0
  3
SLDDIMSTYLE0
100
AcDbAlignedDimension
 13
98.5182056602
 23
110.3055765216
 33
0.0
 14
104.5182056602
 24
110.3055765216
 34
0.0
 50
0.0
100
AcDbRotatedDimension
  0
DIMENSION
  5
1FB
330
1F
100
AcDbEntity
  8
0
  6
Continuous
 62
     7
370
     0
100
AcDbDimension
  2
_D_8
 10
111.3331602364
 20
92.8762317625
 30
0.0
 11
101.5182056602
 21
92.8762317625
 31
0.0
 70
   160
  1
<>
 71
     2
 42
-1.0
  3
SLDDIMSTYLE1
100
AcDbAlignedDimension
 13
91.703251084
 23
114.6298411046
 33
0.0
 14
111.3331602364
 24
114.6298411046
 34
0.0
 50
0.0
100
AcDbRotatedDimension
  0
DIMENSION
  5
207
330
1F
100
AcDbEntity
  8
0
  6
Continuous
 62
     7
370
     0
100
AcDbDimension
  2
_D_9
 10
81.596308909
 20
129.8055765216
 30
0.0
 11
81.596308909
 21
119.3055765216
 31
0.0
 70
   160
  1
<>
 71
     2
 42
-1.0
  3
SLDDIMSTYLE0
100
AcDbAlignedDimension
 13
91.703251084
 23
126.8055765216
 33
0.0
 14
91.703251084
 24
129.8055765216
 34
0.0
 50
90.0
100
AcDbRotatedDimension
  0
INSERT
  5
21D
330
1F
100
AcDbEntity
  8
0
  6
Continuous
 62
     7
370
     0
100
AcDbBlockReference
  2
SW_NOTE_0
 10
81.3167259786
 20
154.2111506524
 30
0.0
  0
LEADER
  5
225
330
1F
100
AcDbEntity
  8
0
  6
Continuous
 62
     7
370
     0
100
AcDbLeader
  3
SLDDIMSTYLE2
 76
     2
 10
93.3603937161
 20
140.9238798407
 30
0.0
 10
81.3167259786
 20
154.2111506524
 30
0.0
  0
INSERT
  5
230
330
1F
100
AcDbEntity
  8
0
  6
Continuous
 62
     7
370
     0
100
AcDbBlockReference
  2
SW_NOTE_1
 10
122.4792408066
 20
161.4472123369
 30
0.0
  0
LEADER
  5
231
330
1F
100
AcDbEntity
  8
0
  6
Continuous
 62
     7
370
     0
100
AcDbLeader
  3
SLDDIMSTYLE2
 76
     2
 10
115.8182056602
 20
143.3728879544
 30
0.0
 10
122.4792408066
 20
161.4472123369
 30
0.0
  0
INSERT
  5
23C
330
1F
100
AcDbEntity
  8
0
  6
Continuous
 62
     7
370
     0
100
AcDbBlockReference
  2
SW_NOTE_2
 10
54.6577792844
 20
105.3847576355
 30
0.0
  0
INSERT
  5
23D
330
1F
100
AcDbEntity
  8
0
  6
Continuous
 62
     7
370
     0
100
AcDbBlockReference
  2
_OPEN30
 10
95.5182056602
 20
123.5097483155
 30
-0.0000000003
 41
3.0
 42
3.0
 50
38.7658787142
  0
LINE
  5
23E
330
1F
100
AcDbEntity
  8
0
  6
Continuous
 62
     7
370
     0
100
AcDbLine
 10
95.5182056602
 20
123.5097483155
 30
0.0
 11
72.8944246738
 21
105.3419335706
 31
0.0
  0
LINE
  5
23F
330
1F
100
AcDbEntity
  8
0
  6
Continuous
 62
     7
370
     0
100
AcDbLine
 10
107.5182056602
 20
200.0732851845
 30
0.0
 11
108.3182056602
 21
200.0732851845
 31
0.0
  0
LINE
  5
240
330
1F
100
AcDbEntity
  8
0
  6
Continuous
 62
     7
370
     0
100
AcDbLine
 10
108.3182056602
 20
208.0732851845
 30
0.0
 11
107.5182056602
 21
208.0732851845
 31
0.0
  0
LINE
  5
241
330
1F
100
AcDbEntity
  8
0
  6
Continuous
 62
     7
370
     0
100
AcDbLine
 10
110.8182056602
 20
201.9732851845
 30
0.0
 11
113.3182056602
 21
201.9732851845
 31
0.0
  0
LINE
  5
242
330
1F
100
AcDbEntity
  8
0
  6
Continuous
 62
     7
370
     0
100
AcDbLine
 10
113.3182056602
 20
206.1732851845
 30
0.0
 11
110.8182056602
 21
206.1732851845
 31
0.0
  0
LINE
  5
243
330
1F
100
AcDbEntity
  8
0
  6
Continuous
 62
     7
370
     0
100
AcDbLine
 10
118.3182056602
 20
206.0732851845
 30
0.0
 11
115.8182056602
 21
206.4232851845
 31
0.0
  0
LINE
  5
244
330
1F
100
AcDbEntity
  8
0
  6
Continuous
 62
     7
370
     0
100
AcDbLine
 10
115.8182056602
 20
206.0732851845
 30
0.0
 11
113.3182056602
 21
206.4232851845
 31
0.0
  0
LINE
  5
245
330
1F
100
AcDbEntity
  8
0
  6
Continuous
 62
     7
370
     0
100
AcDbLine
 10
115.8182056602
 20
201.7232851845
 30
0.0
 11
118.3182056602
 21
202.0732851845
 31
0.0
  0
LINE
  5
246
330
1F
100
AcDbEntity
  8
0
  6
Continuous
 62
     7
370
     0
100
AcDbLine
 10
113.3182056602
 20
201.7232851845
 30
0.0
 11
115.8182056602
 21
202.0732851845
 31
0.0
  0
SPLINE
  5
247
330
1F
100
AcDbEntity
  8
0
  6
Continuous
 62
     7
370
     0
100
AcDbSpline
210
0.0
220
0.0
230
1.0
 70
    24
 71
     3
 72
    23
 73
    19
 74
     0
 42
0.00000001
 43
0.00000001
 12
1.0
 22
0.0
 32
0.0
 13
1.0
 23
0.0
 33
0.0
 40
0.0
 40
0.0
 40
0.0
 40
0.0
 40
0.0562830532649228
 40
0.1196702735000458
 40
0.183057494167197
 40
0.2464447142138736
 40
0.3098319342605502
 40
0.3732191549277014
 40
0.4366063751628244
 40
0.4999935954037349
 40
0.5633808156446455
 40
0.6267680358797686
 40
0.6901552565469197
 40
0.7535424765935962
 40
0.8169296966402728
 40
0.8803169173074239
 40
0.9437041375425468
 40
1.0
 40
1.0
 40
1.0
 40
1.0
 10
94.71820566021536
 20
208.0646711705014
 30
0.0
 10
94.71820566021536
 20
208.0509254115966
 30
0.0
 10
94.71820566021536
 20
208.0216988747941
 30
0.0
 10
94.71820566021536
 20
207.7902227913266
 30
0.0
 10
94.71820566021536
 20
207.4212466472394
 30
0.0
 10
94.71820566021536
 20
206.9197724105822
 30
0.0
 10
94.71820566021536
 20
206.3099375703063
 30
0.0
 10
94.71820566021536
 20
205.6138740015526
 30
0.0
 10
94.71820566021536
 20
204.8586799125411
 30
0.0
 10
94.71820566021536
 20
204.0732851840787
 30
0.0
 10
94.71820566021536
 20
203.2878904579643
 30
0.0
 10
94.71820566021536
 20
202.5326963619086
 30
0.0
 10
94.71820566021536
 20
201.8366328189834
 30
0.0
 10
94.71820566021536
 20
201.2267978824379
 30
0.0
 10
94.71820566021536
 20
200.7253240050306
 30
0.0
 10
94.71820566021536
 20
200.3563465202135
 30
0.0
 10
94.71820566021536
 20
200.1248590566069
 30
0.0
 10
94.71820566021536
 20
200.095631542407
 30
0.0
 10
94.71820566021536
 20
200.0818836669148
 30
0.0
  0
SPLINE
  5
248
330
1F
100
AcDbEntity
  8
0
  6
Continuous
 62
     7
370
     0
100
AcDbSpline
210
0.0
220
0.0
230
1.0
 70
    24
 71
     3
 72
    10
 73
     6
 74
     0
 42
0.00000001
 43
0.00000001
 12
1.0
 22
0.0
 32
0.0
 13
1.0
 23
0.0
 33
0.0
 40
0.0
 40
0.0
 40
0.0
 40
0.0
 40
0.317497161961347
 40
0.7081151334991009
 40
1.0
 40
1.0
 40
1.0
 40
1.0
 10
107.5182056602153
 20
200.5787321263286
 30
0.0
 10
107.5182056602153
 20
200.4813093688814
 30
0.0
 10
107.5182056602153
 20
200.2640270206882
 30
0.0
 10
107.5182056602154
 20
200.0978755141608
 30
0.0
 10
107.5182056602153
 20
200.0908379399318
 30
0.0
 10
107.5182056602153
 20
200.0878281921333
 30
0.0
  0
SPLINE
  5
249
330
1F
100
AcDbEntity
  8
0
  6
Continuous
 62
     7
370
     0
100
AcDbSpline
210
0.0
220
0.0
230
1.0
 70
    24
 71
     3
 72
    11
 73
     7
 74
     0
 42
0.00000001
 43
0.00000001
 12
1.0
 22
0.0
 32
0.0
 13
1.0
 23
0.0
 33
0.0
 40
0.0
 40
0.0
 40
0.0
 40
0.0
 40
0.0962083981788145
 40
0.4768378781778186
 40
0.8574673619026671
 40
1.0
 40
1.0
 40
1.0
 40
1.0
 10
107.5182056602153
 20
208.0587421768067
 30
0.0
 10
107.5182056602153
 20
208.0631607696482
 30
0.0
 10
107.5182056602153
 20
208.0850606502717
 30
0.0
 10
107.5182056602153
 20
207.9644809052748
 30
0.0
 10
107.5182056602154
 20
207.7826984921657
 30
0.0
 10
107.5182056602153
 20
207.5899107561259
 30
0.0
 10
107.5182056602153
 20
207.53738679947
 30
0.0
  0
LINE
  5
24A
330
1F
100
AcDbEntity
  8
0
  6
Continuous
 62
     7
370
     0
100
AcDbLine
 10
107.5182056602
 20
200.0732851845
 30
0.0
 11
107.5182056602
 21
200.5940582434
 31
0.0
  0
LINE
  5
24B
330
1F
100
AcDbEntity
  8
0
  6
Continuous
 62
     7
370
     0
100
AcDbLine
 10
107.5182056602
 20
201.1082515709
 30
0.0
 11
108.3182056602
 21
201.1082515709
 31
0.0
  0
LINE
  5
24C
330
1F
100
AcDbEntity
  8
0
  6
Continuous
 62
     7
370
     0
100
AcDbLine
 10
108.3182056602
 20
201.1082515709
 30
0.0
 11
108.3182056602
 21
200.0732851845
 31
0.0
  0
LINE
  5
24D
330
1F
100
AcDbEntity
  8
0
  6
Continuous
 62
     7
370
     0
100
AcDbLine
 10
95.5182056602
 20
208.0732851845
 30
0.0
 11
94.7182056602
 21
208.0732851845
 31
0.0
  0
LINE
  5
24E
330
1F
100
AcDbEntity
  8
0
  6
Continuous
 62
     7
370
     0
100
AcDbLine
 10
94.7182056602
 20
200.0732851845
 30
0.0
 11
95.5182056602
 21
200.0732851845
 31
0.0
  0
SPLINE
  5
24F
330
1F
100
AcDbEntity
  8
0
  6
Continuous
 62
     7
370
     0
100
AcDbSpline
210
0.0
220
0.0
230
1.0
 70
    24
 71
     3
 72
    10
 73
     6
 74
     0
 42
0.00000001
 43
0.00000001
 12
1.0
 22
0.0
 32
0.0
 13
1.0
 23
0.0
 33
0.0
 40
0.0
 40
0.0
 40
0.0
 40
0.0
 40
0.3807986512475604
 40
0.7615973024603517
 40
1.0
 40
1.0
 40
1.0
 40
1.0
 10
95.51820566021534
 20
208.073285182486
 30
0.0
 10
95.51820566021534
 20
208.0573333449647
 30
0.0
 10
95.51820566021534
 20
208.0254296699236
 30
0.0
 10
95.51820566021534
 20
207.8312100731772
 30
0.0
 10
95.51820566021534
 20
207.6190658229711
 30
0.0
 10
95.51820566021534
 20
207.53738679947
 30
0.0
  0
LINE
  5
250
330
1F
100
AcDbEntity
  8
0
  6
Continuous
 62
     7
370
     0
100
AcDbLine
 10
95.5182056602
 20
204.0732851845
 30
0.0
 11
95.5182056602
 21
203.2929238966
 31
0.0
  0
SPLINE
  5
251
330
1F
100
AcDbEntity
  8
0
  6
Continuous
 62
     7
370
     0
100
AcDbSpline
210
0.0
220
0.0
230
1.0
 70
    24
 71
     3
 72
    10
 73
     6
 74
     0
 42
0.00000001
 43
0.00000001
 12
1.0
 22
0.0
 32
0.0
 13
1.0
 23
0.0
 33
0.0
 40
0.0
 40
0.0
 40
0.0
 40
0.0
 40
0.2384026975396335
 40
0.6192013487524323
 40
1.0
 40
1.0
 40
1.0
 40
1.0
 10
95.51820566021534
 20
200.60918356947
 30
0.0
 10
95.51820566021534
 20
200.5275045459689
 30
0.0
 10
95.51820566021534
 20
200.3153602957628
 30
0.0
 10
95.51820566021534
 20
200.1211406990165
 30
0.0
 10
95.51820566021534
 20
200.0892370239753
 30
0.0
 10
95.51820566021534
 20
200.073285186454
 30
0.0
  0
SPLINE
  5
252
330
1F
100
AcDbEntity
  8
0
  6
Continuous
 62
     7
370
     0
100
AcDbSpline
210
0.0
220
0.0
230
1.0
 70
    24
 71
     3
 72
    13
 73
     9
 74
     0
 42
0.00000001
 43
0.00000001
 12
1.0
 22
0.0
 32
0.0
 13
1.0
 23
0.0
 33
0.0
 40
0.0
 40
0.0
 40
0.0
 40
0.0
 40
0.0273985449337908
 40
0.2238547375019492
 40
0.4203109319931463
 40
0.616767125145357
 40
0.8132233183155053
 40
1.0
 40
1.0
 40
1.0
 40
1.0
 10
108.3182056602154
 20
208.0630607718186
 30
0.0
 10
108.3182056602154
 20
208.0652251064517
 30
0.0
 10
108.3182056602154
 20
208.0829084017633
 30
0.0
 10
108.3182056602154
 20
207.96858660147
 30
0.0
 10
108.3182056602154
 20
207.7145524161052
 30
0.0
 10
108.3182056602154
 20
207.3039592642586
 30
0.0
 10
108.3182056602154
 20
206.7883663448554
 30
0.0
 10
108.3182056602154
 20
206.3653392910321
 30
0.0
 10
108.3182056602154
 20
206.159168070972
 30
0.0
  0
SPLINE
  5
253
330
1F
100
AcDbEntity
  8
0
  6
Continuous
 62
     7
370
     0
100
AcDbSpline
210
0.0
220
0.0
230
1.0
 70
    24
 71
     3
 72
    13
 73
     9
 74
     0
 42
0.00000001
 43
0.00000001
 12
1.0
 22
0.0
 32
0.0
 13
1.0
 23
0.0
 33
0.0
 40
0.0
 40
0.0
 40
0.0
 40
0.0
 40
0.1766192437078731
 40
0.3609986271057584
 40
0.5453780086988207
 40
0.7297573902918828
 40
0.9141367736897682
 40
1.0
 40
1.0
 40
1.0
 40
1.0
 10
108.3182056602154
 20
206.098285184187
 30
0.0
 10
108.3182056602154
 20
205.8757071930613
 30
0.0
 10
108.3182056602154
 20
205.4207717764356
 30
0.0
 10
108.3182056602154
 20
204.6613366391279
 30
0.0
 10
108.3182056602154
 20
203.8734525303834
 30
0.0
 10
108.3182056602154
 20
203.0959693098728
 30
0.0
 10
108.3182056602154
 20
202.4748077365901
 30
0.0
 10
108.3182056602154
 20
202.1511270890808
 30
0.0
 10
108.3182056602154
 20
202.0482851844702
 30
0.0
  0
SPLINE
  5
254
330
1F
100
AcDbEntity
  8
0
  6
Continuous
 62
     7
370
     0
100
AcDbSpline
210
0.0
220
0.0
230
1.0
 70
    24
 71
     3
 72
     9
 73
     5
 74
     0
 42
0.00000001
 43
0.00000001
 12
1.0
 22
0.0
 32
0.0
 13
1.0
 23
0.0
 33
0.0
 40
0.0
 40
0.0
 40
0.0
 40
0.0
 40
0.3284191535603575
 40
1.0
 40
1.0
 40
1.0
 40
1.0
 10
108.3182056602154
 20
202.0178337413288
 30
0.0
 10
108.3182056602154
 20
201.9057758230263
 30
0.0
 10
108.3182056602154
 20
201.5645718552073
 30
0.0
 10
108.3182056602154
 20
201.2915845899216
 30
0.0
 10
108.3182056602154
 20
201.1082515712338
 30
0.0
  0
SPLINE
  5
255
330
1F
100
AcDbEntity
  8
0
  6
Continuous
 62
     7
370
     0
100
AcDbSpline
210
0.0
220
0.0
230
1.0
 70
    24
 71
     3
 72
    11
 73
     7
 74
     0
 42
0.00000001
 43
0.00000001
 12
1.0
 22
0.0
 32
0.0
 13
1.0
 23
0.0
 33
0.0
 40
0.0
 40
0.0
 40
0.0
 40
0.0
 40
0.2750389873734952
 40
0.5500779747218778
 40
0.8251169639448436
 40
1.0
 40
1.0
 40
1.0
 40
1.0
 10
108.3182056602154
 20
201.1082515712338
 30
0.0
 10
108.3182056602154
 20
200.9432340288463
 30
0.0
 10
108.3182056602154
 20
200.6131989440864
 30
0.0
 10
108.3182056602154
 20
200.2875322540821
 30
0.0
 10
108.3182056602154
 20
200.1013493049722
 30
0.0
 10
108.3182056602154
 20
200.0946702333711
 30
0.0
 10
108.3182056602154
 20
200.0920741028107
 30
0.0
  0
LINE
  5
256
330
1F
100
AcDbEntity
  8
0
  6
Continuous
 62
     7
370
     0
100
AcDbLine
 10
95.5182056602
 20
208.0732851845
 30
0.0
 11
95.5182056602
 21
207.5373867995
 31
0.0
  0
LINE
  5
257
330
1F
100
AcDbEntity
  8
0
  6
Continuous
 62
     7
370
     0
100
AcDbLine
 10
95.5182056602
 20
200.5854393485
 30
0.0
 11
95.5182056602
 21
200.0732851845
 31
0.0
  0
LINE
  5
258
330
1F
100
AcDbEntity
  8
0
  6
Continuous
 62
     7
370
     0
100
AcDbLine
 10
107.5182056602
 20
207.5604682724
 30
0.0
 11
107.5182056602
 21
208.0732851845
 31
0.0
  0
LINE
  5
259
330
1F
100
AcDbEntity
  8
0
  6
Continuous
 62
     7
370
     0
100
AcDbLine
 10
108.3182056602
 20
202.0482851845
 30
0.0
 11
108.3182056602
 21
201.1082515709
 31
0.0
  0
LINE
  5
25A
330
1F
100
AcDbEntity
  8
0
  6
Continuous
 62
     7
370
     0
100
AcDbLine
 10
110.8182056602
 20
203.0232851845
 30
0.0
 11
113.3182056602
 21
203.0232851845
 31
0.0
  0
LINE
  5
25B
330
1F
100
AcDbEntity
  8
0
  6
Continuous
 62
     7
370
     0
100
AcDbLine
 10
108.3182056602
 20
202.0482851855
 30
0.0
 11
108.3182056602
 21
201.9973106682
 31
0.0
  0
LINE
  5
25C
330
1F
100
AcDbEntity
  8
0
  6
Continuous
 62
     7
370
     0
100
AcDbLine
 10
108.3182056602
 20
206.0982851847
 30
0.0
 11
108.3182056602
 21
205.9963361477
 31
0.0
  0
LINE
  5
25D
330
1F
100
AcDbEntity
  8
0
  6
Continuous
 62
     7
370
     0
100
AcDbLine
 10
108.3182056602
 20
202.15023422
 30
0.0
 11
108.3182056602
 21
202.0482851855
 31
0.0
  0
LINE
  5
25E
330
1F
100
AcDbEntity
  8
0
  6
Continuous
 62
     7
370
     0
100
AcDbLine
 10
108.3182056602
 20
208.1232851837
 30
0.0
 11
108.3182056602
 21
208.0723106652
 31
0.0
  0
LINE
  5
25F
330
1F
100
AcDbEntity
  8
0
  6
Continuous
 62
     7
370
     0
100
AcDbLine
 10
108.3182056602
 20
206.1492597032
 30
0.0
 11
108.3182056602
 21
206.0982851847
 31
0.0
  0
LINE
  5
260
330
1F
100
AcDbEntity
  8
0
  6
Continuous
 62
     7
370
     0
100
AcDbLine
 10
108.3182056602
 20
208.1232851842
 30
0.0
 11
110.8182056602
 21
208.1232851842
 31
0.0
  0
LINE
  5
261
330
1F
100
AcDbEntity
  8
0
  6
Continuous
 62
     7
370
     0
100
AcDbLine
 10
110.8182056602
 20
208.1232851842
 30
0.0
 11
110.8182056602
 21
206.0982851842
 31
0.0
  0
LINE
  5
262
330
1F
100
AcDbEntity
  8
0
  6
Continuous
 62
     7
370
     0
100
AcDbLine
 10
110.8182056602
 20
206.0982851842
 30
0.0
 11
108.3182056602
 21
206.0982851842
 31
0.0
  0
LINE
  5
263
330
1F
100
AcDbEntity
  8
0
  6
Continuous
 62
     7
370
     0
100
AcDbLine
 10
108.3182056602
 20
206.0982851842
 30
0.0
 11
108.3182056602
 21
208.1232851842
 31
0.0
  0
LINE
  5
264
330
1F
100
AcDbEntity
  8
0
  6
Continuous
 62
     7
370
     0
100
AcDbLine
 10
108.3182056602
 20
200.0232851848
 30
0.0
 11
110.8182056602
 21
200.0232851848
 31
0.0
  0
LINE
  5
265
330
1F
100
AcDbEntity
  8
0
  6
Continuous
 62
     7
370
     0
100
AcDbLine
 10
110.8182056602
 20
202.0482851845
 30
0.0
 11
110.8182056602
 21
200.0232851848
 31
0.0
  0
LINE
  5
266
330
1F
100
AcDbEntity
  8
0
  6
Continuous
 62
     7
370
     0
100
AcDbLine
 10
108.3182056602
 20
202.0482851845
 30
0.0
 11
110.8182056602
 21
202.0482851845
 31
0.0
  0
LINE
  5
267
330
1F
100
AcDbEntity
  8
0
  6
Continuous
 62
     7
370
     0
100
AcDbLine
 10
108.3182056602
 20
200.0232851848
 30
0.0
 11
108.3182056602
 21
200.0451598733
 31
0.0
  0
SPLINE
  5
268
330
1F
100
AcDbEntity
  8
0
  6
Continuous
 62
     7
370
     0
100
AcDbSpline
210
0.0
220
0.0
230
1.0
 70
     8
 71
     3
 72
    11
 73
     7
 74
     0
 42
0.00000001
 43
0.00000001
 12
1.0
 22
0.0
 32
0.0
 13
1.0
 23
0.0
 33
0.0
 40
0.0
 40
0.0
 40
0.0
 40
0.0
 40
0.226850221655978
 40
0.5086534916168517
 40
0.7904583544877664
 40
0.9999999999999999
 40
0.9999999999999999
 40
0.9999999999999999
 40
0.9999999999999999
 10
106.3080741488413
 20
205.9295783225546
 30
0.0
 10
106.3114323446364
 20
205.9727281581303
 30
0.0
 10
106.3189622381681
 20
206.0694806072487
 30
0.0
 10
106.32986754013
 20
206.1989484487068
 30
0.0
 10
106.3407267930793
 20
206.310729790371
 30
0.0
 10
106.347766342533
 20
206.3648519763338
 30
0.0
 10
106.3507684576412
 20
206.3879331455532
 30
0.0
  0
LINE
  5
269
330
1F
100
AcDbEntity
  8
0
  6
Continuous
 62
     7
370
     0
100
AcDbLine
 10
110.8182056602
 20
206.0982851842
 30
0.0
 11
110.8182056602
 21
202.0482851845
 31
0.0
  0
LINE
  5
26A
330
1F
100
AcDbEntity
  8
0
  6
Continuous
 62
     7
370
     0
100
AcDbLine
 10
108.3182056602
 20
202.0482851845
 30
0.0
 11
108.3182056602
 21
206.0982851842
 31
0.0
  0
LINE
  5
26B
330
1F
100
AcDbEntity
  8
0
  6
Continuous
 62
     7
370
     0
100
AcDbLine
 10
110.8182056602
 20
206.0982851847
 30
0.0
 11
110.8182056602
 21
202.0482851855
 31
0.0
  0
LINE
  5
26C
330
1F
100
AcDbEntity
  8
0
  6
Continuous
 62
     7
370
     0
100
AcDbLine
 10
110.8182056602
 20
202.0482851855
 30
0.0
 11
110.8182056602
 21
200.0232851853
 31
0.0
  0
SPLINE
  5
26D
330
1F
100
AcDbEntity
  8
0
  6
Continuous
 62
     7
370
     0
100
AcDbSpline
210
0.0
220
0.0
230
1.0
 70
    24
 71
     3
 72
    13
 73
     9
 74
     0
 42
0.00000001
 43
0.00000001
 12
1.0
 22
0.0
 32
0.0
 13
1.0
 23
0.0
 33
0.0
 40
0.0
 40
0.0
 40
0.0
 40
0.0
 40
0.1874786722449666
 40
0.3749573444728153
 40
0.5624360179784625
 40
0.7499146896489481
 40
0.9373933613194343
 40
1.0
 40
1.0
 40
1.0
 40
1.0
 10
113.3182056602154
 20
202.8982851850529
 30
0.0
 10
113.3182056602154
 20
202.7694350398612
 30
0.0
 10
113.3182056602154
 20
202.5117347494893
 30
0.0
 10
113.3182056602154
 20
202.1977109265998
 30
0.0
 10
113.3182056602153
 20
201.9508505456795
 30
0.0
 10
113.3182056602154
 20
201.7926923481585
 30
0.0
 10
113.3182056602154
 20
201.719441379741
 30
0.0
 10
113.3182056602154
 20
201.7305654073105
 30
0.0
 10
113.3182056602154
 20
201.7333502089198
 30
0.0
  0
SPLINE
  5
26E
330
1F
100
AcDbEntity
  8
0
  6
Continuous
 62
     7
370
     0
100
AcDbSpline
210
0.0
220
0.0
230
1.0
 70
    24
 71
     3
 72
    18
 73
    14
 74
     0
 42
0.00000001
 43
0.00000001
 12
1.0
 22
0.0
 32
0.0
 13
1.0
 23
0.0
 33
0.0
 40
0.0
 40
0.0
 40
0.0
 40
0.0
 40
0.0624466721075534
 40
0.1562020048221741
 40
0.2499573375453551
 40
0.3437126702685359
 40
0.4374680029831567
 40
0.5312233363367858
 40
0.6249786687726775
 40
0.7187340012085692
 40
0.8124893345621982
 40
0.906244667276819
 40
1.0
 40
1.0
 40
1.0
 40
1.0
 10
113.3182056602154
 20
206.4132201600202
 30
0.0
 10
113.3182056602154
 20
206.4133082363046
 30
0.0
 10
113.3182056602154
 20
206.4135285473595
 30
0.0
 10
113.3182056602154
 20
206.3107165588375
 30
0.0
 10
113.3182056602154
 20
206.1221533366485
 30
0.0
 10
113.3182056602154
 20
205.8513393886956
 30
0.0
 10
113.3182056602154
 20
205.5131415076123
 30
0.0
 10
113.3182056602154
 20
205.1193418426676
 30
0.0
 10
113.3182056602154
 20
204.685472756672
 30
0.0
 10
113.3182056602153
 20
204.2278267743934
 30
0.0
 10
113.3182056602154
 20
203.7651153749949
 30
0.0
 10
113.3182056602154
 20
203.3110035205742
 30
0.0
 10
113.3182056602154
 20
203.0358579635642
 30
0.0
 10
113.3182056602154
 20
202.8982851850529
 30
0.0
  0
SPLINE
  5
26F
330
1F
100
AcDbEntity
  8
0
  6
Continuous
 62
     7
370
     0
100
AcDbSpline
210
0.0
220
0.0
230
1.0
 70
    24
 71
     3
 72
    23
 73
    19
 74
     0
 42
0.00000001
 43
0.00000001
 12
1.0
 22
0.0
 32
0.0
 13
1.0
 23
0.0
 33
0.0
 40
0.0
 40
0.0
 40
0.0
 40
0.0
 40
0.0624999999442369
 40
0.1249999998827671
 40
0.1875000002472785
 40
0.2499999999999999
 40
0.3124999997527214
 40
0.3750000001172329
 40
0.4375000000557631
 40
0.4999999999999999
 40
0.5624999999442367
 40
0.6249999998827672
 40
0.6875000002472785
 40
0.75
 40
0.8124999997527215
 40
0.8750000001172329
 40
0.9375000000557632
 40
1.0
 40
1.0
 40
1.0
 40
1.0
 10
118.3182056602154
 20
203.0732851849661
 30
0.0
 10
118.3182056602154
 20
202.9636453764753
 30
0.0
 10
118.3182056602154
 20
202.7443657595036
 30
0.0
 10
118.3182056602154
 20
202.4768130989794
 30
0.0
 10
118.3182056602154
 20
202.2678528618256
 30
0.0
 10
118.3182056602154
 20
202.1290136675177
 30
0.0
 10
118.3182056602154
 20
202.0646936563305
 30
0.0
 10
118.3182056602154
 20
202.0776157414479
 30
0.0
 10
118.3182056602154
 20
202.1672161403955
 30
0.0
 10
118.3182056602154
 20
202.330069243794
 30
0.0
 10
118.3182056602154
 20
202.5599131509875
 30
0.0
 10
118.3182056602154
 20
202.8479115635675
 30
0.0
 10
118.3182056602154
 20
203.1830145483787
 30
0.0
 10
118.3182056602154
 20
203.5522770704744
 30
0.0
 10
118.3182056602154
 20
203.9417597344766
 30
0.0
 10
118.3182056602154
 20
204.3355575474432
 30
0.0
 10
118.3182056602154
 20
204.7220354905476
 30
0.0
 10
118.3182056602154
 20
204.9562019528282
 30
0.0
 10
118.3182056602154
 20
205.0732851839739
 30
0.0
  0
SPLINE
  5
270
330
1F
100
AcDbEntity
  8
0
  6
Continuous
 62
     7
370
     0
100
AcDbSpline
210
0.0
220
0.0
230
1.0
 70
    24
 71
     3
 72
    22
 73
    18
 74
     0
 42
0.00000001
 43
0.00000001
 12
1.0
 22
0.0
 32
0.0
 13
1.0
 23
0.0
 33
0.0
 40
0.0
 40
0.0
 40
0.0
 40
0.0
 40
0.0101946601259625
 40
0.0808950419484017
 40
0.1515954230787802
 40
0.222295804209159
 40
0.292996186031598
 40
0.3636965673721649
 40
0.4343969487191868
 40
0.5050973300662088
 40
0.5757977114067754
 40
0.6464980932292146
 40
0.7171984743595934
 40
0.7878988554899721
 40
0.8585992373124113
 40
0.929299618652978
 40
1.0
 40
1.0
 40
1.0
 40
1.0
 10
118.3182056602154
 20
205.6213453647063
 30
0.0
 10
118.3182056602154
 20
205.634387634162
 30
0.0
 10
118.3182056602154
 20
205.7378785717397
 30
0.0
 10
118.3182056602154
 20
205.8751444355809
 30
0.0
 10
118.3182056602154
 20
206.01851410305
 30
0.0
 10
118.3182056602154
 20
206.0816201776137
 30
0.0
 10
118.3182056602154
 20
206.0690233658368
 30
0.0
 10
118.3182056602154
 20
205.9793358101606
 30
0.0
 10
118.3182056602154
 20
205.8165060603371
 30
0.0
 10
118.3182056602154
 20
205.5866558955721
 30
0.0
 10
118.3182056602154
 20
205.2986591597033
 30
0.0
 10
118.3182056602154
 20
204.9635557256188
 30
0.0
 10
118.3182056602154
 20
204.5942933239048
 30
0.0
 10
118.3182056602154
 20
204.2048106276494
 30
0.0
 10
118.3182056602154
 20
203.8110128233139
 30
0.0
 10
118.3182056602154
 20
203.4245348779382
 30
0.0
 10
118.3182056602154
 20
203.1903684159604
 30
0.0
 10
118.3182056602154
 20
203.0732851849661
 30
0.0
  0
SPLINE
  5
271
330
1F
100
AcDbEntity
  8
0
  6
Continuous
 62
     7
370
     0
100
AcDbSpline
210
0.0
220
0.0
230
1.0
 70
    24
 71
     3
 72
    14
 73
    10
 74
     0
 42
0.00000001
 43
0.00000001
 12
1.0
 22
0.0
 32
0.0
 13
1.0
 23
0.0
 33
0.0
 40
0.0
 40
0.0
 40
0.0
 40
0.0
 40
0.1000181145140375
 40
0.2500150950313104
 40
0.4000120763426916
 40
0.5500090576540733
 40
0.700006038171346
 40
0.8500030186886188
 40
1.0
 40
1.0
 40
1.0
 40
1.0
 10
118.3182056602154
 20
202.5988722730227
 30
0.0
 10
118.3182056602154
 20
202.5987007791394
 30
0.0
 10
118.3182056602154
 20
202.5982720961981
 30
0.0
 10
118.3182056602154
 20
202.8579020497765
 30
0.0
 10
118.3182056602154
 20
203.302089787979
 30
0.0
 10
118.3182056602154
 20
203.8734499010637
 30
0.0
 10
118.3182056602154
 20
204.4690859832317
 30
0.0
 10
118.3182056602154
 20
205.0192886749043
 30
0.0
 10
118.3182056602154
 20
205.2546450855973
 30
0.0
 10
118.3182056602154
 20
205.3723232912552
 30
0.0
  0
SPLINE
  5
272
330
1F
100
AcDbEntity
  8
0
  6
Continuous
 62
     7
370
     0
100
AcDbSpline
210
0.0
220
0.0
230
1.0
 70
    24
 71
     3
 72
    14
 73
    10
 74
     0
 42
0.00000001
 43
0.00000001
 12
1.0
 22
0.0
 32
0.0
 13
1.0
 23
0.0
 33
0.0
 40
0.0
 40
0.0
 40
0.0
 40
0.0
 40
0.1000181145140187
 40
0.2500150950312942
 40
0.4000120763426789
 40
0.5500090576540633
 40
0.7000060381713393
 40
0.8500030186886152
 40
0.9999999999999999
 40
0.9999999999999999
 40
0.9999999999999999
 40
0.9999999999999999
 10
118.3182056602154
 20
205.5476980959173
 30
0.0
 10
118.3182056602154
 20
205.5478695898006
 30
0.0
 10
118.3182056602154
 20
205.5482982727419
 30
0.0
 10
118.3182056602154
 20
205.2886683191635
 30
0.0
 10
118.3182056602154
 20
204.8444805809611
 30
0.0
 10
118.3182056602154
 20
204.2731204678763
 30
0.0
 10
118.3182056602154
 20
203.6774843857083
 30
0.0
 10
118.3182056602154
 20
203.1272816940357
 30
0.0
 10
118.3182056602154
 20
202.8919252833428
 30
0.0
 10
118.3182056602154
 20
202.7742470776848
 30
0.0
  0
LINE
  5
273
330
1F
100
AcDbEntity
  8
0
  6
Continuous
 62
     7
370
     0
100
AcDbLine
 10
118.3182056602
 20
203.0732851852
 30
0.0
 11
115.8182056602
 21
202.8982851853
 31
0.0
  0
LINE
  5
274
330
1F
100
AcDbEntity
  8
0
  6
Continuous
 62
     7
370
     0
100
AcDbLine
 10
115.8182056602
 20
202.8982851853
 30
0.0
 11
115.8182056602
 21
206.4232851845
 31
0.0
  0
LINE
  5
275
330
1F
100
AcDbEntity
  8
0
  6
Continuous
 62
     7
370
     0
100
AcDbLine
 10
118.3182056602
 20
206.0732851845
 30
0.0
 11
118.3182056602
 21
203.0732851852
 31
0.0
  0
SPLINE
  5
276
330
1F
100
AcDbEntity
  8
0
  6
Continuous
 62
     7
370
     0
100
AcDbSpline
210
0.0
220
0.0
230
1.0
 70
    24
 71
     3
 72
    13
 73
     9
 74
     0
 42
0.00000001
 43
0.00000001
 12
1.0
 22
0.0
 32
0.0
 13
1.0
 23
0.0
 33
0.0
 40
0.0
 40
0.0
 40
0.0
 40
0.0
 40
0.1874786722449666
 40
0.3749573444728153
 40
0.5624360179784625
 40
0.7499146896489481
 40
0.9373933613194343
 40
1.0
 40
1.0
 40
1.0
 40
1.0
 10
115.8182056602154
 20
202.8982851850529
 30
0.0
 10
115.8182056602154
 20
202.7694350398612
 30
0.0
 10
115.8182056602154
 20
202.5117347494893
 30
0.0
 10
115.8182056602154
 20
202.1977109265998
 30
0.0
 10
115.8182056602154
 20
201.9508505456795
 30
0.0
 10
115.8182056602154
 20
201.7926923481585
 30
0.0
 10
115.8182056602154
 20
201.719441379741
 30
0.0
 10
115.8182056602154
 20
201.7305654073105
 30
0.0
 10
115.8182056602154
 20
201.7333502089198
 30
0.0
  0
SPLINE
  5
277
330
1F
100
AcDbEntity
  8
0
  6
Continuous
 62
     7
370
     0
100
AcDbSpline
210
0.0
220
0.0
230
1.0
 70
    24
 71
     3
 72
    18
 73
    14
 74
     0
 42
0.00000001
 43
0.00000001
 12
1.0
 22
0.0
 32
0.0
 13
1.0
 23
0.0
 33
0.0
 40
0.0
 40
0.0
 40
0.0
 40
0.0
 40
0.0624466721075534
 40
0.1562020048221741
 40
0.2499573375453551
 40
0.3437126702685359
 40
0.4374680029831567
 40
0.5312233363367858
 40
0.6249786687726775
 40
0.7187340012085692
 40
0.8124893345621982
 40
0.906244667276819
 40
1.0
 40
1.0
 40
1.0
 40
1.0
 10
115.8182056602154
 20
206.4132201600202
 30
0.0
 10
115.8182056602154
 20
206.4133082363046
 30
0.0
 10
115.8182056602154
 20
206.4135285473595
 30
0.0
 10
115.8182056602154
 20
206.3107165588375
 30
0.0
 10
115.8182056602154
 20
206.1221533366485
 30
0.0
 10
115.8182056602154
 20
205.8513393886956
 30
0.0
 10
115.8182056602154
 20
205.5131415076123
 30
0.0
 10
115.8182056602154
 20
205.1193418426676
 30
0.0
 10
115.8182056602154
 20
204.685472756672
 30
0.0
 10
115.8182056602154
 20
204.2278267743934
 30
0.0
 10
115.8182056602154
 20
203.7651153749949
 30
0.0
 10
115.8182056602154
 20
203.3110035205742
 30
0.0
 10
115.8182056602154
 20
203.0358579635642
 30
0.0
 10
115.8182056602154
 20
202.8982851850529
 30
0.0
  0
LINE
  5
278
330
1F
100
AcDbEntity
  8
0
  6
Continuous
 62
     7
370
     0
100
AcDbLine
 10
113.3182056602
 20
202.8982851853
 30
0.0
 11
113.3182056602
 21
206.4232851845
 31
0.0
  0
LINE
  5
279
330
1F
100
AcDbEntity
  8
0
  6
Continuous
 62
     7
370
     0
100
AcDbLine
 10
115.8182056602
 20
203.0732851852
 30
0.0
 11
113.3182056602
 21
202.8982851853
 31
0.0
  0
SPLINE
  5
27A
330
1F
100
AcDbEntity
  8
0
  6
Continuous
 62
     7
370
     0
100
AcDbSpline
210
0.0
220
0.0
230
1.0
 70
     8
 71
     3
 72
    12
 73
     8
 74
     0
 42
0.00000001
 43
0.00000001
 12
1.0
 22
0.0
 32
0.0
 13
1.0
 23
0.0
 33
0.0
 40
0.0
 40
0.0
 40
0.0
 40
0.0
 40
0.1519810501235875
 40
0.447291191443661
 40
0.7394153884083997
 40
0.9291329257462477
 40
0.9999999999999999
 40
0.9999999999999999
 40
0.9999999999999999
 40
0.9999999999999999
 10
106.3480365489236
 20
206.3659683274159
 30
0.0
 10
106.3459481555029
 20
206.3497414665075
 30
0.0
 10
106.3398018630502
 20
206.301984644567
 30
0.0
 10
106.3298692006003
 20
206.199058637484
 30
0.0
 10
106.3194911181102
 20
206.0752410708641
 30
0.0
 10
106.3118706832247
 20
205.9791587620919
 30
0.0
 10
106.3080403877857
 20
205.9286433554587
 30
0.0
 10
106.3069987229321
 20
205.9149054794922
 30
0.0
  0
LINE
  5
27B
330
1F
100
AcDbEntity
  8
0
  6
Continuous
 62
     7
370
     0
100
AcDbLine
 10
115.8182056602
 20
201.7232851845
 30
0.0
 11
115.8182056602
 21
202.8982851853
 31
0.0
  0
LINE
  5
27C
330
1F
100
AcDbEntity
  8
0
  6
Continuous
 62
     7
370
     0
100
AcDbLine
 10
118.3182056602
 20
203.0732851852
 30
0.0
 11
118.3182056602
 21
202.0732851845
 31
0.0
  0
LINE
  5
27D
330
1F
100
AcDbEntity
  8
0
  6
Continuous
 62
     7
370
     0
100
AcDbLine
 10
113.3182056602
 20
201.7232851845
 30
0.0
 11
113.3182056602
 21
202.8982851853
 31
0.0
  0
LINE
  5
27E
330
1F
100
AcDbEntity
  8
0
  6
Continuous
 62
     7
370
     0
100
AcDbLine
 10
92.2182056602
 20
202.0482851845
 30
0.0
 11
92.2182056602
 21
200.0232851845
 31
0.0
  0
LINE
  5
27F
330
1F
100
AcDbEntity
  8
0
  6
Continuous
 62
     7
370
     0
100
AcDbLine
 10
92.2182056602
 20
208.1232851845
 30
0.0
 11
92.2182056602
 21
206.0982851845
 31
0.0
  0
LINE
  5
280
330
1F
100
AcDbEntity
  8
0
  6
Continuous
 62
     7
370
     0
100
AcDbLine
 10
92.2182056602
 20
206.0982851845
 30
0.0
 11
92.2182056602
 21
202.0482851845
 31
0.0
  0
LINE
  5
281
330
1F
100
AcDbEntity
  8
0
  6
Continuous
 62
     7
370
     0
100
AcDbLine
 10
92.2182056602
 20
200.0232851845
 30
0.0
 11
94.7182056602
 21
200.0232851845
 31
0.0
  0
LINE
  5
282
330
1F
100
AcDbEntity
  8
0
  6
Continuous
 62
     7
370
     0
100
AcDbLine
 10
92.2182056602
 20
202.0482851845
 30
0.0
 11
94.7182056602
 21
202.0482851845
 31
0.0
  0
LINE
  5
283
330
1F
100
AcDbEntity
  8
0
  6
Continuous
 62
     7
370
     0
100
AcDbLine
 10
94.7182056602
 20
202.0482851845
 30
0.0
 11
94.7182056602
 21
200.0232851845
 31
0.0
  0
LINE
  5
284
330
1F
100
AcDbEntity
  8
0
  6
Continuous
 62
     7
370
     0
100
AcDbLine
 10
92.2182056602
 20
200.0232851845
 30
0.0
 11
92.2182056602
 21
202.0482851845
 31
0.0
  0
LINE
  5
285
330
1F
100
AcDbEntity
  8
0
  6
Continuous
 62
     7
370
     0
100
AcDbLine
 10
92.2182056602
 20
206.0982851845
 30
0.0
 11
94.7182056602
 21
206.0982851845
 31
0.0
  0
LINE
  5
286
330
1F
100
AcDbEntity
  8
0
  6
Continuous
 62
     7
370
     0
100
AcDbLine
 10
94.7182056602
 20
206.0982851845
 30
0.0
 11
94.7182056602
 21
202.0482851845
 31
0.0
  0
LINE
  5
287
330
1F
100
AcDbEntity
  8
0
  6
Continuous
 62
     7
370
     0
100
AcDbLine
 10
92.2182056602
 20
208.1232851845
 30
0.0
 11
94.7182056602
 21
208.1232851845
 31
0.0
  0
LINE
  5
288
330
1F
100
AcDbEntity
  8
0
  6
Continuous
 62
     7
370
     0
100
AcDbLine
 10
94.7182056602
 20
208.1232851845
 30
0.0
 11
94.7182056602
 21
206.0982851845
 31
0.0
  0
LINE
  5
289
330
1F
100
AcDbEntity
  8
0
  6
Continuous
 62
     7
370
     0
100
AcDbLine
 10
92.2182056602
 20
206.0982851845
 30
0.0
 11
92.2182056602
 21
208.1232851845
 31
0.0
  0
LINE
  5
28A
330
1F
100
AcDbEntity
  8
0
  6
Continuous
 62
     7
370
     0
100
AcDbLine
 10
94.7182056602
 20
202.0482851855
 30
0.0
 11
94.7182056602
 21
201.997310667
 31
0.0
  0
LINE
  5
28B
330
1F
100
AcDbEntity
  8
0
  6
Continuous
 62
     7
370
     0
100
AcDbLine
 10
94.7182056602
 20
200.0732851845
 30
0.0
 11
94.7182056602
 21
200.0232851865
 31
0.0
  0
LINE
  5
28C
330
1F
100
AcDbEntity
  8
0
  6
Continuous
 62
     7
370
     0
100
AcDbLine
 10
94.7182056602
 20
208.1232851825
 30
0.0
 11
94.7182056602
 21
208.0732851845
 31
0.0
  0
LINE
  5
28D
330
1F
100
AcDbEntity
  8
0
  6
Continuous
 62
     7
370
     0
100
AcDbLine
 10
94.7182056602
 20
206.1492597019
 30
0.0
 11
94.7182056602
 21
206.0982851835
 31
0.0
  0
LINE
  5
28E
330
1F
100
AcDbEntity
  8
0
  6
Continuous
 62
     7
370
     0
100
AcDbLine
 10
91.703251084
 20
204.0732851844
 30
0.0
 11
92.2182056602
 21
203.1813576949
 31
0.0
  0
LINE
  5
28F
330
1F
100
AcDbEntity
  8
0
  6
Continuous
 62
     7
370
     0
100
AcDbLine
 10
94.0415196742
 20
200.0232851845
 30
0.0
 11
96.610728372
 21
195.5732851846
 31
0.0
  0
LINE
  5
290
330
1F
100
AcDbEntity
  8
0
  6
Continuous
 62
     7
370
     0
100
AcDbLine
 10
96.610728372
 20
195.5732851846
 30
0.0
 11
106.4256829482
 21
195.5732851847
 31
0.0
  0
LINE
  5
291
330
1F
100
AcDbEntity
  8
0
  6
Continuous
 62
     7
370
     0
100
AcDbLine
 10
106.4256829482
 20
195.5732851847
 30
0.0
 11
108.9948916462
 21
200.0232851848
 31
0.0
  0
LINE
  5
292
330
1F
100
AcDbEntity
  8
0
  6
Continuous
 62
     7
370
     0
100
AcDbLine
 10
108.9948916464
 20
208.1232851842
 30
0.0
 11
106.4256829484
 21
212.5732851844
 31
0.0
  0
LINE
  5
293
330
1F
100
AcDbEntity
  8
0
  6
Continuous
 62
     7
370
     0
100
AcDbLine
 10
106.4256829484
 20
212.5732851844
 30
0.0
 11
96.6107283722
 21
212.5732851843
 31
0.0
  0
LINE
  5
294
330
1F
100
AcDbEntity
  8
0
  6
Continuous
 62
     7
370
     0
100
AcDbLine
 10
96.6107283722
 20
212.5732851843
 30
0.0
 11
94.0415196744
 21
208.1232851845
 31
0.0
  0
LINE
  5
295
330
1F
100
AcDbEntity
  8
0
  6
Continuous
 62
     7
370
     0
100
AcDbLine
 10
92.2182056602
 20
204.9652126739
 30
0.0
 11
91.703251084
 21
204.0732851844
 31
0.0
  0
LINE
  5
296
330
1F
100
AcDbEntity
  8
0
  6
Continuous
 62
     7
370
     0
100
AcDbLine
 10
96.6107283709
 20
195.5732851866
 30
0.0
 11
106.4256829458
 21
195.5732851888
 31
0.0
  0
LINE
  5
297
330
1F
100
AcDbEntity
  8
0
  6
Continuous
 62
     7
370
     0
100
AcDbLine
 10
106.4256829458
 20
195.5732851888
 30
0.0
 11
108.9948916427
 21
200.0232851848
 31
0.0
  0
LINE
  5
298
330
1F
100
AcDbEntity
  8
0
  6
Continuous
 62
     7
370
     0
100
AcDbLine
 10
106.4256829496
 20
212.5732851823
 30
0.0
 11
96.6107283746
 21
212.5732851801
 31
0.0
  0
LINE
  5
299
330
1F
100
AcDbEntity
  8
0
  6
Continuous
 62
     7
370
     0
100
AcDbLine
 10
96.6107283746
 20
212.5732851801
 30
0.0
 11
94.0415196779
 21
208.1232851845
 31
0.0
  0
LINE
  5
29A
330
1F
100
AcDbEntity
  8
0
  6
Continuous
 62
     7
370
     0
100
AcDbLine
 10
92.2182056602
 20
204.9652126693
 30
0.0
 11
91.7032510852
 21
204.0732851823
 31
0.0
  0
ARC
  5
29B
330
1F
100
AcDbEntity
  8
0
  6
Continuous
 62
     7
370
     0
100
AcDbCircle
 10
101.5182056602
 20
204.0732851845
 30
0.0
 40
5.5
100
AcDbArc
 50
270.0000000235
 51
89.9999999897
  0
SPLINE
  5
29C
330
1F
100
AcDbEntity
  8
0
  6
Continuous
 62
     7
370
     0
100
AcDbSpline
210
0.0
220
0.0
230
1.0
 70
     8
 71
     3
 72
    32
 73
    28
 74
     0
 42
0.00000001
 43
0.00000001
 12
1.0
 22
0.0
 32
0.0
 13
1.0
 23
0.0
 33
0.0
 40
0.0
 40
0.0
 40
0.0
 40
0.0
 40
0.0104551142757641
 40
0.0208808428243602
 40
0.0312882976539833
 40
0.0468968228737568
 40
0.0625749171376254
 40
0.0938362609830745
 40
0.1251292879641943
 40
0.1876079455135414
 40
0.2500866024513075
 40
0.3125652593890735
 40
0.3750439169384207
 40
0.437522574061932
 40
0.5000012311911479
 40
0.5624798883203639
 40
0.6249585454438753
 40
0.6874372029932223
 40
0.7499158599309884
 40
0.8123945168687544
 40
0.8748731744181015
 40
0.9061345185294047
 40
0.93742754524377
 40
0.9499461201129837
 40
0.9624674303102347
 40
0.9811881246206646
 40
1.0
 40
1.0
 40
1.0
 40
1.0
 10
101.5182056602154
 20
209.573285181742
 30
0.0
 10
101.5783491633715
 20
209.5727125312267
 30
0.0
 10
101.6984671270001
 20
209.5715688397195
 30
0.0
 10
101.8782642467959
 20
209.562434853613
 30
0.0
 10
102.0872232091796
 20
209.5454367185015
 30
0.0
 10
102.3253607818095
 20
209.5159962539937
 30
0.0
 10
102.6799587024257
 20
209.4544362808904
 30
0.0
 10
103.117328384587
 20
209.3450333383205
 30
0.0
 10
103.7953490718806
 20
209.1023162568587
 30
0.0
 10
104.593678440022
 20
208.6758310803913
 30
0.0
 10
105.4323254507982
 20
207.9874465675722
 30
0.0
 10
106.1207775035234
 20
207.148617541585
 30
0.0
 10
106.6322956869898
 20
206.1916120543974
 30
0.0
 10
106.9472983031558
 20
205.1531986232221
 30
0.0
 10
107.0536593337443
 20
204.0732851868758
 30
0.0
 10
106.9472983067977
 20
202.9933717360948
 30
0.0
 10
106.6322956724223
 20
201.9549583482238
 30
0.0
 10
106.1207775581516
 20
200.9979527022535
 30
0.0
 10
105.4323252468532
 20
200.1591242680925
 30
0.0
 10
104.5936792011737
 20
199.4707375467513
 30
0.0
 10
103.7955087082829
 20
199.0443457181707
 30
0.0
 10
103.1175073886494
 20
198.8015813162197
 30
0.0
 10
102.6977933989818
 20
198.6966106165495
 30
0.0
 10
102.3787478494827
 20
198.6395352949257
 30
0.0
 10
102.129339866984
 20
198.6051678505223
 30
0.0
 10
101.8423615965699
 20
198.5787623693764
 30
0.0
 10
101.6264324973187
 20
198.5751138691283
 30
0.0
 10
101.5182056602154
 20
198.573285187198
 30
0.0
  0
SPLINE
  5
29D
330
1F
100
AcDbEntity
  8
0
  6
Continuous
 62
     7
370
     0
100
AcDbSpline
210
0.0
220
0.0
230
1.0
 70
     8
 71
     3
 72
    32
 73
    28
 74
     0
 42
0.00000001
 43
0.00000001
 12
1.0
 22
0.0
 32
0.0
 13
1.0
 23
0.0
 33
0.0
 40
0.0
 40
0.0
 40
0.0
 40
0.0
 40
0.0104551142758707
 40
0.0208808428244667
 40
0.0312882976539838
 40
0.0468968228739875
 40
0.0625749171376261
 40
0.0938362609830207
 40
0.1251292879641926
 40
0.1876079455135399
 40
0.2500866024513062
 40
0.3125652593890724
 40
0.3750439169384197
 40
0.4375225740619313
 40
0.5000012311911476
 40
0.5624798883203638
 40
0.6249585454438753
 40
0.6874372029932226
 40
0.7499158599309889
 40
0.8123945168687551
 40
0.8748731744181024
 40
0.906134518529399
 40
0.9374275452437698
 40
0.9499461201128341
 40
0.9624674303102346
 40
0.9811881246206019
 40
1.0
 40
1.0
 40
1.0
 40
1.0
 10
101.5182056602154
 20
198.573285187198
 30
0.0
 10
101.4580621570586
 20
198.5738578377133
 30
0.0
 10
101.3379441934294
 20
198.5750015292205
 30
0.0
 10
101.1581470736336
 20
198.5841355153269
 30
0.0
 10
100.9491881112492
 20
198.6011336504388
 30
0.0
 10
100.7110505386199
 20
198.6305741149465
 30
0.0
 10
100.356452618004
 20
198.6921340880498
 30
0.0
 10
99.91908293584424
 20
198.8015370306202
 30
0.0
 10
99.24106224855018
 20
199.0442541120807
 30
0.0
 10
98.44273288040878
 20
199.4707392885488
 30
0.0
 10
97.60408586963254
 20
200.1591238013678
 30
0.0
 10
96.91563381690726
 20
200.997952827355
 30
0.0
 10
96.40411563344088
 20
201.9549583145426
 30
0.0
 10
96.0891130172749
 20
202.993371745718
 30
0.0
 10
95.98275198668644
 20
204.0732851820642
 30
0.0
 10
96.08911301363301
 20
205.1531986328453
 30
0.0
 10
96.40411564800839
 20
206.1916120207162
 30
0.0
 10
96.91563376227914
 20
207.1486176666865
 30
0.0
 10
97.60408607357749
 20
207.9874461008475
 30
0.0
 10
98.44273211925702
 20
208.6758328221887
 30
0.0
 10
99.24090261214769
 20
209.1022246507695
 30
0.0
 10
99.91890393178136
 20
209.3449890527198
 30
0.0
 10
100.338617921448
 20
209.4499597523903
 30
0.0
 10
100.6576634709472
 20
209.5070350740143
 30
0.0
 10
100.9070714534455
 20
209.5414025184176
 30
0.0
 10
101.1940497238604
 20
209.5678079995638
 30
0.0
 10
101.4099788231116
 20
209.5714564998118
 30
0.0
 10
101.5182056602154
 20
209.573285181742
 30
0.0
  0
SPLINE
  5
29E
330
1F
100
AcDbEntity
  8
0
  6
Continuous
 62
     7
370
     0
100
AcDbSpline
210
0.0
220
0.0
230
1.0
 70
     8
 71
     3
 72
    27
 73
    23
 74
     0
 42
0.00000001
 43
0.00000001
 12
1.0
 22
0.0
 32
0.0
 13
1.0
 23
0.0
 33
0.0
 40
0.0
 40
0.0
 40
0.0
 40
0.0
 40
0.0156855772768742
 40
0.0312917127985097
 40
0.0625741394334714
 40
0.1250632679671733
 40
0.1875523954785951
 40
0.250041523225273
 40
0.312530650971951
 40
0.3750197784833726
 40
0.4375089070170743
 40
0.4999980341110711
 40
0.5624871612050677
 40
0.6249762897387696
 40
0.6874654172501916
 40
0.7499545449968695
 40
0.8124436727435475
 40
0.8749328002549693
 40
0.9374219287886714
 40
0.9624611863316554
 40
0.9811463731701726
 40
1.0
 40
1.0
 40
1.0
 40
1.0
 10
101.5182056602154
 20
206.173285187274
 30
0.0
 10
101.4837573712833
 20
206.1727880194158
 30
0.0
 10
101.4150352614983
 20
206.1717962016741
 30
0.0
 10
101.2779403174869
 20
206.1613982900671
 30
0.0
 10
101.0400176275257
 20
206.1262559845615
 30
0.0
 10
100.7093413805631
 20
206.0259163843945
 30
0.0
 10
100.34400046262
 20
205.8306329707495
 30
0.0
 10
100.0237058099418
 20
205.567779931896
 30
0.0
 10
99.76086481086482
 20
205.2475038565264
 30
0.0
 10
99.56555181542231
 20
204.8821006691255
 30
0.0
 10
99.44527975848358
 20
204.485615824362
 30
0.0
 10
99.40466860303603
 20
204.073285187577
 30
0.0
 10
99.44527977446417
 20
203.66095453215
 30
0.0
 10
99.56555175149992
 20
203.2644697433128
 30
0.0
 10
99.7608650505738
 20
202.8990663508487
 30
0.0
 10
100.0237049150282
 20
202.5787910398052
 30
0.0
 10
100.3440038025653
 20
202.3159351487103
 30
0.0
 10
100.7093289156955
 20
202.120662379705
 30
0.0
 10
101.0268406737284
 20
202.0242999125357
 30
0.0
 10
101.2573856957698
 20
201.9879574942622
 30
0.0
 10
101.394352519439
 20
201.9753967839269
 30
0.0
 10
101.4767979666083
 20
201.9739911514855
 30
0.0
 10
101.5182056602154
 20
201.973285181666
 30
0.0
  0
SPLINE
  5
29F
330
1F
100
AcDbEntity
  8
0
  6
Continuous
 62
     7
370
     0
100
AcDbSpline
210
0.0
220
0.0
230
1.0
 70
     8
 71
     3
 72
    27
 73
    23
 74
     0
 42
0.00000001
 43
0.00000001
 12
1.0
 22
0.0
 32
0.0
 13
1.0
 23
0.0
 33
0.0
 40
0.0
 40
0.0
 40
0.0
 40
0.0
 40
0.0156855772767859
 40
0.0312917127985095
 40
0.0625741394334714
 40
0.1250632679671732
 40
0.1875523954785948
 40
0.250041523225273
 40
0.3125306509719508
 40
0.3750197784833726
 40
0.4375089070170746
 40
0.4999980341110713
 40
0.562487161205068
 40
0.6249762897387698
 40
0.6874654172501914
 40
0.7499545449968695
 40
0.8124436727435476
 40
0.8749328002549692
 40
0.9374219287886709
 40
0.9624611863316551
 40
0.9811463731701089
 40
0.9999999999999999
 40
0.9999999999999999
 40
0.9999999999999999
 40
0.9999999999999999
 10
101.5182056602154
 20
201.973285181666
 30
0.0
 10
101.5526539491472
 20
201.9737823495242
 30
0.0
 10
101.6213760589322
 20
201.9747741672659
 30
0.0
 10
101.7584710029437
 20
201.9851720788728
 30
0.0
 10
101.996393692905
 20
202.0203143843785
 30
0.0
 10
102.3270699398676
 20
202.1206539845455
 30
0.0
 10
102.6924108578107
 20
202.3159373981904
 30
0.0
 10
103.0127055104889
 20
202.578790437044
 30
0.0
 10
103.2755465095659
 20
202.8990665124136
 30
0.0
 10
103.4708595050084
 20
203.2644696998146
 30
0.0
 10
103.5911315619471
 20
203.6609545445781
 30
0.0
 10
103.6317427173947
 20
204.073285181363
 30
0.0
 10
103.5911315459665
 20
204.48561583679
 30
0.0
 10
103.4708595689308
 20
204.8821006256272
 30
0.0
 10
103.2755462698569
 20
205.2475040180913
 30
0.0
 10
103.0127064054025
 20
205.5677793291348
 30
0.0
 10
102.6924075178654
 20
205.8306352202297
 30
0.0
 10
102.3270824047352
 20
206.0259079892351
 30
0.0
 10
102.0095706467023
 20
206.1222704564043
 30
0.0
 10
101.7790256246611
 20
206.1586128746778
 30
0.0
 10
101.6420588009918
 20
206.1711735850132
 30
0.0
 10
101.5596133538225
 20
206.1725792174545
 30
0.0
 10
101.5182056602154
 20
206.173285187274
 30
0.0
  0
LINE
  5
2A0
330
1F
100
AcDbEntity
  8
0
  6
Continuous
 62
     7
370
     0
100
AcDbLine
 10
107.5182056602
 20
200.6091835711
 30
0.0
 11
101.5182056602
 21
197.1450819577
 31
0.0
  0
LINE
  5
2A1
330
1F
100
AcDbEntity
  8
0
  6
Continuous
 62
     7
370
     0
100
AcDbLine
 10
101.5182056602
 20
197.1450819577
 30
0.0
 11
95.5182056602
 21
200.6091835711
 31
0.0
  0
LINE
  5
2A2
330
1F
100
AcDbEntity
  8
0
  6
Continuous
 62
     7
370
     0
100
AcDbLine
 10
95.5182056602
 20
200.6091835711
 30
0.0
 11
95.5182056602
 21
207.5373867979
 31
0.0
  0
LINE
  5
2A3
330
1F
100
AcDbEntity
  8
0
  6
Continuous
 62
     7
370
     0
100
AcDbLine
 10
95.5182056602
 20
207.5373867979
 30
0.0
 11
101.5182056602
 21
211.0014884113
 31
0.0
  0
LINE
  5
2A4
330
1F
100
AcDbEntity
  8
0
  6
Continuous
 62
     7
370
     0
100
AcDbLine
 10
101.5182056602
 20
211.0014884113
 30
0.0
 11
107.5182056602
 21
207.5373867979
 31
0.0
  0
LINE
  5
2A5
330
1F
100
AcDbEntity
  8
0
  6
Continuous
 62
     7
370
     0
100
AcDbLine
 10
107.5182056602
 20
207.5373867979
 30
0.0
 11
107.5182056602
 21
200.6091835711
 31
0.0
  0
LINE
  5
2A6
330
1F
100
AcDbEntity
  8
0
  6
Continuous
 62
     7
370
     0
100
AcDbLine
 10
101.5182056602
 20
197.1450819545
 30
0.0
 11
107.5182056602
 21
200.6091835695
 31
0.0
  0
LINE
  5
2A7
330
1F
100
AcDbEntity
  8
0
  6
Continuous
 62
     7
370
     0
100
AcDbLine
 10
99.4182056603
 20
204.0732851848
 30
0.0
 11
103.6182056602
 21
204.0732851848
 31
0.0
  0
LINE
  5
2A8
330
1F
100
AcDbEntity
  8
0
  6
Continuous
 62
     7
370
     0
100
AcDbLine
 10
95.5182056602
 20
200.6091835695
 30
0.0
 11
101.5182056602
 21
197.1450819545
 31
0.0
  0
LINE
  5
2A9
330
1F
100
AcDbEntity
  8
0
  6
Continuous
 62
     7
370
     0
100
AcDbLine
 10
101.5182056602
 20
211.0014884145
 30
0.0
 11
95.5182056602
 21
207.5373867995
 31
0.0
  0
LINE
  5
2AA
330
1F
100
AcDbEntity
  8
0
  6
Continuous
 62
     7
370
     0
100
AcDbLine
 10
107.5182056602
 20
207.5373867995
 30
0.0
 11
101.5182056602
 21
211.0014884145
 31
0.0
  0
ARC
  5
2AB
330
1F
100
AcDbEntity
  8
0
  6
Continuous
 62
     7
370
     0
100
AcDbCircle
 10
101.5182056602
 20
204.0732851845
 30
0.0
 40
2.100000000000023
100
AcDbArc
 50
270.0000000235
 51
89.9999999897
  0
ARC
  5
2AC
330
1F
100
AcDbEntity
  8
0
  6
Continuous
 62
     7
370
     0
100
AcDbCircle
 10
101.5182056602
 20
204.0732851845
 30
0.0
 40
2.100000000000023
100
AcDbArc
 50
90.0
 51
270.0000000235
  0
ARC
  5
2AD
330
1F
100
AcDbEntity
  8
0
  6
Continuous
 62
     7
370
     0
100
AcDbCircle
 10
101.5182056602
 20
204.0732851845
 30
0.0
 40
5.5
100
AcDbArc
 50
90.0
 51
270.0000000235
  0
INSERT
  5
2B8
330
1F
100
AcDbEntity
  8
0
  6
Continuous
 62
     7
370
     0
100
AcDbBlockReference
  2
SW_NOTE_3
 10
111.3285883749
 20
221.5895610913
 30
0.0
  0
LEADER
  5
2B9
330
1F
100
AcDbEntity
  8
0
  6
Continuous
 62
     7
370
     0
100
AcDbLeader
  3
SLDDIMSTYLE2
 76
     2
 10
102.615615862
 20
205.8637532551
 30
0.0
 10
111.3285883749
 20
221.5895610913
 30
0.0
  0
ENDSEC
  0
SECTION
  2
OBJECTS
  0
DICTIONARY
  5
C
330
0
100
AcDbDictionary
281
     1
  3
ACAD_GROUP
350
D
  3
ACAD_LAYOUT
350
1A
  3
ACAD_MLINESTYLE
350
17
  3
ACAD_PLOTSETTINGS
350
19
  3
ACAD_PLOTSTYLENAME
350
E
  0
DICTIONARY
  5
D
102
{ACAD_REACTORS
330
C
102
}
330
C
100
AcDbDictionary
281
     1
  0
DICTIONARY
  5
1A
102
{ACAD_REACTORS
330
C
102
}
330
C
100
AcDbDictionary
281
     1
  3
Layout1
350
1E
  3
Layout2
350
26
  3
Model
350
22
  0
DICTIONARY
  5
17
102
{ACAD_REACTORS
330
C
102
}
330
C
100
AcDbDictionary
281
     1
  3
Standard
350
18
  0
DICTIONARY
  5
19
102
{ACAD_REACTORS
330
C
102
}
330
C
100
AcDbDictionary
281
     1
  0
ACDBDICTIONARYWDFLT
  5
E
102
{ACAD_REACTORS
330
C
102
}
330
C
100
AcDbDictionary
281
     1
  3
Normal
350
F
100
AcDbDictionaryWithDefault
340
F
  0
LAYOUT
  5
1E
102
{ACAD_REACTORS
330
1A
102
}
330
1A
100
AcDbPlotSettings
  1

  2
none_device
  4

  6

 40
0.0
 41
0.0
 42
0.0
 43
0.0
 44
0.0
 45
0.0
 46
0.0
 47
0.0
 48
0.0
 49
0.0
140
0.0
141
0.0
142
1.0
143
1.0
 70
   688
 72
     0
 73
     0
 74
     5
  7

 75
    16
147
1.0
148
0.0
149
0.0
100
AcDbLayout
  1
Layout1
 70
     1
 71
     1
 10
0.0
 20
0.0
 11
420.0
 21
297.0
 12
0.0
 22
0.0
 32
0.0
 14
1.0000000000E+20
 24
1.0000000000E+20
 34
1.0000000000E+20
 15
-1.0000000000E+20
 25
-1.0000000000E+20
 35
-1.0000000000E+20
146
0.0
 13
0.0
 23
0.0
 33
0.0
 16
1.0
 26
0.0
 36
0.0
 17
0.0
 27
1.0
 37
0.0
 76
     0
330
1B
  0
LAYOUT
  5
26
102
{ACAD_REACTORS
330
1A
102
}
330
1A
100
AcDbPlotSettings
  1

  2
none_device
  4

  6

 40
0.0
 41
0.0
 42
0.0
 43
0.0
 44
0.0
 45
0.0
 46
0.0
 47
0.0
 48
0.0
 49
0.0
140
0.0
141
0.0
142
1.0
143
1.0
 70
   688
 72
     0
 73
     0
 74
     5
  7

 75
    16
147
1.0
148
0.0
149
0.0
100
AcDbLayout
  1
Layout2
 70
     1
 71
     2
 10
0.0
 20
0.0
 11
0.0
 21
0.0
 12
0.0
 22
0.0
 32
0.0
 14
0.0
 24
0.0
 34
0.0
 15
0.0
 25
0.0
 35
0.0
146
0.0
 13
0.0
 23
0.0
 33
0.0
 16
1.0
 26
0.0
 36
0.0
 17
0.0
 27
1.0
 37
0.0
 76
     0
330
23
  0
LAYOUT
  5
22
102
{ACAD_REACTORS
330
1A
102
}
330
1A
100
AcDbPlotSettings
  1

  2
none_device
  4

  6

 40
0.0
 41
0.0
 42
0.0
 43
0.0
 44
0.0
 45
0.0
 46
0.0
 47
0.0
 48
0.0
 49
0.0
140
0.0
141
0.0
142
1.0
143
1.0
 70
  1712
 72
     0
 73
     0
 74
     0
  7

 75
     0
147
1.0
148
0.0
149
0.0
100
AcDbLayout
  1
Model
 70
     1
 71
     0
 10
0.0
 20
0.0
 11
210.0
 21
297.0
 12
0.0
 22
0.0
 32
0.0
 14
0.0
 24
0.0
 34
0.0
 15
210.0
 25
297.0
 35
0.0
146
0.0
 13
0.0
 23
0.0
 33
0.0
 16
1.0
 26
0.0
 36
0.0
 17
0.0
 27
1.0
 37
0.0
 76
     0
330
1F
331
29
  0
MLINESTYLE
  5
18
102
{ACAD_REACTORS
330
17
102
}
330
17
100
AcDbMlineStyle
  2
Standard
 70
     0
  3

 62
   256
 51
90.0
 52
90.0
 71
     2
 49
0.5
 62
   256
  6
BYLAYER
 49
-0.5
 62
   256
  6
BYLAYER
  0
ACDBPLACEHOLDER
  5
F
102
{ACAD_REACTORS
330
E
102
}
330
E
  0
ENDSEC
  0
EOF
