  0
SECTION
  2
HEADER
  9
$ACADVER
  1
AC1015
  9
$ACADMAINTVER
 70
     6
  9
$DWGCODEPAGE
  3
DOS932
  9
$INSBASE
 10
0.0
 20
0.0
 30
0.0
  9
$EXTMIN
 10
0.0
 20
0.0
 30
0.0
  9
$EXTMAX
 10
210.0
 20
297.0
 30
0.0
  9
$LIMMIN
 10
0.0
 20
0.0
  9
$LIMMAX
 10
210.0
 20
297.0
  9
$ORTHOMODE
 70
     0
  9
$REGENMODE
 70
     1
  9
$FILLMODE
 70
     1
  9
$QTEXTMODE
 70
     0
  9
$MIRRTEXT
 70
     1
  9
$LTSCALE
 40
1.0
  9
$ATTMODE
 70
     1
  9
$TEXTSIZE
 40
3.5
  9
$TRACEWID
 40
1.0
  9
$TEXTSTYLE
  7
Standard
  9
$CLAYER
  8
0
  9
$CELTYPE
  6
ByLayer
  9
$CECOLOR
 62
   256
  9
$CELTSCALE
 40
1.0
  9
$DISPSILH
 70
     0
  9
$DIMSCALE
 40
1.0
  9
$DIMASZ
 40
3.0
  9
$DIMEXO
 40
1.0
  9
$DIMDLI
 40
3.75
  9
$DIMRND
 40
0.0
  9
$DIMDLE
 40
0.0
  9
$DIMEXE
 40
1.0
  9
$DIMTP
 40
0.0
  9
$DIMTM
 40
0.0
  9
$DIMTXT
 40
3.5
  9
$DIMCEN
 40
2.5
  9
$DIMTSZ
 40
0.0
  9
$DIMTOL
 70
     0
  9
$DIMLIM
 70
     0
  9
$DIMTIH
 70
     1
  9
$DIMTOH
 70
     1
  9
$DIMSE1
 70
     0
  9
$DIMSE2
 70
     0
  9
$DIMTAD
 70
     1
  9
$DIMZIN
 70
     0
  9
$DIMBLK
  1

  9
$DIMASO
 70
     1
  9
$DIMSHO
 70
     1
  9
$DIMPOST
  1

  9
$DIMAPOST
  1

  9
$DIMALT
 70
     0
  9
$DIMALTD
 70
     3
  9
$DIMALTF
 40
0.0393700787
  9
$DIMLFAC
 40
1.0
  9
$DIMTOFL
 70
     1
  9
$DIMTVP
 40
0.0
  9
$DIMTIX
 70
     0
  9
$DIMSOXD
 70
     0
  9
$DIMSAH
 70
     0
  9
$DIMBLK1
  1

  9
$DIMBLK2
  1

  9
$DIMSTYLE
  2
ISO-25
  9
$DIMCLRD
 70
     0
  9
$DIMCLRE
 70
     0
  9
$DIMCLRT
 70
     0
  9
$DIMTFAC
 40
1.0
  9
$DIMGAP
 40
1.524
  9
$DIMJUST
 70
     0
  9
$DIMSD1
 70
     0
  9
$DIMSD2
 70
     0
  9
$DIMTOLJ
 70
     0
  9
$DIMTZIN
 70
     0
  9
$DIMALTZ
 70
     0
  9
$DIMALTTZ
 70
     0
  9
$DIMUPT
 70
     0
  9
$DIMDEC
 70
     1
  9
$DIMTDEC
 70
     3
  9
$DIMALTU
 70
     2
  9
$DIMALTTD
 70
     3
  9
$DIMTXSTY
  7
Standard
  9
$DIMAUNIT
 70
     0
  9
$DIMADEC
 70
     2
  9
$DIMALTRND
 40
0.0
  9
$DIMAZIN
 70
     0
  9
$DIMDSEP
 70
    44
  9
$DIMATFIT
 70
     3
  9
$DIMFRAC
 70
     0
  9
$DIMLDRBLK
  1

  9
$DIMLUNIT
 70
     2
  9
$DIMLWD
 70
    -2
  9
$DIMLWE
 70
    -2
  9
$DIMTMOVE
 70
     0
  9
$LUNITS
 70
     2
  9
$LUPREC
 70
     1
  9
$SKETCHINC
 40
1.0
  9
$FILLETRAD
 40
10.0
  9
$AUNITS
 70
     0
  9
$AUPREC
 70
     2
  9
$MENU
  1
.
  9
$ELEVATION
 40
0.0
  9
$PELEVATION
 40
0.0
  9
$THICKNESS
 40
0.0
  9
$LIMCHECK
 70
     0
  9
$CHAMFERA
 40
10.0
  9
$CHAMFERB
 40
10.0
  9
$CHAMFERC
 40
20.0
  9
$CHAMFERD
 40
0.0
  9
$SKPOLY
 70
     0
  9
$TDCREATE
 40
2456561.877815556
  9
$TDUCREATE
 40
2456561.502815556
  9
$TDUPDATE
 40
2456561.877817361
  9
$TDUUPDATE
 40
2456561.502817361
  9
$TDINDWG
 40
0.0000000116
  9
$TDUSRTIMER
 40
0.0000000116
  9
$USRTIMER
 70
     1
  9
$ANGBASE
 50
0.0
  9
$ANGDIR
 70
     0
  9
$PDMODE
 70
     0
  9
$PDSIZE
 40
-1.0
  9
$PLINEWID
 40
0.0
  9
$SPLFRAME
 70
     0
  9
$SPLINETYPE
 70
     6
  9
$SPLINESEGS
 70
     8
  9
$HANDSEED
  5
2CD
  9
$SURFTAB1
 70
     6
  9
$SURFTAB2
 70
     6
  9
$SURFTYPE
 70
     6
  9
$SURFU
 70
     6
  9
$SURFV
 70
     6
  9
$UCSBASE
  2

  9
$UCSNAME
  2

  9
$UCSORG
 10
0.0
 20
0.0
 30
0.0
  9
$UCSXDIR
 10
1.0
 20
0.0
 30
0.0
  9
$UCSYDIR
 10
0.0
 20
1.0
 30
0.0
  9
$UCSORTHOREF
  2

  9
$UCSORTHOVIEW
 70
     0
  9
$UCSORGTOP
 10
0.0
 20
0.0
 30
0.0
  9
$UCSORGBOTTOM
 10
0.0
 20
0.0
 30
0.0
  9
$UCSORGLEFT
 10
0.0
 20
0.0
 30
0.0
  9
$UCSORGRIGHT
 10
0.0
 20
0.0
 30
0.0
  9
$UCSORGFRONT
 10
0.0
 20
0.0
 30
0.0
  9
$UCSORGBACK
 10
0.0
 20
0.0
 30
0.0
  9
$PUCSBASE
  2

  9
$PUCSNAME
  2

  9
$PUCSORG
 10
0.0
 20
0.0
 30
0.0
  9
$PUCSXDIR
 10
1.0
 20
0.0
 30
0.0
  9
$PUCSYDIR
 10
0.0
 20
1.0
 30
0.0
  9
$PUCSORTHOREF
  2

  9
$PUCSORTHOVIEW
 70
     0
  9
$PUCSORGTOP
 10
0.0
 20
0.0
 30
0.0
  9
$PUCSORGBOTTOM
 10
0.0
 20
0.0
 30
0.0
  9
$PUCSORGLEFT
 10
0.0
 20
0.0
 30
0.0
  9
$PUCSORGRIGHT
 10
0.0
 20
0.0
 30
0.0
  9
$PUCSORGFRONT
 10
0.0
 20
0.0
 30
0.0
  9
$PUCSORGBACK
 10
0.0
 20
0.0
 30
0.0
  9
$USERI1
 70
     0
  9
$USERI2
 70
     0
  9
$USERI3
 70
     0
  9
$USERI4
 70
     0
  9
$USERI5
 70
     0
  9
$USERR1
 40
0.0
  9
$USERR2
 40
0.0
  9
$USERR3
 40
0.0
  9
$USERR4
 40
0.0
  9
$USERR5
 40
0.0
  9
$WORLDVIEW
 70
     1
  9
$SHADEDGE
 70
     3
  9
$SHADEDIF
 70
    70
  9
$TILEMODE
 70
     1
  9
$MAXACTVP
 70
    64
  9
$PINSBASE
 10
0.0
 20
0.0
 30
0.0
  9
$PLIMCHECK
 70
     0
  9
$PEXTMIN
 10
1.0000000000E+20
 20
1.0000000000E+20
 30
1.0000000000E+20
  9
$PEXTMAX
 10
-1.0000000000E+20
 20
-1.0000000000E+20
 30
-1.0000000000E+20
  9
$PLIMMIN
 10
0.0
 20
0.0
  9
$PLIMMAX
 10
420.0
 20
297.0
  9
$UNITMODE
 70
     0
  9
$VISRETAIN
 70
     1
  9
$PLINEGEN
 70
     0
  9
$PSLTSCALE
 70
     1
  9
$TREEDEPTH
 70
  3020
  9
$CMLSTYLE
  2
Standard
  9
$CMLJUST
 70
     0
  9
$CMLSCALE
 40
20.0
  9
$PROXYGRAPHICS
 70
     1
  9
$MEASUREMENT
 70
     1
  9
$CELWEIGHT
370
    -1
  9
$ENDCAPS
280
     0
  9
$JOINSTYLE
280
     0
  9
$LWDISPLAY
290
     1
  9
$INSUNITS
 70
     4
  9
$HYPERLINKBASE
  1

  9
$STYLESHEET
  1

  9
$XEDIT
290
     1
  9
$CEPSNTYPE
380
     0
  9
$PSTYLEMODE
290
     1
  9
$FINGERPRINTGUID
  2
{940301CF-7423-4060-A983-34F4EF3E4E70}
  9
$VERSIONGUID
  2
{FAEB1C32-E019-11D5-929B-00C0DF256EC4}
  9
$EXTNAMES
290
     1
  9
$PSVPSCALE
 40
0.0
  9
$OLESTARTUP
290
     0
  0
ENDSEC
  0
SECTION
  2
CLASSES
  0
CLASS
  1
ACDBDICTIONARYWDFLT
  2
AcDbDictionaryWithDefault
  3
ObjectDBX Classes
 90
        0
280
     0
281
     0
  0
CLASS
  1
VISUALSTYLE
  2
AcDbVisualStyle
  3
ObjectDBX Classes
 90
     4095
280
     0
281
     0
  0
CLASS
  1
MATERIAL
  2
AcDbMaterial
  3
ObjectDBX Classes
 90
     1153
280
     0
281
     0
  0
CLASS
  1
ACDBPLACEHOLDER
  2
AcDbPlaceHolder
  3
ObjectDBX Classes
 90
        0
280
     0
281
     0
  0
CLASS
  1
LAYOUT
  2
AcDbLayout
  3
ObjectDBX Classes
 90
        0
280
     0
281
     0
  0
ENDSEC
  0
SECTION
  2
TABLES
  0
TABLE
  2
VPORT
  5
8
330
0
100
AcDbSymbolTable
 70
     1
  0
VPORT
  5
29
330
8
100
AcDbSymbolTableRecord
100
AcDbViewportTableRecord
  2
*Active
 70
     0
 10
0.0
 20
0.0
 11
1.0
 21
1.0
 12
105.0
 22
148.5
 13
0.0
 23
0.0
 14
10.0
 24
10.0
 15
10.0
 25
10.0
 16
0.0
 26
0.0
 36
1.0
 17
0.0
 27
0.0
 37
0.0
 40
297.0
 41
0.7070707071
 42
50.0
 43
0.0
 44
0.0
 50
0.0
 51
0.0
 71
     0
 72
  2000
 73
     1
 74
     3
 75
     0
 76
     0
 77
     0
 78
     0
281
     0
 65
     1
110
0.0
120
0.0
130
0.0
111
1.0
121
0.0
131
0.0
112
0.0
122
1.0
132
0.0
 79
     0
146
0.0
  0
ENDTAB
  0
TABLE
  2
LTYPE
  5
5
330
0
100
AcDbSymbolTable
 70
     6
  0
LTYPE
  5
14
330
5
100
AcDbSymbolTableRecord
100
AcDbLinetypeTableRecord
  2
ByBlock
 70
     0
  3

 72
    65
 73
     0
 40
0.0
  0
LTYPE
  5
15
330
5
100
AcDbSymbolTableRecord
100
AcDbLinetypeTableRecord
  2
ByLayer
 70
     0
  3

 72
    65
 73
     0
 40
0.0
  0
LTYPE
  5
16
330
5
100
AcDbSymbolTableRecord
100
AcDbLinetypeTableRecord
  2
Continuous
 70
     0
  3
Solid line
 72
    65
 73
     0
 40
0.0
  0
LTYPE
  5
3F
330
5
100
AcDbSymbolTableRecord
100
AcDbLinetypeTableRecord
  2
HIDDEN
 70
     0
  3
Hidden __ __ __ __ __ __ __ __ __ __ __ __ __ __
 72
    65
 73
     2
 40
1.905
 49
1.27
 74
     0
 49
-0.635
 74
     0
  0
LTYPE
  5
40
330
5
100
AcDbSymbolTableRecord
100
AcDbLinetypeTableRecord
  2
PHANTOM
 70
     0
  3
Phantom ______  __  __  ______  __  __  ______
 72
    65
 73
     6
 40
12.7
 49
6.35
 74
     0
 49
-1.27
 74
     0
 49
1.27
 74
     0
 49
-1.27
 74
     0
 49
1.27
 74
     0
 49
-1.27
 74
     0
  0
LTYPE
  5
41
330
5
100
AcDbSymbolTableRecord
100
AcDbLinetypeTableRecord
  2
CENTER
 70
     0
  3
Center ____ _ ____ _ ____ _ ____ _ ____ _ ____
 72
    65
 73
     4
 40
10.16
 49
6.35
 74
     0
 49
-1.27
 74
     0
 49
1.27
 74
     0
 49
-1.27
 74
     0
  0
LTYPE
  5
42
330
5
100
AcDbSymbolTableRecord
100
AcDbLinetypeTableRecord
  2
CENTERX2
 70
     0
  3
Center (2x) ________  __  ________  __  _____
 72
    65
 73
     4
 40
20.32
 49
12.7
 74
     0
 49
-2.54
 74
     0
 49
2.54
 74
     0
 49
-2.54
 74
     0
  0
LTYPE
  5
43
330
5
100
AcDbSymbolTableRecord
100
AcDbLinetypeTableRecord
  2
DOT2
 70
     0
  3
Dot (.5x) ........................................
 72
    65
 73
     2
 40
0.635
 49
0.0
 74
     0
 49
-0.635
 74
     0
  0
ENDTAB
  0
TABLE
  2
LAYER
  5
2
330
0
100
AcDbSymbolTable
 70
     1
  0
LAYER
  5
10
330
2
100
AcDbSymbolTableRecord
100
AcDbLayerTableRecord
  2
0
 70
     0
 62
     7
  6
Continuous
370
    -3
390
F
  0
ENDTAB
  0
TABLE
  2
STYLE
  5
3
330
0
100
AcDbSymbolTable
 70
     2
  0
STYLE
  5
11
330
3
100
AcDbSymbolTableRecord
100
AcDbTextStyleTableRecord
  2
Standard
 70
     0
 40
0.0
 41
1.0
 50
0.0
 71
     0
 42
3.5
  3
txt
  4
bigfont
  0
STYLE
  5
4C
330
3
100
AcDbSymbolTableRecord
100
AcDbTextStyleTableRecord
  2
SLDTEXTSTYLE0
 70
     0
 40
0.0
 41
0.7
 50
0.0
 71
     0
 42
0.2
  3
TXT
  4
bigfont
  0
ENDTAB
  0
TABLE
  2
VIEW
  5
6
330
0
100
AcDbSymbolTable
 70
     0
  0
ENDTAB
  0
TABLE
  2
UCS
  5
7
330
0
100
AcDbSymbolTable
 70
     0
  0
ENDTAB
  0
TABLE
  2
APPID
  5
9
330
0
100
AcDbSymbolTable
 70
     1
  0
APPID
  5
12
330
9
100
AcDbSymbolTableRecord
100
AcDbRegAppTableRecord
  2
ACAD
 70
     0
  0
ENDTAB
  0
TABLE
  2
DIMSTYLE
  5
A
330
0
100
AcDbSymbolTable
 70
     4
100
AcDbDimStyleTable
  0
DIMSTYLE
105
27
330
A
100
AcDbSymbolTableRecord
100
AcDbDimStyleTableRecord
  2
ISO-25
 70
     0
 41
2.5
 42
0.625
 43
3.75
 44
1.25
 73
     0
 74
     0
 77
     1
 78
     8
140
2.5
141
2.5
143
0.0393700787
147
0.625
171
     3
172
     1
178
     0
271
     2
272
     2
274
     3
278
    44
283
     0
284
     8
340
11
  0
DIMSTYLE
105
1AF
102
{ACAD_REACTORS
330
1AE
330
1D1
330
1F3
330
20C
330
218
102
}
330
A
100
AcDbSymbolTableRecord
100
AcDbDimStyleTableRecord
  2
SLDDIMSTYLE0
 70
     0
 41
3.0
 44
0.0
 45
0.000000001
 73
     0
 74
     0
 77
     3
 78
    12
 79
     3
140
3.5
147
0.875
172
     1
173
     1
178
     0
271
     1
272
     3
276
     2
284
    12
289
     0
340
4C
  0
DIMSTYLE
105
1BD
102
{ACAD_REACTORS
330
1BC
330
1C7
330
1DD
330
1E9
330
200
102
}
330
A
100
AcDbSymbolTableRecord
100
AcDbDimStyleTableRecord
  2
SLDDIMSTYLE1
 70
     0
 41
3.0
 44
0.0
 45
0.000000001
 73
     0
 74
     0
 77
     3
 78
    12
 79
     3
140
3.5
147
0.875
173
     1
178
     0
271
     1
272
     3
276
     2
284
    12
340
4C
  0
DIMSTYLE
105
230
330
A
100
AcDbSymbolTableRecord
100
AcDbDimStyleTableRecord
  2
SLDDIMSTYLE2
 70
     0
 41
3.0
 44
0.0
 45
0.000000001
140
0.0
146
3.0
147
0.0
173
     1
178
     0
271
     0
272
     0
276
     2
340
11
341
231
343
231
344
231
  0
ENDTAB
  0
TABLE
  2
BLOCK_RECORD
  5
1
330
0
100
AcDbSymbolTable
 70
    16
  0
BLOCK_RECORD
  5
1F
330
1
100
AcDbSymbolTableRecord
100
AcDbBlockTableRecord
  2
*Model_Space
340
22
  0
BLOCK_RECORD
  5
1B
330
1
100
AcDbSymbolTableRecord
100
AcDbBlockTableRecord
  2
*Paper_Space
340
1E
  0
BLOCK_RECORD
  5
23
330
1
100
AcDbSymbolTableRecord
100
AcDbBlockTableRecord
  2
*Paper_Space0
340
26
  0
BLOCK_RECORD
  5
1B0
330
1
100
AcDbSymbolTableRecord
100
AcDbBlockTableRecord
  2
_D
340
0
  0
BLOCK_RECORD
  5
1BE
330
1
100
AcDbSymbolTableRecord
100
AcDbBlockTableRecord
  2
_D_1
340
0
  0
BLOCK_RECORD
  5
1C8
330
1
100
AcDbSymbolTableRecord
100
AcDbBlockTableRecord
  2
_D_2
340
0
  0
BLOCK_RECORD
  5
1D2
330
1
100
AcDbSymbolTableRecord
100
AcDbBlockTableRecord
  2
_D_3
340
0
  0
BLOCK_RECORD
  5
1DE
330
1
100
AcDbSymbolTableRecord
100
AcDbBlockTableRecord
  2
_D_4
340
0
  0
BLOCK_RECORD
  5
1EA
330
1
100
AcDbSymbolTableRecord
100
AcDbBlockTableRecord
  2
_D_5
340
0
  0
BLOCK_RECORD
  5
1F4
330
1
100
AcDbSymbolTableRecord
100
AcDbBlockTableRecord
  2
_D_6
340
0
  0
BLOCK_RECORD
  5
201
330
1
100
AcDbSymbolTableRecord
100
AcDbBlockTableRecord
  2
_D_7
340
0
  0
BLOCK_RECORD
  5
20D
330
1
100
AcDbSymbolTableRecord
100
AcDbBlockTableRecord
  2
_D_8
340
0
  0
BLOCK_RECORD
  5
219
330
1
100
AcDbSymbolTableRecord
100
AcDbBlockTableRecord
  2
_D_9
340
0
  0
BLOCK_RECORD
  5
225
330
1
100
AcDbSymbolTableRecord
100
AcDbBlockTableRecord
  2
SW_NOTE_0
340
0
102
{BLKREFS
331
22F
102
}
  0
BLOCK_RECORD
  5
231
330
1
100
AcDbSymbolTableRecord
100
AcDbBlockTableRecord
  2
_OPEN30
340
0
102
{BLKREFS
331
24F
331
2CB
102
}
  0
BLOCK_RECORD
  5
238
330
1
100
AcDbSymbolTableRecord
100
AcDbBlockTableRecord
  2
SW_NOTE_1
340
0
102
{BLKREFS
331
242
102
}
  0
BLOCK_RECORD
  5
244
330
1
100
AcDbSymbolTableRecord
100
AcDbBlockTableRecord
  2
SW_NOTE_2
340
0
102
{BLKREFS
331
24E
102
}
  0
BLOCK_RECORD
  5
2C0
330
1
100
AcDbSymbolTableRecord
100
AcDbBlockTableRecord
  2
SW_NOTE_3
340
0
102
{BLKREFS
331
2CA
102
}
  0
ENDTAB
  0
ENDSEC
  0
SECTION
  2
BLOCKS
  0
BLOCK
  5
20
330
1F
100
AcDbEntity
  8
0
100
AcDbBlockBegin
  2
*Model_Space
 70
     0
 10
0.0
 20
0.0
 30
0.0
  3
*Model_Space
  1

  0
ENDBLK
  5
21
330
1F
100
AcDbEntity
  8
0
100
AcDbBlockEnd
  0
BLOCK
  5
1C
330
1B
100
AcDbEntity
 67
     1
  8
0
100
AcDbBlockBegin
  2
*Paper_Space
 70
     0
 10
0.0
 20
0.0
 30
0.0
  3
*Paper_Space
  1

  0
ENDBLK
  5
1D
330
1B
100
AcDbEntity
 67
     1
  8
0
100
AcDbBlockEnd
  0
BLOCK
  5
24
330
23
100
AcDbEntity
  8
0
100
AcDbBlockBegin
  2
*Paper_Space0
 70
     0
 10
0.0
 20
0.0
 30
0.0
  3
*Paper_Space0
  1

  0
ENDBLK
  5
25
330
23
100
AcDbEntity
  8
0
100
AcDbBlockEnd
  0
BLOCK
  5
1B1
330
1B0
100
AcDbEntity
  8
0
100
AcDbBlockBegin
  2
_D
 70
     0
 10
0.0
 20
0.0
 30
0.0
  3
_D
  1

  0
SOLID
  5
1B3
330
1B0
100
AcDbEntity
  8
0
  6
Continuous
 62
     7
370
     0
100
AcDbTrace
 10
94.7243450069
 20
148.98373632
 30
0.0
 11
91.7243450069
 21
149.73373632
 31
0.0
 12
91.7243450069
 22
148.23373632
 32
0.0
 13
91.7243450069
 23
148.23373632
 33
0.0
  0
SOLID
  5
1B4
330
1B0
100
AcDbEntity
  8
0
  6
Continuous
 62
     7
370
     0
100
AcDbTrace
 10
105.7243450069
 20
148.98373632
 30
0.0
 11
108.7243450069
 21
148.23373632
 31
0.0
 12
108.7243450069
 22
149.73373632
 32
0.0
 13
108.7243450069
 23
149.73373632
 33
0.0
  0
LINE
  5
1B5
330
1B0
100
AcDbEntity
  8
0
  6
Continuous
 62
     7
370
     0
100
AcDbLine
 10
94.7243450069
 20
139.98358632
 30
0.0
 11
94.7243450069
 21
149.98373632
 31
0.0
  0
LINE
  5
1B6
330
1B0
100
AcDbEntity
  8
0
  6
Continuous
 62
     7
370
     0
100
AcDbLine
 10
105.7243450069
 20
139.98358632
 30
0.0
 11
105.7243450069
 21
149.98373632
 31
0.0
  0
LINE
  5
1B7
330
1B0
100
AcDbEntity
  8
0
  6
Continuous
 62
     7
370
     0
100
AcDbLine
 10
94.7243450069
 20
148.98373632
 30
0.0
 11
89.7243450069
 21
148.98373632
 31
0.0
  0
LINE
  5
1B8
330
1B0
100
AcDbEntity
  8
0
  6
Continuous
 62
     7
370
     0
100
AcDbLine
 10
94.7243450069
 20
148.98373632
 30
0.0
 11
105.7243450069
 21
148.98373632
 31
0.0
  0
LINE
  5
1B9
330
1B0
100
AcDbEntity
  8
0
  6
Continuous
 62
     7
370
     0
100
AcDbLine
 10
105.7243450069
 20
148.98373632
 30
0.0
 11
110.7243450069
 21
148.98373632
 31
0.0
  0
MTEXT
  5
1BA
330
1B0
100
AcDbEntity
  8
0
  6
Continuous
 62
     7
370
     0
100
AcDbMText
 10
95.2341715031
 20
153.495473642
 30
0.1
 40
3.5
 41
0.0
 71
     1
 72
     1
  1
%%c
  7
SLDTEXTSTYLE0
 73
     1
 44
1.0
  0
MTEXT
  5
1BB
330
1B0
100
AcDbEntity
  8
0
  6
Continuous
 62
     7
370
     0
100
AcDbMText
 10
99.1041020182
 20
153.495473642
 30
0.1
 40
3.5
 41
0.0
 71
     1
 72
     1
  1
11
  7
SLDTEXTSTYLE0
 73
     1
 44
1.0
  0
ENDBLK
  5
1B2
330
1B0
100
AcDbEntity
  8
0
100
AcDbBlockEnd
  0
BLOCK
  5
1BF
330
1BE
100
AcDbEntity
  8
0
100
AcDbBlockBegin
  2
_D_1
 70
     0
 10
0.0
 20
0.0
 30
0.0
  3
_D_1
  1

  0
SOLID
  5
1C1
330
1BE
100
AcDbEntity
  8
0
  6
Continuous
 62
     7
370
     0
100
AcDbTrace
 10
124.9274841162
 20
138.98358632
 30
0.0
 11
124.1774841162
 21
135.98358632
 31
0.0
 12
125.6774841162
 22
135.98358632
 32
0.0
 13
125.6774841162
 23
135.98358632
 33
0.0
  0
SOLID
  5
1C2
330
1BE
100
AcDbEntity
  8
0
  6
Continuous
 62
     7
370
     0
100
AcDbTrace
 10
124.9274841162
 20
129.98358632
 30
0.0
 11
125.6774841162
 21
132.98358632
 31
0.0
 12
124.1774841162
 22
132.98358632
 32
0.0
 13
124.1774841162
 23
132.98358632
 33
0.0
  0
LINE
  5
1C3
330
1BE
100
AcDbEntity
  8
0
  6
Continuous
 62
     7
370
     0
100
AcDbLine
 10
106.7243450069
 20
138.98358632
 30
0.0
 11
125.9274841162
 21
138.98358632
 31
0.0
  0
LINE
  5
1C4
330
1BE
100
AcDbEntity
  8
0
  6
Continuous
 62
     7
370
     0
100
AcDbLine
 10
107.2243450069
 20
129.98358632
 30
0.0
 11
125.9274841162
 21
129.98358632
 31
0.0
  0
LINE
  5
1C5
330
1BE
100
AcDbEntity
  8
0
  6
Continuous
 62
     7
370
     0
100
AcDbLine
 10
124.9274841162
 20
138.98358632
 30
0.0
 11
124.9274841162
 21
129.98358632
 31
0.0
  0
MTEXT
  5
1C6
330
1BE
100
AcDbEntity
  8
0
  6
Continuous
 62
     7
370
     0
100
AcDbMText
 10
120.4157472598
 20
132.4467808225
 30
0.1
 40
3.5
 41
0.0
 71
     1
 72
     1
  1
9
  7
SLDTEXTSTYLE0
 11
-1.059690869644414E-14
 21
1.0
 31
0.0
 73
     1
 44
1.0
  0
ENDBLK
  5
1C0
330
1BE
100
AcDbEntity
  8
0
100
AcDbBlockEnd
  0
BLOCK
  5
1C9
330
1C8
100
AcDbEntity
  8
0
100
AcDbBlockBegin
  2
_D_2
 70
     0
 10
0.0
 20
0.0
 30
0.0
  3
_D_2
  1

  0
SOLID
  5
1CB
330
1C8
100
AcDbEntity
  8
0
  6
Continuous
 62
     7
370
     0
100
AcDbTrace
 10
145.0244950069
 20
138.98358632
 30
0.0
 11
144.2744950069
 21
135.98358632
 31
0.0
 12
145.7744950069
 22
135.98358632
 32
0.0
 13
145.7744950069
 23
135.98358632
 33
0.0
  0
SOLID
  5
1CC
330
1C8
100
AcDbEntity
  8
0
  6
Continuous
 62
     7
370
     0
100
AcDbTrace
 10
145.0244950069
 20
85.98358632
 30
0.0
 11
145.7744950069
 21
88.98358632
 31
0.0
 12
144.2744950069
 22
88.98358632
 32
0.0
 13
144.2744950069
 23
88.98358632
 33
0.0
  0
LINE
  5
1CD
330
1C8
100
AcDbEntity
  8
0
  6
Continuous
 62
     7
370
     0
100
AcDbLine
 10
106.7243450069
 20
138.98358632
 30
0.0
 11
146.0244950069
 21
138.98358632
 31
0.0
  0
LINE
  5
1CE
330
1C8
100
AcDbEntity
  8
0
  6
Continuous
 62
     7
370
     0
100
AcDbLine
 10
103.7243450069
 20
85.98358632
 30
0.0
 11
146.0244950069
 21
85.98358632
 31
0.0
  0
LINE
  5
1CF
330
1C8
100
AcDbEntity
  8
0
  6
Continuous
 62
     7
370
     0
100
AcDbLine
 10
145.0244950069
 20
138.98358632
 30
0.0
 11
145.0244950069
 21
85.98358632
 31
0.0
  0
MTEXT
  5
1D0
330
1C8
100
AcDbEntity
  8
0
  6
Continuous
 62
     7
370
     0
100
AcDbMText
 10
140.5127581505
 20
109.4283779573
 30
0.1
 40
3.5
 41
0.0
 71
     1
 72
     1
  1
53
  7
SLDTEXTSTYLE0
 11
-1.059690869644414E-14
 21
1.0
 31
0.0
 73
     1
 44
1.0
  0
ENDBLK
  5
1CA
330
1C8
100
AcDbEntity
  8
0
100
AcDbBlockEnd
  0
BLOCK
  5
1D3
330
1D2
100
AcDbEntity
  8
0
100
AcDbBlockBegin
  2
_D_3
 70
     0
 10
0.0
 20
0.0
 30
0.0
  3
_D_3
  1

  0
SOLID
  5
1D5
330
1D2
100
AcDbEntity
  8
0
  6
Continuous
 62
     7
370
     0
100
AcDbTrace
 10
124.9274841162
 20
102.98358632
 30
0.0
 11
124.1774841162
 21
99.98358632
 31
0.0
 12
125.6774841162
 22
99.98358632
 32
0.0
 13
125.6774841162
 23
99.98358632
 33
0.0
  0
SOLID
  5
1D6
330
1D2
100
AcDbEntity
  8
0
  6
Continuous
 62
     7
370
     0
100
AcDbTrace
 10
124.9274841162
 20
108.98358632
 30
0.0
 11
125.6774841162
 21
111.98358632
 31
0.0
 12
124.1774841162
 22
111.98358632
 32
0.0
 13
124.1774841162
 23
111.98358632
 33
0.0
  0
LINE
  5
1D7
330
1D2
100
AcDbEntity
  8
0
  6
Continuous
 62
     7
370
     0
100
AcDbLine
 10
111.039299583
 20
102.98358632
 30
0.0
 11
125.9274841162
 21
102.98358632
 31
0.0
  0
LINE
  5
1D8
330
1D2
100
AcDbEntity
  8
0
  6
Continuous
 62
     7
370
     0
100
AcDbLine
 10
103.2243450054
 20
108.98358632
 30
0.0
 11
125.9274841162
 21
108.98358632
 31
0.0
  0
LINE
  5
1D9
330
1D2
100
AcDbEntity
  8
0
  6
Continuous
 62
     7
370
     0
100
AcDbLine
 10
124.9274841162
 20
102.98358632
 30
0.0
 11
124.9274841162
 21
97.98358632
 31
0.0
  0
LINE
  5
1DA
330
1D2
100
AcDbEntity
  8
0
  6
Continuous
 62
     7
370
     0
100
AcDbLine
 10
124.9274841162
 20
102.98358632
 30
0.0
 11
124.9274841162
 21
108.98358632
 31
0.0
  0
LINE
  5
1DB
330
1D2
100
AcDbEntity
  8
0
  6
Continuous
 62
     7
370
     0
100
AcDbLine
 10
124.9274841162
 20
108.98358632
 30
0.0
 11
124.9274841162
 21
113.98358632
 31
0.0
  0
MTEXT
  5
1DC
330
1D2
100
AcDbEntity
  8
0
  6
Continuous
 62
     7
370
     0
100
AcDbMText
 10
120.4157472598
 20
103.9467808225
 30
0.1
 40
3.5
 41
0.0
 71
     1
 72
     1
  1
6
  7
SLDTEXTSTYLE0
 11
-3.491481338843133E-15
 21
1.0
 31
0.0
 73
     1
 44
1.0
  0
ENDBLK
  5
1D4
330
1D2
100
AcDbEntity
  8
0
100
AcDbBlockEnd
  0
BLOCK
  5
1DF
330
1DE
100
AcDbEntity
  8
0
100
AcDbBlockBegin
  2
_D_4
 70
     0
 10
0.0
 20
0.0
 30
0.0
  3
_D_4
  1

  0
SOLID
  5
1E1
330
1DE
100
AcDbEntity
  8
0
  6
Continuous
 62
     7
370
     0
100
AcDbTrace
 10
124.9274841162
 20
102.98358632
 30
0.0
 11
125.6774841162
 21
105.98358632
 31
0.0
 12
124.1774841162
 22
105.98358632
 32
0.0
 13
124.1774841162
 23
105.98358632
 33
0.0
  0
SOLID
  5
1E2
330
1DE
100
AcDbEntity
  8
0
  6
Continuous
 62
     7
370
     0
100
AcDbTrace
 10
124.9274841162
 20
87.98358632
 30
0.0
 11
124.1774841162
 21
84.98358632
 31
0.0
 12
125.6774841162
 22
84.98358632
 32
0.0
 13
125.6774841162
 23
84.98358632
 33
0.0
  0
LINE
  5
1E3
330
1DE
100
AcDbEntity
  8
0
  6
Continuous
 62
     7
370
     0
100
AcDbLine
 10
111.039299583
 20
102.98358632
 30
0.0
 11
125.9274841162
 21
102.98358632
 31
0.0
  0
LINE
  5
1E4
330
1DE
100
AcDbEntity
  8
0
  6
Continuous
 62
     7
370
     0
100
AcDbLine
 10
106.2243450069
 20
87.98358632
 30
0.0
 11
125.9274841162
 21
87.98358632
 31
0.0
  0
LINE
  5
1E5
330
1DE
100
AcDbEntity
  8
0
  6
Continuous
 62
     7
370
     0
100
AcDbLine
 10
124.9274841162
 20
102.98358632
 30
0.0
 11
124.9274841162
 21
107.98358632
 31
0.0
  0
LINE
  5
1E6
330
1DE
100
AcDbEntity
  8
0
  6
Continuous
 62
     7
370
     0
100
AcDbLine
 10
124.9274841162
 20
102.98358632
 30
0.0
 11
124.9274841162
 21
87.98358632
 31
0.0
  0
LINE
  5
1E7
330
1DE
100
AcDbEntity
  8
0
  6
Continuous
 62
     7
370
     0
100
AcDbLine
 10
124.9274841162
 20
87.98358632
 30
0.0
 11
124.9274841162
 21
82.98358632
 31
0.0
  0
MTEXT
  5
1E8
330
1DE
100
AcDbEntity
  8
0
  6
Continuous
 62
     7
370
     0
100
AcDbMText
 10
120.4157472598
 20
92.4283779573
 30
0.1
 40
3.5
 41
0.0
 71
     1
 72
     1
  1
15
  7
SLDTEXTSTYLE0
 11
-1.059690869644414E-14
 21
1.0
 31
0.0
 73
     1
 44
1.0
  0
ENDBLK
  5
1E0
330
1DE
100
AcDbEntity
  8
0
100
AcDbBlockEnd
  0
BLOCK
  5
1EB
330
1EA
100
AcDbEntity
  8
0
100
AcDbBlockBegin
  2
_D_5
 70
     0
 10
0.0
 20
0.0
 30
0.0
  3
_D_5
  1

  0
SOLID
  5
1ED
330
1EA
100
AcDbEntity
  8
0
  6
Continuous
 62
     7
370
     0
100
AcDbTrace
 10
135.6540021425
 20
102.98358632
 30
0.0
 11
134.9040021425
 21
99.98358632
 31
0.0
 12
136.4040021425
 22
99.98358632
 32
0.0
 13
136.4040021425
 23
99.98358632
 33
0.0
  0
SOLID
  5
1EE
330
1EA
100
AcDbEntity
  8
0
  6
Continuous
 62
     7
370
     0
100
AcDbTrace
 10
135.6540021425
 20
85.98358632
 30
0.0
 11
136.4040021425
 21
88.98358632
 31
0.0
 12
134.9040021425
 22
88.98358632
 32
0.0
 13
134.9040021425
 23
88.98358632
 33
0.0
  0
LINE
  5
1EF
330
1EA
100
AcDbEntity
  8
0
  6
Continuous
 62
     7
370
     0
100
AcDbLine
 10
111.039299583
 20
102.98358632
 30
0.0
 11
136.6540021425
 21
102.98358632
 31
0.0
  0
LINE
  5
1F0
330
1EA
100
AcDbEntity
  8
0
  6
Continuous
 62
     7
370
     0
100
AcDbLine
 10
103.7243450069
 20
85.98358632
 30
0.0
 11
136.6540021425
 21
85.98358632
 31
0.0
  0
LINE
  5
1F1
330
1EA
100
AcDbEntity
  8
0
  6
Continuous
 62
     7
370
     0
100
AcDbLine
 10
135.6540021425
 20
102.98358632
 30
0.0
 11
135.6540021425
 21
85.98358632
 31
0.0
  0
MTEXT
  5
1F2
330
1EA
100
AcDbEntity
  8
0
  6
Continuous
 62
     7
370
     0
100
AcDbMText
 10
131.1422652861
 20
91.4283779573
 30
0.1
 40
3.5
 41
0.0
 71
     1
 72
     1
  1
17
  7
SLDTEXTSTYLE0
 11
-1.059690869644414E-14
 21
1.0
 31
0.0
 73
     1
 44
1.0
  0
ENDBLK
  5
1EC
330
1EA
100
AcDbEntity
  8
0
100
AcDbBlockEnd
  0
BLOCK
  5
1F5
330
1F4
100
AcDbEntity
  8
0
100
AcDbBlockBegin
  2
_D_6
 70
     0
 10
0.0
 20
0.0
 30
0.0
  3
_D_6
  1

  0
SOLID
  5
1F7
330
1F4
100
AcDbEntity
  8
0
  6
Continuous
 62
     7
370
     0
100
AcDbTrace
 10
97.2243450069
 20
75.98343632
 30
0.0
 11
94.2243450069
 21
76.73343632
 31
0.0
 12
94.2243450069
 22
75.23343632
 32
0.0
 13
94.2243450069
 23
75.23343632
 33
0.0
  0
SOLID
  5
1F8
330
1F4
100
AcDbEntity
  8
0
  6
Continuous
 62
     7
370
     0
100
AcDbTrace
 10
103.2243450069
 20
75.98343632
 30
0.0
 11
106.2243450069
 21
75.23343632
 31
0.0
 12
106.2243450069
 22
76.73343632
 32
0.0
 13
106.2243450069
 23
76.73343632
 33
0.0
  0
LINE
  5
1F9
330
1F4
100
AcDbEntity
  8
0
  6
Continuous
 62
     7
370
     0
100
AcDbLine
 10
97.2243450069
 20
85.48358632
 30
0.0
 11
97.2243450069
 21
74.98343632
 31
0.0
  0
LINE
  5
1FA
330
1F4
100
AcDbEntity
  8
0
  6
Continuous
 62
     7
370
     0
100
AcDbLine
 10
103.2243450069
 20
85.48358632
 30
0.0
 11
103.2243450069
 21
74.98343632
 31
0.0
  0
LINE
  5
1FB
330
1F4
100
AcDbEntity
  8
0
  6
Continuous
 62
     7
370
     0
100
AcDbLine
 10
97.2243450069
 20
75.98343632
 30
0.0
 11
92.2243450069
 21
75.98343632
 31
0.0
  0
LINE
  5
1FC
330
1F4
100
AcDbEntity
  8
0
  6
Continuous
 62
     7
370
     0
100
AcDbLine
 10
97.2243450069
 20
75.98343632
 30
0.0
 11
103.2243450069
 21
75.98343632
 31
0.0
  0
LINE
  5
1FD
330
1F4
100
AcDbEntity
  8
0
  6
Continuous
 62
     7
370
     0
100
AcDbLine
 10
103.2243450069
 20
75.98343632
 30
0.0
 11
117.2917635378
 21
75.98343632
 31
0.0
  0
MTEXT
  5
1FE
330
1F4
100
AcDbEntity
  8
0
  6
Continuous
 62
     7
370
     0
100
AcDbMText
 10
109.3482217949
 20
80.495173642
 30
0.1
 40
3.5
 41
0.0
 71
     1
 72
     1
  1
%%c
  7
SLDTEXTSTYLE0
 73
     1
 44
1.0
  0
MTEXT
  5
1FF
330
1F4
100
AcDbEntity
  8
0
  6
Continuous
 62
     7
370
     0
100
AcDbMText
 10
113.21815231
 20
80.495173642
 30
0.1
 40
3.5
 41
0.0
 71
     1
 72
     1
  1
6
  7
SLDTEXTSTYLE0
 73
     1
 44
1.0
  0
ENDBLK
  5
1F6
330
1F4
100
AcDbEntity
  8
0
100
AcDbBlockEnd
  0
BLOCK
  5
202
330
201
100
AcDbEntity
  8
0
100
AcDbBlockBegin
  2
_D_7
 70
     0
 10
0.0
 20
0.0
 30
0.0
  3
_D_7
  1

  0
SOLID
  5
204
330
201
100
AcDbEntity
  8
0
  6
Continuous
 62
     7
370
     0
100
AcDbTrace
 10
90.4093904309
 20
63.98343632
 30
0.0
 11
87.4093904309
 21
64.73343632
 31
0.0
 12
87.4093904309
 22
63.23343632
 32
0.0
 13
87.4093904309
 23
63.23343632
 33
0.0
  0
SOLID
  5
205
330
201
100
AcDbEntity
  8
0
  6
Continuous
 62
     7
370
     0
100
AcDbTrace
 10
110.0392995829
 20
63.98343632
 30
0.0
 11
113.0392995829
 21
63.23343632
 31
0.0
 12
113.0392995829
 22
64.73343632
 32
0.0
 13
113.0392995829
 23
64.73343632
 33
0.0
  0
LINE
  5
206
330
201
100
AcDbEntity
  8
0
  6
Continuous
 62
     7
370
     0
100
AcDbLine
 10
90.4093904309
 20
89.2544997936
 30
0.0
 11
90.4093904309
 21
62.98343632
 31
0.0
  0
LINE
  5
207
330
201
100
AcDbEntity
  8
0
  6
Continuous
 62
     7
370
     0
100
AcDbLine
 10
110.0392995829
 20
89.2544997936
 30
0.0
 11
110.0392995829
 21
62.98343632
 31
0.0
  0
LINE
  5
208
330
201
100
AcDbEntity
  8
0
  6
Continuous
 62
     7
370
     0
100
AcDbLine
 10
90.4093904309
 20
63.98343632
 30
0.0
 11
85.4093904309
 21
63.98343632
 31
0.0
  0
LINE
  5
209
330
201
100
AcDbEntity
  8
0
  6
Continuous
 62
     7
370
     0
100
AcDbLine
 10
90.4093904309
 20
63.98343632
 30
0.0
 11
110.0392995829
 21
63.98343632
 31
0.0
  0
LINE
  5
20A
330
201
100
AcDbEntity
  8
0
  6
Continuous
 62
     7
370
     0
100
AcDbLine
 10
110.0392995829
 20
63.98343632
 30
0.0
 11
115.0392995829
 21
63.98343632
 31
0.0
  0
MTEXT
  5
20B
330
201
100
AcDbEntity
  8
0
  6
Continuous
 62
     7
370
     0
100
AcDbMText
 10
95.1323313796
 20
68.4951731763
 30
0.1
 40
3.5
 41
0.0
 71
     1
 72
     1
  1
19.6
  7
SLDTEXTSTYLE0
 73
     1
 44
1.0
  0
ENDBLK
  5
203
330
201
100
AcDbEntity
  8
0
100
AcDbBlockEnd
  0
BLOCK
  5
20E
330
20D
100
AcDbEntity
  8
0
100
AcDbBlockBegin
  2
_D_8
 70
     0
 10
0.0
 20
0.0
 30
0.0
  3
_D_8
  1

  0
SOLID
  5
210
330
20D
100
AcDbEntity
  8
0
  6
Continuous
 62
     7
370
     0
100
AcDbTrace
 10
82.8824905953
 20
102.98358632
 30
0.0
 11
82.1324905953
 21
99.98358632
 31
0.0
 12
83.6324905953
 22
99.98358632
 32
0.0
 13
83.6324905953
 23
99.98358632
 33
0.0
  0
SOLID
  5
211
330
20D
100
AcDbEntity
  8
0
  6
Continuous
 62
     7
370
     0
100
AcDbTrace
 10
82.8824905953
 20
105.98358632
 30
0.0
 11
83.6324905953
 21
108.98358632
 31
0.0
 12
82.1324905953
 22
108.98358632
 32
0.0
 13
82.1324905953
 23
108.98358632
 33
0.0
  0
LINE
  5
212
330
20D
100
AcDbEntity
  8
0
  6
Continuous
 62
     7
370
     0
100
AcDbLine
 10
89.4093904307
 20
102.98358632
 30
0.0
 11
81.8824905953
 21
102.98358632
 31
0.0
  0
LINE
  5
213
330
20D
100
AcDbEntity
  8
0
  6
Continuous
 62
     7
370
     0
100
AcDbLine
 10
89.4093904307
 20
105.98358632
 30
0.0
 11
81.8824905953
 21
105.98358632
 31
0.0
  0
LINE
  5
214
330
20D
100
AcDbEntity
  8
0
  6
Continuous
 62
     7
370
     0
100
AcDbLine
 10
82.8824905953
 20
102.98358632
 30
0.0
 11
82.8824905953
 21
93.4467808225
 31
0.0
  0
LINE
  5
215
330
20D
100
AcDbEntity
  8
0
  6
Continuous
 62
     7
370
     0
100
AcDbLine
 10
82.8824905953
 20
102.98358632
 30
0.0
 11
82.8824905953
 21
105.98358632
 31
0.0
  0
LINE
  5
216
330
20D
100
AcDbEntity
  8
0
  6
Continuous
 62
     7
370
     0
100
AcDbLine
 10
82.8824905953
 20
105.98358632
 30
0.0
 11
82.8824905953
 21
110.98358632
 31
0.0
  0
MTEXT
  5
217
330
20D
100
AcDbEntity
  8
0
  6
Continuous
 62
     7
370
     0
100
AcDbMText
 10
78.3707537389
 20
93.4467808225
 30
0.1
 40
3.5
 41
0.0
 71
     1
 72
     1
  1
3
  7
SLDTEXTSTYLE0
 11
-3.491481338843133E-15
 21
1.0
 31
0.0
 73
     1
 44
1.0
  0
ENDBLK
  5
20F
330
20D
100
AcDbEntity
  8
0
100
AcDbBlockEnd
  0
BLOCK
  5
21A
330
219
100
AcDbEntity
  8
0
100
AcDbBlockBegin
  2
_D_9
 70
     0
 10
0.0
 20
0.0
 30
0.0
  3
_D_9
  1

  0
SOLID
  5
21C
330
219
100
AcDbEntity
  8
0
  6
Continuous
 62
     7
370
     0
100
AcDbTrace
 10
74.5106175389
 20
118.98358632
 30
0.0
 11
75.2606175389
 21
121.98358632
 31
0.0
 12
73.7606175389
 22
121.98358632
 32
0.0
 13
73.7606175389
 23
121.98358632
 33
0.0
  0
SOLID
  5
21D
330
219
100
AcDbEntity
  8
0
  6
Continuous
 62
     7
370
     0
100
AcDbTrace
 10
74.5106175389
 20
108.98358632
 30
0.0
 11
73.7606175389
 21
105.98358632
 31
0.0
 12
75.2606175389
 22
105.98358632
 32
0.0
 13
75.2606175389
 23
105.98358632
 33
0.0
  0
LINE
  5
21E
330
219
100
AcDbEntity
  8
0
  6
Continuous
 62
     7
370
     0
100
AcDbLine
 10
99.2243450077
 20
118.98358632
 30
0.0
 11
73.5106175389
 21
118.98358632
 31
0.0
  0
LINE
  5
21F
330
219
100
AcDbEntity
  8
0
  6
Continuous
 62
     7
370
     0
100
AcDbLine
 10
95.2243450069
 20
108.98358632
 30
0.0
 11
73.5106175389
 21
108.98358632
 31
0.0
  0
LINE
  5
220
330
219
100
AcDbEntity
  8
0
  6
Continuous
 62
     7
370
     0
100
AcDbLine
 10
74.5106175389
 20
118.98358632
 30
0.0
 11
74.5106175389
 21
123.98358632
 31
0.0
  0
LINE
  5
221
330
219
100
AcDbEntity
  8
0
  6
Continuous
 62
     7
370
     0
100
AcDbLine
 10
74.5106175389
 20
118.98358632
 30
0.0
 11
74.5106175389
 21
108.98358632
 31
0.0
  0
LINE
  5
222
330
219
100
AcDbEntity
  8
0
  6
Continuous
 62
     7
370
     0
100
AcDbLine
 10
74.5106175389
 20
108.98358632
 30
0.0
 11
74.5106175389
 21
103.98358632
 31
0.0
  0
MTEXT
  5
223
330
219
100
AcDbEntity
  8
0
  6
Continuous
 62
     7
370
     0
100
AcDbMText
 10
69.9988806826
 20
108.8915726927
 30
0.1
 40
3.5
 41
0.0
 71
     1
 72
     1
  1
10
  7
SLDTEXTSTYLE0
 11
-1.059690869644414E-14
 21
1.0
 31
0.0
 73
     1
 44
1.0
  0
MTEXT
  5
224
330
219
100
AcDbEntity
  8
0
  6
Continuous
 62
     7
370
     0
100
AcDbMText
 10
69.9988806826
 20
115.0019894179
 30
0.1
 40
3.5
 41
0.0
 71
     1
 72
     1
  1
st
  7
SLDTEXTSTYLE0
 11
-1.059690869644414E-14
 21
1.0
 31
0.0
 73
     1
 44
1.0
  0
ENDBLK
  5
21B
330
219
100
AcDbEntity
  8
0
100
AcDbBlockEnd
  0
BLOCK
  5
226
330
225
100
AcDbEntity
  8
0
100
AcDbBlockBegin
  2
SW_NOTE_0
 70
     0
 10
0.0
 20
0.0
 30
0.0
  3
SW_NOTE_0
  1

  0
LINE
  5
228
330
225
100
AcDbEntity
  8
0
  6
Continuous
 62
     0
370
     0
100
AcDbLine
 10
-4.0332147094
 20
0.0038552788
 30
0.0
 11
0.0
 21
0.0038552788
 31
0.0
  0
LINE
  5
229
330
225
100
AcDbEntity
  8
0
  6
Continuous
 62
     0
370
     0
100
AcDbLine
 10
0.0
 20
0.0038552788
 30
0.0
 11
-4.0332147094
 21
0.0038552788
 31
0.0
  0
LINE
  5
22A
330
225
100
AcDbEntity
  8
0
  6
Continuous
 62
     0
370
     0
100
AcDbLine
 10
-4.0332147094
 20
0.0038552788
 30
0.0
 11
0.0
 21
0.0038552788
 31
0.0
  0
LINE
  5
22B
330
225
100
AcDbEntity
  8
0
  6
Continuous
 62
     0
370
     0
100
AcDbLine
 10
0.0
 20
0.0038552788
 30
0.0
 11
-4.0332147094
 21
0.0038552788
 31
0.0
  0
LINE
  5
22C
330
225
100
AcDbEntity
  8
0
  6
Continuous
 62
     0
370
     0
100
AcDbLine
 10
-4.0332147094
 20
0.0038552788
 30
0.0
 11
0.0
 21
0.0038552788
 31
0.0
  0
LINE
  5
22D
330
225
100
AcDbEntity
  8
0
  6
Continuous
 62
     0
370
     0
100
AcDbLine
 10
0.0
 20
0.0038552788
 30
0.0
 11
-4.0332147094
 21
0.0038552788
 31
0.0
  0
MTEXT
  5
22E
330
225
100
AcDbEntity
  8
0
  6
Continuous
 62
     0
370
     0
100
AcDbMText
 10
-3.9572210305
 20
4.5610143859
 30
0.0
 40
3.5
 41
0.0
 71
     1
 72
     1
  1
PF
  7
SLDTEXTSTYLE0
 73
     1
 44
1.0
  0
ENDBLK
  5
227
330
225
100
AcDbEntity
  8
0
100
AcDbBlockEnd
  0
BLOCK
  5
232
330
231
100
AcDbEntity
  8
0
100
AcDbBlockBegin
  2
_OPEN30
 70
     0
 10
0.0
 20
0.0
 30
0.0
  3
_OPEN30
  1

  0
LINE
  5
234
330
231
100
AcDbEntity
  8
0
  6
ByBlock
 62
     0
370
    -2
100
AcDbLine
 10
-1.0
 20
0.267949
 30
0.0
 11
0.0
 21
0.0
 31
0.0
  0
LINE
  5
235
330
231
100
AcDbEntity
  8
0
  6
ByBlock
 62
     0
370
    -2
100
AcDbLine
 10
0.0
 20
0.0
 30
0.0
 11
-1.0
 21
-0.267949
 31
0.0
  0
LINE
  5
236
330
231
100
AcDbEntity
  8
0
  6
ByBlock
 62
     0
370
    -2
100
AcDbLine
 10
0.0
 20
0.0
 30
0.0
 11
-1.0
 21
0.0
 31
0.0
  0
ENDBLK
  5
233
330
231
100
AcDbEntity
  8
0
100
AcDbBlockEnd
  0
BLOCK
  5
239
330
238
100
AcDbEntity
  8
0
100
AcDbBlockBegin
  2
SW_NOTE_1
 70
     0
 10
0.0
 20
0.0
 30
0.0
  3
SW_NOTE_1
  1

  0
LINE
  5
23B
330
238
100
AcDbEntity
  8
0
  6
Continuous
 62
     0
370
     0
100
AcDbLine
 10
0.0
 20
0.0038552788
 30
0.0
 11
8.0664294187
 21
0.0038552788
 31
0.0
  0
LINE
  5
23C
330
238
100
AcDbEntity
  8
0
  6
Continuous
 62
     0
370
     0
100
AcDbLine
 10
8.0664294187
 20
0.0038552788
 30
0.0
 11
0.0
 21
0.0038552788
 31
0.0
  0
LINE
  5
23D
330
238
100
AcDbEntity
  8
0
  6
Continuous
 62
     0
370
     0
100
AcDbLine
 10
0.0
 20
0.0038552788
 30
0.0
 11
8.0664294187
 21
0.0038552788
 31
0.0
  0
LINE
  5
23E
330
238
100
AcDbEntity
  8
0
  6
Continuous
 62
     0
370
     0
100
AcDbLine
 10
8.0664294187
 20
0.0038552788
 30
0.0
 11
0.0
 21
0.0038552788
 31
0.0
  0
LINE
  5
23F
330
238
100
AcDbEntity
  8
0
  6
Continuous
 62
     0
370
     0
100
AcDbLine
 10
0.0
 20
0.0038552788
 30
0.0
 11
8.0664294187
 21
0.0038552788
 31
0.0
  0
LINE
  5
240
330
238
100
AcDbEntity
  8
0
  6
Continuous
 62
     0
370
     0
100
AcDbLine
 10
8.0664294187
 20
0.0038552788
 30
0.0
 11
0.0
 21
0.0038552788
 31
0.0
  0
MTEXT
  5
241
330
238
100
AcDbEntity
  8
0
  6
Continuous
 62
     0
370
     0
100
AcDbMText
 10
0.0353677831
 20
4.6264491604
 30
0.0
 40
3.5
 41
0.0
 71
     1
 72
     1
  1
BF-6
  7
SLDTEXTSTYLE0
 73
     1
 44
1.0
  0
ENDBLK
  5
23A
330
238
100
AcDbEntity
  8
0
100
AcDbBlockEnd
  0
BLOCK
  5
245
330
244
100
AcDbEntity
  8
0
100
AcDbBlockBegin
  2
SW_NOTE_2
 70
     0
 10
0.0
 20
0.0
 30
0.0
  3
SW_NOTE_2
  1

  0
LINE
  5
247
330
244
100
AcDbEntity
  8
0
  6
Continuous
 62
     0
370
     0
100
AcDbLine
 10
-0.0187863263
 20
0.0829875404
 30
0.0
 11
18.2493038279
 21
0.0829875404
 31
0.0
  0
LINE
  5
248
330
244
100
AcDbEntity
  8
0
  6
Continuous
 62
     0
370
     0
100
AcDbLine
 10
18.2493038279
 20
0.0829875404
 30
0.0
 11
-0.0187863263
 21
0.0829875404
 31
0.0
  0
LINE
  5
249
330
244
100
AcDbEntity
  8
0
  6
Continuous
 62
     0
370
     0
100
AcDbLine
 10
-0.0187863263
 20
0.0829875404
 30
0.0
 11
18.2493038279
 21
0.0829875404
 31
0.0
  0
LINE
  5
24A
330
244
100
AcDbEntity
  8
0
  6
Continuous
 62
     0
370
     0
100
AcDbLine
 10
18.2493038279
 20
0.0829875404
 30
0.0
 11
-0.0187863263
 21
0.0829875404
 31
0.0
  0
LINE
  5
24B
330
244
100
AcDbEntity
  8
0
  6
Continuous
 62
     0
370
     0
100
AcDbLine
 10
-0.0187863263
 20
0.0829875404
 30
0.0
 11
18.2493038279
 21
0.0829875404
 31
0.0
  0
LINE
  5
24C
330
244
100
AcDbEntity
  8
0
  6
Continuous
 62
     0
370
     0
100
AcDbLine
 10
18.2493038279
 20
0.0829875404
 30
0.0
 11
-0.0187863263
 21
0.0829875404
 31
0.0
  0
MTEXT
  5
24D
330
244
100
AcDbEntity
  8
0
  6
Continuous
 62
     0
370
     0
100
AcDbMText
 10
0.0
 20
4.5117370892
 30
0.0
 40
3.5
 41
0.0
 71
     1
 72
     1
  1
M12 P=1.0
  7
SLDTEXTSTYLE0
 73
     1
 44
1.0
  0
ENDBLK
  5
246
330
244
100
AcDbEntity
  8
0
100
AcDbBlockEnd
  0
BLOCK
  5
2C1
330
2C0
100
AcDbEntity
  8
0
100
AcDbBlockBegin
  2
SW_NOTE_3
 70
     0
 10
0.0
 20
0.0
 30
0.0
  3
SW_NOTE_3
  1

  0
LINE
  5
2C3
330
2C0
100
AcDbEntity
  8
0
  6
Continuous
 62
     0
370
     0
100
AcDbLine
 10
-0.047750215
 20
-0.0087991875
 30
0.0
 11
3.9854644944
 21
-0.0087991875
 31
0.0
  0
LINE
  5
2C4
330
2C0
100
AcDbEntity
  8
0
  6
Continuous
 62
     0
370
     0
100
AcDbLine
 10
3.9854644944
 20
-0.0087991875
 30
0.0
 11
-0.047750215
 21
-0.0087991875
 31
0.0
  0
LINE
  5
2C5
330
2C0
100
AcDbEntity
  8
0
  6
Continuous
 62
     0
370
     0
100
AcDbLine
 10
-0.047750215
 20
-0.0087991875
 30
0.0
 11
3.9854644944
 21
-0.0087991875
 31
0.0
  0
LINE
  5
2C6
330
2C0
100
AcDbEntity
  8
0
  6
Continuous
 62
     0
370
     0
100
AcDbLine
 10
3.9854644944
 20
-0.0087991875
 30
0.0
 11
-0.047750215
 21
-0.0087991875
 31
0.0
  0
LINE
  5
2C7
330
2C0
100
AcDbEntity
  8
0
  6
Continuous
 62
     0
370
     0
100
AcDbLine
 10
-0.047750215
 20
-0.0087991875
 30
0.0
 11
3.9854644944
 21
-0.0087991875
 31
0.0
  0
LINE
  5
2C8
330
2C0
100
AcDbEntity
  8
0
  6
Continuous
 62
     0
370
     0
100
AcDbLine
 10
3.9854644944
 20
-0.0087991875
 30
0.0
 11
-0.047750215
 21
-0.0087991875
 31
0.0
  0
MTEXT
  5
2C9
330
2C0
100
AcDbEntity
  8
0
  6
Continuous
 62
     0
370
     0
100
AcDbMText
 10
0.0
 20
4.5117370892
 30
0.0
 40
3.5
 41
0.0
 71
     1
 72
     1
  1
M5
  7
SLDTEXTSTYLE0
 73
     1
 44
1.0
  0
ENDBLK
  5
2C2
330
2C0
100
AcDbEntity
  8
0
100
AcDbBlockEnd
  0
ENDSEC
  0
SECTION
  2
ENTITIES
  0
LINE
  5
44
330
1F
100
AcDbEntity
  8
0
  6
Continuous
 62
     7
370
     0
100
AcDbLine
 10
20.2604743903
 20
285.0
 30
0.0
 11
196.7604743903
 21
285.0
 31
0.0
  0
LINE
  5
45
330
1F
100
AcDbEntity
  8
0
  6
Continuous
 62
     7
370
     0
100
AcDbLine
 10
20.2604743903
 20
285.0
 30
0.0
 11
20.2604743903
 21
10.0
 31
0.0
  0
LINE
  5
46
330
1F
100
AcDbEntity
  8
0
  6
Continuous
 62
     7
370
     0
100
AcDbLine
 10
20.2604743903
 20
10.0
 30
0.0
 11
196.7604743903
 21
10.0
 31
0.0
  0
LINE
  5
47
330
1F
100
AcDbEntity
  8
0
  6
Continuous
 62
     7
370
     0
100
AcDbLine
 10
196.7604743903
 20
285.0
 30
0.0
 11
196.7604743903
 21
10.0
 31
0.0
  0
LINE
  5
48
330
1F
100
AcDbEntity
  8
0
  6
Continuous
 62
     7
370
     0
100
AcDbLine
 10
127.0104743903
 20
50.75
 30
0.0
 11
196.7604743903
 21
50.75
 31
0.0
  0
LINE
  5
49
330
1F
100
AcDbEntity
  8
0
  6
Continuous
 62
     7
370
     0
100
AcDbLine
 10
127.0104743903
 20
50.75
 30
0.0
 11
127.0104743903
 21
10.0
 31
0.0
  0
LINE
  5
4A
330
1F
100
AcDbEntity
  8
0
  6
Continuous
 62
     7
370
     0
100
AcDbLine
 10
127.0104743903
 20
22.75
 30
0.0
 11
196.7604743903
 21
22.75
 31
0.0
  0
LINE
  5
4B
330
1F
100
AcDbEntity
  8
0
  6
Continuous
 62
     7
370
     0
100
AcDbLine
 10
127.0104743903
 20
36.75
 30
0.0
 11
196.7604743903
 21
36.75
 31
0.0
  0
MTEXT
  5
4D
330
1F
100
AcDbEntity
  8
0
  6
Continuous
 62
     7
370
     0
100
AcDbMText
 10
161.885960998
 20
30.4171582345
 30
0.0
 40
4.2333333333
 41
0.0
 71
     2
 72
     1
  1
VFIL-S-10A
  7
SLDTEXTSTYLE0
 73
     1
 44
1.0
  0
MTEXT
  5
4E
330
1F
100
AcDbEntity
  8
0
  6
Continuous
 62
     7
370
     0
100
AcDbMText
 10
159.9011939813
 20
43.9409718514
 30
0.0
 40
4.2333333333
 41
0.0
 71
     2
 72
     1
  1
吸着金具・スモール用(M5)
  7
SLDTEXTSTYLE0
 73
     1
 44
1.0
  0
MTEXT
  5
4F
330
1F
100
AcDbEntity
  8
0
  6
Continuous
 62
     7
370
     0
100
AcDbMText
 10
162.5951943719
 20
16.8228189052
 30
0.0
 40
4.2333333333
 41
0.0
 71
     2
 72
     1
  1
210975
  7
SLDTEXTSTYLE0
 73
     1
 44
1.0
  0
LINE
  5
50
330
1F
100
AcDbEntity
  8
0
  6
Continuous
 62
     7
370
     0
100
AcDbLine
 10
107.0243450069
 20
129.98358632
 30
0.0
 11
106.2243450069
 21
129.98358632
 31
0.0
  0
LINE
  5
51
330
1F
100
AcDbEntity
  8
0
  6
Continuous
 62
     7
370
     0
100
AcDbLine
 10
94.2243450069
 20
129.98358632
 30
0.0
 11
93.4243450069
 21
129.98358632
 31
0.0
  0
LINE
  5
52
330
1F
100
AcDbEntity
  8
0
  6
Continuous
 62
     7
370
     0
100
AcDbLine
 10
93.4243450069
 20
121.98358632
 30
0.0
 11
94.2243450069
 21
121.98358632
 31
0.0
  0
LINE
  5
53
330
1F
100
AcDbEntity
  8
0
  6
Continuous
 62
     7
370
     0
100
AcDbLine
 10
106.2243450069
 20
121.98358632
 30
0.0
 11
107.0243450069
 21
121.98358632
 31
0.0
  0
LINE
  5
54
330
1F
100
AcDbEntity
  8
0
  6
Continuous
 62
     7
370
     0
100
AcDbLine
 10
114.5243450069
 20
127.98358632
 30
0.0
 11
112.0243450069
 21
128.33358632
 31
0.0
  0
LINE
  5
55
330
1F
100
AcDbEntity
  8
0
  6
Continuous
 62
     7
370
     0
100
AcDbLine
 10
117.0243450069
 20
127.98358632
 30
0.0
 11
114.5243450069
 21
128.33358632
 31
0.0
  0
LINE
  5
56
330
1F
100
AcDbEntity
  8
0
  6
Continuous
 62
     7
370
     0
100
AcDbLine
 10
112.0243450069
 20
128.08358632
 30
0.0
 11
109.5243450069
 21
128.08358632
 31
0.0
  0
LINE
  5
57
330
1F
100
AcDbEntity
  8
0
  6
Continuous
 62
     7
370
     0
100
AcDbLine
 10
109.5243450069
 20
123.88358632
 30
0.0
 11
112.0243450069
 21
123.88358632
 31
0.0
  0
LINE
  5
58
330
1F
100
AcDbEntity
  8
0
  6
Continuous
 62
     7
370
     0
100
AcDbLine
 10
114.5243450069
 20
123.63358632
 30
0.0
 11
117.0243450069
 21
123.98358632
 31
0.0
  0
LINE
  5
59
330
1F
100
AcDbEntity
  8
0
  6
Continuous
 62
     7
370
     0
100
AcDbLine
 10
112.0243450069
 20
123.63358632
 30
0.0
 11
114.5243450069
 21
123.98358632
 31
0.0
  0
LINE
  5
5A
330
1F
100
AcDbEntity
  8
0
  6
Continuous
 62
     7
370
     0
100
AcDbLine
 10
96.4957074029
 20
87.88358632
 30
0.0
 11
96.4957074029
 21
87.28358632
 31
0.0
  0
SPLINE
  5
5B
330
1F
100
AcDbEntity
  8
0
  6
Continuous
 62
     7
370
     0
100
AcDbSpline
210
0.0
220
0.0
230
1.0
 70
     8
 71
     3
 72
    15
 73
    11
 74
     0
 42
0.00000001
 43
0.00000001
 12
1.0
 22
0.0
 32
0.0
 13
1.0
 23
0.0
 33
0.0
 40
0.0
 40
0.0
 40
0.0
 40
0.0
 40
0.0978898481092971
 40
0.1925881514387854
 40
0.2853591133978792
 40
0.3787605421270405
 40
0.5717098253548856
 40
0.774246371809879
 40
0.9778660097046663
 40
1.0
 40
1.0
 40
1.0
 40
1.0
 10
94.22447055292484
 20
119.5750977417389
 30
0.0
 10
94.24110560255984
 20
119.4725592461366
 30
0.0
 10
94.27383334215877
 20
119.2708253615636
 30
0.0
 10
94.46357686638859
 20
119.0808067809023
 30
0.0
 10
94.65829765417176
 20
118.9651699484763
 30
0.0
 10
94.9395729932851
 20
118.8529057358842
 30
0.0
 10
95.4197586054022
 20
118.7229276687059
 30
0.0
 10
96.17030679320709
 20
118.5850812539361
 30
0.0
 10
96.79440707848458
 20
118.4875721390453
 30
0.0
 10
97.18595566740517
 20
118.4365544012603
 30
0.0
 10
97.22434500686695
 20
118.4315523726238
 30
0.0
  0
SPLINE
  5
5C
330
1F
100
AcDbEntity
  8
0
  6
Continuous
 62
     7
370
     0
100
AcDbSpline
210
0.0
220
0.0
230
1.0
 70
     8
 71
     3
 72
     9
 73
     5
 74
     0
 42
0.00000001
 43
0.00000001
 12
1.0
 22
0.0
 32
0.0
 13
1.0
 23
0.0
 33
0.0
 40
0.0
 40
0.0
 40
0.0
 40
0.0
 40
0.5921565881891001
 40
1.0
 40
1.0
 40
1.0
 40
1.0
 10
103.2243450068669
 20
117.6961149444927
 30
0.0
 10
103.408995418985
 20
117.670019938615
 30
0.0
 10
103.7208224184663
 20
117.6259521930249
 30
0.0
 10
103.9829963717599
 20
117.5821917304221
 30
0.0
 10
104.089922291359
 20
117.5643443140518
 30
0.0
  0
SPLINE
  5
5D
330
1F
100
AcDbEntity
  8
0
  6
Continuous
 62
     7
370
     0
100
AcDbSpline
210
0.0
220
0.0
230
1.0
 70
     8
 71
     3
 72
    19
 73
    15
 74
     0
 42
0.00000001
 43
0.00000001
 12
1.0
 22
0.0
 32
0.0
 13
1.0
 23
0.0
 33
0.0
 40
0.0
 40
0.0
 40
0.0
 40
0.0
 40
0.0760934086326864
 40
0.1462336705020294
 40
0.2274224621569413
 40
0.313418205710253
 40
0.3800197605591594
 40
0.4445094387035154
 40
0.5186585241329205
 40
0.6073551092197049
 40
0.7105414545519851
 40
0.8278581259840321
 40
0.9446372266864808
 40
1.0
 40
1.0
 40
1.0
 40
1.0
 10
94.2247682711114
 20
115.5755077510577
 30
0.0
 10
94.23571977250776
 20
115.4912865770287
 30
0.0
 10
94.25676598761989
 20
115.3294332492102
 30
0.0
 10
94.37659282324313
 20
115.1658456885751
 30
0.0
 10
94.53174295944665
 20
115.0338812440139
 30
0.0
 10
94.7182608139475
 20
114.9371929802673
 30
0.0
 10
94.91611640853972
 20
114.8638560005571
 30
0.0
 10
95.08401333312824
 20
114.8138066130228
 30
0.0
 10
95.29420903354354
 20
114.7591756805234
 30
0.0
 10
95.57461982696803
 20
114.6970442165051
 30
0.0
 10
95.9466944980226
 20
114.6257449738871
 30
0.0
 10
96.40882795385133
 20
114.5488014043187
 30
0.0
 10
96.84459650676551
 20
114.4829668587926
 30
0.0
 10
97.13193401494195
 20
114.4439750017158
 30
0.0
 10
97.22434500686695
 20
114.4314347795488
 30
0.0
  0
SPLINE
  5
5E
330
1F
100
AcDbEntity
  8
0
  6
Continuous
 62
     7
370
     0
100
AcDbSpline
210
0.0
220
0.0
230
1.0
 70
     8
 71
     3
 72
    10
 73
     6
 74
     0
 42
0.00000001
 43
0.00000001
 12
1.0
 22
0.0
 32
0.0
 13
1.0
 23
0.0
 33
0.0
 40
0.0
 40
0.0
 40
0.0
 40
0.0
 40
0.1669595969518834
 40
0.6779854183602401
 40
1.0
 40
1.0
 40
1.0
 40
1.0
 10
103.2243450068669
 20
113.6955982994986
 30
0.0
 10
103.277826100697
 20
113.6882703223457
 30
0.0
 10
103.4950008090497
 20
113.6585130532435
 30
0.0
 10
103.7886842907574
 20
113.614764377147
 30
0.0
 10
104.0057840232303
 20
113.5786024012874
 30
0.0
 10
104.0897046581366
 20
113.564623867371
 30
0.0
  0
SPLINE
  5
5F
330
1F
100
AcDbEntity
  8
0
  6
Continuous
 62
     7
370
     0
100
AcDbSpline
210
0.0
220
0.0
230
1.0
 70
     8
 71
     3
 72
    18
 73
    14
 74
     0
 42
0.00000001
 43
0.00000001
 12
1.0
 22
0.0
 32
0.0
 13
1.0
 23
0.0
 33
0.0
 40
0.0
 40
0.0
 40
0.0
 40
0.0
 40
0.067542400090889
 40
0.1282051199081915
 40
0.2289242353831505
 40
0.3065066753569264
 40
0.3834049776437123
 40
0.4972993673381481
 40
0.6241569491527452
 40
0.7639554231991269
 40
0.8773900376994505
 40
0.9975971473398314
 40
0.9999999999999999
 40
0.9999999999999999
 40
0.9999999999999999
 40
0.9999999999999999
 10
94.2245045085781
 20
111.5753760151446
 30
0.0
 10
94.23114330978227
 20
111.507056625185
 30
0.0
 10
94.24374470243757
 20
111.377376667558
 30
0.0
 10
94.35694622571376
 20
111.179062147581
 30
0.0
 10
94.54136420120325
 20
111.024262555607
 30
0.0
 10
94.7202788509429
 20
110.9385057161191
 30
0.0
 10
94.91538407410603
 20
110.8646506038602
 30
0.0
 10
95.20190239119673
 20
110.7813407920256
 30
0.0
 10
95.61289782383824
 20
110.6885442296621
 30
0.0
 10
96.0980415565577
 20
110.599089365973
 30
0.0
 10
96.64391186944557
 20
110.5131101567393
 30
0.0
 10
97.01008343126792
 20
110.459341257778
 30
0.0
 10
97.22022671709753
 20
110.4314996022705
 30
0.0
 10
97.22434500686695
 20
110.4309539745357
 30
0.0
  0
SPLINE
  5
60
330
1F
100
AcDbEntity
  8
0
  6
Continuous
 62
     7
370
     0
100
AcDbSpline
210
0.0
220
0.0
230
1.0
 70
     8
 71
     3
 72
     9
 73
     5
 74
     0
 42
0.00000001
 43
0.00000001
 12
1.0
 22
0.0
 32
0.0
 13
1.0
 23
0.0
 33
0.0
 40
0.0
 40
0.0
 40
0.0
 40
0.0
 40
0.5045813667717657
 40
1.0
 40
1.0
 40
1.0
 40
1.0
 10
103.2243450068669
 20
109.695877937516
 30
0.0
 10
103.3836478014682
 20
109.6735341392951
 30
0.0
 10
103.6993605984357
 20
109.6292522856787
 30
0.0
 10
103.9637405752057
 20
109.5863969824295
 30
0.0
 10
104.09471934195
 20
109.5651656666672
 30
0.0
  0
SPLINE
  5
61
330
1F
100
AcDbEntity
  8
0
  6
Continuous
 62
     7
370
     0
100
AcDbSpline
210
0.0
220
0.0
230
1.0
 70
     8
 71
     3
 72
    14
 73
    10
 74
     0
 42
0.00000001
 43
0.00000001
 12
1.0
 22
0.0
 32
0.0
 13
1.0
 23
0.0
 33
0.0
 40
0.0
 40
0.0
 40
0.0
 40
0.0
 40
0.096800210805574
 40
0.1862583066839194
 40
0.3428760682121788
 40
0.4735423193147884
 40
0.5923822092616154
 40
0.8266313096680226
 40
1.0
 40
1.0
 40
1.0
 40
1.0
 10
94.2247457471187
 20
107.5755602137672
 30
0.0
 10
94.23022079127277
 20
107.5124047453554
 30
0.0
 10
94.24075560772278
 20
107.3908840326803
 30
0.0
 10
94.34291284310743
 20
107.1977595092196
 30
0.0
 10
94.5192174241704
 20
107.0373290316489
 30
0.0
 10
94.71893146630472
 20
106.9382322795927
 30
0.0
 10
94.95015893556155
 20
106.8523206682177
 30
0.0
 10
95.27057007473238
 20
106.7604954574514
 30
0.0
 10
95.58893675167877
 20
106.6978467875445
 30
0.0
 10
95.72434500686695
 20
106.6712009489683
 30
0.0
  0
LWPOLYLINE
  5
62
330
1F
100
AcDbEntity
  8
0
  6
Continuous
 62
     7
370
     0
100
AcDbPolyline
 90
       29
 70
   128
 43
0.0
 10
95.1557218786
 20
107.308484184
 10
95.1656197395
 20
107.3029147309
 10
95.2129835639
 20
107.3162727681
 10
95.2702845708
 20
107.3345370973
 10
95.4367429492
 20
107.3813106824
 10
95.7264526871
 20
107.4485244312
 10
96.1854253691
 20
107.5361672648
 10
96.6695583566
 20
107.6152989791
 10
97.291514312
 20
107.7056473891
 10
97.9524304044
 20
107.79312037
 10
98.5668241668
 20
107.8695811912
 10
99.2745226409
 20
107.9541477744
 10
99.8263182436
 20
108.0185969531
 10
100.2071260401
 20
108.0627288308
 10
100.580939774
 20
108.1060116505
 10
101.1244962936
 20
108.1693016921
 10
101.82725578
 20
108.2527324104
 10
102.4439338172
 20
108.3286272396
 10
103.0962070901
 20
108.4133784431
 10
103.6881934047
 20
108.4966492674
 10
104.2093410029
 20
108.5778561444
 10
104.7946585014
 20
108.6840814134
 10
105.2589212264
 20
108.7897432013
 10
105.6139592355
 20
108.8982254601
 10
105.8373129464
 20
108.9986128307
 10
106.0286664304
 20
109.1357052594
 10
106.1693051445
 20
109.3268292523
 10
106.2239391447
 20
109.5756089519
 10
106.2239391447
 20
109.5756089519
  0
SPLINE
  5
63
330
1F
100
AcDbEntity
  8
0
  6
Continuous
 62
     7
370
     0
100
AcDbSpline
210
0.0
220
0.0
230
1.0
 70
     8
 71
     3
 72
    36
 73
    32
 74
     0
 42
0.00000001
 43
0.00000001
 12
1.0
 22
0.0
 32
0.0
 13
1.0
 23
0.0
 33
0.0
 40
0.0
 40
0.0
 40
0.0
 40
0.0
 40
0.0126050521188723
 40
0.0453989311635854
 40
0.0767145078440665
 40
0.1067366683732325
 40
0.1385541066274349
 40
0.1729179893596139
 40
0.2098294601930217
 40
0.2492985670816915
 40
0.291290168785748
 40
0.330717337006268
 40
0.3639397574480581
 40
0.3909251230616419
 40
0.4116437690822602
 40
0.4273282376311982
 40
0.4546211057202406
 40
0.4918861513617113
 40
0.5391728345912361
 40
0.5812631583465863
 40
0.6288145350931841
 40
0.675621976929531
 40
0.7189654004848494
 40
0.7713567734016928
 40
0.8175868298674138
 40
0.8576161014292656
 40
0.8838811181291096
 40
0.914624069137229
 40
0.9540607356844036
 40
0.9773590139547667
 40
0.9999999999999999
 40
0.9999999999999999
 40
0.9999999999999999
 40
0.9999999999999999
 10
95.16342461533469
 20
111.3181985200098
 30
0.0
 10
95.16316956287399
 20
111.3144124459414
 30
0.0
 10
95.16225095428776
 20
111.3007763487332
 30
0.0
 10
95.23023511944582
 20
111.3256324810973
 30
0.0
 10
95.37151836529677
 20
111.365325473906
 30
0.0
 10
95.59547833339084
 20
111.4214146322691
 30
0.0
 10
95.87077255891244
 20
111.4791413472791
 30
0.0
 10
96.21430496044606
 20
111.5423705149524
 30
0.0
 10
96.63439259003178
 20
111.6109132283034
 30
0.0
 10
97.13548832699384
 20
111.684741723726
 30
0.0
 10
97.69508437035292
 20
111.7605183620784
 30
0.0
 10
98.26207484203098
 20
111.8325226857606
 30
0.0
 10
98.77655671402844
 20
111.8951477475508
 30
0.0
 10
99.20513158846303
 20
111.9460467746903
 30
0.0
 10
99.54556937850394
 20
111.9859370861934
 30
0.0
 10
99.89017646465899
 20
112.0260382024795
 30
0.0
 10
100.3266604014314
 20
112.0765670918478
 30
0.0
 10
100.9354737890813
 20
112.147050854987
 30
0.0
 10
101.6162215621827
 20
112.2269718893046
 30
0.0
 10
102.328477319204
 20
112.313493961019
 30
0.0
 10
103.002562688506
 20
112.3998125377947
 30
0.0
 10
103.6336749345909
 20
112.4872839374515
 30
0.0
 10
104.2277265866327
 20
112.578537323253
 30
0.0
 10
104.7479429665917
 20
112.67101947287
 30
0.0
 10
105.1747311164415
 20
112.7629906573944
 30
0.0
 10
105.465822704356
 20
112.8433547788268
 30
0.0
 10
105.6646282402088
 20
112.9106714490081
 30
0.0
 10
105.8970983659716
 20
113.0161513140475
 30
0.0
 10
106.0900599608436
 20
113.1808114080781
 30
0.0
 10
106.2029390638206
 20
113.375228106339
 30
0.0
 10
106.214569209781
 20
113.4940391597854
 30
0.0
 10
106.2203010815538
 20
113.5525947209851
 30
0.0
  0
SPLINE
  5
64
330
1F
100
AcDbEntity
  8
0
  6
Continuous
 62
     7
370
     0
100
AcDbSpline
210
0.0
220
0.0
230
1.0
 70
     8
 71
     3
 72
    38
 73
    34
 74
     0
 42
0.00000001
 43
0.00000001
 12
1.0
 22
0.0
 32
0.0
 13
1.0
 23
0.0
 33
0.0
 40
0.0
 40
0.0
 40
0.0
 40
0.0
 40
0.0143974351078825
 40
0.0309996068502264
 40
0.040880952336364
 40
0.0511488309967343
 40
0.0624509697220316
 40
0.074795613761688
 40
0.102626018603861
 40
0.1346814034571932
 40
0.1709827524219672
 40
0.2115263323418733
 40
0.2531349178241558
 40
0.2900571228510788
 40
0.3279675720192793
 40
0.3588558643782577
 40
0.3826823441131703
 40
0.4001492545356027
 40
0.4214058646686707
 40
0.453310010768499
 40
0.4939575164966514
 40
0.543381202870401
 40
0.5850659783179156
 40
0.6267760951900111
 40
0.6682735663045499
 40
0.7096052314269641
 40
0.7644890423090793
 40
0.8192171075041647
 40
0.8728235132709345
 40
0.9098278489631286
 40
0.9441224933763881
 40
0.9759058746556514
 40
0.9999999999999999
 40
0.9999999999999999
 40
0.9999999999999999
 40
0.9999999999999999
 10
95.25592812598445
 20
115.3805288253695
 30
0.0
 10
95.26078070657496
 20
115.3745366207847
 30
0.0
 10
95.271228962767
 20
115.3616346014388
 30
0.0
 10
95.29756782584872
 20
115.3584588769732
 30
0.0
 10
95.34031594193429
 20
115.3658428862053
 30
0.0
 10
95.38577633659499
 20
115.3756438329448
 30
0.0
 10
95.44321784569549
 20
115.3886555994531
 30
0.0
 10
95.54349149769426
 20
115.4114109785786
 30
0.0
 10
95.71277394435351
 20
115.4482410386255
 30
0.0
 10
95.98778668421774
 20
115.5021463971523
 30
0.0
 10
96.35501646933123
 20
115.5663848844826
 30
0.0
 10
96.81349739163844
 20
115.6382657849284
 30
0.0
 10
97.32705057595356
 20
115.7113442973566
 30
0.0
 10
97.86786647211306
 20
115.782805541902
 30
0.0
 10
98.38685471779274
 20
115.8478622537083
 30
0.0
 10
98.85872408857226
 20
115.9049498658666
 30
0.0
 10
99.23456755581513
 20
115.9494966894068
 30
0.0
 10
99.56428541732113
 20
115.9881376510574
 30
0.0
 10
99.93943745662416
 20
116.0317675673006
 30
0.0
 10
100.4406557305518
 20
116.0897350429951
 30
0.0
 10
101.0912577489611
 20
116.1651503922656
 30
0.0
 10
101.7817535262554
 20
116.2467070687515
 30
0.0
 10
102.4514153228165
 20
116.328881063752
 30
0.0
 10
103.0524200382586
 20
116.4066102764852
 30
0.0
 10
103.6145945903782
 20
116.4848787181931
 30
0.0
 10
104.1880898290878
 20
116.5728204632804
 30
0.0
 10
104.7474121051523
 20
116.6717575935473
 30
0.0
 10
105.2523199548666
 20
116.7844426889115
 30
0.0
 10
105.6035213161794
 20
116.888686303457
 30
0.0
 10
105.8704439210215
 20
117.0093609767801
 30
0.0
 10
106.0545277583488
 20
117.1493583955589
 30
0.0
 10
106.1872095649481
 20
117.3170118752532
 30
0.0
 10
106.2072162653954
 20
117.4691950202725
 30
0.0
 10
106.2158430631434
 20
117.5348156965152
 30
0.0
  0
SPLINE
  5
65
330
1F
100
AcDbEntity
  8
0
  6
Continuous
 62
     7
370
     0
100
AcDbSpline
210
0.0
220
0.0
230
1.0
 70
     8
 71
     3
 72
    26
 73
    22
 74
     0
 42
0.00000001
 43
0.00000001
 12
1.0
 22
0.0
 32
0.0
 13
1.0
 23
0.0
 33
0.0
 40
0.0
 40
0.0
 40
0.0
 40
0.0
 40
0.0020253039639379
 40
0.0315189530067118
 40
0.0605393014658797
 40
0.1216129483288419
 40
0.1866964187047115
 40
0.2543387815541988
 40
0.3199159091740147
 40
0.3829458745402558
 40
0.4433989815933584
 40
0.501794743020851
 40
0.5584352718109432
 40
0.614515524190424
 40
0.6761737508533827
 40
0.7443394955503059
 40
0.8197757529653029
 40
0.8609807924358917
 40
0.9046634772534872
 40
0.9509609588799851
 40
1.0
 40
1.0
 40
1.0
 40
1.0
 10
95.1383493808599
 20
119.2965382736858
 30
0.0
 10
95.13764148312562
 20
119.2953620444029
 30
0.0
 10
95.12662476868755
 20
119.2770568832251
 30
0.0
 10
95.19819122232836
 20
119.3196676495661
 30
0.0
 10
95.35420629166093
 20
119.3610529294545
 30
0.0
 10
95.68309814115803
 20
119.4452337835802
 30
0.0
 10
96.25921835801512
 20
119.5522037105364
 30
0.0
 10
97.00789830443247
 20
119.668229586604
 30
0.0
 10
97.85781370317329
 20
119.7824563565167
 30
0.0
 10
98.75535240215137
 20
119.8932438568954
 30
0.0
 10
99.66302256715042
 20
119.9999082154686
 30
0.0
 10
100.5551264760997
 20
120.1028903331479
 30
0.0
 10
101.4179189320112
 20
120.2032927462353
 30
0.0
 10
102.26901275279
 20
120.3056309875307
 30
0.0
 10
103.1240032146124
 20
120.4150681243586
 30
0.0
 10
103.9771277029515
 20
120.5364560911028
 30
0.0
 10
104.6286416909278
 20
120.6467943448079
 30
0.0
 10
105.111562760422
 20
120.74871447374
 30
0.0
 10
105.4480239065299
 20
120.8372532407331
 30
0.0
 10
105.7405516776998
 20
120.9375560208625
 30
0.0
 10
105.870902424616
 20
121.0146024877857
 30
0.0
 10
105.9379520238031
 20
121.0542335205814
 30
0.0
  0
SPLINE
  5
66
330
1F
100
AcDbEntity
  8
0
  6
Continuous
 62
     7
370
     0
100
AcDbSpline
210
0.0
220
0.0
230
1.0
 70
     8
 71
     3
 72
    29
 73
    25
 74
     0
 42
0.00000001
 43
0.00000001
 12
1.0
 22
0.0
 32
0.0
 13
1.0
 23
0.0
 33
0.0
 40
0.0
 40
0.0
 40
0.0
 40
0.0
 40
0.0437184895248251
 40
0.0854921474791111
 40
0.1251629876508978
 40
0.1625892322511132
 40
0.1976313072891868
 40
0.2305529243154267
 40
0.2919873227033688
 40
0.3475969422201678
 40
0.398890914720037
 40
0.4512756340943028
 40
0.5051994150800513
 40
0.5612988630084136
 40
0.6201268346717851
 40
0.6817513049458005
 40
0.7452854113178464
 40
0.806121983705189
 40
0.8637830001159963
 40
0.8914949746226241
 40
0.9205573794807452
 40
0.9574154403248543
 40
0.9793425677180368
 40
1.0
 40
1.0
 40
1.0
 40
1.0
 10
105.3554783827888
 20
121.8608889441097
 30
0.0
 10
105.3304058517976
 20
121.8470212065657
 30
0.0
 10
105.2813761497086
 20
121.8199026424021
 30
0.0
 10
105.0882757647464
 20
121.7627233621169
 30
0.0
 10
104.8242601003313
 20
121.7001760722758
 30
0.0
 10
104.4996012611845
 20
121.6349210000756
 30
0.0
 10
104.1323934956856
 20
121.5699523560606
 30
0.0
 10
103.6171806769565
 20
121.487975169566
 30
0.0
 10
102.941001028794
 20
121.3927628596843
 30
0.0
 10
102.0966595629373
 20
121.2852420984347
 30
0.0
 10
101.2463219384449
 20
121.183307178176
 30
0.0
 10
100.3783083523454
 20
121.0824462725951
 30
0.0
 10
99.47778579316156
 20
120.9784491582258
 30
0.0
 10
98.5602605689584
 20
120.8703159013703
 30
0.0
 10
97.6479113186918
 20
120.7569730468546
 30
0.0
 10
96.77788766304258
 20
120.6383703520272
 30
0.0
 10
96.01346447491999
 20
120.5180555813835
 30
0.0
 10
95.38799154838826
 20
120.3960872848777
 30
0.0
 10
94.9847900556377
 20
120.2891954341646
 30
0.0
 10
94.73913453606184
 20
120.1988679314603
 30
0.0
 10
94.55212045282491
 20
120.1123254455865
 30
0.0
 10
94.36100499717257
 20
119.9551196513421
 30
0.0
 10
94.24789601635088
 20
119.7632509913593
 30
0.0
 10
94.23558176150759
 20
119.6422769108169
 30
0.0
 10
94.22960821411228
 20
119.5835933434455
 30
0.0
  0
SPLINE
  5
67
330
1F
100
AcDbEntity
  8
0
  6
Continuous
 62
     7
370
     0
100
AcDbSpline
210
0.0
220
0.0
230
1.0
 70
     8
 71
     3
 72
    38
 73
    34
 74
     0
 42
0.00000001
 43
0.00000001
 12
1.0
 22
0.0
 32
0.0
 13
1.0
 23
0.0
 33
0.0
 40
0.0
 40
0.0
 40
0.0
 40
0.0
 40
0.0081330229756486
 40
0.0307901468626506
 40
0.0465758211182519
 40
0.067432427662076
 40
0.0909488654214286
 40
0.1176751927860041
 40
0.1476301757571653
 40
0.1808243975404454
 40
0.2172578563861861
 40
0.2564842956356468
 40
0.2938379349147189
 40
0.3280275189102922
 40
0.3590284611466124
 40
0.3953565553377381
 40
0.4259449916679524
 40
0.4507976338312593
 40
0.4766018194804381
 40
0.5084297288213656
 40
0.5463002035854797
 40
0.5786978829170063
 40
0.6141349792107075
 40
0.6513283537045508
 40
0.6902354935602315
 40
0.7309269262655002
 40
0.7734654609405612
 40
0.8179244383395109
 40
0.8622258855504924
 40
0.9024552124934813
 40
0.9387418677640624
 40
0.9712408534352213
 40
1.0
 40
1.0
 40
1.0
 40
1.0
 10
105.2260073136561
 20
117.7260590059477
 30
0.0
 10
105.226069840776
 20
117.7330340569654
 30
0.0
 10
105.2263065570882
 20
117.7594403324488
 30
0.0
 10
105.21585596924
 20
117.7768122146568
 30
0.0
 10
105.1869128528848
 20
117.7855094533383
 30
0.0
 10
105.1056084721579
 20
117.7643051624391
 30
0.0
 10
104.9800329986902
 20
117.7349953527051
 30
0.0
 10
104.7955894613308
 20
117.6934897768718
 30
0.0
 10
104.5431026967011
 20
117.6426595618247
 30
0.0
 10
104.2113636134885
 20
117.582843024139
 30
0.0
 10
103.7945479911032
 20
117.5153758641183
 30
0.0
 10
103.3084501900481
 20
117.443950753637
 30
0.0
 10
102.7906538107228
 20
117.3738371738655
 30
0.0
 10
102.2815398171273
 20
117.3088001719098
 30
0.0
 10
101.7562162821337
 20
117.2443220192696
 30
0.0
 10
101.2327361507832
 20
117.1820016086268
 30
0.0
 10
100.7321503582425
 20
117.1235359021889
 30
0.0
 10
100.2852049535158
 20
117.0717519326139
 30
0.0
 10
99.83065957191745
 20
117.0191759604941
 30
0.0
 10
99.30669581098635
 20
116.9582761181413
 30
0.0
 10
98.75512349963007
 20
116.8931191966152
 30
0.0
 10
98.20016586867057
 20
116.8256621826308
 30
0.0
 10
97.66909802990479
 20
116.7586066710054
 30
0.0
 10
97.13135233973073
 20
116.6867758867026
 30
0.0
 10
96.60438368724547
 20
116.6105165903358
 30
0.0
 10
96.0989493298355
 20
116.5290528845775
 30
0.0
 10
95.62711841649954
 20
116.4411336095419
 30
0.0
 10
95.21285434700292
 20
116.3475098066922
 30
0.0
 10
94.8772801302967
 20
116.2497224072288
 30
0.0
 10
94.60341521628102
 20
116.1336814692259
 30
0.0
 10
94.40158999112205
 20
115.9881121638781
 30
0.0
 10
94.25713790665623
 20
115.8071565649699
 30
0.0
 10
94.2351049466117
 20
115.6348927858611
 30
0.0
 10
94.2247610281139
 20
115.554019290533
 30
0.0
  0
SPLINE
  5
68
330
1F
100
AcDbEntity
  8
0
  6
Continuous
 62
     7
370
     0
100
AcDbSpline
210
0.0
220
0.0
230
1.0
 70
     8
 71
     3
 72
    31
 73
    27
 74
     0
 42
0.00000001
 43
0.00000001
 12
1.0
 22
0.0
 32
0.0
 13
1.0
 23
0.0
 33
0.0
 40
0.0
 40
0.0
 40
0.0
 40
0.0
 40
0.0112026677975633
 40
0.0416962145588964
 40
0.0727558549590347
 40
0.1374053440337971
 40
0.1710295730567368
 40
0.2053490610186305
 40
0.2730890391020981
 40
0.3390624668789243
 40
0.4032111134257846
 40
0.4653148447477516
 40
0.5055555043120308
 40
0.5450663584590869
 40
0.5876852986460853
 40
0.622622823818747
 40
0.6601263596786442
 40
0.7002121622339692
 40
0.7410502241113033
 40
0.7911202127784401
 40
0.8361130643096228
 40
0.8760695553011836
 40
0.9047959305073187
 40
0.9347888116375348
 40
0.966487363364499
 40
1.0
 40
1.0
 40
1.0
 40
1.0
 10
105.2984790213757
 20
113.822034751545
 30
0.0
 10
105.3020431726554
 20
113.8275426509105
 30
0.0
 10
105.3153089071364
 20
113.8480429958162
 30
0.0
 10
105.2024378450688
 20
113.7942808003926
 30
0.0
 10
104.9986874610551
 20
113.7427053832761
 30
0.0
 10
104.6598134933545
 20
113.6642644018881
 30
0.0
 10
104.2206185322661
 20
113.5850166066565
 30
0.0
 10
103.7046080107706
 20
113.5006735606663
 30
0.0
 10
102.9679595679651
 20
113.3958315984594
 30
0.0
 10
101.9890100915866
 20
113.271623343989
 30
0.0
 10
100.9688951811331
 20
113.15070493478
 30
0.0
 10
100.0607750444507
 20
113.0458867575304
 30
0.0
 10
99.2927111096129
 20
112.9566849773699
 30
0.0
 10
98.64251304178504
 20
112.8797327825729
 30
0.0
 10
98.04069209274826
 20
112.8059862615205
 30
0.0
 10
97.47676609934449
 20
112.7333780586797
 30
0.0
 10
96.95559430630416
 20
112.6621704469445
 30
0.0
 10
96.44820951850062
 20
112.5870079113166
 30
0.0
 10
95.94190665735178
 20
112.5033283730402
 30
0.0
 10
95.48172539579389
 20
112.4145213900152
 30
0.0
 10
95.0937814231788
 20
112.3202018625663
 30
0.0
 10
94.83061174388533
 20
112.2367102985686
 30
0.0
 10
94.61687341726635
 20
112.1439761430099
 30
0.0
 10
94.42793596222603
 20
112.0178401790556
 30
0.0
 10
94.26304727672499
 20
111.8270280369609
 30
0.0
 10
94.2375964139331
 20
111.6466204847295
 30
0.0
 10
94.22451697866713
 20
111.5539073645418
 30
0.0
  0
SPLINE
  5
69
330
1F
100
AcDbEntity
  8
0
  6
Continuous
 62
     7
370
     0
100
AcDbSpline
210
0.0
220
0.0
230
1.0
 70
     8
 71
     3
 72
    32
 73
    28
 74
     0
 42
0.00000001
 43
0.00000001
 12
1.0
 22
0.0
 32
0.0
 13
1.0
 23
0.0
 33
0.0
 40
0.0
 40
0.0
 40
0.0
 40
0.0
 40
0.0149089616577592
 40
0.0489910116446992
 40
0.084026963149661
 40
0.1199690754520898
 40
0.1567599380326394
 40
0.1943474069879245
 40
0.232401509574063
 40
0.2794698169516758
 40
0.3212744301051793
 40
0.3577635408584817
 40
0.3888919957402549
 40
0.4160137565570201
 40
0.4481605723597059
 40
0.4869859549285043
 40
0.5325070523567217
 40
0.5816119374876312
 40
0.6527072770440016
 40
0.720744031947435
 40
0.7865690958115209
 40
0.8538725146099081
 40
0.8884710322736589
 40
0.9244409685024912
 40
0.9628554844195196
 40
0.9832159964149317
 40
1.0
 40
1.0
 40
1.0
 40
1.0
 10
105.2943215921651
 20
109.8169746012606
 30
0.0
 10
105.2896022964146
 20
109.8170523211705
 30
0.0
 10
105.2740946387808
 20
109.8173077096478
 30
0.0
 10
105.1723188957588
 20
109.7820506900654
 30
0.0
 10
104.9960157417909
 20
109.738544954405
 30
0.0
 10
104.7427148405706
 20
109.6819414019406
 30
0.0
 10
104.4171795373729
 20
109.6191365548699
 30
0.0
 10
104.0211958514966
 20
109.5512914111465
 30
0.0
 10
103.5258703185025
 20
109.4749307866328
 30
0.0
 10
102.957540931496
 20
109.395685918157
 30
0.0
 10
102.3492745335984
 20
109.3171864358223
 30
0.0
 10
101.7905542853777
 20
109.2485155811281
 30
0.0
 10
101.2911838094156
 20
109.1889551536633
 30
0.0
 10
100.8056775605376
 20
109.132069038928
 30
0.0
 10
100.2731510257911
 20
109.0703413771102
 30
0.0
 10
99.63884950622686
 20
108.9970118495909
 30
0.0
 10
98.91993332420022
 20
108.9129442938084
 30
0.0
 10
98.0554207612107
 20
108.8085344105036
 30
0.0
 10
97.1357513643555
 20
108.6895851122972
 30
0.0
 10
96.25731849481247
 20
108.5590284306644
 30
0.0
 10
95.54409248651032
 20
108.4313819665159
 30
0.0
 10
95.05702657678668
 20
108.3120797728945
 30
0.0
 10
94.75323523968683
 20
108.2074820036947
 30
0.0
 10
94.51375017582349
 20
108.0904118962778
 30
0.0
 10
94.33627573022314
 20
107.9208644425412
 30
0.0
 10
94.24326003214719
 20
107.7405895974634
 30
0.0
 10
94.23402777540353
 20
107.6364902105195
 30
0.0
 10
94.22985611700761
 20
107.5894521900643
 30
0.0
  0
SPLINE
  5
6A
330
1F
100
AcDbEntity
  8
0
  6
Continuous
 62
     7
370
     0
100
AcDbSpline
210
0.0
220
0.0
230
1.0
 70
     8
 71
     3
 72
    18
 73
    14
 74
     0
 42
0.00000001
 43
0.00000001
 12
1.0
 22
0.0
 32
0.0
 13
1.0
 23
0.0
 33
0.0
 40
0.0
 40
0.0
 40
0.0
 40
0.0
 40
0.0927570164121525
 40
0.1719402894488956
 40
0.2652423689307246
 40
0.329457326789705
 40
0.3797754273600258
 40
0.4335954364283635
 40
0.538041966056228
 40
0.6537893868349194
 40
0.7809473631066471
 40
0.9195547577191926
 40
1.0
 40
1.0
 40
1.0
 40
1.0
 10
106.2239376577738
 20
109.5541018511437
 30
0.0
 10
106.2156570486052
 20
109.6276635637375
 30
0.0
 10
106.2003075861888
 20
109.7640222204187
 30
0.0
 10
106.0726856937287
 20
109.9530580104026
 30
0.0
 10
105.9032117870948
 20
110.0940647562301
 30
0.0
 10
105.7272777610446
 20
110.1849527395895
 30
0.0
 10
105.5927793380986
 20
110.2375236564739
 30
0.0
 10
105.4059923598566
 20
110.3008462986221
 30
0.0
 10
105.1330982553889
 20
110.3744839272661
 30
0.0
 10
104.7331953883799
 20
110.460766841594
 30
0.0
 10
104.2292184275578
 20
110.5505023781196
 30
0.0
 10
103.7229925560694
 20
110.6296177314811
 30
0.0
 10
103.3582819249477
 20
110.6793070843484
 30
0.0
 10
103.2243450068669
 20
110.6975550821213
 30
0.0
  0
SPLINE
  5
6B
330
1F
100
AcDbEntity
  8
0
  6
Continuous
 62
     7
370
     0
100
AcDbSpline
210
0.0
220
0.0
230
1.0
 70
     8
 71
     3
 72
     9
 73
     5
 74
     0
 42
0.00000001
 43
0.00000001
 12
1.0
 22
0.0
 32
0.0
 13
1.0
 23
0.0
 33
0.0
 40
0.0
 40
0.0
 40
0.0
 40
0.0
 40
0.5296365677614533
 40
1.0
 40
1.0
 40
1.0
 40
1.0
 10
97.22434500686695
 20
111.4333117876183
 30
0.0
 10
97.05654005005107
 20
111.456844791359
 30
0.0
 10
96.73970966667117
 20
111.5012771534222
 30
0.0
 10
96.47677729725918
 20
111.5437526954116
 30
0.0
 10
96.35310352553594
 20
111.5637316371279
 30
0.0
  0
SPLINE
  5
6C
330
1F
100
AcDbEntity
  8
0
  6
Continuous
 62
     7
370
     0
100
AcDbSpline
210
0.0
220
0.0
230
1.0
 70
     8
 71
     3
 72
    16
 73
    12
 74
     0
 42
0.00000001
 43
0.00000001
 12
1.0
 22
0.0
 32
0.0
 13
1.0
 23
0.0
 33
0.0
 40
0.0
 40
0.0
 40
0.0
 40
0.0
 40
0.0822153096008757
 40
0.1554442700923655
 40
0.2489251382456659
 40
0.3267387482663652
 40
0.4009230553406031
 40
0.4743324765299859
 40
0.6667032336768092
 40
0.8552260854558211
 40
1.0
 40
1.0
 40
1.0
 40
1.0
 10
106.2241623490501
 20
113.5538775605507
 30
0.0
 10
106.2140649690657
 20
113.6366591708505
 30
0.0
 10
106.1949738792294
 20
113.793174144188
 30
0.0
 10
106.0516998922255
 20
113.9926352115284
 30
0.0
 10
105.8619191935723
 20
114.1297012513801
 30
0.0
 10
105.6942012583763
 20
114.2048307566932
 30
0.0
 10
105.5185887118174
 20
114.2685355969411
 30
0.0
 10
105.2113373884446
 20
114.3591072954659
 30
0.0
 10
104.7071959521498
 20
114.4694771884339
 30
0.0
 10
104.0049120025972
 20
114.5889976397048
 30
0.0
 10
103.4607237350726
 20
114.6645549139878
 30
0.0
 10
103.2243450068669
 20
114.6973746814608
 30
0.0
  0
SPLINE
  5
6D
330
1F
100
AcDbEntity
  8
0
  6
Continuous
 62
     7
370
     0
100
AcDbSpline
210
0.0
220
0.0
230
1.0
 70
     8
 71
     3
 72
     9
 73
     5
 74
     0
 42
0.00000001
 43
0.00000001
 12
1.0
 22
0.0
 32
0.0
 13
1.0
 23
0.0
 33
0.0
 40
0.0
 40
0.0
 40
0.0
 40
0.0
 40
0.5572216027971688
 40
1.0
 40
1.0
 40
1.0
 40
1.0
 10
97.22434500686695
 20
115.4334618391169
 30
0.0
 10
97.05000250517503
 20
115.4580452717723
 30
0.0
 10
96.73712428793297
 20
115.5021631461188
 30
0.0
 10
96.47346853389068
 20
115.5459550064349
 30
0.0
 10
96.35672746170252
 20
115.5653450961562
 30
0.0
  0
SPLINE
  5
6E
330
1F
100
AcDbEntity
  8
0
  6
Continuous
 62
     7
370
     0
100
AcDbSpline
210
0.0
220
0.0
230
1.0
 70
     8
 71
     3
 72
    16
 73
    12
 74
     0
 42
0.00000001
 43
0.00000001
 12
1.0
 22
0.0
 32
0.0
 13
1.0
 23
0.0
 33
0.0
 40
0.0
 40
0.0
 40
0.0
 40
0.0
 40
0.0552574414333374
 40
0.1097759534181291
 40
0.2181343099361964
 40
0.3276470912183871
 40
0.4350302228294171
 40
0.6437420651770972
 40
0.846545745065089
 40
0.9754229003207754
 40
1.0
 40
1.0
 40
1.0
 40
1.0
 10
106.223965418134
 20
117.5540896645856
 30
0.0
 10
106.2181217626352
 20
117.6185606459604
 30
0.0
 10
106.2065125958482
 20
117.7466404713132
 30
0.0
 10
106.1001190531205
 20
117.9413259502879
 30
0.0
 10
105.9330161534399
 20
118.0873982708254
 30
0.0
 10
105.7319930965032
 20
118.1864094703162
 30
0.0
 10
105.3716840515968
 20
118.3183040102383
 30
0.0
 10
104.8097897812593
 20
118.45115722715
 30
0.0
 10
104.0710694537553
 20
118.5768007743729
 30
0.0
 10
103.5275622403322
 20
118.6577248452598
 30
0.0
 10
103.2662039265358
 20
118.6925533655127
 30
0.0
 10
103.2243450068669
 20
118.6981314709507
 30
0.0
  0
LINE
  5
6F
330
1F
100
AcDbEntity
  8
0
  6
Continuous
 62
     7
370
     0
100
AcDbLine
 10
96.2243450069
 20
108.98358632
 30
0.0
 11
95.7243450069
 21
108.48358632
 31
0.0
  0
LINE
  5
70
330
1F
100
AcDbEntity
  8
0
  6
Continuous
 62
     7
370
     0
100
AcDbLine
 10
94.2243450069
 20
88.98358632
 30
0.0
 11
95.2243450069
 21
87.98358632
 31
0.0
  0
LINE
  5
71
330
1F
100
AcDbEntity
  8
0
  6
Continuous
 62
     7
370
     0
100
AcDbLine
 10
95.7243450069
 20
107.4480354415
 30
0.0
 11
95.7243450069
 21
105.98358632
 31
0.0
  0
LINE
  5
72
330
1F
100
AcDbEntity
  8
0
  6
Continuous
 62
     7
370
     0
100
AcDbLine
 10
94.7243450069
 20
102.98358632
 30
0.0
 11
94.7243450069
 21
101.48358632
 31
0.0
  0
LINE
  5
73
330
1F
100
AcDbEntity
  8
0
  6
Continuous
 62
     7
370
     0
100
AcDbLine
 10
94.2243450069
 20
101.48358632
 30
0.0
 11
94.2243450069
 21
95.6973830086
 31
0.0
  0
LINE
  5
74
330
1F
100
AcDbEntity
  8
0
  6
Continuous
 62
     7
370
     0
100
AcDbLine
 10
94.2243450069
 20
89.6973830086
 30
0.0
 11
94.2243450069
 21
88.98358632
 31
0.0
  0
LINE
  5
75
330
1F
100
AcDbEntity
  8
0
  6
Continuous
 62
     7
370
     0
100
AcDbLine
 10
106.2243450069
 20
88.98358632
 30
0.0
 11
106.2243450069
 21
89.6973830086
 31
0.0
  0
LINE
  5
76
330
1F
100
AcDbEntity
  8
0
  6
Continuous
 62
     7
370
     0
100
AcDbLine
 10
106.2243450069
 20
95.6973830086
 30
0.0
 11
106.2243450069
 21
101.48358632
 31
0.0
  0
LINE
  5
77
330
1F
100
AcDbEntity
  8
0
  6
Continuous
 62
     7
370
     0
100
AcDbLine
 10
105.7243450069
 20
101.48358632
 30
0.0
 11
105.7243450069
 21
102.98358632
 31
0.0
  0
LINE
  5
78
330
1F
100
AcDbEntity
  8
0
  6
Continuous
 62
     7
370
     0
100
AcDbLine
 10
104.7243450069
 20
105.98358632
 30
0.0
 11
104.7243450069
 21
108.48358632
 31
0.0
  0
LINE
  5
79
330
1F
100
AcDbEntity
  8
0
  6
Continuous
 62
     7
370
     0
100
AcDbLine
 10
105.2243450069
 20
87.98358632
 30
0.0
 11
106.2243450069
 21
88.98358632
 31
0.0
  0
LINE
  5
7A
330
1F
100
AcDbEntity
  8
0
  6
Continuous
 62
     7
370
     0
100
AcDbLine
 10
104.7243450069
 20
108.48358632
 30
0.0
 11
104.5654477964
 21
108.6424835305
 31
0.0
  0
LINE
  5
7B
330
1F
100
AcDbEntity
  8
0
  6
Continuous
 62
     7
370
     0
100
AcDbLine
 10
102.7243450069
 20
85.98358632
 30
0.0
 11
103.2243450069
 21
86.48358632
 31
0.0
  0
LINE
  5
7C
330
1F
100
AcDbEntity
  8
0
  6
Continuous
 62
     7
370
     0
100
AcDbLine
 10
103.2243450069
 20
86.48358632
 30
0.0
 11
103.2243450069
 21
87.28358632
 31
0.0
  0
LINE
  5
7D
330
1F
100
AcDbEntity
  8
0
  6
Continuous
 62
     7
370
     0
100
AcDbLine
 10
102.2243450069
 20
87.88360632
 30
0.0
 11
102.2243450069
 21
87.98358632
 31
0.0
  0
LINE
  5
7E
330
1F
100
AcDbEntity
  8
0
  6
Continuous
 62
     7
370
     0
100
AcDbLine
 10
103.2243450069
 20
109.4342819609
 30
0.0
 11
103.2243450069
 21
112.4318707963
 31
0.0
  0
LINE
  5
7F
330
1F
100
AcDbEntity
  8
0
  6
Continuous
 62
     7
370
     0
100
AcDbLine
 10
103.2243450069
 20
113.4352609611
 30
0.0
 11
103.2243450069
 21
116.4316065492
 31
0.0
  0
LINE
  5
80
330
1F
100
AcDbEntity
  8
0
  6
Continuous
 62
     7
370
     0
100
AcDbLine
 10
103.2243450069
 20
117.4334445262
 30
0.0
 11
103.2243450069
 21
118.98358632
 31
0.0
  0
LINE
  5
81
330
1F
100
AcDbEntity
  8
0
  6
Continuous
 62
     7
370
     0
100
AcDbLine
 10
104.7243450069
 20
118.98358632
 30
0.0
 11
104.7243450069
 21
120.6691320487
 31
0.0
  0
LINE
  5
82
330
1F
100
AcDbEntity
  8
0
  6
Continuous
 62
     7
370
     0
100
AcDbLine
 10
104.7243450069
 20
121.681585714
 30
0.0
 11
104.7243450069
 21
121.98358632
 31
0.0
  0
LINE
  5
83
330
1F
100
AcDbEntity
  8
0
  6
Continuous
 62
     7
370
     0
100
AcDbLine
 10
104.1243450069
 20
129.98358632
 30
0.0
 11
104.1243450069
 21
136.98358632
 31
0.0
  0
LINE
  5
84
330
1F
100
AcDbEntity
  8
0
  6
Continuous
 62
     7
370
     0
100
AcDbLine
 10
105.7243450069
 20
136.98358632
 30
0.0
 11
105.7243450069
 21
138.98358632
 31
0.0
  0
LINE
  5
85
330
1F
100
AcDbEntity
  8
0
  6
Continuous
 62
     7
370
     0
100
AcDbLine
 10
94.7243450069
 20
138.98358632
 30
0.0
 11
94.7243450069
 21
136.98358632
 31
0.0
  0
LINE
  5
86
330
1F
100
AcDbEntity
  8
0
  6
Continuous
 62
     7
370
     0
100
AcDbLine
 10
96.3243450069
 20
136.98358632
 30
0.0
 11
96.3243450069
 21
129.98358632
 31
0.0
  0
LINE
  5
87
330
1F
100
AcDbEntity
  8
0
  6
Continuous
 62
     7
370
     0
100
AcDbLine
 10
95.7243450069
 20
121.98358632
 30
0.0
 11
95.7243450069
 21
120.4563877935
 31
0.0
  0
LINE
  5
88
330
1F
100
AcDbEntity
  8
0
  6
Continuous
 62
     7
370
     0
100
AcDbLine
 10
95.7243450069
 20
119.447946171
 30
0.0
 11
95.7243450069
 21
118.98358632
 31
0.0
  0
LINE
  5
89
330
1F
100
AcDbEntity
  8
0
  6
Continuous
 62
     7
370
     0
100
AcDbLine
 10
97.2243450069
 20
118.98358632
 30
0.0
 11
97.2243450069
 21
116.6983151143
 31
0.0
  0
LINE
  5
8A
330
1F
100
AcDbEntity
  8
0
  6
Continuous
 62
     7
370
     0
100
AcDbLine
 10
97.2243450069
 20
115.6956545105
 30
0.0
 11
97.2243450069
 21
112.6980656113
 31
0.0
  0
LINE
  5
8B
330
1F
100
AcDbEntity
  8
0
  6
Continuous
 62
     7
370
     0
100
AcDbLine
 10
97.2243450069
 20
111.6957118754
 30
0.0
 11
97.2243450069
 21
108.98358632
 31
0.0
  0
LINE
  5
8C
330
1F
100
AcDbEntity
  8
0
  6
Continuous
 62
     7
370
     0
100
AcDbLine
 10
98.2243450069
 20
87.98358632
 30
0.0
 11
98.2243450069
 21
87.88358632
 31
0.0
  0
LINE
  5
8D
330
1F
100
AcDbEntity
  8
0
  6
Continuous
 62
     7
370
     0
100
AcDbLine
 10
97.2243450069
 20
87.28358632
 30
0.0
 11
97.2243450069
 21
86.48358632
 31
0.0
  0
LINE
  5
8E
330
1F
100
AcDbEntity
  8
0
  6
Continuous
 62
     7
370
     0
100
AcDbLine
 10
97.2243450069
 20
86.48358632
 30
0.0
 11
97.7243450069
 21
85.98358632
 31
0.0
  0
SPLINE
  5
8F
330
1F
100
AcDbEntity
  8
0
  6
Continuous
 62
     7
370
     0
100
AcDbSpline
210
0.0
220
0.0
230
1.0
 70
     8
 71
     3
 72
     9
 73
     5
 74
     0
 42
0.00000001
 43
0.00000001
 12
1.0
 22
0.0
 32
0.0
 13
1.0
 23
0.0
 33
0.0
 40
0.0
 40
0.0
 40
0.0
 40
0.0
 40
0.4990042696526406
 40
1.0
 40
1.0
 40
1.0
 40
1.0
 10
90.40939043060602
 20
93.25449979274077
 30
0.0
 10
90.61047217058234
 20
93.14328170085258
 30
0.0
 10
91.01343814142719
 20
92.92040166023561
 30
0.0
 10
91.42487754001465
 20
92.77182118987287
 30
0.0
 10
91.63100692200365
 20
92.69738300860813
 30
0.0
  0
LINE
  5
90
330
1F
100
AcDbEntity
  8
0
  6
Continuous
 62
     7
370
     0
100
AcDbLine
 10
91.631006922
 20
92.6973830086
 30
0.0
 11
91.3743450069
 21
92.6973830086
 31
0.0
  0
SPLINE
  5
91
330
1F
100
AcDbEntity
  8
0
  6
Continuous
 62
     7
370
     0
100
AcDbSpline
210
0.0
220
0.0
230
1.0
 70
     8
 71
     3
 72
     9
 73
     5
 74
     0
 42
0.00000001
 43
0.00000001
 12
1.0
 22
0.0
 32
0.0
 13
1.0
 23
0.0
 33
0.0
 40
0.0
 40
0.0
 40
0.0
 40
0.0
 40
0.4990042696526406
 40
1.0
 40
1.0
 40
1.0
 40
1.0
 10
90.40939043060602
 20
90.25449979274079
 30
0.0
 10
90.61047217058234
 20
90.14328170085258
 30
0.0
 10
91.01343814142719
 20
89.92040166023561
 30
0.0
 10
91.42487754001465
 20
89.77182118987287
 30
0.0
 10
91.63100692200365
 20
89.69738300860811
 30
0.0
  0
LINE
  5
92
330
1F
100
AcDbEntity
  8
0
  6
Continuous
 62
     7
370
     0
100
AcDbLine
 10
91.631006922
 20
89.6973830086
 30
0.0
 11
91.3743450069
 21
89.6973830086
 31
0.0
  0
LINE
  5
93
330
1F
100
AcDbEntity
  8
0
  6
Continuous
 62
     7
370
     0
100
AcDbLine
 10
97.7601007005
 20
92.6973830086
 30
0.0
 11
94.0952512255
 21
92.6973830086
 31
0.0
  0
SPLINE
  5
94
330
1F
100
AcDbEntity
  8
0
  6
Continuous
 62
     7
370
     0
100
AcDbSpline
210
0.0
220
0.0
230
1.0
 70
     8
 71
     3
 72
     9
 73
     5
 74
     0
 42
0.00000001
 43
0.00000001
 12
1.0
 22
0.0
 32
0.0
 13
1.0
 23
0.0
 33
0.0
 40
0.0
 40
0.0
 40
0.0
 40
0.0
 40
0.498847472771302
 40
1.0
 40
1.0
 40
1.0
 40
1.0
 10
94.09525122545467
 20
92.69738300860811
 30
0.0
 10
94.30049914352246
 20
92.77146964583669
 30
0.0
 10
94.71194338103167
 20
92.91998525686506
 30
0.0
 10
95.11491664661348
 20
93.1428237291776
 30
0.0
 10
95.3168677170654
 20
93.25449979274079
 30
0.0
  0
SPLINE
  5
95
330
1F
100
AcDbEntity
  8
0
  6
Continuous
 62
     7
370
     0
100
AcDbSpline
210
0.0
220
0.0
230
1.0
 70
     8
 71
     3
 72
     9
 73
     5
 74
     0
 42
0.00000001
 43
0.00000001
 12
1.0
 22
0.0
 32
0.0
 13
1.0
 23
0.0
 33
0.0
 40
0.0
 40
0.0
 40
0.0
 40
0.0
 40
0.4984265172808193
 40
1.0
 40
1.0
 40
1.0
 40
1.0
 10
95.3168677170654
 20
93.25449979274079
 30
0.0
 10
95.71856361396054
 20
93.14340490072327
 30
0.0
 10
96.52449163538
 20
92.92051368573816
 30
0.0
 10
97.34736782447744
 20
92.77191577847758
 30
0.0
 10
97.76010070048976
 20
92.69738300860813
 30
0.0
  0
SPLINE
  5
96
330
1F
100
AcDbEntity
  8
0
  6
Continuous
 62
     7
370
     0
100
AcDbSpline
210
0.0
220
0.0
230
1.0
 70
     8
 71
     3
 72
     9
 73
     5
 74
     0
 42
0.00000001
 43
0.00000001
 12
1.0
 22
0.0
 32
0.0
 13
1.0
 23
0.0
 33
0.0
 40
0.0
 40
0.0
 40
0.0
 40
0.0
 40
0.498847472771302
 40
1.0
 40
1.0
 40
1.0
 40
1.0
 10
94.09525122545467
 20
89.69738300860811
 30
0.0
 10
94.30049914352246
 20
89.7714696458367
 30
0.0
 10
94.71194338103167
 20
89.91998525686506
 30
0.0
 10
95.11491664661348
 20
90.1428237291776
 30
0.0
 10
95.3168677170654
 20
90.25449979274079
 30
0.0
  0
SPLINE
  5
97
330
1F
100
AcDbEntity
  8
0
  6
Continuous
 62
     7
370
     0
100
AcDbSpline
210
0.0
220
0.0
230
1.0
 70
     8
 71
     3
 72
     9
 73
     5
 74
     0
 42
0.00000001
 43
0.00000001
 12
1.0
 22
0.0
 32
0.0
 13
1.0
 23
0.0
 33
0.0
 40
0.0
 40
0.0
 40
0.0
 40
0.0
 40
0.4984265172808193
 40
1.0
 40
1.0
 40
1.0
 40
1.0
 10
95.3168677170654
 20
90.25449979274079
 30
0.0
 10
95.71856361396054
 20
90.14340490072327
 30
0.0
 10
96.52449163538
 20
89.92051368573817
 30
0.0
 10
97.34736782447744
 20
89.77191577847759
 30
0.0
 10
97.76010070048976
 20
89.69738300860811
 30
0.0
  0
LINE
  5
98
330
1F
100
AcDbEntity
  8
0
  6
Continuous
 62
     7
370
     0
100
AcDbLine
 10
97.7601007005
 20
89.6973830086
 30
0.0
 11
94.0952512255
 21
89.6973830086
 31
0.0
  0
SPLINE
  5
99
330
1F
100
AcDbEntity
  8
0
  6
Continuous
 62
     7
370
     0
100
AcDbSpline
210
0.0
220
0.0
230
1.0
 70
     8
 71
     3
 72
     9
 73
     5
 74
     0
 42
0.00000001
 43
0.00000001
 12
1.0
 22
0.0
 32
0.0
 13
1.0
 23
0.0
 33
0.0
 40
0.0
 40
0.0
 40
0.0
 40
0.0
 40
0.5008258021404602
 40
0.9999999999999999
 40
0.9999999999999999
 40
0.9999999999999999
 40
0.9999999999999999
 10
102.6885893167309
 20
92.69738300860813
 30
0.0
 10
103.1007086316151
 20
92.77179337257292
 30
0.0
 10
103.9235881899822
 20
92.92036871283446
 30
0.0
 10
104.729521285281
 20
93.14324546750606
 30
0.0
 10
105.1318222916552
 20
93.25449979274079
 30
0.0
  0
SPLINE
  5
9A
330
1F
100
AcDbEntity
  8
0
  6
Continuous
 62
     7
370
     0
100
AcDbSpline
210
0.0
220
0.0
230
1.0
 70
     8
 71
     3
 72
     9
 73
     5
 74
     0
 42
0.00000001
 43
0.00000001
 12
1.0
 22
0.0
 32
0.0
 13
1.0
 23
0.0
 33
0.0
 40
0.0
 40
0.0
 40
0.0
 40
0.0
 40
0.4990042696526427
 40
1.0
 40
1.0
 40
1.0
 40
1.0
 10
105.1318222916552
 20
93.25449979274079
 30
0.0
 10
105.3329040332009
 20
93.14328170085258
 30
0.0
 10
105.7358700071908
 20
92.92040166023564
 30
0.0
 10
106.1473094036108
 20
92.77182118987287
 30
0.0
 10
106.3534387845139
 20
92.69738300860813
 30
0.0
  0
LINE
  5
9B
330
1F
100
AcDbEntity
  8
0
  6
Continuous
 62
     7
370
     0
100
AcDbLine
 10
106.3534387845
 20
92.6973830086
 30
0.0
 11
102.6885893167
 21
92.6973830086
 31
0.0
  0
SPLINE
  5
9C
330
1F
100
AcDbEntity
  8
0
  6
Continuous
 62
     7
370
     0
100
AcDbSpline
210
0.0
220
0.0
230
1.0
 70
     8
 71
     3
 72
     9
 73
     5
 74
     0
 42
0.00000001
 43
0.00000001
 12
1.0
 22
0.0
 32
0.0
 13
1.0
 23
0.0
 33
0.0
 40
0.0
 40
0.0
 40
0.0
 40
0.0
 40
0.5008258021404602
 40
0.9999999999999999
 40
0.9999999999999999
 40
0.9999999999999999
 40
0.9999999999999999
 10
102.6885893167309
 20
89.69738300860811
 30
0.0
 10
103.1007086316151
 20
89.7717933725729
 30
0.0
 10
103.9235881899822
 20
89.92036871283447
 30
0.0
 10
104.729521285281
 20
90.14324546750606
 30
0.0
 10
105.1318222916552
 20
90.25449979274079
 30
0.0
  0
SPLINE
  5
9D
330
1F
100
AcDbEntity
  8
0
  6
Continuous
 62
     7
370
     0
100
AcDbSpline
210
0.0
220
0.0
230
1.0
 70
     8
 71
     3
 72
     9
 73
     5
 74
     0
 42
0.00000001
 43
0.00000001
 12
1.0
 22
0.0
 32
0.0
 13
1.0
 23
0.0
 33
0.0
 40
0.0
 40
0.0
 40
0.0
 40
0.0
 40
0.4990042696526427
 40
1.0
 40
1.0
 40
1.0
 40
1.0
 10
105.1318222916552
 20
90.25449979274079
 30
0.0
 10
105.3329040332009
 20
90.14328170085258
 30
0.0
 10
105.7358700071908
 20
89.92040166023564
 30
0.0
 10
106.1473094036108
 20
89.77182118987288
 30
0.0
 10
106.3534387845139
 20
89.69738300860811
 30
0.0
  0
LINE
  5
9E
330
1F
100
AcDbEntity
  8
0
  6
Continuous
 62
     7
370
     0
100
AcDbLine
 10
106.3534387845
 20
89.6973830086
 30
0.0
 11
102.6885893167
 21
89.6973830086
 31
0.0
  0
SPLINE
  5
9F
330
1F
100
AcDbEntity
  8
0
  6
Continuous
 62
     7
370
     0
100
AcDbSpline
210
0.0
220
0.0
230
1.0
 70
     8
 71
     3
 72
     9
 73
     5
 74
     0
 42
0.00000001
 43
0.00000001
 12
1.0
 22
0.0
 32
0.0
 13
1.0
 23
0.0
 33
0.0
 40
0.0
 40
0.0
 40
0.0
 40
0.0
 40
0.4988474727713031
 40
1.0
 40
1.0
 40
1.0
 40
1.0
 10
108.8176830925982
 20
92.69738300860811
 30
0.0
 10
109.022931010786
 20
92.7714696458367
 30
0.0
 10
109.4343752485359
 20
92.91998525686505
 30
0.0
 10
109.8373485131573
 20
93.1428237291776
 30
0.0
 10
110.0392995831279
 20
93.25449979274079
 30
0.0
  0
LINE
  5
A0
330
1F
100
AcDbEntity
  8
0
  6
Continuous
 62
     7
370
     0
100
AcDbLine
 10
109.0743450069
 20
92.6973830086
 30
0.0
 11
108.8176830926
 21
92.6973830086
 31
0.0
  0
LINE
  5
A1
330
1F
100
AcDbEntity
  8
0
  6
Continuous
 62
     7
370
     0
100
AcDbLine
 10
109.0743450069
 20
89.6973830086
 30
0.0
 11
108.8176830926
 21
89.6973830086
 31
0.0
  0
SPLINE
  5
A2
330
1F
100
AcDbEntity
  8
0
  6
Continuous
 62
     7
370
     0
100
AcDbSpline
210
0.0
220
0.0
230
1.0
 70
     8
 71
     3
 72
     9
 73
     5
 74
     0
 42
0.00000001
 43
0.00000001
 12
1.0
 22
0.0
 32
0.0
 13
1.0
 23
0.0
 33
0.0
 40
0.0
 40
0.0
 40
0.0
 40
0.0
 40
0.4988474727713031
 40
1.0
 40
1.0
 40
1.0
 40
1.0
 10
108.8176830925982
 20
89.69738300860811
 30
0.0
 10
109.022931010786
 20
89.7714696458367
 30
0.0
 10
109.4343752485359
 20
89.91998525686506
 30
0.0
 10
109.8373485131573
 20
90.1428237291776
 30
0.0
 10
110.0392995831279
 20
90.25449979274079
 30
0.0
  0
SPLINE
  5
A3
330
1F
100
AcDbEntity
  8
0
  6
Continuous
 62
     7
370
     0
100
AcDbSpline
210
0.0
220
0.0
230
1.0
 70
    24
 71
     3
 72
     9
 73
     5
 74
     0
 42
0.00000001
 43
0.00000001
 12
1.0
 22
0.0
 32
0.0
 13
1.0
 23
0.0
 33
0.0
 40
0.0
 40
0.0
 40
0.0
 40
0.0
 40
0.499999999830264
 40
1.0
 40
1.0
 40
1.0
 40
1.0
 10
91.37434501125655
 20
89.69738300860811
 30
0.0
 10
91.38515641346605
 20
89.69738300860811
 30
0.0
 10
91.40677921789238
 20
89.69738300860811
 30
0.0
 10
91.55626435173637
 20
89.69738300860811
 30
0.0
 10
91.63100691868375
 20
89.69738300860811
 30
0.0
  0
LINE
  5
A4
330
1F
100
AcDbEntity
  8
0
  6
Continuous
 62
     7
370
     0
100
AcDbLine
 10
91.6310069187
 20
89.6973830086
 30
0.0
 11
94.0952512353
 21
89.6973830086
 31
0.0
  0
SPLINE
  5
A5
330
1F
100
AcDbEntity
  8
0
  6
Continuous
 62
     7
370
     0
100
AcDbSpline
210
0.0
220
0.0
230
1.0
 70
    24
 71
     3
 72
    11
 73
     7
 74
     0
 42
0.00000001
 43
0.00000001
 12
1.0
 22
0.0
 32
0.0
 13
1.0
 23
0.0
 33
0.0
 40
0.0
 40
0.0
 40
0.0
 40
0.0
 40
0.249999999482814
 40
0.5000000001263535
 40
0.7499999976846545
 40
1.0
 40
1.0
 40
1.0
 40
1.0
 10
94.09525123532335
 20
89.69738300860811
 30
0.0
 10
94.36069832840376
 20
89.69738300860813
 30
0.0
 10
94.891592515797
 20
89.69738300860811
 30
0.0
 10
95.79007808544429
 20
89.69738300860813
 30
0.0
 10
96.74416517756542
 20
89.69738300860811
 30
0.0
 10
97.4214555291337
 20
89.69738300860811
 30
0.0
 10
97.76010070813975
 20
89.69738300860811
 30
0.0
  0
LINE
  5
A6
330
1F
100
AcDbEntity
  8
0
  6
Continuous
 62
     7
370
     0
100
AcDbLine
 10
97.7601007081
 20
89.6973830086
 30
0.0
 11
102.6885893056
 21
89.6973830086
 31
0.0
  0
SPLINE
  5
A7
330
1F
100
AcDbEntity
  8
0
  6
Continuous
 62
     7
370
     0
100
AcDbSpline
210
0.0
220
0.0
230
1.0
 70
    24
 71
     3
 72
    11
 73
     7
 74
     0
 42
0.00000001
 43
0.00000001
 12
1.0
 22
0.0
 32
0.0
 13
1.0
 23
0.0
 33
0.0
 40
0.0
 40
0.0
 40
0.0
 40
0.0
 40
0.2500000023153452
 40
0.4999999998736464
 40
0.7500000005171863
 40
1.0
 40
1.0
 40
1.0
 40
1.0
 10
102.6885893055941
 20
89.69738300860811
 30
0.0
 10
103.0272344846002
 20
89.69738300860813
 30
0.0
 10
103.7045248361685
 20
89.69738300860813
 30
0.0
 10
104.6586119282896
 20
89.69738300860811
 30
0.0
 10
105.5570974979369
 20
89.69738300860813
 30
0.0
 10
106.0879916853302
 20
89.69738300860813
 30
0.0
 10
106.3534387784105
 20
89.69738300860811
 30
0.0
  0
LINE
  5
A8
330
1F
100
AcDbEntity
  8
0
  6
Continuous
 62
     7
370
     0
100
AcDbLine
 10
106.3534387784
 20
89.6973830086
 30
0.0
 11
108.8176830951
 21
89.6973830086
 31
0.0
  0
SPLINE
  5
A9
330
1F
100
AcDbEntity
  8
0
  6
Continuous
 62
     7
370
     0
100
AcDbSpline
210
0.0
220
0.0
230
1.0
 70
    24
 71
     3
 72
    10
 73
     6
 74
     0
 42
0.00000001
 43
0.00000001
 12
1.0
 22
0.0
 32
0.0
 13
1.0
 23
0.0
 33
0.0
 40
0.0
 40
0.0
 40
0.0
 40
0.0
 40
0.4998717430958709
 40
0.9997434858523564
 40
1.0
 40
1.0
 40
1.0
 40
1.0
 10
108.8176830950501
 20
89.69738300860811
 30
0.0
 10
108.8878172220505
 20
89.69738300860958
 30
0.0
 10
109.0280854760036
 20
89.69738300861246
 30
0.0
 10
109.0958100521775
 20
89.69738300859801
 30
0.0
 10
109.0743229757375
 20
89.69738300860813
 30
0.0
 10
109.0743119550863
 20
89.69738300860811
 30
0.0
  0
SPLINE
  5
AA
330
1F
100
AcDbEntity
  8
0
  6
Continuous
 62
     7
370
     0
100
AcDbSpline
210
0.0
220
0.0
230
1.0
 70
    24
 71
     3
 72
    10
 73
     6
 74
     0
 42
0.00000001
 43
0.00000001
 12
1.0
 22
0.0
 32
0.0
 13
1.0
 23
0.0
 33
0.0
 40
0.0
 40
0.0
 40
0.0
 40
0.0
 40
0.4998717430958709
 40
0.9997434858523564
 40
1.0
 40
1.0
 40
1.0
 40
1.0
 10
108.8176830950501
 20
92.69738300860813
 30
0.0
 10
108.8878172220505
 20
92.69738300860861
 30
0.0
 10
109.0280854760036
 20
92.69738300860959
 30
0.0
 10
109.0958100521775
 20
92.69738300860467
 30
0.0
 10
109.0743229757375
 20
92.69738300860813
 30
0.0
 10
109.0743119550863
 20
92.69738300860813
 30
0.0
  0
LINE
  5
AB
330
1F
100
AcDbEntity
  8
0
  6
Continuous
 62
     7
370
     0
100
AcDbLine
 10
106.3534387784
 20
92.6973830086
 30
0.0
 11
108.8176830951
 21
92.6973830086
 31
0.0
  0
SPLINE
  5
AC
330
1F
100
AcDbEntity
  8
0
  6
Continuous
 62
     7
370
     0
100
AcDbSpline
210
0.0
220
0.0
230
1.0
 70
    24
 71
     3
 72
    11
 73
     7
 74
     0
 42
0.00000001
 43
0.00000001
 12
1.0
 22
0.0
 32
0.0
 13
1.0
 23
0.0
 33
0.0
 40
0.0
 40
0.0
 40
0.0
 40
0.0
 40
0.2500000023153452
 40
0.4999999998736464
 40
0.7500000005171863
 40
1.0
 40
1.0
 40
1.0
 40
1.0
 10
102.6885893055941
 20
92.69738300860813
 30
0.0
 10
103.0272344846002
 20
92.69738300860813
 30
0.0
 10
103.7045248361685
 20
92.69738300860813
 30
0.0
 10
104.6586119282896
 20
92.69738300860811
 30
0.0
 10
105.5570974979369
 20
92.69738300860813
 30
0.0
 10
106.0879916853302
 20
92.69738300860813
 30
0.0
 10
106.3534387784105
 20
92.69738300860813
 30
0.0
  0
LINE
  5
AD
330
1F
100
AcDbEntity
  8
0
  6
Continuous
 62
     7
370
     0
100
AcDbLine
 10
97.7601007081
 20
92.6973830086
 30
0.0
 11
102.6885893056
 21
92.6973830086
 31
0.0
  0
SPLINE
  5
AE
330
1F
100
AcDbEntity
  8
0
  6
Continuous
 62
     7
370
     0
100
AcDbSpline
210
0.0
220
0.0
230
1.0
 70
    24
 71
     3
 72
    11
 73
     7
 74
     0
 42
0.00000001
 43
0.00000001
 12
1.0
 22
0.0
 32
0.0
 13
1.0
 23
0.0
 33
0.0
 40
0.0
 40
0.0
 40
0.0
 40
0.0
 40
0.249999999482814
 40
0.5000000001263535
 40
0.7499999976846545
 40
1.0
 40
1.0
 40
1.0
 40
1.0
 10
94.09525123532335
 20
92.69738300860813
 30
0.0
 10
94.36069832840376
 20
92.69738300860813
 30
0.0
 10
94.891592515797
 20
92.69738300860811
 30
0.0
 10
95.79007808544429
 20
92.69738300860814
 30
0.0
 10
96.74416517756542
 20
92.69738300860813
 30
0.0
 10
97.4214555291337
 20
92.69738300860811
 30
0.0
 10
97.76010070813975
 20
92.69738300860813
 30
0.0
  0
LINE
  5
AF
330
1F
100
AcDbEntity
  8
0
  6
Continuous
 62
     7
370
     0
100
AcDbLine
 10
91.6310069187
 20
92.6973830086
 30
0.0
 11
94.0952512353
 21
92.6973830086
 31
0.0
  0
SPLINE
  5
B0
330
1F
100
AcDbEntity
  8
0
  6
Continuous
 62
     7
370
     0
100
AcDbSpline
210
0.0
220
0.0
230
1.0
 70
    24
 71
     3
 72
     9
 73
     5
 74
     0
 42
0.00000001
 43
0.00000001
 12
1.0
 22
0.0
 32
0.0
 13
1.0
 23
0.0
 33
0.0
 40
0.0
 40
0.0
 40
0.0
 40
0.0
 40
0.499999999830264
 40
1.0
 40
1.0
 40
1.0
 40
1.0
 10
91.37434501125655
 20
92.69738300860813
 30
0.0
 10
91.38515641346605
 20
92.69738300860813
 30
0.0
 10
91.40677921789238
 20
92.69738300860813
 30
0.0
 10
91.55626435173637
 20
92.69738300860813
 30
0.0
 10
91.63100691868375
 20
92.69738300860813
 30
0.0
  0
SPLINE
  5
B1
330
1F
100
AcDbEntity
  8
0
  6
Continuous
 62
     7
370
     0
100
AcDbSpline
210
0.0
220
0.0
230
1.0
 70
     8
 71
     3
 72
     9
 73
     5
 74
     0
 42
0.00000001
 43
0.00000001
 12
1.0
 22
0.0
 32
0.0
 13
1.0
 23
0.0
 33
0.0
 40
0.0
 40
0.0
 40
0.0
 40
0.0
 40
0.4990042685583541
 40
1.0
 40
1.0
 40
1.0
 40
1.0
 10
90.40939043086695
 20
93.25449979360812
 30
0.0
 10
90.6104721708249
 20
93.14328170060479
 30
0.0
 10
91.01343814251669
 20
92.92040165726436
 30
0.0
 10
91.42487753986256
 20
92.77182118898946
 30
0.0
 10
91.63100692167976
 20
92.69738300860813
 30
0.0
  0
LINE
  5
B2
330
1F
100
AcDbEntity
  8
0
  6
Continuous
 62
     7
370
     0
100
AcDbLine
 10
90.4093904309
 20
95.1402662236
 30
0.0
 11
90.4093904309
 21
93.2544997936
 31
0.0
  0
SPLINE
  5
B3
330
1F
100
AcDbEntity
  8
0
  6
Continuous
 62
     7
370
     0
100
AcDbSpline
210
0.0
220
0.0
230
1.0
 70
     8
 71
     3
 72
     9
 73
     5
 74
     0
 42
0.00000001
 43
0.00000001
 12
1.0
 22
0.0
 32
0.0
 13
1.0
 23
0.0
 33
0.0
 40
0.0
 40
0.0
 40
0.0
 40
0.0
 40
0.4988474740134616
 40
1.0
 40
1.0
 40
1.0
 40
1.0
 10
91.63100692167976
 20
95.69738300860811
 30
0.0
 10
91.42575900303704
 20
95.623296371402
 30
0.0
 10
91.01431476539982
 20
95.47478076078849
 30
0.0
 10
90.61134150048437
 20
95.25194228742248
 30
0.0
 10
90.40939043086695
 20
95.14026622360812
 30
0.0
  0
LINE
  5
B4
330
1F
100
AcDbEntity
  8
0
  6
Continuous
 62
     7
370
     0
100
AcDbLine
 10
94.0952512281
 20
95.6973830086
 30
0.0
 11
91.6310069217
 21
95.6973830086
 31
0.0
  0
SPLINE
  5
B5
330
1F
100
AcDbEntity
  8
0
  6
Continuous
 62
     7
370
     0
100
AcDbSpline
210
0.0
220
0.0
230
1.0
 70
     8
 71
     3
 72
     9
 73
     5
 74
     0
 42
0.00000001
 43
0.00000001
 12
1.0
 22
0.0
 32
0.0
 13
1.0
 23
0.0
 33
0.0
 40
0.0
 40
0.0
 40
0.0
 40
0.0
 40
0.4990042685583531
 40
0.9999999999999999
 40
0.9999999999999999
 40
0.9999999999999999
 40
0.9999999999999999
 10
95.31686771886694
 20
95.14026622360812
 30
0.0
 10
95.11578597890899
 20
95.25148431661145
 30
0.0
 10
94.7128200072172
 20
95.47436435995188
 30
0.0
 10
94.30138060987134
 20
95.62294482822679
 30
0.0
 10
94.09525122805414
 20
95.69738300860813
 30
0.0
  0
LINE
  5
B6
330
1F
100
AcDbEntity
  8
0
  6
Continuous
 62
     7
370
     0
100
AcDbLine
 10
95.3168677189
 20
93.2544997936
 30
0.0
 11
95.3168677189
 21
95.1402662236
 31
0.0
  0
SPLINE
  5
B7
330
1F
100
AcDbEntity
  8
0
  6
Continuous
 62
     7
370
     0
100
AcDbSpline
210
0.0
220
0.0
230
1.0
 70
     8
 71
     3
 72
     9
 73
     5
 74
     0
 42
0.00000001
 43
0.00000001
 12
1.0
 22
0.0
 32
0.0
 13
1.0
 23
0.0
 33
0.0
 40
0.0
 40
0.0
 40
0.0
 40
0.0
 40
0.4988474740134617
 40
1.0
 40
1.0
 40
1.0
 40
1.0
 10
94.09525122805414
 20
92.69738300860811
 30
0.0
 10
94.30049914669686
 20
92.77146964581424
 30
0.0
 10
94.71194338433409
 20
92.91998525642771
 30
0.0
 10
95.11491664924954
 20
93.14282372979375
 30
0.0
 10
95.31686771886694
 20
93.25449979360812
 30
0.0
  0
LINE
  5
B8
330
1F
100
AcDbEntity
  8
0
  6
Continuous
 62
     7
370
     0
100
AcDbLine
 10
91.6310069217
 20
92.6973830086
 30
0.0
 11
94.0952512281
 21
92.6973830086
 31
0.0
  0
SPLINE
  5
B9
330
1F
100
AcDbEntity
  8
0
  6
Continuous
 62
     7
370
     0
100
AcDbSpline
210
0.0
220
0.0
230
1.0
 70
     8
 71
     3
 72
     9
 73
     5
 74
     0
 42
0.00000001
 43
0.00000001
 12
1.0
 22
0.0
 32
0.0
 13
1.0
 23
0.0
 33
0.0
 40
0.0
 40
0.0
 40
0.0
 40
0.0
 40
0.4990042685583541
 40
1.0
 40
1.0
 40
1.0
 40
1.0
 10
90.40939043086695
 20
90.25449979360812
 30
0.0
 10
90.6104721708249
 20
90.14328170060479
 30
0.0
 10
91.01343814251669
 20
89.92040165726438
 30
0.0
 10
91.42487753986256
 20
89.77182118898946
 30
0.0
 10
91.63100692167976
 20
89.69738300860811
 30
0.0
  0
LINE
  5
BA
330
1F
100
AcDbEntity
  8
0
  6
Continuous
 62
     7
370
     0
100
AcDbLine
 10
90.4093904309
 20
92.1402662236
 30
0.0
 11
90.4093904309
 21
90.2544997936
 31
0.0
  0
SPLINE
  5
BB
330
1F
100
AcDbEntity
  8
0
  6
Continuous
 62
     7
370
     0
100
AcDbSpline
210
0.0
220
0.0
230
1.0
 70
     8
 71
     3
 72
     9
 73
     5
 74
     0
 42
0.00000001
 43
0.00000001
 12
1.0
 22
0.0
 32
0.0
 13
1.0
 23
0.0
 33
0.0
 40
0.0
 40
0.0
 40
0.0
 40
0.0
 40
0.4988474740134619
 40
1.0
 40
1.0
 40
1.0
 40
1.0
 10
91.63100692167976
 20
92.69738300860813
 30
0.0
 10
91.42575900303704
 20
92.623296371402
 30
0.0
 10
91.01431476539982
 20
92.47478076078849
 30
0.0
 10
90.61134150048437
 20
92.25194228742251
 30
0.0
 10
90.40939043086695
 20
92.14026622360814
 30
0.0
  0
SPLINE
  5
BC
330
1F
100
AcDbEntity
  8
0
  6
Continuous
 62
     7
370
     0
100
AcDbSpline
210
0.0
220
0.0
230
1.0
 70
     8
 71
     3
 72
     9
 73
     5
 74
     0
 42
0.00000001
 43
0.00000001
 12
1.0
 22
0.0
 32
0.0
 13
1.0
 23
0.0
 33
0.0
 40
0.0
 40
0.0
 40
0.0
 40
0.0
 40
0.4990042685583528
 40
1.0
 40
1.0
 40
1.0
 40
1.0
 10
95.31686771886694
 20
92.14026622360814
 30
0.0
 10
95.11578597890899
 20
92.25148431661145
 30
0.0
 10
94.7128200072172
 20
92.47436435995186
 30
0.0
 10
94.30138060987134
 20
92.62294482822679
 30
0.0
 10
94.09525122805414
 20
92.69738300860813
 30
0.0
  0
LINE
  5
BD
330
1F
100
AcDbEntity
  8
0
  6
Continuous
 62
     7
370
     0
100
AcDbLine
 10
95.3168677189
 20
90.2544997936
 30
0.0
 11
95.3168677189
 21
92.1402662236
 31
0.0
  0
SPLINE
  5
BE
330
1F
100
AcDbEntity
  8
0
  6
Continuous
 62
     7
370
     0
100
AcDbSpline
210
0.0
220
0.0
230
1.0
 70
     8
 71
     3
 72
     9
 73
     5
 74
     0
 42
0.00000001
 43
0.00000001
 12
1.0
 22
0.0
 32
0.0
 13
1.0
 23
0.0
 33
0.0
 40
0.0
 40
0.0
 40
0.0
 40
0.0
 40
0.4988474740134617
 40
1.0
 40
1.0
 40
1.0
 40
1.0
 10
94.09525122805414
 20
89.69738300860811
 30
0.0
 10
94.30049914669686
 20
89.77146964581422
 30
0.0
 10
94.71194338433409
 20
89.91998525642771
 30
0.0
 10
95.11491664924954
 20
90.14282372979375
 30
0.0
 10
95.31686771886694
 20
90.25449979360812
 30
0.0
  0
LINE
  5
BF
330
1F
100
AcDbEntity
  8
0
  6
Continuous
 62
     7
370
     0
100
AcDbLine
 10
91.6310069217
 20
89.6973830086
 30
0.0
 11
94.0952512281
 21
89.6973830086
 31
0.0
  0
SPLINE
  5
C0
330
1F
100
AcDbEntity
  8
0
  6
Continuous
 62
     7
370
     0
100
AcDbSpline
210
0.0
220
0.0
230
1.0
 70
     8
 71
     3
 72
     9
 73
     5
 74
     0
 42
0.00000001
 43
0.00000001
 12
1.0
 22
0.0
 32
0.0
 13
1.0
 23
0.0
 33
0.0
 40
0.0
 40
0.0
 40
0.0
 40
0.0
 40
0.498426518520767
 40
1.0
 40
1.0
 40
1.0
 40
1.0
 10
95.31686771886694
 20
93.25449979360812
 30
0.0
 10
95.71856361663342
 20
93.14340490195484
 30
0.0
 10
96.52449163779612
 20
92.92051368825497
 30
0.0
 10
97.3473678259659
 20
92.77191577919558
 30
0.0
 10
97.76010070049257
 20
92.69738300860813
 30
0.0
  0
SPLINE
  5
C1
330
1F
100
AcDbEntity
  8
0
  6
Continuous
 62
     7
370
     0
100
AcDbSpline
210
0.0
220
0.0
230
1.0
 70
     8
 71
     3
 72
     9
 73
     5
 74
     0
 42
0.00000001
 43
0.00000001
 12
1.0
 22
0.0
 32
0.0
 13
1.0
 23
0.0
 33
0.0
 40
0.0
 40
0.0
 40
0.0
 40
0.0
 40
0.5008258026266235
 40
1.0
 40
1.0
 40
1.0
 40
1.0
 10
97.76010070049257
 20
95.69738300860813
 30
0.0
 10
97.34798138396538
 20
95.62297264499044
 30
0.0
 10
96.52510182311646
 20
95.47439730556617
 30
0.0
 10
95.7191687258377
 20
95.25152054945374
 30
0.0
 10
95.31686771886694
 20
95.14026622360812
 30
0.0
  0
LINE
  5
C2
330
1F
100
AcDbEntity
  8
0
  6
Continuous
 62
     7
370
     0
100
AcDbLine
 10
102.6885893132
 20
95.6973830086
 30
0.0
 11
97.7601007005
 21
95.6973830086
 31
0.0
  0
SPLINE
  5
C3
330
1F
100
AcDbEntity
  8
0
  6
Continuous
 62
     7
370
     0
100
AcDbSpline
210
0.0
220
0.0
230
1.0
 70
     8
 71
     3
 72
     9
 73
     5
 74
     0
 42
0.00000001
 43
0.00000001
 12
1.0
 22
0.0
 32
0.0
 13
1.0
 23
0.0
 33
0.0
 40
0.0
 40
0.0
 40
0.0
 40
0.0
 40
0.4984265185207669
 40
1.0
 40
1.0
 40
1.0
 40
1.0
 10
105.131822294867
 20
95.14026622360811
 30
0.0
 10
104.7301263971005
 20
95.2513611152614
 30
0.0
 10
103.9241983759378
 20
95.47425232896126
 30
0.0
 10
103.101322187768
 20
95.62285023802067
 30
0.0
 10
102.6885893132413
 20
95.69738300860813
 30
0.0
  0
LINE
  5
C4
330
1F
100
AcDbEntity
  8
0
  6
Continuous
 62
     7
370
     0
100
AcDbLine
 10
105.1318222949
 20
93.2544997936
 30
0.0
 11
105.1318222949
 21
95.1402662236
 31
0.0
  0
SPLINE
  5
C5
330
1F
100
AcDbEntity
  8
0
  6
Continuous
 62
     7
370
     0
100
AcDbSpline
210
0.0
220
0.0
230
1.0
 70
     8
 71
     3
 72
     9
 73
     5
 74
     0
 42
0.00000001
 43
0.00000001
 12
1.0
 22
0.0
 32
0.0
 13
1.0
 23
0.0
 33
0.0
 40
0.0
 40
0.0
 40
0.0
 40
0.0
 40
0.5008258026266244
 40
1.0
 40
1.0
 40
1.0
 40
1.0
 10
102.6885893132413
 20
92.69738300860813
 30
0.0
 10
103.1007086297685
 20
92.77179337222582
 30
0.0
 10
103.9235881906175
 20
92.92036871165007
 30
0.0
 10
104.7295212878962
 20
93.14324546776251
 30
0.0
 10
105.131822294867
 20
93.25449979360812
 30
0.0
  0
LINE
  5
C6
330
1F
100
AcDbEntity
  8
0
  6
Continuous
 62
     7
370
     0
100
AcDbLine
 10
105.1318222949
 20
90.2544997936
 30
0.0
 11
105.1318222949
 21
92.1402662236
 31
0.0
  0
SPLINE
  5
C7
330
1F
100
AcDbEntity
  8
0
  6
Continuous
 62
     7
370
     0
100
AcDbSpline
210
0.0
220
0.0
230
1.0
 70
     8
 71
     3
 72
     9
 73
     5
 74
     0
 42
0.00000001
 43
0.00000001
 12
1.0
 22
0.0
 32
0.0
 13
1.0
 23
0.0
 33
0.0
 40
0.0
 40
0.0
 40
0.0
 40
0.0
 40
0.4984265185207665
 40
1.0
 40
1.0
 40
1.0
 40
1.0
 10
105.131822294867
 20
92.14026622360814
 30
0.0
 10
104.7301263971005
 20
92.25136111526143
 30
0.0
 10
103.9241983759378
 20
92.47425232896127
 30
0.0
 10
103.101322187768
 20
92.62285023802066
 30
0.0
 10
102.6885893132413
 20
92.69738300860813
 30
0.0
  0
SPLINE
  5
C8
330
1F
100
AcDbEntity
  8
0
  6
Continuous
 62
     7
370
     0
100
AcDbSpline
210
0.0
220
0.0
230
1.0
 70
     8
 71
     3
 72
     9
 73
     5
 74
     0
 42
0.00000001
 43
0.00000001
 12
1.0
 22
0.0
 32
0.0
 13
1.0
 23
0.0
 33
0.0
 40
0.0
 40
0.0
 40
0.0
 40
0.0
 40
0.5008258026266238
 40
1.0
 40
1.0
 40
1.0
 40
1.0
 10
97.76010070049257
 20
92.69738300860813
 30
0.0
 10
97.34798138396538
 20
92.62297264499045
 30
0.0
 10
96.52510182311646
 20
92.47439730556619
 30
0.0
 10
95.7191687258377
 20
92.25152054945373
 30
0.0
 10
95.31686771886694
 20
92.14026622360814
 30
0.0
  0
SPLINE
  5
C9
330
1F
100
AcDbEntity
  8
0
  6
Continuous
 62
     7
370
     0
100
AcDbSpline
210
0.0
220
0.0
230
1.0
 70
     8
 71
     3
 72
     9
 73
     5
 74
     0
 42
0.00000001
 43
0.00000001
 12
1.0
 22
0.0
 32
0.0
 13
1.0
 23
0.0
 33
0.0
 40
0.0
 40
0.0
 40
0.0
 40
0.0
 40
0.498426518520767
 40
1.0
 40
1.0
 40
1.0
 40
1.0
 10
95.31686771886694
 20
90.25449979360812
 30
0.0
 10
95.71856361663342
 20
90.14340490195484
 30
0.0
 10
96.52449163779612
 20
89.92051368825499
 30
0.0
 10
97.3473678259659
 20
89.7719157791956
 30
0.0
 10
97.76010070049257
 20
89.69738300860811
 30
0.0
  0
SPLINE
  5
CA
330
1F
100
AcDbEntity
  8
0
  6
Continuous
 62
     7
370
     0
100
AcDbSpline
210
0.0
220
0.0
230
1.0
 70
     8
 71
     3
 72
     9
 73
     5
 74
     0
 42
0.00000001
 43
0.00000001
 12
1.0
 22
0.0
 32
0.0
 13
1.0
 23
0.0
 33
0.0
 40
0.0
 40
0.0
 40
0.0
 40
0.0
 40
0.5008258026266244
 40
1.0
 40
1.0
 40
1.0
 40
1.0
 10
102.6885893132413
 20
89.69738300860811
 30
0.0
 10
103.1007086297685
 20
89.77179337222582
 30
0.0
 10
103.9235881906175
 20
89.92036871165007
 30
0.0
 10
104.7295212878962
 20
90.14324546776251
 30
0.0
 10
105.131822294867
 20
90.25449979360812
 30
0.0
  0
SPLINE
  5
CB
330
1F
100
AcDbEntity
  8
0
  6
Continuous
 62
     7
370
     0
100
AcDbSpline
210
0.0
220
0.0
230
1.0
 70
     8
 71
     3
 72
     9
 73
     5
 74
     0
 42
0.00000001
 43
0.00000001
 12
1.0
 22
0.0
 32
0.0
 13
1.0
 23
0.0
 33
0.0
 40
0.0
 40
0.0
 40
0.0
 40
0.0
 40
0.4990042685583544
 40
1.0
 40
1.0
 40
1.0
 40
1.0
 10
105.131822294867
 20
93.25449979360812
 30
0.0
 10
105.3329040348249
 20
93.14328170060477
 30
0.0
 10
105.7358700065167
 20
92.92040165726436
 30
0.0
 10
106.1473094038626
 20
92.77182118898945
 30
0.0
 10
106.3534387856798
 20
92.69738300860813
 30
0.0
  0
SPLINE
  5
CC
330
1F
100
AcDbEntity
  8
0
  6
Continuous
 62
     7
370
     0
100
AcDbSpline
210
0.0
220
0.0
230
1.0
 70
     8
 71
     3
 72
     9
 73
     5
 74
     0
 42
0.00000001
 43
0.00000001
 12
1.0
 22
0.0
 32
0.0
 13
1.0
 23
0.0
 33
0.0
 40
0.0
 40
0.0
 40
0.0
 40
0.0
 40
0.4988474740134617
 40
1.0
 40
1.0
 40
1.0
 40
1.0
 10
106.3534387856798
 20
95.69738300860811
 30
0.0
 10
106.148190867037
 20
95.62329637140202
 30
0.0
 10
105.7367466293998
 20
95.47478076078849
 30
0.0
 10
105.3337733644844
 20
95.25194228742248
 30
0.0
 10
105.131822294867
 20
95.14026622360812
 30
0.0
  0
LINE
  5
CD
330
1F
100
AcDbEntity
  8
0
  6
Continuous
 62
     7
370
     0
100
AcDbLine
 10
108.8176830921
 20
95.6973830086
 30
0.0
 11
106.3534387857
 21
95.6973830086
 31
0.0
  0
SPLINE
  5
CE
330
1F
100
AcDbEntity
  8
0
  6
Continuous
 62
     7
370
     0
100
AcDbSpline
210
0.0
220
0.0
230
1.0
 70
     8
 71
     3
 72
     9
 73
     5
 74
     0
 42
0.00000001
 43
0.00000001
 12
1.0
 22
0.0
 32
0.0
 13
1.0
 23
0.0
 33
0.0
 40
0.0
 40
0.0
 40
0.0
 40
0.0
 40
0.4990042685583533
 40
1.0
 40
1.0
 40
1.0
 40
1.0
 10
110.039299582867
 20
95.14026622360812
 30
0.0
 10
109.838217842909
 20
95.25148431661144
 30
0.0
 10
109.4352518712172
 20
95.47436435995185
 30
0.0
 10
109.0238124738713
 20
95.62294482822678
 30
0.0
 10
108.8176830920541
 20
95.69738300860813
 30
0.0
  0
LINE
  5
CF
330
1F
100
AcDbEntity
  8
0
  6
Continuous
 62
     7
370
     0
100
AcDbLine
 10
110.0392995829
 20
93.2544997936
 30
0.0
 11
110.0392995829
 21
95.1402662236
 31
0.0
  0
SPLINE
  5
D0
330
1F
100
AcDbEntity
  8
0
  6
Continuous
 62
     7
370
     0
100
AcDbSpline
210
0.0
220
0.0
230
1.0
 70
     8
 71
     3
 72
     9
 73
     5
 74
     0
 42
0.00000001
 43
0.00000001
 12
1.0
 22
0.0
 32
0.0
 13
1.0
 23
0.0
 33
0.0
 40
0.0
 40
0.0
 40
0.0
 40
0.0
 40
0.4988474740134612
 40
1.0
 40
1.0
 40
1.0
 40
1.0
 10
108.8176830920541
 20
92.69738300860813
 30
0.0
 10
109.0229310106969
 20
92.77146964581422
 30
0.0
 10
109.4343752483341
 20
92.91998525642771
 30
0.0
 10
109.8373485132495
 20
93.14282372979375
 30
0.0
 10
110.039299582867
 20
93.25449979360812
 30
0.0
  0
LINE
  5
D1
330
1F
100
AcDbEntity
  8
0
  6
Continuous
 62
     7
370
     0
100
AcDbLine
 10
106.3534387857
 20
92.6973830086
 30
0.0
 11
108.8176830921
 21
92.6973830086
 31
0.0
  0
SPLINE
  5
D2
330
1F
100
AcDbEntity
  8
0
  6
Continuous
 62
     7
370
     0
100
AcDbSpline
210
0.0
220
0.0
230
1.0
 70
     8
 71
     3
 72
     9
 73
     5
 74
     0
 42
0.00000001
 43
0.00000001
 12
1.0
 22
0.0
 32
0.0
 13
1.0
 23
0.0
 33
0.0
 40
0.0
 40
0.0
 40
0.0
 40
0.0
 40
0.4990042685583544
 40
1.0
 40
1.0
 40
1.0
 40
1.0
 10
105.131822294867
 20
90.25449979360812
 30
0.0
 10
105.3329040348249
 20
90.14328170060477
 30
0.0
 10
105.7358700065167
 20
89.92040165726438
 30
0.0
 10
106.1473094038626
 20
89.77182118898946
 30
0.0
 10
106.3534387856798
 20
89.69738300860811
 30
0.0
  0
SPLINE
  5
D3
330
1F
100
AcDbEntity
  8
0
  6
Continuous
 62
     7
370
     0
100
AcDbSpline
210
0.0
220
0.0
230
1.0
 70
     8
 71
     3
 72
     9
 73
     5
 74
     0
 42
0.00000001
 43
0.00000001
 12
1.0
 22
0.0
 32
0.0
 13
1.0
 23
0.0
 33
0.0
 40
0.0
 40
0.0
 40
0.0
 40
0.0
 40
0.498847474013462
 40
1.0
 40
1.0
 40
1.0
 40
1.0
 10
106.3534387856798
 20
92.69738300860813
 30
0.0
 10
106.148190867037
 20
92.623296371402
 30
0.0
 10
105.7367466293998
 20
92.47478076078848
 30
0.0
 10
105.3337733644844
 20
92.2519422874225
 30
0.0
 10
105.131822294867
 20
92.14026622360814
 30
0.0
  0
SPLINE
  5
D4
330
1F
100
AcDbEntity
  8
0
  6
Continuous
 62
     7
370
     0
100
AcDbSpline
210
0.0
220
0.0
230
1.0
 70
     8
 71
     3
 72
     9
 73
     5
 74
     0
 42
0.00000001
 43
0.00000001
 12
1.0
 22
0.0
 32
0.0
 13
1.0
 23
0.0
 33
0.0
 40
0.0
 40
0.0
 40
0.0
 40
0.0
 40
0.4990042685583529
 40
1.0
 40
1.0
 40
1.0
 40
1.0
 10
110.039299582867
 20
92.14026622360814
 30
0.0
 10
109.838217842909
 20
92.25148431661145
 30
0.0
 10
109.4352518712172
 20
92.47436435995188
 30
0.0
 10
109.0238124738713
 20
92.62294482822679
 30
0.0
 10
108.8176830920541
 20
92.69738300860813
 30
0.0
  0
LINE
  5
D5
330
1F
100
AcDbEntity
  8
0
  6
Continuous
 62
     7
370
     0
100
AcDbLine
 10
110.0392995829
 20
90.2544997936
 30
0.0
 11
110.0392995829
 21
92.1402662236
 31
0.0
  0
SPLINE
  5
D6
330
1F
100
AcDbEntity
  8
0
  6
Continuous
 62
     7
370
     0
100
AcDbSpline
210
0.0
220
0.0
230
1.0
 70
     8
 71
     3
 72
     9
 73
     5
 74
     0
 42
0.00000001
 43
0.00000001
 12
1.0
 22
0.0
 32
0.0
 13
1.0
 23
0.0
 33
0.0
 40
0.0
 40
0.0
 40
0.0
 40
0.0
 40
0.4988474740134612
 40
1.0
 40
1.0
 40
1.0
 40
1.0
 10
108.8176830920541
 20
89.69738300860811
 30
0.0
 10
109.0229310106969
 20
89.77146964581422
 30
0.0
 10
109.4343752483341
 20
89.91998525642772
 30
0.0
 10
109.8373485132495
 20
90.14282372979375
 30
0.0
 10
110.039299582867
 20
90.25449979360812
 30
0.0
  0
LINE
  5
D7
330
1F
100
AcDbEntity
  8
0
  6
Continuous
 62
     7
370
     0
100
AcDbLine
 10
106.3534387857
 20
89.6973830086
 30
0.0
 11
108.8176830921
 21
89.6973830086
 31
0.0
  0
SPLINE
  5
D8
330
1F
100
AcDbEntity
  8
0
  6
Continuous
 62
     7
370
     0
100
AcDbSpline
210
0.0
220
0.0
230
1.0
 70
     8
 71
     3
 72
     9
 73
     5
 74
     0
 42
0.00000001
 43
0.00000001
 12
1.0
 22
0.0
 32
0.0
 13
1.0
 23
0.0
 33
0.0
 40
0.0
 40
0.0
 40
0.0
 40
0.0
 40
0.5625941239192747
 40
1.0
 40
1.0
 40
1.0
 40
1.0
 10
110.039299582867
 20
93.25449979360812
 30
0.0
 10
109.838307468053
 20
93.14249581891
 30
0.0
 10
109.4810479335705
 20
92.94341095482037
 30
0.0
 10
109.1162727223489
 20
92.81022760575448
 30
0.0
 10
108.956717901512
 20
92.75197242627695
 30
0.0
  0
SPLINE
  5
D9
330
1F
100
AcDbEntity
  8
0
  6
Continuous
 62
     7
370
     0
100
AcDbSpline
210
0.0
220
0.0
230
1.0
 70
     8
 71
     3
 72
     9
 73
     5
 74
     0
 42
0.00000001
 43
0.00000001
 12
1.0
 22
0.0
 32
0.0
 13
1.0
 23
0.0
 33
0.0
 40
0.0
 40
0.0
 40
0.0
 40
0.0
 40
0.5625941239192747
 40
1.0
 40
1.0
 40
1.0
 40
1.0
 10
110.039299582867
 20
90.25449979360812
 30
0.0
 10
109.838307468053
 20
90.14249581891
 30
0.0
 10
109.4810479335705
 20
89.94341095482037
 30
0.0
 10
109.1162727223489
 20
89.81022760575448
 30
0.0
 10
108.956717901512
 20
89.75197242627695
 30
0.0
  0
SPLINE
  5
DA
330
1F
100
AcDbEntity
  8
0
  6
Continuous
 62
     7
370
     0
100
AcDbSpline
210
0.0
220
0.0
230
1.0
 70
     8
 71
     3
 72
     9
 73
     5
 74
     0
 42
0.00000001
 43
0.00000001
 12
1.0
 22
0.0
 32
0.0
 13
1.0
 23
0.0
 33
0.0
 40
0.0
 40
0.0
 40
0.0
 40
0.0
 40
0.5625936470213574
 40
1.0
 40
1.0
 40
1.0
 40
1.0
 10
90.40939043086695
 20
92.14026622360814
 30
0.0
 10
90.61038254635308
 20
92.25227019241244
 30
0.0
 10
90.96764238487113
 20
92.45135521478574
 30
0.0
 10
91.33241790649915
 20
92.58453866627202
 30
0.0
 10
91.49197303707032
 20
92.64279395406375
 30
0.0
  0
SPLINE
  5
DB
330
1F
100
AcDbEntity
  8
0
  6
Continuous
 62
     7
370
     0
100
AcDbSpline
210
0.0
220
0.0
230
1.0
 70
     8
 71
     3
 72
     9
 73
     5
 74
     0
 42
0.00000001
 43
0.00000001
 12
1.0
 22
0.0
 32
0.0
 13
1.0
 23
0.0
 33
0.0
 40
0.0
 40
0.0
 40
0.0
 40
0.0
 40
0.5625936470213577
 40
1.0
 40
1.0
 40
1.0
 40
1.0
 10
90.40939043086695
 20
95.14026622360811
 30
0.0
 10
90.61038254635308
 20
95.25227019241244
 30
0.0
 10
90.96764238487111
 20
95.45135521478572
 30
0.0
 10
91.33241790649915
 20
95.58453866627201
 30
0.0
 10
91.49197303707032
 20
95.64279395406375
 30
0.0
  0
SPLINE
  5
DC
330
1F
100
AcDbEntity
  8
0
  6
Continuous
 62
     7
370
     0
100
AcDbSpline
210
0.0
220
0.0
230
1.0
 70
    24
 71
     3
 72
     9
 73
     5
 74
     0
 42
0.00000001
 43
0.00000001
 12
1.0
 22
0.0
 32
0.0
 13
1.0
 23
0.0
 33
0.0
 40
0.0
 40
0.0
 40
0.0
 40
0.0
 40
0.5000000001697362
 40
1.0
 40
1.0
 40
1.0
 40
1.0
 10
108.8176830950501
 20
92.69738300860813
 30
0.0
 10
108.8924256619975
 20
92.69738300860813
 30
0.0
 10
109.0419107958415
 20
92.69738300860814
 30
0.0
 10
109.0635336002679
 20
92.69738300860813
 30
0.0
 10
109.0743450024774
 20
92.69738300860813
 30
0.0
  0
LINE
  5
DD
330
1F
100
AcDbEntity
  8
0
  6
Continuous
 62
     7
370
     0
100
AcDbLine
 10
106.3534387784
 20
92.6973830086
 30
0.0
 11
108.8176830951
 21
92.6973830086
 31
0.0
  0
SPLINE
  5
DE
330
1F
100
AcDbEntity
  8
0
  6
Continuous
 62
     7
370
     0
100
AcDbSpline
210
0.0
220
0.0
230
1.0
 70
    24
 71
     3
 72
    11
 73
     7
 74
     0
 42
0.00000001
 43
0.00000001
 12
1.0
 22
0.0
 32
0.0
 13
1.0
 23
0.0
 33
0.0
 40
0.0
 40
0.0
 40
0.0
 40
0.0
 40
0.2500000023153452
 40
0.4999999998736464
 40
0.7500000005171863
 40
1.0
 40
1.0
 40
1.0
 40
1.0
 10
102.6885893055941
 20
92.69738300860813
 30
0.0
 10
103.0272344846002
 20
92.69738300860814
 30
0.0
 10
103.7045248361685
 20
92.69738300860813
 30
0.0
 10
104.6586119282896
 20
92.69738300860811
 30
0.0
 10
105.5570974979369
 20
92.69738300860814
 30
0.0
 10
106.0879916853302
 20
92.69738300860814
 30
0.0
 10
106.3534387784105
 20
92.69738300860813
 30
0.0
  0
SPLINE
  5
DF
330
1F
100
AcDbEntity
  8
0
  6
Continuous
 62
     7
370
     0
100
AcDbSpline
210
0.0
220
0.0
230
1.0
 70
    24
 71
     3
 72
    11
 73
     7
 74
     0
 42
0.00000001
 43
0.00000001
 12
1.0
 22
0.0
 32
0.0
 13
1.0
 23
0.0
 33
0.0
 40
0.0
 40
0.0
 40
0.0
 40
0.0
 40
0.249999999482814
 40
0.5000000001263535
 40
0.7499999976846545
 40
1.0
 40
1.0
 40
1.0
 40
1.0
 10
94.09525123532335
 20
92.69738300860813
 30
0.0
 10
94.36069832840376
 20
92.69738300860813
 30
0.0
 10
94.891592515797
 20
92.69738300860811
 30
0.0
 10
95.79007808544429
 20
92.69738300860814
 30
0.0
 10
96.74416517756542
 20
92.69738300860813
 30
0.0
 10
97.4214555291337
 20
92.69738300860813
 30
0.0
 10
97.76010070813975
 20
92.69738300860813
 30
0.0
  0
LINE
  5
E0
330
1F
100
AcDbEntity
  8
0
  6
Continuous
 62
     7
370
     0
100
AcDbLine
 10
91.6310069187
 20
92.6973830086
 30
0.0
 11
94.0952512353
 21
92.6973830086
 31
0.0
  0
SPLINE
  5
E1
330
1F
100
AcDbEntity
  8
0
  6
Continuous
 62
     7
370
     0
100
AcDbSpline
210
0.0
220
0.0
230
1.0
 70
    24
 71
     3
 72
     9
 73
     5
 74
     0
 42
0.00000001
 43
0.00000001
 12
1.0
 22
0.0
 32
0.0
 13
1.0
 23
0.0
 33
0.0
 40
0.0
 40
0.0
 40
0.0
 40
0.0
 40
0.4998716769263555
 40
1.0
 40
1.0
 40
1.0
 40
1.0
 10
91.3743780586468
 20
92.69738300860813
 30
0.0
 10
91.38518664608567
 20
92.69738300860813
 30
0.0
 10
91.40680937035225
 20
92.69738300860813
 30
0.0
 10
91.55626161712547
 20
92.69738300860814
 30
0.0
 10
91.63100691868375
 20
92.69738300860813
 30
0.0
  0
SPLINE
  5
E2
330
1F
100
AcDbEntity
  8
0
  6
Continuous
 62
     7
370
     0
100
AcDbSpline
210
0.0
220
0.0
230
1.0
 70
    24
 71
     3
 72
     9
 73
     5
 74
     0
 42
0.00000001
 43
0.00000001
 12
1.0
 22
0.0
 32
0.0
 13
1.0
 23
0.0
 33
0.0
 40
0.0
 40
0.0
 40
0.0
 40
0.0
 40
0.4998716769263555
 40
1.0
 40
1.0
 40
1.0
 40
1.0
 10
91.3743780586468
 20
95.69738300860813
 30
0.0
 10
91.38518664608567
 20
95.69738300860813
 30
0.0
 10
91.40680937035225
 20
95.69738300860811
 30
0.0
 10
91.55626161712547
 20
95.69738300860813
 30
0.0
 10
91.63100691868375
 20
95.69738300860813
 30
0.0
  0
LINE
  5
E3
330
1F
100
AcDbEntity
  8
0
  6
Continuous
 62
     7
370
     0
100
AcDbLine
 10
91.6310069187
 20
95.6973830086
 30
0.0
 11
94.0952512353
 21
95.6973830086
 31
0.0
  0
SPLINE
  5
E4
330
1F
100
AcDbEntity
  8
0
  6
Continuous
 62
     7
370
     0
100
AcDbSpline
210
0.0
220
0.0
230
1.0
 70
    24
 71
     3
 72
    11
 73
     7
 74
     0
 42
0.00000001
 43
0.00000001
 12
1.0
 22
0.0
 32
0.0
 13
1.0
 23
0.0
 33
0.0
 40
0.0
 40
0.0
 40
0.0
 40
0.0
 40
0.249999999482814
 40
0.5000000001263535
 40
0.7499999976846545
 40
1.0
 40
1.0
 40
1.0
 40
1.0
 10
94.09525123532335
 20
95.69738300860813
 30
0.0
 10
94.36069832840376
 20
95.69738300860813
 30
0.0
 10
94.891592515797
 20
95.69738300860811
 30
0.0
 10
95.79007808544429
 20
95.69738300860814
 30
0.0
 10
96.74416517756542
 20
95.69738300860811
 30
0.0
 10
97.4214555291337
 20
95.69738300860813
 30
0.0
 10
97.76010070813975
 20
95.69738300860813
 30
0.0
  0
SPLINE
  5
E5
330
1F
100
AcDbEntity
  8
0
  6
Continuous
 62
     7
370
     0
100
AcDbSpline
210
0.0
220
0.0
230
1.0
 70
    24
 71
     3
 72
    11
 73
     7
 74
     0
 42
0.00000001
 43
0.00000001
 12
1.0
 22
0.0
 32
0.0
 13
1.0
 23
0.0
 33
0.0
 40
0.0
 40
0.0
 40
0.0
 40
0.0
 40
0.2500000023153452
 40
0.4999999998736464
 40
0.7500000005171863
 40
1.0
 40
1.0
 40
1.0
 40
1.0
 10
102.6885893055941
 20
95.69738300860813
 30
0.0
 10
103.0272344846002
 20
95.69738300860813
 30
0.0
 10
103.7045248361685
 20
95.69738300860813
 30
0.0
 10
104.6586119282896
 20
95.69738300860813
 30
0.0
 10
105.5570974979369
 20
95.69738300860813
 30
0.0
 10
106.0879916853302
 20
95.69738300860811
 30
0.0
 10
106.3534387784105
 20
95.69738300860813
 30
0.0
  0
LINE
  5
E6
330
1F
100
AcDbEntity
  8
0
  6
Continuous
 62
     7
370
     0
100
AcDbLine
 10
106.3534387784
 20
95.6973830086
 30
0.0
 11
108.8176830951
 21
95.6973830086
 31
0.0
  0
SPLINE
  5
E7
330
1F
100
AcDbEntity
  8
0
  6
Continuous
 62
     7
370
     0
100
AcDbSpline
210
0.0
220
0.0
230
1.0
 70
    24
 71
     3
 72
     9
 73
     5
 74
     0
 42
0.00000001
 43
0.00000001
 12
1.0
 22
0.0
 32
0.0
 13
1.0
 23
0.0
 33
0.0
 40
0.0
 40
0.0
 40
0.0
 40
0.0
 40
0.5000000001697362
 40
1.0
 40
1.0
 40
1.0
 40
1.0
 10
108.8176830950501
 20
95.69738300860813
 30
0.0
 10
108.8924256619975
 20
95.69738300860813
 30
0.0
 10
109.0419107958415
 20
95.69738300860813
 30
0.0
 10
109.0635336002679
 20
95.69738300860813
 30
0.0
 10
109.0743450024774
 20
95.69738300860813
 30
0.0
  0
SPLINE
  5
E8
330
1F
100
AcDbEntity
  8
0
  6
Continuous
 62
     7
370
     0
100
AcDbSpline
210
0.0
220
0.0
230
1.0
 70
     8
 71
     3
 72
     9
 73
     5
 74
     0
 42
0.00000001
 43
0.00000001
 12
1.0
 22
0.0
 32
0.0
 13
1.0
 23
0.0
 33
0.0
 40
0.0
 40
0.0
 40
0.0
 40
0.0
 40
0.4988474727713028
 40
1.0
 40
1.0
 40
1.0
 40
1.0
 10
91.6310069211357
 20
92.69738300860813
 30
0.0
 10
91.42575900294787
 20
92.62329637137954
 30
0.0
 10
91.01431476519804
 20
92.47478076035118
 30
0.0
 10
90.61134150057664
 20
92.25194228803865
 30
0.0
 10
90.40939043060602
 20
92.14026622447545
 30
0.0
  0
LINE
  5
E9
330
1F
100
AcDbEntity
  8
0
  6
Continuous
 62
     7
370
     0
100
AcDbLine
 10
91.3743450069
 20
95.6973830086
 30
0.0
 11
91.6310069211
 21
95.6973830086
 31
0.0
  0
SPLINE
  5
EA
330
1F
100
AcDbEntity
  8
0
  6
Continuous
 62
     7
370
     0
100
AcDbSpline
210
0.0
220
0.0
230
1.0
 70
     8
 71
     3
 72
     9
 73
     5
 74
     0
 42
0.00000001
 43
0.00000001
 12
1.0
 22
0.0
 32
0.0
 13
1.0
 23
0.0
 33
0.0
 40
0.0
 40
0.0
 40
0.0
 40
0.0
 40
0.4988474727713031
 40
1.0
 40
1.0
 40
1.0
 40
1.0
 10
91.63100692113568
 20
95.69738300860811
 30
0.0
 10
91.42575900294787
 20
95.62329637137954
 30
0.0
 10
91.01431476519804
 20
95.47478076035115
 30
0.0
 10
90.61134150057664
 20
95.25194228803865
 30
0.0
 10
90.40939043060602
 20
95.14026622447545
 30
0.0
  0
SPLINE
  5
EB
330
1F
100
AcDbEntity
  8
0
  6
Continuous
 62
     7
370
     0
100
AcDbSpline
210
0.0
220
0.0
230
1.0
 70
     8
 71
     3
 72
     9
 73
     5
 74
     0
 42
0.00000001
 43
0.00000001
 12
1.0
 22
0.0
 32
0.0
 13
1.0
 23
0.0
 33
0.0
 40
0.0
 40
0.0
 40
0.0
 40
0.0
 40
0.4990042696526422
 40
1.0
 40
1.0
 40
1.0
 40
1.0
 10
95.31686772207864
 20
95.14026622447545
 30
0.0
 10
95.11578598053298
 20
95.25148431636366
 30
0.0
 10
94.71282000654311
 20
95.47436435698059
 30
0.0
 10
94.30138061012309
 20
95.62294482734337
 30
0.0
 10
94.09525122921997
 20
95.69738300860813
 30
0.0
  0
LINE
  5
EC
330
1F
100
AcDbEntity
  8
0
  6
Continuous
 62
     7
370
     0
100
AcDbLine
 10
94.0952512292
 20
95.6973830086
 30
0.0
 11
97.760100697
 21
95.6973830086
 31
0.0
  0
SPLINE
  5
ED
330
1F
100
AcDbEntity
  8
0
  6
Continuous
 62
     7
370
     0
100
AcDbSpline
210
0.0
220
0.0
230
1.0
 70
     8
 71
     3
 72
     9
 73
     5
 74
     0
 42
0.00000001
 43
0.00000001
 12
1.0
 22
0.0
 32
0.0
 13
1.0
 23
0.0
 33
0.0
 40
0.0
 40
0.0
 40
0.0
 40
0.0
 40
0.5008258021404608
 40
0.9999999999999999
 40
0.9999999999999999
 40
0.9999999999999999
 40
0.9999999999999999
 10
97.760100697003
 20
95.69738300860813
 30
0.0
 10
97.3479813821188
 20
95.62297264464334
 30
0.0
 10
96.52510182375173
 20
95.47439730438178
 30
0.0
 10
95.7191687284529
 20
95.2515205497102
 30
0.0
 10
95.31686772207864
 20
95.14026622447545
 30
0.0
  0
SPLINE
  5
EE
330
1F
100
AcDbEntity
  8
0
  6
Continuous
 62
     7
370
     0
100
AcDbSpline
210
0.0
220
0.0
230
1.0
 70
     8
 71
     3
 72
     9
 73
     5
 74
     0
 42
0.00000001
 43
0.00000001
 12
1.0
 22
0.0
 32
0.0
 13
1.0
 23
0.0
 33
0.0
 40
0.0
 40
0.0
 40
0.0
 40
0.0
 40
0.5008258021404606
 40
1.0
 40
1.0
 40
1.0
 40
1.0
 10
97.760100697003
 20
92.69738300860813
 30
0.0
 10
97.3479813821188
 20
92.62297264464335
 30
0.0
 10
96.52510182375173
 20
92.47439730438178
 30
0.0
 10
95.7191687284529
 20
92.25152054971018
 30
0.0
 10
95.31686772207864
 20
92.14026622447545
 30
0.0
  0
SPLINE
  5
EF
330
1F
100
AcDbEntity
  8
0
  6
Continuous
 62
     7
370
     0
100
AcDbSpline
210
0.0
220
0.0
230
1.0
 70
     8
 71
     3
 72
     9
 73
     5
 74
     0
 42
0.00000001
 43
0.00000001
 12
1.0
 22
0.0
 32
0.0
 13
1.0
 23
0.0
 33
0.0
 40
0.0
 40
0.0
 40
0.0
 40
0.0
 40
0.4990042696526426
 40
1.0
 40
1.0
 40
1.0
 40
1.0
 10
95.31686772207864
 20
92.14026622447545
 30
0.0
 10
95.11578598053298
 20
92.25148431636366
 30
0.0
 10
94.71282000654311
 20
92.47436435698059
 30
0.0
 10
94.30138061012309
 20
92.62294482734337
 30
0.0
 10
94.09525122921997
 20
92.69738300860813
 30
0.0
  0
SPLINE
  5
F0
330
1F
100
AcDbEntity
  8
0
  6
Continuous
 62
     7
370
     0
100
AcDbSpline
210
0.0
220
0.0
230
1.0
 70
     8
 71
     3
 72
     9
 73
     5
 74
     0
 42
0.00000001
 43
0.00000001
 12
1.0
 22
0.0
 32
0.0
 13
1.0
 23
0.0
 33
0.0
 40
0.0
 40
0.0
 40
0.0
 40
0.0
 40
0.4984265172808193
 40
1.0
 40
1.0
 40
1.0
 40
1.0
 10
105.1318222966685
 20
95.14026622447545
 30
0.0
 10
104.7301263997734
 20
95.25136111649296
 30
0.0
 10
103.9241983783539
 20
95.47425233147807
 30
0.0
 10
103.1013221892564
 20
95.62285023873865
 30
0.0
 10
102.6885893132442
 20
95.69738300860813
 30
0.0
  0
LINE
  5
F1
330
1F
100
AcDbEntity
  8
0
  6
Continuous
 62
     7
370
     0
100
AcDbLine
 10
102.6885893132
 20
95.6973830086
 30
0.0
 11
106.3534387883
 21
95.6973830086
 31
0.0
  0
SPLINE
  5
F2
330
1F
100
AcDbEntity
  8
0
  6
Continuous
 62
     7
370
     0
100
AcDbSpline
210
0.0
220
0.0
230
1.0
 70
     8
 71
     3
 72
     9
 73
     5
 74
     0
 42
0.00000001
 43
0.00000001
 12
1.0
 22
0.0
 32
0.0
 13
1.0
 23
0.0
 33
0.0
 40
0.0
 40
0.0
 40
0.0
 40
0.0
 40
0.498847472771302
 40
1.0
 40
1.0
 40
1.0
 40
1.0
 10
106.3534387882792
 20
95.69738300860811
 30
0.0
 10
106.1481908702115
 20
95.62329637137952
 30
0.0
 10
105.7367466327022
 20
95.47478076035117
 30
0.0
 10
105.3337733671204
 20
95.25194228803865
 30
0.0
 10
105.1318222966685
 20
95.14026622447545
 30
0.0
  0
SPLINE
  5
F3
330
1F
100
AcDbEntity
  8
0
  6
Continuous
 62
     7
370
     0
100
AcDbSpline
210
0.0
220
0.0
230
1.0
 70
     8
 71
     3
 72
     9
 73
     5
 74
     0
 42
0.00000001
 43
0.00000001
 12
1.0
 22
0.0
 32
0.0
 13
1.0
 23
0.0
 33
0.0
 40
0.0
 40
0.0
 40
0.0
 40
0.0
 40
0.498426517280819
 40
0.9999999999999999
 40
0.9999999999999999
 40
0.9999999999999999
 40
0.9999999999999999
 10
105.1318222966685
 20
92.14026622447545
 30
0.0
 10
104.7301263997734
 20
92.25136111649296
 30
0.0
 10
103.9241983783539
 20
92.47425233147807
 30
0.0
 10
103.1013221892564
 20
92.62285023873866
 30
0.0
 10
102.6885893132442
 20
92.69738300860813
 30
0.0
  0
SPLINE
  5
F4
330
1F
100
AcDbEntity
  8
0
  6
Continuous
 62
     7
370
     0
100
AcDbSpline
210
0.0
220
0.0
230
1.0
 70
     8
 71
     3
 72
     9
 73
     5
 74
     0
 42
0.00000001
 43
0.00000001
 12
1.0
 22
0.0
 32
0.0
 13
1.0
 23
0.0
 33
0.0
 40
0.0
 40
0.0
 40
0.0
 40
0.0
 40
0.4988474727713017
 40
1.0
 40
1.0
 40
1.0
 40
1.0
 10
106.3534387882792
 20
92.69738300860813
 30
0.0
 10
106.1481908702115
 20
92.62329637137954
 30
0.0
 10
105.7367466327022
 20
92.47478076035117
 30
0.0
 10
105.3337733671204
 20
92.25194228803863
 30
0.0
 10
105.1318222966685
 20
92.14026622447545
 30
0.0
  0
SPLINE
  5
F5
330
1F
100
AcDbEntity
  8
0
  6
Continuous
 62
     7
370
     0
100
AcDbSpline
210
0.0
220
0.0
230
1.0
 70
     8
 71
     3
 72
     9
 73
     5
 74
     0
 42
0.00000001
 43
0.00000001
 12
1.0
 22
0.0
 32
0.0
 13
1.0
 23
0.0
 33
0.0
 40
0.0
 40
0.0
 40
0.0
 40
0.0
 40
0.4990042696526401
 40
0.9999999999999999
 40
0.9999999999999999
 40
0.9999999999999999
 40
0.9999999999999999
 10
110.0392995831279
 20
95.14026622447544
 30
0.0
 10
109.8382178431516
 20
95.25148431636366
 30
0.0
 10
109.4352518723067
 20
95.47436435698059
 30
0.0
 10
109.0238124737193
 20
95.62294482734336
 30
0.0
 10
108.8176830917302
 20
95.69738300860813
 30
0.0
  0
LINE
  5
F6
330
1F
100
AcDbEntity
  8
0
  6
Continuous
 62
     7
370
     0
100
AcDbLine
 10
108.8176830917
 20
95.6973830086
 30
0.0
 11
109.0743450069
 21
95.6973830086
 31
0.0
  0
SPLINE
  5
F7
330
1F
100
AcDbEntity
  8
0
  6
Continuous
 62
     7
370
     0
100
AcDbSpline
210
0.0
220
0.0
230
1.0
 70
     8
 71
     3
 72
     9
 73
     5
 74
     0
 42
0.00000001
 43
0.00000001
 12
1.0
 22
0.0
 32
0.0
 13
1.0
 23
0.0
 33
0.0
 40
0.0
 40
0.0
 40
0.0
 40
0.0
 40
0.4990042696526404
 40
1.0
 40
1.0
 40
1.0
 40
1.0
 10
110.0392995831279
 20
92.14026622447545
 30
0.0
 10
109.8382178431516
 20
92.25148431636366
 30
0.0
 10
109.4352518723067
 20
92.47436435698059
 30
0.0
 10
109.0238124737193
 20
92.62294482734337
 30
0.0
 10
108.8176830917302
 20
92.69738300860813
 30
0.0
  0
SPLINE
  5
F8
330
1F
100
AcDbEntity
  8
0
  6
Continuous
 62
     7
370
     0
100
AcDbSpline
210
0.0
220
0.0
230
1.0
 70
     8
 71
     3
 72
     9
 73
     5
 74
     0
 42
0.00000001
 43
0.00000001
 12
1.0
 22
0.0
 32
0.0
 13
1.0
 23
0.0
 33
0.0
 40
0.0
 40
0.0
 40
0.0
 40
0.0
 40
0.498847472771297
 40
1.0
 40
1.0
 40
1.0
 40
1.0
 10
108.8176830913503
 20
92.69738300860813
 30
0.0
 10
109.0229310097478
 20
92.62329637137955
 30
0.0
 10
109.4343752479179
 20
92.47478076035117
 30
0.0
 10
109.837348512951
 20
92.25194228803865
 30
0.0
 10
110.0392995831279
 20
92.14026622447545
 30
0.0
  0
SPLINE
  5
F9
330
1F
100
AcDbEntity
  8
0
  6
Continuous
 62
     7
370
     0
100
AcDbSpline
210
0.0
220
0.0
230
1.0
 70
     8
 71
     3
 72
     9
 73
     5
 74
     0
 42
0.00000001
 43
0.00000001
 12
1.0
 22
0.0
 32
0.0
 13
1.0
 23
0.0
 33
0.0
 40
0.0
 40
0.0
 40
0.0
 40
0.0
 40
0.4988474727712973
 40
0.9999999999999999
 40
0.9999999999999999
 40
0.9999999999999999
 40
0.9999999999999999
 10
108.8176830913503
 20
95.69738300860811
 30
0.0
 10
109.0229310097478
 20
95.62329637137954
 30
0.0
 10
109.4343752479179
 20
95.47478076035117
 30
0.0
 10
109.837348512951
 20
95.25194228803865
 30
0.0
 10
110.0392995831279
 20
95.14026622447545
 30
0.0
  0
SPLINE
  5
FA
330
1F
100
AcDbEntity
  8
0
  6
Continuous
 62
     7
370
     0
100
AcDbSpline
210
0.0
220
0.0
230
1.0
 70
     8
 71
     3
 72
     9
 73
     5
 74
     0
 42
0.00000001
 43
0.00000001
 12
1.0
 22
0.0
 32
0.0
 13
1.0
 23
0.0
 33
0.0
 40
0.0
 40
0.0
 40
0.0
 40
0.0
 40
0.4988474727712973
 40
0.9999999999999999
 40
0.9999999999999999
 40
0.9999999999999999
 40
0.9999999999999999
 10
91.63100692238363
 20
89.69738300860811
 30
0.0
 10
91.42575900398614
 20
89.7714696458367
 30
0.0
 10
91.01431476581601
 20
89.91998525686508
 30
0.0
 10
90.61134150078296
 20
90.1428237291776
 30
0.0
 10
90.40939043060602
 20
90.25449979274079
 30
0.0
  0
SPLINE
  5
FB
330
1F
100
AcDbEntity
  8
0
  6
Continuous
 62
     7
370
     0
100
AcDbSpline
210
0.0
220
0.0
230
1.0
 70
     8
 71
     3
 72
     9
 73
     5
 74
     0
 42
0.00000001
 43
0.00000001
 12
1.0
 22
0.0
 32
0.0
 13
1.0
 23
0.0
 33
0.0
 40
0.0
 40
0.0
 40
0.0
 40
0.0
 40
0.4988474727712973
 40
0.9999999999999999
 40
0.9999999999999999
 40
0.9999999999999999
 40
0.9999999999999999
 10
91.63100692238363
 20
92.69738300860811
 30
0.0
 10
91.42575900398614
 20
92.7714696458367
 30
0.0
 10
91.01431476581601
 20
92.91998525686508
 30
0.0
 10
90.61134150078296
 20
93.1428237291776
 30
0.0
 10
90.40939043060602
 20
93.25449979274079
 30
0.0
  0
LINE
  5
FC
330
1F
100
AcDbEntity
  8
0
  6
Continuous
 62
     7
370
     0
100
AcDbLine
 10
107.0243450069
 20
128.6684653992
 30
0.0
 11
106.2243450069
 21
128.6684653992
 31
0.0
  0
LINE
  5
FD
330
1F
100
AcDbEntity
  8
0
  6
Continuous
 62
     7
370
     0
100
AcDbLine
 10
107.0243450069
 20
129.98358632
 30
0.0
 11
107.0243450069
 21
128.6684653992
 31
0.0
  0
LINE
  5
FE
330
1F
100
AcDbEntity
  8
0
  6
Continuous
 62
     7
370
     0
100
AcDbLine
 10
93.4243450069
 20
129.490989205
 30
0.0
 11
93.4243450069
 21
129.98358632
 31
0.0
  0
LINE
  5
FF
330
1F
100
AcDbEntity
  8
0
  6
Continuous
 62
     7
370
     0
100
AcDbLine
 10
94.2243450069
 20
127.983586321
 30
0.0
 11
94.2243450069
 21
125.9835863216
 31
0.0
  0
LINE
  5
100
330
1F
100
AcDbEntity
  8
0
  6
Continuous
 62
     7
370
     0
100
AcDbLine
 10
94.2243450069
 20
125.9835863216
 30
0.0
 11
93.4243450069
 21
125.9835863216
 31
0.0
  0
SPLINE
  5
101
330
1F
100
AcDbEntity
  8
0
  6
Continuous
 62
     7
370
     0
100
AcDbSpline
210
0.0
220
0.0
230
1.0
 70
    24
 71
     3
 72
    13
 73
     9
 74
     0
 42
0.00000001
 43
0.00000001
 12
1.0
 22
0.0
 32
0.0
 13
1.0
 23
0.0
 33
0.0
 40
0.0
 40
0.0
 40
0.0
 40
0.0
 40
0.1724208731138102
 40
0.3592962942657995
 40
0.5461717135885326
 40
0.7330471329112656
 40
0.9199225540632545
 40
1.0
 40
1.0
 40
1.0
 40
1.0
 10
106.224345006867
 20
127.9835863199577
 30
0.0
 10
106.224345006867
 20
127.7691351427269
 30
0.0
 10
106.224345006867
 20
127.3222547164278
 30
0.0
 10
106.224345006867
 20
126.5715836581365
 30
0.0
 10
106.224345006867
 20
125.7837276028424
 30
0.0
 10
106.224345006867
 20
125.0064288139509
 30
0.0
 10
106.224345006867
 20
124.3940139792107
 30
0.0
 10
106.224345006867
 20
124.0782927402939
 30
0.0
 10
106.224345006867
 20
123.9835863199577
 30
0.0
  0
SPLINE
  5
102
330
1F
100
AcDbEntity
  8
0
  6
Continuous
 62
     7
370
     0
100
AcDbSpline
210
0.0
220
0.0
230
1.0
 70
    24
 71
     3
 72
    13
 73
     9
 74
     0
 42
0.00000001
 43
0.00000001
 12
1.0
 22
0.0
 32
0.0
 13
1.0
 23
0.0
 33
0.0
 40
0.0
 40
0.0
 40
0.0
 40
0.0
 40
0.1915373605705918
 40
0.3830747211236947
 40
0.5746120829822593
 40
0.7661494429659331
 40
0.9576868029496075
 40
1.0
 40
1.0
 40
1.0
 40
1.0
 10
93.42434500686694
 20
125.983586319957
 30
0.0
 10
93.42434500686694
 20
125.7217471179515
 30
0.0
 10
93.42434500686694
 20
125.1980687139643
 30
0.0
 10
93.42434500686696
 20
124.4434890149538
 30
0.0
 10
93.42434500686694
 20
123.7450907637189
 30
0.0
 10
93.42434500686694
 20
123.1439802632947
 30
0.0
 10
93.42434500686694
 20
122.7486303263743
 30
0.0
 10
93.42434500686694
 20
122.6024919183334
 30
0.0
 10
93.42434500686694
 20
122.5760494615161
 30
0.0
  0
SPLINE
  5
103
330
1F
100
AcDbEntity
  8
0
  6
Continuous
 62
     7
370
     0
100
AcDbSpline
210
0.0
220
0.0
230
1.0
 70
    24
 71
     3
 72
    11
 73
     7
 74
     0
 42
0.00000001
 43
0.00000001
 12
1.0
 22
0.0
 32
0.0
 13
1.0
 23
0.0
 33
0.0
 40
0.0
 40
0.0
 40
0.0
 40
0.0
 40
0.2027864578961292
 40
0.6012545412802387
 40
0.9997226247007299
 40
1.0
 40
1.0
 40
1.0
 40
1.0
 10
93.42434500686694
 20
122.476183434957
 30
0.0
 10
93.42434500686696
 20
122.4096584861458
 30
0.0
 10
93.42434500686696
 20
122.2124144098097
 30
0.0
 10
93.42434500686689
 20
122.0519568273741
 30
0.0
 10
93.42434500686709
 20
121.9579676703369
 30
0.0
 10
93.42434500686694
 20
121.9836219780762
 30
0.0
 10
93.42434500686694
 20
121.9836398237247
 30
0.0
  0
SPLINE
  5
104
330
1F
100
AcDbEntity
  8
0
  6
Continuous
 62
     7
370
     0
100
AcDbSpline
210
0.0
220
0.0
230
1.0
 70
    24
 71
     3
 72
    10
 73
     6
 74
     0
 42
0.00000001
 43
0.00000001
 12
1.0
 22
0.0
 32
0.0
 13
1.0
 23
0.0
 33
0.0
 40
0.0
 40
0.0
 40
0.0
 40
0.0
 40
0.3984117272653725
 40
0.797100983753152
 40
1.0
 40
1.0
 40
1.0
 40
1.0
 10
93.42434500686694
 20
129.9835328161894
 30
0.0
 10
93.42434500686694
 20
129.9673441421359
 30
0.0
 10
93.42434500686696
 20
129.934955517177
 30
0.0
 10
93.42434500686694
 20
129.7525134842055
 30
0.0
 10
93.42434500686694
 20
129.5569480084222
 30
0.0
 10
93.42434500686694
 20
129.490989204957
 30
0.0
  0
SPLINE
  5
105
330
1F
100
AcDbEntity
  8
0
  6
Continuous
 62
     7
370
     0
100
AcDbSpline
210
0.0
220
0.0
230
1.0
 70
    24
 71
     3
 72
    13
 73
     9
 74
     0
 42
0.00000001
 43
0.00000001
 12
1.0
 22
0.0
 32
0.0
 13
1.0
 23
0.0
 33
0.0
 40
0.0
 40
0.0
 40
0.0
 40
0.0
 40
0.0422165622996211
 40
0.2337732492333887
 40
0.4253299361671559
 40
0.6168866249760022
 40
0.808443312479256
 40
1.0
 40
1.0
 40
1.0
 40
1.0
 10
93.42434500686694
 20
129.3909284671228
 30
0.0
 10
93.42434500686694
 20
129.3645475879115
 30
0.0
 10
93.42434500686694
 20
129.2184640719898
 30
0.0
 10
93.42434500686694
 20
128.8231861713056
 30
0.0
 10
93.42434500686696
 20
128.2220835383328
 30
0.0
 10
93.42434500686694
 20
127.5236831817236
 30
0.0
 10
93.42434500686696
 20
126.7691040367589
 30
0.0
 10
93.42434500686694
 20
126.245425558899
 30
0.0
 10
93.42434500686694
 20
125.983586319957
 30
0.0
  0
SPLINE
  5
106
330
1F
100
AcDbEntity
  8
0
  6
Continuous
 62
     7
370
     0
100
AcDbSpline
210
0.0
220
0.0
230
1.0
 70
    24
 71
     3
 72
    10
 73
     6
 74
     0
 42
0.00000001
 43
0.00000001
 12
1.0
 22
0.0
 32
0.0
 13
1.0
 23
0.0
 33
0.0
 40
0.0
 40
0.0
 40
0.0
 40
0.0
 40
0.253334179770916
 40
0.6266670898684144
 40
1.0
 40
1.0
 40
1.0
 40
1.0
 10
94.22434500686695
 20
127.983586319957
 30
0.0
 10
94.22434500686695
 20
127.8296997452003
 30
0.0
 10
94.22434500686695
 20
127.449033969821
 30
0.0
 10
94.22434500686695
 20
126.7673149861869
 30
0.0
 10
94.22434500686695
 20
126.2448292087083
 30
0.0
 10
94.22434500686695
 20
125.983586319957
 30
0.0
  0
SPLINE
  5
107
330
1F
100
AcDbEntity
  8
0
  6
Continuous
 62
     7
370
     0
100
AcDbSpline
210
0.0
220
0.0
230
1.0
 70
    24
 71
     3
 72
    10
 73
     6
 74
     0
 42
0.00000001
 43
0.00000001
 12
1.0
 22
0.0
 32
0.0
 13
1.0
 23
0.0
 33
0.0
 40
0.0
 40
0.0
 40
0.0
 40
0.0
 40
0.3733329101315836
 40
0.7466658202290808
 40
1.0
 40
1.0
 40
1.0
 40
1.0
 10
94.22434500686695
 20
125.983586319957
 30
0.0
 10
94.22434500686695
 20
125.7223434312058
 30
0.0
 10
94.22434500686695
 20
125.1998576537271
 30
0.0
 10
94.22434500686695
 20
124.5181386700931
 30
0.0
 10
94.22434500686695
 20
124.1374728947137
 30
0.0
 10
94.22434500686695
 20
123.983586319957
 30
0.0
  0
SPLINE
  5
108
330
1F
100
AcDbEntity
  8
0
  6
Continuous
 62
     7
370
     0
100
AcDbSpline
210
0.0
220
0.0
230
1.0
 70
    24
 71
     3
 72
    11
 73
     7
 74
     0
 42
0.00000001
 43
0.00000001
 12
1.0
 22
0.0
 32
0.0
 13
1.0
 23
0.0
 33
0.0
 40
0.0
 40
0.0
 40
0.0
 40
0.0
 40
0.100306263957756
 40
0.4971481386136868
 40
0.8939900171541596
 40
1.0
 40
1.0
 40
1.0
 40
1.0
 10
107.0243450068669
 20
129.9690433122938
 30
0.0
 10
107.0243450068669
 20
129.9734723128134
 30
0.0
 10
107.024345006867
 20
129.9954237770328
 30
0.0
 10
107.0243450068669
 20
129.8735575590463
 30
0.0
 10
107.0243450068669
 20
129.7042495926648
 30
0.0
 10
107.0243450068669
 20
129.5281203381059
 30
0.0
 10
107.0243450068669
 20
129.4909892052848
 30
0.0
  0
SPLINE
  5
109
330
1F
100
AcDbEntity
  8
0
  6
Continuous
 62
     7
370
     0
100
AcDbSpline
210
0.0
220
0.0
230
1.0
 70
    24
 71
     3
 72
     9
 73
     5
 74
     0
 42
0.00000001
 43
0.00000001
 12
1.0
 22
0.0
 32
0.0
 13
1.0
 23
0.0
 33
0.0
 40
0.0
 40
0.0
 40
0.0
 40
0.0
 40
0.3210918561227575
 40
1.0
 40
1.0
 40
1.0
 40
1.0
 10
107.0243450068669
 20
129.3861314013314
 30
0.0
 10
107.0243450068669
 20
129.3256533807326
 30
0.0
 10
107.0243450068669
 20
129.1373022299775
 30
0.0
 10
107.0243450068669
 20
128.8580511970791
 30
0.0
 10
107.0243450068669
 20
128.6684653966581
 30
0.0
  0
SPLINE
  5
10A
330
1F
100
AcDbEntity
  8
0
  6
Continuous
 62
     7
370
     0
100
AcDbSpline
210
0.0
220
0.0
230
1.0
 70
    24
 71
     3
 72
    11
 73
     7
 74
     0
 42
0.00000001
 43
0.00000001
 12
1.0
 22
0.0
 32
0.0
 13
1.0
 23
0.0
 33
0.0
 40
0.0
 40
0.0
 40
0.0
 40
0.0
 40
0.2750389873734986
 40
0.5500779747218854
 40
0.825116963944855
 40
1.0
 40
1.0
 40
1.0
 40
1.0
 10
107.0243450068669
 20
128.6684653966581
 30
0.0
 10
107.0243450068669
 20
128.4644256694657
 30
0.0
 10
107.0243450068669
 20
128.0563462150994
 30
0.0
 10
107.0243450068669
 20
127.3367107716842
 30
0.0
 10
107.0243450068669
 20
126.6660028380927
 30
0.0
 10
107.024345006867
 20
126.2373214317123
 30
0.0
 10
107.0243450068669
 20
126.0706945460829
 30
0.0
  0
SPLINE
  5
10B
330
1F
100
AcDbEntity
  8
0
  6
Continuous
 62
     7
370
     0
100
AcDbSpline
210
0.0
220
0.0
230
1.0
 70
    24
 71
     3
 72
    13
 73
     9
 74
     0
 42
0.00000001
 43
0.00000001
 12
1.0
 22
0.0
 32
0.0
 13
1.0
 23
0.0
 33
0.0
 40
0.0
 40
0.0
 40
0.0
 40
0.0
 40
0.032725849888549
 40
0.226180679179964
 40
0.4196355103650383
 40
0.6130903402315834
 40
0.8065451701157916
 40
1.0
 40
1.0
 40
1.0
 40
1.0
 10
107.0243450068669
 20
125.9179791449414
 30
0.0
 10
107.0243450068669
 20
125.873810078123
 30
0.0
 10
107.024345006867
 20
125.5685410151115
 30
0.0
 10
107.0243450068669
 20
125.003519264949
 30
0.0
 10
107.024345006867
 20
124.2603062372183
 30
0.0
 10
107.0243450068669
 20
123.585522925931
 30
0.0
 10
107.024345006867
 20
122.9935155612925
 30
0.0
 10
107.0243450068669
 20
122.6989925665682
 30
0.0
 10
107.0243450068669
 20
122.551731069206
 30
0.0
  0
SPLINE
  5
10C
330
1F
100
AcDbEntity
  8
0
  6
Continuous
 62
     7
370
     0
100
AcDbSpline
210
0.0
220
0.0
230
1.0
 70
    24
 71
     3
 72
    10
 73
     6
 74
     0
 42
0.00000001
 43
0.00000001
 12
1.0
 22
0.0
 32
0.0
 13
1.0
 23
0.0
 33
0.0
 40
0.0
 40
0.0
 40
0.0
 40
0.0
 40
0.3071135616078535
 40
0.7036743962099669
 40
1.0
 40
1.0
 40
1.0
 40
1.0
 10
107.0243450068669
 20
122.4761834347944
 30
0.0
 10
107.0243450068669
 20
122.3835167878589
 30
0.0
 10
107.0243450068669
 20
122.171194197838
 30
0.0
 10
107.024345006867
 20
122.0083034140514
 30
0.0
 10
107.0243450068669
 20
122.0011770486105
 30
0.0
 10
107.0243450068669
 20
121.9981293276203
 30
0.0
  0
LINE
  5
10D
330
1F
100
AcDbEntity
  8
0
  6
Continuous
 62
     7
370
     0
100
AcDbLine
 10
94.2243450069
 20
125.9835863216
 30
0.0
 11
94.2243450069
 21
123.9835863211
 31
0.0
  0
LINE
  5
10E
330
1F
100
AcDbEntity
  8
0
  6
Continuous
 62
     7
370
     0
100
AcDbLine
 10
93.4243450069
 20
121.98358632
 30
0.0
 11
93.4243450069
 21
122.476183435
 31
0.0
  0
LINE
  5
10F
330
1F
100
AcDbEntity
  8
0
  6
Continuous
 62
     7
370
     0
100
AcDbLine
 10
107.0243450069
 20
128.6684653992
 30
0.0
 11
107.0243450069
 21
125.9835863193
 31
0.0
  0
LINE
  5
110
330
1F
100
AcDbEntity
  8
0
  6
Continuous
 62
     7
370
     0
100
AcDbLine
 10
107.0243450069
 20
122.4761834357
 30
0.0
 11
107.0243450069
 21
121.98358632
 31
0.0
  0
LINE
  5
111
330
1F
100
AcDbEntity
  8
0
  6
Continuous
 62
     7
370
     0
100
AcDbLine
 10
112.0243450069
 20
128.0187460193
 30
0.0
 11
112.0243450069
 21
128.33358632
 31
0.0
  0
LINE
  5
112
330
1F
100
AcDbEntity
  8
0
  6
Continuous
 62
     7
370
     0
100
AcDbLine
 10
114.5243450069
 20
127.7156371279
 30
0.0
 11
112.0243450069
 21
128.0187460193
 31
0.0
  0
SPLINE
  5
113
330
1F
100
AcDbEntity
  8
0
  6
Continuous
 62
     7
370
     0
100
AcDbSpline
210
0.0
220
0.0
230
1.0
 70
    24
 71
     3
 72
    21
 73
    17
 74
     0
 42
0.00000001
 43
0.00000001
 12
1.0
 22
0.0
 32
0.0
 13
1.0
 23
0.0
 33
0.0
 40
0.0
 40
0.0
 40
0.0
 40
0.0
 40
0.0749965872861445
 40
0.1499931745654415
 40
0.2249897623558926
 40
0.2999863494122291
 40
0.3749829364685658
 40
0.4499795242590168
 40
0.5249761115383138
 40
0.5999726988244581
 40
0.6749692861106028
 40
0.7499658733898997
 40
0.824962461180351
 40
0.8999590482366875
 40
0.9749556352930241
 40
1.0
 40
1.0
 40
1.0
 40
1.0
 10
114.524345006867
 20
128.0187460178418
 30
0.0
 10
114.524345006867
 20
127.9342688081474
 30
0.0
 10
114.524345006867
 20
127.7653143887664
 30
0.0
 10
114.524345006867
 20
127.4224556390499
 30
0.0
 10
114.524345006867
 20
127.0299171297419
 30
0.0
 10
114.524345006867
 20
126.5956642898563
 30
0.0
 10
114.524345006867
 20
126.1382921675105
 30
0.0
 10
114.524345006867
 20
125.674869082265
 30
0.0
 10
114.524345006867
 20
125.2233301112859
 30
0.0
 10
114.524345006867
 20
124.8010319278559
 30
0.0
 10
114.524345006867
 20
124.424060100533
 30
0.0
 10
114.524345006867
 20
124.1074695925417
 30
0.0
 10
114.524345006867
 20
123.8612973437772
 30
0.0
 10
114.524345006867
 20
123.702953302748
 30
0.0
 10
114.524345006867
 20
123.6297453114107
 30
0.0
 10
114.524345006867
 20
123.6408671026449
 30
0.0
 10
114.524345006867
 20
123.6436513444075
 30
0.0
  0
SPLINE
  5
114
330
1F
100
AcDbEntity
  8
0
  6
Continuous
 62
     7
370
     0
100
AcDbSpline
210
0.0
220
0.0
230
1.0
 70
    24
 71
     3
 72
    10
 73
     6
 74
     0
 42
0.00000001
 43
0.00000001
 12
1.0
 22
0.0
 32
0.0
 13
1.0
 23
0.0
 33
0.0
 40
0.0
 40
0.0
 40
0.0
 40
0.0
 40
0.2498293217587585
 40
0.6249146608622561
 40
1.0
 40
1.0
 40
1.0
 40
1.0
 10
114.524345006867
 20
128.323521295508
 30
0.0
 10
114.524345006867
 20
128.3234449405446
 30
0.0
 10
114.524345006867
 20
128.3232539488079
 30
0.0
 10
114.524345006867
 20
128.2247227913714
 30
0.0
 10
114.524345006867
 20
128.0874049423538
 30
0.0
 10
114.524345006867
 20
128.0187460178418
 30
0.0
  0
LINE
  5
115
330
1F
100
AcDbEntity
  8
0
  6
Continuous
 62
     7
370
     0
100
AcDbLine
 10
114.5243450069
 20
128.0187460193
 30
0.0
 11
114.5243450069
 21
128.33358632
 31
0.0
  0
LINE
  5
116
330
1F
100
AcDbEntity
  8
0
  6
Continuous
 62
     7
370
     0
100
AcDbLine
 10
117.0243450069
 20
127.98358632
 30
0.0
 11
117.0243450069
 21
127.7156371279
 31
0.0
  0
LINE
  5
117
330
1F
100
AcDbEntity
  8
0
  6
Continuous
 62
     7
370
     0
100
AcDbLine
 10
117.0243450069
 20
127.7156371279
 30
0.0
 11
114.5243450069
 21
128.0187460193
 31
0.0
  0
SPLINE
  5
118
330
1F
100
AcDbEntity
  8
0
  6
Continuous
 62
     7
370
     0
100
AcDbSpline
210
0.0
220
0.0
230
1.0
 70
    24
 71
     3
 72
    21
 73
    17
 74
     0
 42
0.00000001
 43
0.00000001
 12
1.0
 22
0.0
 32
0.0
 13
1.0
 23
0.0
 33
0.0
 40
0.0
 40
0.0
 40
0.0
 40
0.0
 40
0.0749964602875615
 40
0.1499929205682753
 40
0.2249893813601425
 40
0.2999858414178962
 40
0.3749823014756502
 40
0.4499787622675175
 40
0.5249752225482313
 40
0.5999716828357926
 40
0.6749681431233541
 40
0.7499646034040681
 40
0.8249610641959353
 40
0.899957524253689
 40
0.974953984311443
 40
1.0
 40
1.0
 40
1.0
 40
1.0
 10
117.024345006867
 20
127.7156371266676
 30
0.0
 10
117.024345006867
 20
127.6437416290554
 30
0.0
 10
117.024345006867
 20
127.4999506338375
 30
0.0
 10
117.024345006867
 20
127.2081559532274
 30
0.0
 10
117.024345006867
 20
126.874080626158
 30
0.0
 10
117.024345006867
 20
126.5045037411446
 30
0.0
 10
117.024345006867
 20
126.1152508710792
 30
0.0
 10
117.024345006867
 20
125.7208482452783
 30
0.0
 10
117.024345006867
 20
125.3365597595624
 30
0.0
 10
117.024345006867
 20
124.9771570494254
 30
0.0
 10
117.024345006867
 20
124.6563299654576
 30
0.0
 10
117.024345006867
 20
124.3868912236254
 30
0.0
 10
117.024345006867
 20
124.1773829701964
 30
0.0
 10
117.024345006867
 20
124.0426219222732
 30
0.0
 10
117.024345006867
 20
123.9803171162242
 30
0.0
 10
117.024345006867
 20
123.9897828142367
 30
0.0
 10
117.024345006867
 20
123.9921525878669
 30
0.0
  0
SPLINE
  5
119
330
1F
100
AcDbEntity
  8
0
  6
Continuous
 62
     7
370
     0
100
AcDbSpline
210
0.0
220
0.0
230
1.0
 70
    24
 71
     3
 72
    10
 73
     6
 74
     0
 42
0.00000001
 43
0.00000001
 12
1.0
 22
0.0
 32
0.0
 13
1.0
 23
0.0
 33
0.0
 40
0.0
 40
0.0
 40
0.0
 40
0.0
 40
0.2498229682966204
 40
0.6249114841311868
 40
1.0
 40
1.0
 40
1.0
 40
1.0
 10
117.024345006867
 20
127.9750200520485
 30
0.0
 10
117.024345006867
 20
127.9749550177348
 30
0.0
 10
117.024345006867
 20
127.9747923397801
 30
0.0
 10
117.024345006867
 20
127.8909364394552
 30
0.0
 10
117.024345006867
 20
127.7740702309319
 30
0.0
 10
117.024345006867
 20
127.7156371266676
 30
0.0
  0
SPLINE
  5
11A
330
1F
100
AcDbEntity
  8
0
  6
Continuous
 62
     7
370
     0
100
AcDbSpline
210
0.0
220
0.0
230
1.0
 70
    24
 71
     3
 72
    10
 73
     6
 74
     0
 42
0.00000001
 43
0.00000001
 12
1.0
 22
0.0
 32
0.0
 13
1.0
 23
0.0
 33
0.0
 40
0.0
 40
0.0
 40
0.0
 40
0.0
 40
0.2498293217587585
 40
0.6249146608622561
 40
1.0
 40
1.0
 40
1.0
 40
1.0
 10
112.024345006867
 20
128.323521295508
 30
0.0
 10
112.024345006867
 20
128.3234449405446
 30
0.0
 10
112.024345006867
 20
128.3232539488079
 30
0.0
 10
112.024345006867
 20
128.2247227913714
 30
0.0
 10
112.024345006867
 20
128.0874049423538
 30
0.0
 10
112.024345006867
 20
128.0187460178418
 30
0.0
  0
SPLINE
  5
11B
330
1F
100
AcDbEntity
  8
0
  6
Continuous
 62
     7
370
     0
100
AcDbSpline
210
0.0
220
0.0
230
1.0
 70
    24
 71
     3
 72
    21
 73
    17
 74
     0
 42
0.00000001
 43
0.00000001
 12
1.0
 22
0.0
 32
0.0
 13
1.0
 23
0.0
 33
0.0
 40
0.0
 40
0.0
 40
0.0
 40
0.0
 40
0.0749965872861445
 40
0.1499931745654415
 40
0.2249897623558926
 40
0.2999863494122291
 40
0.3749829364685658
 40
0.4499795242590168
 40
0.5249761115383138
 40
0.5999726988244581
 40
0.6749692861106028
 40
0.7499658733898997
 40
0.824962461180351
 40
0.8999590482366875
 40
0.9749556352930241
 40
1.0
 40
1.0
 40
1.0
 40
1.0
 10
112.024345006867
 20
128.0187460178418
 30
0.0
 10
112.024345006867
 20
127.9342688081474
 30
0.0
 10
112.024345006867
 20
127.7653143887664
 30
0.0
 10
112.024345006867
 20
127.4224556390499
 30
0.0
 10
112.024345006867
 20
127.0299171297419
 30
0.0
 10
112.024345006867
 20
126.5956642898563
 30
0.0
 10
112.024345006867
 20
126.1382921675105
 30
0.0
 10
112.024345006867
 20
125.674869082265
 30
0.0
 10
112.024345006867
 20
125.2233301112859
 30
0.0
 10
112.024345006867
 20
124.8010319278559
 30
0.0
 10
112.024345006867
 20
124.424060100533
 30
0.0
 10
112.024345006867
 20
124.1074695925417
 30
0.0
 10
112.024345006867
 20
123.8612973437772
 30
0.0
 10
112.024345006867
 20
123.702953302748
 30
0.0
 10
112.024345006867
 20
123.6297453114107
 30
0.0
 10
112.024345006867
 20
123.6408671026449
 30
0.0
 10
112.024345006867
 20
123.6436513444075
 30
0.0
  0
LINE
  5
11C
330
1F
100
AcDbEntity
  8
0
  6
Continuous
 62
     7
370
     0
100
AcDbLine
 10
112.0243450069
 20
127.8022396681
 30
0.0
 11
109.5243450069
 21
127.8022396681
 31
0.0
  0
LINE
  5
11D
330
1F
100
AcDbEntity
  8
0
  6
Continuous
 62
     7
370
     0
100
AcDbLine
 10
109.5243450069
 20
129.4909892035
 30
0.0
 11
109.5243450069
 21
125.9835863193
 31
0.0
  0
LINE
  5
11E
330
1F
100
AcDbEntity
  8
0
  6
Continuous
 62
     7
370
     0
100
AcDbLine
 10
109.5243450069
 20
125.9835863193
 30
0.0
 11
109.5243450069
 21
122.4761834357
 31
0.0
  0
LINE
  5
11F
330
1F
100
AcDbEntity
  8
0
  6
Continuous
 62
     7
370
     0
100
AcDbLine
 10
109.5243450069
 20
129.4909892053
 30
0.0
 11
107.0243450069
 21
129.4909892053
 31
0.0
  0
LINE
  5
120
330
1F
100
AcDbEntity
  8
0
  6
Continuous
 62
     7
370
     0
100
AcDbLine
 10
109.5243450069
 20
129.4909892053
 30
0.0
 11
109.5243450069
 21
125.9835863201
 31
0.0
  0
LINE
  5
121
330
1F
100
AcDbEntity
  8
0
  6
Continuous
 62
     7
370
     0
100
AcDbLine
 10
109.5243450069
 20
125.9835863201
 30
0.0
 11
107.0243450069
 21
125.9835863201
 31
0.0
  0
LINE
  5
122
330
1F
100
AcDbEntity
  8
0
  6
Continuous
 62
     7
370
     0
100
AcDbLine
 10
107.0243450069
 20
128.7012789838
 30
0.0
 11
107.0243450069
 21
129.4909892053
 31
0.0
  0
LINE
  5
123
330
1F
100
AcDbEntity
  8
0
  6
Continuous
 62
     7
370
     0
100
AcDbLine
 10
109.5243450069
 20
122.4761834348
 30
0.0
 11
107.0243450069
 21
122.4761834348
 31
0.0
  0
LINE
  5
124
330
1F
100
AcDbEntity
  8
0
  6
Continuous
 62
     7
370
     0
100
AcDbLine
 10
107.0243450069
 20
122.4761834348
 30
0.0
 11
107.0243450069
 21
125.9835863201
 31
0.0
  0
LINE
  5
125
330
1F
100
AcDbEntity
  8
0
  6
Continuous
 62
     7
370
     0
100
AcDbLine
 10
107.0243450069
 20
125.9835863193
 30
0.0
 11
107.0243450069
 21
125.8952958633
 31
0.0
  0
LINE
  5
126
330
1F
100
AcDbEntity
  8
0
  6
Continuous
 62
     7
370
     0
100
AcDbLine
 10
107.0243450069
 20
122.5644738916
 30
0.0
 11
107.0243450069
 21
122.4761834357
 31
0.0
  0
LINE
  5
127
330
1F
100
AcDbEntity
  8
0
  6
Continuous
 62
     7
370
     0
100
AcDbLine
 10
107.0243450069
 20
129.4909892035
 30
0.0
 11
107.0243450069
 21
129.4026987498
 31
0.0
  0
LINE
  5
128
330
1F
100
AcDbEntity
  8
0
  6
Continuous
 62
     7
370
     0
100
AcDbLine
 10
107.0243450069
 20
128.6028582223
 30
0.0
 11
107.0243450069
 21
125.9835863193
 31
0.0
  0
LINE
  5
129
330
1F
100
AcDbEntity
  8
0
  6
Continuous
 62
     7
370
     0
100
AcDbLine
 10
114.5243450069
 20
123.63358632
 30
0.0
 11
114.5243450069
 21
128.0187460193
 31
0.0
  0
LINE
  5
12A
330
1F
100
AcDbEntity
  8
0
  6
Continuous
 62
     7
370
     0
100
AcDbLine
 10
117.0243450069
 20
127.7156371279
 30
0.0
 11
117.0243450069
 21
123.98358632
 31
0.0
  0
LINE
  5
12B
330
1F
100
AcDbEntity
  8
0
  6
Continuous
 62
     7
370
     0
100
AcDbLine
 10
112.0243450069
 20
123.63358632
 30
0.0
 11
112.0243450069
 21
128.0187460193
 31
0.0
  0
LINE
  5
12C
330
1F
100
AcDbEntity
  8
0
  6
Continuous
 62
     7
370
     0
100
AcDbLine
 10
93.4243450069
 20
129.490989205
 30
0.0
 11
93.4243450069
 21
129.4026987491
 31
0.0
  0
LINE
  5
12D
330
1F
100
AcDbEntity
  8
0
  6
Continuous
 62
     7
370
     0
100
AcDbLine
 10
93.4243450069
 20
126.0718767737
 30
0.0
 11
93.4243450069
 21
125.98358632
 31
0.0
  0
LINE
  5
12E
330
1F
100
AcDbEntity
  8
0
  6
Continuous
 62
     7
370
     0
100
AcDbLine
 10
93.4243450069
 20
125.98358632
 30
0.0
 11
93.4243450069
 21
125.8952958662
 31
0.0
  0
LINE
  5
12F
330
1F
100
AcDbEntity
  8
0
  6
Continuous
 62
     7
370
     0
100
AcDbLine
 10
93.4243450069
 20
122.5644738908
 30
0.0
 11
93.4243450069
 21
122.476183435
 31
0.0
  0
LINE
  5
130
330
1F
100
AcDbEntity
  8
0
  6
Continuous
 62
     7
370
     0
100
AcDbLine
 10
90.9243450069
 20
122.476183435
 30
0.0
 11
93.4243450069
 21
122.476183435
 31
0.0
  0
LINE
  5
131
330
1F
100
AcDbEntity
  8
0
  6
Continuous
 62
     7
370
     0
100
AcDbLine
 10
93.4243450069
 20
129.490989205
 30
0.0
 11
90.9243450069
 21
129.490989205
 31
0.0
  0
LINE
  5
132
330
1F
100
AcDbEntity
  8
0
  6
Continuous
 62
     7
370
     0
100
AcDbLine
 10
93.4243450069
 20
129.490989205
 30
0.0
 11
93.4243450069
 21
125.98358632
 31
0.0
  0
LINE
  5
133
330
1F
100
AcDbEntity
  8
0
  6
Continuous
 62
     7
370
     0
100
AcDbLine
 10
93.4243450069
 20
125.98358632
 30
0.0
 11
90.9243450069
 21
125.98358632
 31
0.0
  0
LINE
  5
134
330
1F
100
AcDbEntity
  8
0
  6
Continuous
 62
     7
370
     0
100
AcDbLine
 10
90.9243450069
 20
125.98358632
 30
0.0
 11
90.9243450069
 21
129.490989205
 31
0.0
  0
LINE
  5
135
330
1F
100
AcDbEntity
  8
0
  6
Continuous
 62
     7
370
     0
100
AcDbLine
 10
93.4243450069
 20
125.98358632
 30
0.0
 11
93.4243450069
 21
122.476183435
 31
0.0
  0
LINE
  5
136
330
1F
100
AcDbEntity
  8
0
  6
Continuous
 62
     7
370
     0
100
AcDbLine
 10
90.9243450069
 20
122.476183435
 30
0.0
 11
90.9243450069
 21
125.98358632
 31
0.0
  0
LINE
  5
137
330
1F
100
AcDbEntity
  8
0
  6
Continuous
 62
     7
370
     0
100
AcDbLine
 10
90.9243450069
 20
125.98358632
 30
0.0
 11
90.9243450069
 21
122.476183435
 31
0.0
  0
LINE
  5
138
330
1F
100
AcDbEntity
  8
0
  6
Continuous
 62
     7
370
     0
100
AcDbLine
 10
90.9243450069
 20
129.490989205
 30
0.0
 11
90.9243450069
 21
125.98358632
 31
0.0
  0
LINE
  5
139
330
1F
100
AcDbEntity
  8
0
  6
Continuous
 62
     7
370
     0
100
AcDbLine
 10
96.4957074029
 20
87.88358632
 30
0.0
 11
96.5315847236
 21
87.88358632
 31
0.0
  0
LINE
  5
13A
330
1F
100
AcDbEntity
  8
0
  6
Continuous
 62
     7
370
     0
100
AcDbLine
 10
96.5315847236
 20
87.88358632
 30
0.0
 11
96.5315847236
 21
87.28358632
 31
0.0
  0
LINE
  5
13B
330
1F
100
AcDbEntity
  8
0
  6
Continuous
 62
     7
370
     0
100
AcDbLine
 10
96.5315847236
 20
87.28358632
 30
0.0
 11
96.4957074029
 21
87.28358632
 31
0.0
  0
LINE
  5
13C
330
1F
100
AcDbEntity
  8
0
  6
Continuous
 62
     7
370
     0
100
AcDbLine
 10
104.7243450069
 20
87.88358632
 30
0.0
 11
104.7243450069
 21
87.28358632
 31
0.0
  0
LINE
  5
13D
330
1F
100
AcDbEntity
  8
0
  6
Continuous
 62
     7
370
     0
100
AcDbLine
 10
104.7243450069
 20
87.28358632
 30
0.0
 11
96.531584723
 21
87.28358632
 31
0.0
  0
LINE
  5
13E
330
1F
100
AcDbEntity
  8
0
  6
Continuous
 62
     7
370
     0
100
AcDbLine
 10
96.531584723
 20
87.88358632
 30
0.0
 11
104.7243450069
 21
87.88358632
 31
0.0
  0
SPLINE
  5
13F
330
1F
100
AcDbEntity
  8
0
  6
Continuous
 62
     7
370
     0
100
AcDbSpline
210
0.0
220
0.0
230
1.0
 70
    24
 71
     3
 72
    23
 73
    19
 74
     0
 42
0.00000001
 43
0.00000001
 12
1.0
 22
0.0
 32
0.0
 13
1.0
 23
0.0
 33
0.0
 40
0.0
 40
0.0
 40
0.0
 40
0.0
 40
0.0625000002744841
 40
0.12500000007703
 40
0.1874999999962383
 40
0.2500000000056615
 40
0.3125000000140361
 40
0.3750000002239006
 40
0.4375000003228372
 40
0.5000000001594994
 40
0.5625000000818717
 40
0.624999999976953
 40
0.6875000001426376
 40
0.749999999876464
 40
0.8124999996358516
 40
0.8749999999845232
 40
0.9375000002064452
 40
1.0
 40
1.0
 40
1.0
 40
1.0
 10
96.5315847192073
 20
87.28358631995701
 30
0.0
 10
96.67623509173238
 20
87.28358631995701
 30
0.0
 10
96.96553583569028
 20
87.28358631995701
 30
0.0
 10
97.50576220887207
 20
87.28358631995701
 30
0.0
 10
98.10736435911801
 20
87.28358631995701
 30
0.0
 10
98.76370217592653
 20
87.28358631995702
 30
0.0
 10
99.45610335989186
 20
87.28358631995701
 30
0.0
 10
100.1678504568349
 20
87.28358631995702
 30
0.0
 10
100.8809768496061
 20
87.28358631995701
 30
0.0
 10
101.5776852640761
 20
87.28358631995702
 30
0.0
 10
102.2405389596337
 20
87.28358631995701
 30
0.0
 10
102.8529449353401
 20
87.28358631995702
 30
0.0
 10
103.3996351648765
 20
87.28358631995701
 30
0.0
 10
103.8667367118229
 20
87.28358631995701
 30
0.0
 10
104.2433002360444
 20
87.28358631995702
 30
0.0
 10
104.517159679728
 20
87.28358631995701
 30
0.0
 10
104.6917121327218
 20
87.28358631995701
 30
0.0
 10
104.713467381064
 20
87.28358631995701
 30
0.0
 10
104.7243450051978
 20
87.28358631995701
 30
0.0
  0
SPLINE
  5
140
330
1F
100
AcDbEntity
  8
0
  6
Continuous
 62
     7
370
     0
100
AcDbSpline
210
0.0
220
0.0
230
1.0
 70
    24
 71
     3
 72
    23
 73
    19
 74
     0
 42
0.00000001
 43
0.00000001
 12
1.0
 22
0.0
 32
0.0
 13
1.0
 23
0.0
 33
0.0
 40
0.0
 40
0.0
 40
0.0
 40
0.0
 40
0.0625000002744841
 40
0.12500000007703
 40
0.1874999999962383
 40
0.2500000000056615
 40
0.3125000000140361
 40
0.3750000002239006
 40
0.4375000003228372
 40
0.5000000001594994
 40
0.5625000000818717
 40
0.624999999976953
 40
0.6875000001426376
 40
0.749999999876464
 40
0.8124999996358516
 40
0.8749999999845232
 40
0.9375000002064452
 40
1.0
 40
1.0
 40
1.0
 40
1.0
 10
96.5315847192073
 20
87.88358631995702
 30
0.0
 10
96.67623509173238
 20
87.88358631995702
 30
0.0
 10
96.96553583569028
 20
87.88358631995702
 30
0.0
 10
97.50576220887207
 20
87.88358631995703
 30
0.0
 10
98.10736435911801
 20
87.88358631995702
 30
0.0
 10
98.76370217592653
 20
87.88358631995703
 30
0.0
 10
99.45610335989186
 20
87.88358631995702
 30
0.0
 10
100.1678504568349
 20
87.88358631995703
 30
0.0
 10
100.8809768496061
 20
87.88358631995703
 30
0.0
 10
101.5776852640761
 20
87.88358631995702
 30
0.0
 10
102.2405389596337
 20
87.88358631995703
 30
0.0
 10
102.8529449353401
 20
87.88358631995702
 30
0.0
 10
103.3996351648765
 20
87.88358631995702
 30
0.0
 10
103.8667367118229
 20
87.88358631995702
 30
0.0
 10
104.2433002360444
 20
87.88358631995703
 30
0.0
 10
104.517159679728
 20
87.88358631995702
 30
0.0
 10
104.6917121327218
 20
87.88358631995702
 30
0.0
 10
104.713467381064
 20
87.88358631995702
 30
0.0
 10
104.7243450051978
 20
87.88358631995702
 30
0.0
  0
SPLINE
  5
141
330
1F
100
AcDbEntity
  8
0
  6
Continuous
 62
     7
370
     0
100
AcDbSpline
210
0.0
220
0.0
230
1.0
 70
     8
 71
     3
 72
    24
 73
    20
 74
     0
 42
0.00000001
 43
0.00000001
 12
1.0
 22
0.0
 32
0.0
 13
1.0
 23
0.0
 33
0.0
 40
0.0
 40
0.0
 40
0.0
 40
0.0
 40
0.0612017984284834
 40
0.1223955970030928
 40
0.1835969478420356
 40
0.2447907372843492
 40
0.3059916249682924
 40
0.3671861626337398
 40
0.4283863874194338
 40
0.4895817847526245
 40
0.5507811879151336
 40
0.6119775694590485
 40
0.6731760253479256
 40
0.7343734561942895
 40
0.7955708874930528
 40
0.8567693427357329
 40
0.9179657270276996
 40
0.9791651287273779
 40
1.0
 40
1.0
 40
1.0
 40
1.0
 10
106.1503020807865
 20
121.4647216088246
 30
0.0
 10
106.0739324936921
 20
121.4259213535209
 30
0.0
 10
105.9212033019802
 20
121.3483259146006
 30
0.0
 10
105.4495738751852
 20
121.2318976464173
 30
0.0
 10
104.8173879737686
 20
121.1155145871938
 30
0.0
 10
104.0288703343195
 20
120.9990855146793
 30
0.0
 10
103.1139125143044
 20
120.8827004083067
 30
0.0
 10
102.1028768104513
 20
120.7662751667533
 30
0.0
 10
101.0288984890227
 20
120.64988550813
 30
0.0
 10
99.9282284770507
 20
120.5334653184384
 30
0.0
 10
98.83756978249147
 20
120.4170701533458
 30
0.0
 10
97.79267809980706
 20
120.3006558616962
 30
0.0
 10
96.82971162101092
 20
120.1842544967685
 30
0.0
 10
95.97856728663356
 20
120.0678466229224
 30
0.0
 10
95.27133846319713
 20
119.9514387479894
 30
0.0
 10
94.72398648995741
 20
119.8350373910954
 30
0.0
 10
94.37549043239508
 20
119.7186230545504
 30
0.0
 10
94.21431153641981
 20
119.6278162564577
 30
0.0
 10
94.2403808452699
 20
119.5758002960414
 30
0.0
 10
94.24700186687926
 20
119.5625894050305
 30
0.0
  0
SPLINE
  5
142
330
1F
100
AcDbEntity
  8
0
  6
Continuous
 62
     7
370
     0
100
AcDbSpline
210
0.0
220
0.0
230
1.0
 70
     8
 71
     3
 72
    25
 73
    21
 74
     0
 42
0.00000001
 43
0.00000001
 12
1.0
 22
0.0
 32
0.0
 13
1.0
 23
0.0
 33
0.0
 40
0.0
 40
0.0
 40
0.0
 40
0.0
 40
0.0278781514701948
 40
0.0860909779461087
 40
0.1443067200044954
 40
0.2025205241640621
 40
0.2607353227820823
 40
0.3189501209519641
 40
0.3771639255555788
 40
0.435379667199237
 40
0.4935924941014395
 40
0.5518090818244348
 40
0.6100210211922102
 40
0.6682383195258124
 40
0.7264495221153932
 40
0.7846673654646621
 40
0.8428780284331316
 40
0.9010962291459215
 40
0.9593065818683757
 40
1.0
 40
1.0
 40
1.0
 40
1.0
 10
106.19911090455
 20
117.562652531798
 30
0.0
 10
106.2036403251741
 20
117.5440716625394
 30
0.0
 10
106.2176277034793
 20
117.4866917746631
 30
0.0
 10
106.0268290253522
 20
117.3904981201277
 30
0.0
 10
105.6412377730707
 20
117.2740998297125
 30
0.0
 10
105.0658618848305
 20
117.1576887344595
 30
0.0
 10
104.3304324736678
 20
117.0412841224061
 30
0.0
 10
103.4586435158212
 20
116.9248795153011
 30
0.0
 10
102.4781845224055
 20
116.8084683992176
 30
0.0
 10
101.4232487972509
 20
116.6920701930217
 30
0.0
 10
100.3279623879991
 20
116.5756528682593
 30
0.0
 10
99.22929561737818
 20
116.4592605658868
 30
0.0
 10
98.16400175836989
 20
116.3428377155671
 30
0.0
 10
97.16701460648062
 20
116.2264504674902
 30
0.0
 10
96.27239675808433
 20
116.1100230954552
 30
0.0
 10
95.50942526614672
 20
115.9936397534687
 30
0.0
 10
94.90232385055539
 20
115.8772091800882
 30
0.0
 10
94.47943993819082
 20
115.7608281117368
 30
0.0
 10
94.24709624710069
 20
115.656080157911
 30
0.0
 10
94.24607027076635
 20
115.5901643003533
 30
0.0
 10
94.24564813838853
 20
115.5630435795765
 30
0.0
  0
SPLINE
  5
143
330
1F
100
AcDbEntity
  8
0
  6
Continuous
 62
     7
370
     0
100
AcDbSpline
210
0.0
220
0.0
230
1.0
 70
     8
 71
     3
 72
    26
 73
    22
 74
     0
 42
0.00000001
 43
0.00000001
 12
1.0
 22
0.0
 32
0.0
 13
1.0
 23
0.0
 33
0.0
 40
0.0
 40
0.0
 40
0.0
 40
0.0
 40
0.0068624365807156
 40
0.0650938246984821
 40
0.1233298089639629
 40
0.1815603779962613
 40
0.2397969935026341
 40
0.2980269192665629
 40
0.3562639883429886
 40
0.4144934859653019
 40
0.4727308128590899
 40
0.5309601225214257
 40
0.5891975014445319
 40
0.6474268740814738
 40
0.7056640972760826
 40
0.7638937802697248
 40
0.8221306459917963
 40
0.8803608687780433
 40
0.93859718929458
 40
0.9968281490943506
 40
1.0
 40
1.0
 40
1.0
 40
1.0
 10
106.213846825949
 20
113.5628139363925
 30
0.0
 10
106.2171086476943
 20
113.5582415249231
 30
0.0
 10
106.2480487446099
 20
113.5148697943228
 30
0.0
 10
106.1154209875087
 20
113.4326822187536
 30
0.0
 10
105.8077950913596
 20
113.3162932236319
 30
0.0
 10
105.2925438625121
 20
113.1998677913018
 30
0.0
 10
104.614798805586
 20
113.0834827128261
 30
0.0
 10
103.7883945773021
 20
112.9670535094268
 30
0.0
 10
102.8441308865776
 20
112.8506716719457
 30
0.0
 10
101.8120504757167
 20
112.7342398794446
 30
0.0
 10
100.7272675555719
 20
112.6178599177947
 30
0.0
 10
99.62559673392849
 20
112.5014269882714
 30
0.0
 10
98.54399131733616
 20
112.3850474069971
 30
0.0
 10
97.51822800116499
 20
112.2686148573939
 30
0.0
 10
96.58308648737626
 20
112.1522341435333
 30
0.0
 10
95.76844547203306
 20
112.0358034588942
 30
0.0
 10
95.10468350935777
 20
111.9194202075009
 30
0.0
 10
94.60464170958696
 20
111.8029925844087
 30
0.0
 10
94.31564887179775
 20
111.6866062500111
 30
0.0
 10
94.1942149125403
 20
111.6068758238914
 30
0.0
 10
94.2278235852188
 20
111.5659635903547
 30
0.0
 10
94.22955968976595
 20
111.5638502098188
 30
0.0
  0
SPLINE
  5
144
330
1F
100
AcDbEntity
  8
0
  6
Continuous
 62
     7
370
     0
100
AcDbSpline
210
0.0
220
0.0
230
1.0
 70
     8
 71
     3
 72
    25
 73
    21
 74
     0
 42
0.00000001
 43
0.00000001
 12
1.0
 22
0.0
 32
0.0
 13
1.0
 23
0.0
 33
0.0
 40
0.0
 40
0.0
 40
0.0
 40
0.0
 40
0.0442400873265021
 40
0.1024355436060904
 40
0.1606390123495227
 40
0.2188346565897763
 40
0.2770378675849718
 40
0.3352339398318817
 40
0.3934366974416918
 40
0.451633412674889
 40
0.5098355393371627
 40
0.5680330732773913
 40
0.6262344175444472
 40
0.6844328922165587
 40
0.7426333363919306
 40
0.8008328067884811
 40
0.8590322767579557
 40
0.9172327215556841
 40
0.9754311936286829
 40
1.0
 40
1.0
 40
1.0
 40
1.0
 10
106.2058585542782
 20
109.5633574459101
 30
0.0
 10
106.2013923818612
 20
109.5338655541096
 30
0.0
 10
106.1910511997563
 20
109.4655786642971
 30
0.0
 10
105.9397982472575
 20
109.3584586668811
 30
0.0
 10
105.5002401013443
 20
109.2420782753948
 30
0.0
 10
104.878619023395
 20
109.1256465996111
 30
0.0
 10
104.1031052987968
 20
109.0092647267811
 30
0.0
 10
103.1982989870564
 20
108.8928355456897
 30
0.0
 10
102.1940020027137
 20
108.776450416347
 30
0.0
 10
101.1243425223743
 20
108.6600251615896
 30
0.0
 10
100.0245336535116
 20
108.5436355111382
 30
0.0
 10
98.9312806696653
 20
108.4272153178634
 30
0.0
 10
97.88153205409523
 20
108.3108201482255
 30
0.0
 10
96.90922401519053
 20
108.194405866264
 30
0.0
 10
96.04826875595258
 20
108.0780044958129
 30
0.0
 10
95.32606508800504
 20
107.9615966205234
 30
0.0
 10
94.76555059319357
 20
107.8451887616656
 30
0.0
 10
94.39725887619097
 20
107.7287873371516
 30
0.0
 10
94.22220388033976
 20
107.6347976379242
 30
0.0
 10
94.24287637959627
 20
107.5796183033726
 30
0.0
 10
94.24901284609597
 20
107.5632387580768
 30
0.0
  0
SPLINE
  5
145
330
1F
100
AcDbEntity
  8
0
  6
Continuous
 62
     7
370
     0
100
AcDbSpline
210
0.0
220
0.0
230
1.0
 70
     8
 71
     3
 72
    10
 73
     6
 74
     0
 42
0.00000001
 43
0.00000001
 12
1.0
 22
0.0
 32
0.0
 13
1.0
 23
0.0
 33
0.0
 40
0.0
 40
0.0
 40
0.0
 40
0.0
 40
0.2060521423013515
 40
0.603044714034152
 40
0.9999999999999999
 40
0.9999999999999999
 40
0.9999999999999999
 40
0.9999999999999999
 10
105.9270337597281
 20
121.0585931018762
 30
0.0
 10
105.9555221750065
 20
121.0757289562345
 30
0.0
 10
106.0388981013765
 20
121.1258797883286
 30
0.0
 10
106.1264884954203
 20
121.2730331556011
 30
0.0
 10
106.142364467454
 20
121.4008274623957
 30
0.0
 10
106.1503020806833
 20
121.4647216150237
 30
0.0
  0
SPLINE
  5
146
330
1F
100
AcDbEntity
  8
0
  6
Continuous
 62
     7
370
     0
100
AcDbSpline
210
0.0
220
0.0
230
1.0
 70
     8
 71
     3
 72
     9
 73
     5
 74
     0
 42
0.00000001
 43
0.00000001
 12
1.0
 22
0.0
 32
0.0
 13
1.0
 23
0.0
 33
0.0
 40
0.0
 40
0.0
 40
0.0
 40
0.0
 40
0.99210146513088
 40
1.0
 40
1.0
 40
1.0
 40
1.0
 10
95.72434500686695
 20
107.2804601766792
 30
0.0
 10
95.60533036813393
 20
107.313493955018
 30
0.0
 10
95.48536820406504
 20
107.3467907290878
 30
0.0
 10
95.43374762762657
 20
107.3800914240206
 30
0.0
 10
95.43333990070361
 20
107.3803544507207
 30
0.0
  0
SPLINE
  5
147
330
1F
100
AcDbEntity
  8
0
  6
Continuous
 62
     7
370
     0
100
AcDbSpline
210
0.0
220
0.0
230
1.0
 70
     8
 71
     3
 72
    11
 73
     7
 74
     0
 42
0.00000001
 43
0.00000001
 12
1.0
 22
0.0
 32
0.0
 13
1.0
 23
0.0
 33
0.0
 40
0.0
 40
0.0
 40
0.0
 40
0.0
 40
0.1964733301353214
 40
0.4800921315755809
 40
0.7637457487509502
 40
1.0
 40
1.0
 40
1.0
 40
1.0
 10
105.0114388917783
 20
109.7434680575284
 30
0.0
 10
104.9522939954027
 20
109.770343229652
 30
0.0
 10
104.8077705664302
 20
109.8360140189768
 30
0.0
 10
104.3959781723152
 20
109.9405141398261
 30
0.0
 10
103.8619388225766
 20
110.0504204602059
 30
0.0
 10
103.4235539405233
 20
110.1215514950255
 30
0.0
 10
103.2243450068669
 20
110.1538745476133
 30
0.0
  0
SPLINE
  5
148
330
1F
100
AcDbEntity
  8
0
  6
Continuous
 62
     7
370
     0
100
AcDbSpline
210
0.0
220
0.0
230
1.0
 70
     8
 71
     3
 72
    12
 73
     8
 74
     0
 42
0.00000001
 43
0.00000001
 12
1.0
 22
0.0
 32
0.0
 13
1.0
 23
0.0
 33
0.0
 40
0.0
 40
0.0
 40
0.0
 40
0.0
 40
0.0318914088536567
 40
0.3173045441134545
 40
0.602712831983852
 40
0.8881305702629919
 40
1.0
 40
1.0
 40
1.0
 40
1.0
 10
97.22434500686695
 20
110.9751521551685
 30
0.0
 10
97.19563089798314
 20
110.9794878129579
 30
0.0
 10
96.90993899673123
 20
111.0226255722408
 30
0.0
 10
96.45761023130962
 20
111.1045636120626
 30
0.0
 10
95.91690720937535
 20
111.2209748406291
 30
0.0
 10
95.57680740349996
 20
111.3137824355341
 30
0.0
 10
95.4746884566417
 20
111.3677961845815
 30
0.0
 10
95.44593346712765
 20
111.3830055540008
 30
0.0
  0
SPLINE
  5
149
330
1F
100
AcDbEntity
  8
0
  6
Continuous
 62
     7
370
     0
100
AcDbSpline
210
0.0
220
0.0
230
1.0
 70
     8
 71
     3
 72
    12
 73
     8
 74
     0
 42
0.00000001
 43
0.00000001
 12
1.0
 22
0.0
 32
0.0
 13
1.0
 23
0.0
 33
0.0
 40
0.0
 40
0.0
 40
0.0
 40
0.0
 40
0.0876036347559078
 40
0.3731669288682452
 40
0.6587254620735231
 40
0.9442839953179747
 40
1.0
 40
1.0
 40
1.0
 40
1.0
 10
105.0053214876848
 20
113.7461974112303
 30
0.0
 10
104.9839500327176
 20
113.7581013739597
 30
0.0
 10
104.8929136249502
 20
113.8088089185205
 30
0.0
 10
104.5712586366231
 20
113.8983137636445
 30
0.0
 10
104.0446247282916
 20
114.0147216657926
 30
0.0
 10
103.5791655328532
 20
114.0998971495952
 30
0.0
 10
103.274142621584
 20
114.1462691648594
 30
0.0
 10
103.224345006867
 20
114.1538397953415
 30
0.0
  0
SPLINE
  5
14A
330
1F
100
AcDbEntity
  8
0
  6
Continuous
 62
     7
370
     0
100
AcDbSpline
210
0.0
220
0.0
230
1.0
 70
     8
 71
     3
 72
    11
 73
     7
 74
     0
 42
0.00000001
 43
0.00000001
 12
1.0
 22
0.0
 32
0.0
 13
1.0
 23
0.0
 33
0.0
 40
0.0
 40
0.0
 40
0.0
 40
0.0
 40
0.2105050136869232
 40
0.4941902672603569
 40
0.7778388189005591
 40
1.0
 40
1.0
 40
1.0
 40
1.0
 10
97.22434500686695
 20
114.9759895606703
 30
0.0
 10
97.04499687926065
 20
115.0047867745119
 30
0.0
 10
96.62395180502682
 20
115.0723923034989
 30
0.0
 10
96.09768570140864
 20
115.1787722557637
 30
0.0
 10
95.66230796791535
 20
115.2867844643139
 30
0.0
 10
95.50294913062663
 20
115.3559652005599
 30
0.0
 10
95.43295572160515
 20
115.3863506856127
 30
0.0
  0
SPLINE
  5
14B
330
1F
100
AcDbEntity
  8
0
  6
Continuous
 62
     7
370
     0
100
AcDbSpline
210
0.0
220
0.0
230
1.0
 70
     8
 71
     3
 72
    11
 73
     7
 74
     0
 42
0.00000001
 43
0.00000001
 12
1.0
 22
0.0
 32
0.0
 13
1.0
 23
0.0
 33
0.0
 40
0.0
 40
0.0
 40
0.0
 40
0.0
 40
0.2723703865805471
 40
0.5576250697001938
 40
0.8429121381764964
 40
1.0
 40
1.0
 40
1.0
 40
1.0
 10
105.0215941666138
 20
117.7449910093491
 30
0.0
 10
104.9279013700795
 20
117.7820352131232
 30
0.0
 10
104.7360837027709
 20
117.8578759716244
 30
0.0
 10
104.2499746186087
 20
117.9725446455165
 30
0.0
 10
103.7431591517233
 20
118.0714992381376
 30
0.0
 10
103.3602990740253
 20
118.1316762043077
 30
0.0
 10
103.2243450068669
 20
118.1530451162853
 30
0.0
  0
LINE
  5
14C
330
1F
100
AcDbEntity
  8
0
  6
Continuous
 62
     7
370
     0
100
AcDbLine
 10
97.2686710501
 20
118.9692892767
 30
0.0
 11
97.1776763836
 21
118.98358632
 31
0.0
  0
SPLINE
  5
14D
330
1F
100
AcDbEntity
  8
0
  6
Continuous
 62
     7
370
     0
100
AcDbSpline
210
0.0
220
0.0
230
1.0
 70
     8
 71
     3
 72
     9
 73
     5
 74
     0
 42
0.00000001
 43
0.00000001
 12
1.0
 22
0.0
 32
0.0
 13
1.0
 23
0.0
 33
0.0
 40
0.0
 40
0.0
 40
0.0
 40
0.0
 40
0.8872704351699852
 40
1.0
 40
1.0
 40
1.0
 40
1.0
 10
95.72434500686695
 20
119.2818327561487
 30
0.0
 10
95.61779929700843
 20
119.3110260775931
 30
0.0
 10
95.49771673183416
 20
119.3439284715953
 30
0.0
 10
95.4451697598562
 20
119.3768262994958
 30
0.0
 10
95.43924616257199
 20
119.3805348573188
 30
0.0
  0
SPLINE
  5
14E
330
1F
100
AcDbEntity
  8
0
  6
Continuous
 62
     7
370
     0
100
AcDbSpline
210
0.0
220
0.0
230
1.0
 70
     8
 71
     3
 72
    13
 73
     9
 74
     0
 42
0.00000001
 43
0.00000001
 12
1.0
 22
0.0
 32
0.0
 13
1.0
 23
0.0
 33
0.0
 40
0.0
 40
0.0
 40
0.0
 40
0.0
 40
0.1742640632280504
 40
0.3485444557469491
 40
0.526978162437574
 40
0.7054285541979917
 40
0.883878945967319
 40
0.9999999999999999
 40
0.9999999999999999
 40
0.9999999999999999
 40
0.9999999999999999
 10
106.1503020806833
 20
121.4647216146182
 30
0.0
 10
106.1427606137468
 20
121.5292466598226
 30
0.0
 10
106.1276769732059
 20
121.6583027965052
 30
0.0
 10
106.0165314630192
 20
121.8253724190145
 30
0.0
 10
105.8522235121375
 20
121.9374614346478
 30
0.0
 10
105.6575671081619
 20
121.9769723160982
 30
0.0
 10
105.4797646704634
 20
121.9469102175261
 30
0.0
 10
105.3941697263363
 20
121.8798697293095
 30
0.0
 10
105.3604279116644
 20
121.8534421435217
 30
0.0
  0
SPLINE
  5
14F
330
1F
100
AcDbEntity
  8
0
  6
Continuous
 62
     7
370
     0
100
AcDbSpline
210
0.0
220
0.0
230
1.0
 70
     8
 71
     3
 72
     9
 73
     5
 74
     0
 42
0.00000001
 43
0.00000001
 12
1.0
 22
0.0
 32
0.0
 13
1.0
 23
0.0
 33
0.0
 40
0.0
 40
0.0
 40
0.0
 40
0.0
 40
0.112729569383166
 40
1.0
 40
1.0
 40
1.0
 40
1.0
 10
95.43924616172396
 20
119.3805348571145
 30
0.0
 10
95.44516975926628
 20
119.3768262991226
 30
0.0
 10
95.49771673141137
 20
119.3439284710533
 30
0.0
 10
95.61779929709938
 20
119.3110260768823
 30
0.0
 10
95.72434500686695
 20
119.2818327554379
 30
0.0
  0
LINE
  5
150
330
1F
100
AcDbEntity
  8
0
  6
Continuous
 62
     7
370
     0
100
AcDbLine
 10
97.1776763791
 20
118.98358632
 30
0.0
 11
97.2686710501
 21
118.969289276
 31
0.0
  0
SPLINE
  5
151
330
1F
100
AcDbEntity
  8
0
  6
Continuous
 62
     7
370
     0
100
AcDbSpline
210
0.0
220
0.0
230
1.0
 70
     8
 71
     3
 72
    11
 73
     7
 74
     0
 42
0.00000001
 43
0.00000001
 12
1.0
 22
0.0
 32
0.0
 13
1.0
 23
0.0
 33
0.0
 40
0.0
 40
0.0
 40
0.0
 40
0.0
 40
0.157087861988274
 40
0.4423749307638081
 40
0.7276296141826541
 40
1.0
 40
1.0
 40
1.0
 40
1.0
 10
103.2243450068669
 20
118.1530451155745
 30
0.0
 10
103.3602990740259
 20
118.1316762035968
 30
0.0
 10
103.7431591517257
 20
118.0714992374268
 30
0.0
 10
104.24997461859
 20
117.9725446448057
 30
0.0
 10
104.7360837022333
 20
117.8578759710562
 30
0.0
 10
104.9279013692198
 20
117.7820352126977
 30
0.0
 10
105.0215941654121
 20
117.7449910090662
 30
0.0
  0
SPLINE
  5
152
330
1F
100
AcDbEntity
  8
0
  6
Continuous
 62
     7
370
     0
100
AcDbSpline
210
0.0
220
0.0
230
1.0
 70
     8
 71
     3
 72
    11
 73
     7
 74
     0
 42
0.00000001
 43
0.00000001
 12
1.0
 22
0.0
 32
0.0
 13
1.0
 23
0.0
 33
0.0
 40
0.0
 40
0.0
 40
0.0
 40
0.0
 40
0.2221611819549258
 40
0.5058097332831654
 40
0.7894949865445947
 40
1.0
 40
1.0
 40
1.0
 40
1.0
 10
95.43295572045143
 20
115.3863506853531
 30
0.0
 10
95.50294912979943
 20
115.3559652001499
 30
0.0
 10
95.66230796738917
 20
115.2867844637535
 30
0.0
 10
96.09768570138482
 20
115.1787722550529
 30
0.0
 10
96.62395180503103
 20
115.0723923027881
 30
0.0
 10
97.0449968792619
 20
115.004786773801
 30
0.0
 10
97.22434500686695
 20
114.9759895599595
 30
0.0
  0
SPLINE
  5
153
330
1F
100
AcDbEntity
  8
0
  6
Continuous
 62
     7
370
     0
100
AcDbSpline
210
0.0
220
0.0
230
1.0
 70
     8
 71
     3
 72
    12
 73
     8
 74
     0
 42
0.00000001
 43
0.00000001
 12
1.0
 22
0.0
 32
0.0
 13
1.0
 23
0.0
 33
0.0
 40
0.0
 40
0.0
 40
0.0
 40
0.0
 40
0.0557160047501619
 40
0.3412745383438197
 40
0.6268330718983038
 40
0.9123963663598537
 40
0.9999999999999999
 40
0.9999999999999999
 40
0.9999999999999999
 40
0.9999999999999999
 10
103.2243450068669
 20
114.1538397946306
 30
0.0
 10
103.2741426215839
 20
114.1462691641485
 30
0.0
 10
103.5791655328527
 20
114.0998971488844
 30
0.0
 10
104.0446247283062
 20
114.0147216650817
 30
0.0
 10
104.5712586365706
 20
113.8983137629337
 30
0.0
 10
104.8929136244909
 20
113.8088089179759
 30
0.0
 10
104.9839500320335
 20
113.7581013735812
 30
0.0
 10
105.0053214867197
 20
113.746197411018
 30
0.0
  0
SPLINE
  5
154
330
1F
100
AcDbEntity
  8
0
  6
Continuous
 62
     7
370
     0
100
AcDbSpline
210
0.0
220
0.0
230
1.0
 70
     8
 71
     3
 72
    12
 73
     8
 74
     0
 42
0.00000001
 43
0.00000001
 12
1.0
 22
0.0
 32
0.0
 13
1.0
 23
0.0
 33
0.0
 40
0.0
 40
0.0
 40
0.0
 40
0.0
 40
0.1118694307654119
 40
0.3972871687140574
 40
0.68269545625397
 40
0.9681085911832757
 40
0.9999999999999999
 40
0.9999999999999999
 40
0.9999999999999999
 40
0.9999999999999999
 10
95.44593346615609
 20
111.3830055537622
 30
0.0
 10
95.47468845594975
 20
111.3677961841855
 30
0.0
 10
95.57680740304158
 20
111.3137824349806
 30
0.0
 10
95.91690720933245
 20
111.2209748399182
 30
0.0
 10
96.4576102313217
 20
111.1045636113518
 30
0.0
 10
96.90993899673097
 20
111.0226255715299
 30
0.0
 10
97.19563089798311
 20
110.9794878122471
 30
0.0
 10
97.22434500686694
 20
110.9751521544576
 30
0.0
  0
SPLINE
  5
155
330
1F
100
AcDbEntity
  8
0
  6
Continuous
 62
     7
370
     0
100
AcDbSpline
210
0.0
220
0.0
230
1.0
 70
     8
 71
     3
 72
    11
 73
     7
 74
     0
 42
0.00000001
 43
0.00000001
 12
1.0
 22
0.0
 32
0.0
 13
1.0
 23
0.0
 33
0.0
 40
0.0
 40
0.0
 40
0.0
 40
0.0
 40
0.2362542515019967
 40
0.5199078689810587
 40
0.8035266707249746
 40
1.0
 40
1.0
 40
1.0
 40
1.0
 10
103.224345006867
 20
110.1538745469025
 30
0.0
 10
103.423553940525
 20
110.1215514943147
 30
0.0
 10
103.8619388225818
 20
110.050420459495
 30
0.0
 10
104.3959781722892
 20
109.9405141391153
 30
0.0
 10
104.8077705659371
 20
109.8360140184124
 30
0.0
 10
104.9522939946344
 20
109.7703432292341
 30
0.0
 10
105.0114388907071
 20
109.7434680572569
 30
0.0
  0
SPLINE
  5
156
330
1F
100
AcDbEntity
  8
0
  6
Continuous
 62
     7
370
     0
100
AcDbSpline
210
0.0
220
0.0
230
1.0
 70
     8
 71
     3
 72
     9
 73
     5
 74
     0
 42
0.00000001
 43
0.00000001
 12
1.0
 22
0.0
 32
0.0
 13
1.0
 23
0.0
 33
0.0
 40
0.0
 40
0.0
 40
0.0
 40
0.0
 40
0.0078985397811831
 40
0.9999999999999999
 40
0.9999999999999999
 40
0.9999999999999999
 40
0.9999999999999999
 10
95.43333989993418
 20
107.3803544505045
 30
0.0
 10
95.43374762711186
 20
107.3800914236395
 30
0.0
 10
95.48536820369408
 20
107.346790728542
 30
0.0
 10
95.60533036824498
 20
107.3134939543072
 30
0.0
 10
95.72434500686695
 20
107.2804601759683
 30
0.0
  0
SPLINE
  5
157
330
1F
100
AcDbEntity
  8
0
  6
Continuous
 62
     7
370
     0
100
AcDbSpline
210
0.0
220
0.0
230
1.0
 70
     8
 71
     3
 72
    25
 73
    21
 74
     0
 42
0.00000001
 43
0.00000001
 12
1.0
 22
0.0
 32
0.0
 13
1.0
 23
0.0
 33
0.0
 40
0.0
 40
0.0
 40
0.0
 40
0.0
 40
0.022585017337235
 40
0.0800788191132733
 40
0.1375745697281823
 40
0.1950693573181115
 40
0.2525641453299448
 40
0.3100598953300317
 40
0.3675536996737117
 40
0.4250503388671231
 40
0.4825432138693546
 40
0.5400406259847009
 40
0.5975326921928509
 40
0.6550307276161857
 40
0.7125221586233617
 40
0.7700206419424667
 40
0.827511650125314
 40
0.8850103880718259
 40
0.9425012105698461
 40
1.0
 40
1.0
 40
1.0
 40
1.0
 10
94.24848959391169
 20
107.5666528164397
 30
0.0
 10
94.2429407457715
 20
107.5818943606463
 30
0.0
 10
94.22326641035393
 20
107.6359357121895
 30
0.0
 10
94.39763995954556
 20
107.7287873544367
 30
0.0
 10
94.76544848260446
 20
107.8451887576704
 30
0.0
 10
95.32609244846014
 20
107.9615966222302
 30
0.0
 10
96.04826142380587
 20
108.0780044959917
 30
0.0
 10
96.90922598272172
 20
108.1944058668528
 30
0.0
 10
97.88153151585969
 20
108.3108201487025
 30
0.0
 10
98.93128085498618
 20
108.4272153183776
 30
0.0
 10
100.0245334504396
 20
108.5436355116154
 30
0.0
 10
101.1243431493649
 20
108.6600251621779
 30
0.0
 10
102.1939996979716
 20
108.7764504165278
 30
0.0
 10
103.1983075796724
 20
108.8928355473894
 30
0.0
 10
104.1030732357778
 20
109.0092647228128
 30
0.0
 10
104.8787386937309
 20
109.1256466167971
 30
0.0
 10
105.4997935267235
 20
109.2420782136362
 30
0.0
 10
105.941465045622
 20
109.3584588997645
 30
0.0
 10
106.2066712254284
 20
109.4748891283033
 30
0.0
 10
106.2148308910813
 20
109.5524839997663
 30
0.0
 10
106.2189110065747
 20
109.5912841235366
 30
0.0
  0
SPLINE
  5
158
330
1F
100
AcDbEntity
  8
0
  6
Continuous
 62
     7
370
     0
100
AcDbSpline
210
0.0
220
0.0
230
1.0
 70
     8
 71
     3
 72
    26
 73
    22
 74
     0
 42
0.00000001
 43
0.00000001
 12
1.0
 22
0.0
 32
0.0
 13
1.0
 23
0.0
 33
0.0
 40
0.0
 40
0.0
 40
0.0
 40
0.0
 40
0.0022871044550405
 40
0.0604868658150972
 40
0.1186919850198055
 40
0.176891009761209
 40
0.2350966738793469
 40
0.2932951591173506
 40
0.3515011805165026
 40
0.409699355564086
 40
0.4679055326083005
 40
0.5261036447150179
 40
0.5843097697577901
 40
0.6425080697237816
 40
0.7007139370873224
 40
0.7589126649655437
 40
0.8171180790020408
 40
0.8753174498039872
 40
0.9335222329377928
 40
0.9917224223863652
 40
1.0
 40
1.0
 40
1.0
 40
1.0
 10
94.22818021665424
 20
111.5656162655
 30
0.0
 10
94.22694410807482
 20
111.5671409643648
 30
0.0
 10
94.19425284484414
 20
111.6074645514421
 30
0.0
 10
94.31603635493113
 20
111.6866062831997
 30
0.0
 10
94.60453789222846
 20
111.8029925761528
 30
0.0
 10
95.10471132952523
 20
111.9194202103495
 30
0.0
 10
95.76843801840228
 20
112.0358034587672
 30
0.0
 10
96.58308848451443
 20
112.1522341442036
 30
0.0
 10
97.51822746701357
 20
112.2686148578507
 30
0.0
 10
98.54399145701738
 20
112.3850474075108
 30
0.0
 10
99.62559670941404
 20
112.5014269887709
 30
0.0
 10
100.7272675139694
 20
112.6178599182937
 30
0.0
 10
101.8120506666661
 20
112.7342398799598
 30
0.0
 10
102.8441301644603
 20
112.8506716723967
 30
0.0
 10
103.7883972751032
 20
112.9670535101186
 30
0.0
 10
104.6147887374958
 20
113.0834827126191
 30
0.0
 10
105.2925814406194
 20
113.199867794449
 30
0.0
 10
105.8076548591016
 20
113.3162932142616
 30
0.0
 10
106.1159443798341
 20
113.432682256101
 30
0.0
 10
106.2483302825007
 20
113.515815720951
 30
0.0
 10
106.2160714184517
 20
113.5601332650198
 30
0.0
 10
106.212054658222
 20
113.56565152965
 30
0.0
  0
SPLINE
  5
159
330
1F
100
AcDbEntity
  8
0
  6
Continuous
 62
     7
370
     0
100
AcDbSpline
210
0.0
220
0.0
230
1.0
 70
     8
 71
     3
 72
    25
 73
    21
 74
     0
 42
0.00000001
 43
0.00000001
 12
1.0
 22
0.0
 32
0.0
 13
1.0
 23
0.0
 33
0.0
 40
0.0
 40
0.0
 40
0.0
 40
0.0
 40
0.0389780199753559
 40
0.0971923398992143
 40
0.1554145083482711
 40
0.2136291385392891
 40
0.2718509496004698
 40
0.3300661194493756
 40
0.388287385457745
 40
0.4465032921350592
 40
0.504723847484392
 40
0.5629406417566211
 40
0.6211603509689537
 40
0.679378123009228
 40
0.7375968886834837
 40
0.7958156548059084
 40
0.8540334264021043
 40
0.9122531360291937
 40
0.970469929875105
 40
1.0
 40
1.0
 40
1.0
 40
1.0
 10
94.24673957517433
 20
115.5664787899824
 30
0.0
 10
94.24733077609568
 20
115.5924545140759
 30
0.0
 10
94.24880494540783
 20
115.6572254133373
 30
0.0
 10
94.47969905998185
 20
115.7608281478745
 30
0.0
 10
94.90225442538934
 20
115.8772091710423
 30
0.0
 10
95.50944387020766
 20
115.993639756529
 30
0.0
 10
96.27239177337741
 20
116.1100230952715
 30
0.0
 10
97.16701594279625
 20
116.2264504681757
 30
0.0
 10
98.16400139819098
 20
116.3428377160196
 30
0.0
 10
99.22929572186366
 20
116.4592605664023
 30
0.0
 10
100.3279623302535
 20
116.5756528687556
 30
0.0
 10
101.4232489237449
 20
116.6920701935316
 30
0.0
 10
102.478184074155
 20
116.8084683996925
 30
0.0
 10
103.4586451822718
 20
116.9248795159025
 30
0.0
 10
104.3304262559773
 20
117.0412841225363
 30
0.0
 10
105.0658850889296
 20
117.1576887363482
 30
0.0
 10
105.6411511747486
 20
117.2740998250386
 30
0.0
 10
106.0271522199763
 20
117.390498139946
 30
0.0
 10
106.2188542449787
 20
117.4877915318097
 30
0.0
 10
106.2040740182942
 20
117.5462710556374
 30
0.0
 10
106.1990999245124
 20
117.5659515816569
 30
0.0
  0
SPLINE
  5
15A
330
1F
100
AcDbEntity
  8
0
  6
Continuous
 62
     7
370
     0
100
AcDbSpline
210
0.0
220
0.0
230
1.0
 70
     8
 71
     3
 72
    24
 73
    20
 74
     0
 42
0.00000001
 43
0.00000001
 12
1.0
 22
0.0
 32
0.0
 13
1.0
 23
0.0
 33
0.0
 40
0.0
 40
0.0
 40
0.0
 40
0.0
 40
0.0188892155256822
 40
0.0802102238517197
 40
0.141528208774288
 40
0.202848268762664
 40
0.2641673027724894
 40
0.3254863363290164
 40
0.3868063969648732
 40
0.4481243791339283
 40
0.5094453889257027
 40
0.5707623849283526
 40
0.6320842179759235
 40
0.693400352602575
 40
0.7547228498650737
 40
0.816038234780316
 40
0.8773611961167102
 40
0.9386765901828795
 40
1.0
 40
1.0
 40
1.0
 40
1.0
 10
94.24583809015496
 20
119.5663616993121
 30
0.0
 10
94.24000897652502
 20
119.5783151349869
 30
0.0
 10
94.21525651878106
 20
119.6290736087819
 30
0.0
 10
94.37597766066938
 20
119.7186230260148
 30
0.0
 10
94.72385593526464
 20
119.8350373993779
 30
0.0
 10
95.27137344506916
 20
119.9514387464064
 30
0.0
 10
95.97855791334011
 20
120.0678466239829
 30
0.0
 10
96.8297141326267
 20
120.1842544971207
 30
0.0
 10
97.79267742684328
 20
120.3006558622381
 30
0.0
 10
98.83756996281926
 20
120.4170701538369
 30
0.0
 10
99.92822842873464
 20
120.533465318943
 30
0.0
 10
101.0288985019697
 20
120.6498855086313
 30
0.0
 10
102.1028768069823
 20
120.7662751672542
 30
0.0
 10
103.1139125152302
 20
120.882700408812
 30
0.0
 10
104.0288703340627
 20
120.9990855151175
 30
0.0
 10
104.817387973833
 20
121.1155145873464
 30
0.0
 10
105.4495738751722
 20
121.2318976461888
 30
0.0
 10
105.9212033019871
 20
121.3483259141921
 30
0.0
 10
106.0739324936941
 20
121.4259213531142
 30
0.0
 10
106.1503020807865
 20
121.4647216084191
 30
0.0
  0
LINE
  5
15B
330
1F
100
AcDbEntity
  8
0
  6
Continuous
 62
     7
370
     0
100
AcDbLine
 10
106.1503020891
 20
121.4647216216
 30
0.0
 11
106.1134847129
 21
121.2801826047
 31
0.0
  0
SPLINE
  5
15C
330
1F
100
AcDbEntity
  8
0
  6
Continuous
 62
     7
370
     0
100
AcDbSpline
210
0.0
220
0.0
230
1.0
 70
     8
 71
     3
 72
    14
 73
    10
 74
     0
 42
0.00000001
 43
0.00000001
 12
1.0
 22
0.0
 32
0.0
 13
1.0
 23
0.0
 33
0.0
 40
0.0
 40
0.0
 40
0.0
 40
0.0
 40
0.0020718505409252
 40
0.1681941567338934
 40
0.3343028227676162
 40
0.5005900973755455
 40
0.6668985594529218
 40
0.8333947776590457
 40
1.0
 40
1.0
 40
1.0
 40
1.0
 10
105.3059730597593
 20
121.8162650847866
 30
0.0
 10
105.3064140632302
 20
121.8169406693769
 30
0.0
 10
105.3422150080599
 20
121.8717850600412
 30
0.0
 10
105.4673876486363
 20
121.933945561169
 30
0.0
 10
105.6547631961482
 20
121.9791872266484
 30
0.0
 10
105.8500663068418
 20
121.9376042159321
 30
0.0
 10
106.0137332035903
 20
121.8282494484182
 30
0.0
 10
106.1271165521495
 20
121.6608940098514
 30
0.0
 10
106.1425718909029
 20
121.53012668179
 30
0.0
 10
106.1503020890826
 20
121.4647216216053
 30
0.0
  0
LINE
  5
15D
330
1F
100
AcDbEntity
  8
0
  6
Continuous
 62
     7
370
     0
100
AcDbLine
 10
99.589024364
 20
108.48358632
 30
0.0
 11
99.4632769853
 21
108.48358632
 31
0.0
  0
LINE
  5
15E
330
1F
100
AcDbEntity
  8
0
  6
Continuous
 62
     7
370
     0
100
AcDbLine
 10
95.8406013305
 20
108.48358632
 30
0.0
 11
95.7243450069
 21
108.48358632
 31
0.0
  0
LINE
  5
15F
330
1F
100
AcDbEntity
  8
0
  6
Continuous
 62
     7
370
     0
100
AcDbLine
 10
96.2243450069
 20
108.98358632
 30
0.0
 11
99.5201248572
 21
108.98358632
 31
0.0
  0
LINE
  5
160
330
1F
100
AcDbEntity
  8
0
  6
Continuous
 62
     7
370
     0
100
AcDbLine
 10
94.2243450069
 20
88.98358632
 30
0.0
 11
103.2243450059
 21
88.98358632
 31
0.0
  0
LINE
  5
161
330
1F
100
AcDbEntity
  8
0
  6
Continuous
 62
     7
370
     0
100
AcDbLine
 10
103.2243450059
 20
88.98358632
 30
0.0
 11
102.7243450061
 21
87.98358632
 31
0.0
  0
LINE
  5
162
330
1F
100
AcDbEntity
  8
0
  6
Continuous
 62
     7
370
     0
100
AcDbLine
 10
102.7243450061
 20
87.98358632
 30
0.0
 11
95.2243450069
 21
87.98358632
 31
0.0
  0
SPLINE
  5
163
330
1F
100
AcDbEntity
  8
0
  6
Continuous
 62
     7
370
     0
100
AcDbSpline
210
0.0
220
0.0
230
1.0
 70
    24
 71
     3
 72
    18
 73
    14
 74
     0
 42
0.00000001
 43
0.00000001
 12
1.0
 22
0.0
 32
0.0
 13
1.0
 23
0.0
 33
0.0
 40
0.0
 40
0.0
 40
0.0
 40
0.0
 40
0.0624513723085896
 40
0.156206235003107
 40
0.2499610977061848
 40
0.3437159604092627
 40
0.4374708231037803
 40
0.5312256864373026
 40
0.6249805488530925
 40
0.7187354112688823
 40
0.8124902746024047
 40
0.9062451372969222
 40
1.0
 40
1.0
 40
1.0
 40
1.0
 10
96.24147559148591
 20
108.983586319957
 30
0.0
 10
96.24132539706392
 20
108.983586319957
 30
0.0
 10
96.24094972389116
 20
108.983586319957
 30
0.0
 10
96.41595080846194
 20
108.983586319957
 30
0.0
 10
96.73690995328222
 20
108.983586319957
 30
0.0
 10
97.19786973908926
 20
108.983586319957
 30
0.0
 10
97.77352574054552
 20
108.983586319957
 30
0.0
 10
98.44382303356133
 20
108.983586319957
 30
0.0
 10
99.18232360788498
 20
108.983586319957
 30
0.0
 10
99.96129549196718
 20
108.983586319957
 30
0.0
 10
100.7488893634571
 20
108.983586319957
 30
0.0
 10
101.5218457113615
 20
108.983586319957
 30
0.0
 10
101.9901785743633
 20
108.983586319957
 30
0.0
 10
102.224345005875
 20
108.983586319957
 30
0.0
  0
LINE
  5
164
330
1F
100
AcDbEntity
  8
0
  6
Continuous
 62
     7
370
     0
100
AcDbLine
 10
102.4743450053
 20
108.3325786276
 30
0.0
 11
102.4743450053
 21
105.98358632
 31
0.0
  0
LINE
  5
165
330
1F
100
AcDbEntity
  8
0
  6
Continuous
 62
     7
370
     0
100
AcDbLine
 10
95.7243450069
 20
108.48358632
 30
0.0
 11
95.840540753
 21
108.48358632
 31
0.0
  0
LINE
  5
166
330
1F
100
AcDbEntity
  8
0
  6
Continuous
 62
     7
370
     0
100
AcDbLine
 10
99.4632603339
 20
108.48358632
 30
0.0
 11
99.589010802
 21
108.48358632
 31
0.0
  0
LINE
  5
167
330
1F
100
AcDbEntity
  8
0
  6
Continuous
 62
     7
370
     0
100
AcDbLine
 10
90.4093904307
 20
105.98358632
 30
0.0
 11
90.4093904307
 21
102.98358632
 31
0.0
  0
LINE
  5
168
330
1F
100
AcDbEntity
  8
0
  6
Continuous
 62
     7
370
     0
100
AcDbLine
 10
110.039299583
 20
102.98358632
 30
0.0
 11
110.039299583
 21
105.98358632
 31
0.0
  0
LINE
  5
169
330
1F
100
AcDbEntity
  8
0
  6
Continuous
 62
     7
370
     0
100
AcDbLine
 10
105.1318222949
 20
105.98358632
 30
0.0
 11
110.039299583
 21
105.98358632
 31
0.0
  0
LINE
  5
16A
330
1F
100
AcDbEntity
  8
0
  6
Continuous
 62
     7
370
     0
100
AcDbLine
 10
105.1318222949
 20
102.98358632
 30
0.0
 11
105.1318222949
 21
105.98358632
 31
0.0
  0
LINE
  5
16B
330
1F
100
AcDbEntity
  8
0
  6
Continuous
 62
     7
370
     0
100
AcDbLine
 10
110.039299583
 20
102.98358632
 30
0.0
 11
105.1318222949
 21
102.98358632
 31
0.0
  0
LINE
  5
16C
330
1F
100
AcDbEntity
  8
0
  6
Continuous
 62
     7
370
     0
100
AcDbLine
 10
95.3168677187
 20
105.98358632
 30
0.0
 11
105.1318222949
 21
105.98358632
 31
0.0
  0
LINE
  5
16D
330
1F
100
AcDbEntity
  8
0
  6
Continuous
 62
     7
370
     0
100
AcDbLine
 10
95.3168677187
 20
102.98358632
 30
0.0
 11
95.3168677187
 21
105.98358632
 31
0.0
  0
LINE
  5
16E
330
1F
100
AcDbEntity
  8
0
  6
Continuous
 62
     7
370
     0
100
AcDbLine
 10
105.1318222949
 20
102.98358632
 30
0.0
 11
95.3168677187
 21
102.98358632
 31
0.0
  0
LINE
  5
16F
330
1F
100
AcDbEntity
  8
0
  6
Continuous
 62
     7
370
     0
100
AcDbLine
 10
90.4093904307
 20
105.98358632
 30
0.0
 11
95.3168677187
 21
105.98358632
 31
0.0
  0
LINE
  5
170
330
1F
100
AcDbEntity
  8
0
  6
Continuous
 62
     7
370
     0
100
AcDbLine
 10
95.3168677187
 20
102.98358632
 30
0.0
 11
90.4093904307
 21
102.98358632
 31
0.0
  0
LINE
  5
171
330
1F
100
AcDbEntity
  8
0
  6
Continuous
 62
     7
370
     0
100
AcDbLine
 10
105.1318222925
 20
102.98358632
 30
0.0
 11
110.0392995818
 21
102.98358632
 31
0.0
  0
LINE
  5
172
330
1F
100
AcDbEntity
  8
0
  6
Continuous
 62
     7
370
     0
100
AcDbLine
 10
95.3168677175
 20
102.98358632
 30
0.0
 11
105.1318222925
 21
102.98358632
 31
0.0
  0
LINE
  5
173
330
1F
100
AcDbEntity
  8
0
  6
Continuous
 62
     7
370
     0
100
AcDbLine
 10
102.9743450049
 20
102.98358632
 30
0.0
 11
102.9743450049
 21
101.48358632
 31
0.0
  0
SPLINE
  5
174
330
1F
100
AcDbEntity
  8
0
  6
Continuous
 62
     7
370
     0
100
AcDbSpline
210
0.0
220
0.0
230
1.0
 70
    24
 71
     3
 72
    22
 73
    18
 74
     0
 42
0.00000001
 43
0.00000001
 12
1.0
 22
0.0
 32
0.0
 13
1.0
 23
0.0
 33
0.0
 40
0.0
 40
0.0
 40
0.0
 40
0.0
 40
0.042650973574443
 40
0.1110330472802091
 40
0.1794151203166078
 40
0.2477971933530065
 40
0.3161792670587726
 40
0.3845613402984672
 40
0.4529434135444052
 40
0.5213254867903433
 40
0.5897075600300379
 40
0.6580896337358041
 40
0.7264717067722026
 40
0.7948537798086014
 40
0.8632358535143675
 40
0.931617926754062
 40
0.9999999999999999
 40
0.9999999999999999
 40
0.9999999999999999
 40
0.9999999999999999
 10
96.67549129981559
 20
87.98358631995703
 30
0.0
 10
96.53110870750034
 20
87.98358631995703
 30
0.0
 10
96.15523829106081
 20
87.98358631995701
 30
0.0
 10
95.71471599783118
 20
87.98358631995703
 30
0.0
 10
95.3626073335217
 20
87.983586319957
 30
0.0
 10
95.20314991282065
 20
87.98358631995703
 30
0.0
 10
95.23509537507843
 20
87.98358631995703
 30
0.0
 10
95.4591927673127
 20
87.98358631995703
 30
0.0
 10
95.86629969688268
 20
87.98358631995704
 30
0.0
 10
96.4409163857065
 20
87.98358631995701
 30
0.0
 10
97.16091056272298
 20
87.98358631995703
 30
0.0
 10
97.99866852164487
 20
87.98358631995703
 30
0.0
 10
98.92182469374254
 20
87.98358631995703
 30
0.0
 10
99.89553138941996
 20
87.98358631995701
 30
0.0
 10
100.8800259122905
 20
87.98358631995706
 30
0.0
 10
101.8462207725636
 20
87.98358631995701
 30
0.0
 10
102.4316369279303
 20
87.98358631995701
 30
0.0
 10
102.7243450056269
 20
87.98358631995703
 30
0.0
  0
SPLINE
  5
175
330
1F
100
AcDbEntity
  8
0
  6
Continuous
 62
     7
370
     0
100
AcDbSpline
210
0.0
220
0.0
230
1.0
 70
    24
 71
     3
 72
    13
 73
     9
 74
     0
 42
0.00000001
 43
0.00000001
 12
1.0
 22
0.0
 32
0.0
 13
1.0
 23
0.0
 33
0.0
 40
0.0
 40
0.0
 40
0.0
 40
0.0
 40
0.1874810893304533
 40
0.3749621786437888
 40
0.5624432692349389
 40
0.749924357990904
 40
0.9374054467468693
 40
1.0
 40
1.0
 40
1.0
 40
1.0
 10
102.7243450056269
 20
87.98358631995703
 30
0.0
 10
102.9984942565074
 20
87.98358631995701
 30
0.0
 10
103.5467927582431
 20
87.98358631995703
 30
0.0
 10
104.2149284647523
 20
87.98358631995704
 30
0.0
 10
104.7401636478908
 20
87.98358631995701
 30
0.0
 10
105.0766692175331
 20
87.98358631995701
 30
0.0
 10
105.2325213316713
 20
87.98358631995703
 30
0.0
 10
105.2088558062996
 20
87.98358631995703
 30
0.0
 10
105.2029322666208
 20
87.98358631995703
 30
0.0
  0
LINE
  5
176
330
1F
100
AcDbEntity
  8
0
  6
Continuous
 62
     7
370
     0
100
AcDbLine
 10
103.2243450047
 20
101.48358632
 30
0.0
 11
103.2243450047
 21
95.6973830086
 31
0.0
  0
LINE
  5
177
330
1F
100
AcDbEntity
  8
0
  6
Continuous
 62
     7
370
     0
100
AcDbLine
 10
103.2243450047
 20
89.6973830086
 30
0.0
 11
103.2243450047
 21
88.98358632
 31
0.0
  0
LINE
  5
178
330
1F
100
AcDbEntity
  8
0
  6
Continuous
 62
     7
370
     0
100
AcDbLine
 10
94.2243450069
 20
101.48358632
 30
0.0
 11
103.2243450047
 21
101.48358632
 31
0.0
  0
SPLINE
  5
179
330
1F
100
AcDbEntity
  8
0
  6
Continuous
 62
     7
370
     0
100
AcDbSpline
210
0.0
220
0.0
230
1.0
 70
    24
 71
     3
 72
    13
 73
     9
 74
     0
 42
0.00000001
 43
0.00000001
 12
1.0
 22
0.0
 32
0.0
 13
1.0
 23
0.0
 33
0.0
 40
0.0
 40
0.0
 40
0.0
 40
0.0
 40
0.1874814482986927
 40
0.3749628965802678
 40
0.5624443461396593
 40
0.7499257938638632
 40
0.9374072415880667
 40
1.0
 40
1.0
 40
1.0
 40
1.0
 10
103.2243450053789
 20
101.483586319957
 30
0.0
 10
103.5533241074676
 20
101.483586319957
 30
0.0
 10
104.211282311615
 20
101.483586319957
 30
0.0
 10
105.0130451439431
 20
101.483586319957
 30
0.0
 10
105.6433274225442
 20
101.483586319957
 30
0.0
 10
106.0471338862583
 20
101.483586319957
 30
0.0
 10
106.2341562432221
 20
101.483586319957
 30
0.0
 10
106.2057580794089
 20
101.483586319957
 30
0.0
 10
106.1986501116006
 20
101.483586319957
 30
0.0
  0
SPLINE
  5
17A
330
1F
100
AcDbEntity
  8
0
  6
Continuous
 62
     7
370
     0
100
AcDbSpline
210
0.0
220
0.0
230
1.0
 70
    24
 71
     3
 72
    18
 73
    14
 74
     0
 42
0.00000001
 43
0.00000001
 12
1.0
 22
0.0
 32
0.0
 13
1.0
 23
0.0
 33
0.0
 40
0.0
 40
0.0
 40
0.0
 40
0.0
 40
0.0624536144565262
 40
0.1562082529362502
 40
0.2499628914245344
 40
0.3437175299128187
 40
0.4374721683925429
 40
0.5312268075112705
 40
0.6249814457122674
 40
0.7187360839132645
 40
0.812490723031992
 40
0.9062453615117158
 40
0.9999999999999999
 40
0.9999999999999999
 40
0.9999999999999999
 40
0.9999999999999999
 10
94.25003990213332
 20
101.483586319957
 30
0.0
 10
94.24981441203438
 20
101.483586319957
 30
0.0
 10
94.24925041882571
 20
101.483586319957
 30
0.0
 10
94.51175344473674
 20
101.483586319957
 30
0.0
 10
94.9931924973685
 20
101.483586319957
 30
0.0
 10
95.68463208620854
 20
101.483586319957
 30
0.0
 10
96.54811611247368
 20
101.483586319957
 30
0.0
 10
97.55356204554496
 20
101.483586319957
 30
0.0
 10
98.66131290875934
 20
101.483586319957
 30
0.0
 10
99.82977073441943
 20
101.483586319957
 30
0.0
 10
101.0111615417782
 20
101.483586319957
 30
0.0
 10
102.1705960636022
 20
101.483586319957
 30
0.0
 10
102.8730953581093
 20
101.483586319957
 30
0.0
 10
103.2243450053789
 20
101.483586319957
 30
0.0
  0
LINE
  5
17B
330
1F
100
AcDbEntity
  8
0
  6
Continuous
 62
     7
370
     0
100
AcDbLine
 10
95.3168677175
 20
105.98358632
 30
0.0
 11
105.1318222925
 21
105.98358632
 31
0.0
  0
LINE
  5
17C
330
1F
100
AcDbEntity
  8
0
  6
Continuous
 62
     7
370
     0
100
AcDbLine
 10
105.1318222925
 20
105.98358632
 30
0.0
 11
110.0392995818
 21
105.98358632
 31
0.0
  0
LINE
  5
17D
330
1F
100
AcDbEntity
  8
0
  6
Continuous
 62
     7
370
     0
100
AcDbLine
 10
106.2243450069
 20
88.98358632
 30
0.0
 11
103.2243450047
 21
88.98358632
 31
0.0
  0
LINE
  5
17E
330
1F
100
AcDbEntity
  8
0
  6
Continuous
 62
     7
370
     0
100
AcDbLine
 10
103.2243450047
 20
101.48358632
 30
0.0
 11
106.2243450069
 21
101.48358632
 31
0.0
  0
LINE
  5
17F
330
1F
100
AcDbEntity
  8
0
  6
Continuous
 62
     7
370
     0
100
AcDbLine
 10
103.6188118386
 20
108.48358632
 30
0.0
 11
104.7243450069
 21
108.48358632
 31
0.0
  0
LINE
  5
180
330
1F
100
AcDbEntity
  8
0
  6
Continuous
 62
     7
370
     0
100
AcDbLine
 10
105.2243450069
 20
87.98358632
 30
0.0
 11
102.7243450069
 21
87.98358632
 31
0.0
  0
LINE
  5
181
330
1F
100
AcDbEntity
  8
0
  6
Continuous
 62
     7
370
     0
100
AcDbLine
 10
104.7243450069
 20
108.48358632
 30
0.0
 11
103.6187807989
 21
108.48358632
 31
0.0
  0
LINE
  5
182
330
1F
100
AcDbEntity
  8
0
  6
Continuous
 62
     7
370
     0
100
AcDbLine
 10
100.2243450079
 20
85.98358632
 30
0.0
 11
100.2243450081
 21
86.48358632
 31
0.0
  0
LINE
  5
183
330
1F
100
AcDbEntity
  8
0
  6
Continuous
 62
     7
370
     0
100
AcDbLine
 10
100.2243450081
 20
86.48358632
 30
0.0
 11
103.2243450069
 21
86.48358632
 31
0.0
  0
LINE
  5
184
330
1F
100
AcDbEntity
  8
0
  6
Continuous
 62
     7
370
     0
100
AcDbLine
 10
102.7243450069
 20
85.98358632
 30
0.0
 11
100.2243450079
 21
85.98358632
 31
0.0
  0
SPLINE
  5
185
330
1F
100
AcDbEntity
  8
0
  6
Continuous
 62
     7
370
     0
100
AcDbSpline
210
0.0
220
0.0
230
1.0
 70
    24
 71
     3
 72
    15
 73
    11
 74
     0
 42
0.00000001
 43
0.00000001
 12
1.0
 22
0.0
 32
0.0
 13
1.0
 23
0.0
 33
0.0
 40
0.0
 40
0.0
 40
0.0
 40
0.0
 40
0.1248783663447281
 40
0.2498957424423046
 40
0.3749131193919616
 40
0.4999304951178686
 40
0.6249478708437758
 40
0.749965247793433
 40
0.8749826238910092
 40
1.0
 40
1.0
 40
1.0
 40
1.0
 10
102.7242915923821
 20
85.98358631995703
 30
0.0
 10
102.7149941998704
 20
85.98358631995703
 30
0.0
 10
102.6963890653504
 20
85.98358631995703
 30
0.0
 10
102.5477723524386
 20
85.98358631995703
 30
0.0
 10
102.3167294591382
 20
85.98358631995703
 30
0.0
 10
102.0034240297419
 20
85.98358631995703
 30
0.0
 10
101.6222461837544
 20
85.98358631995703
 30
0.0
 10
101.1872147680292
 20
85.98358631995703
 30
0.0
 10
100.7152162742288
 20
85.98358631995703
 30
0.0
 10
100.3879687626592
 20
85.98358631995703
 30
0.0
 10
100.2243450068669
 20
85.98358631995703
 30
0.0
  0
SPLINE
  5
186
330
1F
100
AcDbEntity
  8
0
  6
Continuous
 62
     7
370
     0
100
AcDbSpline
210
0.0
220
0.0
230
1.0
 70
    24
 71
     3
 72
    16
 73
    12
 74
     0
 42
0.00000001
 43
0.00000001
 12
1.0
 22
0.0
 32
0.0
 13
1.0
 23
0.0
 33
0.0
 40
0.0
 40
0.0
 40
0.0
 40
0.0
 40
0.1249826284976049
 40
0.2499652569837982
 40
0.3749478863218356
 40
0.499930514436463
 40
0.6249131425510903
 40
0.7498957718891276
 40
0.8748784003753209
 40
0.9998610288729257
 40
1.0
 40
1.0
 40
1.0
 40
1.0
 10
100.2243450068669
 20
85.98358631995703
 30
0.0
 10
100.0607225961315
 20
85.98358631995703
 30
0.0
 10
99.73347777467549
 20
85.98358631995703
 30
0.0
 10
99.26145910502296
 20
85.98358631995703
 30
0.0
 10
98.82650435753601
 20
85.98358631995703
 30
0.0
 10
98.4450400144501
 20
85.98358631995704
 30
0.0
 10
98.13280390521115
 20
85.98358631995694
 30
0.0
 10
97.8977702283511
 20
85.98358631995734
 30
0.0
 10
97.76399222554782
 20
85.98358631995588
 30
0.0
 10
97.70833427939378
 20
85.98358631995944
 30
0.0
 10
97.72438059888846
 20
85.98358631995703
 30
0.0
 10
97.72439842135165
 20
85.98358631995703
 30
0.0
  0
LINE
  5
187
330
1F
100
AcDbEntity
  8
0
  6
Continuous
 62
     7
370
     0
100
AcDbLine
 10
100.2243450081
 20
86.48358632
 30
0.0
 11
100.2243450081
 21
87.28358632
 31
0.0
  0
LINE
  5
188
330
1F
100
AcDbEntity
  8
0
  6
Continuous
 62
     7
370
     0
100
AcDbLine
 10
100.2243450077
 20
87.88358632
 30
0.0
 11
100.2243450077
 21
87.98358632
 31
0.0
  0
LINE
  5
189
330
1F
100
AcDbEntity
  8
0
  6
Continuous
 62
     7
370
     0
100
AcDbLine
 10
100.2243450081
 20
109.064712663
 30
0.0
 11
100.2243450081
 21
112.06471708
 31
0.0
  0
LINE
  5
18A
330
1F
100
AcDbEntity
  8
0
  6
Continuous
 62
     7
370
     0
100
AcDbLine
 10
100.2243450081
 20
113.0648016767
 30
0.0
 11
100.2243450081
 21
116.0647093721
 31
0.0
  0
LINE
  5
18B
330
1F
100
AcDbEntity
  8
0
  6
Continuous
 62
     7
370
     0
100
AcDbLine
 10
100.2243450081
 20
117.0647188266
 30
0.0
 11
100.2243450081
 21
118.98358632
 31
0.0
  0
LINE
  5
18C
330
1F
100
AcDbEntity
  8
0
  6
Continuous
 62
     7
370
     0
100
AcDbLine
 10
100.2243450087
 20
118.98358632
 30
0.0
 11
100.2243450087
 21
120.064678363
 31
0.0
  0
LINE
  5
18D
330
1F
100
AcDbEntity
  8
0
  6
Continuous
 62
     7
370
     0
100
AcDbLine
 10
100.2243450087
 20
121.0646921574
 30
0.0
 11
100.2243450087
 21
121.98358632
 31
0.0
  0
LINE
  5
18E
330
1F
100
AcDbEntity
  8
0
  6
Continuous
 62
     7
370
     0
100
AcDbLine
 10
104.7243450069
 20
118.98358632
 30
0.0
 11
100.2243450087
 21
118.98358632
 31
0.0
  0
LINE
  5
18F
330
1F
100
AcDbEntity
  8
0
  6
Continuous
 62
     7
370
     0
100
AcDbLine
 10
94.2243450069
 20
129.98358632
 30
0.0
 11
94.2243450069
 21
126.0163999071
 31
0.0
  0
LINE
  5
190
330
1F
100
AcDbEntity
  8
0
  6
Continuous
 62
     7
370
     0
100
AcDbLine
 10
94.2243450069
 20
125.9507727328
 30
0.0
 11
94.2243450069
 21
121.98358632
 31
0.0
  0
LINE
  5
191
330
1F
100
AcDbEntity
  8
0
  6
Continuous
 62
     7
370
     0
100
AcDbLine
 10
100.2243450069
 20
121.98358632
 30
0.0
 11
94.2243450069
 21
121.98358632
 31
0.0
  0
LINE
  5
192
330
1F
100
AcDbEntity
  8
0
  6
Continuous
 62
     7
370
     0
100
AcDbLine
 10
100.2243450069
 20
129.98358632
 30
0.0
 11
100.2243450069
 21
121.98358632
 31
0.0
  0
LINE
  5
193
330
1F
100
AcDbEntity
  8
0
  6
Continuous
 62
     7
370
     0
100
AcDbLine
 10
94.2243450069
 20
129.98358632
 30
0.0
 11
100.2243450069
 21
129.98358632
 31
0.0
  0
LINE
  5
194
330
1F
100
AcDbEntity
  8
0
  6
Continuous
 62
     7
370
     0
100
AcDbLine
 10
94.2243450069
 20
121.98358632
 30
0.0
 11
94.2243450069
 21
129.98358632
 31
0.0
  0
LINE
  5
195
330
1F
100
AcDbEntity
  8
0
  6
Continuous
 62
     7
370
     0
100
AcDbLine
 10
106.2243450069
 20
121.98358632
 30
0.0
 11
100.2243450069
 21
121.98358632
 31
0.0
  0
LINE
  5
196
330
1F
100
AcDbEntity
  8
0
  6
Continuous
 62
     7
370
     0
100
AcDbLine
 10
106.2243450069
 20
129.98358632
 30
0.0
 11
106.2243450069
 21
121.98358632
 31
0.0
  0
LINE
  5
197
330
1F
100
AcDbEntity
  8
0
  6
Continuous
 62
     7
370
     0
100
AcDbLine
 10
100.2243450069
 20
129.98358632
 30
0.0
 11
106.2243450069
 21
129.98358632
 31
0.0
  0
LINE
  5
198
330
1F
100
AcDbEntity
  8
0
  6
Continuous
 62
     7
370
     0
100
AcDbLine
 10
106.2243450069
 20
121.98358632
 30
0.0
 11
106.2243450069
 21
123.98358632
 31
0.0
  0
LINE
  5
199
330
1F
100
AcDbEntity
  8
0
  6
Continuous
 62
     7
370
     0
100
AcDbLine
 10
106.2243450069
 20
127.98358632
 30
0.0
 11
106.2243450069
 21
129.98358632
 31
0.0
  0
LINE
  5
19A
330
1F
100
AcDbEntity
  8
0
  6
Continuous
 62
     7
370
     0
100
AcDbLine
 10
106.2243450069
 20
129.98358632
 30
0.0
 11
100.2243450069
 21
129.98358632
 31
0.0
  0
LINE
  5
19B
330
1F
100
AcDbEntity
  8
0
  6
Continuous
 62
     7
370
     0
100
AcDbLine
 10
100.2243450069
 20
129.98358632
 30
0.0
 11
94.2243450069
 21
129.98358632
 31
0.0
  0
LINE
  5
19C
330
1F
100
AcDbEntity
  8
0
  6
Continuous
 62
     7
370
     0
100
AcDbLine
 10
100.2243450085
 20
129.98358632
 30
0.0
 11
100.2243450085
 21
136.98358632
 31
0.0
  0
SPLINE
  5
19D
330
1F
100
AcDbEntity
  8
0
  6
Continuous
 62
     7
370
     0
100
AcDbSpline
210
0.0
220
0.0
230
1.0
 70
    24
 71
     3
 72
    16
 73
    12
 74
     0
 42
0.00000001
 43
0.00000001
 12
1.0
 22
0.0
 32
0.0
 13
1.0
 23
0.0
 33
0.0
 40
0.0
 40
0.0
 40
0.0
 40
0.0
 40
0.1249920841542125
 40
0.2499841682970126
 40
0.374976253291721
 40
0.499968337062927
 40
0.624960420834133
 40
0.7499525058288413
 40
0.8749445899716415
 40
0.999936674125854
 40
1.0
 40
1.0
 40
1.0
 40
1.0
 10
100.2243450068669
 20
138.983586319957
 30
0.0
 10
99.86437570531382
 20
138.983586319957
 30
0.0
 10
99.14443710224039
 20
138.983586319957
 30
0.0
 10
98.10599599803163
 20
138.983586319957
 30
0.0
 10
97.1490956712584
 20
138.983586319957
 30
0.0
 10
96.30987367665041
 20
138.983586319957
 30
0.0
 10
95.62295587790263
 20
138.983586319957
 30
0.0
 10
95.1058756623178
 20
138.983586319957
 30
0.0
 10
94.81158692054345
 20
138.983586319957
 30
0.0
 10
94.6891195743961
 20
138.983586319957
 30
0.0
 10
94.72438069607904
 20
138.983586319957
 30
0.0
 10
94.72439855169483
 20
138.983586319957
 30
0.0
  0
SPLINE
  5
19E
330
1F
100
AcDbEntity
  8
0
  6
Continuous
 62
     7
370
     0
100
AcDbSpline
210
0.0
220
0.0
230
1.0
 70
    24
 71
     3
 72
    15
 73
    11
 74
     0
 42
0.00000001
 43
0.00000001
 12
1.0
 22
0.0
 32
0.0
 13
1.0
 23
0.0
 33
0.0
 40
0.0
 40
0.0
 40
0.0
 40
0.0
 40
0.1249445827299128
 40
0.2499524993439019
 40
0.3749604168099072
 40
0.499968333052255
 40
0.6249762492946029
 40
0.7499841667606083
 40
0.8749920833745972
 40
1.0
 40
1.0
 40
1.0
 40
1.0
 10
105.7242914620391
 20
138.983586319957
 30
0.0
 10
105.703828951181
 20
138.983586319957
 30
0.0
 10
105.6628935571041
 20
138.983586319957
 30
0.0
 10
105.3358890184243
 20
138.983586319957
 30
0.0
 10
104.8275897699129
 20
138.983586319957
 30
0.0
 10
104.1383191336954
 20
138.983586319957
 30
0.0
 10
103.2997275219559
 20
138.983586319957
 30
0.0
 10
102.3426585011743
 20
138.983586319957
 30
0.0
 10
101.3042617901255
 20
138.983586319957
 30
0.0
 10
100.5843172679641
 20
138.983586319957
 30
0.0
 10
100.2243450068669
 20
138.983586319957
 30
0.0
  0
LINE
  5
19F
330
1F
100
AcDbEntity
  8
0
  6
Continuous
 62
     7
370
     0
100
AcDbLine
 10
100.2243450091
 20
138.98358632
 30
0.0
 11
105.7243450069
 21
138.98358632
 31
0.0
  0
LINE
  5
1A0
330
1F
100
AcDbEntity
  8
0
  6
Continuous
 62
     7
370
     0
100
AcDbLine
 10
105.7243450069
 20
136.98358632
 30
0.0
 11
100.2243450091
 21
136.98358632
 31
0.0
  0
LINE
  5
1A1
330
1F
100
AcDbEntity
  8
0
  6
Continuous
 62
     7
370
     0
100
AcDbLine
 10
100.2243450091
 20
136.98358632
 30
0.0
 11
100.2243450091
 21
138.98358632
 31
0.0
  0
SPLINE
  5
1A2
330
1F
100
AcDbEntity
  8
0
  6
Continuous
 62
     7
370
     0
100
AcDbSpline
210
0.0
220
0.0
230
1.0
 70
    24
 71
     3
 72
    16
 73
    12
 74
     0
 42
0.00000001
 43
0.00000001
 12
1.0
 22
0.0
 32
0.0
 13
1.0
 23
0.0
 33
0.0
 40
0.0
 40
0.0
 40
0.0
 40
0.0
 40
0.1249920841542125
 40
0.2499841682970126
 40
0.374976253291721
 40
0.499968337062927
 40
0.624960420834133
 40
0.7499525058288413
 40
0.8749445899716415
 40
0.999936674125854
 40
1.0
 40
1.0
 40
1.0
 40
1.0
 10
100.2243450068669
 20
136.983586319957
 30
0.0
 10
99.86437570531382
 20
136.983586319957
 30
0.0
 10
99.14443710224039
 20
136.983586319957
 30
0.0
 10
98.10599599803163
 20
136.983586319957
 30
0.0
 10
97.1490956712584
 20
136.983586319957
 30
0.0
 10
96.30987367665041
 20
136.983586319957
 30
0.0
 10
95.62295587790263
 20
136.983586319957
 30
0.0
 10
95.1058756623178
 20
136.983586319957
 30
0.0
 10
94.81158692054345
 20
136.9835863199571
 30
0.0
 10
94.6891195743961
 20
136.9835863199569
 30
0.0
 10
94.72438069607904
 20
136.983586319957
 30
0.0
 10
94.72439855169483
 20
136.983586319957
 30
0.0
  0
SPLINE
  5
1A3
330
1F
100
AcDbEntity
  8
0
  6
Continuous
 62
     7
370
     0
100
AcDbSpline
210
0.0
220
0.0
230
1.0
 70
    24
 71
     3
 72
    15
 73
    11
 74
     0
 42
0.00000001
 43
0.00000001
 12
1.0
 22
0.0
 32
0.0
 13
1.0
 23
0.0
 33
0.0
 40
0.0
 40
0.0
 40
0.0
 40
0.0
 40
0.1249445827299128
 40
0.2499524993439019
 40
0.3749604168099072
 40
0.499968333052255
 40
0.6249762492946029
 40
0.7499841667606083
 40
0.8749920833745972
 40
1.0
 40
1.0
 40
1.0
 40
1.0
 10
105.7242914620391
 20
136.983586319957
 30
0.0
 10
105.703828951181
 20
136.983586319957
 30
0.0
 10
105.6628935571041
 20
136.983586319957
 30
0.0
 10
105.3358890184243
 20
136.983586319957
 30
0.0
 10
104.8275897699129
 20
136.983586319957
 30
0.0
 10
104.1383191336954
 20
136.983586319957
 30
0.0
 10
103.2997275219559
 20
136.983586319957
 30
0.0
 10
102.3426585011743
 20
136.983586319957
 30
0.0
 10
101.3042617901255
 20
136.983586319957
 30
0.0
 10
100.5843172679641
 20
136.983586319957
 30
0.0
 10
100.2243450068669
 20
136.983586319957
 30
0.0
  0
LINE
  5
1A4
330
1F
100
AcDbEntity
  8
0
  6
Continuous
 62
     7
370
     0
100
AcDbLine
 10
100.2243450069
 20
121.98358632
 30
0.0
 11
94.2243450069
 21
121.98358632
 31
0.0
  0
LINE
  5
1A5
330
1F
100
AcDbEntity
  8
0
  6
Continuous
 62
     7
370
     0
100
AcDbLine
 10
106.2243450069
 20
121.98358632
 30
0.0
 11
100.2243450069
 21
121.98358632
 31
0.0
  0
SPLINE
  5
1A6
330
1F
100
AcDbEntity
  8
0
  6
Continuous
 62
     7
370
     0
100
AcDbSpline
210
0.0
220
0.0
230
1.0
 70
    24
 71
     3
 72
    16
 73
    12
 74
     0
 42
0.00000001
 43
0.00000001
 12
1.0
 22
0.0
 32
0.0
 13
1.0
 23
0.0
 33
0.0
 40
0.0
 40
0.0
 40
0.0
 40
0.0
 40
0.1249903295559667
 40
0.2499806591005211
 40
0.374970989496972
 40
0.4999613186699376
 40
0.6249516478429034
 40
0.7499419782393542
 40
0.8749323077839086
 40
0.9999226373398753
 40
1.0
 40
1.0
 40
1.0
 40
1.0
 10
100.2243450068669
 20
118.983586319957
 30
0.0
 10
99.92982466891891
 20
118.983586319957
 30
0.0
 10
99.34078399304971
 20
118.983586319957
 30
0.0
 10
98.49115036703826
 20
118.983586319957
 30
0.0
 10
97.70823189998188
 20
118.983586319957
 30
0.0
 10
97.0215957893836
 20
118.983586319957
 30
0.0
 10
96.45957188650802
 20
118.9835863199571
 30
0.0
 10
96.03650718618542
 20
118.9835863199568
 30
0.0
 10
95.79572201528296
 20
118.9835863199577
 30
0.0
 10
95.69552447783536
 20
118.9835863199555
 30
0.0
 10
95.72438067782889
 20
118.983586319957
 30
0.0
 10
95.72439852730186
 20
118.983586319957
 30
0.0
  0
SPLINE
  5
1A7
330
1F
100
AcDbEntity
  8
0
  6
Continuous
 62
     7
370
     0
100
AcDbSpline
210
0.0
220
0.0
230
1.0
 70
    24
 71
     3
 72
    15
 73
    11
 74
     0
 42
0.00000001
 43
0.00000001
 12
1.0
 22
0.0
 32
0.0
 13
1.0
 23
0.0
 33
0.0
 40
0.0
 40
0.0
 40
0.0
 40
0.0
 40
0.1249322970850779
 40
0.2499419687911842
 40
0.3749516413493189
 40
0.4999613126837789
 40
0.6249709840182389
 40
0.7499806565763736
 40
0.8749903282824797
 40
0.9999999999999999
 40
0.9999999999999999
 40
0.9999999999999999
 40
0.9999999999999999
 10
104.7242914864317
 20
118.983586319957
 30
0.0
 10
104.7075506840017
 20
118.983586319957
 30
0.0
 10
104.6740587110202
 20
118.983586319957
 30
0.0
 10
104.4065167954363
 20
118.983586319957
 30
0.0
 10
103.990636333254
 20
118.983586319957
 30
0.0
 10
103.4266874323063
 20
118.983586319957
 30
0.0
 10
102.7405670759079
 20
118.983586319957
 30
0.0
 10
101.9575105901208
 20
118.983586319957
 30
0.0
 10
101.1079132848279
 20
118.983586319957
 30
0.0
 10
100.5188677661962
 20
118.983586319957
 30
0.0
 10
100.2243450068669
 20
118.983586319957
 30
0.0
  0
SPLINE
  5
1A8
330
1F
100
AcDbEntity
  8
0
  6
Continuous
 62
     7
370
     0
100
AcDbSpline
210
0.0
220
0.0
230
1.0
 70
    24
 71
     3
 72
    15
 73
    11
 74
     0
 42
0.00000001
 43
0.00000001
 12
1.0
 22
0.0
 32
0.0
 13
1.0
 23
0.0
 33
0.0
 40
0.0
 40
0.0
 40
0.0
 40
0.0
 40
0.1248985663205032
 40
0.2499130567072577
 40
0.3749275479460734
 40
0.4999420379611673
 40
0.6249565279762611
 40
0.7499710192150767
 40
0.8749855096018311
 40
1.0
 40
1.0
 40
1.0
 40
1.0
 10
103.2242915528108
 20
87.98358631995703
 30
0.0
 10
103.2131333094077
 20
87.98358631995701
 30
0.0
 10
103.1908064661258
 20
87.98358631995701
 30
0.0
 10
103.0124584625062
 20
87.98358631995703
 30
0.0
 10
102.7352061778499
 20
87.98358631995704
 30
0.0
 10
102.359239880334
 20
87.98358631995701
 30
0.0
 10
101.9018264068059
 20
87.98358631995703
 30
0.0
 10
101.3797887235487
 20
87.98358631995703
 30
0.0
 10
100.8133905268795
 20
87.98358631995703
 30
0.0
 10
100.4206935135438
 20
87.98358631995701
 30
0.0
 10
100.2243450068669
 20
87.98358631995703
 30
0.0
  0
LINE
  5
1A9
330
1F
100
AcDbEntity
  8
0
  6
Continuous
 62
     7
370
     0
100
AcDbLine
 10
100.2243450091
 20
136.98358632
 30
0.0
 11
94.7243450069
 21
136.98358632
 31
0.0
  0
LINE
  5
1AA
330
1F
100
AcDbEntity
  8
0
  6
Continuous
 62
     7
370
     0
100
AcDbLine
 10
94.7243450069
 20
138.98358632
 30
0.0
 11
100.2243450091
 21
138.98358632
 31
0.0
  0
LINE
  5
1AB
330
1F
100
AcDbEntity
  8
0
  6
Continuous
 62
     7
370
     0
100
AcDbLine
 10
100.2243450087
 20
118.98358632
 30
0.0
 11
95.7243450069
 21
118.98358632
 31
0.0
  0
LINE
  5
1AC
330
1F
100
AcDbEntity
  8
0
  6
Continuous
 62
     7
370
     0
100
AcDbLine
 10
100.2243450081
 20
86.48358632
 30
0.0
 11
97.2243450069
 21
86.48358632
 31
0.0
  0
LINE
  5
1AD
330
1F
100
AcDbEntity
  8
0
  6
Continuous
 62
     7
370
     0
100
AcDbLine
 10
100.2243450079
 20
85.98358632
 30
0.0
 11
97.7243450069
 21
85.98358632
 31
0.0
  0
DIMENSION
  5
1AE
330
1F
100
AcDbEntity
  8
0
  6
Continuous
 62
     7
370
     0
100
AcDbDimension
  2
_D
 10
105.7243450069
 20
148.98373632
 30
0.0
 11
100.2243450069
 21
148.98373632
 31
0.0
 70
   160
  1
%%c<>
 71
     2
 42
-1.0
  3
SLDDIMSTYLE0
100
AcDbAlignedDimension
 13
94.7243450069
 23
138.98358632
 33
0.0
 14
105.7243450069
 24
138.98358632
 34
0.0
 50
0.0
100
AcDbRotatedDimension
  0
DIMENSION
  5
1BC
330
1F
100
AcDbEntity
  8
0
  6
Continuous
 62
     7
370
     0
100
AcDbDimension
  2
_D_1
 10
124.9274841162
 20
129.98358632
 30
0.0
 11
124.9274841162
 21
134.48358632
 31
0.0
 70
   160
  1
<>
 71
     2
 42
-1.0
  3
SLDDIMSTYLE1
100
AcDbAlignedDimension
 13
105.7243450069
 23
138.98358632
 33
0.0
 14
106.2243450069
 24
129.98358632
 34
0.0
 50
90.0
100
AcDbRotatedDimension
  0
DIMENSION
  5
1C7
330
1F
100
AcDbEntity
  8
0
  6
Continuous
 62
     7
370
     0
100
AcDbDimension
  2
_D_2
 10
145.0244950069
 20
85.98358632
 30
0.0
 11
145.0244950069
 21
112.48358632
 31
0.0
 70
   160
  1
<>
 71
     2
 42
-1.0
  3
SLDDIMSTYLE1
100
AcDbAlignedDimension
 13
105.7243450069
 23
138.98358632
 33
0.0
 14
102.7243450069
 24
85.98358632
 34
0.0
 50
90.0
100
AcDbRotatedDimension
  0
DIMENSION
  5
1D1
330
1F
100
AcDbEntity
  8
0
  6
Continuous
 62
     7
370
     0
100
AcDbDimension
  2
_D_3
 10
124.9274841162
 20
108.98358632
 30
0.0
 11
124.9274841162
 21
105.98358632
 31
0.0
 70
   160
  1
<>
 71
     2
 42
-1.0
  3
SLDDIMSTYLE0
100
AcDbAlignedDimension
 13
110.039299583
 23
102.98358632
 33
0.0
 14
102.2243450054
 24
108.98358632
 34
0.0
 50
90.0
100
AcDbRotatedDimension
  0
DIMENSION
  5
1DD
330
1F
100
AcDbEntity
  8
0
  6
Continuous
 62
     7
370
     0
100
AcDbDimension
  2
_D_4
 10
124.9274841162
 20
87.98358632
 30
0.0
 11
124.9274841162
 21
95.48358632
 31
0.0
 70
   160
  1
<>
 71
     2
 42
-1.0
  3
SLDDIMSTYLE1
100
AcDbAlignedDimension
 13
110.039299583
 23
102.98358632
 33
0.0
 14
105.2243450069
 24
87.98358632
 34
0.0
 50
90.0
100
AcDbRotatedDimension
  0
DIMENSION
  5
1E9
330
1F
100
AcDbEntity
  8
0
  6
Continuous
 62
     7
370
     0
100
AcDbDimension
  2
_D_5
 10
135.6540021425
 20
85.98358632
 30
0.0
 11
135.6540021425
 21
94.48358632
 31
0.0
 70
   160
  1
<>
 71
     2
 42
-1.0
  3
SLDDIMSTYLE1
100
AcDbAlignedDimension
 13
110.039299583
 23
102.98358632
 33
0.0
 14
102.7243450069
 24
85.98358632
 34
0.0
 50
90.0
100
AcDbRotatedDimension
  0
DIMENSION
  5
1F3
330
1F
100
AcDbEntity
  8
0
  6
Continuous
 62
     7
370
     0
100
AcDbDimension
  2
_D_6
 10
103.2243450069
 20
75.98343632
 30
0.0
 11
113.3199926664
 21
75.98343632
 31
0.0
 70
   160
  1
%%c<>
 71
     2
 42
-1.0
  3
SLDDIMSTYLE0
100
AcDbAlignedDimension
 13
97.2243450069
 23
86.48358632
 33
0.0
 14
103.2243450069
 24
86.48358632
 34
0.0
 50
0.0
100
AcDbRotatedDimension
  0
DIMENSION
  5
200
330
1F
100
AcDbEntity
  8
0
  6
Continuous
 62
     7
370
     0
100
AcDbDimension
  2
_D_7
 10
110.0392995829
 20
63.98343632
 30
0.0
 11
100.2243450069
 21
63.98343632
 31
0.0
 70
   160
  1
<>
 71
     2
 42
-1.0
  3
SLDDIMSTYLE1
100
AcDbAlignedDimension
 13
90.4093904309
 23
90.2544997936
 33
0.0
 14
110.0392995829
 24
90.2544997936
 34
0.0
 50
0.0
100
AcDbRotatedDimension
  0
DIMENSION
  5
20C
330
1F
100
AcDbEntity
  8
0
  6
Continuous
 62
     7
370
     0
100
AcDbDimension
  2
_D_8
 10
82.8824905953
 20
105.98358632
 30
0.0
 11
82.8824905953
 21
95.48358632
 31
0.0
 70
   160
  1
<>
 71
     2
 42
-1.0
  3
SLDDIMSTYLE0
100
AcDbAlignedDimension
 13
90.4093904307
 23
102.98358632
 33
0.0
 14
90.4093904307
 24
105.98358632
 34
0.0
 50
90.0
100
AcDbRotatedDimension
  0
DIMENSION
  5
218
330
1F
100
AcDbEntity
  8
0
  6
Continuous
 62
     7
370
     0
100
AcDbDimension
  2
_D_9
 10
74.5106175389
 20
108.98358632
 30
0.0
 11
74.5106175389
 21
113.98358632
 31
0.0
 70
   160
  1
<>st
 71
     2
 42
-1.0
  3
SLDDIMSTYLE0
100
AcDbAlignedDimension
 13
100.2243450077
 23
118.98358632
 33
0.0
 14
96.2243450069
 24
108.98358632
 34
0.0
 50
90.0
100
AcDbRotatedDimension
  0
INSERT
  5
22F
330
1F
100
AcDbEntity
  8
0
  6
Continuous
 62
     7
370
     0
100
AcDbBlockReference
  2
SW_NOTE_0
 10
78.9442467378
 20
138.6714116251
 30
0.0
  0
LEADER
  5
237
330
1F
100
AcDbEntity
  8
0
  6
Continuous
 62
     7
370
     0
100
AcDbLeader
  3
SLDDIMSTYLE2
 76
     2
 10
91.5024637946
 20
127.7634860646
 30
0.0
 10
78.9442467378
 20
138.6714116251
 30
0.0
  0
INSERT
  5
242
330
1F
100
AcDbEntity
  8
0
  6
Continuous
 62
     7
370
     0
100
AcDbBlockReference
  2
SW_NOTE_1
 10
120.8185053381
 20
144.6026097272
 30
0.0
  0
LEADER
  5
243
330
1F
100
AcDbEntity
  8
0
  6
Continuous
 62
     7
370
     0
100
AcDbLeader
  3
SLDDIMSTYLE2
 76
     2
 10
114.5243450069
 20
126.2527937639
 30
0.0
 10
120.8185053381
 20
144.6026097272
 30
0.0
  0
INSERT
  5
24E
330
1F
100
AcDbEntity
  8
0
  6
Continuous
 62
     7
370
     0
100
AcDbBlockReference
  2
SW_NOTE_2
 10
58.4410876312
 20
85.0928724833
 30
0.0
  0
INSERT
  5
24F
330
1F
100
AcDbEntity
  8
0
  6
Continuous
 62
     7
370
     0
100
AcDbBlockReference
  2
_OPEN30
 10
94.2243450069
 20
98.55664197
 30
0.0
 41
3.0
 42
3.0
 50
37.3485372161
  0
LINE
  5
250
330
1F
100
AcDbEntity
  8
0
  6
Continuous
 62
     7
370
     0
100
AcDbLine
 10
94.2243450069
 20
98.55664197
 30
0.0
 11
76.6903914591
 21
85.1758600237
 31
0.0
  0
LINE
  5
251
330
1F
100
AcDbEntity
  8
0
  6
Continuous
 62
     7
370
     0
100
AcDbLine
 10
107.0243450069
 20
202.6306405694
 30
0.0
 11
106.2243450069
 21
202.6306405694
 31
0.0
  0
LINE
  5
252
330
1F
100
AcDbEntity
  8
0
  6
Continuous
 62
     7
370
     0
100
AcDbLine
 10
106.2243450069
 20
194.6306405694
 30
0.0
 11
107.0243450069
 21
194.6306405694
 31
0.0
  0
LINE
  5
253
330
1F
100
AcDbEntity
  8
0
  6
Continuous
 62
     7
370
     0
100
AcDbLine
 10
114.5243450069
 20
200.6306405694
 30
0.0
 11
112.0243450069
 21
200.9806405694
 31
0.0
  0
LINE
  5
254
330
1F
100
AcDbEntity
  8
0
  6
Continuous
 62
     7
370
     0
100
AcDbLine
 10
117.0243450069
 20
200.6306405694
 30
0.0
 11
114.5243450069
 21
200.9806405694
 31
0.0
  0
LINE
  5
255
330
1F
100
AcDbEntity
  8
0
  6
Continuous
 62
     7
370
     0
100
AcDbLine
 10
112.0243450069
 20
200.7306405694
 30
0.0
 11
109.5243450069
 21
200.7306405694
 31
0.0
  0
LINE
  5
256
330
1F
100
AcDbEntity
  8
0
  6
Continuous
 62
     7
370
     0
100
AcDbLine
 10
109.5243450069
 20
196.5306405694
 30
0.0
 11
112.0243450069
 21
196.5306405694
 31
0.0
  0
LINE
  5
257
330
1F
100
AcDbEntity
  8
0
  6
Continuous
 62
     7
370
     0
100
AcDbLine
 10
114.5243450069
 20
196.2806405694
 30
0.0
 11
117.0243450069
 21
196.6306405694
 31
0.0
  0
LINE
  5
258
330
1F
100
AcDbEntity
  8
0
  6
Continuous
 62
     7
370
     0
100
AcDbLine
 10
112.0243450069
 20
196.2806405694
 30
0.0
 11
114.5243450069
 21
196.6306405694
 31
0.0
  0
LINE
  5
259
330
1F
100
AcDbEntity
  8
0
  6
Continuous
 62
     7
370
     0
100
AcDbLine
 10
107.0243450069
 20
195.6656069558
 30
0.0
 11
106.2243450069
 21
195.6656069558
 31
0.0
  0
LINE
  5
25A
330
1F
100
AcDbEntity
  8
0
  6
Continuous
 62
     7
370
     0
100
AcDbLine
 10
106.2243450069
 20
202.1224447374
 30
0.0
 11
106.2243450069
 21
202.6306405694
 31
0.0
  0
LINE
  5
25B
330
1F
100
AcDbEntity
  8
0
  6
Continuous
 62
     7
370
     0
100
AcDbLine
 10
107.0243450069
 20
196.6306405694
 30
0.0
 11
107.0243450069
 21
195.6656069558
 31
0.0
  0
LINE
  5
25C
330
1F
100
AcDbEntity
  8
0
  6
Continuous
 62
     7
370
     0
100
AcDbLine
 10
94.2243450069
 20
194.6306405694
 30
0.0
 11
93.4243450069
 21
194.6306405694
 31
0.0
  0
LINE
  5
25D
330
1F
100
AcDbEntity
  8
0
  6
Continuous
 62
     7
370
     0
100
AcDbLine
 10
93.4243450069
 20
202.6306405694
 30
0.0
 11
94.2243450069
 21
202.6306405694
 31
0.0
  0
LINE
  5
25E
330
1F
100
AcDbEntity
  8
0
  6
Continuous
 62
     7
370
     0
100
AcDbLine
 10
94.2243450069
 20
202.6306405694
 30
0.0
 11
94.2243450069
 21
202.0947421844
 31
0.0
  0
LINE
  5
25F
330
1F
100
AcDbEntity
  8
0
  6
Continuous
 62
     7
370
     0
100
AcDbLine
 10
94.2243450069
 20
195.1441511947
 30
0.0
 11
94.2243450069
 21
194.6306405694
 31
0.0
  0
SPLINE
  5
260
330
1F
100
AcDbEntity
  8
0
  6
Continuous
 62
     7
370
     0
100
AcDbSpline
210
0.0
220
0.0
230
1.0
 70
    24
 71
     3
 72
    10
 73
     6
 74
     0
 42
0.00000001
 43
0.00000001
 12
1.0
 22
0.0
 32
0.0
 13
1.0
 23
0.0
 33
0.0
 40
0.0
 40
0.0
 40
0.0
 40
0.0
 40
0.3156117892382443
 40
0.7073088192467376
 40
1.0
 40
1.0
 40
1.0
 40
1.0
 10
106.224345006867
 20
195.1337253688394
 30
0.0
 10
106.224345006867
 20
195.0371775160443
 30
0.0
 10
106.224345006867
 20
194.8208068033845
 30
0.0
 10
106.224345006867
 20
194.6552537629292
 30
0.0
 10
106.224345006867
 20
194.648200173886
 30
0.0
 10
106.224345006867
 20
194.6451835770582
 30
0.0
  0
SPLINE
  5
261
330
1F
100
AcDbEntity
  8
0
  6
Continuous
 62
     7
370
     0
100
AcDbSpline
210
0.0
220
0.0
230
1.0
 70
    24
 71
     3
 72
    11
 73
     7
 74
     0
 42
0.00000001
 43
0.00000001
 12
1.0
 22
0.0
 32
0.0
 13
1.0
 23
0.0
 33
0.0
 40
0.0
 40
0.0
 40
0.0
 40
0.0
 40
0.0962083980336166
 40
0.4768378774581776
 40
0.8574673606085829
 40
1.0
 40
1.0
 40
1.0
 40
1.0
 10
106.224345006867
 20
202.6160975617316
 30
0.0
 10
106.224345006867
 20
202.6205161545728
 30
0.0
 10
106.224345006867
 20
202.6424160351945
 30
0.0
 10
106.224345006867
 20
202.521836290241
 30
0.0
 10
106.224345006867
 20
202.340053876678
 30
0.0
 10
106.224345006867
 20
202.1472661400233
 30
0.0
 10
106.224345006867
 20
202.0947421827953
 30
0.0
  0
SPLINE
  5
262
330
1F
100
AcDbEntity
  8
0
  6
Continuous
 62
     7
370
     0
100
AcDbSpline
210
0.0
220
0.0
230
1.0
 70
    24
 71
     3
 72
    13
 73
     9
 74
     0
 42
0.00000001
 43
0.00000001
 12
1.0
 22
0.0
 32
0.0
 13
1.0
 23
0.0
 33
0.0
 40
0.0
 40
0.0
 40
0.0
 40
0.0
 40
0.17322818887343
 40
0.3683216090432085
 40
0.563415030542685
 40
0.7585084501324625
 40
0.9536018697222401
 40
1.0
 40
1.0
 40
1.0
 40
1.0
 10
93.42434500686694
 20
202.6220265554263
 30
0.0
 10
93.42434500686696
 20
202.6083000431314
 30
0.0
 10
93.42434500686696
 20
202.5791144288969
 30
0.0
 10
93.42434500686696
 20
202.3473016488405
 30
0.0
 10
93.42434500686694
 20
201.9796349059808
 30
0.0
 10
93.42434500686694
 20
201.4732728276962
 30
0.0
 10
93.42434500686696
 20
201.0319790158274
 30
0.0
 10
93.42434500686694
 20
200.7438188058364
 30
0.0
 10
93.42434500686694
 20
200.6884541565501
 30
0.0
  0
SPLINE
  5
263
330
1F
100
AcDbEntity
  8
0
  6
Continuous
 62
     7
370
     0
100
AcDbSpline
210
0.0
220
0.0
230
1.0
 70
    24
 71
     3
 72
    18
 73
    14
 74
     0
 42
0.00000001
 43
0.00000001
 12
1.0
 22
0.0
 32
0.0
 13
1.0
 23
0.0
 33
0.0
 40
0.0
 40
0.0
 40
0.0
 40
0.0
 40
0.0674087792005161
 40
0.1617230288571727
 40
0.2560372785224408
 40
0.3503515281877091
 40
0.444665777844366
 40
0.5389800281438402
 40
0.6332942775201064
 40
0.7276085268963725
 40
0.8219227771958466
 40
0.9162370268525033
 40
1.0
 40
1.0
 40
1.0
 40
1.0
 10
93.42434500686694
 20
200.6556405693949
 30
0.0
 10
93.42434500686694
 20
200.4936401289664
 30
0.0
 10
93.42434500686696
 20
200.1049785597609
 30
0.0
 10
93.42434500686694
 20
199.4143407076091
 30
0.0
 10
93.42434500686694
 20
198.6310946329872
 30
0.0
 10
93.42434500686696
 20
197.8451241768117
 30
0.0
 10
93.42434500686694
 20
197.0900843471603
 30
0.0
 10
93.42434500686694
 20
196.3939794686798
 30
0.0
 10
93.42434500686696
 20
195.7841556079501
 30
0.0
 10
93.42434500686694
 20
195.2826787628348
 30
0.0
 10
93.42434500686696
 20
194.9137020730338
 30
0.0
 10
93.42434500686694
 20
194.68221440499
 30
0.0
 10
93.42434500686694
 20
194.6529869156421
 30
0.0
 10
93.42434500686694
 20
194.6392390518398
 30
0.0
  0
SPLINE
  5
264
330
1F
100
AcDbEntity
  8
0
  6
Continuous
 62
     7
370
     0
100
AcDbSpline
210
0.0
220
0.0
230
1.0
 70
    24
 71
     3
 72
    10
 73
     6
 74
     0
 42
0.00000001
 43
0.00000001
 12
1.0
 22
0.0
 32
0.0
 13
1.0
 23
0.0
 33
0.0
 40
0.0
 40
0.0
 40
0.0
 40
0.0
 40
0.3807986506200388
 40
0.7615973012053093
 40
1.0
 40
1.0
 40
1.0
 40
1.0
 10
94.22434500686695
 20
202.6306405674109
 30
0.0
 10
94.22434500686695
 20
202.6146887298979
 30
0.0
 10
94.22434500686695
 20
202.5827850548735
 30
0.0
 10
94.22434500686695
 20
202.3885654576975
 30
0.0
 10
94.22434500686695
 20
202.1764212068793
 30
0.0
 10
94.22434500686695
 20
202.0947421827953
 30
0.0
  0
LINE
  5
265
330
1F
100
AcDbEntity
  8
0
  6
Continuous
 62
     7
370
     0
100
AcDbLine
 10
94.2243450069
 20
198.6306405694
 30
0.0
 11
94.2243450069
 21
197.8502792815
 31
0.0
  0
SPLINE
  5
266
330
1F
100
AcDbEntity
  8
0
  6
Continuous
 62
     7
370
     0
100
AcDbSpline
210
0.0
220
0.0
230
1.0
 70
    24
 71
     3
 72
    10
 73
     6
 74
     0
 42
0.00000001
 43
0.00000001
 12
1.0
 22
0.0
 32
0.0
 13
1.0
 23
0.0
 33
0.0
 40
0.0
 40
0.0
 40
0.0
 40
0.0
 40
0.2384026987946738
 40
0.6192013493799533
 40
1.0
 40
1.0
 40
1.0
 40
1.0
 10
94.22434500686695
 20
195.1665389559945
 30
0.0
 10
94.22434500686695
 20
195.0848599319105
 30
0.0
 10
94.22434500686695
 20
194.8727156810923
 30
0.0
 10
94.22434500686695
 20
194.6784960839163
 30
0.0
 10
94.22434500686695
 20
194.6465924088919
 30
0.0
 10
94.22434500686695
 20
194.6306405713789
 30
0.0
  0
SPLINE
  5
267
330
1F
100
AcDbEntity
  8
0
  6
Continuous
 62
     7
370
     0
100
AcDbSpline
210
0.0
220
0.0
230
1.0
 70
    24
 71
     3
 72
    11
 73
     7
 74
     0
 42
0.00000001
 43
0.00000001
 12
1.0
 22
0.0
 32
0.0
 13
1.0
 23
0.0
 33
0.0
 40
0.0
 40
0.0
 40
0.0
 40
0.0
 40
0.2750389873734956
 40
0.5500779747218788
 40
0.825116963944845
 40
1.0
 40
1.0
 40
1.0
 40
1.0
 10
107.0243450068669
 20
195.6656069561587
 30
0.0
 10
107.0243450068669
 20
195.5005894137712
 30
0.0
 10
107.024345006867
 20
195.1705543290113
 30
0.0
 10
107.0243450068669
 20
194.844887639007
 30
0.0
 10
107.0243450068669
 20
194.6587046898971
 30
0.0
 10
107.0243450068669
 20
194.6520256182961
 30
0.0
 10
107.0243450068669
 20
194.6494294877356
 30
0.0
  0
SPLINE
  5
268
330
1F
100
AcDbEntity
  8
0
  6
Continuous
 62
     7
370
     0
100
AcDbSpline
210
0.0
220
0.0
230
1.0
 70
    24
 71
     3
 72
    20
 73
    16
 74
     0
 42
0.00000001
 43
0.00000001
 12
1.0
 22
0.0
 32
0.0
 13
1.0
 23
0.0
 33
0.0
 40
0.0
 40
0.0
 40
0.0
 40
0.0
 40
0.0206289245770282
 40
0.1022431805393726
 40
0.1838574373006095
 40
0.2654716935055883
 40
0.3470859497180189
 40
0.4287002059304495
 40
0.5103144621354283
 40
0.5919287188966652
 40
0.6735429748590096
 40
0.755157230821354
 40
0.8367714875825909
 40
0.9183857437875695
 40
0.9999999999999999
 40
0.9999999999999999
 40
0.9999999999999999
 40
0.9999999999999999
 10
107.0243450068669
 20
202.6160975617316
 30
0.0
 10
107.0243450068669
 20
202.6204666029947
 30
0.0
 10
107.0243450068669
 20
202.64212089103
 30
0.0
 10
107.0243450068669
 20
202.5276661209407
 30
0.0
 10
107.0243450068669
 20
202.2711721884556
 30
0.0
 10
107.0243450068669
 20
201.8625329649318
 30
0.0
 10
107.0243450068669
 20
201.3329748302599
 30
0.0
 10
107.0243450068669
 20
200.6986855906082
 30
0.0
 10
107.0243450068669
 20
199.9851693326904
 30
0.0
 10
107.0243450068669
 20
199.2194940211863
 30
0.0
 10
107.0243450068669
 20
198.4313636949603
 30
0.0
 10
107.0243450068669
 20
197.6502995790453
 30
0.0
 10
107.0243450068669
 20
196.909102679123
 30
0.0
 10
107.0243450068669
 20
196.2258823409005
 30
0.0
 10
107.0243450068669
 20
195.852365417745
 30
0.0
 10
107.0243450068669
 20
195.6656069561587
 30
0.0
  0
LINE
  5
269
330
1F
100
AcDbEntity
  8
0
  6
Continuous
 62
     7
370
     0
100
AcDbLine
 10
106.2243450069
 20
194.6306405694
 30
0.0
 11
106.2243450069
 21
195.1399893603
 31
0.0
  0
LINE
  5
26A
330
1F
100
AcDbEntity
  8
0
  6
Continuous
 62
     7
370
     0
100
AcDbLine
 10
107.0243450069
 20
195.6656069558
 30
0.0
 11
107.0243450069
 21
194.6306405694
 31
0.0
  0
LINE
  5
26B
330
1F
100
AcDbEntity
  8
0
  6
Continuous
 62
     7
370
     0
100
AcDbLine
 10
112.0243450069
 20
197.4556405702
 30
0.0
 11
112.0243450069
 21
200.9806405694
 31
0.0
  0
LINE
  5
26C
330
1F
100
AcDbEntity
  8
0
  6
Continuous
 62
     7
370
     0
100
AcDbLine
 10
114.5243450069
 20
197.6306405701
 30
0.0
 11
112.0243450069
 21
197.4556405702
 31
0.0
  0
SPLINE
  5
26D
330
1F
100
AcDbEntity
  8
0
  6
Continuous
 62
     7
370
     0
100
AcDbSpline
210
0.0
220
0.0
230
1.0
 70
    24
 71
     3
 72
    21
 73
    17
 74
     0
 42
0.00000001
 43
0.00000001
 12
1.0
 22
0.0
 32
0.0
 13
1.0
 23
0.0
 33
0.0
 40
0.0
 40
0.0
 40
0.0
 40
0.0
 40
0.0157467425513242
 40
0.0914585313093298
 40
0.1671703200673351
 40
0.2428821095664562
 40
0.3185938985495483
 40
0.3943056875395532
 40
0.4700174765295579
 40
0.5457292655126501
 40
0.6214410550117712
 40
0.6971528437697766
 40
0.7728646325277819
 40
0.8485764220269029
 40
0.924288211009995
 40
0.9999999999999999
 40
0.9999999999999999
 40
0.9999999999999999
 40
0.9999999999999999
 10
114.524345006867
 20
200.6876954366015
 30
0.0
 10
114.524345006867
 20
200.7049818341414
 30
0.0
 10
114.524345006867
 20
200.8053828234559
 30
0.0
 10
114.524345006867
 20
200.9110148567741
 30
0.0
 10
114.524345006867
 20
200.9918461960574
 30
0.0
 10
114.524345006867
 20
200.9752545856384
 30
0.0
 10
114.524345006867
 20
200.8703514323173
 30
0.0
 10
114.524345006867
 20
200.6788979344563
 30
0.0
 10
114.524345006867
 20
200.4088584335337
 30
0.0
 10
114.524345006867
 20
200.0704530400009
 30
0.0
 10
114.524345006867
 20
199.6767089778233
 30
0.0
 10
114.524345006867
 20
199.2428249932098
 30
0.0
 10
114.524345006867
 20
198.7851830026363
 30
0.0
 10
114.524345006867
 20
198.322470535035
 30
0.0
 10
114.524345006867
 20
197.8683589617203
 30
0.0
 10
114.524345006867
 20
197.5932133672295
 30
0.0
 10
114.524345006867
 20
197.4556405699778
 30
0.0
  0
SPLINE
  5
26E
330
1F
100
AcDbEntity
  8
0
  6
Continuous
 62
     7
370
     0
100
AcDbSpline
210
0.0
220
0.0
230
1.0
 70
    24
 71
     3
 72
    13
 73
     9
 74
     0
 42
0.00000001
 43
0.00000001
 12
1.0
 22
0.0
 32
0.0
 13
1.0
 23
0.0
 33
0.0
 40
0.0
 40
0.0
 40
0.0
 40
0.0
 40
0.1874786722449666
 40
0.3749573444728153
 40
0.5624360179784625
 40
0.7499146896489481
 40
0.9373933613194343
 40
1.0
 40
1.0
 40
1.0
 40
1.0
 10
114.524345006867
 20
197.4556405699778
 30
0.0
 10
114.524345006867
 20
197.3267904247861
 30
0.0
 10
114.524345006867
 20
197.0690901344142
 30
0.0
 10
114.524345006867
 20
196.7550663115247
 30
0.0
 10
114.524345006867
 20
196.5082059306044
 30
0.0
 10
114.524345006867
 20
196.3500477330834
 30
0.0
 10
114.524345006867
 20
196.2767967646659
 30
0.0
 10
114.524345006867
 20
196.2879207922354
 30
0.0
 10
114.524345006867
 20
196.2907055938447
 30
0.0
  0
LINE
  5
26F
330
1F
100
AcDbEntity
  8
0
  6
Continuous
 62
     7
370
     0
100
AcDbLine
 10
114.5243450069
 20
197.4556405702
 30
0.0
 11
114.5243450069
 21
200.9806405694
 31
0.0
  0
LINE
  5
270
330
1F
100
AcDbEntity
  8
0
  6
Continuous
 62
     7
370
     0
100
AcDbLine
 10
117.0243450069
 20
200.6306405694
 30
0.0
 11
117.0243450069
 21
197.6306405701
 31
0.0
  0
LINE
  5
271
330
1F
100
AcDbEntity
  8
0
  6
Continuous
 62
     7
370
     0
100
AcDbLine
 10
117.0243450069
 20
197.6306405701
 30
0.0
 11
114.5243450069
 21
197.4556405702
 31
0.0
  0
SPLINE
  5
272
330
1F
100
AcDbEntity
  8
0
  6
Continuous
 62
     7
370
     0
100
AcDbSpline
210
0.0
220
0.0
230
1.0
 70
    24
 71
     3
 72
    23
 73
    19
 74
     0
 42
0.00000001
 43
0.00000001
 12
1.0
 22
0.0
 32
0.0
 13
1.0
 23
0.0
 33
0.0
 40
0.0
 40
0.0
 40
0.0
 40
0.0
 40
0.0624999999442369
 40
0.1249999998827671
 40
0.1875000002472785
 40
0.2499999999999999
 40
0.3124999997527214
 40
0.3750000001172329
 40
0.4375000000557631
 40
0.4999999999999999
 40
0.5624999999442367
 40
0.6249999998827672
 40
0.6875000002472785
 40
0.75
 40
0.8124999997527215
 40
0.8750000001172329
 40
0.9375000000557632
 40
1.0
 40
1.0
 40
1.0
 40
1.0
 10
117.024345006867
 20
197.630640569891
 30
0.0
 10
117.024345006867
 20
197.5210007614002
 30
0.0
 10
117.024345006867
 20
197.3017211444285
 30
0.0
 10
117.024345006867
 20
197.0341684839043
 30
0.0
 10
117.024345006867
 20
196.8252082467505
 30
0.0
 10
117.024345006867
 20
196.6863690524426
 30
0.0
 10
117.024345006867
 20
196.6220490412554
 30
0.0
 10
117.024345006867
 20
196.6349711263728
 30
0.0
 10
117.024345006867
 20
196.7245715253204
 30
0.0
 10
117.024345006867
 20
196.8874246287189
 30
0.0
 10
117.024345006867
 20
197.1172685359124
 30
0.0
 10
117.024345006867
 20
197.4052669484924
 30
0.0
 10
117.024345006867
 20
197.7403699333036
 30
0.0
 10
117.024345006867
 20
198.1096324553993
 30
0.0
 10
117.024345006867
 20
198.4991151194015
 30
0.0
 10
117.024345006867
 20
198.8929129323681
 30
0.0
 10
117.024345006867
 20
199.2793908754725
 30
0.0
 10
117.024345006867
 20
199.5135573377531
 30
0.0
 10
117.024345006867
 20
199.6306405688988
 30
0.0
  0
SPLINE
  5
273
330
1F
100
AcDbEntity
  8
0
  6
Continuous
 62
     7
370
     0
100
AcDbSpline
210
0.0
220
0.0
230
1.0
 70
    24
 71
     3
 72
    22
 73
    18
 74
     0
 42
0.00000001
 43
0.00000001
 12
1.0
 22
0.0
 32
0.0
 13
1.0
 23
0.0
 33
0.0
 40
0.0
 40
0.0
 40
0.0
 40
0.0
 40
0.0131419953339171
 40
0.0836318532117314
 40
0.1541217103995458
 40
0.2246115675873603
 40
0.2951014254651744
 40
0.3655912828625512
 40
0.4360811402663638
 40
0.5065709976701765
 40
0.5770608550675531
 40
0.6475507129453674
 40
0.7180405701331819
 40
0.7885304273209964
 40
0.8590202851988106
 40
0.9295101425961872
 40
1.0
 40
1.0
 40
1.0
 40
1.0
 10
117.024345006867
 20
200.1673790327573
 30
0.0
 10
117.024345006867
 20
200.184292011598
 30
0.0
 10
117.024345006867
 20
200.291921312008
 30
0.0
 10
117.024345006867
 20
200.4327482572977
 30
0.0
 10
117.024345006867
 20
200.5758029195375
 30
0.0
 10
117.024345006867
 20
200.6389933994978
 30
0.0
 10
117.024345006867
 20
200.6263739713629
 30
0.0
 10
117.024345006867
 20
200.5366924757215
 30
0.0
 10
117.024345006867
 20
200.3738611021166
 30
0.0
 10
117.024345006867
 20
200.1440113724425
 30
0.0
 10
117.024345006867
 20
199.8560145199915
 30
0.0
 10
117.024345006867
 20
199.5209111171451
 30
0.0
 10
117.024345006867
 20
199.1516487070609
 30
0.0
 10
117.024345006867
 20
198.7621660130481
 30
0.0
 10
117.024345006867
 20
198.3683682081125
 30
0.0
 10
117.024345006867
 20
197.9818902628946
 30
0.0
 10
117.024345006867
 20
197.7477238008958
 30
0.0
 10
117.024345006867
 20
197.630640569891
 30
0.0
  0
SPLINE
  5
274
330
1F
100
AcDbEntity
  8
0
  6
Continuous
 62
     7
370
     0
100
AcDbSpline
210
0.0
220
0.0
230
1.0
 70
    24
 71
     3
 72
    14
 73
    10
 74
     0
 42
0.00000001
 43
0.00000001
 12
1.0
 22
0.0
 32
0.0
 13
1.0
 23
0.0
 33
0.0
 40
0.0
 40
0.0
 40
0.0
 40
0.0
 40
0.1000181145140375
 40
0.2500150950313104
 40
0.4000120763426916
 40
0.5500090576540733
 40
0.700006038171346
 40
0.8500030186886188
 40
1.0
 40
1.0
 40
1.0
 40
1.0
 10
117.024345006867
 20
197.1562276579476
 30
0.0
 10
117.024345006867
 20
197.1560561640644
 30
0.0
 10
117.024345006867
 20
197.155627481123
 30
0.0
 10
117.024345006867
 20
197.4152574347014
 30
0.0
 10
117.024345006867
 20
197.8594451729039
 30
0.0
 10
117.024345006867
 20
198.4308052859886
 30
0.0
 10
117.024345006867
 20
199.0264413681566
 30
0.0
 10
117.024345006867
 20
199.5766440598292
 30
0.0
 10
117.024345006867
 20
199.8120004705222
 30
0.0
 10
117.024345006867
 20
199.9296786761801
 30
0.0
  0
SPLINE
  5
275
330
1F
100
AcDbEntity
  8
0
  6
Continuous
 62
     7
370
     0
100
AcDbSpline
210
0.0
220
0.0
230
1.0
 70
    24
 71
     3
 72
    14
 73
    10
 74
     0
 42
0.00000001
 43
0.00000001
 12
1.0
 22
0.0
 32
0.0
 13
1.0
 23
0.0
 33
0.0
 40
0.0
 40
0.0
 40
0.0
 40
0.0
 40
0.1000181145140187
 40
0.2500150950312942
 40
0.4000120763426789
 40
0.5500090576540633
 40
0.7000060381713393
 40
0.8500030186886152
 40
0.9999999999999999
 40
0.9999999999999999
 40
0.9999999999999999
 40
0.9999999999999999
 10
117.024345006867
 20
200.1050534808422
 30
0.0
 10
117.024345006867
 20
200.1052249747255
 30
0.0
 10
117.024345006867
 20
200.1056536576668
 30
0.0
 10
117.024345006867
 20
199.8460237040884
 30
0.0
 10
117.024345006867
 20
199.401835965886
 30
0.0
 10
117.024345006867
 20
198.8304758528012
 30
0.0
 10
117.024345006867
 20
198.2348397706332
 30
0.0
 10
117.024345006867
 20
197.6846370789606
 30
0.0
 10
117.024345006867
 20
197.4492806682677
 30
0.0
 10
117.024345006867
 20
197.3316024626097
 30
0.0
  0
SPLINE
  5
276
330
1F
100
AcDbEntity
  8
0
  6
Continuous
 62
     7
370
     0
100
AcDbSpline
210
0.0
220
0.0
230
1.0
 70
    24
 71
     3
 72
    13
 73
     9
 74
     0
 42
0.00000001
 43
0.00000001
 12
1.0
 22
0.0
 32
0.0
 13
1.0
 23
0.0
 33
0.0
 40
0.0
 40
0.0
 40
0.0
 40
0.0
 40
0.1874786722449666
 40
0.3749573444728153
 40
0.5624360179784625
 40
0.7499146896489481
 40
0.9373933613194343
 40
1.0
 40
1.0
 40
1.0
 40
1.0
 10
112.024345006867
 20
197.4556405699778
 30
0.0
 10
112.024345006867
 20
197.3267904247861
 30
0.0
 10
112.024345006867
 20
197.0690901344142
 30
0.0
 10
112.024345006867
 20
196.7550663115247
 30
0.0
 10
112.024345006867
 20
196.5082059306044
 30
0.0
 10
112.024345006867
 20
196.3500477330834
 30
0.0
 10
112.024345006867
 20
196.2767967646659
 30
0.0
 10
112.024345006867
 20
196.2879207922354
 30
0.0
 10
112.024345006867
 20
196.2907055938447
 30
0.0
  0
SPLINE
  5
277
330
1F
100
AcDbEntity
  8
0
  6
Continuous
 62
     7
370
     0
100
AcDbSpline
210
0.0
220
0.0
230
1.0
 70
    24
 71
     3
 72
    18
 73
    14
 74
     0
 42
0.00000001
 43
0.00000001
 12
1.0
 22
0.0
 32
0.0
 13
1.0
 23
0.0
 33
0.0
 40
0.0
 40
0.0
 40
0.0
 40
0.0
 40
0.0624466721075534
 40
0.1562020048221741
 40
0.2499573375453551
 40
0.3437126702685359
 40
0.4374680029831567
 40
0.5312233363367858
 40
0.6249786687726775
 40
0.7187340012085692
 40
0.8124893345621982
 40
0.906244667276819
 40
1.0
 40
1.0
 40
1.0
 40
1.0
 10
112.024345006867
 20
200.9705755449451
 30
0.0
 10
112.024345006867
 20
200.9706636212295
 30
0.0
 10
112.024345006867
 20
200.9708839322844
 30
0.0
 10
112.024345006867
 20
200.8680719437624
 30
0.0
 10
112.024345006867
 20
200.6795087215734
 30
0.0
 10
112.024345006867
 20
200.4086947736205
 30
0.0
 10
112.024345006867
 20
200.0704968925372
 30
0.0
 10
112.024345006867
 20
199.6766972275925
 30
0.0
 10
112.024345006867
 20
199.2428281415969
 30
0.0
 10
112.024345006867
 20
198.7851821593183
 30
0.0
 10
112.024345006867
 20
198.3224707599198
 30
0.0
 10
112.024345006867
 20
197.8683589054992
 30
0.0
 10
112.024345006867
 20
197.5932133484891
 30
0.0
 10
112.024345006867
 20
197.4556405699778
 30
0.0
  0
LINE
  5
278
330
1F
100
AcDbEntity
  8
0
  6
Continuous
 62
     7
370
     0
100
AcDbLine
 10
112.0243450069
 20
197.5806405697
 30
0.0
 11
109.5243450069
 21
197.5806405697
 31
0.0
  0
LINE
  5
279
330
1F
100
AcDbEntity
  8
0
  6
Continuous
 62
     7
370
     0
100
AcDbLine
 10
109.5243450069
 20
196.6056405704
 30
0.0
 11
109.5243450069
 21
194.5806405702
 31
0.0
  0
LINE
  5
27A
330
1F
100
AcDbEntity
  8
0
  6
Continuous
 62
     7
370
     0
100
AcDbLine
 10
109.5243450069
 20
200.6556405696
 30
0.0
 11
109.5243450069
 21
196.6056405704
 31
0.0
  0
LINE
  5
27B
330
1F
100
AcDbEntity
  8
0
  6
Continuous
 62
     7
370
     0
100
AcDbLine
 10
109.5243450069
 20
202.6806405686
 30
0.0
 11
109.5243450069
 21
200.6556405696
 31
0.0
  0
LINE
  5
27C
330
1F
100
AcDbEntity
  8
0
  6
Continuous
 62
     7
370
     0
100
AcDbLine
 10
107.0243450069
 20
200.6556405691
 30
0.0
 11
109.5243450069
 21
200.6556405691
 31
0.0
  0
LINE
  5
27D
330
1F
100
AcDbEntity
  8
0
  6
Continuous
 62
     7
370
     0
100
AcDbLine
 10
109.5243450069
 20
200.6556405691
 30
0.0
 11
109.5243450069
 21
196.6056405694
 31
0.0
  0
LINE
  5
27E
330
1F
100
AcDbEntity
  8
0
  6
Continuous
 62
     7
370
     0
100
AcDbLine
 10
109.5243450069
 20
196.6056405694
 30
0.0
 11
107.0243450069
 21
196.6056405694
 31
0.0
  0
LINE
  5
27F
330
1F
100
AcDbEntity
  8
0
  6
Continuous
 62
     7
370
     0
100
AcDbLine
 10
107.0243450069
 20
196.6056405694
 30
0.0
 11
107.0243450069
 21
200.6556405691
 31
0.0
  0
LINE
  5
280
330
1F
100
AcDbEntity
  8
0
  6
Continuous
 62
     7
370
     0
100
AcDbLine
 10
109.5243450069
 20
196.6056405694
 30
0.0
 11
109.5243450069
 21
194.5806405697
 31
0.0
  0
LINE
  5
281
330
1F
100
AcDbEntity
  8
0
  6
Continuous
 62
     7
370
     0
100
AcDbLine
 10
109.5243450069
 20
194.5806405697
 30
0.0
 11
107.0243450069
 21
194.5806405697
 31
0.0
  0
LINE
  5
282
330
1F
100
AcDbEntity
  8
0
  6
Continuous
 62
     7
370
     0
100
AcDbLine
 10
107.0243450069
 20
194.5806405697
 30
0.0
 11
107.0243450069
 21
194.6123699899
 31
0.0
  0
LINE
  5
283
330
1F
100
AcDbEntity
  8
0
  6
Continuous
 62
     7
370
     0
100
AcDbLine
 10
109.5243450069
 20
202.6806405691
 30
0.0
 11
107.0243450069
 21
202.6806405691
 31
0.0
  0
LINE
  5
284
330
1F
100
AcDbEntity
  8
0
  6
Continuous
 62
     7
370
     0
100
AcDbLine
 10
107.0243450069
 20
200.6556405691
 30
0.0
 11
107.0243450069
 21
202.6806405691
 31
0.0
  0
LINE
  5
285
330
1F
100
AcDbEntity
  8
0
  6
Continuous
 62
     7
370
     0
100
AcDbLine
 10
107.0243450069
 20
196.6056405704
 30
0.0
 11
107.0243450069
 21
195.6656069558
 31
0.0
  0
LINE
  5
286
330
1F
100
AcDbEntity
  8
0
  6
Continuous
 62
     7
370
     0
100
AcDbLine
 10
107.0243450069
 20
194.6306405694
 30
0.0
 11
107.0243450069
 21
194.5806405702
 31
0.0
  0
LINE
  5
287
330
1F
100
AcDbEntity
  8
0
  6
Continuous
 62
     7
370
     0
100
AcDbLine
 10
107.0243450069
 20
200.6556405696
 30
0.0
 11
107.0243450069
 21
196.6056405704
 31
0.0
  0
LINE
  5
288
330
1F
100
AcDbEntity
  8
0
  6
Continuous
 62
     7
370
     0
100
AcDbLine
 10
107.0243450069
 20
202.6806405686
 30
0.0
 11
107.0243450069
 21
202.6296660501
 31
0.0
  0
LINE
  5
289
330
1F
100
AcDbEntity
  8
0
  6
Continuous
 62
     7
370
     0
100
AcDbLine
 10
107.0243450069
 20
200.7066150881
 30
0.0
 11
107.0243450069
 21
200.6556405696
 31
0.0
  0
LINE
  5
28A
330
1F
100
AcDbEntity
  8
0
  6
Continuous
 62
     7
370
     0
100
AcDbLine
 10
117.0243450069
 20
197.6306405701
 30
0.0
 11
117.0243450069
 21
196.6306405694
 31
0.0
  0
LINE
  5
28B
330
1F
100
AcDbEntity
  8
0
  6
Continuous
 62
     7
370
     0
100
AcDbLine
 10
114.5243450069
 20
196.2806405694
 30
0.0
 11
114.5243450069
 21
197.4556405702
 31
0.0
  0
LINE
  5
28C
330
1F
100
AcDbEntity
  8
0
  6
Continuous
 62
     7
370
     0
100
AcDbLine
 10
112.0243450069
 20
196.2806405694
 30
0.0
 11
112.0243450069
 21
197.4556405702
 31
0.0
  0
LINE
  5
28D
330
1F
100
AcDbEntity
  8
0
  6
Continuous
 62
     7
370
     0
100
AcDbLine
 10
93.4243450069
 20
202.6806405674
 30
0.0
 11
93.4243450069
 21
202.6306405694
 31
0.0
  0
LINE
  5
28E
330
1F
100
AcDbEntity
  8
0
  6
Continuous
 62
     7
370
     0
100
AcDbLine
 10
93.4243450069
 20
200.7066150868
 30
0.0
 11
93.4243450069
 21
200.6556405684
 31
0.0
  0
LINE
  5
28F
330
1F
100
AcDbEntity
  8
0
  6
Continuous
 62
     7
370
     0
100
AcDbLine
 10
93.4243450069
 20
200.6556405684
 30
0.0
 11
93.4243450069
 21
196.6056405704
 31
0.0
  0
LINE
  5
290
330
1F
100
AcDbEntity
  8
0
  6
Continuous
 62
     7
370
     0
100
AcDbLine
 10
93.4243450069
 20
196.6056405704
 30
0.0
 11
93.4243450069
 21
196.5546660519
 31
0.0
  0
LINE
  5
291
330
1F
100
AcDbEntity
  8
0
  6
Continuous
 62
     7
370
     0
100
AcDbLine
 10
93.4243450069
 20
194.6306405694
 30
0.0
 11
93.4243450069
 21
194.5806405714
 31
0.0
  0
LINE
  5
292
330
1F
100
AcDbEntity
  8
0
  6
Continuous
 62
     7
370
     0
100
AcDbLine
 10
93.4243450069
 20
202.6806405694
 30
0.0
 11
90.9243450069
 21
202.6806405694
 31
0.0
  0
LINE
  5
293
330
1F
100
AcDbEntity
  8
0
  6
Continuous
 62
     7
370
     0
100
AcDbLine
 10
93.4243450069
 20
202.6806405694
 30
0.0
 11
93.4243450069
 21
200.6556405694
 31
0.0
  0
LINE
  5
294
330
1F
100
AcDbEntity
  8
0
  6
Continuous
 62
     7
370
     0
100
AcDbLine
 10
90.9243450069
 20
200.6556405694
 30
0.0
 11
90.9243450069
 21
202.6806405694
 31
0.0
  0
LINE
  5
295
330
1F
100
AcDbEntity
  8
0
  6
Continuous
 62
     7
370
     0
100
AcDbLine
 10
93.4243450069
 20
200.6556405694
 30
0.0
 11
90.9243450069
 21
200.6556405694
 31
0.0
  0
LINE
  5
296
330
1F
100
AcDbEntity
  8
0
  6
Continuous
 62
     7
370
     0
100
AcDbLine
 10
90.9243450069
 20
196.6056405694
 30
0.0
 11
90.9243450069
 21
200.6556405694
 31
0.0
  0
LINE
  5
297
330
1F
100
AcDbEntity
  8
0
  6
Continuous
 62
     7
370
     0
100
AcDbLine
 10
93.4243450069
 20
196.6056405694
 30
0.0
 11
90.9243450069
 21
196.6056405694
 31
0.0
  0
LINE
  5
298
330
1F
100
AcDbEntity
  8
0
  6
Continuous
 62
     7
370
     0
100
AcDbLine
 10
93.4243450069
 20
196.6056405694
 30
0.0
 11
93.4243450069
 21
194.5806405694
 31
0.0
  0
LINE
  5
299
330
1F
100
AcDbEntity
  8
0
  6
Continuous
 62
     7
370
     0
100
AcDbLine
 10
90.9243450069
 20
194.5806405694
 30
0.0
 11
90.9243450069
 21
196.6056405694
 31
0.0
  0
LINE
  5
29A
330
1F
100
AcDbEntity
  8
0
  6
Continuous
 62
     7
370
     0
100
AcDbLine
 10
93.4243450069
 20
194.5806405694
 30
0.0
 11
90.9243450069
 21
194.5806405694
 31
0.0
  0
LINE
  5
29B
330
1F
100
AcDbEntity
  8
0
  6
Continuous
 62
     7
370
     0
100
AcDbLine
 10
90.9243450069
 20
196.6056405694
 30
0.0
 11
90.9243450069
 21
194.5806405694
 31
0.0
  0
LINE
  5
29C
330
1F
100
AcDbEntity
  8
0
  6
Continuous
 62
     7
370
     0
100
AcDbLine
 10
90.9243450069
 20
202.6806405694
 30
0.0
 11
90.9243450069
 21
200.6556405694
 31
0.0
  0
LINE
  5
29D
330
1F
100
AcDbEntity
  8
0
  6
Continuous
 62
     7
370
     0
100
AcDbLine
 10
103.284044764
 20
203.776421235
 30
0.0
 11
103.1405339297
 21
203.8498932232
 31
0.0
  0
LINE
  5
29E
330
1F
100
AcDbEntity
  8
0
  6
Continuous
 62
     7
370
     0
100
AcDbLine
 10
97.2418416243
 20
203.8297273447
 30
0.0
 11
97.2096636147
 21
203.8145361382
 31
0.0
  0
LINE
  5
29F
330
1F
100
AcDbEntity
  8
0
  6
Continuous
 62
     7
370
     0
100
AcDbLine
 10
103.1774181933
 20
193.4171669925
 30
0.0
 11
103.3234749159
 21
193.5151083473
 31
0.0
  0
LINE
  5
2A0
330
1F
100
AcDbEntity
  8
0
  6
Continuous
 62
     7
370
     0
100
AcDbLine
 10
95.3168677189
 20
207.1306405692
 30
0.0
 11
92.747659021
 21
202.6806405694
 31
0.0
  0
LINE
  5
2A1
330
1F
100
AcDbEntity
  8
0
  6
Continuous
 62
     7
370
     0
100
AcDbLine
 10
90.9243450069
 20
199.5225680588
 30
0.0
 11
90.4093904307
 21
198.6306405693
 31
0.0
  0
LINE
  5
2A2
330
1F
100
AcDbEntity
  8
0
  6
Continuous
 62
     7
370
     0
100
AcDbLine
 10
105.131822295
 20
207.1306405693
 30
0.0
 11
95.3168677189
 21
207.1306405692
 31
0.0
  0
LINE
  5
2A3
330
1F
100
AcDbEntity
  8
0
  6
Continuous
 62
     7
370
     0
100
AcDbLine
 10
107.701030993
 20
202.6806405691
 30
0.0
 11
105.131822295
 21
207.1306405693
 31
0.0
  0
LINE
  5
2A4
330
1F
100
AcDbEntity
  8
0
  6
Continuous
 62
     7
370
     0
100
AcDbLine
 10
105.1318222949
 20
190.1306405696
 30
0.0
 11
107.7010309929
 21
194.5806405697
 31
0.0
  0
LINE
  5
2A5
330
1F
100
AcDbEntity
  8
0
  6
Continuous
 62
     7
370
     0
100
AcDbLine
 10
95.3168677187
 20
190.1306405695
 30
0.0
 11
105.1318222949
 21
190.1306405696
 31
0.0
  0
LINE
  5
2A6
330
1F
100
AcDbEntity
  8
0
  6
Continuous
 62
     7
370
     0
100
AcDbLine
 10
90.4093904307
 20
198.6306405693
 30
0.0
 11
90.9243450069
 21
197.7387130798
 31
0.0
  0
LINE
  5
2A7
330
1F
100
AcDbEntity
  8
0
  6
Continuous
 62
     7
370
     0
100
AcDbLine
 10
92.7476590209
 20
194.5806405694
 30
0.0
 11
95.3168677187
 21
190.1306405695
 31
0.0
  0
LINE
  5
2A8
330
1F
100
AcDbEntity
  8
0
  6
Continuous
 62
     7
370
     0
100
AcDbLine
 10
105.1318222925
 20
190.1306405737
 30
0.0
 11
107.7010309893
 21
194.5806405697
 31
0.0
  0
LINE
  5
2A9
330
1F
100
AcDbEntity
  8
0
  6
Continuous
 62
     7
370
     0
100
AcDbLine
 10
95.3168677175
 20
190.1306405716
 30
0.0
 11
105.1318222925
 21
190.1306405737
 31
0.0
  0
LINE
  5
2AA
330
1F
100
AcDbEntity
  8
0
  6
Continuous
 62
     7
370
     0
100
AcDbLine
 10
95.3168677213
 20
207.1306405651
 30
0.0
 11
92.7476590246
 21
202.6806405694
 31
0.0
  0
LINE
  5
2AB
330
1F
100
AcDbEntity
  8
0
  6
Continuous
 62
     7
370
     0
100
AcDbLine
 10
90.9243450069
 20
199.5225680542
 30
0.0
 11
90.4093904319
 21
198.6306405672
 31
0.0
  0
LINE
  5
2AC
330
1F
100
AcDbEntity
  8
0
  6
Continuous
 62
     7
370
     0
100
AcDbLine
 10
105.1318222962
 20
207.1306405672
 30
0.0
 11
95.3168677213
 21
207.1306405651
 31
0.0
  0
ARC
  5
2AD
330
1F
100
AcDbEntity
  8
0
  6
Continuous
 62
     7
370
     0
100
AcDbCircle
 10
100.2243450069
 20
198.6306405694
 30
0.0
 40
2.100000000000023
100
AcDbArc
 50
90.0
 51
270.0000000235
  0
LINE
  5
2AE
330
1F
100
AcDbEntity
  8
0
  6
Continuous
 62
     7
370
     0
100
AcDbLine
 10
102.3243450069
 20
198.6306405694
 30
0.0
 11
98.1243450041
 21
198.6306405694
 31
0.0
  0
LINE
  5
2AF
330
1F
100
AcDbEntity
  8
0
  6
Continuous
 62
     7
370
     0
100
AcDbLine
 10
106.2243450069
 20
202.0947421844
 30
0.0
 11
100.2243450069
 21
205.5588437994
 31
0.0
  0
LINE
  5
2B0
330
1F
100
AcDbEntity
  8
0
  6
Continuous
 62
     7
370
     0
100
AcDbLine
 10
100.2243450069
 20
205.5588437994
 30
0.0
 11
94.2243450069
 21
202.0947421844
 31
0.0
  0
LINE
  5
2B1
330
1F
100
AcDbEntity
  8
0
  6
Continuous
 62
     7
370
     0
100
AcDbLine
 10
94.2243450069
 20
202.0947421844
 30
0.0
 11
94.2243450069
 21
195.1665389544
 31
0.0
  0
LINE
  5
2B2
330
1F
100
AcDbEntity
  8
0
  6
Continuous
 62
     7
370
     0
100
AcDbLine
 10
94.2243450069
 20
195.1665389544
 30
0.0
 11
100.2243450069
 21
191.7024373394
 31
0.0
  0
LINE
  5
2B3
330
1F
100
AcDbEntity
  8
0
  6
Continuous
 62
     7
370
     0
100
AcDbLine
 10
100.2243450069
 20
191.7024373394
 30
0.0
 11
106.2243450069
 21
195.1665389544
 31
0.0
  0
LINE
  5
2B4
330
1F
100
AcDbEntity
  8
0
  6
Continuous
 62
     7
370
     0
100
AcDbLine
 10
106.2243450069
 20
195.1665389544
 30
0.0
 11
106.2243450069
 21
202.0947421844
 31
0.0
  0
LINE
  5
2B5
330
1F
100
AcDbEntity
  8
0
  6
Continuous
 62
     7
370
     0
100
AcDbLine
 10
94.2243450069
 20
202.0947421828
 30
0.0
 11
100.2243450069
 21
205.5588437962
 31
0.0
  0
LINE
  5
2B6
330
1F
100
AcDbEntity
  8
0
  6
Continuous
 62
     7
370
     0
100
AcDbLine
 10
100.2243450069
 20
191.7024373426
 30
0.0
 11
94.2243450069
 21
195.166538956
 31
0.0
  0
LINE
  5
2B7
330
1F
100
AcDbEntity
  8
0
  6
Continuous
 62
     7
370
     0
100
AcDbLine
 10
106.2243450069
 20
195.166538956
 30
0.0
 11
100.2243450069
 21
191.7024373426
 31
0.0
  0
LINE
  5
2B8
330
1F
100
AcDbEntity
  8
0
  6
Continuous
 62
     7
370
     0
100
AcDbLine
 10
100.2243450069
 20
205.5588437962
 30
0.0
 11
106.2243450069
 21
202.0947421828
 31
0.0
  0
SPLINE
  5
2B9
330
1F
100
AcDbEntity
  8
0
  6
Continuous
 62
     7
370
     0
100
AcDbSpline
210
0.0
220
0.0
230
1.0
 70
     8
 71
     3
 72
    32
 73
    28
 74
     0
 42
0.00000001
 43
0.00000001
 12
1.0
 22
0.0
 32
0.0
 13
1.0
 23
0.0
 33
0.0
 40
0.0
 40
0.0
 40
0.0
 40
0.0
 40
0.0104551142758707
 40
0.0208808428244667
 40
0.0312882976539838
 40
0.0468968228739875
 40
0.0625749171376261
 40
0.0938362609830207
 40
0.1251292879641926
 40
0.1876079455135399
 40
0.2500866024513062
 40
0.3125652593890724
 40
0.3750439169384197
 40
0.4375225740619313
 40
0.5000012311911476
 40
0.5624798883203638
 40
0.6249585454438753
 40
0.6874372029932226
 40
0.7499158599309889
 40
0.8123945168687551
 40
0.8748731744181024
 40
0.906134518529399
 40
0.9374275452437698
 40
0.9499461201128341
 40
0.9624674303102346
 40
0.9811881246206019
 40
1.0
 40
1.0
 40
1.0
 40
1.0
 10
100.2243450068669
 20
193.1306405721229
 30
0.0
 10
100.1642015037102
 20
193.1312132226382
 30
0.0
 10
100.044083540081
 20
193.1323569141454
 30
0.0
 10
99.86428642028523
 20
193.1414909002518
 30
0.0
 10
99.65532745790077
 20
193.1584890353637
 30
0.0
 10
99.41718988527147
 20
193.1879294998714
 30
0.0
 10
99.06259196465558
 20
193.2494894729747
 30
0.0
 10
98.62522228249584
 20
193.3588924155451
 30
0.0
 10
97.94720159520179
 20
193.6016094970056
 30
0.0
 10
97.14887222706038
 20
194.0280946734737
 30
0.0
 10
96.31022521628412
 20
194.7164791862927
 30
0.0
 10
95.62177316355886
 20
195.5553082122799
 30
0.0
 10
95.11025498009248
 20
196.5123136994675
 30
0.0
 10
94.7952523639265
 20
197.5507271306428
 30
0.0
 10
94.68889133333803
 20
198.6306405669891
 30
0.0
 10
94.79525236028462
 20
199.7105540177702
 30
0.0
 10
95.11025499465998
 20
200.7489674056411
 30
0.0
 10
95.62177310893075
 20
201.7059730516114
 30
0.0
 10
96.3102254202291
 20
202.5448014857724
 30
0.0
 10
97.14887146590861
 20
203.2331882071136
 30
0.0
 10
97.94704195879929
 20
203.6595800356944
 30
0.0
 10
98.62504327843295
 20
203.9023444376447
 30
0.0
 10
99.0447572680996
 20
204.0073151373152
 30
0.0
 10
99.36380281759877
 20
204.0643904589392
 30
0.0
 10
99.61321080009705
 20
204.0987579033425
 30
0.0
 10
99.90018907051201
 20
204.1251633844887
 30
0.0
 10
100.1161181697632
 20
204.1288118847367
 30
0.0
 10
100.2243450068669
 20
204.1306405666669
 30
0.0
  0
SPLINE
  5
2BA
330
1F
100
AcDbEntity
  8
0
  6
Continuous
 62
     7
370
     0
100
AcDbSpline
210
0.0
220
0.0
230
1.0
 70
     8
 71
     3
 72
    32
 73
    28
 74
     0
 42
0.00000001
 43
0.00000001
 12
1.0
 22
0.0
 32
0.0
 13
1.0
 23
0.0
 33
0.0
 40
0.0
 40
0.0
 40
0.0
 40
0.0
 40
0.0104551142757641
 40
0.0208808428243602
 40
0.0312882976539833
 40
0.0468968228737568
 40
0.0625749171376254
 40
0.0938362609830745
 40
0.1251292879641943
 40
0.1876079455135414
 40
0.2500866024513075
 40
0.3125652593890735
 40
0.3750439169384207
 40
0.437522574061932
 40
0.5000012311911479
 40
0.5624798883203639
 40
0.6249585454438753
 40
0.6874372029932223
 40
0.7499158599309884
 40
0.8123945168687544
 40
0.8748731744181015
 40
0.9061345185294047
 40
0.93742754524377
 40
0.9499461201129837
 40
0.9624674303102347
 40
0.9811881246206646
 40
1.0
 40
1.0
 40
1.0
 40
1.0
 10
100.2243450068669
 20
204.1306405666669
 30
0.0
 10
100.2844885100231
 20
204.1300679161516
 30
0.0
 10
100.4046064736517
 20
204.1289242246444
 30
0.0
 10
100.5844035934475
 20
204.1197902385379
 30
0.0
 10
100.7933625558312
 20
204.1027921034264
 30
0.0
 10
101.0315001284611
 20
204.0733516389186
 30
0.0
 10
101.3860980490773
 20
204.0117916658153
 30
0.0
 10
101.8234677312386
 20
203.9023887232454
 30
0.0
 10
102.5014884185322
 20
203.6596716417836
 30
0.0
 10
103.2998177866736
 20
203.2331864653162
 30
0.0
 10
104.1384647974498
 20
202.5448019524971
 30
0.0
 10
104.8269168501751
 20
201.7059729265099
 30
0.0
 10
105.3384350336414
 20
200.7489674393223
 30
0.0
 10
105.6534376498074
 20
199.710554008147
 30
0.0
 10
105.7597986803959
 20
198.6306405718007
 30
0.0
 10
105.6534376534493
 20
197.5507271210197
 30
0.0
 10
105.3384350190739
 20
196.5123137331487
 30
0.0
 10
104.8269169048032
 20
195.5553080871784
 30
0.0
 10
104.1384645935048
 20
194.7164796530174
 30
0.0
 10
103.2998185478253
 20
194.0280929316762
 30
0.0
 10
102.5016480549345
 20
193.6017011030956
 30
0.0
 10
101.823646735301
 20
193.3589367011446
 30
0.0
 10
101.4039327456334
 20
193.2539660014744
 30
0.0
 10
101.0848871961343
 20
193.1968906798506
 30
0.0
 10
100.8354792136356
 20
193.1625232354472
 30
0.0
 10
100.5485009432215
 20
193.1361177543013
 30
0.0
 10
100.3325718439703
 20
193.1324692540532
 30
0.0
 10
100.2243450068669
 20
193.1306405721229
 30
0.0
  0
SPLINE
  5
2BB
330
1F
100
AcDbEntity
  8
0
  6
Continuous
 62
     7
370
     0
100
AcDbSpline
210
0.0
220
0.0
230
1.0
 70
     8
 71
     3
 72
    27
 73
    23
 74
     0
 42
0.00000001
 43
0.00000001
 12
1.0
 22
0.0
 32
0.0
 13
1.0
 23
0.0
 33
0.0
 40
0.0
 40
0.0
 40
0.0
 40
0.0
 40
0.0156855772767859
 40
0.0312917127985095
 40
0.0625741394334714
 40
0.1250632679671732
 40
0.1875523954785948
 40
0.250041523225273
 40
0.3125306509719508
 40
0.3750197784833726
 40
0.4375089070170746
 40
0.4999980341110713
 40
0.562487161205068
 40
0.6249762897387698
 40
0.6874654172501914
 40
0.7499545449968695
 40
0.8124436727435476
 40
0.8749328002549692
 40
0.9374219287886709
 40
0.9624611863316551
 40
0.9811463731701089
 40
0.9999999999999999
 40
0.9999999999999999
 40
0.9999999999999999
 40
0.9999999999999999
 10
100.2243450068669
 20
196.5306405665909
 30
0.0
 10
100.2587932957988
 20
196.5311377344491
 30
0.0
 10
100.3275154055839
 20
196.5321295521908
 30
0.0
 10
100.4646103495952
 20
196.5425274637977
 30
0.0
 10
100.7025330395566
 20
196.5776697693034
 30
0.0
 10
101.0332092865192
 20
196.6780093694704
 30
0.0
 10
101.3985502044623
 20
196.8732927831153
 30
0.0
 10
101.7188448571405
 20
197.1361458219689
 30
0.0
 10
101.9816858562175
 20
197.4564218973385
 30
0.0
 10
102.17699885166
 20
197.8218250847394
 30
0.0
 10
102.2972709085987
 20
198.218309929503
 30
0.0
 10
102.3378820640463
 20
198.6306405662879
 30
0.0
 10
102.2972708926181
 20
199.0429712217149
 30
0.0
 10
102.1769989155824
 20
199.4394560105521
 30
0.0
 10
101.9816856165085
 20
199.8048594030162
 30
0.0
 10
101.7188457520541
 20
200.1251347140597
 30
0.0
 10
101.398546864517
 20
200.3879906051546
 30
0.0
 10
101.0332217513868
 20
200.58326337416
 30
0.0
 10
100.7157099933539
 20
200.6796258413292
 30
0.0
 10
100.4851649713127
 20
200.7159682596027
 30
0.0
 10
100.3481981476434
 20
200.7285289699381
 30
0.0
 10
100.2657527004741
 20
200.7299346023794
 30
0.0
 10
100.2243450068669
 20
200.7306405721989
 30
0.0
  0
SPLINE
  5
2BC
330
1F
100
AcDbEntity
  8
0
  6
Continuous
 62
     7
370
     0
100
AcDbSpline
210
0.0
220
0.0
230
1.0
 70
     8
 71
     3
 72
    27
 73
    23
 74
     0
 42
0.00000001
 43
0.00000001
 12
1.0
 22
0.0
 32
0.0
 13
1.0
 23
0.0
 33
0.0
 40
0.0
 40
0.0
 40
0.0
 40
0.0
 40
0.0156855772768742
 40
0.0312917127985097
 40
0.0625741394334714
 40
0.1250632679671733
 40
0.1875523954785951
 40
0.250041523225273
 40
0.312530650971951
 40
0.3750197784833726
 40
0.4375089070170743
 40
0.4999980341110711
 40
0.5624871612050677
 40
0.6249762897387696
 40
0.6874654172501916
 40
0.7499545449968695
 40
0.8124436727435475
 40
0.8749328002549693
 40
0.9374219287886714
 40
0.9624611863316554
 40
0.9811463731701726
 40
1.0
 40
1.0
 40
1.0
 40
1.0
 10
100.2243450068669
 20
200.7306405721989
 30
0.0
 10
100.1898967179349
 20
200.7301434043407
 30
0.0
 10
100.1211746081499
 20
200.729151586599
 30
0.0
 10
99.98407966413846
 20
200.718753674992
 30
0.0
 10
99.74615697417734
 20
200.6836113694864
 30
0.0
 10
99.41548072721471
 20
200.5832717693194
 30
0.0
 10
99.05013980927158
 20
200.3879883556745
 30
0.0
 10
98.7298451565934
 20
200.1251353168209
 30
0.0
 10
98.46700415751641
 20
199.8048592414513
 30
0.0
 10
98.27169116207392
 20
199.4394560540504
 30
0.0
 10
98.15141910513518
 20
199.0429712092869
 30
0.0
 10
98.11080794968763
 20
198.6306405725019
 30
0.0
 10
98.15141912111578
 20
198.2183099170749
 30
0.0
 10
98.2716910981515
 20
197.8218251282377
 30
0.0
 10
98.46700439722541
 20
197.4564217357736
 30
0.0
 10
98.72984426167983
 20
197.1361464247301
 30
0.0
 10
99.05014314921686
 20
196.8732905336352
 30
0.0
 10
99.41546826234713
 20
196.6780177646298
 30
0.0
 10
99.73298002037997
 20
196.5816552974606
 30
0.0
 10
99.96352504242137
 20
196.5453128791871
 30
0.0
 10
100.1004918660906
 20
196.5327521688518
 30
0.0
 10
100.1829373132599
 20
196.5313465364104
 30
0.0
 10
100.2243450068669
 20
196.5306405665909
 30
0.0
  0
ARC
  5
2BD
330
1F
100
AcDbEntity
  8
0
  6
Continuous
 62
     7
370
     0
100
AcDbCircle
 10
100.2243450069
 20
198.6306405694
 30
0.0
 40
5.500000000000028
100
AcDbArc
 50
270.0000000235
 51
89.9999999897
  0
ARC
  5
2BE
330
1F
100
AcDbEntity
  8
0
  6
Continuous
 62
     7
370
     0
100
AcDbCircle
 10
100.2243450069
 20
198.6306405694
 30
0.0
 40
5.500000000000028
100
AcDbArc
 50
90.0
 51
270.0000000235
  0
ARC
  5
2BF
330
1F
100
AcDbEntity
  8
0
  6
Continuous
 62
     7
370
     0
100
AcDbCircle
 10
100.2243450069
 20
198.6306405694
 30
0.0
 40
2.100000000000023
100
AcDbArc
 50
270.0000000235
 51
89.9999999897
  0
INSERT
  5
2CA
330
1F
100
AcDbEntity
  8
0
  6
Continuous
 62
     7
370
     0
100
AcDbBlockReference
  2
SW_NOTE_3
 10
119.5613919706
 20
226.5844219633
 30
0.0
  0
INSERT
  5
2CB
330
1F
100
AcDbEntity
  8
0
  6
Continuous
 62
     7
370
     0
100
AcDbBlockReference
  2
_OPEN30
 10
101.6111393093
 20
200.2076001639
 30
26.5
 41
3.0
 42
3.0
 50
235.8255551153
  0
LINE
  5
2CC
330
1F
100
AcDbEntity
  8
0
  6
Continuous
 62
     7
370
     0
100
AcDbLine
 10
101.6111393093
 20
200.2076001639
 30
0.0
 11
119.5136417556
 21
226.5756227758
 31
0.0
  0
ENDSEC
  0
SECTION
  2
OBJECTS
  0
DICTIONARY
  5
C
330
0
100
AcDbDictionary
281
     1
  3
ACAD_GROUP
350
D
  3
ACAD_LAYOUT
350
1A
  3
ACAD_MLINESTYLE
350
17
  3
ACAD_PLOTSETTINGS
350
19
  3
ACAD_PLOTSTYLENAME
350
E
  0
DICTIONARY
  5
D
102
{ACAD_REACTORS
330
C
102
}
330
C
100
AcDbDictionary
281
     1
  0
DICTIONARY
  5
1A
102
{ACAD_REACTORS
330
C
102
}
330
C
100
AcDbDictionary
281
     1
  3
Layout1
350
1E
  3
Layout2
350
26
  3
Model
350
22
  0
DICTIONARY
  5
17
102
{ACAD_REACTORS
330
C
102
}
330
C
100
AcDbDictionary
281
     1
  3
Standard
350
18
  0
DICTIONARY
  5
19
102
{ACAD_REACTORS
330
C
102
}
330
C
100
AcDbDictionary
281
     1
  0
ACDBDICTIONARYWDFLT
  5
E
102
{ACAD_REACTORS
330
C
102
}
330
C
100
AcDbDictionary
281
     1
  3
Normal
350
F
100
AcDbDictionaryWithDefault
340
F
  0
LAYOUT
  5
1E
102
{ACAD_REACTORS
330
1A
102
}
330
1A
100
AcDbPlotSettings
  1

  2
none_device
  4

  6

 40
0.0
 41
0.0
 42
0.0
 43
0.0
 44
0.0
 45
0.0
 46
0.0
 47
0.0
 48
0.0
 49
0.0
140
0.0
141
0.0
142
1.0
143
1.0
 70
   688
 72
     0
 73
     0
 74
     5
  7

 75
    16
147
1.0
148
0.0
149
0.0
100
AcDbLayout
  1
Layout1
 70
     1
 71
     1
 10
0.0
 20
0.0
 11
420.0
 21
297.0
 12
0.0
 22
0.0
 32
0.0
 14
1.0000000000E+20
 24
1.0000000000E+20
 34
1.0000000000E+20
 15
-1.0000000000E+20
 25
-1.0000000000E+20
 35
-1.0000000000E+20
146
0.0
 13
0.0
 23
0.0
 33
0.0
 16
1.0
 26
0.0
 36
0.0
 17
0.0
 27
1.0
 37
0.0
 76
     0
330
1B
  0
LAYOUT
  5
26
102
{ACAD_REACTORS
330
1A
102
}
330
1A
100
AcDbPlotSettings
  1

  2
none_device
  4

  6

 40
0.0
 41
0.0
 42
0.0
 43
0.0
 44
0.0
 45
0.0
 46
0.0
 47
0.0
 48
0.0
 49
0.0
140
0.0
141
0.0
142
1.0
143
1.0
 70
   688
 72
     0
 73
     0
 74
     5
  7

 75
    16
147
1.0
148
0.0
149
0.0
100
AcDbLayout
  1
Layout2
 70
     1
 71
     2
 10
0.0
 20
0.0
 11
0.0
 21
0.0
 12
0.0
 22
0.0
 32
0.0
 14
0.0
 24
0.0
 34
0.0
 15
0.0
 25
0.0
 35
0.0
146
0.0
 13
0.0
 23
0.0
 33
0.0
 16
1.0
 26
0.0
 36
0.0
 17
0.0
 27
1.0
 37
0.0
 76
     0
330
23
  0
LAYOUT
  5
22
102
{ACAD_REACTORS
330
1A
102
}
330
1A
100
AcDbPlotSettings
  1

  2
none_device
  4

  6

 40
0.0
 41
0.0
 42
0.0
 43
0.0
 44
0.0
 45
0.0
 46
0.0
 47
0.0
 48
0.0
 49
0.0
140
0.0
141
0.0
142
1.0
143
1.0
 70
  1712
 72
     0
 73
     0
 74
     0
  7

 75
     0
147
1.0
148
0.0
149
0.0
100
AcDbLayout
  1
Model
 70
     1
 71
     0
 10
0.0
 20
0.0
 11
210.0
 21
297.0
 12
0.0
 22
0.0
 32
0.0
 14
0.0
 24
0.0
 34
0.0
 15
210.0
 25
297.0
 35
0.0
146
0.0
 13
0.0
 23
0.0
 33
0.0
 16
1.0
 26
0.0
 36
0.0
 17
0.0
 27
1.0
 37
0.0
 76
     0
330
1F
331
29
  0
MLINESTYLE
  5
18
102
{ACAD_REACTORS
330
17
102
}
330
17
100
AcDbMlineStyle
  2
Standard
 70
     0
  3

 62
   256
 51
90.0
 52
90.0
 71
     2
 49
0.5
 62
   256
  6
BYLAYER
 49
-0.5
 62
   256
  6
BYLAYER
  0
ACDBPLACEHOLDER
  5
F
102
{ACAD_REACTORS
330
E
102
}
330
E
  0
ENDSEC
  0
EOF
