  0
SECTION
  2
HEADER
  9
$ACADVER
  1
AC1015
  9
$ACADMAINTVER
 70
     6
  9
$DWGCODEPAGE
  3
DOS932
  9
$INSBASE
 10
0.0
 20
0.0
 30
0.0
  9
$EXTMIN
 10
0.0
 20
0.0
 30
0.0
  9
$EXTMAX
 10
210.0
 20
297.0
 30
0.0
  9
$LIMMIN
 10
0.0
 20
0.0
  9
$LIMMAX
 10
210.0
 20
297.0
  9
$ORTHOMODE
 70
     0
  9
$REGENMODE
 70
     1
  9
$FILLMODE
 70
     1
  9
$QTEXTMODE
 70
     0
  9
$MIRRTEXT
 70
     1
  9
$LTSCALE
 40
1.0
  9
$ATTMODE
 70
     1
  9
$TEXTSIZE
 40
3.5
  9
$TRACEWID
 40
1.0
  9
$TEXTSTYLE
  7
Standard
  9
$CLAYER
  8
0
  9
$CELTYPE
  6
ByLayer
  9
$CECOLOR
 62
   256
  9
$CELTSCALE
 40
1.0
  9
$DISPSILH
 70
     0
  9
$DIMSCALE
 40
1.0
  9
$DIMASZ
 40
3.0
  9
$DIMEXO
 40
1.0
  9
$DIMDLI
 40
3.75
  9
$DIMRND
 40
0.0
  9
$DIMDLE
 40
0.0
  9
$DIMEXE
 40
1.0
  9
$DIMTP
 40
0.0
  9
$DIMTM
 40
0.0
  9
$DIMTXT
 40
3.5
  9
$DIMCEN
 40
2.5
  9
$DIMTSZ
 40
0.0
  9
$DIMTOL
 70
     0
  9
$DIMLIM
 70
     0
  9
$DIMTIH
 70
     1
  9
$DIMTOH
 70
     1
  9
$DIMSE1
 70
     0
  9
$DIMSE2
 70
     0
  9
$DIMTAD
 70
     1
  9
$DIMZIN
 70
     0
  9
$DIMBLK
  1

  9
$DIMASO
 70
     1
  9
$DIMSHO
 70
     1
  9
$DIMPOST
  1

  9
$DIMAPOST
  1

  9
$DIMALT
 70
     0
  9
$DIMALTD
 70
     3
  9
$DIMALTF
 40
0.0393700787
  9
$DIMLFAC
 40
1.0
  9
$DIMTOFL
 70
     1
  9
$DIMTVP
 40
0.0
  9
$DIMTIX
 70
     0
  9
$DIMSOXD
 70
     0
  9
$DIMSAH
 70
     0
  9
$DIMBLK1
  1

  9
$DIMBLK2
  1

  9
$DIMSTYLE
  2
ISO-25
  9
$DIMCLRD
 70
     0
  9
$DIMCLRE
 70
     0
  9
$DIMCLRT
 70
     0
  9
$DIMTFAC
 40
1.0
  9
$DIMGAP
 40
1.524
  9
$DIMJUST
 70
     0
  9
$DIMSD1
 70
     0
  9
$DIMSD2
 70
     0
  9
$DIMTOLJ
 70
     0
  9
$DIMTZIN
 70
     0
  9
$DIMALTZ
 70
     0
  9
$DIMALTTZ
 70
     0
  9
$DIMUPT
 70
     0
  9
$DIMDEC
 70
     1
  9
$DIMTDEC
 70
     3
  9
$DIMALTU
 70
     2
  9
$DIMALTTD
 70
     3
  9
$DIMTXSTY
  7
Standard
  9
$DIMAUNIT
 70
     0
  9
$DIMADEC
 70
     2
  9
$DIMALTRND
 40
0.0
  9
$DIMAZIN
 70
     0
  9
$DIMDSEP
 70
    44
  9
$DIMATFIT
 70
     3
  9
$DIMFRAC
 70
     0
  9
$DIMLDRBLK
  1

  9
$DIMLUNIT
 70
     2
  9
$DIMLWD
 70
    -2
  9
$DIMLWE
 70
    -2
  9
$DIMTMOVE
 70
     0
  9
$LUNITS
 70
     2
  9
$LUPREC
 70
     1
  9
$SKETCHINC
 40
1.0
  9
$FILLETRAD
 40
10.0
  9
$AUNITS
 70
     0
  9
$AUPREC
 70
     2
  9
$MENU
  1
.
  9
$ELEVATION
 40
0.0
  9
$PELEVATION
 40
0.0
  9
$THICKNESS
 40
0.0
  9
$LIMCHECK
 70
     0
  9
$CHAMFERA
 40
10.0
  9
$CHAMFERB
 40
10.0
  9
$CHAMFERC
 40
20.0
  9
$CHAMFERD
 40
0.0
  9
$SKPOLY
 70
     0
  9
$TDCREATE
 40
2456588.812211771
  9
$TDUCREATE
 40
2456588.437211771
  9
$TDUPDATE
 40
2456588.812215382
  9
$TDUUPDATE
 40
2456588.437215382
  9
$TDINDWG
 40
0.0000000116
  9
$TDUSRTIMER
 40
0.0000000116
  9
$USRTIMER
 70
     1
  9
$ANGBASE
 50
0.0
  9
$ANGDIR
 70
     0
  9
$PDMODE
 70
     0
  9
$PDSIZE
 40
-1.0
  9
$PLINEWID
 40
0.0
  9
$SPLFRAME
 70
     0
  9
$SPLINETYPE
 70
     6
  9
$SPLINESEGS
 70
     8
  9
$HANDSEED
  5
328
  9
$SURFTAB1
 70
     6
  9
$SURFTAB2
 70
     6
  9
$SURFTYPE
 70
     6
  9
$SURFU
 70
     6
  9
$SURFV
 70
     6
  9
$UCSBASE
  2

  9
$UCSNAME
  2

  9
$UCSORG
 10
0.0
 20
0.0
 30
0.0
  9
$UCSXDIR
 10
1.0
 20
0.0
 30
0.0
  9
$UCSYDIR
 10
0.0
 20
1.0
 30
0.0
  9
$UCSORTHOREF
  2

  9
$UCSORTHOVIEW
 70
     0
  9
$UCSORGTOP
 10
0.0
 20
0.0
 30
0.0
  9
$UCSORGBOTTOM
 10
0.0
 20
0.0
 30
0.0
  9
$UCSORGLEFT
 10
0.0
 20
0.0
 30
0.0
  9
$UCSORGRIGHT
 10
0.0
 20
0.0
 30
0.0
  9
$UCSORGFRONT
 10
0.0
 20
0.0
 30
0.0
  9
$UCSORGBACK
 10
0.0
 20
0.0
 30
0.0
  9
$PUCSBASE
  2

  9
$PUCSNAME
  2

  9
$PUCSORG
 10
0.0
 20
0.0
 30
0.0
  9
$PUCSXDIR
 10
1.0
 20
0.0
 30
0.0
  9
$PUCSYDIR
 10
0.0
 20
1.0
 30
0.0
  9
$PUCSORTHOREF
  2

  9
$PUCSORTHOVIEW
 70
     0
  9
$PUCSORGTOP
 10
0.0
 20
0.0
 30
0.0
  9
$PUCSORGBOTTOM
 10
0.0
 20
0.0
 30
0.0
  9
$PUCSORGLEFT
 10
0.0
 20
0.0
 30
0.0
  9
$PUCSORGRIGHT
 10
0.0
 20
0.0
 30
0.0
  9
$PUCSORGFRONT
 10
0.0
 20
0.0
 30
0.0
  9
$PUCSORGBACK
 10
0.0
 20
0.0
 30
0.0
  9
$USERI1
 70
     0
  9
$USERI2
 70
     0
  9
$USERI3
 70
     0
  9
$USERI4
 70
     0
  9
$USERI5
 70
     0
  9
$USERR1
 40
0.0
  9
$USERR2
 40
0.0
  9
$USERR3
 40
0.0
  9
$USERR4
 40
0.0
  9
$USERR5
 40
0.0
  9
$WORLDVIEW
 70
     1
  9
$SHADEDGE
 70
     3
  9
$SHADEDIF
 70
    70
  9
$TILEMODE
 70
     1
  9
$MAXACTVP
 70
    64
  9
$PINSBASE
 10
0.0
 20
0.0
 30
0.0
  9
$PLIMCHECK
 70
     0
  9
$PEXTMIN
 10
1.0000000000E+20
 20
1.0000000000E+20
 30
1.0000000000E+20
  9
$PEXTMAX
 10
-1.0000000000E+20
 20
-1.0000000000E+20
 30
-1.0000000000E+20
  9
$PLIMMIN
 10
0.0
 20
0.0
  9
$PLIMMAX
 10
420.0
 20
297.0
  9
$UNITMODE
 70
     0
  9
$VISRETAIN
 70
     1
  9
$PLINEGEN
 70
     0
  9
$PSLTSCALE
 70
     1
  9
$TREEDEPTH
 70
  3020
  9
$CMLSTYLE
  2
Standard
  9
$CMLJUST
 70
     0
  9
$CMLSCALE
 40
20.0
  9
$PROXYGRAPHICS
 70
     1
  9
$MEASUREMENT
 70
     1
  9
$CELWEIGHT
370
    -1
  9
$ENDCAPS
280
     0
  9
$JOINSTYLE
280
     0
  9
$LWDISPLAY
290
     1
  9
$INSUNITS
 70
     4
  9
$HYPERLINKBASE
  1

  9
$STYLESHEET
  1

  9
$XEDIT
290
     1
  9
$CEPSNTYPE
380
     0
  9
$PSTYLEMODE
290
     1
  9
$FINGERPRINTGUID
  2
{ED338C78-6908-4220-94DB-3A0D26887AB6}
  9
$VERSIONGUID
  2
{FAEB1C32-E019-11D5-929B-00C0DF256EC4}
  9
$EXTNAMES
290
     1
  9
$PSVPSCALE
 40
0.0
  9
$OLESTARTUP
290
     0
  0
ENDSEC
  0
SECTION
  2
CLASSES
  0
CLASS
  1
ACDBDICTIONARYWDFLT
  2
AcDbDictionaryWithDefault
  3
ObjectDBX Classes
 90
        0
280
     0
281
     0
  0
CLASS
  1
VISUALSTYLE
  2
AcDbVisualStyle
  3
ObjectDBX Classes
 90
     4095
280
     0
281
     0
  0
CLASS
  1
MATERIAL
  2
AcDbMaterial
  3
ObjectDBX Classes
 90
     1153
280
     0
281
     0
  0
CLASS
  1
ACDBPLACEHOLDER
  2
AcDbPlaceHolder
  3
ObjectDBX Classes
 90
        0
280
     0
281
     0
  0
CLASS
  1
LAYOUT
  2
AcDbLayout
  3
ObjectDBX Classes
 90
        0
280
     0
281
     0
  0
ENDSEC
  0
SECTION
  2
TABLES
  0
TABLE
  2
VPORT
  5
8
330
0
100
AcDbSymbolTable
 70
     1
  0
VPORT
  5
29
330
8
100
AcDbSymbolTableRecord
100
AcDbViewportTableRecord
  2
*Active
 70
     0
 10
0.0
 20
0.0
 11
1.0
 21
1.0
 12
105.0
 22
148.5
 13
0.0
 23
0.0
 14
10.0
 24
10.0
 15
10.0
 25
10.0
 16
0.0
 26
0.0
 36
1.0
 17
0.0
 27
0.0
 37
0.0
 40
297.0
 41
0.7070707071
 42
50.0
 43
0.0
 44
0.0
 50
0.0
 51
0.0
 71
     0
 72
  2000
 73
     1
 74
     3
 75
     0
 76
     0
 77
     0
 78
     0
281
     0
 65
     1
110
0.0
120
0.0
130
0.0
111
1.0
121
0.0
131
0.0
112
0.0
122
1.0
132
0.0
 79
     0
146
0.0
  0
ENDTAB
  0
TABLE
  2
LTYPE
  5
5
330
0
100
AcDbSymbolTable
 70
     6
  0
LTYPE
  5
14
330
5
100
AcDbSymbolTableRecord
100
AcDbLinetypeTableRecord
  2
ByBlock
 70
     0
  3

 72
    65
 73
     0
 40
0.0
  0
LTYPE
  5
15
330
5
100
AcDbSymbolTableRecord
100
AcDbLinetypeTableRecord
  2
ByLayer
 70
     0
  3

 72
    65
 73
     0
 40
0.0
  0
LTYPE
  5
16
330
5
100
AcDbSymbolTableRecord
100
AcDbLinetypeTableRecord
  2
Continuous
 70
     0
  3
Solid line
 72
    65
 73
     0
 40
0.0
  0
LTYPE
  5
3F
330
5
100
AcDbSymbolTableRecord
100
AcDbLinetypeTableRecord
  2
HIDDEN
 70
     0
  3
Hidden __ __ __ __ __ __ __ __ __ __ __ __ __ __
 72
    65
 73
     2
 40
1.905
 49
1.27
 74
     0
 49
-0.635
 74
     0
  0
LTYPE
  5
40
330
5
100
AcDbSymbolTableRecord
100
AcDbLinetypeTableRecord
  2
PHANTOM
 70
     0
  3
Phantom ______  __  __  ______  __  __  ______
 72
    65
 73
     6
 40
12.7
 49
6.35
 74
     0
 49
-1.27
 74
     0
 49
1.27
 74
     0
 49
-1.27
 74
     0
 49
1.27
 74
     0
 49
-1.27
 74
     0
  0
LTYPE
  5
41
330
5
100
AcDbSymbolTableRecord
100
AcDbLinetypeTableRecord
  2
CENTER
 70
     0
  3
Center ____ _ ____ _ ____ _ ____ _ ____ _ ____
 72
    65
 73
     4
 40
10.16
 49
6.35
 74
     0
 49
-1.27
 74
     0
 49
1.27
 74
     0
 49
-1.27
 74
     0
  0
LTYPE
  5
42
330
5
100
AcDbSymbolTableRecord
100
AcDbLinetypeTableRecord
  2
CENTERX2
 70
     0
  3
Center (2x) ________  __  ________  __  _____
 72
    65
 73
     4
 40
20.32
 49
12.7
 74
     0
 49
-2.54
 74
     0
 49
2.54
 74
     0
 49
-2.54
 74
     0
  0
LTYPE
  5
43
330
5
100
AcDbSymbolTableRecord
100
AcDbLinetypeTableRecord
  2
DOT2
 70
     0
  3
Dot (.5x) ........................................
 72
    65
 73
     2
 40
0.635
 49
0.0
 74
     0
 49
-0.635
 74
     0
  0
ENDTAB
  0
TABLE
  2
LAYER
  5
2
330
0
100
AcDbSymbolTable
 70
     1
  0
LAYER
  5
10
330
2
100
AcDbSymbolTableRecord
100
AcDbLayerTableRecord
  2
0
 70
     0
 62
     7
  6
Continuous
370
    -3
390
F
  0
ENDTAB
  0
TABLE
  2
STYLE
  5
3
330
0
100
AcDbSymbolTable
 70
     2
  0
STYLE
  5
11
330
3
100
AcDbSymbolTableRecord
100
AcDbTextStyleTableRecord
  2
Standard
 70
     0
 40
0.0
 41
1.0
 50
0.0
 71
     0
 42
3.5
  3
txt
  4
bigfont
  0
STYLE
  5
55
330
3
100
AcDbSymbolTableRecord
100
AcDbTextStyleTableRecord
  2
SLDTEXTSTYLE0
 70
     0
 40
0.0
 41
0.7
 50
0.0
 71
     0
 42
0.2
  3
TXT
  4
bigfont
  0
ENDTAB
  0
TABLE
  2
VIEW
  5
6
330
0
100
AcDbSymbolTable
 70
     0
  0
ENDTAB
  0
TABLE
  2
UCS
  5
7
330
0
100
AcDbSymbolTable
 70
     0
  0
ENDTAB
  0
TABLE
  2
APPID
  5
9
330
0
100
AcDbSymbolTable
 70
     1
  0
APPID
  5
12
330
9
100
AcDbSymbolTableRecord
100
AcDbRegAppTableRecord
  2
ACAD
 70
     0
  0
ENDTAB
  0
TABLE
  2
DIMSTYLE
  5
A
330
0
100
AcDbSymbolTable
 70
     3
100
AcDbDimStyleTable
  0
DIMSTYLE
105
27
330
A
100
AcDbSymbolTableRecord
100
AcDbDimStyleTableRecord
  2
ISO-25
 70
     0
 41
2.5
 42
0.625
 43
3.75
 44
1.25
 73
     0
 74
     0
 77
     1
 78
     8
140
2.5
141
2.5
143
0.0393700787
147
0.625
171
     3
172
     1
178
     0
271
     2
272
     2
274
     3
278
    44
283
     0
284
     8
340
11
  0
DIMSTYLE
105
22D
102
{ACAD_REACTORS
330
22C
330
237
330
241
330
259
330
265
330
288
102
}
330
A
100
AcDbSymbolTableRecord
100
AcDbDimStyleTableRecord
  2
SLDDIMSTYLE0
 70
     0
 41
3.0
 44
0.0
 45
0.000000001
 73
     0
 74
     0
 77
     3
 78
    12
 79
     3
140
3.5
147
0.875
173
     1
178
     0
271
     1
272
     3
276
     2
284
    12
340
55
  0
DIMSTYLE
105
24D
102
{ACAD_REACTORS
330
24C
330
26F
330
27B
330
294
102
}
330
A
100
AcDbSymbolTableRecord
100
AcDbDimStyleTableRecord
  2
SLDDIMSTYLE1
 70
     0
 41
3.0
 44
0.0
 45
0.000000001
 73
     0
 74
     0
 77
     3
 78
    12
 79
     3
140
3.5
147
0.875
172
     1
173
     1
178
     0
271
     1
272
     3
276
     2
284
    12
289
     0
340
55
  0
ENDTAB
  0
TABLE
  2
BLOCK_RECORD
  5
1
330
0
100
AcDbSymbolTable
 70
    17
  0
BLOCK_RECORD
  5
1F
330
1
100
AcDbSymbolTableRecord
100
AcDbBlockTableRecord
  2
*Model_Space
340
22
  0
BLOCK_RECORD
  5
1B
330
1
100
AcDbSymbolTableRecord
100
AcDbBlockTableRecord
  2
*Paper_Space
340
1E
  0
BLOCK_RECORD
  5
23
330
1
100
AcDbSymbolTableRecord
100
AcDbBlockTableRecord
  2
*Paper_Space0
340
26
  0
BLOCK_RECORD
  5
4C
330
1
100
AcDbSymbolTableRecord
100
AcDbBlockTableRecord
  2
SW_NOTE_0
340
0
102
{BLKREFS
331
57
102
}
  0
BLOCK_RECORD
  5
58
330
1
100
AcDbSymbolTableRecord
100
AcDbBlockTableRecord
  2
SW_NOTE_1
340
0
102
{BLKREFS
331
62
102
}
  0
BLOCK_RECORD
  5
63
330
1
100
AcDbSymbolTableRecord
100
AcDbBlockTableRecord
  2
SW_NOTE_2
340
0
102
{BLKREFS
331
6D
102
}
  0
BLOCK_RECORD
  5
71
330
1
100
AcDbSymbolTableRecord
100
AcDbBlockTableRecord
  2
_OPEN30
340
0
102
{BLKREFS
331
77
331
79
331
7B
331
2AC
102
}
  0
BLOCK_RECORD
  5
22E
330
1
100
AcDbSymbolTableRecord
100
AcDbBlockTableRecord
  2
_D
340
0
  0
BLOCK_RECORD
  5
238
330
1
100
AcDbSymbolTableRecord
100
AcDbBlockTableRecord
  2
_D_1
340
0
  0
BLOCK_RECORD
  5
242
330
1
100
AcDbSymbolTableRecord
100
AcDbBlockTableRecord
  2
_D_2
340
0
  0
BLOCK_RECORD
  5
24E
330
1
100
AcDbSymbolTableRecord
100
AcDbBlockTableRecord
  2
_D_3
340
0
  0
BLOCK_RECORD
  5
25A
330
1
100
AcDbSymbolTableRecord
100
AcDbBlockTableRecord
  2
_D_4
340
0
  0
BLOCK_RECORD
  5
266
330
1
100
AcDbSymbolTableRecord
100
AcDbBlockTableRecord
  2
_D_5
340
0
  0
BLOCK_RECORD
  5
270
330
1
100
AcDbSymbolTableRecord
100
AcDbBlockTableRecord
  2
_D_6
340
0
  0
BLOCK_RECORD
  5
27C
330
1
100
AcDbSymbolTableRecord
100
AcDbBlockTableRecord
  2
_D_7
340
0
  0
BLOCK_RECORD
  5
289
330
1
100
AcDbSymbolTableRecord
100
AcDbBlockTableRecord
  2
_D_8
340
0
  0
BLOCK_RECORD
  5
295
330
1
100
AcDbSymbolTableRecord
100
AcDbBlockTableRecord
  2
_D_9
340
0
  0
BLOCK_RECORD
  5
2A1
330
1
100
AcDbSymbolTableRecord
100
AcDbBlockTableRecord
  2
SW_NOTE_3
340
0
102
{BLKREFS
331
2AB
102
}
  0
BLOCK_RECORD
  5
31C
330
1
100
AcDbSymbolTableRecord
100
AcDbBlockTableRecord
  2
SW_CENTERMARKSYMBOL_0
340
0
102
{BLKREFS
331
327
102
}
  0
ENDTAB
  0
ENDSEC
  0
SECTION
  2
BLOCKS
  0
BLOCK
  5
20
330
1F
100
AcDbEntity
  8
0
100
AcDbBlockBegin
  2
*Model_Space
 70
     0
 10
0.0
 20
0.0
 30
0.0
  3
*Model_Space
  1

  0
ENDBLK
  5
21
330
1F
100
AcDbEntity
  8
0
100
AcDbBlockEnd
  0
BLOCK
  5
1C
330
1B
100
AcDbEntity
 67
     1
  8
0
100
AcDbBlockBegin
  2
*Paper_Space
 70
     0
 10
0.0
 20
0.0
 30
0.0
  3
*Paper_Space
  1

  0
ENDBLK
  5
1D
330
1B
100
AcDbEntity
 67
     1
  8
0
100
AcDbBlockEnd
  0
BLOCK
  5
24
330
23
100
AcDbEntity
  8
0
100
AcDbBlockBegin
  2
*Paper_Space0
 70
     0
 10
0.0
 20
0.0
 30
0.0
  3
*Paper_Space0
  1

  0
ENDBLK
  5
25
330
23
100
AcDbEntity
  8
0
100
AcDbBlockEnd
  0
BLOCK
  5
4D
330
4C
100
AcDbEntity
  8
0
100
AcDbBlockBegin
  2
SW_NOTE_0
 70
     0
 10
0.0
 20
0.0
 30
0.0
  3
SW_NOTE_0
  1

  0
LINE
  5
4F
330
4C
100
AcDbEntity
  8
0
  6
Continuous
 62
     0
370
     0
100
AcDbLine
 10
-0.0992914171
 20
-0.0922894712
 30
0.0
 11
4.0525472543
 21
-0.0922894712
 31
0.0
  0
LINE
  5
50
330
4C
100
AcDbEntity
  8
0
  6
Continuous
 62
     0
370
     0
100
AcDbLine
 10
4.0525472543
 20
-0.0922894712
 30
0.0
 11
-0.0992914171
 21
-0.0922894712
 31
0.0
  0
LINE
  5
51
330
4C
100
AcDbEntity
  8
0
  6
Continuous
 62
     0
370
     0
100
AcDbLine
 10
-0.0992914171
 20
-0.0922894712
 30
0.0
 11
4.0525472543
 21
-0.0922894712
 31
0.0
  0
LINE
  5
52
330
4C
100
AcDbEntity
  8
0
  6
Continuous
 62
     0
370
     0
100
AcDbLine
 10
4.0525472543
 20
-0.0922894712
 30
0.0
 11
-0.0992914171
 21
-0.0922894712
 31
0.0
  0
LINE
  5
53
330
4C
100
AcDbEntity
  8
0
  6
Continuous
 62
     0
370
     0
100
AcDbLine
 10
-0.0992914171
 20
-0.0922894712
 30
0.0
 11
4.0525472543
 21
-0.0922894712
 31
0.0
  0
LINE
  5
54
330
4C
100
AcDbEntity
  8
0
  6
Continuous
 62
     0
370
     0
100
AcDbLine
 10
4.0525472543
 20
-0.0922894712
 30
0.0
 11
-0.0992914171
 21
-0.0922894712
 31
0.0
  0
MTEXT
  5
56
330
4C
100
AcDbEntity
  8
0
  6
Continuous
 62
     0
370
     0
100
AcDbMText
 10
0.0
 20
4.5117370892
 30
0.0
 40
3.5
 41
0.0
 71
     1
 72
     1
  1
PF
  7
SLDTEXTSTYLE0
 73
     1
 44
1.0
  0
ENDBLK
  5
4E
330
4C
100
AcDbEntity
  8
0
100
AcDbBlockEnd
  0
BLOCK
  5
59
330
58
100
AcDbEntity
  8
0
100
AcDbBlockBegin
  2
SW_NOTE_1
 70
     0
 10
0.0
 20
0.0
 30
0.0
  3
SW_NOTE_1
  1

  0
LINE
  5
5B
330
58
100
AcDbEntity
  8
0
  6
Continuous
 62
     0
370
     0
100
AcDbLine
 10
-0.1179023175
 20
-0.0007403269
 30
0.0
 11
8.0671510633
 21
-0.0007403269
 31
0.0
  0
LINE
  5
5C
330
58
100
AcDbEntity
  8
0
  6
Continuous
 62
     0
370
     0
100
AcDbLine
 10
8.0671510633
 20
-0.0007403269
 30
0.0
 11
-0.1179023175
 21
-0.0007403269
 31
0.0
  0
LINE
  5
5D
330
58
100
AcDbEntity
  8
0
  6
Continuous
 62
     0
370
     0
100
AcDbLine
 10
-0.1179023175
 20
-0.0007403269
 30
0.0
 11
8.0671510633
 21
-0.0007403269
 31
0.0
  0
LINE
  5
5E
330
58
100
AcDbEntity
  8
0
  6
Continuous
 62
     0
370
     0
100
AcDbLine
 10
8.0671510633
 20
-0.0007403269
 30
0.0
 11
-0.1179023175
 21
-0.0007403269
 31
0.0
  0
LINE
  5
5F
330
58
100
AcDbEntity
  8
0
  6
Continuous
 62
     0
370
     0
100
AcDbLine
 10
-0.1179023175
 20
-0.0007403269
 30
0.0
 11
8.0671510633
 21
-0.0007403269
 31
0.0
  0
LINE
  5
60
330
58
100
AcDbEntity
  8
0
  6
Continuous
 62
     0
370
     0
100
AcDbLine
 10
8.0671510633
 20
-0.0007403269
 30
0.0
 11
-0.1179023175
 21
-0.0007403269
 31
0.0
  0
MTEXT
  5
61
330
58
100
AcDbEntity
  8
0
  6
Continuous
 62
     0
370
     0
100
AcDbMText
 10
0.0
 20
4.5117370892
 30
0.0
 40
3.5
 41
0.0
 71
     1
 72
     1
  1
BF-6
  7
SLDTEXTSTYLE0
 73
     1
 44
1.0
  0
ENDBLK
  5
5A
330
58
100
AcDbEntity
  8
0
100
AcDbBlockEnd
  0
BLOCK
  5
64
330
63
100
AcDbEntity
  8
0
100
AcDbBlockBegin
  2
SW_NOTE_2
 70
     0
 10
0.0
 20
0.0
 30
0.0
  3
SW_NOTE_2
  1

  0
LINE
  5
66
330
63
100
AcDbEntity
  8
0
  6
Continuous
 62
     0
370
     0
100
AcDbLine
 10
-0.0639492682
 20
-0.0287592796
 30
0.0
 11
3.9692654412
 21
-0.0287592796
 31
0.0
  0
LINE
  5
67
330
63
100
AcDbEntity
  8
0
  6
Continuous
 62
     0
370
     0
100
AcDbLine
 10
3.9692654412
 20
-0.0287592796
 30
0.0
 11
-0.0639492682
 21
-0.0287592796
 31
0.0
  0
LINE
  5
68
330
63
100
AcDbEntity
  8
0
  6
Continuous
 62
     0
370
     0
100
AcDbLine
 10
-0.0639492682
 20
-0.0287592796
 30
0.0
 11
3.9692654412
 21
-0.0287592796
 31
0.0
  0
LINE
  5
69
330
63
100
AcDbEntity
  8
0
  6
Continuous
 62
     0
370
     0
100
AcDbLine
 10
3.9692654412
 20
-0.0287592796
 30
0.0
 11
-0.0639492682
 21
-0.0287592796
 31
0.0
  0
LINE
  5
6A
330
63
100
AcDbEntity
  8
0
  6
Continuous
 62
     0
370
     0
100
AcDbLine
 10
-0.0639492682
 20
-0.0287592796
 30
0.0
 11
3.9692654412
 21
-0.0287592796
 31
0.0
  0
LINE
  5
6B
330
63
100
AcDbEntity
  8
0
  6
Continuous
 62
     0
370
     0
100
AcDbLine
 10
3.9692654412
 20
-0.0287592796
 30
0.0
 11
-0.0639492682
 21
-0.0287592796
 31
0.0
  0
MTEXT
  5
6C
330
63
100
AcDbEntity
  8
0
  6
Continuous
 62
     0
370
     0
100
AcDbMText
 10
0.0
 20
4.5117370892
 30
0.0
 40
3.5
 41
0.0
 71
     1
 72
     1
  1
M5
  7
SLDTEXTSTYLE0
 73
     1
 44
1.0
  0
ENDBLK
  5
65
330
63
100
AcDbEntity
  8
0
100
AcDbBlockEnd
  0
BLOCK
  5
72
330
71
100
AcDbEntity
  8
0
100
AcDbBlockBegin
  2
_OPEN30
 70
     0
 10
0.0
 20
0.0
 30
0.0
  3
_OPEN30
  1

  0
LINE
  5
74
330
71
100
AcDbEntity
  8
0
  6
ByBlock
 62
     0
370
    -2
100
AcDbLine
 10
-1.0
 20
0.267949
 30
0.0
 11
0.0
 21
0.0
 31
0.0
  0
LINE
  5
75
330
71
100
AcDbEntity
  8
0
  6
ByBlock
 62
     0
370
    -2
100
AcDbLine
 10
0.0
 20
0.0
 30
0.0
 11
-1.0
 21
-0.267949
 31
0.0
  0
LINE
  5
76
330
71
100
AcDbEntity
  8
0
  6
ByBlock
 62
     0
370
    -2
100
AcDbLine
 10
0.0
 20
0.0
 30
0.0
 11
-1.0
 21
0.0
 31
0.0
  0
ENDBLK
  5
73
330
71
100
AcDbEntity
  8
0
100
AcDbBlockEnd
  0
BLOCK
  5
22F
330
22E
100
AcDbEntity
  8
0
100
AcDbBlockBegin
  2
_D
 70
     0
 10
0.0
 20
0.0
 30
0.0
  3
_D
  1

  0
SOLID
  5
231
330
22E
100
AcDbEntity
  8
0
  6
Continuous
 62
     7
370
     0
100
AcDbTrace
 10
147.3096277524
 20
166.3368327402
 30
0.0
 11
146.5596277524
 21
163.3368327402
 31
0.0
 12
148.0596277524
 22
163.3368327402
 32
0.0
 13
148.0596277524
 23
163.3368327402
 33
0.0
  0
SOLID
  5
232
330
22E
100
AcDbEntity
  8
0
  6
Continuous
 62
     7
370
     0
100
AcDbTrace
 10
147.3096277525
 20
89.3368327402
 30
0.0
 11
148.0596277525
 21
92.3368327402
 31
0.0
 12
146.5596277525
 22
92.3368327402
 32
0.0
 13
146.5596277525
 23
92.3368327402
 33
0.0
  0
LINE
  5
233
330
22E
100
AcDbEntity
  8
0
  6
Continuous
 62
     7
370
     0
100
AcDbLine
 10
110.080682286
 20
166.3368327402
 30
0.0
 11
148.3096277524
 21
166.3368327402
 31
0.0
  0
LINE
  5
234
330
22E
100
AcDbEntity
  8
0
  6
Continuous
 62
     7
370
     0
100
AcDbLine
 10
107.080682286
 20
89.3368327402
 30
0.0
 11
148.3096277525
 21
89.3368327402
 31
0.0
  0
LINE
  5
235
330
22E
100
AcDbEntity
  8
0
  6
Continuous
 62
     7
370
     0
100
AcDbLine
 10
147.3096277524
 20
166.3368327402
 30
0.0
 11
147.3096277525
 21
89.3368327402
 31
0.0
  0
MTEXT
  5
236
330
22E
100
AcDbEntity
  8
0
  6
Continuous
 62
     7
370
     0
100
AcDbMText
 10
142.7978908961
 20
124.7816243776
 30
0.1
 40
3.5
 41
0.0
 71
     1
 72
     1
  1
77
  7
SLDTEXTSTYLE0
 11
-1.770233605404514E-14
 21
1.0
 31
0.0
 73
     1
 44
1.0
  0
ENDBLK
  5
230
330
22E
100
AcDbEntity
  8
0
100
AcDbBlockEnd
  0
BLOCK
  5
239
330
238
100
AcDbEntity
  8
0
100
AcDbBlockBegin
  2
_D_1
 70
     0
 10
0.0
 20
0.0
 30
0.0
  3
_D_1
  1

  0
SOLID
  5
23B
330
238
100
AcDbEntity
  8
0
  6
Continuous
 62
     7
370
     0
100
AcDbTrace
 10
122.8359782906
 20
157.3368327402
 30
0.0
 11
123.5859782906
 21
160.3368327402
 31
0.0
 12
122.0859782906
 22
160.3368327402
 32
0.0
 13
122.0859782906
 23
160.3368327402
 33
0.0
  0
SOLID
  5
23C
330
238
100
AcDbEntity
  8
0
  6
Continuous
 62
     7
370
     0
100
AcDbTrace
 10
122.8359782906
 20
166.3368327402
 30
0.0
 11
122.0859782906
 21
163.3368327402
 31
0.0
 12
123.5859782906
 22
163.3368327402
 32
0.0
 13
123.5859782906
 23
163.3368327402
 33
0.0
  0
LINE
  5
23D
330
238
100
AcDbEntity
  8
0
  6
Continuous
 62
     7
370
     0
100
AcDbLine
 10
110.580682286
 20
157.3368327402
 30
0.0
 11
123.8359782906
 21
157.3368327402
 31
0.0
  0
LINE
  5
23E
330
238
100
AcDbEntity
  8
0
  6
Continuous
 62
     7
370
     0
100
AcDbLine
 10
110.0806823104
 20
166.3368327402
 30
0.0
 11
123.8359782906
 21
166.3368327402
 31
0.0
  0
LINE
  5
23F
330
238
100
AcDbEntity
  8
0
  6
Continuous
 62
     7
370
     0
100
AcDbLine
 10
122.8359782906
 20
157.3368327402
 30
0.0
 11
122.8359782906
 21
166.3368327402
 31
0.0
  0
MTEXT
  5
240
330
238
100
AcDbEntity
  8
0
  6
Continuous
 62
     7
370
     0
100
AcDbMText
 10
118.3242414343
 20
159.8000272427
 30
0.1
 40
3.5
 41
0.0
 71
     1
 72
     1
  1
9
  7
SLDTEXTSTYLE0
 11
-1.037486409151910E-14
 21
1.0
 31
0.0
 73
     1
 44
1.0
  0
ENDBLK
  5
23A
330
238
100
AcDbEntity
  8
0
100
AcDbBlockEnd
  0
BLOCK
  5
243
330
242
100
AcDbEntity
  8
0
100
AcDbBlockBegin
  2
_D_2
 70
     0
 10
0.0
 20
0.0
 30
0.0
  3
_D_2
  1

  0
SOLID
  5
245
330
242
100
AcDbEntity
  8
0
  6
Continuous
 62
     7
370
     0
100
AcDbTrace
 10
90.9591138277
 20
142.3368327402
 30
0.0
 11
90.2091138277
 21
139.3368327402
 31
0.0
 12
91.7091138277
 22
139.3368327402
 32
0.0
 13
91.7091138277
 23
139.3368327402
 33
0.0
  0
SOLID
  5
246
330
242
100
AcDbEntity
  8
0
  6
Continuous
 62
     7
370
     0
100
AcDbTrace
 10
90.9591138277
 20
112.3368327402
 30
0.0
 11
91.7091138277
 21
115.3368327402
 31
0.0
 12
90.2091138277
 22
115.3368327402
 32
0.0
 13
90.2091138277
 23
115.3368327402
 33
0.0
  0
LINE
  5
247
330
242
100
AcDbEntity
  8
0
  6
Continuous
 62
     7
370
     0
100
AcDbLine
 10
99.580682286
 20
142.3368327402
 30
0.0
 11
89.9591138277
 21
142.3368327402
 31
0.0
  0
LINE
  5
248
330
242
100
AcDbEntity
  8
0
  6
Continuous
 62
     7
370
     0
100
AcDbLine
 10
98.580682286
 20
112.3368327402
 30
0.0
 11
89.9591138277
 21
112.3368327402
 31
0.0
  0
LINE
  5
249
330
242
100
AcDbEntity
  8
0
  6
Continuous
 62
     7
370
     0
100
AcDbLine
 10
90.9591138277
 20
142.3368327402
 30
0.0
 11
90.9591138277
 21
112.3368327402
 31
0.0
  0
MTEXT
  5
24A
330
242
100
AcDbEntity
  8
0
  6
Continuous
 62
     7
370
     0
100
AcDbMText
 10
86.4473769713
 20
122.2448191129
 30
0.1
 40
3.5
 41
0.0
 71
     1
 72
     1
  1
30
  7
SLDTEXTSTYLE0
 11
-1.770233605404514E-14
 21
1.0
 31
0.0
 73
     1
 44
1.0
  0
MTEXT
  5
24B
330
242
100
AcDbEntity
  8
0
  6
Continuous
 62
     7
370
     0
100
AcDbMText
 10
86.4473769713
 20
128.3552358382
 30
0.1
 40
3.5
 41
0.0
 71
     1
 72
     1
  1
st
  7
SLDTEXTSTYLE0
 11
-1.770233605404514E-14
 21
1.0
 31
0.0
 73
     1
 44
1.0
  0
ENDBLK
  5
244
330
242
100
AcDbEntity
  8
0
100
AcDbBlockEnd
  0
BLOCK
  5
24F
330
24E
100
AcDbEntity
  8
0
100
AcDbBlockBegin
  2
_D_3
 70
     0
 10
0.0
 20
0.0
 30
0.0
  3
_D_3
  1

  0
SOLID
  5
251
330
24E
100
AcDbEntity
  8
0
  6
Continuous
 62
     7
370
     0
100
AcDbTrace
 10
122.8359782906
 20
112.3368327402
 30
0.0
 11
123.5859782906
 21
115.3368327402
 31
0.0
 12
122.0859782906
 22
115.3368327402
 32
0.0
 13
122.0859782906
 23
115.3368327402
 33
0.0
  0
SOLID
  5
252
330
24E
100
AcDbEntity
  8
0
  6
Continuous
 62
     7
370
     0
100
AcDbTrace
 10
122.8359782906
 20
106.3368327402
 30
0.0
 11
122.0859782906
 21
103.3368327402
 31
0.0
 12
123.5859782906
 22
103.3368327402
 32
0.0
 13
123.5859782906
 23
103.3368327402
 33
0.0
  0
LINE
  5
253
330
24E
100
AcDbEntity
  8
0
  6
Continuous
 62
     7
370
     0
100
AcDbLine
 10
108.0807065092
 20
112.3368327402
 30
0.0
 11
123.8359782906
 21
112.3368327402
 31
0.0
  0
LINE
  5
254
330
24E
100
AcDbEntity
  8
0
  6
Continuous
 62
     7
370
     0
100
AcDbLine
 10
114.3956368621
 20
106.3368327402
 30
0.0
 11
123.8359782906
 21
106.3368327402
 31
0.0
  0
LINE
  5
255
330
24E
100
AcDbEntity
  8
0
  6
Continuous
 62
     7
370
     0
100
AcDbLine
 10
122.8359782906
 20
112.3368327402
 30
0.0
 11
122.8359782906
 21
117.3368327402
 31
0.0
  0
LINE
  5
256
330
24E
100
AcDbEntity
  8
0
  6
Continuous
 62
     7
370
     0
100
AcDbLine
 10
122.8359782906
 20
112.3368327402
 30
0.0
 11
122.8359782906
 21
106.3368327402
 31
0.0
  0
LINE
  5
257
330
24E
100
AcDbEntity
  8
0
  6
Continuous
 62
     7
370
     0
100
AcDbLine
 10
122.8359782906
 20
106.3368327402
 30
0.0
 11
122.8359782906
 21
101.3368327402
 31
0.0
  0
MTEXT
  5
258
330
24E
100
AcDbEntity
  8
0
  6
Continuous
 62
     7
370
     0
100
AcDbMText
 10
118.3242414343
 20
107.3000272427
 30
0.1
 40
3.5
 41
0.0
 71
     1
 72
     1
  1
6
  7
SLDTEXTSTYLE0
 11
-1.770233605404514E-14
 21
1.0
 31
0.0
 73
     1
 44
1.0
  0
ENDBLK
  5
250
330
24E
100
AcDbEntity
  8
0
100
AcDbBlockEnd
  0
BLOCK
  5
25B
330
25A
100
AcDbEntity
  8
0
100
AcDbBlockBegin
  2
_D_4
 70
     0
 10
0.0
 20
0.0
 30
0.0
  3
_D_4
  1

  0
SOLID
  5
25D
330
25A
100
AcDbEntity
  8
0
  6
Continuous
 62
     7
370
     0
100
AcDbTrace
 10
122.8359782906
 20
106.3368327402
 30
0.0
 11
123.5859782906
 21
109.3368327402
 31
0.0
 12
122.0859782906
 22
109.3368327402
 32
0.0
 13
122.0859782906
 23
109.3368327402
 33
0.0
  0
SOLID
  5
25E
330
25A
100
AcDbEntity
  8
0
  6
Continuous
 62
     7
370
     0
100
AcDbTrace
 10
122.8359782906
 20
91.3368327402
 30
0.0
 11
122.0859782906
 21
88.3368327402
 31
0.0
 12
123.5859782906
 22
88.3368327402
 32
0.0
 13
123.5859782906
 23
88.3368327402
 33
0.0
  0
LINE
  5
25F
330
25A
100
AcDbEntity
  8
0
  6
Continuous
 62
     7
370
     0
100
AcDbLine
 10
114.3956368621
 20
106.3368327402
 30
0.0
 11
123.8359782906
 21
106.3368327402
 31
0.0
  0
LINE
  5
260
330
25A
100
AcDbEntity
  8
0
  6
Continuous
 62
     7
370
     0
100
AcDbLine
 10
109.580682286
 20
91.3368327402
 30
0.0
 11
123.8359782906
 21
91.3368327402
 31
0.0
  0
LINE
  5
261
330
25A
100
AcDbEntity
  8
0
  6
Continuous
 62
     7
370
     0
100
AcDbLine
 10
122.8359782906
 20
106.3368327402
 30
0.0
 11
122.8359782906
 21
111.3368327402
 31
0.0
  0
LINE
  5
262
330
25A
100
AcDbEntity
  8
0
  6
Continuous
 62
     7
370
     0
100
AcDbLine
 10
122.8359782906
 20
106.3368327402
 30
0.0
 11
122.8359782906
 21
91.3368327402
 31
0.0
  0
LINE
  5
263
330
25A
100
AcDbEntity
  8
0
  6
Continuous
 62
     7
370
     0
100
AcDbLine
 10
122.8359782906
 20
91.3368327402
 30
0.0
 11
122.8359782906
 21
86.3368327402
 31
0.0
  0
MTEXT
  5
264
330
25A
100
AcDbEntity
  8
0
  6
Continuous
 62
     7
370
     0
100
AcDbMText
 10
118.3242414343
 20
95.7816243776
 30
0.1
 40
3.5
 41
0.0
 71
     1
 72
     1
  1
15
  7
SLDTEXTSTYLE0
 11
-1.770233605404514E-14
 21
1.0
 31
0.0
 73
     1
 44
1.0
  0
ENDBLK
  5
25C
330
25A
100
AcDbEntity
  8
0
100
AcDbBlockEnd
  0
BLOCK
  5
267
330
266
100
AcDbEntity
  8
0
100
AcDbBlockBegin
  2
_D_5
 70
     0
 10
0.0
 20
0.0
 30
0.0
  3
_D_5
  1

  0
SOLID
  5
269
330
266
100
AcDbEntity
  8
0
  6
Continuous
 62
     7
370
     0
100
AcDbTrace
 10
134.2412463586
 20
106.3368327402
 30
0.0
 11
133.4912463586
 21
103.3368327402
 31
0.0
 12
134.9912463586
 22
103.3368327402
 32
0.0
 13
134.9912463586
 23
103.3368327402
 33
0.0
  0
SOLID
  5
26A
330
266
100
AcDbEntity
  8
0
  6
Continuous
 62
     7
370
     0
100
AcDbTrace
 10
134.2412463586
 20
89.3368327402
 30
0.0
 11
134.9912463586
 21
92.3368327402
 31
0.0
 12
133.4912463586
 22
92.3368327402
 32
0.0
 13
133.4912463586
 23
92.3368327402
 33
0.0
  0
LINE
  5
26B
330
266
100
AcDbEntity
  8
0
  6
Continuous
 62
     7
370
     0
100
AcDbLine
 10
114.3956368621
 20
106.3368327402
 30
0.0
 11
135.2412463586
 21
106.3368327402
 31
0.0
  0
LINE
  5
26C
330
266
100
AcDbEntity
  8
0
  6
Continuous
 62
     7
370
     0
100
AcDbLine
 10
107.080682286
 20
89.3368327402
 30
0.0
 11
135.2412463586
 21
89.3368327402
 31
0.0
  0
LINE
  5
26D
330
266
100
AcDbEntity
  8
0
  6
Continuous
 62
     7
370
     0
100
AcDbLine
 10
134.2412463586
 20
106.3368327402
 30
0.0
 11
134.2412463586
 21
89.3368327402
 31
0.0
  0
MTEXT
  5
26E
330
266
100
AcDbEntity
  8
0
  6
Continuous
 62
     7
370
     0
100
AcDbMText
 10
129.7295095023
 20
94.7816243776
 30
0.1
 40
3.5
 41
0.0
 71
     1
 72
     1
  1
17
  7
SLDTEXTSTYLE0
 11
-1.592597921464489E-14
 21
1.0
 31
0.0
 73
     1
 44
1.0
  0
ENDBLK
  5
268
330
266
100
AcDbEntity
  8
0
100
AcDbBlockEnd
  0
BLOCK
  5
271
330
270
100
AcDbEntity
  8
0
100
AcDbBlockBegin
  2
_D_6
 70
     0
 10
0.0
 20
0.0
 30
0.0
  3
_D_6
  1

  0
SOLID
  5
273
330
270
100
AcDbEntity
  8
0
  6
Continuous
 62
     7
370
     0
100
AcDbTrace
 10
83.8798955643
 20
106.3368327402
 30
0.0
 11
83.1298955643
 21
103.3368327402
 31
0.0
 12
84.6298955643
 22
103.3368327402
 32
0.0
 13
84.6298955643
 23
103.3368327402
 33
0.0
  0
SOLID
  5
274
330
270
100
AcDbEntity
  8
0
  6
Continuous
 62
     7
370
     0
100
AcDbTrace
 10
83.8798955643
 20
109.3368327402
 30
0.0
 11
84.6298955643
 21
112.3368327402
 31
0.0
 12
83.1298955643
 22
112.3368327402
 32
0.0
 13
83.1298955643
 23
112.3368327402
 33
0.0
  0
LINE
  5
275
330
270
100
AcDbEntity
  8
0
  6
Continuous
 62
     7
370
     0
100
AcDbLine
 10
92.7657277098
 20
106.3368327402
 30
0.0
 11
82.8798955643
 21
106.3368327402
 31
0.0
  0
LINE
  5
276
330
270
100
AcDbEntity
  8
0
  6
Continuous
 62
     7
370
     0
100
AcDbLine
 10
92.7657277098
 20
109.3368327402
 30
0.0
 11
82.8798955643
 21
109.3368327402
 31
0.0
  0
LINE
  5
277
330
270
100
AcDbEntity
  8
0
  6
Continuous
 62
     7
370
     0
100
AcDbLine
 10
83.8798955643
 20
106.3368327402
 30
0.0
 11
83.8798955643
 21
101.3368327402
 31
0.0
  0
LINE
  5
278
330
270
100
AcDbEntity
  8
0
  6
Continuous
 62
     7
370
     0
100
AcDbLine
 10
83.8798955643
 20
106.3368327402
 30
0.0
 11
83.8798955643
 21
109.3368327402
 31
0.0
  0
LINE
  5
279
330
270
100
AcDbEntity
  8
0
  6
Continuous
 62
     7
370
     0
100
AcDbLine
 10
83.8798955643
 20
109.3368327402
 30
0.0
 11
83.8798955643
 21
118.524821697
 31
0.0
  0
MTEXT
  5
27A
330
270
100
AcDbEntity
  8
0
  6
Continuous
 62
     7
370
     0
100
AcDbMText
 10
79.368158708
 20
114.451210702
 30
0.1
 40
3.5
 41
0.0
 71
     1
 72
     1
  1
3
  7
SLDTEXTSTYLE0
 11
-9.042596461968916E-15
 21
1.0
 31
0.0
 73
     1
 44
1.0
  0
ENDBLK
  5
272
330
270
100
AcDbEntity
  8
0
100
AcDbBlockEnd
  0
BLOCK
  5
27D
330
27C
100
AcDbEntity
  8
0
100
AcDbBlockBegin
  2
_D_7
 70
     0
 10
0.0
 20
0.0
 30
0.0
  3
_D_7
  1

  0
SOLID
  5
27F
330
27C
100
AcDbEntity
  8
0
  6
Continuous
 62
     7
370
     0
100
AcDbTrace
 10
100.580682286
 20
79.3366827402
 30
0.0
 11
97.580682286
 21
80.0866827402
 31
0.0
 12
97.580682286
 22
78.5866827402
 32
0.0
 13
97.580682286
 23
78.5866827402
 33
0.0
  0
SOLID
  5
280
330
27C
100
AcDbEntity
  8
0
  6
Continuous
 62
     7
370
     0
100
AcDbTrace
 10
106.580682286
 20
79.3366827402
 30
0.0
 11
109.580682286
 21
78.5866827402
 31
0.0
 12
109.580682286
 22
80.0866827402
 32
0.0
 13
109.580682286
 23
80.0866827402
 33
0.0
  0
LINE
  5
281
330
27C
100
AcDbEntity
  8
0
  6
Continuous
 62
     7
370
     0
100
AcDbLine
 10
100.580682286
 20
88.8368327402
 30
0.0
 11
100.580682286
 21
78.3366827402
 31
0.0
  0
LINE
  5
282
330
27C
100
AcDbEntity
  8
0
  6
Continuous
 62
     7
370
     0
100
AcDbLine
 10
106.580682286
 20
88.8368327402
 30
0.0
 11
106.580682286
 21
78.3366827402
 31
0.0
  0
LINE
  5
283
330
27C
100
AcDbEntity
  8
0
  6
Continuous
 62
     7
370
     0
100
AcDbLine
 10
100.580682286
 20
79.3366827402
 30
0.0
 11
95.580682286
 21
79.3366827402
 31
0.0
  0
LINE
  5
284
330
27C
100
AcDbEntity
  8
0
  6
Continuous
 62
     7
370
     0
100
AcDbLine
 10
100.580682286
 20
79.3366827402
 30
0.0
 11
106.580682286
 21
79.3366827402
 31
0.0
  0
LINE
  5
285
330
27C
100
AcDbEntity
  8
0
  6
Continuous
 62
     7
370
     0
100
AcDbLine
 10
106.580682286
 20
79.3366827402
 30
0.0
 11
122.9866402882
 21
79.3366827402
 31
0.0
  0
MTEXT
  5
286
330
27C
100
AcDbEntity
  8
0
  6
Continuous
 62
     7
370
     0
100
AcDbMText
 10
115.0430985453
 20
83.8484200622
 30
0.1
 40
3.5
 41
0.0
 71
     1
 72
     1
  1
%%c
  7
SLDTEXTSTYLE0
 73
     1
 44
1.0
  0
MTEXT
  5
287
330
27C
100
AcDbEntity
  8
0
  6
Continuous
 62
     7
370
     0
100
AcDbMText
 10
118.9130290604
 20
83.8484200622
 30
0.1
 40
3.5
 41
0.0
 71
     1
 72
     1
  1
6
  7
SLDTEXTSTYLE0
 73
     1
 44
1.0
  0
ENDBLK
  5
27E
330
27C
100
AcDbEntity
  8
0
100
AcDbBlockEnd
  0
BLOCK
  5
28A
330
289
100
AcDbEntity
  8
0
100
AcDbBlockBegin
  2
_D_8
 70
     0
 10
0.0
 20
0.0
 30
0.0
  3
_D_8
  1

  0
SOLID
  5
28C
330
289
100
AcDbEntity
  8
0
  6
Continuous
 62
     7
370
     0
100
AcDbTrace
 10
93.76572771
 20
67.3366827402
 30
0.0
 11
90.76572771
 21
68.0866827402
 31
0.0
 12
90.76572771
 22
66.5866827402
 32
0.0
 13
90.76572771
 23
66.5866827402
 33
0.0
  0
SOLID
  5
28D
330
289
100
AcDbEntity
  8
0
  6
Continuous
 62
     7
370
     0
100
AcDbTrace
 10
113.395636862
 20
67.3366827402
 30
0.0
 11
116.395636862
 21
66.5866827402
 31
0.0
 12
116.395636862
 22
68.0866827402
 32
0.0
 13
116.395636862
 23
68.0866827402
 33
0.0
  0
LINE
  5
28E
330
289
100
AcDbEntity
  8
0
  6
Continuous
 62
     7
370
     0
100
AcDbLine
 10
93.76572771
 20
92.8896271187
 30
0.0
 11
93.76572771
 21
66.3366827402
 31
0.0
  0
LINE
  5
28F
330
289
100
AcDbEntity
  8
0
  6
Continuous
 62
     7
370
     0
100
AcDbLine
 10
113.395636862
 20
92.8896271187
 30
0.0
 11
113.395636862
 21
66.3366827402
 31
0.0
  0
LINE
  5
290
330
289
100
AcDbEntity
  8
0
  6
Continuous
 62
     7
370
     0
100
AcDbLine
 10
93.76572771
 20
67.3366827402
 30
0.0
 11
88.76572771
 21
67.3366827402
 31
0.0
  0
LINE
  5
291
330
289
100
AcDbEntity
  8
0
  6
Continuous
 62
     7
370
     0
100
AcDbLine
 10
93.76572771
 20
67.3366827402
 30
0.0
 11
113.395636862
 21
67.3366827402
 31
0.0
  0
LINE
  5
292
330
289
100
AcDbEntity
  8
0
  6
Continuous
 62
     7
370
     0
100
AcDbLine
 10
113.395636862
 20
67.3366827402
 30
0.0
 11
118.395636862
 21
67.3366827402
 31
0.0
  0
MTEXT
  5
293
330
289
100
AcDbEntity
  8
0
  6
Continuous
 62
     7
370
     0
100
AcDbMText
 10
98.4886686587
 20
71.8484195966
 30
0.1
 40
3.5
 41
0.0
 71
     1
 72
     1
  1
19.6
  7
SLDTEXTSTYLE0
 73
     1
 44
1.0
  0
ENDBLK
  5
28B
330
289
100
AcDbEntity
  8
0
100
AcDbBlockEnd
  0
BLOCK
  5
296
330
295
100
AcDbEntity
  8
0
100
AcDbBlockBegin
  2
_D_9
 70
     0
 10
0.0
 20
0.0
 30
0.0
  3
_D_9
  1

  0
SOLID
  5
298
330
295
100
AcDbEntity
  8
0
  6
Continuous
 62
     7
370
     0
100
AcDbTrace
 10
109.080682286
 20
176.3369827402
 30
0.0
 11
112.080682286
 21
175.5869827402
 31
0.0
 12
112.080682286
 22
177.0869827402
 32
0.0
 13
112.080682286
 23
177.0869827402
 33
0.0
  0
SOLID
  5
299
330
295
100
AcDbEntity
  8
0
  6
Continuous
 62
     7
370
     0
100
AcDbTrace
 10
98.080682286
 20
176.3369827402
 30
0.0
 11
95.080682286
 21
177.0869827402
 31
0.0
 12
95.080682286
 22
175.5869827402
 32
0.0
 13
95.080682286
 23
175.5869827402
 33
0.0
  0
LINE
  5
29A
330
295
100
AcDbEntity
  8
0
  6
Continuous
 62
     7
370
     0
100
AcDbLine
 10
109.080682286
 20
167.3368327402
 30
0.0
 11
109.080682286
 21
177.3369827402
 31
0.0
  0
LINE
  5
29B
330
295
100
AcDbEntity
  8
0
  6
Continuous
 62
     7
370
     0
100
AcDbLine
 10
98.080682286
 20
167.3368327402
 30
0.0
 11
98.080682286
 21
177.3369827402
 31
0.0
  0
LINE
  5
29C
330
295
100
AcDbEntity
  8
0
  6
Continuous
 62
     7
370
     0
100
AcDbLine
 10
109.080682286
 20
176.3369827402
 30
0.0
 11
114.080682286
 21
176.3369827402
 31
0.0
  0
LINE
  5
29D
330
295
100
AcDbEntity
  8
0
  6
Continuous
 62
     7
370
     0
100
AcDbLine
 10
109.080682286
 20
176.3369827402
 30
0.0
 11
98.080682286
 21
176.3369827402
 31
0.0
  0
LINE
  5
29E
330
295
100
AcDbEntity
  8
0
  6
Continuous
 62
     7
370
     0
100
AcDbLine
 10
98.080682286
 20
176.3369827402
 30
0.0
 11
93.080682286
 21
176.3369827402
 31
0.0
  0
MTEXT
  5
29F
330
295
100
AcDbEntity
  8
0
  6
Continuous
 62
     7
370
     0
100
AcDbMText
 10
98.5905087822
 20
180.8487200622
 30
0.1
 40
3.5
 41
0.0
 71
     1
 72
     1
  1
%%c
  7
SLDTEXTSTYLE0
 73
     1
 44
1.0
  0
MTEXT
  5
2A0
330
295
100
AcDbEntity
  8
0
  6
Continuous
 62
     7
370
     0
100
AcDbMText
 10
102.4604392973
 20
180.8487200622
 30
0.1
 40
3.5
 41
0.0
 71
     1
 72
     1
  1
11
  7
SLDTEXTSTYLE0
 73
     1
 44
1.0
  0
ENDBLK
  5
297
330
295
100
AcDbEntity
  8
0
100
AcDbBlockEnd
  0
BLOCK
  5
2A2
330
2A1
100
AcDbEntity
  8
0
100
AcDbBlockBegin
  2
SW_NOTE_3
 70
     0
 10
0.0
 20
0.0
 30
0.0
  3
SW_NOTE_3
  1

  0
LINE
  5
2A4
330
2A1
100
AcDbEntity
  8
0
  6
Continuous
 62
     0
370
     0
100
AcDbLine
 10
-0.0171429308
 20
0.013111004
 30
0.0
 11
18.2509472235
 21
0.013111004
 31
0.0
  0
LINE
  5
2A5
330
2A1
100
AcDbEntity
  8
0
  6
Continuous
 62
     0
370
     0
100
AcDbLine
 10
18.2509472235
 20
0.013111004
 30
0.0
 11
-0.0171429308
 21
0.013111004
 31
0.0
  0
LINE
  5
2A6
330
2A1
100
AcDbEntity
  8
0
  6
Continuous
 62
     0
370
     0
100
AcDbLine
 10
-0.0171429308
 20
0.013111004
 30
0.0
 11
18.2509472235
 21
0.013111004
 31
0.0
  0
LINE
  5
2A7
330
2A1
100
AcDbEntity
  8
0
  6
Continuous
 62
     0
370
     0
100
AcDbLine
 10
18.2509472235
 20
0.013111004
 30
0.0
 11
-0.0171429308
 21
0.013111004
 31
0.0
  0
LINE
  5
2A8
330
2A1
100
AcDbEntity
  8
0
  6
Continuous
 62
     0
370
     0
100
AcDbLine
 10
-0.0171429308
 20
0.013111004
 30
0.0
 11
18.2509472235
 21
0.013111004
 31
0.0
  0
LINE
  5
2A9
330
2A1
100
AcDbEntity
  8
0
  6
Continuous
 62
     0
370
     0
100
AcDbLine
 10
18.2509472235
 20
0.013111004
 30
0.0
 11
-0.0171429308
 21
0.013111004
 31
0.0
  0
MTEXT
  5
2AA
330
2A1
100
AcDbEntity
  8
0
  6
Continuous
 62
     0
370
     0
100
AcDbMText
 10
0.0
 20
4.5117370892
 30
0.0
 40
3.5
 41
0.0
 71
     1
 72
     1
  1
M12 P=1.0
  7
SLDTEXTSTYLE0
 73
     1
 44
1.0
  0
ENDBLK
  5
2A3
330
2A1
100
AcDbEntity
  8
0
100
AcDbBlockEnd
  0
BLOCK
  5
31D
330
31C
100
AcDbEntity
  8
0
100
AcDbBlockBegin
  2
SW_CENTERMARKSYMBOL_0
 70
     0
 10
0.0
 20
0.0
 30
0.0
  3
SW_CENTERMARKSYMBOL_0
  1

  0
LINE
  5
31F
330
31C
100
AcDbEntity
  8
0
  6
Continuous
 62
     0
370
     0
100
AcDbLine
 10
0.0
 20
0.0
 30
0.0
 11
0.0
 21
2.5
 31
0.0
  0
LINE
  5
320
330
31C
100
AcDbEntity
  8
0
  6
Continuous
 62
     0
370
     0
100
AcDbLine
 10
0.0
 20
0.0
 30
0.0
 11
-2.5
 21
0.0
 31
0.0
  0
LINE
  5
321
330
31C
100
AcDbEntity
  8
0
  6
Continuous
 62
     0
370
     0
100
AcDbLine
 10
0.0
 20
0.0
 30
0.0
 11
0.0
 21
-2.5
 31
0.0
  0
LINE
  5
322
330
31C
100
AcDbEntity
  8
0
  6
Continuous
 62
     0
370
     0
100
AcDbLine
 10
0.0
 20
0.0
 30
0.0
 11
2.5
 21
0.0
 31
0.0
  0
LINE
  5
323
330
31C
100
AcDbEntity
  8
0
  6
Continuous
 62
     0
370
     0
100
AcDbLine
 10
0.0
 20
5.0
 30
0.0
 11
0.0
 21
8.0
 31
0.0
  0
LINE
  5
324
330
31C
100
AcDbEntity
  8
0
  6
Continuous
 62
     0
370
     0
100
AcDbLine
 10
-5.0
 20
0.0
 30
0.0
 11
-8.0
 21
0.0
 31
0.0
  0
LINE
  5
325
330
31C
100
AcDbEntity
  8
0
  6
Continuous
 62
     0
370
     0
100
AcDbLine
 10
0.0
 20
-5.0
 30
0.0
 11
0.0
 21
-8.0
 31
0.0
  0
LINE
  5
326
330
31C
100
AcDbEntity
  8
0
  6
Continuous
 62
     0
370
     0
100
AcDbLine
 10
5.0
 20
0.0
 30
0.0
 11
8.0
 21
0.0
 31
0.0
  0
ENDBLK
  5
31E
330
31C
100
AcDbEntity
  8
0
100
AcDbBlockEnd
  0
ENDSEC
  0
SECTION
  2
ENTITIES
  0
LINE
  5
44
330
1F
100
AcDbEntity
  8
0
  6
Continuous
 62
     7
370
     0
100
AcDbLine
 10
20.2604743903
 20
285.0
 30
0.0
 11
196.7604743903
 21
285.0
 31
0.0
  0
LINE
  5
45
330
1F
100
AcDbEntity
  8
0
  6
Continuous
 62
     7
370
     0
100
AcDbLine
 10
20.2604743903
 20
285.0
 30
0.0
 11
20.2604743903
 21
10.0
 31
0.0
  0
LINE
  5
46
330
1F
100
AcDbEntity
  8
0
  6
Continuous
 62
     7
370
     0
100
AcDbLine
 10
20.2604743903
 20
10.0
 30
0.0
 11
196.7604743903
 21
10.0
 31
0.0
  0
LINE
  5
47
330
1F
100
AcDbEntity
  8
0
  6
Continuous
 62
     7
370
     0
100
AcDbLine
 10
196.7604743903
 20
285.0
 30
0.0
 11
196.7604743903
 21
10.0
 31
0.0
  0
LINE
  5
48
330
1F
100
AcDbEntity
  8
0
  6
Continuous
 62
     7
370
     0
100
AcDbLine
 10
127.0104743903
 20
50.75
 30
0.0
 11
196.7604743903
 21
50.75
 31
0.0
  0
LINE
  5
49
330
1F
100
AcDbEntity
  8
0
  6
Continuous
 62
     7
370
     0
100
AcDbLine
 10
127.0104743903
 20
50.75
 30
0.0
 11
127.0104743903
 21
10.0
 31
0.0
  0
LINE
  5
4A
330
1F
100
AcDbEntity
  8
0
  6
Continuous
 62
     7
370
     0
100
AcDbLine
 10
127.0104743903
 20
22.75
 30
0.0
 11
196.7604743903
 21
22.75
 31
0.0
  0
LINE
  5
4B
330
1F
100
AcDbEntity
  8
0
  6
Continuous
 62
     7
370
     0
100
AcDbLine
 10
127.0104743903
 20
36.75
 30
0.0
 11
196.7604743903
 21
36.75
 31
0.0
  0
INSERT
  5
57
330
1F
100
AcDbEntity
  8
0
  6
Continuous
 62
     7
370
     0
100
AcDbBlockReference
  2
SW_NOTE_0
 10
120.7991727932
 20
177.6762159243
 30
0.0
  0
INSERT
  5
62
330
1F
100
AcDbEntity
  8
0
  6
Continuous
 62
     7
370
     0
100
AcDbBlockReference
  2
SW_NOTE_1
 10
62.0989224836
 20
163.1086881323
 30
0.0
  0
INSERT
  5
6D
330
1F
100
AcDbEntity
  8
0
  6
Continuous
 62
     7
370
     0
100
AcDbBlockReference
  2
SW_NOTE_2
 10
83.9904024117
 20
200.2698624824
 30
0.0
  0
MTEXT
  5
6E
330
1F
100
AcDbEntity
  8
0
  6
Continuous
 62
     7
370
     0
100
AcDbMText
 10
161.8183451164
 20
30.4171582345
 30
0.0
 40
4.2333333333
 41
0.0
 71
     2
 72
     1
  1
VFIL-S-30A
  7
SLDTEXTSTYLE0
 73
     1
 44
1.0
  0
MTEXT
  5
6F
330
1F
100
AcDbEntity
  8
0
  6
Continuous
 62
     7
370
     0
100
AcDbMText
 10
159.9011939813
 20
43.9409718514
 30
0.0
 40
4.2333333333
 41
0.0
 71
     2
 72
     1
  1
吸着金具・スモール用(M5)
  7
SLDTEXTSTYLE0
 73
     1
 44
1.0
  0
MTEXT
  5
70
330
1F
100
AcDbEntity
  8
0
  6
Continuous
 62
     7
370
     0
100
AcDbMText
 10
162.604993748
 20
16.8228189052
 30
0.0
 40
4.2333333333
 41
0.0
 71
     2
 72
     1
  1
210977
  7
SLDTEXTSTYLE0
 73
     1
 44
1.0
  0
INSERT
  5
77
330
1F
100
AcDbEntity
  8
0
  6
Continuous
 62
     7
370
     0
100
AcDbBlockReference
  2
_OPEN30
 10
112.880682286
 20
155.3506216034
 30
2.8873384577
 41
3.0
 42
3.0
 50
250.6238097313
  0
LINE
  5
78
330
1F
100
AcDbEntity
  8
0
  6
Continuous
 62
     7
370
     0
100
AcDbLine
 10
112.880682286
 20
155.3506216034
 30
0.0
 11
120.699881376
 21
177.5839264531
 31
0.0
  0
INSERT
  5
79
330
1F
100
AcDbEntity
  8
0
  6
Continuous
 62
     7
370
     0
100
AcDbBlockReference
  2
_OPEN30
 10
86.780682286
 20
153.6756680178
 30
0.0
 41
3.0
 42
3.0
 50
330.4159885839
  0
LINE
  5
7A
330
1F
100
AcDbEntity
  8
0
  6
Continuous
 62
     7
370
     0
100
AcDbLine
 10
86.780682286
 20
153.6756680178
 30
0.0
 11
70.1660735469
 21
163.1079478055
 31
0.0
  0
INSERT
  5
7B
330
1F
100
AcDbEntity
  8
0
  6
Continuous
 62
     7
370
     0
100
AcDbBlockReference
  2
_OPEN30
 10
102.3964601678
 20
218.0985984419
 30
38.5
 41
3.0
 42
3.0
 50
51.0463866466
  0
LINE
  5
7C
330
1F
100
AcDbEntity
  8
0
  6
Continuous
 62
     7
370
     0
100
AcDbLine
 10
102.3964601678
 20
218.0985984419
 30
0.0
 11
87.9596678529
 21
200.2411032028
 31
0.0
  0
LINE
  5
7D
330
1F
100
AcDbEntity
  8
0
  6
Continuous
 62
     7
370
     0
100
AcDbLine
 10
106.5806823121
 20
89.8368341707
 30
0.0
 11
106.5806823121
 21
90.6368328117
 31
0.0
  0
LINE
  5
7E
330
1F
100
AcDbEntity
  8
0
  6
Continuous
 62
     7
370
     0
100
AcDbLine
 10
98.0806823158
 20
166.3368327402
 30
0.0
 11
98.0806823158
 21
164.3368326452
 31
0.0
  0
LINE
  5
7F
330
1F
100
AcDbEntity
  8
0
  6
Continuous
 62
     7
370
     0
100
AcDbLine
 10
99.6806823918
 20
164.3368326452
 30
0.0
 11
99.6806823918
 21
157.3368331276
 31
0.0
  0
LINE
  5
80
330
1F
100
AcDbEntity
  8
0
  6
Continuous
 62
     7
370
     0
100
AcDbLine
 10
108.0806820923
 20
142.3368325316
 30
0.0
 11
108.0806820923
 21
145.1021173828
 31
0.0
  0
LINE
  5
81
330
1F
100
AcDbEntity
  8
0
  6
Continuous
 62
     7
370
     0
100
AcDbLine
 10
108.0806820923
 20
146.1213307314
 30
0.0
 11
108.0806820923
 21
149.3368318163
 31
0.0
  0
LINE
  5
82
330
1F
100
AcDbEntity
  8
0
  6
Continuous
 62
     7
370
     0
100
AcDbLine
 10
106.5806823121
 20
112.3368313395
 30
0.0
 11
106.5806823121
 21
114.8034615301
 31
0.0
  0
LINE
  5
83
330
1F
100
AcDbEntity
  8
0
  6
Continuous
 62
     7
370
     0
100
AcDbLine
 10
106.5806823121
 20
115.8060116552
 30
0.0
 11
106.5806823121
 21
119.8023652517
 31
0.0
  0
LINE
  5
84
330
1F
100
AcDbEntity
  8
0
  6
Continuous
 62
     7
370
     0
100
AcDbLine
 10
106.5806823121
 20
120.8082308852
 30
0.0
 11
106.5806823121
 21
124.8022822522
 31
0.0
  0
LINE
  5
85
330
1F
100
AcDbEntity
  8
0
  6
Continuous
 62
     7
370
     0
100
AcDbLine
 10
106.5806823121
 20
125.8063560211
 30
0.0
 11
106.5806823121
 21
129.8017820202
 31
0.0
  0
LINE
  5
86
330
1F
100
AcDbEntity
  8
0
  6
Continuous
 62
     7
370
     0
100
AcDbLine
 10
106.5806823121
 20
130.8063736044
 30
0.0
 11
106.5806823121
 21
134.802716025
 31
0.0
  0
LINE
  5
87
330
1F
100
AcDbEntity
  8
0
  6
Continuous
 62
     7
370
     0
100
AcDbLine
 10
106.5806823121
 20
135.8074938737
 30
0.0
 11
106.5806823121
 21
139.8018842422
 31
0.0
  0
LINE
  5
88
330
1F
100
AcDbEntity
  8
0
  6
Continuous
 62
     7
370
     0
100
AcDbLine
 10
106.5806823121
 20
140.8058332138
 30
0.0
 11
106.5806823121
 21
142.3368325316
 31
0.0
  0
LINE
  5
89
330
1F
100
AcDbEntity
  8
0
  6
Continuous
 62
     7
370
     0
100
AcDbLine
 10
106.0806822301
 20
89.3368331574
 30
0.0
 11
106.5806823121
 21
89.8368341707
 31
0.0
  0
LINE
  5
8A
330
1F
100
AcDbEntity
  8
0
  6
Continuous
 62
     7
370
     0
100
AcDbLine
 10
99.0806824797
 20
149.3368318163
 30
0.0
 11
99.0806824797
 21
144.5838922494
 31
0.0
  0
LINE
  5
8B
330
1F
100
AcDbEntity
  8
0
  6
Continuous
 62
     7
370
     0
100
AcDbLine
 10
99.0806824797
 20
143.5671562188
 30
0.0
 11
99.0806824797
 21
142.3368325316
 31
0.0
  0
LINE
  5
8C
330
1F
100
AcDbEntity
  8
0
  6
Continuous
 62
     7
370
     0
100
AcDbLine
 10
100.5806822599
 20
142.3368325316
 30
0.0
 11
100.5806822599
 21
139.8866047942
 31
0.0
  0
LINE
  5
8D
330
1F
100
AcDbEntity
  8
0
  6
Continuous
 62
     7
370
     0
100
AcDbLine
 10
100.5806822599
 20
138.8824546569
 30
0.0
 11
100.5806822599
 21
134.8851865016
 31
0.0
  0
LINE
  5
8E
330
1F
100
AcDbEntity
  8
0
  6
Continuous
 62
     7
370
     0
100
AcDbLine
 10
100.5806822599
 20
133.881500163
 30
0.0
 11
100.5806822599
 21
129.8871470474
 31
0.0
  0
LINE
  5
8F
330
1F
100
AcDbEntity
  8
0
  6
Continuous
 62
     7
370
     0
100
AcDbLine
 10
100.5806822599
 20
128.8824064516
 30
0.0
 11
100.5806822599
 21
124.8858107113
 31
0.0
  0
LINE
  5
90
330
1F
100
AcDbEntity
  8
0
  6
Continuous
 62
     7
370
     0
100
AcDbLine
 10
100.5806822599
 20
123.881371864
 30
0.0
 11
100.5806822599
 21
119.8846755408
 31
0.0
  0
LINE
  5
91
330
1F
100
AcDbEntity
  8
0
  6
Continuous
 62
     7
370
     0
100
AcDbLine
 10
100.5806822599
 20
118.8824942194
 30
0.0
 11
100.5806822599
 21
114.8861033701
 31
0.0
  0
LINE
  5
92
330
1F
100
AcDbEntity
  8
0
  6
Continuous
 62
     7
370
     0
100
AcDbLine
 10
100.5806822599
 20
113.8797944271
 30
0.0
 11
100.5806822599
 21
112.3368313395
 31
0.0
  0
LINE
  5
93
330
1F
100
AcDbEntity
  8
0
  6
Continuous
 62
     7
370
     0
100
AcDbLine
 10
101.580682191
 20
91.33682976
 30
0.0
 11
101.580682191
 21
91.236850419
 31
0.0
  0
LINE
  5
94
330
1F
100
AcDbEntity
  8
0
  6
Continuous
 62
     7
370
     0
100
AcDbLine
 10
100.5806822599
 20
90.6368328117
 30
0.0
 11
100.5806822599
 21
89.8368341707
 31
0.0
  0
LINE
  5
95
330
1F
100
AcDbEntity
  8
0
  6
Continuous
 62
     7
370
     0
100
AcDbLine
 10
100.5806822599
 20
89.8368341707
 30
0.0
 11
101.0806823419
 21
89.3368331574
 31
0.0
  0
LINE
  5
96
330
1F
100
AcDbEntity
  8
0
  6
Continuous
 62
     7
370
     0
100
AcDbLine
 10
109.0806822562
 20
164.3368326452
 30
0.0
 11
109.0806822562
 21
166.3368327402
 31
0.0
  0
LINE
  5
97
330
1F
100
AcDbEntity
  8
0
  6
Continuous
 62
     7
370
     0
100
AcDbLine
 10
105.580682381
 20
91.2368355178
 30
0.0
 11
105.580682381
 21
91.33682976
 31
0.0
  0
LINE
  5
98
330
1F
100
AcDbEntity
  8
0
  6
Continuous
 62
     7
370
     0
100
AcDbLine
 10
107.4806821802
 20
157.3368331276
 30
0.0
 11
107.4806821802
 21
164.3368326452
 31
0.0
  0
SPLINE
  5
99
330
1F
100
AcDbEntity
  8
0
  6
Continuous
 62
     7
370
     0
100
AcDbSpline
210
0.0
220
0.0
230
1.0
 70
     8
 71
     3
 72
    14
 73
    10
 74
     0
 42
0.00000001
 43
0.00000001
 12
1.0
 22
0.0
 32
0.0
 13
1.0
 23
0.0
 33
0.0
 40
0.0
 40
0.0
 40
0.0
 40
0.0
 40
0.1492908768057489
 40
0.2913978099058473
 40
0.4265820985054286
 40
0.5550618127453393
 40
0.791549553141364
 40
0.8995355527701059
 40
1.0
 40
1.0
 40
1.0
 40
1.0
 10
100.037398029963
 20
129.7906135999224
 30
0.0
 10
99.83580129354284
 20
129.7517422595118
 30
0.0
 10
99.44230874574674
 20
129.6758700849614
 30
0.0
 10
98.9401542337167
 20
129.5571606392324
 30
0.0
 10
98.51887935292933
 20
129.43318315743
 30
0.0
 10
98.07620785683224
 20
129.2598819996152
 30
0.0
 10
97.76785566125655
 20
129.0520685037484
 30
0.0
 10
97.60277102843493
 20
128.7967111147538
 30
0.0
 10
97.58821121850795
 20
128.6523474569221
 30
0.0
 10
97.58119399557498
 20
128.5827701770327
 30
0.0
  0
SPLINE
  5
9A
330
1F
100
AcDbEntity
  8
0
  6
Continuous
 62
     7
370
     0
100
AcDbSpline
210
0.0
220
0.0
230
1.0
 70
     8
 71
     3
 72
    33
 73
    29
 74
     0
 42
0.00000001
 43
0.00000001
 12
1.0
 22
0.0
 32
0.0
 13
1.0
 23
0.0
 33
0.0
 40
0.0
 40
0.0
 40
0.0
 40
0.0
 40
0.0199950738715405
 40
0.0509684082122372
 40
0.0828443306625771
 40
0.1532041467722299
 40
0.19180150609078
 40
0.2326232476392588
 40
0.2755698382039867
 40
0.3162801677699321
 40
0.3521387222399159
 40
0.3831033633946987
 40
0.4167190505524027
 40
0.4415719774420324
 40
0.4684108975433086
 40
0.4954539707535847
 40
0.5284404255410801
 40
0.567395873251423
 40
0.6090270701850983
 40
0.660230707248017
 40
0.706405099033579
 40
0.7475390701621362
 40
0.8054408648005295
 40
0.8712562554834378
 40
0.9074055985095778
 40
0.9414576252882666
 40
0.9723038758611106
 40
1.0
 40
1.0
 40
1.0
 40
1.0
 10
108.6074828439453
 20
126.2780932568573
 30
0.0
 10
108.6093653196121
 20
126.2845617814244
 30
0.0
 10
108.6141638409304
 20
126.3010503627011
 30
0.0
 10
108.4853525479048
 20
126.2370394901807
 30
0.0
 10
108.2329203849159
 20
126.1556378585278
 30
0.0
 10
107.8352606607702
 20
126.0503424737219
 30
0.0
 10
107.300754374904
 20
125.9377577394144
 30
0.0
 10
106.8033963707119
 20
125.843404390106
 30
0.0
 10
106.2418792562925
 20
125.7463982988405
 30
0.0
 10
105.6609211593487
 20
125.6529689180576
 30
0.0
 10
105.1122886534839
 20
125.5688444091484
 30
0.0
 10
104.5840477906751
 20
125.4901778970121
 30
0.0
 10
104.1039542089854
 20
125.4200201479504
 30
0.0
 10
103.641896338748
 20
125.353090776286
 30
0.0
 10
103.2145174825394
 20
125.2912984650718
 30
0.0
 10
102.744919321982
 20
125.2231155942617
 30
0.0
 10
102.2158345712077
 20
125.1453671678402
 30
0.0
 10
101.6235542649778
 20
125.0560852940386
 30
0.0
 10
100.9647822985983
 20
124.9524466575727
 30
0.0
 10
100.3142826500095
 20
124.842794205074
 30
0.0
 10
99.726422756345
 20
124.7329988205101
 30
0.0
 10
99.17766925845945
 20
124.617199372239
 30
0.0
 10
98.63772477639627
 20
124.4831623154808
 30
0.0
 10
98.19477006645042
 20
124.3251773432025
 30
0.0
 10
97.90974416835324
 20
124.1677124400194
 30
0.0
 10
97.7354156939742
 20
124.015297487025
 30
0.0
 10
97.60855466343608
 20
123.8299088890811
 30
0.0
 10
97.58987802190268
 20
123.6623461283644
 30
0.0
 10
97.58104218999537
 20
123.5830729686282
 30
0.0
  0
SPLINE
  5
9B
330
1F
100
AcDbEntity
  8
0
  6
Continuous
 62
     7
370
     0
100
AcDbSpline
210
0.0
220
0.0
230
1.0
 70
     8
 71
     3
 72
    26
 73
    22
 74
     0
 42
0.00000001
 43
0.00000001
 12
1.0
 22
0.0
 32
0.0
 13
1.0
 23
0.0
 33
0.0
 40
0.0
 40
0.0
 40
0.0
 40
0.0
 40
0.021702454831998
 40
0.052570633535958
 40
0.0845205884504115
 40
0.1517527458891942
 40
0.223346239007482
 40
0.2944128864842687
 40
0.3551208340117818
 40
0.4050423074619227
 40
0.4448201396888294
 40
0.4908019964476797
 40
0.5496371885150606
 40
0.6190324731452382
 40
0.6894455174331107
 40
0.760013785421233
 40
0.8312755206756413
 40
0.8691244170127957
 40
0.9096560266578585
 40
0.9532903681214672
 40
1.0
 40
1.0
 40
1.0
 40
1.0
 10
108.6161301740507
 20
121.2854741000198
 30
0.0
 10
108.6175421997117
 20
121.2906699829554
 30
0.0
 10
108.6209626000371
 20
121.3032561562624
 30
0.0
 10
108.4844814143042
 20
121.236325352149
 30
0.0
 10
108.2472686250926
 20
121.1606587991072
 30
0.0
 10
107.7737670773669
 20
121.033690861616
 30
0.0
 10
106.9809545917858
 20
120.873152961789
 30
0.0
 10
106.0479358755673
 20
120.7129615996929
 30
0.0
 10
105.1270897116359
 20
120.5704405638838
 30
0.0
 10
104.3256579029928
 20
120.4521517551207
 30
0.0
 10
103.5888114700072
 20
120.3453846561895
 30
0.0
 10
102.8013092266202
 20
120.231569976364
 30
0.0
 10
101.8687938758173
 20
120.0943915243549
 30
0.0
 10
100.8647583778697
 20
119.9378024520124
 30
0.0
 10
99.90626681617847
 20
119.7712928590884
 30
0.0
 10
99.0775569282624
 20
119.596919844871
 30
0.0
 10
98.53970499957336
 20
119.4523106867201
 30
0.0
 10
98.14077829926698
 20
119.2977831632791
 30
0.0
 10
97.86055002230634
 20
119.1328157354597
 30
0.0
 10
97.63076894067082
 20
118.8983863941258
 30
0.0
 10
97.59786815102902
 20
118.689883321713
 30
0.0
 10
97.58085778812566
 20
118.5820830844901
 30
0.0
  0
SPLINE
  5
9C
330
1F
100
AcDbEntity
  8
0
  6
Continuous
 62
     7
370
     0
100
AcDbSpline
210
0.0
220
0.0
230
1.0
 70
     8
 71
     3
 72
    32
 73
    28
 74
     0
 42
0.00000001
 43
0.00000001
 12
1.0
 22
0.0
 32
0.0
 13
1.0
 23
0.0
 33
0.0
 40
0.0
 40
0.0
 40
0.0
 40
0.0
 40
0.0227945161620067
 40
0.0561313432225991
 40
0.0880679875102051
 40
0.1186455700197016
 40
0.1854564322905009
 40
0.2227533592715833
 40
0.2626267227709696
 40
0.3050709269622326
 40
0.3465142642643795
 40
0.3925376892175949
 40
0.4279016863867717
 40
0.4527731813394041
 40
0.4802604483503561
 40
0.5179210386692104
 40
0.5658107398993089
 40
0.6084995390429909
 40
0.6548166769307858
 40
0.6983726734299402
 40
0.738763297019952
 40
0.7876955662869602
 40
0.8310129770469921
 40
0.8690031200309618
 40
0.9292204263903537
 40
0.9632446974339026
 40
1.0
 40
1.0
 40
1.0
 40
1.0
 10
108.6149739370744
 20
116.2809973441623
 30
0.0
 10
108.6111719452505
 20
116.2832524842907
 30
0.0
 10
108.6018095658747
 20
116.2888057517371
 30
0.0
 10
108.5094711639532
 20
116.2493496382568
 30
0.0
 10
108.3471176408964
 20
116.1937761926451
 30
0.0
 10
108.0211404840216
 20
116.0974092935848
 30
0.0
 10
107.5786160273923
 20
115.9939631013151
 30
0.0
 10
107.0109910365064
 20
115.8818531848201
 30
0.0
 10
106.4875457046291
 20
115.7880222951456
 30
0.0
 10
105.8984089772575
 20
115.6904526077296
 30
0.0
 10
105.239774127137
 20
115.5878080392804
 30
0.0
 10
104.5882323143674
 20
115.4906684995435
 30
0.0
 10
104.0114789641459
 20
115.4066068067583
 30
0.0
 10
103.5317476053824
 20
115.3371714949625
 30
0.0
 10
103.0391077075931
 20
115.2659051832828
 30
0.0
 10
102.4246213741442
 20
115.1763341684914
 30
0.0
 10
101.7431043695687
 20
115.0745429928268
 30
0.0
 10
101.047921902674
 20
114.9657456145438
 30
0.0
 10
100.4164850431641
 20
114.8602268392376
 30
0.0
 10
99.84521215854488
 20
114.7557478244432
 30
0.0
 10
99.31749451507446
 20
114.6476940568254
 30
0.0
 10
98.85644324574005
 20
114.5379404952739
 30
0.0
 10
98.47109478547623
 20
114.4238815228865
 30
0.0
 10
98.13151157065403
 20
114.2986395329732
 30
0.0
 10
97.83037434598245
 20
114.1257455468482
 30
0.0
 10
97.61809990730224
 20
113.8598672428422
 30
0.0
 10
97.59356779413287
 20
113.677956943551
 30
0.0
 10
97.58082845146461
 20
113.5834922873042
 30
0.0
  0
SPLINE
  5
9D
330
1F
100
AcDbEntity
  8
0
  6
Continuous
 62
     7
370
     0
100
AcDbSpline
210
0.0
220
0.0
230
1.0
 70
     8
 71
     3
 72
    18
 73
    14
 74
     0
 42
0.00000001
 43
0.00000001
 12
1.0
 22
0.0
 32
0.0
 13
1.0
 23
0.0
 33
0.0
 40
0.0
 40
0.0
 40
0.0
 40
0.0
 40
0.0500708846624899
 40
0.1106133159517715
 40
0.2229583574830615
 40
0.3287618230442083
 40
0.395426968066313
 40
0.4633395000630104
 40
0.5556242040194987
 40
0.6430885085647292
 40
0.7462473094547073
 40
0.8651791891467201
 40
1.0
 40
1.0
 40
1.0
 40
1.0
 10
108.6055992440383
 20
111.2774891637825
 30
0.0
 10
108.6016866610598
 20
111.2802293338543
 30
0.0
 10
108.5930432392369
 20
111.2862827379426
 30
0.0
 10
108.4753434991497
 20
111.2346596974619
 30
0.0
 10
108.2177819323756
 20
111.1509010427158
 30
0.0
 10
107.8607147014892
 20
111.059828022657
 30
0.0
 10
107.494400168084
 20
110.9785402665322
 30
0.0
 10
107.1046490958696
 20
110.8998599456205
 30
0.0
 10
106.6334970719772
 20
110.813455075071
 30
0.0
 10
106.0474896887831
 20
110.714523044694
 30
0.0
 10
105.3607108230886
 20
110.6060371604471
 30
0.0
 10
104.5236600277342
 20
110.48077914452
 30
0.0
 10
103.9078610506518
 20
110.3916290930567
 30
0.0
 10
103.5806821851412
 20
110.3442629658244
 30
0.0
  0
SPLINE
  5
9E
330
1F
100
AcDbEntity
  8
0
  6
Continuous
 62
     7
370
     0
100
AcDbSpline
210
0.0
220
0.0
230
1.0
 70
     8
 71
     3
 72
    12
 73
     8
 74
     0
 42
0.00000001
 43
0.00000001
 12
1.0
 22
0.0
 32
0.0
 13
1.0
 23
0.0
 33
0.0
 40
0.0
 40
0.0
 40
0.0
 40
0.0
 40
0.1391559001077165
 40
0.3336033386018793
 40
0.5166663079690503
 40
0.7661153537073252
 40
1.0
 40
1.0
 40
1.0
 40
1.0
 10
109.5804280870657
 20
111.0826937340759
 30
0.0
 10
109.5655188829912
 20
111.1836460392399
 30
0.0
 10
109.5297765231537
 20
111.4256625546457
 30
0.0
 10
109.2639741906571
 20
111.6718771568717
 30
0.0
 10
108.9248795774148
 20
111.8435810975619
 30
0.0
 10
108.4459385468715
 20
112.00719106271
 30
0.0
 10
107.9800100965888
 20
112.112169408824
 30
0.0
 10
107.7545478277902
 20
112.1629683159851
 30
0.0
  0
SPLINE
  5
9F
330
1F
100
AcDbEntity
  8
0
  6
Continuous
 62
     7
370
     0
100
AcDbSpline
210
0.0
220
0.0
230
1.0
 70
     8
 71
     3
 72
     9
 73
     5
 74
     0
 42
0.00000001
 43
0.00000001
 12
1.0
 22
0.0
 32
0.0
 13
1.0
 23
0.0
 33
0.0
 40
0.0
 40
0.0
 40
0.0
 40
0.0
 40
0.292065448324772
 40
1.0
 40
1.0
 40
1.0
 40
1.0
 10
106.8635401119541
 20
112.3368313395046
 30
0.0
 10
106.8390923735624
 20
112.3416096465676
 30
0.0
 10
106.7553860038706
 20
112.3579700448632
 30
0.0
 10
106.6530965504207
 20
112.374112036526
 30
0.0
 10
106.5806823120515
 20
112.385539510157
 30
0.0
  0
SPLINE
  5
A0
330
1F
100
AcDbEntity
  8
0
  6
Continuous
 62
     7
370
     0
100
AcDbSpline
210
0.0
220
0.0
230
1.0
 70
     8
 71
     3
 72
    10
 73
     6
 74
     0
 42
0.00000001
 43
0.00000001
 12
1.0
 22
0.0
 32
0.0
 13
1.0
 23
0.0
 33
0.0
 40
0.0
 40
0.0
 40
0.0
 40
0.0
 40
0.2178590882935447
 40
0.689768887166085
 40
1.0
 40
1.0
 40
1.0
 40
1.0
 10
100.5806822598974
 20
113.3074743532202
 30
0.0
 10
100.4550726082624
 20
113.3290873576103
 30
0.0
 10
100.0573768761072
 20
113.3975168094327
 30
0.0
 10
99.56125405619832
 20
113.4972596732955
 30
0.0
 10
99.287157075343
 20
113.5680072861856
 30
0.0
 10
99.17843828807278
 20
113.5960688673518
 30
0.0
  0
SPLINE
  5
A1
330
1F
100
AcDbEntity
  8
0
  6
Continuous
 62
     7
370
     0
100
AcDbSpline
210
0.0
220
0.0
230
1.0
 70
     8
 71
     3
 72
    16
 73
    12
 74
     0
 42
0.00000001
 43
0.00000001
 12
1.0
 22
0.0
 32
0.0
 13
1.0
 23
0.0
 33
0.0
 40
0.0
 40
0.0
 40
0.0
 40
0.0
 40
0.0846673360921003
 40
0.1599761689548058
 40
0.2826188921646946
 40
0.3746533123619144
 40
0.4647204473973932
 40
0.6595263508818957
 40
0.8741823662324395
 40
0.9892667783989715
 40
1.0
 40
1.0
 40
1.0
 40
1.0
 10
109.5805617318551
 20
116.0824505471252
 30
0.0
 10
109.5723782583361
 20
116.1607720927042
 30
0.0
 10
109.5569158521388
 20
116.3087580975398
 30
0.0
 10
109.4172575590049
 20
116.5348378275377
 30
0.0
 10
109.1914899968463
 20
116.7129447338625
 30
0.0
 10
108.9626553766952
 20
116.820973535151
 30
0.0
 10
108.6381388641666
 20
116.9440799642243
 30
0.0
 10
108.0889788497609
 20
117.0973892315417
 30
0.0
 10
107.3487165429008
 20
117.2502975322386
 30
0.0
 10
106.815494045973
 20
117.3478677904736
 30
0.0
 10
106.5991390721201
 20
117.3836689890251
 30
0.0
 10
106.5806823120515
 20
117.3867231093906
 30
0.0
  0
SPLINE
  5
A2
330
1F
100
AcDbEntity
  8
0
  6
Continuous
 62
     7
370
     0
100
AcDbSpline
210
0.0
220
0.0
230
1.0
 70
     8
 71
     3
 72
    10
 73
     6
 74
     0
 42
0.00000001
 43
0.00000001
 12
1.0
 22
0.0
 32
0.0
 13
1.0
 23
0.0
 33
0.0
 40
0.0
 40
0.0
 40
0.0
 40
0.0
 40
0.075911846486639
 40
0.6085434323462925
 40
0.9999999999999999
 40
0.9999999999999999
 40
0.9999999999999999
 40
0.9999999999999999
 10
100.5806822598974
 20
118.3060949527285
 30
0.0
 10
100.5373307047774
 20
118.3135032844398
 30
0.0
 10
100.1898051818022
 20
118.3728917964595
 30
0.0
 10
99.68220080098183
 20
118.4708856060919
 30
0.0
 10
99.32810254913115
 20
118.5574680496637
 30
0.0
 10
99.178101614962
 20
118.5941455744765
 30
0.0
  0
SPLINE
  5
A3
330
1F
100
AcDbEntity
  8
0
  6
Continuous
 62
     7
370
     0
100
AcDbSpline
210
0.0
220
0.0
230
1.0
 70
     8
 71
     3
 72
    16
 73
    12
 74
     0
 42
0.00000001
 43
0.00000001
 12
1.0
 22
0.0
 32
0.0
 13
1.0
 23
0.0
 33
0.0
 40
0.0
 40
0.0
 40
0.0
 40
0.0
 40
0.082965975538139
 40
0.156524171545455
 40
0.2757739782638815
 40
0.3670336833903551
 40
0.4571364521689236
 40
0.6446628546114426
 40
0.842673971488989
 40
0.980096015142164
 40
1.0
 40
1.0
 40
1.0
 40
1.0
 10
109.5804355376462
 20
121.0831833862327
 30
0.0
 10
109.5721862490871
 20
121.1619450303734
 30
0.0
 10
109.5566230854025
 20
121.3105372818199
 30
0.0
 10
109.4179880630727
 20
121.5347422498928
 30
0.0
 10
109.1984088692925
 20
121.7081562898831
 30
0.0
 10
108.9829702074151
 20
121.8117385146012
 30
0.0
 10
108.6635687594701
 20
121.936391785669
 30
0.0
 10
108.1473762799306
 20
122.0826825417341
 30
0.0
 10
107.4285346022818
 20
122.2351678894597
 30
0.0
 10
106.8847005307672
 20
122.3362426895858
 30
0.0
 10
106.6148253666436
 20
122.3808875860954
 30
0.0
 10
106.5806823120514
 20
122.3865358017944
 30
0.0
  0
SPLINE
  5
A4
330
1F
100
AcDbEntity
  8
0
  6
Continuous
 62
     7
370
     0
100
AcDbSpline
210
0.0
220
0.0
230
1.0
 70
     8
 71
     3
 72
    10
 73
     6
 74
     0
 42
0.00000001
 43
0.00000001
 12
1.0
 22
0.0
 32
0.0
 13
1.0
 23
0.0
 33
0.0
 40
0.0
 40
0.0
 40
0.0
 40
0.0
 40
0.1616462415998712
 40
0.7281042614962165
 40
1.0
 40
1.0
 40
1.0
 40
1.0
 10
100.5806822598973
 20
123.3078447960875
 30
0.0
 10
100.4862780320252
 20
123.3237120761427
 30
0.0
 10
100.0610524286545
 20
123.3951831732258
 30
0.0
 10
99.59132027609672
 20
123.4913691352659
 30
0.0
 10
99.27282843889675
 20
123.5687923970037
 30
0.0
 10
99.16953484425935
 20
123.5939023875258
 30
0.0
  0
SPLINE
  5
A5
330
1F
100
AcDbEntity
  8
0
  6
Continuous
 62
     7
370
     0
100
AcDbSpline
210
0.0
220
0.0
230
1.0
 70
     8
 71
     3
 72
    14
 73
    10
 74
     0
 42
0.00000001
 43
0.00000001
 12
1.0
 22
0.0
 32
0.0
 13
1.0
 23
0.0
 33
0.0
 40
0.0
 40
0.0
 40
0.0
 40
0.0
 40
0.0696788472182516
 40
0.1485251520330417
 40
0.330732667084464
 40
0.5099663604195825
 40
0.6883208181096158
 40
0.8938824516912511
 40
1.0
 40
1.0
 40
1.0
 40
1.0
 10
109.5802171425024
 20
126.0824782632851
 30
0.0
 10
109.5728841691436
 20
126.155738635578
 30
0.0
 10
109.5572534429413
 20
126.3118980493342
 30
0.0
 10
109.4017393008307
 20
126.5631404211252
 30
0.0
 10
109.0939565173927
 20
126.7788276336045
 30
0.0
 10
108.5858517598544
 20
126.9647789800562
 30
0.0
 10
107.9580166013247
 20
127.1258932299815
 30
0.0
 10
107.264059492596
 20
127.2680916930997
 30
0.0
 10
106.7542555014226
 20
127.3567205917277
 30
0.0
 10
106.5806823120513
 20
127.3868961118721
 30
0.0
  0
SPLINE
  5
A6
330
1F
100
AcDbEntity
  8
0
  6
Continuous
 62
     7
370
     0
100
AcDbSpline
210
0.0
220
0.0
230
1.0
 70
     8
 71
     3
 72
    11
 73
     7
 74
     0
 42
0.00000001
 43
0.00000001
 12
1.0
 22
0.0
 32
0.0
 13
1.0
 23
0.0
 33
0.0
 40
0.0
 40
0.0
 40
0.0
 40
0.0
 40
0.1048382895271763
 40
0.4430337380276749
 40
0.7541014043131229
 40
1.0
 40
1.0
 40
1.0
 40
1.0
 10
100.5806822598973
 20
128.3063126586936
 30
0.0
 10
100.5190700628923
 20
128.3167783692803
 30
0.0
 10
100.258704483958
 20
128.3610051770934
 30
0.0
 10
99.87487912906874
 20
128.4352541562661
 30
0.0
 10
99.45657601553339
 20
128.5224367118917
 30
0.0
 10
99.24808353569604
 20
128.5744943594887
 30
0.0
 10
99.15603485787895
 20
128.5974776231311
 30
0.0
  0
SPLINE
  5
A7
330
1F
100
AcDbEntity
  8
0
  6
Continuous
 62
     7
370
     0
100
AcDbSpline
210
0.0
220
0.0
230
1.0
 70
     8
 71
     3
 72
    14
 73
    10
 74
     0
 42
0.00000001
 43
0.00000001
 12
1.0
 22
0.0
 32
0.0
 13
1.0
 23
0.0
 33
0.0
 40
0.0
 40
0.0
 40
0.0
 40
0.0
 40
0.0945886725678261
 40
0.1830350778786856
 40
0.3426021780591134
 40
0.4877922886474619
 40
0.6377484122051716
 40
0.9660758153169609
 40
1.0
 40
1.0
 40
1.0
 40
1.0
 10
97.60151405716903
 20
148.5375521563551
 30
0.0
 10
97.61468094168463
 20
148.4690577601377
 30
0.0
 10
97.64015969793849
 20
148.3365167612467
 30
0.0
 10
97.77298848011806
 20
148.1327234696974
 30
0.0
 10
97.98001996283627
 20
147.9713746683857
 30
0.0
 10
98.17548791384014
 20
147.8779147811834
 30
0.0
 10
98.48046823421363
 20
147.7599667859267
 30
0.0
 10
98.76747627601222
 20
147.6675476961247
 30
0.0
 10
99.05386290657155
 20
147.6062549386899
 30
0.0
 10
99.08068247968919
 20
147.6005149864218
 30
0.0
  0
SPLINE
  5
A8
330
1F
100
AcDbEntity
  8
0
  6
Continuous
 62
     7
370
     0
100
AcDbSpline
210
0.0
220
0.0
230
1.0
 70
     8
 71
     3
 72
    14
 73
    10
 74
     0
 42
0.00000001
 43
0.00000001
 12
1.0
 22
0.0
 32
0.0
 13
1.0
 23
0.0
 33
0.0
 40
0.0
 40
0.0
 40
0.0
 40
0.0
 40
0.1275895185228424
 40
0.2398743135522445
 40
0.4187562452574173
 40
0.5464355274907267
 40
0.6679637254158115
 40
0.9276531433872491
 40
0.9999999999999999
 40
0.9999999999999999
 40
0.9999999999999999
 40
0.9999999999999999
 10
97.5811986521877
 20
143.6057055228016
 30
0.0
 10
97.58915754843281
 20
143.5282510226207
 30
0.0
 10
97.60412064881545
 20
143.3826329085503
 30
0.0
 10
97.73821957586559
 20
143.1605488740818
 30
0.0
 10
97.95293061655637
 20
142.986536750274
 30
0.0
 10
98.16263819655694
 20
142.8834132432086
 30
0.0
 10
98.4412421343899
 20
142.7735930929043
 30
0.0
 10
98.73051379925296
 20
142.6798574159071
 30
0.0
 10
99.01803495223474
 20
142.6159235546189
 30
0.0
 10
99.08068247968924
 20
142.6019931071065
 30
0.0
  0
SPLINE
  5
A9
330
1F
100
AcDbEntity
  8
0
  6
Continuous
 62
     7
370
     0
100
AcDbSpline
210
0.0
220
0.0
230
1.0
 70
     8
 71
     3
 72
    10
 73
     6
 74
     0
 42
0.00000001
 43
0.00000001
 12
1.0
 22
0.0
 32
0.0
 13
1.0
 23
0.0
 33
0.0
 40
0.0
 40
0.0
 40
0.0
 40
0.0
 40
0.13365905908087
 40
0.7132537474717001
 40
1.0
 40
1.0
 40
1.0
 40
1.0
 10
106.5806823120512
 20
141.3808354966901
 30
0.0
 10
106.66070999671
 20
141.3674595081854
 30
0.0
 10
107.0877670654708
 20
141.2960803290054
 30
0.0
 10
107.5843615595792
 20
141.1972347256537
 30
0.0
 10
107.8814008088571
 20
141.1180370341774
 30
0.0
 10
107.9797164806224
 20
141.0918237500452
 30
0.0
  0
SPLINE
  5
AA
330
1F
100
AcDbEntity
  8
0
  6
Continuous
 62
     7
370
     0
100
AcDbSpline
210
0.0
220
0.0
230
1.0
 70
     8
 71
     3
 72
    15
 73
    11
 74
     0
 42
0.00000001
 43
0.00000001
 12
1.0
 22
0.0
 32
0.0
 13
1.0
 23
0.0
 33
0.0
 40
0.0
 40
0.0
 40
0.0
 40
0.0
 40
0.070925535130139
 40
0.1534702070978858
 40
0.2475394118589981
 40
0.3493981465628959
 40
0.5362309721919771
 40
0.7148843828518658
 40
0.9205066199537199
 40
1.0
 40
1.0
 40
1.0
 40
1.0
 10
97.58111343617217
 20
138.6052967839501
 30
0.0
 10
97.58883853994566
 20
138.5314115855346
 30
0.0
 10
97.6055542865917
 20
138.3715371949996
 30
0.0
 10
97.72220329837693
 20
138.1892830844675
 30
0.0
 10
97.89292794863891
 20
138.0304408890679
 30
0.0
 10
98.19028872719986
 20
137.8616312329586
 30
0.0
 10
98.64829395438068
 20
137.7019135393679
 30
0.0
 10
99.3064702663901
 20
137.5398025568365
 30
0.0
 10
99.97674908296068
 20
137.4056330114955
 30
0.0
 10
100.4490105515022
 20
137.3247300985573
 30
0.0
 10
100.5806822598972
 20
137.3021734737418
 30
0.0
  0
SPLINE
  5
AB
330
1F
100
AcDbEntity
  8
0
  6
Continuous
 62
     7
370
     0
100
AcDbSpline
210
0.0
220
0.0
230
1.0
 70
     8
 71
     3
 72
    12
 73
     8
 74
     0
 42
0.00000001
 43
0.00000001
 12
1.0
 22
0.0
 32
0.0
 13
1.0
 23
0.0
 33
0.0
 40
0.0
 40
0.0
 40
0.0
 40
0.0
 40
0.088813748446894
 40
0.3044076704380995
 40
0.5033794080050032
 40
0.6856822983838392
 40
1.0
 40
1.0
 40
1.0
 40
1.0
 10
106.5806823120512
 20
136.382078924086
 30
0.0
 10
106.6597596735001
 20
136.368555492456
 30
0.0
 10
106.9307960367209
 20
136.322204151692
 30
0.0
 10
107.3215486057438
 20
136.2464609319249
 30
0.0
 10
107.7357016162294
 20
136.1583276120056
 30
0.0
 10
108.1515187024387
 20
136.0576753687962
 30
0.0
 10
108.3458020515576
 20
135.9935582213302
 30
0.0
 10
108.4687665374078
 20
135.9529776357673
 30
0.0
  0
SPLINE
  5
AC
330
1F
100
AcDbEntity
  8
0
  6
Continuous
 62
     7
370
     0
100
AcDbSpline
210
0.0
220
0.0
230
1.0
 70
     8
 71
     3
 72
    16
 73
    12
 74
     0
 42
0.00000001
 43
0.00000001
 12
1.0
 22
0.0
 32
0.0
 13
1.0
 23
0.0
 33
0.0
 40
0.0
 40
0.0
 40
0.0
 40
0.0
 40
0.0865187306554705
 40
0.1651849190891587
 40
0.298990944056451
 40
0.4071369250964604
 40
0.5053095615991429
 40
0.6820938292750602
 40
0.8345179348438144
 40
0.9834970747113428
 40
1.0
 40
1.0
 40
1.0
 40
1.0
 10
97.58092158372186
 20
133.6063651227019
 30
0.0
 10
97.58940593574532
 20
133.5268877072653
 30
0.0
 10
97.60560458997779
 20
133.3751463405248
 30
0.0
 10
97.75408480620152
 20
133.1413804311878
 30
0.0
 10
98.00161543917686
 20
132.9551642356859
 30
0.0
 10
98.26661126289717
 20
132.8389182738333
 30
0.0
 10
98.62484778454831
 20
132.7135208213193
 30
0.0
 10
99.1200501691584
 20
132.5823011372331
 30
0.0
 10
99.78400983586927
 20
132.4440352970453
 30
0.0
 10
100.2653620928103
 20
132.3536032420874
 30
0.0
 10
100.5520881151454
 20
132.3066519115164
 30
0.0
 10
100.5806822598972
 20
132.3019696258567
 30
0.0
  0
SPLINE
  5
AD
330
1F
100
AcDbEntity
  8
0
  6
Continuous
 62
     7
370
     0
100
AcDbSpline
210
0.0
220
0.0
230
1.0
 70
     8
 71
     3
 72
    11
 73
     7
 74
     0
 42
0.00000001
 43
0.00000001
 12
1.0
 22
0.0
 32
0.0
 13
1.0
 23
0.0
 33
0.0
 40
0.0
 40
0.0
 40
0.0
 40
0.0
 40
0.1908494513650041
 40
0.5162207654961914
 40
0.8163878306234649
 40
1.0
 40
1.0
 40
1.0
 40
1.0
 10
106.5806823120513
 20
131.3819905602001
 30
0.0
 10
106.6893551591622
 20
131.3631968718076
 30
0.0
 10
106.9832998360946
 20
131.3123626035448
 30
0.0
 10
107.3858077267923
 20
131.2331626827465
 30
0.0
 10
107.7487871649118
 20
131.1555917251432
 30
0.0
 10
107.9231234050716
 20
131.1112444765843
 30
0.0
 10
107.9892904766896
 20
131.09441305032
 30
0.0
  0
SPLINE
  5
AE
330
1F
100
AcDbEntity
  8
0
  6
Continuous
 62
     7
370
     0
100
AcDbSpline
210
0.0
220
0.0
230
1.0
 70
     8
 71
     3
 72
    24
 73
    20
 74
     0
 42
0.00000001
 43
0.00000001
 12
1.0
 22
0.0
 32
0.0
 13
1.0
 23
0.0
 33
0.0
 40
0.0
 40
0.0
 40
0.0
 40
0.0
 40
0.053875745394253
 40
0.1045470976685832
 40
0.1960589216949419
 40
0.2745860315143058
 40
0.3399699979610667
 40
0.3925708621565352
 40
0.4427912880078791
 40
0.4950393894257751
 40
0.5493650935911318
 40
0.6058052676377748
 40
0.6633879748616296
 40
0.7736613458356909
 40
0.8265712185710319
 40
0.879232267928343
 40
0.9364974902902455
 40
0.967477331410244
 40
0.9999999999999999
 40
0.9999999999999999
 40
0.9999999999999999
 40
0.9999999999999999
 10
100.1132768382379
 20
128.7980435275099
 30
0.0
 10
100.2934862641125
 20
128.8311949520814
 30
0.0
 10
100.6431867148412
 20
128.8955260383089
 30
0.0
 10
101.3724979563184
 20
129.016192105265
 30
0.0
 10
102.2610340529745
 20
129.1525069437204
 30
0.0
 10
103.2580421969176
 20
129.2977430501639
 30
0.0
 10
104.0987465304931
 20
129.4190666099727
 30
0.0
 10
104.8088043837399
 20
129.5228079775944
 30
0.0
 10
105.4471917471714
 20
129.6184997305568
 30
0.0
 10
106.0680664357921
 20
129.7154539502163
 30
0.0
 10
106.6774565106815
 20
129.8165474821466
 30
0.0
 10
107.2592666055216
 20
129.9214064866759
 30
0.0
 10
107.9558508452785
 20
130.0620581367415
 30
0.0
 10
108.5305689511403
 20
130.2068703478608
 30
0.0
 10
108.9625753793515
 20
130.3656355975972
 30
0.0
 10
109.2292472752261
 20
130.4968388532526
 30
0.0
 10
109.4430376421599
 20
130.6842361979723
 30
0.0
 10
109.5618747985558
 20
130.9011582517448
 30
0.0
 10
109.5742215876011
 20
131.0363726808197
 30
0.0
 10
109.5805449680486
 20
131.1056224488281
 30
0.0
  0
SPLINE
  5
AF
330
1F
100
AcDbEntity
  8
0
  6
Continuous
 62
     7
370
     0
100
AcDbSpline
210
0.0
220
0.0
230
1.0
 70
     8
 71
     3
 72
    26
 73
    22
 74
     0
 42
0.00000001
 43
0.00000001
 12
1.0
 22
0.0
 32
0.0
 13
1.0
 23
0.0
 33
0.0
 40
0.0
 40
0.0
 40
0.0
 40
0.0
 40
0.0272897676115776
 40
0.0589852843300738
 40
0.125312924553791
 40
0.1953312748604805
 40
0.2654416592995053
 40
0.3332882235559135
 40
0.3986803766074447
 40
0.4605409425469655
 40
0.5184142927314561
 40
0.5738069801541944
 40
0.6310989689141779
 40
0.690638821112513
 40
0.7534083955639699
 40
0.8207273170709349
 40
0.8562854030180151
 40
0.8946495640063422
 40
0.9419183868623529
 40
0.96960874874679
 40
1.0
 40
1.0
 40
1.0
 40
1.0
 10
98.54280643994592
 20
133.4050653361342
 30
0.0
 10
98.55166063308754
 20
133.4060647958406
 30
0.0
 10
98.57079846919541
 20
133.4082250712888
 30
0.0
 10
98.7314439731682
 20
133.4739747845302
 30
0.0
 10
99.08697448688761
 20
133.5794895738864
 30
0.0
 10
99.78405001210982
 20
133.7394079737928
 30
0.0
 10
100.6709626411057
 20
133.9021575398211
 30
0.0
 10
101.6669435612054
 20
134.0628024804847
 30
0.0
 10
102.7035543583544
 20
134.2174884337875
 30
0.0
 10
103.7187169941349
 20
134.3641480913308
 30
0.0
 10
104.6762574758003
 20
134.502932308027
 30
0.0
 10
105.5791333969577
 20
134.6380502219345
 30
0.0
 10
106.4386152839493
 20
134.7749605556975
 30
0.0
 10
107.2499732246482
 20
134.9179550074241
 30
0.0
 10
107.9968614717396
 20
135.0712001812309
 30
0.0
 10
108.5368701016749
 20
135.213137816522
 30
0.0
 10
108.9025412564197
 20
135.3420141413908
 30
0.0
 10
109.1680359754877
 20
135.459829881292
 30
0.0
 10
109.411383722695
 20
135.6463390252581
 30
0.0
 10
109.5562066025905
 20
135.8780146918225
 30
0.0
 10
109.5720521441953
 20
136.0275501052199
 30
0.0
 10
109.5803433367111
 20
136.1057946317457
 30
0.0
  0
SPLINE
  5
B0
330
1F
100
AcDbEntity
  8
0
  6
Continuous
 62
     7
370
     0
100
AcDbSpline
210
0.0
220
0.0
230
1.0
 70
     8
 71
     3
 72
    33
 73
    29
 74
     0
 42
0.00000001
 43
0.00000001
 12
1.0
 22
0.0
 32
0.0
 13
1.0
 23
0.0
 33
0.0
 40
0.0
 40
0.0
 40
0.0
 40
0.0
 40
0.0177022843142054
 40
0.0477910347307184
 40
0.0781035736263692
 40
0.1445071580431104
 40
0.1806990197978963
 40
0.21882785491882
 40
0.2588737157756081
 40
0.2984546265083634
 40
0.3337320940871997
 40
0.3646199190896143
 40
0.3989295296267418
 40
0.4253506530110823
 40
0.4488117239355842
 40
0.4823047320281485
 40
0.5265471360873268
 40
0.581185895321851
 40
0.6342853012357512
 40
0.6803506267598045
 40
0.7193426598573256
 40
0.7529201966024169
 40
0.7923865783571938
 40
0.8400914522669417
 40
0.8790380722603905
 40
0.9184518830292236
 40
0.9587606304261694
 40
1.0
 40
1.0
 40
1.0
 40
1.0
 10
98.55191756869333
 20
138.409083881285
 30
0.0
 10
98.54988663157452
 20
138.402749781214
 30
0.0
 10
98.54440369024005
 20
138.3856495476448
 30
0.0
 10
98.65819662082859
 20
138.4442700070906
 30
0.0
 10
98.89000115497983
 20
138.5212703582085
 30
0.0
 10
99.25058823150731
 20
138.6194945009634
 30
0.0
 10
99.73335793341943
 20
138.7246820311342
 30
0.0
 10
100.1809666883494
 20
138.8124986598787
 30
0.0
 10
100.6943857662598
 20
138.9039980498838
 30
0.0
 10
101.2376753347214
 20
138.9938027681214
 30
0.0
 10
101.765457953249
 20
139.0764755526246
 30
0.0
 10
102.2856166745645
 20
139.1551502966763
 30
0.0
 10
102.7726871654022
 20
139.2269848672156
 30
0.0
 10
103.2266619881495
 20
139.293030177724
 30
0.0
 10
103.6787944762605
 20
139.3584493709957
 30
0.0
 10
104.2280129084886
 20
139.4378950863969
 30
0.0
 10
104.9391200352345
 20
139.5419167955194
 30
0.0
 10
105.7292341858373
 20
139.6614312008558
 30
0.0
 10
106.4800646267742
 20
139.7825472376503
 30
0.0
 10
107.0984104042297
 20
139.8915380255898
 30
0.0
 10
107.5810416083676
 20
139.985550812606
 30
0.0
 10
107.9922740113926
 20
140.0744556117904
 30
0.0
 10
108.4007574891625
 20
140.1759451138073
 30
0.0
 10
108.7599471672551
 20
140.2864060126172
 30
0.0
 10
109.0699752228519
 20
140.4128878590004
 30
0.0
 10
109.3277045377512
 20
140.573497833659
 30
0.0
 10
109.533754551948
 20
140.7968331141671
 30
0.0
 10
109.5645862521197
 20
141.0020843551322
 30
0.0
 10
109.5801780269541
 20
141.1058811329864
 30
0.0
  0
SPLINE
  5
B1
330
1F
100
AcDbEntity
  8
0
  6
Continuous
 62
     7
370
     0
100
AcDbSpline
210
0.0
220
0.0
230
1.0
 70
     8
 71
     3
 72
    26
 73
    22
 74
     0
 42
0.00000001
 43
0.00000001
 12
1.0
 22
0.0
 32
0.0
 13
1.0
 23
0.0
 33
0.0
 40
0.0
 40
0.0
 40
0.0
 40
0.0
 40
0.0180699228881641
 40
0.0501315208333648
 40
0.0829327708415667
 40
0.15066412659129
 40
0.2211110418250583
 40
0.2900352432001379
 40
0.3491869721598126
 40
0.3981719291206076
 40
0.4376390319622213
 40
0.4834572473526309
 40
0.5420708213045087
 40
0.6112153838780268
 40
0.681341418213758
 40
0.7515988315480687
 40
0.8226241417909771
 40
0.861222344950721
 40
0.903420514312022
 40
0.9496802998131544
 40
1.0
 40
1.0
 40
1.0
 40
1.0
 10
98.54325114647519
 20
143.4044355385564
 30
0.0
 10
98.54161424767406
 20
143.3991038284302
 30
0.0
 10
98.53707298721275
 20
143.3843120255586
 30
0.0
 10
98.65947840828917
 20
143.4476487718127
 30
0.0
 10
98.88420839213433
 20
143.5192925693713
 30
0.0
 10
99.3430892186386
 20
143.6445077073453
 30
0.0
 10
100.1133702385482
 20
143.8026596764689
 30
0.0
 10
101.0168175103698
 20
143.9596989926851
 30
0.0
 10
101.9080547069246
 20
144.0989250123269
 30
0.0
 10
102.6922706200407
 20
144.2154123383112
 30
0.0
 10
103.4219792902809
 20
144.3213908273067
 30
0.0
 10
104.208992090664
 20
144.4350079911663
 30
0.0
 10
105.1459368477878
 20
144.5721617756583
 30
0.0
 10
106.1605495332507
 20
144.728607221335
 30
0.0
 10
107.1343692076093
 20
144.8948302849975
 30
0.0
 10
107.9830598441022
 20
145.0681588643843
 30
0.0
 10
108.5424363351248
 20
145.2121798808043
 30
0.0
 10
108.9660104633561
 20
145.3666498083869
 30
0.0
 10
109.271726540861
 20
145.5347812014513
 30
0.0
 10
109.5251028480773
 20
145.7774906709758
 30
0.0
 10
109.5613269506013
 20
145.9933402379948
 30
0.0
 10
109.5802003786958
 20
146.1058018588089
 30
0.0
  0
SPLINE
  5
B2
330
1F
100
AcDbEntity
  8
0
  6
Continuous
 62
     7
370
     0
100
AcDbSpline
210
0.0
220
0.0
230
1.0
 70
     8
 71
     3
 72
     9
 73
     5
 74
     0
 42
0.00000001
 43
0.00000001
 12
1.0
 22
0.0
 32
0.0
 13
1.0
 23
0.0
 33
0.0
 40
0.0
 40
0.0
 40
0.0
 40
0.0
 40
0.5863067657321444
 40
1.0
 40
1.0
 40
1.0
 40
1.0
 10
98.59903736869461
 20
148.5353430592082
 30
0.0
 10
98.57875604864017
 20
148.4936791178914
 30
0.0
 10
98.5441643958744
 20
148.4226174420727
 30
0.0
 10
98.51502026050292
 20
148.3898455674364
 30
0.0
 10
98.50296352888114
 20
148.376288064625
 30
0.0
  0
LINE
  5
B3
330
1F
100
AcDbEntity
  8
0
  6
Continuous
 62
     7
370
     0
100
AcDbLine
 10
97.8907050834
 20
149.1492690377
 30
0.0
 11
97.8683556699
 21
149.1231156372
 31
0.0
  0
SPLINE
  5
B4
330
1F
100
AcDbEntity
  8
0
  6
Continuous
 62
     7
370
     0
100
AcDbSpline
210
0.0
220
0.0
230
1.0
 70
     8
 71
     3
 72
     9
 73
     5
 74
     0
 42
0.00000001
 43
0.00000001
 12
1.0
 22
0.0
 32
0.0
 13
1.0
 23
0.0
 33
0.0
 40
0.0
 40
0.0
 40
0.0
 40
0.0
 40
0.4626216988341689
 40
1.0
 40
1.0
 40
1.0
 40
1.0
 10
97.77905953014857
 20
149.0186268322728
 30
0.0
 10
97.72448878111048
 20
148.967051177772
 30
0.0
 10
97.60652901144209
 20
148.8555655846174
 30
0.0
 10
97.61366743491332
 20
148.7183221026109
 30
0.0
 10
97.61750346879131
 20
148.6445704334042
 30
0.0
  0
SPLINE
  5
B5
330
1F
100
AcDbEntity
  8
0
  6
Continuous
 62
     7
370
     0
100
AcDbSpline
210
0.0
220
0.0
230
1.0
 70
     8
 71
     3
 72
    31
 73
    27
 74
     0
 42
0.00000001
 43
0.00000001
 12
1.0
 22
0.0
 32
0.0
 13
1.0
 23
0.0
 33
0.0
 40
0.0
 40
0.0
 40
0.0
 40
0.0
 40
0.0163344041382897
 40
0.0456706792727101
 40
0.0747868401351477
 40
0.1380068638138727
 40
0.2079402347493017
 40
0.2454425297922802
 40
0.2829326575139399
 40
0.3164871048278141
 40
0.3459061095831025
 40
0.3786496695640168
 40
0.4039588065169731
 40
0.4248112816359301
 40
0.4540586007910245
 40
0.4931830944474268
 40
0.542223045642549
 40
0.5854870700093359
 40
0.6296642610698188
 40
0.6721056958301646
 40
0.7128518777117189
 40
0.7892392096507532
 40
0.859411531729147
 40
0.9285178332240431
 40
0.9639496245287547
 40
1.0
 40
1.0
 40
1.0
 40
1.0
 10
108.6102218636371
 20
146.2801566206478
 30
0.0
 10
108.6123019722381
 20
146.2863184258729
 30
0.0
 10
108.6181179158115
 20
146.3035467145692
 30
0.0
 10
108.5131111193648
 20
146.2484632811243
 30
0.0
 10
108.2959119296333
 20
146.1751364148097
 30
0.0
 10
107.8701738303042
 20
146.0566034737533
 30
0.0
 10
107.2553411434969
 20
145.9274802451687
 30
0.0
 10
106.6421336589267
 20
145.8150237035063
 30
0.0
 10
106.1418212853103
 20
145.7302502497475
 30
0.0
 10
105.65147366014
 20
145.6517700339916
 30
0.0
 10
105.1651279133744
 20
145.5768866238097
 30
0.0
 10
104.7067886002712
 20
145.5083466301595
 30
0.0
 10
104.2852762302352
 20
145.446477764966
 30
0.0
 10
103.8784477767019
 20
145.3873197579147
 30
0.0
 10
103.3943313566074
 20
145.3173132855039
 30
0.0
 10
102.7577706398009
 20
145.2251549621323
 30
0.0
 10
102.0565498431769
 20
145.1218867760998
 30
0.0
 10
101.3561087326426
 20
145.0147646133149
 30
0.0
 10
100.722948847912
 20
144.9125883637537
 30
0.0
 10
100.1433346328124
 20
144.8115790273706
 30
0.0
 10
99.476595267301
 20
144.6840966997043
 30
0.0
 10
98.7969878215981
 20
144.5269946915171
 30
0.0
 10
98.21922725402419
 20
144.345432274109
 30
0.0
 10
97.83040342156905
 20
144.1279899628314
 30
0.0
 10
97.61602114955393
 20
143.8538969653053
 30
0.0
 10
97.59287323334371
 20
143.6736016716922
 30
0.0
 10
97.58119911784898
 20
143.5826739155314
 30
0.0
  0
LWPOLYLINE
  5
B6
330
1F
100
AcDbEntity
  8
0
  6
Continuous
 62
     7
370
     0
100
AcDbPolyline
 90
       27
 70
   128
 43
0.0
 10
108.6161916413
 20
141.2801241361
 10
108.5659272307
 20
141.267989003
 10
108.436370016
 20
141.2223430209
 10
108.026771088
 20
141.1033293091
 10
107.7687602759
 20
141.0402471059
 10
107.4626969443
 20
140.9729106211
 10
106.6497210217
 20
140.8175865047
 10
106.1335671497
 20
140.7297106319
 10
105.5417158444
 20
140.6350957089
 10
104.7358031887
 20
140.5128652089
 10
104.0652440955
 20
140.4144877427
 10
103.5537808788
 20
140.3403600537
 10
103.1807985368
 20
140.2863731467
 10
102.7249853745
 20
140.220064842
 10
102.1456554103
 20
140.1345303141
 10
101.6382616748
 20
140.057642185
 10
101.0795060814
 20
139.9697216087
 10
100.4910517753
 20
139.8716701054
 10
99.9509780471
 20
139.7741420054
 10
99.0698842601
 20
139.5876241707
 10
98.4377453373
 20
139.4085699551
 10
98.2049300605
 20
139.3201017611
 10
97.9916851305
 20
139.2135379695
 10
97.7285734647
 20
138.9916838937
 10
97.6231333138
 20
138.811780312
 10
97.5811427728
 20
138.5823098802
 10
97.5811427728
 20
138.5823098802
  0
SPLINE
  5
B7
330
1F
100
AcDbEntity
  8
0
  6
Continuous
 62
     7
370
     0
100
AcDbSpline
210
0.0
220
0.0
230
1.0
 70
     8
 71
     3
 72
    25
 73
    21
 74
     0
 42
0.00000001
 43
0.00000001
 12
1.0
 22
0.0
 32
0.0
 13
1.0
 23
0.0
 33
0.0
 40
0.0
 40
0.0
 40
0.0
 40
0.0
 40
0.0257824822247304
 40
0.0623753843333324
 40
0.0971744802932903
 40
0.1633778615464945
 40
0.2249321025874758
 40
0.2840566725328827
 40
0.3415644725793999
 40
0.3985672189131205
 40
0.4591368532034234
 40
0.5236463192718751
 40
0.5908707558704285
 40
0.6601570155972477
 40
0.7314107336760555
 40
0.8009301837220985
 40
0.8675454513371588
 40
0.9324843452934289
 40
0.965780739942072
 40
1.0
 40
1.0
 40
1.0
 40
1.0
 10
108.5994459957876
 20
136.2711155646108
 30
0.0
 10
108.5993956212531
 20
136.2776253279918
 30
0.0
 10
108.5992737504836
 20
136.293374354376
 30
0.0
 10
108.4360162220183
 20
136.2185568847471
 30
0.0
 10
108.1511370912815
 20
136.1331926468191
 30
0.0
 10
107.6716843272276
 20
136.0122608972822
 30
0.0
 10
106.9462995096783
 20
135.8680516173008
 30
0.0
 10
106.140710218554
 20
135.7287116750919
 30
0.0
 10
105.2743427449816
 20
135.5926140768806
 30
0.0
 10
104.3478811622908
 20
135.4550929721812
 30
0.0
 10
103.3569653984146
 20
135.3119819310062
 30
0.0
 10
102.3151422755599
 20
135.1608794088451
 30
0.0
 10
101.2711712795384
 20
135.0028234576049
 30
0.0
 10
100.278111731055
 20
134.8385504712973
 30
0.0
 10
99.4097430202622
 20
134.671894361452
 30
0.0
 10
98.69611896618747
 20
134.5006849987698
 30
0.0
 10
98.1558405083453
 20
134.3135349854427
 30
0.0
 10
97.8348069123231
 20
134.1307224912038
 30
0.0
 10
97.61863415021018
 20
133.8658158203806
 30
0.0
 10
97.59360091031708
 20
133.6783521503841
 30
0.0
 10
97.58091320181869
 20
133.5833391033671
 30
0.0
  0
SPLINE
  5
B8
330
1F
100
AcDbEntity
  8
0
  6
Continuous
 62
     7
370
     0
100
AcDbSpline
210
0.0
220
0.0
230
1.0
 70
     8
 71
     3
 72
    23
 73
    19
 74
     0
 42
0.00000001
 43
0.00000001
 12
1.0
 22
0.0
 32
0.0
 13
1.0
 23
0.0
 33
0.0
 40
0.0
 40
0.0
 40
0.0
 40
0.0
 40
0.0234144056715945
 40
0.0803069072231185
 40
0.1390837865271987
 40
0.1999998791296245
 40
0.2629022015660843
 40
0.3267847428638461
 40
0.3886103246476939
 40
0.4480673079624303
 40
0.5051099724342025
 40
0.5597076926375039
 40
0.6200595093251191
 40
0.6941467746206812
 40
0.782073310793379
 40
0.8839121911211647
 40
0.9401834305659599
 40
1.0
 40
1.0
 40
1.0
 40
1.0
 10
108.611114536325
 20
131.2766915046238
 30
0.0
 10
108.612470668547
 20
131.2824118791907
 30
0.0
 10
108.6171219411895
 20
131.3020316635264
 30
0.0
 10
108.485671510547
 20
131.2332732688905
 30
0.0
 10
108.2641800914859
 20
131.1666844791945
 30
0.0
 10
107.9347280257427
 20
131.0767898356212
 30
0.0
 10
107.5105909769158
 20
130.980746621238
 30
0.0
 10
107.0033549118344
 20
130.880150848083
 30
0.0
 10
106.4484466247187
 20
130.7814153488392
 30
0.0
 10
105.8676942151547
 20
130.685688749665
 30
0.0
 10
105.2762475273728
 20
130.5935899453058
 30
0.0
 10
104.6572894673428
 20
130.5008546824231
 30
0.0
 10
103.9594568318255
 20
130.3989099064103
 30
0.0
 10
103.1280289431976
 20
130.2789092823811
 30
0.0
 10
102.1504234174399
 20
130.1365006957706
 30
0.0
 10
101.2805057911714
 20
130.0033927401314
 30
0.0
 10
100.5634905304819
 20
129.8857169836531
 30
0.0
 10
100.2163179971121
 20
129.8229684109604
 30
0.0
 10
100.0374303934225
 20
129.7906359516642
 30
0.0
  0
SPLINE
  5
B9
330
1F
100
AcDbEntity
  8
0
  6
Continuous
 62
     7
370
     0
100
AcDbSpline
210
0.0
220
0.0
230
1.0
 70
     8
 71
     3
 72
    16
 73
    12
 74
     0
 42
0.00000001
 43
0.00000001
 12
1.0
 22
0.0
 32
0.0
 13
1.0
 23
0.0
 33
0.0
 40
0.0
 40
0.0
 40
0.0
 40
0.0
 40
0.1235635896577576
 40
0.2349249305787333
 40
0.3347019672675908
 40
0.4251579497391801
 40
0.591842149460545
 40
0.7430562173887446
 40
0.8372789524244862
 40
0.9433877168286153
 40
1.0
 40
1.0
 40
1.0
 40
1.0
 10
109.5805291355648
 20
131.0825889789127
 30
0.0
 10
109.5624041970466
 20
131.1948031301303
 30
0.0
 10
109.5279442081863
 20
131.4081499724952
 30
0.0
 10
109.3075797496466
 20
131.6317084363813
 30
0.0
 10
109.0653860494734
 20
131.7763957981553
 30
0.0
 10
108.7730704896414
 20
131.8979097760207
 30
0.0
 10
108.3536251998258
 20
132.0279233902646
 30
0.0
 10
107.8349959428989
 20
132.1502048126534
 30
0.0
 10
107.3395328842783
 20
132.2508129592703
 30
0.0
 10
106.9499697579594
 20
132.3239451113883
 30
0.0
 10
106.6759993593427
 20
132.3700693858097
 30
0.0
 10
106.5806823120513
 20
132.3861164831184
 30
0.0
  0
SPLINE
  5
BA
330
1F
100
AcDbEntity
  8
0
  6
Continuous
 62
     7
370
     0
100
AcDbSpline
210
0.0
220
0.0
230
1.0
 70
     8
 71
     3
 72
    11
 73
     7
 74
     0
 42
0.00000001
 43
0.00000001
 12
1.0
 22
0.0
 32
0.0
 13
1.0
 23
0.0
 33
0.0
 40
0.0
 40
0.0
 40
0.0
 40
0.0
 40
0.0653261796784041
 40
0.4175127309947294
 40
0.7380935362600868
 40
1.0
 40
1.0
 40
1.0
 40
1.0
 10
100.5806822598972
 20
133.3061365269683
 30
0.0
 10
100.5427077654021
 20
133.3125486895435
 30
0.0
 10
100.3000051462856
 20
133.3535301080425
 30
0.0
 10
99.92627266429318
 20
133.4252372709168
 30
0.0
 10
99.48959059352487
 20
133.515247306534
 30
0.0
 10
99.27054598294158
 20
133.5694041991672
 30
0.0
 10
99.17205593446873
 20
133.5937550150416
 30
0.0
  0
SPLINE
  5
BB
330
1F
100
AcDbEntity
  8
0
  6
Continuous
 62
     7
370
     0
100
AcDbSpline
210
0.0
220
0.0
230
1.0
 70
     8
 71
     3
 72
    14
 73
    10
 74
     0
 42
0.00000001
 43
0.00000001
 12
1.0
 22
0.0
 32
0.0
 13
1.0
 23
0.0
 33
0.0
 40
0.0
 40
0.0
 40
0.0
 40
0.0
 40
0.0691529232649219
 40
0.1467088110336476
 40
0.3263894741664256
 40
0.5273381760250573
 40
0.7461712174013725
 40
0.9603898982828765
 40
0.9999999999999999
 40
0.9999999999999999
 40
0.9999999999999999
 40
0.9999999999999999
 10
109.5803293668725
 20
136.0828040026688
 30
0.0
 10
109.5731236281787
 20
136.1553462112572
 30
0.0
 10
109.5578365613928
 20
136.3092454344469
 30
0.0
 10
109.4068973957912
 20
136.5553665300725
 30
0.0
 10
109.1018521476302
 20
136.7744783898823
 30
0.0
 10
108.541674638827
 20
136.9820285813679
 30
0.0
 10
107.7757489650737
 20
137.1662150828469
 30
0.0
 10
107.0900248782963
 20
137.3023075156009
 30
0.0
 10
106.6494363590988
 20
137.3742805213769
 30
0.0
 10
106.5806823120512
 20
137.3855119430088
 30
0.0
  0
SPLINE
  5
BC
330
1F
100
AcDbEntity
  8
0
  6
Continuous
 62
     7
370
     0
100
AcDbSpline
210
0.0
220
0.0
230
1.0
 70
     8
 71
     3
 72
    11
 73
     7
 74
     0
 42
0.00000001
 43
0.00000001
 12
1.0
 22
0.0
 32
0.0
 13
1.0
 23
0.0
 33
0.0
 40
0.0
 40
0.0
 40
0.0
 40
0.0
 40
0.2702801642800248
 40
0.6138967422551458
 40
0.9337083396207161
 40
0.9999999999999999
 40
0.9999999999999999
 40
0.9999999999999999
 40
0.9999999999999999
 10
100.5806822598972
 20
138.3077764742634
 30
0.0
 10
100.3404978396058
 20
138.3503369486419
 30
0.0
 10
99.79495860793469
 20
138.4470060351039
 30
0.0
 10
99.1760534242109
 20
138.5855080181257
 30
0.0
 10
98.79753778014476
 20
138.6964262552445
 30
0.0
 10
98.69568816492446
 20
138.734600160624
 30
0.0
 10
98.67820118452089
 20
138.7411543958447
 30
0.0
  0
SPLINE
  5
BD
330
1F
100
AcDbEntity
  8
0
  6
Continuous
 62
     7
370
     0
100
AcDbSpline
210
0.0
220
0.0
230
1.0
 70
     8
 71
     3
 72
    16
 73
    12
 74
     0
 42
0.00000001
 43
0.00000001
 12
1.0
 22
0.0
 32
0.0
 13
1.0
 23
0.0
 33
0.0
 40
0.0
 40
0.0
 40
0.0
 40
0.0
 40
0.086690837305683
 40
0.1638381079079119
 40
0.289506546581402
 40
0.382107716625998
 40
0.4687342988758402
 40
0.6522919856176217
 40
0.8500317821975741
 40
0.9900330919911222
 40
1.0
 40
1.0
 40
1.0
 40
1.0
 10
109.5801770956315
 20
141.0828569762968
 30
0.0
 10
109.5726839194095
 20
141.1582043227579
 30
0.0
 10
109.5585224710653
 20
141.3006042241055
 30
0.0
 10
109.4285842186224
 20
141.5210239611512
 30
0.0
 10
109.2158896450817
 20
141.6978492053081
 30
0.0
 10
108.9959388811205
 20
141.8062946103838
 30
0.0
 10
108.7135277419021
 20
141.9181626191605
 30
0.0
 10
108.2522598602762
 20
142.0560029737779
 30
0.0
 10
107.6005731664589
 20
142.1998430439047
 30
0.0
 10
107.1183305620262
 20
142.2939917529249
 30
0.0
 10
106.882919469958
 20
142.3341627609771
 30
0.0
 10
106.867274016986
 20
142.3368325315975
 30
0.0
  0
SPLINE
  5
BE
330
1F
100
AcDbEntity
  8
0
  6
Continuous
 62
     7
370
     0
100
AcDbSpline
210
0.0
220
0.0
230
1.0
 70
     8
 71
     3
 72
    13
 73
     9
 74
     0
 42
0.00000001
 43
0.00000001
 12
1.0
 22
0.0
 32
0.0
 13
1.0
 23
0.0
 33
0.0
 40
0.0
 40
0.0
 40
0.0
 40
0.0
 40
0.1065368482583137
 40
0.2349306378269026
 40
0.3849719096144168
 40
0.5522783263922544
 40
0.8535938325473705
 40
1.0
 40
1.0
 40
1.0
 40
1.0
 10
109.5802110889054
 20
146.0827907406353
 30
0.0
 10
109.5730042696085
 20
146.1543613626435
 30
0.0
 10
109.5571120906882
 20
146.3121859290066
 30
0.0
 10
109.4436738652728
 20
146.492550574109
 30
0.0
 10
109.2693901067884
 20
146.6569452887638
 30
0.0
 10
108.9532507712128
 20
146.8332429342289
 30
0.0
 10
108.5573923596045
 20
146.9747509415421
 30
0.0
 10
108.1981539870331
 20
147.0588400279877
 30
0.0
 10
108.080682092259
 20
147.0863373809122
 30
0.0
  0
SPLINE
  5
BF
330
1F
100
AcDbEntity
  8
0
  6
Continuous
 62
     7
370
     0
100
AcDbSpline
210
0.0
220
0.0
230
1.0
 70
     8
 71
     3
 72
     9
 73
     5
 74
     0
 42
0.00000001
 43
0.00000001
 12
1.0
 22
0.0
 32
0.0
 13
1.0
 23
0.0
 33
0.0
 40
0.0
 40
0.0
 40
0.0
 40
0.0
 40
0.5388728611539592
 40
1.0
 40
1.0
 40
1.0
 40
1.0
 10
99.08068247968919
 20
148.6223043732903
 30
0.0
 10
98.98435480856013
 20
148.6468034452041
 30
0.0
 10
98.80559711250028
 20
148.6922669926935
 30
0.0
 10
98.70433091456155
 20
148.7315437199331
 30
0.0
 10
98.65763432244427
 20
148.7496552847884
 30
0.0
  0
SPLINE
  5
C0
330
1F
100
AcDbEntity
  8
0
  6
Continuous
 62
     7
370
     0
100
AcDbSpline
210
0.0
220
0.0
230
1.0
 70
     8
 71
     3
 72
    15
 73
    11
 74
     0
 42
0.00000001
 43
0.00000001
 12
1.0
 22
0.0
 32
0.0
 13
1.0
 23
0.0
 33
0.0
 40
0.0
 40
0.0
 40
0.0
 40
0.0
 40
0.0702793947557678
 40
0.1510385144233108
 40
0.2423275235071587
 40
0.3426466330035896
 40
0.5515913931449488
 40
0.7716367415127161
 40
0.9853578153138768
 40
1.0
 40
1.0
 40
1.0
 40
1.0
 10
97.58119027028468
 20
128.605777569916
 30
0.0
 10
97.58864794218137
 20
128.5326360590066
 30
0.0
 10
97.60467533809509
 20
128.3754465272978
 30
0.0
 10
97.7162886709453
 20
128.197711065111
 30
0.0
 10
97.87753593694258
 20
128.043373965364
 30
0.0
 10
98.17498126039068
 20
127.8688062715094
 30
0.0
 10
98.6892441385629
 20
127.6858880235084
 30
0.0
 10
99.49305890268042
 20
127.5000400818137
 30
0.0
 10
100.1546212134314
 20
127.3710063550451
 30
0.0
 10
100.5550101414112
 20
127.3061653916854
 30
0.0
 10
100.5806822598973
 20
127.3020079218409
 30
0.0
  0
SPLINE
  5
C1
330
1F
100
AcDbEntity
  8
0
  6
Continuous
 62
     7
370
     0
100
AcDbSpline
210
0.0
220
0.0
230
1.0
 70
     8
 71
     3
 72
    11
 73
     7
 74
     0
 42
0.00000001
 43
0.00000001
 12
1.0
 22
0.0
 32
0.0
 13
1.0
 23
0.0
 33
0.0
 40
0.0
 40
0.0
 40
0.0
 40
0.0
 40
0.2855545384458881
 40
0.6144880418384695
 40
0.9271663172586725
 40
1.0
 40
1.0
 40
1.0
 40
1.0
 10
106.5806823120514
 20
126.3815445684455
 30
0.0
 10
106.8342728410932
 20
126.3361483508075
 30
0.0
 10
107.3799771694774
 20
126.2384597164922
 30
0.0
 10
107.9973095070006
 20
126.0997008289467
 30
0.0
 10
108.3682630849564
 20
125.9906766570206
 30
0.0
 10
108.4701393000075
 20
125.952277202141
 30
0.0
 10
108.4893864848712
 20
125.9450225018524
 30
0.0
  0
SPLINE
  5
C2
330
1F
100
AcDbEntity
  8
0
  6
Continuous
 62
     7
370
     0
100
AcDbSpline
210
0.0
220
0.0
230
1.0
 70
     8
 71
     3
 72
    16
 73
    12
 74
     0
 42
0.00000001
 43
0.00000001
 12
1.0
 22
0.0
 32
0.0
 13
1.0
 23
0.0
 33
0.0
 40
0.0
 40
0.0
 40
0.0
 40
0.0
 40
0.0817521223284617
 40
0.1546045500955887
 40
0.2735625922425206
 40
0.3616930674522679
 40
0.444539130728841
 40
0.6209385089503645
 40
0.8119234723273954
 40
0.9476810376965785
 40
1.0
 40
1.0
 40
1.0
 40
1.0
 10
97.58103939602765
 20
123.6060878120921
 30
0.0
 10
97.58857442361852
 20
123.5306973866074
 30
0.0
 10
97.60282420108565
 20
123.388123683545
 30
0.0
 10
97.73318002823963
 20
123.167400647223
 30
0.0
 10
97.9462180812773
 20
122.9900873879284
 30
0.0
 10
98.16766266794201
 20
122.8810312338734
 30
0.0
 10
98.45583894695197
 20
122.7675596529108
 30
0.0
 10
98.93060584310287
 20
122.6271061098769
 30
0.0
 10
99.60093236583965
 20
122.4797504217729
 30
0.0
 10
100.1727513206151
 20
122.3709568490231
 30
0.0
 10
100.4919013787051
 20
122.3175158771847
 30
0.0
 10
100.5806822598973
 20
122.3026497148535
 30
0.0
  0
SPLINE
  5
C3
330
1F
100
AcDbEntity
  8
0
  6
Continuous
 62
     7
370
     0
100
AcDbSpline
210
0.0
220
0.0
230
1.0
 70
     8
 71
     3
 72
    12
 73
     8
 74
     0
 42
0.00000001
 43
0.00000001
 12
1.0
 22
0.0
 32
0.0
 13
1.0
 23
0.0
 33
0.0
 40
0.0
 40
0.0
 40
0.0
 40
0.0
 40
0.1794459442397584
 40
0.3742391533691581
 40
0.5601691447309893
 40
0.9043593676486027
 40
0.9999999999999999
 40
0.9999999999999999
 40
0.9999999999999999
 40
0.9999999999999999
 10
106.5806823120514
 20
121.3825663410686
 30
0.0
 10
106.7419146256306
 20
121.3540030273586
 30
0.0
 10
107.0781687816398
 20
121.2944334985763
 30
0.0
 10
107.5147488724431
 20
121.2064379876673
 30
0.0
 10
108.0002125395866
 20
121.0983303090682
 30
0.0
 10
108.3475662116129
 20
120.9982357290365
 30
0.0
 10
108.4640081361559
 20
120.9560240788702
 30
0.0
 10
108.4893282772103
 20
120.9468452118896
 30
0.0
  0
SPLINE
  5
C4
330
1F
100
AcDbEntity
  8
0
  6
Continuous
 62
     7
370
     0
100
AcDbSpline
210
0.0
220
0.0
230
1.0
 70
     8
 71
     3
 72
    17
 73
    13
 74
     0
 42
0.00000001
 43
0.00000001
 12
1.0
 22
0.0
 32
0.0
 13
1.0
 23
0.0
 33
0.0
 40
0.0
 40
0.0
 40
0.0
 40
0.0
 40
0.0917228239067526
 40
0.2286163183424897
 40
0.357937360948076
 40
0.4456818247057307
 40
0.5095191700022441
 40
0.5891570560978301
 40
0.6700526882635759
 40
0.7689654623018705
 40
0.8857905727514502
 40
1.0
 40
1.0
 40
1.0
 40
1.0
 10
97.58082053522267
 20
118.6051016532443
 30
0.0
 10
97.59406175752207
 20
118.5105642341845
 30
0.0
 10
97.62706509696918
 20
118.2749326239649
 30
0.0
 10
97.86817955908603
 20
118.0374545661038
 30
0.0
 10
98.1370484563519
 20
117.8892549183704
 30
0.0
 10
98.40866947816049
 20
117.7859521386752
 30
0.0
 10
98.62817937464423
 20
117.7164518129028
 30
0.0
 10
98.85546704878938
 20
117.6524893883179
 30
0.0
 10
99.1557458277462
 20
117.5780791705683
 30
0.0
 10
99.54039416230235
 20
117.4935542446985
 30
0.0
 10
100.0169277031126
 20
117.3996890051349
 30
0.0
 10
100.3941878050295
 20
117.3341559642114
 30
0.0
 10
100.5806822598974
 20
117.3017604135535
 30
0.0
  0
SPLINE
  5
C5
330
1F
100
AcDbEntity
  8
0
  6
Continuous
 62
     7
370
     0
100
AcDbSpline
210
0.0
220
0.0
230
1.0
 70
     8
 71
     3
 72
    10
 73
     6
 74
     0
 42
0.00000001
 43
0.00000001
 12
1.0
 22
0.0
 32
0.0
 13
1.0
 23
0.0
 33
0.0
 40
0.0
 40
0.0
 40
0.0
 40
0.0
 40
0.519300671501157
 40
0.8079542577162134
 40
1.0
 40
1.0
 40
1.0
 40
1.0
 10
106.5806823120515
 20
116.3818297766708
 30
0.0
 10
106.8614745233014
 20
116.331312523974
 30
0.0
 10
107.298345251693
 20
116.2527152264075
 30
0.0
 10
107.7379066375341
 20
116.157722369322
 30
0.0
 10
107.9129842045435
 20
116.1132146189925
 30
0.0
 10
107.9829300091664
 20
116.0954331838153
 30
0.0
  0
SPLINE
  5
C6
330
1F
100
AcDbEntity
  8
0
  6
Continuous
 62
     7
370
     0
100
AcDbSpline
210
0.0
220
0.0
230
1.0
 70
     8
 71
     3
 72
    15
 73
    11
 74
     0
 42
0.00000001
 43
0.00000001
 12
1.0
 22
0.0
 32
0.0
 13
1.0
 23
0.0
 33
0.0
 40
0.0
 40
0.0
 40
0.0
 40
0.0
 40
0.0865628202143437
 40
0.1656530422953036
 40
0.3012937717016455
 40
0.4115106107502622
 40
0.5125885958686005
 40
0.7028625621430357
 40
0.8786387793289139
 40
1.0
 40
1.0
 40
1.0
 40
1.0
 10
97.5808694296579
 20
113.6064922296069
 30
0.0
 10
97.58849948004044
 20
113.5301571414342
 30
0.0
 10
97.60310091118153
 20
113.3840766468482
 30
0.0
 10
97.7418950215126
 20
113.1557790373886
 30
0.0
 10
97.97781403572226
 20
112.9692321253397
 30
0.0
 10
98.23816381868511
 20
112.8503566471857
 30
0.0
 10
98.58595333538433
 20
112.7249173844471
 30
0.0
 10
99.10260132441638
 20
112.5866753539079
 30
0.0
 10
99.73827957557698
 20
112.4510173759785
 30
0.0
 10
100.1974225770639
 20
112.3699443650488
 30
0.0
 10
100.3849524808179
 20
112.3368313395045
 30
0.0
  0
SPLINE
  5
C7
330
1F
100
AcDbEntity
  8
0
  6
Continuous
 62
     7
370
     0
100
AcDbSpline
210
0.0
220
0.0
230
1.0
 70
     8
 71
     3
 72
    17
 73
    13
 74
     0
 42
0.00000001
 43
0.00000001
 12
1.0
 22
0.0
 32
0.0
 13
1.0
 23
0.0
 33
0.0
 40
0.0
 40
0.0
 40
0.0
 40
0.0
 40
0.1244840668392544
 40
0.2539879055592691
 40
0.3885625663256563
 40
0.5173859066831835
 40
0.6333955763343132
 40
0.7366230165131128
 40
0.788055397644211
 40
0.849808535094471
 40
0.9233299204442585
 40
1.0
 40
1.0
 40
1.0
 40
1.0
 10
103.5806821841412
 20
109.3442646645568
 30
0.0
 10
103.9519432168919
 20
109.3979359865293
 30
0.0
 10
104.7094362400425
 20
109.5074429057883
 30
0.0
 10
105.825738764325
 20
109.6753546923031
 30
0.0
 10
106.8589608141438
 20
109.8455314867921
 30
0.0
 10
107.7228890237245
 20
110.0110666293068
 30
0.0
 10
108.3836455188526
 20
110.1685872025894
 30
0.0
 10
108.7826052350538
 20
110.2941015183992
 30
0.0
 10
109.0607416519519
 20
110.4102263707862
 30
0.0
 10
109.3002981347777
 20
110.5522150660682
 30
0.0
 10
109.5194524035157
 20
110.76909556077
 30
0.0
 10
109.5533122134285
 20
110.9690621903693
 30
0.0
 10
109.570597045968
 20
111.0711416088604
 30
0.0
  0
SPLINE
  5
C8
330
1F
100
AcDbEntity
  8
0
  6
Continuous
 62
     7
370
     0
100
AcDbSpline
210
0.0
220
0.0
230
1.0
 70
     8
 71
     3
 72
    26
 73
    22
 74
     0
 42
0.00000001
 43
0.00000001
 12
1.0
 22
0.0
 32
0.0
 13
1.0
 23
0.0
 33
0.0
 40
0.0
 40
0.0
 40
0.0
 40
0.0
 40
0.0225618951557864
 40
0.0567912668655663
 40
0.0930680095444987
 40
0.1313290732642975
 40
0.1712391424997538
 40
0.2105219126123687
 40
0.2853013371735446
 40
0.3549874680717527
 40
0.4199052279792189
 40
0.4806143765722077
 40
0.5380597003600701
 40
0.5997599223058944
 40
0.6674416211802306
 40
0.7379553304179672
 40
0.8042834505935806
 40
0.8665367170413304
 40
0.9311687831226847
 40
0.9662569086356367
 40
1.0
 40
1.0
 40
1.0
 40
1.0
 10
98.54968053186937
 20
113.4129186951182
 30
0.0
 10
98.55415261006463
 20
113.4109335781459
 30
0.0
 10
98.56540942091664
 20
113.4059367768154
 30
0.0
 10
98.66696575667315
 20
113.447902215824
 30
0.0
 10
98.85563715283054
 20
113.5091136471131
 30
0.0
 10
99.14184812028611
 20
113.5896201360541
 30
0.0
 10
99.51917726687533
 20
113.6792142184754
 30
0.0
 10
100.0938498734767
 20
113.7978450128515
 30
0.0
 10
100.9047251701779
 20
113.9418249713775
 30
0.0
 10
101.958734349313
 20
114.1072718858227
 30
0.0
 10
103.0085050065796
 20
114.2617739557531
 30
0.0
 10
104.0127942230188
 20
114.4065415522812
 30
0.0
 10
104.987374706758
 20
114.548712906329
 30
0.0
 10
105.9584841960355
 20
114.696657775782
 30
0.0
 10
106.913898248541
 20
114.8557203673533
 30
0.0
 10
107.7613323455611
 20
115.0183689073471
 30
0.0
 10
108.4507565037993
 20
115.1867580569184
 30
0.0
 10
108.9566876425611
 20
115.3508771209218
 30
0.0
 10
109.3223840445842
 20
115.5550298710795
 30
0.0
 10
109.5390238798557
 20
115.82014029761
 30
0.0
 10
109.5632166825637
 20
115.9953878947515
 30
0.0
 10
109.5750767075519
 20
116.081299432423
 30
0.0
  0
SPLINE
  5
C9
330
1F
100
AcDbEntity
  8
0
  6
Continuous
 62
     7
370
     0
100
AcDbSpline
210
0.0
220
0.0
230
1.0
 70
     8
 71
     3
 72
    31
 73
    27
 74
     0
 42
0.00000001
 43
0.00000001
 12
1.0
 22
0.0
 32
0.0
 13
1.0
 23
0.0
 33
0.0
 40
0.0
 40
0.0
 40
0.0
 40
0.0
 40
0.015778650582218
 40
0.0448017286083237
 40
0.073475636101385
 40
0.1354463955067398
 40
0.2036005930527445
 40
0.2400168037674724
 40
0.2763843103909691
 40
0.3089939462301403
 40
0.3376617339226889
 40
0.3697168291883162
 40
0.3946918039604372
 40
0.4155010246491082
 40
0.4447258035740417
 40
0.4838183508045297
 40
0.5328266473191003
 40
0.5760574268169713
 40
0.6203561695982863
 40
0.6631817974112103
 40
0.7045640205845077
 40
0.7829931122075438
 40
0.8561729143629513
 40
0.927556140446207
 40
0.9636405255273678
 40
1.0
 40
1.0
 40
1.0
 40
1.0
 10
98.54955806295075
 20
118.4068491541407
 30
0.0
 10
98.54737996372546
 20
118.4008384617303
 30
0.0
 10
98.54119549250817
 20
118.3837717671662
 30
0.0
 10
98.64287179986681
 20
118.4378645730836
 30
0.0
 10
98.85408770388243
 20
118.5096690711674
 30
0.0
 10
99.26597773121378
 20
118.625406900055
 30
0.0
 10
99.85760424834316
 20
118.7513305395292
 30
0.0
 10
100.4474740409086
 20
118.8606754961422
 30
0.0
 10
100.9275686041333
 20
118.9429775201783
 30
0.0
 10
101.399128879753
 20
119.0192743926603
 30
0.0
 10
101.8692453939352
 20
119.0923130477505
 30
0.0
 10
102.315268670191
 20
119.1594655883311
 30
0.0
 10
102.7290116072051
 20
119.220505179067
 30
0.0
 10
103.1324479756384
 20
119.2793659523115
 30
0.0
 10
103.6155651338577
 20
119.3493148619212
 30
0.0
 10
104.252793071946
 20
119.441454024893
 30
0.0
 10
104.957237649075
 20
119.5446407065643
 30
0.0
 10
105.6648337530989
 20
119.6518373541981
 30
0.0
 10
106.3085374093111
 20
119.7544096235255
 30
0.0
 10
106.903256491645
 20
119.8562677058817
 30
0.0
 10
107.5972693873728
 20
119.9861119921504
 30
0.0
 10
108.3127857972129
 20
120.1477046279401
 30
0.0
 10
108.9243696198849
 20
120.334884580586
 30
0.0
 10
109.3256219809797
 20
120.5561539019479
 30
0.0
 10
109.5449576186076
 20
120.8330667707196
 30
0.0
 10
109.5685784246232
 20
121.0149366242765
 30
0.0
 10
109.580433675001
 20
121.1062168561481
 30
0.0
  0
SPLINE
  5
CA
330
1F
100
AcDbEntity
  8
0
  6
Continuous
 62
     7
370
     0
100
AcDbSpline
210
0.0
220
0.0
230
1.0
 70
     8
 71
     3
 72
    32
 73
    28
 74
     0
 42
0.00000001
 43
0.00000001
 12
1.0
 22
0.0
 32
0.0
 13
1.0
 23
0.0
 33
0.0
 40
0.0
 40
0.0
 40
0.0
 40
0.0
 40
0.0304437228566899
 40
0.0685556721906698
 40
0.1033565820206726
 40
0.1345570120666125
 40
0.1969468358528869
 40
0.267362837514144
 40
0.3056595521586777
 40
0.3450712969694409
 40
0.3905438733195548
 40
0.4264833108049755
 40
0.4528242562317692
 40
0.4752551602248554
 40
0.5052504139883924
 40
0.5431718569989139
 40
0.576855247994891
 40
0.6150491953082884
 40
0.6563471689727495
 40
0.696205414222701
 40
0.7705374733408739
 40
0.8379390013788001
 40
0.869081357901629
 40
0.9014823507198653
 40
0.9444981054128242
 40
0.9706881084338866
 40
1.0
 40
1.0
 40
1.0
 40
1.0
 10
98.5573099264005
 20
123.4212612592242
 30
0.0
 10
98.56643853753036
 20
123.4197823839084
 30
0.0
 10
98.5869950928216
 20
123.4164521311718
 30
0.0
 10
98.71477874034257
 20
123.4641185993086
 30
0.0
 10
98.90985732913681
 20
123.5244905519023
 30
0.0
 10
99.25355310910908
 20
123.6187283184211
 30
0.0
 10
99.8279706022535
 20
123.7475098084226
 30
0.0
 10
100.5599087470553
 20
123.8817567585225
 30
0.0
 10
101.2684131370412
 20
123.9987602967244
 30
0.0
 10
101.8926798337975
 20
124.0962606436755
 30
0.0
 10
102.5334019144115
 20
124.1920179189204
 30
0.0
 10
103.1187574330582
 20
124.2774075255685
 30
0.0
 10
103.5827451604425
 20
124.3445552558392
 30
0.0
 10
104.0144483274477
 20
124.4069949079437
 30
0.0
 10
104.5076339521138
 20
124.478676717137
 30
0.0
 10
105.054361026749
 20
124.5593803500131
 30
0.0
 10
105.6289821829305
 20
124.6466539113421
 30
0.0
 10
106.1986892175407
 20
124.7367599127863
 30
0.0
 10
106.7644527186617
 20
124.8319252095038
 30
0.0
 10
107.4481379552005
 20
124.956942559491
 30
0.0
 10
108.1468507247909
 20
125.1056312844299
 30
0.0
 10
108.6706654120701
 20
125.255560019552
 30
0.0
 10
108.9796600202734
 20
125.3749210309976
 30
0.0
 10
109.2070030886361
 20
125.4847567307511
 30
0.0
 10
109.4248139733552
 20
125.6630584958531
 30
0.0
 10
109.5577609278297
 20
125.8854546284849
 30
0.0
 10
109.5724708362089
 20
126.029415476017
 30
0.0
 10
109.5802394942442
 20
126.1054446779751
 30
0.0
  0
SPLINE
  5
CB
330
1F
100
AcDbEntity
  8
0
  6
Continuous
 62
     7
370
     0
100
AcDbSpline
210
0.0
220
0.0
230
1.0
 70
     8
 71
     3
 72
    13
 73
     9
 74
     0
 42
0.00000001
 43
0.00000001
 12
1.0
 22
0.0
 32
0.0
 13
1.0
 23
0.0
 33
0.0
 40
0.0
 40
0.0
 40
0.0
 40
0.0
 40
0.0195832815460502
 40
0.2070238341454751
 40
0.3722322286309847
 40
0.5591893704985378
 40
0.7683408687613055
 40
1.0
 40
1.0
 40
1.0
 40
1.0
 10
98.59108853052047
 20
128.4783726417086
 30
0.0
 10
98.59172127549343
 20
128.4764950779989
 30
0.0
 10
98.59841031226341
 20
128.4566464925041
 30
0.0
 10
98.67542790403891
 20
128.4801047172491
 30
0.0
 10
98.85129198374565
 20
128.5223016865701
 30
0.0
 10
99.13042464575227
 20
128.5932964333342
 30
0.0
 10
99.53980369118199
 20
128.6858387081699
 30
0.0
 10
99.91574333681625
 20
128.7593827595028
 30
0.0
 10
100.1133108315119
 20
128.7980323516391
 30
0.0
  0
LINE
  5
CC
330
1F
100
AcDbEntity
  8
0
  6
Continuous
 62
     7
370
     0
100
AcDbLine
 10
109.5806823381
 20
92.3368317865
 30
0.0
 11
109.5806823381
 21
93.3325124764
 31
0.0
  0
LINE
  5
CD
330
1F
100
AcDbEntity
  8
0
  6
Continuous
 62
     7
370
     0
100
AcDbLine
 10
109.5806823381
 20
99.3325097345
 30
0.0
 11
109.5806823381
 21
104.8368310415
 31
0.0
  0
LINE
  5
CE
330
1F
100
AcDbEntity
  8
0
  6
Continuous
 62
     7
370
     0
100
AcDbLine
 10
109.0806822562
 20
104.8368310415
 30
0.0
 11
109.0806822562
 21
106.3368340813
 31
0.0
  0
LINE
  5
CF
330
1F
100
AcDbEntity
  8
0
  6
Continuous
 62
     7
370
     0
100
AcDbLine
 10
98.0806823158
 20
106.3368340813
 30
0.0
 11
98.0806823158
 21
104.8368310415
 31
0.0
  0
LINE
  5
D0
330
1F
100
AcDbEntity
  8
0
  6
Continuous
 62
     7
370
     0
100
AcDbLine
 10
99.0806824797
 20
111.8368340515
 30
0.0
 11
99.0806824797
 21
109.3368327104
 31
0.0
  0
LINE
  5
D1
330
1F
100
AcDbEntity
  8
0
  6
Continuous
 62
     7
370
     0
100
AcDbLine
 10
108.0806820923
 20
109.3368327104
 30
0.0
 11
108.0806820923
 21
110.1027821981
 31
0.0
  0
LINE
  5
D2
330
1F
100
AcDbEntity
  8
0
  6
Continuous
 62
     7
370
     0
100
AcDbLine
 10
108.0806820923
 20
111.1192462825
 30
0.0
 11
108.0806820923
 21
111.8368340515
 31
0.0
  0
LINE
  5
D3
330
1F
100
AcDbEntity
  8
0
  6
Continuous
 62
     7
370
     0
100
AcDbLine
 10
108.5806821742
 20
91.33682976
 30
0.0
 11
109.5806823381
 21
92.3368317865
 31
0.0
  0
LINE
  5
D4
330
1F
100
AcDbEntity
  8
0
  6
Continuous
 62
     7
370
     0
100
AcDbLine
 10
108.0806820923
 20
111.8368340515
 30
0.0
 11
107.580682476
 21
112.3368313395
 31
0.0
  0
LINE
  5
D5
330
1F
100
AcDbEntity
  8
0
  6
Continuous
 62
     7
370
     0
100
AcDbLine
 10
99.580682096
 20
112.3368313395
 30
0.0
 11
99.0806824797
 21
111.8368340515
 31
0.0
  0
LINE
  5
D6
330
1F
100
AcDbEntity
  8
0
  6
Continuous
 62
     7
370
     0
100
AcDbLine
 10
97.5806822338
 20
92.3368317865
 30
0.0
 11
98.5806823977
 21
91.33682976
 31
0.0
  0
LINE
  5
D7
330
1F
100
AcDbEntity
  8
0
  6
Continuous
 62
     7
370
     0
100
AcDbLine
 10
97.5806822338
 20
104.8368310415
 30
0.0
 11
97.5806822338
 21
99.3325097345
 31
0.0
  0
LINE
  5
D8
330
1F
100
AcDbEntity
  8
0
  6
Continuous
 62
     7
370
     0
100
AcDbLine
 10
97.5806822338
 20
93.3325124764
 30
0.0
 11
97.5806822338
 21
92.3368317865
 31
0.0
  0
LINE
  5
D9
330
1F
100
AcDbEntity
  8
0
  6
Continuous
 62
     7
370
     0
100
AcDbLine
 10
91.7806818419
 20
151.236832314
 30
0.0
 11
94.2806822517
 21
151.236832314
 31
0.0
  0
LINE
  5
DA
330
1F
100
AcDbEntity
  8
0
  6
Continuous
 62
     7
370
     0
100
AcDbLine
 10
94.2806822517
 20
155.4368326299
 30
0.0
 11
91.7806818419
 21
155.4368326299
 31
0.0
  0
LINE
  5
DB
330
1F
100
AcDbEntity
  8
0
  6
Continuous
 62
     7
370
     0
100
AcDbLine
 10
89.2806823635
 20
155.6868331366
 30
0.0
 11
86.780682885
 21
155.3368327998
 31
0.0
  0
LINE
  5
DC
330
1F
100
AcDbEntity
  8
0
  6
Continuous
 62
     7
370
     0
100
AcDbLine
 10
91.7806818419
 20
155.6868331366
 30
0.0
 11
89.2806823635
 21
155.3368327998
 31
0.0
  0
LINE
  5
DD
330
1F
100
AcDbEntity
  8
0
  6
Continuous
 62
     7
370
     0
100
AcDbLine
 10
86.780682885
 20
151.3368330755
 30
0.0
 11
89.2806823635
 21
150.9868327387
 31
0.0
  0
LINE
  5
DE
330
1F
100
AcDbEntity
  8
0
  6
Continuous
 62
     7
370
     0
100
AcDbLine
 10
89.2806823635
 20
151.3368330755
 30
0.0
 11
91.7806818419
 21
150.9868327387
 31
0.0
  0
LINE
  5
DF
330
1F
100
AcDbEntity
  8
0
  6
Continuous
 62
     7
370
     0
100
AcDbLine
 10
96.7806821958
 20
149.3368318163
 30
0.0
 11
97.5806822338
 21
149.3368318163
 31
0.0
  0
LINE
  5
E0
330
1F
100
AcDbEntity
  8
0
  6
Continuous
 62
     7
370
     0
100
AcDbLine
 10
109.5806823381
 20
149.3368318163
 30
0.0
 11
110.3806823761
 21
149.3368318163
 31
0.0
  0
LINE
  5
E1
330
1F
100
AcDbEntity
  8
0
  6
Continuous
 62
     7
370
     0
100
AcDbLine
 10
110.3806823761
 20
157.3368331276
 30
0.0
 11
109.5806823381
 21
157.3368331276
 31
0.0
  0
LINE
  5
E2
330
1F
100
AcDbEntity
  8
0
  6
Continuous
 62
     7
370
     0
100
AcDbLine
 10
97.5806822338
 20
157.3368331276
 30
0.0
 11
96.7806821958
 21
157.3368331276
 31
0.0
  0
LINE
  5
E3
330
1F
100
AcDbEntity
  8
0
  6
Continuous
 62
     7
370
     0
100
AcDbLine
 10
107.3093199906
 20
90.6368328117
 30
0.0
 11
107.3093199906
 21
91.2368355178
 31
0.0
  0
LINE
  5
E4
330
1F
100
AcDbEntity
  8
0
  6
Continuous
 62
     7
370
     0
100
AcDbLine
 10
97.4515883521
 20
96.3325111054
 30
0.0
 11
101.116437911
 21
96.3325111054
 31
0.0
  0
SPLINE
  5
E5
330
1F
100
AcDbEntity
  8
0
  6
Continuous
 62
     7
370
     0
100
AcDbSpline
210
0.0
220
0.0
230
1.0
 70
     8
 71
     3
 72
     9
 73
     5
 74
     0
 42
0.00000001
 43
0.00000001
 12
1.0
 22
0.0
 32
0.0
 13
1.0
 23
0.0
 33
0.0
 40
0.0
 40
0.0
 40
0.0
 40
0.0
 40
0.5008257865942602
 40
1.0
 40
1.0
 40
1.0
 40
1.0
 10
101.1164379109693
 20
96.33251110544423
 30
0.0
 10
100.7043186522812
 20
96.25810059953744
 30
0.0
 10
99.88143918057804
 20
96.10952497124799
 30
0.0
 10
99.07550611075594
 20
95.88664825221767
 30
0.0
 10
98.67320510456982
 20
95.77539394130922
 30
0.0
  0
SPLINE
  5
E6
330
1F
100
AcDbEntity
  8
0
  6
Continuous
 62
     7
370
     0
100
AcDbSpline
210
0.0
220
0.0
230
1.0
 70
     8
 71
     3
 72
     9
 73
     5
 74
     0
 42
0.00000001
 43
0.00000001
 12
1.0
 22
0.0
 32
0.0
 13
1.0
 23
0.0
 33
0.0
 40
0.0
 40
0.0
 40
0.0
 40
0.0
 40
0.4990041996681062
 40
1.0
 40
1.0
 40
1.0
 40
1.0
 10
98.67320510456982
 20
95.77539394130922
 30
0.0
 10
98.47212320478432
 20
95.88661141569804
 30
0.0
 10
98.06915685716795
 20
96.10949025011027
 30
0.0
 10
97.65771766133057
 20
96.25807218170839
 30
0.0
 10
97.45158835212412
 20
96.3325111054442
 30
0.0
  0
SPLINE
  5
E7
330
1F
100
AcDbEntity
  8
0
  6
Continuous
 62
     7
370
     0
100
AcDbSpline
210
0.0
220
0.0
230
1.0
 70
     8
 71
     3
 72
     9
 73
     5
 74
     0
 42
0.00000001
 43
0.00000001
 12
1.0
 22
0.0
 32
0.0
 13
1.0
 23
0.0
 33
0.0
 40
0.0
 40
0.0
 40
0.0
 40
0.0
 40
0.4990041996681062
 40
1.0
 40
1.0
 40
1.0
 40
1.0
 10
98.67320510456979
 20
98.77539257040239
 30
0.0
 10
98.4721232047843
 20
98.88661004479123
 30
0.0
 10
98.06915685716791
 20
99.10948887920345
 30
0.0
 10
97.65771766133054
 20
99.25807081080154
 30
0.0
 10
97.45158835212408
 20
99.33250973453737
 30
0.0
  0
LINE
  5
E8
330
1F
100
AcDbEntity
  8
0
  6
Continuous
 62
     7
370
     0
100
AcDbLine
 10
97.4515883521
 20
99.3325097345
 30
0.0
 11
101.116437911
 21
99.3325097345
 31
0.0
  0
SPLINE
  5
E9
330
1F
100
AcDbEntity
  8
0
  6
Continuous
 62
     7
370
     0
100
AcDbSpline
210
0.0
220
0.0
230
1.0
 70
     8
 71
     3
 72
     9
 73
     5
 74
     0
 42
0.00000001
 43
0.00000001
 12
1.0
 22
0.0
 32
0.0
 13
1.0
 23
0.0
 33
0.0
 40
0.0
 40
0.0
 40
0.0
 40
0.0
 40
0.5008257865942602
 40
1.0
 40
1.0
 40
1.0
 40
1.0
 10
101.1164379109692
 20
99.3325097345374
 30
0.0
 10
100.7043186522812
 20
99.25809922863061
 30
0.0
 10
99.881439180578
 20
99.10952360034116
 30
0.0
 10
99.0755061107559
 20
98.88664688131082
 30
0.0
 10
98.67320510456979
 20
98.77539257040239
 30
0.0
  0
SPLINE
  5
EA
330
1F
100
AcDbEntity
  8
0
  6
Continuous
 62
     7
370
     0
100
AcDbSpline
210
0.0
220
0.0
230
1.0
 70
    24
 71
     3
 72
    11
 73
     7
 74
     0
 42
0.00000001
 43
0.00000001
 12
1.0
 22
0.0
 32
0.0
 13
1.0
 23
0.0
 33
0.0
 40
0.0
 40
0.0
 40
0.0
 40
0.0
 40
0.2500000176299368
 40
0.4999999813647081
 40
0.7499999768445809
 40
0.9999999999999999
 40
0.9999999999999999
 40
0.9999999999999999
 40
0.9999999999999999
 10
106.04492666098
 20
99.33250973453745
 30
0.0
 10
106.3835718309521
 20
99.33250973453745
 30
0.0
 10
107.0608620978909
 20
99.33250973453747
 30
0.0
 10
108.0149491446732
 20
99.33250973453745
 30
0.0
 10
108.913434880444
 20
99.33250973453747
 30
0.0
 10
109.4443290969029
 20
99.33250973453748
 30
0.0
 10
109.7097762198251
 20
99.3325097345375
 30
0.0
  0
LINE
  5
EB
330
1F
100
AcDbEntity
  8
0
  6
Continuous
 62
     7
370
     0
100
AcDbLine
 10
109.7097762198
 20
99.3325097345
 30
0.0
 11
112.1740208277
 21
99.3325097345
 31
0.0
  0
SPLINE
  5
EC
330
1F
100
AcDbEntity
  8
0
  6
Continuous
 62
     7
370
     0
100
AcDbSpline
210
0.0
220
0.0
230
1.0
 70
    24
 71
     3
 72
    10
 73
     6
 74
     0
 42
0.00000001
 43
0.00000001
 12
1.0
 22
0.0
 32
0.0
 13
1.0
 23
0.0
 33
0.0
 40
0.0
 40
0.0
 40
0.0
 40
0.0
 40
0.4998716812384716
 40
0.9997434984934712
 40
1.0
 40
1.0
 40
1.0
 40
1.0
 10
112.1740208276612
 20
99.3325097345375
 30
0.0
 10
112.2441962594086
 20
99.3325097345376
 30
0.0
 10
112.3845471419983
 20
99.33250973453771
 30
0.0
 10
112.4518552923054
 20
99.33250973453706
 30
0.0
 10
112.4306604273041
 20
99.33250973453751
 30
0.0
 10
112.4306495570642
 20
99.33250973453752
 30
0.0
  0
SPLINE
  5
ED
330
1F
100
AcDbEntity
  8
0
  6
Continuous
 62
     7
370
     0
100
AcDbSpline
210
0.0
220
0.0
230
1.0
 70
    24
 71
     3
 72
     9
 73
     5
 74
     0
 42
0.00000001
 43
0.00000001
 12
1.0
 22
0.0
 32
0.0
 13
1.0
 23
0.0
 33
0.0
 40
0.0
 40
0.0
 40
0.0
 40
0.0
 40
0.5000000680257127
 40
1.0
 40
1.0
 40
1.0
 40
1.0
 10
94.73068241859494
 20
99.33250973453734
 30
0.0
 10
94.74149398133402
 20
99.33250973453734
 30
0.0
 10
94.76311710387029
 20
99.33250973453735
 30
0.0
 10
94.91260153759467
 20
99.33250973453733
 30
0.0
 10
94.98734374428807
 20
99.33250973453734
 30
0.0
  0
LINE
  5
EE
330
1F
100
AcDbEntity
  8
0
  6
Continuous
 62
     7
370
     0
100
AcDbLine
 10
94.9873437443
 20
99.3325097345
 30
0.0
 11
97.4515883521
 21
99.3325097345
 31
0.0
  0
SPLINE
  5
EF
330
1F
100
AcDbEntity
  8
0
  6
Continuous
 62
     7
370
     0
100
AcDbSpline
210
0.0
220
0.0
230
1.0
 70
    24
 71
     3
 72
    11
 73
     7
 74
     0
 42
0.00000001
 43
0.00000001
 12
1.0
 22
0.0
 32
0.0
 13
1.0
 23
0.0
 33
0.0
 40
0.0
 40
0.0
 40
0.0
 40
0.0
 40
0.250000023155419
 40
0.5000000186352918
 40
0.749999982370063
 40
0.9999999999999999
 40
0.9999999999999999
 40
0.9999999999999999
 40
0.9999999999999999
 10
97.45158835212408
 20
99.33250973453737
 30
0.0
 10
97.7170354750463
 20
99.33250973453737
 30
0.0
 10
98.24792969150516
 20
99.33250973453738
 30
0.0
 10
99.14641542727603
 20
99.33250973453737
 30
0.0
 10
100.1005024740583
 20
99.33250973453737
 30
0.0
 10
100.7777927409971
 20
99.3325097345374
 30
0.0
 10
101.1164379109692
 20
99.3325097345374
 30
0.0
  0
LINE
  5
F0
330
1F
100
AcDbEntity
  8
0
  6
Continuous
 62
     7
370
     0
100
AcDbLine
 10
101.116437911
 20
99.3325097345
 30
0.0
 11
106.044926661
 21
99.3325097345
 31
0.0
  0
SPLINE
  5
F1
330
1F
100
AcDbEntity
  8
0
  6
Continuous
 62
     7
370
     0
100
AcDbSpline
210
0.0
220
0.0
230
1.0
 70
    24
 71
     3
 72
    11
 73
     7
 74
     0
 42
0.00000001
 43
0.00000001
 12
1.0
 22
0.0
 32
0.0
 13
1.0
 23
0.0
 33
0.0
 40
0.0
 40
0.0
 40
0.0
 40
0.0
 40
0.2500000176299368
 40
0.4999999813647081
 40
0.7499999768445809
 40
0.9999999999999999
 40
0.9999999999999999
 40
0.9999999999999999
 40
0.9999999999999999
 10
106.04492666098
 20
96.33251110544428
 30
0.0
 10
106.3835718309521
 20
96.3325111054443
 30
0.0
 10
107.0608620978909
 20
96.3325111054443
 30
0.0
 10
108.0149491446732
 20
96.33251110544428
 30
0.0
 10
108.9134348804441
 20
96.33251110544431
 30
0.0
 10
109.4443290969029
 20
96.33251110544431
 30
0.0
 10
109.7097762198252
 20
96.33251110544433
 30
0.0
  0
LINE
  5
F2
330
1F
100
AcDbEntity
  8
0
  6
Continuous
 62
     7
370
     0
100
AcDbLine
 10
109.7097762198
 20
96.3325111054
 30
0.0
 11
112.1740208277
 21
96.3325111054
 31
0.0
  0
SPLINE
  5
F3
330
1F
100
AcDbEntity
  8
0
  6
Continuous
 62
     7
370
     0
100
AcDbSpline
210
0.0
220
0.0
230
1.0
 70
    24
 71
     3
 72
    10
 73
     6
 74
     0
 42
0.00000001
 43
0.00000001
 12
1.0
 22
0.0
 32
0.0
 13
1.0
 23
0.0
 33
0.0
 40
0.0
 40
0.0
 40
0.0
 40
0.0
 40
0.4998716812384716
 40
0.9997434984934712
 40
1.0
 40
1.0
 40
1.0
 40
1.0
 10
112.1740208276612
 20
96.33251110544433
 30
0.0
 10
112.2441962594086
 20
96.33251110544418
 30
0.0
 10
112.3845471419984
 20
96.3325111054438
 30
0.0
 10
112.4518552923054
 20
96.3325111054456
 30
0.0
 10
112.4306604273041
 20
96.33251110544434
 30
0.0
 10
112.4306495570642
 20
96.33251110544435
 30
0.0
  0
SPLINE
  5
F4
330
1F
100
AcDbEntity
  8
0
  6
Continuous
 62
     7
370
     0
100
AcDbSpline
210
0.0
220
0.0
230
1.0
 70
    24
 71
     3
 72
     9
 73
     5
 74
     0
 42
0.00000001
 43
0.00000001
 12
1.0
 22
0.0
 32
0.0
 13
1.0
 23
0.0
 33
0.0
 40
0.0
 40
0.0
 40
0.0
 40
0.0
 40
0.5000000680257127
 40
1.0
 40
1.0
 40
1.0
 40
1.0
 10
94.73068241859498
 20
96.33251110544417
 30
0.0
 10
94.74149398133403
 20
96.33251110544417
 30
0.0
 10
94.76311710387033
 20
96.33251110544417
 30
0.0
 10
94.9126015375947
 20
96.33251110544417
 30
0.0
 10
94.98734374428811
 20
96.33251110544417
 30
0.0
  0
LINE
  5
F5
330
1F
100
AcDbEntity
  8
0
  6
Continuous
 62
     7
370
     0
100
AcDbLine
 10
94.9873437443
 20
96.3325111054
 30
0.0
 11
97.4515883521
 21
96.3325111054
 31
0.0
  0
SPLINE
  5
F6
330
1F
100
AcDbEntity
  8
0
  6
Continuous
 62
     7
370
     0
100
AcDbSpline
210
0.0
220
0.0
230
1.0
 70
    24
 71
     3
 72
    11
 73
     7
 74
     0
 42
0.00000001
 43
0.00000001
 12
1.0
 22
0.0
 32
0.0
 13
1.0
 23
0.0
 33
0.0
 40
0.0
 40
0.0
 40
0.0
 40
0.0
 40
0.250000023155419
 40
0.5000000186352918
 40
0.749999982370063
 40
0.9999999999999999
 40
0.9999999999999999
 40
0.9999999999999999
 40
0.9999999999999999
 10
97.45158835212412
 20
96.3325111054442
 30
0.0
 10
97.71703547504633
 20
96.3325111054442
 30
0.0
 10
98.2479296915052
 20
96.33251110544421
 30
0.0
 10
99.14641542727605
 20
96.3325111054442
 30
0.0
 10
100.1005024740583
 20
96.3325111054442
 30
0.0
 10
100.7777927409972
 20
96.33251110544424
 30
0.0
 10
101.1164379109693
 20
96.33251110544423
 30
0.0
  0
LINE
  5
F7
330
1F
100
AcDbEntity
  8
0
  6
Continuous
 62
     7
370
     0
100
AcDbLine
 10
101.116437911
 20
96.3325111054
 30
0.0
 11
106.044926661
 21
96.3325111054
 31
0.0
  0
SPLINE
  5
F8
330
1F
100
AcDbEntity
  8
0
  6
Continuous
 62
     7
370
     0
100
AcDbSpline
210
0.0
220
0.0
230
1.0
 70
     8
 71
     3
 72
     9
 73
     5
 74
     0
 42
0.00000001
 43
0.00000001
 12
1.0
 22
0.0
 32
0.0
 13
1.0
 23
0.0
 33
0.0
 40
0.0
 40
0.0
 40
0.0
 40
0.0
 40
0.4990041996681062
 40
1.0
 40
1.0
 40
1.0
 40
1.0
 10
108.4881594673795
 20
96.88962826957928
 30
0.0
 10
108.6892413671649
 20
96.77841079519044
 30
0.0
 10
109.0922077147813
 20
96.55553196077823
 30
0.0
 10
109.5036469106187
 20
96.40695002918015
 30
0.0
 10
109.7097762198252
 20
96.33251110544433
 30
0.0
  0
LINE
  5
F9
330
1F
100
AcDbEntity
  8
0
  6
Continuous
 62
     7
370
     0
100
AcDbLine
 10
108.4881594674
 20
98.7753925704
 30
0.0
 11
108.4881594674
 21
96.8896282696
 31
0.0
  0
LINE
  5
FA
330
1F
100
AcDbEntity
  8
0
  6
Continuous
 62
     7
370
     0
100
AcDbLine
 10
109.7097762198
 20
99.3325097345
 30
0.0
 11
108.4881594674
 21
98.7753925704
 31
0.0
  0
LINE
  5
FB
330
1F
100
AcDbEntity
  8
0
  6
Continuous
 62
     7
370
     0
100
AcDbLine
 10
112.1740208277
 20
99.3325097345
 30
0.0
 11
109.7097762198
 21
99.3325097345
 31
0.0
  0
SPLINE
  5
FC
330
1F
100
AcDbEntity
  8
0
  6
Continuous
 62
     7
370
     0
100
AcDbSpline
210
0.0
220
0.0
230
1.0
 70
     8
 71
     3
 72
     9
 73
     5
 74
     0
 42
0.00000001
 43
0.00000001
 12
1.0
 22
0.0
 32
0.0
 13
1.0
 23
0.0
 33
0.0
 40
0.0
 40
0.0
 40
0.0
 40
0.0
 40
0.4990042006968726
 40
1.0
 40
1.0
 40
1.0
 40
1.0
 10
113.3956366487843
 20
98.77539257040254
 30
0.0
 10
113.1945549045847
 20
98.8866100447216
 30
0.0
 10
112.7915888695918
 20
99.10948887853452
 30
0.0
 10
112.3801499820097
 20
99.25807081068021
 30
0.0
 10
112.1740208276612
 20
99.33250973453751
 30
0.0
  0
LINE
  5
FD
330
1F
100
AcDbEntity
  8
0
  6
Continuous
 62
     7
370
     0
100
AcDbLine
 10
113.3956366488
 20
96.8896282696
 30
0.0
 11
113.3956366488
 21
98.7753925704
 31
0.0
  0
LINE
  5
FE
330
1F
100
AcDbEntity
  8
0
  6
Continuous
 62
     7
370
     0
100
AcDbLine
 10
112.1740208277
 20
96.3325111054
 30
0.0
 11
113.3956366488
 21
96.8896282696
 31
0.0
  0
LINE
  5
FF
330
1F
100
AcDbEntity
  8
0
  6
Continuous
 62
     7
370
     0
100
AcDbLine
 10
109.7097762198
 20
96.3325111054
 30
0.0
 11
112.1740208277
 21
96.3325111054
 31
0.0
  0
LINE
  5
100
330
1F
100
AcDbEntity
  8
0
  6
Continuous
 62
     7
370
     0
100
AcDbLine
 10
113.3956366488
 20
93.8896296405
 30
0.0
 11
113.3956366488
 21
95.7753939413
 31
0.0
  0
SPLINE
  5
101
330
1F
100
AcDbEntity
  8
0
  6
Continuous
 62
     7
370
     0
100
AcDbSpline
210
0.0
220
0.0
230
1.0
 70
     8
 71
     3
 72
     9
 73
     5
 74
     0
 42
0.00000001
 43
0.00000001
 12
1.0
 22
0.0
 32
0.0
 13
1.0
 23
0.0
 33
0.0
 40
0.0
 40
0.0
 40
0.0
 40
0.0
 40
0.4990042006968726
 40
1.0
 40
1.0
 40
1.0
 40
1.0
 10
113.3956366487843
 20
95.77539394130937
 30
0.0
 10
113.1945549045847
 20
95.88661141562844
 30
0.0
 10
112.7915888695919
 20
96.10949024944135
 30
0.0
 10
112.3801499820098
 20
96.25807218158705
 30
0.0
 10
112.1740208276612
 20
96.33251110544434
 30
0.0
  0
LINE
  5
102
330
1F
100
AcDbEntity
  8
0
  6
Continuous
 62
     7
370
     0
100
AcDbLine
 10
109.7097762198
 20
96.3325111054
 30
0.0
 11
108.4881594674
 21
95.7753939413
 31
0.0
  0
LINE
  5
103
330
1F
100
AcDbEntity
  8
0
  6
Continuous
 62
     7
370
     0
100
AcDbLine
 10
108.4881594674
 20
95.7753939413
 30
0.0
 11
108.4881594674
 21
93.8896296405
 31
0.0
  0
SPLINE
  5
104
330
1F
100
AcDbEntity
  8
0
  6
Continuous
 62
     7
370
     0
100
AcDbSpline
210
0.0
220
0.0
230
1.0
 70
     8
 71
     3
 72
     9
 73
     5
 74
     0
 42
0.00000001
 43
0.00000001
 12
1.0
 22
0.0
 32
0.0
 13
1.0
 23
0.0
 33
0.0
 40
0.0
 40
0.0
 40
0.0
 40
0.0
 40
0.4990041996681062
 40
1.0
 40
1.0
 40
1.0
 40
1.0
 10
108.4881594673795
 20
93.8896296404861
 30
0.0
 10
108.689241367165
 20
93.77841216609727
 30
0.0
 10
109.0922077147814
 20
93.55553333168504
 30
0.0
 10
109.5036469106187
 20
93.406951400087
 30
0.0
 10
109.7097762198252
 20
93.33251247635116
 30
0.0
  0
LINE
  5
105
330
1F
100
AcDbEntity
  8
0
  6
Continuous
 62
     7
370
     0
100
AcDbLine
 10
109.7097762198
 20
93.3325124764
 30
0.0
 11
112.1740208277
 21
93.3325124764
 31
0.0
  0
LINE
  5
106
330
1F
100
AcDbEntity
  8
0
  6
Continuous
 62
     7
370
     0
100
AcDbLine
 10
112.1740208277
 20
93.3325124764
 30
0.0
 11
113.3956366488
 21
93.8896296405
 31
0.0
  0
SPLINE
  5
107
330
1F
100
AcDbEntity
  8
0
  6
Continuous
 62
     7
370
     0
100
AcDbSpline
210
0.0
220
0.0
230
1.0
 70
     8
 71
     3
 72
     9
 73
     5
 74
     0
 42
0.00000001
 43
0.00000001
 12
1.0
 22
0.0
 32
0.0
 13
1.0
 23
0.0
 33
0.0
 40
0.0
 40
0.0
 40
0.0
 40
0.0
 40
0.4984267885183189
 40
0.9999999999999999
 40
0.9999999999999999
 40
0.9999999999999999
 40
0.9999999999999999
 10
98.6732051045698
 20
96.88962826957918
 30
0.0
 10
99.07490080950059
 20
96.77853159647682
 30
0.0
 10
99.8808280072038
 20
96.55563692937307
 30
0.0
 10
100.70370490346
 20
96.40704222734809
 30
0.0
 10
101.1164379109693
 20
96.33251110544423
 30
0.0
  0
LINE
  5
108
330
1F
100
AcDbEntity
  8
0
  6
Continuous
 62
     7
370
     0
100
AcDbLine
 10
98.6732051046
 20
98.7753925704
 30
0.0
 11
98.6732051046
 21
96.8896282696
 31
0.0
  0
SPLINE
  5
109
330
1F
100
AcDbEntity
  8
0
  6
Continuous
 62
     7
370
     0
100
AcDbSpline
210
0.0
220
0.0
230
1.0
 70
     8
 71
     3
 72
     9
 73
     5
 74
     0
 42
0.00000001
 43
0.00000001
 12
1.0
 22
0.0
 32
0.0
 13
1.0
 23
0.0
 33
0.0
 40
0.0
 40
0.0
 40
0.0
 40
0.0
 40
0.5008257865942602
 40
1.0
 40
1.0
 40
1.0
 40
1.0
 10
101.1164379109692
 20
99.3325097345374
 30
0.0
 10
100.7043186522812
 20
99.25809922863061
 30
0.0
 10
99.881439180578
 20
99.10952360034116
 30
0.0
 10
99.0755061107559
 20
98.88664688131082
 30
0.0
 10
98.67320510456979
 20
98.77539257040239
 30
0.0
  0
SPLINE
  5
10A
330
1F
100
AcDbEntity
  8
0
  6
Continuous
 62
     7
370
     0
100
AcDbSpline
210
0.0
220
0.0
230
1.0
 70
     8
 71
     3
 72
     9
 73
     5
 74
     0
 42
0.00000001
 43
0.00000001
 12
1.0
 22
0.0
 32
0.0
 13
1.0
 23
0.0
 33
0.0
 40
0.0
 40
0.0
 40
0.0
 40
0.0
 40
0.4984267885183189
 40
0.9999999999999999
 40
0.9999999999999999
 40
0.9999999999999999
 40
0.9999999999999999
 10
108.4881594673794
 20
98.7753925704025
 30
0.0
 10
108.0864637624487
 20
98.8864892435049
 30
0.0
 10
107.2805365647454
 20
99.10938391060864
 30
0.0
 10
106.4576596684893
 20
99.25797861263362
 30
0.0
 10
106.04492666098
 20
99.33250973453745
 30
0.0
  0
SPLINE
  5
10B
330
1F
100
AcDbEntity
  8
0
  6
Continuous
 62
     7
370
     0
100
AcDbSpline
210
0.0
220
0.0
230
1.0
 70
     8
 71
     3
 72
     9
 73
     5
 74
     0
 42
0.00000001
 43
0.00000001
 12
1.0
 22
0.0
 32
0.0
 13
1.0
 23
0.0
 33
0.0
 40
0.0
 40
0.0
 40
0.0
 40
0.0
 40
0.5008257865942602
 40
1.0
 40
1.0
 40
1.0
 40
1.0
 10
106.04492666098
 20
96.33251110544428
 30
0.0
 10
106.457045919668
 20
96.4069216113511
 30
0.0
 10
107.2799253913712
 20
96.55549723964054
 30
0.0
 10
108.0858584611933
 20
96.77837395867087
 30
0.0
 10
108.4881594673795
 20
96.88962826957929
 30
0.0
  0
SPLINE
  5
10C
330
1F
100
AcDbEntity
  8
0
  6
Continuous
 62
     7
370
     0
100
AcDbSpline
210
0.0
220
0.0
230
1.0
 70
     8
 71
     3
 72
     9
 73
     5
 74
     0
 42
0.00000001
 43
0.00000001
 12
1.0
 22
0.0
 32
0.0
 13
1.0
 23
0.0
 33
0.0
 40
0.0
 40
0.0
 40
0.0
 40
0.0
 40
0.4984267885183189
 40
0.9999999999999999
 40
0.9999999999999999
 40
0.9999999999999999
 40
0.9999999999999999
 10
98.67320510456985
 20
93.889629640486
 30
0.0
 10
99.07490080950062
 20
93.77853296738365
 30
0.0
 10
99.88082800720383
 20
93.55563830027991
 30
0.0
 10
100.70370490346
 20
93.40704359825492
 30
0.0
 10
101.1164379109693
 20
93.33251247635106
 30
0.0
  0
LINE
  5
10D
330
1F
100
AcDbEntity
  8
0
  6
Continuous
 62
     7
370
     0
100
AcDbLine
 10
98.6732051046
 20
95.7753939413
 30
0.0
 11
98.6732051046
 21
93.8896296405
 31
0.0
  0
SPLINE
  5
10E
330
1F
100
AcDbEntity
  8
0
  6
Continuous
 62
     7
370
     0
100
AcDbSpline
210
0.0
220
0.0
230
1.0
 70
     8
 71
     3
 72
     9
 73
     5
 74
     0
 42
0.00000001
 43
0.00000001
 12
1.0
 22
0.0
 32
0.0
 13
1.0
 23
0.0
 33
0.0
 40
0.0
 40
0.0
 40
0.0
 40
0.0
 40
0.5008257865942602
 40
1.0
 40
1.0
 40
1.0
 40
1.0
 10
101.1164379109693
 20
96.33251110544423
 30
0.0
 10
100.7043186522812
 20
96.25810059953744
 30
0.0
 10
99.88143918057804
 20
96.10952497124799
 30
0.0
 10
99.07550611075594
 20
95.88664825221767
 30
0.0
 10
98.67320510456982
 20
95.77539394130922
 30
0.0
  0
SPLINE
  5
10F
330
1F
100
AcDbEntity
  8
0
  6
Continuous
 62
     7
370
     0
100
AcDbSpline
210
0.0
220
0.0
230
1.0
 70
     8
 71
     3
 72
     9
 73
     5
 74
     0
 42
0.00000001
 43
0.00000001
 12
1.0
 22
0.0
 32
0.0
 13
1.0
 23
0.0
 33
0.0
 40
0.0
 40
0.0
 40
0.0
 40
0.0
 40
0.4984261275872445
 40
0.9999999999999999
 40
0.9999999999999999
 40
0.9999999999999999
 40
0.9999999999999999
 10
108.4881594673795
 20
95.77539394130933
 30
0.0
 10
108.0864634912922
 20
95.88648694163226
 30
0.0
 10
107.2805346808749
 20
96.10937453554855
 30
0.0
 10
106.4576594014126
 20
96.25797632863728
 30
0.0
 10
106.04492666098
 20
96.33251110544428
 30
0.0
  0
SPLINE
  5
110
330
1F
100
AcDbEntity
  8
0
  6
Continuous
 62
     7
370
     0
100
AcDbSpline
210
0.0
220
0.0
230
1.0
 70
     8
 71
     3
 72
     9
 73
     5
 74
     0
 42
0.00000001
 43
0.00000001
 12
1.0
 22
0.0
 32
0.0
 13
1.0
 23
0.0
 33
0.0
 40
0.0
 40
0.0
 40
0.0
 40
0.0
 40
0.5008257865942602
 40
1.0
 40
1.0
 40
1.0
 40
1.0
 10
106.04492666098
 20
93.33251247635111
 30
0.0
 10
106.4570459196681
 20
93.40692298225791
 30
0.0
 10
107.2799253913713
 20
93.55549861054736
 30
0.0
 10
108.0858584611934
 20
93.7783753295777
 30
0.0
 10
108.4881594673795
 20
93.88962964048612
 30
0.0
  0
LINE
  5
111
330
1F
100
AcDbEntity
  8
0
  6
Continuous
 62
     7
370
     0
100
AcDbLine
 10
101.116437911
 20
93.3325124764
 30
0.0
 11
106.044926661
 21
93.3325124764
 31
0.0
  0
SPLINE
  5
112
330
1F
100
AcDbEntity
  8
0
  6
Continuous
 62
     7
370
     0
100
AcDbSpline
210
0.0
220
0.0
230
1.0
 70
     8
 71
     3
 72
     9
 73
     5
 74
     0
 42
0.00000001
 43
0.00000001
 12
1.0
 22
0.0
 32
0.0
 13
1.0
 23
0.0
 33
0.0
 40
0.0
 40
0.0
 40
0.0
 40
0.0
 40
0.4990042006968728
 40
1.0
 40
1.0
 40
1.0
 40
1.0
 10
93.765727923165
 20
93.88962964048598
 30
0.0
 10
93.96680966736459
 20
93.77841216616689
 30
0.0
 10
94.36977570235742
 20
93.55553333235397
 30
0.0
 10
94.78121458993952
 20
93.40695140020831
 30
0.0
 10
94.98734374428814
 20
93.33251247635101
 30
0.0
  0
LINE
  5
113
330
1F
100
AcDbEntity
  8
0
  6
Continuous
 62
     7
370
     0
100
AcDbLine
 10
93.7657279232
 20
95.7753939413
 30
0.0
 11
93.7657279232
 21
93.8896296405
 31
0.0
  0
LINE
  5
114
330
1F
100
AcDbEntity
  8
0
  6
Continuous
 62
     7
370
     0
100
AcDbLine
 10
94.9873437443
 20
96.3325111054
 30
0.0
 11
93.7657279232
 21
95.7753939413
 31
0.0
  0
LINE
  5
115
330
1F
100
AcDbEntity
  8
0
  6
Continuous
 62
     7
370
     0
100
AcDbLine
 10
97.4515883521
 20
96.3325111054
 30
0.0
 11
94.9873437443
 21
96.3325111054
 31
0.0
  0
SPLINE
  5
116
330
1F
100
AcDbEntity
  8
0
  6
Continuous
 62
     7
370
     0
100
AcDbSpline
210
0.0
220
0.0
230
1.0
 70
     8
 71
     3
 72
     9
 73
     5
 74
     0
 42
0.00000001
 43
0.00000001
 12
1.0
 22
0.0
 32
0.0
 13
1.0
 23
0.0
 33
0.0
 40
0.0
 40
0.0
 40
0.0
 40
0.0
 40
0.4990041996681062
 40
1.0
 40
1.0
 40
1.0
 40
1.0
 10
98.67320510456982
 20
95.77539394130922
 30
0.0
 10
98.47212320478432
 20
95.88661141569804
 30
0.0
 10
98.06915685716795
 20
96.10949025011027
 30
0.0
 10
97.65771766133057
 20
96.25807218170839
 30
0.0
 10
97.45158835212412
 20
96.3325111054442
 30
0.0
  0
LINE
  5
117
330
1F
100
AcDbEntity
  8
0
  6
Continuous
 62
     7
370
     0
100
AcDbLine
 10
97.4515883521
 20
93.3325124764
 30
0.0
 11
98.6732051046
 21
93.8896296405
 31
0.0
  0
LINE
  5
118
330
1F
100
AcDbEntity
  8
0
  6
Continuous
 62
     7
370
     0
100
AcDbLine
 10
94.9873437443
 20
93.3325124764
 30
0.0
 11
97.4515883521
 21
93.3325124764
 31
0.0
  0
SPLINE
  5
119
330
1F
100
AcDbEntity
  8
0
  6
Continuous
 62
     7
370
     0
100
AcDbSpline
210
0.0
220
0.0
230
1.0
 70
     8
 71
     3
 72
     9
 73
     5
 74
     0
 42
0.00000001
 43
0.00000001
 12
1.0
 22
0.0
 32
0.0
 13
1.0
 23
0.0
 33
0.0
 40
0.0
 40
0.0
 40
0.0
 40
0.0
 40
0.4990042006968728
 40
1.0
 40
1.0
 40
1.0
 40
1.0
 10
93.76572792316497
 20
96.88962826957915
 30
0.0
 10
93.96680966736456
 20
96.77841079526007
 30
0.0
 10
94.36977570235739
 20
96.55553196144714
 30
0.0
 10
94.78121458993951
 20
96.40695002930148
 30
0.0
 10
94.98734374428811
 20
96.33251110544418
 30
0.0
  0
LINE
  5
11A
330
1F
100
AcDbEntity
  8
0
  6
Continuous
 62
     7
370
     0
100
AcDbLine
 10
93.7657279232
 20
98.7753925704
 30
0.0
 11
93.7657279232
 21
96.8896282696
 31
0.0
  0
LINE
  5
11B
330
1F
100
AcDbEntity
  8
0
  6
Continuous
 62
     7
370
     0
100
AcDbLine
 10
94.9873437443
 20
99.3325097345
 30
0.0
 11
93.7657279232
 21
98.7753925704
 31
0.0
  0
LINE
  5
11C
330
1F
100
AcDbEntity
  8
0
  6
Continuous
 62
     7
370
     0
100
AcDbLine
 10
97.4515883521
 20
99.3325097345
 30
0.0
 11
94.9873437443
 21
99.3325097345
 31
0.0
  0
SPLINE
  5
11D
330
1F
100
AcDbEntity
  8
0
  6
Continuous
 62
     7
370
     0
100
AcDbSpline
210
0.0
220
0.0
230
1.0
 70
     8
 71
     3
 72
     9
 73
     5
 74
     0
 42
0.00000001
 43
0.00000001
 12
1.0
 22
0.0
 32
0.0
 13
1.0
 23
0.0
 33
0.0
 40
0.0
 40
0.0
 40
0.0
 40
0.0
 40
0.4990041996681062
 40
1.0
 40
1.0
 40
1.0
 40
1.0
 10
98.67320510456979
 20
98.77539257040239
 30
0.0
 10
98.4721232047843
 20
98.88661004479123
 30
0.0
 10
98.06915685716791
 20
99.10948887920345
 30
0.0
 10
97.65771766133054
 20
99.25807081080154
 30
0.0
 10
97.45158835212408
 20
99.33250973453737
 30
0.0
  0
LINE
  5
11E
330
1F
100
AcDbEntity
  8
0
  6
Continuous
 62
     7
370
     0
100
AcDbLine
 10
97.4515883521
 20
96.3325111054
 30
0.0
 11
98.6732051046
 21
96.8896282696
 31
0.0
  0
SPLINE
  5
11F
330
1F
100
AcDbEntity
  8
0
  6
Continuous
 62
     7
370
     0
100
AcDbSpline
210
0.0
220
0.0
230
1.0
 70
     8
 71
     3
 72
     9
 73
     5
 74
     0
 42
0.00000001
 43
0.00000001
 12
1.0
 22
0.0
 32
0.0
 13
1.0
 23
0.0
 33
0.0
 40
0.0
 40
0.0
 40
0.0
 40
0.0
 40
0.4990042006968726
 40
1.0
 40
1.0
 40
1.0
 40
1.0
 10
93.76572792316499
 20
95.77539394130919
 30
0.0
 10
93.96680966736456
 20
95.88661141562824
 30
0.0
 10
94.36977570235739
 20
96.10949024944115
 30
0.0
 10
94.78121458993951
 20
96.25807218158685
 30
0.0
 10
94.98734374428811
 20
96.33251110544418
 30
0.0
  0
SPLINE
  5
120
330
1F
100
AcDbEntity
  8
0
  6
Continuous
 62
     7
370
     0
100
AcDbSpline
210
0.0
220
0.0
230
1.0
 70
     8
 71
     3
 72
     9
 73
     5
 74
     0
 42
0.00000001
 43
0.00000001
 12
1.0
 22
0.0
 32
0.0
 13
1.0
 23
0.0
 33
0.0
 40
0.0
 40
0.0
 40
0.0
 40
0.0
 40
0.4990042006968726
 40
1.0
 40
1.0
 40
1.0
 40
1.0
 10
93.76572792316496
 20
98.77539257040236
 30
0.0
 10
93.96680966736454
 20
98.88661004472141
 30
0.0
 10
94.36977570235736
 20
99.10948887853432
 30
0.0
 10
94.78121458993948
 20
99.25807081068001
 30
0.0
 10
94.98734374428807
 20
99.33250973453735
 30
0.0
  0
SPLINE
  5
121
330
1F
100
AcDbEntity
  8
0
  6
Continuous
 62
     7
370
     0
100
AcDbSpline
210
0.0
220
0.0
230
1.0
 70
     8
 71
     3
 72
     9
 73
     5
 74
     0
 42
0.00000001
 43
0.00000001
 12
1.0
 22
0.0
 32
0.0
 13
1.0
 23
0.0
 33
0.0
 40
0.0
 40
0.0
 40
0.0
 40
0.0
 40
0.4990042006968728
 40
1.0
 40
1.0
 40
1.0
 40
1.0
 10
113.3956366487843
 20
93.88962964048616
 30
0.0
 10
113.1945549045847
 20
93.77841216616709
 30
0.0
 10
112.7915888695919
 20
93.55553333235417
 30
0.0
 10
112.3801499820098
 20
93.40695140020851
 30
0.0
 10
112.1740208276612
 20
93.33251247635117
 30
0.0
  0
SPLINE
  5
122
330
1F
100
AcDbEntity
  8
0
  6
Continuous
 62
     7
370
     0
100
AcDbSpline
210
0.0
220
0.0
230
1.0
 70
     8
 71
     3
 72
     9
 73
     5
 74
     0
 42
0.00000001
 43
0.00000001
 12
1.0
 22
0.0
 32
0.0
 13
1.0
 23
0.0
 33
0.0
 40
0.0
 40
0.0
 40
0.0
 40
0.0
 40
0.4990042006968728
 40
1.0
 40
1.0
 40
1.0
 40
1.0
 10
113.3956366487843
 20
96.88962826957933
 30
0.0
 10
113.1945549045847
 20
96.77841079526027
 30
0.0
 10
112.7915888695919
 20
96.55553196144734
 30
0.0
 10
112.3801499820098
 20
96.40695002930168
 30
0.0
 10
112.1740208276612
 20
96.33251110544434
 30
0.0
  0
SPLINE
  5
123
330
1F
100
AcDbEntity
  8
0
  6
Continuous
 62
     7
370
     0
100
AcDbSpline
210
0.0
220
0.0
230
1.0
 70
    24
 71
     3
 72
     9
 73
     5
 74
     0
 42
0.00000001
 43
0.00000001
 12
1.0
 22
0.0
 32
0.0
 13
1.0
 23
0.0
 33
0.0
 40
0.0
 40
0.0
 40
0.0
 40
0.0
 40
0.4999999319742873
 40
1.0
 40
1.0
 40
1.0
 40
1.0
 10
112.1740208276612
 20
96.33251110544434
 30
0.0
 10
112.2487630343546
 20
96.33251110544434
 30
0.0
 10
112.398247468079
 20
96.33251110544434
 30
0.0
 10
112.4198705906152
 20
96.33251110544434
 30
0.0
 10
112.4306821533543
 20
96.33251110544435
 30
0.0
  0
SPLINE
  5
124
330
1F
100
AcDbEntity
  8
0
  6
Continuous
 62
     7
370
     0
100
AcDbSpline
210
0.0
220
0.0
230
1.0
 70
    24
 71
     3
 72
     9
 73
     5
 74
     0
 42
0.00000001
 43
0.00000001
 12
1.0
 22
0.0
 32
0.0
 13
1.0
 23
0.0
 33
0.0
 40
0.0
 40
0.0
 40
0.0
 40
0.0
 40
0.4998717515065107
 40
1.0
 40
1.0
 40
1.0
 40
1.0
 10
94.73071501488509
 20
96.33251110544415
 30
0.0
 10
94.74152395020405
 20
96.33251110544417
 30
0.0
 10
94.76314736718328
 20
96.33251110544414
 30
0.0
 10
94.91259884063562
 20
96.33251110544417
 30
0.0
 10
94.98734374428811
 20
96.33251110544418
 30
0.0
  0
LINE
  5
125
330
1F
100
AcDbEntity
  8
0
  6
Continuous
 62
     7
370
     0
100
AcDbLine
 10
94.9873437443
 20
96.3325111054
 30
0.0
 11
97.4515883521
 21
96.3325111054
 31
0.0
  0
SPLINE
  5
126
330
1F
100
AcDbEntity
  8
0
  6
Continuous
 62
     7
370
     0
100
AcDbSpline
210
0.0
220
0.0
230
1.0
 70
    24
 71
     3
 72
    11
 73
     7
 74
     0
 42
0.00000001
 43
0.00000001
 12
1.0
 22
0.0
 32
0.0
 13
1.0
 23
0.0
 33
0.0
 40
0.0
 40
0.0
 40
0.0
 40
0.0
 40
0.250000023155419
 40
0.5000000186352918
 40
0.749999982370063
 40
0.9999999999999999
 40
0.9999999999999999
 40
0.9999999999999999
 40
0.9999999999999999
 10
97.45158835212412
 20
96.3325111054442
 30
0.0
 10
97.71703547504633
 20
96.3325111054442
 30
0.0
 10
98.2479296915052
 20
96.33251110544421
 30
0.0
 10
99.14641542727605
 20
96.3325111054442
 30
0.0
 10
100.1005024740583
 20
96.3325111054442
 30
0.0
 10
100.7777927409972
 20
96.33251110544424
 30
0.0
 10
101.1164379109693
 20
96.33251110544423
 30
0.0
  0
SPLINE
  5
127
330
1F
100
AcDbEntity
  8
0
  6
Continuous
 62
     7
370
     0
100
AcDbSpline
210
0.0
220
0.0
230
1.0
 70
    24
 71
     3
 72
    11
 73
     7
 74
     0
 42
0.00000001
 43
0.00000001
 12
1.0
 22
0.0
 32
0.0
 13
1.0
 23
0.0
 33
0.0
 40
0.0
 40
0.0
 40
0.0
 40
0.0
 40
0.2500000176299368
 40
0.4999999813647081
 40
0.7499999768445809
 40
0.9999999999999999
 40
0.9999999999999999
 40
0.9999999999999999
 40
0.9999999999999999
 10
106.04492666098
 20
96.33251110544428
 30
0.0
 10
106.3835718309521
 20
96.3325111054443
 30
0.0
 10
107.0608620978909
 20
96.3325111054443
 30
0.0
 10
108.0149491446732
 20
96.33251110544428
 30
0.0
 10
108.9134348804441
 20
96.33251110544431
 30
0.0
 10
109.4443290969029
 20
96.33251110544431
 30
0.0
 10
109.7097762198252
 20
96.33251110544433
 30
0.0
  0
LINE
  5
128
330
1F
100
AcDbEntity
  8
0
  6
Continuous
 62
     7
370
     0
100
AcDbLine
 10
109.7097762198
 20
96.3325111054
 30
0.0
 11
112.1740208277
 21
96.3325111054
 31
0.0
  0
SPLINE
  5
129
330
1F
100
AcDbEntity
  8
0
  6
Continuous
 62
     7
370
     0
100
AcDbSpline
210
0.0
220
0.0
230
1.0
 70
    24
 71
     3
 72
    11
 73
     7
 74
     0
 42
0.00000001
 43
0.00000001
 12
1.0
 22
0.0
 32
0.0
 13
1.0
 23
0.0
 33
0.0
 40
0.0
 40
0.0
 40
0.0
 40
0.0
 40
0.250000023155419
 40
0.5000000186352918
 40
0.749999982370063
 40
0.9999999999999999
 40
0.9999999999999999
 40
0.9999999999999999
 40
0.9999999999999999
 10
97.45158835212415
 20
93.33251247635103
 30
0.0
 10
97.71703547504637
 20
93.33251247635103
 30
0.0
 10
98.24792969150523
 20
93.33251247635104
 30
0.0
 10
99.1464154272761
 20
93.33251247635103
 30
0.0
 10
100.1005024740583
 20
93.33251247635103
 30
0.0
 10
100.7777927409972
 20
93.33251247635107
 30
0.0
 10
101.1164379109693
 20
93.33251247635106
 30
0.0
  0
LINE
  5
12A
330
1F
100
AcDbEntity
  8
0
  6
Continuous
 62
     7
370
     0
100
AcDbLine
 10
94.9873437443
 20
93.3325124764
 30
0.0
 11
97.4515883521
 21
93.3325124764
 31
0.0
  0
SPLINE
  5
12B
330
1F
100
AcDbEntity
  8
0
  6
Continuous
 62
     7
370
     0
100
AcDbSpline
210
0.0
220
0.0
230
1.0
 70
    27
 71
     3
 72
    11
 73
     7
 74
     0
 42
0.00000001
 43
0.00000001
 12
1.0
 22
0.0
 32
0.0
 13
1.0
 23
0.0
 33
0.0
 40
0.0
 40
0.0
 40
0.0
 40
0.0
 40
0.2499999659871437
 40
0.5
 40
0.7500000340128564
 40
1.0
 40
1.0
 40
1.0
 40
1.0
 10
94.98734374428814
 20
93.33251247635101
 30
0.0
 10
94.91414604595708
 20
93.332512476351
 30
0.0
 10
94.76775062937764
 20
93.33251247635097
 30
0.0
 10
94.71214831068208
 20
93.33251247635101
 30
0.0
 10
94.76775062937764
 20
93.332512476351
 30
0.0
 10
94.91414604595708
 20
93.33251247635097
 30
0.0
 10
94.98734374428814
 20
93.332512476351
 30
0.0
  0
SPLINE
  5
12C
330
1F
100
AcDbEntity
  8
0
  6
Continuous
 62
     7
370
     0
100
AcDbSpline
210
0.0
220
0.0
230
1.0
 70
    24
 71
     3
 72
     9
 73
     5
 74
     0
 42
0.00000001
 43
0.00000001
 12
1.0
 22
0.0
 32
0.0
 13
1.0
 23
0.0
 33
0.0
 40
0.0
 40
0.0
 40
0.0
 40
0.0
 40
0.4999999319742873
 40
1.0
 40
1.0
 40
1.0
 40
1.0
 10
112.1740208276612
 20
93.33251247635117
 30
0.0
 10
112.2487630343546
 20
93.33251247635118
 30
0.0
 10
112.398247468079
 20
93.33251247635117
 30
0.0
 10
112.4198705906153
 20
93.33251247635117
 30
0.0
 10
112.4306821533543
 20
93.33251247635118
 30
0.0
  0
LINE
  5
12D
330
1F
100
AcDbEntity
  8
0
  6
Continuous
 62
     7
370
     0
100
AcDbLine
 10
109.7097762198
 20
93.3325124764
 30
0.0
 11
112.1740208277
 21
93.3325124764
 31
0.0
  0
SPLINE
  5
12E
330
1F
100
AcDbEntity
  8
0
  6
Continuous
 62
     7
370
     0
100
AcDbSpline
210
0.0
220
0.0
230
1.0
 70
    24
 71
     3
 72
    11
 73
     7
 74
     0
 42
0.00000001
 43
0.00000001
 12
1.0
 22
0.0
 32
0.0
 13
1.0
 23
0.0
 33
0.0
 40
0.0
 40
0.0
 40
0.0
 40
0.0
 40
0.2500000176299368
 40
0.4999999813647081
 40
0.7499999768445809
 40
0.9999999999999999
 40
0.9999999999999999
 40
0.9999999999999999
 40
0.9999999999999999
 10
106.04492666098
 20
93.33251247635111
 30
0.0
 10
106.3835718309521
 20
93.33251247635113
 30
0.0
 10
107.060862097891
 20
93.33251247635114
 30
0.0
 10
108.0149491446732
 20
93.33251247635111
 30
0.0
 10
108.9134348804441
 20
93.33251247635114
 30
0.0
 10
109.444329096903
 20
93.33251247635116
 30
0.0
 10
109.7097762198252
 20
93.33251247635116
 30
0.0
  0
SPLINE
  5
12F
330
1F
100
AcDbEntity
  8
0
  6
Continuous
 62
     7
370
     0
100
AcDbSpline
210
0.0
220
0.0
230
1.0
 70
     8
 71
     3
 72
     9
 73
     5
 74
     0
 42
0.00000001
 43
0.00000001
 12
1.0
 22
0.0
 32
0.0
 13
1.0
 23
0.0
 33
0.0
 40
0.0
 40
0.0
 40
0.0
 40
0.0
 40
0.5008257865942602
 40
1.0
 40
1.0
 40
1.0
 40
1.0
 10
106.04492666098
 20
93.33251247635111
 30
0.0
 10
106.4570459196681
 20
93.40692298225791
 30
0.0
 10
107.2799253913713
 20
93.55549861054736
 30
0.0
 10
108.0858584611934
 20
93.7783753295777
 30
0.0
 10
108.4881594673795
 20
93.88962964048612
 30
0.0
  0
SPLINE
  5
130
330
1F
100
AcDbEntity
  8
0
  6
Continuous
 62
     7
370
     0
100
AcDbSpline
210
0.0
220
0.0
230
1.0
 70
     8
 71
     3
 72
     9
 73
     5
 74
     0
 42
0.00000001
 43
0.00000001
 12
1.0
 22
0.0
 32
0.0
 13
1.0
 23
0.0
 33
0.0
 40
0.0
 40
0.0
 40
0.0
 40
0.0
 40
0.4990041996681062
 40
1.0
 40
1.0
 40
1.0
 40
1.0
 10
108.4881594673795
 20
93.8896296404861
 30
0.0
 10
108.689241367165
 20
93.77841216609727
 30
0.0
 10
109.0922077147814
 20
93.55553333168504
 30
0.0
 10
109.5036469106187
 20
93.406951400087
 30
0.0
 10
109.7097762198252
 20
93.33251247635116
 30
0.0
  0
LINE
  5
131
330
1F
100
AcDbEntity
  8
0
  6
Continuous
 62
     7
370
     0
100
AcDbLine
 10
109.7097762198
 20
93.3325124764
 30
0.0
 11
106.044926661
 21
93.3325124764
 31
0.0
  0
SPLINE
  5
132
330
1F
100
AcDbEntity
  8
0
  6
Continuous
 62
     7
370
     0
100
AcDbSpline
210
0.0
220
0.0
230
1.0
 70
     8
 71
     3
 72
     9
 73
     5
 74
     0
 42
0.00000001
 43
0.00000001
 12
1.0
 22
0.0
 32
0.0
 13
1.0
 23
0.0
 33
0.0
 40
0.0
 40
0.0
 40
0.0
 40
0.0
 40
0.5008257865942602
 40
1.0
 40
1.0
 40
1.0
 40
1.0
 10
106.04492666098
 20
96.33251110544428
 30
0.0
 10
106.457045919668
 20
96.4069216113511
 30
0.0
 10
107.2799253913712
 20
96.55549723964054
 30
0.0
 10
108.0858584611933
 20
96.77837395867087
 30
0.0
 10
108.4881594673795
 20
96.88962826957929
 30
0.0
  0
SPLINE
  5
133
330
1F
100
AcDbEntity
  8
0
  6
Continuous
 62
     7
370
     0
100
AcDbSpline
210
0.0
220
0.0
230
1.0
 70
     8
 71
     3
 72
     9
 73
     5
 74
     0
 42
0.00000001
 43
0.00000001
 12
1.0
 22
0.0
 32
0.0
 13
1.0
 23
0.0
 33
0.0
 40
0.0
 40
0.0
 40
0.0
 40
0.0
 40
0.4990041996681062
 40
1.0
 40
1.0
 40
1.0
 40
1.0
 10
108.4881594673795
 20
96.88962826957928
 30
0.0
 10
108.6892413671649
 20
96.77841079519044
 30
0.0
 10
109.0922077147813
 20
96.55553196077823
 30
0.0
 10
109.5036469106187
 20
96.40695002918015
 30
0.0
 10
109.7097762198252
 20
96.33251110544433
 30
0.0
  0
LINE
  5
134
330
1F
100
AcDbEntity
  8
0
  6
Continuous
 62
     7
370
     0
100
AcDbLine
 10
109.7097762198
 20
96.3325111054
 30
0.0
 11
106.044926661
 21
96.3325111054
 31
0.0
  0
LINE
  5
135
330
1F
100
AcDbEntity
  8
0
  6
Continuous
 62
     7
370
     0
100
AcDbLine
 10
97.4515883521
 20
93.3325124764
 30
0.0
 11
98.6732051046
 21
93.8896296405
 31
0.0
  0
SPLINE
  5
136
330
1F
100
AcDbEntity
  8
0
  6
Continuous
 62
     7
370
     0
100
AcDbSpline
210
0.0
220
0.0
230
1.0
 70
     8
 71
     3
 72
     9
 73
     5
 74
     0
 42
0.00000001
 43
0.00000001
 12
1.0
 22
0.0
 32
0.0
 13
1.0
 23
0.0
 33
0.0
 40
0.0
 40
0.0
 40
0.0
 40
0.0
 40
0.4984267885183189
 40
0.9999999999999999
 40
0.9999999999999999
 40
0.9999999999999999
 40
0.9999999999999999
 10
98.67320510456985
 20
93.889629640486
 30
0.0
 10
99.07490080950062
 20
93.77853296738365
 30
0.0
 10
99.88082800720383
 20
93.55563830027991
 30
0.0
 10
100.70370490346
 20
93.40704359825492
 30
0.0
 10
101.1164379109693
 20
93.33251247635106
 30
0.0
  0
LINE
  5
137
330
1F
100
AcDbEntity
  8
0
  6
Continuous
 62
     7
370
     0
100
AcDbLine
 10
101.116437911
 20
93.3325124764
 30
0.0
 11
97.4515883521
 21
93.3325124764
 31
0.0
  0
LINE
  5
138
330
1F
100
AcDbEntity
  8
0
  6
Continuous
 62
     7
370
     0
100
AcDbLine
 10
97.4515883521
 20
96.3325111054
 30
0.0
 11
98.6732051046
 21
96.8896282696
 31
0.0
  0
SPLINE
  5
139
330
1F
100
AcDbEntity
  8
0
  6
Continuous
 62
     7
370
     0
100
AcDbSpline
210
0.0
220
0.0
230
1.0
 70
     8
 71
     3
 72
     9
 73
     5
 74
     0
 42
0.00000001
 43
0.00000001
 12
1.0
 22
0.0
 32
0.0
 13
1.0
 23
0.0
 33
0.0
 40
0.0
 40
0.0
 40
0.0
 40
0.0
 40
0.4984267885183189
 40
0.9999999999999999
 40
0.9999999999999999
 40
0.9999999999999999
 40
0.9999999999999999
 10
98.6732051045698
 20
96.88962826957918
 30
0.0
 10
99.07490080950059
 20
96.77853159647682
 30
0.0
 10
99.8808280072038
 20
96.55563692937307
 30
0.0
 10
100.70370490346
 20
96.40704222734809
 30
0.0
 10
101.1164379109693
 20
96.33251110544423
 30
0.0
  0
LINE
  5
13A
330
1F
100
AcDbEntity
  8
0
  6
Continuous
 62
     7
370
     0
100
AcDbLine
 10
112.1740208277
 20
96.3325111054
 30
0.0
 11
113.3956366488
 21
96.8896282696
 31
0.0
  0
LINE
  5
13B
330
1F
100
AcDbEntity
  8
0
  6
Continuous
 62
     7
370
     0
100
AcDbLine
 10
113.3956366488
 20
96.8896282696
 30
0.0
 11
112.4306821534
 21
96.3325111054
 31
0.0
  0
LINE
  5
13C
330
1F
100
AcDbEntity
  8
0
  6
Continuous
 62
     7
370
     0
100
AcDbLine
 10
112.4306821534
 20
96.3325111054
 30
0.0
 11
112.1740208277
 21
96.3325111054
 31
0.0
  0
LINE
  5
13D
330
1F
100
AcDbEntity
  8
0
  6
Continuous
 62
     7
370
     0
100
AcDbLine
 10
112.1740208277
 20
93.3325124764
 30
0.0
 11
113.3956366488
 21
93.8896296405
 31
0.0
  0
LINE
  5
13E
330
1F
100
AcDbEntity
  8
0
  6
Continuous
 62
     7
370
     0
100
AcDbLine
 10
113.3956366488
 20
93.8896296405
 30
0.0
 11
112.4306821534
 21
93.3325124764
 31
0.0
  0
LINE
  5
13F
330
1F
100
AcDbEntity
  8
0
  6
Continuous
 62
     7
370
     0
100
AcDbLine
 10
112.4306821534
 20
93.3325124764
 30
0.0
 11
112.1740208277
 21
93.3325124764
 31
0.0
  0
LINE
  5
140
330
1F
100
AcDbEntity
  8
0
  6
Continuous
 62
     7
370
     0
100
AcDbLine
 10
94.7306824186
 20
96.3325111054
 30
0.0
 11
94.9873437443
 21
96.3325111054
 31
0.0
  0
LINE
  5
141
330
1F
100
AcDbEntity
  8
0
  6
Continuous
 62
     7
370
     0
100
AcDbLine
 10
94.9873437443
 20
96.3325111054
 30
0.0
 11
93.7657279232
 21
95.7753939413
 31
0.0
  0
LINE
  5
142
330
1F
100
AcDbEntity
  8
0
  6
Continuous
 62
     7
370
     0
100
AcDbLine
 10
93.7657279232
 20
95.7753939413
 30
0.0
 11
94.7306824186
 21
96.3325111054
 31
0.0
  0
LINE
  5
143
330
1F
100
AcDbEntity
  8
0
  6
Continuous
 62
     7
370
     0
100
AcDbLine
 10
94.9873437443
 20
99.3325097345
 30
0.0
 11
93.7657279232
 21
98.7753925704
 31
0.0
  0
LINE
  5
144
330
1F
100
AcDbEntity
  8
0
  6
Continuous
 62
     7
370
     0
100
AcDbLine
 10
93.7657279232
 20
98.7753925704
 30
0.0
 11
94.7306824186
 21
99.3325097345
 31
0.0
  0
LINE
  5
145
330
1F
100
AcDbEntity
  8
0
  6
Continuous
 62
     7
370
     0
100
AcDbLine
 10
94.7306824186
 20
99.3325097345
 30
0.0
 11
94.9873437443
 21
99.3325097345
 31
0.0
  0
LINE
  5
146
330
1F
100
AcDbEntity
  8
0
  6
Continuous
 62
     7
370
     0
100
AcDbLine
 10
94.9873437443
 20
93.3325124764
 30
0.0
 11
94.7306824186
 21
93.3325124764
 31
0.0
  0
SPLINE
  5
147
330
1F
100
AcDbEntity
  8
0
  6
Continuous
 62
     7
370
     0
100
AcDbSpline
210
0.0
220
0.0
230
1.0
 70
     8
 71
     3
 72
     9
 73
     5
 74
     0
 42
0.00000001
 43
0.00000001
 12
1.0
 22
0.0
 32
0.0
 13
1.0
 23
0.0
 33
0.0
 40
0.0
 40
0.0
 40
0.0
 40
0.0
 40
0.4990042000225822
 40
1.0
 40
1.0
 40
1.0
 40
1.0
 10
93.765727923165
 20
93.88962964048598
 30
0.0
 10
93.96680966750323
 20
93.77841216612117
 30
0.0
 10
94.3697757033184
 20
93.55553333191544
 30
0.0
 10
94.78121459007546
 20
93.40695140012868
 30
0.0
 10
94.98734374428814
 20
93.33251247635101
 30
0.0
  0
SPLINE
  5
148
330
1F
100
AcDbEntity
  8
0
  6
Continuous
 62
     7
370
     0
100
AcDbSpline
210
0.0
220
0.0
230
1.0
 70
     8
 71
     3
 72
     9
 73
     5
 74
     0
 42
0.00000001
 43
0.00000001
 12
1.0
 22
0.0
 32
0.0
 13
1.0
 23
0.0
 33
0.0
 40
0.0
 40
0.0
 40
0.0
 40
0.0
 40
0.4990042000225822
 40
1.0
 40
1.0
 40
1.0
 40
1.0
 10
93.76572792316497
 20
96.88962826957915
 30
0.0
 10
93.96680966750318
 20
96.77841079521434
 30
0.0
 10
94.36977570331837
 20
96.55553196100861
 30
0.0
 10
94.78121459007544
 20
96.40695002922186
 30
0.0
 10
94.98734374428811
 20
96.33251110544418
 30
0.0
  0
LINE
  5
149
330
1F
100
AcDbEntity
  8
0
  6
Continuous
 62
     7
370
     0
100
AcDbLine
 10
106.044926661
 20
99.3325097345
 30
0.0
 11
109.7097762198
 21
99.3325097345
 31
0.0
  0
LINE
  5
14A
330
1F
100
AcDbEntity
  8
0
  6
Continuous
 62
     7
370
     0
100
AcDbLine
 10
109.7097762198
 20
99.3325097345
 30
0.0
 11
108.4881594674
 21
98.7753925704
 31
0.0
  0
SPLINE
  5
14B
330
1F
100
AcDbEntity
  8
0
  6
Continuous
 62
     7
370
     0
100
AcDbSpline
210
0.0
220
0.0
230
1.0
 70
     8
 71
     3
 72
     9
 73
     5
 74
     0
 42
0.00000001
 43
0.00000001
 12
1.0
 22
0.0
 32
0.0
 13
1.0
 23
0.0
 33
0.0
 40
0.0
 40
0.0
 40
0.0
 40
0.0
 40
0.4984267885183189
 40
0.9999999999999999
 40
0.9999999999999999
 40
0.9999999999999999
 40
0.9999999999999999
 10
108.4881594673794
 20
98.7753925704025
 30
0.0
 10
108.0864637624487
 20
98.8864892435049
 30
0.0
 10
107.2805365647454
 20
99.10938391060864
 30
0.0
 10
106.4576596684893
 20
99.25797861263362
 30
0.0
 10
106.04492666098
 20
99.33250973453745
 30
0.0
  0
SPLINE
  5
14C
330
1F
100
AcDbEntity
  8
0
  6
Continuous
 62
     7
370
     0
100
AcDbSpline
210
0.0
220
0.0
230
1.0
 70
     8
 71
     3
 72
     9
 73
     5
 74
     0
 42
0.00000001
 43
0.00000001
 12
1.0
 22
0.0
 32
0.0
 13
1.0
 23
0.0
 33
0.0
 40
0.0
 40
0.0
 40
0.0
 40
0.0
 40
0.4984261275872445
 40
0.9999999999999999
 40
0.9999999999999999
 40
0.9999999999999999
 40
0.9999999999999999
 10
108.4881594673795
 20
95.77539394130933
 30
0.0
 10
108.0864634912922
 20
95.88648694163226
 30
0.0
 10
107.2805346808749
 20
96.10937453554855
 30
0.0
 10
106.4576594014126
 20
96.25797632863728
 30
0.0
 10
106.04492666098
 20
96.33251110544428
 30
0.0
  0
LINE
  5
14D
330
1F
100
AcDbEntity
  8
0
  6
Continuous
 62
     7
370
     0
100
AcDbLine
 10
109.7097762198
 20
96.3325111054
 30
0.0
 11
108.4881594674
 21
95.7753939413
 31
0.0
  0
SPLINE
  5
14E
330
1F
100
AcDbEntity
  8
0
  6
Continuous
 62
     7
370
     0
100
AcDbSpline
210
0.0
220
0.0
230
1.0
 70
     8
 71
     3
 72
     9
 73
     5
 74
     0
 42
0.00000001
 43
0.00000001
 12
1.0
 22
0.0
 32
0.0
 13
1.0
 23
0.0
 33
0.0
 40
0.0
 40
0.0
 40
0.0
 40
0.0
 40
0.4990042000225822
 40
1.0
 40
1.0
 40
1.0
 40
1.0
 10
113.3956366487843
 20
95.77539394130937
 30
0.0
 10
113.1945549044461
 20
95.88661141567417
 30
0.0
 10
112.7915888686309
 20
96.10949024987991
 30
0.0
 10
112.3801499818738
 20
96.25807218166666
 30
0.0
 10
112.1740208276612
 20
96.33251110544434
 30
0.0
  0
LINE
  5
14F
330
1F
100
AcDbEntity
  8
0
  6
Continuous
 62
     7
370
     0
100
AcDbLine
 10
112.1740208277
 20
99.3325097345
 30
0.0
 11
112.4306821534
 21
99.3325097345
 31
0.0
  0
SPLINE
  5
150
330
1F
100
AcDbEntity
  8
0
  6
Continuous
 62
     7
370
     0
100
AcDbSpline
210
0.0
220
0.0
230
1.0
 70
     8
 71
     3
 72
     9
 73
     5
 74
     0
 42
0.00000001
 43
0.00000001
 12
1.0
 22
0.0
 32
0.0
 13
1.0
 23
0.0
 33
0.0
 40
0.0
 40
0.0
 40
0.0
 40
0.0
 40
0.4990042000225822
 40
1.0
 40
1.0
 40
1.0
 40
1.0
 10
113.3956366487843
 20
98.77539257040254
 30
0.0
 10
113.1945549044461
 20
98.88661004476734
 30
0.0
 10
112.7915888686309
 20
99.10948887897307
 30
0.0
 10
112.3801499818738
 20
99.25807081075982
 30
0.0
 10
112.1740208276612
 20
99.33250973453751
 30
0.0
  0
LINE
  5
151
330
1F
100
AcDbEntity
  8
0
  6
Continuous
 62
     7
370
     0
100
AcDbLine
 10
106.5806823121
 20
89.8368341707
 30
0.0
 11
103.580682286
 21
89.8368341707
 31
0.0
  0
LINE
  5
152
330
1F
100
AcDbEntity
  8
0
  6
Continuous
 62
     7
370
     0
100
AcDbLine
 10
103.580682286
 20
89.8368341707
 30
0.0
 11
103.580682286
 21
90.6368328117
 31
0.0
  0
SPLINE
  5
153
330
1F
100
AcDbEntity
  8
0
  6
Continuous
 62
     7
370
     0
100
AcDbSpline
210
0.0
220
0.0
230
1.0
 70
    24
 71
     3
 72
    15
 73
    11
 74
     0
 42
0.00000001
 43
0.00000001
 12
1.0
 22
0.0
 32
0.0
 13
1.0
 23
0.0
 33
0.0
 40
0.0
 40
0.0
 40
0.0
 40
0.0
 40
0.1248985704215256
 40
0.2499130582935767
 40
0.3749275565241859
 40
0.4999420369359602
 40
0.6249565173477344
 40
0.7499710155783434
 40
0.8749855034503946
 40
1.0
 40
1.0
 40
1.0
 40
1.0
 10
106.5806287610037
 20
91.33682975998148
 30
0.0
 10
106.5694705347809
 20
91.33682975998148
 30
0.0
 10
106.5471437264672
 20
91.3368297599815
 30
0.0
 10
106.3687957302926
 20
91.33682975998147
 30
0.0
 10
106.0915432967319
 20
91.33682975998147
 30
0.0
 10
105.7155773938576
 20
91.33682975998148
 30
0.0
 10
105.2581635997663
 20
91.33682975998147
 30
0.0
 10
104.7361260465646
 20
91.33682975998147
 30
0.0
 10
104.1697278073828
 20
91.3368297599815
 30
0.0
 10
103.7770307976537
 20
91.33682975998146
 30
0.0
 10
103.5806822859747
 20
91.33682975998146
 30
0.0
  0
SPLINE
  5
154
330
1F
100
AcDbEntity
  8
0
  6
Continuous
 62
     7
370
     0
100
AcDbSpline
210
0.0
220
0.0
230
1.0
 70
    24
 71
     3
 72
    16
 73
    12
 74
     0
 42
0.00000001
 43
0.00000001
 12
1.0
 22
0.0
 32
0.0
 13
1.0
 23
0.0
 33
0.0
 40
0.0
 40
0.0
 40
0.0
 40
0.0
 40
0.124990323290729
 40
0.2499806493184269
 40
0.3749709843586045
 40
0.4999613184406823
 40
0.6249516525227601
 40
0.7499419875629376
 40
0.8749323135906355
 40
0.9999226368813645
 40
1.0
 40
1.0
 40
1.0
 40
1.0
 10
103.5806822859741
 20
142.3368325315975
 30
0.0
 10
103.2861619380099
 20
142.3368325315974
 30
0.0
 10
102.697121235632
 20
142.3368325315974
 30
0.0
 10
101.8474877110451
 20
142.3368325315974
 30
0.0
 10
101.0645691283677
 20
142.3368325315974
 30
0.0
 10
100.3779330775131
 20
142.3368325315974
 30
0.0
 10
99.81590953480186
 20
142.3368325315974
 30
0.0
 10
99.39284236210386
 20
142.3368325315974
 30
0.0
 10
99.15206699100364
 20
142.3368325315972
 30
0.0
 10
99.05184443679951
 20
142.3368325315977
 30
0.0
 10
99.08071817031198
 20
142.3368325315974
 30
0.0
 10
99.08073603073728
 20
142.3368325315974
 30
0.0
  0
SPLINE
  5
155
330
1F
100
AcDbEntity
  8
0
  6
Continuous
 62
     7
370
     0
100
AcDbSpline
210
0.0
220
0.0
230
1.0
 70
    24
 71
     3
 72
    15
 73
    11
 74
     0
 42
0.00000001
 43
0.00000001
 12
1.0
 22
0.0
 32
0.0
 13
1.0
 23
0.0
 33
0.0
 40
0.0
 40
0.0
 40
0.0
 40
0.0
 40
0.1249322904754356
 40
0.249941958778715
 40
0.3749516360958687
 40
0.4999613124547743
 40
0.62497098881368
 40
0.7499806661308337
 40
0.874990334434113
 40
1.0
 40
1.0
 40
1.0
 40
1.0
 10
108.080628541211
 20
142.3368325315975
 30
0.0
 10
108.0638879312805
 20
142.3368325315975
 30
0.0
 10
108.0303963429869
 20
142.3368325315975
 30
0.0
 10
107.7628540203082
 20
142.3368325315975
 30
0.0
 10
107.3469738212991
 20
142.3368325315975
 30
0.0
 10
106.7830245474866
 20
142.3368325315975
 30
0.0
 10
106.0969044472288
 20
142.3368325315975
 30
0.0
 10
105.3138477932659
 20
142.3368325315975
 30
0.0
 10
104.4642506032252
 20
142.3368325315975
 30
0.0
 10
103.8752050562414
 20
142.3368325315975
 30
0.0
 10
103.5806822859741
 20
142.3368325315975
 30
0.0
  0
LINE
  5
156
330
1F
100
AcDbEntity
  8
0
  6
Continuous
 62
     7
370
     0
100
AcDbLine
 10
109.5806823381
 20
149.3368318163
 30
0.0
 11
103.580682286
 21
149.3368318163
 31
0.0
  0
LINE
  5
157
330
1F
100
AcDbEntity
  8
0
  6
Continuous
 62
     7
370
     0
100
AcDbLine
 10
103.580682286
 20
149.3368318163
 30
0.0
 11
97.5806822338
 21
149.3368318163
 31
0.0
  0
SPLINE
  5
158
330
1F
100
AcDbEntity
  8
0
  6
Continuous
 62
     7
370
     0
100
AcDbSpline
210
0.0
220
0.0
230
1.0
 70
    24
 71
     3
 72
    15
 73
    11
 74
     0
 42
0.00000001
 43
0.00000001
 12
1.0
 22
0.0
 32
0.0
 13
1.0
 23
0.0
 33
0.0
 40
0.0
 40
0.0
 40
0.0
 40
0.0
 40
0.1249445797595285
 40
0.2499525096507383
 40
0.3749604076825585
 40
0.4999683330017374
 40
0.6249762583209162
 40
0.7499841563527365
 40
0.8749920862439462
 40
1.0
 40
1.0
 40
1.0
 40
1.0
 10
109.0806287051236
 20
164.3368326452189
 30
0.0
 10
109.0601662242005
 20
164.3368326452189
 30
0.0
 10
109.0192308873476
 20
164.3368326452189
 30
0.0
 10
108.692226260091
 20
164.3368326452189
 30
0.0
 10
108.1839272173391
 20
164.3368326452188
 30
0.0
 10
107.4946564267259
 20
164.3368326452188
 30
0.0
 10
106.6560649310515
 20
164.3368326452188
 30
0.0
 10
105.698995773071
 20
164.3368326452188
 30
0.0
 10
104.6605991143674
 20
164.3368326452188
 30
0.0
 10
103.9406545466175
 20
164.3368326452188
 30
0.0
 10
103.5806822859739
 20
164.3368326452188
 30
0.0
  0
SPLINE
  5
159
330
1F
100
AcDbEntity
  8
0
  6
Continuous
 62
     7
370
     0
100
AcDbSpline
210
0.0
220
0.0
230
1.0
 70
    24
 71
     3
 72
    16
 73
    12
 74
     0
 42
0.00000001
 43
0.00000001
 12
1.0
 22
0.0
 32
0.0
 13
1.0
 23
0.0
 33
0.0
 40
0.0
 40
0.0
 40
0.0
 40
0.0
 40
0.1249920812599723
 40
0.2499841786530571
 40
0.3749762441907873
 40
0.4999683370124202
 40
0.6249604298340531
 40
0.7499524953717833
 40
0.8749445927648681
 40
0.9999366740248404
 40
1.0
 40
1.0
 40
1.0
 40
1.0
 10
103.5806822859739
 20
164.3368326452188
 30
0.0
 10
103.2207129851829
 20
164.3368326452188
 30
0.0
 10
102.5007743371384
 20
164.3368326452188
 30
0.0
 10
101.4623332806434
 20
164.3368326452188
 30
0.0
 10
100.5054328342457
 20
164.3368326452187
 30
0.0
 10
99.66621088992595
 20
164.3368326452187
 30
0.0
 10
98.9792931822261
 20
164.3368326452187
 30
0.0
 10
98.46221225757448
 20
164.3368326452187
 30
0.0
 10
98.1679268466169
 20
164.3368326452188
 30
0.0
 10
98.04545105158832
 20
164.3368326452186
 30
0.0
 10
98.08071800822489
 20
164.3368326452187
 30
0.0
 10
98.08073586682428
 20
164.3368326452187
 30
0.0
  0
LINE
  5
15A
330
1F
100
AcDbEntity
  8
0
  6
Continuous
 62
     7
370
     0
100
AcDbLine
 10
98.0806823158
 20
166.3368327402
 30
0.0
 11
103.580682285
 21
166.3368327402
 31
0.0
  0
LINE
  5
15B
330
1F
100
AcDbEntity
  8
0
  6
Continuous
 62
     7
370
     0
100
AcDbLine
 10
103.580682285
 20
166.3368327402
 30
0.0
 11
103.580682285
 21
164.3368326452
 31
0.0
  0
LINE
  5
15C
330
1F
100
AcDbEntity
  8
0
  6
Continuous
 62
     7
370
     0
100
AcDbLine
 10
103.580682285
 20
164.3368326452
 30
0.0
 11
98.0806823158
 21
164.3368326452
 31
0.0
  0
SPLINE
  5
15D
330
1F
100
AcDbEntity
  8
0
  6
Continuous
 62
     7
370
     0
100
AcDbSpline
210
0.0
220
0.0
230
1.0
 70
    24
 71
     3
 72
    15
 73
    11
 74
     0
 42
0.00000001
 43
0.00000001
 12
1.0
 22
0.0
 32
0.0
 13
1.0
 23
0.0
 33
0.0
 40
0.0
 40
0.0
 40
0.0
 40
0.0
 40
0.1249445797595285
 40
0.2499525096507383
 40
0.3749604076825585
 40
0.4999683330017374
 40
0.6249762583209162
 40
0.7499841563527365
 40
0.8749920862439462
 40
1.0
 40
1.0
 40
1.0
 40
1.0
 10
109.0806287051235
 20
166.3368327402138
 30
0.0
 10
109.0601662242005
 20
166.3368327402138
 30
0.0
 10
109.0192308873476
 20
166.3368327402138
 30
0.0
 10
108.692226260091
 20
166.3368327402138
 30
0.0
 10
108.1839272173391
 20
166.3368327402137
 30
0.0
 10
107.4946564267259
 20
166.3368327402137
 30
0.0
 10
106.6560649310515
 20
166.3368327402137
 30
0.0
 10
105.6989957730709
 20
166.3368327402137
 30
0.0
 10
104.6605991143674
 20
166.3368327402137
 30
0.0
 10
103.9406545466175
 20
166.3368327402137
 30
0.0
 10
103.5806822859739
 20
166.3368327402137
 30
0.0
  0
SPLINE
  5
15E
330
1F
100
AcDbEntity
  8
0
  6
Continuous
 62
     7
370
     0
100
AcDbSpline
210
0.0
220
0.0
230
1.0
 70
    24
 71
     3
 72
    16
 73
    12
 74
     0
 42
0.00000001
 43
0.00000001
 12
1.0
 22
0.0
 32
0.0
 13
1.0
 23
0.0
 33
0.0
 40
0.0
 40
0.0
 40
0.0
 40
0.0
 40
0.1249920812599723
 40
0.2499841786530571
 40
0.3749762441907873
 40
0.4999683370124202
 40
0.6249604298340531
 40
0.7499524953717833
 40
0.8749445927648681
 40
0.9999366740248404
 40
1.0
 40
1.0
 40
1.0
 40
1.0
 10
103.5806822859739
 20
166.3368327402137
 30
0.0
 10
103.2207129851828
 20
166.3368327402137
 30
0.0
 10
102.5007743371384
 20
166.3368327402137
 30
0.0
 10
101.4623332806434
 20
166.3368327402137
 30
0.0
 10
100.5054328342457
 20
166.3368327402137
 30
0.0
 10
99.66621088992594
 20
166.3368327402137
 30
0.0
 10
98.97929318222607
 20
166.3368327402137
 30
0.0
 10
98.46221225757446
 20
166.3368327402137
 30
0.0
 10
98.16792684661687
 20
166.3368327402137
 30
0.0
 10
98.04545105158829
 20
166.3368327402137
 30
0.0
 10
98.08071800822486
 20
166.3368327402137
 30
0.0
 10
98.08073586682427
 20
166.3368327402137
 30
0.0
  0
LINE
  5
15F
330
1F
100
AcDbEntity
  8
0
  6
Continuous
 62
     7
370
     0
100
AcDbLine
 10
103.5806822853
 20
164.3368326452
 30
0.0
 11
103.5806822853
 21
157.3368331276
 31
0.0
  0
LINE
  5
160
330
1F
100
AcDbEntity
  8
0
  6
Continuous
 62
     7
370
     0
100
AcDbLine
 10
109.5806823381
 20
157.3368331276
 30
0.0
 11
103.580682286
 21
157.3368331276
 31
0.0
  0
LINE
  5
161
330
1F
100
AcDbEntity
  8
0
  6
Continuous
 62
     7
370
     0
100
AcDbLine
 10
103.580682286
 20
157.3368331276
 30
0.0
 11
97.5806822338
 21
157.3368331276
 31
0.0
  0
LINE
  5
162
330
1F
100
AcDbEntity
  8
0
  6
Continuous
 62
     7
370
     0
100
AcDbLine
 10
97.5806822338
 20
157.3368331276
 30
0.0
 11
97.5806822338
 21
155.3368327998
 31
0.0
  0
LINE
  5
163
330
1F
100
AcDbEntity
  8
0
  6
Continuous
 62
     7
370
     0
100
AcDbLine
 10
97.5806822338
 20
151.3368330755
 30
0.0
 11
97.5806822338
 21
149.3368318163
 31
0.0
  0
LINE
  5
164
330
1F
100
AcDbEntity
  8
0
  6
Continuous
 62
     7
370
     0
100
AcDbLine
 10
103.580682286
 20
142.3368325316
 30
0.0
 11
103.580682286
 21
144.3442722641
 31
0.0
  0
LINE
  5
165
330
1F
100
AcDbEntity
  8
0
  6
Continuous
 62
     7
370
     0
100
AcDbLine
 10
103.580682286
 20
145.3442742907
 30
0.0
 11
103.580682286
 21
149.3368318163
 31
0.0
  0
LINE
  5
166
330
1F
100
AcDbEntity
  8
0
  6
Continuous
 62
     7
370
     0
100
AcDbLine
 10
108.0806820923
 20
142.3368325316
 30
0.0
 11
103.580682286
 21
142.3368325316
 31
0.0
  0
LINE
  5
167
330
1F
100
AcDbEntity
  8
0
  6
Continuous
 62
     7
370
     0
100
AcDbLine
 10
103.580682286
 20
112.3368313395
 30
0.0
 11
103.580682286
 21
114.3441965663
 31
0.0
  0
LINE
  5
168
330
1F
100
AcDbEntity
  8
0
  6
Continuous
 62
     7
370
     0
100
AcDbLine
 10
103.580682286
 20
115.3442619227
 30
0.0
 11
103.580682286
 21
119.3442551278
 31
0.0
  0
LINE
  5
169
330
1F
100
AcDbEntity
  8
0
  6
Continuous
 62
     7
370
     0
100
AcDbLine
 10
103.580682286
 20
120.3442422532
 30
0.0
 11
103.580682286
 21
124.3442466342
 31
0.0
  0
LINE
  5
16A
330
1F
100
AcDbEntity
  8
0
  6
Continuous
 62
     7
370
     0
100
AcDbLine
 10
103.580682286
 20
125.3442486607
 30
0.0
 11
103.580682286
 21
129.3442753934
 31
0.0
  0
LINE
  5
16B
330
1F
100
AcDbEntity
  8
0
  6
Continuous
 62
     7
370
     0
100
AcDbLine
 10
103.580682286
 20
130.3442811452
 30
0.0
 11
103.580682286
 21
134.344155141
 31
0.0
  0
LINE
  5
16C
330
1F
100
AcDbEntity
  8
0
  6
Continuous
 62
     7
370
     0
100
AcDbLine
 10
103.580682286
 20
135.3443508827
 30
0.0
 11
103.580682286
 21
139.3442472302
 31
0.0
  0
LINE
  5
16D
330
1F
100
AcDbEntity
  8
0
  6
Continuous
 62
     7
370
     0
100
AcDbLine
 10
103.580682286
 20
140.34425857
 30
0.0
 11
103.580682286
 21
142.3368325316
 31
0.0
  0
LINE
  5
16E
330
1F
100
AcDbEntity
  8
0
  6
Continuous
 62
     7
370
     0
100
AcDbLine
 10
106.0806822301
 20
89.3368331574
 30
0.0
 11
103.580682286
 21
89.3368331574
 31
0.0
  0
LINE
  5
16F
330
1F
100
AcDbEntity
  8
0
  6
Continuous
 62
     7
370
     0
100
AcDbLine
 10
103.580682286
 20
89.3368331574
 30
0.0
 11
103.580682286
 21
89.8368341707
 31
0.0
  0
LINE
  5
170
330
1F
100
AcDbEntity
  8
0
  6
Continuous
 62
     7
370
     0
100
AcDbLine
 10
109.5806823381
 20
149.3368318163
 30
0.0
 11
109.5806823381
 21
153.2937401765
 31
0.0
  0
LINE
  5
171
330
1F
100
AcDbEntity
  8
0
  6
Continuous
 62
     7
370
     0
100
AcDbLine
 10
109.5806823381
 20
153.3799247675
 30
0.0
 11
109.5806823381
 21
157.3368331276
 31
0.0
  0
LINE
  5
172
330
1F
100
AcDbEntity
  8
0
  6
Continuous
 62
     7
370
     0
100
AcDbLine
 10
109.5806823381
 20
157.3368331276
 30
0.0
 11
109.5806823381
 21
149.3368318163
 31
0.0
  0
LINE
  5
173
330
1F
100
AcDbEntity
  8
0
  6
Continuous
 62
     7
370
     0
100
AcDbLine
 10
109.5806823381
 20
149.3368318163
 30
0.0
 11
103.580682286
 21
149.3368318163
 31
0.0
  0
LINE
  5
174
330
1F
100
AcDbEntity
  8
0
  6
Continuous
 62
     7
370
     0
100
AcDbLine
 10
103.580682286
 20
149.3368318163
 30
0.0
 11
103.580682286
 21
157.3368331276
 31
0.0
  0
LINE
  5
175
330
1F
100
AcDbEntity
  8
0
  6
Continuous
 62
     7
370
     0
100
AcDbLine
 10
103.580682286
 20
157.3368331276
 30
0.0
 11
109.5806823381
 21
157.3368331276
 31
0.0
  0
LINE
  5
176
330
1F
100
AcDbEntity
  8
0
  6
Continuous
 62
     7
370
     0
100
AcDbLine
 10
103.580682286
 20
149.3368318163
 30
0.0
 11
97.5806822338
 21
149.3368318163
 31
0.0
  0
LINE
  5
177
330
1F
100
AcDbEntity
  8
0
  6
Continuous
 62
     7
370
     0
100
AcDbLine
 10
97.5806822338
 20
157.3368331276
 30
0.0
 11
103.580682286
 21
157.3368331276
 31
0.0
  0
LINE
  5
178
330
1F
100
AcDbEntity
  8
0
  6
Continuous
 62
     7
370
     0
100
AcDbLine
 10
97.5806822338
 20
149.3368318163
 30
0.0
 11
97.5806822338
 21
157.3368331276
 31
0.0
  0
LINE
  5
179
330
1F
100
AcDbEntity
  8
0
  6
Continuous
 62
     7
370
     0
100
AcDbLine
 10
103.5806822852
 20
142.3368325316
 30
0.0
 11
99.0806824797
 21
142.3368325316
 31
0.0
  0
LINE
  5
17A
330
1F
100
AcDbEntity
  8
0
  6
Continuous
 62
     7
370
     0
100
AcDbLine
 10
103.5806822856
 20
91.33682976
 30
0.0
 11
103.5806822856
 21
91.2368355178
 31
0.0
  0
SPLINE
  5
17B
330
1F
100
AcDbEntity
  8
0
  6
Continuous
 62
     7
370
     0
100
AcDbSpline
210
0.0
220
0.0
230
1.0
 70
    24
 71
     3
 72
    15
 73
    11
 74
     0
 42
0.00000001
 43
0.00000001
 12
1.0
 22
0.0
 32
0.0
 13
1.0
 23
0.0
 33
0.0
 40
0.0
 40
0.0
 40
0.0
 40
0.0
 40
0.1248985704215256
 40
0.2499130582935767
 40
0.3749275565241859
 40
0.4999420369359602
 40
0.6249565173477344
 40
0.7499710155783434
 40
0.8749855034503946
 40
1.0
 40
1.0
 40
1.0
 40
1.0
 10
106.5806287610037
 20
90.6368328117393
 30
0.0
 10
106.5694705347809
 20
90.6368328117393
 30
0.0
 10
106.5471437264672
 20
90.63683281173931
 30
0.0
 10
106.3687957302926
 20
90.63683281173928
 30
0.0
 10
106.0915432967319
 20
90.6368328117393
 30
0.0
 10
105.7155773938576
 20
90.6368328117393
 30
0.0
 10
105.2581635997663
 20
90.63683281173928
 30
0.0
 10
104.7361260465647
 20
90.6368328117393
 30
0.0
 10
104.1697278073828
 20
90.63683281173928
 30
0.0
 10
103.7770307976537
 20
90.63683281173927
 30
0.0
 10
103.5806822859747
 20
90.63683281173927
 30
0.0
  0
LINE
  5
17C
330
1F
100
AcDbEntity
  8
0
  6
Continuous
 62
     7
370
     0
100
AcDbLine
 10
103.5806822854
 20
89.8368341707
 30
0.0
 11
100.5806822599
 21
89.8368341707
 31
0.0
  0
SPLINE
  5
17D
330
1F
100
AcDbEntity
  8
0
  6
Continuous
 62
     7
370
     0
100
AcDbSpline
210
0.0
220
0.0
230
1.0
 70
    27
 71
     3
 72
    27
 73
    23
 74
     0
 42
0.00000001
 43
0.00000001
 12
1.0
 22
0.0
 32
0.0
 13
1.0
 23
0.0
 33
0.0
 40
0.0
 40
0.0
 40
0.0
 40
0.0
 40
0.0156822371559267
 40
0.0312917358550121
 40
0.062574161667127
 40
0.1250632870923326
 40
0.1875524129434452
 40
0.2500415381828743
 40
0.3125306634223033
 40
0.375019789273416
 40
0.4375089146986216
 40
0.4999980401295326
 40
0.5624871655604436
 40
0.6249762909856493
 40
0.687465416836762
 40
0.749954542076191
 40
0.8124436673156202
 40
0.8749327931667329
 40
0.9374219185919385
 40
0.9624611754745818
 40
0.9811563741088406
 40
1.0
 40
1.0
 40
1.0
 40
1.0
 10
103.5806822859747
 20
89.3368327402137
 30
0.0
 10
103.6216834888795
 20
89.3368327402137
 30
0.0
 10
103.7034957200222
 20
89.33683274021371
 30
0.0
 10
103.8667035277723
 20
89.33683274021365
 30
0.0
 10
104.1499539161878
 20
89.33683274021372
 30
0.0
 10
104.5436158958394
 20
89.33683274021371
 30
0.0
 10
104.9785456363376
 20
89.3368327402137
 30
0.0
 10
105.3598487662453
 20
89.33683274021372
 30
0.0
 10
105.6727547351863
 20
89.33683274021371
 30
0.0
 10
105.9052701863984
 20
89.33683274021374
 30
0.0
 10
106.0484512320441
 20
89.3368327402137
 30
0.0
 10
106.0967978158485
 20
89.33683274021374
 30
0.0
 10
106.0484512129731
 20
89.33683274021371
 30
0.0
 10
105.9052702626825
 20
89.33683274021371
 30
0.0
 10
105.6727544491209
 20
89.33683274021374
 30
0.0
 10
105.3598498342227
 20
89.33683274021371
 30
0.0
 10
104.9785416504935
 20
89.33683274021371
 30
0.0
 10
104.5436307712384
 20
89.33683274021372
 30
0.0
 10
104.1656406562687
 20
89.33683274021367
 30
0.0
 10
103.8911563148715
 20
89.33683274021371
 30
0.0
 10
103.7281004545216
 20
89.3368327402137
 30
0.0
 10
103.6299510353308
 20
89.33683274021371
 30
0.0
 10
103.5806822859747
 20
89.3368327402137
 30
0.0
  0
SPLINE
  5
17E
330
1F
100
AcDbEntity
  8
0
  6
Continuous
 62
     7
370
     0
100
AcDbSpline
210
0.0
220
0.0
230
1.0
 70
    24
 71
     3
 72
    16
 73
    12
 74
     0
 42
0.00000001
 43
0.00000001
 12
1.0
 22
0.0
 32
0.0
 13
1.0
 23
0.0
 33
0.0
 40
0.0
 40
0.0
 40
0.0
 40
0.0
 40
0.1249826246465082
 40
0.2499652522945965
 40
0.3749478871246992
 40
0.4999305156260337
 40
0.6249131441273683
 40
0.749895778957471
 40
0.8748784066055593
 40
0.9998610312520675
 40
1.0
 40
1.0
 40
1.0
 40
1.0
 10
103.5806822859747
 20
89.3368331574462
 30
0.0
 10
103.417059872181
 20
89.33683315744621
 30
0.0
 10
103.0898150406641
 20
89.33683315744625
 30
0.0
 10
102.6177964108227
 20
89.33683315744615
 30
0.0
 10
102.1828415825254
 20
89.33683315744624
 30
0.0
 10
101.8013774547458
 20
89.3368331574462
 30
0.0
 10
101.4891402483802
 20
89.33683315744624
 30
0.0
 10
101.2541110288717
 20
89.3368331574459
 30
0.0
 10
101.1203163078405
 20
89.3368331574472
 30
0.0
 10
101.0646998141193
 20
89.33683315744393
 30
0.0
 10
101.0807178693048
 20
89.33683315744618
 30
0.0
 10
101.0807356600715
 20
89.33683315744618
 30
0.0
  0
LINE
  5
17F
330
1F
100
AcDbEntity
  8
0
  6
Continuous
 62
     7
370
     0
100
AcDbLine
 10
103.5806822855
 20
89.3368331574
 30
0.0
 11
101.0806823419
 21
89.3368331574
 31
0.0
  0
LINE
  5
180
330
1F
100
AcDbEntity
  8
0
  6
Continuous
 62
     7
370
     0
100
AcDbLine
 10
103.580682286
 20
166.3368327402
 30
0.0
 11
109.0806822562
 21
166.3368327402
 31
0.0
  0
LINE
  5
181
330
1F
100
AcDbEntity
  8
0
  6
Continuous
 62
     7
370
     0
100
AcDbLine
 10
109.0806822562
 20
164.3368326452
 30
0.0
 11
103.580682286
 21
164.3368326452
 31
0.0
  0
LINE
  5
182
330
1F
100
AcDbEntity
  8
0
  6
Continuous
 62
     7
370
     0
100
AcDbLine
 10
99.8129453314
 20
129.1631853067
 30
0.0
 11
99.7740546976
 21
129.1544047975
 31
0.0
  0
SPLINE
  5
183
330
1F
100
AcDbEntity
  8
0
  6
Continuous
 62
     7
370
     0
100
AcDbSpline
210
0.0
220
0.0
230
1.0
 70
     8
 71
     3
 72
    12
 73
     8
 74
     0
 42
0.00000001
 43
0.00000001
 12
1.0
 22
0.0
 32
0.0
 13
1.0
 23
0.0
 33
0.0
 40
0.0
 40
0.0
 40
0.0
 40
0.0
 40
0.1671684603366207
 40
0.408923014683965
 40
0.6506553248809297
 40
0.8924060697366719
 40
1.0
 40
1.0
 40
1.0
 40
1.0
 10
98.64491338739779
 20
128.4876225375197
 30
0.0
 10
98.67500899059588
 20
128.4525921539228
 30
0.0
 10
98.74862804985926
 20
128.3669017668896
 30
0.0
 10
99.07009028317192
 20
128.2305982802443
 30
0.0
 10
99.5723730259186
 20
128.078618841076
 30
0.0
 10
100.0881315754595
 20
127.9547913231224
 30
0.0
 10
100.4647028627347
 20
127.8815915108091
 30
0.0
 10
100.5806822598973
 20
127.8590468548796
 30
0.0
  0
SPLINE
  5
184
330
1F
100
AcDbEntity
  8
0
  6
Continuous
 62
     7
370
     0
100
AcDbSpline
210
0.0
220
0.0
230
1.0
 70
     8
 71
     3
 72
    12
 73
     8
 74
     0
 42
0.00000001
 43
0.00000001
 12
1.0
 22
0.0
 32
0.0
 13
1.0
 23
0.0
 33
0.0
 40
0.0
 40
0.0
 40
0.0
 40
0.0
 40
0.2027760101615194
 40
0.4613302265795916
 40
0.7198560214289513
 40
0.9784135319320846
 40
0.9999999999999999
 40
0.9999999999999999
 40
0.9999999999999999
 40
0.9999999999999999
 10
106.5806823120514
 20
126.8302371584438
 30
0.0
 10
106.7771137482274
 20
126.7905082932784
 30
0.0
 10
107.2240096058107
 20
126.7001222246608
 30
0.0
 10
107.7782584130793
 20
126.5591118437756
 30
0.0
 10
108.2154199398809
 20
126.4071330698017
 30
0.0
 10
108.4501455556727
 20
126.3016242254714
 30
0.0
 10
108.4845211304446
 20
126.2467350397112
 30
0.0
 10
108.4871699371436
 20
126.2425055586361
 30
0.0
  0
SPLINE
  5
185
330
1F
100
AcDbEntity
  8
0
  6
Continuous
 62
     7
370
     0
100
AcDbSpline
210
0.0
220
0.0
230
1.0
 70
     8
 71
     3
 72
    12
 73
     8
 74
     0
 42
0.00000001
 43
0.00000001
 12
1.0
 22
0.0
 32
0.0
 13
1.0
 23
0.0
 33
0.0
 40
0.0
 40
0.0
 40
0.0
 40
0.0
 40
0.1413364018534976
 40
0.3975283581106468
 40
0.6537304805450752
 40
0.9099174489535445
 40
0.9999999999999999
 40
0.9999999999999999
 40
0.9999999999999999
 40
0.9999999999999999
 10
98.68279167349132
 20
123.4519129477999
 30
0.0
 10
98.71063999713655
 20
123.4239694767079
 30
0.0
 10
98.78896729448986
 20
123.3453745638796
 30
0.0
 10
99.1122102010994
 20
123.2161288752821
 30
0.0
 10
99.62840552688345
 20
123.0641826067278
 30
0.0
 10
100.1325574346889
 20
122.9450647432967
 30
0.0
 10
100.4881692866103
 20
122.8766075485929
 30
0.0
 10
100.5806822598973
 20
122.8587983035109
 30
0.0
  0
SPLINE
  5
186
330
1F
100
AcDbEntity
  8
0
  6
Continuous
 62
     7
370
     0
100
AcDbSpline
210
0.0
220
0.0
230
1.0
 70
     8
 71
     3
 72
    11
 73
     7
 74
     0
 42
0.00000001
 43
0.00000001
 12
1.0
 22
0.0
 32
0.0
 13
1.0
 23
0.0
 33
0.0
 40
0.0
 40
0.0
 40
0.0
 40
0.0
 40
0.2287849720113952
 40
0.4875370865128585
 40
0.7462470425652014
 40
1.0
 40
1.0
 40
1.0
 40
1.0
 10
106.5806823120514
 20
121.8309758090042
 30
0.0
 10
106.7998382155787
 20
121.7861820526667
 30
0.0
 10
107.2668559124073
 20
121.6907272801495
 30
0.0
 10
107.8225723897953
 20
121.5446636932164
 30
0.0
 10
108.2673614845546
 20
121.3936584416254
 30
0.0
 10
108.416879107622
 20
121.2933469416743
 30
0.0
 10
108.4909147852162
 20
121.2436763428711
 30
0.0
  0
SPLINE
  5
187
330
1F
100
AcDbEntity
  8
0
  6
Continuous
 62
     7
370
     0
100
AcDbSpline
210
0.0
220
0.0
230
1.0
 70
     8
 71
     3
 72
    12
 73
     8
 74
     0
 42
0.00000001
 43
0.00000001
 12
1.0
 22
0.0
 32
0.0
 13
1.0
 23
0.0
 33
0.0
 40
0.0
 40
0.0
 40
0.0
 40
0.0
 40
0.1613860778461346
 40
0.418671261726097
 40
0.6759936116992921
 40
0.9332765456109426
 40
1.0
 40
1.0
 40
1.0
 40
1.0
 10
98.68491602028408
 20
118.4489337586425
 30
0.0
 10
98.71975762860765
 20
118.4171666845657
 30
0.0
 10
98.81014448422789
 20
118.3347558523391
 30
0.0
 10
99.15365705537864
 20
118.2016626568469
 30
0.0
 10
99.68659011066947
 20
118.0497416875419
 30
0.0
 10
100.1774426984117
 20
117.9352824973777
 30
0.0
 10
100.5118225682408
 20
117.8715048336763
 30
0.0
 10
100.5806822598974
 20
117.8583709382079
 30
0.0
  0
SPLINE
  5
188
330
1F
100
AcDbEntity
  8
0
  6
Continuous
 62
     7
370
     0
100
AcDbSpline
210
0.0
220
0.0
230
1.0
 70
     8
 71
     3
 72
    11
 73
     7
 74
     0
 42
0.00000001
 43
0.00000001
 12
1.0
 22
0.0
 32
0.0
 13
1.0
 23
0.0
 33
0.0
 40
0.0
 40
0.0
 40
0.0
 40
0.0
 40
0.2541823513539324
 40
0.5119873103496538
 40
0.769764263277152
 40
1.0
 40
1.0
 40
1.0
 40
1.0
 10
106.5806823120515
 20
116.831982680466
 30
0.0
 10
106.8220365986298
 20
116.7820359827771
 30
0.0
 10
107.3081849538101
 20
116.6814307469125
 30
0.0
 10
107.8704663898515
 20
116.5302041468125
 30
0.0
 10
108.2895070614757
 20
116.3836504884035
 30
0.0
 10
108.4225995178925
 20
116.2877689378407
 30
0.0
 10
108.4853901797036
 20
116.2425337218307
 30
0.0
  0
SPLINE
  5
189
330
1F
100
AcDbEntity
  8
0
  6
Continuous
 62
     7
370
     0
100
AcDbSpline
210
0.0
220
0.0
230
1.0
 70
     8
 71
     3
 72
    12
 73
     8
 74
     0
 42
0.00000001
 43
0.00000001
 12
1.0
 22
0.0
 32
0.0
 13
1.0
 23
0.0
 33
0.0
 40
0.0
 40
0.0
 40
0.0
 40
0.0
 40
0.1875613439497281
 40
0.4439925819517288
 40
0.7004631306372587
 40
0.9568965671947045
 40
1.0
 40
1.0
 40
1.0
 40
1.0
 10
98.67994462038084
 20
113.4503019832633
 30
0.0
 10
98.72420382713604
 20
113.4132617715534
 30
0.0
 10
98.82897360041962
 20
113.3255807020602
 30
0.0
 10
99.19627665747593
 20
113.1872088030948
 30
0.0
 10
99.74625888487445
 20
113.0352865150289
 30
0.0
 10
100.2228960289329
 20
112.9254555416306
 30
0.0
 10
100.5356735009527
 20
112.8662931443666
 30
0.0
 10
100.5806822598974
 20
112.8577796601317
 30
0.0
  0
SPLINE
  5
18A
330
1F
100
AcDbEntity
  8
0
  6
Continuous
 62
     7
370
     0
100
AcDbSpline
210
0.0
220
0.0
230
1.0
 70
     8
 71
     3
 72
     9
 73
     5
 74
     0
 42
0.00000001
 43
0.00000001
 12
1.0
 22
0.0
 32
0.0
 13
1.0
 23
0.0
 33
0.0
 40
0.0
 40
0.0
 40
0.0
 40
0.0
 40
0.3999358600283379
 40
1.0
 40
1.0
 40
1.0
 40
1.0
 10
108.0806820922594
 20
111.4455407344364
 30
0.0
 10
108.1588230448887
 20
111.4182906829771
 30
0.0
 10
108.3542067562264
 20
111.3501546287174
 30
0.0
 10
108.4338765372344
 20
111.2820101891321
 30
0.0
 10
108.4816835158567
 20
111.2411191545986
 30
0.0
  0
SPLINE
  5
18B
330
1F
100
AcDbEntity
  8
0
  6
Continuous
 62
     7
370
     0
100
AcDbSpline
210
0.0
220
0.0
230
1.0
 70
     8
 71
     3
 72
    11
 73
     7
 74
     0
 42
0.00000001
 43
0.00000001
 12
1.0
 22
0.0
 32
0.0
 13
1.0
 23
0.0
 33
0.0
 40
0.0
 40
0.0
 40
0.0
 40
0.0
 40
0.2670668208351604
 40
0.5341577508083399
 40
0.8076139060418753
 40
1.0
 40
1.0
 40
1.0
 40
1.0
 10
99.75627179155734
 20
129.2942559205554
 30
0.0
 10
99.76112143165287
 20
129.3589138069697
 30
0.0
 10
99.77082114963937
 20
129.4882354167117
 30
0.0
 10
99.84281397293012
 20
129.6532897782516
 30
0.0
 10
99.93736397245559
 20
129.7612644808139
 30
0.0
 10
100.0088954551758
 20
129.7763169809698
 30
0.0
 10
100.038436920295
 20
129.7825334452651
 30
0.0
  0
SPLINE
  5
18C
330
1F
100
AcDbEntity
  8
0
  6
Continuous
 62
     7
370
     0
100
AcDbSpline
210
0.0
220
0.0
230
1.0
 70
     8
 71
     3
 72
    16
 73
    12
 74
     0
 42
0.00000001
 43
0.00000001
 12
1.0
 22
0.0
 32
0.0
 13
1.0
 23
0.0
 33
0.0
 40
0.0
 40
0.0
 40
0.0
 40
0.0
 40
0.1213886227582935
 40
0.2427585117147858
 40
0.3641460702745404
 40
0.4855159612509251
 40
0.6069025202355401
 40
0.7282740927127607
 40
0.8496590902360708
 40
0.9710326984486992
 40
1.0
 40
1.0
 40
1.0
 40
1.0
 10
103.580682338757
 20
109.8442582272552
 30
0.0
 10
103.9625859630049
 20
109.8949052590738
 30
0.0
 10
104.7263342726426
 20
109.9961915063982
 30
0.0
 10
105.8304965597179
 20
110.1481829569832
 30
0.0
 10
106.8523926878903
 20
110.3000951964493
 30
0.0
 10
107.7563412332793
 20
110.452086280941
 30
0.0
 10
108.5062772877195
 20
110.604009593306
 30
0.0
 10
109.0832074182767
 20
110.7559865253954
 30
0.0
 10
109.4407158416351
 20
110.9079201085695
 30
0.0
 10
109.5995431123957
 20
111.0213173249422
 30
0.0
 10
109.5669757988725
 20
111.0840571990446
 30
0.0
 10
109.5607008122902
 20
111.0961457573437
 30
0.0
  0
SPLINE
  5
18D
330
1F
100
AcDbEntity
  8
0
  6
Continuous
 62
     7
370
     0
100
AcDbSpline
210
0.0
220
0.0
230
1.0
 70
     8
 71
     3
 72
    25
 73
    21
 74
     0
 42
0.00000001
 43
0.00000001
 12
1.0
 22
0.0
 32
0.0
 13
1.0
 23
0.0
 33
0.0
 40
0.0
 40
0.0
 40
0.0
 40
0.0
 40
0.0176736286614141
 40
0.0785478401363081
 40
0.1394121671353157
 40
0.2002861845412313
 40
0.2611508979328844
 40
0.3220244960115013
 40
0.3828898485941006
 40
0.4437627777725678
 40
0.5046290693515426
 40
0.5655010892557237
 40
0.6263684733184364
 40
0.6872394642428
 40
0.7481080446677371
 40
0.8089778863657497
 40
0.8698476898611188
 40
0.930716293177239
 40
0.9915872660566547
 40
1.0
 40
1.0
 40
1.0
 40
1.0
 10
97.60351919467254
 20
113.5989596926234
 30
0.0
 10
97.59764950220035
 20
113.6136689289228
 30
0.0
 10
97.5715625183225
 20
113.6790419637145
 30
0.0
 10
97.74573422316658
 20
113.7950128895427
 30
0.0
 10
98.12486251121251
 20
113.9470133905711
 30
0.0
 10
98.71906282170134
 20
114.0989213074762
 30
0.0
 10
99.48504216875241
 20
114.2509151185351
 30
0.0
 10
100.4017056514024
 20
114.4028353924137
 30
0.0
 10
101.4330249963774
 20
114.5548165528751
 30
0.0
 10
102.5429487013977
 20
114.7067429120853
 30
0.0
 10
103.6903604212739
 20
114.8587245219976
 30
0.0
 10
104.8336853862676
 20
115.0106508488461
 30
0.0
 10
105.9319629155867
 20
115.162625906555
 30
0.0
 10
106.9437873915643
 20
115.3145612777289
 30
0.0
 10
107.835035860777
 20
115.4665247952682
 30
0.0
 10
108.5684867803686
 20
115.6184782007395
 30
0.0
 10
109.1282103695626
 20
115.7704231280835
 30
0.0
 10
109.4629924608695
 20
115.9223903299065
 30
0.0
 10
109.607098840061
 20
116.030676831151
 30
0.0
 10
109.5718822567377
 20
116.0883351930887
 30
0.0
 10
109.5676061035196
 20
116.0953363262676
 30
0.0
  0
SPLINE
  5
18E
330
1F
100
AcDbEntity
  8
0
  6
Continuous
 62
     7
370
     0
100
AcDbSpline
210
0.0
220
0.0
230
1.0
 70
     8
 71
     3
 72
    25
 73
    21
 74
     0
 42
0.00000001
 43
0.00000001
 12
1.0
 22
0.0
 32
0.0
 13
1.0
 23
0.0
 33
0.0
 40
0.0
 40
0.0
 40
0.0
 40
0.0
 40
0.023337495585072
 40
0.0842076654129652
 40
0.1450721789402686
 40
0.2059413890155112
 40
0.2668070678980284
 40
0.327675177881557
 40
0.3885420553714463
 40
0.4494089737807828
 40
0.5102770894072871
 40
0.5711427423324393
 40
0.6320119718163191
 40
0.6928764585235535
 40
0.7537466469583407
 40
0.8146101657287812
 40
0.8754811138860902
 40
0.93634382020517
 40
0.9972153353966656
 40
1.0
 40
1.0
 40
1.0
 40
1.0
 10
97.60681095431246
 20
118.5992715739272
 30
0.0
 10
97.60104683153418
 20
118.6186946086936
 30
0.0
 10
97.5802483992198
 20
118.6887778962062
 30
0.0
 10
97.77295910349366
 20
118.8094754861419
 30
0.0
 10
98.17280351957447
 20
118.9614559009123
 30
0.0
 10
98.78496477734843
 20
119.1133864031097
 30
0.0
 10
99.56603964623164
 20
119.2653548249017
 30
0.0
 10
100.4955197388221
 20
119.4173030187786
 30
0.0
 10
101.5357233188627
 20
119.5692540494526
 30
0.0
 10
102.6511171869349
 20
119.7212122600252
 30
0.0
 10
103.7999174525942
 20
119.8731606843307
 30
0.0
 10
104.9406919082008
 20
120.0251209925548
 30
0.0
 10
106.0325012356659
 20
120.1770617418021
 30
0.0
 10
107.0342850914059
 20
120.3290312403828
 30
0.0
 10
107.912018678731
 20
120.4809613148785
 30
0.0
 10
108.6293567096212
 20
120.6329474250614
 30
0.0
 10
109.1710331618205
 20
120.7848592502243
 30
0.0
 10
109.4834866256828
 20
120.9368656697055
 30
0.0
 10
109.6141992125656
 20
121.0404251610192
 30
0.0
 10
109.5773610864184
 20
121.0934229315287
 30
0.0
 10
109.575749588112
 20
121.0957413398289
 30
0.0
  0
LWPOLYLINE
  5
18F
330
1F
100
AcDbEntity
  8
0
  6
Continuous
 62
     7
370
     0
100
AcDbPolyline
 90
       19
 70
   128
 43
0.0
 10
97.6082396031
 20
123.597039082
 10
97.6092864097
 20
123.6719919228
 10
97.8292526946
 20
123.8239427887
 10
98.2575726033
 20
123.97589738
 10
98.8800118015
 20
124.1278519713
 10
99.6728397244
 20
124.2798028373
 10
100.6080559258
 20
124.4317574286
 10
101.6511507136
 20
124.5837082945
 10
102.7644176305
 20
124.7356628858
 10
103.9074469976
 20
124.8876174771
 10
105.0384151553
 20
125.0395683431
 10
106.1166247622
 20
125.1915229343
 10
107.1024115467
 20
125.3434738003
 10
107.9603803613
 20
125.4954283916
 10
108.6590175786
 20
125.6473829829
 10
109.1730717839
 20
125.7993338489
 10
109.4839412057
 20
125.9512884401
 10
109.5799871058
 20
126.1032393061
 10
109.5799871058
 20
126.1032393061
  0
SPLINE
  5
190
330
1F
100
AcDbEntity
  8
0
  6
Continuous
 62
     7
370
     0
100
AcDbSpline
210
0.0
220
0.0
230
1.0
 70
     8
 71
     3
 72
    12
 73
     8
 74
     0
 42
0.00000001
 43
0.00000001
 12
1.0
 22
0.0
 32
0.0
 13
1.0
 23
0.0
 33
0.0
 40
0.0
 40
0.0
 40
0.0
 40
0.0
 40
0.1261731972970473
 40
0.3446134389690536
 40
0.5630856934446009
 40
0.7815259919127955
 40
1.0
 40
1.0
 40
1.0
 40
1.0
 10
97.60769058848408
 20
128.5986846171877
 30
0.0
 10
97.60549796418758
 20
128.6279372821341
 30
0.0
 10
97.5995093087887
 20
128.7078342941947
 30
0.0
 10
97.83220220389454
 20
128.8384122562985
 30
0.0
 10
98.27657973105997
 20
128.9903329251569
 30
0.0
 10
98.91441692403146
 20
129.1423221958666
 30
0.0
 10
99.47563906889978
 20
129.2436087407769
 30
0.0
 10
99.75627179155734
 20
129.2942559205554
 30
0.0
  0
SPLINE
  5
191
330
1F
100
AcDbEntity
  8
0
  6
Continuous
 62
     7
370
     0
100
AcDbSpline
210
0.0
220
0.0
230
1.0
 70
    11
 71
     3
 72
    15
 73
    11
 74
     0
 42
0.00000001
 43
0.00000001
 12
1.0
 22
0.0
 32
0.0
 13
1.0
 23
0.0
 33
0.0
 40
0.0
 40
0.0
 40
0.0
 40
0.0
 40
0.1235187537812096
 40
0.2470472641597656
 40
0.3735180814243094
 40
0.5000000420769076
 40
0.6264820027295059
 40
0.7529525724738332
 40
0.8764812462187904
 40
1.0
 40
1.0
 40
1.0
 40
1.0
 10
103.5806823323279
 20
109.8442582272552
 30
0.0
 10
103.5806823323898
 20
109.9087764280083
 30
0.0
 10
103.5806823325138
 20
110.0378179257292
 30
0.0
 10
103.5806823334507
 20
110.2050277072716
 30
0.0
 10
103.5806823346625
 20
110.31658491816
 30
0.0
 10
103.5806823361877
 20
110.3581025722898
 30
0.0
 10
103.5806823379694
 20
110.3165850533212
 30
0.0
 10
103.5806823395564
 20
110.2050274000676
 30
0.0
 10
103.5806823406136
 20
110.0378180943319
 30
0.0
 10
103.5806823407377
 20
109.9087764557644
 30
0.0
 10
103.5806823407998
 20
109.8442582272552
 30
0.0
  0
SPLINE
  5
192
330
1F
100
AcDbEntity
  8
0
  6
Continuous
 62
     7
370
     0
100
AcDbSpline
210
0.0
220
0.0
230
1.0
 70
    24
 71
     3
 72
    11
 73
     7
 74
     0
 42
0.00000001
 43
0.00000001
 12
1.0
 22
0.0
 32
0.0
 13
1.0
 23
0.0
 33
0.0
 40
0.0
 40
0.0
 40
0.0
 40
0.0
 40
0.2497915956086157
 40
0.4996448034720268
 40
0.7497307147698559
 40
1.0
 40
1.0
 40
1.0
 40
1.0
 10
103.5806822859745
 20
110.3442592405341
 30
0.0
 10
103.5806822859745
 20
110.336407836461
 30
0.0
 10
103.5806822859745
 20
110.3207030917295
 30
0.0
 10
103.5806822859745
 20
110.2063752583874
 30
0.0
 10
103.5806822859745
 20
110.0404394644541
 30
0.0
 10
103.5806822859745
 20
109.9096679483641
 30
0.0
 10
103.5806822859745
 20
109.8442582272552
 30
0.0
  0
SPLINE
  5
193
330
1F
100
AcDbEntity
  8
0
  6
Continuous
 62
     7
370
     0
100
AcDbSpline
210
0.0
220
0.0
230
1.0
 70
    24
 71
     3
 72
    12
 73
     8
 74
     0
 42
0.00000001
 43
0.00000001
 12
1.0
 22
0.0
 32
0.0
 13
1.0
 23
0.0
 33
0.0
 40
0.0
 40
0.0
 40
0.0
 40
0.0
 40
0.2499380501529758
 40
0.4996848262527582
 40
0.7492015411015034
 40
0.9986997282357746
 40
0.9999999999999999
 40
0.9999999999999999
 40
0.9999999999999999
 40
0.9999999999999999
 10
103.5806822859745
 20
109.8442582272552
 30
0.0
 10
103.5806822859745
 20
109.7790611532516
 30
0.0
 10
103.5806822859745
 20
109.6487168996426
 30
0.0
 10
103.5806822859745
 20
109.479598067462
 30
0.0
 10
103.5806822859745
 20
109.3773737668755
 30
0.0
 10
103.5806822859745
 20
109.3314024505537
 30
0.0
 10
103.5806822859745
 20
109.3443984520922
 30
0.0
 10
103.5806822859745
 20
109.3444658302329
 30
0.0
  0
SPLINE
  5
194
330
1F
100
AcDbEntity
  8
0
  6
Continuous
 62
     7
370
     0
100
AcDbSpline
210
0.0
220
0.0
230
1.0
 70
     8
 71
     3
 72
    15
 73
    11
 74
     0
 42
0.00000001
 43
0.00000001
 12
1.0
 22
0.0
 32
0.0
 13
1.0
 23
0.0
 33
0.0
 40
0.0
 40
0.0
 40
0.0
 40
0.0
 40
0.1235184793625012
 40
0.2470480037132688
 40
0.3735184153895828
 40
0.4999999505877529
 40
0.6264814994878326
 40
0.75295215429969
 40
0.8764815220054413
 40
1.0
 40
1.0
 40
1.0
 40
1.0
 10
98.6694174156583
 20
148.7442554765008
 30
0.0
 10
98.66192493764076
 20
148.6797373055296
 30
0.0
 10
98.6469393116304
 20
148.5506951943903
 30
0.0
 10
98.53630496849605
 20
148.3834845869963
 30
0.0
 10
98.37326366791754
 20
148.2719269351787
 30
0.0
 10
98.17829093385134
 20
148.2304092110204
 30
0.0
 10
97.98331828064805
 20
148.2719270632815
 30
0.0
 10
97.82027647415306
 20
148.3834842885418
 30
0.0
 10
97.70964274553639
 20
148.550695355216
 30
0.0
 10
97.69465705147712
 20
148.6797373321018
 30
0.0
 10
97.6871645347274
 20
148.7442554765007
 30
0.0
  0
SPLINE
  5
195
330
1F
100
AcDbEntity
  8
0
  6
Continuous
 62
     7
370
     0
100
AcDbSpline
210
0.0
220
0.0
230
1.0
 70
     8
 71
     3
 72
     9
 73
     5
 74
     0
 42
0.00000001
 43
0.00000001
 12
1.0
 22
0.0
 32
0.0
 13
1.0
 23
0.0
 33
0.0
 40
0.0
 40
0.0
 40
0.0
 40
0.0
 40
0.6941962302301672
 40
1.0
 40
1.0
 40
1.0
 40
1.0
 10
97.6871645347274
 20
148.7442554765007
 30
0.0
 10
97.62655489014607
 20
148.6936071287467
 30
0.0
 10
97.53924579519285
 20
148.6206474301076
 30
0.0
 10
97.60890081790586
 20
148.547671783693
 30
0.0
 10
97.63020158643491
 20
148.525355555918
 30
0.0
  0
SPLINE
  5
196
330
1F
100
AcDbEntity
  8
0
  6
Continuous
 62
     7
370
     0
100
AcDbSpline
210
0.0
220
0.0
230
1.0
 70
     8
 71
     3
 72
    24
 73
    20
 74
     0
 42
0.00000001
 43
0.00000001
 12
1.0
 22
0.0
 32
0.0
 13
1.0
 23
0.0
 33
0.0
 40
0.0
 40
0.0
 40
0.0
 40
0.0
 40
0.0318089884833317
 40
0.0926736850110688
 40
0.1535458361096967
 40
0.2144097241109916
 40
0.2752824479635407
 40
0.3361458016126532
 40
0.3970188614882055
 40
0.4578819817027678
 40
0.5187550868059873
 40
0.5796182882315204
 40
0.6404912048310243
 40
0.7013548126954194
 40
0.762227271325565
 40
0.8230915335607449
 40
0.8839633264147833
 40
0.9448284994933793
 40
1.0
 40
1.0
 40
1.0
 40
1.0
 10
109.553026714275
 20
146.0885053359531
 30
0.0
 10
109.5564473162939
 20
146.062038001176
 30
0.0
 10
109.5664130463962
 20
145.9849269214727
 30
0.0
 10
109.3438127803169
 20
145.8571299142192
 30
0.0
 10
108.9119596183315
 20
145.7052107467402
 30
0.0
 10
108.2741753446436
 20
145.5532223953139
 30
0.0
 10
107.4695858367885
 20
145.4013072249296
 30
0.0
 10
106.5222549615423
 20
145.2493158331144
 30
0.0
 10
105.4685604335498
 20
145.0974005768924
 30
0.0
 10
104.3459937000316
 20
144.9454074293666
 30
0.0
 10
103.1957346029371
 20
144.7934957415833
 30
0.0
 10
102.0593300907775
 20
144.6415022134446
 30
0.0
 10
100.9784940141431
 20
144.4895897430776
 30
0.0
 10
99.99171574206365
 20
144.3375961582763
 30
0.0
 10
99.13646871590254
 20
144.1856796569438
 30
0.0
 10
98.44038030722703
 20
144.0336939766411
 30
0.0
 10
97.93766022187948
 20
143.8817711786301
 30
0.0
 10
97.62900615912899
 20
143.7345342263283
 30
0.0
 10
97.6027881346861
 20
143.6379845198436
 30
0.0
 10
97.59032235378992
 20
143.5920784108899
 30
0.0
  0
SPLINE
  5
197
330
1F
100
AcDbEntity
  8
0
  6
Continuous
 62
     7
370
     0
100
AcDbSpline
210
0.0
220
0.0
230
1.0
 70
     8
 71
     3
 72
    24
 73
    20
 74
     0
 42
0.00000001
 43
0.00000001
 12
1.0
 22
0.0
 32
0.0
 13
1.0
 23
0.0
 33
0.0
 40
0.0
 40
0.0
 40
0.0
 40
0.0
 40
0.0385362024218542
 40
0.0993301763089581
 40
0.1601340514525865
 40
0.2209282569553308
 40
0.2817318018387648
 40
0.3425265412104516
 40
0.4033295351506134
 40
0.4641250622790482
 40
0.5249272737352705
 40
0.5857238078705248
 40
0.6465250518154015
 40
0.7073227608894465
 40
0.768122893585351
 40
0.8289218398266041
 40
0.8897207604012527
 40
0.950520902385307
 40
1.0
 40
1.0
 40
1.0
 40
1.0
 10
109.5550225385524
 20
141.0909520321154
 30
0.0
 10
109.5555235544865
 20
141.0588521995638
 30
0.0
 10
109.5568149635496
 20
140.9761122867948
 30
0.0
 10
109.3123378485075
 20
140.8426721572284
 30
0.0
 10
108.8588690420898
 20
140.6907605294356
 30
0.0
 10
108.2049470175515
 20
140.5387683058136
 30
0.0
 10
107.3848010501791
 20
140.3868530235681
 30
0.0
 10
106.4263010658912
 20
140.2348657696448
 30
0.0
 10
105.3640143040134
 20
140.0829424213807
 30
0.0
 10
104.2372125265984
 20
139.9309612005212
 30
0.0
 10
103.0864505646525
 20
139.779033931984
 30
0.0
 10
101.9534223300637
 20
139.6270595009447
 30
0.0
 10
100.8801768949914
 20
139.4751247151251
 30
0.0
 10
99.9039781463903
 20
139.3231563801402
 30
0.0
 10
99.0632714764219
 20
139.1712120865707
 30
0.0
 10
98.3833528200221
 20
139.0192563456665
 30
0.0
 10
97.9006985457429
 20
138.8673024304375
 30
0.0
 10
97.61742969764417
 20
138.7247815160123
 30
0.0
 10
97.60372908220238
 20
138.6329075988745
 30
0.0
 10
97.5975820132591
 20
138.5916864358447
 30
0.0
  0
SPLINE
  5
198
330
1F
100
AcDbEntity
  8
0
  6
Continuous
 62
     7
370
     0
100
AcDbSpline
210
0.0
220
0.0
230
1.0
 70
     8
 71
     3
 72
    24
 73
    20
 74
     0
 42
0.00000001
 43
0.00000001
 12
1.0
 22
0.0
 32
0.0
 13
1.0
 23
0.0
 33
0.0
 40
0.0
 40
0.0
 40
0.0
 40
0.0
 40
0.0448226535887778
 40
0.105575214603392
 40
0.1663335028609801
 40
0.2270871418086388
 40
0.2878443894524651
 40
0.3485992451728151
 40
0.4093553283860206
 40
0.4701113954830143
 40
0.5308662599821319
 40
0.5916235162802719
 40
0.6523771490159948
 40
0.7131354491155065
 40
0.7738879936000739
 40
0.834647155704769
 40
0.8953988127828221
 40
0.9561586387513548
 40
1.0
 40
1.0
 40
1.0
 40
1.0
 10
109.5593662270405
 20
136.0922904544138
 30
0.0
 10
109.5555041065799
 20
136.0549266094191
 30
0.0
 10
109.5464072735321
 20
135.9669198619847
 30
0.0
 10
109.2787068457559
 20
135.8282277415085
 30
0.0
 10
108.8041951796608
 20
135.6762970488764
 30
0.0
 10
108.1340972949701
 20
135.5243271327264
 30
0.0
 10
107.2988771231973
 20
135.3723865797154
 30
0.0
 10
106.3293154418477
 20
135.2204274523728
 30
0.0
 10
105.2589505389091
 20
135.0684730602489
 30
0.0
 10
104.1281806237356
 20
134.9165274376052
 30
0.0
 10
102.9773004588956
 20
134.7645640886205
 30
0.0
 10
101.8481465477214
 20
134.6126205874186
 30
0.0
 10
100.7825875491122
 20
134.4606555894399
 30
0.0
 10
99.81770930978777
 20
134.308719207128
 30
0.0
 10
98.99128114362318
 20
134.156745785563
 30
0.0
 10
98.32840145435826
 20
134.0048189141536
 30
0.0
 10
97.86534140736966
 20
133.8528313083608
 30
0.0
 10
97.6067970289548
 20
133.7150097112161
 30
0.0
 10
97.60406300329223
 20
133.6277947420837
 30
0.0
 10
97.60291709462784
 20
133.5912404440901
 30
0.0
  0
SPLINE
  5
199
330
1F
100
AcDbEntity
  8
0
  6
Continuous
 62
     7
370
     0
100
AcDbSpline
210
0.0
220
0.0
230
1.0
 70
     8
 71
     3
 72
    19
 73
    15
 74
     0
 42
0.00000001
 43
0.00000001
 12
1.0
 22
0.0
 32
0.0
 13
1.0
 23
0.0
 33
0.0
 40
0.0
 40
0.0
 40
0.0
 40
0.0
 40
0.0707675556942097
 40
0.15524427893257
 40
0.239717595422802
 40
0.3241958499767431
 40
0.408667584695054
 40
0.4931471667993199
 40
0.5776175015911721
 40
0.662098165442174
 40
0.7465672824832648
 40
0.8310487480183743
 40
0.9155178137038634
 40
0.9999999999999999
 40
0.9999999999999999
 40
0.9999999999999999
 40
0.9999999999999999
 10
109.565769069741
 20
131.0930384181999
 30
0.0
 10
109.5562724167452
 20
131.0506058613244
 30
0.0
 10
109.5354394088486
 20
130.9575206666929
 30
0.0
 10
109.2427379861812
 20
130.813790642255
 30
0.0
 10
108.7481272707267
 20
130.6618299437852
 30
0.0
 10
108.0614347990149
 20
130.5098912057707
 30
0.0
 10
107.2119561325161
 20
130.3579137815672
 30
0.0
 10
106.2312292386132
 20
130.2059914868888
 30
0.0
 10
105.1534085156182
 20
130.0540042906138
 30
0.0
 10
104.0190498061864
 20
129.9020890239934
 30
0.0
 10
102.8678642388633
 20
129.7500978419327
 30
0.0
 10
101.7452382350851
 20
129.5981779516086
 30
0.0
 10
100.6794873321675
 20
129.4461953910511
 30
0.0
 10
100.0640262371559
 20
129.3449050327617
 30
0.0
 10
99.75627179155734
 20
129.2942559205554
 30
0.0
  0
SPLINE
  5
19A
330
1F
100
AcDbEntity
  8
0
  6
Continuous
 62
     7
370
     0
100
AcDbSpline
210
0.0
220
0.0
230
1.0
 70
     8
 71
     3
 72
    12
 73
     8
 74
     0
 42
0.00000001
 43
0.00000001
 12
1.0
 22
0.0
 32
0.0
 13
1.0
 23
0.0
 33
0.0
 40
0.0
 40
0.0
 40
0.0
 40
0.0
 40
0.2294642330402775
 40
0.4589453702870699
 40
0.6939018101174076
 40
0.9288789321724401
 40
1.0
 40
1.0
 40
1.0
 40
1.0
 10
99.75627179155734
 20
129.2942559205554
 30
0.0
 10
99.76112654659828
 20
129.2298166767696
 30
0.0
 10
99.770836414321
 20
129.1009334420779
 30
0.0
 10
99.84275128207548
 20
128.9325731118057
 30
0.0
 10
99.94807082618588
 20
128.8255128422389
 30
0.0
 10
100.0465634310342
 20
128.7806875063304
 30
0.0
 10
100.0998773758136
 20
128.8014065315167
 30
0.0
 10
100.1122647234299
 20
128.8062205397151
 30
0.0
  0
SPLINE
  5
19B
330
1F
100
AcDbEntity
  8
0
  6
Continuous
 62
     7
370
     0
100
AcDbSpline
210
0.0
220
0.0
230
1.0
 70
     8
 71
     3
 72
    12
 73
     8
 74
     0
 42
0.00000001
 43
0.00000001
 12
1.0
 22
0.0
 32
0.0
 13
1.0
 23
0.0
 33
0.0
 40
0.0
 40
0.0
 40
0.0
 40
0.0
 40
0.051495020364606
 40
0.3088390850204443
 40
0.5661727355661182
 40
0.8235214782789925
 40
1.0
 40
1.0
 40
1.0
 40
1.0
 10
108.4832309083142
 20
131.2392411612533
 30
0.0
 10
108.4761615762297
 20
131.2493764243266
 30
0.0
 10
108.4337635727481
 20
131.3101622119974
 30
0.0
 10
108.1827292410094
 20
131.4215984657092
 30
0.0
 10
107.7254401588253
 20
131.5735579644052
 30
0.0
 10
107.1823786174849
 20
131.7095868082001
 30
0.0
 10
106.7546712810514
 20
131.7949805856261
 30
0.0
 10
106.5806823120513
 20
131.829718300011
 30
0.0
  0
SPLINE
  5
19C
330
1F
100
AcDbEntity
  8
0
  6
Continuous
 62
     7
370
     0
100
AcDbSpline
210
0.0
220
0.0
230
1.0
 70
     8
 71
     3
 72
    12
 73
     8
 74
     0
 42
0.00000001
 43
0.00000001
 12
1.0
 22
0.0
 32
0.0
 13
1.0
 23
0.0
 33
0.0
 40
0.0
 40
0.0
 40
0.0
 40
0.0
 40
0.1384603181842785
 40
0.3948763909164753
 40
0.6513342710450606
 40
0.907750649867448
 40
1.0
 40
1.0
 40
1.0
 40
1.0
 10
100.5806822598972
 20
132.8590942405722
 30
0.0
 10
100.441395038175
 20
132.886439289709
 30
0.0
 10
100.0441603926411
 20
132.9644249137072
 30
0.0
 10
99.5167605633282
 20
133.0931022398128
 30
0.0
 10
99.03363008237442
 20
133.2450197221887
 30
0.0
 10
98.75275644554097
 20
133.3645657486476
 30
0.0
 10
98.69651960159821
 20
133.4334300884203
 30
0.0
 10
98.681640558789
 20
133.4516500913165
 30
0.0
  0
SPLINE
  5
19D
330
1F
100
AcDbEntity
  8
0
  6
Continuous
 62
     7
370
     0
100
AcDbSpline
210
0.0
220
0.0
230
1.0
 70
     8
 71
     3
 72
    12
 73
     8
 74
     0
 42
0.00000001
 43
0.00000001
 12
1.0
 22
0.0
 32
0.0
 13
1.0
 23
0.0
 33
0.0
 40
0.0
 40
0.0
 40
0.0
 40
0.0
 40
0.0745953599299526
 40
0.3324534603221154
 40
0.5902742194022228
 40
0.8481343340168305
 40
1.0
 40
1.0
 40
1.0
 40
1.0
 10
108.4781957128145
 20
136.2401360504888
 30
0.0
 10
108.4667541600035
 20
136.2547910617674
 30
0.0
 10
108.4157619290247
 20
136.3201048991858
 30
0.0
 10
108.1467096303444
 20
136.4360342415963
 30
0.0
 10
107.6723894225874
 20
136.5880239172762
 30
0.0
 10
107.1394287675879
 20
136.7191323276519
 30
0.0
 10
106.7317786350142
 20
136.7996294012653
 30
0.0
 10
106.5806823120512
 20
136.8294657998346
 30
0.0
  0
SPLINE
  5
19E
330
1F
100
AcDbEntity
  8
0
  6
Continuous
 62
     7
370
     0
100
AcDbSpline
210
0.0
220
0.0
230
1.0
 70
     8
 71
     3
 72
    12
 73
     8
 74
     0
 42
0.00000001
 43
0.00000001
 12
1.0
 22
0.0
 32
0.0
 13
1.0
 23
0.0
 33
0.0
 40
0.0
 40
0.0
 40
0.0
 40
0.0
 40
0.1640186302465051
 40
0.421896640495548
 40
0.6798028535933489
 40
0.9376851214262788
 40
1.0
 40
1.0
 40
1.0
 40
1.0
 10
100.5806822598972
 20
137.8589497738145
 30
0.0
 10
100.4184782176928
 20
137.8911598447857
 30
0.0
 10
100.001249148178
 20
137.9740121446278
 30
0.0
 10
99.46239513893578
 20
138.1075529098817
 30
0.0
 10
98.99768428065467
 20
138.2594784376863
 30
0.0
 10
98.73663311294744
 20
138.3730368638324
 30
0.0
 10
98.69032456402293
 20
138.4359204239454
 30
0.0
 10
98.68131226758139
 20
138.4481584512255
 30
0.0
  0
SPLINE
  5
19F
330
1F
100
AcDbEntity
  8
0
  6
Continuous
 62
     7
370
     0
100
AcDbSpline
210
0.0
220
0.0
230
1.0
 70
     8
 71
     3
 72
    12
 73
     8
 74
     0
 42
0.00000001
 43
0.00000001
 12
1.0
 22
0.0
 32
0.0
 13
1.0
 23
0.0
 33
0.0
 40
0.0
 40
0.0
 40
0.0
 40
0.0
 40
0.1036240508629543
 40
0.3602140683501313
 40
0.6167650619654875
 40
0.8733532799886305
 40
1.0
 40
1.0
 40
1.0
 40
1.0
 10
108.4784723156191
 20
141.2371771269106
 30
0.0
 10
108.4608673748522
 20
141.2576364941849
 30
0.0
 10
108.3996697350772
 20
141.3287565851327
 30
0.0
 10
108.1091902480583
 20
141.4504866286048
 30
0.0
 10
107.6180167045971
 20
141.6024762543172
 30
0.0
 10
107.0958317265361
 20
141.7287560898097
 30
0.0
 10
106.7086374613114
 20
141.8044194812095
 30
0.0
 10
106.5806823120512
 20
141.82942377856
 30
0.0
  0
SPLINE
  5
1A0
330
1F
100
AcDbEntity
  8
0
  6
Continuous
 62
     7
370
     0
100
AcDbSpline
210
0.0
220
0.0
230
1.0
 70
     8
 71
     3
 72
    10
 73
     6
 74
     0
 42
0.00000001
 43
0.00000001
 12
1.0
 22
0.0
 32
0.0
 13
1.0
 23
0.0
 33
0.0
 40
0.0
 40
0.0
 40
0.0
 40
0.0
 40
0.160814049600808
 40
0.8920969450684708
 40
1.0
 40
1.0
 40
1.0
 40
1.0
 10
99.08068247968923
 20
143.2405264907143
 30
0.0
 10
99.04660968350116
 20
143.251665847051
 30
0.0
 10
98.85759487127066
 20
143.3134601105664
 30
0.0
 10
98.71975864665652
 20
143.3827165066013
 30
0.0
 10
98.6809273037572
 20
143.4408452305513
 30
0.0
 10
98.67593434537422
 20
143.4483194582722
 30
0.0
  0
SPLINE
  5
1A1
330
1F
100
AcDbEntity
  8
0
  6
Continuous
 62
     7
370
     0
100
AcDbSpline
210
0.0
220
0.0
230
1.0
 70
     8
 71
     3
 72
     9
 73
     5
 74
     0
 42
0.00000001
 43
0.00000001
 12
1.0
 22
0.0
 32
0.0
 13
1.0
 23
0.0
 33
0.0
 40
0.0
 40
0.0
 40
0.0
 40
0.0
 40
0.5118893727422924
 40
1.0
 40
1.0
 40
1.0
 40
1.0
 10
108.5540049047268
 20
146.1688952379488
 30
0.0
 10
108.5145177399868
 20
146.2169330663361
 30
0.0
 10
108.4373777037941
 20
146.3107772267059
 30
0.0
 10
108.1976807316729
 20
146.4046118744093
 30
0.0
 10
108.080682092259
 20
146.4504135631584
 30
0.0
  0
SPLINE
  5
1A2
330
1F
100
AcDbEntity
  8
0
  6
Continuous
 62
     7
370
     0
100
AcDbSpline
210
0.0
220
0.0
230
1.0
 70
     8
 71
     3
 72
    10
 73
     6
 74
     0
 42
0.00000001
 43
0.00000001
 12
1.0
 22
0.0
 32
0.0
 13
1.0
 23
0.0
 33
0.0
 40
0.0
 40
0.0
 40
0.0
 40
0.0
 40
0.1611408172324306
 40
0.6865387954636029
 40
1.0
 40
1.0
 40
1.0
 40
1.0
 10
99.08068247968919
 20
148.2417864583991
 30
0.0
 10
99.03417428933685
 20
148.2573237957055
 30
0.0
 10
98.83602662239515
 20
148.3235204615924
 30
0.0
 10
98.66882473012093
 20
148.41991013773
 30
0.0
 10
98.63217279752726
 20
148.5007964729812
 30
0.0
 10
98.61847686479456
 20
148.531021722462
 30
0.0
  0
SPLINE
  5
1A3
330
1F
100
AcDbEntity
  8
0
  6
Continuous
 62
     7
370
     0
100
AcDbSpline
210
0.0
220
0.0
230
1.0
 70
     8
 71
     3
 72
    10
 73
     6
 74
     0
 42
0.00000001
 43
0.00000001
 12
1.0
 22
0.0
 32
0.0
 13
1.0
 23
0.0
 33
0.0
 40
0.0
 40
0.0
 40
0.0
 40
0.0
 40
0.3046366970572106
 40
0.8367879402445455
 40
1.0
 40
1.0
 40
1.0
 40
1.0
 10
98.62072600881226
 20
148.5273504488728
 30
0.0
 10
98.63397714248781
 20
148.4983490717505
 30
0.0
 10
98.67037587238934
 20
148.4186869599271
 30
0.0
 10
98.83607148390269
 20
148.3235204572448
 30
0.0
 10
99.03418281734658
 20
148.2573237948791
 30
0.0
 10
99.08068247968919
 20
148.2417864583991
 30
0.0
  0
SPLINE
  5
1A4
330
1F
100
AcDbEntity
  8
0
  6
Continuous
 62
     7
370
     0
100
AcDbSpline
210
0.0
220
0.0
230
1.0
 70
     8
 71
     3
 72
     9
 73
     5
 74
     0
 42
0.00000001
 43
0.00000001
 12
1.0
 22
0.0
 32
0.0
 13
1.0
 23
0.0
 33
0.0
 40
0.0
 40
0.0
 40
0.0
 40
0.0
 40
0.6502945006290874
 40
1.0
 40
1.0
 40
1.0
 40
1.0
 10
108.080682092259
 20
146.4504135631584
 30
0.0
 10
108.2019703205269
 20
146.4046122788844
 30
0.0
 10
108.388483089973
 20
146.334180675619
 30
0.0
 10
108.4529803450761
 20
146.2637408435117
 30
0.0
 10
108.47553538988
 20
146.239107646849
 30
0.0
  0
SPLINE
  5
1A5
330
1F
100
AcDbEntity
  8
0
  6
Continuous
 62
     7
370
     0
100
AcDbSpline
210
0.0
220
0.0
230
1.0
 70
     8
 71
     3
 72
    10
 73
     6
 74
     0
 42
0.00000001
 43
0.00000001
 12
1.0
 22
0.0
 32
0.0
 13
1.0
 23
0.0
 33
0.0
 40
0.0
 40
0.0
 40
0.0
 40
0.0
 40
0.1079030549315292
 40
0.8391859503991921
 40
1.0
 40
1.0
 40
1.0
 40
1.0
 10
98.67593434537422
 20
143.4483194582722
 30
0.0
 10
98.68092730375722
 20
143.4408452305513
 30
0.0
 10
98.71975864665652
 20
143.3827165066013
 30
0.0
 10
98.85759487127066
 20
143.3134601105664
 30
0.0
 10
99.04660968350116
 20
143.251665847051
 30
0.0
 10
99.08068247968923
 20
143.2405264907143
 30
0.0
  0
SPLINE
  5
1A6
330
1F
100
AcDbEntity
  8
0
  6
Continuous
 62
     7
370
     0
100
AcDbSpline
210
0.0
220
0.0
230
1.0
 70
     8
 71
     3
 72
    12
 73
     8
 74
     0
 42
0.00000001
 43
0.00000001
 12
1.0
 22
0.0
 32
0.0
 13
1.0
 23
0.0
 33
0.0
 40
0.0
 40
0.0
 40
0.0
 40
0.0
 40
0.1266467200113695
 40
0.3832349380345125
 40
0.6397859316498686
 40
0.8963759491370457
 40
0.9999999999999999
 40
0.9999999999999999
 40
0.9999999999999999
 40
0.9999999999999999
 10
106.5806823120512
 20
141.82942377856
 30
0.0
 10
106.7086374613114
 20
141.8044194812095
 30
0.0
 10
107.0958317265361
 20
141.7287560898097
 30
0.0
 10
107.6180167045971
 20
141.6024762543172
 30
0.0
 10
108.1091902480583
 20
141.4504866286048
 30
0.0
 10
108.3996697350772
 20
141.3287565851327
 30
0.0
 10
108.4608673748522
 20
141.2576364941849
 30
0.0
 10
108.4784723156191
 20
141.2371771269106
 30
0.0
  0
SPLINE
  5
1A7
330
1F
100
AcDbEntity
  8
0
  6
Continuous
 62
     7
370
     0
100
AcDbSpline
210
0.0
220
0.0
230
1.0
 70
     8
 71
     3
 72
    12
 73
     8
 74
     0
 42
0.00000001
 43
0.00000001
 12
1.0
 22
0.0
 32
0.0
 13
1.0
 23
0.0
 33
0.0
 40
0.0
 40
0.0
 40
0.0
 40
0.0
 40
0.0623148785737213
 40
0.320197146406651
 40
0.5781033595044519
 40
0.8359813697534949
 40
1.0
 40
1.0
 40
1.0
 40
1.0
 10
98.68131226758139
 20
138.4481584512255
 30
0.0
 10
98.69032456402294
 20
138.4359204239454
 30
0.0
 10
98.73663311294743
 20
138.3730368638324
 30
0.0
 10
98.99768428065467
 20
138.2594784376863
 30
0.0
 10
99.46239513893578
 20
138.1075529098817
 30
0.0
 10
100.001249148178
 20
137.9740121446278
 30
0.0
 10
100.4184782176928
 20
137.8911598447857
 30
0.0
 10
100.5806822598972
 20
137.8589497738145
 30
0.0
  0
SPLINE
  5
1A8
330
1F
100
AcDbEntity
  8
0
  6
Continuous
 62
     7
370
     0
100
AcDbSpline
210
0.0
220
0.0
230
1.0
 70
     8
 71
     3
 72
    12
 73
     8
 74
     0
 42
0.00000001
 43
0.00000001
 12
1.0
 22
0.0
 32
0.0
 13
1.0
 23
0.0
 33
0.0
 40
0.0
 40
0.0
 40
0.0
 40
0.0
 40
0.1518656659831695
 40
0.4097257805977772
 40
0.6675465396778846
 40
0.9254046400700473
 40
1.0
 40
1.0
 40
1.0
 40
1.0
 10
106.5806823120512
 20
136.8294657998346
 30
0.0
 10
106.7317786350142
 20
136.7996294012653
 30
0.0
 10
107.1394287675879
 20
136.7191323276519
 30
0.0
 10
107.6723894225874
 20
136.5880239172762
 30
0.0
 10
108.1467096303444
 20
136.4360342415963
 30
0.0
 10
108.4157619290247
 20
136.3201048991858
 30
0.0
 10
108.4667541600035
 20
136.2547910617674
 30
0.0
 10
108.4781957128145
 20
136.2401360504888
 30
0.0
  0
SPLINE
  5
1A9
330
1F
100
AcDbEntity
  8
0
  6
Continuous
 62
     7
370
     0
100
AcDbSpline
210
0.0
220
0.0
230
1.0
 70
     8
 71
     3
 72
    12
 73
     8
 74
     0
 42
0.00000001
 43
0.00000001
 12
1.0
 22
0.0
 32
0.0
 13
1.0
 23
0.0
 33
0.0
 40
0.0
 40
0.0
 40
0.0
 40
0.0
 40
0.092249350132552
 40
0.3486657289549394
 40
0.6051236090835248
 40
0.8615396818157216
 40
1.0
 40
1.0
 40
1.0
 40
1.0
 10
98.681640558789
 20
133.4516500913165
 30
0.0
 10
98.69651960159821
 20
133.4334300884204
 30
0.0
 10
98.75275644554097
 20
133.3645657486475
 30
0.0
 10
99.03363008237442
 20
133.2450197221887
 30
0.0
 10
99.5167605633282
 20
133.0931022398128
 30
0.0
 10
100.0441603926411
 20
132.9644249137072
 30
0.0
 10
100.441395038175
 20
132.886439289709
 30
0.0
 10
100.5806822598972
 20
132.8590942405722
 30
0.0
  0
SPLINE
  5
1AA
330
1F
100
AcDbEntity
  8
0
  6
Continuous
 62
     7
370
     0
100
AcDbSpline
210
0.0
220
0.0
230
1.0
 70
     8
 71
     3
 72
    12
 73
     8
 74
     0
 42
0.00000001
 43
0.00000001
 12
1.0
 22
0.0
 32
0.0
 13
1.0
 23
0.0
 33
0.0
 40
0.0
 40
0.0
 40
0.0
 40
0.0
 40
0.1764785217210076
 40
0.4338272644338819
 40
0.6911609149795557
 40
0.9485049796353939
 40
1.0
 40
1.0
 40
1.0
 40
1.0
 10
106.5806823120513
 20
131.829718300011
 30
0.0
 10
106.7546712810514
 20
131.7949805856261
 30
0.0
 10
107.1823786174849
 20
131.7095868082001
 30
0.0
 10
107.7254401588253
 20
131.5735579644052
 30
0.0
 10
108.1827292410094
 20
131.4215984657093
 30
0.0
 10
108.4337635727481
 20
131.3101622119974
 30
0.0
 10
108.4761615762297
 20
131.2493764243266
 30
0.0
 10
108.4832309083142
 20
131.2392411612533
 30
0.0
  0
SPLINE
  5
1AB
330
1F
100
AcDbEntity
  8
0
  6
Continuous
 62
     7
370
     0
100
AcDbSpline
210
0.0
220
0.0
230
1.0
 70
     8
 71
     3
 72
    15
 73
    11
 74
     0
 42
0.00000001
 43
0.00000001
 12
1.0
 22
0.0
 32
0.0
 13
1.0
 23
0.0
 33
0.0
 40
0.0
 40
0.0
 40
0.0
 40
0.0
 40
0.1235164790836661
 40
0.2470429575507667
 40
0.3735159367913587
 40
0.5000000494122597
 40
0.6264841483310252
 40
0.752956884431605
 40
0.8764835195482062
 40
0.9999999999999999
 40
0.9999999999999999
 40
0.9999999999999999
 40
0.9999999999999999
 10
97.6871645347274
 20
148.7442554765007
 30
0.0
 10
97.69465856156957
 20
148.8087710860859
 30
0.0
 10
97.70964722193933
 20
148.9378075281731
 30
0.0
 10
97.82027854592017
 20
149.1050135189492
 30
0.0
 10
97.98331851998587
 20
149.2165682164254
 30
0.0
 10
98.17829093385075
 20
149.2580900339919
 30
0.0
 10
98.37326342858235
 20
149.216568344532
 30
0.0
 10
98.53630289672779
 20
149.1050132204941
 30
0.0
 10
98.64693483522414
 20
148.9378076889988
 30
0.0
 10
98.66192342754807
 20
148.808771112658
 30
0.0
 10
98.6694174156583
 20
148.7442554765008
 30
0.0
  0
SPLINE
  5
1AC
330
1F
100
AcDbEntity
  8
0
  6
Continuous
 62
     7
370
     0
100
AcDbSpline
210
0.0
220
0.0
230
1.0
 70
     8
 71
     3
 72
    19
 73
    15
 74
     0
 42
0.00000001
 43
0.00000001
 12
1.0
 22
0.0
 32
0.0
 13
1.0
 23
0.0
 33
0.0
 40
0.0
 40
0.0
 40
0.0
 40
0.0
 40
0.0842915372412685
 40
0.1685699834808772
 40
0.2528608015876439
 40
0.3371392990669612
 40
0.4214293172987627
 40
0.5057090297807707
 40
0.5899979687069897
 40
0.6742790779562738
 40
0.7585666923280213
 40
0.8428493797796772
 40
0.9271354662915293
 40
1.0
 40
1.0
 40
1.0
 40
1.0
 10
99.75627179155734
 20
129.2942559205554
 30
0.0
 10
100.0640262366996
 20
129.3449050327617
 30
0.0
 10
100.6794873307986
 20
129.4461953910514
 30
0.0
 10
101.7452382405599
 20
129.5981779516074
 30
0.0
 10
102.8678642183305
 20
129.7500978419375
 30
0.0
 10
104.0190498828339
 20
129.9020890239757
 30
0.0
 10
105.1534082295286
 20
130.0540042906799
 30
0.0
 10
106.2312303062155
 20
130.2059914866423
 30
0.0
 10
107.2119521478255
 20
130.3579137824871
 30
0.0
 10
108.0614496689801
 20
130.5098912023377
 30
0.0
 10
108.7480717717056
 20
130.661829956598
 30
0.0
 10
109.2429451009095
 20
130.8137905944395
 30
0.0
 10
109.5374723764878
 20
130.958876955393
 30
0.0
 10
109.5581929657078
 20
131.0533179003233
 30
0.0
 10
109.5678002842763
 20
131.0971064352058
 30
0.0
  0
SPLINE
  5
1AD
330
1F
100
AcDbEntity
  8
0
  6
Continuous
 62
     7
370
     0
100
AcDbSpline
210
0.0
220
0.0
230
1.0
 70
     8
 71
     3
 72
    24
 73
    20
 74
     0
 42
0.00000001
 43
0.00000001
 12
1.0
 22
0.0
 32
0.0
 13
1.0
 23
0.0
 33
0.0
 40
0.0
 40
0.0
 40
0.0
 40
0.0
 40
0.0415606233917893
 40
0.1023576712918809
 40
0.1631465452971684
 40
0.2239429289267344
 40
0.2847326908821681
 40
0.3455282119784797
 40
0.4063190628517399
 40
0.4671135395072392
 40
0.5279056228984818
 40
0.588698909624321
 40
0.649492212476245
 40
0.710284287083342
 40
0.7710787550792259
 40
0.8318696121682274
 40
0.8926651214153609
 40
0.9534548999109679
 40
1.0
 40
1.0
 40
1.0
 40
1.0
 10
97.60458369637512
 20
133.5970071934721
 30
0.0
 10
97.60593173101955
 20
133.631639215641
 30
0.0
 10
97.60925174106187
 20
133.7169327664119
 30
0.0
 10
97.86569743961418
 20
133.8528310448786
 30
0.0
 10
98.3283060478131
 20
134.0048189847594
 30
0.0
 10
98.99130670577284
 20
134.1567457666455
 30
0.0
 10
99.81770246043855
 20
134.3087192121975
 30
0.0
 10
100.7825893826912
 20
134.4606555880806
 30
0.0
 10
101.8481460624124
 20
134.6126205877868
 30
0.0
 10
102.9773005664844
 20
134.7645640885071
 30
0.0
 10
104.1281806786762
 20
134.9165274376908
 30
0.0
 10
105.2589502115489
 20
135.0684730600199
 30
0.0
 10
106.3293166963352
 20
135.2204274532033
 30
0.0
 10
107.2988724326326
 20
135.3723865766226
 30
0.0
 10
108.1341148030886
 20
135.5243271442675
 30
0.0
 10
108.8041298401325
 20
135.6762970058066
 30
0.0
 10
109.2789507078835
 20
135.828227902255
 30
0.0
 10
109.5483136668501
 20
135.9683317701707
 30
0.0
 10
109.557092683772
 20
136.0577516147192
 30
0.0
 10
109.5608996496596
 20
136.0965279721283
 30
0.0
  0
SPLINE
  5
1AE
330
1F
100
AcDbEntity
  8
0
  6
Continuous
 62
     7
370
     0
100
AcDbSpline
210
0.0
220
0.0
230
1.0
 70
     8
 71
     3
 72
    24
 73
    20
 74
     0
 42
0.00000001
 43
0.00000001
 12
1.0
 22
0.0
 32
0.0
 13
1.0
 23
0.0
 33
0.0
 40
0.0
 40
0.0
 40
0.0
 40
0.0
 40
0.0478863702184481
 40
0.1086117684081207
 40
0.1693359466899101
 40
0.2300601506067509
 40
0.290785539519692
 40
0.3515085077902188
 40
0.4122350065860339
 40
0.4729568013621645
 40
0.5336842664799288
 40
0.5944050554871895
 40
0.6551333021269578
 40
0.715853304345888
 40
0.7765821012516342
 40
0.8373015702579263
 40
0.8980306970178661
 40
0.958749934693251
 40
1.0
 40
1.0
 40
1.0
 40
1.0
 10
97.59920763681309
 20
138.5955197595618
 30
0.0
 10
97.60534233309181
 20
138.6354631433369
 30
0.0
 10
97.61925652638816
 20
138.7260593093906
 30
0.0
 10
97.90090827538953
 20
138.8673024203162
 30
0.0
 10
98.38329662367252
 20
139.0192563483785
 30
0.0
 10
99.06328653432192
 20
139.171212085844
 30
0.0
 10
99.90397411259109
 20
139.323156380335
 30
0.0
 10
100.8801779729132
 20
139.4751247150727
 30
0.0
 10
101.9534220523972
 20
139.6270595009597
 30
0.0
 10
103.0864505974745
 20
139.7790339319764
 30
0.0
 10
104.237212673011
 20
139.9309612005365
 30
0.0
 10
105.3640136855968
 20
140.0829424213272
 30
0.0
 10
106.4263033933521
 20
140.2348657698433
 30
0.0
 10
107.3847923596192
 20
140.3868530228278
 30
0.0
 10
108.2049794558103
 20
140.5387683085769
 30
0.0
 10
108.8587479935995
 20
140.6907605191237
 30
0.0
 10
109.3127896587846
 20
140.8426721957172
 30
0.0
 10
109.5595783397022
 20
140.9784159407207
 30
0.0
 10
109.5574337610301
 20
141.0634581180534
 30
0.0
 10
109.5565662057198
 20
141.0978605829739
 30
0.0
  0
SPLINE
  5
1AF
330
1F
100
AcDbEntity
  8
0
  6
Continuous
 62
     7
370
     0
100
AcDbSpline
210
0.0
220
0.0
230
1.0
 70
     8
 71
     3
 72
    24
 73
    20
 74
     0
 42
0.00000001
 43
0.00000001
 12
1.0
 22
0.0
 32
0.0
 13
1.0
 23
0.0
 33
0.0
 40
0.0
 40
0.0
 40
0.0
 40
0.0
 40
0.0535823305871133
 40
0.1143368003216945
 40
0.1750978777914783
 40
0.2358514383393117
 40
0.2966131803742699
 40
0.3573660877415072
 40
0.4181282869128557
 40
0.4788807885804738
 40
0.5396431759126817
 40
0.600395596517038
 40
0.6611579387038401
 40
0.721910592318169
 40
0.7826725990931365
 40
0.8434257860877524
 40
0.9041872211505401
 40
0.9649412152010268
 40
1.0
 40
1.0
 40
1.0
 40
1.0
 10
97.59241084466349
 20
143.5958018385432
 30
0.0
 10
97.60471251907416
 20
143.6404668699339
 30
0.0
 10
97.63096248012107
 20
143.7357754673675
 30
0.0
 10
97.93784242299908
 20
143.8817712153869
 30
0.0
 10
98.44033149134737
 20
144.0336939667931
 30
0.0
 10
99.13648179711531
 20
144.1856796595827
 30
0.0
 10
99.99171223846224
 20
144.3375961575694
 30
0.0
 10
100.9784949488783
 20
144.4895897432663
 30
0.0
 10
102.0593298558686
 20
144.6415022133968
 30
0.0
 10
103.195734607964
 20
144.793495741586
 30
0.0
 10
104.345993914894
 20
144.9454074294035
 30
0.0
 10
105.4685595691923
 20
145.0974005767417
 30
0.0
 10
106.5222582045275
 20
145.2493158336803
 30
0.0
 10
107.4695737307324
 20
145.4013072228169
 30
0.0
 10
108.2742205314588
 20
145.5532224031996
 30
0.0
 10
108.9117909968991
 20
145.7052107173137
 30
0.0
 10
109.3444421495207
 20
145.8571300240521
 30
0.0
 10
109.5692882858636
 20
145.987684576891
 30
0.0
 10
109.5578970795734
 20
146.0675528140215
 30
0.0
 10
109.5537289314962
 20
146.0967773430609
 30
0.0
  0
SPLINE
  5
1B0
330
1F
100
AcDbEntity
  8
0
  6
Continuous
 62
     7
370
     0
100
AcDbSpline
210
0.0
220
0.0
230
1.0
 70
     8
 71
     3
 72
     9
 73
     5
 74
     0
 42
0.00000001
 43
0.00000001
 12
1.0
 22
0.0
 32
0.0
 13
1.0
 23
0.0
 33
0.0
 40
0.0
 40
0.0
 40
0.0
 40
0.0
 40
0.274367186768231
 40
0.9999999999999999
 40
0.9999999999999999
 40
0.9999999999999999
 40
0.9999999999999999
 10
97.62322784299619
 20
148.5348401450179
 30
0.0
 10
97.60537656846998
 20
148.5539947182467
 30
0.0
 10
97.5403131228864
 20
148.6238083627079
 30
0.0
 10
97.62541315732881
 20
148.6936071709302
 30
0.0
 10
97.6871645347274
 20
148.7442554765007
 30
0.0
  0
SPLINE
  5
1B1
330
1F
100
AcDbEntity
  8
0
  6
Continuous
 62
     7
370
     0
100
AcDbSpline
210
0.0
220
0.0
230
1.0
 70
     8
 71
     3
 72
    11
 73
     7
 74
     0
 42
0.00000001
 43
0.00000001
 12
1.0
 22
0.0
 32
0.0
 13
1.0
 23
0.0
 33
0.0
 40
0.0
 40
0.0
 40
0.0
 40
0.0
 40
0.1973009414095853
 40
0.4690880457452231
 40
0.7345568118996217
 40
0.9999999999999999
 40
0.9999999999999999
 40
0.9999999999999999
 40
0.9999999999999999
 10
100.0411980588981
 20
129.7834349655173
 30
0.0
 10
100.0107037051111
 20
129.7770759982208
 30
0.0
 10
99.93820259730091
 20
129.7619573904699
 30
0.0
 10
99.84279865193427
 20
129.653370048161
 30
0.0
 10
99.77082177472592
 20
129.4882269180308
 30
0.0
 10
99.76112163017036
 20
129.358910843002
 30
0.0
 10
99.75627179155734
 20
129.2942559205554
 30
0.0
  0
SPLINE
  5
1B2
330
1F
100
AcDbEntity
  8
0
  6
Continuous
 62
     7
370
     0
100
AcDbSpline
210
0.0
220
0.0
230
1.0
 70
     8
 71
     3
 72
    15
 73
    11
 74
     0
 42
0.00000001
 43
0.00000001
 12
1.0
 22
0.0
 32
0.0
 13
1.0
 23
0.0
 33
0.0
 40
0.0
 40
0.0
 40
0.0
 40
0.0
 40
0.1250544177638168
 40
0.2500171626959722
 40
0.3748643660270622
 40
0.4997016992877498
 40
0.6246734948580986
 40
0.7496612227595236
 40
0.8747896317067024
 40
1.0
 40
1.0
 40
1.0
 40
1.0
 10
97.6871645347274
 20
148.7442554765007
 30
0.0
 10
97.69484011968532
 20
148.6789262378981
 30
0.0
 10
97.71018566290986
 20
148.5483156511742
 30
0.0
 10
97.8225512631911
 20
148.381173820564
 30
0.0
 10
97.9854304825612
 20
148.2714159445097
 30
0.0
 10
98.17788041322731
 20
148.2307445595581
 30
0.0
 10
98.37048365861502
 20
148.2711014184075
 30
0.0
 10
98.53369418628716
 20
148.380789174444
 30
0.0
 10
98.64634027228385
 20
148.5480627069061
 30
0.0
 10
98.66172335575845
 20
148.6788436143528
 30
0.0
 10
98.6694174156583
 20
148.7442554765008
 30
0.0
  0
SPLINE
  5
1B3
330
1F
100
AcDbEntity
  8
0
  6
Continuous
 62
     7
370
     0
100
AcDbSpline
210
0.0
220
0.0
230
1.0
 70
     8
 71
     3
 72
    15
 73
    11
 74
     0
 42
0.00000001
 43
0.00000001
 12
1.0
 22
0.0
 32
0.0
 13
1.0
 23
0.0
 33
0.0
 40
0.0
 40
0.0
 40
0.0
 40
0.0
 40
0.1250561776450986
 40
0.2500177768159257
 40
0.374864965878783
 40
0.4997020190695183
 40
0.6246732233131731
 40
0.7496609470225364
 40
0.8747890399933297
 40
1.0
 40
1.0
 40
1.0
 40
1.0
 10
98.6694174156583
 20
148.7442554765008
 30
0.0
 10
98.6617403407407
 20
148.8095843104144
 30
0.0
 10
98.64639199698443
 20
148.9401925708349
 30
0.0
 10
98.53402325085489
 20
149.1073275500934
 30
0.0
 10
98.37114726067098
 20
149.2170817547685
 30
0.0
 10
98.17870120655232
 20
149.2577506844299
 30
0.0
 10
97.98610199045125
 20
149.2173961242267
 30
0.0
 10
97.82289400010124
 20
149.1077122034587
 30
0.0
 10
97.7102468389149
 20
148.9404443203052
 30
0.0
 10
97.69486033386615
 20
148.8096661877937
 30
0.0
 10
97.6871645347274
 20
148.7442554765007
 30
0.0
  0
SPLINE
  5
1B4
330
1F
100
AcDbEntity
  8
0
  6
Continuous
 62
     7
370
     0
100
AcDbSpline
210
0.0
220
0.0
230
1.0
 70
     8
 71
     3
 72
    12
 73
     8
 74
     0
 42
0.00000001
 43
0.00000001
 12
1.0
 22
0.0
 32
0.0
 13
1.0
 23
0.0
 33
0.0
 40
0.0
 40
0.0
 40
0.0
 40
0.0
 40
0.0767182353973028
 40
0.3102752774101787
 40
0.5438085857773225
 40
0.7719152648017829
 40
1.0
 40
1.0
 40
1.0
 40
1.0
 10
100.1154442586997
 20
128.8072226428054
 30
0.0
 10
100.1020036497222
 20
128.8019419204794
 30
0.0
 10
100.0476451434626
 20
128.7805848392569
 30
0.0
 10
99.94808054159009
 20
128.8253433804395
 30
0.0
 10
99.84274638514074
 20
128.9325961201409
 30
0.0
 10
99.77083499281548
 20
129.1009151857876
 30
0.0
 10
99.76112603630256
 20
129.2298110756929
 30
0.0
 10
99.75627179155734
 20
129.2942559205554
 30
0.0
  0
SPLINE
  5
1B5
330
1F
100
AcDbEntity
  8
0
  6
Continuous
 62
     7
370
     0
100
AcDbSpline
210
0.0
220
0.0
230
1.0
 70
     8
 71
     3
 72
    12
 73
     8
 74
     0
 42
0.00000001
 43
0.00000001
 12
1.0
 22
0.0
 32
0.0
 13
1.0
 23
0.0
 33
0.0
 40
0.0
 40
0.0
 40
0.0
 40
0.0
 40
0.2163366716364929
 40
0.4326399634359855
 40
0.6489748986164459
 40
0.8652781341753886
 40
1.0
 40
1.0
 40
1.0
 40
1.0
 10
99.75627179155734
 20
129.2942559205554
 30
0.0
 10
99.47562828532094
 20
129.2436087472564
 30
0.0
 10
98.91438457495882
 20
129.1423222153037
 30
0.0
 10
98.27670911194382
 20
128.9903328474174
 30
0.0
 10
97.83171697384752
 20
128.8384125478529
 30
0.0
 10
97.5969490964291
 20
128.7055423105168
 30
0.0
 10
97.60395799059197
 20
128.6233573880042
 30
0.0
 10
97.6066479728618
 20
128.5918151818774
 30
0.0
  0
SPLINE
  5
1B6
330
1F
100
AcDbEntity
  8
0
  6
Continuous
 62
     7
370
     0
100
AcDbSpline
210
0.0
220
0.0
230
1.0
 70
     8
 71
     3
 72
    24
 73
    20
 74
     0
 42
0.00000001
 43
0.00000001
 12
1.0
 22
0.0
 32
0.0
 13
1.0
 23
0.0
 33
0.0
 40
0.0
 40
0.0
 40
0.0
 40
0.0
 40
0.0604968149426452
 40
0.1209843412580363
 40
0.1814814728263237
 40
0.2419687784305676
 40
0.3024659790996915
 40
0.362953339985184
 40
0.4234503713153872
 40
0.4839381008193074
 40
0.5444346881600769
 40
0.6049231118529153
 40
0.6654190149447695
 40
0.7259083243196414
 40
0.7864033544736208
 40
0.8468937768662165
 40
0.9073877776179448
 40
0.9678793707578732
 40
1.0
 40
1.0
 40
1.0
 40
1.0
 10
109.5799871058264
 20
126.1032393061184
 30
0.0
 10
109.5632631926564
 20
126.0525923391292
 30
0.0
 10
109.529817934091
 20
125.9513061814412
 30
0.0
 10
109.204438447227
 20
125.7993130091371
 30
0.0
 10
108.6907480115542
 20
125.6474045822658
 30
0.0
 10
107.986840151056
 20
125.4954078228961
 30
0.0
 10
107.1239594479599
 20
125.3434929444659
 30
0.0
 10
106.1320434207686
 20
125.1915044913274
 30
0.0
 10
105.0473375198767
 20
125.0395860434347
 30
0.0
 10
103.9093828256388
 20
124.887600399092
 30
0.0
 10
102.7595323811524
 20
124.7356799294944
 30
0.0
 10
101.6392485604868
 20
124.5836913677119
 30
0.0
 10
100.5901532402508
 20
124.4317728854535
 30
0.0
 10
99.6486542558285
 20
124.2797892560812
 30
0.0
 10
98.85213075525903
 20
124.1278629625096
 30
0.0
 10
98.2229827112686
 20
123.9758899421404
 30
0.0
 10
97.80132306871121
 20
123.8239464493733
 30
0.0
 10
97.58698214900775
 20
123.6957476620327
 30
0.0
 10
97.60270601312706
 20
123.618201231782
 30
0.0
 10
97.60815950940045
 20
123.5913058601878
 30
0.0
  0
SPLINE
  5
1B7
330
1F
100
AcDbEntity
  8
0
  6
Continuous
 62
     7
370
     0
100
AcDbSpline
210
0.0
220
0.0
230
1.0
 70
     8
 71
     3
 72
    25
 73
    21
 74
     0
 42
0.00000001
 43
0.00000001
 12
1.0
 22
0.0
 32
0.0
 13
1.0
 23
0.0
 33
0.0
 40
0.0
 40
0.0
 40
0.0
 40
0.0
 40
0.0018130055779297
 40
0.0625447336685766
 40
0.1232676731157564
 40
0.1839988354743704
 40
0.2447225855071741
 40
0.3054529898879151
 40
0.3661777056347147
 40
0.4269071532667107
 40
0.4876330325532917
 40
0.5483613688858064
 40
0.6090885107504773
 40
0.6698156117896696
 40
0.7305439424921675
 40
0.7912698476765041
 40
0.8519992759444336
 40
0.9127240184497117
 40
0.973454404266288
 40
1.0
 40
1.0
 40
1.0
 40
1.0
 10
109.5773603105048
 20
121.0933236264252
 30
0.0
 10
109.5783974356403
 20
121.0918111500396
 30
0.0
 10
109.6141759882119
 20
121.0396340172893
 30
0.0
 10
109.4830359781981
 20
120.9368595428671
 30
0.0
 10
109.171153923754
 20
120.7848608920591
 30
0.0
 10
108.6293243541176
 20
120.6329469851693
 30
0.0
 10
107.9120273493611
 20
120.4809614327558
 30
0.0
 10
107.0342827669025
 20
120.3290312087999
 30
0.0
 10
106.0325018636034
 20
120.177061750264
 30
0.0
 10
104.9406917210723
 20
120.0251209902919
 30
0.0
 10
103.7999175731889
 20
119.8731606849205
 30
0.0
 10
102.6511168916766
 20
119.721212259929
 30
0.0
 10
101.5357243792737
 20
119.5692540492478
 30
0.0
 10
100.4955157923968
 20
119.4173030196943
 30
0.0
 10
99.5660543715973
 20
119.2653548214438
 30
0.0
 10
98.78490982346652
 20
119.1133864160252
 30
0.0
 10
98.17300861686059
 20
118.9614558527064
 30
0.0
 10
97.77219370715325
 20
118.8094756660408
 30
0.0
 10
97.57808280628403
 20
118.6860574651502
 30
0.0
 10
97.60087397905052
 20
118.6132533423132
 30
0.0
 10
97.60780607248344
 20
118.5911094628832
 30
0.0
  0
SPLINE
  5
1B8
330
1F
100
AcDbEntity
  8
0
  6
Continuous
 62
     7
370
     0
100
AcDbSpline
210
0.0
220
0.0
230
1.0
 70
     8
 71
     3
 72
    25
 73
    21
 74
     0
 42
0.00000001
 43
0.00000001
 12
1.0
 22
0.0
 32
0.0
 13
1.0
 23
0.0
 33
0.0
 40
0.0
 40
0.0
 40
0.0
 40
0.0
 40
0.0067876252134712
 40
0.0676025266407457
 40
0.128415060687454
 40
0.189228793807863
 40
0.2500425650957251
 40
0.3108550762723365
 40
0.3716699957279369
 40
0.432481311644356
 40
0.4932972591319264
 40
0.554107483570952
 40
0.6149243394952281
 40
0.6757336258028371
 40
0.7365511500111039
 40
0.797359797716559
 40
0.85817774086586
 40
0.9189860025345961
 40
0.9798041395741084
 40
1.0
 40
1.0
 40
1.0
 40
1.0
 10
109.5697569930057
 20
116.0912943862938
 30
0.0
 10
109.5731346086117
 20
116.0856405960676
 30
0.0
 10
109.6067745551037
 20
116.0293306949809
 30
0.0
 10
109.4623625922197
 20
115.9223900103996
 30
0.0
 10
109.128379143314
 20
115.7704232136956
 30
0.0
 10
108.5684415570539
 20
115.6184781777996
 30
0.0
 10
107.8350479783674
 20
115.4665248014147
 30
0.0
 10
106.943784143312
 20
115.314561276082
 30
0.0
 10
105.9319637905106
 20
115.1626259069959
 30
0.0
 10
104.8336851346431
 20
115.0106508487293
 30
0.0
 10
103.6903605527921
 20
114.8587245220238
 30
0.0
 10
102.5429484269469
 20
114.7067429120971
 30
0.0
 10
101.4330259627297
 20
114.5548165528016
 30
0.0
 10
100.4017020607646
 20
114.4028353926962
 30
0.0
 10
99.48505556627825
 20
114.2509151174785
 30
0.0
 10
98.71901282767526
 20
114.0989213114196
 30
0.0
 10
98.12504911120602
 20
113.9470133758523
 30
0.0
 10
97.74503790152916
 20
113.7950129444676
 30
0.0
 10
97.5702535835979
 20
113.6769281918463
 30
0.0
 10
97.59818395869175
 20
113.6094396441626
 30
0.0
 10
97.60514668087168
 20
113.5926155232451
 30
0.0
  0
SPLINE
  5
1B9
330
1F
100
AcDbEntity
  8
0
  6
Continuous
 62
     7
370
     0
100
AcDbSpline
210
0.0
220
0.0
230
1.0
 70
     8
 71
     3
 72
    16
 73
    12
 74
     0
 42
0.00000001
 43
0.00000001
 12
1.0
 22
0.0
 32
0.0
 13
1.0
 23
0.0
 33
0.0
 40
0.0
 40
0.0
 40
0.0
 40
0.0
 40
0.0242710362560365
 40
0.1462316492472167
 40
0.268203706631727
 40
0.3901622740419784
 40
0.5121359004395611
 40
0.6340927782166564
 40
0.7560674090236701
 40
0.8780242847711042
 40
1.0
 40
1.0
 40
1.0
 40
1.0
 10
109.5630859294038
 20
111.0901182376408
 30
0.0
 10
109.568150304314
 20
111.0800389051197
 30
0.0
 10
109.5986628826692
 20
111.019311484901
 30
0.0
 10
109.4399326950273
 20
110.9079189880297
 30
0.0
 10
109.0834172434355
 20
110.7559868256233
 30
0.0
 10
108.5062210600011
 20
110.6040095128286
 30
0.0
 10
107.7563562974842
 20
110.4520863025919
 30
0.0
 10
106.8523886524348
 20
110.300095190314
 30
0.0
 10
105.8304976355857
 20
110.1481829598711
 30
0.0
 10
104.7263339586708
 20
109.9961914947197
 30
0.0
 10
103.9625857777066
 20
109.8949052572673
 30
0.0
 10
103.5806821942001
 20
109.8442582272552
 30
0.0
  0
SPLINE
  5
1BA
330
1F
100
AcDbEntity
  8
0
  6
Continuous
 62
     7
370
     0
100
AcDbSpline
210
0.0
220
0.0
230
1.0
 70
    11
 71
     3
 72
    15
 73
    11
 74
     0
 42
0.00000001
 43
0.00000001
 12
1.0
 22
0.0
 32
0.0
 13
1.0
 23
0.0
 33
0.0
 40
0.0
 40
0.0
 40
0.0
 40
0.0
 40
0.1235162264796066
 40
0.2470437277720661
 40
0.3735161473097354
 40
0.4999999579222823
 40
0.6264837685348292
 40
0.7529564355963355
 40
0.8764837735203933
 40
0.9999999999999999
 40
0.9999999999999999
 40
0.9999999999999999
 40
0.9999999999999999
 10
103.580682340842
 20
109.8442582272552
 30
0.0
 10
103.5806823407786
 20
109.7797426266094
 30
0.0
 10
103.5806823406518
 20
109.6507055362023
 30
0.0
 10
103.5806823395751
 20
109.4834991180556
 30
0.0
 10
103.5806823379593
 20
109.3719426432929
 30
0.0
 10
103.5806823361432
 20
109.3304250249733
 30
0.0
 10
103.5806823345834
 20
109.3719427784551
 30
0.0
 10
103.5806823333428
 20
109.4834988108512
 30
0.0
 10
103.5806823323863
 20
109.6507057048024
 30
0.0
 10
103.5806823322597
 20
109.7797426543648
 30
0.0
 10
103.5806823321964
 20
109.8442582272552
 30
0.0
  0
SPLINE
  5
1BB
330
1F
100
AcDbEntity
  8
0
  6
Continuous
 62
     7
370
     0
100
AcDbSpline
210
0.0
220
0.0
230
1.0
 70
     8
 71
     3
 72
     9
 73
     5
 74
     0
 42
0.00000001
 43
0.00000001
 12
1.0
 22
0.0
 32
0.0
 13
1.0
 23
0.0
 33
0.0
 40
0.0
 40
0.0
 40
0.0
 40
0.0
 40
0.6000641399716621
 40
1.0
 40
1.0
 40
1.0
 40
1.0
 10
108.4816835158567
 20
111.2411191545986
 30
0.0
 10
108.4338765372344
 20
111.2820101891321
 30
0.0
 10
108.3542067562264
 20
111.3501546287174
 30
0.0
 10
108.1588230448887
 20
111.4182906829771
 30
0.0
 10
108.0806820922594
 20
111.4455407344364
 30
0.0
  0
SPLINE
  5
1BC
330
1F
100
AcDbEntity
  8
0
  6
Continuous
 62
     7
370
     0
100
AcDbSpline
210
0.0
220
0.0
230
1.0
 70
     8
 71
     3
 72
    12
 73
     8
 74
     0
 42
0.00000001
 43
0.00000001
 12
1.0
 22
0.0
 32
0.0
 13
1.0
 23
0.0
 33
0.0
 40
0.0
 40
0.0
 40
0.0
 40
0.0
 40
0.0431034328052955
 40
0.2995368693627412
 40
0.5560074180482711
 40
0.8124386560502719
 40
1.0
 40
1.0
 40
1.0
 40
1.0
 10
100.5806822598974
 20
112.8577796601317
 30
0.0
 10
100.5356735009527
 20
112.8662931443666
 30
0.0
 10
100.2228960289329
 20
112.9254555416305
 30
0.0
 10
99.74625888487445
 20
113.0352865150289
 30
0.0
 10
99.19627665747593
 20
113.1872088030948
 30
0.0
 10
98.82897360041962
 20
113.3255807020602
 30
0.0
 10
98.72420382713604
 20
113.4132617715534
 30
0.0
 10
98.67994462038084
 20
113.4503019832633
 30
0.0
  0
SPLINE
  5
1BD
330
1F
100
AcDbEntity
  8
0
  6
Continuous
 62
     7
370
     0
100
AcDbSpline
210
0.0
220
0.0
230
1.0
 70
     8
 71
     3
 72
    11
 73
     7
 74
     0
 42
0.00000001
 43
0.00000001
 12
1.0
 22
0.0
 32
0.0
 13
1.0
 23
0.0
 33
0.0
 40
0.0
 40
0.0
 40
0.0
 40
0.0
 40
0.2302357367228481
 40
0.4880126896503462
 40
0.7458176486460676
 40
1.0
 40
1.0
 40
1.0
 40
1.0
 10
108.4853901797036
 20
116.2425337218307
 30
0.0
 10
108.4225995178925
 20
116.2877689378407
 30
0.0
 10
108.2895070614757
 20
116.3836504884035
 30
0.0
 10
107.8704663898515
 20
116.5302041468125
 30
0.0
 10
107.3081849538101
 20
116.6814307469125
 30
0.0
 10
106.8220365986298
 20
116.7820359827771
 30
0.0
 10
106.5806823120515
 20
116.831982680466
 30
0.0
  0
SPLINE
  5
1BE
330
1F
100
AcDbEntity
  8
0
  6
Continuous
 62
     7
370
     0
100
AcDbSpline
210
0.0
220
0.0
230
1.0
 70
     8
 71
     3
 72
    12
 73
     8
 74
     0
 42
0.00000001
 43
0.00000001
 12
1.0
 22
0.0
 32
0.0
 13
1.0
 23
0.0
 33
0.0
 40
0.0
 40
0.0
 40
0.0
 40
0.0
 40
0.0667234543890573
 40
0.3240063883007078
 40
0.581328738273903
 40
0.8386139221538653
 40
1.0
 40
1.0
 40
1.0
 40
1.0
 10
100.5806822598974
 20
117.8583709382079
 30
0.0
 10
100.5118225682408
 20
117.8715048336763
 30
0.0
 10
100.1774426984117
 20
117.9352824973777
 30
0.0
 10
99.68659011066947
 20
118.0497416875419
 30
0.0
 10
99.15365705537864
 20
118.201662656847
 30
0.0
 10
98.81014448422789
 20
118.3347558523391
 30
0.0
 10
98.71975762860765
 20
118.4171666845657
 30
0.0
 10
98.68491602028408
 20
118.4489337586425
 30
0.0
  0
SPLINE
  5
1BF
330
1F
100
AcDbEntity
  8
0
  6
Continuous
 62
     7
370
     0
100
AcDbSpline
210
0.0
220
0.0
230
1.0
 70
     8
 71
     3
 72
    11
 73
     7
 74
     0
 42
0.00000001
 43
0.00000001
 12
1.0
 22
0.0
 32
0.0
 13
1.0
 23
0.0
 33
0.0
 40
0.0
 40
0.0
 40
0.0
 40
0.0
 40
0.2537529574347987
 40
0.5124629134871416
 40
0.7712150279886049
 40
1.0
 40
1.0
 40
1.0
 40
1.0
 10
108.4909147852162
 20
121.2436763428711
 30
0.0
 10
108.416879107622
 20
121.2933469416743
 30
0.0
 10
108.2673614845546
 20
121.3936584416254
 30
0.0
 10
107.8225723897953
 20
121.5446636932164
 30
0.0
 10
107.2668559124073
 20
121.6907272801495
 30
0.0
 10
106.7998382155787
 20
121.7861820526667
 30
0.0
 10
106.5806823120514
 20
121.8309758090042
 30
0.0
  0
SPLINE
  5
1C0
330
1F
100
AcDbEntity
  8
0
  6
Continuous
 62
     7
370
     0
100
AcDbSpline
210
0.0
220
0.0
230
1.0
 70
     8
 71
     3
 72
    12
 73
     8
 74
     0
 42
0.00000001
 43
0.00000001
 12
1.0
 22
0.0
 32
0.0
 13
1.0
 23
0.0
 33
0.0
 40
0.0
 40
0.0
 40
0.0
 40
0.0
 40
0.0900825510464554
 40
0.3462695194549248
 40
0.6024716418893532
 40
0.8586635981465024
 40
1.0
 40
1.0
 40
1.0
 40
1.0
 10
100.5806822598973
 20
122.8587983035109
 30
0.0
 10
100.4881692866103
 20
122.8766075485929
 30
0.0
 10
100.1325574346889
 20
122.9450647432967
 30
0.0
 10
99.62840552688345
 20
123.0641826067278
 30
0.0
 10
99.1122102010994
 20
123.2161288752821
 30
0.0
 10
98.78896729448986
 20
123.3453745638796
 30
0.0
 10
98.71063999713655
 20
123.4239694767079
 30
0.0
 10
98.68279167349132
 20
123.4519129477999
 30
0.0
  0
SPLINE
  5
1C1
330
1F
100
AcDbEntity
  8
0
  6
Continuous
 62
     7
370
     0
100
AcDbSpline
210
0.0
220
0.0
230
1.0
 70
     8
 71
     3
 72
    12
 73
     8
 74
     0
 42
0.00000001
 43
0.00000001
 12
1.0
 22
0.0
 32
0.0
 13
1.0
 23
0.0
 33
0.0
 40
0.0
 40
0.0
 40
0.0
 40
0.0
 40
0.0215864680679153
 40
0.2801439785710486
 40
0.5386697734204084
 40
0.7972239898384806
 40
1.0
 40
1.0
 40
1.0
 40
1.0
 10
108.4871699371436
 20
126.2425055586361
 30
0.0
 10
108.4845211304446
 20
126.2467350397112
 30
0.0
 10
108.4501455556727
 20
126.3016242254713
 30
0.0
 10
108.2154199398809
 20
126.4071330698017
 30
0.0
 10
107.7782584130793
 20
126.5591118437755
 30
0.0
 10
107.2240096058107
 20
126.7001222246608
 30
0.0
 10
106.7771137482274
 20
126.7905082932784
 30
0.0
 10
106.5806823120514
 20
126.8302371584438
 30
0.0
  0
SPLINE
  5
1C2
330
1F
100
AcDbEntity
  8
0
  6
Continuous
 62
     7
370
     0
100
AcDbSpline
210
0.0
220
0.0
230
1.0
 70
     8
 71
     3
 72
    12
 73
     8
 74
     0
 42
0.00000001
 43
0.00000001
 12
1.0
 22
0.0
 32
0.0
 13
1.0
 23
0.0
 33
0.0
 40
0.0
 40
0.0
 40
0.0
 40
0.0
 40
0.1075939302633281
 40
0.3493446751190704
 40
0.5910769853160351
 40
0.8328315396633794
 40
1.0
 40
1.0
 40
1.0
 40
1.0
 10
100.5806822598973
 20
127.8590468548796
 30
0.0
 10
100.4647028627347
 20
127.881591510809
 30
0.0
 10
100.0881315754595
 20
127.9547913231224
 30
0.0
 10
99.5723730259186
 20
128.078618841076
 30
0.0
 10
99.07009028317192
 20
128.2305982802443
 30
0.0
 10
98.74862804985926
 20
128.3669017668896
 30
0.0
 10
98.67500899059588
 20
128.4525921539228
 30
0.0
 10
98.64491338739779
 20
128.4876225375197
 30
0.0
  0
LINE
  5
1C3
330
1F
100
AcDbEntity
  8
0
  6
Continuous
 62
     7
370
     0
100
AcDbLine
 10
99.7740546976
 20
129.1544047975
 30
0.0
 11
99.8129453314
 21
129.1631853067
 31
0.0
  0
SPLINE
  5
1C4
330
1F
100
AcDbEntity
  8
0
  6
Continuous
 62
     7
370
     0
100
AcDbSpline
210
0.0
220
0.0
230
1.0
 70
    24
 71
     3
 72
    13
 73
     9
 74
     0
 42
0.00000001
 43
0.00000001
 12
1.0
 22
0.0
 32
0.0
 13
1.0
 23
0.0
 33
0.0
 40
0.0
 40
0.0
 40
0.0
 40
0.0
 40
0.1874814318582047
 40
0.3749628737280442
 40
0.5624443191897786
 40
0.7499258005221163
 40
0.9374072403104811
 40
1.0
 40
1.0
 40
1.0
 40
1.0
 10
106.5806823120516
 20
104.8368310414813
 30
0.0
 10
106.9096613598974
 20
104.8368310414813
 30
0.0
 10
107.5676194731566
 20
104.8368310414814
 30
0.0
 10
108.369382586243
 20
104.8368310414814
 30
0.0
 10
108.9996643683169
 20
104.8368310414814
 30
0.0
 10
109.4034717723547
 20
104.8368310414814
 30
0.0
 10
109.5904929975103
 20
104.8368310414814
 30
0.0
 10
109.5620954322764
 20
104.8368310414814
 30
0.0
 10
109.5549876139563
 20
104.8368310414814
 30
0.0
  0
SPLINE
  5
1C5
330
1F
100
AcDbEntity
  8
0
  6
Continuous
 62
     7
370
     0
100
AcDbSpline
210
0.0
220
0.0
230
1.0
 70
    24
 71
     3
 72
    18
 73
    14
 74
     0
 42
0.00000001
 43
0.00000001
 12
1.0
 22
0.0
 32
0.0
 13
1.0
 23
0.0
 33
0.0
 40
0.0
 40
0.0
 40
0.0
 40
0.0
 40
0.0624536117596997
 40
0.1562082526448831
 40
0.2499628995320102
 40
0.3437175267588375
 40
0.4374721589922252
 40
0.5312267930218267
 40
0.6249814449893917
 40
0.7187360761818875
 40
0.8124907122276893
 40
0.9062453531128728
 40
0.9999999999999999
 40
0.9999999999999999
 40
0.9999999999999999
 40
0.9999999999999999
 10
97.60637695799284
 20
104.8368310414813
 30
0.0
 10
97.6061515187852
 20
104.8368310414813
 30
0.0
 10
97.60558765284196
 20
104.8368310414813
 30
0.0
 10
97.86809056488482
 20
104.8368310414813
 30
0.0
 10
98.34952996782071
 20
104.8368310414813
 30
0.0
 10
99.0409694856823
 20
104.8368310414813
 30
0.0
 10
99.90445322278232
 20
104.8368310414813
 30
0.0
 10
100.9098994180135
 20
104.8368310414813
 30
0.0
 10
102.0176500331562
 20
104.8368310414813
 30
0.0
 10
103.1861080519598
 20
104.8368310414813
 30
0.0
 10
104.3674988029459
 20
104.8368310414813
 30
0.0
 10
105.5269334028584
 20
104.8368310414813
 30
0.0
 10
106.2294326681585
 20
104.8368310414813
 30
0.0
 10
106.5806823120516
 20
104.8368310414813
 30
0.0
  0
LINE
  5
1C6
330
1F
100
AcDbEntity
  8
0
  6
Continuous
 62
     7
370
     0
100
AcDbLine
 10
109.5806823381
 20
92.3368317865
 30
0.0
 11
106.5806823121
 21
92.3368317865
 31
0.0
  0
LINE
  5
1C7
330
1F
100
AcDbEntity
  8
0
  6
Continuous
 62
     7
370
     0
100
AcDbLine
 10
106.5806823121
 20
92.3368317865
 30
0.0
 11
106.5806823121
 21
93.3325124764
 31
0.0
  0
LINE
  5
1C8
330
1F
100
AcDbEntity
  8
0
  6
Continuous
 62
     7
370
     0
100
AcDbLine
 10
106.5806823121
 20
99.3325097345
 30
0.0
 11
106.5806823121
 21
104.8368310415
 31
0.0
  0
LINE
  5
1C9
330
1F
100
AcDbEntity
  8
0
  6
Continuous
 62
     7
370
     0
100
AcDbLine
 10
106.5806823121
 20
104.8368310415
 30
0.0
 11
109.5806823381
 21
104.8368310415
 31
0.0
  0
SPLINE
  5
1CA
330
1F
100
AcDbEntity
  8
0
  6
Continuous
 62
     7
370
     0
100
AcDbSpline
210
0.0
220
0.0
230
1.0
 70
    24
 71
     3
 72
    18
 73
    14
 74
     0
 42
0.00000001
 43
0.00000001
 12
1.0
 22
0.0
 32
0.0
 13
1.0
 23
0.0
 33
0.0
 40
0.0
 40
0.0
 40
0.0
 40
0.0
 40
0.0624527192706272
 40
0.1562074424355372
 40
0.2499621666030064
 40
0.3437169064260502
 40
0.4374716423744702
 40
0.531226370493824
 40
0.6249810978385049
 40
0.7187358217487899
 40
0.8124905526676208
 40
0.9062452758325308
 40
1.0
 40
1.0
 40
1.0
 40
1.0
 10
98.60209490070767
 20
91.3368297599814
 30
0.0
 10
98.60190714517451
 20
91.3368297599814
 30
0.0
 10
98.60143752892753
 20
91.33682975998141
 30
0.0
 10
98.82018923217625
 20
91.33682975998141
 30
0.0
 10
99.22138858139932
 20
91.33682975998141
 30
0.0
 10
99.79758813596112
 20
91.33682975998141
 30
0.0
 10
100.5171582107009
 20
91.33682975998141
 30
0.0
 10
101.3550299030487
 20
91.33682975998141
 30
0.0
 10
102.2781555530784
 20
91.33682975998143
 30
0.0
 10
103.2518704276293
 20
91.33682975998148
 30
0.0
 10
104.2363627147793
 20
91.33682975998144
 30
0.0
 10
105.2025581971154
 20
91.33682975998147
 30
0.0
 10
105.7879742180587
 20
91.3368297599815
 30
0.0
 10
106.0806822300953
 20
91.33682975998148
 30
0.0
  0
SPLINE
  5
1CB
330
1F
100
AcDbEntity
  8
0
  6
Continuous
 62
     7
370
     0
100
AcDbSpline
210
0.0
220
0.0
230
1.0
 70
    24
 71
     3
 72
    13
 73
     9
 74
     0
 42
0.00000001
 43
0.00000001
 12
1.0
 22
0.0
 32
0.0
 13
1.0
 23
0.0
 33
0.0
 40
0.0
 40
0.0
 40
0.0
 40
0.0
 40
0.1874811074574186
 40
0.3749622071667621
 40
0.5624432912203425
 40
0.7499243737248114
 40
0.937405449361528
 40
1.0
 40
1.0
 40
1.0
 40
1.0
 10
106.0806822300953
 20
91.33682975998147
 30
0.0
 10
106.3548315351762
 20
91.3368297599815
 30
0.0
 10
106.9031301340081
 20
91.3368297599815
 30
0.0
 10
107.5712659226733
 20
91.3368297599815
 30
0.0
 10
108.0965010156571
 20
91.33682975998151
 30
0.0
 10
108.4330066929884
 20
91.33682975998147
 30
0.0
 10
108.5888588518639
 20
91.33682975998151
 30
0.0
 10
108.5651932341574
 20
91.33682975998151
 30
0.0
 10
108.5592696712417
 20
91.33682975998151
 30
0.0
  0
LINE
  5
1CC
330
1F
100
AcDbEntity
  8
0
  6
Continuous
 62
     7
370
     0
100
AcDbLine
 10
106.3306822711
 20
104.8368310415
 30
0.0
 11
106.3306822711
 21
106.3368340813
 31
0.0
  0
LINE
  5
1CD
330
1F
100
AcDbEntity
  8
0
  6
Continuous
 62
     7
370
     0
100
AcDbLine
 10
93.7657279232
 20
106.3368340813
 30
0.0
 11
98.6732051046
 21
106.3368340813
 31
0.0
  0
LINE
  5
1CE
330
1F
100
AcDbEntity
  8
0
  6
Continuous
 62
     7
370
     0
100
AcDbLine
 10
98.6732051046
 20
106.3368340813
 30
0.0
 11
108.4881594674
 21
106.3368340813
 31
0.0
  0
LINE
  5
1CF
330
1F
100
AcDbEntity
  8
0
  6
Continuous
 62
     7
370
     0
100
AcDbLine
 10
108.4881594674
 20
106.3368340813
 30
0.0
 11
113.3956366488
 21
106.3368340813
 31
0.0
  0
LINE
  5
1D0
330
1F
100
AcDbEntity
  8
0
  6
Continuous
 62
     7
370
     0
100
AcDbLine
 10
113.3956366488
 20
106.3368340813
 30
0.0
 11
113.3956366488
 21
109.3368327104
 31
0.0
  0
LINE
  5
1D1
330
1F
100
AcDbEntity
  8
0
  6
Continuous
 62
     7
370
     0
100
AcDbLine
 10
93.7657279232
 20
109.3368327104
 30
0.0
 11
93.7657279232
 21
106.3368340813
 31
0.0
  0
LINE
  5
1D2
330
1F
100
AcDbEntity
  8
0
  6
Continuous
 62
     7
370
     0
100
AcDbLine
 10
93.7657279232
 20
109.3368327104
 30
0.0
 11
98.6732051046
 21
109.3368327104
 31
0.0
  0
LINE
  5
1D3
330
1F
100
AcDbEntity
  8
0
  6
Continuous
 62
     7
370
     0
100
AcDbLine
 10
98.6732051046
 20
109.3368327104
 30
0.0
 11
98.6732051046
 21
106.3368340813
 31
0.0
  0
LINE
  5
1D4
330
1F
100
AcDbEntity
  8
0
  6
Continuous
 62
     7
370
     0
100
AcDbLine
 10
98.6732051046
 20
109.3368327104
 30
0.0
 11
108.4881594674
 21
109.3368327104
 31
0.0
  0
LINE
  5
1D5
330
1F
100
AcDbEntity
  8
0
  6
Continuous
 62
     7
370
     0
100
AcDbLine
 10
108.4881594674
 20
109.3368327104
 30
0.0
 11
108.4881594674
 21
106.3368340813
 31
0.0
  0
LINE
  5
1D6
330
1F
100
AcDbEntity
  8
0
  6
Continuous
 62
     7
370
     0
100
AcDbLine
 10
108.4881594674
 20
106.3368340813
 30
0.0
 11
98.6732051046
 21
106.3368340813
 31
0.0
  0
LINE
  5
1D7
330
1F
100
AcDbEntity
  8
0
  6
Continuous
 62
     7
370
     0
100
AcDbLine
 10
105.8306821891
 20
111.8368340515
 30
0.0
 11
105.8306821891
 21
110.681416639
 31
0.0
  0
LINE
  5
1D8
330
1F
100
AcDbEntity
  8
0
  6
Continuous
 62
     7
370
     0
100
AcDbLine
 10
105.8306821891
 20
109.6790304266
 30
0.0
 11
105.8306821891
 21
109.3368327104
 31
0.0
  0
LINE
  5
1D9
330
1F
100
AcDbEntity
  8
0
  6
Continuous
 62
     7
370
     0
100
AcDbLine
 10
99.0806824797
 20
111.8368340515
 30
0.0
 11
105.8306821891
 21
111.8368340515
 31
0.0
  0
LINE
  5
1DA
330
1F
100
AcDbEntity
  8
0
  6
Continuous
 62
     7
370
     0
100
AcDbLine
 10
108.4881594674
 20
109.3368327104
 30
0.0
 11
113.3956366488
 21
109.3368327104
 31
0.0
  0
LINE
  5
1DB
330
1F
100
AcDbEntity
  8
0
  6
Continuous
 62
     7
370
     0
100
AcDbLine
 10
113.3956366488
 20
106.3368340813
 30
0.0
 11
108.4881594674
 21
106.3368340813
 31
0.0
  0
LINE
  5
1DC
330
1F
100
AcDbEntity
  8
0
  6
Continuous
 62
     7
370
     0
100
AcDbLine
 10
105.8306821891
 20
111.8368340515
 30
0.0
 11
108.0806820923
 21
111.8368340515
 31
0.0
  0
SPLINE
  5
1DD
330
1F
100
AcDbEntity
  8
0
  6
Continuous
 62
     7
370
     0
100
AcDbSpline
210
0.0
220
0.0
230
1.0
 70
    24
 71
     3
 72
    18
 73
    14
 74
     0
 42
0.00000001
 43
0.00000001
 12
1.0
 22
0.0
 32
0.0
 13
1.0
 23
0.0
 33
0.0
 40
0.0
 40
0.0
 40
0.0
 40
0.0
 40
0.062451372038251
 40
0.1562062351412092
 40
0.2499611091729605
 40
0.34371595351671
 40
0.4374708218175083
 40
0.5312256734689408
 40
0.6249805338101808
 40
0.7187353996602689
 40
0.8124902628652905
 40
0.9062451259682487
 40
1.0
 40
1.0
 40
1.0
 40
1.0
 10
99.59781284342215
 20
112.3368313395045
 30
0.0
 10
99.59766255916034
 20
112.3368313395045
 30
0.0
 10
99.5972866612742
 20
112.3368313395045
 30
0.0
 10
99.77228810902707
 20
112.3368313395045
 30
0.0
 10
100.0932472337983
 20
112.3368313395045
 30
0.0
 10
100.5542069490775
 20
112.3368313395045
 30
0.0
 10
101.1298628896703
 20
112.3368313395045
 30
0.0
 10
101.8001603248313
 20
112.3368313395045
 30
0.0
 10
102.5386608645402
 20
112.3368313395045
 30
0.0
 10
103.3176327424652
 20
112.3368313395045
 30
0.0
 10
104.1052266796256
 20
112.3368313395046
 30
0.0
 10
104.8781830181298
 20
112.3368313395046
 30
0.0
 10
105.3465159175908
 20
112.3368313395046
 30
0.0
 10
105.5806823809694
 20
112.3368313395046
 30
0.0
  0
SPLINE
  5
1DE
330
1F
100
AcDbEntity
  8
0
  6
Continuous
 62
     7
370
     0
100
AcDbSpline
210
0.0
220
0.0
230
1.0
 70
    24
 71
     3
 72
    13
 73
     9
 74
     0
 42
0.00000001
 43
0.00000001
 12
1.0
 22
0.0
 32
0.0
 13
1.0
 23
0.0
 33
0.0
 40
0.0
 40
0.0
 40
0.0
 40
0.0
 40
0.1874805235970321
 40
0.3749610951007092
 40
0.5624416333108339
 40
0.7499221888978707
 40
0.9374027555008898
 40
1.0
 40
1.0
 40
1.0
 40
1.0
 10
105.5806823809694
 20
112.3368313395046
 30
0.0
 10
105.8000017567085
 20
112.3368313395046
 30
0.0
 10
106.2386405642291
 20
112.3368313395046
 30
0.0
 10
106.773149173154
 20
112.3368313395046
 30
0.0
 10
107.1933370414576
 20
112.3368313395046
 30
0.0
 10
107.4625417058045
 20
112.3368313395046
 30
0.0
 10
107.5872237942959
 20
112.3368313395046
 30
0.0
 10
107.5682908532577
 20
112.3368313395046
 30
0.0
 10
107.5635517285268
 20
112.3368313395046
 30
0.0
  0
LINE
  5
1DF
330
1F
100
AcDbEntity
  8
0
  6
Continuous
 62
     7
370
     0
100
AcDbLine
 10
106.0806822301
 20
91.33682976
 30
0.0
 11
106.5806823121
 21
92.3368317865
 31
0.0
  0
LINE
  5
1E0
330
1F
100
AcDbEntity
  8
0
  6
Continuous
 62
     7
370
     0
100
AcDbLine
 10
108.5806821742
 20
91.33682976
 30
0.0
 11
106.0806822301
 21
91.33682976
 31
0.0
  0
LINE
  5
1E1
330
1F
100
AcDbEntity
  8
0
  6
Continuous
 62
     7
370
     0
100
AcDbLine
 10
105.8306821891
 20
111.8368340515
 30
0.0
 11
105.580682381
 21
112.3368313395
 31
0.0
  0
LINE
  5
1E2
330
1F
100
AcDbEntity
  8
0
  6
Continuous
 62
     7
370
     0
100
AcDbLine
 10
105.580682381
 20
112.3368313395
 30
0.0
 11
107.580682476
 21
112.3368313395
 31
0.0
  0
LINE
  5
1E3
330
1F
100
AcDbEntity
  8
0
  6
Continuous
 62
     7
370
     0
100
AcDbLine
 10
99.580682096
 20
112.3368313395
 30
0.0
 11
105.580682381
 21
112.3368313395
 31
0.0
  0
LINE
  5
1E4
330
1F
100
AcDbEntity
  8
0
  6
Continuous
 62
     7
370
     0
100
AcDbLine
 10
98.6732051046
 20
109.3368327104
 30
0.0
 11
108.4881594674
 21
109.3368327104
 31
0.0
  0
LINE
  5
1E5
330
1F
100
AcDbEntity
  8
0
  6
Continuous
 62
     7
370
     0
100
AcDbLine
 10
108.4881594674
 20
109.3368327104
 30
0.0
 11
113.3956366488
 21
109.3368327104
 31
0.0
  0
LINE
  5
1E6
330
1F
100
AcDbEntity
  8
0
  6
Continuous
 62
     7
370
     0
100
AcDbLine
 10
97.5806822338
 20
92.3368317865
 30
0.0
 11
106.5806823121
 21
92.3368317865
 31
0.0
  0
LINE
  5
1E7
330
1F
100
AcDbEntity
  8
0
  6
Continuous
 62
     7
370
     0
100
AcDbLine
 10
106.0806822301
 20
91.33682976
 30
0.0
 11
98.5806823977
 21
91.33682976
 31
0.0
  0
LINE
  5
1E8
330
1F
100
AcDbEntity
  8
0
  6
Continuous
 62
     7
370
     0
100
AcDbLine
 10
97.5806822338
 20
104.8368310415
 30
0.0
 11
106.5806823121
 21
104.8368310415
 31
0.0
  0
LINE
  5
1E9
330
1F
100
AcDbEntity
  8
0
  6
Continuous
 62
     7
370
     0
100
AcDbLine
 10
91.7806818419
 20
151.5181792759
 30
0.0
 11
94.2806822517
 21
151.5181792759
 31
0.0
  0
LINE
  5
1EA
330
1F
100
AcDbEntity
  8
0
  6
Continuous
 62
     7
370
     0
100
AcDbLine
 10
96.7806821958
 20
149.8294306778
 30
0.0
 11
96.7806821958
 21
149.9177200579
 31
0.0
  0
LINE
  5
1EB
330
1F
100
AcDbEntity
  8
0
  6
Continuous
 62
     7
370
     0
100
AcDbLine
 10
96.7806821958
 20
150.7381183886
 30
0.0
 11
96.7806821958
 21
153.336832472
 31
0.0
  0
LINE
  5
1EC
330
1F
100
AcDbEntity
  8
0
  6
Continuous
 62
     7
370
     0
100
AcDbLine
 10
96.7806821958
 20
153.336832472
 30
0.0
 11
96.7806821958
 21
153.4251227834
 31
0.0
  0
LINE
  5
1ED
330
1F
100
AcDbEntity
  8
0
  6
Continuous
 62
     7
370
     0
100
AcDbLine
 10
96.7806821958
 20
156.7559448861
 30
0.0
 11
96.7806821958
 21
156.8442351975
 31
0.0
  0
LINE
  5
1EE
330
1F
100
AcDbEntity
  8
0
  6
Continuous
 62
     7
370
     0
100
AcDbLine
 10
96.7806821958
 20
153.336832472
 30
0.0
 11
94.2806822517
 21
153.336832472
 31
0.0
  0
LINE
  5
1EF
330
1F
100
AcDbEntity
  8
0
  6
Continuous
 62
     7
370
     0
100
AcDbLine
 10
94.2806822517
 20
153.336832472
 30
0.0
 11
94.2806822517
 21
156.8442351975
 31
0.0
  0
LINE
  5
1F0
330
1F
100
AcDbEntity
  8
0
  6
Continuous
 62
     7
370
     0
100
AcDbLine
 10
94.2806822517
 20
156.8442351975
 30
0.0
 11
96.7806821958
 21
156.8442351975
 31
0.0
  0
LINE
  5
1F1
330
1F
100
AcDbEntity
  8
0
  6
Continuous
 62
     7
370
     0
100
AcDbLine
 10
96.7806821958
 20
156.8442351975
 30
0.0
 11
96.7806821958
 21
153.336832472
 31
0.0
  0
LINE
  5
1F2
330
1F
100
AcDbEntity
  8
0
  6
Continuous
 62
     7
370
     0
100
AcDbLine
 10
94.2806822517
 20
149.8294306778
 30
0.0
 11
94.2806822517
 21
153.336832472
 31
0.0
  0
LINE
  5
1F3
330
1F
100
AcDbEntity
  8
0
  6
Continuous
 62
     7
370
     0
100
AcDbLine
 10
96.7806821958
 20
149.8294306778
 30
0.0
 11
94.2806822517
 21
149.8294306778
 31
0.0
  0
LINE
  5
1F4
330
1F
100
AcDbEntity
  8
0
  6
Continuous
 62
     7
370
     0
100
AcDbLine
 10
96.7806821958
 20
153.336832472
 30
0.0
 11
96.7806821958
 21
149.8294306778
 31
0.0
  0
LINE
  5
1F5
330
1F
100
AcDbEntity
  8
0
  6
Continuous
 62
     7
370
     0
100
AcDbLine
 10
94.2806822517
 20
149.8294306778
 30
0.0
 11
94.2806822517
 21
153.336832472
 31
0.0
  0
SPLINE
  5
1F6
330
1F
100
AcDbEntity
  8
0
  6
Continuous
 62
     7
370
     0
100
AcDbSpline
210
0.0
220
0.0
230
1.0
 70
    24
 71
     3
 72
    10
 73
     6
 74
     0
 42
0.00000001
 43
0.00000001
 12
1.0
 22
0.0
 32
0.0
 13
1.0
 23
0.0
 33
0.0
 40
0.0
 40
0.0
 40
0.0
 40
0.0
 40
0.2498293494171316
 40
0.6249147684982683
 40
1.0
 40
1.0
 40
1.0
 40
1.0
 10
91.78068184191946
 20
150.9968975417873
 30
0.0
 10
91.78068184191946
 20
150.9969739228764
 30
0.0
 10
91.78068184191946
 20
150.9971649799747
 30
0.0
 10
91.78068184191946
 20
151.0956965278323
 30
0.0
 10
91.78068184191946
 20
151.2330140902763
 30
0.0
 10
91.78068184191946
 20
151.3016728543302
 30
0.0
  0
SPLINE
  5
1F7
330
1F
100
AcDbEntity
  8
0
  6
Continuous
 62
     7
370
     0
100
AcDbSpline
210
0.0
220
0.0
230
1.0
 70
    24
 71
     3
 72
    21
 73
    17
 74
     0
 42
0.00000001
 43
0.00000001
 12
1.0
 22
0.0
 32
0.0
 13
1.0
 23
0.0
 33
0.0
 40
0.0
 40
0.0
 40
0.0
 40
0.0
 40
0.0749966134882824
 40
0.1499932296310774
 40
0.2249897530195021
 40
0.2999863839351392
 40
0.3749829582190713
 40
0.4499795247532501
 40
0.5249760872882341
 40
0.5999727403149971
 40
0.6749692898762649
 40
0.7499658524438153
 40
0.8249624502159258
 40
0.8999590323056729
 40
0.974955632962361
 40
1.0
 40
1.0
 40
1.0
 40
1.0
 10
91.78068184191946
 20
151.3016728543302
 30
0.0
 10
91.78068184191946
 20
151.3861501333167
 30
0.0
 10
91.78068184191946
 20
151.5551046942798
 30
0.0
 10
91.78068184191946
 20
151.8979636907393
 30
0.0
 10
91.78068184191946
 20
152.2905018589549
 30
0.0
 10
91.78068184191945
 20
152.7247547471796
 30
0.0
 10
91.78068184191943
 20
153.1821268601277
 30
0.0
 10
91.78068184191943
 20
153.6455498350273
 30
0.0
 10
91.78068184191943
 20
154.0970888077556
 30
0.0
 10
91.78068184191943
 20
154.519387004319
 30
0.0
 10
91.78068184191942
 20
154.8963589058874
 30
0.0
 10
91.78068184191942
 20
155.2129489474376
 30
0.0
 10
91.78068184191942
 20
155.4591216647838
 30
0.0
 10
91.78068184191942
 20
155.6174650157009
 30
0.0
 10
91.78068184191942
 20
155.6906740596537
 30
0.0
 10
91.78068184191942
 20
155.6795517688413
 30
0.0
 10
91.78068184191942
 20
155.676767402198
 30
0.0
  0
SPLINE
  5
1F8
330
1F
100
AcDbEntity
  8
0
  6
Continuous
 62
     7
370
     0
100
AcDbSpline
210
0.0
220
0.0
230
1.0
 70
    24
 71
     3
 72
     9
 73
     5
 74
     0
 42
0.00000001
 43
0.00000001
 12
1.0
 22
0.0
 32
0.0
 13
1.0
 23
0.0
 33
0.0
 40
0.0
 40
0.0
 40
0.0
 40
0.0
 40
0.2498229831306858
 40
1.0
 40
1.0
 40
1.0
 40
1.0
 10
86.78068288500074
 20
151.3709399708172
 30
0.0
 10
86.78068288500074
 20
151.3610886154033
 30
0.0
 10
86.78068288500074
 20
151.3216552722799
 30
0.0
 10
86.78068288500074
 20
151.4834256279515
 30
0.0
 10
86.78068288500074
 20
151.6047820307871
 30
0.0
  0
SPLINE
  5
1F9
330
1F
100
AcDbEntity
  8
0
  6
Continuous
 62
     7
370
     0
100
AcDbSpline
210
0.0
220
0.0
230
1.0
 70
    24
 71
     3
 72
    14
 73
    10
 74
     0
 42
0.00000001
 43
0.00000001
 12
1.0
 22
0.0
 32
0.0
 13
1.0
 23
0.0
 33
0.0
 40
0.0
 40
0.0
 40
0.0
 40
0.0
 40
0.1499929009529693
 40
0.2999858886555625
 40
0.449978718075408
 40
0.5999716551233448
 40
0.7499646381230364
 40
0.8999575159988666
 40
0.9999999999999999
 40
0.9999999999999999
 40
0.9999999999999999
 40
0.9999999999999999
 10
86.78068288500074
 20
151.6047820307871
 30
0.0
 10
86.78068288500074
 20
151.7616862389378
 30
0.0
 10
86.78068288500074
 20
152.075494745986
 30
0.0
 10
86.78068288500073
 20
152.8090984213429
 30
0.0
 10
86.78068288500072
 20
153.6032800378092
 30
0.0
 10
86.78068288500072
 20
154.3650924302042
 30
0.0
 10
86.7806828850007
 20
154.9573465846277
 30
0.0
 10
86.7806828850007
 20
155.3035319937043
 30
0.0
 10
86.7806828850007
 20
155.3029562623045
 30
0.0
 10
86.7806828850007
 20
155.3027259044906
 30
0.0
  0
LINE
  5
1FA
330
1F
100
AcDbEntity
  8
0
  6
Continuous
 62
     7
370
     0
100
AcDbLine
 10
89.2806823635
 20
155.6868331366
 30
0.0
 11
89.2806823635
 21
151.3016728543
 31
0.0
  0
LINE
  5
1FB
330
1F
100
AcDbEntity
  8
0
  6
Continuous
 62
     7
370
     0
100
AcDbLine
 10
89.2806823635
 20
151.3016728543
 30
0.0
 11
86.780682885
 21
151.6047820308
 31
0.0
  0
LINE
  5
1FC
330
1F
100
AcDbEntity
  8
0
  6
Continuous
 62
     7
370
     0
100
AcDbLine
 10
86.780682885
 20
151.6047820308
 30
0.0
 11
86.780682885
 21
155.3368327998
 31
0.0
  0
SPLINE
  5
1FD
330
1F
100
AcDbEntity
  8
0
  6
Continuous
 62
     7
370
     0
100
AcDbSpline
210
0.0
220
0.0
230
1.0
 70
    24
 71
     3
 72
    10
 73
     6
 74
     0
 42
0.00000001
 43
0.00000001
 12
1.0
 22
0.0
 32
0.0
 13
1.0
 23
0.0
 33
0.0
 40
0.0
 40
0.0
 40
0.0
 40
0.0
 40
0.2498293494171316
 40
0.6249147684982683
 40
1.0
 40
1.0
 40
1.0
 40
1.0
 10
89.2806823634601
 20
150.9968975417873
 30
0.0
 10
89.2806823634601
 20
150.9969739228764
 30
0.0
 10
89.2806823634601
 20
150.9971649799747
 30
0.0
 10
89.2806823634601
 20
151.0956965278323
 30
0.0
 10
89.2806823634601
 20
151.2330140902763
 30
0.0
 10
89.2806823634601
 20
151.3016728543302
 30
0.0
  0
SPLINE
  5
1FE
330
1F
100
AcDbEntity
  8
0
  6
Continuous
 62
     7
370
     0
100
AcDbSpline
210
0.0
220
0.0
230
1.0
 70
    24
 71
     3
 72
    21
 73
    17
 74
     0
 42
0.00000001
 43
0.00000001
 12
1.0
 22
0.0
 32
0.0
 13
1.0
 23
0.0
 33
0.0
 40
0.0
 40
0.0
 40
0.0
 40
0.0
 40
0.0749966134882824
 40
0.1499932296310774
 40
0.2249897530195021
 40
0.2999863839351392
 40
0.3749829582190713
 40
0.4499795247532501
 40
0.5249760872882341
 40
0.5999727403149971
 40
0.6749692898762649
 40
0.7499658524438153
 40
0.8249624502159258
 40
0.8999590323056729
 40
0.974955632962361
 40
1.0
 40
1.0
 40
1.0
 40
1.0
 10
89.2806823634601
 20
151.3016728543302
 30
0.0
 10
89.2806823634601
 20
151.3861501333167
 30
0.0
 10
89.2806823634601
 20
151.5551046942798
 30
0.0
 10
89.2806823634601
 20
151.8979636907392
 30
0.0
 10
89.2806823634601
 20
152.2905018589549
 30
0.0
 10
89.28068236346009
 20
152.7247547471796
 30
0.0
 10
89.28068236346009
 20
153.1821268601277
 30
0.0
 10
89.28068236346007
 20
153.6455498350273
 30
0.0
 10
89.28068236346007
 20
154.0970888077556
 30
0.0
 10
89.28068236346007
 20
154.519387004319
 30
0.0
 10
89.28068236346007
 20
154.8963589058874
 30
0.0
 10
89.28068236346006
 20
155.2129489474375
 30
0.0
 10
89.28068236346006
 20
155.4591216647837
 30
0.0
 10
89.28068236346006
 20
155.6174650157009
 30
0.0
 10
89.28068236346006
 20
155.6906740596537
 30
0.0
 10
89.28068236346006
 20
155.6795517688412
 30
0.0
 10
89.28068236346006
 20
155.676767402198
 30
0.0
  0
LINE
  5
1FF
330
1F
100
AcDbEntity
  8
0
  6
Continuous
 62
     7
370
     0
100
AcDbLine
 10
91.7806818419
 20
155.6868331366
 30
0.0
 11
91.7806818419
 21
151.3016728543
 31
0.0
  0
LINE
  5
200
330
1F
100
AcDbEntity
  8
0
  6
Continuous
 62
     7
370
     0
100
AcDbLine
 10
91.7806818419
 20
151.3016728543
 30
0.0
 11
89.2806823635
 21
151.6047820308
 31
0.0
  0
LINE
  5
201
330
1F
100
AcDbEntity
  8
0
  6
Continuous
 62
     7
370
     0
100
AcDbLine
 10
89.2806823635
 20
151.3016728543
 30
0.0
 11
89.2806823635
 21
150.9868327387
 31
0.0
  0
LINE
  5
202
330
1F
100
AcDbEntity
  8
0
  6
Continuous
 62
     7
370
     0
100
AcDbLine
 10
86.780682885
 20
151.3368330755
 30
0.0
 11
86.780682885
 21
151.6047820308
 31
0.0
  0
LINE
  5
203
330
1F
100
AcDbEntity
  8
0
  6
Continuous
 62
     7
370
     0
100
AcDbLine
 10
91.7806818419
 20
151.3016728543
 30
0.0
 11
91.7806818419
 21
150.9868327387
 31
0.0
  0
SPLINE
  5
204
330
1F
100
AcDbEntity
  8
0
  6
Continuous
 62
     7
370
     0
100
AcDbSpline
210
0.0
220
0.0
230
1.0
 70
    24
 71
     3
 72
    13
 73
     9
 74
     0
 42
0.00000001
 43
0.00000001
 12
1.0
 22
0.0
 32
0.0
 13
1.0
 23
0.0
 33
0.0
 40
0.0
 40
0.0
 40
0.0
 40
0.0
 40
0.1724207523882886
 40
0.3592961994566974
 40
0.5461717502902754
 40
0.7330471271938884
 40
0.9199225014880847
 40
1.0
 40
1.0
 40
1.0
 40
1.0
 10
97.58068223382
 20
151.3368330754897
 30
0.0
 10
97.58068223382
 20
151.5512840241439
 30
0.0
 10
97.58068223382
 20
151.9981641691036
 30
0.0
 10
97.58068223381999
 20
152.7488354098405
 30
0.0
 10
97.58068223381997
 20
153.5366915108938
 30
0.0
 10
97.58068223381997
 20
154.3139903944333
 30
0.0
 10
97.58068223381996
 20
154.9264049435272
 30
0.0
 10
97.58068223381996
 20
155.2421262877439
 30
0.0
 10
97.58068223381996
 20
155.3368327998183
 30
0.0
  0
SPLINE
  5
205
330
1F
100
AcDbEntity
  8
0
  6
Continuous
 62
     7
370
     0
100
AcDbSpline
210
0.0
220
0.0
230
1.0
 70
    24
 71
     3
 72
    13
 73
     9
 74
     0
 42
0.00000001
 43
0.00000001
 12
1.0
 22
0.0
 32
0.0
 13
1.0
 23
0.0
 33
0.0
 40
0.0
 40
0.0
 40
0.0
 40
0.0
 40
0.191537466066516
 40
0.3830747406386592
 40
0.5746120830156181
 40
0.7661495172902192
 40
0.957686827559407
 40
1.0
 40
1.0
 40
1.0
 40
1.0
 10
110.3806823761261
 20
153.3368324719929
 30
0.0
 10
110.3806823761261
 20
153.5986717997598
 30
0.0
 10
110.3806823761261
 20
154.1223501935134
 30
0.0
 10
110.3806823761261
 20
154.8769301057449
 30
0.0
 10
110.380682376126
 20
155.5753280207628
 30
0.0
 10
110.380682376126
 20
156.1764390193798
 30
0.0
 10
110.380682376126
 20
156.5717886653819
 30
0.0
 10
110.380682376126
 20
156.7179270349531
 30
0.0
 10
110.380682376126
 20
156.7443694778346
 30
0.0
  0
SPLINE
  5
206
330
1F
100
AcDbEntity
  8
0
  6
Continuous
 62
     7
370
     0
100
AcDbSpline
210
0.0
220
0.0
230
1.0
 70
    24
 71
     3
 72
    11
 73
     7
 74
     0
 42
0.00000001
 43
0.00000001
 12
1.0
 22
0.0
 32
0.0
 13
1.0
 23
0.0
 33
0.0
 40
0.0
 40
0.0
 40
0.0
 40
0.0
 40
0.2027865574540359
 40
0.601254552813023
 40
0.999722598969437
 40
1.0
 40
1.0
 40
1.0
 40
1.0
 10
110.380682376126
 20
156.8442351975106
 30
0.0
 10
110.380682376126
 20
156.9107637548193
 30
0.0
 10
110.380682376126
 20
157.1080184371618
 30
0.0
 10
110.3806823761265
 20
157.2683463279719
 30
0.0
 10
110.3806823761249
 20
157.3626958810081
 30
0.0
 10
110.380682376126
 20
157.3367971282957
 30
0.0
 10
110.380682376126
 20
157.3367791109346
 30
0.0
  0
SPLINE
  5
207
330
1F
100
AcDbEntity
  8
0
  6
Continuous
 62
     7
370
     0
100
AcDbSpline
210
0.0
220
0.0
230
1.0
 70
    24
 71
     3
 72
    18
 73
    14
 74
     0
 42
0.00000001
 43
0.00000001
 12
1.0
 22
0.0
 32
0.0
 13
1.0
 23
0.0
 33
0.0
 40
0.0
 40
0.0
 40
0.0
 40
0.0
 40
0.0268407816286568
 40
0.124156699650406
 40
0.2214726414073544
 40
0.3187885831643024
 40
0.4161045011860515
 40
0.513420445456843
 40
0.6107363470512414
 40
0.7080522223035959
 40
0.8053681402112477
 40
0.9026841342743188
 40
1.0
 40
1.0
 40
1.0
 40
1.0
 10
110.3806823761261
 20
149.7432647131943
 30
0.0
 10
110.3806823761261
 20
149.708056157818
 30
0.0
 10
110.3806823761261
 20
149.5451928665971
 30
0.0
 10
110.3806823761261
 20
149.3949670544225
 30
0.0
 10
110.3806823761261
 20
149.3092872920485
 30
0.0
 10
110.3806823761261
 20
149.3888746619982
 30
0.0
 10
110.3806823761261
 20
149.6173660275172
 30
0.0
 10
110.3806823761261
 20
149.9895495055528
 30
0.0
 10
110.3806823761261
 20
150.4901640569168
 30
0.0
 10
110.3806823761261
 20
151.1002288092964
 30
0.0
 10
110.3806823761261
 20
151.796230636123
 30
0.0
 10
110.3806823761261
 20
152.551441227822
 30
0.0
 10
110.3806823761261
 20
153.0750355056861
 30
0.0
 10
110.3806823761261
 20
153.3368324719929
 30
0.0
  0
LINE
  5
208
330
1F
100
AcDbEntity
  8
0
  6
Continuous
 62
     7
370
     0
100
AcDbLine
 10
96.7806821958
 20
149.3368318163
 30
0.0
 11
96.7806821958
 21
150.6519542866
 31
0.0
  0
LINE
  5
209
330
1F
100
AcDbEntity
  8
0
  6
Continuous
 62
     7
370
     0
100
AcDbLine
 10
96.7806821958
 20
150.6519542866
 30
0.0
 11
97.5806822338
 21
150.6519542866
 31
0.0
  0
LINE
  5
20A
330
1F
100
AcDbEntity
  8
0
  6
Continuous
 62
     7
370
     0
100
AcDbLine
 10
109.5806823381
 20
151.3368330755
 30
0.0
 11
109.5806823381
 21
153.336832472
 31
0.0
  0
LINE
  5
20B
330
1F
100
AcDbEntity
  8
0
  6
Continuous
 62
     7
370
     0
100
AcDbLine
 10
109.5806823381
 20
153.336832472
 30
0.0
 11
110.3806823761
 21
153.336832472
 31
0.0
  0
LINE
  5
20C
330
1F
100
AcDbEntity
  8
0
  6
Continuous
 62
     7
370
     0
100
AcDbLine
 10
110.3806823761
 20
149.8294306778
 30
0.0
 11
110.3806823761
 21
149.3368318163
 31
0.0
  0
SPLINE
  5
20D
330
1F
100
AcDbEntity
  8
0
  6
Continuous
 62
     7
370
     0
100
AcDbSpline
210
0.0
220
0.0
230
1.0
 70
    24
 71
     3
 72
    11
 73
     7
 74
     0
 42
0.00000001
 43
0.00000001
 12
1.0
 22
0.0
 32
0.0
 13
1.0
 23
0.0
 33
0.0
 40
0.0
 40
0.0
 40
0.0
 40
0.0
 40
0.270853177885493
 40
0.5417064617472541
 40
0.8125598443297872
 40
1.0
 40
1.0
 40
1.0
 40
1.0
 10
96.78068219582205
 20
150.6519542866013
 30
0.0
 10
96.78068219582204
 20
150.8559974873988
 30
0.0
 10
96.78068219582204
 20
151.2640839688296
 30
0.0
 10
96.78068219582204
 20
151.9836634075038
 30
0.0
 10
96.78068219582202
 20
152.6688589319349
 30
0.0
 10
96.78068219582202
 20
153.1123463494996
 30
0.0
 10
96.78068219582202
 20
153.2937308632395
 30
0.0
  0
SPLINE
  5
20E
330
1F
100
AcDbEntity
  8
0
  6
Continuous
 62
     7
370
     0
100
AcDbSpline
210
0.0
220
0.0
230
1.0
 70
    24
 71
     3
 72
    13
 73
     9
 74
     0
 42
0.00000001
 43
0.00000001
 12
1.0
 22
0.0
 32
0.0
 13
1.0
 23
0.0
 33
0.0
 40
0.0
 40
0.0
 40
0.0
 40
0.0
 40
0.0277870141893336
 40
0.2222295682784474
 40
0.4166721196524811
 40
0.6111147747512757
 40
0.8055573806877633
 40
1.0
 40
1.0
 40
1.0
 40
1.0
 10
96.78068219582202
 20
153.4230068184993
 30
0.0
 10
96.78068219582201
 20
153.4603190007255
 30
0.0
 10
96.78068219582201
 20
153.7587271021195
 30
0.0
 10
96.78068219582201
 20
154.3168962272253
 30
0.0
 10
96.780682195822
 20
155.0601136737338
 30
0.0
 10
96.780682195822
 20
155.7348959335948
 30
0.0
 10
96.780682195822
 20
156.3269036681446
 30
0.0
 10
96.78068219582198
 20
156.6214266679401
 30
0.0
 10
96.78068219582198
 20
156.7686881729028
 30
0.0
  0
SPLINE
  5
20F
330
1F
100
AcDbEntity
  8
0
  6
Continuous
 62
     7
370
     0
100
AcDbSpline
210
0.0
220
0.0
230
1.0
 70
    24
 71
     3
 72
    10
 73
     6
 74
     0
 42
0.00000001
 43
0.00000001
 12
1.0
 22
0.0
 32
0.0
 13
1.0
 23
0.0
 33
0.0
 40
0.0
 40
0.0
 40
0.0
 40
0.0
 40
0.3071135831354156
 40
0.7036744022477048
 40
1.0
 40
1.0
 40
1.0
 40
1.0
 10
96.78068219582198
 20
156.8442351975105
 30
0.0
 10
96.78068219582198
 20
156.936901992462
 30
0.0
 10
96.78068219582198
 20
157.1492249085635
 30
0.0
 10
96.78068219582198
 20
157.3121156431574
 30
0.0
 10
96.78068219582198
 20
157.3192419138267
 30
0.0
 10
96.78068219582198
 20
157.3222895943186
 30
0.0
  0
SPLINE
  5
210
330
1F
100
AcDbEntity
  8
0
  6
Continuous
 62
     7
370
     0
100
AcDbSpline
210
0.0
220
0.0
230
1.0
 70
    24
 71
     3
 72
    11
 73
     7
 74
     0
 42
0.00000001
 43
0.00000001
 12
1.0
 22
0.0
 32
0.0
 13
1.0
 23
0.0
 33
0.0
 40
0.0
 40
0.0
 40
0.0
 40
0.0
 40
0.1003062163998603
 40
0.4971479935477257
 40
0.8939896279435903
 40
1.0
 40
1.0
 40
1.0
 40
1.0
 10
96.78068219582207
 20
149.3513753496668
 30
0.0
 10
96.78068219582207
 20
149.346946714515
 30
0.0
 10
96.78068219582207
 20
149.3249970571667
 30
0.0
 10
96.78068219582205
 20
149.446861713517
 30
0.0
 10
96.78068219582205
 20
149.6161677808997
 30
0.0
 10
96.78068219582205
 20
149.7922990042963
 30
0.0
 10
96.78068219582205
 20
149.8294306777975
 30
0.0
  0
SPLINE
  5
211
330
1F
100
AcDbEntity
  8
0
  6
Continuous
 62
     7
370
     0
100
AcDbSpline
210
0.0
220
0.0
230
1.0
 70
    24
 71
     3
 72
     9
 73
     5
 74
     0
 42
0.00000001
 43
0.00000001
 12
1.0
 22
0.0
 32
0.0
 13
1.0
 23
0.0
 33
0.0
 40
0.0
 40
0.0
 40
0.0
 40
0.0
 40
0.3210918973511448
 40
0.9999999999999999
 40
0.9999999999999999
 40
0.9999999999999999
 40
0.9999999999999999
 10
96.78068219582205
 20
149.9342882864735
 30
0.0
 10
96.78068219582205
 20
149.9947662242903
 30
0.0
 10
96.78068219582205
 20
150.1831170930468
 30
0.0
 10
96.78068219582205
 20
150.4623683473679
 30
0.0
 10
96.78068219582205
 20
150.6519542866013
 30
0.0
  0
SPLINE
  5
212
330
1F
100
AcDbEntity
  8
0
  6
Continuous
 62
     7
370
     0
100
AcDbSpline
210
0.0
220
0.0
230
1.0
 70
    24
 71
     3
 72
    10
 73
     6
 74
     0
 42
0.00000001
 43
0.00000001
 12
1.0
 22
0.0
 32
0.0
 13
1.0
 23
0.0
 33
0.0
 40
0.0
 40
0.0
 40
0.0
 40
0.0
 40
0.373333063926166
 40
0.7466657546032627
 40
1.0
 40
1.0
 40
1.0
 40
1.0
 10
109.5806823381281
 20
153.3368324719929
 30
0.0
 10
109.5806823381281
 20
153.5980754896416
 30
0.0
 10
109.5806823381281
 20
154.1205612637549
 30
0.0
 10
109.5806823381281
 20
154.8022804811823
 30
0.0
 10
109.5806823381281
 20
155.1829461788477
 30
0.0
 10
109.5806823381281
 20
155.3368327998184
 30
0.0
  0
LINE
  5
213
330
1F
100
AcDbEntity
  8
0
  6
Continuous
 62
     7
370
     0
100
AcDbLine
 10
110.3806823761
 20
157.3368331276
 30
0.0
 11
110.3806823761
 21
156.8442351975
 31
0.0
  0
LINE
  5
214
330
1F
100
AcDbEntity
  8
0
  6
Continuous
 62
     7
370
     0
100
AcDbLine
 10
109.5806823381
 20
153.336832472
 30
0.0
 11
109.5806823381
 21
155.3368327998
 31
0.0
  0
LINE
  5
215
330
1F
100
AcDbEntity
  8
0
  6
Continuous
 62
     7
370
     0
100
AcDbLine
 10
96.7806821958
 20
150.6519542866
 30
0.0
 11
96.7806821958
 21
153.336832472
 31
0.0
  0
LINE
  5
216
330
1F
100
AcDbEntity
  8
0
  6
Continuous
 62
     7
370
     0
100
AcDbLine
 10
96.7806821958
 20
156.8442351975
 30
0.0
 11
96.7806821958
 21
157.3368331276
 31
0.0
  0
LINE
  5
217
330
1F
100
AcDbEntity
  8
0
  6
Continuous
 62
     7
370
     0
100
AcDbLine
 10
112.8806823202
 20
149.8294306778
 30
0.0
 11
112.8806823202
 21
153.336832472
 31
0.0
  0
LINE
  5
218
330
1F
100
AcDbEntity
  8
0
  6
Continuous
 62
     7
370
     0
100
AcDbLine
 10
112.8806823202
 20
153.336832472
 30
0.0
 11
112.8806823202
 21
156.8442351975
 31
0.0
  0
LINE
  5
219
330
1F
100
AcDbEntity
  8
0
  6
Continuous
 62
     7
370
     0
100
AcDbLine
 10
112.8806823202
 20
156.8442351975
 30
0.0
 11
110.3806823761
 21
156.8442351975
 31
0.0
  0
LINE
  5
21A
330
1F
100
AcDbEntity
  8
0
  6
Continuous
 62
     7
370
     0
100
AcDbLine
 10
112.8806823202
 20
153.336832472
 30
0.0
 11
110.3806823761
 21
153.336832472
 31
0.0
  0
LINE
  5
21B
330
1F
100
AcDbEntity
  8
0
  6
Continuous
 62
     7
370
     0
100
AcDbLine
 10
110.3806823761
 20
153.336832472
 30
0.0
 11
110.3806823761
 21
156.8442351975
 31
0.0
  0
LINE
  5
21C
330
1F
100
AcDbEntity
  8
0
  6
Continuous
 62
     7
370
     0
100
AcDbLine
 10
112.8806823202
 20
156.8442351975
 30
0.0
 11
112.8806823202
 21
153.336832472
 31
0.0
  0
LINE
  5
21D
330
1F
100
AcDbEntity
  8
0
  6
Continuous
 62
     7
370
     0
100
AcDbLine
 10
112.8806823202
 20
149.8294306778
 30
0.0
 11
110.3806823761
 21
149.8294306778
 31
0.0
  0
LINE
  5
21E
330
1F
100
AcDbEntity
  8
0
  6
Continuous
 62
     7
370
     0
100
AcDbLine
 10
110.3806823761
 20
149.8294306778
 30
0.0
 11
110.3806823761
 21
153.336832472
 31
0.0
  0
LINE
  5
21F
330
1F
100
AcDbEntity
  8
0
  6
Continuous
 62
     7
370
     0
100
AcDbLine
 10
112.8806823202
 20
153.336832472
 30
0.0
 11
112.8806823202
 21
149.8294306778
 31
0.0
  0
LINE
  5
220
330
1F
100
AcDbEntity
  8
0
  6
Continuous
 62
     7
370
     0
100
AcDbLine
 10
110.3806823761
 20
149.8294306778
 30
0.0
 11
110.3806823761
 21
153.336832472
 31
0.0
  0
LINE
  5
221
330
1F
100
AcDbEntity
  8
0
  6
Continuous
 62
     7
370
     0
100
AcDbLine
 10
110.3806823761
 20
153.336832472
 30
0.0
 11
110.3806823761
 21
153.4251227834
 31
0.0
  0
LINE
  5
222
330
1F
100
AcDbEntity
  8
0
  6
Continuous
 62
     7
370
     0
100
AcDbLine
 10
110.3806823761
 20
156.7559448861
 30
0.0
 11
110.3806823761
 21
156.8442351975
 31
0.0
  0
LINE
  5
223
330
1F
100
AcDbEntity
  8
0
  6
Continuous
 62
     7
370
     0
100
AcDbLine
 10
107.2734426511
 20
90.6368328117
 30
0.0
 11
107.2734426511
 21
91.2368355178
 31
0.0
  0
LINE
  5
224
330
1F
100
AcDbEntity
  8
0
  6
Continuous
 62
     7
370
     0
100
AcDbLine
 10
107.2734426511
 20
91.2368355178
 30
0.0
 11
107.3093199906
 21
91.2368355178
 31
0.0
  0
LINE
  5
225
330
1F
100
AcDbEntity
  8
0
  6
Continuous
 62
     7
370
     0
100
AcDbLine
 10
107.3093199906
 20
90.6368328117
 30
0.0
 11
107.2734426511
 21
90.6368328117
 31
0.0
  0
SPLINE
  5
226
330
1F
100
AcDbEntity
  8
0
  6
Continuous
 62
     7
370
     0
100
AcDbSpline
210
0.0
220
0.0
230
1.0
 70
    24
 71
     3
 72
    23
 73
    19
 74
     0
 42
0.00000001
 43
0.00000001
 12
1.0
 22
0.0
 32
0.0
 13
1.0
 23
0.0
 33
0.0
 40
0.0
 40
0.0
 40
0.0
 40
0.0
 40
0.0624999963228895
 40
0.1249999994668778
 40
0.1875000016539403
 40
0.2499999960354408
 40
0.3124999954783729
 40
0.3749999911930909
 40
0.4375000109156718
 40
0.4999999986650441
 40
0.5625000042482718
 40
0.6250000011833624
 40
0.6875000033231152
 40
0.7500000008589871
 40
0.8124999872714465
 40
0.8750000004583204
 40
0.9375000040492982
 40
0.9999999999999999
 40
0.9999999999999999
 40
0.9999999999999999
 40
0.9999999999999999
 10
99.08068247968978
 20
90.63683281173923
 30
0.0
 10
99.09155999924323
 20
90.63683281173921
 30
0.0
 10
99.11331503953726
 20
90.63683281173923
 30
0.0
 10
99.28786752647387
 20
90.63683281173923
 30
0.0
 10
99.56172739192203
 20
90.63683281173921
 30
0.0
 10
99.9382903991073
 20
90.63683281173921
 30
0.0
 10
100.4053920316646
 20
90.63683281173921
 30
0.0
 10
100.9520823580665
 20
90.63683281173924
 30
0.0
 10
101.5644882217801
 20
90.63683281173924
 30
0.0
 10
102.2273421406922
 20
90.63683281173924
 30
0.0
 10
102.9240504050492
 20
90.63683281173928
 30
0.0
 10
103.6371768658176
 20
90.63683281173927
 30
0.0
 10
104.3489239397779
 20
90.63683281173927
 30
0.0
 10
105.0413250501538
 20
90.63683281173927
 30
0.0
 10
105.6976629539126
 20
90.6368328117393
 30
0.0
 10
106.2992651650927
 20
90.6368328117393
 30
0.0
 10
106.8394913681412
 20
90.6368328117393
 30
0.0
 10
107.1287922293136
 20
90.63683281173931
 30
0.0
 10
107.2734426510585
 20
90.63683281173931
 30
0.0
  0
SPLINE
  5
227
330
1F
100
AcDbEntity
  8
0
  6
Continuous
 62
     7
370
     0
100
AcDbSpline
210
0.0
220
0.0
230
1.0
 70
    24
 71
     3
 72
    10
 73
     6
 74
     0
 42
0.00000001
 43
0.00000001
 12
1.0
 22
0.0
 32
0.0
 13
1.0
 23
0.0
 33
0.0
 40
0.0
 40
0.0
 40
0.0
 40
0.0
 40
0.2816894930268648
 40
0.6408450944156544
 40
0.9999999999999999
 40
0.9999999999999999
 40
0.9999999999999999
 40
0.9999999999999999
 10
107.3085281335813
 20
90.63683281173931
 30
0.0
 10
107.3082360707726
 20
90.63683281173931
 30
0.0
 10
107.3075716263299
 20
90.63683281173932
 30
0.0
 10
107.2960011370874
 20
90.63683281173931
 30
0.0
 10
107.2809621415456
 20
90.63683281173931
 30
0.0
 10
107.2734426510585
 20
90.63683281173931
 30
0.0
  0
LINE
  5
228
330
1F
100
AcDbEntity
  8
0
  6
Continuous
 62
     7
370
     0
100
AcDbLine
 10
99.0806824797
 20
91.2368355178
 30
0.0
 11
107.2734426511
 21
91.2368355178
 31
0.0
  0
LINE
  5
229
330
1F
100
AcDbEntity
  8
0
  6
Continuous
 62
     7
370
     0
100
AcDbLine
 10
107.2734426511
 20
90.6368328117
 30
0.0
 11
99.0806824797
 21
90.6368328117
 31
0.0
  0
LINE
  5
22A
330
1F
100
AcDbEntity
  8
0
  6
Continuous
 62
     7
370
     0
100
AcDbLine
 10
99.0806824797
 20
90.6368328117
 30
0.0
 11
99.0806824797
 21
91.2368355178
 31
0.0
  0
SPLINE
  5
22B
330
1F
100
AcDbEntity
  8
0
  6
Continuous
 62
     7
370
     0
100
AcDbSpline
210
0.0
220
0.0
230
1.0
 70
    24
 71
     3
 72
    23
 73
    19
 74
     0
 42
0.00000001
 43
0.00000001
 12
1.0
 22
0.0
 32
0.0
 13
1.0
 23
0.0
 33
0.0
 40
0.0
 40
0.0
 40
0.0
 40
0.0
 40
0.0624999963228895
 40
0.1249999994668778
 40
0.1875000016539403
 40
0.2499999960354408
 40
0.3124999954783729
 40
0.3749999911930909
 40
0.4375000109156718
 40
0.4999999986650441
 40
0.5625000042482718
 40
0.6250000011833624
 40
0.6875000033231152
 40
0.7500000008589871
 40
0.8124999872714465
 40
0.8750000004583204
 40
0.9375000040492982
 40
0.9999999999999999
 40
0.9999999999999999
 40
0.9999999999999999
 40
0.9999999999999999
 10
99.08068247968978
 20
91.2368355177901
 30
0.0
 10
99.09155999924323
 20
91.23683551779008
 30
0.0
 10
99.11331503953724
 20
91.2368355177901
 30
0.0
 10
99.28786752647386
 20
91.23683551779011
 30
0.0
 10
99.56172739192202
 20
91.23683551779008
 30
0.0
 10
99.93829039910729
 20
91.23683551779007
 30
0.0
 10
100.4053920316645
 20
91.2368355177901
 30
0.0
 10
100.9520823580665
 20
91.2368355177901
 30
0.0
 10
101.5644882217801
 20
91.23683551779013
 30
0.0
 10
102.2273421406922
 20
91.23683551779011
 30
0.0
 10
102.9240504050492
 20
91.23683551779015
 30
0.0
 10
103.6371768658176
 20
91.23683551779013
 30
0.0
 10
104.3489239397779
 20
91.23683551779014
 30
0.0
 10
105.0413250501538
 20
91.23683551779014
 30
0.0
 10
105.6976629539126
 20
91.23683551779017
 30
0.0
 10
106.2992651650927
 20
91.23683551779014
 30
0.0
 10
106.8394913681412
 20
91.23683551779018
 30
0.0
 10
107.1287922293136
 20
91.23683551779018
 30
0.0
 10
107.2734426510585
 20
91.23683551779018
 30
0.0
  0
DIMENSION
  5
22C
330
1F
100
AcDbEntity
  8
0
  6
Continuous
 62
     7
370
     0
100
AcDbDimension
  2
_D
 10
147.3096277525
 20
89.3368327402
 30
0.0
 11
147.3096277525
 21
127.8368327402
 31
0.0
 70
   160
  1
<>
 71
     2
 42
-1.0
  3
SLDDIMSTYLE0
100
AcDbAlignedDimension
 13
109.080682286
 23
166.3368327402
 33
0.0
 14
106.080682286
 24
89.3368327402
 34
0.0
 50
90.0
100
AcDbRotatedDimension
  0
DIMENSION
  5
237
330
1F
100
AcDbEntity
  8
0
  6
Continuous
 62
     7
370
     0
100
AcDbDimension
  2
_D_1
 10
122.8359782906
 20
166.3368327402
 30
0.0
 11
122.8359782906
 21
161.8368327402
 31
0.0
 70
   160
  1
<>
 71
     2
 42
-1.0
  3
SLDDIMSTYLE0
100
AcDbAlignedDimension
 13
109.580682286
 23
157.3368327402
 33
0.0
 14
109.0806823104
 24
166.3368327402
 34
0.0
 50
90.0
100
AcDbRotatedDimension
  0
DIMENSION
  5
241
330
1F
100
AcDbEntity
  8
0
  6
Continuous
 62
     7
370
     0
100
AcDbDimension
  2
_D_2
 10
90.9591138277
 20
112.3368327402
 30
0.0
 11
90.9591138277
 21
127.3368327402
 31
0.0
 70
   160
  1
<>st
 71
     2
 42
-1.0
  3
SLDDIMSTYLE0
100
AcDbAlignedDimension
 13
100.580682286
 23
142.3368327402
 33
0.0
 14
99.580682286
 24
112.3368327402
 34
0.0
 50
90.0
100
AcDbRotatedDimension
  0
DIMENSION
  5
24C
330
1F
100
AcDbEntity
  8
0
  6
Continuous
 62
     7
370
     0
100
AcDbDimension
  2
_D_3
 10
122.8359782906
 20
106.3368327402
 30
0.0
 11
122.8359782906
 21
109.3368327402
 31
0.0
 70
   160
  1
<>
 71
     2
 42
-1.0
  3
SLDDIMSTYLE1
100
AcDbAlignedDimension
 13
107.0807065092
 23
112.3368327402
 33
0.0
 14
113.3956368621
 24
106.3368327402
 34
0.0
 50
90.0
100
AcDbRotatedDimension
  0
DIMENSION
  5
259
330
1F
100
AcDbEntity
  8
0
  6
Continuous
 62
     7
370
     0
100
AcDbDimension
  2
_D_4
 10
122.8359782906
 20
91.3368327402
 30
0.0
 11
122.8359782906
 21
98.8368327402
 31
0.0
 70
   160
  1
<>
 71
     2
 42
-1.0
  3
SLDDIMSTYLE0
100
AcDbAlignedDimension
 13
113.3956368621
 23
106.3368327402
 33
0.0
 14
108.580682286
 24
91.3368327402
 34
0.0
 50
90.0
100
AcDbRotatedDimension
  0
DIMENSION
  5
265
330
1F
100
AcDbEntity
  8
0
  6
Continuous
 62
     7
370
     0
100
AcDbDimension
  2
_D_5
 10
134.2412463586
 20
89.3368327402
 30
0.0
 11
134.2412463586
 21
97.8368327402
 31
0.0
 70
   160
  1
<>
 71
     2
 42
-1.0
  3
SLDDIMSTYLE0
100
AcDbAlignedDimension
 13
113.3956368621
 23
106.3368327402
 33
0.0
 14
106.080682286
 24
89.3368327402
 34
0.0
 50
90.0
100
AcDbRotatedDimension
  0
DIMENSION
  5
26F
330
1F
100
AcDbEntity
  8
0
  6
Continuous
 62
     7
370
     0
100
AcDbDimension
  2
_D_6
 10
83.8798955643
 20
109.3368327402
 30
0.0
 11
83.8798955643
 21
116.4880161995
 31
0.0
 70
   160
  1
<>
 71
     2
 42
-1.0
  3
SLDDIMSTYLE1
100
AcDbAlignedDimension
 13
93.7657277098
 23
106.3368327402
 33
0.0
 14
93.7657277098
 24
109.3368327402
 34
0.0
 50
90.0
100
AcDbRotatedDimension
  0
DIMENSION
  5
27B
330
1F
100
AcDbEntity
  8
0
  6
Continuous
 62
     7
370
     0
100
AcDbDimension
  2
_D_7
 10
106.580682286
 20
79.3366827402
 30
0.0
 11
119.0148694168
 21
79.3366827402
 31
0.0
 70
   160
  1
%%c<>
 71
     2
 42
-1.0
  3
SLDDIMSTYLE1
100
AcDbAlignedDimension
 13
100.580682286
 23
89.8368327402
 33
0.0
 14
106.580682286
 24
89.8368327402
 34
0.0
 50
0.0
100
AcDbRotatedDimension
  0
DIMENSION
  5
288
330
1F
100
AcDbEntity
  8
0
  6
Continuous
 62
     7
370
     0
100
AcDbDimension
  2
_D_8
 10
113.395636862
 20
67.3366827402
 30
0.0
 11
103.580682286
 21
67.3366827402
 31
0.0
 70
   160
  1
<>
 71
     2
 42
-1.0
  3
SLDDIMSTYLE0
100
AcDbAlignedDimension
 13
93.76572771
 23
93.8896271187
 33
0.0
 14
113.395636862
 24
93.8896271187
 34
0.0
 50
0.0
100
AcDbRotatedDimension
  0
DIMENSION
  5
294
330
1F
100
AcDbEntity
  8
0
  6
Continuous
 62
     7
370
     0
100
AcDbDimension
  2
_D_9
 10
98.080682286
 20
176.3369827402
 30
0.0
 11
103.580682286
 21
176.3369827402
 31
0.0
 70
   160
  1
%%c<>
 71
     2
 42
-1.0
  3
SLDDIMSTYLE1
100
AcDbAlignedDimension
 13
109.080682286
 23
166.3368327402
 33
0.0
 14
98.080682286
 24
166.3368327402
 34
0.0
 50
0.0
100
AcDbRotatedDimension
  0
INSERT
  5
2AB
330
1F
100
AcDbEntity
  8
0
  6
Continuous
 62
     7
370
     0
100
AcDbBlockReference
  2
SW_NOTE_3
 10
55.5924691467
 20
83.146141665
 30
0.0
  0
INSERT
  5
2AC
330
1F
100
AcDbEntity
  8
0
  6
Continuous
 62
     7
370
     0
100
AcDbBlockReference
  2
_OPEN30
 10
97.580682286
 20
103.053249353
 30
0.0
 41
3.0
 42
3.0
 50
39.9660814027
  0
LINE
  5
2AD
330
1F
100
AcDbEntity
  8
0
  6
Continuous
 62
     7
370
     0
100
AcDbLine
 10
97.580682286
 20
103.053249353
 30
0.0
 11
73.8434163701
 21
83.159252669
 31
0.0
  0
LINE
  5
2AE
330
1F
100
AcDbEntity
  8
0
  6
Continuous
 62
     7
370
     0
100
AcDbLine
 10
94.2806822517
 20
221.9328469002
 30
0.0
 11
91.7806818419
 21
221.9328469002
 31
0.0
  0
LINE
  5
2AF
330
1F
100
AcDbEntity
  8
0
  6
Continuous
 62
     7
370
     0
100
AcDbLine
 10
91.7806818419
 20
217.73284705
 30
0.0
 11
94.2806822517
 21
217.73284705
 31
0.0
  0
LINE
  5
2B0
330
1F
100
AcDbEntity
  8
0
  6
Continuous
 62
     7
370
     0
100
AcDbLine
 10
86.780682885
 20
217.8328468801
 30
0.0
 11
89.2806823635
 21
217.482847009
 31
0.0
  0
LINE
  5
2B1
330
1F
100
AcDbEntity
  8
0
  6
Continuous
 62
     7
370
     0
100
AcDbLine
 10
89.2806823635
 20
217.8328468801
 30
0.0
 11
91.7806818419
 21
217.482847009
 31
0.0
  0
LINE
  5
2B2
330
1F
100
AcDbEntity
  8
0
  6
Continuous
 62
     7
370
     0
100
AcDbLine
 10
89.2806823635
 20
222.1828469412
 30
0.0
 11
86.780682885
 21
221.8328470701
 31
0.0
  0
LINE
  5
2B3
330
1F
100
AcDbEntity
  8
0
  6
Continuous
 62
     7
370
     0
100
AcDbLine
 10
91.7806818419
 20
222.1828469412
 30
0.0
 11
89.2806823635
 21
221.8328470701
 31
0.0
  0
LINE
  5
2B4
330
1F
100
AcDbEntity
  8
0
  6
Continuous
 62
     7
370
     0
100
AcDbLine
 10
97.5806822338
 20
223.8328471651
 30
0.0
 11
96.7806821958
 21
223.8328471651
 31
0.0
  0
LINE
  5
2B5
330
1F
100
AcDbEntity
  8
0
  6
Continuous
 62
     7
370
     0
100
AcDbLine
 10
96.7806821958
 20
215.8328467851
 30
0.0
 11
97.5806822338
 21
215.8328467851
 31
0.0
  0
ARC
  5
2B6
330
1F
100
AcDbEntity
  8
0
  6
Continuous
 62
     7
370
     0
100
AcDbCircle
 10
103.580682286
 20
219.8328469751
 30
0.0
 40
5.5
100
AcDbArc
 50
90.0000000235
 51
269.9999999897
  0
SPLINE
  5
2B7
330
1F
100
AcDbEntity
  8
0
  6
Continuous
 62
     7
370
     0
100
AcDbSpline
210
0.0
220
0.0
230
1.0
 70
     8
 71
     3
 72
    32
 73
    28
 74
     0
 42
0.00000001
 43
0.00000001
 12
1.0
 22
0.0
 32
0.0
 13
1.0
 23
0.0
 33
0.0
 40
0.0
 40
0.0
 40
0.0
 40
0.0
 40
0.0104551142758707
 40
0.0208808428244667
 40
0.0312882976539838
 40
0.0468968228739875
 40
0.0625749171376261
 40
0.0938362609830207
 40
0.1251292879641926
 40
0.1876079455135399
 40
0.2500866024513062
 40
0.3125652593890724
 40
0.3750439169384197
 40
0.4375225740619313
 40
0.5000012311911476
 40
0.5624798883203638
 40
0.6249585454438753
 40
0.6874372029932226
 40
0.7499158599309889
 40
0.8123945168687551
 40
0.8748731744181024
 40
0.906134518529399
 40
0.9374275452437698
 40
0.9499461201128341
 40
0.9624674303102346
 40
0.9811881246206019
 40
1.0
 40
1.0
 40
1.0
 40
1.0
 10
103.5806822859739
 20
225.3328469723607
 30
0.0
 10
103.6408257891306
 20
225.3322743218454
 30
0.0
 10
103.7609437527599
 20
225.3311306303382
 30
0.0
 10
103.9407408725556
 20
225.3219966442317
 30
0.0
 10
104.1496998349401
 20
225.3049985091199
 30
0.0
 10
104.3878374075694
 20
225.2755580446122
 30
0.0
 10
104.7424353281853
 20
225.2139980715089
 30
0.0
 10
105.179805010345
 20
225.1045951289385
 30
0.0
 10
105.8578256976391
 20
224.861878047478
 30
0.0
 10
106.6561550657805
 20
224.4353928710099
 30
0.0
 10
107.4948020765567
 20
223.7470083581909
 30
0.0
 10
108.183254129282
 20
222.9081793322037
 30
0.0
 10
108.6947723127484
 20
221.9511738450161
 30
0.0
 10
109.0097749289144
 20
220.9127604138407
 30
0.0
 10
109.1161359595028
 20
219.8328469774945
 30
0.0
 10
109.0097749325562
 20
218.7529335267134
 30
0.0
 10
108.6947722981809
 20
217.7145201388425
 30
0.0
 10
108.1832541839101
 20
216.7575144928722
 30
0.0
 10
107.4948018726117
 20
215.9186860587112
 30
0.0
 10
106.6561558269322
 20
215.23029933737
 30
0.0
 10
105.8579853340416
 20
214.8039075087892
 30
0.0
 10
105.1799840144079
 20
214.5611431068389
 30
0.0
 10
104.7602700247413
 20
214.4561724071684
 30
0.0
 10
104.4412244752421
 20
214.3990970855444
 30
0.0
 10
104.1918164927438
 20
214.3647296411411
 30
0.0
 10
103.9048382223288
 20
214.3383241599949
 30
0.0
 10
103.6889091230776
 20
214.3346756597469
 30
0.0
 10
103.5806822859739
 20
214.3328469778167
 30
0.0
  0
SPLINE
  5
2B8
330
1F
100
AcDbEntity
  8
0
  6
Continuous
 62
     7
370
     0
100
AcDbSpline
210
0.0
220
0.0
230
1.0
 70
     8
 71
     3
 72
    32
 73
    28
 74
     0
 42
0.00000001
 43
0.00000001
 12
1.0
 22
0.0
 32
0.0
 13
1.0
 23
0.0
 33
0.0
 40
0.0
 40
0.0
 40
0.0
 40
0.0
 40
0.0104551142757641
 40
0.0208808428243602
 40
0.0312882976539833
 40
0.0468968228737568
 40
0.0625749171376254
 40
0.0938362609830745
 40
0.1251292879641943
 40
0.1876079455135414
 40
0.2500866024513075
 40
0.3125652593890735
 40
0.3750439169384207
 40
0.437522574061932
 40
0.5000012311911479
 40
0.5624798883203639
 40
0.6249585454438753
 40
0.6874372029932223
 40
0.7499158599309884
 40
0.8123945168687544
 40
0.8748731744181015
 40
0.9061345185294047
 40
0.93742754524377
 40
0.9499461201129837
 40
0.9624674303102347
 40
0.9811881246206646
 40
1.0
 40
1.0
 40
1.0
 40
1.0
 10
103.5806822859739
 20
214.3328469778167
 30
0.0
 10
103.5205387828178
 20
214.333419628332
 30
0.0
 10
103.4004208191892
 20
214.3345633198391
 30
0.0
 10
103.2206236993934
 20
214.3436973059457
 30
0.0
 10
103.0116647370096
 20
214.3606954410572
 30
0.0
 10
102.7735271643797
 20
214.390135905565
 30
0.0
 10
102.4189292437635
 20
214.4516958786683
 30
0.0
 10
101.9815595616023
 20
214.5610988212382
 30
0.0
 10
101.3035388743086
 20
214.8038159027
 30
0.0
 10
100.5052095061673
 20
215.2303010791674
 30
0.0
 10
99.6665624953911
 20
215.9186855919865
 30
0.0
 10
98.97811044266581
 20
216.7575146179737
 30
0.0
 10
98.46659225919944
 20
217.7145201051613
 30
0.0
 10
98.15158964303345
 20
218.7529335363366
 30
0.0
 10
98.04522861244499
 20
219.8328469726829
 30
0.0
 10
98.15158963939156
 20
220.9127604234639
 30
0.0
 10
98.46659227376693
 20
221.9511738113349
 30
0.0
 10
98.97811038803769
 20
222.9081794573052
 30
0.0
 10
99.66656269933605
 20
223.7470078914662
 30
0.0
 10
100.5052087450155
 20
224.4353946128074
 30
0.0
 10
101.3033792379064
 20
224.8617864413879
 30
0.0
 10
101.9813805575398
 20
225.1045508433389
 30
0.0
 10
102.4010945472074
 20
225.2095215430092
 30
0.0
 10
102.7201400967066
 20
225.266596864633
 30
0.0
 10
102.9695480792052
 20
225.3009643090364
 30
0.0
 10
103.2565263496193
 20
225.3273697901823
 30
0.0
 10
103.4724554488705
 20
225.3310182904304
 30
0.0
 10
103.5806822859739
 20
225.3328469723607
 30
0.0
  0
SPLINE
  5
2B9
330
1F
100
AcDbEntity
  8
0
  6
Continuous
 62
     7
370
     0
100
AcDbSpline
210
0.0
220
0.0
230
1.0
 70
     8
 71
     3
 72
    27
 73
    23
 74
     0
 42
0.00000001
 43
0.00000001
 12
1.0
 22
0.0
 32
0.0
 13
1.0
 23
0.0
 33
0.0
 40
0.0
 40
0.0
 40
0.0
 40
0.0
 40
0.0156855772767859
 40
0.0312917127985095
 40
0.0625741394334714
 40
0.1250632679671732
 40
0.1875523954785948
 40
0.250041523225273
 40
0.3125306509719508
 40
0.3750197784833726
 40
0.4375089070170746
 40
0.4999980341110713
 40
0.562487161205068
 40
0.6249762897387698
 40
0.6874654172501914
 40
0.7499545449968695
 40
0.8124436727435476
 40
0.8749328002549692
 40
0.9374219287886709
 40
0.9624611863316551
 40
0.9811463731701089
 40
0.9999999999999999
 40
0.9999999999999999
 40
0.9999999999999999
 40
0.9999999999999999
 10
103.5806822859739
 20
221.9328469778927
 30
0.0
 10
103.546233997042
 20
221.9323498100345
 30
0.0
 10
103.477511887257
 20
221.9313579922928
 30
0.0
 10
103.3404169432456
 20
221.9209600806859
 30
0.0
 10
103.1024942532843
 20
221.8858177751802
 30
0.0
 10
102.7718180063217
 20
221.7854781750131
 30
0.0
 10
102.4064770883786
 20
221.5901947613682
 30
0.0
 10
102.0861824357004
 20
221.3273417225147
 30
0.0
 10
101.8233414366234
 20
221.0070656471451
 30
0.0
 10
101.6280284411809
 20
220.6416624597441
 30
0.0
 10
101.5077563842421
 20
220.2451776149806
 30
0.0
 10
101.4671452287946
 20
219.8328469781957
 30
0.0
 10
101.5077564002227
 20
219.4205163227687
 30
0.0
 10
101.6280283772585
 20
219.0240315339315
 30
0.0
 10
101.8233416763323
 20
218.6586281414674
 30
0.0
 10
102.0861815407868
 20
218.3383528304239
 30
0.0
 10
102.4064804283238
 20
218.075496939329
 30
0.0
 10
102.7718055414541
 20
217.8802241703236
 30
0.0
 10
103.0893172994869
 20
217.7838617031544
 30
0.0
 10
103.3198623215282
 20
217.7475192848809
 30
0.0
 10
103.4568291451974
 20
217.7349585745455
 30
0.0
 10
103.5392745923668
 20
217.7335529421042
 30
0.0
 10
103.5806822859739
 20
217.7328469722847
 30
0.0
  0
SPLINE
  5
2BA
330
1F
100
AcDbEntity
  8
0
  6
Continuous
 62
     7
370
     0
100
AcDbSpline
210
0.0
220
0.0
230
1.0
 70
     8
 71
     3
 72
    27
 73
    23
 74
     0
 42
0.00000001
 43
0.00000001
 12
1.0
 22
0.0
 32
0.0
 13
1.0
 23
0.0
 33
0.0
 40
0.0
 40
0.0
 40
0.0
 40
0.0
 40
0.0156855772768742
 40
0.0312917127985097
 40
0.0625741394334714
 40
0.1250632679671733
 40
0.1875523954785951
 40
0.250041523225273
 40
0.312530650971951
 40
0.3750197784833726
 40
0.4375089070170743
 40
0.4999980341110711
 40
0.5624871612050677
 40
0.6249762897387696
 40
0.6874654172501916
 40
0.7499545449968695
 40
0.8124436727435475
 40
0.8749328002549693
 40
0.9374219287886714
 40
0.9624611863316554
 40
0.9811463731701726
 40
1.0
 40
1.0
 40
1.0
 40
1.0
 10
103.5806822859739
 20
217.7328469722847
 30
0.0
 10
103.615130574906
 20
217.7333441401429
 30
0.0
 10
103.683852684691
 20
217.7343359578846
 30
0.0
 10
103.8209476287024
 20
217.7447338694916
 30
0.0
 10
104.0588703186635
 20
217.7798761749971
 30
0.0
 10
104.3895465656261
 20
217.8802157751642
 30
0.0
 10
104.7548874835693
 20
218.0754991888091
 30
0.0
 10
105.0751821362474
 20
218.3383522276627
 30
0.0
 10
105.3380231353244
 20
218.6586283030323
 30
0.0
 10
105.5333361307669
 20
219.0240314904332
 30
0.0
 10
105.6536081877057
 20
219.4205163351967
 30
0.0
 10
105.6942193431532
 20
219.8328469719817
 30
0.0
 10
105.6536081717251
 20
220.2451776274087
 30
0.0
 10
105.5333361946893
 20
220.6416624162459
 30
0.0
 10
105.3380228956155
 20
221.0070658087099
 30
0.0
 10
105.075183031161
 20
221.3273411197534
 30
0.0
 10
104.754884143624
 20
221.5901970108484
 30
0.0
 10
104.3895590304937
 20
221.7854697798537
 30
0.0
 10
104.0720472724609
 20
221.881832247023
 30
0.0
 10
103.8415022504195
 20
221.9181746652965
 30
0.0
 10
103.7045354267503
 20
221.9307353756318
 30
0.0
 10
103.6220899795809
 20
221.9321410080732
 30
0.0
 10
103.5806822859739
 20
221.9328469778927
 30
0.0
  0
LINE
  5
2BB
330
1F
100
AcDbEntity
  8
0
  6
Continuous
 62
     7
370
     0
100
AcDbLine
 10
109.5806823381
 20
216.3687453942
 30
0.0
 11
103.580682286
 21
212.9046438133
 31
0.0
  0
LINE
  5
2BC
330
1F
100
AcDbEntity
  8
0
  6
Continuous
 62
     7
370
     0
100
AcDbLine
 10
109.5806823381
 20
223.296948556
 30
0.0
 11
109.5806823381
 21
216.3687453942
 31
0.0
  0
LINE
  5
2BD
330
1F
100
AcDbEntity
  8
0
  6
Continuous
 62
     7
370
     0
100
AcDbLine
 10
103.580682286
 20
226.7610501369
 30
0.0
 11
109.5806823381
 21
223.296948556
 31
0.0
  0
LINE
  5
2BE
330
1F
100
AcDbEntity
  8
0
  6
Continuous
 62
     7
370
     0
100
AcDbLine
 10
97.5806822338
 20
223.296948556
 30
0.0
 11
103.580682286
 21
226.7610501369
 31
0.0
  0
LINE
  5
2BF
330
1F
100
AcDbEntity
  8
0
  6
Continuous
 62
     7
370
     0
100
AcDbLine
 10
97.5806822338
 20
216.3687453942
 30
0.0
 11
97.5806822338
 21
223.296948556
 31
0.0
  0
LINE
  5
2C0
330
1F
100
AcDbEntity
  8
0
  6
Continuous
 62
     7
370
     0
100
AcDbLine
 10
103.580682286
 20
212.9046438133
 30
0.0
 11
97.5806822338
 21
216.3687453942
 31
0.0
  0
LINE
  5
2C1
330
1F
100
AcDbEntity
  8
0
  6
Continuous
 62
     7
370
     0
100
AcDbLine
 10
103.580682286
 20
226.7610501369
 30
0.0
 11
97.5806822338
 21
223.296948556
 31
0.0
  0
LINE
  5
2C2
330
1F
100
AcDbEntity
  8
0
  6
Continuous
 62
     7
370
     0
100
AcDbLine
 10
105.6806822111
 20
219.8328469747
 30
0.0
 11
101.4806823609
 21
219.8328469747
 31
0.0
  0
LINE
  5
2C3
330
1F
100
AcDbEntity
  8
0
  6
Continuous
 62
     7
370
     0
100
AcDbLine
 10
109.5806823381
 20
223.296948556
 30
0.0
 11
103.580682286
 21
226.7610501369
 31
0.0
  0
LINE
  5
2C4
330
1F
100
AcDbEntity
  8
0
  6
Continuous
 62
     7
370
     0
100
AcDbLine
 10
103.580682286
 20
212.9046438133
 30
0.0
 11
109.5806823381
 21
216.3687453942
 31
0.0
  0
LINE
  5
2C5
330
1F
100
AcDbEntity
  8
0
  6
Continuous
 62
     7
370
     0
100
AcDbLine
 10
97.5806822338
 20
216.3687453942
 30
0.0
 11
103.580682286
 21
212.9046438133
 31
0.0
  0
ARC
  5
2C6
330
1F
100
AcDbEntity
  8
0
  6
Continuous
 62
     7
370
     0
100
AcDbCircle
 10
103.580682286
 20
219.8328469751
 30
0.0
 40
2.100000000000023
100
AcDbArc
 50
90.0000000235
 51
269.9999999897
  0
ARC
  5
2C7
330
1F
100
AcDbEntity
  8
0
  6
Continuous
 62
     7
370
     0
100
AcDbCircle
 10
103.580682286
 20
219.8328469751
 30
0.0
 40
2.100000000000023
100
AcDbArc
 50
270.0
 51
90.0000000235
  0
ARC
  5
2C8
330
1F
100
AcDbEntity
  8
0
  6
Continuous
 62
     7
370
     0
100
AcDbCircle
 10
103.580682286
 20
219.8328469751
 30
0.0
 40
5.5
100
AcDbArc
 50
270.0
 51
90.0000000235
  0
LINE
  5
2C9
330
1F
100
AcDbEntity
  8
0
  6
Continuous
 62
     7
370
     0
100
AcDbLine
 10
106.561510804
 20
214.6331240294
 30
0.0
 11
106.6196344131
 21
214.6732649637
 31
0.0
  0
LINE
  5
2CA
330
1F
100
AcDbEntity
  8
0
  6
Continuous
 62
     7
370
     0
100
AcDbLine
 10
113.3956366488
 20
219.8328469752
 30
0.0
 11
112.8806823202
 21
220.7247744884
 31
0.0
  0
LINE
  5
2CB
330
1F
100
AcDbEntity
  8
0
  6
Continuous
 62
     7
370
     0
100
AcDbLine
 10
111.0573683203
 20
223.8828470801
 30
0.0
 11
108.4881594674
 21
228.332847437
 31
0.0
  0
LINE
  5
2CC
330
1F
100
AcDbEntity
  8
0
  6
Continuous
 62
     7
370
     0
100
AcDbLine
 10
108.4881594674
 20
228.332847437
 30
0.0
 11
98.6732051046
 21
228.332847437
 31
0.0
  0
LINE
  5
2CD
330
1F
100
AcDbEntity
  8
0
  6
Continuous
 62
     7
370
     0
100
AcDbLine
 10
98.6732051046
 20
228.332847437
 30
0.0
 11
96.1039962516
 21
223.8828470801
 31
0.0
  0
LINE
  5
2CE
330
1F
100
AcDbEntity
  8
0
  6
Continuous
 62
     7
370
     0
100
AcDbLine
 10
96.1039962516
 20
215.78284687
 30
0.0
 11
98.6732051046
 21
211.3328465132
 31
0.0
  0
LINE
  5
2CF
330
1F
100
AcDbEntity
  8
0
  6
Continuous
 62
     7
370
     0
100
AcDbLine
 10
98.6732051046
 20
211.3328465132
 30
0.0
 11
108.4881594674
 21
211.3328465132
 31
0.0
  0
LINE
  5
2D0
330
1F
100
AcDbEntity
  8
0
  6
Continuous
 62
     7
370
     0
100
AcDbLine
 10
108.4881594674
 20
211.3328465132
 30
0.0
 11
111.0573683203
 21
215.78284687
 31
0.0
  0
LINE
  5
2D1
330
1F
100
AcDbEntity
  8
0
  6
Continuous
 62
     7
370
     0
100
AcDbLine
 10
112.8806823202
 20
218.9409194618
 30
0.0
 11
113.3956366488
 21
219.8328469752
 31
0.0
  0
LINE
  5
2D2
330
1F
100
AcDbEntity
  8
0
  6
Continuous
 62
     7
370
     0
100
AcDbLine
 10
98.6732051046
 20
228.3328465057
 30
0.0
 11
96.1039962516
 21
223.8828470801
 31
0.0
  0
LINE
  5
2D3
330
1F
100
AcDbEntity
  8
0
  6
Continuous
 62
     7
370
     0
100
AcDbLine
 10
108.4881594674
 20
228.332847437
 30
0.0
 11
98.6732051046
 21
228.3328465057
 31
0.0
  0
LINE
  5
2D4
330
1F
100
AcDbEntity
  8
0
  6
Continuous
 62
     7
370
     0
100
AcDbLine
 10
108.4881594674
 20
211.3328474445
 30
0.0
 11
111.0573683203
 21
215.78284687
 31
0.0
  0
LINE
  5
2D5
330
1F
100
AcDbEntity
  8
0
  6
Continuous
 62
     7
370
     0
100
AcDbLine
 10
112.8806823202
 20
218.9409194618
 30
0.0
 11
113.3956366488
 21
219.8328469773
 31
0.0
  0
LINE
  5
2D6
330
1F
100
AcDbEntity
  8
0
  6
Continuous
 62
     7
370
     0
100
AcDbLine
 10
98.6732051046
 20
211.3328465132
 30
0.0
 11
108.4881594674
 21
211.3328474445
 31
0.0
  0
LINE
  5
2D7
330
1F
100
AcDbEntity
  8
0
  6
Continuous
 62
     7
370
     0
100
AcDbLine
 10
94.2806822517
 20
220.8828469376
 30
0.0
 11
91.7806818419
 21
220.8828469376
 31
0.0
  0
LINE
  5
2D8
330
1F
100
AcDbEntity
  8
0
  6
Continuous
 62
     7
370
     0
100
AcDbLine
 10
96.7806821958
 20
217.8078469226
 30
0.0
 11
96.7806821958
 21
217.9097960108
 31
0.0
  0
LINE
  5
2D9
330
1F
100
AcDbEntity
  8
0
  6
Continuous
 62
     7
370
     0
100
AcDbLine
 10
96.7806821958
 20
221.7558979393
 30
0.0
 11
96.7806821958
 21
221.8578470276
 31
0.0
  0
LINE
  5
2DA
330
1F
100
AcDbEntity
  8
0
  6
Continuous
 62
     7
370
     0
100
AcDbLine
 10
96.7806821958
 20
221.8578470276
 30
0.0
 11
96.7806821958
 21
221.9088215718
 31
0.0
  0
LINE
  5
2DB
330
1F
100
AcDbEntity
  8
0
  6
Continuous
 62
     7
370
     0
100
AcDbLine
 10
96.7806821958
 20
223.8328471651
 30
0.0
 11
96.7806821958
 21
223.8828470801
 31
0.0
  0
LINE
  5
2DC
330
1F
100
AcDbEntity
  8
0
  6
Continuous
 62
     7
370
     0
100
AcDbLine
 10
96.7806821958
 20
215.78284687
 30
0.0
 11
96.7806821958
 21
215.8338214142
 31
0.0
  0
LINE
  5
2DD
330
1F
100
AcDbEntity
  8
0
  6
Continuous
 62
     7
370
     0
100
AcDbLine
 10
96.7806821958
 20
217.7568723784
 30
0.0
 11
96.7806821958
 21
217.8078469226
 31
0.0
  0
LINE
  5
2DE
330
1F
100
AcDbEntity
  8
0
  6
Continuous
 62
     7
370
     0
100
AcDbLine
 10
94.2806822517
 20
215.78284687
 30
0.0
 11
94.2806822517
 21
217.8078469226
 31
0.0
  0
LINE
  5
2DF
330
1F
100
AcDbEntity
  8
0
  6
Continuous
 62
     7
370
     0
100
AcDbLine
 10
96.7806821958
 20
215.78284687
 30
0.0
 11
94.2806822517
 21
215.78284687
 31
0.0
  0
LINE
  5
2E0
330
1F
100
AcDbEntity
  8
0
  6
Continuous
 62
     7
370
     0
100
AcDbLine
 10
96.7806821958
 20
217.8078469226
 30
0.0
 11
96.7806821958
 21
215.78284687
 31
0.0
  0
LINE
  5
2E1
330
1F
100
AcDbEntity
  8
0
  6
Continuous
 62
     7
370
     0
100
AcDbLine
 10
94.2806822517
 20
217.8078469226
 30
0.0
 11
96.7806821958
 21
217.8078469226
 31
0.0
  0
LINE
  5
2E2
330
1F
100
AcDbEntity
  8
0
  6
Continuous
 62
     7
370
     0
100
AcDbLine
 10
96.7806821958
 20
223.8828470801
 30
0.0
 11
94.2806822517
 21
223.8828470801
 31
0.0
  0
LINE
  5
2E3
330
1F
100
AcDbEntity
  8
0
  6
Continuous
 62
     7
370
     0
100
AcDbLine
 10
96.7806821958
 20
221.8578470276
 30
0.0
 11
94.2806822517
 21
221.8578470276
 31
0.0
  0
LINE
  5
2E4
330
1F
100
AcDbEntity
  8
0
  6
Continuous
 62
     7
370
     0
100
AcDbLine
 10
94.2806822517
 20
221.8578470276
 30
0.0
 11
94.2806822517
 21
223.8828470801
 31
0.0
  0
LINE
  5
2E5
330
1F
100
AcDbEntity
  8
0
  6
Continuous
 62
     7
370
     0
100
AcDbLine
 10
96.7806821958
 20
223.8828470801
 30
0.0
 11
96.7806821958
 21
222.8409727906
 31
0.0
  0
LINE
  5
2E6
330
1F
100
AcDbEntity
  8
0
  6
Continuous
 62
     7
370
     0
100
AcDbLine
 10
94.2806822517
 20
217.8078469226
 30
0.0
 11
94.2806822517
 21
221.8578470276
 31
0.0
  0
LINE
  5
2E7
330
1F
100
AcDbEntity
  8
0
  6
Continuous
 62
     7
370
     0
100
AcDbLine
 10
96.7806821958
 20
221.8578470276
 30
0.0
 11
96.7806821958
 21
217.8078469226
 31
0.0
  0
LINE
  5
2E8
330
1F
100
AcDbEntity
  8
0
  6
Continuous
 62
     7
370
     0
100
AcDbLine
 10
94.2806822517
 20
217.8078469226
 30
0.0
 11
94.2806822517
 21
221.8578470276
 31
0.0
  0
LINE
  5
2E9
330
1F
100
AcDbEntity
  8
0
  6
Continuous
 62
     7
370
     0
100
AcDbLine
 10
94.2806822517
 20
221.8578470276
 30
0.0
 11
94.2806822517
 21
223.8828470801
 31
0.0
  0
SPLINE
  5
2EA
330
1F
100
AcDbEntity
  8
0
  6
Continuous
 62
     7
370
     0
100
AcDbSpline
210
0.0
220
0.0
230
1.0
 70
    24
 71
     3
 72
    20
 73
    16
 74
     0
 42
0.00000001
 43
0.00000001
 12
1.0
 22
0.0
 32
0.0
 13
1.0
 23
0.0
 33
0.0
 40
0.0
 40
0.0
 40
0.0
 40
0.0
 40
0.0534443551001899
 40
0.1323239800267214
 40
0.2112035968022454
 40
0.2900832093715108
 40
0.3689629171178914
 40
0.4478425160417084
 40
0.5267221286452265
 40
0.605601778276069
 40
0.6844814114125721
 40
0.7633610640773452
 40
0.8422407083647262
 40
0.9211203228946505
 40
1.0
 40
1.0
 40
1.0
 40
1.0
 10
91.78068184191945
 20
217.6728694105005
 30
0.0
 10
91.78068184191945
 20
217.632839734822
 30
0.0
 10
91.78068184191945
 20
217.5337294359882
 30
0.0
 10
91.78068184191945
 20
217.4747607066507
 30
0.0
 10
91.78068184191943
 20
217.4873970089719
 30
0.0
 10
91.78068184191943
 20
217.593360108709
 30
0.0
 10
91.78068184191943
 20
217.7845295653586
 30
0.0
 10
91.78068184191942
 20
218.0546451244631
 30
0.0
 10
91.78068184191942
 20
218.3930303506495
 30
0.0
 10
91.78068184191942
 20
218.7867795777837
 30
0.0
 10
91.78068184191942
 20
219.2206623156879
 30
0.0
 10
91.78068184191942
 20
219.6783045951406
 30
0.0
 10
91.78068184191942
 20
220.1410168733495
 30
0.0
 10
91.78068184191942
 20
220.5951288309952
 30
0.0
 10
91.78068184191942
 20
220.8702742127119
 30
0.0
 10
91.78068184191942
 20
221.0078469581386
 30
0.0
  0
SPLINE
  5
2EB
330
1F
100
AcDbEntity
  8
0
  6
Continuous
 62
     7
370
     0
100
AcDbSpline
210
0.0
220
0.0
230
1.0
 70
    24
 71
     3
 72
    13
 73
     9
 74
     0
 42
0.00000001
 43
0.00000001
 12
1.0
 22
0.0
 32
0.0
 13
1.0
 23
0.0
 33
0.0
 40
0.0
 40
0.0
 40
0.0
 40
0.0
 40
0.1874785306161322
 40
0.3749572886335842
 40
0.5624361366381047
 40
0.7499145768662655
 40
0.9373932302436947
 40
1.0
 40
1.0
 40
1.0
 40
1.0
 10
91.78068184191942
 20
221.0078469581386
 30
0.0
 10
91.78068184191942
 20
221.136697146262
 30
0.0
 10
91.78068184191942
 20
221.3943976787971
 30
0.0
 10
91.78068184191943
 20
221.7084212471821
 30
0.0
 10
91.78068184191943
 20
221.9552813626953
 30
0.0
 10
91.78068184191943
 20
222.1134400616593
 30
0.0
 10
91.78068184191943
 20
222.1866908588078
 30
0.0
 10
91.78068184191943
 20
222.175566735456
 30
0.0
 10
91.78068184191943
 20
222.172781905294
 30
0.0
  0
SPLINE
  5
2EC
330
1F
100
AcDbEntity
  8
0
  6
Continuous
 62
     7
370
     0
100
AcDbSpline
210
0.0
220
0.0
230
1.0
 70
    24
 71
     3
 72
    13
 73
     9
 74
     0
 42
0.00000001
 43
0.00000001
 12
1.0
 22
0.0
 32
0.0
 13
1.0
 23
0.0
 33
0.0
 40
0.0
 40
0.0
 40
0.0
 40
0.0
 40
0.1875057645433915
 40
0.3750115210967867
 40
0.5625173597629417
 40
0.7500231131407136
 40
0.9375289114739033
 40
1.0
 40
1.0
 40
1.0
 40
1.0
 10
91.78068184191942
 20
220.8828469376495
 30
0.0
 10
91.78068184191942
 20
220.6289523521932
 30
0.0
 10
91.78068184191942
 20
220.1211631920995
 30
0.0
 10
91.78068184191942
 20
219.2742120859178
 30
0.0
 10
91.78068184191942
 20
218.5179497965953
 30
0.0
 10
91.78068184191943
 20
217.9806769663848
 30
0.0
 10
91.78068184191943
 20
217.7192276598532
 30
0.0
 10
91.78068184191943
 20
217.758782337125
 30
0.0
 10
91.78068184191943
 20
217.7686673460012
 30
0.0
  0
SPLINE
  5
2ED
330
1F
100
AcDbEntity
  8
0
  6
Continuous
 62
     7
370
     0
100
AcDbSpline
210
0.0
220
0.0
230
1.0
 70
    24
 71
     3
 72
    13
 73
     9
 74
     0
 42
0.00000001
 43
0.00000001
 12
1.0
 22
0.0
 32
0.0
 13
1.0
 23
0.0
 33
0.0
 40
0.0
 40
0.0
 40
0.0
 40
0.0
 40
0.0624446649570337
 40
0.2499557420881126
 40
0.4374668766649835
 40
0.6249778798230764
 40
0.8124889498439348
 40
1.0
 40
1.0
 40
1.0
 40
1.0
 10
86.78068288500072
 20
217.8669537754213
 30
0.0
 10
86.78068288500073
 20
217.8575449789754
 30
0.0
 10
86.78068288500072
 20
217.8198831114736
 30
0.0
 10
86.7806828850007
 20
218.0688791365669
 30
0.0
 10
86.7806828850007
 20
218.580562536177
 30
0.0
 10
86.7806828850007
 20
219.3008143523747
 30
0.0
 10
86.7806828850007
 20
220.107433688349
 30
0.0
 10
86.7806828850007
 20
220.5910425863793
 30
0.0
 10
86.7806828850007
 20
220.8328470225861
 30
0.0
  0
SPLINE
  5
2EE
330
1F
100
AcDbEntity
  8
0
  6
Continuous
 62
     7
370
     0
100
AcDbSpline
210
0.0
220
0.0
230
1.0
 70
    24
 71
     3
 72
    10
 73
     6
 74
     0
 42
0.00000001
 43
0.00000001
 12
1.0
 22
0.0
 32
0.0
 13
1.0
 23
0.0
 33
0.0
 40
0.0
 40
0.0
 40
0.0
 40
0.0
 40
0.3749557342795096
 40
0.7499116854177419
 40
1.0
 40
1.0
 40
1.0
 40
1.0
 10
86.7806828850007
 20
220.8328470225861
 30
0.0
 10
86.7806828850007
 20
221.0422307186895
 30
0.0
 10
86.78068288500072
 20
221.4609982319951
 30
0.0
 10
86.78068288500072
 20
221.7983576655962
 30
0.0
 10
86.78068288500072
 20
221.7986308643804
 30
0.0
 10
86.78068288500072
 20
221.798740174756
 30
0.0
  0
LINE
  5
2EF
330
1F
100
AcDbEntity
  8
0
  6
Continuous
 62
     7
370
     0
100
AcDbLine
 10
89.2806823635
 20
221.0078469581
 30
0.0
 11
89.2806823635
 21
217.482847009
 31
0.0
  0
LINE
  5
2F0
330
1F
100
AcDbEntity
  8
0
  6
Continuous
 62
     7
370
     0
100
AcDbLine
 10
86.780682885
 20
217.8328468801
 30
0.0
 11
86.780682885
 21
220.8328470226
 31
0.0
  0
LINE
  5
2F1
330
1F
100
AcDbEntity
  8
0
  6
Continuous
 62
     7
370
     0
100
AcDbLine
 10
86.780682885
 20
220.8328470226
 30
0.0
 11
89.2806823635
 21
221.0078469581
 31
0.0
  0
SPLINE
  5
2F2
330
1F
100
AcDbEntity
  8
0
  6
Continuous
 62
     7
370
     0
100
AcDbSpline
210
0.0
220
0.0
230
1.0
 70
    24
 71
     3
 72
    21
 73
    17
 74
     0
 42
0.00000001
 43
0.00000001
 12
1.0
 22
0.0
 32
0.0
 13
1.0
 23
0.0
 33
0.0
 40
0.0
 40
0.0
 40
0.0
 40
0.0
 40
0.0150973463953529
 40
0.0908591310183869
 40
0.1666208584319307
 40
0.2423825780166541
 40
0.318144293561381
 40
0.3939061005211301
 40
0.4696678029597761
 40
0.5454295185374017
 40
0.6211912696787621
 40
0.6969530049777596
 40
0.7727147590331276
 40
0.848476505042239
 40
0.9242382224701253
 40
0.9999999999999999
 40
0.9999999999999999
 40
0.9999999999999999
 40
0.9999999999999999
 10
89.2806823634601
 20
217.7736734376704
 30
0.0
 10
89.28068236346009
 20
217.7571246173501
 30
0.0
 10
89.28068236346009
 20
217.6575301989463
 30
0.0
 10
89.28068236346009
 20
217.5525365304061
 30
0.0
 10
89.28068236346007
 20
217.4716242373326
 30
0.0
 10
89.28068236346007
 20
217.4882374232751
 30
0.0
 10
89.28068236346007
 20
217.5931349200675
 30
0.0
 10
89.28068236346007
 20
217.7845899044109
 30
0.0
 10
89.28068236346006
 20
218.0546289566695
 30
0.0
 10
89.28068236346006
 20
218.3930346827988
 30
0.0
 10
89.28068236346006
 20
218.7867784169899
 30
0.0
 10
89.28068236346006
 20
219.220662626714
 30
0.0
 10
89.28068236346006
 20
219.6783045118301
 30
0.0
 10
89.28068236346006
 20
220.1410168955656
 30
0.0
 10
89.28068236346006
 20
220.5951288254412
 30
0.0
 10
89.28068236346006
 20
220.8702742108605
 30
0.0
 10
89.28068236346006
 20
221.0078469581386
 30
0.0
  0
SPLINE
  5
2F3
330
1F
100
AcDbEntity
  8
0
  6
Continuous
 62
     7
370
     0
100
AcDbSpline
210
0.0
220
0.0
230
1.0
 70
    24
 71
     3
 72
    13
 73
     9
 74
     0
 42
0.00000001
 43
0.00000001
 12
1.0
 22
0.0
 32
0.0
 13
1.0
 23
0.0
 33
0.0
 40
0.0
 40
0.0
 40
0.0
 40
0.0
 40
0.1874785306161322
 40
0.3749572886335842
 40
0.5624361366381047
 40
0.7499145768662655
 40
0.9373932302436947
 40
1.0
 40
1.0
 40
1.0
 40
1.0
 10
89.28068236346006
 20
221.0078469581386
 30
0.0
 10
89.28068236346006
 20
221.136697146262
 30
0.0
 10
89.28068236346006
 20
221.3943976787971
 30
0.0
 10
89.28068236346007
 20
221.7084212471821
 30
0.0
 10
89.28068236346007
 20
221.9552813626953
 30
0.0
 10
89.28068236346007
 20
222.1134400616593
 30
0.0
 10
89.28068236346007
 20
222.1866908588078
 30
0.0
 10
89.28068236346007
 20
222.175566735456
 30
0.0
 10
89.28068236346007
 20
222.172781905294
 30
0.0
  0
SPLINE
  5
2F4
330
1F
100
AcDbEntity
  8
0
  6
Continuous
 62
     7
370
     0
100
AcDbSpline
210
0.0
220
0.0
230
1.0
 70
    24
 71
     3
 72
    13
 73
     9
 74
     0
 42
0.00000001
 43
0.00000001
 12
1.0
 22
0.0
 32
0.0
 13
1.0
 23
0.0
 33
0.0
 40
0.0
 40
0.0
 40
0.0
 40
0.0
 40
0.1875056254522701
 40
0.3750112707687587
 40
0.5625168492244162
 40
0.7500225590950498
 40
0.9375282115215534
 40
1.0
 40
1.0
 40
1.0
 40
1.0
 10
89.28068236346006
 20
220.8328470225861
 30
0.0
 10
89.28068236346006
 20
220.5910426070744
 30
0.0
 10
89.28068236346006
 20
220.1074337504344
 30
0.0
 10
89.28068236346006
 20
219.3008141040331
 30
0.0
 10
89.28068236346007
 20
218.5805634674581
 30
0.0
 10
89.28068236346007
 20
218.0688756597816
 30
0.0
 10
89.28068236346007
 20
217.8198759635155
 30
0.0
 10
89.28068236346009
 20
217.8575472672622
 30
0.0
 10
89.28068236346007
 20
217.8669616916632
 30
0.0
  0
LINE
  5
2F5
330
1F
100
AcDbEntity
  8
0
  6
Continuous
 62
     7
370
     0
100
AcDbLine
 10
89.2806823635
 20
220.8328470226
 30
0.0
 11
91.7806818419
 21
221.0078469581
 31
0.0
  0
LINE
  5
2F6
330
1F
100
AcDbEntity
  8
0
  6
Continuous
 62
     7
370
     0
100
AcDbLine
 10
91.7806818419
 20
221.0078469581
 30
0.0
 11
91.7806818419
 21
217.482847009
 31
0.0
  0
LINE
  5
2F7
330
1F
100
AcDbEntity
  8
0
  6
Continuous
 62
     7
370
     0
100
AcDbLine
 10
86.780682885
 20
220.8328470226
 30
0.0
 11
86.780682885
 21
221.8328470701
 31
0.0
  0
LINE
  5
2F8
330
1F
100
AcDbEntity
  8
0
  6
Continuous
 62
     7
370
     0
100
AcDbLine
 10
89.2806823635
 20
222.1828469412
 30
0.0
 11
89.2806823635
 21
221.0078469581
 31
0.0
  0
LINE
  5
2F9
330
1F
100
AcDbEntity
  8
0
  6
Continuous
 62
     7
370
     0
100
AcDbLine
 10
91.7806818419
 20
222.1828469412
 30
0.0
 11
91.7806818419
 21
221.0078469581
 31
0.0
  0
SPLINE
  5
2FA
330
1F
100
AcDbEntity
  8
0
  6
Continuous
 62
     7
370
     0
100
AcDbSpline
210
0.0
220
0.0
230
1.0
 70
    24
 71
     3
 72
    10
 73
     6
 74
     0
 42
0.00000001
 43
0.00000001
 12
1.0
 22
0.0
 32
0.0
 13
1.0
 23
0.0
 33
0.0
 40
0.0
 40
0.0
 40
0.0
 40
0.0
 40
0.307276962652599
 40
0.703744274079173
 40
1.0
 40
1.0
 40
1.0
 40
1.0
 10
97.58068223381996
 20
223.3400508632367
 30
0.0
 10
97.58068223381996
 20
223.4327911091742
 30
0.0
 10
97.58068223381997
 20
223.6451904263627
 30
0.0
 10
97.58068223381997
 20
223.8081315025632
 30
0.0
 10
97.58068223381999
 20
223.815256823212
 30
0.0
 10
97.58068223381999
 20
223.8183040974146
 30
0.0
  0
SPLINE
  5
2FB
330
1F
100
AcDbEntity
  8
0
  6
Continuous
 62
     7
370
     0
100
AcDbSpline
210
0.0
220
0.0
230
1.0
 70
    24
 71
     3
 72
    11
 73
     7
 74
     0
 42
0.00000001
 43
0.00000001
 12
1.0
 22
0.0
 32
0.0
 13
1.0
 23
0.0
 33
0.0
 40
0.0
 40
0.0
 40
0.0
 40
0.0
 40
0.09620861924834
 40
0.4768380075789005
 40
0.8574673905945785
 40
1.0
 40
1.0
 40
1.0
 40
1.0
 10
97.58068223381999
 20
215.8473898527628
 30
0.0
 10
97.58068223381997
 20
215.8429712762227
 30
0.0
 10
97.58068223381997
 20
215.8210715207728
 30
0.0
 10
97.58068223381997
 20
215.9416510803934
 30
0.0
 10
97.58068223381996
 20
216.1234338364319
 30
0.0
 10
97.58068223381996
 20
216.3162214645219
 30
0.0
 10
97.58068223381996
 20
216.3687453941857
 30
0.0
  0
SPLINE
  5
2FC
330
1F
100
AcDbEntity
  8
0
  6
Continuous
 62
     7
370
     0
100
AcDbSpline
210
0.0
220
0.0
230
1.0
 70
    24
 71
     3
 72
    23
 73
    19
 74
     0
 42
0.00000001
 43
0.00000001
 12
1.0
 22
0.0
 32
0.0
 13
1.0
 23
0.0
 33
0.0
 40
0.0
 40
0.0
 40
0.0
 40
0.0
 40
0.0562830837567299
 40
0.1196702758383595
 40
0.1830574903592606
 40
0.2464447352926937
 40
0.3098319391878747
 40
0.3732191708805399
 40
0.4366063854757589
 40
0.4999936081516956
 40
0.5633808308276327
 40
0.6267680454228517
 40
0.6901552771155169
 40
0.753542481010698
 40
0.816929725944131
 40
0.8803169404650322
 40
0.9437041325466619
 40
1.0
 40
1.0
 40
1.0
 40
1.0
 10
110.3806823761261
 20
215.8414610532528
 30
0.0
 10
110.3806823761261
 20
215.8552068788281
 30
0.0
 10
110.3806823761261
 20
215.8844335421243
 30
0.0
 10
110.380682376126
 20
216.1159091159851
 30
0.0
 10
110.380682376126
 20
216.4848858116407
 30
0.0
 10
110.380682376126
 20
216.9863594525281
 30
0.0
 10
110.380682376126
 20
217.5961948101135
 30
0.0
 10
110.380682376126
 20
218.2922579353635
 30
0.0
 10
110.380682376126
 20
219.0474523296189
 30
0.0
 10
110.380682376126
 20
219.832846975475
 30
0.0
 10
110.380682376126
 20
220.6182416190132
 30
0.0
 10
110.380682376126
 20
221.3734360202221
 30
0.0
 10
110.380682376126
 20
222.0694991199762
 30
0.0
 10
110.380682376126
 20
222.6793345725915
 30
0.0
 10
110.380682376126
 20
223.1808078588549
 30
0.0
 10
110.3806823761261
 20
223.5497858779762
 30
0.0
 10
110.3806823761261
 20
223.7812728617306
 30
0.0
 10
110.3806823761261
 20
223.8105003816735
 30
0.0
 10
110.3806823761261
 20
223.8242482637471
 30
0.0
  0
LINE
  5
2FD
330
1F
100
AcDbEntity
  8
0
  6
Continuous
 62
     7
370
     0
100
AcDbLine
 10
97.5806822338
 20
223.8328471651
 30
0.0
 11
97.5806822338
 21
223.3029215933
 31
0.0
  0
LINE
  5
2FE
330
1F
100
AcDbEntity
  8
0
  6
Continuous
 62
     7
370
     0
100
AcDbLine
 10
97.5806822338
 20
222.7978804951
 30
0.0
 11
96.7806821958
 21
222.7978804951
 31
0.0
  0
LINE
  5
2FF
330
1F
100
AcDbEntity
  8
0
  6
Continuous
 62
     7
370
     0
100
AcDbLine
 10
96.7806821958
 20
222.7978804951
 30
0.0
 11
96.7806821958
 21
223.8328471651
 31
0.0
  0
LINE
  5
300
330
1F
100
AcDbEntity
  8
0
  6
Continuous
 62
     7
370
     0
100
AcDbLine
 10
109.5806823381
 20
215.8328467851
 30
0.0
 11
110.3806823761
 21
215.8328467851
 31
0.0
  0
LINE
  5
301
330
1F
100
AcDbEntity
  8
0
  6
Continuous
 62
     7
370
     0
100
AcDbLine
 10
110.3806823761
 20
223.8328471651
 30
0.0
 11
109.5806823381
 21
223.8328471651
 31
0.0
  0
SPLINE
  5
302
330
1F
100
AcDbEntity
  8
0
  6
Continuous
 62
     7
370
     0
100
AcDbSpline
210
0.0
220
0.0
230
1.0
 70
    24
 71
     3
 72
    13
 73
     9
 74
     0
 42
0.00000001
 43
0.00000001
 12
1.0
 22
0.0
 32
0.0
 13
1.0
 23
0.0
 33
0.0
 40
0.0
 40
0.0
 40
0.0
 40
0.0
 40
0.0272476328947291
 40
0.2226205471920654
 40
0.4179934587613305
 40
0.6133664745516544
 40
0.8087394409444415
 40
1.0
 40
1.0
 40
1.0
 40
1.0
 10
96.78068219582202
 20
215.8430713099843
 30
0.0
 10
96.78068219582201
 20
215.8409069917766
 30
0.0
 10
96.78068219582201
 20
215.8232239253044
 30
0.0
 10
96.78068219582201
 20
215.9375386978985
 30
0.0
 10
96.780682195822
 20
216.1916038512354
 30
0.0
 10
96.780682195822
 20
216.602084264287
 30
0.0
 10
96.78068219582198
 20
217.1230243807018
 30
0.0
 10
96.78068219582198
 20
217.5523602284531
 30
0.0
 10
96.78068219582198
 20
217.7647448481476
 30
0.0
  0
SPLINE
  5
303
330
1F
100
AcDbEntity
  8
0
  6
Continuous
 62
     7
370
     0
100
AcDbSpline
210
0.0
220
0.0
230
1.0
 70
    24
 71
     3
 72
    13
 73
     9
 74
     0
 42
0.00000001
 43
0.00000001
 12
1.0
 22
0.0
 32
0.0
 13
1.0
 23
0.0
 33
0.0
 40
0.0
 40
0.0
 40
0.0
 40
0.0
 40
0.1672854398519634
 40
0.3537549365580416
 40
0.5402244307888434
 40
0.7266939128002183
 40
0.9131634024412753
 40
1.0
 40
1.0
 40
1.0
 40
1.0
 10
96.78068219582198
 20
217.8509492298072
 30
0.0
 10
96.78068219582198
 20
218.0595128183514
 30
0.0
 10
96.78068219582198
 20
218.5005577718097
 30
0.0
 10
96.78068219582198
 20
219.244910603655
 30
0.0
 10
96.78068219582198
 20
220.0326486918542
 30
0.0
 10
96.78068219582198
 20
220.8101713603481
 30
0.0
 10
96.78068219582198
 20
221.431323559206
 30
0.0
 10
96.78068219582198
 20
221.7550048810354
 30
0.0
 10
96.78068219582198
 20
221.8578470276153
 30
0.0
  0
SPLINE
  5
304
330
1F
100
AcDbEntity
  8
0
  6
Continuous
 62
     7
370
     0
100
AcDbSpline
210
0.0
220
0.0
230
1.0
 70
    24
 71
     3
 72
     9
 73
     5
 74
     0
 42
0.00000001
 43
0.00000001
 12
1.0
 22
0.0
 32
0.0
 13
1.0
 23
0.0
 33
0.0
 40
0.0
 40
0.0
 40
0.0
 40
0.0
 40
0.3198250167969044
 40
1.0
 40
1.0
 40
1.0
 40
1.0
 10
96.78068219582198
 20
221.9009491020298
 30
0.0
 10
96.78068219582198
 20
222.0086340924769
 30
0.0
 10
96.78068219582198
 20
222.3453338026046
 30
0.0
 10
96.78068219582198
 20
222.6146787797774
 30
0.0
 10
96.780682195822
 20
222.7978804951018
 30
0.0
  0
SPLINE
  5
305
330
1F
100
AcDbEntity
  8
0
  6
Continuous
 62
     7
370
     0
100
AcDbSpline
210
0.0
220
0.0
230
1.0
 70
    24
 71
     3
 72
    11
 73
     7
 74
     0
 42
0.00000001
 43
0.00000001
 12
1.0
 22
0.0
 32
0.0
 13
1.0
 23
0.0
 33
0.0
 40
0.0
 40
0.0
 40
0.0
 40
0.0
 40
0.2750390894125809
 40
0.5500780239704903
 40
0.82511705877476
 40
1.0
 40
1.0
 40
1.0
 40
1.0
 10
96.780682195822
 20
222.7978804951018
 30
0.0
 10
96.780682195822
 20
222.9628980425744
 30
0.0
 10
96.780682195822
 20
223.2929330446101
 30
0.0
 10
96.78068219582201
 20
223.6186000889464
 30
0.0
 10
96.78068219582201
 20
223.8047823893051
 30
0.0
 10
96.78068219582201
 20
223.8114618983337
 30
0.0
 10
96.78068219582202
 20
223.8140581977969
 30
0.0
  0
SPLINE
  5
306
330
1F
100
AcDbEntity
  8
0
  6
Continuous
 62
     7
370
     0
100
AcDbSpline
210
0.0
220
0.0
230
1.0
 70
    24
 71
     3
 72
    10
 73
     6
 74
     0
 42
0.00000001
 43
0.00000001
 12
1.0
 22
0.0
 32
0.0
 13
1.0
 23
0.0
 33
0.0
 40
0.0
 40
0.0
 40
0.0
 40
0.0
 40
0.3807988904184075
 40
0.7615974001235989
 40
1.0
 40
1.0
 40
1.0
 40
1.0
 10
109.5806823381281
 20
215.8328467850989
 30
0.0
 10
109.5806823381281
 20
215.8487988069168
 30
0.0
 10
109.5806823381281
 20
215.8807028346041
 30
0.0
 10
109.5806823381281
 20
216.0749218305239
 30
0.0
 10
109.5806823381281
 20
216.287066291461
 30
0.0
 10
109.5806823381281
 20
216.3687453941857
 30
0.0
  0
SPLINE
  5
307
330
1F
100
AcDbEntity
  8
0
  6
Continuous
 62
     7
370
     0
100
AcDbSpline
210
0.0
220
0.0
230
1.0
 70
    24
 71
     3
 72
    10
 73
     6
 74
     0
 42
0.00000001
 43
0.00000001
 12
1.0
 22
0.0
 32
0.0
 13
1.0
 23
0.0
 33
0.0
 40
0.0
 40
0.0
 40
0.0
 40
0.0
 40
0.2384025998764012
 40
0.6192011095815926
 40
1.0
 40
1.0
 40
1.0
 40
1.0
 10
109.5806823381281
 20
223.2969485559916
 30
0.0
 10
109.5806823381281
 20
223.3786276587164
 30
0.0
 10
109.5806823381281
 20
223.5907721196535
 30
0.0
 10
109.5806823381281
 20
223.7849911155732
 30
0.0
 10
109.5806823381281
 20
223.8168951432606
 30
0.0
 10
109.5806823381281
 20
223.8328471650785
 30
0.0
  0
LINE
  5
308
330
1F
100
AcDbEntity
  8
0
  6
Continuous
 62
     7
370
     0
100
AcDbLine
 10
109.5806823381
 20
215.8328467851
 30
0.0
 11
109.5806823381
 21
216.3383416702
 31
0.0
  0
LINE
  5
309
330
1F
100
AcDbEntity
  8
0
  6
Continuous
 62
     7
370
     0
100
AcDbLine
 10
109.5806823381
 20
223.296948556
 30
0.0
 11
109.5806823381
 21
223.8328471651
 31
0.0
  0
LINE
  5
30A
330
1F
100
AcDbEntity
  8
0
  6
Continuous
 62
     7
370
     0
100
AcDbLine
 10
97.5806822338
 20
216.3310366088
 30
0.0
 11
97.5806822338
 21
215.8328467851
 31
0.0
  0
LINE
  5
30B
330
1F
100
AcDbEntity
  8
0
  6
Continuous
 62
     7
370
     0
100
AcDbLine
 10
96.7806821958
 20
221.8338282184
 30
0.0
 11
96.7806821958
 21
222.7978804951
 31
0.0
  0
LINE
  5
30C
330
1F
100
AcDbEntity
  8
0
  6
Continuous
 62
     7
370
     0
100
AcDbLine
 10
112.8806823202
 20
221.8578470276
 30
0.0
 11
112.8806823202
 21
223.8828470801
 31
0.0
  0
LINE
  5
30D
330
1F
100
AcDbEntity
  8
0
  6
Continuous
 62
     7
370
     0
100
AcDbLine
 10
112.8806823202
 20
217.8078469226
 30
0.0
 11
112.8806823202
 21
221.8578470276
 31
0.0
  0
LINE
  5
30E
330
1F
100
AcDbEntity
  8
0
  6
Continuous
 62
     7
370
     0
100
AcDbLine
 10
112.8806823202
 20
215.78284687
 30
0.0
 11
112.8806823202
 21
217.8078469226
 31
0.0
  0
LINE
  5
30F
330
1F
100
AcDbEntity
  8
0
  6
Continuous
 62
     7
370
     0
100
AcDbLine
 10
112.8806823202
 20
223.8828470801
 30
0.0
 11
110.3806823761
 21
223.8828470801
 31
0.0
  0
LINE
  5
310
330
1F
100
AcDbEntity
  8
0
  6
Continuous
 62
     7
370
     0
100
AcDbLine
 10
112.8806823202
 20
221.8578470276
 30
0.0
 11
110.3806823761
 21
221.8578470276
 31
0.0
  0
LINE
  5
311
330
1F
100
AcDbEntity
  8
0
  6
Continuous
 62
     7
370
     0
100
AcDbLine
 10
110.3806823761
 20
221.8578470276
 30
0.0
 11
110.3806823761
 21
223.8828470801
 31
0.0
  0
LINE
  5
312
330
1F
100
AcDbEntity
  8
0
  6
Continuous
 62
     7
370
     0
100
AcDbLine
 10
112.8806823202
 20
223.8828470801
 30
0.0
 11
112.8806823202
 21
221.8578470276
 31
0.0
  0
LINE
  5
313
330
1F
100
AcDbEntity
  8
0
  6
Continuous
 62
     7
370
     0
100
AcDbLine
 10
112.8806823202
 20
217.8078469226
 30
0.0
 11
110.3806823761
 21
217.8078469226
 31
0.0
  0
LINE
  5
314
330
1F
100
AcDbEntity
  8
0
  6
Continuous
 62
     7
370
     0
100
AcDbLine
 10
110.3806823761
 20
217.8078469226
 30
0.0
 11
110.3806823761
 21
221.8578470276
 31
0.0
  0
LINE
  5
315
330
1F
100
AcDbEntity
  8
0
  6
Continuous
 62
     7
370
     0
100
AcDbLine
 10
112.8806823202
 20
215.78284687
 30
0.0
 11
110.3806823761
 21
215.78284687
 31
0.0
  0
LINE
  5
316
330
1F
100
AcDbEntity
  8
0
  6
Continuous
 62
     7
370
     0
100
AcDbLine
 10
110.3806823761
 20
215.78284687
 30
0.0
 11
110.3806823761
 21
217.8078469226
 31
0.0
  0
LINE
  5
317
330
1F
100
AcDbEntity
  8
0
  6
Continuous
 62
     7
370
     0
100
AcDbLine
 10
112.8806823202
 20
217.8078469226
 30
0.0
 11
112.8806823202
 21
215.78284687
 31
0.0
  0
LINE
  5
318
330
1F
100
AcDbEntity
  8
0
  6
Continuous
 62
     7
370
     0
100
AcDbLine
 10
110.3806823761
 20
221.8578470276
 30
0.0
 11
110.3806823761
 21
221.9088215718
 31
0.0
  0
LINE
  5
319
330
1F
100
AcDbEntity
  8
0
  6
Continuous
 62
     7
370
     0
100
AcDbLine
 10
110.3806823761
 20
223.8328471651
 30
0.0
 11
110.3806823761
 21
223.8828470801
 31
0.0
  0
LINE
  5
31A
330
1F
100
AcDbEntity
  8
0
  6
Continuous
 62
     7
370
     0
100
AcDbLine
 10
110.3806823761
 20
215.78284687
 30
0.0
 11
110.3806823761
 21
215.8328467851
 31
0.0
  0
LINE
  5
31B
330
1F
100
AcDbEntity
  8
0
  6
Continuous
 62
     7
370
     0
100
AcDbLine
 10
110.3806823761
 20
217.7568723784
 30
0.0
 11
110.3806823761
 21
217.8078469226
 31
0.0
  0
INSERT
  5
327
330
1F
100
AcDbEntity
  8
0
  6
Continuous
 62
     7
370
     0
100
AcDbBlockReference
  2
SW_CENTERMARKSYMBOL_0
 10
103.580682286
 20
219.8328469751
 30
0.0
  0
ENDSEC
  0
SECTION
  2
OBJECTS
  0
DICTIONARY
  5
C
330
0
100
AcDbDictionary
281
     1
  3
ACAD_GROUP
350
D
  3
ACAD_LAYOUT
350
1A
  3
ACAD_MLINESTYLE
350
17
  3
ACAD_PLOTSETTINGS
350
19
  3
ACAD_PLOTSTYLENAME
350
E
  0
DICTIONARY
  5
D
102
{ACAD_REACTORS
330
C
102
}
330
C
100
AcDbDictionary
281
     1
  0
DICTIONARY
  5
1A
102
{ACAD_REACTORS
330
C
102
}
330
C
100
AcDbDictionary
281
     1
  3
Layout1
350
1E
  3
Layout2
350
26
  3
Model
350
22
  0
DICTIONARY
  5
17
102
{ACAD_REACTORS
330
C
102
}
330
C
100
AcDbDictionary
281
     1
  3
Standard
350
18
  0
DICTIONARY
  5
19
102
{ACAD_REACTORS
330
C
102
}
330
C
100
AcDbDictionary
281
     1
  0
ACDBDICTIONARYWDFLT
  5
E
102
{ACAD_REACTORS
330
C
102
}
330
C
100
AcDbDictionary
281
     1
  3
Normal
350
F
100
AcDbDictionaryWithDefault
340
F
  0
LAYOUT
  5
1E
102
{ACAD_REACTORS
330
1A
102
}
330
1A
100
AcDbPlotSettings
  1

  2
none_device
  4

  6

 40
0.0
 41
0.0
 42
0.0
 43
0.0
 44
0.0
 45
0.0
 46
0.0
 47
0.0
 48
0.0
 49
0.0
140
0.0
141
0.0
142
1.0
143
1.0
 70
   688
 72
     0
 73
     0
 74
     5
  7

 75
    16
147
1.0
148
0.0
149
0.0
100
AcDbLayout
  1
Layout1
 70
     1
 71
     1
 10
0.0
 20
0.0
 11
420.0
 21
297.0
 12
0.0
 22
0.0
 32
0.0
 14
1.0000000000E+20
 24
1.0000000000E+20
 34
1.0000000000E+20
 15
-1.0000000000E+20
 25
-1.0000000000E+20
 35
-1.0000000000E+20
146
0.0
 13
0.0
 23
0.0
 33
0.0
 16
1.0
 26
0.0
 36
0.0
 17
0.0
 27
1.0
 37
0.0
 76
     0
330
1B
  0
LAYOUT
  5
26
102
{ACAD_REACTORS
330
1A
102
}
330
1A
100
AcDbPlotSettings
  1

  2
none_device
  4

  6

 40
0.0
 41
0.0
 42
0.0
 43
0.0
 44
0.0
 45
0.0
 46
0.0
 47
0.0
 48
0.0
 49
0.0
140
0.0
141
0.0
142
1.0
143
1.0
 70
   688
 72
     0
 73
     0
 74
     5
  7

 75
    16
147
1.0
148
0.0
149
0.0
100
AcDbLayout
  1
Layout2
 70
     1
 71
     2
 10
0.0
 20
0.0
 11
0.0
 21
0.0
 12
0.0
 22
0.0
 32
0.0
 14
0.0
 24
0.0
 34
0.0
 15
0.0
 25
0.0
 35
0.0
146
0.0
 13
0.0
 23
0.0
 33
0.0
 16
1.0
 26
0.0
 36
0.0
 17
0.0
 27
1.0
 37
0.0
 76
     0
330
23
  0
LAYOUT
  5
22
102
{ACAD_REACTORS
330
1A
102
}
330
1A
100
AcDbPlotSettings
  1

  2
none_device
  4

  6

 40
0.0
 41
0.0
 42
0.0
 43
0.0
 44
0.0
 45
0.0
 46
0.0
 47
0.0
 48
0.0
 49
0.0
140
0.0
141
0.0
142
1.0
143
1.0
 70
  1712
 72
     0
 73
     0
 74
     0
  7

 75
     0
147
1.0
148
0.0
149
0.0
100
AcDbLayout
  1
Model
 70
     1
 71
     0
 10
0.0
 20
0.0
 11
210.0
 21
297.0
 12
0.0
 22
0.0
 32
0.0
 14
0.0
 24
0.0
 34
0.0
 15
210.0
 25
297.0
 35
0.0
146
0.0
 13
0.0
 23
0.0
 33
0.0
 16
1.0
 26
0.0
 36
0.0
 17
0.0
 27
1.0
 37
0.0
 76
     0
330
1F
331
29
  0
MLINESTYLE
  5
18
102
{ACAD_REACTORS
330
17
102
}
330
17
100
AcDbMlineStyle
  2
Standard
 70
     0
  3

 62
   256
 51
90.0
 52
90.0
 71
     2
 49
0.5
 62
   256
  6
BYLAYER
 49
-0.5
 62
   256
  6
BYLAYER
  0
ACDBPLACEHOLDER
  5
F
102
{ACAD_REACTORS
330
E
102
}
330
E
  0
ENDSEC
  0
EOF
