  0
SECTION
  2
HEADER
  9
$ACADVER
  1
AC1015
  9
$ACADMAINTVER
 70
     6
  9
$DWGCODEPAGE
  3
DOS932
  9
$INSBASE
 10
0.0
 20
0.0
 30
0.0
  9
$EXTMIN
 10
0.0
 20
0.0
 30
0.0
  9
$EXTMAX
 10
210.0
 20
297.0
 30
0.0
  9
$LIMMIN
 10
0.0
 20
0.0
  9
$LIMMAX
 10
210.0
 20
297.0
  9
$ORTHOMODE
 70
     0
  9
$REGENMODE
 70
     1
  9
$FILLMODE
 70
     1
  9
$QTEXTMODE
 70
     0
  9
$MIRRTEXT
 70
     1
  9
$LTSCALE
 40
1.0
  9
$ATTMODE
 70
     1
  9
$TEXTSIZE
 40
3.5
  9
$TRACEWID
 40
1.0
  9
$TEXTSTYLE
  7
Standard
  9
$CLAYER
  8
0
  9
$CELTYPE
  6
ByLayer
  9
$CECOLOR
 62
   256
  9
$CELTSCALE
 40
1.0
  9
$DISPSILH
 70
     0
  9
$DIMSCALE
 40
1.0
  9
$DIMASZ
 40
3.302
  9
$DIMEXO
 40
1.0
  9
$DIMDLI
 40
3.75
  9
$DIMRND
 40
0.0
  9
$DIMDLE
 40
0.0
  9
$DIMEXE
 40
1.0
  9
$DIMTP
 40
0.0
  9
$DIMTM
 40
0.0
  9
$DIMTXT
 40
3.5
  9
$DIMCEN
 40
2.5
  9
$DIMTSZ
 40
0.0
  9
$DIMTOL
 70
     0
  9
$DIMLIM
 70
     0
  9
$DIMTIH
 70
     1
  9
$DIMTOH
 70
     1
  9
$DIMSE1
 70
     0
  9
$DIMSE2
 70
     0
  9
$DIMTAD
 70
     1
  9
$DIMZIN
 70
     0
  9
$DIMBLK
  1

  9
$DIMASO
 70
     1
  9
$DIMSHO
 70
     1
  9
$DIMPOST
  1

  9
$DIMAPOST
  1

  9
$DIMALT
 70
     0
  9
$DIMALTD
 70
     3
  9
$DIMALTF
 40
0.0393700787
  9
$DIMLFAC
 40
1.0
  9
$DIMTOFL
 70
     1
  9
$DIMTVP
 40
0.0
  9
$DIMTIX
 70
     0
  9
$DIMSOXD
 70
     0
  9
$DIMSAH
 70
     0
  9
$DIMBLK1
  1

  9
$DIMBLK2
  1

  9
$DIMSTYLE
  2
ISO-25
  9
$DIMCLRD
 70
     0
  9
$DIMCLRE
 70
     0
  9
$DIMCLRT
 70
     0
  9
$DIMTFAC
 40
1.0
  9
$DIMGAP
 40
1.524
  9
$DIMJUST
 70
     0
  9
$DIMSD1
 70
     0
  9
$DIMSD2
 70
     0
  9
$DIMTOLJ
 70
     0
  9
$DIMTZIN
 70
     0
  9
$DIMALTZ
 70
     0
  9
$DIMALTTZ
 70
     0
  9
$DIMUPT
 70
     0
  9
$DIMDEC
 70
     2
  9
$DIMTDEC
 70
     2
  9
$DIMALTU
 70
     2
  9
$DIMALTTD
 70
     3
  9
$DIMTXSTY
  7
Standard
  9
$DIMAUNIT
 70
     0
  9
$DIMADEC
 70
     2
  9
$DIMALTRND
 40
0.0
  9
$DIMAZIN
 70
     0
  9
$DIMDSEP
 70
    44
  9
$DIMATFIT
 70
     3
  9
$DIMFRAC
 70
     0
  9
$DIMLDRBLK
  1

  9
$DIMLUNIT
 70
     2
  9
$DIMLWD
 70
    -2
  9
$DIMLWE
 70
    -2
  9
$DIMTMOVE
 70
     0
  9
$LUNITS
 70
     2
  9
$LUPREC
 70
     2
  9
$SKETCHINC
 40
1.0
  9
$FILLETRAD
 40
10.0
  9
$AUNITS
 70
     0
  9
$AUPREC
 70
     2
  9
$MENU
  1
.
  9
$ELEVATION
 40
0.0
  9
$PELEVATION
 40
0.0
  9
$THICKNESS
 40
0.0
  9
$LIMCHECK
 70
     0
  9
$CHAMFERA
 40
10.0
  9
$CHAMFERB
 40
10.0
  9
$CHAMFERC
 40
20.0
  9
$CHAMFERD
 40
0.0
  9
$SKPOLY
 70
     0
  9
$TDCREATE
 40
2456834.698641065
  9
$TDUCREATE
 40
2456834.323641065
  9
$TDUPDATE
 40
2456834.698650995
  9
$TDUUPDATE
 40
2456834.323650995
  9
$TDINDWG
 40
0.0000000116
  9
$TDUSRTIMER
 40
0.0000000116
  9
$USRTIMER
 70
     1
  9
$ANGBASE
 50
0.0
  9
$ANGDIR
 70
     0
  9
$PDMODE
 70
     0
  9
$PDSIZE
 40
-1.0
  9
$PLINEWID
 40
0.0
  9
$SPLFRAME
 70
     0
  9
$SPLINETYPE
 70
     6
  9
$SPLINESEGS
 70
     8
  9
$HANDSEED
  5
195
  9
$SURFTAB1
 70
     6
  9
$SURFTAB2
 70
     6
  9
$SURFTYPE
 70
     6
  9
$SURFU
 70
     6
  9
$SURFV
 70
     6
  9
$UCSBASE
  2

  9
$UCSNAME
  2

  9
$UCSORG
 10
0.0
 20
0.0
 30
0.0
  9
$UCSXDIR
 10
1.0
 20
0.0
 30
0.0
  9
$UCSYDIR
 10
0.0
 20
1.0
 30
0.0
  9
$UCSORTHOREF
  2

  9
$UCSORTHOVIEW
 70
     0
  9
$UCSORGTOP
 10
0.0
 20
0.0
 30
0.0
  9
$UCSORGBOTTOM
 10
0.0
 20
0.0
 30
0.0
  9
$UCSORGLEFT
 10
0.0
 20
0.0
 30
0.0
  9
$UCSORGRIGHT
 10
0.0
 20
0.0
 30
0.0
  9
$UCSORGFRONT
 10
0.0
 20
0.0
 30
0.0
  9
$UCSORGBACK
 10
0.0
 20
0.0
 30
0.0
  9
$PUCSBASE
  2

  9
$PUCSNAME
  2

  9
$PUCSORG
 10
0.0
 20
0.0
 30
0.0
  9
$PUCSXDIR
 10
1.0
 20
0.0
 30
0.0
  9
$PUCSYDIR
 10
0.0
 20
1.0
 30
0.0
  9
$PUCSORTHOREF
  2

  9
$PUCSORTHOVIEW
 70
     0
  9
$PUCSORGTOP
 10
0.0
 20
0.0
 30
0.0
  9
$PUCSORGBOTTOM
 10
0.0
 20
0.0
 30
0.0
  9
$PUCSORGLEFT
 10
0.0
 20
0.0
 30
0.0
  9
$PUCSORGRIGHT
 10
0.0
 20
0.0
 30
0.0
  9
$PUCSORGFRONT
 10
0.0
 20
0.0
 30
0.0
  9
$PUCSORGBACK
 10
0.0
 20
0.0
 30
0.0
  9
$USERI1
 70
     0
  9
$USERI2
 70
     0
  9
$USERI3
 70
     0
  9
$USERI4
 70
     0
  9
$USERI5
 70
     0
  9
$USERR1
 40
0.0
  9
$USERR2
 40
0.0
  9
$USERR3
 40
0.0
  9
$USERR4
 40
0.0
  9
$USERR5
 40
0.0
  9
$WORLDVIEW
 70
     1
  9
$SHADEDGE
 70
     3
  9
$SHADEDIF
 70
    70
  9
$TILEMODE
 70
     1
  9
$MAXACTVP
 70
    64
  9
$PINSBASE
 10
0.0
 20
0.0
 30
0.0
  9
$PLIMCHECK
 70
     0
  9
$PEXTMIN
 10
1.0000000000E+20
 20
1.0000000000E+20
 30
1.0000000000E+20
  9
$PEXTMAX
 10
-1.0000000000E+20
 20
-1.0000000000E+20
 30
-1.0000000000E+20
  9
$PLIMMIN
 10
0.0
 20
0.0
  9
$PLIMMAX
 10
420.0
 20
297.0
  9
$UNITMODE
 70
     0
  9
$VISRETAIN
 70
     1
  9
$PLINEGEN
 70
     0
  9
$PSLTSCALE
 70
     1
  9
$TREEDEPTH
 70
  3020
  9
$CMLSTYLE
  2
Standard
  9
$CMLJUST
 70
     0
  9
$CMLSCALE
 40
20.0
  9
$PROXYGRAPHICS
 70
     1
  9
$MEASUREMENT
 70
     1
  9
$CELWEIGHT
370
    -1
  9
$ENDCAPS
280
     0
  9
$JOINSTYLE
280
     0
  9
$LWDISPLAY
290
     1
  9
$INSUNITS
 70
     4
  9
$HYPERLINKBASE
  1

  9
$STYLESHEET
  1

  9
$XEDIT
290
     1
  9
$CEPSNTYPE
380
     0
  9
$PSTYLEMODE
290
     1
  9
$FINGERPRINTGUID
  2
{11AA36A8-46E8-4C05-92B3-6E55894050E2}
  9
$VERSIONGUID
  2
{FAEB1C32-E019-11D5-929B-00C0DF256EC4}
  9
$EXTNAMES
290
     1
  9
$PSVPSCALE
 40
0.0
  9
$OLESTARTUP
290
     0
  0
ENDSEC
  0
SECTION
  2
CLASSES
  0
CLASS
  1
ACDBDICTIONARYWDFLT
  2
AcDbDictionaryWithDefault
  3
ObjectDBX Classes
 90
        0
280
     0
281
     0
  0
CLASS
  1
VISUALSTYLE
  2
AcDbVisualStyle
  3
ObjectDBX Classes
 90
     4095
280
     0
281
     0
  0
CLASS
  1
MATERIAL
  2
AcDbMaterial
  3
ObjectDBX Classes
 90
     1153
280
     0
281
     0
  0
CLASS
  1
ACDBPLACEHOLDER
  2
AcDbPlaceHolder
  3
ObjectDBX Classes
 90
        0
280
     0
281
     0
  0
CLASS
  1
LAYOUT
  2
AcDbLayout
  3
ObjectDBX Classes
 90
        0
280
     0
281
     0
  0
ENDSEC
  0
SECTION
  2
TABLES
  0
TABLE
  2
VPORT
  5
8
330
0
100
AcDbSymbolTable
 70
     1
  0
VPORT
  5
29
330
8
100
AcDbSymbolTableRecord
100
AcDbViewportTableRecord
  2
*Active
 70
     0
 10
0.0
 20
0.0
 11
1.0
 21
1.0
 12
105.0
 22
148.5
 13
0.0
 23
0.0
 14
10.0
 24
10.0
 15
10.0
 25
10.0
 16
0.0
 26
0.0
 36
1.0
 17
0.0
 27
0.0
 37
0.0
 40
297.0
 41
0.7070707071
 42
50.0
 43
0.0
 44
0.0
 50
0.0
 51
0.0
 71
     0
 72
  2000
 73
     1
 74
     3
 75
     0
 76
     0
 77
     0
 78
     0
281
     0
 65
     1
110
0.0
120
0.0
130
0.0
111
1.0
121
0.0
131
0.0
112
0.0
122
1.0
132
0.0
 79
     0
146
0.0
  0
ENDTAB
  0
TABLE
  2
LTYPE
  5
5
330
0
100
AcDbSymbolTable
 70
     6
  0
LTYPE
  5
14
330
5
100
AcDbSymbolTableRecord
100
AcDbLinetypeTableRecord
  2
ByBlock
 70
     0
  3

 72
    65
 73
     0
 40
0.0
  0
LTYPE
  5
15
330
5
100
AcDbSymbolTableRecord
100
AcDbLinetypeTableRecord
  2
ByLayer
 70
     0
  3

 72
    65
 73
     0
 40
0.0
  0
LTYPE
  5
16
330
5
100
AcDbSymbolTableRecord
100
AcDbLinetypeTableRecord
  2
Continuous
 70
     0
  3
Solid line
 72
    65
 73
     0
 40
0.0
  0
LTYPE
  5
3F
330
5
100
AcDbSymbolTableRecord
100
AcDbLinetypeTableRecord
  2
HIDDEN
 70
     0
  3
Hidden __ __ __ __ __ __ __ __ __ __ __ __ __ __
 72
    65
 73
     2
 40
1.905
 49
1.27
 74
     0
 49
-0.635
 74
     0
  0
LTYPE
  5
40
330
5
100
AcDbSymbolTableRecord
100
AcDbLinetypeTableRecord
  2
PHANTOM
 70
     0
  3
Phantom ______  __  __  ______  __  __  ______
 72
    65
 73
     6
 40
12.7
 49
6.35
 74
     0
 49
-1.27
 74
     0
 49
1.27
 74
     0
 49
-1.27
 74
     0
 49
1.27
 74
     0
 49
-1.27
 74
     0
  0
LTYPE
  5
41
330
5
100
AcDbSymbolTableRecord
100
AcDbLinetypeTableRecord
  2
CENTER
 70
     0
  3
Center ____ _ ____ _ ____ _ ____ _ ____ _ ____
 72
    65
 73
     4
 40
10.16
 49
6.35
 74
     0
 49
-1.27
 74
     0
 49
1.27
 74
     0
 49
-1.27
 74
     0
  0
LTYPE
  5
42
330
5
100
AcDbSymbolTableRecord
100
AcDbLinetypeTableRecord
  2
CENTERX2
 70
     0
  3
Center (2x) ________  __  ________  __  _____
 72
    65
 73
     4
 40
20.32
 49
12.7
 74
     0
 49
-2.54
 74
     0
 49
2.54
 74
     0
 49
-2.54
 74
     0
  0
LTYPE
  5
43
330
5
100
AcDbSymbolTableRecord
100
AcDbLinetypeTableRecord
  2
DOT2
 70
     0
  3
Dot (.5x) ........................................
 72
    65
 73
     2
 40
0.635
 49
0.0
 74
     0
 49
-0.635
 74
     0
  0
ENDTAB
  0
TABLE
  2
LAYER
  5
2
330
0
100
AcDbSymbolTable
 70
     1
  0
LAYER
  5
10
330
2
100
AcDbSymbolTableRecord
100
AcDbLayerTableRecord
  2
0
 70
     0
 62
     7
  6
Continuous
370
    -3
390
F
  0
ENDTAB
  0
TABLE
  2
STYLE
  5
3
330
0
100
AcDbSymbolTable
 70
     3
  0
STYLE
  5
11
330
3
100
AcDbSymbolTableRecord
100
AcDbTextStyleTableRecord
  2
Standard
 70
     0
 40
0.0
 41
1.0
 50
0.0
 71
     0
 42
3.5
  3
txt
  4
bigfont
  0
STYLE
  5
4C
330
3
100
AcDbSymbolTableRecord
100
AcDbTextStyleTableRecord
  2
SLDTEXTSTYLE0
 70
     0
 40
0.0
 41
0.7
 50
0.0
 71
     0
 42
0.2
  3
TXT
  4
bigfont
  0
STYLE
  5
91
330
3
100
AcDbSymbolTableRecord
100
AcDbTextStyleTableRecord
  2
SLDTEXTSTYLE1
 70
     0
 40
0.0
 41
0.75
 50
0.0
 71
     0
 42
0.2
  3
TXT
  4
bigfont
  0
ENDTAB
  0
TABLE
  2
VIEW
  5
6
330
0
100
AcDbSymbolTable
 70
     0
  0
ENDTAB
  0
TABLE
  2
UCS
  5
7
330
0
100
AcDbSymbolTable
 70
     0
  0
ENDTAB
  0
TABLE
  2
APPID
  5
9
330
0
100
AcDbSymbolTable
 70
     1
  0
APPID
  5
12
330
9
100
AcDbSymbolTableRecord
100
AcDbRegAppTableRecord
  2
ACAD
 70
     0
  0
ENDTAB
  0
TABLE
  2
DIMSTYLE
  5
A
330
0
100
AcDbSymbolTable
 70
     5
100
AcDbDimStyleTable
  0
DIMSTYLE
105
27
330
A
100
AcDbSymbolTableRecord
100
AcDbDimStyleTableRecord
  2
ISO-25
 70
     0
 41
2.5
 42
0.625
 43
3.75
 44
1.25
 73
     0
 74
     0
 77
     1
 78
     8
140
2.5
141
2.5
143
0.0393700787
147
0.625
171
     3
172
     1
178
     0
271
     2
272
     2
274
     3
278
    44
283
     0
284
     8
340
11
  0
DIMSTYLE
105
92
102
{ACAD_REACTORS
330
90
102
}
330
A
100
AcDbSymbolTableRecord
100
AcDbDimStyleTableRecord
  2
SLDDIMSTYLE0
 70
     0
 41
3.302
 44
0.0
 45
0.000000001
 73
     0
 74
     0
 77
     3
 78
    12
 79
     3
140
3.5
147
0.875
172
     1
173
     1
178
     0
271
     1
272
     1
276
     2
284
    12
289
     0
340
91
  0
DIMSTYLE
105
9F
102
{ACAD_REACTORS
330
9E
330
168
330
17F
330
18A
102
}
330
A
100
AcDbSymbolTableRecord
100
AcDbDimStyleTableRecord
  2
SLDDIMSTYLE1
 70
     0
 41
3.302
 44
0.0
 45
0.000000001
 73
     0
 74
     0
 77
     3
 78
    12
 79
     3
140
3.5
147
0.875
173
     1
178
     0
271
     2
272
     2
276
     2
284
    12
340
91
  0
DIMSTYLE
105
AB
330
A
100
AcDbSymbolTableRecord
100
AcDbDimStyleTableRecord
  2
SLDDIMSTYLE2
 70
     0
 41
3.302
 44
0.0
 45
0.000000001
140
0.0
146
3.302
147
0.0
173
     1
178
     0
271
     0
272
     0
276
     2
340
11
  0
DIMSTYLE
105
142
102
{ACAD_REACTORS
330
141
330
14F
330
15B
330
172
102
}
330
A
100
AcDbSymbolTableRecord
100
AcDbDimStyleTableRecord
  2
SLDDIMSTYLE3
 70
     0
 41
3.302
 44
0.0
 45
0.000000001
 73
     0
 74
     0
 77
     3
 78
    12
 79
     3
140
3.5
147
0.875
172
     1
173
     1
178
     0
271
     2
272
     2
276
     2
284
    12
289
     0
340
91
  0
ENDTAB
  0
TABLE
  2
BLOCK_RECORD
  5
1
330
0
100
AcDbSymbolTable
 70
    11
  0
BLOCK_RECORD
  5
1F
330
1
100
AcDbSymbolTableRecord
100
AcDbBlockTableRecord
  2
*Model_Space
340
22
  0
BLOCK_RECORD
  5
1B
330
1
100
AcDbSymbolTableRecord
100
AcDbBlockTableRecord
  2
*Paper_Space
340
1E
  0
BLOCK_RECORD
  5
23
330
1
100
AcDbSymbolTableRecord
100
AcDbBlockTableRecord
  2
*Paper_Space0
340
26
  0
BLOCK_RECORD
  5
93
330
1
100
AcDbSymbolTableRecord
100
AcDbBlockTableRecord
  2
_D
340
0
  0
BLOCK_RECORD
  5
A0
330
1
100
AcDbSymbolTableRecord
100
AcDbBlockTableRecord
  2
_D_1
340
0
  0
BLOCK_RECORD
  5
AF
330
1
100
AcDbSymbolTableRecord
100
AcDbBlockTableRecord
  2
SW_CENTERMARKSYMBOL_0
340
0
102
{BLKREFS
331
BA
102
}
  0
BLOCK_RECORD
  5
143
330
1
100
AcDbSymbolTableRecord
100
AcDbBlockTableRecord
  2
_D_2
340
0
  0
BLOCK_RECORD
  5
150
330
1
100
AcDbSymbolTableRecord
100
AcDbBlockTableRecord
  2
_D_3
340
0
  0
BLOCK_RECORD
  5
15C
330
1
100
AcDbSymbolTableRecord
100
AcDbBlockTableRecord
  2
_D_4
340
0
  0
BLOCK_RECORD
  5
169
330
1
100
AcDbSymbolTableRecord
100
AcDbBlockTableRecord
  2
_D_5
340
0
  0
BLOCK_RECORD
  5
173
330
1
100
AcDbSymbolTableRecord
100
AcDbBlockTableRecord
  2
_D_6
340
0
  0
BLOCK_RECORD
  5
180
330
1
100
AcDbSymbolTableRecord
100
AcDbBlockTableRecord
  2
_D_7
340
0
  0
BLOCK_RECORD
  5
18B
330
1
100
AcDbSymbolTableRecord
100
AcDbBlockTableRecord
  2
_D_8
340
0
  0
ENDTAB
  0
ENDSEC
  0
SECTION
  2
BLOCKS
  0
BLOCK
  5
20
330
1F
100
AcDbEntity
  8
0
100
AcDbBlockBegin
  2
*Model_Space
 70
     0
 10
0.0
 20
0.0
 30
0.0
  3
*Model_Space
  1

  0
ENDBLK
  5
21
330
1F
100
AcDbEntity
  8
0
100
AcDbBlockEnd
  0
BLOCK
  5
1C
330
1B
100
AcDbEntity
 67
     1
  8
0
100
AcDbBlockBegin
  2
*Paper_Space
 70
     0
 10
0.0
 20
0.0
 30
0.0
  3
*Paper_Space
  1

  0
ENDBLK
  5
1D
330
1B
100
AcDbEntity
 67
     1
  8
0
100
AcDbBlockEnd
  0
BLOCK
  5
24
330
23
100
AcDbEntity
  8
0
100
AcDbBlockBegin
  2
*Paper_Space0
 70
     0
 10
0.0
 20
0.0
 30
0.0
  3
*Paper_Space0
  1

  0
ENDBLK
  5
25
330
23
100
AcDbEntity
  8
0
100
AcDbBlockEnd
  0
BLOCK
  5
94
330
93
100
AcDbEntity
  8
0
100
AcDbBlockBegin
  2
_D
 70
     0
 10
0.0
 20
0.0
 30
0.0
  3
_D
  1

  0
SOLID
  5
96
330
93
100
AcDbEntity
  8
0
  6
Continuous
 62
     7
370
     0
100
AcDbTrace
 10
39.587936694
 20
152.4937631887
 30
0.0
 11
40.337936694
 21
155.4937631887
 31
0.0
 12
38.837936694
 22
155.4937631887
 32
0.0
 13
38.837936694
 23
155.4937631887
 33
0.0
  0
SOLID
  5
97
330
93
100
AcDbEntity
  8
0
  6
Continuous
 62
     7
370
     0
100
AcDbTrace
 10
39.587936694
 20
133.8937631887
 30
0.0
 11
38.837936694
 21
130.8937631887
 31
0.0
 12
40.337936694
 22
130.8937631887
 32
0.0
 13
40.337936694
 23
130.8937631887
 33
0.0
  0
LINE
  5
98
330
93
100
AcDbEntity
  8
0
  6
Continuous
 62
     7
370
     0
100
AcDbLine
 10
52.5379366941
 20
152.4937631887
 30
0.0
 11
38.587936694
 21
152.4937631887
 31
0.0
  0
LINE
  5
99
330
93
100
AcDbEntity
  8
0
  6
Continuous
 62
     7
370
     0
100
AcDbLine
 10
52.537936694
 20
133.8937631887
 30
0.0
 11
38.587936694
 21
133.8937631887
 31
0.0
  0
LINE
  5
9A
330
93
100
AcDbEntity
  8
0
  6
Continuous
 62
     7
370
     0
100
AcDbLine
 10
39.587936694
 20
152.4937631887
 30
0.0
 11
39.587936694
 21
157.4937631887
 31
0.0
  0
LINE
  5
9B
330
93
100
AcDbEntity
  8
0
  6
Continuous
 62
     7
370
     0
100
AcDbLine
 10
39.587936694
 20
152.4937631887
 30
0.0
 11
39.587936694
 21
133.8937631887
 31
0.0
  0
LINE
  5
9C
330
93
100
AcDbEntity
  8
0
  6
Continuous
 62
     7
370
     0
100
AcDbLine
 10
39.587936694
 20
133.8937631887
 30
0.0
 11
39.587936694
 21
128.8937631887
 31
0.0
  0
MTEXT
  5
9D
330
93
100
AcDbEntity
  8
0
  6
Continuous
 62
     7
370
     0
100
AcDbMText
 10
35.0761997794
 20
138.238202771
 30
25.6
 40
3.5
 41
0.0
 71
     1
 72
     1
  1
18.6
  7
SLDTEXTSTYLE1
 11
-7.044195017643634E-15
 21
1.0
 31
0.0
 73
     1
 44
1.0
  0
ENDBLK
  5
95
330
93
100
AcDbEntity
  8
0
100
AcDbBlockEnd
  0
BLOCK
  5
A1
330
A0
100
AcDbEntity
  8
0
100
AcDbBlockBegin
  2
_D_1
 70
     0
 10
0.0
 20
0.0
 30
0.0
  3
_D_1
  1

  0
SOLID
  5
A3
330
A0
100
AcDbEntity
  8
0
  6
Continuous
 62
     7
370
     0
100
AcDbTrace
 10
49.587936694
 20
162.4937631887
 30
0.0
 11
52.587936694
 21
161.7437631887
 31
0.0
 12
52.587936694
 22
163.2437631887
 32
0.0
 13
52.587936694
 23
163.2437631887
 33
0.0
  0
SOLID
  5
A4
330
A0
100
AcDbEntity
  8
0
  6
Continuous
 62
     7
370
     0
100
AcDbTrace
 10
65.587936694
 20
162.4937631887
 30
0.0
 11
62.587936694
 21
163.2437631887
 31
0.0
 12
62.587936694
 22
161.7437631887
 32
0.0
 13
62.587936694
 23
161.7437631887
 33
0.0
  0
LINE
  5
A5
330
A0
100
AcDbEntity
  8
0
  6
Continuous
 62
     7
370
     0
100
AcDbLine
 10
49.587936694
 20
144.1937631887
 30
0.0
 11
49.587936694
 21
163.4937631887
 31
0.0
  0
LINE
  5
A6
330
A0
100
AcDbEntity
  8
0
  6
Continuous
 62
     7
370
     0
100
AcDbLine
 10
65.587936694
 20
144.1937631887
 30
0.0
 11
65.587936694
 21
163.4937631887
 31
0.0
  0
LINE
  5
A7
330
A0
100
AcDbEntity
  8
0
  6
Continuous
 62
     7
370
     0
100
AcDbLine
 10
49.587936694
 20
162.4937631887
 30
0.0
 11
65.587936694
 21
162.4937631887
 31
0.0
  0
MTEXT
  5
A8
330
A0
100
AcDbEntity
  8
0
  6
Continuous
 62
     7
370
     0
100
AcDbMText
 10
52.3626065685
 20
167.0055002779
 30
25.6
 40
3.5
 41
0.0
 71
     1
 72
     1
  1
%%c
  7
SLDTEXTSTYLE1
 73
     1
 44
1.0
  0
MTEXT
  5
A9
330
A0
100
AcDbEntity
  8
0
  6
Continuous
 62
     7
370
     0
100
AcDbMText
 10
57.6410439669
 20
167.0589724546
 30
25.6
 40
3.5
 41
0.0
 71
     1
 72
     1
  1
16
  7
SLDTEXTSTYLE1
 73
     1
 44
1.0
  0
ENDBLK
  5
A2
330
A0
100
AcDbEntity
  8
0
100
AcDbBlockEnd
  0
BLOCK
  5
B0
330
AF
100
AcDbEntity
  8
0
100
AcDbBlockBegin
  2
SW_CENTERMARKSYMBOL_0
 70
     0
 10
0.0
 20
0.0
 30
0.0
  3
SW_CENTERMARKSYMBOL_0
  1

  0
LINE
  5
B2
330
AF
100
AcDbEntity
  8
0
  6
Continuous
 62
     0
370
     0
100
AcDbLine
 10
0.0
 20
0.0
 30
0.0
 11
0.0
 21
2.5
 31
0.0
  0
LINE
  5
B3
330
AF
100
AcDbEntity
  8
0
  6
Continuous
 62
     0
370
     0
100
AcDbLine
 10
0.0
 20
0.0
 30
0.0
 11
-2.5
 21
0.0
 31
0.0
  0
LINE
  5
B4
330
AF
100
AcDbEntity
  8
0
  6
Continuous
 62
     0
370
     0
100
AcDbLine
 10
0.0
 20
0.0
 30
0.0
 11
0.0
 21
-2.5
 31
0.0
  0
LINE
  5
B5
330
AF
100
AcDbEntity
  8
0
  6
Continuous
 62
     0
370
     0
100
AcDbLine
 10
0.0
 20
0.0
 30
0.0
 11
2.5
 21
0.0
 31
0.0
  0
LINE
  5
B6
330
AF
100
AcDbEntity
  8
0
  6
Continuous
 62
     0
370
     0
100
AcDbLine
 10
0.0
 20
5.0
 30
0.0
 11
0.0
 21
10.5
 31
0.0
  0
LINE
  5
B7
330
AF
100
AcDbEntity
  8
0
  6
Continuous
 62
     0
370
     0
100
AcDbLine
 10
-5.0
 20
0.0
 30
0.0
 11
-10.5
 21
0.0
 31
0.0
  0
LINE
  5
B8
330
AF
100
AcDbEntity
  8
0
  6
Continuous
 62
     0
370
     0
100
AcDbLine
 10
0.0
 20
-5.0
 30
0.0
 11
0.0
 21
-19.4499591852
 31
0.0
  0
LINE
  5
B9
330
AF
100
AcDbEntity
  8
0
  6
Continuous
 62
     0
370
     0
100
AcDbLine
 10
5.0
 20
0.0
 30
0.0
 11
10.5
 21
0.0
 31
0.0
  0
ENDBLK
  5
B1
330
AF
100
AcDbEntity
  8
0
100
AcDbBlockEnd
  0
BLOCK
  5
144
330
143
100
AcDbEntity
  8
0
100
AcDbBlockBegin
  2
_D_2
 70
     0
 10
0.0
 20
0.0
 30
0.0
  3
_D_2
  1

  0
SOLID
  5
146
330
143
100
AcDbEntity
  8
0
  6
Continuous
 62
     7
370
     0
100
AcDbTrace
 10
99.4872231966
 20
148.6937631887
 30
0.0
 11
100.2372231966
 21
151.6937631887
 31
0.0
 12
98.7372231966
 22
151.6937631887
 32
0.0
 13
98.7372231966
 23
151.6937631887
 33
0.0
  0
SOLID
  5
147
330
143
100
AcDbEntity
  8
0
  6
Continuous
 62
     7
370
     0
100
AcDbTrace
 10
99.4872231966
 20
137.6937631887
 30
0.0
 11
98.7372231966
 21
134.6937631887
 31
0.0
 12
100.2372231966
 22
134.6937631887
 32
0.0
 13
100.2372231966
 23
134.6937631887
 33
0.0
  0
LINE
  5
148
330
143
100
AcDbEntity
  8
0
  6
Continuous
 62
     7
370
     0
100
AcDbLine
 10
109.2201758499
 20
148.6937631887
 30
0.0
 11
98.4872231966
 21
148.6937631887
 31
0.0
  0
LINE
  5
149
330
143
100
AcDbEntity
  8
0
  6
Continuous
 62
     7
370
     0
100
AcDbLine
 10
109.2201758499
 20
137.6937631887
 30
0.0
 11
98.4872231966
 21
137.6937631887
 31
0.0
  0
LINE
  5
14A
330
143
100
AcDbEntity
  8
0
  6
Continuous
 62
     7
370
     0
100
AcDbLine
 10
99.4872231966
 20
148.6937631887
 30
0.0
 11
99.4872231966
 21
153.6937631887
 31
0.0
  0
LINE
  5
14B
330
143
100
AcDbEntity
  8
0
  6
Continuous
 62
     7
370
     0
100
AcDbLine
 10
99.4872231966
 20
148.6937631887
 30
0.0
 11
99.4872231966
 21
137.6937631887
 31
0.0
  0
LINE
  5
14C
330
143
100
AcDbEntity
  8
0
  6
Continuous
 62
     7
370
     0
100
AcDbLine
 10
99.4872231966
 20
137.6937631887
 30
0.0
 11
99.4872231966
 21
132.6937631887
 31
0.0
  0
MTEXT
  5
14D
330
143
100
AcDbEntity
  8
0
  6
Continuous
 62
     7
370
     0
100
AcDbMText
 10
94.9754861074
 20
137.8350253723
 30
0.1
 40
3.5
 41
0.0
 71
     1
 72
     1
  1
%%c
  7
SLDTEXTSTYLE1
 11
-7.044195017643634E-15
 21
1.0
 31
0.0
 73
     1
 44
1.0
  0
MTEXT
  5
14E
330
143
100
AcDbEntity
  8
0
  6
Continuous
 62
     7
370
     0
100
AcDbMText
 10
94.9220139307
 20
143.1134627707
 30
0.1
 40
3.5
 41
0.0
 71
     1
 72
     1
  1
11
  7
SLDTEXTSTYLE1
 11
-7.044195017643634E-15
 21
1.0
 31
0.0
 73
     1
 44
1.0
  0
ENDBLK
  5
145
330
143
100
AcDbEntity
  8
0
100
AcDbBlockEnd
  0
BLOCK
  5
151
330
150
100
AcDbEntity
  8
0
100
AcDbBlockBegin
  2
_D_3
 70
     0
 10
0.0
 20
0.0
 30
0.0
  3
_D_3
  1

  0
SOLID
  5
153
330
150
100
AcDbEntity
  8
0
  6
Continuous
 62
     7
370
     0
100
AcDbTrace
 10
110.2201758499
 20
118.601220082
 30
0.0
 11
107.2201758499
 21
119.351220082
 31
0.0
 12
107.2201758499
 22
117.851220082
 32
0.0
 13
107.2201758499
 23
117.851220082
 33
0.0
  0
SOLID
  5
154
330
150
100
AcDbEntity
  8
0
  6
Continuous
 62
     7
370
     0
100
AcDbTrace
 10
119.2201758499
 20
118.601220082
 30
0.0
 11
122.2201758499
 21
117.851220082
 31
0.0
 12
122.2201758499
 22
119.351220082
 32
0.0
 13
122.2201758499
 23
119.351220082
 33
0.0
  0
LINE
  5
155
330
150
100
AcDbEntity
  8
0
  6
Continuous
 62
     7
370
     0
100
AcDbLine
 10
110.2201758499
 20
136.6937631887
 30
0.0
 11
110.2201758499
 21
117.601220082
 31
0.0
  0
LINE
  5
156
330
150
100
AcDbEntity
  8
0
  6
Continuous
 62
     7
370
     0
100
AcDbLine
 10
119.2201758499
 20
136.1937631887
 30
0.0
 11
119.2201758499
 21
117.601220082
 31
0.0
  0
LINE
  5
157
330
150
100
AcDbEntity
  8
0
  6
Continuous
 62
     7
370
     0
100
AcDbLine
 10
110.2201758499
 20
118.601220082
 30
0.0
 11
105.2201758499
 21
118.601220082
 31
0.0
  0
LINE
  5
158
330
150
100
AcDbEntity
  8
0
  6
Continuous
 62
     7
370
     0
100
AcDbLine
 10
110.2201758499
 20
118.601220082
 30
0.0
 11
119.2201758499
 21
118.601220082
 31
0.0
  0
LINE
  5
159
330
150
100
AcDbEntity
  8
0
  6
Continuous
 62
     7
370
     0
100
AcDbLine
 10
119.2201758499
 20
118.601220082
 30
0.0
 11
124.2201758499
 21
118.601220082
 31
0.0
  0
MTEXT
  5
15A
330
150
100
AcDbEntity
  8
0
  6
Continuous
 62
     7
370
     0
100
AcDbMText
 10
113.5919070788
 20
123.1129569965
 30
0.1
 40
3.5
 41
0.0
 71
     1
 72
     1
  1
9
  7
SLDTEXTSTYLE1
 73
     1
 44
1.0
  0
ENDBLK
  5
152
330
150
100
AcDbEntity
  8
0
100
AcDbBlockEnd
  0
BLOCK
  5
15D
330
15C
100
AcDbEntity
  8
0
100
AcDbBlockBegin
  2
_D_4
 70
     0
 10
0.0
 20
0.0
 30
0.0
  3
_D_4
  1

  0
SOLID
  5
15F
330
15C
100
AcDbEntity
  8
0
  6
Continuous
 62
     7
370
     0
100
AcDbTrace
 10
133.2201758499
 20
161.7947967279
 30
0.0
 11
136.2201758499
 21
161.0447967279
 31
0.0
 12
136.2201758499
 22
162.5447967279
 32
0.0
 13
136.2201758499
 23
162.5447967279
 33
0.0
  0
SOLID
  5
160
330
15C
100
AcDbEntity
  8
0
  6
Continuous
 62
     7
370
     0
100
AcDbTrace
 10
128.2201758499
 20
161.7947967279
 30
0.0
 11
125.2201758499
 21
162.5447967279
 31
0.0
 12
125.2201758499
 22
161.0447967279
 32
0.0
 13
125.2201758499
 23
161.0447967279
 33
0.0
  0
LINE
  5
161
330
15C
100
AcDbEntity
  8
0
  6
Continuous
 62
     7
370
     0
100
AcDbLine
 10
133.2201758499
 20
148.2937631887
 30
0.0
 11
133.2201758499
 21
162.7947967279
 31
0.0
  0
LINE
  5
162
330
15C
100
AcDbEntity
  8
0
  6
Continuous
 62
     7
370
     0
100
AcDbLine
 10
128.2201758499
 20
148.6937631887
 30
0.0
 11
128.2201758499
 21
162.7947967279
 31
0.0
  0
LINE
  5
163
330
15C
100
AcDbEntity
  8
0
  6
Continuous
 62
     7
370
     0
100
AcDbLine
 10
133.2201758499
 20
161.7947967279
 30
0.0
 11
138.2201758499
 21
161.7947967279
 31
0.0
  0
LINE
  5
164
330
15C
100
AcDbEntity
  8
0
  6
Continuous
 62
     7
370
     0
100
AcDbLine
 10
133.2201758499
 20
161.7947967279
 30
0.0
 11
128.2201758499
 21
161.7947967279
 31
0.0
  0
LINE
  5
165
330
15C
100
AcDbEntity
  8
0
  6
Continuous
 62
     7
370
     0
100
AcDbLine
 10
128.2201758499
 20
161.7947967279
 30
0.0
 11
117.5291707502
 21
161.7947967279
 31
0.0
  0
MTEXT
  5
166
330
15C
100
AcDbEntity
  8
0
  6
Continuous
 62
     7
370
     0
100
AcDbMText
 10
117.5291707502
 20
166.3065336424
 30
0.1
 40
3.5
 41
0.0
 71
     1
 72
     1
  1
5
  7
SLDTEXTSTYLE1
 73
     1
 44
1.0
  0
MTEXT
  5
167
330
15C
100
AcDbEntity
  8
0
  6
Continuous
 62
     7
370
     0
100
AcDbMText
 10
120.1152819437
 20
166.3065336424
 30
0.1
 40
3.5
 41
0.0
 71
     1
 72
     1
  1
st
  7
SLDTEXTSTYLE1
 73
     1
 44
1.0
  0
ENDBLK
  5
15E
330
15C
100
AcDbEntity
  8
0
100
AcDbBlockEnd
  0
BLOCK
  5
16A
330
169
100
AcDbEntity
  8
0
100
AcDbBlockBegin
  2
_D_5
 70
     0
 10
0.0
 20
0.0
 30
0.0
  3
_D_5
  1

  0
SOLID
  5
16C
330
169
100
AcDbEntity
  8
0
  6
Continuous
 62
     7
370
     0
100
AcDbTrace
 10
110.2201758499
 20
172.1168621849
 30
0.0
 11
113.2201758499
 21
171.3668621849
 31
0.0
 12
113.2201758499
 22
172.8668621849
 32
0.0
 13
113.2201758499
 23
172.8668621849
 33
0.0
  0
SOLID
  5
16D
330
169
100
AcDbEntity
  8
0
  6
Continuous
 62
     7
370
     0
100
AcDbTrace
 10
161.2201758499
 20
172.1168621849
 30
0.0
 11
158.2201758499
 21
172.8668621849
 31
0.0
 12
158.2201758499
 22
171.3668621849
 32
0.0
 13
158.2201758499
 23
171.3668621849
 33
0.0
  0
LINE
  5
16E
330
169
100
AcDbEntity
  8
0
  6
Continuous
 62
     7
370
     0
100
AcDbLine
 10
110.2201758499
 20
149.6937631887
 30
0.0
 11
110.2201758499
 21
173.1168621849
 31
0.0
  0
LINE
  5
16F
330
169
100
AcDbEntity
  8
0
  6
Continuous
 62
     7
370
     0
100
AcDbLine
 10
161.2201758499
 20
146.6937631887
 30
0.0
 11
161.2201758499
 21
173.1168621849
 31
0.0
  0
LINE
  5
170
330
169
100
AcDbEntity
  8
0
  6
Continuous
 62
     7
370
     0
100
AcDbLine
 10
110.2201758499
 20
172.1168621849
 30
0.0
 11
161.2201758499
 21
172.1168621849
 31
0.0
  0
MTEXT
  5
171
330
169
100
AcDbEntity
  8
0
  6
Continuous
 62
     7
370
     0
100
AcDbMText
 10
133.1340646564
 20
176.6285990995
 30
0.1
 40
3.5
 41
0.0
 71
     1
 72
     1
  1
51
  7
SLDTEXTSTYLE1
 73
     1
 44
1.0
  0
ENDBLK
  5
16B
330
169
100
AcDbEntity
  8
0
100
AcDbBlockEnd
  0
BLOCK
  5
174
330
173
100
AcDbEntity
  8
0
100
AcDbBlockBegin
  2
_D_6
 70
     0
 10
0.0
 20
0.0
 30
0.0
  3
_D_6
  1

  0
SOLID
  5
176
330
173
100
AcDbEntity
  8
0
  6
Continuous
 62
     7
370
     0
100
AcDbTrace
 10
172.9984224833
 20
146.1937631887
 30
0.0
 11
173.7484224833
 21
149.1937631887
 31
0.0
 12
172.2484224833
 22
149.1937631887
 32
0.0
 13
172.2484224833
 23
149.1937631887
 33
0.0
  0
SOLID
  5
177
330
173
100
AcDbEntity
  8
0
  6
Continuous
 62
     7
370
     0
100
AcDbTrace
 10
172.9984224833
 20
140.1937631887
 30
0.0
 11
172.2484224833
 21
137.1937631887
 31
0.0
 12
173.7484224833
 22
137.1937631887
 32
0.0
 13
173.7484224833
 23
137.1937631887
 33
0.0
  0
LINE
  5
178
330
173
100
AcDbEntity
  8
0
  6
Continuous
 62
     7
370
     0
100
AcDbLine
 10
161.7201758499
 20
146.1937631887
 30
0.0
 11
173.9984224833
 21
146.1937631887
 31
0.0
  0
LINE
  5
179
330
173
100
AcDbEntity
  8
0
  6
Continuous
 62
     7
370
     0
100
AcDbLine
 10
161.7201758499
 20
140.1937631887
 30
0.0
 11
173.9984224833
 21
140.1937631887
 31
0.0
  0
LINE
  5
17A
330
173
100
AcDbEntity
  8
0
  6
Continuous
 62
     7
370
     0
100
AcDbLine
 10
172.9984224833
 20
146.1937631887
 30
0.0
 11
172.9984224833
 21
158.1268099553
 31
0.0
  0
LINE
  5
17B
330
173
100
AcDbEntity
  8
0
  6
Continuous
 62
     7
370
     0
100
AcDbLine
 10
172.9984224833
 20
146.1937631887
 30
0.0
 11
172.9984224833
 21
140.1937631887
 31
0.0
  0
LINE
  5
17C
330
173
100
AcDbEntity
  8
0
  6
Continuous
 62
     7
370
     0
100
AcDbLine
 10
172.9984224833
 20
140.1937631887
 30
0.0
 11
172.9984224833
 21
135.1937631887
 31
0.0
  0
MTEXT
  5
17D
330
173
100
AcDbEntity
  8
0
  6
Continuous
 62
     7
370
     0
100
AcDbMText
 10
168.4866853941
 20
150.2622611306
 30
0.1
 40
3.5
 41
0.0
 71
     1
 72
     1
  1
%%c
  7
SLDTEXTSTYLE1
 11
-7.044195017643634E-15
 21
1.0
 31
0.0
 73
     1
 44
1.0
  0
MTEXT
  5
17E
330
173
100
AcDbEntity
  8
0
  6
Continuous
 62
     7
370
     0
100
AcDbMText
 10
168.4332132174
 20
155.540698529
 30
0.1
 40
3.5
 41
0.0
 71
     1
 72
     1
  1
6
  7
SLDTEXTSTYLE1
 11
-7.044195017643634E-15
 21
1.0
 31
0.0
 73
     1
 44
1.0
  0
ENDBLK
  5
175
330
173
100
AcDbEntity
  8
0
100
AcDbBlockEnd
  0
BLOCK
  5
181
330
180
100
AcDbEntity
  8
0
100
AcDbBlockBegin
  2
_D_7
 70
     0
 10
0.0
 20
0.0
 30
0.0
  3
_D_7
  1

  0
SOLID
  5
183
330
180
100
AcDbEntity
  8
0
  6
Continuous
 62
     7
370
     0
100
AcDbTrace
 10
185.439791818
 20
149.1937631887
 30
0.0
 11
184.689791818
 21
146.1937631887
 31
0.0
 12
186.189791818
 22
146.1937631887
 32
0.0
 13
186.189791818
 23
146.1937631887
 33
0.0
  0
SOLID
  5
184
330
180
100
AcDbEntity
  8
0
  6
Continuous
 62
     7
370
     0
100
AcDbTrace
 10
185.439791818
 20
137.1937631887
 30
0.0
 11
186.189791818
 21
140.1937631887
 31
0.0
 12
184.689791818
 22
140.1937631887
 32
0.0
 13
184.689791818
 23
140.1937631887
 33
0.0
  0
LINE
  5
185
330
180
100
AcDbEntity
  8
0
  6
Continuous
 62
     7
370
     0
100
AcDbLine
 10
159.8201758499
 20
149.1937631887
 30
0.0
 11
186.439791818
 21
149.1937631887
 31
0.0
  0
LINE
  5
186
330
180
100
AcDbEntity
  8
0
  6
Continuous
 62
     7
370
     0
100
AcDbLine
 10
159.8201758499
 20
137.1937631887
 30
0.0
 11
186.439791818
 21
137.1937631887
 31
0.0
  0
LINE
  5
187
330
180
100
AcDbEntity
  8
0
  6
Continuous
 62
     7
370
     0
100
AcDbLine
 10
185.439791818
 20
149.1937631887
 30
0.0
 11
185.439791818
 21
137.1937631887
 31
0.0
  0
MTEXT
  5
188
330
180
100
AcDbEntity
  8
0
  6
Continuous
 62
     7
370
     0
100
AcDbMText
 10
180.9280547288
 20
137.8350253723
 30
0.1
 40
3.5
 41
0.0
 71
     1
 72
     1
  1
%%c
  7
SLDTEXTSTYLE1
 11
-7.044195017643634E-15
 21
1.0
 31
0.0
 73
     1
 44
1.0
  0
MTEXT
  5
189
330
180
100
AcDbEntity
  8
0
  6
Continuous
 62
     7
370
     0
100
AcDbMText
 10
180.8745825522
 20
143.1134627707
 30
0.1
 40
3.5
 41
0.0
 71
     1
 72
     1
  1
12
  7
SLDTEXTSTYLE1
 11
-7.044195017643634E-15
 21
1.0
 31
0.0
 73
     1
 44
1.0
  0
ENDBLK
  5
182
330
180
100
AcDbEntity
  8
0
100
AcDbBlockEnd
  0
BLOCK
  5
18C
330
18B
100
AcDbEntity
  8
0
100
AcDbBlockBegin
  2
_D_8
 70
     0
 10
0.0
 20
0.0
 30
0.0
  3
_D_8
  1

  0
SOLID
  5
18E
330
18B
100
AcDbEntity
  8
0
  6
Continuous
 62
     7
370
     0
100
AcDbTrace
 10
138.2201758499
 20
118.601220082
 30
0.0
 11
141.2201758499
 21
117.851220082
 31
0.0
 12
141.2201758499
 22
119.351220082
 32
0.0
 13
141.2201758499
 23
119.351220082
 33
0.0
  0
SOLID
  5
18F
330
18B
100
AcDbEntity
  8
0
  6
Continuous
 62
     7
370
     0
100
AcDbTrace
 10
159.2201758499
 20
118.601220082
 30
0.0
 11
156.2201758499
 21
119.351220082
 31
0.0
 12
156.2201758499
 22
117.851220082
 32
0.0
 13
156.2201758499
 23
117.851220082
 33
0.0
  0
LINE
  5
190
330
18B
100
AcDbEntity
  8
0
  6
Continuous
 62
     7
370
     0
100
AcDbLine
 10
138.2201758499
 20
134.5937631887
 30
0.0
 11
138.2201758499
 21
117.601220082
 31
0.0
  0
LINE
  5
191
330
18B
100
AcDbEntity
  8
0
  6
Continuous
 62
     7
370
     0
100
AcDbLine
 10
159.2201758499
 20
136.5937631887
 30
0.0
 11
159.2201758499
 21
117.601220082
 31
0.0
  0
LINE
  5
192
330
18B
100
AcDbEntity
  8
0
  6
Continuous
 62
     7
370
     0
100
AcDbLine
 10
138.2201758499
 20
118.601220082
 30
0.0
 11
159.2201758499
 21
118.601220082
 31
0.0
  0
MTEXT
  5
193
330
18B
100
AcDbEntity
  8
0
  6
Continuous
 62
     7
370
     0
100
AcDbMText
 10
146.1340646564
 20
123.1129569965
 30
0.1
 40
3.5
 41
0.0
 71
     1
 72
     1
  1
21
  7
SLDTEXTSTYLE1
 73
     1
 44
1.0
  0
ENDBLK
  5
18D
330
18B
100
AcDbEntity
  8
0
100
AcDbBlockEnd
  0
ENDSEC
  0
SECTION
  2
ENTITIES
  0
LINE
  5
44
330
1F
100
AcDbEntity
  8
0
  6
Continuous
 62
     7
370
     0
100
AcDbLine
 10
20.2604743903
 20
285.0
 30
0.0
 11
196.7604743903
 21
285.0
 31
0.0
  0
LINE
  5
45
330
1F
100
AcDbEntity
  8
0
  6
Continuous
 62
     7
370
     0
100
AcDbLine
 10
20.2604743903
 20
285.0
 30
0.0
 11
20.2604743903
 21
10.0
 31
0.0
  0
LINE
  5
46
330
1F
100
AcDbEntity
  8
0
  6
Continuous
 62
     7
370
     0
100
AcDbLine
 10
20.2604743903
 20
10.0
 30
0.0
 11
196.7604743903
 21
10.0
 31
0.0
  0
LINE
  5
47
330
1F
100
AcDbEntity
  8
0
  6
Continuous
 62
     7
370
     0
100
AcDbLine
 10
196.7604743903
 20
285.0
 30
0.0
 11
196.7604743903
 21
10.0
 31
0.0
  0
LINE
  5
48
330
1F
100
AcDbEntity
  8
0
  6
Continuous
 62
     7
370
     0
100
AcDbLine
 10
127.0104743903
 20
50.75
 30
0.0
 11
196.7604743903
 21
50.75
 31
0.0
  0
LINE
  5
49
330
1F
100
AcDbEntity
  8
0
  6
Continuous
 62
     7
370
     0
100
AcDbLine
 10
127.0104743903
 20
50.75
 30
0.0
 11
127.0104743903
 21
10.0
 31
0.0
  0
LINE
  5
4A
330
1F
100
AcDbEntity
  8
0
  6
Continuous
 62
     7
370
     0
100
AcDbLine
 10
127.0104743903
 20
22.75
 30
0.0
 11
196.7604743903
 21
22.75
 31
0.0
  0
LINE
  5
4B
330
1F
100
AcDbEntity
  8
0
  6
Continuous
 62
     7
370
     0
100
AcDbLine
 10
127.0104743903
 20
36.75
 30
0.0
 11
196.7604743903
 21
36.75
 31
0.0
  0
MTEXT
  5
4D
330
1F
100
AcDbEntity
  8
0
  6
Continuous
 62
     7
370
     0
100
AcDbMText
 10
161.414610799
 20
30.4171582345
 30
0.0
 40
4.2333333333
 41
0.0
 71
     2
 72
     1
  1
VFIL1-S-5-P12
  7
SLDTEXTSTYLE0
 73
     1
 44
1.0
  0
MTEXT
  5
4E
330
1F
100
AcDbEntity
  8
0
  6
Continuous
 62
     7
370
     0
100
AcDbMText
 10
160.5582442015
 20
43.9409718514
 30
0.0
 40
4.2333333333
 41
0.0
 71
     2
 72
     1
  1
吸着金具・スモール用
  7
SLDTEXTSTYLE0
 73
     1
 44
1.0
  0
MTEXT
  5
4F
330
1F
100
AcDbEntity
  8
0
  6
Continuous
 62
     7
370
     0
100
AcDbMText
 10
162.6412510671
 20
16.8228189052
 30
0.0
 40
4.2333333333
 41
0.0
 71
     2
 72
     1
  1
211006
  7
SLDTEXTSTYLE0
 73
     1
 44
1.0
  0
LINE
  5
50
330
1F
100
AcDbEntity
  8
0
  6
Continuous
 62
     7
370
    15
100
AcDbLine
 10
55.237936694
 20
128.8937631887
 30
0.0
 11
55.587936694
 21
126.3937631887
 31
0.0
  0
LINE
  5
51
330
1F
100
AcDbEntity
  8
0
  6
Continuous
 62
     7
370
    15
100
AcDbLine
 10
59.587936694
 20
126.3937631887
 30
0.0
 11
59.937936694
 21
128.8937631887
 31
0.0
  0
LINE
  5
52
330
1F
100
AcDbEntity
  8
0
  6
Continuous
 62
     7
370
    15
100
AcDbLine
 10
55.237936694
 20
131.3937631887
 30
0.0
 11
55.587936694
 21
128.8937631887
 31
0.0
  0
LINE
  5
53
330
1F
100
AcDbEntity
  8
0
  6
Continuous
 62
     7
370
    15
100
AcDbLine
 10
59.587936694
 20
128.8937631887
 30
0.0
 11
59.937936694
 21
131.3937631887
 31
0.0
  0
LINE
  5
54
330
1F
100
AcDbEntity
  8
0
  6
Continuous
 62
     7
370
    15
100
AcDbLine
 10
59.687936694
 20
131.3937631887
 30
0.0
 11
59.687936694
 21
133.8937631887
 31
0.0
  0
LINE
  5
55
330
1F
100
AcDbEntity
  8
0
  6
Continuous
 62
     7
370
    15
100
AcDbLine
 10
55.487936694
 20
133.8937631887
 30
0.0
 11
55.487936694
 21
131.3937631887
 31
0.0
  0
LINE
  5
56
330
1F
100
AcDbEntity
  8
0
  6
Continuous
 62
     7
370
    15
100
AcDbLine
 10
53.587936694
 20
149.9937631887
 30
0.0
 11
53.587936694
 21
149.1937631887
 31
0.0
  0
LINE
  5
57
330
1F
100
AcDbEntity
  8
0
  6
Continuous
 62
     7
370
    15
100
AcDbLine
 10
61.587936694
 20
149.1937631887
 30
0.0
 11
61.587936694
 21
149.9937631887
 31
0.0
  0
LINE
  5
58
330
1F
100
AcDbEntity
  8
0
  6
Continuous
 62
     7
370
    15
100
AcDbLine
 10
53.587936694
 20
137.1937631887
 30
0.0
 11
53.587936694
 21
136.3937631887
 31
0.0
  0
LINE
  5
59
330
1F
100
AcDbEntity
  8
0
  6
Continuous
 62
     7
370
    15
100
AcDbLine
 10
61.587936694
 20
136.3937631887
 30
0.0
 11
61.587936694
 21
137.1937631887
 31
0.0
  0
ARC
  5
5A
330
1F
100
AcDbEntity
  8
0
  6
Continuous
 62
     7
370
    15
100
AcDbCircle
 10
57.587936694
 20
143.1937631887
 30
0.0
 40
7.60000000000002
100
AcDbArc
 50
121.7568638593
 51
238.2431361407
  0
ARC
  5
5B
330
1F
100
AcDbEntity
  8
0
  6
Continuous
 62
     7
370
    15
100
AcDbCircle
 10
57.587936694
 20
143.1937631887
 30
0.0
 40
7.600000000000017
100
AcDbArc
 50
301.7568638593
 51
58.2431361407
  0
ARC
  5
5C
330
1F
100
AcDbEntity
  8
0
  6
Continuous
 62
     7
370
    15
100
AcDbCircle
 10
57.587936694
 20
143.1937631887
 30
0.0
 40
7.999999999999996
100
AcDbArc
 50
120.4143653546
 51
239.5856346455
  0
ARC
  5
5D
330
1F
100
AcDbEntity
  8
0
  6
Continuous
 62
     7
370
    15
100
AcDbCircle
 10
57.587936694
 20
143.1937631887
 30
0.0
 40
7.999999999999988
100
AcDbArc
 50
300.4143653546
 51
59.5856346455
  0
LINE
  5
5E
330
1F
100
AcDbEntity
  8
0
  6
Continuous
 62
     7
370
    15
100
AcDbLine
 10
59.612936694
 20
149.9937631887
 30
0.0
 11
59.612936694
 21
152.4937631887
 31
0.0
  0
LINE
  5
5F
330
1F
100
AcDbEntity
  8
0
  6
Continuous
 62
     7
370
    15
100
AcDbLine
 10
55.562936694
 20
149.9937631887
 30
0.0
 11
55.6648857327
 21
149.9937631887
 31
0.0
  0
LINE
  5
60
330
1F
100
AcDbEntity
  8
0
  6
Continuous
 62
     7
370
    15
100
AcDbLine
 10
59.5109876554
 20
149.9937631887
 30
0.0
 11
59.612936694
 21
149.9937631887
 31
0.0
  0
LINE
  5
61
330
1F
100
AcDbEntity
  8
0
  6
Continuous
 62
     7
370
    15
100
AcDbLine
 10
55.562936694
 20
149.9937631887
 30
0.0
 11
55.562936694
 21
152.4937631887
 31
0.0
  0
LINE
  5
62
330
1F
100
AcDbEntity
  8
0
  6
Continuous
 62
     7
370
    15
100
AcDbLine
 10
55.562936694
 20
152.4937631887
 30
0.0
 11
59.612936694
 21
152.4937631887
 31
0.0
  0
LINE
  5
63
330
1F
100
AcDbEntity
  8
0
  6
Continuous
 62
     7
370
    15
100
AcDbLine
 10
53.537936694
 20
149.9937631887
 30
0.0
 11
53.5889112133
 21
149.9937631887
 31
0.0
  0
LINE
  5
64
330
1F
100
AcDbEntity
  8
0
  6
Continuous
 62
     7
370
    15
100
AcDbLine
 10
55.5119621747
 20
149.9937631887
 30
0.0
 11
55.562936694
 21
149.9937631887
 31
0.0
  0
LINE
  5
65
330
1F
100
AcDbEntity
  8
0
  6
Continuous
 62
     7
370
    15
100
AcDbLine
 10
53.537936694
 20
149.9937631887
 30
0.0
 11
53.5379366941
 21
152.4937631887
 31
0.0
  0
LINE
  5
66
330
1F
100
AcDbEntity
  8
0
  6
Continuous
 62
     7
370
    15
100
AcDbLine
 10
53.5379366941
 20
152.4937631887
 30
0.0
 11
55.562936694
 21
152.4937631887
 31
0.0
  0
LINE
  5
67
330
1F
100
AcDbEntity
  8
0
  6
Continuous
 62
     7
370
    15
100
AcDbLine
 10
61.637936694
 20
149.9937631887
 30
0.0
 11
61.6379366939
 21
152.4937631887
 31
0.0
  0
LINE
  5
68
330
1F
100
AcDbEntity
  8
0
  6
Continuous
 62
     7
370
    15
100
AcDbLine
 10
59.612936694
 20
149.9937631887
 30
0.0
 11
59.6639112133
 21
149.9937631887
 31
0.0
  0
LINE
  5
69
330
1F
100
AcDbEntity
  8
0
  6
Continuous
 62
     7
370
    15
100
AcDbLine
 10
61.5869621747
 20
149.9937631887
 30
0.0
 11
61.637936694
 21
149.9937631887
 31
0.0
  0
LINE
  5
6A
330
1F
100
AcDbEntity
  8
0
  6
Continuous
 62
     7
370
    15
100
AcDbLine
 10
59.612936694
 20
152.4937631887
 30
0.0
 11
61.6379366939
 21
152.4937631887
 31
0.0
  0
CIRCLE
  5
6B
330
1F
100
AcDbEntity
  8
0
  6
Continuous
 62
     7
370
    15
100
AcDbCircle
 10
57.587936694
 20
143.1937631887
 30
0.0
 40
2.099999999999994
  0
CIRCLE
  5
6C
330
1F
100
AcDbEntity
  8
0
  6
Continuous
 62
     7
370
    15
100
AcDbCircle
 10
57.587936694
 20
143.1937631887
 30
0.0
 40
5.5
  0
LINE
  5
6D
330
1F
100
AcDbEntity
  8
0
  6
Continuous
 62
     7
370
    15
100
AcDbLine
 10
50.6597334637
 20
143.1937631887
 30
0.0
 11
54.1238350789
 21
149.1937631887
 31
0.0
  0
LINE
  5
6E
330
1F
100
AcDbEntity
  8
0
  6
Continuous
 62
     7
370
    15
100
AcDbLine
 10
54.1238350789
 20
149.1937631887
 30
0.0
 11
61.0520383092
 21
149.1937631887
 31
0.0
  0
LINE
  5
6F
330
1F
100
AcDbEntity
  8
0
  6
Continuous
 62
     7
370
    15
100
AcDbLine
 10
61.0520383092
 20
149.1937631887
 30
0.0
 11
64.5161399243
 21
143.1937631887
 31
0.0
  0
LINE
  5
70
330
1F
100
AcDbEntity
  8
0
  6
Continuous
 62
     7
370
    15
100
AcDbLine
 10
61.0520383092
 20
137.1937631887
 30
0.0
 11
54.1238350789
 21
137.1937631887
 31
0.0
  0
LINE
  5
71
330
1F
100
AcDbEntity
  8
0
  6
Continuous
 62
     7
370
    15
100
AcDbLine
 10
54.1238350789
 20
137.1937631887
 30
0.0
 11
50.6597334637
 21
143.1937631887
 31
0.0
  0
LINE
  5
72
330
1F
100
AcDbEntity
  8
0
  6
Continuous
 62
     7
370
    15
100
AcDbLine
 10
64.5161399243
 20
143.1937631887
 30
0.0
 11
61.0520383092
 21
137.1937631887
 31
0.0
  0
LINE
  5
73
330
1F
100
AcDbEntity
  8
0
  6
Continuous
 62
     7
370
    15
100
AcDbLine
 10
59.612936694
 20
136.3937631887
 30
0.0
 11
59.612936694
 21
133.8937631887
 31
0.0
  0
LINE
  5
74
330
1F
100
AcDbEntity
  8
0
  6
Continuous
 62
     7
370
    15
100
AcDbLine
 10
59.612936694
 20
133.8937631887
 30
0.0
 11
55.5629366942
 21
133.8937631887
 31
0.0
  0
LINE
  5
75
330
1F
100
AcDbEntity
  8
0
  6
Continuous
 62
     7
370
    15
100
AcDbLine
 10
55.562936694
 20
136.3937631887
 30
0.0
 11
55.5629366942
 21
133.8937631887
 31
0.0
  0
LINE
  5
76
330
1F
100
AcDbEntity
  8
0
  6
Continuous
 62
     7
370
    15
100
AcDbLine
 10
59.612936694
 20
136.3937631887
 30
0.0
 11
59.5109876554
 21
136.3937631887
 31
0.0
  0
LINE
  5
77
330
1F
100
AcDbEntity
  8
0
  6
Continuous
 62
     7
370
    15
100
AcDbLine
 10
55.6648857327
 20
136.3937631887
 30
0.0
 11
55.562936694
 21
136.3937631887
 31
0.0
  0
LINE
  5
78
330
1F
100
AcDbEntity
  8
0
  6
Continuous
 62
     7
370
    15
100
AcDbLine
 10
55.5629366942
 20
133.8937631887
 30
0.0
 11
53.537936694
 21
133.8937631887
 31
0.0
  0
LINE
  5
79
330
1F
100
AcDbEntity
  8
0
  6
Continuous
 62
     7
370
    15
100
AcDbLine
 10
53.537936694
 20
133.8937631887
 30
0.0
 11
53.537936694
 21
136.3937631887
 31
0.0
  0
LINE
  5
7A
330
1F
100
AcDbEntity
  8
0
  6
Continuous
 62
     7
370
    15
100
AcDbLine
 10
55.562936694
 20
136.3937631887
 30
0.0
 11
55.5119621747
 21
136.3937631887
 31
0.0
  0
LINE
  5
7B
330
1F
100
AcDbEntity
  8
0
  6
Continuous
 62
     7
370
    15
100
AcDbLine
 10
53.5889112133
 20
136.3937631887
 30
0.0
 11
53.537936694
 21
136.3937631887
 31
0.0
  0
LINE
  5
7C
330
1F
100
AcDbEntity
  8
0
  6
Continuous
 62
     7
370
    15
100
AcDbLine
 10
61.637936694
 20
136.3937631887
 30
0.0
 11
61.637936694
 21
133.8937631887
 31
0.0
  0
LINE
  5
7D
330
1F
100
AcDbEntity
  8
0
  6
Continuous
 62
     7
370
    15
100
AcDbLine
 10
61.637936694
 20
136.3937631887
 30
0.0
 11
61.5869621747
 21
136.3937631887
 31
0.0
  0
LINE
  5
7E
330
1F
100
AcDbEntity
  8
0
  6
Continuous
 62
     7
370
    15
100
AcDbLine
 10
59.6639112133
 20
136.3937631887
 30
0.0
 11
59.612936694
 21
136.3937631887
 31
0.0
  0
LINE
  5
7F
330
1F
100
AcDbEntity
  8
0
  6
Continuous
 62
     7
370
    15
100
AcDbLine
 10
61.637936694
 20
133.8937631887
 30
0.0
 11
59.612936694
 21
133.8937631887
 31
0.0
  0
LINE
  5
80
330
1F
100
AcDbEntity
  8
0
  6
Continuous
 62
     7
370
    15
100
AcDbLine
 10
59.587936694
 20
126.3937631887
 30
0.0
 11
55.587936694
 21
126.3937631887
 31
0.0
  0
LINE
  5
81
330
1F
100
AcDbEntity
  8
0
  6
Continuous
 62
     7
370
    15
100
AcDbLine
 10
56.412936694
 20
128.8937631887
 30
0.0
 11
55.237936694
 21
128.8937631887
 31
0.0
  0
LINE
  5
82
330
1F
100
AcDbEntity
  8
0
  6
Continuous
 62
     7
370
    15
100
AcDbLine
 10
59.937936694
 20
128.8937631887
 30
0.0
 11
56.412936694
 21
128.8937631887
 31
0.0
  0
LINE
  5
83
330
1F
100
AcDbEntity
  8
0
  6
Continuous
 62
     7
370
    15
100
AcDbLine
 10
56.412936694
 20
131.3937631887
 30
0.0
 11
55.237936694
 21
131.3937631887
 31
0.0
  0
LINE
  5
84
330
1F
100
AcDbEntity
  8
0
  6
Continuous
 62
     7
370
    15
100
AcDbLine
 10
59.937936694
 20
131.3937631887
 30
0.0
 11
56.412936694
 21
131.3937631887
 31
0.0
  0
LINE
  5
85
330
1F
100
AcDbEntity
  8
0
  6
Continuous
 62
     7
370
    15
100
AcDbLine
 10
61.587936694
 20
149.1937631887
 30
0.0
 11
61.0520383092
 21
149.1937631887
 31
0.0
  0
LINE
  5
86
330
1F
100
AcDbEntity
  8
0
  6
Continuous
 62
     7
370
    15
100
AcDbLine
 10
54.1238350789
 20
149.1937631887
 30
0.0
 11
53.587936694
 21
149.1937631887
 31
0.0
  0
LINE
  5
87
330
1F
100
AcDbEntity
  8
0
  6
Continuous
 62
     7
370
    15
100
AcDbLine
 10
61.5869621747
 20
149.9937631887
 30
0.0
 11
59.6639112133
 21
149.9937631887
 31
0.0
  0
LINE
  5
88
330
1F
100
AcDbEntity
  8
0
  6
Continuous
 62
     7
370
    15
100
AcDbLine
 10
59.5109876554
 20
149.9937631887
 30
0.0
 11
55.6648857327
 21
149.9937631887
 31
0.0
  0
LINE
  5
89
330
1F
100
AcDbEntity
  8
0
  6
Continuous
 62
     7
370
    15
100
AcDbLine
 10
55.5119621747
 20
149.9937631887
 30
0.0
 11
53.5889112133
 21
149.9937631887
 31
0.0
  0
LINE
  5
8A
330
1F
100
AcDbEntity
  8
0
  6
Continuous
 62
     7
370
    15
100
AcDbLine
 10
54.1238350789
 20
137.1937631887
 30
0.0
 11
53.587936694
 21
137.1937631887
 31
0.0
  0
LINE
  5
8B
330
1F
100
AcDbEntity
  8
0
  6
Continuous
 62
     7
370
    15
100
AcDbLine
 10
61.587936694
 20
137.1937631887
 30
0.0
 11
61.0520383092
 21
137.1937631887
 31
0.0
  0
LINE
  5
8C
330
1F
100
AcDbEntity
  8
0
  6
Continuous
 62
     7
370
    15
100
AcDbLine
 10
54.6229030793
 20
136.3937631887
 30
0.0
 11
53.5889112133
 21
136.3937631887
 31
0.0
  0
LINE
  5
8D
330
1F
100
AcDbEntity
  8
0
  6
Continuous
 62
     7
370
    15
100
AcDbLine
 10
61.5869621747
 20
136.3937631887
 30
0.0
 11
59.6639112133
 21
136.3937631887
 31
0.0
  0
LINE
  5
8E
330
1F
100
AcDbEntity
  8
0
  6
Continuous
 62
     7
370
    15
100
AcDbLine
 10
59.5109876554
 20
136.3937631887
 30
0.0
 11
55.6648857327
 21
136.3937631887
 31
0.0
  0
LINE
  5
8F
330
1F
100
AcDbEntity
  8
0
  6
Continuous
 62
     7
370
    15
100
AcDbLine
 10
55.5119621747
 20
136.3937631887
 30
0.0
 11
54.6229030793
 21
136.3937631887
 31
0.0
  0
DIMENSION
  5
90
330
1F
100
AcDbEntity
  8
0
  6
Continuous
 62
     7
370
     0
100
AcDbDimension
  2
_D
 10
39.587936694
 20
133.8937631887
 30
0.0
 11
39.587936694
 21
142.7638973014
 31
0.0
 70
   160
  1
<>
 71
     2
 42
-1.0
  3
SLDDIMSTYLE0
100
AcDbAlignedDimension
 13
53.5379366941
 23
152.4937631887
 33
0.0
 14
53.537936694
 24
133.8937631887
 34
0.0
 50
90.0
100
AcDbRotatedDimension
  0
DIMENSION
  5
9E
330
1F
100
AcDbEntity
  8
0
  6
Continuous
 62
     7
370
     0
100
AcDbDimension
  2
_D_1
 10
65.587936694
 20
162.4937631887
 30
0.0
 11
57.587936694
 21
162.4937631887
 31
0.0
 70
   160
  1
%%c<>
 71
     2
 42
-1.0
  3
SLDDIMSTYLE1
100
AcDbAlignedDimension
 13
49.587936694
 23
143.1937631887
 33
0.0
 14
65.587936694
 24
143.1937631887
 34
0.0
100
AcDbRotatedDimension
  0
MTEXT
  5
AA
330
1F
100
AcDbEntity
  8
0
  6
Continuous
 62
     7
370
     0
100
AcDbMText
 10
35.0500893353
 20
121.1654236101
 30
0.0
 40
3.5
 41
0.0
 71
     1
 72
     1
  1
BF-6
  7
SLDTEXTSTYLE1
 73
     1
 44
1.0
  0
LEADER
  5
AC
330
1F
100
AcDbEntity
  8
0
  6
Continuous
 62
     7
370
     0
100
AcDbLeader
  3
SLDDIMSTYLE2
 76
     3
 10
55.751688913
 20
126.9070440403
 30
0.0
 10
44.5797186401
 20
116.6471277843
 30
0.0
 10
34.9355216882
 20
116.6471277843
 30
0.0
  0
MTEXT
  5
AD
330
1F
100
AcDbEntity
  8
0
  6
Continuous
 62
     7
370
     0
100
AcDbMText
 10
72.2528132382
 20
167.3435351386
 30
0.0
 40
3.5
 41
0.0
 71
     1
 72
     1
  1
M5
  7
SLDTEXTSTYLE1
 73
     1
 44
1.0
  0
LEADER
  5
AE
330
1F
100
AcDbEntity
  8
0
  6
Continuous
 62
     7
370
     0
100
AcDbLeader
  3
SLDDIMSTYLE2
 76
     3
 10
59.273470315
 20
144.4463510748
 30
0.0
 10
71.7157092614
 20
162.7198124267
 30
0.0
 10
79.0152403283
 20
162.7198124267
 30
0.0
  0
INSERT
  5
BA
330
1F
100
AcDbEntity
  8
0
  6
Continuous
 62
     7
370
     0
100
AcDbBlockReference
  2
SW_CENTERMARKSYMBOL_0
 10
57.587936694
 20
143.1937631887
 30
0.0
  0
LINE
  5
BB
330
1F
100
AcDbEntity
  8
0
  6
Continuous
 62
     7
370
    15
100
AcDbLine
 10
159.3201758499
 20
138.6937631887
 30
0.0
 11
159.9201758499
 21
138.6937631887
 31
0.0
  0
LINE
  5
BC
330
1F
100
AcDbEntity
  8
0
  6
Continuous
 62
     7
370
    15
100
AcDbLine
 10
159.9201758499
 20
146.9224007926
 30
0.0
 11
159.3201758499
 21
146.9224007926
 31
0.0
  0
LINE
  5
BD
330
1F
100
AcDbEntity
  8
0
  6
Continuous
 62
     7
370
    15
100
AcDbLine
 10
137.8201758499
 20
151.1937631887
 30
0.0
 11
136.6201758499
 21
151.1937631887
 31
0.0
  0
LINE
  5
BE
330
1F
100
AcDbEntity
  8
0
  6
Continuous
 62
     7
370
    15
100
AcDbLine
 10
136.6201758499
 20
135.1937631887
 30
0.0
 11
137.8201758499
 21
135.1937631887
 31
0.0
  0
LINE
  5
BF
330
1F
100
AcDbEntity
  8
0
  6
Continuous
 62
     7
370
    15
100
AcDbLine
 10
137.8201758499
 20
135.1937631887
 30
0.0
 11
138.2201758499
 21
135.5937631887
 31
0.0
  0
LINE
  5
C0
330
1F
100
AcDbEntity
  8
0
  6
Continuous
 62
     7
370
    15
100
AcDbLine
 10
138.2201758499
 20
150.7937631887
 30
0.0
 11
137.8201758499
 21
151.1937631887
 31
0.0
  0
LINE
  5
C1
330
1F
100
AcDbEntity
  8
0
  6
Continuous
 62
     7
370
    15
100
AcDbLine
 10
136.6201758499
 20
151.1937631887
 30
0.0
 11
136.2201758499
 21
150.7937631887
 31
0.0
  0
LINE
  5
C2
330
1F
100
AcDbEntity
  8
0
  6
Continuous
 62
     7
370
    15
100
AcDbLine
 10
136.2201758499
 20
135.5937631887
 30
0.0
 11
136.6201758499
 21
135.1937631887
 31
0.0
  0
LINE
  5
C3
330
1F
100
AcDbEntity
  8
0
  6
Continuous
 62
     7
370
    15
100
AcDbLine
 10
158.8201758499
 20
137.1937631887
 30
0.0
 11
159.2201758499
 21
137.5937631887
 31
0.0
  0
LINE
  5
C4
330
1F
100
AcDbEntity
  8
0
  6
Continuous
 62
     7
370
    15
100
AcDbLine
 10
159.2201758499
 20
148.7937631887
 30
0.0
 11
158.8201758499
 21
149.1937631887
 31
0.0
  0
LINE
  5
C5
330
1F
100
AcDbEntity
  8
0
  6
Continuous
 62
     7
370
    15
100
AcDbLine
 10
158.8201758499
 20
149.1937631887
 30
0.0
 11
138.2201758499
 21
149.1937631887
 31
0.0
  0
LINE
  5
C6
330
1F
100
AcDbEntity
  8
0
  6
Continuous
 62
     7
370
    15
100
AcDbLine
 10
138.2201758499
 20
137.1937631887
 30
0.0
 11
158.8201758499
 21
137.1937631887
 31
0.0
  0
LINE
  5
C7
330
1F
100
AcDbEntity
  8
0
  6
Continuous
 62
     7
370
    15
100
AcDbLine
 10
136.2201758499
 20
147.6937631887
 30
0.0
 11
135.7685267487
 21
147.6937631887
 31
0.0
  0
LINE
  5
C8
330
1F
100
AcDbEntity
  8
0
  6
Continuous
 62
     7
370
    15
100
AcDbLine
 10
134.7674673719
 20
147.6937631887
 30
0.0
 11
133.6201758499
 21
147.6937631887
 31
0.0
  0
LINE
  5
C9
330
1F
100
AcDbEntity
  8
0
  6
Continuous
 62
     7
370
    15
100
AcDbLine
 10
133.6879346544
 20
138.6937631887
 30
0.0
 11
136.2201758499
 21
138.6937631887
 31
0.0
  0
LINE
  5
CA
330
1F
100
AcDbEntity
  8
0
  6
Continuous
 62
     7
370
    15
100
AcDbLine
 10
133.6201758499
 20
147.6937631887
 30
0.0
 11
133.2201758499
 21
147.2937631887
 31
0.0
  0
LINE
  5
CB
330
1F
100
AcDbEntity
  8
0
  6
Continuous
 62
     7
370
    15
100
AcDbLine
 10
110.2201758499
 20
137.6937631887
 30
0.0
 11
112.2201758499
 21
137.6937631887
 31
0.0
  0
LINE
  5
CC
330
1F
100
AcDbEntity
  8
0
  6
Continuous
 62
     7
370
    15
100
AcDbLine
 10
112.2201758499
 20
148.6937631887
 30
0.0
 11
110.2201758499
 21
148.6937631887
 31
0.0
  0
LINE
  5
CD
330
1F
100
AcDbEntity
  8
0
  6
Continuous
 62
     7
370
    15
100
AcDbLine
 10
127.2201758499
 20
138.6937631887
 30
0.0
 11
128.2201758499
 21
138.6937631887
 31
0.0
  0
LINE
  5
CE
330
1F
100
AcDbEntity
  8
0
  6
Continuous
 62
     7
370
    15
100
AcDbLine
 10
128.2201758499
 20
147.6937631887
 30
0.0
 11
127.2201758499
 21
147.6937631887
 31
0.0
  0
LINE
  5
CF
330
1F
100
AcDbEntity
  8
0
  6
Continuous
 62
     7
370
    15
100
AcDbLine
 10
112.2201758499
 20
139.2937631887
 30
0.0
 11
119.2201758499
 21
139.2937631887
 31
0.0
  0
LINE
  5
D0
330
1F
100
AcDbEntity
  8
0
  6
Continuous
 62
     7
370
    15
100
AcDbLine
 10
119.2201758499
 20
147.0937631887
 30
0.0
 11
112.2201758499
 21
147.0937631887
 31
0.0
  0
LINE
  5
D1
330
1F
100
AcDbEntity
  8
0
  6
Continuous
 62
     7
370
    15
100
AcDbLine
 10
160.7201758499
 20
140.1937631887
 30
0.0
 11
161.2201758499
 21
140.6937631887
 31
0.0
  0
LINE
  5
D2
330
1F
100
AcDbEntity
  8
0
  6
Continuous
 62
     7
370
    15
100
AcDbLine
 10
161.2201758499
 20
145.6937631887
 30
0.0
 11
160.7201758499
 21
146.1937631887
 31
0.0
  0
LINE
  5
D3
330
1F
100
AcDbEntity
  8
0
  6
Continuous
 62
     7
370
    15
100
AcDbLine
 10
159.9201758499
 20
140.1937631887
 30
0.0
 11
160.7201758499
 21
140.1937631887
 31
0.0
  0
LINE
  5
D4
330
1F
100
AcDbEntity
  8
0
  6
Continuous
 62
     7
370
    15
100
AcDbLine
 10
160.7201758499
 20
146.1937631887
 30
0.0
 11
159.9201758499
 21
146.1937631887
 31
0.0
  0
LINE
  5
D5
330
1F
100
AcDbEntity
  8
0
  6
Continuous
 62
     7
370
    15
100
AcDbLine
 10
128.2201758499
 20
140.1937631887
 30
0.0
 11
129.5015490981
 21
140.1937631887
 31
0.0
  0
LINE
  5
D6
330
1F
100
AcDbEntity
  8
0
  6
Continuous
 62
     7
370
    15
100
AcDbLine
 10
130.5028276022
 20
140.1937631887
 30
0.0
 11
132.5010981366
 21
140.1937631887
 31
0.0
  0
LINE
  5
D7
330
1F
100
AcDbEntity
  8
0
  6
Continuous
 62
     7
370
    15
100
AcDbLine
 10
133.2201758499
 20
146.1937631887
 30
0.0
 11
132.9506780783
 21
146.1937631887
 31
0.0
  0
LINE
  5
D8
330
1F
100
AcDbEntity
  8
0
  6
Continuous
 62
     7
370
    15
100
AcDbLine
 10
131.9496586713
 20
146.1937631887
 30
0.0
 11
129.9510246955
 21
146.1937631887
 31
0.0
  0
LINE
  5
D9
330
1F
100
AcDbEntity
  8
0
  6
Continuous
 62
     7
370
    15
100
AcDbLine
 10
128.9495574556
 20
146.1937631887
 30
0.0
 11
128.2201758499
 21
146.1937631887
 31
0.0
  0
LINE
  5
DA
330
1F
100
AcDbEntity
  8
0
  6
Continuous
 62
     7
370
    15
100
AcDbLine
 10
159.2201758499
 20
141.1937631887
 30
0.0
 11
159.3201758499
 21
141.1937631887
 31
0.0
  0
LINE
  5
DB
330
1F
100
AcDbEntity
  8
0
  6
Continuous
 62
     7
370
    15
100
AcDbLine
 10
159.3201758499
 20
145.1937631887
 30
0.0
 11
159.2201758499
 21
145.1937631887
 31
0.0
  0
SPLINE
  5
DC
330
1F
100
AcDbEntity
  8
0
  6
Continuous
 62
     7
370
    15
100
AcDbSpline
210
0.0
220
0.0
230
1.0
 70
     8
 71
     3
 72
    42
 73
    38
 74
     0
 42
0.00000001
 43
0.00000001
 12
1.0
 22
0.0
 32
0.0
 13
1.0
 23
0.0
 33
0.0
 40
0.0
 40
0.0
 40
0.0
 40
0.0
 40
0.0134175946378827
 40
0.0445493127644504
 40
0.0749668458559265
 40
0.1046019648856978
 40
0.1335052049850429
 40
0.163834933022169
 40
0.1963960216376365
 40
0.2311847180487627
 40
0.2682142485970032
 40
0.2941626408432829
 40
0.3211133951649593
 40
0.3468641987423238
 40
0.3733566342525534
 40
0.3950318448981799
 40
0.4118834847361317
 40
0.4239216235291711
 40
0.436436992986006
 40
0.4537012209358188
 40
0.4757233955372542
 40
0.5025126784862411
 40
0.5340746157745456
 40
0.5704109256270004
 40
0.6179594438990693
 40
0.6620592009131174
 40
0.7026535041436438
 40
0.7397152385851234
 40
0.7836035969642717
 40
0.8216514075801622
 40
0.859774322457624
 40
0.8897550838074786
 40
0.9211794562453863
 40
0.9382851049647536
 40
0.95697623546391
 40
0.9775232438625336
 40
1.0
 40
1.0
 40
1.0
 40
1.0
 10
128.6380645875754
 20
148.3393544152791
 30
0.0
 10
128.6385648080022
 20
148.335430574095
 30
0.0
 10
128.6402256478802
 20
148.3224025737073
 30
0.0
 10
128.6637745969718
 20
148.2395544272822
 30
0.0
 10
128.6949669243253
 20
148.0941193755458
 30
0.0
 10
128.7323732513949
 20
147.8957740276618
 30
0.0
 10
128.7729341584365
 20
147.6464725572695
 30
0.0
 10
128.815559622633
 20
147.3489703023561
 30
0.0
 10
128.8612447275348
 20
146.9923244197734
 30
0.0
 10
128.9104005111808
 20
146.5685690237941
 30
0.0
 10
128.9566389178003
 20
146.1333612683749
 30
0.0
 10
128.9992267238639
 20
145.707795733057
 30
0.0
 10
129.0365244927912
 20
145.3193717040223
 30
0.0
 10
129.0740999620774
 20
144.9148083713375
 30
0.0
 10
129.1091925721105
 20
144.5269749235167
 30
0.0
 10
129.1400755965997
 20
144.179448997761
 30
0.0
 10
129.1641010502296
 20
143.906183947542
 30
0.0
 10
129.1837773232127
 20
143.6810635101135
 30
0.0
 10
129.2036482791586
 20
143.4528818121063
 30
0.0
 10
129.2282616656079
 20
143.1694644040319
 30
0.0
 10
129.2596571394052
 20
142.8077500191428
 30
0.0
 10
129.297850295382
 20
142.3695224883625
 30
0.0
 10
129.3428660949991
 20
141.8591854769727
 30
0.0
 10
129.3977892800334
 20
141.2512361691565
 30
0.0
 10
129.4587834741307
 20
140.6061593046121
 30
0.0
 10
129.5218772629926
 20
139.9851949850806
 30
0.0
 10
129.5801481199749
 20
139.4598251671277
 30
0.0
 10
129.6385611296892
 20
138.9846303966663
 30
0.0
 10
129.6964262696046
 20
138.5744987824312
 30
0.0
 10
129.7550571216424
 20
138.2275494166494
 30
0.0
 10
129.8114072405128
 20
137.9563837104731
 30
0.0
 10
129.8759247917563
 20
137.7299545853656
 30
0.0
 10
129.9270738253439
 20
137.5905599990152
 30
0.0
 10
130.0089039670019
 20
137.4448157508703
 30
0.0
 10
130.112642748305
 20
137.3258354577752
 30
0.0
 10
130.2703091353283
 20
137.2185766939806
 30
0.0
 10
130.4117923394602
 20
137.2026279180461
 30
0.0
 10
130.4857069192537
 20
137.1942958543311
 30
0.0
  0
LWPOLYLINE
  5
DD
330
1F
100
AcDbEntity
  8
0
  6
Continuous
 62
     7
370
    15
100
AcDbPolyline
 90
       37
 70
   128
 43
0.0
 10
131.6464542021
 20
148.3284335681
 10
131.6436586894
 20
148.3302345233
 10
131.6530914642
 20
148.2773044263
 10
131.6783828953
 20
148.1662067376
 10
131.7120146778
 20
148.0019609051
 10
131.7501877152
 20
147.7860286557
 10
131.7937416878
 20
147.5008672895
 10
131.8426971281
 20
147.1355915224
 10
131.8969830625
 20
146.6811140429
 10
131.9565332569
 20
146.130160029
 10
131.9991275252
 20
145.706814781
 10
132.0440172876
 20
145.2382420747
 10
132.088134308
 20
144.7595699831
 10
132.1457323372
 20
144.1146885331
 10
132.1929677147
 20
143.5751542357
 10
132.2297935979
 20
143.1514995957
 10
132.2561745462
 20
142.8479042503
 10
132.2718285463
 20
142.6681395365
 10
132.2928813885
 20
142.4272240001
 10
132.3206558223
 20
142.1115896391
 10
132.3551677505
 20
141.7243259224
 10
132.3964374292
 20
141.2710288798
 10
132.4535684113
 20
140.6671558842
 10
132.5084841964
 20
140.1201985564
 10
132.5609091798
 20
139.635562017
 10
132.6108957429
 20
139.212187409
 10
132.6738513102
 20
138.7388178553
 10
132.734072718
 20
138.3548775831
 10
132.8000974029
 20
138.0192049926
 10
132.8570401621
 20
137.7993167567
 10
132.9237084701
 20
137.6105527916
 10
132.9716760745
 20
137.5129331983
 10
133.0654031472
 20
137.3828809327
 10
133.2323481918
 20
137.2545600662
 10
133.3491601841
 20
137.210243636
 10
133.4867428248
 20
137.1942065527
 10
133.4867428248
 20
137.1942065527
  0
SPLINE
  5
DE
330
1F
100
AcDbEntity
  8
0
  6
Continuous
 62
     7
370
    15
100
AcDbSpline
210
0.0
220
0.0
230
1.0
 70
     8
 71
     3
 72
    20
 73
    16
 74
     0
 42
0.00000001
 43
0.00000001
 12
1.0
 22
0.0
 32
0.0
 13
1.0
 23
0.0
 33
0.0
 40
0.0
 40
0.0
 40
0.0
 40
0.0
 40
0.0262230359452215
 40
0.06328549434513
 40
0.110416767643193
 40
0.1677126733655071
 40
0.2352495973758436
 40
0.3130824601191613
 40
0.4012579288615041
 40
0.4998669047797017
 40
0.6090160822769468
 40
0.7287178659952642
 40
0.814414360220999
 40
0.9048205608098977
 40
1.0
 40
1.0
 40
1.0
 40
1.0
 10
134.6361174682056
 20
148.3445101117312
 30
0.0
 10
134.6367470106934
 20
148.3410101389445
 30
0.0
 10
134.6382663201903
 20
148.3325634621956
 30
0.0
 10
134.6528218416163
 20
148.286420434349
 30
0.0
 10
134.6722328294253
 20
148.2107431483032
 30
0.0
 10
134.699702668113
 20
148.0876721990699
 30
0.0
 10
134.7339688808408
 20
147.9063477196229
 30
0.0
 10
134.7754115957422
 20
147.6511943407728
 30
0.0
 10
134.8238400002636
 20
147.3067214543216
 30
0.0
 10
134.8792278246123
 20
146.8568591339466
 30
0.0
 10
134.9414491758899
 20
146.2911365613216
 30
0.0
 10
135.0019225735341
 20
145.6877093381565
 30
0.0
 10
135.0591610479306
 20
145.0808152911146
 30
0.0
 10
135.1119023162096
 20
144.4996911837094
 30
0.0
 10
135.1481059763233
 20
144.0879260065729
 30
0.0
 10
135.166673383103
 20
143.8767481445113
 30
0.0
  0
SPLINE
  5
DF
330
1F
100
AcDbEntity
  8
0
  6
Continuous
 62
     7
370
    15
100
AcDbSpline
210
0.0
220
0.0
230
1.0
 70
     8
 71
     3
 72
    17
 73
    13
 74
     0
 42
0.00000001
 43
0.00000001
 12
1.0
 22
0.0
 32
0.0
 13
1.0
 23
0.0
 33
0.0
 40
0.0
 40
0.0
 40
0.0
 40
0.0
 40
0.0624944443100162
 40
0.1207938159643076
 40
0.2244300059893635
 40
0.3280354432381895
 40
0.4154447892478844
 40
0.5007851459540937
 40
0.58601949032538
 40
0.671242475819366
 40
0.8610156562344493
 40
1.0
 40
1.0
 40
1.0
 40
1.0
 10
134.9864298184912
 20
149.1926628558801
 30
0.0
 10
134.9397400392778
 20
149.1896909449669
 30
0.0
 10
134.8494946317063
 20
149.1839466189891
 30
0.0
 10
134.6989254892382
 20
149.1232566034309
 30
0.0
 10
134.5544753921641
 20
149.0095579719958
 30
0.0
 10
134.4546438339026
 20
148.85188297698
 30
0.0
 10
134.4094135452934
 20
148.7455884257401
 30
0.0
 10
134.3684274400395
 20
148.6300608518139
 30
0.0
 10
134.3318642555678
 20
148.5026204973655
 30
0.0
 10
134.28386658101
 20
148.3033825348416
 30
0.0
 10
134.2338169046872
 20
148.0468548542292
 30
0.0
 10
134.1971479886026
 20
147.7986804877503
 30
0.0
 10
134.1816459700517
 20
147.6937631887456
 30
0.0
  0
SPLINE
  5
E0
330
1F
100
AcDbEntity
  8
0
  6
Continuous
 62
     7
370
    15
100
AcDbSpline
210
0.0
220
0.0
230
1.0
 70
     8
 71
     3
 72
    20
 73
    16
 74
     0
 42
0.00000001
 43
0.00000001
 12
1.0
 22
0.0
 32
0.0
 13
1.0
 23
0.0
 33
0.0
 40
0.0
 40
0.0
 40
0.0
 40
0.0
 40
0.0418477383917126
 40
0.080773986080228
 40
0.1496374928860761
 40
0.2075715031267932
 40
0.2568388189586364
 40
0.3492065188257171
 40
0.4376092604112419
 40
0.5498453197031682
 40
0.6596335536133758
 40
0.7804794290712027
 40
0.8792815582429616
 40
0.9850149053561434
 40
1.0
 40
1.0
 40
1.0
 40
1.0
 10
131.9865553607697
 20
149.1936518489881
 30
0.0
 10
131.9383701790829
 20
149.1905394077808
 30
0.0
 10
131.8453637384859
 20
149.184531812331
 30
0.0
 10
131.691356779037
 20
149.1203216229839
 30
0.0
 10
131.5548220582179
 20
149.0084480812566
 30
0.0
 10
131.461741258168
 20
148.8637525067632
 30
0.0
 10
131.4060409294004
 20
148.7397754212628
 30
0.0
 10
131.3514758249056
 20
148.5797026796358
 30
0.0
 10
131.2897209874808
 20
148.3336051720154
 30
0.0
 10
131.2319292803141
 20
148.032689733086
 30
0.0
 10
131.172960332247
 20
147.6539052290119
 30
0.0
 10
131.1164392156903
 20
147.229461703729
 30
0.0
 10
131.0611789650812
 20
146.759572160154
 30
0.0
 10
131.0239807757054
 20
146.420227854109
 30
0.0
 10
131.0035855378011
 20
146.2187706022144
 30
0.0
 10
131.0010538237909
 20
146.1937631887456
 30
0.0
  0
SPLINE
  5
E1
330
1F
100
AcDbEntity
  8
0
  6
Continuous
 62
     7
370
    15
100
AcDbSpline
210
0.0
220
0.0
230
1.0
 70
     8
 71
     3
 72
    16
 73
    12
 74
     0
 42
0.00000001
 43
0.00000001
 12
1.0
 22
0.0
 32
0.0
 13
1.0
 23
0.0
 33
0.0
 40
0.0
 40
0.0
 40
0.0
 40
0.0
 40
0.0991803778709729
 40
0.1959498564902031
 40
0.3401024452261667
 40
0.4809347912422016
 40
0.6148005910500846
 40
0.7426881965155949
 40
0.8561466960604213
 40
0.9818093141923944
 40
0.9999999999999999
 40
0.9999999999999999
 40
0.9999999999999999
 40
0.9999999999999999
 10
128.9860621524071
 20
149.1925777456993
 30
0.0
 10
128.9059499162795
 20
149.1824504530598
 30
0.0
 10
128.7476728305363
 20
149.1624420443208
 30
0.0
 10
128.5624436594527
 20
149.0196167290032
 30
0.0
 10
128.4566829493067
 20
148.8599875971507
 30
0.0
 10
128.3788139394367
 20
148.6689943734771
 30
0.0
 10
128.3173685898742
 20
148.452443979095
 30
0.0
 10
128.2704670930233
 20
148.2356144162408
 30
0.0
 10
128.2291849477111
 20
148.0065434119434
 30
0.0
 10
128.2001018319978
 20
147.8316816797415
 30
0.0
 10
128.184121254963
 20
147.7175081082494
 30
0.0
 10
128.1821004626148
 20
147.703070514467
 30
0.0
  0
SPLINE
  5
E2
330
1F
100
AcDbEntity
  8
0
  6
Continuous
 62
     7
370
    15
100
AcDbSpline
210
0.0
220
0.0
230
1.0
 70
     8
 71
     3
 72
    11
 73
     7
 74
     0
 42
0.00000001
 43
0.00000001
 12
1.0
 22
0.0
 32
0.0
 13
1.0
 23
0.0
 33
0.0
 40
0.0
 40
0.0
 40
0.0
 40
0.0
 40
0.35839066832432
 40
0.6871730508057113
 40
0.9866978430565405
 40
1.0
 40
1.0
 40
1.0
 40
1.0
 10
128.2626466857393
 20
138.6311614182212
 30
0.0
 10
128.2851981408217
 20
138.7890731774352
 30
0.0
 10
128.3284379725436
 20
139.0918508860303
 30
0.0
 10
128.3904724514686
 20
139.6220730579218
 30
0.0
 10
128.4307673171145
 20
139.9890290236396
 30
0.0
 10
128.4503821187214
 20
140.1854124897596
 30
0.0
 10
128.4512161874296
 20
140.1937631887456
 30
0.0
  0
SPLINE
  5
E3
330
1F
100
AcDbEntity
  8
0
  6
Continuous
 62
     7
370
    15
100
AcDbSpline
210
0.0
220
0.0
230
1.0
 70
     8
 71
     3
 72
    20
 73
    16
 74
     0
 42
0.00000001
 43
0.00000001
 12
1.0
 22
0.0
 32
0.0
 13
1.0
 23
0.0
 33
0.0
 40
0.0
 40
0.0
 40
0.0
 40
0.0
 40
0.0613198559525905
 40
0.1177342377316146
 40
0.1933911169375996
 40
0.2603154497636501
 40
0.323046651776209
 40
0.3841349277565741
 40
0.4632162843679976
 40
0.5398519333768608
 40
0.6157101141490345
 40
0.7011010568491356
 40
0.7980099360997702
 40
0.9063656819694341
 40
0.9999999999999999
 40
0.9999999999999999
 40
0.9999999999999999
 40
0.9999999999999999
 10
130.4653191195356
 20
137.19429673109
 30
0.0
 10
130.5350986391894
 20
137.2016926876472
 30
0.0
 10
130.6690754469964
 20
137.2158929380233
 30
0.0
 10
130.8447042354174
 20
137.3270655691605
 30
0.0
 10
130.9696046000851
 20
137.480532514285
 30
0.0
 10
131.03820132621
 20
137.6276368355874
 30
0.0
 10
131.082652325847
 20
137.7533169282874
 30
0.0
 10
131.1286952896855
 20
137.9135905441599
 30
0.0
 10
131.1721093051995
 20
138.1033045890907
 30
0.0
 10
131.2149873767949
 20
138.3302886100003
 30
0.0
 10
131.2562073409113
 20
138.5834451426973
 30
0.0
 10
131.300610959802
 20
138.8908750795133
 30
0.0
 10
131.3501679706744
 20
139.2770089251818
 30
0.0
 10
131.4009188735849
 20
139.7116527045305
 30
0.0
 10
131.4350925615563
 20
140.0410623657957
 30
0.0
 10
131.4509340831937
 20
140.1937631887456
 30
0.0
  0
SPLINE
  5
E4
330
1F
100
AcDbEntity
  8
0
  6
Continuous
 62
     7
370
    15
100
AcDbSpline
210
0.0
220
0.0
230
1.0
 70
     8
 71
     3
 72
    16
 73
    12
 74
     0
 42
0.00000001
 43
0.00000001
 12
1.0
 22
0.0
 32
0.0
 13
1.0
 23
0.0
 33
0.0
 40
0.0
 40
0.0
 40
0.0
 40
0.0
 40
0.0623451571242178
 40
0.126044284507755
 40
0.22511979773047
 40
0.3299856658581057
 40
0.4334645603812592
 40
0.5328129093758024
 40
0.7006333932065811
 40
0.8672235562949872
 40
1.0
 40
1.0
 40
1.0
 40
1.0
 10
133.4663873047077
 20
137.1942117890178
 30
0.0
 10
133.518958184435
 20
137.1982082505808
 30
0.0
 10
133.6252416429556
 20
137.2062879661754
 30
0.0
 10
133.7727040003829
 20
137.2751645590357
 30
0.0
 10
133.896897062344
 20
137.3821504800387
 30
0.0
 10
133.9794109105442
 20
137.5073981057362
 30
0.0
 10
134.0462272712873
 20
137.650225949174
 30
0.0
 10
134.1112379633472
 20
137.8418011231047
 30
0.0
 10
134.1698100985415
 20
138.0883074819204
 30
0.0
 10
134.2220841749459
 20
138.3648145458461
 30
0.0
 10
134.2557215771421
 20
138.5926933441295
 30
0.0
 10
134.2706405912797
 20
138.6937631887456
 30
0.0
  0
SPLINE
  5
E5
330
1F
100
AcDbEntity
  8
0
  6
Continuous
 62
     7
370
    15
100
AcDbSpline
210
0.0
220
0.0
230
1.0
 70
     8
 71
     3
 72
    24
 73
    20
 74
     0
 42
0.00000001
 43
0.00000001
 12
1.0
 22
0.0
 32
0.0
 13
1.0
 23
0.0
 33
0.0
 40
0.0
 40
0.0
 40
0.0
 40
0.0
 40
0.081405350145252
 40
0.1588565251119073
 40
0.2323849535258882
 40
0.3352555473944802
 40
0.4291846172420433
 40
0.5140834035881373
 40
0.589939611069404
 40
0.6567105281664594
 40
0.7143143639900175
 40
0.7626730751787018
 40
0.8017217842432606
 40
0.8314082321538239
 40
0.8570774057883256
 40
0.8862702005266457
 40
0.9196074423192666
 40
0.957497605147049
 40
1.0
 40
1.0
 40
1.0
 40
1.0
 10
136.1666104151898
 20
143.8781057361145
 30
0.0
 10
136.1469854494052
 20
144.101611932142
 30
0.0
 10
136.1086887789232
 20
144.5377677570179
 30
0.0
 10
136.0524122567059
 20
145.1561518858391
 30
0.0
 10
135.9907281539883
 20
145.8047582354938
 30
0.0
 10
135.92460283594
 20
146.4530069664056
 30
0.0
 10
135.8549892742937
 20
147.0649363000775
 30
0.0
 10
135.7911043359359
 20
147.5559619046074
 30
0.0
 10
135.7329240851825
 20
147.9378305884453
 30
0.0
 10
135.6804275241468
 20
148.2279272696679
 30
0.0
 10
135.6334260120984
 20
148.4431821029247
 30
0.0
 10
135.5922145281988
 20
148.5986134244215
 30
0.0
 10
135.5558295938006
 20
148.7100480411151
 30
0.0
 10
135.5250392902046
 20
148.7889990204566
 30
0.0
 10
135.4862685177416
 20
148.8697376719649
 30
0.0
 10
135.4227719021037
 20
148.9701740038577
 30
0.0
 10
135.3208591857141
 20
149.0760806415659
 30
0.0
 10
135.168287631049
 20
149.1718662237768
 30
0.0
 10
135.0360023587287
 20
149.185459556156
 30
0.0
 10
134.9660650282147
 20
149.1926461564686
 30
0.0
  0
SPLINE
  5
E6
330
1F
100
AcDbEntity
  8
0
  6
Continuous
 62
     7
370
    15
100
AcDbSpline
210
0.0
220
0.0
230
1.0
 70
     8
 71
     3
 72
    42
 73
    38
 74
     0
 42
0.00000001
 43
0.00000001
 12
1.0
 22
0.0
 32
0.0
 13
1.0
 23
0.0
 33
0.0
 40
0.0
 40
0.0
 40
0.0
 40
0.0
 40
0.0135193613088995
 40
0.0448893072710391
 40
0.0757530773564679
 40
0.1060342279022069
 40
0.1357820372039736
 40
0.1668986820687588
 40
0.2000914130273441
 40
0.2353501742315197
 40
0.2726707736312762
 40
0.2987141891630199
 40
0.3256872808720125
 40
0.3514266824885943
 40
0.3779122024329085
 40
0.3995829571760469
 40
0.4164292362212464
 40
0.4284609877169905
 40
0.4409726785626313
 40
0.4582279849773558
 40
0.4802367150060059
 40
0.5070117792454993
 40
0.5385642589075589
 40
0.5748982805907782
 40
0.6224352623241625
 40
0.6665073593705405
 40
0.707085675833851
 40
0.744147213606099
 40
0.7880429195208211
 40
0.8260883824230003
 40
0.8642424043906282
 40
0.8943077859131402
 40
0.9258209066060443
 40
0.9425334442561148
 40
0.9603352959528089
 40
0.9794668392202944
 40
1.0
 40
1.0
 40
1.0
 40
1.0
 10
133.8143706696137
 20
138.0480675624895
 30
0.0
 10
133.8138497953866
 20
138.0521005980658
 30
0.0
 10
133.8121202992442
 20
138.0654917760277
 30
0.0
 10
133.7881786335526
 20
138.1497453769567
 30
0.0
 10
133.7563444917826
 20
138.2975496747307
 30
0.0
 10
133.7179567414983
 20
138.5017804229618
 30
0.0
 10
133.676271333934
 20
138.7604056458961
 30
0.0
 10
133.632545718558
 20
139.0692183837353
 30
0.0
 10
133.5859434449299
 20
139.4374590203479
 30
0.0
 10
133.5361119573124
 20
139.8714979583265
 30
0.0
 10
133.4894294349889
 20
140.3141757625431
 30
0.0
 10
133.4466035968992
 20
140.7452877270705
 30
0.0
 10
133.4092225950761
 20
141.1371287888342
 30
0.0
 10
133.3716217566939
 20
141.5442196858939
 30
0.0
 10
133.3365270861199
 20
141.9337913573014
 30
0.0
 10
133.3056444852787
 20
142.2824408705788
 30
0.0
 10
133.2816197839784
 20
142.5563015764411
 30
0.0
 10
133.2619422848359
 20
142.7817502763645
 30
0.0
 10
133.2420682360435
 20
143.0101435966503
 30
0.0
 10
133.2174475559677
 20
143.2936670138078
 30
0.0
 10
133.1860420313607
 20
143.6552157399437
 30
0.0
 10
133.1478364450722
 20
144.0928092503783
 30
0.0
 10
133.1028080054802
 20
144.6018394364474
 30
0.0
 10
133.0478813512848
 20
145.207342365559
 30
0.0
 10
132.9868797824788
 20
145.8492545084917
 30
0.0
 10
132.9237289710768
 20
146.4652631380502
 30
0.0
 10
132.8654002247466
 20
146.9847252201393
 30
0.0
 10
132.8069164583543
 20
147.4534436036479
 30
0.0
 10
132.748890586922
 20
147.8578468670417
 30
0.0
 10
132.6901240755309
 20
148.1983971641659
 30
0.0
 10
132.6326228943487
 20
148.4658817352557
 30
0.0
 10
132.5650961830546
 20
148.6902947633212
 30
0.0
 10
132.5098052331595
 20
148.8290900558359
 30
0.0
 10
132.4248566121337
 20
148.9672309502197
 30
0.0
 10
132.3215304054357
 20
149.0757998852414
 30
0.0
 10
132.1701000513065
 20
149.1720102804982
 30
0.0
 10
132.0357474744817
 20
149.1862782752867
 30
0.0
 10
131.9661974015042
 20
149.1936643642047
 30
0.0
  0
LWPOLYLINE
  5
E7
330
1F
100
AcDbEntity
  8
0
  6
Continuous
 62
     7
370
    15
100
AcDbPolyline
 90
       37
 70
   128
 43
0.0
 10
130.8092719949
 20
138.0546128613
 10
130.8128207808
 20
138.0530463258
 10
130.7971792783
 20
138.1204980252
 10
130.7690498763
 20
138.2439400965
 10
130.7344210377
 20
138.4171200511
 10
130.696010353
 20
138.6391314544
 10
130.6522989836
 20
138.93024002
 10
130.6032299477
 20
139.302059722
 10
130.5488649147
 20
139.7633207917
 10
130.489261696
 20
140.3206025033
 10
130.4466428272
 20
140.7474212418
 10
130.4017347295
 20
141.2187867197
 10
130.357605216
 20
141.6997423579
 10
130.299994263
 20
142.346883859
 10
130.252751197
 20
142.8875481686
 10
130.2159214465
 20
143.3115611163
 10
130.1895394562
 20
143.6150966251
 10
130.173883064
 20
143.7947180531
 10
130.1528249139
 20
144.0352989174
 10
130.1250440146
 20
144.3501958537
 10
130.0905240069
 20
144.7361330878
 10
130.0492440252
 20
145.187344789
 10
129.9921687229
 20
145.7869175157
 10
129.9375303474
 20
146.3271997397
 10
129.8856118721
 20
146.80311799
 10
129.8363640708
 20
147.215784029
 10
129.7747613372
 20
147.6736756749
 10
129.71618543
 20
148.0437146703
 10
129.6514032021
 20
148.3719731872
 10
129.5950643719
 20
148.5894457228
 10
129.5287113483
 20
148.7770150825
 10
129.4808107585
 20
148.8743024438
 10
129.3871151715
 20
149.0040925514
 10
129.2201572843
 20
149.1322460186
 10
129.1033189415
 20
149.1765315761
 10
128.9656962847
 20
149.1925874908
 10
128.9656962847
 20
149.1925874908
  0
LINE
  5
E8
330
1F
100
AcDbEntity
  8
0
  6
Continuous
 62
     7
370
    15
100
AcDbLine
 10
120.8701758499
 20
128.8937631887
 30
0.0
 11
121.2201758499
 21
126.3937631887
 31
0.0
  0
LINE
  5
E9
330
1F
100
AcDbEntity
  8
0
  6
Continuous
 62
     7
370
    15
100
AcDbLine
 10
125.2201758499
 20
126.3937631887
 30
0.0
 11
125.5701758499
 21
128.8937631887
 31
0.0
  0
LINE
  5
EA
330
1F
100
AcDbEntity
  8
0
  6
Continuous
 62
     7
370
    15
100
AcDbLine
 10
120.8701758499
 20
131.3937631887
 30
0.0
 11
121.2201758499
 21
128.8937631887
 31
0.0
  0
LINE
  5
EB
330
1F
100
AcDbEntity
  8
0
  6
Continuous
 62
     7
370
    15
100
AcDbLine
 10
125.2201758499
 20
128.8937631887
 30
0.0
 11
125.5701758499
 21
131.3937631887
 31
0.0
  0
LINE
  5
EC
330
1F
100
AcDbEntity
  8
0
  6
Continuous
 62
     7
370
    15
100
AcDbLine
 10
125.3201758499
 20
131.3937631887
 30
0.0
 11
125.3201758499
 21
133.8937631887
 31
0.0
  0
LINE
  5
ED
330
1F
100
AcDbEntity
  8
0
  6
Continuous
 62
     7
370
    15
100
AcDbLine
 10
121.1201758499
 20
133.8937631887
 30
0.0
 11
121.1201758499
 21
131.3937631887
 31
0.0
  0
LINE
  5
EE
330
1F
100
AcDbEntity
  8
0
  6
Continuous
 62
     7
370
    15
100
AcDbLine
 10
119.2201758499
 20
149.9937631887
 30
0.0
 11
119.2201758499
 21
149.1937631887
 31
0.0
  0
LINE
  5
EF
330
1F
100
AcDbEntity
  8
0
  6
Continuous
 62
     7
370
    15
100
AcDbLine
 10
127.2201758499
 20
149.1937631887
 30
0.0
 11
127.2201758499
 21
149.9937631887
 31
0.0
  0
LINE
  5
F0
330
1F
100
AcDbEntity
  8
0
  6
Continuous
 62
     7
370
    15
100
AcDbLine
 10
119.2201758499
 20
137.1937631887
 30
0.0
 11
119.2201758499
 21
136.3937631887
 31
0.0
  0
LINE
  5
F1
330
1F
100
AcDbEntity
  8
0
  6
Continuous
 62
     7
370
    15
100
AcDbLine
 10
127.2201758499
 20
136.3937631887
 30
0.0
 11
127.2201758499
 21
137.1937631887
 31
0.0
  0
LINE
  5
F2
330
1F
100
AcDbEntity
  8
0
  6
Continuous
 62
     7
370
    15
100
AcDbLine
 10
159.9201758499
 20
146.8865234719
 30
0.0
 11
159.3201758499
 21
146.8865234719
 31
0.0
  0
LINE
  5
F3
330
1F
100
AcDbEntity
  8
0
  6
Continuous
 62
     7
370
    15
100
AcDbLine
 10
159.3201758499
 20
138.6937631887
 30
0.0
 11
159.3201758499
 21
146.8865234719
 31
0.0
  0
LINE
  5
F4
330
1F
100
AcDbEntity
  8
0
  6
Continuous
 62
     7
370
    15
100
AcDbLine
 10
159.9201758499
 20
138.6937631887
 30
0.0
 11
159.9201758499
 21
146.8865234719
 31
0.0
  0
LINE
  5
F5
330
1F
100
AcDbEntity
  8
0
  6
Continuous
 62
     7
370
    15
100
AcDbLine
 10
159.3201758499
 20
146.8865234719
 30
0.0
 11
159.3201758499
 21
146.9224007926
 31
0.0
  0
LINE
  5
F6
330
1F
100
AcDbEntity
  8
0
  6
Continuous
 62
     7
370
    15
100
AcDbLine
 10
159.9201758499
 20
146.9224007926
 30
0.0
 11
159.9201758499
 21
146.8865234719
 31
0.0
  0
LINE
  5
F7
330
1F
100
AcDbEntity
  8
0
  6
Continuous
 62
     7
370
    15
100
AcDbLine
 10
137.8201758499
 20
135.2558330617
 30
0.0
 11
137.8201758499
 21
135.1937631887
 31
0.0
  0
LINE
  5
F8
330
1F
100
AcDbEntity
  8
0
  6
Continuous
 62
     7
370
    15
100
AcDbLine
 10
137.8201758499
 20
151.1937631887
 30
0.0
 11
137.8201758499
 21
135.2558330617
 31
0.0
  0
LINE
  5
F9
330
1F
100
AcDbEntity
  8
0
  6
Continuous
 62
     7
370
    15
100
AcDbLine
 10
136.6201758499
 20
135.2558330617
 30
0.0
 11
136.6201758499
 21
135.1937631887
 31
0.0
  0
LINE
  5
FA
330
1F
100
AcDbEntity
  8
0
  6
Continuous
 62
     7
370
    15
100
AcDbLine
 10
136.6201758499
 20
151.1937631887
 30
0.0
 11
136.6201758499
 21
135.2558330617
 31
0.0
  0
LINE
  5
FB
330
1F
100
AcDbEntity
  8
0
  6
Continuous
 62
     7
370
    15
100
AcDbLine
 10
138.2201758499
 20
135.652729568
 30
0.0
 11
138.2201758499
 21
135.5937631887
 31
0.0
  0
LINE
  5
FC
330
1F
100
AcDbEntity
  8
0
  6
Continuous
 62
     7
370
    15
100
AcDbLine
 10
138.2201758499
 20
150.7937631887
 30
0.0
 11
138.2201758499
 21
135.652729568
 31
0.0
  0
LINE
  5
FD
330
1F
100
AcDbEntity
  8
0
  6
Continuous
 62
     7
370
    15
100
AcDbLine
 10
136.2201758499
 20
135.652729568
 30
0.0
 11
136.2201758499
 21
135.5937631887
 31
0.0
  0
LINE
  5
FE
330
1F
100
AcDbEntity
  8
0
  6
Continuous
 62
     7
370
    15
100
AcDbLine
 10
136.2201758499
 20
150.7937631887
 30
0.0
 11
136.2201758499
 21
135.652729568
 31
0.0
  0
LINE
  5
FF
330
1F
100
AcDbEntity
  8
0
  6
Continuous
 62
     7
370
    15
100
AcDbLine
 10
159.2201758499
 20
137.6372120998
 30
0.0
 11
159.2201758499
 21
137.5937631887
 31
0.0
  0
LINE
  5
100
330
1F
100
AcDbEntity
  8
0
  6
Continuous
 62
     7
370
    15
100
AcDbLine
 10
159.2201758499
 20
148.7937631887
 30
0.0
 11
159.2201758499
 21
137.6372120998
 31
0.0
  0
LINE
  5
101
330
1F
100
AcDbEntity
  8
0
  6
Continuous
 62
     7
370
    15
100
AcDbLine
 10
158.8201758499
 20
137.2403155934
 30
0.0
 11
158.8201758499
 21
137.1937631887
 31
0.0
  0
LINE
  5
102
330
1F
100
AcDbEntity
  8
0
  6
Continuous
 62
     7
370
    15
100
AcDbLine
 10
158.8201758499
 20
149.1937631887
 30
0.0
 11
158.8201758499
 21
137.2403155934
 31
0.0
  0
LINE
  5
103
330
1F
100
AcDbEntity
  8
0
  6
Continuous
 62
     7
370
    15
100
AcDbLine
 10
133.6201758499
 20
147.6937631887
 30
0.0
 11
133.6201758499
 21
139.1577733599
 31
0.0
  0
LINE
  5
104
330
1F
100
AcDbEntity
  8
0
  6
Continuous
 62
     7
370
    15
100
AcDbLine
 10
133.2201758499
 20
147.2937631887
 30
0.0
 11
133.2201758499
 21
143.2619457283
 31
0.0
  0
LINE
  5
105
330
1F
100
AcDbEntity
  8
0
  6
Continuous
 62
     7
370
    15
100
AcDbLine
 10
126.7275787353
 20
149.9937631887
 30
0.0
 11
126.7275787353
 21
152.4937631887
 31
0.0
  0
LINE
  5
106
330
1F
100
AcDbEntity
  8
0
  6
Continuous
 62
     7
370
    15
100
AcDbLine
 10
123.2201758499
 20
149.9937631887
 30
0.0
 11
123.3084663073
 21
149.9937631887
 31
0.0
  0
LINE
  5
107
330
1F
100
AcDbEntity
  8
0
  6
Continuous
 62
     7
370
    15
100
AcDbLine
 10
126.6392882779
 20
149.9937631887
 30
0.0
 11
126.7275787353
 21
149.9937631887
 31
0.0
  0
LINE
  5
108
330
1F
100
AcDbEntity
  8
0
  6
Continuous
 62
     7
370
    15
100
AcDbLine
 10
123.2201758499
 20
149.9937631887
 30
0.0
 11
123.2201758501
 21
152.4937631887
 31
0.0
  0
LINE
  5
109
330
1F
100
AcDbEntity
  8
0
  6
Continuous
 62
     7
370
    15
100
AcDbLine
 10
123.2201758501
 20
152.4937631887
 30
0.0
 11
126.7275787353
 21
152.4937631887
 31
0.0
  0
LINE
  5
10A
330
1F
100
AcDbEntity
  8
0
  6
Continuous
 62
     7
370
    15
100
AcDbLine
 10
119.7127729646
 20
149.9937631887
 30
0.0
 11
119.7127729646
 21
152.4937631887
 31
0.0
  0
LINE
  5
10B
330
1F
100
AcDbEntity
  8
0
  6
Continuous
 62
     7
370
    15
100
AcDbLine
 10
119.7127729646
 20
152.4937631887
 30
0.0
 11
123.2201758501
 21
152.4937631887
 31
0.0
  0
LINE
  5
10C
330
1F
100
AcDbEntity
  8
0
  6
Continuous
 62
     7
370
    15
100
AcDbLine
 10
119.7127729646
 20
149.9937631887
 30
0.0
 11
119.801063422
 21
149.9937631887
 31
0.0
  0
LINE
  5
10D
330
1F
100
AcDbEntity
  8
0
  6
Continuous
 62
     7
370
    15
100
AcDbLine
 10
123.1318853926
 20
149.9937631887
 30
0.0
 11
123.2201758499
 21
149.9937631887
 31
0.0
  0
LINE
  5
10E
330
1F
100
AcDbEntity
  8
0
  6
Continuous
 62
     7
370
    15
100
AcDbLine
 10
127.2201758499
 20
143.1937631887
 30
0.0
 11
119.2201758499
 21
143.1937631887
 31
0.0
  0
LINE
  5
10F
330
1F
100
AcDbEntity
  8
0
  6
Continuous
 62
     7
370
    15
100
AcDbLine
 10
127.2201758499
 20
143.1937631887
 30
0.0
 11
127.2201758499
 21
137.1937631887
 31
0.0
  0
LINE
  5
110
330
1F
100
AcDbEntity
  8
0
  6
Continuous
 62
     7
370
    15
100
AcDbLine
 10
127.2201758499
 20
137.1937631887
 30
0.0
 11
125.2201758499
 21
137.1937631887
 31
0.0
  0
LINE
  5
111
330
1F
100
AcDbEntity
  8
0
  6
Continuous
 62
     7
370
    15
100
AcDbLine
 10
121.2201758499
 20
137.1937631887
 30
0.0
 11
119.2201758499
 21
137.1937631887
 31
0.0
  0
LINE
  5
112
330
1F
100
AcDbEntity
  8
0
  6
Continuous
 62
     7
370
    15
100
AcDbLine
 10
119.2201758499
 20
143.1937631887
 30
0.0
 11
119.2201758499
 21
137.1937631887
 31
0.0
  0
LINE
  5
113
330
1F
100
AcDbEntity
  8
0
  6
Continuous
 62
     7
370
    15
100
AcDbLine
 10
127.2201758499
 20
149.1937631887
 30
0.0
 11
125.2201758499
 21
149.1937631887
 31
0.0
  0
LINE
  5
114
330
1F
100
AcDbEntity
  8
0
  6
Continuous
 62
     7
370
    15
100
AcDbLine
 10
121.2201758499
 20
149.1937631887
 30
0.0
 11
119.2201758499
 21
149.1937631887
 31
0.0
  0
LINE
  5
115
330
1F
100
AcDbEntity
  8
0
  6
Continuous
 62
     7
370
    15
100
AcDbLine
 10
119.2201758499
 20
149.1937631887
 30
0.0
 11
119.2201758499
 21
143.1937631887
 31
0.0
  0
LINE
  5
116
330
1F
100
AcDbEntity
  8
0
  6
Continuous
 62
     7
370
    15
100
AcDbLine
 10
127.2201758499
 20
149.1937631887
 30
0.0
 11
127.2201758499
 21
143.1937631887
 31
0.0
  0
LINE
  5
117
330
1F
100
AcDbEntity
  8
0
  6
Continuous
 62
     7
370
    15
100
AcDbLine
 10
110.2201758499
 20
148.6937631887
 30
0.0
 11
110.2201758499
 21
137.6937631887
 31
0.0
  0
LINE
  5
118
330
1F
100
AcDbEntity
  8
0
  6
Continuous
 62
     7
370
    15
100
AcDbLine
 10
112.2201758499
 20
148.6937631887
 30
0.0
 11
112.2201758499
 21
137.6937631887
 31
0.0
  0
LINE
  5
119
330
1F
100
AcDbEntity
  8
0
  6
Continuous
 62
     7
370
    15
100
AcDbLine
 10
128.2201758499
 20
147.6937631887
 30
0.0
 11
128.2201758499
 21
138.6937631887
 31
0.0
  0
LINE
  5
11A
330
1F
100
AcDbEntity
  8
0
  6
Continuous
 62
     7
370
    15
100
AcDbLine
 10
161.2201758499
 20
145.6937631887
 30
0.0
 11
161.2201758499
 21
140.6937631887
 31
0.0
  0
LINE
  5
11B
330
1F
100
AcDbEntity
  8
0
  6
Continuous
 62
     7
370
    15
100
AcDbLine
 10
160.7201758499
 20
140.1937631887
 30
0.0
 11
160.7201758499
 21
146.1937631887
 31
0.0
  0
SPLINE
  5
11C
330
1F
100
AcDbEntity
  8
0
  6
Continuous
 62
     7
370
    15
100
AcDbSpline
210
0.0
220
0.0
230
1.0
 70
     8
 71
     3
 72
    11
 73
     7
 74
     0
 42
0.00000001
 43
0.00000001
 12
1.0
 22
0.0
 32
0.0
 13
1.0
 23
0.0
 33
0.0
 40
0.0000085529160422
 40
0.0000085529160422
 40
0.0000085529160422
 40
0.0000085529160422
 40
0.1250000393223474
 40
0.2500000393223474
 40
0.3750000393223474
 40
0.4999914864063052
 40
0.4999914864063052
 40
0.4999914864063052
 40
0.4999914864063052
 10
135.6666151650102
 20
143.9395787575062
 30
0.0
 10
135.5360221228436
 20
143.9395778415955
 30
0.0
 10
135.2748323534825
 20
143.926128833655
 30
0.0
 10
135.1125447566375
 20
143.8774274601952
 30
0.0
 10
135.2748323364646
 20
143.828726091842
 30
0.0
 10
135.536022040676
 20
143.815277083026
 30
0.0
 10
135.6666150417563
 20
143.8152761628851
 30
0.0
  0
SPLINE
  5
11D
330
1F
100
AcDbEntity
  8
0
  6
Continuous
 62
     7
370
    15
100
AcDbSpline
210
0.0
220
0.0
230
1.0
 70
     8
 71
     3
 72
    13
 73
     9
 74
     0
 42
0.00000001
 43
0.00000001
 12
1.0
 22
0.0
 32
0.0
 13
1.0
 23
0.0
 33
0.0
 40
0.0
 40
0.0
 40
0.0
 40
0.0
 40
0.0980175761343502
 40
0.303443142897682
 40
0.5179800845611844
 40
0.7271509103072518
 40
0.9372094540087252
 40
1.0
 40
1.0
 40
1.0
 40
1.0
 10
127.2744807773312
 20
138.6937631887456
 30
0.0
 10
127.2719727807784
 20
138.672368868466
 30
0.0
 10
127.2642085165884
 20
138.6061362595622
 30
0.0
 10
127.3130177838981
 20
138.4961585102111
 30
0.0
 10
127.4093579070202
 20
138.3822461849763
 30
0.0
 10
127.5519386153569
 20
138.3036093516559
 30
0.0
 10
127.6774861107012
 20
138.2737230793893
 30
0.0
 10
127.7499410359786
 20
138.2717691596915
 30
0.0
 10
127.7666150308343
 20
138.2713195056913
 30
0.0
  0
SPLINE
  5
11E
330
1F
100
AcDbEntity
  8
0
  6
Continuous
 62
     7
370
    15
100
AcDbSpline
210
0.0
220
0.0
230
1.0
 70
     8
 71
     3
 72
    13
 73
     9
 74
     0
 42
0.00000001
 43
0.00000001
 12
1.0
 22
0.0
 32
0.0
 13
1.0
 23
0.0
 33
0.0
 40
0.4999914864057088
 40
0.4999914864057088
 40
0.4999914864057088
 40
0.4999914864057088
 40
0.5
 40
0.625
 40
0.75
 40
0.875
 40
1.0
 40
1.000008552916922
 40
1.000008552916922
 40
1.000008552916922
 40
1.000008552916922
 10
135.6666151650102
 20
143.9395787575065
 30
0.0
 10
135.6666240601454
 20
143.9395787575689
 30
0.0
 10
135.7972348927641
 20
143.9395792155911
 30
0.0
 10
136.0584476628614
 20
143.9261299393436
 30
0.0
 10
136.220738944192
 20
143.8774274601955
 30
0.0
 10
136.0584476628614
 20
143.828724981047
 30
0.0
 10
135.7972348516797
 20
143.8152757026846
 30
0.0
 10
135.6666239779765
 20
143.8152761628224
 30
0.0
 10
135.6666150417563
 20
143.8152761628854
 30
0.0
  0
SPLINE
  5
11F
330
1F
100
AcDbEntity
  8
0
  6
Continuous
 62
     7
370
    15
100
AcDbSpline
210
0.0
220
0.0
230
1.0
 70
     8
 71
     3
 72
    13
 73
     9
 74
     0
 42
0.00000001
 43
0.00000001
 12
1.0
 22
0.0
 32
0.0
 13
1.0
 23
0.0
 33
0.0
 40
0.0
 40
0.0
 40
0.0
 40
0.0
 40
0.1704414454765077
 40
0.3406642086920209
 40
0.5132424887699015
 40
0.6786422043091257
 40
0.8525428818439393
 40
1.0
 40
1.0
 40
1.0
 40
1.0
 10
127.7666150308342
 20
138.2713195056913
 30
0.0
 10
127.8230647113335
 20
138.2761350493045
 30
0.0
 10
127.9358916454423
 20
138.2857599580221
 30
0.0
 10
128.087068553339
 20
138.3566864830457
 30
0.0
 10
128.1998065081598
 20
138.4619675469479
 30
0.0
 10
128.2633337511856
 20
138.592474338604
 30
0.0
 10
128.2750664754086
 20
138.7281279974001
 30
0.0
 10
128.23744068774
 20
138.8102965878141
 30
0.0
 10
128.2201758499414
 20
138.848000180843
 30
0.0
  0
LINE
  5
120
330
1F
100
AcDbEntity
  8
0
  6
Continuous
 62
     7
370
    15
100
AcDbLine
 10
126.7275787353
 20
136.3937631887
 30
0.0
 11
126.7275787353
 21
133.8937631887
 31
0.0
  0
LINE
  5
121
330
1F
100
AcDbEntity
  8
0
  6
Continuous
 62
     7
370
    15
100
AcDbLine
 10
123.2201758499
 20
136.3937631887
 30
0.0
 11
123.2201758499
 21
133.8937631887
 31
0.0
  0
LINE
  5
122
330
1F
100
AcDbEntity
  8
0
  6
Continuous
 62
     7
370
    15
100
AcDbLine
 10
126.7275787353
 20
133.8937631887
 30
0.0
 11
123.2201758499
 21
133.8937631887
 31
0.0
  0
LINE
  5
123
330
1F
100
AcDbEntity
  8
0
  6
Continuous
 62
     7
370
    15
100
AcDbLine
 10
126.7275787353
 20
136.3937631887
 30
0.0
 11
126.6392882779
 21
136.3937631887
 31
0.0
  0
LINE
  5
124
330
1F
100
AcDbEntity
  8
0
  6
Continuous
 62
     7
370
    15
100
AcDbLine
 10
123.3084663073
 20
136.3937631887
 30
0.0
 11
123.2201758499
 21
136.3937631887
 31
0.0
  0
LINE
  5
125
330
1F
100
AcDbEntity
  8
0
  6
Continuous
 62
     7
370
    15
100
AcDbLine
 10
119.7127729646
 20
136.3937631887
 30
0.0
 11
119.7127729646
 21
133.8937631887
 31
0.0
  0
LINE
  5
126
330
1F
100
AcDbEntity
  8
0
  6
Continuous
 62
     7
370
    15
100
AcDbLine
 10
123.2201758499
 20
133.8937631887
 30
0.0
 11
119.7127729646
 21
133.8937631887
 31
0.0
  0
LINE
  5
127
330
1F
100
AcDbEntity
  8
0
  6
Continuous
 62
     7
370
    15
100
AcDbLine
 10
123.2201758499
 20
136.3937631887
 30
0.0
 11
123.1318853926
 21
136.3937631887
 31
0.0
  0
LINE
  5
128
330
1F
100
AcDbEntity
  8
0
  6
Continuous
 62
     7
370
    15
100
AcDbLine
 10
119.801063422
 20
136.3937631887
 30
0.0
 11
119.7127729646
 21
136.3937631887
 31
0.0
  0
LINE
  5
129
330
1F
100
AcDbEntity
  8
0
  6
Continuous
 62
     7
370
    15
100
AcDbLine
 10
125.5701758499
 20
128.8937631887
 30
0.0
 11
125.2553355488
 21
128.8937631887
 31
0.0
  0
LINE
  5
12A
330
1F
100
AcDbEntity
  8
0
  6
Continuous
 62
     7
370
    15
100
AcDbLine
 10
125.2553355488
 20
128.8937631887
 30
0.0
 11
120.8701758499
 21
128.8937631887
 31
0.0
  0
LINE
  5
12B
330
1F
100
AcDbEntity
  8
0
  6
Continuous
 62
     7
370
    15
100
AcDbLine
 10
124.9522266575
 20
126.3937631887
 30
0.0
 11
121.2201758499
 21
126.3937631887
 31
0.0
  0
LINE
  5
12C
330
1F
100
AcDbEntity
  8
0
  6
Continuous
 62
     7
370
    15
100
AcDbLine
 10
125.2201758499
 20
126.3937631887
 30
0.0
 11
124.9522266575
 21
126.3937631887
 31
0.0
  0
LINE
  5
12D
330
1F
100
AcDbEntity
  8
0
  6
Continuous
 62
     7
370
    15
100
AcDbLine
 10
125.5701758499
 20
131.3937631887
 30
0.0
 11
125.2553355488
 21
131.3937631887
 31
0.0
  0
LINE
  5
12E
330
1F
100
AcDbEntity
  8
0
  6
Continuous
 62
     7
370
    15
100
AcDbLine
 10
125.2553355488
 20
131.3937631887
 30
0.0
 11
120.8701758499
 21
131.3937631887
 31
0.0
  0
LINE
  5
12F
330
1F
100
AcDbEntity
  8
0
  6
Continuous
 62
     7
370
    15
100
AcDbLine
 10
125.2201758499
 20
149.1937631887
 30
0.0
 11
121.2201758499
 21
149.1937631887
 31
0.0
  0
LINE
  5
130
330
1F
100
AcDbEntity
  8
0
  6
Continuous
 62
     7
370
    15
100
AcDbLine
 10
127.2201758499
 20
149.9937631887
 30
0.0
 11
126.7275787353
 21
149.9937631887
 31
0.0
  0
LINE
  5
131
330
1F
100
AcDbEntity
  8
0
  6
Continuous
 62
     7
370
    15
100
AcDbLine
 10
126.6392882779
 20
149.9937631887
 30
0.0
 11
123.3084663073
 21
149.9937631887
 31
0.0
  0
LINE
  5
132
330
1F
100
AcDbEntity
  8
0
  6
Continuous
 62
     7
370
    15
100
AcDbLine
 10
123.1318853926
 20
149.9937631887
 30
0.0
 11
119.801063422
 21
149.9937631887
 31
0.0
  0
LINE
  5
133
330
1F
100
AcDbEntity
  8
0
  6
Continuous
 62
     7
370
    15
100
AcDbLine
 10
119.7127729646
 20
149.9937631887
 30
0.0
 11
119.2201758499
 21
149.9937631887
 31
0.0
  0
LINE
  5
134
330
1F
100
AcDbEntity
  8
0
  6
Continuous
 62
     7
370
    15
100
AcDbLine
 10
125.2201758499
 20
137.1937631887
 30
0.0
 11
121.2201758499
 21
137.1937631887
 31
0.0
  0
LINE
  5
135
330
1F
100
AcDbEntity
  8
0
  6
Continuous
 62
     7
370
    15
100
AcDbLine
 10
127.2201758499
 20
136.3937631887
 30
0.0
 11
126.7275787353
 21
136.3937631887
 31
0.0
  0
LINE
  5
136
330
1F
100
AcDbEntity
  8
0
  6
Continuous
 62
     7
370
    15
100
AcDbLine
 10
126.6392882779
 20
136.3937631887
 30
0.0
 11
123.3084663073
 21
136.3937631887
 31
0.0
  0
LINE
  5
137
330
1F
100
AcDbEntity
  8
0
  6
Continuous
 62
     7
370
    15
100
AcDbLine
 10
123.1318853926
 20
136.3937631887
 30
0.0
 11
119.801063422
 21
136.3937631887
 31
0.0
  0
LINE
  5
138
330
1F
100
AcDbEntity
  8
0
  6
Continuous
 62
     7
370
    15
100
AcDbLine
 10
119.7127729646
 20
136.3937631887
 30
0.0
 11
119.2201758499
 21
136.3937631887
 31
0.0
  0
SPLINE
  5
139
330
1F
100
AcDbEntity
  8
0
  6
Continuous
 62
     8
370
    15
100
AcDbSpline
210
0.0
220
0.0
230
1.0
 70
     8
 71
     3
 72
    19
 73
    15
 74
     0
 42
0.00000001
 43
0.00000001
 12
1.0
 22
0.0
 32
0.0
 13
1.0
 23
0.0
 33
0.0
 40
0.0
 40
0.0
 40
0.0
 40
0.0
 40
0.0893305660755524
 40
0.1786306550536943
 40
0.2679632323510606
 40
0.3573305672628115
 40
0.4466835397488424
 40
0.5359982097245293
 40
0.6253278558194855
 40
0.7146920205141526
 40
0.8040480411687789
 40
0.8933651445987939
 40
0.9826878817462342
 40
1.0
 40
1.0
 40
1.0
 40
1.0
 10
135.66661516492
 20
143.9395796511822
 30
0.0
 10
135.6460445086226
 20
144.1948963310078
 30
0.0
 10
135.6049102141618
 20
144.7054425837296
 30
0.0
 10
135.5431641186112
 20
145.4427714904915
 30
0.0
 10
135.4814459187489
 20
146.142798043096
 30
0.0
 10
135.4197454840748
 20
146.7939166332937
 30
0.0
 10
135.3580370709404
 20
147.3859080451248
 30
0.0
 10
135.2962962946771
 20
147.907686838589
 30
0.0
 10
135.2345704283923
 20
148.3492931647521
 30
0.0
 10
135.1728682271565
 20
148.7049630503796
 30
0.0
 10
135.1111617392901
 20
148.9722923226359
 30
0.0
 10
135.0494265608283
 20
149.1346064736703
 30
0.0
 10
135.0042864263469
 20
149.2030231043565
 30
0.0
 10
134.979737461666
 20
149.1875116739761
 30
0.0
 10
134.9757519488806
 20
149.1849934006027
 30
0.0
  0
SPLINE
  5
13A
330
1F
100
AcDbEntity
  8
0
  6
Continuous
 62
     8
370
    15
100
AcDbSpline
210
0.0
220
0.0
230
1.0
 70
     8
 71
     3
 72
    32
 73
    28
 74
     0
 42
0.00000001
 43
0.00000001
 12
1.0
 22
0.0
 32
0.0
 13
1.0
 23
0.0
 33
0.0
 40
0.0
 40
0.0
 40
0.0
 40
0.0
 40
0.0207965935475026
 40
0.0619472631646918
 40
0.1030970025341087
 40
0.1442290154319514
 40
0.1853597314359614
 40
0.2265084057285062
 40
0.267659878192559
 40
0.3087947703477164
 40
0.3499233613442735
 40
0.3910695793363126
 40
0.4322222160747975
 40
0.4733602093571359
 40
0.5144874801444562
 40
0.5556308814685852
 40
0.5967840705482207
 40
0.6379251997730062
 40
0.6790520994031802
 40
0.7201924473042509
 40
0.7613455567220769
 40
0.8024896928081149
 40
0.8436172097263258
 40
0.8847544141114204
 40
0.9259068147444206
 40
0.9670536877319629
 40
1.0
 40
1.0
 40
1.0
 40
1.0
 10
133.475944442885
 20
137.2067189524378
 30
0.0
 10
133.4655422429325
 20
137.2045494263138
 30
0.0
 10
133.4345569848671
 20
137.1980870119073
 30
0.0
 10
133.3830228642454
 20
137.2959212906399
 30
0.0
 10
133.3213177331415
 20
137.4905325263807
 30
0.0
 10
133.2595851181572
 20
137.7851289016542
 30
0.0
 10
133.1978494635301
 20
138.1706907320821
 30
0.0
 10
133.1361441518106
 20
138.6401602015677
 30
0.0
 10
133.0744416801008
 20
139.184449774272
 30
0.0
 10
133.0127146395608
 20
139.7951815367796
 30
0.0
 10
132.9509745192107
 20
140.4638753186716
 30
0.0
 10
132.8892662306566
 20
141.1781362074748
 30
0.0
 10
132.8275648105146
 20
141.9255411828135
 30
0.0
 10
132.7658436318313
 20
142.6939617737098
 30
0.0
 10
132.7041006535518
 20
143.470942662313
 30
0.0
 10
132.6423884380238
 20
144.2431480006239
 30
0.0
 10
132.5806874867381
 20
144.9980259961154
 30
0.0
 10
132.5189717185769
 20
145.7232363986541
 30
0.0
 10
132.4572279317843
 20
146.4057886716729
 30
0.0
 10
132.3955108684243
 20
147.0339153119411
 30
0.0
 10
132.3338098502807
 20
147.5986744489718
 30
0.0
 10
132.2720987131314
 20
148.0910045493791
 30
0.0
 10
132.2103562655537
 20
148.5008919501735
 30
0.0
 10
132.1486336568635
 20
148.8213367091639
 30
0.0
 10
132.0869319709653
 20
149.0457630630837
 30
0.0
 10
132.0293156512468
 20
149.1760546792836
 30
0.0
 10
131.992250592924
 20
149.1826934600114
 30
0.0
 10
131.9757692258249
 20
149.1856454635213
 30
0.0
  0
SPLINE
  5
13B
330
1F
100
AcDbEntity
  8
0
  6
Continuous
 62
     8
370
    15
100
AcDbSpline
210
0.0
220
0.0
230
1.0
 70
     8
 71
     3
 72
    32
 73
    28
 74
     0
 42
0.00000001
 43
0.00000001
 12
1.0
 22
0.0
 32
0.0
 13
1.0
 23
0.0
 33
0.0
 40
0.0
 40
0.0
 40
0.0
 40
0.0
 40
0.0363410945324964
 40
0.0774890966371014
 40
0.1186536843348486
 40
0.1598154729692917
 40
0.2009592975917797
 40
0.2421044195214301
 40
0.2832672735721928
 40
0.324431058167204
 40
0.365577573491431
 40
0.4067202524208164
 40
0.4478808698145131
 40
0.489046111642225
 40
0.5301956424052868
 40
0.5713365715917048
 40
0.6124945380700149
 40
0.6536606436025235
 40
0.6948133163090148
 40
0.7359533878353925
 40
0.7771084045789923
 40
0.8182747503697904
 40
0.859430512549748
 40
0.9005706983782299
 40
0.9417225841678619
 40
0.9828885279931028
 40
1.0
 40
1.0
 40
1.0
 40
1.0
 10
130.4750384466177
 20
137.1994164037984
 30
0.0
 10
130.4568658510649
 20
137.2051432943564
 30
0.0
 10
130.4181169352424
 20
137.2173545824749
 30
0.0
 10
130.3587880418304
 20
137.3604273985451
 30
0.0
 10
130.2970861746145
 20
137.5962765420129
 30
0.0
 10
130.2353806839552
 20
137.9267822950225
 30
0.0
 10
130.1736451405597
 20
138.34432477545
 30
0.0
 10
130.1119122594889
 20
138.8448611429679
 30
0.0
 10
130.050208081909
 20
139.4174801425755
 30
0.0
 10
129.9885048440542
 20
140.0522460720822
 30
0.0
 10
129.926774834635
 20
140.7391704531805
 30
0.0
 10
129.8650368159281
 20
141.4680112466987
 30
0.0
 10
129.8033301308643
 20
142.2255269031688
 30
0.0
 10
129.7416282619361
 20
142.9989557730318
 30
0.0
 10
129.6799041686395
 20
143.7757002079947
 30
0.0
 10
129.6181623865929
 20
144.5425981684702
 30
0.0
 10
129.5564522646837
 20
145.2867486018076
 30
0.0
 10
129.4947511461975
 20
145.996411278603
 30
0.0
 10
129.4330327408044
 20
146.6599254892596
 30
0.0
 10
129.3712890931466
 20
147.2647891789385
 30
0.0
 10
129.309574565212
 20
147.8008459203218
 30
0.0
 10
129.2478736720936
 20
148.2610878977037
 30
0.0
 10
129.1861602335615
 20
148.637471730044
 30
0.0
 10
129.1244171799848
 20
148.9237801088788
 30
0.0
 10
129.0626961791135
 20
149.1068280795949
 30
0.0
 10
129.0130150214513
 20
149.1938065698004
 30
0.0
 10
128.9838842473835
 20
149.1835928338485
 30
0.0
 10
128.9753308409243
 20
149.1805938666785
 30
0.0
  0
SPLINE
  5
13C
330
1F
100
AcDbEntity
  8
0
  6
Continuous
 62
     8
370
    15
100
AcDbSpline
210
0.0
220
0.0
230
1.0
 70
     8
 71
     3
 72
    12
 73
     8
 74
     0
 42
0.00000001
 43
0.00000001
 12
1.0
 22
0.0
 32
0.0
 13
1.0
 23
0.0
 33
0.0
 40
0.0
 40
0.0
 40
0.0
 40
0.0
 40
0.1516720567438918
 40
0.4209079569629136
 40
0.6901271240010858
 40
0.9594638760402168
 40
1.0
 40
1.0
 40
1.0
 40
1.0
 10
128.5342048726153
 20
146.1937631887456
 30
0.0
 10
128.5457886812574
 20
146.291588093795
 30
0.0
 10
128.5779351249338
 20
146.5630638145601
 30
0.0
 10
128.6306756813732
 20
146.9514746440886
 30
0.0
 10
128.6924124412506
 20
147.3434630042881
 30
0.0
 10
128.7366400660763
 20
147.5922524594666
 30
0.0
 10
128.7603071643534
 20
147.6872588212186
 30
0.0
 10
128.7634031837337
 20
147.6996871102211
 30
0.0
  0
SPLINE
  5
13D
330
1F
100
AcDbEntity
  8
0
  6
Continuous
 62
     8
370
    15
100
AcDbSpline
210
0.0
220
0.0
230
1.0
 70
     8
 71
     3
 72
    12
 73
     8
 74
     0
 42
0.00000001
 43
0.00000001
 12
1.0
 22
0.0
 32
0.0
 13
1.0
 23
0.0
 33
0.0
 40
0.0
 40
0.0
 40
0.0
 40
0.0
 40
0.1762823375764263
 40
0.444467405401009
 40
0.7127160963591195
 40
0.9808863949117259
 40
1.0
 40
1.0
 40
1.0
 40
1.0
 10
130.6885305228435
 20
138.6889455568084
 30
0.0
 10
130.7020596453564
 20
138.7497451328856
 30
0.0
 10
130.736171139811
 20
138.9030414313123
 30
0.0
 10
130.7908415660014
 20
139.2319797956523
 30
0.0
 10
130.8525435059514
 20
139.6625267598309
 30
0.0
 10
130.8951579365954
 20
139.9886385666137
 30
0.0
 10
130.9172049902714
 20
140.1809671610051
 30
0.0
 10
130.9186718273339
 20
140.1937631887456
 30
0.0
  0
SPLINE
  5
13E
330
1F
100
AcDbEntity
  8
0
  6
Continuous
 62
     8
370
    15
100
AcDbSpline
210
0.0
220
0.0
230
1.0
 70
     8
 71
     3
 72
    11
 73
     7
 74
     0
 42
0.00000001
 43
0.00000001
 12
1.0
 22
0.0
 32
0.0
 13
1.0
 23
0.0
 33
0.0
 40
0.0
 40
0.0
 40
0.0
 40
0.0
 40
0.2593397676487433
 40
0.5277939387039284
 40
0.7961318294195067
 40
1.0
 40
1.0
 40
1.0
 40
1.0
 10
131.5335569872947
 20
146.1937631887456
 30
0.0
 10
131.5534308990563
 20
146.3560659661469
 30
0.0
 10
131.5938771841024
 20
146.6863755940295
 30
0.0
 10
131.6548799161464
 20
147.1124178283822
 30
0.0
 10
131.711673699196
 20
147.4609847424824
 30
0.0
 10
131.74787581883
 20
147.6271102706593
 30
0.0
 10
131.7635055629309
 20
147.6988325764323
 30
0.0
  0
LINE
  5
13F
330
1F
100
AcDbEntity
  8
0
  6
Continuous
 62
     8
370
    15
100
AcDbLine
 10
133.6892147316
 20
138.6858118917
 30
0.0
 11
133.6912313616
 21
138.6937631887
 31
0.0
  0
LINE
  5
140
330
1F
100
AcDbEntity
  8
0
  6
Continuous
 62
     8
370
    15
100
AcDbLine
 10
134.7627257746
 20
147.6937631887
 30
0.0
 11
134.7655053614
 21
147.7058566563
 31
0.0
  0
DIMENSION
  5
141
330
1F
100
AcDbEntity
  8
0
  6
Continuous
 62
     7
370
     0
100
AcDbDimension
  2
_D_2
 10
99.4872231966
 20
137.6937631887
 30
0.0
 11
99.4872231966
 21
143.0603554979
 31
0.0
 70
   160
  1
%%c<>
 71
     2
 42
-1.0
  3
SLDDIMSTYLE3
100
AcDbAlignedDimension
 13
110.2201758499
 23
148.6937631887
 33
0.0
 14
110.2201758499
 24
137.6937631887
 34
0.0
 50
90.0
100
AcDbRotatedDimension
  0
DIMENSION
  5
14F
330
1F
100
AcDbEntity
  8
0
  6
Continuous
 62
     7
370
     0
100
AcDbDimension
  2
_D_3
 10
119.2201758499
 20
118.601220082
 30
0.0
 11
114.8849626756
 21
118.601220082
 31
0.0
 70
   160
  1
<>
 71
     2
 42
-1.0
  3
SLDDIMSTYLE3
100
AcDbAlignedDimension
 13
110.2201758499
 23
137.6937631887
 33
0.0
 14
119.2201758499
 24
137.1937631887
 34
0.0
100
AcDbRotatedDimension
  0
DIMENSION
  5
15B
330
1F
100
AcDbEntity
  8
0
  6
Continuous
 62
     7
370
     0
100
AcDbDimension
  2
_D_4
 10
128.2201758499
 20
161.7947967279
 30
0.0
 11
120.5187541661
 21
161.7947967279
 31
0.0
 70
   160
  1
<>st
 71
     2
 42
-1.0
  3
SLDDIMSTYLE3
100
AcDbAlignedDimension
 13
133.2201758499
 23
147.2937631887
 33
0.0
 14
128.2201758499
 24
147.6937631887
 34
0.0
100
AcDbRotatedDimension
  0
DIMENSION
  5
168
330
1F
100
AcDbEntity
  8
0
  6
Continuous
 62
     7
370
     0
100
AcDbDimension
  2
_D_5
 10
161.2201758499
 20
172.1168621849
 30
0.0
 11
135.7201758499
 21
172.1168621849
 31
0.0
 70
   160
  1
<>
 71
     2
 42
-1.0
  3
SLDDIMSTYLE1
100
AcDbAlignedDimension
 13
110.2201758499
 23
148.6937631887
 33
0.0
 14
161.2201758499
 24
145.6937631887
 34
0.0
100
AcDbRotatedDimension
  0
DIMENSION
  5
172
330
1F
100
AcDbEntity
  8
0
  6
Continuous
 62
     7
370
     0
100
AcDbDimension
  2
_D_6
 10
172.9984224833
 20
140.1937631887
 30
0.0
 11
172.9984224833
 21
154.1945355429
 31
0.0
 70
   160
  1
%%c<>
 71
     2
 42
-1.0
  3
SLDDIMSTYLE3
100
AcDbAlignedDimension
 13
160.7201758499
 23
146.1937631887
 33
0.0
 14
160.7201758499
 24
140.1937631887
 34
0.0
 50
90.0
100
AcDbRotatedDimension
  0
DIMENSION
  5
17F
330
1F
100
AcDbEntity
  8
0
  6
Continuous
 62
     7
370
     0
100
AcDbDimension
  2
_D_7
 10
185.439791818
 20
137.1937631887
 30
0.0
 11
185.439791818
 21
143.0603554979
 31
0.0
 70
   160
  1
%%c<>
 71
     2
 42
-1.0
  3
SLDDIMSTYLE1
100
AcDbAlignedDimension
 13
158.8201758499
 23
149.1937631887
 33
0.0
 14
158.8201758499
 24
137.1937631887
 34
0.0
 50
90.0
100
AcDbRotatedDimension
  0
DIMENSION
  5
18A
330
1F
100
AcDbEntity
  8
0
  6
Continuous
 62
     7
370
     0
100
AcDbDimension
  2
_D_8
 10
159.2201758499
 20
118.601220082
 30
0.0
 11
148.7201758499
 21
118.601220082
 31
0.0
 70
   160
  1
<>
 71
     2
 42
-1.0
  3
SLDDIMSTYLE1
100
AcDbAlignedDimension
 13
138.2201758499
 23
135.5937631887
 33
0.0
 14
159.2201758499
 24
137.5937631887
 34
0.0
100
AcDbRotatedDimension
  0
LINE
  5
194
330
1F
100
AcDbEntity
  8
0
  6
CENTERX2
 62
     7
370
     0
100
AcDbLine
 10
103.4672454145
 20
143.1937631887
 30
0.0
 11
164.4091770016
 21
143.1937631887
 31
0.0
  0
ENDSEC
  0
SECTION
  2
OBJECTS
  0
DICTIONARY
  5
C
330
0
100
AcDbDictionary
281
     1
  3
ACAD_GROUP
350
D
  3
ACAD_LAYOUT
350
1A
  3
ACAD_MLINESTYLE
350
17
  3
ACAD_PLOTSETTINGS
350
19
  3
ACAD_PLOTSTYLENAME
350
E
  0
DICTIONARY
  5
D
102
{ACAD_REACTORS
330
C
102
}
330
C
100
AcDbDictionary
281
     1
  0
DICTIONARY
  5
1A
102
{ACAD_REACTORS
330
C
102
}
330
C
100
AcDbDictionary
281
     1
  3
Layout1
350
1E
  3
Layout2
350
26
  3
Model
350
22
  0
DICTIONARY
  5
17
102
{ACAD_REACTORS
330
C
102
}
330
C
100
AcDbDictionary
281
     1
  3
Standard
350
18
  0
DICTIONARY
  5
19
102
{ACAD_REACTORS
330
C
102
}
330
C
100
AcDbDictionary
281
     1
  0
ACDBDICTIONARYWDFLT
  5
E
102
{ACAD_REACTORS
330
C
102
}
330
C
100
AcDbDictionary
281
     1
  3
Normal
350
F
100
AcDbDictionaryWithDefault
340
F
  0
LAYOUT
  5
1E
102
{ACAD_REACTORS
330
1A
102
}
330
1A
100
AcDbPlotSettings
  1

  2
none_device
  4

  6

 40
0.0
 41
0.0
 42
0.0
 43
0.0
 44
0.0
 45
0.0
 46
0.0
 47
0.0
 48
0.0
 49
0.0
140
0.0
141
0.0
142
1.0
143
1.0
 70
   688
 72
     0
 73
     0
 74
     5
  7

 75
    16
147
1.0
148
0.0
149
0.0
100
AcDbLayout
  1
Layout1
 70
     1
 71
     1
 10
0.0
 20
0.0
 11
420.0
 21
297.0
 12
0.0
 22
0.0
 32
0.0
 14
1.0000000000E+20
 24
1.0000000000E+20
 34
1.0000000000E+20
 15
-1.0000000000E+20
 25
-1.0000000000E+20
 35
-1.0000000000E+20
146
0.0
 13
0.0
 23
0.0
 33
0.0
 16
1.0
 26
0.0
 36
0.0
 17
0.0
 27
1.0
 37
0.0
 76
     0
330
1B
  0
LAYOUT
  5
26
102
{ACAD_REACTORS
330
1A
102
}
330
1A
100
AcDbPlotSettings
  1

  2
none_device
  4

  6

 40
0.0
 41
0.0
 42
0.0
 43
0.0
 44
0.0
 45
0.0
 46
0.0
 47
0.0
 48
0.0
 49
0.0
140
0.0
141
0.0
142
1.0
143
1.0
 70
   688
 72
     0
 73
     0
 74
     5
  7

 75
    16
147
1.0
148
0.0
149
0.0
100
AcDbLayout
  1
Layout2
 70
     1
 71
     2
 10
0.0
 20
0.0
 11
0.0
 21
0.0
 12
0.0
 22
0.0
 32
0.0
 14
0.0
 24
0.0
 34
0.0
 15
0.0
 25
0.0
 35
0.0
146
0.0
 13
0.0
 23
0.0
 33
0.0
 16
1.0
 26
0.0
 36
0.0
 17
0.0
 27
1.0
 37
0.0
 76
     0
330
23
  0
LAYOUT
  5
22
102
{ACAD_REACTORS
330
1A
102
}
330
1A
100
AcDbPlotSettings
  1

  2
none_device
  4

  6

 40
0.0
 41
0.0
 42
0.0
 43
0.0
 44
0.0
 45
0.0
 46
0.0
 47
0.0
 48
0.0
 49
0.0
140
0.0
141
0.0
142
1.0
143
1.0
 70
  1712
 72
     0
 73
     0
 74
     0
  7

 75
     0
147
1.0
148
0.0
149
0.0
100
AcDbLayout
  1
Model
 70
     1
 71
     0
 10
0.0
 20
0.0
 11
210.0
 21
297.0
 12
0.0
 22
0.0
 32
0.0
 14
0.0
 24
0.0
 34
0.0
 15
210.0
 25
297.0
 35
0.0
146
0.0
 13
0.0
 23
0.0
 33
0.0
 16
1.0
 26
0.0
 36
0.0
 17
0.0
 27
1.0
 37
0.0
 76
     0
330
1F
331
29
  0
MLINESTYLE
  5
18
102
{ACAD_REACTORS
330
17
102
}
330
17
100
AcDbMlineStyle
  2
Standard
 70
     0
  3

 62
   256
 51
90.0
 52
90.0
 71
     2
 49
0.5
 62
   256
  6
BYLAYER
 49
-0.5
 62
   256
  6
BYLAYER
  0
ACDBPLACEHOLDER
  5
F
102
{ACAD_REACTORS
330
E
102
}
330
E
  0
ENDSEC
  0
EOF
