  0
SECTION
  2
HEADER
  9
$ACADVER
  1
AC1015
  9
$ACADMAINTVER
 70
     6
  9
$DWGCODEPAGE
  3
DOS932
  9
$INSBASE
 10
0.0
 20
0.0
 30
0.0
  9
$EXTMIN
 10
0.0
 20
0.0
 30
0.0
  9
$EXTMAX
 10
210.0
 20
297.0
 30
0.0
  9
$LIMMIN
 10
0.0
 20
0.0
  9
$LIMMAX
 10
210.0
 20
297.0
  9
$ORTHOMODE
 70
     0
  9
$REGENMODE
 70
     1
  9
$FILLMODE
 70
     1
  9
$QTEXTMODE
 70
     0
  9
$MIRRTEXT
 70
     1
  9
$LTSCALE
 40
1.0
  9
$ATTMODE
 70
     1
  9
$TEXTSIZE
 40
3.5
  9
$TRACEWID
 40
1.0
  9
$TEXTSTYLE
  7
Standard
  9
$CLAYER
  8
0
  9
$CELTYPE
  6
ByLayer
  9
$CECOLOR
 62
   256
  9
$CELTSCALE
 40
1.0
  9
$DISPSILH
 70
     0
  9
$DIMSCALE
 40
1.0
  9
$DIMASZ
 40
2.0
  9
$DIMEXO
 40
1.0
  9
$DIMDLI
 40
3.75
  9
$DIMRND
 40
0.0
  9
$DIMDLE
 40
0.0
  9
$DIMEXE
 40
1.0
  9
$DIMTP
 40
0.0
  9
$DIMTM
 40
0.0
  9
$DIMTXT
 40
3.5
  9
$DIMCEN
 40
2.5
  9
$DIMTSZ
 40
0.0
  9
$DIMTOL
 70
     0
  9
$DIMLIM
 70
     0
  9
$DIMTIH
 70
     1
  9
$DIMTOH
 70
     1
  9
$DIMSE1
 70
     0
  9
$DIMSE2
 70
     0
  9
$DIMTAD
 70
     1
  9
$DIMZIN
 70
     0
  9
$DIMBLK
  1

  9
$DIMASO
 70
     1
  9
$DIMSHO
 70
     1
  9
$DIMPOST
  1

  9
$DIMAPOST
  1

  9
$DIMALT
 70
     0
  9
$DIMALTD
 70
     3
  9
$DIMALTF
 40
0.0393700787
  9
$DIMLFAC
 40
1.0
  9
$DIMTOFL
 70
     1
  9
$DIMTVP
 40
0.0
  9
$DIMTIX
 70
     0
  9
$DIMSOXD
 70
     0
  9
$DIMSAH
 70
     0
  9
$DIMBLK1
  1

  9
$DIMBLK2
  1

  9
$DIMSTYLE
  2
ISO-25
  9
$DIMCLRD
 70
     0
  9
$DIMCLRE
 70
     0
  9
$DIMCLRT
 70
     0
  9
$DIMTFAC
 40
1.0
  9
$DIMGAP
 40
1.524
  9
$DIMJUST
 70
     0
  9
$DIMSD1
 70
     0
  9
$DIMSD2
 70
     0
  9
$DIMTOLJ
 70
     0
  9
$DIMTZIN
 70
     0
  9
$DIMALTZ
 70
     0
  9
$DIMALTTZ
 70
     0
  9
$DIMUPT
 70
     0
  9
$DIMDEC
 70
     2
  9
$DIMTDEC
 70
     2
  9
$DIMALTU
 70
     2
  9
$DIMALTTD
 70
     3
  9
$DIMTXSTY
  7
Standard
  9
$DIMAUNIT
 70
     0
  9
$DIMADEC
 70
     2
  9
$DIMALTRND
 40
0.0
  9
$DIMAZIN
 70
     0
  9
$DIMDSEP
 70
    44
  9
$DIMATFIT
 70
     3
  9
$DIMFRAC
 70
     0
  9
$DIMLDRBLK
  1

  9
$DIMLUNIT
 70
     2
  9
$DIMLWD
 70
    -2
  9
$DIMLWE
 70
    -2
  9
$DIMTMOVE
 70
     0
  9
$LUNITS
 70
     2
  9
$LUPREC
 70
     2
  9
$SKETCHINC
 40
1.0
  9
$FILLETRAD
 40
10.0
  9
$AUNITS
 70
     0
  9
$AUPREC
 70
     2
  9
$MENU
  1
.
  9
$ELEVATION
 40
0.0
  9
$PELEVATION
 40
0.0
  9
$THICKNESS
 40
0.0
  9
$LIMCHECK
 70
     0
  9
$CHAMFERA
 40
10.0
  9
$CHAMFERB
 40
10.0
  9
$CHAMFERC
 40
20.0
  9
$CHAMFERD
 40
0.0
  9
$SKPOLY
 70
     0
  9
$TDCREATE
 40
2456909.746165162
  9
$TDUCREATE
 40
2456909.371165162
  9
$TDUPDATE
 40
2456909.746166968
  9
$TDUUPDATE
 40
2456909.371166968
  9
$TDINDWG
 40
0.0000000116
  9
$TDUSRTIMER
 40
0.0000000116
  9
$USRTIMER
 70
     1
  9
$ANGBASE
 50
0.0
  9
$ANGDIR
 70
     0
  9
$PDMODE
 70
     0
  9
$PDSIZE
 40
-1.0
  9
$PLINEWID
 40
0.0
  9
$SPLFRAME
 70
     0
  9
$SPLINETYPE
 70
     6
  9
$SPLINESEGS
 70
     8
  9
$HANDSEED
  5
192
  9
$SURFTAB1
 70
     6
  9
$SURFTAB2
 70
     6
  9
$SURFTYPE
 70
     6
  9
$SURFU
 70
     6
  9
$SURFV
 70
     6
  9
$UCSBASE
  2

  9
$UCSNAME
  2

  9
$UCSORG
 10
0.0
 20
0.0
 30
0.0
  9
$UCSXDIR
 10
1.0
 20
0.0
 30
0.0
  9
$UCSYDIR
 10
0.0
 20
1.0
 30
0.0
  9
$UCSORTHOREF
  2

  9
$UCSORTHOVIEW
 70
     0
  9
$UCSORGTOP
 10
0.0
 20
0.0
 30
0.0
  9
$UCSORGBOTTOM
 10
0.0
 20
0.0
 30
0.0
  9
$UCSORGLEFT
 10
0.0
 20
0.0
 30
0.0
  9
$UCSORGRIGHT
 10
0.0
 20
0.0
 30
0.0
  9
$UCSORGFRONT
 10
0.0
 20
0.0
 30
0.0
  9
$UCSORGBACK
 10
0.0
 20
0.0
 30
0.0
  9
$PUCSBASE
  2

  9
$PUCSNAME
  2

  9
$PUCSORG
 10
0.0
 20
0.0
 30
0.0
  9
$PUCSXDIR
 10
1.0
 20
0.0
 30
0.0
  9
$PUCSYDIR
 10
0.0
 20
1.0
 30
0.0
  9
$PUCSORTHOREF
  2

  9
$PUCSORTHOVIEW
 70
     0
  9
$PUCSORGTOP
 10
0.0
 20
0.0
 30
0.0
  9
$PUCSORGBOTTOM
 10
0.0
 20
0.0
 30
0.0
  9
$PUCSORGLEFT
 10
0.0
 20
0.0
 30
0.0
  9
$PUCSORGRIGHT
 10
0.0
 20
0.0
 30
0.0
  9
$PUCSORGFRONT
 10
0.0
 20
0.0
 30
0.0
  9
$PUCSORGBACK
 10
0.0
 20
0.0
 30
0.0
  9
$USERI1
 70
     0
  9
$USERI2
 70
     0
  9
$USERI3
 70
     0
  9
$USERI4
 70
     0
  9
$USERI5
 70
     0
  9
$USERR1
 40
0.0
  9
$USERR2
 40
0.0
  9
$USERR3
 40
0.0
  9
$USERR4
 40
0.0
  9
$USERR5
 40
0.0
  9
$WORLDVIEW
 70
     1
  9
$SHADEDGE
 70
     3
  9
$SHADEDIF
 70
    70
  9
$TILEMODE
 70
     1
  9
$MAXACTVP
 70
    64
  9
$PINSBASE
 10
0.0
 20
0.0
 30
0.0
  9
$PLIMCHECK
 70
     0
  9
$PEXTMIN
 10
1.0000000000E+20
 20
1.0000000000E+20
 30
1.0000000000E+20
  9
$PEXTMAX
 10
-1.0000000000E+20
 20
-1.0000000000E+20
 30
-1.0000000000E+20
  9
$PLIMMIN
 10
0.0
 20
0.0
  9
$PLIMMAX
 10
420.0
 20
297.0
  9
$UNITMODE
 70
     0
  9
$VISRETAIN
 70
     1
  9
$PLINEGEN
 70
     0
  9
$PSLTSCALE
 70
     1
  9
$TREEDEPTH
 70
  3020
  9
$CMLSTYLE
  2
Standard
  9
$CMLJUST
 70
     0
  9
$CMLSCALE
 40
20.0
  9
$PROXYGRAPHICS
 70
     1
  9
$MEASUREMENT
 70
     1
  9
$CELWEIGHT
370
    -1
  9
$ENDCAPS
280
     0
  9
$JOINSTYLE
280
     0
  9
$LWDISPLAY
290
     1
  9
$INSUNITS
 70
     4
  9
$HYPERLINKBASE
  1

  9
$STYLESHEET
  1

  9
$XEDIT
290
     1
  9
$CEPSNTYPE
380
     0
  9
$PSTYLEMODE
290
     1
  9
$FINGERPRINTGUID
  2
{E86FB0E6-AA97-496A-BA39-8761B8921E09}
  9
$VERSIONGUID
  2
{FAEB1C32-E019-11D5-929B-00C0DF256EC4}
  9
$EXTNAMES
290
     1
  9
$PSVPSCALE
 40
0.0
  9
$OLESTARTUP
290
     0
  0
ENDSEC
  0
SECTION
  2
CLASSES
  0
CLASS
  1
ACDBDICTIONARYWDFLT
  2
AcDbDictionaryWithDefault
  3
ObjectDBX Classes
 90
        0
280
     0
281
     0
  0
CLASS
  1
VISUALSTYLE
  2
AcDbVisualStyle
  3
ObjectDBX Classes
 90
     4095
280
     0
281
     0
  0
CLASS
  1
MATERIAL
  2
AcDbMaterial
  3
ObjectDBX Classes
 90
     1153
280
     0
281
     0
  0
CLASS
  1
ACDBPLACEHOLDER
  2
AcDbPlaceHolder
  3
ObjectDBX Classes
 90
        0
280
     0
281
     0
  0
CLASS
  1
LAYOUT
  2
AcDbLayout
  3
ObjectDBX Classes
 90
        0
280
     0
281
     0
  0
ENDSEC
  0
SECTION
  2
TABLES
  0
TABLE
  2
VPORT
  5
8
330
0
100
AcDbSymbolTable
 70
     1
  0
VPORT
  5
29
330
8
100
AcDbSymbolTableRecord
100
AcDbViewportTableRecord
  2
*Active
 70
     0
 10
0.0
 20
0.0
 11
1.0
 21
1.0
 12
105.0
 22
148.5
 13
0.0
 23
0.0
 14
10.0
 24
10.0
 15
10.0
 25
10.0
 16
0.0
 26
0.0
 36
1.0
 17
0.0
 27
0.0
 37
0.0
 40
297.0
 41
0.7070707071
 42
50.0
 43
0.0
 44
0.0
 50
0.0
 51
0.0
 71
     0
 72
  2000
 73
     1
 74
     3
 75
     0
 76
     0
 77
     0
 78
     0
281
     0
 65
     1
110
0.0
120
0.0
130
0.0
111
1.0
121
0.0
131
0.0
112
0.0
122
1.0
132
0.0
 79
     0
146
0.0
  0
ENDTAB
  0
TABLE
  2
LTYPE
  5
5
330
0
100
AcDbSymbolTable
 70
     6
  0
LTYPE
  5
14
330
5
100
AcDbSymbolTableRecord
100
AcDbLinetypeTableRecord
  2
ByBlock
 70
     0
  3

 72
    65
 73
     0
 40
0.0
  0
LTYPE
  5
15
330
5
100
AcDbSymbolTableRecord
100
AcDbLinetypeTableRecord
  2
ByLayer
 70
     0
  3

 72
    65
 73
     0
 40
0.0
  0
LTYPE
  5
16
330
5
100
AcDbSymbolTableRecord
100
AcDbLinetypeTableRecord
  2
Continuous
 70
     0
  3
Solid line
 72
    65
 73
     0
 40
0.0
  0
LTYPE
  5
3F
330
5
100
AcDbSymbolTableRecord
100
AcDbLinetypeTableRecord
  2
HIDDEN
 70
     0
  3
Hidden __ __ __ __ __ __ __ __ __ __ __ __ __ __
 72
    65
 73
     2
 40
1.905
 49
1.27
 74
     0
 49
-0.635
 74
     0
  0
LTYPE
  5
40
330
5
100
AcDbSymbolTableRecord
100
AcDbLinetypeTableRecord
  2
PHANTOM
 70
     0
  3
Phantom ______  __  __  ______  __  __  ______
 72
    65
 73
     6
 40
12.7
 49
6.35
 74
     0
 49
-1.27
 74
     0
 49
1.27
 74
     0
 49
-1.27
 74
     0
 49
1.27
 74
     0
 49
-1.27
 74
     0
  0
LTYPE
  5
41
330
5
100
AcDbSymbolTableRecord
100
AcDbLinetypeTableRecord
  2
CENTER
 70
     0
  3
Center ____ _ ____ _ ____ _ ____ _ ____ _ ____
 72
    65
 73
     4
 40
10.16
 49
6.35
 74
     0
 49
-1.27
 74
     0
 49
1.27
 74
     0
 49
-1.27
 74
     0
  0
LTYPE
  5
42
330
5
100
AcDbSymbolTableRecord
100
AcDbLinetypeTableRecord
  2
CENTERX2
 70
     0
  3
Center (2x) ________  __  ________  __  _____
 72
    65
 73
     4
 40
20.32
 49
12.7
 74
     0
 49
-2.54
 74
     0
 49
2.54
 74
     0
 49
-2.54
 74
     0
  0
LTYPE
  5
43
330
5
100
AcDbSymbolTableRecord
100
AcDbLinetypeTableRecord
  2
DOT2
 70
     0
  3
Dot (.5x) ........................................
 72
    65
 73
     2
 40
0.635
 49
0.0
 74
     0
 49
-0.635
 74
     0
  0
ENDTAB
  0
TABLE
  2
LAYER
  5
2
330
0
100
AcDbSymbolTable
 70
     1
  0
LAYER
  5
10
330
2
100
AcDbSymbolTableRecord
100
AcDbLayerTableRecord
  2
0
 70
     0
 62
     7
  6
Continuous
370
    -3
390
F
  0
ENDTAB
  0
TABLE
  2
STYLE
  5
3
330
0
100
AcDbSymbolTable
 70
     3
  0
STYLE
  5
11
330
3
100
AcDbSymbolTableRecord
100
AcDbTextStyleTableRecord
  2
Standard
 70
     0
 40
0.0
 41
1.0
 50
0.0
 71
     0
 42
3.5
  3
txt
  4
bigfont
  0
STYLE
  5
4C
330
3
100
AcDbSymbolTableRecord
100
AcDbTextStyleTableRecord
  2
SLDTEXTSTYLE0
 70
     0
 40
0.0
 41
0.7
 50
0.0
 71
     0
 42
0.2
  3
TXT
  4
bigfont
  0
STYLE
  5
88
330
3
100
AcDbSymbolTableRecord
100
AcDbTextStyleTableRecord
  2
SLDTEXTSTYLE1
 70
     0
 40
0.0
 41
0.75
 50
0.0
 71
     0
 42
0.2
  3
TXT
  4
bigfont
  0
ENDTAB
  0
TABLE
  2
VIEW
  5
6
330
0
100
AcDbSymbolTable
 70
     0
  0
ENDTAB
  0
TABLE
  2
UCS
  5
7
330
0
100
AcDbSymbolTable
 70
     0
  0
ENDTAB
  0
TABLE
  2
APPID
  5
9
330
0
100
AcDbSymbolTable
 70
     1
  0
APPID
  5
12
330
9
100
AcDbSymbolTableRecord
100
AcDbRegAppTableRecord
  2
ACAD
 70
     0
  0
ENDTAB
  0
TABLE
  2
DIMSTYLE
  5
A
330
0
100
AcDbSymbolTable
 70
     4
100
AcDbDimStyleTable
  0
DIMSTYLE
105
27
330
A
100
AcDbSymbolTableRecord
100
AcDbDimStyleTableRecord
  2
ISO-25
 70
     0
 41
2.5
 42
0.625
 43
3.75
 44
1.25
 73
     0
 74
     0
 77
     1
 78
     8
140
2.5
141
2.5
143
0.0393700787
147
0.625
171
     3
172
     1
178
     0
271
     2
272
     2
274
     3
278
    44
283
     0
284
     8
340
11
  0
DIMSTYLE
105
89
102
{ACAD_REACTORS
330
87
330
94
330
141
330
14C
330
158
330
16F
330
186
102
}
330
A
100
AcDbSymbolTableRecord
100
AcDbDimStyleTableRecord
  2
SLDDIMSTYLE0
 70
     0
 41
2.0
 44
0.0
 45
0.000000001
 73
     0
 74
     0
 77
     3
 78
    12
 79
     3
140
3.5
147
0.875
173
     1
178
     0
271
     1
272
     1
276
     2
284
    12
340
88
  0
DIMSTYLE
105
9F
330
A
100
AcDbSymbolTableRecord
100
AcDbDimStyleTableRecord
  2
SLDDIMSTYLE1
 70
     0
 41
2.0
 44
0.0
 45
0.000000001
140
0.0
146
2.0
147
0.0
173
     1
178
     0
271
     0
272
     0
276
     2
340
11
  0
DIMSTYLE
105
163
102
{ACAD_REACTORS
330
162
330
179
102
}
330
A
100
AcDbSymbolTableRecord
100
AcDbDimStyleTableRecord
  2
SLDDIMSTYLE2
 70
     0
 41
2.0
 44
0.0
 45
0.000000001
 73
     0
 74
     0
 77
     3
 78
    12
 79
     3
140
3.5
147
0.875
172
     1
173
     1
178
     0
271
     1
272
     1
276
     2
284
    12
289
     0
340
88
  0
ENDTAB
  0
TABLE
  2
BLOCK_RECORD
  5
1
330
0
100
AcDbSymbolTable
 70
    11
  0
BLOCK_RECORD
  5
1F
330
1
100
AcDbSymbolTableRecord
100
AcDbBlockTableRecord
  2
*Model_Space
340
22
  0
BLOCK_RECORD
  5
1B
330
1
100
AcDbSymbolTableRecord
100
AcDbBlockTableRecord
  2
*Paper_Space
340
1E
  0
BLOCK_RECORD
  5
23
330
1
100
AcDbSymbolTableRecord
100
AcDbBlockTableRecord
  2
*Paper_Space0
340
26
  0
BLOCK_RECORD
  5
8A
330
1
100
AcDbSymbolTableRecord
100
AcDbBlockTableRecord
  2
_D
340
0
  0
BLOCK_RECORD
  5
95
330
1
100
AcDbSymbolTableRecord
100
AcDbBlockTableRecord
  2
_D_1
340
0
  0
BLOCK_RECORD
  5
A3
330
1
100
AcDbSymbolTableRecord
100
AcDbBlockTableRecord
  2
SW_CENTERMARKSYMBOL_0
340
0
102
{BLKREFS
331
AE
102
}
  0
BLOCK_RECORD
  5
142
330
1
100
AcDbSymbolTableRecord
100
AcDbBlockTableRecord
  2
_D_2
340
0
  0
BLOCK_RECORD
  5
14D
330
1
100
AcDbSymbolTableRecord
100
AcDbBlockTableRecord
  2
_D_3
340
0
  0
BLOCK_RECORD
  5
159
330
1
100
AcDbSymbolTableRecord
100
AcDbBlockTableRecord
  2
_D_4
340
0
  0
BLOCK_RECORD
  5
164
330
1
100
AcDbSymbolTableRecord
100
AcDbBlockTableRecord
  2
_D_5
340
0
  0
BLOCK_RECORD
  5
170
330
1
100
AcDbSymbolTableRecord
100
AcDbBlockTableRecord
  2
_D_6
340
0
  0
BLOCK_RECORD
  5
17A
330
1
100
AcDbSymbolTableRecord
100
AcDbBlockTableRecord
  2
_D_7
340
0
  0
BLOCK_RECORD
  5
187
330
1
100
AcDbSymbolTableRecord
100
AcDbBlockTableRecord
  2
_D_8
340
0
  0
ENDTAB
  0
ENDSEC
  0
SECTION
  2
BLOCKS
  0
BLOCK
  5
20
330
1F
100
AcDbEntity
  8
0
100
AcDbBlockBegin
  2
*Model_Space
 70
     0
 10
0.0
 20
0.0
 30
0.0
  3
*Model_Space
  1

  0
ENDBLK
  5
21
330
1F
100
AcDbEntity
  8
0
100
AcDbBlockEnd
  0
BLOCK
  5
1C
330
1B
100
AcDbEntity
 67
     1
  8
0
100
AcDbBlockBegin
  2
*Paper_Space
 70
     0
 10
0.0
 20
0.0
 30
0.0
  3
*Paper_Space
  1

  0
ENDBLK
  5
1D
330
1B
100
AcDbEntity
 67
     1
  8
0
100
AcDbBlockEnd
  0
BLOCK
  5
24
330
23
100
AcDbEntity
  8
0
100
AcDbBlockBegin
  2
*Paper_Space0
 70
     0
 10
0.0
 20
0.0
 30
0.0
  3
*Paper_Space0
  1

  0
ENDBLK
  5
25
330
23
100
AcDbEntity
  8
0
100
AcDbBlockEnd
  0
BLOCK
  5
8B
330
8A
100
AcDbEntity
  8
0
100
AcDbBlockBegin
  2
_D
 70
     0
 10
0.0
 20
0.0
 30
0.0
  3
_D
  1

  0
SOLID
  5
8D
330
8A
100
AcDbEntity
  8
0
  6
Continuous
 62
     7
370
     0
100
AcDbTrace
 10
47.3639312886
 20
211.0413635171
 30
0.0
 11
49.3639312886
 21
210.2913635171
 31
0.0
 12
49.3639312886
 22
211.7913635171
 32
0.0
 13
49.3639312886
 23
211.7913635171
 33
0.0
  0
SOLID
  5
8E
330
8A
100
AcDbEntity
  8
0
  6
Continuous
 62
     7
370
     0
100
AcDbTrace
 10
71.3639312886
 20
211.0413635171
 30
0.0
 11
69.3639312886
 21
211.7913635171
 31
0.0
 12
69.3639312886
 22
210.2913635171
 32
0.0
 13
69.3639312886
 23
210.2913635171
 33
0.0
  0
LINE
  5
8F
330
8A
100
AcDbEntity
  8
0
  6
Continuous
 62
     7
370
     0
100
AcDbLine
 10
47.3639312886
 20
181.0147461579
 30
0.0
 11
47.3639312886
 21
212.0413635171
 31
0.0
  0
LINE
  5
90
330
8A
100
AcDbEntity
  8
0
  6
Continuous
 62
     7
370
     0
100
AcDbLine
 10
71.3639312886
 20
181.0147461579
 30
0.0
 11
71.3639312886
 21
212.0413635171
 31
0.0
  0
LINE
  5
91
330
8A
100
AcDbEntity
  8
0
  6
Continuous
 62
     7
370
     0
100
AcDbLine
 10
47.3639312886
 20
211.0413635171
 30
0.0
 11
71.3639312886
 21
211.0413635171
 31
0.0
  0
MTEXT
  5
92
330
8A
100
AcDbEntity
  8
0
  6
Continuous
 62
     7
370
     0
100
AcDbMText
 10
54.1386011631
 20
215.5531006063
 30
29.1
 40
3.5
 41
0.0
 71
     1
 72
     1
  1
%%c
  7
SLDTEXTSTYLE1
 73
     1
 44
1.0
  0
MTEXT
  5
93
330
8A
100
AcDbEntity
  8
0
  6
Continuous
 62
     7
370
     0
100
AcDbMText
 10
59.4170385615
 20
215.606572783
 30
29.1
 40
3.5
 41
0.0
 71
     1
 72
     1
  1
24
  7
SLDTEXTSTYLE1
 73
     1
 44
1.0
  0
ENDBLK
  5
8C
330
8A
100
AcDbEntity
  8
0
100
AcDbBlockEnd
  0
BLOCK
  5
96
330
95
100
AcDbEntity
  8
0
100
AcDbBlockBegin
  2
_D_1
 70
     0
 10
0.0
 20
0.0
 30
0.0
  3
_D_1
  1

  0
SOLID
  5
98
330
95
100
AcDbEntity
  8
0
  6
Continuous
 62
     7
370
     0
100
AcDbTrace
 10
40.7370201068
 20
186.0147461579
 30
0.0
 11
39.9870201068
 21
184.0147461579
 31
0.0
 12
41.4870201068
 22
184.0147461579
 32
0.0
 13
41.4870201068
 23
184.0147461579
 33
0.0
  0
SOLID
  5
99
330
95
100
AcDbEntity
  8
0
  6
Continuous
 62
     7
370
     0
100
AcDbTrace
 10
40.7370201068
 20
174.0147461579
 30
0.0
 11
41.4870201068
 21
176.0147461579
 31
0.0
 12
39.9870201068
 22
176.0147461579
 32
0.0
 13
39.9870201068
 23
176.0147461579
 33
0.0
  0
LINE
  5
9A
330
95
100
AcDbEntity
  8
0
  6
Continuous
 62
     7
370
     0
100
AcDbLine
 10
54.8998296735
 20
186.0147461579
 30
0.0
 11
39.7370201068
 21
186.0147461579
 31
0.0
  0
LINE
  5
9B
330
95
100
AcDbEntity
  8
0
  6
Continuous
 62
     7
370
     0
100
AcDbLine
 10
54.8998296735
 20
174.0147461579
 30
0.0
 11
39.7370201068
 21
174.0147461579
 31
0.0
  0
LINE
  5
9C
330
95
100
AcDbEntity
  8
0
  6
Continuous
 62
     7
370
     0
100
AcDbLine
 10
40.7370201068
 20
186.0147461579
 30
0.0
 11
40.7370201068
 21
174.0147461579
 31
0.0
  0
MTEXT
  5
9D
330
95
100
AcDbEntity
  8
0
  6
Continuous
 62
     7
370
     0
100
AcDbMText
 10
36.2252831922
 20
177.4286349643
 30
29.1
 40
3.5
 41
0.0
 71
     1
 72
     1
  1
12
  7
SLDTEXTSTYLE1
 11
-7.044195017643634E-15
 21
1.0
 31
0.0
 73
     1
 44
1.0
  0
ENDBLK
  5
97
330
95
100
AcDbEntity
  8
0
100
AcDbBlockEnd
  0
BLOCK
  5
A4
330
A3
100
AcDbEntity
  8
0
100
AcDbBlockBegin
  2
SW_CENTERMARKSYMBOL_0
 70
     0
 10
0.0
 20
0.0
 30
0.0
  3
SW_CENTERMARKSYMBOL_0
  1

  0
LINE
  5
A6
330
A3
100
AcDbEntity
  8
0
  6
Continuous
 62
     0
370
     0
100
AcDbLine
 10
0.0
 20
0.0
 30
0.0
 11
0.0
 21
2.5
 31
0.0
  0
LINE
  5
A7
330
A3
100
AcDbEntity
  8
0
  6
Continuous
 62
     0
370
     0
100
AcDbLine
 10
0.0
 20
0.0
 30
0.0
 11
-2.5
 21
0.0
 31
0.0
  0
LINE
  5
A8
330
A3
100
AcDbEntity
  8
0
  6
Continuous
 62
     0
370
     0
100
AcDbLine
 10
0.0
 20
0.0
 30
0.0
 11
0.0
 21
-2.5
 31
0.0
  0
LINE
  5
A9
330
A3
100
AcDbEntity
  8
0
  6
Continuous
 62
     0
370
     0
100
AcDbLine
 10
0.0
 20
0.0
 30
0.0
 11
2.5
 21
0.0
 31
0.0
  0
LINE
  5
AA
330
A3
100
AcDbEntity
  8
0
  6
Continuous
 62
     0
370
     0
100
AcDbLine
 10
0.0
 20
5.0
 30
0.0
 11
0.0
 21
14.1
 31
0.0
  0
LINE
  5
AB
330
A3
100
AcDbEntity
  8
0
  6
Continuous
 62
     0
370
     0
100
AcDbLine
 10
-5.0
 20
0.0
 30
0.0
 11
-14.1
 21
0.0
 31
0.0
  0
LINE
  5
AC
330
A3
100
AcDbEntity
  8
0
  6
Continuous
 62
     0
370
     0
100
AcDbLine
 10
0.0
 20
-5.0
 30
0.0
 11
0.0
 21
-14.1
 31
0.0
  0
LINE
  5
AD
330
A3
100
AcDbEntity
  8
0
  6
Continuous
 62
     0
370
     0
100
AcDbLine
 10
5.0
 20
0.0
 30
0.0
 11
14.1
 21
0.0
 31
0.0
  0
ENDBLK
  5
A5
330
A3
100
AcDbEntity
  8
0
100
AcDbBlockEnd
  0
BLOCK
  5
143
330
142
100
AcDbEntity
  8
0
100
AcDbBlockBegin
  2
_D_2
 70
     0
 10
0.0
 20
0.0
 30
0.0
  3
_D_2
  1

  0
SOLID
  5
145
330
142
100
AcDbEntity
  8
0
  6
Continuous
 62
     7
370
     0
100
AcDbTrace
 10
93.8708526456
 20
185.5147461579
 30
0.0
 11
93.1208526456
 21
183.5147461579
 31
0.0
 12
94.6208526456
 22
183.5147461579
 32
0.0
 13
94.6208526456
 23
183.5147461579
 33
0.0
  0
SOLID
  5
146
330
142
100
AcDbEntity
  8
0
  6
Continuous
 62
     7
370
     0
100
AcDbTrace
 10
93.8708526456
 20
174.5147461579
 30
0.0
 11
94.6208526456
 21
176.5147461579
 31
0.0
 12
93.1208526456
 22
176.5147461579
 32
0.0
 13
93.1208526456
 23
176.5147461579
 33
0.0
  0
LINE
  5
147
330
142
100
AcDbEntity
  8
0
  6
Continuous
 62
     7
370
     0
100
AcDbLine
 10
105.4509826444
 20
185.5147461579
 30
0.0
 11
92.8708526456
 21
185.5147461579
 31
0.0
  0
LINE
  5
148
330
142
100
AcDbEntity
  8
0
  6
Continuous
 62
     7
370
     0
100
AcDbLine
 10
105.4509826444
 20
174.5147461579
 30
0.0
 11
92.8708526456
 21
174.5147461579
 31
0.0
  0
LINE
  5
149
330
142
100
AcDbEntity
  8
0
  6
Continuous
 62
     7
370
     0
100
AcDbLine
 10
93.8708526456
 20
185.5147461579
 30
0.0
 11
93.8708526456
 21
174.5147461579
 31
0.0
  0
MTEXT
  5
14A
330
142
100
AcDbEntity
  8
0
  6
Continuous
 62
     7
370
     0
100
AcDbMText
 10
89.3591155564
 20
174.7894160323
 30
0.1
 40
3.5
 41
0.0
 71
     1
 72
     1
  1
%%c
  7
SLDTEXTSTYLE1
 11
-7.044195017643634E-15
 21
1.0
 31
0.0
 73
     1
 44
1.0
  0
MTEXT
  5
14B
330
142
100
AcDbEntity
  8
0
  6
Continuous
 62
     7
370
     0
100
AcDbMText
 10
89.3056433797
 20
180.0678534307
 30
0.1
 40
3.5
 41
0.0
 71
     1
 72
     1
  1
11
  7
SLDTEXTSTYLE1
 11
-7.044195017643634E-15
 21
1.0
 31
0.0
 73
     1
 44
1.0
  0
ENDBLK
  5
144
330
142
100
AcDbEntity
  8
0
100
AcDbBlockEnd
  0
BLOCK
  5
14E
330
14D
100
AcDbEntity
  8
0
100
AcDbBlockBegin
  2
_D_3
 70
     0
 10
0.0
 20
0.0
 30
0.0
  3
_D_3
  1

  0
SOLID
  5
150
330
14D
100
AcDbEntity
  8
0
  6
Continuous
 62
     7
370
     0
100
AcDbTrace
 10
126.4509826444
 20
199.6687684412
 30
0.0
 11
128.4509826444
 21
198.9187684412
 31
0.0
 12
128.4509826444
 22
200.4187684412
 32
0.0
 13
128.4509826444
 23
200.4187684412
 33
0.0
  0
SOLID
  5
151
330
14D
100
AcDbEntity
  8
0
  6
Continuous
 62
     7
370
     0
100
AcDbTrace
 10
136.4509826444
 20
199.6687684412
 30
0.0
 11
134.4509826444
 21
200.4187684412
 31
0.0
 12
134.4509826444
 22
198.9187684412
 32
0.0
 13
134.4509826444
 23
198.9187684412
 33
0.0
  0
LINE
  5
152
330
14D
100
AcDbEntity
  8
0
  6
Continuous
 62
     7
370
     0
100
AcDbLine
 10
126.4509826444
 20
185.5147461579
 30
0.0
 11
126.4509826444
 21
200.6687684412
 31
0.0
  0
LINE
  5
153
330
14D
100
AcDbEntity
  8
0
  6
Continuous
 62
     7
370
     0
100
AcDbLine
 10
136.4509826444
 20
185.1147461579
 30
0.0
 11
136.4509826444
 21
200.6687684412
 31
0.0
  0
LINE
  5
154
330
14D
100
AcDbEntity
  8
0
  6
Continuous
 62
     7
370
     0
100
AcDbLine
 10
126.4509826444
 20
199.6687684412
 30
0.0
 11
116.4045046766
 21
199.6687684412
 31
0.0
  0
LINE
  5
155
330
14D
100
AcDbEntity
  8
0
  6
Continuous
 62
     7
370
     0
100
AcDbLine
 10
126.4509826444
 20
199.6687684412
 30
0.0
 11
136.4509826444
 21
199.6687684412
 31
0.0
  0
MTEXT
  5
156
330
14D
100
AcDbEntity
  8
0
  6
Continuous
 62
     7
370
     0
100
AcDbMText
 10
116.4045046766
 20
204.1805053558
 30
0.1
 40
3.5
 41
0.0
 71
     1
 72
     1
  1
10
  7
SLDTEXTSTYLE1
 73
     1
 44
1.0
  0
MTEXT
  5
157
330
14D
100
AcDbEntity
  8
0
  6
Continuous
 62
     7
370
     0
100
AcDbMText
 10
121.5767270637
 20
204.1805053558
 30
0.1
 40
3.5
 41
0.0
 71
     1
 72
     1
  1
st
  7
SLDTEXTSTYLE1
 73
     1
 44
1.0
  0
ENDBLK
  5
14F
330
14D
100
AcDbEntity
  8
0
100
AcDbBlockEnd
  0
BLOCK
  5
15A
330
159
100
AcDbEntity
  8
0
100
AcDbBlockBegin
  2
_D_4
 70
     0
 10
0.0
 20
0.0
 30
0.0
  3
_D_4
  1

  0
SOLID
  5
15C
330
159
100
AcDbEntity
  8
0
  6
Continuous
 62
     7
370
     0
100
AcDbTrace
 10
106.4509826444
 20
211.0482249863
 30
0.0
 11
108.4509826444
 21
210.2982249863
 31
0.0
 12
108.4509826444
 22
211.7982249863
 32
0.0
 13
108.4509826444
 23
211.7982249863
 33
0.0
  0
SOLID
  5
15D
330
159
100
AcDbEntity
  8
0
  6
Continuous
 62
     7
370
     0
100
AcDbTrace
 10
164.4509826444
 20
211.0482249863
 30
0.0
 11
162.4509826444
 21
211.7982249863
 31
0.0
 12
162.4509826444
 22
210.2982249863
 32
0.0
 13
162.4509826444
 23
210.2982249863
 33
0.0
  0
LINE
  5
15E
330
159
100
AcDbEntity
  8
0
  6
Continuous
 62
     7
370
     0
100
AcDbLine
 10
106.4509826444
 20
186.5147461579
 30
0.0
 11
106.4509826444
 21
212.0482249863
 31
0.0
  0
LINE
  5
15F
330
159
100
AcDbEntity
  8
0
  6
Continuous
 62
     7
370
     0
100
AcDbLine
 10
164.4509826444
 20
183.5147461579
 30
0.0
 11
164.4509826444
 21
212.0482249863
 31
0.0
  0
LINE
  5
160
330
159
100
AcDbEntity
  8
0
  6
Continuous
 62
     7
370
     0
100
AcDbLine
 10
106.4509826444
 20
211.0482249863
 30
0.0
 11
164.4509826444
 21
211.0482249863
 31
0.0
  0
MTEXT
  5
161
330
159
100
AcDbEntity
  8
0
  6
Continuous
 62
     7
370
     0
100
AcDbMText
 10
132.8648714509
 20
215.5599619009
 30
0.1
 40
3.5
 41
0.0
 71
     1
 72
     1
  1
58
  7
SLDTEXTSTYLE1
 73
     1
 44
1.0
  0
ENDBLK
  5
15B
330
159
100
AcDbEntity
  8
0
100
AcDbBlockEnd
  0
BLOCK
  5
165
330
164
100
AcDbEntity
  8
0
100
AcDbBlockBegin
  2
_D_5
 70
     0
 10
0.0
 20
0.0
 30
0.0
  3
_D_5
  1

  0
SOLID
  5
167
330
164
100
AcDbEntity
  8
0
  6
Continuous
 62
     7
370
     0
100
AcDbTrace
 10
115.4509826444
 20
155.0542378149
 30
0.0
 11
117.4509826444
 21
154.3042378149
 31
0.0
 12
117.4509826444
 22
155.8042378149
 32
0.0
 13
117.4509826444
 23
155.8042378149
 33
0.0
  0
SOLID
  5
168
330
164
100
AcDbEntity
  8
0
  6
Continuous
 62
     7
370
     0
100
AcDbTrace
 10
106.4509826444
 20
155.0542378149
 30
0.0
 11
104.4509826444
 21
155.8042378149
 31
0.0
 12
104.4509826444
 22
154.3042378149
 32
0.0
 13
104.4509826444
 23
154.3042378149
 33
0.0
  0
LINE
  5
169
330
164
100
AcDbEntity
  8
0
  6
Continuous
 62
     7
370
     0
100
AcDbLine
 10
115.4509826444
 20
173.0147461579
 30
0.0
 11
115.4509826444
 21
154.0542378149
 31
0.0
  0
LINE
  5
16A
330
164
100
AcDbEntity
  8
0
  6
Continuous
 62
     7
370
     0
100
AcDbLine
 10
106.4509826444
 20
173.5147461579
 30
0.0
 11
106.4509826444
 21
154.0542378149
 31
0.0
  0
LINE
  5
16B
330
164
100
AcDbEntity
  8
0
  6
Continuous
 62
     7
370
     0
100
AcDbLine
 10
115.4509826444
 20
155.0542378149
 30
0.0
 11
120.4509826444
 21
155.0542378149
 31
0.0
  0
LINE
  5
16C
330
164
100
AcDbEntity
  8
0
  6
Continuous
 62
     7
370
     0
100
AcDbLine
 10
115.4509826444
 20
155.0542378149
 30
0.0
 11
106.4509826444
 21
155.0542378149
 31
0.0
  0
LINE
  5
16D
330
164
100
AcDbEntity
  8
0
  6
Continuous
 62
     7
370
     0
100
AcDbLine
 10
106.4509826444
 20
155.0542378149
 30
0.0
 11
101.4509826444
 21
155.0542378149
 31
0.0
  0
MTEXT
  5
16E
330
164
100
AcDbEntity
  8
0
  6
Continuous
 62
     7
370
     0
100
AcDbMText
 10
109.6579270477
 20
159.5659747295
 30
0.1
 40
3.5
 41
0.0
 71
     1
 72
     1
  1
9
  7
SLDTEXTSTYLE1
 73
     1
 44
1.0
  0
ENDBLK
  5
166
330
164
100
AcDbEntity
  8
0
100
AcDbBlockEnd
  0
BLOCK
  5
171
330
170
100
AcDbEntity
  8
0
100
AcDbBlockBegin
  2
_D_6
 70
     0
 10
0.0
 20
0.0
 30
0.0
  3
_D_6
  1

  0
SOLID
  5
173
330
170
100
AcDbEntity
  8
0
  6
Continuous
 62
     7
370
     0
100
AcDbTrace
 10
141.4509826444
 20
155.0542378149
 30
0.0
 11
143.4509826444
 21
154.3042378149
 31
0.0
 12
143.4509826444
 22
155.8042378149
 32
0.0
 13
143.4509826444
 23
155.8042378149
 33
0.0
  0
SOLID
  5
174
330
170
100
AcDbEntity
  8
0
  6
Continuous
 62
     7
370
     0
100
AcDbTrace
 10
162.4509826444
 20
155.0542378149
 30
0.0
 11
160.4509826444
 21
155.8042378149
 31
0.0
 12
160.4509826444
 22
154.3042378149
 32
0.0
 13
160.4509826444
 23
154.3042378149
 33
0.0
  0
LINE
  5
175
330
170
100
AcDbEntity
  8
0
  6
Continuous
 62
     7
370
     0
100
AcDbLine
 10
141.4509826444
 20
167.4147461579
 30
0.0
 11
141.4509826444
 21
154.0542378149
 31
0.0
  0
LINE
  5
176
330
170
100
AcDbEntity
  8
0
  6
Continuous
 62
     7
370
     0
100
AcDbLine
 10
162.4509826444
 20
169.4147461579
 30
0.0
 11
162.4509826444
 21
154.0542378149
 31
0.0
  0
LINE
  5
177
330
170
100
AcDbEntity
  8
0
  6
Continuous
 62
     7
370
     0
100
AcDbLine
 10
141.4509826444
 20
155.0542378149
 30
0.0
 11
162.4509826444
 21
155.0542378149
 31
0.0
  0
MTEXT
  5
178
330
170
100
AcDbEntity
  8
0
  6
Continuous
 62
     7
370
     0
100
AcDbMText
 10
149.3648714509
 20
159.5659747295
 30
0.1
 40
3.5
 41
0.0
 71
     1
 72
     1
  1
21
  7
SLDTEXTSTYLE1
 73
     1
 44
1.0
  0
ENDBLK
  5
172
330
170
100
AcDbEntity
  8
0
100
AcDbBlockEnd
  0
BLOCK
  5
17B
330
17A
100
AcDbEntity
  8
0
100
AcDbBlockBegin
  2
_D_7
 70
     0
 10
0.0
 20
0.0
 30
0.0
  3
_D_7
  1

  0
SOLID
  5
17D
330
17A
100
AcDbEntity
  8
0
  6
Continuous
 62
     7
370
     0
100
AcDbTrace
 10
174.4509826444
 20
183.0147461579
 30
0.0
 11
175.2009826444
 21
185.0147461579
 31
0.0
 12
173.7009826444
 22
185.0147461579
 32
0.0
 13
173.7009826444
 23
185.0147461579
 33
0.0
  0
SOLID
  5
17E
330
17A
100
AcDbEntity
  8
0
  6
Continuous
 62
     7
370
     0
100
AcDbTrace
 10
174.4509826444
 20
177.0147461579
 30
0.0
 11
173.7009826444
 21
175.0147461579
 31
0.0
 12
175.2009826444
 22
175.0147461579
 32
0.0
 13
175.2009826444
 23
175.0147461579
 33
0.0
  0
LINE
  5
17F
330
17A
100
AcDbEntity
  8
0
  6
Continuous
 62
     7
370
     0
100
AcDbLine
 10
164.9509826444
 20
183.0147461579
 30
0.0
 11
175.4509826444
 21
183.0147461579
 31
0.0
  0
LINE
  5
180
330
17A
100
AcDbEntity
  8
0
  6
Continuous
 62
     7
370
     0
100
AcDbLine
 10
164.9509826444
 20
177.0147461579
 30
0.0
 11
175.4509826444
 21
177.0147461579
 31
0.0
  0
LINE
  5
181
330
17A
100
AcDbEntity
  8
0
  6
Continuous
 62
     7
370
     0
100
AcDbLine
 10
174.4509826444
 20
183.0147461579
 30
0.0
 11
174.4509826444
 21
198.8726591402
 31
0.0
  0
LINE
  5
182
330
17A
100
AcDbEntity
  8
0
  6
Continuous
 62
     7
370
     0
100
AcDbLine
 10
174.4509826444
 20
183.0147461579
 30
0.0
 11
174.4509826444
 21
177.0147461579
 31
0.0
  0
LINE
  5
183
330
17A
100
AcDbEntity
  8
0
  6
Continuous
 62
     7
370
     0
100
AcDbLine
 10
174.4509826444
 20
177.0147461579
 30
0.0
 11
174.4509826444
 21
172.0147461579
 31
0.0
  0
MTEXT
  5
184
330
17A
100
AcDbEntity
  8
0
  6
Continuous
 62
     7
370
     0
100
AcDbMText
 10
169.9392455552
 20
191.0081103155
 30
0.1
 40
3.5
 41
0.0
 71
     1
 72
     1
  1
%%c
  7
SLDTEXTSTYLE1
 11
-7.044195017643634E-15
 21
1.0
 31
0.0
 73
     1
 44
1.0
  0
MTEXT
  5
185
330
17A
100
AcDbEntity
  8
0
  6
Continuous
 62
     7
370
     0
100
AcDbMText
 10
169.8857733786
 20
196.2865477139
 30
0.1
 40
3.5
 41
0.0
 71
     1
 72
     1
  1
6
  7
SLDTEXTSTYLE1
 11
-7.044195017643634E-15
 21
1.0
 31
0.0
 73
     1
 44
1.0
  0
ENDBLK
  5
17C
330
17A
100
AcDbEntity
  8
0
100
AcDbBlockEnd
  0
BLOCK
  5
188
330
187
100
AcDbEntity
  8
0
100
AcDbBlockBegin
  2
_D_8
 70
     0
 10
0.0
 20
0.0
 30
0.0
  3
_D_8
  1

  0
SOLID
  5
18A
330
187
100
AcDbEntity
  8
0
  6
Continuous
 62
     7
370
     0
100
AcDbTrace
 10
186.4509826444
 20
190.0147461579
 30
0.0
 11
185.7009826444
 21
188.0147461579
 31
0.0
 12
187.2009826444
 22
188.0147461579
 32
0.0
 13
187.2009826444
 23
188.0147461579
 33
0.0
  0
SOLID
  5
18B
330
187
100
AcDbEntity
  8
0
  6
Continuous
 62
     7
370
     0
100
AcDbTrace
 10
186.4509826444
 20
170.0147461579
 30
0.0
 11
187.2009826444
 21
172.0147461579
 31
0.0
 12
185.7009826444
 22
172.0147461579
 32
0.0
 13
185.7009826444
 23
172.0147461579
 33
0.0
  0
LINE
  5
18C
330
187
100
AcDbEntity
  8
0
  6
Continuous
 62
     7
370
     0
100
AcDbLine
 10
163.0509826444
 20
190.0147461579
 30
0.0
 11
187.4509826444
 21
190.0147461579
 31
0.0
  0
LINE
  5
18D
330
187
100
AcDbEntity
  8
0
  6
Continuous
 62
     7
370
     0
100
AcDbLine
 10
163.0509826444
 20
170.0147461579
 30
0.0
 11
187.4509826444
 21
170.0147461579
 31
0.0
  0
LINE
  5
18E
330
187
100
AcDbEntity
  8
0
  6
Continuous
 62
     7
370
     0
100
AcDbLine
 10
186.4509826444
 20
190.0147461579
 30
0.0
 11
186.4509826444
 21
170.0147461579
 31
0.0
  0
MTEXT
  5
18F
330
187
100
AcDbEntity
  8
0
  6
Continuous
 62
     7
370
     0
100
AcDbMText
 10
181.9392455552
 20
174.7894160323
 30
0.1
 40
3.5
 41
0.0
 71
     1
 72
     1
  1
%%c
  7
SLDTEXTSTYLE1
 11
-7.044195017643634E-15
 21
1.0
 31
0.0
 73
     1
 44
1.0
  0
MTEXT
  5
190
330
187
100
AcDbEntity
  8
0
  6
Continuous
 62
     7
370
     0
100
AcDbMText
 10
181.8857733786
 20
180.0678534307
 30
0.1
 40
3.5
 41
0.0
 71
     1
 72
     1
  1
20
  7
SLDTEXTSTYLE1
 11
-7.044195017643634E-15
 21
1.0
 31
0.0
 73
     1
 44
1.0
  0
ENDBLK
  5
189
330
187
100
AcDbEntity
  8
0
100
AcDbBlockEnd
  0
ENDSEC
  0
SECTION
  2
ENTITIES
  0
LINE
  5
44
330
1F
100
AcDbEntity
  8
0
  6
Continuous
 62
     7
370
     0
100
AcDbLine
 10
20.2604743903
 20
285.0
 30
0.0
 11
196.7604743903
 21
285.0
 31
0.0
  0
LINE
  5
45
330
1F
100
AcDbEntity
  8
0
  6
Continuous
 62
     7
370
     0
100
AcDbLine
 10
20.2604743903
 20
285.0
 30
0.0
 11
20.2604743903
 21
10.0
 31
0.0
  0
LINE
  5
46
330
1F
100
AcDbEntity
  8
0
  6
Continuous
 62
     7
370
     0
100
AcDbLine
 10
20.2604743903
 20
10.0
 30
0.0
 11
196.7604743903
 21
10.0
 31
0.0
  0
LINE
  5
47
330
1F
100
AcDbEntity
  8
0
  6
Continuous
 62
     7
370
     0
100
AcDbLine
 10
196.7604743903
 20
285.0
 30
0.0
 11
196.7604743903
 21
10.0
 31
0.0
  0
LINE
  5
48
330
1F
100
AcDbEntity
  8
0
  6
Continuous
 62
     7
370
     0
100
AcDbLine
 10
127.0104743903
 20
50.75
 30
0.0
 11
196.7604743903
 21
50.75
 31
0.0
  0
LINE
  5
49
330
1F
100
AcDbEntity
  8
0
  6
Continuous
 62
     7
370
     0
100
AcDbLine
 10
127.0104743903
 20
50.75
 30
0.0
 11
127.0104743903
 21
10.0
 31
0.0
  0
LINE
  5
4A
330
1F
100
AcDbEntity
  8
0
  6
Continuous
 62
     7
370
     0
100
AcDbLine
 10
127.0104743903
 20
22.75
 30
0.0
 11
196.7604743903
 21
22.75
 31
0.0
  0
LINE
  5
4B
330
1F
100
AcDbEntity
  8
0
  6
Continuous
 62
     7
370
     0
100
AcDbLine
 10
127.0104743903
 20
36.75
 30
0.0
 11
196.7604743903
 21
36.75
 31
0.0
  0
MTEXT
  5
4D
330
1F
100
AcDbEntity
  8
0
  6
Continuous
 62
     7
370
     0
100
AcDbMText
 10
161.2073541421
 20
30.4171582345
 30
0.0
 40
4.2333333333
 41
0.0
 71
     2
 72
     1
  1
VFIL1-S-10-P20
  7
SLDTEXTSTYLE0
 73
     1
 44
1.0
  0
MTEXT
  5
4E
330
1F
100
AcDbEntity
  8
0
  6
Continuous
 62
     7
370
     0
100
AcDbMText
 10
160.5582442015
 20
43.9409718514
 30
0.0
 40
4.2333333333
 41
0.0
 71
     2
 72
     1
  1
吸着金具・スモール用
  7
SLDTEXTSTYLE0
 73
     1
 44
1.0
  0
MTEXT
  5
4F
330
1F
100
AcDbEntity
  8
0
  6
Continuous
 62
     7
370
     0
100
AcDbMText
 10
162.6417409428
 20
16.8228189052
 30
0.0
 40
4.2333333333
 41
0.0
 71
     2
 72
     1
  1
211009
  7
SLDTEXTSTYLE0
 73
     1
 44
1.0
  0
LINE
  5
50
330
1F
100
AcDbEntity
  8
0
  6
Continuous
 62
     7
370
    15
100
AcDbLine
 10
55.3639312886
 20
186.8147461579
 30
0.0
 11
55.3639312886
 21
186.0147461579
 31
0.0
  0
LINE
  5
51
330
1F
100
AcDbEntity
  8
0
  6
Continuous
 62
     7
370
    15
100
AcDbLine
 10
63.3639312886
 20
186.0147461579
 30
0.0
 11
63.3639312886
 21
186.8147461579
 31
0.0
  0
LINE
  5
52
330
1F
100
AcDbEntity
  8
0
  6
Continuous
 62
     7
370
    15
100
AcDbLine
 10
55.3639312886
 20
174.0147461579
 30
0.0
 11
55.3639312886
 21
173.2147461579
 31
0.0
  0
LINE
  5
53
330
1F
100
AcDbEntity
  8
0
  6
Continuous
 62
     7
370
    15
100
AcDbLine
 10
63.3639312886
 20
173.2147461579
 30
0.0
 11
63.3639312886
 21
174.0147461579
 31
0.0
  0
LINE
  5
54
330
1F
100
AcDbEntity
  8
0
  6
Continuous
 62
     7
370
    15
100
AcDbLine
 10
57.0139312887
 20
165.7147461579
 30
0.0
 11
57.3639312887
 21
163.2147461579
 31
0.0
  0
LINE
  5
55
330
1F
100
AcDbEntity
  8
0
  6
Continuous
 62
     7
370
    15
100
AcDbLine
 10
61.3639312887
 20
163.2147461579
 30
0.0
 11
61.7139312887
 21
165.7147461579
 31
0.0
  0
LINE
  5
56
330
1F
100
AcDbEntity
  8
0
  6
Continuous
 62
     7
370
    15
100
AcDbLine
 10
57.0139312887
 20
168.2147461579
 30
0.0
 11
57.3639312887
 21
165.7147461579
 31
0.0
  0
LINE
  5
57
330
1F
100
AcDbEntity
  8
0
  6
Continuous
 62
     7
370
    15
100
AcDbLine
 10
61.3639312887
 20
165.7147461579
 30
0.0
 11
61.7139312887
 21
168.2147461579
 31
0.0
  0
LINE
  5
58
330
1F
100
AcDbEntity
  8
0
  6
Continuous
 62
     7
370
    15
100
AcDbLine
 10
61.4639312887
 20
168.2147461579
 30
0.0
 11
61.4639312887
 21
170.7147461579
 31
0.0
  0
LINE
  5
59
330
1F
100
AcDbEntity
  8
0
  6
Continuous
 62
     7
370
    15
100
AcDbLine
 10
57.2639312887
 20
170.7147461579
 30
0.0
 11
57.2639312887
 21
168.2147461579
 31
0.0
  0
ARC
  5
5A
330
1F
100
AcDbEntity
  8
0
  6
Continuous
 62
     7
370
    15
100
AcDbCircle
 10
59.3639312886
 20
180.0147461579
 30
0.0
 40
11.6
100
AcDbArc
 50
280.4300212911
 51
259.569978709
  0
ARC
  5
5B
330
1F
100
AcDbEntity
  8
0
  6
Continuous
 62
     7
370
    15
100
AcDbCircle
 10
59.3639312886
 20
180.0147461579
 30
0.0
 40
12.00000000000002
100
AcDbArc
 50
280.4753138432
 51
259.5246861568
  0
LINE
  5
5C
330
1F
100
AcDbEntity
  8
0
  6
Continuous
 62
     7
370
    15
100
AcDbLine
 10
63.3639312886
 20
186.0147461579
 30
0.0
 11
62.8280329038
 21
186.0147461579
 31
0.0
  0
LINE
  5
5D
330
1F
100
AcDbEntity
  8
0
  6
Continuous
 62
     7
370
    15
100
AcDbLine
 10
55.8998296735
 20
186.0147461579
 30
0.0
 11
55.3639312886
 21
186.0147461579
 31
0.0
  0
LINE
  5
5E
330
1F
100
AcDbEntity
  8
0
  6
Continuous
 62
     7
370
    15
100
AcDbLine
 10
56.3988976739
 20
173.2147461579
 30
0.0
 11
55.3639312886
 21
173.2147461579
 31
0.0
  0
LINE
  5
5F
330
1F
100
AcDbEntity
  8
0
  6
Continuous
 62
     7
370
    15
100
AcDbLine
 10
57.3389312887
 20
173.2147461579
 30
0.0
 11
56.3988976739
 21
173.2147461579
 31
0.0
  0
LINE
  5
60
330
1F
100
AcDbEntity
  8
0
  6
Continuous
 62
     7
370
    15
100
AcDbLine
 10
55.8998296735
 20
174.0147461579
 30
0.0
 11
55.3639312886
 21
174.0147461579
 31
0.0
  0
LINE
  5
61
330
1F
100
AcDbEntity
  8
0
  6
Continuous
 62
     7
370
    15
100
AcDbLine
 10
63.3639312886
 20
174.0147461579
 30
0.0
 11
62.8280329038
 21
174.0147461579
 31
0.0
  0
LINE
  5
62
330
1F
100
AcDbEntity
  8
0
  6
Continuous
 62
     7
370
    15
100
AcDbLine
 10
57.3389312886
 20
173.2147461579
 30
0.0
 11
57.3389312888
 21
170.7147461579
 31
0.0
  0
LINE
  5
63
330
1F
100
AcDbEntity
  8
0
  6
Continuous
 62
     7
370
    15
100
AcDbLine
 10
57.3389312888
 20
170.7147461579
 30
0.0
 11
55.3139312887
 21
170.7147461579
 31
0.0
  0
LINE
  5
64
330
1F
100
AcDbEntity
  8
0
  6
Continuous
 62
     7
370
    15
100
AcDbLine
 10
55.3139312887
 20
170.7147461579
 30
0.0
 11
55.3139312887
 21
173.2147461579
 31
0.0
  0
LINE
  5
65
330
1F
100
AcDbEntity
  8
0
  6
Continuous
 62
   144
370
     0
100
AcDbLine
 10
55.364905808
 20
173.2147461579
 30
0.0
 11
55.3139312887
 21
173.2147461579
 31
0.0
  0
LINE
  5
66
330
1F
100
AcDbEntity
  8
0
  6
Continuous
 62
     7
370
    15
100
AcDbLine
 10
63.4139312887
 20
170.7147461579
 30
0.0
 11
61.3889312887
 21
170.7147461579
 31
0.0
  0
LINE
  5
67
330
1F
100
AcDbEntity
  8
0
  6
Continuous
 62
     7
370
    15
100
AcDbLine
 10
61.3889312887
 20
170.7147461579
 30
0.0
 11
57.3389312888
 21
170.7147461579
 31
0.0
  0
LINE
  5
68
330
1F
100
AcDbEntity
  8
0
  6
Continuous
 62
     7
370
    15
100
AcDbLine
 10
61.3889312887
 20
173.2147461579
 30
0.0
 11
61.3889312887
 21
170.7147461579
 31
0.0
  0
LINE
  5
69
330
1F
100
AcDbEntity
  8
0
  6
Continuous
 62
   144
370
     0
100
AcDbLine
 10
61.3889312887
 20
173.2147461579
 30
0.0
 11
57.3389312886
 21
173.2147461579
 31
0.0
  0
LINE
  5
6A
330
1F
100
AcDbEntity
  8
0
  6
Continuous
 62
     7
370
    15
100
AcDbLine
 10
63.4139312887
 20
173.2147461579
 30
0.0
 11
63.4139312887
 21
170.7147461579
 31
0.0
  0
LINE
  5
6B
330
1F
100
AcDbEntity
  8
0
  6
Continuous
 62
   144
370
     0
100
AcDbLine
 10
63.4139312887
 20
173.2147461579
 30
0.0
 11
63.3629567693
 21
173.2147461579
 31
0.0
  0
LINE
  5
6C
330
1F
100
AcDbEntity
  8
0
  6
Continuous
 62
   144
370
     0
100
AcDbLine
 10
61.439905808
 20
173.2147461579
 30
0.0
 11
61.3889312887
 21
173.2147461579
 31
0.0
  0
LINE
  5
6D
330
1F
100
AcDbEntity
  8
0
  6
Continuous
 62
     7
370
    15
100
AcDbLine
 10
58.1889312887
 20
165.7147461579
 30
0.0
 11
57.0139312887
 21
165.7147461579
 31
0.0
  0
LINE
  5
6E
330
1F
100
AcDbEntity
  8
0
  6
Continuous
 62
     7
370
    15
100
AcDbLine
 10
61.7139312887
 20
165.7147461579
 30
0.0
 11
58.1889312887
 21
165.7147461579
 31
0.0
  0
LINE
  5
6F
330
1F
100
AcDbEntity
  8
0
  6
Continuous
 62
     7
370
    15
100
AcDbLine
 10
61.3639312887
 20
163.2147461579
 30
0.0
 11
57.3639312887
 21
163.2147461579
 31
0.0
  0
LINE
  5
70
330
1F
100
AcDbEntity
  8
0
  6
Continuous
 62
     7
370
    15
100
AcDbLine
 10
58.1889312887
 20
168.2147461579
 30
0.0
 11
57.0139312887
 21
168.2147461579
 31
0.0
  0
LINE
  5
71
330
1F
100
AcDbEntity
  8
0
  6
Continuous
 62
     7
370
    15
100
AcDbLine
 10
61.7139312887
 20
168.2147461579
 30
0.0
 11
58.1889312887
 21
168.2147461579
 31
0.0
  0
LINE
  5
72
330
1F
100
AcDbEntity
  8
0
  6
Continuous
 62
     7
370
    15
100
AcDbLine
 10
61.3889312886
 20
186.8147461579
 30
0.0
 11
61.3889312886
 21
189.3147461579
 31
0.0
  0
LINE
  5
73
330
1F
100
AcDbEntity
  8
0
  6
Continuous
 62
   144
370
     0
100
AcDbLine
 10
57.3389312886
 20
186.8147461579
 30
0.0
 11
61.3889312886
 21
186.8147461579
 31
0.0
  0
LINE
  5
74
330
1F
100
AcDbEntity
  8
0
  6
Continuous
 62
     7
370
    15
100
AcDbLine
 10
57.3389312886
 20
186.8147461579
 30
0.0
 11
57.3389312886
 21
189.3147461579
 31
0.0
  0
LINE
  5
75
330
1F
100
AcDbEntity
  8
0
  6
Continuous
 62
     7
370
    15
100
AcDbLine
 10
57.3389312886
 20
189.3147461579
 30
0.0
 11
61.3889312886
 21
189.3147461579
 31
0.0
  0
LINE
  5
76
330
1F
100
AcDbEntity
  8
0
  6
Continuous
 62
   144
370
     0
100
AcDbLine
 10
55.3139312886
 20
186.8147461579
 30
0.0
 11
55.364905808
 21
186.8147461579
 31
0.0
  0
LINE
  5
77
330
1F
100
AcDbEntity
  8
0
  6
Continuous
 62
   144
370
     0
100
AcDbLine
 10
57.2879567693
 20
186.8147461579
 30
0.0
 11
57.3389312886
 21
186.8147461579
 31
0.0
  0
LINE
  5
78
330
1F
100
AcDbEntity
  8
0
  6
Continuous
 62
     7
370
    15
100
AcDbLine
 10
55.3139312886
 20
186.8147461579
 30
0.0
 11
55.3139312887
 21
189.3147461579
 31
0.0
  0
LINE
  5
79
330
1F
100
AcDbEntity
  8
0
  6
Continuous
 62
     7
370
    15
100
AcDbLine
 10
55.3139312887
 20
189.3147461579
 30
0.0
 11
57.3389312886
 21
189.3147461579
 31
0.0
  0
LINE
  5
7A
330
1F
100
AcDbEntity
  8
0
  6
Continuous
 62
     7
370
    15
100
AcDbLine
 10
61.3889312886
 20
189.3147461579
 30
0.0
 11
63.4139312886
 21
189.3147461579
 31
0.0
  0
LINE
  5
7B
330
1F
100
AcDbEntity
  8
0
  6
Continuous
 62
     7
370
    15
100
AcDbLine
 10
63.4139312886
 20
186.8147461579
 30
0.0
 11
63.4139312886
 21
189.3147461579
 31
0.0
  0
LINE
  5
7C
330
1F
100
AcDbEntity
  8
0
  6
Continuous
 62
   144
370
     0
100
AcDbLine
 10
61.3889312886
 20
186.8147461579
 30
0.0
 11
61.439905808
 21
186.8147461579
 31
0.0
  0
LINE
  5
7D
330
1F
100
AcDbEntity
  8
0
  6
Continuous
 62
   144
370
     0
100
AcDbLine
 10
63.3629567693
 20
186.8147461579
 30
0.0
 11
63.4139312886
 21
186.8147461579
 31
0.0
  0
CIRCLE
  5
7E
330
1F
100
AcDbEntity
  8
0
  6
Continuous
 62
     7
370
    15
100
AcDbCircle
 10
59.3639312886
 20
180.0147461579
 30
0.0
 40
5.499999999999993
  0
CIRCLE
  5
7F
330
1F
100
AcDbEntity
  8
0
  6
Continuous
 62
     7
370
    15
100
AcDbCircle
 10
59.3639312886
 20
180.0147461579
 30
0.0
 40
2.100000000000009
  0
LINE
  5
80
330
1F
100
AcDbEntity
  8
0
  6
Continuous
 62
     7
370
    15
100
AcDbLine
 10
62.8280329038
 20
186.0147461579
 30
0.0
 11
66.2921345189
 21
180.0147461579
 31
0.0
  0
LINE
  5
81
330
1F
100
AcDbEntity
  8
0
  6
Continuous
 62
     7
370
    15
100
AcDbLine
 10
55.8998296735
 20
174.0147461579
 30
0.0
 11
52.4357280584
 21
180.0147461579
 31
0.0
  0
LINE
  5
82
330
1F
100
AcDbEntity
  8
0
  6
Continuous
 62
     7
370
    15
100
AcDbLine
 10
52.4357280584
 20
180.0147461579
 30
0.0
 11
55.8998296735
 21
186.0147461579
 31
0.0
  0
LINE
  5
83
330
1F
100
AcDbEntity
  8
0
  6
Continuous
 62
     7
370
    15
100
AcDbLine
 10
55.8998296735
 20
186.0147461579
 30
0.0
 11
62.8280329038
 21
186.0147461579
 31
0.0
  0
LINE
  5
84
330
1F
100
AcDbEntity
  8
0
  6
Continuous
 62
     7
370
    15
100
AcDbLine
 10
66.2921345189
 20
180.0147461579
 30
0.0
 11
62.8280329038
 21
174.0147461579
 31
0.0
  0
LINE
  5
85
330
1F
100
AcDbEntity
  8
0
  6
Continuous
 62
     7
370
    15
100
AcDbLine
 10
62.8280329038
 20
174.0147461579
 30
0.0
 11
55.8998296735
 21
174.0147461579
 31
0.0
  0
CIRCLE
  5
86
330
1F
100
AcDbEntity
  8
0
  6
Continuous
 62
   144
370
     0
100
AcDbCircle
 10
59.3639312886
 20
180.0147461579
 30
0.0
 40
2.0
  0
DIMENSION
  5
87
330
1F
100
AcDbEntity
  8
0
  6
Continuous
 62
     7
370
     0
100
AcDbDimension
  2
_D
 10
71.3639312886
 20
211.0413635171
 30
0.0
 11
59.3639312886
 21
211.0413635171
 31
0.0
 70
   160
  1
%%c<>
 71
     2
 42
-1.0
  3
SLDDIMSTYLE0
100
AcDbAlignedDimension
 13
47.3639312886
 23
180.0147461579
 33
0.0
 14
71.3639312886
 24
180.0147461579
 34
0.0
100
AcDbRotatedDimension
  0
DIMENSION
  5
94
330
1F
100
AcDbEntity
  8
0
  6
Continuous
 62
     7
370
     0
100
AcDbDimension
  2
_D_1
 10
40.7370201068
 20
174.0147461579
 30
0.0
 11
40.7370201068
 21
180.0147461579
 31
0.0
 70
   160
  1
<>
 71
     2
 42
-1.0
  3
SLDDIMSTYLE0
100
AcDbAlignedDimension
 13
55.8998296735
 23
186.0147461579
 33
0.0
 14
55.8998296735
 24
174.0147461579
 34
0.0
 50
90.0
100
AcDbRotatedDimension
  0
MTEXT
  5
9E
330
1F
100
AcDbEntity
  8
0
  6
Continuous
 62
     7
370
     0
100
AcDbMText
 10
36.199172748
 20
158.9417979466
 30
0.0
 40
3.5
 41
0.0
 71
     1
 72
     1
  1
BF-6
  7
SLDTEXTSTYLE1
 73
     1
 44
1.0
  0
LEADER
  5
A0
330
1F
100
AcDbEntity
  8
0
  6
Continuous
 62
     7
370
     0
100
AcDbLeader
  3
SLDDIMSTYLE1
 76
     3
 10
59.2807214986
 20
164.4188625323
 30
0.0
 10
45.7554744526
 20
154.2883211679
 30
0.0
 10
36.1313868613
 20
154.2883211679
 30
0.0
  0
MTEXT
  5
A1
330
1F
100
AcDbEntity
  8
0
  6
Continuous
 62
     7
370
     0
100
AcDbMText
 10
76.6731019639
 20
204.0886676776
 30
0.0
 40
3.5
 41
0.0
 71
     1
 72
     1
  1
M5
  7
SLDTEXTSTYLE1
 73
     1
 44
1.0
  0
LEADER
  5
A2
330
1F
100
AcDbEntity
  8
0
  6
Continuous
 62
     7
370
     0
100
AcDbLeader
  3
SLDDIMSTYLE1
 76
     3
 10
60.9654093973
 20
181.3731525283
 30
0.0
 10
76.1423357664
 20
199.5437956204
 30
0.0
 10
83.3941605839
 20
199.5437956204
 30
0.0
  0
INSERT
  5
AE
330
1F
100
AcDbEntity
  8
0
  6
Continuous
 62
     7
370
     0
100
AcDbBlockReference
  2
SW_CENTERMARKSYMBOL_0
 10
59.3639312886
 20
180.0147461579
 30
0.0
  0
LINE
  5
AF
330
1F
100
AcDbEntity
  8
0
  6
Continuous
 62
     7
370
    15
100
AcDbLine
 10
141.0509826444
 20
168.0147461579
 30
0.0
 11
141.4509826444
 21
168.4147461579
 31
0.0
  0
LINE
  5
B0
330
1F
100
AcDbEntity
  8
0
  6
Continuous
 62
     7
370
    15
100
AcDbLine
 10
141.4509826444
 20
191.6147461579
 30
0.0
 11
141.0509826444
 21
192.0147461579
 31
0.0
  0
LINE
  5
B1
330
1F
100
AcDbEntity
  8
0
  6
Continuous
 62
     7
370
    15
100
AcDbLine
 10
141.0509826444
 20
192.0147461579
 30
0.0
 11
139.8509826444
 21
192.0147461579
 31
0.0
  0
LINE
  5
B2
330
1F
100
AcDbEntity
  8
0
  6
Continuous
 62
     7
370
    15
100
AcDbLine
 10
139.8509826444
 20
168.0147461579
 30
0.0
 11
141.0509826444
 21
168.0147461579
 31
0.0
  0
LINE
  5
B3
330
1F
100
AcDbEntity
  8
0
  6
Continuous
 62
     7
370
    15
100
AcDbLine
 10
139.8509826444
 20
192.0147461579
 30
0.0
 11
139.4509826444
 21
191.6147461579
 31
0.0
  0
LINE
  5
B4
330
1F
100
AcDbEntity
  8
0
  6
Continuous
 62
     7
370
    15
100
AcDbLine
 10
139.4509826444
 20
168.4147461579
 30
0.0
 11
139.8509826444
 21
168.0147461579
 31
0.0
  0
LINE
  5
B5
330
1F
100
AcDbEntity
  8
0
  6
Continuous
 62
     7
370
    15
100
AcDbLine
 10
162.0509826444
 20
170.0147461579
 30
0.0
 11
162.4509826444
 21
170.4147461579
 31
0.0
  0
LINE
  5
B6
330
1F
100
AcDbEntity
  8
0
  6
Continuous
 62
     7
370
    15
100
AcDbLine
 10
162.4509826444
 20
189.6147461579
 30
0.0
 11
162.0509826444
 21
190.0147461579
 31
0.0
  0
LINE
  5
B7
330
1F
100
AcDbEntity
  8
0
  6
Continuous
 62
     7
370
    15
100
AcDbLine
 10
162.0509826444
 20
190.0147461579
 30
0.0
 11
141.4509826444
 21
190.0147461579
 31
0.0
  0
LINE
  5
B8
330
1F
100
AcDbEntity
  8
0
  6
Continuous
 62
     7
370
    15
100
AcDbLine
 10
141.4509826444
 20
170.0147461579
 30
0.0
 11
162.0509826444
 21
170.0147461579
 31
0.0
  0
LINE
  5
B9
330
1F
100
AcDbEntity
  8
0
  6
Continuous
 62
     7
370
    15
100
AcDbLine
 10
139.4509826444
 20
184.5147461579
 30
0.0
 11
138.8876634809
 21
184.5147461579
 31
0.0
  0
LINE
  5
BA
330
1F
100
AcDbEntity
  8
0
  6
Continuous
 62
     7
370
    15
100
AcDbLine
 10
137.8799842512
 20
184.5147461579
 30
0.0
 11
136.8509826444
 21
184.5147461579
 31
0.0
  0
LINE
  5
BB
330
1F
100
AcDbEntity
  8
0
  6
Continuous
 62
     7
370
    15
100
AcDbLine
 10
136.8509826444
 20
175.5147461579
 30
0.0
 11
139.4509826444
 21
175.5147461579
 31
0.0
  0
LINE
  5
BC
330
1F
100
AcDbEntity
  8
0
  6
Continuous
 62
     7
370
    15
100
AcDbLine
 10
136.8509826444
 20
184.5147461579
 30
0.0
 11
136.4509826444
 21
184.1147461579
 31
0.0
  0
LINE
  5
BD
330
1F
100
AcDbEntity
  8
0
  6
Continuous
 62
     7
370
    15
100
AcDbLine
 10
136.4509826444
 20
175.9147461579
 30
0.0
 11
136.8509826444
 21
175.5147461579
 31
0.0
  0
SPLINE
  5
BE
330
1F
100
AcDbEntity
  8
0
  6
Continuous
 62
     7
370
    15
100
AcDbSpline
210
0.0
220
0.0
230
1.0
 70
     8
 71
     3
 72
    38
 73
    34
 74
     0
 42
0.00000001
 43
0.00000001
 12
1.0
 22
0.0
 32
0.0
 13
1.0
 23
0.0
 33
0.0
 40
0.0
 40
0.0
 40
0.0
 40
0.0
 40
0.0035374717773757
 40
0.0230787329308743
 40
0.0391050938649308
 40
0.0587526583980349
 40
0.0827159166917696
 40
0.1121484489235094
 40
0.1470784296564689
 40
0.1875399107033785
 40
0.2335606231181891
 40
0.2666091788487736
 40
0.2974243495104527
 40
0.3254088242886145
 40
0.3620310841527539
 40
0.3922038197689159
 40
0.4158955675649434
 40
0.4330820056707991
 40
0.4498930050588817
 40
0.4725216600263409
 40
0.5009802776388093
 40
0.5352853864238207
 40
0.5754660397133572
 40
0.6201505818810263
 40
0.664043374949593
 40
0.7066746385083957
 40
0.7615914952953285
 40
0.8143933539134216
 40
0.865078386718953
 40
0.9010501987806829
 40
0.9353581732195102
 40
0.9683141346331305
 40
1.0
 40
1.0
 40
1.0
 40
1.0
 10
125.7258696545349
 20
185.1017840976909
 30
0.0
 10
125.7248865073576
 20
185.1021675451815
 30
0.0
 10
125.7184723809521
 20
185.1046691855584
 30
0.0
 10
125.7256642851822
 20
185.0862365535479
 30
0.0
 10
125.7407544089525
 20
185.0421883404202
 30
0.0
 10
125.7747087947044
 20
184.9396561457741
 30
0.0
 10
125.816232877367
 20
184.7881752613646
 30
0.0
 10
125.8690673187399
 20
184.5643540098395
 30
0.0
 10
125.9327918258296
 20
184.2479409900425
 30
0.0
 10
126.0077006411692
 20
183.8178704912538
 30
0.0
 10
126.0820879138671
 20
183.3320811507468
 30
0.0
 10
126.150761837715
 20
182.8413994911832
 30
0.0
 10
126.208249310232
 20
182.4055028029968
 30
0.0
 10
126.268043272337
 20
181.9321523949944
 30
0.0
 10
126.3275514078567
 20
181.4431771892259
 30
0.0
 10
126.3844397199829
 20
180.9631123857313
 30
0.0
 10
126.429152830562
 20
180.5804010198651
 30
0.0
 10
126.4654756395943
 20
180.2675024250741
 30
0.0
 10
126.5011316003717
 20
179.959477671812
 30
0.0
 10
126.5438932728919
 20
179.5899524754052
 30
0.0
 10
126.5977001823369
 20
179.1271785362578
 30
0.0
 10
126.6626160512315
 20
178.5765912777283
 30
0.0
 10
126.7378177068205
 20
177.9564819111158
 30
0.0
 10
126.8191087696643
 20
177.3174238754029
 30
0.0
 10
126.9025720919701
 20
176.7073210266071
 30
0.0
 10
126.9937840980092
 20
176.1027717776907
 30
0.0
 10
127.0928108920985
 20
175.5322270747706
 30
0.0
 10
127.2037227734005
 20
175.0253344948086
 30
0.0
 10
127.3032387691671
 20
174.6777837414833
 30
0.0
 10
127.4154986480813
 20
174.4095839398844
 30
0.0
 10
127.5525265975855
 20
174.2089664087623
 30
0.0
 10
127.7398587580788
 20
174.051396381699
 30
0.0
 10
127.9181791693057
 20
174.0270923282771
 30
0.0
 10
128.0055875366695
 20
174.0151790671125
 30
0.0
  0
SPLINE
  5
BF
330
1F
100
AcDbEntity
  8
0
  6
Continuous
 62
     7
370
    15
100
AcDbSpline
210
0.0
220
0.0
230
1.0
 70
     8
 71
     3
 72
    40
 73
    36
 74
     0
 42
0.00000001
 43
0.00000001
 12
1.0
 22
0.0
 32
0.0
 13
1.0
 23
0.0
 33
0.0
 40
0.0
 40
0.0
 40
0.0
 40
0.0
 40
0.0164696295212975
 40
0.0475220878664222
 40
0.0752207961088134
 40
0.0994357231332816
 40
0.1242575368787753
 40
0.1531770484544038
 40
0.1862075891511521
 40
0.2233647933726506
 40
0.2646715841017095
 40
0.3050468479752766
 40
0.3392935412878041
 40
0.3673821451027607
 40
0.3892833699640738
 40
0.4051312452697175
 40
0.4221782379146173
 40
0.4443812910672301
 40
0.471754466099735
 40
0.5043196580349741
 40
0.5420984680459919
 40
0.5851096417900812
 40
0.6314768728353531
 40
0.675110955533529
 40
0.715542070788892
 40
0.7644492334759668
 40
0.8076461674303986
 40
0.8450927489429595
 40
0.8616707412778213
 40
0.8799687151693358
 40
0.902615688119629
 40
0.9227015517411439
 40
0.9456041043285717
 40
0.971394013682948
 40
1.0
 40
1.0
 40
1.0
 40
1.0
 10
129.7184742020708
 20
185.1102526537431
 30
0.0
 10
129.719624608962
 20
185.1052420054037
 30
0.0
 10
129.7229440362325
 20
185.0907840924102
 30
0.0
 10
129.7608889368362
 20
184.9891169681326
 30
0.0
 10
129.8005785081711
 20
184.8470026672324
 30
0.0
 10
129.84529845612
 20
184.666678294916
 30
0.0
 10
129.8926394119282
 20
184.448256975952
 30
0.0
 10
129.9457203195716
 20
184.1730300046656
 30
0.0
 10
130.006986167109
 20
183.8175120589499
 30
0.0
 10
130.0763119473144
 20
183.3703084513808
 30
0.0
 10
130.1505326252842
 20
182.8445103669186
 30
0.0
 10
130.2230888158393
 20
182.2908123590924
 30
0.0
 10
130.2874548440775
 20
181.7737591586486
 30
0.0
 10
130.3402930073548
 20
181.3355562066273
 30
0.0
 10
130.381615142369
 20
180.986465147988
 30
0.0
 10
130.4160322444944
 20
180.6927396646401
 30
0.0
 10
130.4506394967187
 20
180.3954462221159
 30
0.0
 10
130.4924961774877
 20
180.0341428392525
 30
0.0
 10
130.5441330209247
 20
179.5878874368748
 30
0.0
 10
130.6056000250548
 20
179.0597037460934
 30
0.0
 10
130.6769669109687
 20
178.4566433000937
 30
0.0
 10
130.757141030905
 20
177.801393401036
 30
0.0
 10
130.841105313597
 20
177.152599543603
 30
0.0
 10
130.923808609165
 20
176.5619639142182
 30
0.0
 10
131.0086601066947
 20
176.0120816695349
 30
0.0
 10
131.0944003831205
 20
175.5266563542894
 30
0.0
 10
131.1793871000702
 20
175.1232897752493
 30
0.0
 10
131.2466704089884
 20
174.86517354057
 30
0.0
 10
131.295837125082
 20
174.7049955396789
 30
0.0
 10
131.3452646401853
 20
174.5665401407196
 30
0.0
 10
131.4163269479589
 20
174.4135735023807
 30
0.0
 10
131.5137063091711
 20
174.2647150015715
 30
0.0
 10
131.6393931367934
 20
174.1371354040128
 30
0.0
 10
131.8054044350746
 20
174.0347368849681
 30
0.0
 10
131.9367816255062
 20
174.0217380237328
 30
0.0
 10
132.0058709210398
 20
174.0149021174196
 30
0.0
  0
SPLINE
  5
C0
330
1F
100
AcDbEntity
  8
0
  6
Continuous
 62
     7
370
    15
100
AcDbSpline
210
0.0
220
0.0
230
1.0
 70
     8
 71
     3
 72
    37
 73
    33
 74
     0
 42
0.00000001
 43
0.00000001
 12
1.0
 22
0.0
 32
0.0
 13
1.0
 23
0.0
 33
0.0
 40
0.0
 40
0.0
 40
0.0
 40
0.0
 40
0.0094272036700339
 40
0.0248303567836637
 40
0.0483191200575684
 40
0.0754935164591006
 40
0.106402103176042
 40
0.1410620746914161
 40
0.1794821812645827
 40
0.2216462715588912
 40
0.2639242731532423
 40
0.3024759006032998
 40
0.3372715667541795
 40
0.3682809248214061
 40
0.4036952593866751
 40
0.4323107030582463
 40
0.4599015827244716
 40
0.4940904408177684
 40
0.5349326189009388
 40
0.5823784556047681
 40
0.6311425716759775
 40
0.6781042538461124
 40
0.7232848794878
 40
0.7666844884783811
 40
0.8082861297101183
 40
0.8480864788496217
 40
0.8768247520559235
 40
0.9047662268503235
 40
0.921516437053727
 40
0.9427734503990398
 40
0.9689076690636163
 40
1.0
 40
1.0
 40
1.0
 40
1.0
 10
133.7895402459235
 20
185.0067384438902
 30
0.0
 10
133.7854180406228
 20
185.0049799223123
 30
0.0
 10
133.7745605443879
 20
185.000348143927
 30
0.0
 10
133.7764271167833
 20
184.967405978277
 30
0.0
 10
133.8000634814463
 20
184.8744205834281
 30
0.0
 10
133.8354537471384
 20
184.7236460720885
 30
0.0
 10
133.8840543105462
 20
184.5001175957126
 30
0.0
 10
133.9430601606381
 20
184.1933046478154
 30
0.0
 10
134.0117359237772
 20
183.7912315902928
 30
0.0
 10
134.086924174223
 20
183.2996647709863
 30
0.0
 10
134.1628140974611
 20
182.7542197020209
 30
0.0
 10
134.2341984302889
 20
182.2034948336673
 30
0.0
 10
134.2987624943883
 20
181.6814319670738
 30
0.0
 10
134.361472570636
 20
181.1584360466435
 30
0.0
 10
134.4204568384615
 20
180.6556068170351
 30
0.0
 10
134.4773449969884
 20
180.1651497681394
 30
0.0
 10
134.5334764254828
 20
179.6797717648417
 30
0.0
 10
134.5972274721738
 20
179.1307290439765
 30
0.0
 10
134.6733725447063
 20
178.4855345682669
 30
0.0
 10
134.7586010421296
 20
177.7881067558899
 30
0.0
 10
134.8478031164598
 20
177.1002691614588
 30
0.0
 10
134.935967372397
 20
176.4762945105462
 30
0.0
 10
135.0213501233184
 20
175.9344991574187
 30
0.0
 10
135.1040444593883
 20
175.4759924904329
 30
0.0
 10
135.1848915225306
 20
175.0982142154513
 30
0.0
 10
135.260340595178
 20
174.8111794799692
 30
0.0
 10
135.3357888666409
 20
174.5898787438347
 30
0.0
 10
135.3912096503153
 20
174.4576213161255
 30
0.0
 10
135.4709121229316
 20
174.3152994338053
 30
0.0
 10
135.5815829870631
 20
174.1783355706286
 30
0.0
 10
135.7597204327915
 20
174.0458775867054
 30
0.0
 10
135.9189263746776
 20
174.0259713769527
 30
0.0
 10
136.0054261526072
 20
174.0151559343716
 30
0.0
  0
SPLINE
  5
C1
330
1F
100
AcDbEntity
  8
0
  6
Continuous
 62
     7
370
    15
100
AcDbSpline
210
0.0
220
0.0
230
1.0
 70
     8
 71
     3
 72
    19
 73
    15
 74
     0
 42
0.00000001
 43
0.00000001
 12
1.0
 22
0.0
 32
0.0
 13
1.0
 23
0.0
 33
0.0
 40
0.0
 40
0.0
 40
0.0
 40
0.0
 40
0.0360906282835569
 40
0.089638055948396
 40
0.1562818145128136
 40
0.2361631883288856
 40
0.3048647777305172
 40
0.3811399671991005
 40
0.4650222234235279
 40
0.5565606105617326
 40
0.6558044320847284
 40
0.7627670493864306
 40
0.8774859216357952
 40
1.0
 40
1.0
 40
1.0
 40
1.0
 10
137.7194303199709
 20
185.109988293392
 30
0.0
 10
137.7209449529982
 20
185.1044695080355
 30
0.0
 10
137.7247068370799
 20
185.0907625371659
 30
0.0
 10
137.7596610446373
 20
185.0013101335028
 30
0.0
 10
137.8005047621557
 20
184.8617263736103
 30
0.0
 10
137.8509320635804
 20
184.6583174663562
 30
0.0
 10
137.9048342083231
 20
184.4015135900404
 30
0.0
 10
137.9613618782626
 20
184.0976716293726
 30
0.0
 10
138.0246555031473
 20
183.7166585673046
 30
0.0
 10
138.0947243711232
 20
183.2499183809257
 30
0.0
 10
138.1714486093959
 20
182.6928857798692
 30
0.0
 10
138.2547999013193
 20
182.0430507201103
 30
0.0
 10
138.3446707903395
 20
181.3032215081232
 30
0.0
 10
138.4068819361941
 20
180.7704188477124
 30
0.0
 10
138.4390096030239
 20
180.4952638714689
 30
0.0
  0
SPLINE
  5
C2
330
1F
100
AcDbEntity
  8
0
  6
Continuous
 62
     7
370
    15
100
AcDbSpline
210
0.0
220
0.0
230
1.0
 70
     8
 71
     3
 72
    15
 73
    11
 74
     0
 42
0.00000001
 43
0.00000001
 12
1.0
 22
0.0
 32
0.0
 13
1.0
 23
0.0
 33
0.0
 40
0.0
 40
0.0
 40
0.0
 40
0.0
 40
0.1179790343953276
 40
0.2231061505000111
 40
0.3570000891432057
 40
0.4660096596186274
 40
0.5665821023247222
 40
0.6675210913355829
 40
0.9387528122177724
 40
1.0
 40
1.0
 40
1.0
 40
1.0
 10
138.0055903563737
 20
186.0145729848029
 30
0.0
 10
137.928327342136
 20
186.0059254676122
 30
0.0
 10
137.7822178764079
 20
185.9895724411471
 30
0.0
 10
137.5899818037315
 20
185.8624766432129
 30
0.0
 10
137.452279335512
 20
185.6902437778542
 30
0.0
 10
137.3733068604214
 20
185.5289775401216
 30
0.0
 10
137.3171358312441
 20
185.3851365825053
 30
0.0
 10
137.2324860165257
 20
185.1203860975794
 30
0.0
 10
137.1614317324557
 20
184.848428272539
 30
0.0
 10
137.1110565077883
 20
184.5666530325116
 30
0.0
 10
137.1017766985601
 20
184.514746157854
 30
0.0
  0
SPLINE
  5
C3
330
1F
100
AcDbEntity
  8
0
  6
Continuous
 62
     7
370
    15
100
AcDbSpline
210
0.0
220
0.0
230
1.0
 70
     8
 71
     3
 72
    10
 73
     6
 74
     0
 42
0.00000001
 43
0.00000001
 12
1.0
 22
0.0
 32
0.0
 13
1.0
 23
0.0
 33
0.0
 40
0.0
 40
0.0
 40
0.0
 40
0.0
 40
0.3515816749069869
 40
0.9929346894408734
 40
1.0
 40
1.0
 40
1.0
 40
1.0
 10
136.1253559010735
 20
177.014746157854
 30
0.0
 10
136.1100465865048
 20
176.9048269033519
 30
0.0
 10
136.0668101194426
 20
176.5943936566206
 30
0.0
 10
136.0232240998573
 20
176.305401512252
 30
0.0
 10
135.9953686866463
 20
176.1486887282141
 30
0.0
 10
135.9950651678569
 20
176.1469811507985
 30
0.0
  0
SPLINE
  5
C4
330
1F
100
AcDbEntity
  8
0
  6
Continuous
 62
     7
370
    15
100
AcDbSpline
210
0.0
220
0.0
230
1.0
 70
     8
 71
     3
 72
    17
 73
    13
 74
     0
 42
0.00000001
 43
0.00000001
 12
1.0
 22
0.0
 32
0.0
 13
1.0
 23
0.0
 33
0.0
 40
0.0
 40
0.0
 40
0.0
 40
0.0
 40
0.056317736740711
 40
0.1115722763468293
 40
0.2201234861320515
 40
0.3285339542666659
 40
0.4351350533172109
 40
0.5746748836875477
 40
0.7119189411923268
 40
0.847506112818272
 40
0.9774016197135303
 40
1.0
 40
1.0
 40
1.0
 40
1.0
 10
134.005367296048
 20
186.014358381752
 30
0.0
 10
133.941956225201
 20
186.0087325728067
 30
0.0
 10
133.8163311924946
 20
185.9975871620242
 30
0.0
 10
133.6236742499907
 20
185.8939375698869
 30
0.0
 10
133.4757440704421
 20
185.7276839912882
 30
0.0
 10
133.3744841440592
 20
185.5235830712286
 30
0.0
 10
133.2629401135005
 20
185.2210619626377
 30
0.0
 10
133.1604509522094
 20
184.824666955862
 30
0.0
 10
133.0592613691063
 20
184.3176530678761
 30
0.0
 10
132.9665838673644
 20
183.7529371388898
 30
0.0
 10
132.9010320207976
 20
183.3133088926278
 30
0.0
 10
132.8664218353668
 20
183.053280322254
 30
0.0
 10
132.86129288137
 20
183.014746157854
 30
0.0
  0
SPLINE
  5
C5
330
1F
100
AcDbEntity
  8
0
  6
Continuous
 62
     7
370
    15
100
AcDbSpline
210
0.0
220
0.0
230
1.0
 70
     8
 71
     3
 72
    10
 73
     6
 74
     0
 42
0.00000001
 43
0.00000001
 12
1.0
 22
0.0
 32
0.0
 13
1.0
 23
0.0
 33
0.0
 40
0.0
 40
0.0
 40
0.0
 40
0.0
 40
0.2567157126341612
 40
0.7755078762640973
 40
1.0
 40
1.0
 40
1.0
 40
1.0
 10
132.1255167776245
 20
177.014746157854
 30
0.0
 10
132.1142487061242
 20
176.9333088086971
 30
0.0
 10
132.0802091917171
 20
176.6872961862314
 30
0.0
 10
132.0364866005164
 20
176.3958843468675
 30
0.0
 10
132.0042632931138
 20
176.2063309104676
 30
0.0
 10
131.9945309755664
 20
176.1490806036575
 30
0.0
  0
SPLINE
  5
C6
330
1F
100
AcDbEntity
  8
0
  6
Continuous
 62
     7
370
    15
100
AcDbSpline
210
0.0
220
0.0
230
1.0
 70
     8
 71
     3
 72
    19
 73
    15
 74
     0
 42
0.00000001
 43
0.00000001
 12
1.0
 22
0.0
 32
0.0
 13
1.0
 23
0.0
 33
0.0
 40
0.0
 40
0.0
 40
0.0
 40
0.0
 40
0.0694687826843062
 40
0.1499859856698024
 40
0.2414418369653127
 40
0.3234368200230786
 40
0.3843391181522122
 40
0.4406910871660024
 40
0.5126325062002937
 40
0.6001623399443943
 40
0.7031821789319365
 40
0.821615467665487
 40
0.9553903709042727
 40
1.0
 40
1.0
 40
1.0
 40
1.0
 10
130.0050316859507
 20
186.0145417263433
 30
0.0
 10
129.9256449287354
 20
186.0046740869183
 30
0.0
 10
129.7542456243286
 20
185.983369443765
 30
0.0
 10
129.5749223927549
 20
185.8470118651909
 30
0.0
 10
129.4433326576492
 20
185.6763355746461
 30
0.0
 10
129.3511461134246
 20
185.4825274309338
 30
0.0
 10
129.2910952185767
 20
185.3125659945036
 30
0.0
 10
129.2460826425629
 20
185.1625372362205
 30
0.0
 10
129.1938980508638
 20
184.9633836489966
 30
0.0
 10
129.1326431344249
 20
184.6903227099486
 30
0.0
 10
129.0611851420465
 20
184.3223890881409
 30
0.0
 10
128.9799076231541
 20
183.8369328558682
 30
0.0
 10
128.9123674000072
 20
183.3922906199272
 30
0.0
 10
128.8719405332987
 20
183.0902733300105
 30
0.0
 10
128.8618307580521
 20
183.014746157854
 30
0.0
  0
SPLINE
  5
C7
330
1F
100
AcDbEntity
  8
0
  6
Continuous
 62
     7
370
    15
100
AcDbSpline
210
0.0
220
0.0
230
1.0
 70
     8
 71
     3
 72
    10
 73
     6
 74
     0
 42
0.00000001
 43
0.00000001
 12
1.0
 22
0.0
 32
0.0
 13
1.0
 23
0.0
 33
0.0
 40
0.0
 40
0.0
 40
0.0
 40
0.0
 40
0.374771088481136
 40
0.9795038292225722
 40
1.0
 40
1.0
 40
1.0
 40
1.0
 10
128.1253654937354
 20
177.014746157854
 30
0.0
 10
128.1089046098689
 20
176.8963884192128
 30
0.0
 10
128.0658823510148
 20
176.5870479663857
 30
0.0
 10
128.0222638233065
 20
176.2990737893436
 30
0.0
 10
127.9961993576292
 20
176.1498070843617
 30
0.0
 10
127.9953449157921
 20
176.1449138431498
 30
0.0
  0
SPLINE
  5
C8
330
1F
100
AcDbEntity
  8
0
  6
Continuous
 62
     7
370
    15
100
AcDbSpline
210
0.0
220
0.0
230
1.0
 70
     8
 71
     3
 72
    17
 73
    13
 74
     0
 42
0.00000001
 43
0.00000001
 12
1.0
 22
0.0
 32
0.0
 13
1.0
 23
0.0
 33
0.0
 40
0.0
 40
0.0
 40
0.0
 40
0.0
 40
0.1297622493482209
 40
0.2432777611617685
 40
0.3584651517795544
 40
0.4531749791153891
 40
0.5362579332109995
 40
0.6137260079040537
 40
0.6857199764951829
 40
0.8267612351203822
 40
0.9630806127617042
 40
0.9999999999999999
 40
0.9999999999999999
 40
0.9999999999999999
 40
0.9999999999999999
 10
126.005856090008
 20
186.0143787894307
 30
0.0
 10
125.9209796427124
 20
186.004021123709
 30
0.0
 10
125.7618536089301
 20
185.9846026122367
 30
0.0
 10
125.5735279466571
 20
185.8459701265777
 30
0.0
 10
125.4490591941962
 20
185.6827102886586
 30
0.0
 10
125.3772104687529
 20
185.5383001373631
 30
0.0
 10
125.3290581689354
 20
185.4188006359108
 30
0.0
 10
125.2855032899798
 20
185.2925059561041
 30
0.0
 10
125.2347750138084
 20
185.1236749572508
 30
0.0
 10
125.1783553969525
 20
184.8979306457364
 30
0.0
 10
125.1312089179031
 20
184.6859405748534
 30
0.0
 10
125.105265626109
 20
184.5448206180191
 30
0.0
 10
125.0997367802029
 20
184.514746157854
 30
0.0
  0
SPLINE
  5
C9
330
1F
100
AcDbEntity
  8
0
  6
Continuous
 62
     7
370
    15
100
AcDbSpline
210
0.0
220
0.0
230
1.0
 70
     8
 71
     3
 72
    12
 73
     8
 74
     0
 42
0.00000001
 43
0.00000001
 12
1.0
 22
0.0
 32
0.0
 13
1.0
 23
0.0
 33
0.0
 40
0.0
 40
0.0
 40
0.0
 40
0.0
 40
0.0431339708167869
 40
0.2796358660601031
 40
0.4812916940718277
 40
0.7057150618792919
 40
1.0
 40
1.0
 40
1.0
 40
1.0
 10
123.8807605980725
 20
175.514746157854
 30
0.0
 10
123.8779189044805
 20
175.5001525206653
 30
0.0
 10
123.8594963147296
 20
175.4055425346855
 30
0.0
 10
123.8315058336311
 20
175.2821396275672
 30
0.0
 10
123.7979816086572
 20
175.137550508665
 30
0.0
 10
123.776167794004
 20
175.0339905027593
 30
0.0
 10
123.7772001141121
 20
175.0012020379452
 30
0.0
 10
123.7777857925285
 20
174.9825997691389
 30
0.0
  0
LINE
  5
CA
330
1F
100
AcDbEntity
  8
0
  6
Continuous
 62
     7
370
    15
100
AcDbLine
 10
123.7869412328
 20
174.9779183279
 30
0.0
 11
123.8052708298
 21
174.9685458751
 31
0.0
  0
SPLINE
  5
CB
330
1F
100
AcDbEntity
  8
0
  6
Continuous
 62
     7
370
    15
100
AcDbSpline
210
0.0
220
0.0
230
1.0
 70
     8
 71
     3
 72
    15
 73
    11
 74
     0
 42
0.00000001
 43
0.00000001
 12
1.0
 22
0.0
 32
0.0
 13
1.0
 23
0.0
 33
0.0
 40
0.0
 40
0.0
 40
0.0
 40
0.0
 40
0.1890599574408219
 40
0.3421139638342515
 40
0.4597200724895321
 40
0.5425036392960249
 40
0.6340568167083925
 40
0.7363704508477793
 40
0.8626150298440567
 40
1.0
 40
1.0
 40
1.0
 40
1.0
 10
124.3107865309001
 20
174.1099576963843
 30
0.0
 10
124.3520491080348
 20
174.1436672323412
 30
0.0
 10
124.4267159175097
 20
174.2046664154645
 30
0.0
 10
124.5243840007158
 20
174.3561786140675
 30
0.0
 10
124.5989913626273
 20
174.5047895069952
 30
0.0
 10
124.6595899486075
 20
174.6481931214633
 30
0.0
 10
124.7253344834393
 20
174.82062562605
 30
0.0
 10
124.7800339617443
 20
175.0131997791964
 30
0.0
 10
124.8355289762935
 20
175.2412441798934
 30
0.0
 10
124.8714250836753
 20
175.4210461563066
 30
0.0
 10
124.8901315817034
 20
175.514746157854
 30
0.0
  0
SPLINE
  5
CC
330
1F
100
AcDbEntity
  8
0
  6
Continuous
 62
     7
370
    15
100
AcDbSpline
210
0.0
220
0.0
230
1.0
 70
     8
 71
     3
 72
    19
 73
    15
 74
     0
 42
0.00000001
 43
0.00000001
 12
1.0
 22
0.0
 32
0.0
 13
1.0
 23
0.0
 33
0.0
 40
0.0
 40
0.0
 40
0.0
 40
0.0
 40
0.0894699229362551
 40
0.1664462533391296
 40
0.2424129636960535
 40
0.3015551642703178
 40
0.3525519419514127
 40
0.4054190642483128
 40
0.4602062958912671
 40
0.5888468945219602
 40
0.7272621040100076
 40
0.8757307298752159
 40
0.987947379723635
 40
1.0
 40
1.0
 40
1.0
 40
1.0
 10
127.984078712059
 20
174.0151790320553
 30
0.0
 10
128.0618035951774
 20
174.0241736313931
 30
0.0
 10
128.206399847881
 20
174.0409068229611
 30
0.0
 10
128.3867301392526
 20
174.1659519775463
 30
0.0
 10
128.5132293669954
 20
174.3159563766418
 30
0.0
 10
128.592637712005
 20
174.4607389043202
 30
0.0
 10
128.6435758940121
 20
174.5814260980821
 30
0.0
 10
128.6925778146468
 20
174.7158328476454
 30
0.0
 10
128.7597308665068
 20
174.9327136304747
 30
0.0
 10
128.8436059977349
 20
175.2720704943181
 30
0.0
 10
128.9435384823067
 20
175.786829898909
 30
0.0
 10
129.0354695071624
 20
176.3597172347022
 30
0.0
 10
129.0974308112834
 20
176.7826185827263
 30
0.0
 10
129.1256331478154
 20
176.9942230745073
 30
0.0
 10
129.1283684342848
 20
177.014746157854
 30
0.0
  0
SPLINE
  5
CD
330
1F
100
AcDbEntity
  8
0
  6
Continuous
 62
     7
370
    15
100
AcDbSpline
210
0.0
220
0.0
230
1.0
 70
     8
 71
     3
 72
    10
 73
     6
 74
     0
 42
0.00000001
 43
0.00000001
 12
1.0
 22
0.0
 32
0.0
 13
1.0
 23
0.0
 33
0.0
 40
0.0
 40
0.0
 40
0.0
 40
0.0
 40
0.0369868691598463
 40
0.5443108813953866
 40
1.0
 40
1.0
 40
1.0
 40
1.0
 10
129.8635197347425
 20
183.014746157854
 30
0.0
 10
129.8651463811452
 20
183.0267838284443
 30
0.0
 10
129.8890846424072
 20
183.2039341317221
 30
0.0
 10
129.9328762814075
 20
183.500293770196
 30
0.0
 10
129.9748077314151
 20
183.7599221489643
 30
0.0
 10
129.9946493149656
 20
183.8827759536497
 30
0.0
  0
SPLINE
  5
CE
330
1F
100
AcDbEntity
  8
0
  6
Continuous
 62
     7
370
    15
100
AcDbSpline
210
0.0
220
0.0
230
1.0
 70
     8
 71
     3
 72
    18
 73
    14
 74
     0
 42
0.00000001
 43
0.00000001
 12
1.0
 22
0.0
 32
0.0
 13
1.0
 23
0.0
 33
0.0
 40
0.0
 40
0.0
 40
0.0
 40
0.0
 40
0.0479096214252271
 40
0.0952331196787489
 40
0.1880739135557472
 40
0.2799570500761534
 40
0.3729628127421332
 40
0.5000671544439935
 40
0.6311348314434223
 40
0.7666223105496976
 40
0.868907976754307
 40
0.9695888692409131
 40
1.0
 40
1.0
 40
1.0
 40
1.0
 10
131.9843658082445
 20
174.0148787458137
 30
0.0
 10
132.0363724696898
 20
174.0185250465317
 30
0.0
 10
132.1397495464895
 20
174.0257730393636
 30
0.0
 10
132.3123711405992
 20
174.1007220833607
 30
0.0
 10
132.4723144551454
 20
174.2428167508394
 30
0.0
 10
132.5877644998828
 20
174.4368026692375
 30
0.0
 10
132.6818562883675
 20
174.6657431417295
 30
0.0
 10
132.7795271758261
 20
174.9922314865564
 30
0.0
 10
132.8761275995729
 20
175.4259676502202
 30
0.0
 10
132.9615820087166
 20
175.8954883936021
 30
0.0
 10
133.0386293374356
 20
176.3827549652011
 30
0.0
 10
133.0916946432732
 20
176.7429325775394
 30
0.0
 10
133.1213606020766
 20
176.9635635144934
 30
0.0
 10
133.1282426024449
 20
177.014746157854
 30
0.0
  0
SPLINE
  5
CF
330
1F
100
AcDbEntity
  8
0
  6
Continuous
 62
     7
370
    15
100
AcDbSpline
210
0.0
220
0.0
230
1.0
 70
     8
 71
     3
 72
    10
 73
     6
 74
     0
 42
0.00000001
 43
0.00000001
 12
1.0
 22
0.0
 32
0.0
 13
1.0
 23
0.0
 33
0.0
 40
0.0
 40
0.0
 40
0.0
 40
0.0
 40
0.406052996950133
 40
0.9108869807928867
 40
1.0
 40
1.0
 40
1.0
 40
1.0
 10
133.864162110525
 20
183.014746157854
 30
0.0
 10
133.8819190739036
 20
183.1422297947549
 30
0.0
 10
133.9217527578845
 20
183.4282101618236
 30
0.0
 10
133.9660404907843
 20
183.7165386697672
 30
0.0
 10
133.9910271833602
 20
183.8611970733121
 30
0.0
 10
133.9947760693787
 20
183.882900940875
 30
0.0
  0
SPLINE
  5
D0
330
1F
100
AcDbEntity
  8
0
  6
Continuous
 62
     7
370
    15
100
AcDbSpline
210
0.0
220
0.0
230
1.0
 70
     8
 71
     3
 72
    15
 73
    11
 74
     0
 42
0.00000001
 43
0.00000001
 12
1.0
 22
0.0
 32
0.0
 13
1.0
 23
0.0
 33
0.0
 40
0.0
 40
0.0
 40
0.0
 40
0.0
 40
0.1135965630743081
 40
0.2502898483649081
 40
0.4087727904793849
 40
0.5466198560992088
 40
0.6466129945502426
 40
0.7458043179265843
 40
0.8700069928253819
 40
1.0
 40
1.0
 40
1.0
 40
1.0
 10
135.983939069526
 20
174.0151639961655
 30
0.0
 10
136.0666613979971
 20
174.0259111352512
 30
0.0
 10
136.2489253546616
 20
174.0495905471924
 30
0.0
 10
136.4337413625919
 20
174.2007510309401
 30
0.0
 10
136.570094629014
 20
174.3938955593782
 30
0.0
 10
136.6655350544374
 20
174.6172045862588
 30
0.0
 10
136.7266071886458
 20
174.807739630242
 30
0.0
 10
136.7762718221006
 20
174.9892227108364
 30
0.0
 10
136.8309300020425
 20
175.216326320713
 30
0.0
 10
136.8691012223831
 20
175.4086710914426
 30
0.0
 10
136.8886215843307
 20
175.5070341909159
 30
0.0
  0
SPLINE
  5
D1
330
1F
100
AcDbEntity
  8
0
  6
Continuous
 62
     7
370
    15
100
AcDbSpline
210
0.0
220
0.0
230
1.0
 70
     8
 71
     3
 72
    22
 73
    18
 74
     0
 42
0.00000001
 43
0.00000001
 12
1.0
 22
0.0
 32
0.0
 13
1.0
 23
0.0
 33
0.0
 40
0.0
 40
0.0
 40
0.0
 40
0.0
 40
0.1002720896250931
 40
0.1946430582222449
 40
0.2830953279671448
 40
0.3656095588154847
 40
0.4662720293238327
 40
0.5562504499169352
 40
0.6354534003123108
 40
0.7037748145310436
 40
0.7611281115447619
 40
0.8074211703370876
 40
0.840965846811549
 40
0.8836449511338866
 40
0.9365078658373464
 40
0.9669532766111383
 40
1.0
 40
1.0
 40
1.0
 40
1.0
 10
139.4389546650477
 20
180.4961559301645
 30
0.0
 10
139.4058837364305
 20
180.7799391388342
 30
0.0
 10
139.3416881391475
 20
181.3308046071228
 30
0.0
 10
139.2479446724101
 20
182.1032151338547
 30
0.0
 10
139.1596555855401
 20
182.7896539326014
 30
0.0
 10
139.0686958046741
 20
183.4445022516552
 30
0.0
 10
138.9761590071248
 20
184.0413471980243
 30
0.0
 10
138.8832537366608
 20
184.5543088715864
 30
0.0
 10
138.7992743392739
 20
184.9415422588941
 30
0.0
 10
138.724800394164
 20
185.2229988189387
 30
0.0
 10
138.6575224154484
 20
185.4246720102843
 30
0.0
 10
138.6041002487601
 20
185.5550688299032
 30
0.0
 10
138.5385820229806
 20
185.6812882542209
 30
0.0
 10
138.4302001558446
 20
185.8312165031446
 30
0.0
 10
138.2847354093473
 20
185.9426651134288
 30
0.0
 10
138.1266118267282
 20
186.0058558279942
 30
0.0
 10
138.0328709264144
 20
186.0115851592304
 30
0.0
 10
137.984080164476
 20
186.0145671919981
 30
0.0
  0
SPLINE
  5
D2
330
1F
100
AcDbEntity
  8
0
  6
Continuous
 62
     7
370
    15
100
AcDbSpline
210
0.0
220
0.0
230
1.0
 70
     8
 71
     3
 72
    38
 73
    34
 74
     0
 42
0.00000001
 43
0.00000001
 12
1.0
 22
0.0
 32
0.0
 13
1.0
 23
0.0
 33
0.0
 40
0.0
 40
0.0
 40
0.0
 40
0.0
 40
0.0107944440090473
 40
0.0369964108269789
 40
0.0649791220181443
 40
0.0947252785579018
 40
0.1261910357497874
 40
0.1589223582357074
 40
0.1927017050789285
 40
0.2275195293114923
 40
0.2633648206473538
 40
0.3002361224630978
 40
0.3372359655837676
 40
0.3810445600090666
 40
0.4179504479914499
 40
0.447922976586554
 40
0.4745495095767953
 40
0.5071572064974842
 40
0.5462519763108442
 40
0.5798681563365731
 40
0.6171786599835642
 40
0.6582028662795081
 40
0.7003480081939628
 40
0.7528140591712382
 40
0.8010438774500758
 40
0.8450675680726915
 40
0.865507853796833
 40
0.8848922683358589
 40
0.9044078124688408
 40
0.9225281735335126
 40
0.9443658022003424
 40
0.97018336958729
 40
1.0
 40
1.0
 40
1.0
 40
1.0
 10
136.2754462697801
 20
174.9111950786058
 30
0.0
 10
136.275268945792
 20
174.9130486507336
 30
0.0
 10
136.2746611932199
 20
174.9194015037269
 30
0.0
 10
136.241536640855
 20
175.0000500560885
 30
0.0
 10
136.2028028646776
 20
175.1301779269554
 30
0.0
 10
136.15240898052
 20
175.3245336174186
 30
0.0
 10
136.0964045598581
 20
175.58052797402
 30
0.0
 10
136.0366063977766
 20
175.8947697299655
 30
0.0
 10
135.9742296914524
 20
176.2637570888785
 30
0.0
 10
135.9093668114143
 20
176.6867810207963
 30
0.0
 10
135.842193628066
 20
177.1624963467083
 30
0.0
 10
135.7733867862864
 20
177.6841476976234
 30
0.0
 10
135.6994339144227
 20
178.2750946306372
 30
0.0
 10
135.6253901125176
 20
178.8922203702387
 30
0.0
 10
135.5557495880433
 20
179.4877254299709
 30
0.0
 10
135.4969178589226
 20
179.9957948361692
 30
0.0
 10
135.4407937970195
 20
180.4808866003839
 30
0.0
 10
135.3788790700903
 20
181.0127191499829
 30
0.0
 10
135.3124601099674
 20
181.5728792599319
 30
0.0
 10
135.2430051779166
 20
182.1405841312177
 30
0.0
 10
135.1721863522171
 20
182.6955676638553
 30
0.0
 10
135.0958278380532
 20
183.2577020895417
 30
0.0
 10
135.009527709622
 20
183.8400860080188
 30
0.0
 10
134.9171612169896
 20
184.3880862062753
 30
0.0
 10
134.8207465982226
 20
184.8611205132048
 30
0.0
 10
134.7419937317287
 20
185.1671447520662
 30
0.0
 10
134.6799318798603
 20
185.3621028762236
 30
0.0
 10
134.6342346353264
 20
185.4845620290371
 30
0.0
 10
134.5871037005492
 20
185.5921559874854
 30
0.0
 10
134.5081437098295
 20
185.7286631934822
 30
0.0
 10
134.3924151369856
 20
185.8633681309688
 30
0.0
 10
134.2166578377299
 20
185.9871506632809
 30
0.0
 10
134.0650965384738
 20
186.0048670945627
 30
0.0
 10
133.9838686710196
 20
186.0143620509861
 30
0.0
  0
SPLINE
  5
D3
330
1F
100
AcDbEntity
  8
0
  6
Continuous
 62
     7
370
    15
100
AcDbSpline
210
0.0
220
0.0
230
1.0
 70
     8
 71
     3
 72
    38
 73
    34
 74
     0
 42
0.00000001
 43
0.00000001
 12
1.0
 22
0.0
 32
0.0
 13
1.0
 23
0.0
 33
0.0
 40
0.0
 40
0.0
 40
0.0
 40
0.0
 40
0.0055667458186233
 40
0.024897666256775
 40
0.0438270666427237
 40
0.0632603440387941
 40
0.0933404256254453
 40
0.1245319308697878
 40
0.1568082118502837
 40
0.1901371304704821
 40
0.2351231855670824
 40
0.2789422412535062
 40
0.3215192356684604
 40
0.3628408449504108
 40
0.4028902077811947
 40
0.4418504020402946
 40
0.4987135754702631
 40
0.5538227807588563
 40
0.5926521927936096
 40
0.6351743256756252
 40
0.6814221262730873
 40
0.7311987324918459
 40
0.7789760792608068
 40
0.8223972426527506
 40
0.8375654558183551
 40
0.8521233220898888
 40
0.8660715066337927
 40
0.881180340998387
 40
0.9016433955425043
 40
0.9280616830548089
 40
0.9608090008613162
 40
0.9796215071892685
 40
1.0
 40
1.0
 40
1.0
 40
1.0
 10
132.2629973593961
 20
174.929699757113
 30
0.0
 10
132.2644438551362
 20
174.9290766394627
 30
0.0
 10
132.2709134101241
 20
174.9262897014918
 30
0.0
 10
132.2500624293921
 20
174.971936942197
 30
0.0
 10
132.2262804562089
 20
175.0462999132924
 30
0.0
 10
132.1927918868268
 20
175.1605863645671
 30
0.0
 10
132.1502289376759
 20
175.3308369869011
 30
0.0
 10
132.0969712686438
 20
175.576839569943
 30
0.0
 10
132.0393738809559
 20
175.8794142476654
 30
0.0
 10
131.9715632655386
 20
176.2777487494247
 30
0.0
 10
131.8954460016563
 20
176.7786679750193
 30
0.0
 10
131.813499535174
 20
177.3741124101363
 30
0.0
 10
131.7335034755242
 20
177.9983584140585
 30
0.0
 10
131.6557307462462
 20
178.6369475258167
 30
0.0
 10
131.5801332652169
 20
179.2779089688452
 30
0.0
 10
131.4947501504581
 20
180.0140630970586
 30
0.0
 10
131.3997882717272
 20
180.8360046644773
 30
0.0
 10
131.3049385714535
 20
181.6381180975555
 30
0.0
 10
131.2190433572434
 20
182.3333563773373
 30
0.0
 10
131.138522877693
 20
182.9509097972489
 30
0.0
 10
131.0507405507053
 20
183.5729194853612
 30
0.0
 10
130.9593332770464
 20
184.149989239159
 30
0.0
 10
130.8684570990804
 20
184.6407767796783
 30
0.0
 10
130.7976770602444
 20
184.9556555426561
 30
0.0
 10
130.7473772231188
 20
185.14571998283
 30
0.0
 10
130.7164144298127
 20
185.2520061015034
 30
0.0
 10
130.6855669872783
 20
185.3480675554308
 30
0.0
 10
130.6454045025573
 20
185.460064016358
 30
0.0
 10
130.5729486398814
 20
185.6209409355256
 30
0.0
 10
130.4506348106008
 20
185.8049806834622
 30
0.0
 10
130.2928336270677
 20
185.9353320511055
 30
0.0
 10
130.1283032792208
 20
186.0052712760689
 30
0.0
 10
130.0330720034414
 20
186.0113517440456
 30
0.0
 10
129.9835537489575
 20
186.0145134591248
 30
0.0
  0
SPLINE
  5
D4
330
1F
100
AcDbEntity
  8
0
  6
Continuous
 62
     7
370
    15
100
AcDbSpline
210
0.0
220
0.0
230
1.0
 70
     8
 71
     3
 72
    37
 73
    33
 74
     0
 42
0.00000001
 43
0.00000001
 12
1.0
 22
0.0
 32
0.0
 13
1.0
 23
0.0
 33
0.0
 40
0.0
 40
0.0
 40
0.0
 40
0.0
 40
0.0003871611027093
 40
0.0170883241847612
 40
0.048768815756147
 40
0.0823149693872945
 40
0.1177046684482396
 40
0.1549078377687013
 40
0.1938893779237758
 40
0.234158117809368
 40
0.2838132985800257
 40
0.3275483766872904
 40
0.3652988505612541
 40
0.3970199322989292
 40
0.4245414554671145
 40
0.4578880847226076
 40
0.4877203192137097
 40
0.5216941710236531
 40
0.559649865076365
 40
0.5979238061334827
 40
0.6350639947297018
 40
0.6710778181426278
 40
0.7059715004877676
 40
0.7397418603806935
 40
0.7832376371315779
 40
0.8255088281629831
 40
0.8667081660207697
 40
0.8974087572164062
 40
0.9294819865534552
 40
0.9635860243366611
 40
0.9815219189813593
 40
1.0
 40
1.0
 40
1.0
 40
1.0
 10
128.238883619484
 20
174.961558794105
 30
0.0
 10
128.2390738673627
 20
174.9615152268602
 30
0.0
 10
128.2474709336075
 20
174.9595922774795
 30
0.0
 10
128.2312965136715
 20
174.9982319263594
 30
0.0
 10
128.2065885299168
 20
175.0952391320225
 30
0.0
 10
128.1598539192821
 20
175.2780477514239
 30
0.0
 10
128.1041513192379
 20
175.5351518724729
 30
0.0
 10
128.0397616397725
 20
175.8730867591019
 30
0.0
 10
127.9693684984415
 20
176.2912956737292
 30
0.0
 10
127.8892404426981
 20
176.8206444083044
 30
0.0
 10
127.8059670391539
 20
177.4295841890599
 30
0.0
 10
127.7240244198387
 20
178.0751268043001
 30
0.0
 10
127.6531332393253
 20
178.6595850924556
 30
0.0
 10
127.5923000941213
 20
179.1746071352429
 30
0.0
 10
127.5341965505694
 20
179.6735312224046
 30
0.0
 10
127.4772689939815
 20
180.1658007965912
 30
0.0
 10
127.416287323041
 20
180.6920664083102
 30
0.0
 10
127.3523764206766
 20
181.2378326728176
 30
0.0
 10
127.2831574129812
 20
181.8157006340104
 30
0.0
 10
127.2118906221953
 20
182.3889312150237
 30
0.0
 10
127.1417061413124
 20
182.9250443921715
 30
0.0
 10
127.0734782922762
 20
183.412912491183
 30
0.0
 10
127.0071376354801
 20
183.8512327624008
 30
0.0
 10
126.9357571271784
 20
184.280628434247
 30
0.0
 10
126.8588873953094
 20
184.6867584178601
 30
0.0
 10
126.7723465411799
 20
185.0636178656496
 30
0.0
 10
126.6877556150829
 20
185.3486839372539
 30
0.0
 10
126.5998175441935
 20
185.5714644723853
 30
0.0
 10
126.475806721142
 20
185.78280922441
 30
0.0
 10
126.3120743893916
 20
185.9276974811577
 30
0.0
 10
126.1384055586986
 20
186.0036361521912
 30
0.0
 10
126.0362253403948
 20
186.0107789562313
 30
0.0
 10
125.9843745243846
 20
186.0144035346892
 30
0.0
  0
LINE
  5
D5
330
1F
100
AcDbEntity
  8
0
  6
Continuous
 62
     7
370
    15
100
AcDbLine
 10
115.4509826444
 20
186.8147461579
 30
0.0
 11
115.4509826444
 21
186.0147461579
 31
0.0
  0
LINE
  5
D6
330
1F
100
AcDbEntity
  8
0
  6
Continuous
 62
     7
370
    15
100
AcDbLine
 10
123.4509826444
 20
186.0147461579
 30
0.0
 11
123.4509826444
 21
186.8147461579
 31
0.0
  0
LINE
  5
D7
330
1F
100
AcDbEntity
  8
0
  6
Continuous
 62
     7
370
    15
100
AcDbLine
 10
115.4509826444
 20
174.0147461579
 30
0.0
 11
115.4509826444
 21
173.2147461579
 31
0.0
  0
LINE
  5
D8
330
1F
100
AcDbEntity
  8
0
  6
Continuous
 62
     7
370
    15
100
AcDbLine
 10
123.4509826444
 20
173.2147461579
 30
0.0
 11
123.4509826444
 21
174.0147461579
 31
0.0
  0
LINE
  5
D9
330
1F
100
AcDbEntity
  8
0
  6
Continuous
 62
     7
370
    15
100
AcDbLine
 10
162.5509826444
 20
175.5147461579
 30
0.0
 11
163.1509826444
 21
175.5147461579
 31
0.0
  0
LINE
  5
DA
330
1F
100
AcDbEntity
  8
0
  6
Continuous
 62
     7
370
    15
100
AcDbLine
 10
163.1509826444
 20
183.7433837617
 30
0.0
 11
162.5509826444
 21
183.7433837617
 31
0.0
  0
LINE
  5
DB
330
1F
100
AcDbEntity
  8
0
  6
Continuous
 62
     7
370
    15
100
AcDbLine
 10
117.1009826444
 20
165.7147461579
 30
0.0
 11
117.4509826444
 21
163.2147461579
 31
0.0
  0
LINE
  5
DC
330
1F
100
AcDbEntity
  8
0
  6
Continuous
 62
     7
370
    15
100
AcDbLine
 10
121.4509826444
 20
163.2147461579
 30
0.0
 11
121.8009826444
 21
165.7147461579
 31
0.0
  0
LINE
  5
DD
330
1F
100
AcDbEntity
  8
0
  6
Continuous
 62
     7
370
    15
100
AcDbLine
 10
117.1009826444
 20
168.2147461579
 30
0.0
 11
117.4509826444
 21
165.7147461579
 31
0.0
  0
LINE
  5
DE
330
1F
100
AcDbEntity
  8
0
  6
Continuous
 62
     7
370
    15
100
AcDbLine
 10
121.4509826444
 20
165.7147461579
 30
0.0
 11
121.8009826444
 21
168.2147461579
 31
0.0
  0
LINE
  5
DF
330
1F
100
AcDbEntity
  8
0
  6
Continuous
 62
     7
370
    15
100
AcDbLine
 10
121.5509826444
 20
168.2147461579
 30
0.0
 11
121.5509826444
 21
170.7147461579
 31
0.0
  0
LINE
  5
E0
330
1F
100
AcDbEntity
  8
0
  6
Continuous
 62
     7
370
    15
100
AcDbLine
 10
117.3509826444
 20
170.7147461579
 30
0.0
 11
117.3509826444
 21
168.2147461579
 31
0.0
  0
LINE
  5
E1
330
1F
100
AcDbEntity
  8
0
  6
Continuous
 62
     7
370
    15
100
AcDbLine
 10
163.9509826444
 20
177.0147461579
 30
0.0
 11
164.4509826444
 21
177.5147461579
 31
0.0
  0
LINE
  5
E2
330
1F
100
AcDbEntity
  8
0
  6
Continuous
 62
     7
370
    15
100
AcDbLine
 10
164.4509826444
 20
182.5147461579
 30
0.0
 11
163.9509826444
 21
183.0147461579
 31
0.0
  0
LINE
  5
E3
330
1F
100
AcDbEntity
  8
0
  6
Continuous
 62
     7
370
    15
100
AcDbLine
 10
163.1509826444
 20
177.0147461579
 30
0.0
 11
163.9509826444
 21
177.0147461579
 31
0.0
  0
LINE
  5
E4
330
1F
100
AcDbEntity
  8
0
  6
Continuous
 62
     7
370
    15
100
AcDbLine
 10
163.9509826444
 20
183.0147461579
 30
0.0
 11
163.1509826444
 21
183.0147461579
 31
0.0
  0
LINE
  5
E5
330
1F
100
AcDbEntity
  8
0
  6
Continuous
 62
     7
370
    15
100
AcDbLine
 10
106.4509826444
 20
174.5147461579
 30
0.0
 11
108.4509826444
 21
174.5147461579
 31
0.0
  0
LINE
  5
E6
330
1F
100
AcDbEntity
  8
0
  6
Continuous
 62
     7
370
    15
100
AcDbLine
 10
108.4509826444
 20
185.5147461579
 30
0.0
 11
106.4509826444
 21
185.5147461579
 31
0.0
  0
LINE
  5
E7
330
1F
100
AcDbEntity
  8
0
  6
Continuous
 62
     7
370
    15
100
AcDbLine
 10
123.4509826444
 20
175.5147461579
 30
0.0
 11
126.4509826444
 21
175.5147461579
 31
0.0
  0
LINE
  5
E8
330
1F
100
AcDbEntity
  8
0
  6
Continuous
 62
     7
370
    15
100
AcDbLine
 10
125.8774121137
 20
184.5147461579
 30
0.0
 11
123.4509826444
 21
184.5147461579
 31
0.0
  0
LINE
  5
E9
330
1F
100
AcDbEntity
  8
0
  6
Continuous
 62
     7
370
    15
100
AcDbLine
 10
108.4509826444
 20
176.1147461579
 30
0.0
 11
115.4509826444
 21
176.1147461579
 31
0.0
  0
LINE
  5
EA
330
1F
100
AcDbEntity
  8
0
  6
Continuous
 62
     7
370
    15
100
AcDbLine
 10
115.4509826444
 20
183.9147461579
 30
0.0
 11
108.4509826444
 21
183.9147461579
 31
0.0
  0
LINE
  5
EB
330
1F
100
AcDbEntity
  8
0
  6
Continuous
 62
     7
370
    15
100
AcDbLine
 10
126.4509826444
 20
177.0147461579
 30
0.0
 11
126.8617036799
 21
177.0147461579
 31
0.0
  0
LINE
  5
EC
330
1F
100
AcDbEntity
  8
0
  6
Continuous
 62
     7
370
    15
100
AcDbLine
 10
127.8642197997
 20
177.0147461579
 30
0.0
 11
130.8615573982
 21
177.0147461579
 31
0.0
  0
LINE
  5
ED
330
1F
100
AcDbEntity
  8
0
  6
Continuous
 62
     7
370
    15
100
AcDbLine
 10
131.8641372517
 20
177.0147461579
 30
0.0
 11
134.8612100749
 21
177.0147461579
 31
0.0
  0
LINE
  5
EE
330
1F
100
AcDbEntity
  8
0
  6
Continuous
 62
     7
370
    15
100
AcDbLine
 10
135.8638731925
 20
177.0147461579
 30
0.0
 11
136.4509826444
 21
177.0147461579
 31
0.0
  0
LINE
  5
EF
330
1F
100
AcDbEntity
  8
0
  6
Continuous
 62
     7
370
    15
100
AcDbLine
 10
136.4509826444
 20
183.0147461579
 30
0.0
 11
135.1278361433
 21
183.0147461579
 31
0.0
  0
LINE
  5
F0
330
1F
100
AcDbEntity
  8
0
  6
Continuous
 62
     7
370
    15
100
AcDbLine
 10
134.1254784031
 20
183.0147461579
 30
0.0
 11
131.1282195781
 21
183.0147461579
 31
0.0
  0
LINE
  5
F1
330
1F
100
AcDbEntity
  8
0
  6
Continuous
 62
     7
370
    15
100
AcDbLine
 10
130.1254265715
 20
183.0147461579
 30
0.0
 11
127.1283773052
 21
183.0147461579
 31
0.0
  0
LINE
  5
F2
330
1F
100
AcDbEntity
  8
0
  6
Continuous
 62
     7
370
    15
100
AcDbLine
 10
141.4509826444
 20
168.4591874002
 30
0.0
 11
141.4509826444
 21
168.4147461579
 31
0.0
  0
LINE
  5
F3
330
1F
100
AcDbEntity
  8
0
  6
Continuous
 62
     7
370
    15
100
AcDbLine
 10
141.4509826444
 20
191.6147461579
 30
0.0
 11
141.4509826444
 21
168.4591874002
 31
0.0
  0
LINE
  5
F4
330
1F
100
AcDbEntity
  8
0
  6
Continuous
 62
     7
370
    15
100
AcDbLine
 10
141.0509826444
 20
168.0607198569
 30
0.0
 11
141.0509826444
 21
168.0147461579
 31
0.0
  0
LINE
  5
F5
330
1F
100
AcDbEntity
  8
0
  6
Continuous
 62
     7
370
    15
100
AcDbLine
 10
141.0509826444
 20
192.0147461579
 30
0.0
 11
141.0509826444
 21
168.0607198569
 31
0.0
  0
LINE
  5
F6
330
1F
100
AcDbEntity
  8
0
  6
Continuous
 62
     7
370
    15
100
AcDbLine
 10
139.8509826444
 20
168.0607198569
 30
0.0
 11
139.8509826444
 21
168.0147461579
 31
0.0
  0
LINE
  5
F7
330
1F
100
AcDbEntity
  8
0
  6
Continuous
 62
     7
370
    15
100
AcDbLine
 10
139.8509826444
 20
192.0147461579
 30
0.0
 11
139.8509826444
 21
168.0607198569
 31
0.0
  0
LINE
  5
F8
330
1F
100
AcDbEntity
  8
0
  6
Continuous
 62
     7
370
    15
100
AcDbLine
 10
139.4509826444
 20
168.4591874002
 30
0.0
 11
139.4509826444
 21
168.4147461579
 31
0.0
  0
LINE
  5
F9
330
1F
100
AcDbEntity
  8
0
  6
Continuous
 62
     7
370
    15
100
AcDbLine
 10
139.4509826444
 20
191.6147461579
 30
0.0
 11
139.4509826444
 21
168.4591874002
 31
0.0
  0
LINE
  5
FA
330
1F
100
AcDbEntity
  8
0
  6
Continuous
 62
     7
370
    15
100
AcDbLine
 10
162.4509826444
 20
170.4515251171
 30
0.0
 11
162.4509826444
 21
170.4147461579
 31
0.0
  0
LINE
  5
FB
330
1F
100
AcDbEntity
  8
0
  6
Continuous
 62
     7
370
    15
100
AcDbLine
 10
162.4509826444
 20
189.6147461579
 30
0.0
 11
162.4509826444
 21
170.4515251171
 31
0.0
  0
LINE
  5
FC
330
1F
100
AcDbEntity
  8
0
  6
Continuous
 62
     7
370
    15
100
AcDbLine
 10
162.0509826444
 20
170.0530575737
 30
0.0
 11
162.0509826444
 21
170.0147461579
 31
0.0
  0
LINE
  5
FD
330
1F
100
AcDbEntity
  8
0
  6
Continuous
 62
     7
370
    15
100
AcDbLine
 10
162.0509826444
 20
190.0147461579
 30
0.0
 11
162.0509826444
 21
170.0530575737
 31
0.0
  0
LINE
  5
FE
330
1F
100
AcDbEntity
  8
0
  6
Continuous
 62
     7
370
    15
100
AcDbLine
 10
136.8509826444
 20
175.531986295
 30
0.0
 11
136.8509826444
 21
175.5147461579
 31
0.0
  0
LINE
  5
FF
330
1F
100
AcDbEntity
  8
0
  6
Continuous
 62
     7
370
    15
100
AcDbLine
 10
136.8509826444
 20
184.5147461579
 30
0.0
 11
136.8509826444
 21
175.531986295
 31
0.0
  0
LINE
  5
100
330
1F
100
AcDbEntity
  8
0
  6
Continuous
 62
     7
370
    15
100
AcDbLine
 10
136.4509826444
 20
175.9304538383
 30
0.0
 11
136.4509826444
 21
175.9147461579
 31
0.0
  0
LINE
  5
101
330
1F
100
AcDbEntity
  8
0
  6
Continuous
 62
     7
370
    15
100
AcDbLine
 10
136.4509826444
 20
184.1147461579
 30
0.0
 11
136.4509826444
 21
175.9304538383
 31
0.0
  0
LINE
  5
102
330
1F
100
AcDbEntity
  8
0
  6
Continuous
 62
     7
370
    15
100
AcDbLine
 10
131.995931511
 20
174.0259595936
 30
0.0
 11
131.9932408017
 21
174.0260066571
 31
0.0
  0
SPLINE
  5
103
330
1F
100
AcDbEntity
  8
0
  6
Continuous
 62
     7
370
    15
100
AcDbSpline
210
0.0
220
0.0
230
1.0
 70
     8
 71
     3
 72
    33
 73
    29
 74
     0
 42
0.00000001
 43
0.00000001
 12
1.0
 22
0.0
 32
0.0
 13
1.0
 23
0.0
 33
0.0
 40
0.0
 40
0.0
 40
0.0
 40
0.0
 40
0.0387500165525896
 40
0.0774950828528702
 40
0.1162422952205208
 40
0.1549925490473423
 40
0.1937381654465475
 40
0.2324846677534898
 40
0.2712350178455364
 40
0.3099812890908279
 40
0.3487271146899454
 40
0.387477416485163
 40
0.4262243915402621
 40
0.4649696257975238
 40
0.5037197365128291
 40
0.5424674207186978
 40
0.5812122038454969
 40
0.6199619878087765
 40
0.6587103491715282
 40
0.6974548607703247
 40
0.7362041947529329
 40
0.7749531692801818
 40
0.8136976114919393
 40
0.852446390044152
 40
0.8911958870798207
 40
0.9299404676691506
 40
0.9686886084369452
 40
1.0
 40
1.0
 40
1.0
 40
1.0
 10
127.9967997883009
 20
174.015100910999
 30
0.0
 10
127.970932666612
 20
174.022872548997
 30
0.0
 10
127.9192017277174
 20
174.0384148321789
 30
0.0
 10
127.8415887317502
 20
174.1739864520048
 30
0.0
 10
127.7639833202512
 20
174.3907507293984
 30
0.0
 10
127.6863891675904
 20
174.6920331547604
 30
0.0
 10
127.6087777893383
 20
175.0716213796076
 30
0.0
 10
127.5311697924392
 20
175.5254788020834
 30
0.0
 10
127.4535759218207
 20
176.0454721431754
 30
0.0
 10
127.3759670407104
 20
176.6241237404329
 30
0.0
 10
127.2983564635124
 20
177.2536499637721
 30
0.0
 10
127.2207624365243
 20
177.9239020682798
 30
0.0
 10
127.1431562414706
 20
178.6250341083579
 30
0.0
 10
127.0655434295435
 20
179.3470267540187
 30
0.0
 10
126.9879487649467
 20
180.078817818545
 30
0.0
 10
126.9103452625499
 20
180.8097201111756
 30
0.0
 10
126.8327307555359
 20
181.5287619229067
 30
0.0
 10
126.755134963196
 20
182.2252372564038
 30
0.0
 10
126.677534002852
 20
182.8892297165729
 30
0.0
 10
126.5999184788398
 20
183.5103163505754
 30
0.0
 10
126.5223210873971
 20
184.0793064771319
 30
0.0
 10
126.4447223897662
 20
184.5885254904676
 30
0.0
 10
126.3671066117433
 20
185.0296464103846
 30
0.0
 10
126.2895071765512
 20
185.39570790363
 30
0.0
 10
126.2119104442687
 20
185.68334234402
 30
0.0
 10
126.1342948984927
 20
185.8840625735299
 30
0.0
 10
126.0616599308422
 20
185.998964384653
 30
0.0
 10
126.0148908250493
 20
186.0049463096078
 30
0.0
 10
125.9939885190273
 20
186.0076197844132
 30
0.0
  0
SPLINE
  5
104
330
1F
100
AcDbEntity
  8
0
  6
Continuous
 62
     7
370
    15
100
AcDbSpline
210
0.0
220
0.0
230
1.0
 70
     8
 71
     3
 72
    11
 73
     7
 74
     0
 42
0.00000001
 43
0.00000001
 12
1.0
 22
0.0
 32
0.0
 13
1.0
 23
0.0
 33
0.0
 40
-0.0000016624765367
 40
-0.0000016624765367
 40
-0.0000016624765367
 40
-0.0000016624765367
 40
0.1249999988728448
 40
0.2499999988728448
 40
0.3749999988728448
 40
0.5000016613493815
 40
0.5000016613493815
 40
0.5000016613493815
 40
0.5000016613493815
 10
138.9389820780704
 20
180.539434377897
 30
0.0
 10
138.8083801405922
 20
180.5394343778968
 30
0.0
 10
138.5471762656242
 20
180.5299730086159
 30
0.0
 10
138.3848849842942
 20
180.4957103595599
 30
0.0
 10
138.5471762656242
 20
180.4614477105041
 30
0.0
 10
138.8083801405921
 20
180.4519863412229
 30
0.0
 10
138.9389820780704
 20
180.4519863412229
 30
0.0
  0
SPLINE
  5
105
330
1F
100
AcDbEntity
  8
0
  6
Continuous
 62
     7
370
    15
100
AcDbSpline
210
0.0
220
0.0
230
1.0
 70
     8
 71
     3
 72
    11
 73
     7
 74
     0
 42
0.00000001
 43
0.00000001
 12
1.0
 22
0.0
 32
0.0
 13
1.0
 23
0.0
 33
0.0
 40
0.0000016624744875
 40
0.0000016624744875
 40
0.0000016624744875
 40
0.0000016624744875
 40
0.125
 40
0.25
 40
0.375
 40
0.4999983386526348
 40
0.4999983386526348
 40
0.4999983386526348
 40
0.4999983386526348
 10
124.0389924967385
 20
175.0269684721485
 30
0.0
 10
123.9083905592592
 20
175.0269684721486
 30
0.0
 10
123.6471866842923
 20
174.9190387612673
 30
0.0
 10
123.4848954029623
 20
174.5281907035785
 30
0.0
 10
123.6471866842923
 20
174.1373426458887
 30
0.0
 10
123.9083905592592
 20
174.0294129350075
 30
0.0
 10
124.0389924967385
 20
174.0294129350076
 30
0.0
  0
SPLINE
  5
106
330
1F
100
AcDbEntity
  8
0
  6
Continuous
 62
     7
370
    15
100
AcDbSpline
210
0.0
220
0.0
230
1.0
 70
     8
 71
     3
 72
    11
 73
     7
 74
     0
 42
0.00000001
 43
0.00000001
 12
1.0
 22
0.0
 32
0.0
 13
1.0
 23
0.0
 33
0.0
 40
0.5000016613473874
 40
0.5000016613473874
 40
0.5000016613473874
 40
0.5000016613473874
 40
0.625
 40
0.75
 40
0.875
 40
0.9999983375257351
 40
0.9999983375257351
 40
0.9999983375257351
 40
0.9999983375257351
 10
138.9389820780767
 20
180.5394343778985
 30
0.0
 10
139.069584015556
 20
180.5394343778984
 30
0.0
 10
139.3307878905229
 20
180.5299730086174
 30
0.0
 10
139.4930791718529
 20
180.4957103595613
 30
0.0
 10
139.3307878905229
 20
180.4614477105054
 30
0.0
 10
139.0695840155564
 20
180.4519863412243
 30
0.0
 10
138.9389820780775
 20
180.4519863412242
 30
0.0
  0
SPLINE
  5
107
330
1F
100
AcDbEntity
  8
0
  6
Continuous
 62
     7
370
    15
100
AcDbSpline
210
0.0
220
0.0
230
1.0
 70
     8
 71
     3
 72
    11
 73
     7
 74
     0
 42
0.00000001
 43
0.00000001
 12
1.0
 22
0.0
 32
0.0
 13
1.0
 23
0.0
 33
0.0
 40
0.4999983386506239
 40
0.4999983386506239
 40
0.4999983386506239
 40
0.4999983386506239
 40
0.625
 40
0.75
 40
0.875
 40
1.000001662476781
 40
1.000001662476781
 40
1.000001662476781
 40
1.000001662476781
 10
124.0389924967448
 20
174.0294129350075
 30
0.0
 10
124.1695944342231
 20
174.0294129350077
 30
0.0
 10
124.4307983091911
 20
174.1373426458892
 30
0.0
 10
124.5930895905211
 20
174.5281907035784
 30
0.0
 10
124.4307983091911
 20
174.9190387612672
 30
0.0
 10
124.1695944342235
 20
175.0269684721484
 30
0.0
 10
124.0389924967457
 20
175.0269684721485
 30
0.0
  0
LINE
  5
108
330
1F
100
AcDbEntity
  8
0
  6
Continuous
 62
     7
370
    15
100
AcDbLine
 10
123.4509826444
 20
186.8147461579
 30
0.0
 11
122.9583855298
 21
186.8147461579
 31
0.0
  0
LINE
  5
109
330
1F
100
AcDbEntity
  8
0
  6
Continuous
 62
     7
370
    15
100
AcDbLine
 10
115.9435797591
 20
186.8147461579
 30
0.0
 11
115.4509826444
 21
186.8147461579
 31
0.0
  0
LINE
  5
10A
330
1F
100
AcDbEntity
  8
0
  6
Continuous
 62
     7
370
    15
100
AcDbLine
 10
123.4509826444
 20
173.2147461579
 30
0.0
 11
122.9583855298
 21
173.2147461579
 31
0.0
  0
LINE
  5
10B
330
1F
100
AcDbEntity
  8
0
  6
Continuous
 62
     7
370
    15
100
AcDbLine
 10
115.9435797591
 20
173.2147461579
 30
0.0
 11
115.4509826444
 21
173.2147461579
 31
0.0
  0
LINE
  5
10C
330
1F
100
AcDbEntity
  8
0
  6
Continuous
 62
     7
370
    15
100
AcDbLine
 10
163.1509826444
 20
183.7433837617
 30
0.0
 11
163.1509826444
 21
183.707506441
 31
0.0
  0
LINE
  5
10D
330
1F
100
AcDbEntity
  8
0
  6
Continuous
 62
     7
370
    15
100
AcDbLine
 10
163.1509826444
 20
175.5147461579
 30
0.0
 11
163.1509826444
 21
183.707506441
 31
0.0
  0
LINE
  5
10E
330
1F
100
AcDbEntity
  8
0
  6
Continuous
 62
     7
370
    15
100
AcDbLine
 10
163.1509826444
 20
183.707506441
 30
0.0
 11
162.5509826444
 21
183.707506441
 31
0.0
  0
LINE
  5
10F
330
1F
100
AcDbEntity
  8
0
  6
Continuous
 62
   144
370
     0
100
AcDbLine
 10
162.5509826444
 20
175.5147461579
 30
0.0
 11
162.5509826444
 21
183.707506441
 31
0.0
  0
LINE
  5
110
330
1F
100
AcDbEntity
  8
0
  6
Continuous
 62
   144
370
     0
100
AcDbLine
 10
162.5509826444
 20
183.707506441
 30
0.0
 11
162.5509826444
 21
183.7433837617
 31
0.0
  0
LINE
  5
111
330
1F
100
AcDbEntity
  8
0
  6
Continuous
 62
     7
370
    15
100
AcDbLine
 10
119.4509826444
 20
170.7147461579
 30
0.0
 11
115.9435797591
 21
170.7147461579
 31
0.0
  0
LINE
  5
112
330
1F
100
AcDbEntity
  8
0
  6
Continuous
 62
     7
370
    15
100
AcDbLine
 10
122.9583855298
 20
170.7147461579
 30
0.0
 11
119.4509826444
 21
170.7147461579
 31
0.0
  0
LINE
  5
113
330
1F
100
AcDbEntity
  8
0
  6
Continuous
 62
     7
370
    15
100
AcDbLine
 10
122.9583855298
 20
173.2147461579
 30
0.0
 11
122.9583855298
 21
170.7147461579
 31
0.0
  0
LINE
  5
114
330
1F
100
AcDbEntity
  8
0
  6
Continuous
 62
     7
370
    15
100
AcDbLine
 10
119.4509826444
 20
173.2147461579
 30
0.0
 11
119.4509826444
 21
170.7147461579
 31
0.0
  0
LINE
  5
115
330
1F
100
AcDbEntity
  8
0
  6
Continuous
 62
   144
370
     0
100
AcDbLine
 10
122.9583855298
 20
173.2147461579
 30
0.0
 11
122.8700950724
 21
173.2147461579
 31
0.0
  0
LINE
  5
116
330
1F
100
AcDbEntity
  8
0
  6
Continuous
 62
   144
370
     0
100
AcDbLine
 10
119.5392731018
 20
173.2147461579
 30
0.0
 11
119.4509826444
 21
173.2147461579
 31
0.0
  0
LINE
  5
117
330
1F
100
AcDbEntity
  8
0
  6
Continuous
 62
     7
370
    15
100
AcDbLine
 10
115.9435797591
 20
173.2147461579
 30
0.0
 11
115.9435797591
 21
170.7147461579
 31
0.0
  0
LINE
  5
118
330
1F
100
AcDbEntity
  8
0
  6
Continuous
 62
   144
370
     0
100
AcDbLine
 10
119.4509826444
 20
173.2147461579
 30
0.0
 11
119.3626921871
 21
173.2147461579
 31
0.0
  0
LINE
  5
119
330
1F
100
AcDbEntity
  8
0
  6
Continuous
 62
   144
370
     0
100
AcDbLine
 10
116.0318702164
 20
173.2147461579
 30
0.0
 11
115.9435797591
 21
173.2147461579
 31
0.0
  0
LINE
  5
11A
330
1F
100
AcDbEntity
  8
0
  6
Continuous
 62
     7
370
    15
100
AcDbLine
 10
121.8009826444
 20
165.7147461579
 30
0.0
 11
121.4861423433
 21
165.7147461579
 31
0.0
  0
LINE
  5
11B
330
1F
100
AcDbEntity
  8
0
  6
Continuous
 62
     7
370
    15
100
AcDbLine
 10
121.4861423433
 20
165.7147461579
 30
0.0
 11
117.1009826444
 21
165.7147461579
 31
0.0
  0
LINE
  5
11C
330
1F
100
AcDbEntity
  8
0
  6
Continuous
 62
     7
370
    15
100
AcDbLine
 10
121.183033452
 20
163.2147461579
 30
0.0
 11
117.4509826444
 21
163.2147461579
 31
0.0
  0
LINE
  5
11D
330
1F
100
AcDbEntity
  8
0
  6
Continuous
 62
     7
370
    15
100
AcDbLine
 10
121.4509826444
 20
163.2147461579
 30
0.0
 11
121.183033452
 21
163.2147461579
 31
0.0
  0
LINE
  5
11E
330
1F
100
AcDbEntity
  8
0
  6
Continuous
 62
     7
370
    15
100
AcDbLine
 10
121.8009826444
 20
168.2147461579
 30
0.0
 11
121.4861423433
 21
168.2147461579
 31
0.0
  0
LINE
  5
11F
330
1F
100
AcDbEntity
  8
0
  6
Continuous
 62
     7
370
    15
100
AcDbLine
 10
121.4861423433
 20
168.2147461579
 30
0.0
 11
117.1009826444
 21
168.2147461579
 31
0.0
  0
LINE
  5
120
330
1F
100
AcDbEntity
  8
0
  6
Continuous
 62
     7
370
    15
100
AcDbLine
 10
122.9583855298
 20
186.8147461579
 30
0.0
 11
122.9583855298
 21
189.3147461579
 31
0.0
  0
LINE
  5
121
330
1F
100
AcDbEntity
  8
0
  6
Continuous
 62
   144
370
     0
100
AcDbLine
 10
119.4509826444
 20
186.8147461579
 30
0.0
 11
119.5392731018
 21
186.8147461579
 31
0.0
  0
LINE
  5
122
330
1F
100
AcDbEntity
  8
0
  6
Continuous
 62
   144
370
     0
100
AcDbLine
 10
122.8700950724
 20
186.8147461579
 30
0.0
 11
122.9583855298
 21
186.8147461579
 31
0.0
  0
LINE
  5
123
330
1F
100
AcDbEntity
  8
0
  6
Continuous
 62
     7
370
    15
100
AcDbLine
 10
119.4509826444
 20
186.8147461579
 30
0.0
 11
119.4509826445
 21
189.3147461579
 31
0.0
  0
LINE
  5
124
330
1F
100
AcDbEntity
  8
0
  6
Continuous
 62
     7
370
    15
100
AcDbLine
 10
119.4509826445
 20
189.3147461579
 30
0.0
 11
122.9583855298
 21
189.3147461579
 31
0.0
  0
LINE
  5
125
330
1F
100
AcDbEntity
  8
0
  6
Continuous
 62
     7
370
    15
100
AcDbLine
 10
115.9435797591
 20
186.8147461579
 30
0.0
 11
115.9435797591
 21
189.3147461579
 31
0.0
  0
LINE
  5
126
330
1F
100
AcDbEntity
  8
0
  6
Continuous
 62
     7
370
    15
100
AcDbLine
 10
115.9435797591
 20
189.3147461579
 30
0.0
 11
119.4509826445
 21
189.3147461579
 31
0.0
  0
LINE
  5
127
330
1F
100
AcDbEntity
  8
0
  6
Continuous
 62
   144
370
     0
100
AcDbLine
 10
115.9435797591
 20
186.8147461579
 30
0.0
 11
116.0318702164
 21
186.8147461579
 31
0.0
  0
LINE
  5
128
330
1F
100
AcDbEntity
  8
0
  6
Continuous
 62
   144
370
     0
100
AcDbLine
 10
119.3626921871
 20
186.8147461579
 30
0.0
 11
119.4509826444
 21
186.8147461579
 31
0.0
  0
LINE
  5
129
330
1F
100
AcDbEntity
  8
0
  6
Continuous
 62
     7
370
    15
100
AcDbLine
 10
164.4509826444
 20
182.5147461579
 30
0.0
 11
164.4509826444
 21
177.5147461579
 31
0.0
  0
LINE
  5
12A
330
1F
100
AcDbEntity
  8
0
  6
Continuous
 62
     7
370
    15
100
AcDbLine
 10
163.9509826444
 20
177.0147461579
 30
0.0
 11
163.9509826444
 21
183.0147461579
 31
0.0
  0
LINE
  5
12B
330
1F
100
AcDbEntity
  8
0
  6
Continuous
 62
     7
370
    15
100
AcDbLine
 10
123.4509826444
 20
180.0147461579
 30
0.0
 11
115.4509826444
 21
180.0147461579
 31
0.0
  0
LINE
  5
12C
330
1F
100
AcDbEntity
  8
0
  6
Continuous
 62
     7
370
    15
100
AcDbLine
 10
123.4509826444
 20
180.0147461579
 30
0.0
 11
123.4509826444
 21
174.0147461579
 31
0.0
  0
LINE
  5
12D
330
1F
100
AcDbEntity
  8
0
  6
Continuous
 62
     7
370
    15
100
AcDbLine
 10
123.4509826444
 20
174.0147461579
 30
0.0
 11
115.4509826444
 21
174.0147461579
 31
0.0
  0
LINE
  5
12E
330
1F
100
AcDbEntity
  8
0
  6
Continuous
 62
     7
370
    15
100
AcDbLine
 10
115.4509826444
 20
180.0147461579
 30
0.0
 11
115.4509826444
 21
174.0147461579
 31
0.0
  0
LINE
  5
12F
330
1F
100
AcDbEntity
  8
0
  6
Continuous
 62
     7
370
    15
100
AcDbLine
 10
123.4509826444
 20
186.0147461579
 30
0.0
 11
123.4509826444
 21
180.0147461579
 31
0.0
  0
LINE
  5
130
330
1F
100
AcDbEntity
  8
0
  6
Continuous
 62
     7
370
    15
100
AcDbLine
 10
123.4509826444
 20
186.0147461579
 30
0.0
 11
121.4509826444
 21
186.0147461579
 31
0.0
  0
LINE
  5
131
330
1F
100
AcDbEntity
  8
0
  6
Continuous
 62
     7
370
    15
100
AcDbLine
 10
117.4509826444
 20
186.0147461579
 30
0.0
 11
115.4509826444
 21
186.0147461579
 31
0.0
  0
LINE
  5
132
330
1F
100
AcDbEntity
  8
0
  6
Continuous
 62
     7
370
    15
100
AcDbLine
 10
115.4509826444
 20
186.0147461579
 30
0.0
 11
115.4509826444
 21
180.0147461579
 31
0.0
  0
LINE
  5
133
330
1F
100
AcDbEntity
  8
0
  6
Continuous
 62
     7
370
    15
100
AcDbLine
 10
108.4509826444
 20
185.5147461579
 30
0.0
 11
108.4509826444
 21
174.5147461579
 31
0.0
  0
LINE
  5
134
330
1F
100
AcDbEntity
  8
0
  6
Continuous
 62
     7
370
    15
100
AcDbLine
 10
106.4509826444
 20
185.5147461579
 30
0.0
 11
106.4509826444
 21
174.5147461579
 31
0.0
  0
LINE
  5
135
330
1F
100
AcDbEntity
  8
0
  6
Continuous
 62
     7
370
    15
100
AcDbLine
 10
126.4509826444
 20
180.3930319156
 30
0.0
 11
126.4509826444
 21
175.5147461579
 31
0.0
  0
SPLINE
  5
136
330
1F
100
AcDbEntity
  8
0
  6
Continuous
 62
     8
370
    15
100
AcDbSpline
210
0.0
220
0.0
230
1.0
 70
     8
 71
     3
 72
    20
 73
    16
 74
     0
 42
0.00000001
 43
0.00000001
 12
1.0
 22
0.0
 32
0.0
 13
1.0
 23
0.0
 33
0.0
 40
0.0
 40
0.0
 40
0.0
 40
0.0
 40
0.082119667909099
 40
0.1642370036369824
 40
0.2463459359477779
 40
0.3284646808686101
 40
0.4105825160939908
 40
0.492690786053908
 40
0.574808315368102
 40
0.6569273838015195
 40
0.7390360269601349
 40
0.8211522124919152
 40
0.9032721432397108
 40
0.9853814966941506
 40
1.0
 40
1.0
 40
1.0
 40
1.0
 10
138.9389872854828
 20
180.5394342973228
 30
0.0
 10
138.9131191808392
 20
180.7815383078517
 30
0.0
 10
138.8613837062008
 20
181.2657394532067
 30
0.0
 10
138.7837843923342
 20
181.9715350226376
 30
0.0
 10
138.7061686122084
 20
182.6487098737219
 30
0.0
 10
138.6285711673071
 20
183.2864486796593
 30
0.0
 10
138.5509723599569
 20
183.8761236747706
 30
0.0
 10
138.4733565693856
 20
184.4082807452401
 30
0.0
 10
138.3957571857529
 20
184.8747930756801
 30
0.0
 10
138.3181603747685
 20
185.2699865504714
 30
0.0
 10
138.2405451578064
 20
185.5864763424352
 30
0.0
 10
138.1629431797666
 20
185.8217942690744
 30
0.0
 10
138.0853485347892
 20
185.9635683849948
 30
0.0
 10
138.0289981786042
 20
186.0243830404428
 30
0.0
 10
137.9985269061445
 20
186.0102771886534
 30
0.0
 10
137.9939217757084
 20
186.0081453680185
 30
0.0
  0
SPLINE
  5
137
330
1F
100
AcDbEntity
  8
0
  6
Continuous
 62
     8
370
    15
100
AcDbSpline
210
0.0
220
0.0
230
1.0
 70
     8
 71
     3
 72
    34
 73
    30
 74
     0
 42
0.00000001
 43
0.00000001
 12
1.0
 22
0.0
 32
0.0
 13
1.0
 23
0.0
 33
0.0
 40
0.0
 40
0.0
 40
0.0
 40
0.0
 40
0.001967330276141
 40
0.040769988865067
 40
0.0795677643831327
 40
0.118367283059683
 40
0.1571701329876478
 40
0.1959685006494821
 40
0.2347673145618195
 40
0.2735702128521162
 40
0.3123692581394381
 40
0.3511674163176604
 40
0.38997021821217
 40
0.4287699745230772
 40
0.4675675818563991
 40
0.5063701461549266
 40
0.5451706058052267
 40
0.5839678176883769
 40
0.6227700120880353
 40
0.6615711317859904
 40
0.7003681374506533
 40
0.7391698438857977
 40
0.777971550075493
 40
0.8167685556927444
 40
0.8555696756755922
 40
0.8943718698793374
 40
0.9331690816240906
 40
0.9719695415862083
 40
0.9999999999999999
 40
0.9999999999999999
 40
0.9999999999999999
 40
0.9999999999999999
 10
135.9939638015197
 20
174.0171971040429
 30
0.0
 10
135.9926521817829
 20
174.0165077604295
 30
0.0
 10
135.9654708169079
 20
174.0022221410901
 30
0.0
 10
135.9124318411915
 20
174.0565807678632
 30
0.0
 10
135.8348181468512
 20
174.1868182872717
 30
0.0
 10
135.7572121882473
 20
174.4144892159546
 30
0.0
 10
135.6796180978869
 20
174.721967305002
 30
0.0
 10
135.6020075377093
 20
175.1084307779575
 30
0.0
 10
135.5243986518845
 20
175.5683098773921
 30
0.0
 10
135.4468047831037
 20
176.0938117121318
 30
0.0
 10
135.369196783569
 20
176.6772008275929
 30
0.0
 10
135.2915854140217
 20
177.3106722945514
 30
0.0
 10
135.2139912291747
 20
177.9840519370917
 30
0.0
 10
135.1363859377066
 20
178.6874077494817
 30
0.0
 10
135.0587724938123
 20
179.4106870866775
 30
0.0
 10
134.9811775080989
 20
180.1428296061483
 30
0.0
 10
134.9035748751106
 20
180.8731346963631
 30
0.0
 10
134.8259599493356
 20
181.5906428541215
 30
0.0
 10
134.7483636754111
 20
182.2846483715543
 30
0.0
 10
134.6707635046855
 20
182.945295101484
 30
0.0
 10
134.5931478080614
 20
183.5622336652133
 30
0.0
 10
134.5155497872162
 20
184.1262632530856
 30
0.0
 10
134.437951763788
 20
184.6298241194011
 30
0.0
 10
134.360336072067
 20
185.0647380533137
 30
0.0
 10
134.2827358837662
 20
185.4239803739593
 30
0.0
 10
134.2051396785859
 20
185.7044964178415
 30
0.0
 10
134.1275244932011
 20
185.8973738926861
 30
0.0
 10
134.0571043717384
 20
186.0030530980224
 30
0.0
 10
134.0125512086769
 20
186.0048277372696
 30
0.0
 10
133.9938645646093
 20
186.0055720626931
 30
0.0
  0
SPLINE
  5
138
330
1F
100
AcDbEntity
  8
0
  6
Continuous
 62
     8
370
    15
100
AcDbSpline
210
0.0
220
0.0
230
1.0
 70
     8
 71
     3
 72
    34
 73
    30
 74
     0
 42
0.00000001
 43
0.00000001
 12
1.0
 22
0.0
 32
0.0
 13
1.0
 23
0.0
 33
0.0
 40
0.0
 40
0.0
 40
0.0
 40
0.0
 40
0.0193167072545314
 40
0.0581262508986247
 40
0.0969385395145139
 40
0.1357460488695542
 40
0.174554879590223
 40
0.2133673124061836
 40
0.2521754492184276
 40
0.2909835860306699
 40
0.3297960188466251
 40
0.3686048495672888
 40
0.4074123589223305
 40
0.4462246475382258
 40
0.4850341911823252
 40
0.5238411966116912
 40
0.5626532021680424
 40
0.6014634385724311
 40
0.6402701086760281
 40
0.6790817029948572
 40
0.7178925781633865
 40
0.756699109753932
 40
0.7955101806801473
 40
0.8343216121279657
 40
0.8731282133123838
 40
0.9119386700560426
 40
0.950750552153076
 40
0.9895574253885687
 40
1.0
 40
1.0
 40
1.0
 40
1.0
 10
131.9932408016989
 20
174.0260066570501
 30
0.0
 10
131.9803645419344
 20
174.0240889491372
 30
0.0
 10
131.9416183573054
 20
174.0183183397974
 30
0.0
 10
131.8770044178691
 20
174.1057748360648
 30
0.0
 10
131.7994102127322
 20
174.2802313739713
 30
0.0
 10
131.7217980434785
 20
174.544298363907
 30
0.0
 10
131.6441909566344
 20
174.8891414063252
 30
0.0
 10
131.5665970307288
 20
175.3098525715386
 30
0.0
 10
131.488987287608
 20
175.800013793666
 30
0.0
 10
131.4113775432311
 20
176.3534389158045
 30
0.0
 10
131.3337836210941
 20
176.9608609393998
 30
0.0
 10
131.2561765204329
 20
177.6133769983905
 30
0.0
 10
131.1785644026786
 20
178.301925527805
 30
0.0
 10
131.1009700053441
 20
179.0157358875797
 30
0.0
 10
131.0233656141851
 20
179.744316370365
 30
0.0
 10
130.9457516029454
 20
180.4769849266233
 30
0.0
 10
130.8681562408262
 20
181.2027055575239
 30
0.0
 10
130.7905544575494
 20
181.9109886698182
 30
0.0
 10
130.7129391914284
 20
182.5909655563825
 30
0.0
 10
130.635342383274
 20
183.2325504017272
 30
0.0
 10
130.5577429694266
 20
183.826830063517
 30
0.0
 10
130.4801271850766
 20
184.3642884816799
 30
0.0
 10
130.4025284912262
 20
184.8368078458596
 30
0.0
 10
130.324931087966
 20
185.2385540465983
 30
0.0
 10
130.2473156100934
 20
185.5620818191998
 30
0.0
 10
130.1697144778948
 20
185.8045439582276
 30
0.0
 10
130.0921193233573
 20
185.9549041177406
 30
0.0
 10
130.0334133874548
 20
186.0214979933558
 30
0.0
 10
130.0005873586242
 20
186.0085983705441
 30
0.0
 10
129.9936271129718
 20
186.0058632074192
 30
0.0
  0
SPLINE
  5
139
330
1F
100
AcDbEntity
  8
0
  6
Continuous
 62
     8
370
    15
100
AcDbSpline
210
0.0
220
0.0
230
1.0
 70
     8
 71
     3
 72
    10
 73
     6
 74
     0
 42
0.00000001
 43
0.00000001
 12
1.0
 22
0.0
 32
0.0
 13
1.0
 23
0.0
 33
0.0
 40
0.0
 40
0.0
 40
0.0
 40
0.0
 40
0.4822803349500246
 40
0.9644979378505816
 40
0.9999999999999999
 40
0.9999999999999999
 40
0.9999999999999999
 40
0.9999999999999999
 10
124.0389872858025
 20
175.0269684674332
 30
0.0
 10
124.0777873131777
 20
175.0671898300844
 30
0.0
 10
124.1553823210599
 20
175.1476273236403
 30
0.0
 10
124.2358590885332
 20
175.3375879292442
 30
0.0
 10
124.2775125140593
 20
175.5033773302517
 30
0.0
 10
124.2803688523473
 20
175.514746157854
 30
0.0
  0
SPLINE
  5
13A
330
1F
100
AcDbEntity
  8
0
  6
Continuous
 62
     8
370
    15
100
AcDbSpline
210
0.0
220
0.0
230
1.0
 70
     8
 71
     3
 72
     9
 73
     5
 74
     0
 42
0.00000001
 43
0.00000001
 12
1.0
 22
0.0
 32
0.0
 13
1.0
 23
0.0
 33
0.0
 40
0.0
 40
0.0
 40
0.0
 40
0.0
 40
0.7227864146251206
 40
0.9999999999999999
 40
0.9999999999999999
 40
0.9999999999999999
 40
0.9999999999999999
 10
125.7128989025983
 20
184.514746157854
 30
0.0
 10
125.7369600404151
 20
184.6035134384333
 30
0.0
 10
125.7702494566658
 20
184.7263260408606
 30
0.0
 10
125.8035364230129
 20
184.7816842072538
 30
0.0
 10
125.8127640223002
 20
184.7970302430395
 30
0.0
  0
SPLINE
  5
13B
330
1F
100
AcDbEntity
  8
0
  6
Continuous
 62
     8
370
    15
100
AcDbSpline
210
0.0
220
0.0
230
1.0
 70
     8
 71
     3
 72
    12
 73
     8
 74
     0
 42
0.00000001
 43
0.00000001
 12
1.0
 22
0.0
 32
0.0
 13
1.0
 23
0.0
 33
0.0
 40
0.0
 40
0.0
 40
0.0
 40
0.0
 40
0.1371225598737802
 40
0.4199849792736177
 40
0.7028522072108845
 40
0.9857194330036678
 40
1.0
 40
1.0
 40
1.0
 40
1.0
 10
128.1731841677688
 20
175.2301064585051
 30
0.0
 10
128.1919934155277
 20
175.2670156930664
 30
0.0
 10
128.2496032029869
 20
175.3800629124771
 30
0.0
 10
128.3460200871839
 20
175.7364348075472
 30
0.0
 10
128.4624248004373
 20
176.2891812493198
 30
0.0
 10
128.541987235368
 20
176.7303951779597
 30
0.0
 10
128.5827489530062
 20
177.0017072258131
 30
0.0
 10
128.5847079123313
 20
177.014746157854
 30
0.0
  0
SPLINE
  5
13C
330
1F
100
AcDbEntity
  8
0
  6
Continuous
 62
     8
370
    15
100
AcDbSpline
210
0.0
220
0.0
230
1.0
 70
     8
 71
     3
 72
    11
 73
     7
 74
     0
 42
0.00000001
 43
0.00000001
 12
1.0
 22
0.0
 32
0.0
 13
1.0
 23
0.0
 33
0.0
 40
0.0
 40
0.0
 40
0.0
 40
0.0
 40
0.2571531574951929
 40
0.5424629532827814
 40
0.8278095134649428
 40
1.0
 40
1.0
 40
1.0
 40
1.0
 10
129.4051755578927
 20
183.014746157854
 30
0.0
 10
129.4401425424089
 20
183.2286814144251
 30
0.0
 10
129.5139051742691
 20
183.6799764800632
 30
0.0
 10
129.6264991842739
 20
184.2185890502196
 30
0.0
 10
129.7275011320363
 20
184.6112640952427
 30
0.0
 10
129.7897286865212
 20
184.7436538339208
 30
0.0
 10
129.8131475396163
 20
184.7934776758999
 30
0.0
  0
SPLINE
  5
13D
330
1F
100
AcDbEntity
  8
0
  6
Continuous
 62
     8
370
    15
100
AcDbSpline
210
0.0
220
0.0
230
1.0
 70
     8
 71
     3
 72
    12
 73
     8
 74
     0
 42
0.00000001
 43
0.00000001
 12
1.0
 22
0.0
 32
0.0
 13
1.0
 23
0.0
 33
0.0
 40
0.0
 40
0.0
 40
0.0
 40
0.0
 40
0.0239574969550282
 40
0.3110525414805501
 40
0.5981772512852838
 40
0.8852691397445909
 40
1.0
 40
1.0
 40
1.0
 40
1.0
 10
132.1777118218369
 20
175.2261379003002
 30
0.0
 10
132.1809494583016
 20
175.2313017761784
 30
0.0
 10
132.2229853626625
 20
175.2983470404987
 30
0.0
 10
132.3038418009365
 20
175.5780393757551
 30
0.0
 10
132.4202259511434
 20
176.0695136446987
 30
0.0
 10
132.5133526261035
 20
176.5641982176121
 30
0.0
 10
132.5676531956441
 20
176.914675706554
 30
0.0
 10
132.5831574225096
 20
177.014746157854
 30
0.0
  0
SPLINE
  5
13E
330
1F
100
AcDbEntity
  8
0
  6
Continuous
 62
     8
370
    15
100
AcDbSpline
210
0.0
220
0.0
230
1.0
 70
     8
 71
     3
 72
    11
 73
     7
 74
     0
 42
0.00000001
 43
0.00000001
 12
1.0
 22
0.0
 32
0.0
 13
1.0
 23
0.0
 33
0.0
 40
0.0
 40
0.0
 40
0.0
 40
0.0
 40
0.1507759160379185
 40
0.4363159509749213
 40
0.7218235742733736
 40
1.0
 40
1.0
 40
1.0
 40
1.0
 10
133.4064190991334
 20
183.014746157854
 30
0.0
 10
133.4269111996861
 20
183.145430902859
 30
0.0
 10
133.4862113225112
 20
183.5236069424623
 30
0.0
 10
133.5842892533901
 20
184.0279433253926
 30
0.0
 10
133.699714218956
 20
184.5201326753555
 30
0.0
 10
133.7763110878491
 20
184.7159875421903
 30
0.0
 10
133.8141114181004
 20
184.8126413448153
 30
0.0
  0
SPLINE
  5
13F
330
1F
100
AcDbEntity
  8
0
  6
Continuous
 62
     8
370
    15
100
AcDbSpline
210
0.0
220
0.0
230
1.0
 70
     8
 71
     3
 72
    10
 73
     6
 74
     0
 42
0.00000001
 43
0.00000001
 12
1.0
 22
0.0
 32
0.0
 13
1.0
 23
0.0
 33
0.0
 40
0.0
 40
0.0
 40
0.0
 40
0.0
 40
0.3088065895610674
 40
0.7337331924486631
 40
1.0
 40
1.0
 40
1.0
 40
1.0
 10
136.1770590291046
 20
175.2343283305944
 30
0.0
 10
136.2052527351267
 20
175.2993979049035
 30
0.0
 10
136.2722417781908
 20
175.4540050541775
 30
0.0
 10
136.3635667845085
 20
175.8066186039244
 30
0.0
 10
136.4266725566399
 20
176.1337980416426
 30
0.0
 10
136.4509826444238
 20
176.2598366048897
 30
0.0
  0
SPLINE
  5
140
330
1F
100
AcDbEntity
  8
0
  6
Continuous
 62
     8
370
    15
100
AcDbSpline
210
0.0
220
0.0
230
1.0
 70
     8
 71
     3
 72
     9
 73
     5
 74
     0
 42
0.00000001
 43
0.00000001
 12
1.0
 22
0.0
 32
0.0
 13
1.0
 23
0.0
 33
0.0
 40
0.0
 40
0.0
 40
0.0
 40
0.0
 40
0.6076660939333265
 40
0.9999999999999999
 40
0.9999999999999999
 40
0.9999999999999999
 40
0.9999999999999999
 10
137.7131942657809
 20
184.514746157854
 30
0.0
 10
137.7337708958925
 20
184.5914995793211
 30
0.0
 10
137.7676326339704
 20
184.7178081264548
 30
0.0
 10
137.8014960853405
 20
184.7754483752973
 30
0.0
 10
137.8147818654895
 20
184.7980625992723
 30
0.0
  0
DIMENSION
  5
141
330
1F
100
AcDbEntity
  8
0
  6
Continuous
 62
     7
370
     0
100
AcDbDimension
  2
_D_2
 10
93.8708526456
 20
174.5147461579
 30
0.0
 11
93.8708526456
 21
180.0147461579
 31
0.0
 70
   160
  1
%%c<>
 71
     2
 42
-1.0
  3
SLDDIMSTYLE0
100
AcDbAlignedDimension
 13
106.4509826444
 23
185.5147461579
 33
0.0
 14
106.4509826444
 24
174.5147461579
 34
0.0
 50
90.0
100
AcDbRotatedDimension
  0
DIMENSION
  5
14C
330
1F
100
AcDbEntity
  8
0
  6
Continuous
 62
     7
370
     0
100
AcDbDimension
  2
_D_3
 10
136.4509826444
 20
199.6687684412
 30
0.0
 11
120.6871435729
 21
199.6687684412
 31
0.0
 70
   160
  1
<>st
 71
     2
 42
-1.0
  3
SLDDIMSTYLE0
100
AcDbAlignedDimension
 13
126.4509826444
 23
184.5147461579
 33
0.0
 14
136.4509826444
 24
184.1147461579
 34
0.0
100
AcDbRotatedDimension
  0
DIMENSION
  5
158
330
1F
100
AcDbEntity
  8
0
  6
Continuous
 62
     7
370
     0
100
AcDbDimension
  2
_D_4
 10
164.4509826444
 20
211.0482249863
 30
0.0
 11
135.4509826444
 21
211.0482249863
 31
0.0
 70
   160
  1
<>
 71
     2
 42
-1.0
  3
SLDDIMSTYLE0
100
AcDbAlignedDimension
 13
106.4509826444
 23
185.5147461579
 33
0.0
 14
164.4509826444
 24
182.5147461579
 34
0.0
100
AcDbRotatedDimension
  0
DIMENSION
  5
162
330
1F
100
AcDbEntity
  8
0
  6
Continuous
 62
     7
370
     0
100
AcDbDimension
  2
_D_5
 10
106.4509826444
 20
155.0542378149
 30
0.0
 11
110.9509826444
 21
155.0542378149
 31
0.0
 70
   160
  1
<>
 71
     2
 42
-1.0
  3
SLDDIMSTYLE2
100
AcDbAlignedDimension
 13
115.4509826444
 23
174.0147461579
 33
0.0
 14
106.4509826444
 24
174.5147461579
 34
0.0
100
AcDbRotatedDimension
  0
DIMENSION
  5
16F
330
1F
100
AcDbEntity
  8
0
  6
Continuous
 62
     7
370
     0
100
AcDbDimension
  2
_D_6
 10
162.4509826444
 20
155.0542378149
 30
0.0
 11
151.9509826444
 21
155.0542378149
 31
0.0
 70
   160
  1
<>
 71
     2
 42
-1.0
  3
SLDDIMSTYLE0
100
AcDbAlignedDimension
 13
141.4509826444
 23
168.4147461579
 33
0.0
 14
162.4509826444
 24
170.4147461579
 34
0.0
100
AcDbRotatedDimension
  0
DIMENSION
  5
179
330
1F
100
AcDbEntity
  8
0
  6
Continuous
 62
     7
370
     0
100
AcDbDimension
  2
_D_7
 10
174.4509826444
 20
177.0147461579
 30
0.0
 11
174.4509826444
 21
194.9403847279
 31
0.0
 70
   160
  1
%%c<>
 71
     2
 42
-1.0
  3
SLDDIMSTYLE2
100
AcDbAlignedDimension
 13
163.9509826444
 23
183.0147461579
 33
0.0
 14
163.9509826444
 24
177.0147461579
 34
0.0
 50
90.0
100
AcDbRotatedDimension
  0
DIMENSION
  5
186
330
1F
100
AcDbEntity
  8
0
  6
Continuous
 62
     7
370
     0
100
AcDbDimension
  2
_D_8
 10
186.4509826444
 20
170.0147461579
 30
0.0
 11
186.4509826444
 21
180.0147461579
 31
0.0
 70
   160
  1
%%c<>
 71
     2
 42
-1.0
  3
SLDDIMSTYLE0
100
AcDbAlignedDimension
 13
162.0509826444
 23
190.0147461579
 33
0.0
 14
162.0509826444
 24
170.0147461579
 34
0.0
 50
90.0
100
AcDbRotatedDimension
  0
LINE
  5
191
330
1F
100
AcDbEntity
  8
0
  6
CENTERX2
 62
     7
370
     0
100
AcDbLine
 10
102.1255383965
 20
180.0147461579
 30
0.0
 11
168.5613759909
 21
180.0147461579
 31
0.0
  0
ENDSEC
  0
SECTION
  2
OBJECTS
  0
DICTIONARY
  5
C
330
0
100
AcDbDictionary
281
     1
  3
ACAD_GROUP
350
D
  3
ACAD_LAYOUT
350
1A
  3
ACAD_MLINESTYLE
350
17
  3
ACAD_PLOTSETTINGS
350
19
  3
ACAD_PLOTSTYLENAME
350
E
  0
DICTIONARY
  5
D
102
{ACAD_REACTORS
330
C
102
}
330
C
100
AcDbDictionary
281
     1
  0
DICTIONARY
  5
1A
102
{ACAD_REACTORS
330
C
102
}
330
C
100
AcDbDictionary
281
     1
  3
Layout1
350
1E
  3
Layout2
350
26
  3
Model
350
22
  0
DICTIONARY
  5
17
102
{ACAD_REACTORS
330
C
102
}
330
C
100
AcDbDictionary
281
     1
  3
Standard
350
18
  0
DICTIONARY
  5
19
102
{ACAD_REACTORS
330
C
102
}
330
C
100
AcDbDictionary
281
     1
  0
ACDBDICTIONARYWDFLT
  5
E
102
{ACAD_REACTORS
330
C
102
}
330
C
100
AcDbDictionary
281
     1
  3
Normal
350
F
100
AcDbDictionaryWithDefault
340
F
  0
LAYOUT
  5
1E
102
{ACAD_REACTORS
330
1A
102
}
330
1A
100
AcDbPlotSettings
  1

  2
none_device
  4

  6

 40
0.0
 41
0.0
 42
0.0
 43
0.0
 44
0.0
 45
0.0
 46
0.0
 47
0.0
 48
0.0
 49
0.0
140
0.0
141
0.0
142
1.0
143
1.0
 70
   688
 72
     0
 73
     0
 74
     5
  7

 75
    16
147
1.0
148
0.0
149
0.0
100
AcDbLayout
  1
Layout1
 70
     1
 71
     1
 10
0.0
 20
0.0
 11
420.0
 21
297.0
 12
0.0
 22
0.0
 32
0.0
 14
1.0000000000E+20
 24
1.0000000000E+20
 34
1.0000000000E+20
 15
-1.0000000000E+20
 25
-1.0000000000E+20
 35
-1.0000000000E+20
146
0.0
 13
0.0
 23
0.0
 33
0.0
 16
1.0
 26
0.0
 36
0.0
 17
0.0
 27
1.0
 37
0.0
 76
     0
330
1B
  0
LAYOUT
  5
26
102
{ACAD_REACTORS
330
1A
102
}
330
1A
100
AcDbPlotSettings
  1

  2
none_device
  4

  6

 40
0.0
 41
0.0
 42
0.0
 43
0.0
 44
0.0
 45
0.0
 46
0.0
 47
0.0
 48
0.0
 49
0.0
140
0.0
141
0.0
142
1.0
143
1.0
 70
   688
 72
     0
 73
     0
 74
     5
  7

 75
    16
147
1.0
148
0.0
149
0.0
100
AcDbLayout
  1
Layout2
 70
     1
 71
     2
 10
0.0
 20
0.0
 11
0.0
 21
0.0
 12
0.0
 22
0.0
 32
0.0
 14
0.0
 24
0.0
 34
0.0
 15
0.0
 25
0.0
 35
0.0
146
0.0
 13
0.0
 23
0.0
 33
0.0
 16
1.0
 26
0.0
 36
0.0
 17
0.0
 27
1.0
 37
0.0
 76
     0
330
23
  0
LAYOUT
  5
22
102
{ACAD_REACTORS
330
1A
102
}
330
1A
100
AcDbPlotSettings
  1

  2
none_device
  4

  6

 40
0.0
 41
0.0
 42
0.0
 43
0.0
 44
0.0
 45
0.0
 46
0.0
 47
0.0
 48
0.0
 49
0.0
140
0.0
141
0.0
142
1.0
143
1.0
 70
  1712
 72
     0
 73
     0
 74
     0
  7

 75
     0
147
1.0
148
0.0
149
0.0
100
AcDbLayout
  1
Model
 70
     1
 71
     0
 10
0.0
 20
0.0
 11
210.0
 21
297.0
 12
0.0
 22
0.0
 32
0.0
 14
0.0
 24
0.0
 34
0.0
 15
210.0
 25
297.0
 35
0.0
146
0.0
 13
0.0
 23
0.0
 33
0.0
 16
1.0
 26
0.0
 36
0.0
 17
0.0
 27
1.0
 37
0.0
 76
     0
330
1F
331
29
  0
MLINESTYLE
  5
18
102
{ACAD_REACTORS
330
17
102
}
330
17
100
AcDbMlineStyle
  2
Standard
 70
     0
  3

 62
   256
 51
90.0
 52
90.0
 71
     2
 49
0.5
 62
   256
  6
BYLAYER
 49
-0.5
 62
   256
  6
BYLAYER
  0
ACDBPLACEHOLDER
  5
F
102
{ACAD_REACTORS
330
E
102
}
330
E
  0
ENDSEC
  0
EOF
