  0
SECTION
  2
HEADER
  9
$ACADVER
  1
AC1015
  9
$ACADMAINTVER
 70
     6
  9
$DWGCODEPAGE
  3
DOS932
  9
$INSBASE
 10
0.0
 20
0.0
 30
0.0
  9
$EXTMIN
 10
0.0
 20
0.0
 30
0.0
  9
$EXTMAX
 10
210.0
 20
297.0
 30
0.0
  9
$LIMMIN
 10
0.0
 20
0.0
  9
$LIMMAX
 10
210.0
 20
297.0
  9
$ORTHOMODE
 70
     0
  9
$REGENMODE
 70
     1
  9
$FILLMODE
 70
     1
  9
$QTEXTMODE
 70
     0
  9
$MIRRTEXT
 70
     1
  9
$LTSCALE
 40
1.0
  9
$ATTMODE
 70
     1
  9
$TEXTSIZE
 40
3.5
  9
$TRACEWID
 40
1.0
  9
$TEXTSTYLE
  7
Standard
  9
$CLAYER
  8
0
  9
$CELTYPE
  6
ByLayer
  9
$CECOLOR
 62
   256
  9
$CELTSCALE
 40
1.0
  9
$DISPSILH
 70
     0
  9
$DIMSCALE
 40
1.0
  9
$DIMASZ
 40
2.0
  9
$DIMEXO
 40
1.0
  9
$DIMDLI
 40
3.75
  9
$DIMRND
 40
0.0
  9
$DIMDLE
 40
0.0
  9
$DIMEXE
 40
1.0
  9
$DIMTP
 40
0.0
  9
$DIMTM
 40
0.0
  9
$DIMTXT
 40
3.5
  9
$DIMCEN
 40
2.5
  9
$DIMTSZ
 40
0.0
  9
$DIMTOL
 70
     0
  9
$DIMLIM
 70
     0
  9
$DIMTIH
 70
     1
  9
$DIMTOH
 70
     1
  9
$DIMSE1
 70
     0
  9
$DIMSE2
 70
     0
  9
$DIMTAD
 70
     1
  9
$DIMZIN
 70
     0
  9
$DIMBLK
  1

  9
$DIMASO
 70
     1
  9
$DIMSHO
 70
     1
  9
$DIMPOST
  1

  9
$DIMAPOST
  1

  9
$DIMALT
 70
     0
  9
$DIMALTD
 70
     3
  9
$DIMALTF
 40
0.0393700787
  9
$DIMLFAC
 40
1.0
  9
$DIMTOFL
 70
     1
  9
$DIMTVP
 40
0.0
  9
$DIMTIX
 70
     0
  9
$DIMSOXD
 70
     0
  9
$DIMSAH
 70
     0
  9
$DIMBLK1
  1

  9
$DIMBLK2
  1

  9
$DIMSTYLE
  2
ISO-25
  9
$DIMCLRD
 70
     0
  9
$DIMCLRE
 70
     0
  9
$DIMCLRT
 70
     0
  9
$DIMTFAC
 40
1.0
  9
$DIMGAP
 40
1.524
  9
$DIMJUST
 70
     0
  9
$DIMSD1
 70
     0
  9
$DIMSD2
 70
     0
  9
$DIMTOLJ
 70
     0
  9
$DIMTZIN
 70
     0
  9
$DIMALTZ
 70
     0
  9
$DIMALTTZ
 70
     0
  9
$DIMUPT
 70
     0
  9
$DIMDEC
 70
     2
  9
$DIMTDEC
 70
     2
  9
$DIMALTU
 70
     2
  9
$DIMALTTD
 70
     3
  9
$DIMTXSTY
  7
Standard
  9
$DIMAUNIT
 70
     0
  9
$DIMADEC
 70
     2
  9
$DIMALTRND
 40
0.0
  9
$DIMAZIN
 70
     0
  9
$DIMDSEP
 70
    44
  9
$DIMATFIT
 70
     3
  9
$DIMFRAC
 70
     0
  9
$DIMLDRBLK
  1

  9
$DIMLUNIT
 70
     2
  9
$DIMLWD
 70
    -2
  9
$DIMLWE
 70
    -2
  9
$DIMTMOVE
 70
     0
  9
$LUNITS
 70
     2
  9
$LUPREC
 70
     2
  9
$SKETCHINC
 40
1.0
  9
$FILLETRAD
 40
10.0
  9
$AUNITS
 70
     0
  9
$AUPREC
 70
     2
  9
$MENU
  1
.
  9
$ELEVATION
 40
0.0
  9
$PELEVATION
 40
0.0
  9
$THICKNESS
 40
0.0
  9
$LIMCHECK
 70
     0
  9
$CHAMFERA
 40
10.0
  9
$CHAMFERB
 40
10.0
  9
$CHAMFERC
 40
20.0
  9
$CHAMFERD
 40
0.0
  9
$SKPOLY
 70
     0
  9
$TDCREATE
 40
2456909.782349803
  9
$TDUCREATE
 40
2456909.407349803
  9
$TDUPDATE
 40
2456909.782351435
  9
$TDUUPDATE
 40
2456909.407351435
  9
$TDINDWG
 40
0.0000000116
  9
$TDUSRTIMER
 40
0.0000000116
  9
$USRTIMER
 70
     1
  9
$ANGBASE
 50
0.0
  9
$ANGDIR
 70
     0
  9
$PDMODE
 70
     0
  9
$PDSIZE
 40
-1.0
  9
$PLINEWID
 40
0.0
  9
$SPLFRAME
 70
     0
  9
$SPLINETYPE
 70
     6
  9
$SPLINESEGS
 70
     8
  9
$HANDSEED
  5
1CC
  9
$SURFTAB1
 70
     6
  9
$SURFTAB2
 70
     6
  9
$SURFTYPE
 70
     6
  9
$SURFU
 70
     6
  9
$SURFV
 70
     6
  9
$UCSBASE
  2

  9
$UCSNAME
  2

  9
$UCSORG
 10
0.0
 20
0.0
 30
0.0
  9
$UCSXDIR
 10
1.0
 20
0.0
 30
0.0
  9
$UCSYDIR
 10
0.0
 20
1.0
 30
0.0
  9
$UCSORTHOREF
  2

  9
$UCSORTHOVIEW
 70
     0
  9
$UCSORGTOP
 10
0.0
 20
0.0
 30
0.0
  9
$UCSORGBOTTOM
 10
0.0
 20
0.0
 30
0.0
  9
$UCSORGLEFT
 10
0.0
 20
0.0
 30
0.0
  9
$UCSORGRIGHT
 10
0.0
 20
0.0
 30
0.0
  9
$UCSORGFRONT
 10
0.0
 20
0.0
 30
0.0
  9
$UCSORGBACK
 10
0.0
 20
0.0
 30
0.0
  9
$PUCSBASE
  2

  9
$PUCSNAME
  2

  9
$PUCSORG
 10
0.0
 20
0.0
 30
0.0
  9
$PUCSXDIR
 10
1.0
 20
0.0
 30
0.0
  9
$PUCSYDIR
 10
0.0
 20
1.0
 30
0.0
  9
$PUCSORTHOREF
  2

  9
$PUCSORTHOVIEW
 70
     0
  9
$PUCSORGTOP
 10
0.0
 20
0.0
 30
0.0
  9
$PUCSORGBOTTOM
 10
0.0
 20
0.0
 30
0.0
  9
$PUCSORGLEFT
 10
0.0
 20
0.0
 30
0.0
  9
$PUCSORGRIGHT
 10
0.0
 20
0.0
 30
0.0
  9
$PUCSORGFRONT
 10
0.0
 20
0.0
 30
0.0
  9
$PUCSORGBACK
 10
0.0
 20
0.0
 30
0.0
  9
$USERI1
 70
     0
  9
$USERI2
 70
     0
  9
$USERI3
 70
     0
  9
$USERI4
 70
     0
  9
$USERI5
 70
     0
  9
$USERR1
 40
0.0
  9
$USERR2
 40
0.0
  9
$USERR3
 40
0.0
  9
$USERR4
 40
0.0
  9
$USERR5
 40
0.0
  9
$WORLDVIEW
 70
     1
  9
$SHADEDGE
 70
     3
  9
$SHADEDIF
 70
    70
  9
$TILEMODE
 70
     1
  9
$MAXACTVP
 70
    64
  9
$PINSBASE
 10
0.0
 20
0.0
 30
0.0
  9
$PLIMCHECK
 70
     0
  9
$PEXTMIN
 10
1.0000000000E+20
 20
1.0000000000E+20
 30
1.0000000000E+20
  9
$PEXTMAX
 10
-1.0000000000E+20
 20
-1.0000000000E+20
 30
-1.0000000000E+20
  9
$PLIMMIN
 10
0.0
 20
0.0
  9
$PLIMMAX
 10
420.0
 20
297.0
  9
$UNITMODE
 70
     0
  9
$VISRETAIN
 70
     1
  9
$PLINEGEN
 70
     0
  9
$PSLTSCALE
 70
     1
  9
$TREEDEPTH
 70
  3020
  9
$CMLSTYLE
  2
Standard
  9
$CMLJUST
 70
     0
  9
$CMLSCALE
 40
20.0
  9
$PROXYGRAPHICS
 70
     1
  9
$MEASUREMENT
 70
     1
  9
$CELWEIGHT
370
    -1
  9
$ENDCAPS
280
     0
  9
$JOINSTYLE
280
     0
  9
$LWDISPLAY
290
     1
  9
$INSUNITS
 70
     4
  9
$HYPERLINKBASE
  1

  9
$STYLESHEET
  1

  9
$XEDIT
290
     1
  9
$CEPSNTYPE
380
     0
  9
$PSTYLEMODE
290
     1
  9
$FINGERPRINTGUID
  2
{27E39382-F963-4141-8AFA-730F54444635}
  9
$VERSIONGUID
  2
{FAEB1C32-E019-11D5-929B-00C0DF256EC4}
  9
$EXTNAMES
290
     1
  9
$PSVPSCALE
 40
0.0
  9
$OLESTARTUP
290
     0
  0
ENDSEC
  0
SECTION
  2
CLASSES
  0
CLASS
  1
ACDBDICTIONARYWDFLT
  2
AcDbDictionaryWithDefault
  3
ObjectDBX Classes
 90
        0
280
     0
281
     0
  0
CLASS
  1
VISUALSTYLE
  2
AcDbVisualStyle
  3
ObjectDBX Classes
 90
     4095
280
     0
281
     0
  0
CLASS
  1
MATERIAL
  2
AcDbMaterial
  3
ObjectDBX Classes
 90
     1153
280
     0
281
     0
  0
CLASS
  1
ACDBPLACEHOLDER
  2
AcDbPlaceHolder
  3
ObjectDBX Classes
 90
        0
280
     0
281
     0
  0
CLASS
  1
LAYOUT
  2
AcDbLayout
  3
ObjectDBX Classes
 90
        0
280
     0
281
     0
  0
ENDSEC
  0
SECTION
  2
TABLES
  0
TABLE
  2
VPORT
  5
8
330
0
100
AcDbSymbolTable
 70
     1
  0
VPORT
  5
29
330
8
100
AcDbSymbolTableRecord
100
AcDbViewportTableRecord
  2
*Active
 70
     0
 10
0.0
 20
0.0
 11
1.0
 21
1.0
 12
105.0
 22
148.5
 13
0.0
 23
0.0
 14
10.0
 24
10.0
 15
10.0
 25
10.0
 16
0.0
 26
0.0
 36
1.0
 17
0.0
 27
0.0
 37
0.0
 40
297.0
 41
0.7070707071
 42
50.0
 43
0.0
 44
0.0
 50
0.0
 51
0.0
 71
     0
 72
  2000
 73
     1
 74
     3
 75
     0
 76
     0
 77
     0
 78
     0
281
     0
 65
     1
110
0.0
120
0.0
130
0.0
111
1.0
121
0.0
131
0.0
112
0.0
122
1.0
132
0.0
 79
     0
146
0.0
  0
ENDTAB
  0
TABLE
  2
LTYPE
  5
5
330
0
100
AcDbSymbolTable
 70
     6
  0
LTYPE
  5
14
330
5
100
AcDbSymbolTableRecord
100
AcDbLinetypeTableRecord
  2
ByBlock
 70
     0
  3

 72
    65
 73
     0
 40
0.0
  0
LTYPE
  5
15
330
5
100
AcDbSymbolTableRecord
100
AcDbLinetypeTableRecord
  2
ByLayer
 70
     0
  3

 72
    65
 73
     0
 40
0.0
  0
LTYPE
  5
16
330
5
100
AcDbSymbolTableRecord
100
AcDbLinetypeTableRecord
  2
Continuous
 70
     0
  3
Solid line
 72
    65
 73
     0
 40
0.0
  0
LTYPE
  5
3F
330
5
100
AcDbSymbolTableRecord
100
AcDbLinetypeTableRecord
  2
HIDDEN
 70
     0
  3
Hidden __ __ __ __ __ __ __ __ __ __ __ __ __ __
 72
    65
 73
     2
 40
1.905
 49
1.27
 74
     0
 49
-0.635
 74
     0
  0
LTYPE
  5
40
330
5
100
AcDbSymbolTableRecord
100
AcDbLinetypeTableRecord
  2
PHANTOM
 70
     0
  3
Phantom ______  __  __  ______  __  __  ______
 72
    65
 73
     6
 40
12.7
 49
6.35
 74
     0
 49
-1.27
 74
     0
 49
1.27
 74
     0
 49
-1.27
 74
     0
 49
1.27
 74
     0
 49
-1.27
 74
     0
  0
LTYPE
  5
41
330
5
100
AcDbSymbolTableRecord
100
AcDbLinetypeTableRecord
  2
CENTER
 70
     0
  3
Center ____ _ ____ _ ____ _ ____ _ ____ _ ____
 72
    65
 73
     4
 40
10.16
 49
6.35
 74
     0
 49
-1.27
 74
     0
 49
1.27
 74
     0
 49
-1.27
 74
     0
  0
LTYPE
  5
42
330
5
100
AcDbSymbolTableRecord
100
AcDbLinetypeTableRecord
  2
CENTERX2
 70
     0
  3
Center (2x) ________  __  ________  __  _____
 72
    65
 73
     4
 40
20.32
 49
12.7
 74
     0
 49
-2.54
 74
     0
 49
2.54
 74
     0
 49
-2.54
 74
     0
  0
LTYPE
  5
43
330
5
100
AcDbSymbolTableRecord
100
AcDbLinetypeTableRecord
  2
DOT2
 70
     0
  3
Dot (.5x) ........................................
 72
    65
 73
     2
 40
0.635
 49
0.0
 74
     0
 49
-0.635
 74
     0
  0
ENDTAB
  0
TABLE
  2
LAYER
  5
2
330
0
100
AcDbSymbolTable
 70
     1
  0
LAYER
  5
10
330
2
100
AcDbSymbolTableRecord
100
AcDbLayerTableRecord
  2
0
 70
     0
 62
     7
  6
Continuous
370
    -3
390
F
  0
ENDTAB
  0
TABLE
  2
STYLE
  5
3
330
0
100
AcDbSymbolTable
 70
     3
  0
STYLE
  5
11
330
3
100
AcDbSymbolTableRecord
100
AcDbTextStyleTableRecord
  2
Standard
 70
     0
 40
0.0
 41
1.0
 50
0.0
 71
     0
 42
3.5
  3
txt
  4
bigfont
  0
STYLE
  5
4C
330
3
100
AcDbSymbolTableRecord
100
AcDbTextStyleTableRecord
  2
SLDTEXTSTYLE0
 70
     0
 40
0.0
 41
0.7
 50
0.0
 71
     0
 42
0.2
  3
TXT
  4
bigfont
  0
STYLE
  5
8A
330
3
100
AcDbSymbolTableRecord
100
AcDbTextStyleTableRecord
  2
SLDTEXTSTYLE1
 70
     0
 40
0.0
 41
0.75
 50
0.0
 71
     0
 42
0.2
  3
TXT
  4
bigfont
  0
ENDTAB
  0
TABLE
  2
VIEW
  5
6
330
0
100
AcDbSymbolTable
 70
     0
  0
ENDTAB
  0
TABLE
  2
UCS
  5
7
330
0
100
AcDbSymbolTable
 70
     0
  0
ENDTAB
  0
TABLE
  2
APPID
  5
9
330
0
100
AcDbSymbolTable
 70
     1
  0
APPID
  5
12
330
9
100
AcDbSymbolTableRecord
100
AcDbRegAppTableRecord
  2
ACAD
 70
     0
  0
ENDTAB
  0
TABLE
  2
DIMSTYLE
  5
A
330
0
100
AcDbSymbolTable
 70
     5
100
AcDbDimStyleTable
  0
DIMSTYLE
105
27
330
A
100
AcDbSymbolTableRecord
100
AcDbDimStyleTableRecord
  2
ISO-25
 70
     0
 41
2.5
 42
0.625
 43
3.75
 44
1.25
 73
     0
 74
     0
 77
     1
 78
     8
140
2.5
141
2.5
143
0.0393700787
147
0.625
171
     3
172
     1
178
     0
271
     2
272
     2
274
     3
278
    44
283
     0
284
     8
340
11
  0
DIMSTYLE
105
8B
102
{ACAD_REACTORS
330
89
330
96
102
}
330
A
100
AcDbSymbolTableRecord
100
AcDbDimStyleTableRecord
  2
SLDDIMSTYLE0
 70
     0
 41
2.0
 44
0.0
 45
0.000000001
 73
     0
 74
     0
 77
     3
 78
    12
 79
     3
140
3.5
147
0.875
173
     1
178
     0
271
     1
272
     1
276
     2
284
    12
340
8A
  0
DIMSTYLE
105
A1
330
A
100
AcDbSymbolTableRecord
100
AcDbDimStyleTableRecord
  2
SLDDIMSTYLE1
 70
     0
 41
2.0
 44
0.0
 45
0.000000001
140
0.0
146
2.0
147
0.0
173
     1
178
     0
271
     0
272
     0
276
     2
340
11
  0
DIMSTYLE
105
178
102
{ACAD_REACTORS
330
177
330
184
330
19C
102
}
330
A
100
AcDbSymbolTableRecord
100
AcDbDimStyleTableRecord
  2
SLDDIMSTYLE2
 70
     0
 41
2.0
 44
0.0
 45
0.000000001
 73
     0
 74
     0
 77
     3
 78
    12
 79
     3
140
3.5
147
0.875
172
     1
173
     1
178
     0
271
     2
272
     2
276
     2
284
    12
289
     0
340
8A
  0
DIMSTYLE
105
192
102
{ACAD_REACTORS
330
191
330
1A9
330
1B4
330
1BF
102
}
330
A
100
AcDbSymbolTableRecord
100
AcDbDimStyleTableRecord
  2
SLDDIMSTYLE3
 70
     0
 41
2.0
 44
0.0
 45
0.000000001
 73
     0
 74
     0
 77
     3
 78
    12
 79
     3
140
3.5
147
0.875
173
     1
178
     0
271
     2
272
     2
276
     2
284
    12
340
8A
  0
ENDTAB
  0
TABLE
  2
BLOCK_RECORD
  5
1
330
0
100
AcDbSymbolTable
 70
    11
  0
BLOCK_RECORD
  5
1F
330
1
100
AcDbSymbolTableRecord
100
AcDbBlockTableRecord
  2
*Model_Space
340
22
  0
BLOCK_RECORD
  5
1B
330
1
100
AcDbSymbolTableRecord
100
AcDbBlockTableRecord
  2
*Paper_Space
340
1E
  0
BLOCK_RECORD
  5
23
330
1
100
AcDbSymbolTableRecord
100
AcDbBlockTableRecord
  2
*Paper_Space0
340
26
  0
BLOCK_RECORD
  5
8C
330
1
100
AcDbSymbolTableRecord
100
AcDbBlockTableRecord
  2
_D
340
0
  0
BLOCK_RECORD
  5
97
330
1
100
AcDbSymbolTableRecord
100
AcDbBlockTableRecord
  2
_D_1
340
0
  0
BLOCK_RECORD
  5
A3
330
1
100
AcDbSymbolTableRecord
100
AcDbBlockTableRecord
  2
SW_CENTERMARKSYMBOL_0
340
0
102
{BLKREFS
331
AE
102
}
  0
BLOCK_RECORD
  5
179
330
1
100
AcDbSymbolTableRecord
100
AcDbBlockTableRecord
  2
_D_2
340
0
  0
BLOCK_RECORD
  5
185
330
1
100
AcDbSymbolTableRecord
100
AcDbBlockTableRecord
  2
_D_3
340
0
  0
BLOCK_RECORD
  5
193
330
1
100
AcDbSymbolTableRecord
100
AcDbBlockTableRecord
  2
_D_4
340
0
  0
BLOCK_RECORD
  5
19D
330
1
100
AcDbSymbolTableRecord
100
AcDbBlockTableRecord
  2
_D_5
340
0
  0
BLOCK_RECORD
  5
1AA
330
1
100
AcDbSymbolTableRecord
100
AcDbBlockTableRecord
  2
_D_6
340
0
  0
BLOCK_RECORD
  5
1B5
330
1
100
AcDbSymbolTableRecord
100
AcDbBlockTableRecord
  2
_D_7
340
0
  0
BLOCK_RECORD
  5
1C0
330
1
100
AcDbSymbolTableRecord
100
AcDbBlockTableRecord
  2
_D_8
340
0
  0
ENDTAB
  0
ENDSEC
  0
SECTION
  2
BLOCKS
  0
BLOCK
  5
20
330
1F
100
AcDbEntity
  8
0
100
AcDbBlockBegin
  2
*Model_Space
 70
     0
 10
0.0
 20
0.0
 30
0.0
  3
*Model_Space
  1

  0
ENDBLK
  5
21
330
1F
100
AcDbEntity
  8
0
100
AcDbBlockEnd
  0
BLOCK
  5
1C
330
1B
100
AcDbEntity
 67
     1
  8
0
100
AcDbBlockBegin
  2
*Paper_Space
 70
     0
 10
0.0
 20
0.0
 30
0.0
  3
*Paper_Space
  1

  0
ENDBLK
  5
1D
330
1B
100
AcDbEntity
 67
     1
  8
0
100
AcDbBlockEnd
  0
BLOCK
  5
24
330
23
100
AcDbEntity
  8
0
100
AcDbBlockBegin
  2
*Paper_Space0
 70
     0
 10
0.0
 20
0.0
 30
0.0
  3
*Paper_Space0
  1

  0
ENDBLK
  5
25
330
23
100
AcDbEntity
  8
0
100
AcDbBlockEnd
  0
BLOCK
  5
8D
330
8C
100
AcDbEntity
  8
0
100
AcDbBlockBegin
  2
_D
 70
     0
 10
0.0
 20
0.0
 30
0.0
  3
_D
  1

  0
SOLID
  5
8F
330
8C
100
AcDbEntity
  8
0
  6
Continuous
 62
     7
370
     0
100
AcDbTrace
 10
40.704983049
 20
149.8416949248
 30
0.0
 11
42.704983049
 21
149.0916949248
 31
0.0
 12
42.704983049
 22
150.5916949248
 32
0.0
 13
42.704983049
 23
150.5916949248
 33
0.0
  0
SOLID
  5
90
330
8C
100
AcDbEntity
  8
0
  6
Continuous
 62
     7
370
     0
100
AcDbTrace
 10
56.704983049
 20
149.8416949248
 30
0.0
 11
54.704983049
 21
150.5916949248
 31
0.0
 12
54.704983049
 22
149.0916949248
 32
0.0
 13
54.704983049
 23
149.0916949248
 33
0.0
  0
LINE
  5
91
330
8C
100
AcDbEntity
  8
0
  6
Continuous
 62
     7
370
     0
100
AcDbLine
 10
40.704983049
 20
131.5416949248
 30
0.0
 11
40.704983049
 21
150.8416949248
 31
0.0
  0
LINE
  5
92
330
8C
100
AcDbEntity
  8
0
  6
Continuous
 62
     7
370
     0
100
AcDbLine
 10
56.704983049
 20
131.5416949248
 30
0.0
 11
56.704983049
 21
150.8416949248
 31
0.0
  0
LINE
  5
93
330
8C
100
AcDbEntity
  8
0
  6
Continuous
 62
     7
370
     0
100
AcDbLine
 10
40.704983049
 20
149.8416949248
 30
0.0
 11
56.704983049
 21
149.8416949248
 31
0.0
  0
MTEXT
  5
94
330
8C
100
AcDbEntity
  8
0
  6
Continuous
 62
     7
370
     0
100
AcDbMText
 10
43.4796529234
 20
154.353432014
 30
41.1
 40
3.5
 41
0.0
 71
     1
 72
     1
  1
%%c
  7
SLDTEXTSTYLE1
 73
     1
 44
1.0
  0
MTEXT
  5
95
330
8C
100
AcDbEntity
  8
0
  6
Continuous
 62
     7
370
     0
100
AcDbMText
 10
48.7580903218
 20
154.4069041907
 30
41.1
 40
3.5
 41
0.0
 71
     1
 72
     1
  1
16
  7
SLDTEXTSTYLE1
 73
     1
 44
1.0
  0
ENDBLK
  5
8E
330
8C
100
AcDbEntity
  8
0
100
AcDbBlockEnd
  0
BLOCK
  5
98
330
97
100
AcDbEntity
  8
0
100
AcDbBlockBegin
  2
_D_1
 70
     0
 10
0.0
 20
0.0
 30
0.0
  3
_D_1
  1

  0
SOLID
  5
9A
330
97
100
AcDbEntity
  8
0
  6
Continuous
 62
     7
370
     0
100
AcDbTrace
 10
34.7460234074
 20
139.8416949248
 30
0.0
 11
33.9960234074
 21
137.8416949248
 31
0.0
 12
35.4960234074
 22
137.8416949248
 32
0.0
 13
35.4960234074
 23
137.8416949248
 33
0.0
  0
SOLID
  5
9B
330
97
100
AcDbEntity
  8
0
  6
Continuous
 62
     7
370
     0
100
AcDbTrace
 10
34.7460234074
 20
121.2416949248
 30
0.0
 11
35.4960234074
 21
123.2416949248
 31
0.0
 12
33.9960234074
 22
123.2416949248
 32
0.0
 13
33.9960234074
 23
123.2416949248
 33
0.0
  0
LINE
  5
9C
330
97
100
AcDbEntity
  8
0
  6
Continuous
 62
     7
370
     0
100
AcDbLine
 10
43.6549830491
 20
139.8416949248
 30
0.0
 11
33.7460234074
 21
139.8416949248
 31
0.0
  0
LINE
  5
9D
330
97
100
AcDbEntity
  8
0
  6
Continuous
 62
     7
370
     0
100
AcDbLine
 10
43.654983049
 20
121.2416949248
 30
0.0
 11
33.7460234074
 21
121.2416949248
 31
0.0
  0
LINE
  5
9E
330
97
100
AcDbEntity
  8
0
  6
Continuous
 62
     7
370
     0
100
AcDbLine
 10
34.7460234074
 20
139.8416949248
 30
0.0
 11
34.7460234074
 21
121.2416949248
 31
0.0
  0
MTEXT
  5
9F
330
97
100
AcDbEntity
  8
0
  6
Continuous
 62
     7
370
     0
100
AcDbMText
 10
30.2342864928
 20
126.0160003944
 30
41.1
 40
3.5
 41
0.0
 71
     1
 72
     1
  1
18.6
  7
SLDTEXTSTYLE1
 11
-7.044195017643634E-15
 21
1.0
 31
0.0
 73
     1
 44
1.0
  0
ENDBLK
  5
99
330
97
100
AcDbEntity
  8
0
100
AcDbBlockEnd
  0
BLOCK
  5
A4
330
A3
100
AcDbEntity
  8
0
100
AcDbBlockBegin
  2
SW_CENTERMARKSYMBOL_0
 70
     0
 10
0.0
 20
0.0
 30
0.0
  3
SW_CENTERMARKSYMBOL_0
  1

  0
LINE
  5
A6
330
A3
100
AcDbEntity
  8
0
  6
Continuous
 62
     0
370
     0
100
AcDbLine
 10
0.0
 20
0.0
 30
0.0
 11
0.0
 21
2.5
 31
0.0
  0
LINE
  5
A7
330
A3
100
AcDbEntity
  8
0
  6
Continuous
 62
     0
370
     0
100
AcDbLine
 10
0.0
 20
0.0
 30
0.0
 11
-2.5
 21
0.0
 31
0.0
  0
LINE
  5
A8
330
A3
100
AcDbEntity
  8
0
  6
Continuous
 62
     0
370
     0
100
AcDbLine
 10
0.0
 20
0.0
 30
0.0
 11
0.0
 21
-2.5
 31
0.0
  0
LINE
  5
A9
330
A3
100
AcDbEntity
  8
0
  6
Continuous
 62
     0
370
     0
100
AcDbLine
 10
0.0
 20
0.0
 30
0.0
 11
2.5
 21
0.0
 31
0.0
  0
LINE
  5
AA
330
A3
100
AcDbEntity
  8
0
  6
Continuous
 62
     0
370
     0
100
AcDbLine
 10
0.0
 20
5.0
 30
0.0
 11
0.0
 21
10.1
 31
0.0
  0
LINE
  5
AB
330
A3
100
AcDbEntity
  8
0
  6
Continuous
 62
     0
370
     0
100
AcDbLine
 10
-5.0
 20
0.0
 30
0.0
 11
-10.1
 21
0.0
 31
0.0
  0
LINE
  5
AC
330
A3
100
AcDbEntity
  8
0
  6
Continuous
 62
     0
370
     0
100
AcDbLine
 10
0.0
 20
-5.0
 30
0.0
 11
0.0
 21
-19.551731839
 31
0.0
  0
LINE
  5
AD
330
A3
100
AcDbEntity
  8
0
  6
Continuous
 62
     0
370
     0
100
AcDbLine
 10
5.0
 20
0.0
 30
0.0
 11
10.1
 21
0.0
 31
0.0
  0
ENDBLK
  5
A5
330
A3
100
AcDbEntity
  8
0
100
AcDbBlockEnd
  0
BLOCK
  5
17A
330
179
100
AcDbEntity
  8
0
100
AcDbBlockBegin
  2
_D_2
 70
     0
 10
0.0
 20
0.0
 30
0.0
  3
_D_2
  1

  0
SOLID
  5
17C
330
179
100
AcDbEntity
  8
0
  6
Continuous
 62
     7
370
     0
100
AcDbTrace
 10
88.0785016405
 20
146.9842336593
 30
0.0
 11
86.0785016405
 21
147.7342336593
 31
0.0
 12
86.0785016405
 22
146.2342336593
 32
0.0
 13
86.0785016405
 23
146.2342336593
 33
0.0
  0
SOLID
  5
17D
330
179
100
AcDbEntity
  8
0
  6
Continuous
 62
     7
370
     0
100
AcDbTrace
 10
97.0785016405
 20
146.9842336593
 30
0.0
 11
99.0785016405
 21
146.2342336593
 31
0.0
 12
99.0785016405
 22
147.7342336593
 32
0.0
 13
99.0785016405
 23
147.7342336593
 33
0.0
  0
LINE
  5
17E
330
179
100
AcDbEntity
  8
0
  6
Continuous
 62
     7
370
     0
100
AcDbLine
 10
88.0785016405
 20
137.0416949248
 30
0.0
 11
88.0785016405
 21
147.9842336593
 31
0.0
  0
LINE
  5
17F
330
179
100
AcDbEntity
  8
0
  6
Continuous
 62
     7
370
     0
100
AcDbLine
 10
97.0785016405
 20
137.5416949248
 30
0.0
 11
97.0785016405
 21
147.9842336593
 31
0.0
  0
LINE
  5
180
330
179
100
AcDbEntity
  8
0
  6
Continuous
 62
     7
370
     0
100
AcDbLine
 10
88.0785016405
 20
146.9842336593
 30
0.0
 11
83.0785016405
 21
146.9842336593
 31
0.0
  0
LINE
  5
181
330
179
100
AcDbEntity
  8
0
  6
Continuous
 62
     7
370
     0
100
AcDbLine
 10
88.0785016405
 20
146.9842336593
 30
0.0
 11
97.0785016405
 21
146.9842336593
 31
0.0
  0
LINE
  5
182
330
179
100
AcDbEntity
  8
0
  6
Continuous
 62
     7
370
     0
100
AcDbLine
 10
97.0785016405
 20
146.9842336593
 30
0.0
 11
102.0785016405
 21
146.9842336593
 31
0.0
  0
MTEXT
  5
183
330
179
100
AcDbEntity
  8
0
  6
Continuous
 62
     7
370
     0
100
AcDbMText
 10
92.220745174
 20
151.4959705739
 30
0.1
 40
3.5
 41
0.0
 71
     1
 72
     1
  1
9
  7
SLDTEXTSTYLE1
 73
     1
 44
1.0
  0
ENDBLK
  5
17B
330
179
100
AcDbEntity
  8
0
100
AcDbBlockEnd
  0
BLOCK
  5
186
330
185
100
AcDbEntity
  8
0
100
AcDbBlockBegin
  2
_D_3
 70
     0
 10
0.0
 20
0.0
 30
0.0
  3
_D_3
  1

  0
SOLID
  5
188
330
185
100
AcDbEntity
  8
0
  6
Continuous
 62
     7
370
     0
100
AcDbTrace
 10
80.7959445466
 20
136.0416949248
 30
0.0
 11
81.5459445466
 21
138.0416949248
 31
0.0
 12
80.0459445466
 22
138.0416949248
 32
0.0
 13
80.0459445466
 23
138.0416949248
 33
0.0
  0
SOLID
  5
189
330
185
100
AcDbEntity
  8
0
  6
Continuous
 62
     7
370
     0
100
AcDbTrace
 10
80.7959445466
 20
125.0416949248
 30
0.0
 11
80.0459445466
 21
123.0416949248
 31
0.0
 12
81.5459445466
 22
123.0416949248
 32
0.0
 13
81.5459445466
 23
123.0416949248
 33
0.0
  0
LINE
  5
18A
330
185
100
AcDbEntity
  8
0
  6
Continuous
 62
     7
370
     0
100
AcDbLine
 10
87.0785016405
 20
136.0416949248
 30
0.0
 11
79.7959445466
 21
136.0416949248
 31
0.0
  0
LINE
  5
18B
330
185
100
AcDbEntity
  8
0
  6
Continuous
 62
     7
370
     0
100
AcDbLine
 10
87.0785016405
 20
125.0416949248
 30
0.0
 11
79.7959445466
 21
125.0416949248
 31
0.0
  0
LINE
  5
18C
330
185
100
AcDbEntity
  8
0
  6
Continuous
 62
     7
370
     0
100
AcDbLine
 10
80.7959445466
 20
136.0416949248
 30
0.0
 11
80.7959445466
 21
141.0416949248
 31
0.0
  0
LINE
  5
18D
330
185
100
AcDbEntity
  8
0
  6
Continuous
 62
     7
370
     0
100
AcDbLine
 10
80.7959445466
 20
136.0416949248
 30
0.0
 11
80.7959445466
 21
125.0416949248
 31
0.0
  0
LINE
  5
18E
330
185
100
AcDbEntity
  8
0
  6
Continuous
 62
     7
370
     0
100
AcDbLine
 10
80.7959445466
 20
125.0416949248
 30
0.0
 11
80.7959445466
 21
120.0416949248
 31
0.0
  0
MTEXT
  5
18F
330
185
100
AcDbEntity
  8
0
  6
Continuous
 62
     7
370
     0
100
AcDbMText
 10
76.2842074574
 20
125.3163647993
 30
0.1
 40
3.5
 41
0.0
 71
     1
 72
     1
  1
%%c
  7
SLDTEXTSTYLE1
 11
-7.044195017643634E-15
 21
1.0
 31
0.0
 73
     1
 44
1.0
  0
MTEXT
  5
190
330
185
100
AcDbEntity
  8
0
  6
Continuous
 62
     7
370
     0
100
AcDbMText
 10
76.2307352807
 20
130.5948021977
 30
0.1
 40
3.5
 41
0.0
 71
     1
 72
     1
  1
11
  7
SLDTEXTSTYLE1
 11
-7.044195017643634E-15
 21
1.0
 31
0.0
 73
     1
 44
1.0
  0
ENDBLK
  5
187
330
185
100
AcDbEntity
  8
0
100
AcDbBlockEnd
  0
BLOCK
  5
194
330
193
100
AcDbEntity
  8
0
100
AcDbBlockBegin
  2
_D_4
 70
     0
 10
0.0
 20
0.0
 30
0.0
  3
_D_4
  1

  0
SOLID
  5
196
330
193
100
AcDbEntity
  8
0
  6
Continuous
 62
     7
370
     0
100
AcDbTrace
 10
147.0785016405
 20
103.7416949248
 30
0.0
 11
149.0785016405
 21
102.9916949248
 31
0.0
 12
149.0785016405
 22
104.4916949248
 32
0.0
 13
149.0785016405
 23
104.4916949248
 33
0.0
  0
SOLID
  5
197
330
193
100
AcDbEntity
  8
0
  6
Continuous
 62
     7
370
     0
100
AcDbTrace
 10
168.0785016405
 20
103.7416949248
 30
0.0
 11
166.0785016405
 21
104.4916949248
 31
0.0
 12
166.0785016405
 22
102.9916949248
 32
0.0
 13
166.0785016405
 23
102.9916949248
 33
0.0
  0
LINE
  5
198
330
193
100
AcDbEntity
  8
0
  6
Continuous
 62
     7
370
     0
100
AcDbLine
 10
147.0785016405
 20
121.9416949248
 30
0.0
 11
147.0785016405
 21
102.7416949248
 31
0.0
  0
LINE
  5
199
330
193
100
AcDbEntity
  8
0
  6
Continuous
 62
     7
370
     0
100
AcDbLine
 10
168.0785016405
 20
123.9416949248
 30
0.0
 11
168.0785016405
 21
102.7416949248
 31
0.0
  0
LINE
  5
19A
330
193
100
AcDbEntity
  8
0
  6
Continuous
 62
     7
370
     0
100
AcDbLine
 10
147.0785016405
 20
103.7416949248
 30
0.0
 11
168.0785016405
 21
103.7416949248
 31
0.0
  0
MTEXT
  5
19B
330
193
100
AcDbEntity
  8
0
  6
Continuous
 62
     7
370
     0
100
AcDbMText
 10
154.992390447
 20
108.2534318394
 30
0.1
 40
3.5
 41
0.0
 71
     1
 72
     1
  1
21
  7
SLDTEXTSTYLE1
 73
     1
 44
1.0
  0
ENDBLK
  5
195
330
193
100
AcDbEntity
  8
0
100
AcDbBlockEnd
  0
BLOCK
  5
19E
330
19D
100
AcDbEntity
  8
0
100
AcDbBlockBegin
  2
_D_5
 70
     0
 10
0.0
 20
0.0
 30
0.0
  3
_D_5
  1

  0
SOLID
  5
1A0
330
19D
100
AcDbEntity
  8
0
  6
Continuous
 62
     7
370
     0
100
AcDbTrace
 10
180.0785016405
 20
133.5416949248
 30
0.0
 11
180.8285016405
 21
135.5416949248
 31
0.0
 12
179.3285016405
 22
135.5416949248
 32
0.0
 13
179.3285016405
 23
135.5416949248
 33
0.0
  0
SOLID
  5
1A1
330
19D
100
AcDbEntity
  8
0
  6
Continuous
 62
     7
370
     0
100
AcDbTrace
 10
180.0785016405
 20
127.5416949248
 30
0.0
 11
179.3285016405
 21
125.5416949248
 31
0.0
 12
180.8285016405
 22
125.5416949248
 32
0.0
 13
180.8285016405
 23
125.5416949248
 33
0.0
  0
LINE
  5
1A2
330
19D
100
AcDbEntity
  8
0
  6
Continuous
 62
     7
370
     0
100
AcDbLine
 10
170.5785016405
 20
133.5416949248
 30
0.0
 11
181.0785016405
 21
133.5416949248
 31
0.0
  0
LINE
  5
1A3
330
19D
100
AcDbEntity
  8
0
  6
Continuous
 62
     7
370
     0
100
AcDbLine
 10
170.5785016405
 20
127.5416949248
 30
0.0
 11
181.0785016405
 21
127.5416949248
 31
0.0
  0
LINE
  5
1A4
330
19D
100
AcDbEntity
  8
0
  6
Continuous
 62
     7
370
     0
100
AcDbLine
 10
180.0785016405
 20
133.5416949248
 30
0.0
 11
180.0785016405
 21
138.5416949248
 31
0.0
  0
LINE
  5
1A5
330
19D
100
AcDbEntity
  8
0
  6
Continuous
 62
     7
370
     0
100
AcDbLine
 10
180.0785016405
 20
133.5416949248
 30
0.0
 11
180.0785016405
 21
127.5416949248
 31
0.0
  0
LINE
  5
1A6
330
19D
100
AcDbEntity
  8
0
  6
Continuous
 62
     7
370
     0
100
AcDbLine
 10
180.0785016405
 20
127.5416949248
 30
0.0
 11
180.0785016405
 21
113.7734460534
 31
0.0
  0
MTEXT
  5
1A7
330
19D
100
AcDbEntity
  8
0
  6
Continuous
 62
     7
370
     0
100
AcDbMText
 10
175.5667645513
 20
113.7734460534
 30
0.1
 40
3.5
 41
0.0
 71
     1
 72
     1
  1
%%c
  7
SLDTEXTSTYLE1
 11
-7.044195017643634E-15
 21
1.0
 31
0.0
 73
     1
 44
1.0
  0
MTEXT
  5
1A8
330
19D
100
AcDbEntity
  8
0
  6
Continuous
 62
     7
370
     0
100
AcDbMText
 10
175.5132923746
 20
119.0518834518
 30
0.1
 40
3.5
 41
0.0
 71
     1
 72
     1
  1
6
  7
SLDTEXTSTYLE1
 11
-7.044195017643634E-15
 21
1.0
 31
0.0
 73
     1
 44
1.0
  0
ENDBLK
  5
19F
330
19D
100
AcDbEntity
  8
0
100
AcDbBlockEnd
  0
BLOCK
  5
1AB
330
1AA
100
AcDbEntity
  8
0
100
AcDbBlockBegin
  2
_D_6
 70
     0
 10
0.0
 20
0.0
 30
0.0
  3
_D_6
  1

  0
SOLID
  5
1AD
330
1AA
100
AcDbEntity
  8
0
  6
Continuous
 62
     7
370
     0
100
AcDbTrace
 10
188.6776474133
 20
136.5416949248
 30
0.0
 11
187.9276474133
 21
134.5416949248
 31
0.0
 12
189.4276474133
 22
134.5416949248
 32
0.0
 13
189.4276474133
 23
134.5416949248
 33
0.0
  0
SOLID
  5
1AE
330
1AA
100
AcDbEntity
  8
0
  6
Continuous
 62
     7
370
     0
100
AcDbTrace
 10
188.6776474133
 20
124.5416949248
 30
0.0
 11
189.4276474133
 21
126.5416949248
 31
0.0
 12
187.9276474133
 22
126.5416949248
 32
0.0
 13
187.9276474133
 23
126.5416949248
 33
0.0
  0
LINE
  5
1AF
330
1AA
100
AcDbEntity
  8
0
  6
Continuous
 62
     7
370
     0
100
AcDbLine
 10
168.6785016405
 20
136.5416949248
 30
0.0
 11
189.6776474133
 21
136.5416949248
 31
0.0
  0
LINE
  5
1B0
330
1AA
100
AcDbEntity
  8
0
  6
Continuous
 62
     7
370
     0
100
AcDbLine
 10
168.6785016405
 20
124.5416949248
 30
0.0
 11
189.6776474133
 21
124.5416949248
 31
0.0
  0
LINE
  5
1B1
330
1AA
100
AcDbEntity
  8
0
  6
Continuous
 62
     7
370
     0
100
AcDbLine
 10
188.6776474133
 20
136.5416949248
 30
0.0
 11
188.6776474133
 21
124.5416949248
 31
0.0
  0
MTEXT
  5
1B2
330
1AA
100
AcDbEntity
  8
0
  6
Continuous
 62
     7
370
     0
100
AcDbMText
 10
184.1659103241
 20
124.645951845
 30
0.1
 40
3.5
 41
0.0
 71
     1
 72
     1
  1
%%c
  7
SLDTEXTSTYLE1
 11
-7.044195017643634E-15
 21
1.0
 31
0.0
 73
     1
 44
1.0
  0
MTEXT
  5
1B3
330
1AA
100
AcDbEntity
  8
0
  6
Continuous
 62
     7
370
     0
100
AcDbMText
 10
184.1124381474
 20
129.9243892433
 30
0.1
 40
3.5
 41
0.0
 71
     1
 72
     1
  1
12
  7
SLDTEXTSTYLE1
 11
-7.044195017643634E-15
 21
1.0
 31
0.0
 73
     1
 44
1.0
  0
ENDBLK
  5
1AC
330
1AA
100
AcDbEntity
  8
0
100
AcDbBlockEnd
  0
BLOCK
  5
1B6
330
1B5
100
AcDbEntity
  8
0
100
AcDbBlockBegin
  2
_D_7
 70
     0
 10
0.0
 20
0.0
 30
0.0
  3
_D_7
  1

  0
SOLID
  5
1B8
330
1B5
100
AcDbEntity
  8
0
  6
Continuous
 62
     7
370
     0
100
AcDbTrace
 10
112.0785016405
 20
103.7416949248
 30
0.0
 11
114.0785016405
 21
102.9916949248
 31
0.0
 12
114.0785016405
 22
104.4916949248
 32
0.0
 13
114.0785016405
 23
104.4916949248
 33
0.0
  0
SOLID
  5
1B9
330
1B5
100
AcDbEntity
  8
0
  6
Continuous
 62
     7
370
     0
100
AcDbTrace
 10
142.0785016405
 20
103.7416949248
 30
0.0
 11
140.0785016405
 21
104.4916949248
 31
0.0
 12
140.0785016405
 22
102.9916949248
 32
0.0
 13
140.0785016405
 23
102.9916949248
 33
0.0
  0
LINE
  5
1BA
330
1B5
100
AcDbEntity
  8
0
  6
Continuous
 62
     7
370
     0
100
AcDbLine
 10
112.0785016405
 20
125.0416949248
 30
0.0
 11
112.0785016405
 21
102.7416949248
 31
0.0
  0
LINE
  5
1BB
330
1B5
100
AcDbEntity
  8
0
  6
Continuous
 62
     7
370
     0
100
AcDbLine
 10
142.0785016405
 20
125.4416949248
 30
0.0
 11
142.0785016405
 21
102.7416949248
 31
0.0
  0
LINE
  5
1BC
330
1B5
100
AcDbEntity
  8
0
  6
Continuous
 62
     7
370
     0
100
AcDbLine
 10
112.0785016405
 20
103.7416949248
 30
0.0
 11
142.0785016405
 21
103.7416949248
 31
0.0
  0
MTEXT
  5
1BD
330
1B5
100
AcDbEntity
  8
0
  6
Continuous
 62
     7
370
     0
100
AcDbMText
 10
122.8529115886
 20
108.2534318394
 30
0.1
 40
3.5
 41
0.0
 71
     1
 72
     1
  1
30
  7
SLDTEXTSTYLE1
 73
     1
 44
1.0
  0
MTEXT
  5
1BE
330
1B5
100
AcDbEntity
  8
0
  6
Continuous
 62
     7
370
     0
100
AcDbMText
 10
128.0251339757
 20
108.2534318394
 30
0.1
 40
3.5
 41
0.0
 71
     1
 72
     1
  1
st
  7
SLDTEXTSTYLE1
 73
     1
 44
1.0
  0
ENDBLK
  5
1B7
330
1B5
100
AcDbEntity
  8
0
100
AcDbBlockEnd
  0
BLOCK
  5
1C1
330
1C0
100
AcDbEntity
  8
0
100
AcDbBlockBegin
  2
_D_8
 70
     0
 10
0.0
 20
0.0
 30
0.0
  3
_D_8
  1

  0
SOLID
  5
1C3
330
1C0
100
AcDbEntity
  8
0
  6
Continuous
 62
     7
370
     0
100
AcDbTrace
 10
88.0785016405
 20
158.6449140533
 30
0.0
 11
90.0785016405
 21
157.8949140533
 31
0.0
 12
90.0785016405
 22
159.3949140533
 32
0.0
 13
90.0785016405
 23
159.3949140533
 33
0.0
  0
SOLID
  5
1C4
330
1C0
100
AcDbEntity
  8
0
  6
Continuous
 62
     7
370
     0
100
AcDbTrace
 10
170.0785016405
 20
158.6449140533
 30
0.0
 11
168.0785016405
 21
159.3949140533
 31
0.0
 12
168.0785016405
 22
157.8949140533
 32
0.0
 13
168.0785016405
 23
157.8949140533
 33
0.0
  0
LINE
  5
1C5
330
1C0
100
AcDbEntity
  8
0
  6
Continuous
 62
     7
370
     0
100
AcDbLine
 10
88.0785016405
 20
137.0416949248
 30
0.0
 11
88.0785016405
 21
159.6449140533
 31
0.0
  0
LINE
  5
1C6
330
1C0
100
AcDbEntity
  8
0
  6
Continuous
 62
     7
370
     0
100
AcDbLine
 10
170.0785016405
 20
134.0416949248
 30
0.0
 11
170.0785016405
 21
159.6449140533
 31
0.0
  0
LINE
  5
1C7
330
1C0
100
AcDbEntity
  8
0
  6
Continuous
 62
     7
370
     0
100
AcDbLine
 10
88.0785016405
 20
158.6449140533
 30
0.0
 11
170.0785016405
 21
158.6449140533
 31
0.0
  0
MTEXT
  5
1C8
330
1C0
100
AcDbEntity
  8
0
  6
Continuous
 62
     7
370
     0
100
AcDbMText
 10
128.5894496894
 20
163.1566509679
 30
0.1
 40
3.5
 41
0.0
 71
     1
 72
     1
  1
82
  7
SLDTEXTSTYLE1
 73
     1
 44
1.0
  0
ENDBLK
  5
1C2
330
1C0
100
AcDbEntity
  8
0
100
AcDbBlockEnd
  0
ENDSEC
  0
SECTION
  2
ENTITIES
  0
LINE
  5
44
330
1F
100
AcDbEntity
  8
0
  6
Continuous
 62
     7
370
     0
100
AcDbLine
 10
20.2604743903
 20
285.0
 30
0.0
 11
196.7604743903
 21
285.0
 31
0.0
  0
LINE
  5
45
330
1F
100
AcDbEntity
  8
0
  6
Continuous
 62
     7
370
     0
100
AcDbLine
 10
20.2604743903
 20
285.0
 30
0.0
 11
20.2604743903
 21
10.0
 31
0.0
  0
LINE
  5
46
330
1F
100
AcDbEntity
  8
0
  6
Continuous
 62
     7
370
     0
100
AcDbLine
 10
20.2604743903
 20
10.0
 30
0.0
 11
196.7604743903
 21
10.0
 31
0.0
  0
LINE
  5
47
330
1F
100
AcDbEntity
  8
0
  6
Continuous
 62
     7
370
     0
100
AcDbLine
 10
196.7604743903
 20
285.0
 30
0.0
 11
196.7604743903
 21
10.0
 31
0.0
  0
LINE
  5
48
330
1F
100
AcDbEntity
  8
0
  6
Continuous
 62
     7
370
     0
100
AcDbLine
 10
127.0104743903
 20
50.75
 30
0.0
 11
196.7604743903
 21
50.75
 31
0.0
  0
LINE
  5
49
330
1F
100
AcDbEntity
  8
0
  6
Continuous
 62
     7
370
     0
100
AcDbLine
 10
127.0104743903
 20
50.75
 30
0.0
 11
127.0104743903
 21
10.0
 31
0.0
  0
LINE
  5
4A
330
1F
100
AcDbEntity
  8
0
  6
Continuous
 62
     7
370
     0
100
AcDbLine
 10
127.0104743903
 20
22.75
 30
0.0
 11
196.7604743903
 21
22.75
 31
0.0
  0
LINE
  5
4B
330
1F
100
AcDbEntity
  8
0
  6
Continuous
 62
     7
370
     0
100
AcDbLine
 10
127.0104743903
 20
36.75
 30
0.0
 11
196.7604743903
 21
36.75
 31
0.0
  0
MTEXT
  5
4D
330
1F
100
AcDbEntity
  8
0
  6
Continuous
 62
     7
370
     0
100
AcDbMText
 10
161.2186231453
 20
30.4171582345
 30
0.0
 40
4.2333333333
 41
0.0
 71
     2
 72
     1
  1
VFIL1-S-30-P12
  7
SLDTEXTSTYLE0
 73
     1
 44
1.0
  0
MTEXT
  5
4E
330
1F
100
AcDbEntity
  8
0
  6
Continuous
 62
     7
370
     0
100
AcDbMText
 10
160.5582442015
 20
43.9409718514
 30
0.0
 40
4.2333333333
 41
0.0
 71
     2
 72
     1
  1
吸着金具・スモール用
  7
SLDTEXTSTYLE0
 73
     1
 44
1.0
  0
MTEXT
  5
4F
330
1F
100
AcDbEntity
  8
0
  6
Continuous
 62
     7
370
     0
100
AcDbMText
 10
162.7176865735
 20
16.8228189052
 30
0.0
 40
4.2333333333
 41
0.0
 71
     2
 72
     1
  1
211012
  7
SLDTEXTSTYLE0
 73
     1
 44
1.0
  0
LINE
  5
50
330
1F
100
AcDbEntity
  8
0
  6
Continuous
 62
     7
370
    15
100
AcDbLine
 10
44.704983049
 20
137.3416949248
 30
0.0
 11
44.704983049
 21
136.5416949248
 31
0.0
  0
LINE
  5
51
330
1F
100
AcDbEntity
  8
0
  6
Continuous
 62
     7
370
    15
100
AcDbLine
 10
52.704983049
 20
136.5416949248
 30
0.0
 11
52.704983049
 21
137.3416949248
 31
0.0
  0
LINE
  5
52
330
1F
100
AcDbEntity
  8
0
  6
Continuous
 62
     7
370
    15
100
AcDbLine
 10
44.704983049
 20
124.5416949248
 30
0.0
 11
44.704983049
 21
123.7416949248
 31
0.0
  0
LINE
  5
53
330
1F
100
AcDbEntity
  8
0
  6
Continuous
 62
     7
370
    15
100
AcDbLine
 10
52.704983049
 20
123.7416949248
 30
0.0
 11
52.704983049
 21
124.5416949248
 31
0.0
  0
LINE
  5
54
330
1F
100
AcDbEntity
  8
0
  6
Continuous
 62
     7
370
    15
100
AcDbLine
 10
46.354983049
 20
116.2416949248
 30
0.0
 11
46.704983049
 21
113.7416949248
 31
0.0
  0
LINE
  5
55
330
1F
100
AcDbEntity
  8
0
  6
Continuous
 62
     7
370
    15
100
AcDbLine
 10
50.704983049
 20
113.7416949248
 30
0.0
 11
51.054983049
 21
116.2416949248
 31
0.0
  0
LINE
  5
56
330
1F
100
AcDbEntity
  8
0
  6
Continuous
 62
     7
370
    15
100
AcDbLine
 10
46.354983049
 20
118.7416949248
 30
0.0
 11
46.704983049
 21
116.2416949248
 31
0.0
  0
LINE
  5
57
330
1F
100
AcDbEntity
  8
0
  6
Continuous
 62
     7
370
    15
100
AcDbLine
 10
50.704983049
 20
116.2416949248
 30
0.0
 11
51.054983049
 21
118.7416949248
 31
0.0
  0
LINE
  5
58
330
1F
100
AcDbEntity
  8
0
  6
Continuous
 62
     7
370
    15
100
AcDbLine
 10
50.804983049
 20
118.7416949248
 30
0.0
 11
50.804983049
 21
121.2416949248
 31
0.0
  0
LINE
  5
59
330
1F
100
AcDbEntity
  8
0
  6
Continuous
 62
     7
370
    15
100
AcDbLine
 10
46.604983049
 20
121.2416949248
 30
0.0
 11
46.604983049
 21
118.7416949248
 31
0.0
  0
CIRCLE
  5
5A
330
1F
100
AcDbEntity
  8
0
  6
Continuous
 62
     7
370
    15
100
AcDbCircle
 10
48.704983049
 20
130.5416949248
 30
0.0
 40
5.5
  0
CIRCLE
  5
5B
330
1F
100
AcDbEntity
  8
0
  6
Continuous
 62
     7
370
    15
100
AcDbCircle
 10
48.704983049
 20
130.5416949248
 30
0.0
 40
2.100000000000001
  0
LINE
  5
5C
330
1F
100
AcDbEntity
  8
0
  6
Continuous
 62
     7
370
    15
100
AcDbLine
 10
52.1690846641
 20
136.5416949248
 30
0.0
 11
55.6331862793
 21
130.5416949248
 31
0.0
  0
LINE
  5
5D
330
1F
100
AcDbEntity
  8
0
  6
Continuous
 62
     7
370
    15
100
AcDbLine
 10
45.2408814338
 20
124.5416949248
 30
0.0
 11
41.7767798187
 21
130.5416949248
 31
0.0
  0
LINE
  5
5E
330
1F
100
AcDbEntity
  8
0
  6
Continuous
 62
     7
370
    15
100
AcDbLine
 10
41.7767798187
 20
130.5416949248
 30
0.0
 11
45.2408814338
 21
136.5416949248
 31
0.0
  0
LINE
  5
5F
330
1F
100
AcDbEntity
  8
0
  6
Continuous
 62
     7
370
    15
100
AcDbLine
 10
45.2408814338
 20
136.5416949248
 30
0.0
 11
52.1690846641
 21
136.5416949248
 31
0.0
  0
LINE
  5
60
330
1F
100
AcDbEntity
  8
0
  6
Continuous
 62
     7
370
    15
100
AcDbLine
 10
55.6331862793
 20
130.5416949248
 30
0.0
 11
52.1690846641
 21
124.5416949248
 31
0.0
  0
LINE
  5
61
330
1F
100
AcDbEntity
  8
0
  6
Continuous
 62
     7
370
    15
100
AcDbLine
 10
52.1690846641
 20
124.5416949248
 30
0.0
 11
45.2408814338
 21
124.5416949248
 31
0.0
  0
CIRCLE
  5
62
330
1F
100
AcDbEntity
  8
0
  6
Continuous
 62
   144
370
     0
100
AcDbCircle
 10
48.704983049
 20
130.5416949248
 30
0.0
 40
2.0
  0
LINE
  5
63
330
1F
100
AcDbEntity
  8
0
  6
Continuous
 62
     7
370
    15
100
AcDbLine
 10
52.704983049
 20
136.5416949248
 30
0.0
 11
52.1690846641
 21
136.5416949248
 31
0.0
  0
LINE
  5
64
330
1F
100
AcDbEntity
  8
0
  6
Continuous
 62
     7
370
    15
100
AcDbLine
 10
45.2408814338
 20
136.5416949248
 30
0.0
 11
44.704983049
 21
136.5416949248
 31
0.0
  0
LINE
  5
65
330
1F
100
AcDbEntity
  8
0
  6
Continuous
 62
     7
370
    15
100
AcDbLine
 10
45.7399494343
 20
123.7416949248
 30
0.0
 11
44.704983049
 21
123.7416949248
 31
0.0
  0
LINE
  5
66
330
1F
100
AcDbEntity
  8
0
  6
Continuous
 62
     7
370
    15
100
AcDbLine
 10
46.679983049
 20
123.7416949248
 30
0.0
 11
45.7399494343
 21
123.7416949248
 31
0.0
  0
LINE
  5
67
330
1F
100
AcDbEntity
  8
0
  6
Continuous
 62
     7
370
    15
100
AcDbLine
 10
45.2408814338
 20
124.5416949248
 30
0.0
 11
44.704983049
 21
124.5416949248
 31
0.0
  0
LINE
  5
68
330
1F
100
AcDbEntity
  8
0
  6
Continuous
 62
     7
370
    15
100
AcDbLine
 10
52.704983049
 20
124.5416949248
 30
0.0
 11
52.1690846641
 21
124.5416949248
 31
0.0
  0
LINE
  5
69
330
1F
100
AcDbEntity
  8
0
  6
Continuous
 62
     7
370
    15
100
AcDbLine
 10
50.729983049
 20
123.7416949248
 30
0.0
 11
50.729983049
 21
121.2416949248
 31
0.0
  0
LINE
  5
6A
330
1F
100
AcDbEntity
  8
0
  6
Continuous
 62
     7
370
    15
100
AcDbLine
 10
50.729983049
 20
121.2416949248
 30
0.0
 11
46.6799830491
 21
121.2416949248
 31
0.0
  0
LINE
  5
6B
330
1F
100
AcDbEntity
  8
0
  6
Continuous
 62
     7
370
    15
100
AcDbLine
 10
46.6799830489
 20
123.7416949248
 30
0.0
 11
46.6799830491
 21
121.2416949248
 31
0.0
  0
LINE
  5
6C
330
1F
100
AcDbEntity
  8
0
  6
Continuous
 62
     7
370
    15
100
AcDbLine
 10
50.729983049
 20
123.7416949248
 30
0.0
 11
46.6799830489
 21
123.7416949248
 31
0.0
  0
LINE
  5
6D
330
1F
100
AcDbEntity
  8
0
  6
Continuous
 62
     7
370
    15
100
AcDbLine
 10
52.754983049
 20
121.2416949248
 30
0.0
 11
50.729983049
 21
121.2416949248
 31
0.0
  0
LINE
  5
6E
330
1F
100
AcDbEntity
  8
0
  6
Continuous
 62
     7
370
    15
100
AcDbLine
 10
46.6799830491
 20
121.2416949248
 30
0.0
 11
44.654983049
 21
121.2416949248
 31
0.0
  0
LINE
  5
6F
330
1F
100
AcDbEntity
  8
0
  6
Continuous
 62
     7
370
    15
100
AcDbLine
 10
44.654983049
 20
121.2416949248
 30
0.0
 11
44.654983049
 21
123.7416949248
 31
0.0
  0
LINE
  5
70
330
1F
100
AcDbEntity
  8
0
  6
Continuous
 62
     7
370
    15
100
AcDbLine
 10
44.7059575683
 20
123.7416949248
 30
0.0
 11
44.654983049
 21
123.7416949248
 31
0.0
  0
LINE
  5
71
330
1F
100
AcDbEntity
  8
0
  6
Continuous
 62
     7
370
    15
100
AcDbLine
 10
52.754983049
 20
123.7416949248
 30
0.0
 11
52.754983049
 21
121.2416949248
 31
0.0
  0
LINE
  5
72
330
1F
100
AcDbEntity
  8
0
  6
Continuous
 62
     7
370
    15
100
AcDbLine
 10
52.754983049
 20
123.7416949248
 30
0.0
 11
52.7040085297
 21
123.7416949248
 31
0.0
  0
LINE
  5
73
330
1F
100
AcDbEntity
  8
0
  6
Continuous
 62
     7
370
    15
100
AcDbLine
 10
50.7809575683
 20
123.7416949248
 30
0.0
 11
50.729983049
 21
123.7416949248
 31
0.0
  0
LINE
  5
74
330
1F
100
AcDbEntity
  8
0
  6
Continuous
 62
     7
370
    15
100
AcDbLine
 10
47.529983049
 20
116.2416949248
 30
0.0
 11
46.354983049
 21
116.2416949248
 31
0.0
  0
LINE
  5
75
330
1F
100
AcDbEntity
  8
0
  6
Continuous
 62
     7
370
    15
100
AcDbLine
 10
51.054983049
 20
116.2416949248
 30
0.0
 11
47.529983049
 21
116.2416949248
 31
0.0
  0
LINE
  5
76
330
1F
100
AcDbEntity
  8
0
  6
Continuous
 62
     7
370
    15
100
AcDbLine
 10
50.704983049
 20
113.7416949248
 30
0.0
 11
46.704983049
 21
113.7416949248
 31
0.0
  0
LINE
  5
77
330
1F
100
AcDbEntity
  8
0
  6
Continuous
 62
     7
370
    15
100
AcDbLine
 10
51.054983049
 20
118.7416949248
 30
0.0
 11
47.529983049
 21
118.7416949248
 31
0.0
  0
LINE
  5
78
330
1F
100
AcDbEntity
  8
0
  6
Continuous
 62
     7
370
    15
100
AcDbLine
 10
47.529983049
 20
118.7416949248
 30
0.0
 11
46.354983049
 21
118.7416949248
 31
0.0
  0
LINE
  5
79
330
1F
100
AcDbEntity
  8
0
  6
Continuous
 62
     7
370
    15
100
AcDbLine
 10
44.6549830491
 20
139.8416949248
 30
0.0
 11
46.679983049
 21
139.8416949248
 31
0.0
  0
LINE
  5
7A
330
1F
100
AcDbEntity
  8
0
  6
Continuous
 62
     7
370
    15
100
AcDbLine
 10
50.729983049
 20
139.8416949248
 30
0.0
 11
52.7549830489
 21
139.8416949248
 31
0.0
  0
LINE
  5
7B
330
1F
100
AcDbEntity
  8
0
  6
Continuous
 62
     7
370
    15
100
AcDbLine
 10
46.679983049
 20
139.8416949248
 30
0.0
 11
50.729983049
 21
139.8416949248
 31
0.0
  0
LINE
  5
7C
330
1F
100
AcDbEntity
  8
0
  6
Continuous
 62
     7
370
    15
100
AcDbLine
 10
50.729983049
 20
137.3416949248
 30
0.0
 11
50.729983049
 21
139.8416949248
 31
0.0
  0
LINE
  5
7D
330
1F
100
AcDbEntity
  8
0
  6
Continuous
 62
     7
370
    15
100
AcDbLine
 10
46.679983049
 20
137.3416949248
 30
0.0
 11
50.729983049
 21
137.3416949248
 31
0.0
  0
LINE
  5
7E
330
1F
100
AcDbEntity
  8
0
  6
Continuous
 62
     7
370
    15
100
AcDbLine
 10
46.679983049
 20
137.3416949248
 30
0.0
 11
46.679983049
 21
139.8416949248
 31
0.0
  0
LINE
  5
7F
330
1F
100
AcDbEntity
  8
0
  6
Continuous
 62
     7
370
    15
100
AcDbLine
 10
44.654983049
 20
137.3416949248
 30
0.0
 11
44.7059575683
 21
137.3416949248
 31
0.0
  0
LINE
  5
80
330
1F
100
AcDbEntity
  8
0
  6
Continuous
 62
     7
370
    15
100
AcDbLine
 10
46.6290085297
 20
137.3416949248
 30
0.0
 11
46.679983049
 21
137.3416949248
 31
0.0
  0
LINE
  5
81
330
1F
100
AcDbEntity
  8
0
  6
Continuous
 62
     7
370
    15
100
AcDbLine
 10
44.654983049
 20
137.3416949248
 30
0.0
 11
44.6549830491
 21
139.8416949248
 31
0.0
  0
LINE
  5
82
330
1F
100
AcDbEntity
  8
0
  6
Continuous
 62
     7
370
    15
100
AcDbLine
 10
52.754983049
 20
137.3416949248
 30
0.0
 11
52.7549830489
 21
139.8416949248
 31
0.0
  0
LINE
  5
83
330
1F
100
AcDbEntity
  8
0
  6
Continuous
 62
     7
370
    15
100
AcDbLine
 10
50.729983049
 20
137.3416949248
 30
0.0
 11
50.7809575683
 21
137.3416949248
 31
0.0
  0
LINE
  5
84
330
1F
100
AcDbEntity
  8
0
  6
Continuous
 62
     7
370
    15
100
AcDbLine
 10
52.7040085297
 20
137.3416949248
 30
0.0
 11
52.754983049
 21
137.3416949248
 31
0.0
  0
ARC
  5
85
330
1F
100
AcDbEntity
  8
0
  6
Continuous
 62
     7
370
    15
100
AcDbCircle
 10
48.704983049
 20
130.5416949248
 30
0.0
 40
8.000000000000012
100
AcDbArc
 50
120.4143653546
 51
239.5856346455
  0
ARC
  5
86
330
1F
100
AcDbEntity
  8
0
  6
Continuous
 62
     7
370
    15
100
AcDbCircle
 10
48.704983049
 20
130.5416949248
 30
0.0
 40
8.000000000000012
100
AcDbArc
 50
300.4143653546
 51
59.5856346455
  0
ARC
  5
87
330
1F
100
AcDbEntity
  8
0
  6
Continuous
 62
     7
370
    15
100
AcDbCircle
 10
48.704983049
 20
130.5416949248
 30
0.0
 40
7.600000000000012
100
AcDbArc
 50
121.7568638593
 51
238.2431361407
  0
ARC
  5
88
330
1F
100
AcDbEntity
  8
0
  6
Continuous
 62
     7
370
    15
100
AcDbCircle
 10
48.704983049
 20
130.5416949248
 30
0.0
 40
7.60000000000002
100
AcDbArc
 50
301.7568638593
 51
58.2431361407
  0
DIMENSION
  5
89
330
1F
100
AcDbEntity
  8
0
  6
Continuous
 62
     7
370
     0
100
AcDbDimension
  2
_D
 10
56.704983049
 20
149.8416949248
 30
0.0
 11
48.704983049
 21
149.8416949248
 31
0.0
 70
   160
  1
%%c<>
 71
     2
 42
-1.0
  3
SLDDIMSTYLE0
100
AcDbAlignedDimension
 13
40.704983049
 23
130.5416949248
 33
0.0
 14
56.704983049
 24
130.5416949248
 34
0.0
100
AcDbRotatedDimension
  0
DIMENSION
  5
96
330
1F
100
AcDbEntity
  8
0
  6
Continuous
 62
     7
370
     0
100
AcDbDimension
  2
_D_1
 10
34.7460234074
 20
121.2416949248
 30
0.0
 11
34.7460234074
 21
130.5416949248
 31
0.0
 70
   160
  1
<>
 71
     2
 42
-1.0
  3
SLDDIMSTYLE0
100
AcDbAlignedDimension
 13
44.6549830491
 23
139.8416949248
 33
0.0
 14
44.654983049
 24
121.2416949248
 34
0.0
 50
90.0
100
AcDbRotatedDimension
  0
MTEXT
  5
A0
330
1F
100
AcDbEntity
  8
0
  6
Continuous
 62
     7
370
     0
100
AcDbMText
 10
64.9034769434
 20
146.3746172063
 30
0.0
 40
3.5
 41
0.0
 71
     1
 72
     1
  1
M5
  7
SLDTEXTSTYLE1
 73
     1
 44
1.0
  0
LEADER
  5
A2
330
1F
100
AcDbEntity
  8
0
  6
Continuous
 62
     7
370
     0
100
AcDbLeader
  3
SLDDIMSTYLE1
 76
     3
 10
50.0567039111
 20
132.1488199078
 30
0.0
 10
64.3300117233
 20
141.8522860492
 30
0.0
 10
71.7467760844
 20
141.8522860492
 30
0.0
  0
INSERT
  5
AE
330
1F
100
AcDbEntity
  8
0
  6
Continuous
 62
     7
370
     0
100
AcDbBlockReference
  2
SW_CENTERMARKSYMBOL_0
 10
48.704983049
 20
130.5416949248
 30
0.0
  0
LINE
  5
AF
330
1F
100
AcDbEntity
  8
0
  6
Continuous
 62
     7
370
    15
100
AcDbLine
 10
169.5785016405
 20
127.5416949248
 30
0.0
 11
170.0785016405
 21
128.0416949248
 31
0.0
  0
LINE
  5
B0
330
1F
100
AcDbEntity
  8
0
  6
Continuous
 62
     7
370
    15
100
AcDbLine
 10
170.0785016405
 20
133.0416949248
 30
0.0
 11
169.5785016405
 21
133.5416949248
 31
0.0
  0
LINE
  5
B1
330
1F
100
AcDbEntity
  8
0
  6
Continuous
 62
     7
370
    15
100
AcDbLine
 10
168.7785016405
 20
127.5416949248
 30
0.0
 11
169.5785016405
 21
127.5416949248
 31
0.0
  0
LINE
  5
B2
330
1F
100
AcDbEntity
  8
0
  6
Continuous
 62
     7
370
    15
100
AcDbLine
 10
169.5785016405
 20
133.5416949248
 30
0.0
 11
168.7785016405
 21
133.5416949248
 31
0.0
  0
LINE
  5
B3
330
1F
100
AcDbEntity
  8
0
  6
Continuous
 62
     7
370
    15
100
AcDbLine
 10
88.0785016405
 20
125.0416949248
 30
0.0
 11
90.0785016405
 21
125.0416949248
 31
0.0
  0
LINE
  5
B4
330
1F
100
AcDbEntity
  8
0
  6
Continuous
 62
     7
370
    15
100
AcDbLine
 10
90.0785016405
 20
136.0416949248
 30
0.0
 11
88.0785016405
 21
136.0416949248
 31
0.0
  0
LINE
  5
B5
330
1F
100
AcDbEntity
  8
0
  6
Continuous
 62
     7
370
    15
100
AcDbLine
 10
105.0785016405
 20
126.0416949248
 30
0.0
 11
109.8227674548
 21
126.0416949248
 31
0.0
  0
LINE
  5
B6
330
1F
100
AcDbEntity
  8
0
  6
Continuous
 62
     7
370
    15
100
AcDbLine
 10
110.8401682045
 20
126.0416949248
 30
0.0
 11
112.0785016405
 21
126.0416949248
 31
0.0
  0
LINE
  5
B7
330
1F
100
AcDbEntity
  8
0
  6
Continuous
 62
     7
370
    15
100
AcDbLine
 10
112.0785016405
 20
135.0416949248
 30
0.0
 11
109.3103806041
 21
135.0416949248
 31
0.0
  0
LINE
  5
B8
330
1F
100
AcDbEntity
  8
0
  6
Continuous
 62
     7
370
    15
100
AcDbLine
 10
108.293652661
 20
135.0416949248
 30
0.0
 11
105.0785016405
 21
135.0416949248
 31
0.0
  0
LINE
  5
B9
330
1F
100
AcDbEntity
  8
0
  6
Continuous
 62
     7
370
    15
100
AcDbLine
 10
90.0785016405
 20
126.6416949248
 30
0.0
 11
97.0785016405
 21
126.6416949248
 31
0.0
  0
LINE
  5
BA
330
1F
100
AcDbEntity
  8
0
  6
Continuous
 62
     7
370
    15
100
AcDbLine
 10
97.0785016405
 20
134.4416949248
 30
0.0
 11
90.0785016405
 21
134.4416949248
 31
0.0
  0
LINE
  5
BB
330
1F
100
AcDbEntity
  8
0
  6
Continuous
 62
     7
370
    15
100
AcDbLine
 10
112.0785016405
 20
127.5416949248
 30
0.0
 11
114.5249123347
 21
127.5416949248
 31
0.0
  0
LINE
  5
BC
330
1F
100
AcDbEntity
  8
0
  6
Continuous
 62
     7
370
    15
100
AcDbLine
 10
115.5288102856
 20
127.5416949248
 30
0.0
 11
119.5251446147
 21
127.5416949248
 31
0.0
  0
LINE
  5
BD
330
1F
100
AcDbEntity
  8
0
  6
Continuous
 62
     7
370
    15
100
AcDbLine
 10
120.5287478444
 20
127.5416949248
 30
0.0
 11
124.5245606539
 21
127.5416949248
 31
0.0
  0
LINE
  5
BE
330
1F
100
AcDbEntity
  8
0
  6
Continuous
 62
     7
370
    15
100
AcDbLine
 10
125.5291583957
 20
127.5416949248
 30
0.0
 11
129.524008811
 21
127.5416949248
 31
0.0
  0
LINE
  5
BF
330
1F
100
AcDbEntity
  8
0
  6
Continuous
 62
     7
370
    15
100
AcDbLine
 10
130.528882993
 20
127.5416949248
 30
0.0
 11
134.5243686562
 21
127.5416949248
 31
0.0
  0
LINE
  5
C0
330
1F
100
AcDbEntity
  8
0
  6
Continuous
 62
     7
370
    15
100
AcDbLine
 10
135.5281180049
 20
127.5416949248
 30
0.0
 11
139.5254561857
 21
127.5416949248
 31
0.0
  0
LINE
  5
C1
330
1F
100
AcDbEntity
  8
0
  6
Continuous
 62
     7
370
    15
100
AcDbLine
 10
140.5292316089
 20
127.5416949248
 30
0.0
 11
142.0785016405
 21
127.5416949248
 31
0.0
  0
LINE
  5
C2
330
1F
100
AcDbEntity
  8
0
  6
Continuous
 62
     7
370
    15
100
AcDbLine
 10
142.0785016405
 20
133.5416949248
 30
0.0
 11
139.6089833393
 21
133.5416949248
 31
0.0
  0
LINE
  5
C3
330
1F
100
AcDbEntity
  8
0
  6
Continuous
 62
     7
370
    15
100
AcDbLine
 10
138.6053688387
 20
133.5416949248
 30
0.0
 11
134.6094238883
 21
133.5416949248
 31
0.0
  0
LINE
  5
C4
330
1F
100
AcDbEntity
  8
0
  6
Continuous
 62
     7
370
    15
100
AcDbLine
 10
133.604353947
 20
133.5416949248
 30
0.0
 11
129.6097304919
 21
133.5416949248
 31
0.0
  0
LINE
  5
C5
330
1F
100
AcDbEntity
  8
0
  6
Continuous
 62
     7
370
    15
100
AcDbLine
 10
128.605649824
 20
133.5416949248
 30
0.0
 11
124.6091491016
 21
133.5416949248
 31
0.0
  0
LINE
  5
C6
330
1F
100
AcDbEntity
  8
0
  6
Continuous
 62
     7
370
    15
100
AcDbLine
 10
123.6048039377
 20
133.5416949248
 30
0.0
 11
119.6097951868
 21
133.5416949248
 31
0.0
  0
LINE
  5
C7
330
1F
100
AcDbEntity
  8
0
  6
Continuous
 62
     7
370
    15
100
AcDbLine
 10
118.6039155268
 20
133.5416949248
 30
0.0
 11
114.6089550566
 21
133.5416949248
 31
0.0
  0
LINE
  5
C8
330
1F
100
AcDbEntity
  8
0
  6
Continuous
 62
     7
370
    15
100
AcDbLine
 10
113.6049052821
 20
133.5416949248
 30
0.0
 11
112.0785016405
 21
133.5416949248
 31
0.0
  0
SPLINE
  5
C9
330
1F
100
AcDbEntity
  8
0
  6
Continuous
 62
     7
370
    15
100
AcDbSpline
210
0.0
220
0.0
230
1.0
 70
     8
 71
     3
 72
    18
 73
    14
 74
     0
 42
0.00000001
 43
0.00000001
 12
1.0
 22
0.0
 32
0.0
 13
1.0
 23
0.0
 33
0.0
 40
0.0
 40
0.0
 40
0.0
 40
0.0
 40
0.1711445263313032
 40
0.3210458384452818
 40
0.4494582665871666
 40
0.5561421336829534
 40
0.6150636662579818
 40
0.6641307004755297
 40
0.7164708414863954
 40
0.7688957496250811
 40
0.8333915404025833
 40
0.9104486757748905
 40
0.9999999999999999
 40
0.9999999999999999
 40
0.9999999999999999
 40
0.9999999999999999
 10
124.5846476922191
 20
127.1948543819432
 30
0.0
 10
124.630441434271
 20
126.9493753972367
 30
0.0
 10
124.7163447969303
 20
126.4888873632036
 30
0.0
 10
124.8391243116283
 20
125.9508522425699
 30
0.0
 10
124.9472524002936
 20
125.556866121269
 30
0.0
 10
125.0326056916546
 20
125.304747782933
 30
0.0
 10
125.0993479374929
 20
125.1418867915051
 30
0.0
 10
125.1494266692498
 20
125.0349994474403
 30
0.0
 10
125.2121328834454
 20
124.9218221248942
 30
0.0
 10
125.3033171681793
 20
124.7943934133516
 30
0.0
 10
125.4297524065118
 20
124.6718325413839
 30
0.0
 10
125.6072482432779
 20
124.5643543766272
 30
0.0
 10
125.7509898846868
 20
124.5499440825223
 30
0.0
 10
125.8282503933402
 20
124.5421986119581
 30
0.0
  0
SPLINE
  5
CA
330
1F
100
AcDbEntity
  8
0
  6
Continuous
 62
     7
370
    15
100
AcDbSpline
210
0.0
220
0.0
230
1.0
 70
     8
 71
     3
 72
    36
 73
    32
 74
     0
 42
0.00000001
 43
0.00000001
 12
1.0
 22
0.0
 32
0.0
 13
1.0
 23
0.0
 33
0.0
 40
0.0
 40
0.0
 40
0.0
 40
0.0
 40
0.0158533063655197
 40
0.0360646107728244
 40
0.0551551227398439
 40
0.0750670731524856
 40
0.1064649586444175
 40
0.1397023503110797
 40
0.1747782256423695
 40
0.211680249360123
 40
0.2503832404229858
 40
0.2891187750364108
 40
0.3237166780407877
 40
0.3539649489444534
 40
0.387474267907377
 40
0.4131568097767068
 40
0.4340604638066138
 40
0.4633352477012257
 40
0.5024990990351653
 40
0.551587338033513
 40
0.5948928077704703
 40
0.63894962865636
 40
0.6810042546130718
 40
0.7210949602190098
 40
0.7715114014555642
 40
0.8185034954947401
 40
0.8625221020315909
 40
0.8955755430230621
 40
0.9293862354521629
 40
0.9642012963986385
 40
1.0
 40
1.0
 40
1.0
 40
1.0
 10
128.1231015968391
 20
135.5770908409663
 30
0.0
 10
128.1202309595153
 20
135.5764600212779
 30
0.0
 10
128.113700560407
 20
135.5750249725881
 30
0.0
 10
128.1437219766917
 20
135.5136077731513
 30
0.0
 10
128.1802737377057
 20
135.4190734827636
 30
0.0
 10
128.2259905910436
 20
135.284940735055
 30
0.0
 10
128.2844112488956
 20
135.0862939295386
 30
0.0
 10
128.3566506506699
 20
134.8006089750609
 30
0.0
 10
128.4354102980679
 20
134.4460191707059
 30
0.0
 10
128.5200322438732
 20
134.0208478380347
 30
0.0
 10
128.6086936893796
 20
133.5316664413129
 30
0.0
 10
128.6961830516333
 20
133.009911251004
 30
0.0
 10
128.7770742532709
 20
132.4993727067594
 30
0.0
 10
128.8539917157874
 20
131.9954919761603
 30
0.0
 10
128.9240441249246
 20
131.5239246327677
 30
0.0
 10
128.9868251474324
 20
131.094323468958
 30
0.0
 10
129.0463078010172
 20
130.6842101374252
 30
0.0
 10
129.1163687727886
 20
130.1994722722318
 30
0.0
 10
129.2085666290863
 20
129.5641276533565
 30
0.0
 10
129.3118942471043
 20
128.8667713618541
 30
0.0
 10
129.4189459137176
 20
128.1740533828247
 30
0.0
 10
129.520758320176
 20
127.5524155647539
 30
0.0
 10
129.6207644150923
 20
126.9886926913049
 30
0.0
 10
129.727126967454
 20
126.446460754887
 30
0.0
 10
129.8397116661981
 20
125.946677393438
 30
0.0
 10
129.9615948106485
 20
125.5090260555349
 30
0.0
 10
130.0722090496234
 20
125.1974808178706
 30
0.0
 10
130.199713557551
 20
124.9389474793958
 30
0.0
 10
130.353101558123
 20
124.7363039517136
 30
0.0
 10
130.558802202583
 20
124.5763798392191
 30
0.0
 10
130.7375689135644
 20
124.5536761254998
 30
0.0
 10
130.8281973702285
 20
124.5421661384132
 30
0.0
  0
SPLINE
  5
CB
330
1F
100
AcDbEntity
  8
0
  6
Continuous
 62
     7
370
    15
100
AcDbSpline
210
0.0
220
0.0
230
1.0
 70
     8
 71
     3
 72
    35
 73
    31
 74
     0
 42
0.00000001
 43
0.00000001
 12
1.0
 22
0.0
 32
0.0
 13
1.0
 23
0.0
 33
0.0
 40
0.0
 40
0.0
 40
0.0
 40
0.0
 40
0.0193354559680046
 40
0.0537324751315699
 40
0.0887613094170051
 40
0.1243699037934116
 40
0.1604913889449247
 40
0.1970671608340337
 40
0.2340372156852593
 40
0.2811950089809012
 40
0.323620472486342
 40
0.3612792862452237
 40
0.3941272902620535
 40
0.4221313726443339
 40
0.4503466019256152
 40
0.4853189996676727
 40
0.5270931809017131
 40
0.575600820436746
 40
0.6131883363034228
 40
0.6497495248389835
 40
0.6852912063793768
 40
0.7198288145208355
 40
0.7858107053644227
 40
0.8448767040873028
 40
0.8712600290951195
 40
0.8956772598456585
 40
0.9117054130924112
 40
0.9342229900315894
 40
0.9636206820444131
 40
1.0
 40
1.0
 40
1.0
 40
1.0
 10
133.1306670014252
 20
135.5766008402689
 30
0.0
 10
133.1258124431895
 20
135.5772156607256
 30
0.0
 10
133.1123218159138
 20
135.5789242227042
 30
0.0
 10
133.1760928396337
 20
135.4517680025469
 30
0.0
 10
133.2318304717753
 20
135.2702199084282
 30
0.0
 10
133.305323892119
 20
135.0100954497438
 30
0.0
 10
133.3834115405096
 20
134.6842188166771
 30
0.0
 10
133.4668634523036
 20
134.2922844655595
 30
0.0
 10
133.5611849262276
 20
133.8000982959059
 30
0.0
 10
133.6610590584944
 20
133.2258195727719
 30
0.0
 10
133.7614218764919
 20
132.6014421452801
 30
0.0
 10
133.850648494146
 20
132.0181277330485
 30
0.0
 10
133.9285504813609
 20
131.493317317052
 30
0.0
 10
133.9990442688521
 20
131.0104778576037
 30
0.0
 10
134.0712368258083
 20
130.5118503575481
 30
0.0
 10
134.1543339965563
 20
129.9371204857061
 30
0.0
 10
134.2535170295485
 20
129.2581390649495
 30
0.0
 10
134.3548134283742
 20
128.5850292180705
 30
0.0
 10
134.4520007473315
 20
127.9695044825422
 30
0.0
 10
134.5391783500124
 20
127.4471536328507
 30
0.0
 10
134.6243478313137
 20
126.9713919861774
 30
0.0
 10
134.7337520416977
 20
126.4106755347607
 30
0.0
 10
134.8642038943506
 20
125.8378418214134
 30
0.0
 10
134.9921757705457
 20
125.407647747866
 30
0.0
 10
135.097016633067
 20
125.1446422286518
 30
0.0
 10
135.1584728736621
 20
125.0152667777583
 30
0.0
 10
135.245040141842
 20
124.8700018081273
 30
0.0
 10
135.3669965366661
 20
124.7220427932017
 30
0.0
 10
135.5633143141259
 20
124.5749443635565
 30
0.0
 10
135.7344437693098
 20
124.5537296300277
 30
0.0
 10
135.8290904074694
 20
124.5419963886299
 30
0.0
  0
SPLINE
  5
CC
330
1F
100
AcDbEntity
  8
0
  6
Continuous
 62
     7
370
    15
100
AcDbSpline
210
0.0
220
0.0
230
1.0
 70
     8
 71
     3
 72
    38
 73
    34
 74
     0
 42
0.00000001
 43
0.00000001
 12
1.0
 22
0.0
 32
0.0
 13
1.0
 23
0.0
 33
0.0
 40
0.0
 40
0.0
 40
0.0
 40
0.0
 40
0.009889395857148
 40
0.027728739415132
 40
0.0579799960529069
 40
0.0856436155941729
 40
0.1190973430560853
 40
0.1577443045513822
 40
0.204282696162685
 40
0.2444205242583927
 40
0.2888982481289354
 40
0.3308140250165252
 40
0.3663789615929434
 40
0.395545537260409
 40
0.4182764387205616
 40
0.435628911688802
 40
0.4572422945326397
 40
0.4854188172273839
 40
0.5201877997216965
 40
0.5615793642908282
 40
0.6096365895968728
 40
0.6597988055051599
 40
0.7041654100429837
 40
0.742566853342699
 40
0.7749714158835769
 40
0.801338453496276
 40
0.8216321726261581
 40
0.8415586198967571
 40
0.8668889957138874
 40
0.8978863189173418
 40
0.9324655059823209
 40
0.9664719644246919
 40
1.0
 40
1.0
 40
1.0
 40
1.0
 10
138.1136780737446
 20
135.5872121629117
 30
0.0
 10
138.1112355667562
 20
135.5880163999686
 30
0.0
 10
138.1043870554036
 20
135.5902713890601
 30
0.0
 10
138.1326354066777
 20
135.538199512581
 30
0.0
 10
138.1768716694042
 20
135.4257886594852
 30
0.0
 10
138.2373228852314
 20
135.2444321152108
 30
0.0
 10
138.311399456584
 20
134.9817212837675
 30
0.0
 10
138.4017587364036
 20
134.6046378903664
 30
0.0
 10
138.4984719583101
 20
134.1353558168813
 30
0.0
 10
138.6002816683493
 20
133.5806956070872
 30
0.0
 10
138.6989503260336
 20
132.9946756159771
 30
0.0
 10
138.7942011818576
 20
132.3899954293832
 30
0.0
 10
138.8775506781853
 20
131.8380974423642
 30
0.0
 10
138.9459568219042
 20
131.374329289958
 30
0.0
 10
139.0001525026872
 20
131.0024504222865
 30
0.0
 10
139.0484561439866
 20
130.6692278427377
 30
0.0
 10
139.1010268114324
 20
130.3057344134648
 30
0.0
 10
139.1672666983047
 20
129.8485615442014
 30
0.0
 10
139.2490660595109
 20
129.2896671677861
 30
0.0
 10
139.3465894618912
 20
128.6391452164397
 30
0.0
 10
139.4563888093141
 20
127.9397985704387
 30
0.0
 10
139.5686970833914
 20
127.2752127046987
 30
0.0
 10
139.673769356567
 20
126.7114738782293
 30
0.0
 10
139.7653028181304
 20
126.2730811394971
 30
0.0
 10
139.8429668496643
 20
125.9426622105804
 30
0.0
 10
139.9071746053612
 20
125.7002512453946
 30
0.0
 10
139.9613448440114
 20
125.5167875802328
 30
0.0
 10
140.0198020175403
 20
125.3396811300725
 30
0.0
 10
140.0973466244218
 20
125.141303287906
 30
0.0
 10
140.2013057027502
 20
124.9350597745234
 30
0.0
 10
140.3368203245223
 20
124.7498433047185
 30
0.0
 10
140.5382957434264
 20
124.5818361957726
 30
0.0
 10
140.7316683785276
 20
124.5550820370962
 30
0.0
 10
140.8276697580193
 20
124.5417997226739
 30
0.0
  0
SPLINE
  5
CD
330
1F
100
AcDbEntity
  8
0
  6
Continuous
 62
     7
370
    15
100
AcDbSpline
210
0.0
220
0.0
230
1.0
 70
     8
 71
     3
 72
    19
 73
    15
 74
     0
 42
0.00000001
 43
0.00000001
 12
1.0
 22
0.0
 32
0.0
 13
1.0
 23
0.0
 33
0.0
 40
0.0
 40
0.0
 40
0.0
 40
0.0
 40
0.0341883687607948
 40
0.084332528867449
 40
0.145344602641515
 40
0.2212955325663994
 40
0.2881976078881869
 40
0.3636824854742339
 40
0.4478010104942781
 40
0.5406171812854997
 40
0.6422064870331813
 40
0.7525976627286551
 40
0.8718410697336519
 40
1.0
 40
1.0
 40
1.0
 40
1.0
 10
143.1193762757482
 20
135.583707100484
 30
0.0
 10
143.1167811349795
 20
135.583377935183
 30
0.0
 10
143.1103796951995
 20
135.5825659823682
 30
0.0
 10
143.1478605655144
 20
135.5092232863857
 30
0.0
 10
143.1965196129331
 20
135.3802530818893
 30
0.0
 10
143.257286873097
 20
135.1897511003459
 30
0.0
 10
143.3245754838353
 20
134.93914171707
 30
0.0
 10
143.396649609889
 20
134.6341385837469
 30
0.0
 10
143.4785934761489
 20
134.2431807457402
 30
0.0
 10
143.5704196595511
 20
133.7551569630037
 30
0.0
 10
143.6719829642875
 20
133.1635862333835
 30
0.0
 10
143.7832658491456
 20
132.4652277656644
 30
0.0
 10
143.9041498991517
 20
131.6628203726229
 30
0.0
 10
143.9881063412157
 20
131.0848452163422
 30
0.0
 10
144.0315973119258
 20
130.7854435269062
 30
0.0
  0
SPLINE
  5
CE
330
1F
100
AcDbEntity
  8
0
  6
Continuous
 62
     7
370
    15
100
AcDbSpline
210
0.0
220
0.0
230
1.0
 70
     8
 71
     3
 72
    14
 73
    10
 74
     0
 42
0.00000001
 43
0.00000001
 12
1.0
 22
0.0
 32
0.0
 13
1.0
 23
0.0
 33
0.0
 40
0.0
 40
0.0
 40
0.0
 40
0.0
 40
0.0894297144621585
 40
0.1752268702373088
 40
0.3351586735522931
 40
0.4811457274350101
 40
0.616318618498517
 40
0.8633666603098374
 40
1.0
 40
1.0
 40
1.0
 40
1.0
 10
143.3286751580665
 20
136.541550132981
 30
0.0
 10
143.2696391227033
 20
136.5371869328805
 30
0.0
 10
143.1539650453552
 20
136.5286377621443
 30
0.0
 10
142.9576025834409
 20
136.4370885560565
 30
0.0
 10
142.7722277447662
 20
136.2632460488599
 30
0.0
 10
142.6272263919396
 20
136.0116528654475
 30
0.0
 10
142.5013215052097
 20
135.7004852216871
 30
0.0
 10
142.3835523335364
 20
135.3208651545358
 30
0.0
 10
142.3046970197124
 20
134.9661331552826
 30
0.0
 10
142.2766157382128
 20
134.8398090225783
 30
0.0
  0
SPLINE
  5
CF
330
1F
100
AcDbEntity
  8
0
  6
Continuous
 62
     7
370
    15
100
AcDbSpline
210
0.0
220
0.0
230
1.0
 70
     8
 71
     3
 72
     9
 73
     5
 74
     0
 42
0.00000001
 43
0.00000001
 12
1.0
 22
0.0
 32
0.0
 13
1.0
 23
0.0
 33
0.0
 40
0.0
 40
0.0
 40
0.0
 40
0.0
 40
0.8659961466533487
 40
1.0
 40
1.0
 40
1.0
 40
1.0
 10
142.092827612799
 20
133.9273689525203
 30
0.0
 10
142.0730242547571
 20
133.8212910502445
 30
0.0
 10
142.0501565340191
 20
133.69879870119
 30
0.0
 10
142.0273931042176
 20
133.560259686632
 30
0.0
 10
142.0243427169089
 20
133.5416949248424
 30
0.0
  0
SPLINE
  5
D0
330
1F
100
AcDbEntity
  8
0
  6
Continuous
 62
     7
370
    15
100
AcDbSpline
210
0.0
220
0.0
230
1.0
 70
     8
 71
     3
 72
    11
 73
     7
 74
     0
 42
0.00000001
 43
0.00000001
 12
1.0
 22
0.0
 32
0.0
 13
1.0
 23
0.0
 33
0.0
 40
0.0
 40
0.0
 40
0.0
 40
0.0
 40
0.1949361942754889
 40
0.5018171559087914
 40
0.7897998200362798
 40
1.0
 40
1.0
 40
1.0
 40
1.0
 10
141.104768252644
 20
127.5416949248424
 30
0.0
 10
141.0856619836821
 20
127.4317408848276
 30
0.0
 10
141.0364774103089
 20
127.1486901981862
 30
0.0
 10
140.9599878030904
 20
126.7580142113305
 30
0.0
 10
140.8828204544757
 20
126.3951209092731
 30
0.0
 10
140.8366301716343
 20
126.2114449937042
 30
0.0
 10
140.8171409301218
 20
126.1339459168783
 30
0.0
  0
SPLINE
  5
D1
330
1F
100
AcDbEntity
  8
0
  6
Continuous
 62
     7
370
    15
100
AcDbSpline
210
0.0
220
0.0
230
1.0
 70
     8
 71
     3
 72
    16
 73
    12
 74
     0
 42
0.00000001
 43
0.00000001
 12
1.0
 22
0.0
 32
0.0
 13
1.0
 23
0.0
 33
0.0
 40
0.0
 40
0.0
 40
0.0
 40
0.0
 40
0.078408832306942
 40
0.2056227374831276
 40
0.3355445526438068
 40
0.4375619351224317
 40
0.5491422749141571
 40
0.6794651595516986
 40
0.7894576394543887
 40
0.9098755527443954
 40
0.9999999999999999
 40
0.9999999999999999
 40
0.9999999999999999
 40
0.9999999999999999
 10
138.3283403074125
 20
136.5415177018338
 30
0.0
 10
138.2442135263045
 20
136.5311840748197
 30
0.0
 10
138.0235957908005
 20
136.504084721185
 30
0.0
 10
137.791181160885
 20
136.2957202822892
 30
0.0
 10
137.6269392639657
 20
136.0182083421138
 30
0.0
 10
137.5142720570404
 20
135.7338974736094
 30
0.0
 10
137.4107937182057
 20
135.4048411177727
 30
0.0
 10
137.3069751007605
 20
134.9972797216915
 30
0.0
 10
137.2026741981431
 20
134.5153770060027
 30
0.0
 10
137.1107458398193
 20
134.0420451605178
 30
0.0
 10
137.0508499193295
 20
133.6916741950992
 30
0.0
 10
137.0252109613877
 20
133.5416949248424
 30
0.0
  0
SPLINE
  5
D2
330
1F
100
AcDbEntity
  8
0
  6
Continuous
 62
     7
370
    15
100
AcDbSpline
210
0.0
220
0.0
230
1.0
 70
     8
 71
     3
 72
    12
 73
     8
 74
     0
 42
0.00000001
 43
0.00000001
 12
1.0
 22
0.0
 32
0.0
 13
1.0
 23
0.0
 33
0.0
 40
0.0
 40
0.0
 40
0.0
 40
0.0
 40
0.1829987055790775
 40
0.465975446108575
 40
0.713604383419892
 40
0.9272322134061086
 40
1.0
 40
1.0
 40
1.0
 40
1.0
 10
136.1047545035106
 20
127.5416949248424
 30
0.0
 10
136.0869567275572
 20
127.4392060217607
 30
0.0
 10
136.0416376824669
 20
127.1782352559646
 30
0.0
 10
135.9724559750781
 20
126.8210212443601
 30
0.0
 10
135.9011004862817
 20
126.482980319731
 30
0.0
 10
135.8492531140965
 20
126.2571779278659
 30
0.0
 10
135.8232252561782
 20
126.1585915285027
 30
0.0
 10
135.8166120627464
 20
126.133542562476
 30
0.0
  0
SPLINE
  5
D3
330
1F
100
AcDbEntity
  8
0
  6
Continuous
 62
     7
370
    15
100
AcDbSpline
210
0.0
220
0.0
230
1.0
 70
     8
 71
     3
 72
    17
 73
    13
 74
     0
 42
0.00000001
 43
0.00000001
 12
1.0
 22
0.0
 32
0.0
 13
1.0
 23
0.0
 33
0.0
 40
0.0
 40
0.0
 40
0.0
 40
0.0
 40
0.0838776941075332
 40
0.1577407099545117
 40
0.2497241327325889
 40
0.3207985058782495
 40
0.3797069986514848
 40
0.4403828685175629
 40
0.6126006352286186
 40
0.8003594908048318
 40
0.9343993123785564
 40
1.0
 40
1.0
 40
1.0
 40
1.0
 10
133.3281784525592
 20
136.5413084189101
 30
0.0
 10
133.2506810525308
 20
136.5334559878246
 30
0.0
 10
133.1049391478423
 20
136.518688676116
 30
0.0
 10
132.9030809842665
 20
136.3950272141164
 30
0.0
 10
132.7491415070986
 20
136.224943545444
 30
0.0
 10
132.6464069436837
 20
136.043805005207
 30
0.0
 10
132.5843191471111
 20
135.9054254652102
 30
0.0
 10
132.4865444307648
 20
135.65429482151
 30
0.0
 10
132.3570314061593
 20
135.2186035919769
 30
0.0
 10
132.2117929088976
 20
134.5675054866659
 30
0.0
 10
132.1006935270945
 20
133.9890187030874
 30
0.0
 10
132.0440159193305
 20
133.6523291241843
 30
0.0
 10
132.0253919934697
 20
133.5416949248424
 30
0.0
  0
SPLINE
  5
D4
330
1F
100
AcDbEntity
  8
0
  6
Continuous
 62
     7
370
    15
100
AcDbSpline
210
0.0
220
0.0
230
1.0
 70
     8
 71
     3
 72
    11
 73
     7
 74
     0
 42
0.00000001
 43
0.00000001
 12
1.0
 22
0.0
 32
0.0
 13
1.0
 23
0.0
 33
0.0
 40
0.0
 40
0.0
 40
0.0
 40
0.0
 40
0.1841052841647313
 40
0.4756601380547585
 40
0.7670098599826076
 40
1.0
 40
1.0
 40
1.0
 40
1.0
 10
131.1048754376897
 20
127.5416949248424
 30
0.0
 10
131.0866382546057
 20
127.4370750464977
 30
0.0
 10
131.0395201011926
 20
127.1667758750072
 30
0.0
 10
130.964843828752
 20
126.7826704090432
 30
0.0
 10
130.8866043853684
 20
126.4099358721827
 30
0.0
 10
130.8384917746598
 20
126.2170209946031
 30
0.0
 10
130.8171129615671
 20
126.131299370899
 30
0.0
  0
SPLINE
  5
D5
330
1F
100
AcDbEntity
  8
0
  6
Continuous
 62
     7
370
    15
100
AcDbSpline
210
0.0
220
0.0
230
1.0
 70
     8
 71
     3
 72
    17
 73
    13
 74
     0
 42
0.00000001
 43
0.00000001
 12
1.0
 22
0.0
 32
0.0
 13
1.0
 23
0.0
 33
0.0
 40
0.0
 40
0.0
 40
0.0
 40
0.0
 40
0.0806859119913687
 40
0.1712246290782778
 40
0.2713504029055749
 40
0.3672488779147701
 40
0.4777457372463867
 40
0.593127787210151
 40
0.7245422769604241
 40
0.8336442244973807
 40
0.9503622998705701
 40
0.9999999999999999
 40
0.9999999999999999
 40
0.9999999999999999
 40
0.9999999999999999
 10
128.328468675891
 20
136.5411772327164
 30
0.0
 10
128.2433748245416
 20
136.5309410503596
 30
0.0
 10
128.062796049703
 20
136.5092187139075
 30
0.0
 10
127.8643878949498
 20
136.3624955938479
 30
0.0
 10
127.7097843098378
 20
136.1683121111207
 30
0.0
 10
127.580587922003
 20
135.9102147937664
 30
0.0
 10
127.477165448595
 20
135.6248933918505
 30
0.0
 10
127.3712124935811
 20
135.2596831491551
 30
0.0
 10
127.2672519745151
 20
134.8237933472314
 30
0.0
 10
127.1647360715756
 20
134.3241531570381
 30
0.0
 10
127.0862159901643
 20
133.9055651400402
 30
0.0
 10
127.0389457919817
 20
133.6253163424578
 30
0.0
 10
127.0248411784486
 20
133.5416949248424
 30
0.0
  0
SPLINE
  5
D6
330
1F
100
AcDbEntity
  8
0
  6
Continuous
 62
     7
370
    15
100
AcDbSpline
210
0.0
220
0.0
230
1.0
 70
     8
 71
     3
 72
    11
 73
     7
 74
     0
 42
0.00000001
 43
0.00000001
 12
1.0
 22
0.0
 32
0.0
 13
1.0
 23
0.0
 33
0.0
 40
0.0
 40
0.0
 40
0.0
 40
0.0
 40
0.2398577787362417
 40
0.5219468935901679
 40
0.7949973685955964
 40
1.0
 40
1.0
 40
1.0
 40
1.0
 10
126.1051615395874
 20
127.5416949248424
 30
0.0
 10
126.0816982259303
 20
127.4086819000819
 30
0.0
 10
126.0306404543577
 20
127.1192364818571
 30
0.0
 10
125.9536340172321
 20
126.7287417367776
 30
0.0
 10
125.8801241070044
 20
126.3856766983121
 30
0.0
 10
125.8355238728276
 20
126.2084713086633
 30
0.0
 10
125.8163980367126
 20
126.1324806484417
 30
0.0
  0
SPLINE
  5
D7
330
1F
100
AcDbEntity
  8
0
  6
Continuous
 62
     7
370
    15
100
AcDbSpline
210
0.0
220
0.0
230
1.0
 70
     8
 71
     3
 72
    16
 73
    12
 74
     0
 42
0.00000001
 43
0.00000001
 12
1.0
 22
0.0
 32
0.0
 13
1.0
 23
0.0
 33
0.0
 40
0.0
 40
0.0
 40
0.0
 40
0.0
 40
0.0792944288306239
 40
0.2107257435985966
 40
0.3450665239875877
 40
0.4453329440811381
 40
0.5544119350074809
 40
0.6835055270172701
 40
0.7934372639412057
 40
0.9145120204919476
 40
1.0
 40
1.0
 40
1.0
 40
1.0
 10
125.8052686243927
 20
124.5422086883804
 30
0.0
 10
125.8898711317157
 20
124.5527130133385
 30
0.0
 10
126.1147031473927
 20
124.5806283627577
 30
0.0
 10
126.3484460447495
 20
124.793562157325
 30
0.0
 10
126.5145902130642
 20
125.081018823719
 30
0.0
 10
126.6270936235382
 20
125.372039802249
 30
0.0
 10
126.7282546385462
 20
125.6975279939151
 30
0.0
 10
126.830759079241
 20
126.1026930830042
 30
0.0
 10
126.9347082569572
 20
126.5861312408097
 30
0.0
 10
127.0254053394914
 20
127.0542640554161
 30
0.0
 10
127.0841772288813
 20
127.3990160065722
 30
0.0
 10
127.1085005418451
 20
127.5416949248424
 30
0.0
  0
SPLINE
  5
D8
330
1F
100
AcDbEntity
  8
0
  6
Continuous
 62
     7
370
    15
100
AcDbSpline
210
0.0
220
0.0
230
1.0
 70
     8
 71
     3
 72
    12
 73
     8
 74
     0
 42
0.00000001
 43
0.00000001
 12
1.0
 22
0.0
 32
0.0
 13
1.0
 23
0.0
 33
0.0
 40
0.0
 40
0.0
 40
0.0
 40
0.0
 40
0.2140295764430866
 40
0.4971484979937417
 40
0.7449264472239743
 40
0.9585841767789395
 40
1.0
 40
1.0
 40
1.0
 40
1.0
 10
128.0289313919499
 20
133.5416949248424
 30
0.0
 10
128.0497266705884
 20
133.6606948562268
 30
0.0
 10
128.0980300018957
 20
133.9371082292394
 30
0.0
 10
128.1701636405092
 20
134.3062708480737
 30
0.0
 10
128.2413378681046
 20
134.6386423572149
 30
0.0
 10
128.2901684962723
 20
134.8497830907693
 30
0.0
 10
128.3133170597542
 20
134.9364582125309
 30
0.0
 10
128.3170756493946
 20
134.9505314924984
 30
0.0
  0
SPLINE
  5
D9
330
1F
100
AcDbEntity
  8
0
  6
Continuous
 62
     7
370
    15
100
AcDbSpline
210
0.0
220
0.0
230
1.0
 70
     8
 71
     3
 72
    17
 73
    13
 74
     0
 42
0.00000001
 43
0.00000001
 12
1.0
 22
0.0
 32
0.0
 13
1.0
 23
0.0
 33
0.0
 40
0.0
 40
0.0
 40
0.0
 40
0.0
 40
0.0840757693986689
 40
0.1585208447677733
 40
0.2520619627632177
 40
0.3255459871840993
 40
0.387316366524085
 40
0.4505665955499655
 40
0.6281678939155841
 40
0.8192322888911985
 40
0.9544413728753366
 40
1.0
 40
1.0
 40
1.0
 40
1.0
 10
130.8051701434642
 20
124.5421646768851
 30
0.0
 10
130.8827729072039
 20
124.5500887811918
 30
0.0
 10
131.0290892091815
 20
124.5650293011266
 30
0.0
 10
131.2319271219449
 20
124.6894758909682
 30
0.0
 10
131.387555221395
 20
124.8619940715145
 30
0.0
 10
131.4921602423395
 20
125.0484723468326
 30
0.0
 10
131.5567855445147
 20
125.1951011812783
 30
0.0
 10
131.6578367296615
 20
125.4607677788506
 30
0.0
 10
131.790383099657
 20
125.9168272946943
 30
0.0
 10
131.9381063837991
 20
126.5949474095979
 30
0.0
 10
132.0443989892495
 20
127.1572350947863
 30
0.0
 10
132.0957464571822
 20
127.4643046300201
 30
0.0
 10
132.1086874859256
 20
127.5416949248424
 30
0.0
  0
SPLINE
  5
DA
330
1F
100
AcDbEntity
  8
0
  6
Continuous
 62
     7
370
    15
100
AcDbSpline
210
0.0
220
0.0
230
1.0
 70
     8
 71
     3
 72
    11
 73
     7
 74
     0
 42
0.00000001
 43
0.00000001
 12
1.0
 22
0.0
 32
0.0
 13
1.0
 23
0.0
 33
0.0
 40
0.0
 40
0.0
 40
0.0
 40
0.0
 40
0.2804431282025604
 40
0.5806777124540253
 40
0.8703715604227509
 40
1.0
 40
1.0
 40
1.0
 40
1.0
 10
133.0284227248786
 20
133.5416949248424
 30
0.0
 10
133.0562370468075
 20
133.6987057078775
 30
0.0
 10
133.1138286053337
 20
134.023807852144
 30
0.0
 10
133.1983410746815
 20
134.4451150618862
 30
0.0
 10
133.2671540199998
 20
134.7616787249264
 30
0.0
 10
133.3052561013971
 20
134.9081290385386
 30
0.0
 10
133.3170349013867
 20
134.9534023907858
 30
0.0
  0
SPLINE
  5
DB
330
1F
100
AcDbEntity
  8
0
  6
Continuous
 62
     7
370
    15
100
AcDbSpline
210
0.0
220
0.0
230
1.0
 70
     8
 71
     3
 72
    17
 73
    13
 74
     0
 42
0.00000001
 43
0.00000001
 12
1.0
 22
0.0
 32
0.0
 13
1.0
 23
0.0
 33
0.0
 40
0.0
 40
0.0
 40
0.0
 40
0.0
 40
0.0816828255681834
 40
0.1745307937278956
 40
0.2781604746849864
 40
0.375921914691768
 40
0.4840524382458706
 40
0.5967880805827586
 40
0.7276884504776862
 40
0.8377811490765813
 40
0.9565813563964046
 40
1.0
 40
1.0
 40
1.0
 40
1.0
 10
135.8060881887151
 20
124.541952735729
 30
0.0
 10
135.8916279911714
 20
124.5525748588065
 30
0.0
 10
136.074399944935
 20
124.575271032193
 30
0.0
 10
136.2746806574396
 20
124.7263856513844
 30
0.0
 10
136.4312023663864
 20
124.9266939461274
 30
0.0
 10
136.560928732818
 20
125.1914485053911
 30
0.0
 10
136.663197073677
 20
125.4795032517892
 30
0.0
 10
136.7668699054555
 20
125.8411345080769
 30
0.0
 10
136.8699546871345
 20
126.274681539353
 30
0.0
 10
136.9730389503497
 20
126.7796063988815
 30
0.0
 10
137.0505696579339
 20
127.1945304592799
 30
0.0
 10
137.0966137168068
 20
127.4683940405034
 30
0.0
 10
137.1089376271962
 20
127.5416949248424
 30
0.0
  0
SPLINE
  5
DC
330
1F
100
AcDbEntity
  8
0
  6
Continuous
 62
     7
370
    15
100
AcDbSpline
210
0.0
220
0.0
230
1.0
 70
     8
 71
     3
 72
    11
 73
     7
 74
     0
 42
0.00000001
 43
0.00000001
 12
1.0
 22
0.0
 32
0.0
 13
1.0
 23
0.0
 33
0.0
 40
0.0
 40
0.0
 40
0.0
 40
0.0
 40
0.2711875237304233
 40
0.5531698697792392
 40
0.8260993768423219
 40
1.0
 40
1.0
 40
1.0
 40
1.0
 10
138.0283899786688
 20
133.5416949248424
 30
0.0
 10
138.0548991941711
 20
133.6910248075279
 30
0.0
 10
138.1089728443363
 20
133.9956287606264
 30
0.0
 10
138.1889103343058
 20
134.3973127456003
 30
0.0
 10
138.2593072486606
 20
134.7219982348703
 30
0.0
 10
138.3008931478903
 20
134.8849958061158
 30
0.0
 10
138.3170778527737
 20
134.9484323948677
 30
0.0
  0
SPLINE
  5
DD
330
1F
100
AcDbEntity
  8
0
  6
Continuous
 62
     7
370
    15
100
AcDbSpline
210
0.0
220
0.0
230
1.0
 70
     8
 71
     3
 72
    17
 73
    13
 74
     0
 42
0.00000001
 43
0.00000001
 12
1.0
 22
0.0
 32
0.0
 13
1.0
 23
0.0
 33
0.0
 40
0.0
 40
0.0
 40
0.0
 40
0.0
 40
0.0838797861863343
 40
0.1604239338083846
 40
0.261315964017292
 40
0.3470466722540872
 40
0.422285685257218
 40
0.4941662453977153
 40
0.6713865275928115
 40
0.8289533706915562
 40
0.9793573627575257
 40
1.0
 40
1.0
 40
1.0
 40
1.0
 10
140.8046517582953
 20
124.5418266854777
 30
0.0
 10
140.8816848331215
 20
124.5496241153301
 30
0.0
 10
141.02901411779
 20
124.5645370571413
 30
0.0
 10
141.2349614690311
 20
124.691885395788
 30
0.0
 10
141.3983221688413
 20
124.8769861170639
 30
0.0
 10
141.5129957321782
 20
125.0905540231595
 30
0.0
 10
141.5884034688743
 20
125.274163987684
 30
0.0
 10
141.6953759862244
 20
125.5811996465742
 30
0.0
 10
141.8201336837383
 20
126.0438086406834
 30
0.0
 10
141.9612090541825
 20
126.7135456857975
 30
0.0
 10
142.0546264046423
 20
127.21012680729
 30
0.0
 10
142.1031947167808
 20
127.5059890113348
 30
0.0
 10
142.1090561479766
 20
127.5416949248424
 30
0.0
  0
SPLINE
  5
DE
330
1F
100
AcDbEntity
  8
0
  6
Continuous
 62
     7
370
    15
100
AcDbSpline
210
0.0
220
0.0
230
1.0
 70
     8
 71
     3
 72
    21
 73
    17
 74
     0
 42
0.00000001
 43
0.00000001
 12
1.0
 22
0.0
 32
0.0
 13
1.0
 23
0.0
 33
0.0
 40
0.0
 40
0.0
 40
0.0
 40
0.0
 40
0.1062914742665269
 40
0.205603683650102
 40
0.297905355491297
 40
0.3831535516554953
 40
0.4856855057716026
 40
0.5754806351793876
 40
0.6523970784406851
 40
0.7162911142255829
 40
0.7670438960553794
 40
0.8118756264280983
 40
0.8508000334316671
 40
0.8949814424554529
 40
0.9447307920449425
 40
1.0
 40
1.0
 40
1.0
 40
1.0
 10
145.0315753712617
 20
130.785729331212
 30
0.0
 10
144.9864596396368
 20
131.0968505618327
 30
0.0
 10
144.8991905460747
 20
131.6986643151821
 30
0.0
 10
144.7722726118541
 20
132.5426835169941
 30
0.0
 10
144.653808017374
 20
133.2852246182951
 30
0.0
 10
144.533257831698
 20
133.9831753295949
 30
0.0
 10
144.412520204962
 20
134.606587416668
 30
0.0
 10
144.2934766711064
 20
135.1296176363123
 30
0.0
 10
144.1893094566675
 20
135.5117193183009
 30
0.0
 10
144.0989629160451
 20
135.7822316984457
 30
0.0
 10
144.0215735376017
 20
135.971622974044
 30
0.0
 10
143.9441723604969
 20
136.1239495274205
 30
0.0
 10
143.8429786300132
 20
136.2735850204211
 30
0.0
 10
143.7114179318403
 20
136.4060811635869
 30
0.0
 10
143.5314793683813
 20
136.5183466767997
 30
0.0
 10
143.3835117845112
 20
136.5335497424535
 30
0.0
 10
143.3056393460133
 20
136.5415508178523
 30
0.0
  0
SPLINE
  5
DF
330
1F
100
AcDbEntity
  8
0
  6
Continuous
 62
     7
370
    15
100
AcDbSpline
210
0.0
220
0.0
230
1.0
 70
     8
 71
     3
 72
    38
 73
    34
 74
     0
 42
0.00000001
 43
0.00000001
 12
1.0
 22
0.0
 32
0.0
 13
1.0
 23
0.0
 33
0.0
 40
0.0
 40
0.0
 40
0.0
 40
0.0
 40
0.0292839184371968
 40
0.0574641878322005
 40
0.0803485214573407
 40
0.0996709679533171
 40
0.1235939759745469
 40
0.1530703611289345
 40
0.188127482418057
 40
0.2287969434311749
 40
0.2751185831490178
 40
0.3231630122731112
 40
0.3652256680663291
 40
0.4010635637650404
 40
0.4306256309122112
 40
0.4538745436307189
 40
0.4712184034052262
 40
0.4913163415120033
 40
0.5175759421214772
 40
0.5500204006105639
 40
0.5886745573342077
 40
0.6325857265934003
 40
0.6739637312817583
 40
0.7111082885725136
 40
0.7540003156364365
 40
0.7892936016457157
 40
0.8233449171635376
 40
0.8526797736177231
 40
0.8854770707798036
 40
0.9058722427968543
 40
0.9315370718662602
 40
0.9628864097515741
 40
1.0
 40
1.0
 40
1.0
 40
1.0
 10
141.0125885488119
 20
125.4976106756749
 30
0.0
 10
141.0119788869387
 20
125.5058529468102
 30
0.0
 10
141.0107825400608
 20
125.5220268552883
 30
0.0
 10
140.9773527081206
 20
125.6043407801767
 30
0.0
 10
140.9377673515002
 20
125.7142081512873
 30
0.0
 10
140.8888474573291
 20
125.8665020950735
 30
0.0
 10
140.8343483574073
 20
126.0594380207019
 30
0.0
 10
140.7664349581876
 20
126.331286132362
 30
0.0
 10
140.6848092152941
 20
126.701781307787
 30
0.0
 10
140.5893026148537
 20
127.1903027762433
 30
0.0
 10
140.4830942621412
 20
127.7942140059147
 30
0.0
 10
140.3754388280263
 20
128.4602780316342
 30
0.0
 10
140.2759411952938
 20
129.112169672701
 30
0.0
 10
140.190961513983
 20
129.687064536286
 30
0.0
 10
140.1207988478443
 20
130.1692070697658
 30
0.0
 10
140.0652348525974
 20
130.5531738972725
 30
0.0
 10
140.0171600950626
 20
130.8854524416125
 30
0.0
 10
139.9666946928407
 20
131.2333354162968
 30
0.0
 10
139.9042361478224
 20
131.6607002733369
 30
0.0
 10
139.8270148868442
 20
132.1804760777229
 30
0.0
 10
139.7356762584414
 20
132.7766390238552
 30
0.0
 10
139.6371289879029
 20
133.3870826385546
 30
0.0
 10
139.5395699028832
 20
133.9485755570272
 30
0.0
 10
139.4425024788965
 20
134.4603994502851
 30
0.0
 10
139.3495546887411
 20
134.8976795011528
 30
0.0
 10
139.258550017461
 20
135.2696946431436
 30
0.0
 10
139.1755115182426
 20
135.5620104243369
 30
0.0
 10
139.0860890924639
 20
135.8212325149121
 30
0.0
 10
139.0105263099957
 20
136.0001550429137
 30
0.0
 10
138.911917856737
 20
136.1797142940069
 30
0.0
 10
138.7814876284841
 20
136.3474611654613
 30
0.0
 10
138.5792342383109
 20
136.5053807833314
 30
0.0
 10
138.4016416350239
 20
136.528821447012
 30
0.0
 10
138.3053691078444
 20
136.5415285749527
 30
0.0
  0
SPLINE
  5
E0
330
1F
100
AcDbEntity
  8
0
  6
Continuous
 62
     7
370
    15
100
AcDbSpline
210
0.0
220
0.0
230
1.0
 70
     8
 71
     3
 72
    36
 73
    32
 74
     0
 42
0.00000001
 43
0.00000001
 12
1.0
 22
0.0
 32
0.0
 13
1.0
 23
0.0
 33
0.0
 40
0.0
 40
0.0
 40
0.0
 40
0.0
 40
0.0156846718422787
 40
0.0358371652865804
 40
0.0548404549050507
 40
0.0746361733503339
 40
0.1058097530508955
 40
0.1387705037807125
 40
0.1735078761346325
 40
0.2100017645995702
 40
0.2482376592369845
 40
0.2864927448186236
 40
0.3206819926071371
 40
0.350601221520598
 40
0.3838096233949024
 40
0.4093461068920066
 40
0.4302270485864551
 40
0.4594834080100791
 40
0.4986193521338066
 40
0.5476845462164726
 40
0.5909635727474254
 40
0.6350559989855332
 40
0.6772679340720064
 40
0.7176244542605597
 40
0.7685610075169012
 40
0.8162915207919734
 40
0.8612062927195896
 40
0.8948066170134299
 40
0.9290174697486854
 40
0.9640929501305574
 40
1.0
 40
1.0
 40
1.0
 40
1.0
 10
136.0114914305887
 20
125.5054709251682
 30
0.0
 10
136.0143413816039
 20
125.5060197733289
 30
0.0
 10
136.0208530999629
 20
125.5072738105477
 30
0.0
 10
135.9910260877957
 20
125.5677112614144
 30
0.0
 10
135.9546741403462
 20
125.6611306219989
 30
0.0
 10
135.9092630533344
 20
125.7936732734368
 30
0.0
 10
135.8512908662487
 20
125.9904316533411
 30
0.0
 10
135.7796964682439
 20
126.2726364946649
 30
0.0
 10
135.7017211687009
 20
126.6217110417452
 30
0.0
 10
135.6180016608216
 20
127.0400697344052
 30
0.0
 10
135.5303621700087
 20
127.5218734521006
 30
0.0
 10
135.4439239238417
 20
128.0350674687207
 30
0.0
 10
135.3639544434323
 20
128.537532435852
 30
0.0
 10
135.2878056941865
 20
129.0346044823387
 30
0.0
 10
135.2183369112437
 20
129.5011890615031
 30
0.0
 10
135.1559133031456
 20
129.9276759517282
 30
0.0
 10
135.0965574494721
 20
130.3365357642708
 30
0.0
 10
135.0265157279645
 20
130.8210562734052
 30
0.0
 10
134.9343127280536
 20
131.4569395956728
 30
0.0
 10
134.8310362092242
 20
132.1558105351208
 30
0.0
 10
134.7239543077346
 20
132.8520199856387
 30
0.0
 10
134.6219559830941
 20
133.478178550499
 30
0.0
 10
134.5215968111356
 20
134.0481249886457
 30
0.0
 10
134.4144957071404
 20
134.59982580369
 30
0.0
 10
134.3006668939922
 20
135.1101150997216
 30
0.0
 10
134.1770806844268
 20
135.5583499856931
 30
0.0
 10
134.0647969014852
 20
135.8784780623762
 30
0.0
 10
133.9358699561688
 20
136.1417894907026
 30
0.0
 10
133.7815152769757
 20
136.3459392038166
 30
0.0
 10
133.5753539973986
 20
136.5066992180013
 30
0.0
 10
133.3959166939872
 20
136.5296859803514
 30
0.0
 10
133.3051469767171
 20
136.5413140079679
 30
0.0
  0
LWPOLYLINE
  5
E1
330
1F
100
AcDbEntity
  8
0
  6
Continuous
 62
     7
370
    15
100
AcDbPolyline
 90
       31
 70
   128
 43
0.0
 10
131.0154582175
 20
125.4939809076
 10
131.0223957201
 20
125.4916040942
 10
130.9950430697
 20
125.5603624362
 10
130.9533126483
 20
125.671537243
 10
130.9105896904
 20
125.7994023075
 10
130.8688668085
 20
125.9384641985
 10
130.8135931288
 20
126.1444142907
 10
130.7428039408
 20
126.4417349688
 10
130.6564674062
 20
126.8506772415
 10
130.554559877
 20
127.391623155
 10
130.4511093456
 20
127.9962527641
 10
130.358926884
 20
128.5730041886
 10
130.2538649493
 20
129.2631903402
 10
130.1695201163
 20
129.8349163089
 10
130.0924447138
 20
130.3651837024
 10
130.0023947221
 20
130.9872566963
 10
129.8991329694
 20
131.6941055802
 10
129.7827206831
 20
132.4686128701
 10
129.6930145512
 20
133.0395604173
 10
129.6055475375
 20
133.5669147061
 10
129.5201623552
 20
134.0476073407
 10
129.4366741965
 20
134.4803052629
 10
129.2745869175
 20
135.1997294431
 10
129.1194925681
 20
135.722329172
 10
129.0431414288
 20
135.9193530919
 10
128.9654312104
 20
136.0817380664
 10
128.8982338622
 20
136.1927771965
 10
128.7774005961
 20
136.3388716711
 10
128.5826208016
 20
136.4779762162
 10
128.3054724788
 20
136.5411829732
 10
128.3054724788
 20
136.5411829732
  0
SPLINE
  5
E2
330
1F
100
AcDbEntity
  8
0
  6
Continuous
 62
     7
370
    15
100
AcDbSpline
210
0.0
220
0.0
230
1.0
 70
     8
 71
     3
 72
    15
 73
    11
 74
     0
 42
0.00000001
 43
0.00000001
 12
1.0
 22
0.0
 32
0.0
 13
1.0
 23
0.0
 33
0.0
 40
0.0
 40
0.0
 40
0.0
 40
0.0
 40
0.0173873551652363
 40
0.0833990412138318
 40
0.1458854071196718
 40
0.2229991688945255
 40
0.3663640086728576
 40
0.5433600340904091
 40
0.754422383336194
 40
1.0
 40
1.0
 40
1.0
 40
1.0
 10
126.0275107987236
 20
125.4871659286098
 30
0.0
 10
126.0287499115947
 20
125.4865405327288
 30
0.0
 10
126.034693358682
 20
125.4835408000866
 30
0.0
 10
126.0209427812209
 20
125.5056891937307
 30
0.0
 10
125.9943816021394
 20
125.5644318559898
 30
0.0
 10
125.9544094493094
 20
125.6632549291945
 30
0.0
 10
125.8930406640043
 20
125.8447749356044
 30
0.0
 10
125.8065493822314
 20
126.1586876632554
 30
0.0
 10
125.6998526437302
 20
126.6205197133504
 30
0.0
 10
125.6209022963976
 20
127.0366627158238
 30
0.0
 10
125.578443380008
 20
127.2604613632663
 30
0.0
  0
SPLINE
  5
E3
330
1F
100
AcDbEntity
  8
0
  6
Continuous
 62
     7
370
    15
100
AcDbSpline
210
0.0
220
0.0
230
1.0
 70
     8
 71
     3
 72
    15
 73
    11
 74
     0
 42
0.00000001
 43
0.00000001
 12
1.0
 22
0.0
 32
0.0
 13
1.0
 23
0.0
 33
0.0
 40
0.0
 40
0.0
 40
0.0
 40
0.0
 40
0.1257569065527968
 40
0.2330367272132212
 40
0.3223969108810302
 40
0.3958650730294752
 40
0.5264398711902399
 40
0.6625043142690699
 40
0.9522163846166201
 40
1.0
 40
1.0
 40
1.0
 40
1.0
 10
105.855674199471
 20
124.5527931760397
 30
0.0
 10
105.9433968329945
 20
124.5703990891051
 30
0.0
 10
106.1059532760498
 20
124.6030241311232
 30
0.0
 10
106.2861573084506
 20
124.7449488302521
 30
0.0
 10
106.3996036506607
 20
124.8864100633437
 30
0.0
 10
106.4841865923404
 20
125.0318856284549
 30
0.0
 10
106.5483348106262
 20
125.1697234400941
 30
0.0
 10
106.6599248979039
 20
125.4654101452637
 30
0.0
 10
106.7446301472884
 20
125.7377321646057
 30
0.0
 10
106.8028132232814
 20
126.0039964562665
 30
0.0
 10
106.8110509514736
 20
126.0416949248424
 30
0.0
  0
SPLINE
  5
E4
330
1F
100
AcDbEntity
  8
0
  6
Continuous
 62
     7
370
    15
100
AcDbSpline
210
0.0
220
0.0
230
1.0
 70
     8
 71
     3
 72
    15
 73
    11
 74
     0
 42
0.00000001
 43
0.00000001
 12
1.0
 22
0.0
 32
0.0
 13
1.0
 23
0.0
 33
0.0
 40
0.0
 40
0.0
 40
0.0
 40
0.0
 40
0.1167115096603552
 40
0.2218892198196858
 40
0.3581312620962543
 40
0.4712044040745111
 40
0.5755307409453626
 40
0.681230309542049
 40
0.9698856157293055
 40
1.0
 40
1.0
 40
1.0
 40
1.0
 10
110.8056494034281
 20
124.5421547261873
 30
0.0
 10
110.8802934590357
 20
124.5494128337052
 30
0.0
 10
111.0222050092431
 20
124.5632117796637
 30
0.0
 10
111.2174831876596
 20
124.6769951327031
 30
0.0
 10
111.3698172788068
 20
124.8381978002735
 30
0.0
 10
111.4701998567797
 20
125.0076105715059
 30
0.0
 10
111.543422675484
 20
125.1636837587382
 30
0.0
 10
111.6554401395966
 20
125.4553210102831
 30
0.0
 10
111.7437895530252
 20
125.7298062553196
 30
0.0
 10
111.8052595428907
 20
126.0147738472582
 30
0.0
 10
111.8110666536398
 20
126.0416949248424
 30
0.0
  0
SPLINE
  5
E5
330
1F
100
AcDbEntity
  8
0
  6
Continuous
 62
     7
370
    15
100
AcDbSpline
210
0.0
220
0.0
230
1.0
 70
     8
 71
     3
 72
     9
 73
     5
 74
     0
 42
0.00000001
 43
0.00000001
 12
1.0
 22
0.0
 32
0.0
 13
1.0
 23
0.0
 33
0.0
 40
0.0
 40
0.0
 40
0.0
 40
0.0
 40
0.1635548496104992
 40
1.0
 40
1.0
 40
1.0
 40
1.0
 10
112.0785016404768
 20
127.3621712851988
 30
0.0
 10
112.0801719899452
 20
127.3711789818313
 30
0.0
 10
112.0903847685472
 20
127.4262534516737
 30
0.0
 10
112.1005174820944
 20
127.4891148298882
 30
0.0
 10
112.1089929412014
 20
127.5416949248424
 30
0.0
  0
SPLINE
  5
E6
330
1F
100
AcDbEntity
  8
0
  6
Continuous
 62
     7
370
    15
100
AcDbSpline
210
0.0
220
0.0
230
1.0
 70
     8
 71
     3
 72
    12
 73
     8
 74
     0
 42
0.00000001
 43
0.00000001
 12
1.0
 22
0.0
 32
0.0
 13
1.0
 23
0.0
 33
0.0
 40
0.0
 40
0.0
 40
0.0
 40
0.0
 40
0.1219661898320876
 40
0.4034955028155801
 40
0.6849988560119133
 40
0.9662073150698036
 40
1.0
 40
1.0
 40
1.0
 40
1.0
 10
113.0288668868481
 20
133.5416949248424
 30
0.0
 10
113.0408827353352
 20
133.6113855123895
 30
0.0
 10
113.0806342503552
 20
133.8419398873565
 30
0.0
 10
113.1473473953564
 20
134.1930580806497
 30
0.0
 10
113.2281996735017
 20
134.5824422411037
 30
0.0
 10
113.2848392436827
 20
134.8353398708654
 30
0.0
 10
113.3134634904907
 20
134.9403455855011
 30
0.0
 10
113.3165342417314
 20
134.9516103859574
 30
0.0
  0
SPLINE
  5
E7
330
1F
100
AcDbEntity
  8
0
  6
Continuous
 62
     7
370
    15
100
AcDbSpline
210
0.0
220
0.0
230
1.0
 70
     8
 71
     3
 72
    19
 73
    15
 74
     0
 42
0.00000001
 43
0.00000001
 12
1.0
 22
0.0
 32
0.0
 13
1.0
 23
0.0
 33
0.0
 40
0.0
 40
0.0
 40
0.0
 40
0.0
 40
0.101458398688563
 40
0.1882565776084281
 40
0.2733636951170206
 40
0.3395302885753251
 40
0.3959857223143333
 40
0.4486235564916827
 40
0.4975290679244961
 40
0.5932335125838859
 40
0.6865996903028231
 40
0.7998747619918732
 40
0.8979755834983345
 40
0.9999999999999999
 40
0.9999999999999999
 40
0.9999999999999999
 40
0.9999999999999999
 10
115.8055614520058
 20
124.5422022348555
 30
0.0
 10
115.8993836375835
 20
124.5542340395073
 30
0.0
 10
116.0734711827144
 20
124.5765591145675
 30
0.0
 10
116.2836046061129
 20
124.735587812366
 30
0.0
 10
116.4252698573304
 20
124.922032568166
 30
0.0
 10
116.5108944231972
 20
125.0880684384657
 30
0.0
 10
116.5703702993337
 20
125.2270166579283
 30
0.0
 10
116.6237255676254
 20
125.3702442853263
 30
0.0
 10
116.6871256410786
 20
125.5624987815832
 30
0.0
 10
116.7594854500911
 20
125.8170237975601
 30
0.0
 10
116.8466292197431
 20
126.1737840391695
 30
0.0
 10
116.9342937924635
 20
126.5840986957601
 30
0.0
 10
117.0236710037093
 20
127.0471136591121
 30
0.0
 10
117.0805548532576
 20
127.3746936911966
 30
0.0
 10
117.1095544018217
 20
127.5416949248424
 30
0.0
  0
SPLINE
  5
E8
330
1F
100
AcDbEntity
  8
0
  6
Continuous
 62
     7
370
    15
100
AcDbSpline
210
0.0
220
0.0
230
1.0
 70
     8
 71
     3
 72
    12
 73
     8
 74
     0
 42
0.00000001
 43
0.00000001
 12
1.0
 22
0.0
 32
0.0
 13
1.0
 23
0.0
 33
0.0
 40
0.0
 40
0.0
 40
0.0
 40
0.0
 40
0.0023639358568886
 40
0.3492632524112227
 40
0.658746866825134
 40
0.9309353859507207
 40
1.0
 40
1.0
 40
1.0
 40
1.0
 10
118.0279768788897
 20
133.5416949248424
 30
0.0
 10
118.0282080829263
 20
133.5430774055383
 30
0.0
 10
118.0623676704451
 20
133.747334091618
 30
0.0
 10
118.1264852174943
 20
134.086575764827
 30
0.0
 10
118.216210857402
 20
134.5281563813746
 30
0.0
 10
118.2787473472298
 20
134.8058704547532
 30
0.0
 10
118.3108040948082
 20
134.9262778035843
 30
0.0
 10
118.3172919089378
 20
134.9506464796997
 30
0.0
  0
SPLINE
  5
E9
330
1F
100
AcDbEntity
  8
0
  6
Continuous
 62
     7
370
    15
100
AcDbSpline
210
0.0
220
0.0
230
1.0
 70
     8
 71
     3
 72
    17
 73
    13
 74
     0
 42
0.00000001
 43
0.00000001
 12
1.0
 22
0.0
 32
0.0
 13
1.0
 23
0.0
 33
0.0
 40
0.0
 40
0.0
 40
0.0
 40
0.0
 40
0.0631261774977395
 40
0.1230485511662251
 40
0.2327408270398797
 40
0.329983542301768
 40
0.4171888349201361
 40
0.5788807029451168
 40
0.7277289280725282
 40
0.8218083272415855
 40
0.9281036596530945
 40
1.0
 40
1.0
 40
1.0
 40
1.0
 10
120.8049678734482
 20
124.5420668504527
 30
0.0
 10
120.8632460321185
 20
124.5462767166693
 30
0.0
 10
120.9768445941297
 20
124.5544827883671
 30
0.0
 10
121.1698597931924
 20
124.642887831766
 30
0.0
 10
121.3517725621984
 20
124.8084206155678
 30
0.0
 10
121.4940258208585
 20
125.047274279917
 30
0.0
 10
121.6127578468097
 20
125.3279405243348
 30
0.0
 10
121.7397451844984
 20
125.7294916740566
 30
0.0
 10
121.8601382492729
 20
126.2297636616705
 30
0.0
 10
121.9602330621686
 20
126.7151142614293
 30
0.0
 10
122.0378046137735
 20
127.1237168019854
 30
0.0
 10
122.088362958741
 20
127.4215328386818
 30
0.0
 10
122.1087621161253
 20
127.5416949248424
 30
0.0
  0
SPLINE
  5
EA
330
1F
100
AcDbEntity
  8
0
  6
Continuous
 62
     7
370
    15
100
AcDbSpline
210
0.0
220
0.0
230
1.0
 70
     8
 71
     3
 72
    11
 73
     7
 74
     0
 42
0.00000001
 43
0.00000001
 12
1.0
 22
0.0
 32
0.0
 13
1.0
 23
0.0
 33
0.0
 40
0.0
 40
0.0
 40
0.0
 40
0.0
 40
0.117507461598299
 40
0.4432450147471087
 40
0.7484988185616879
 40
1.0
 40
1.0
 40
1.0
 40
1.0
 10
123.0290010424783
 20
133.5416949248424
 30
0.0
 10
123.0405342247237
 20
133.6091812111804
 30
0.0
 10
123.0840380623941
 20
133.8637434285601
 30
0.0
 10
123.1567405809455
 20
134.2406849747899
 30
0.0
 10
123.2415512046625
 20
134.6477665983232
 30
0.0
 10
123.2932454678338
 20
134.8564428867864
 30
0.0
 10
123.3165971550312
 20
134.9507075713906
 30
0.0
  0
SPLINE
  5
EB
330
1F
100
AcDbEntity
  8
0
  6
Continuous
 62
     7
370
    15
100
AcDbSpline
210
0.0
220
0.0
230
1.0
 70
     8
 71
     3
 72
    27
 73
    23
 74
     0
 42
0.00000001
 43
0.00000001
 12
1.0
 22
0.0
 32
0.0
 13
1.0
 23
0.0
 33
0.0
 40
0.0
 40
0.0
 40
0.0
 40
0.0
 40
0.0527338201703923
 40
0.1025630796789177
 40
0.1494639619424681
 40
0.1934299792522803
 40
0.2474454082413217
 40
0.296176024927995
 40
0.3395944414046009
 40
0.3947064675398442
 40
0.4447252382150659
 40
0.495811628402543
 40
0.548005558854452
 40
0.6013394033250498
 40
0.6555219469783706
 40
0.7096047301730876
 40
0.7636501800995839
 40
0.8178397085988935
 40
0.874207423642449
 40
0.9346892769112563
 40
0.9667768716983473
 40
1.0
 40
1.0
 40
1.0
 40
1.0
 10
125.5784323250264
 20
127.2604344734018
 30
0.0
 10
125.5465797891439
 20
127.4392291261311
 30
0.0
 10
125.4846291440904
 20
127.7869704836656
 30
0.0
 10
125.3943061401909
 20
128.3439646913432
 30
0.0
 10
125.3092284493231
 20
128.8924447605989
 30
0.0
 10
125.2216126672094
 20
129.4779223374349
 30
0.0
 10
125.1328359556831
 20
130.0855624403646
 30
0.0
 10
125.0443714855866
 20
130.6975852279016
 30
0.0
 10
124.9552350733526
 20
131.3128734238178
 30
0.0
 10
124.865308883753
 20
131.9253642700146
 30
0.0
 10
124.7707635434902
 20
132.5505891674276
 30
0.0
 10
124.677784055694
 20
133.1395214261682
 30
0.0
 10
124.5825395155403
 20
133.7071888354695
 30
0.0
 10
124.485021261772
 20
134.2436056115192
 30
0.0
 10
124.3857020614458
 20
134.735436626497
 30
0.0
 10
124.2833269064049
 20
135.1771754720641
 30
0.0
 10
124.1751119409095
 20
135.5647630055715
 30
0.0
 10
124.0628713888514
 20
135.8868902200899
 30
0.0
 10
123.9127014816409
 20
136.1950738855678
 30
0.0
 10
123.7154618383869
 20
136.4108281444543
 30
0.0
 10
123.5002872912972
 20
136.5245345253026
 30
0.0
 10
123.3713192817329
 20
136.535743919265
 30
0.0
 10
123.3057141172832
 20
136.5414460630507
 30
0.0
  0
LWPOLYLINE
  5
EC
330
1F
100
AcDbEntity
  8
0
  6
Continuous
 62
     7
370
    15
100
AcDbPolyline
 90
       27
 70
   128
 43
0.0
 10
121.0088707226
 20
125.5028157468
 10
121.0148169214
 20
125.5013411579
 10
120.9886106389
 20
125.5720696538
 10
120.9343228541
 20
125.7195360679
 10
120.8700577842
 20
125.9298578846
 10
120.7979691962
 20
126.205245233
 10
120.7199018447
 20
126.5452586262
 10
120.6374176031
 20
126.9474488748
 10
120.5542995382
 20
127.3935652694
 10
120.4721268578
 20
127.8699411571
 10
120.3910440997
 20
128.3688474838
 10
120.3111785787
 20
128.88306097
 10
120.1556348139
 20
129.9300694544
 10
120.008507011
 20
130.9450855966
 10
119.8708384397
 20
131.8850437789
 10
119.7401740719
 20
132.7427408686
 10
119.6092695703
 20
133.5449158711
 10
119.477356536
 20
134.2741739087
 10
119.3349973754
 20
134.9505648725
 10
119.1672398966
 20
135.5754570438
 10
119.070736353
 20
135.8491991332
 10
118.948598777
 20
136.1084370999
 10
118.8515177119
 20
136.2530702058
 10
118.7162305454
 20
136.3913686437
 10
118.5341700409
 20
136.4989254186
 10
118.3052903613
 20
136.54123615
 10
118.3052903613
 20
136.54123615
  0
SPLINE
  5
ED
330
1F
100
AcDbEntity
  8
0
  6
Continuous
 62
     7
370
    15
100
AcDbSpline
210
0.0
220
0.0
230
1.0
 70
     8
 71
     3
 72
    35
 73
    31
 74
     0
 42
0.00000001
 43
0.00000001
 12
1.0
 22
0.0
 32
0.0
 13
1.0
 23
0.0
 33
0.0
 40
0.0
 40
0.0
 40
0.0
 40
0.0
 40
0.0174087418318566
 40
0.045464970102009
 40
0.0739073155139557
 40
0.105407937250176
 40
0.1401907719509653
 40
0.1782754229125869
 40
0.2196656074523033
 40
0.2643510294404378
 40
0.3094138349399195
 40
0.349175531270546
 40
0.3936219454077076
 40
0.4282309570029367
 40
0.4531589001621623
 40
0.4735789965975862
 40
0.5005832996446362
 40
0.5341942660411986
 40
0.5744495790579867
 40
0.618505769055268
 40
0.6586720464359087
 40
0.694515962258745
 40
0.7260184068957886
 40
0.7615706962094727
 40
0.7991013417866004
 40
0.8430325157451496
 40
0.8794816488711678
 40
0.9175311010593385
 40
0.957669860404955
 40
1.0
 40
1.0
 40
1.0
 40
1.0
 10
116.0294133968811
 20
125.4804021164159
 30
0.0
 10
116.0311886393421
 20
125.4805665791322
 30
0.0
 10
116.0358248931389
 20
125.4809960927957
 30
0.0
 10
115.9966083320876
 20
125.5553453848688
 30
0.0
 10
115.936860918203
 20
125.7120925304493
 30
0.0
 10
115.8693527339816
 20
125.9272081771388
 30
0.0
 10
115.7917886228639
 20
126.221702248275
 30
0.0
 10
115.7047489605112
 20
126.605625611043
 30
0.0
 10
115.6085678564226
 20
127.0873802378136
 30
0.0
 10
115.50584699935
 20
127.6607061263834
 30
0.0
 10
115.4039003266634
 20
128.2811806333949
 30
0.0
 10
115.302102096274
 20
128.9380273057002
 30
0.0
 10
115.2083051164551
 20
129.5681482550367
 30
0.0
 10
115.1261690485179
 20
130.1320069262834
 30
0.0
 10
115.0629863197078
 20
130.5686989201348
 30
0.0
 10
115.0058160617962
 20
130.9639162692606
 30
0.0
 10
114.9417486590819
 20
131.4049773280175
 30
0.0
 10
114.8619384447516
 20
131.9474158985957
 30
0.0
 10
114.7685730918691
 20
132.5651712514016
 30
0.0
 10
114.6699415702568
 20
133.1881981725291
 30
0.0
 10
114.5746066628173
 20
133.7517242203537
 30
0.0
 10
114.4890818980248
 20
134.2190555191296
 30
0.0
 10
114.4067863558903
 20
134.6318408248579
 30
0.0
 10
114.3232898724898
 20
135.0105863661821
 30
0.0
 10
114.2251995435275
 20
135.3972571559218
 30
0.0
 10
114.1201875732769
 20
135.7325612958994
 30
0.0
 10
114.003127328577
 20
136.0209457615096
 30
0.0
 10
113.8479286537009
 20
136.2774301011684
 30
0.0
 10
113.6229066194229
 20
136.4919627466416
 30
0.0
 10
113.4130615651668
 20
136.5244866815607
 30
0.0
 10
113.3053510154433
 20
136.5411807653061
 30
0.0
  0
SPLINE
  5
EE
330
1F
100
AcDbEntity
  8
0
  6
Continuous
 62
     7
370
    15
100
AcDbSpline
210
0.0
220
0.0
230
1.0
 70
     8
 71
     3
 72
    35
 73
    31
 74
     0
 42
0.00000001
 43
0.00000001
 12
1.0
 22
0.0
 32
0.0
 13
1.0
 23
0.0
 33
0.0
 40
0.0
 40
0.0
 40
0.0
 40
0.0
 40
0.0045663920747735
 40
0.0225043818814804
 40
0.0526530795892412
 40
0.0841071013423943
 40
0.116962520142355
 40
0.1511973569593901
 40
0.1867955168668264
 40
0.2237306661009778
 40
0.261239625648453
 40
0.2963151293562094
 40
0.3286217902144397
 40
0.3581384427225263
 40
0.3931132530069865
 40
0.4230637380830574
 40
0.4487500677718849
 40
0.4780910421683827
 40
0.5131614955056844
 40
0.5539776294723651
 40
0.6001057916671191
 40
0.6472499760474726
 40
0.6944079042717166
 40
0.7416588171765506
 40
0.7890633300131039
 40
0.8368892860712183
 40
0.8742913916876988
 40
0.9137582062685866
 40
0.9556678242544391
 40
1.0
 40
1.0
 40
1.0
 40
1.0
 10
111.0193097642765
 20
125.4958101285534
 30
0.0
 10
111.0208070099638
 20
125.4953343502589
 30
0.0
 10
111.0281858307409
 20
125.4929895896132
 30
0.0
 10
111.0087920733599
 20
125.5269478675058
 30
0.0
 10
110.9582441686735
 20
125.6480442287433
 30
0.0
 10
110.8976389445026
 20
125.8306176989561
 30
0.0
 10
110.8282101573398
 20
126.0776830831873
 30
0.0
 10
110.7528663555308
 20
126.3885681769143
 30
0.0
 10
110.6719997588413
 20
126.7660943766491
 30
0.0
 10
110.5870909684001
 20
127.206057969219
 30
0.0
 10
110.5016047907419
 20
127.6891073326644
 30
0.0
 10
110.4197319439842
 20
128.1848006098367
 30
0.0
 10
110.343988188928
 20
128.6664700812118
 30
0.0
 10
110.268263947978
 20
129.1647432895168
 30
0.0
 10
110.1942752565676
 20
129.6645297394812
 30
0.0
 10
110.1232380487506
 20
130.1522472397774
 30
0.0
 10
110.0566067349788
 20
130.6127440100543
 30
0.0
 10
109.985958371106
 20
131.101151964551
 30
0.0
 10
109.9034298657475
 20
131.6671947740441
 30
0.0
 10
109.8076782002729
 20
132.3099991406469
 30
0.0
 10
109.7025170484594
 20
132.9876344049878
 30
0.0
 10
109.591927220117
 20
133.6559669157438
 30
0.0
 10
109.4792999203377
 20
134.2760616689398
 30
0.0
 10
109.3649461315246
 20
134.8323019625443
 30
0.0
 10
109.2461497067465
 20
135.3202021351836
 30
0.0
 10
109.1353953254875
 20
135.6909764643563
 30
0.0
 10
109.0045919627943
 20
136.0146645446738
 30
0.0
 10
108.8418500861674
 20
136.279439412639
 30
0.0
 10
108.6130758379123
 20
136.4946849543427
 30
0.0
 10
108.409883714303
 20
136.5254864923935
 30
0.0
 10
108.3054337887598
 20
136.5413198736235
 30
0.0
  0
LINE
  5
EF
330
1F
100
AcDbEntity
  8
0
  6
Continuous
 62
     7
370
    15
100
AcDbLine
 10
106.0350324888
 20
125.4650138311
 30
0.0
 11
106.0521280439
 21
125.4528377477
 31
0.0
  0
SPLINE
  5
F0
330
1F
100
AcDbEntity
  8
0
  6
Continuous
 62
     7
370
    15
100
AcDbSpline
210
0.0
220
0.0
230
1.0
 70
     8
 71
     3
 72
    11
 73
     7
 74
     0
 42
0.00000001
 43
0.00000001
 12
1.0
 22
0.0
 32
0.0
 13
1.0
 23
0.0
 33
0.0
 40
0.0
 40
0.0
 40
0.0
 40
0.0
 40
0.2441313230935466
 40
0.4932600817030999
 40
0.7458264888822821
 40
1.0
 40
1.0
 40
1.0
 40
1.0
 10
105.2006270497055
 20
124.9445207828337
 30
0.0
 10
105.2455633966115
 20
124.8786567338964
 30
0.0
 10
105.3363559498384
 20
124.7455803807744
 30
0.0
 10
105.503760043674
 20
124.6183157749006
 30
0.0
 10
105.6859119096755
 20
124.5432671453509
 30
0.0
 10
105.8129225445637
 20
124.5502720853434
 30
0.0
 10
105.8766292664011
 20
124.5537856632732
 30
0.0
  0
SPLINE
  5
F1
330
1F
100
AcDbEntity
  8
0
  6
Continuous
 62
     7
370
    15
100
AcDbSpline
210
0.0
220
0.0
230
1.0
 70
     8
 71
     3
 72
    37
 73
    33
 74
     0
 42
0.00000001
 43
0.00000001
 12
1.0
 22
0.0
 32
0.0
 13
1.0
 23
0.0
 33
0.0
 40
0.0
 40
0.0
 40
0.0
 40
0.0
 40
0.0164346284935012
 40
0.0362902738219086
 40
0.0552380605371116
 40
0.0748825347587818
 40
0.1056449638288779
 40
0.1379694000534609
 40
0.1718441689714434
 40
0.2072459071469411
 40
0.244152037891613
 40
0.2799568143069339
 40
0.3117816856293845
 40
0.339594182056244
 40
0.3633724982979662
 40
0.3831011178500964
 40
0.3988614375069312
 40
0.4164387400545115
 40
0.4480147527525898
 40
0.4889170901257977
 40
0.5391879588168086
 40
0.5817528619457988
 40
0.6234959995751677
 40
0.6640198284770693
 40
0.7033543921746305
 40
0.7539576953766548
 40
0.8025155321190097
 40
0.8492073026682343
 40
0.8846006127922424
 40
0.9213338210663128
 40
0.9597941337755609
 40
1.0
 40
1.0
 40
1.0
 40
1.0
 10
108.1213630498711
 20
135.5786210669785
 30
0.0
 10
108.1186193081504
 20
135.5779586391966
 30
0.0
 10
108.1125606900087
 20
135.5764958932877
 30
0.0
 10
108.144078889419
 20
135.5123400329929
 30
0.0
 10
108.1795836411655
 20
135.4201919356562
 30
0.0
 10
108.2246526446102
 20
135.2884160536433
 30
0.0
 10
108.2817188954629
 20
135.094767467096
 30
0.0
 10
108.3519877263756
 20
134.8185135730594
 30
0.0
 10
108.4280934384507
 20
134.479382749127
 30
0.0
 10
108.5093732832151
 20
134.0759758812447
 30
0.0
 10
108.5933614454966
 20
133.6181722344696
 30
0.0
 10
108.674964059957
 20
133.138215589656
 30
0.0
 10
108.7495035100716
 20
132.6748980184855
 30
0.0
 10
108.8147517517401
 20
132.2536197745782
 30
0.0
 10
108.8705974497208
 20
131.8835909018759
 30
0.0
 10
108.9170385814315
 20
131.5706101198018
 30
0.0
 10
108.9586463663856
 20
131.287247668613
 30
0.0
 10
109.0095508107705
 20
130.937967251698
 30
0.0
 10
109.080195787334
 20
130.4497627584772
 30
0.0
 10
109.1765301803233
 20
129.7837405244739
 30
0.0
 10
109.2815658825894
 20
129.0690560631721
 30
0.0
 10
109.3871657732962
 20
128.3763840448732
 30
0.0
 10
109.4854867271878
 20
127.7635130300031
 30
0.0
 10
109.5818231569999
 20
127.2034140929698
 30
0.0
 10
109.6862813652217
 20
126.6472671013017
 30
0.0
 10
109.7988488496474
 20
126.1179202833319
 30
0.0
 10
109.9227030738671
 20
125.6393272731606
 30
0.0
 10
110.033859027581
 20
125.2952540923115
 30
0.0
 10
110.1600044230363
 20
125.0076939122007
 30
0.0
 10
110.3160947841122
 20
124.7741260869063
 30
0.0
 10
110.5338721667483
 20
124.5842579941184
 30
0.0
 10
110.7289681514113
 20
124.5563952040996
 30
0.0
 10
110.8286806729372
 20
124.5421546801117
 30
0.0
  0
SPLINE
  5
F2
330
1F
100
AcDbEntity
  8
0
  6
Continuous
 62
     7
370
    15
100
AcDbSpline
210
0.0
220
0.0
230
1.0
 70
     8
 71
     3
 72
    33
 73
    29
 74
     0
 42
0.00000001
 43
0.00000001
 12
1.0
 22
0.0
 32
0.0
 13
1.0
 23
0.0
 33
0.0
 40
0.0
 40
0.0
 40
0.0
 40
0.0
 40
0.0361919872517906
 40
0.0684420611937962
 40
0.0963777621367452
 40
0.1274072366223666
 40
0.1621730303000521
 40
0.2006915617365122
 40
0.2427573603694885
 40
0.2830062679439779
 40
0.3190416302741225
 40
0.3508219100557234
 40
0.3865119635950578
 40
0.4199522446816926
 40
0.4591758219333546
 40
0.4924567083686565
 40
0.529050383729482
 40
0.5681096733876781
 40
0.6063791996340321
 40
0.6556750826543544
 40
0.7030426971004549
 40
0.7485028678301989
 40
0.8112193754317957
 40
0.8658634851751585
 40
0.8923434286334484
 40
0.9231825075162342
 40
0.9590169286934261
 40
1.0
 40
1.0
 40
1.0
 40
1.0
 10
113.1169273860664
 20
135.589226206148
 30
0.0
 10
113.1188378192946
 20
135.5780884038905
 30
0.0
 10
113.1224506075893
 20
135.5570258925016
 30
0.0
 10
113.1745985357216
 20
135.4328684964257
 30
0.0
 10
113.2412376121787
 20
135.2321214928383
 30
0.0
 10
113.3106664159816
 20
134.9837373369484
 30
0.0
 10
113.3903641425085
 20
134.6529202742536
 30
0.0
 10
113.4796944761118
 20
134.2296675915522
 30
0.0
 10
113.5743318463532
 20
133.7271970940236
 30
0.0
 10
113.6672946595028
 20
133.1858819676458
 30
0.0
 10
113.7523482831911
 20
132.6576305208365
 30
0.0
 10
113.8339468648288
 20
132.1285739482065
 30
0.0
 10
113.9136698890836
 20
131.5948992617714
 30
0.0
 10
113.9993258269392
 20
131.0090348374723
 30
0.0
 10
114.0830920397181
 20
130.4295886886651
 30
0.0
 10
114.169327702874
 20
129.8339561612359
 30
0.0
 10
114.2554675603938
 20
129.246063254114
 30
0.0
 10
114.3455306017887
 20
128.6469001321641
 30
0.0
 10
114.4457397787926
 20
128.0062994612953
 30
0.0
 10
114.5528741306107
 20
127.3631652292107
 30
0.0
 10
114.6664417498038
 20
126.7457875957093
 30
0.0
 10
114.7914425889355
 20
126.144908241764
 30
0.0
 10
114.9264946747411
 20
125.6106559103114
 30
0.0
 10
115.0528555794723
 20
125.2411997357718
 30
0.0
 10
115.1713042177833
 20
124.9868750010897
 30
0.0
 10
115.310159930898
 20
124.7779555573377
 30
0.0
 10
115.5256977750478
 20
124.5867469384283
 30
0.0
 10
115.7231719098473
 20
124.5577055927908
 30
0.0
 10
115.8285267748138
 20
124.5422116798731
 30
0.0
  0
SPLINE
  5
F3
330
1F
100
AcDbEntity
  8
0
  6
Continuous
 62
     7
370
    15
100
AcDbSpline
210
0.0
220
0.0
230
1.0
 70
     8
 71
     3
 72
    30
 73
    26
 74
     0
 42
0.00000001
 43
0.00000001
 12
1.0
 22
0.0
 32
0.0
 13
1.0
 23
0.0
 33
0.0
 40
0.0
 40
0.0
 40
0.0
 40
0.0
 40
0.024985682958382
 40
0.0497505499886203
 40
0.0730716889659646
 40
0.095691533632836
 40
0.1282395983972034
 40
0.1590728433559969
 40
0.2156121504831976
 40
0.2707154120500899
 40
0.3263496992928319
 40
0.3831995780495095
 40
0.4437581219695443
 40
0.5082569124399738
 40
0.575464816022197
 40
0.6214415984344757
 40
0.6683489811981734
 40
0.7160282924498762
 40
0.7853554483756459
 40
0.851509069490511
 40
0.8837567468881913
 40
0.9184452742078704
 40
0.9570558859096994
 40
0.9780044329453619
 40
1.0
 40
1.0
 40
1.0
 40
1.0
 10
118.1273853751221
 20
135.5725567452633
 30
0.0
 10
118.1258881657684
 20
135.5675061889376
 30
0.0
 10
118.1229069789456
 20
135.5574497115795
 30
0.0
 10
118.1680501367267
 20
135.4551286474717
 30
0.0
 10
118.2120994389138
 20
135.3269171039561
 30
0.0
 10
118.2644709399213
 20
135.1551569974662
 30
0.0
 10
118.3248598645391
 20
134.9283605683816
 30
0.0
 10
118.4130316019646
 20
134.5531541069511
 30
0.0
 10
118.5233702525909
 20
134.011190957154
 30
0.0
 10
118.6538383855643
 20
133.2730220801535
 30
0.0
 10
118.7851265742952
 20
132.4533532902709
 30
0.0
 10
118.9209508332933
 20
131.5490680849574
 30
0.0
 10
119.0638719345385
 20
130.5633205573068
 30
0.0
 10
119.2148670881591
 20
129.5176896612705
 30
0.0
 10
119.3545938312338
 20
128.5824595255669
 30
0.0
 10
119.4805975081004
 20
127.7915808250911
 30
0.0
 10
119.5917452419466
 20
127.1445392237338
 30
0.0
 10
119.7218730934369
 20
126.4633966446179
 30
0.0
 10
119.8706189150183
 20
125.8059825271356
 30
0.0
 10
120.0204899033681
 20
125.326998718611
 30
0.0
 10
120.1461024790094
 20
125.0357987536751
 30
0.0
 10
120.2839846106127
 20
124.8058229415711
 30
0.0
 10
120.4633912845405
 20
124.6420778885359
 30
0.0
 10
120.6555873404824
 20
124.5545112133122
 30
0.0
 10
120.7696029670298
 20
124.546281104572
 30
0.0
 10
120.8280006872325
 20
124.5420657211022
 30
0.0
  0
SPLINE
  5
F4
330
1F
100
AcDbEntity
  8
0
  6
Continuous
 62
     7
370
    15
100
AcDbSpline
210
0.0
220
0.0
230
1.0
 70
     8
 71
     3
 72
    23
 73
    19
 74
     0
 42
0.00000001
 43
0.00000001
 12
1.0
 22
0.0
 32
0.0
 13
1.0
 23
0.0
 33
0.0
 40
0.0
 40
0.0
 40
0.0
 40
0.0
 40
0.019474011154983
 40
0.0745018851879678
 40
0.1176553379643733
 40
0.1511113581674412
 40
0.1910361050874946
 40
0.240112040085199
 40
0.2983908043975495
 40
0.3659335682640018
 40
0.4416406650562574
 40
0.5223811936455174
 40
0.608009102171718
 40
0.6985298219173868
 40
0.7940023080689502
 40
0.8944254889579627
 40
0.9465841903748342
 40
1.0
 40
1.0
 40
1.0
 40
1.0
 10
123.1290757210283
 20
135.5793905379941
 30
0.0
 10
123.1240758314603
 20
135.5808970074538
 30
0.0
 10
123.1049477126774
 20
135.5866603200981
 30
0.0
 10
123.1487924697345
 20
135.5060276615271
 30
0.0
 10
123.1911158536694
 20
135.3829724013205
 30
0.0
 10
123.249052674835
 20
135.2042696684694
 30
0.0
 10
123.3104235598738
 20
134.9828127877206
 30
0.0
 10
123.3862513168902
 20
134.6715588482112
 30
0.0
 10
123.4771931634087
 20
134.24389166194
 30
0.0
 10
123.5828257945903
 20
133.6829569251001
 30
0.0
 10
123.7007583575024
 20
132.9878111670507
 30
0.0
 10
123.8284577590537
 20
132.170381870112
 30
0.0
 10
123.9641824690679
 20
131.2532271536152
 30
0.0
 10
124.1079651193185
 20
130.2568900815368
 30
0.0
 10
124.2596534274487
 20
129.2122285624623
 30
0.0
 10
124.3912989193521
 20
128.3473681640576
 30
0.0
 10
124.5003834847959
 20
127.6745646743587
 30
0.0
 10
124.5563236334053
 20
127.3560390933607
 30
0.0
 10
124.5846267559964
 20
127.1948799117798
 30
0.0
  0
SPLINE
  5
F5
330
1F
100
AcDbEntity
  8
0
  6
Continuous
 62
     7
370
    15
100
AcDbSpline
210
0.0
220
0.0
230
1.0
 70
     8
 71
     3
 72
    17
 73
    13
 74
     0
 42
0.00000001
 43
0.00000001
 12
1.0
 22
0.0
 32
0.0
 13
1.0
 23
0.0
 33
0.0
 40
0.0
 40
0.0
 40
0.0
 40
0.0
 40
0.0839403818931516
 40
0.1605277010614012
 40
0.26147613707233
 40
0.3472462061474786
 40
0.4224441575224137
 40
0.4940679504307445
 40
0.669590873965831
 40
0.8240334116453102
 40
0.9711754744357299
 40
1.0
 40
1.0
 40
1.0
 40
1.0
 10
123.3287389861972
 20
136.5414167564961
 30
0.0
 10
123.2517102438671
 20
136.5336664970138
 30
0.0
 10
123.1044003717528
 20
136.5188448901866
 30
0.0
 10
122.8984380148492
 20
136.3913469004702
 30
0.0
 10
122.7351012130128
 20
136.2058024938782
 30
0.0
 10
122.6204783724655
 20
135.9918803117227
 30
0.0
 10
122.5452033471876
 20
135.80846000989
 30
0.0
 10
122.4388962222175
 20
135.5038942996115
 30
0.0
 10
122.3156292179147
 20
135.0470069069225
 30
0.0
 10
122.1769410106991
 20
134.3916976866519
 30
0.0
 10
122.0830540582853
 20
133.8945104792135
 30
0.0
 10
122.033125206045
 20
133.5913540178169
 30
0.0
 10
122.0249465200157
 20
133.5416949248424
 30
0.0
  0
SPLINE
  5
F6
330
1F
100
AcDbEntity
  8
0
  6
Continuous
 62
     7
370
    15
100
AcDbSpline
210
0.0
220
0.0
230
1.0
 70
     8
 71
     3
 72
    11
 73
     7
 74
     0
 42
0.00000001
 43
0.00000001
 12
1.0
 22
0.0
 32
0.0
 13
1.0
 23
0.0
 33
0.0
 40
0.0
 40
0.0
 40
0.0
 40
0.0
 40
0.044253289850541
 40
0.4009375855459716
 40
0.7291988791225003
 40
1.0
 40
1.0
 40
1.0
 40
1.0
 10
121.1052419098102
 20
127.5416949248424
 30
0.0
 10
121.1008773049909
 20
127.5157823022892
 30
0.0
 10
121.0613337111917
 20
127.2810123144138
 30
0.0
 10
120.9901111085865
 20
126.9087800577484
 30
0.0
 10
120.8977599825502
 20
126.4581203348881
 30
0.0
 10
120.842288560881
 20
126.2333406317184
 30
0.0
 10
120.8172131717358
 20
126.1317308593471
 30
0.0
  0
SPLINE
  5
F7
330
1F
100
AcDbEntity
  8
0
  6
Continuous
 62
     7
370
    15
100
AcDbSpline
210
0.0
220
0.0
230
1.0
 70
     8
 71
     3
 72
    18
 73
    14
 74
     0
 42
0.00000001
 43
0.00000001
 12
1.0
 22
0.0
 32
0.0
 13
1.0
 23
0.0
 33
0.0
 40
0.0
 40
0.0
 40
0.0
 40
0.0
 40
0.0845128738155271
 40
0.1744347238728382
 40
0.2697475014199113
 40
0.356788560866541
 40
0.449611198518995
 40
0.5239940263318545
 40
0.6200299513680047
 40
0.7105659997420166
 40
0.8168522872535409
 40
0.9387696366429543
 40
0.9999999999999999
 40
0.9999999999999999
 40
0.9999999999999999
 40
0.9999999999999999
 10
118.3283023147508
 20
136.5412295260049
 30
0.0
 10
118.2399787214002
 20
136.5302259423354
 30
0.0
 10
118.0576786655391
 20
136.5075145258097
 30
0.0
 10
117.8622964038699
 20
136.3589062918873
 30
0.0
 10
117.7215420920884
 20
136.1813937667352
 30
0.0
 10
117.60316876744
 20
135.958466086358
 30
0.0
 10
117.5093951834359
 20
135.7172621415677
 30
0.0
 10
117.4301645965111
 20
135.4666050631404
 30
0.0
 10
117.3535913678844
 20
135.1850807263059
 30
0.0
 10
117.2689240678762
 20
134.826950432531
 30
0.0
 10
117.1775125209172
 20
134.3887974024731
 30
0.0
 10
117.0948896941384
 20
133.9551343108186
 30
0.0
 10
117.0428412981207
 20
133.6452845930854
 30
0.0
 10
117.0254403589961
 20
133.5416949248424
 30
0.0
  0
SPLINE
  5
F8
330
1F
100
AcDbEntity
  8
0
  6
Continuous
 62
     7
370
    15
100
AcDbSpline
210
0.0
220
0.0
230
1.0
 70
     8
 71
     3
 72
    11
 73
     7
 74
     0
 42
0.00000001
 43
0.00000001
 12
1.0
 22
0.0
 32
0.0
 13
1.0
 23
0.0
 33
0.0
 40
0.0
 40
0.0
 40
0.0
 40
0.0
 40
0.3144838057811598
 40
0.6874946438776607
 40
0.9972192671175794
 40
1.0
 40
1.0
 40
1.0
 40
1.0
 10
116.1056368342134
 20
127.5416949248424
 30
0.0
 10
116.0750815329388
 20
127.3704240763994
 30
0.0
 10
116.0082844337489
 20
126.9960080053892
 30
0.0
 10
115.9126828959686
 20
126.5338670043446
 30
0.0
 10
115.8461280711953
 20
126.2377717394566
 30
0.0
 10
115.8174909844582
 20
126.1338273933693
 30
0.0
 10
115.8172361661417
 20
126.1329024765464
 30
0.0
  0
SPLINE
  5
F9
330
1F
100
AcDbEntity
  8
0
  6
Continuous
 62
     7
370
    15
100
AcDbSpline
210
0.0
220
0.0
230
1.0
 70
     8
 71
     3
 72
    18
 73
    14
 74
     0
 42
0.00000001
 43
0.00000001
 12
1.0
 22
0.0
 32
0.0
 13
1.0
 23
0.0
 33
0.0
 40
0.0
 40
0.0
 40
0.0
 40
0.0
 40
0.0821499792208375
 40
0.1553900808768335
 40
0.248426636078707
 40
0.3227776256597125
 40
0.384750625632208
 40
0.4480023070333833
 40
0.5657724445528445
 40
0.6904394588553963
 40
0.8221211107600003
 40
0.9255747617537734
 40
1.0
 40
1.0
 40
1.0
 40
1.0
 10
113.328359097775
 20
136.5411862445946
 30
0.0
 10
113.2529842966859
 20
136.5337377069739
 30
0.0
 10
113.1104097452571
 20
136.5196484902232
 30
0.0
 10
112.9106821906196
 20
136.4005609089515
 30
0.0
 10
112.7547064210136
 20
136.2331332947969
 30
0.0
 10
112.6471379904677
 20
136.0458623580161
 30
0.0
 10
112.5818801899641
 20
135.8995617980044
 30
0.0
 10
112.5011539177333
 20
135.6899036180277
 30
0.0
 10
112.4059542507067
 20
135.3848077324494
 30
0.0
 10
112.29380943568
 20
134.9418722762946
 30
0.0
 10
112.1893238956345
 20
134.4490769399154
 30
0.0
 10
112.1007776653777
 20
133.9845149240888
 30
0.0
 10
112.0504142865858
 20
133.6911637276955
 30
0.0
 10
112.029342047595
 20
133.5684244145893
 30
0.0
  0
SPLINE
  5
FA
330
1F
100
AcDbEntity
  8
0
  6
Continuous
 62
     7
370
    15
100
AcDbSpline
210
0.0
220
0.0
230
1.0
 70
     8
 71
     3
 72
    15
 73
    11
 74
     0
 42
0.00000001
 43
0.00000001
 12
1.0
 22
0.0
 32
0.0
 13
1.0
 23
0.0
 33
0.0
 40
0.0
 40
0.0
 40
0.0
 40
0.0
 40
0.1633811227427949
 40
0.3178458522037925
 40
0.4647486596761768
 40
0.5948749343387134
 40
0.7338500768948402
 40
0.8442120296819345
 40
0.9906701450125551
 40
1.0
 40
1.0
 40
1.0
 40
1.0
 10
108.328460900973
 20
136.5413330806785
 30
0.0
 10
108.2207285750212
 20
136.5247314924024
 30
0.0
 10
108.0111433281017
 20
136.4924343341692
 30
0.0
 10
107.8006985636374
 20
136.2947304152888
 30
0.0
 10
107.6714385451777
 20
136.0965772198577
 30
0.0
 10
107.5666022282617
 20
135.8710603059769
 30
0.0
 10
107.48007606606
 20
135.6300630977707
 30
0.0
 10
107.4024709703213
 20
135.3666247704833
 30
0.0
 10
107.3515553323094
 20
135.1793051035048
 30
0.0
 10
107.322133809946
 20
135.0494704815356
 30
0.0
 10
107.3203718090894
 20
135.0416949248424
 30
0.0
  0
SPLINE
  5
FB
330
1F
100
AcDbEntity
  8
0
  6
Continuous
 62
     7
370
    15
100
AcDbSpline
210
0.0
220
0.0
230
1.0
 70
     8
 71
     3
 72
    10
 73
     6
 74
     0
 42
0.00000001
 43
0.00000001
 12
1.0
 22
0.0
 32
0.0
 13
1.0
 23
0.0
 33
0.0
 40
0.0
 40
0.0
 40
0.0
 40
0.0
 40
0.1828151722819742
 40
0.7565398865576541
 40
1.0
 40
1.0
 40
1.0
 40
1.0
 10
105.7922223783705
 20
126.0416949248424
 30
0.0
 10
105.7849118430764
 20
126.0132360070115
 30
0.0
 10
105.754658820458
 20
125.8954651119671
 30
0.0
 10
105.716219838231
 20
125.7716588237777
 30
0.0
 10
105.68819438514
 20
125.6966871884662
 30
0.0
 10
105.6798448909284
 20
125.6743512343237
 30
0.0
  0
LINE
  5
FC
330
1F
100
AcDbEntity
  8
0
  6
Continuous
 62
     7
370
    15
100
AcDbLine
 10
97.0785016405
 20
137.3416949248
 30
0.0
 11
97.0785016405
 21
136.5416949248
 31
0.0
  0
LINE
  5
FD
330
1F
100
AcDbEntity
  8
0
  6
Continuous
 62
     7
370
    15
100
AcDbLine
 10
105.0785016405
 20
136.5416949248
 30
0.0
 11
105.0785016405
 21
137.3416949248
 31
0.0
  0
LINE
  5
FE
330
1F
100
AcDbEntity
  8
0
  6
Continuous
 62
     7
370
    15
100
AcDbLine
 10
97.0785016405
 20
124.5416949248
 30
0.0
 11
97.0785016405
 21
123.7416949248
 31
0.0
  0
LINE
  5
FF
330
1F
100
AcDbEntity
  8
0
  6
Continuous
 62
     7
370
    15
100
AcDbLine
 10
105.0785016405
 20
123.7416949248
 30
0.0
 11
105.0785016405
 21
124.5416949248
 31
0.0
  0
LINE
  5
100
330
1F
100
AcDbEntity
  8
0
  6
Continuous
 62
     7
370
    15
100
AcDbLine
 10
168.1785016405
 20
126.0416949248
 30
0.0
 11
168.7785016405
 21
126.0416949248
 31
0.0
  0
LINE
  5
101
330
1F
100
AcDbEntity
  8
0
  6
Continuous
 62
     7
370
    15
100
AcDbLine
 10
168.7785016405
 20
134.2703325287
 30
0.0
 11
168.1785016405
 21
134.2703325287
 31
0.0
  0
LINE
  5
102
330
1F
100
AcDbEntity
  8
0
  6
Continuous
 62
     7
370
    15
100
AcDbLine
 10
98.7285016405
 20
116.2416949248
 30
0.0
 11
99.0785016405
 21
113.7416949248
 31
0.0
  0
LINE
  5
103
330
1F
100
AcDbEntity
  8
0
  6
Continuous
 62
     7
370
    15
100
AcDbLine
 10
103.0785016405
 20
113.7416949248
 30
0.0
 11
103.4285016405
 21
116.2416949248
 31
0.0
  0
LINE
  5
104
330
1F
100
AcDbEntity
  8
0
  6
Continuous
 62
     7
370
    15
100
AcDbLine
 10
98.7285016405
 20
118.7416949248
 30
0.0
 11
99.0785016405
 21
116.2416949248
 31
0.0
  0
LINE
  5
105
330
1F
100
AcDbEntity
  8
0
  6
Continuous
 62
     7
370
    15
100
AcDbLine
 10
103.0785016405
 20
116.2416949248
 30
0.0
 11
103.4285016405
 21
118.7416949248
 31
0.0
  0
LINE
  5
106
330
1F
100
AcDbEntity
  8
0
  6
Continuous
 62
     7
370
    15
100
AcDbLine
 10
103.1785016405
 20
118.7416949248
 30
0.0
 11
103.1785016405
 21
121.2416949248
 31
0.0
  0
LINE
  5
107
330
1F
100
AcDbEntity
  8
0
  6
Continuous
 62
     7
370
    15
100
AcDbLine
 10
98.9785016405
 20
121.2416949248
 30
0.0
 11
98.9785016405
 21
118.7416949248
 31
0.0
  0
LINE
  5
108
330
1F
100
AcDbEntity
  8
0
  6
Continuous
 62
     7
370
    15
100
AcDbLine
 10
146.6785016405
 20
122.5416949248
 30
0.0
 11
147.0785016405
 21
122.9416949248
 31
0.0
  0
LINE
  5
109
330
1F
100
AcDbEntity
  8
0
  6
Continuous
 62
     7
370
    15
100
AcDbLine
 10
147.0785016405
 20
138.1416949248
 30
0.0
 11
146.6785016405
 21
138.5416949248
 31
0.0
  0
LINE
  5
10A
330
1F
100
AcDbEntity
  8
0
  6
Continuous
 62
     7
370
    15
100
AcDbLine
 10
146.6785016405
 20
138.5416949248
 30
0.0
 11
145.4785016405
 21
138.5416949248
 31
0.0
  0
LINE
  5
10B
330
1F
100
AcDbEntity
  8
0
  6
Continuous
 62
     7
370
    15
100
AcDbLine
 10
145.4785016405
 20
122.5416949248
 30
0.0
 11
146.6785016405
 21
122.5416949248
 31
0.0
  0
LINE
  5
10C
330
1F
100
AcDbEntity
  8
0
  6
Continuous
 62
     7
370
    15
100
AcDbLine
 10
145.4785016405
 20
138.5416949248
 30
0.0
 11
145.0785016405
 21
138.1416949248
 31
0.0
  0
LINE
  5
10D
330
1F
100
AcDbEntity
  8
0
  6
Continuous
 62
     7
370
    15
100
AcDbLine
 10
145.0785016405
 20
122.9416949248
 30
0.0
 11
145.4785016405
 21
122.5416949248
 31
0.0
  0
LINE
  5
10E
330
1F
100
AcDbEntity
  8
0
  6
Continuous
 62
     7
370
    15
100
AcDbLine
 10
167.6785016405
 20
124.5416949248
 30
0.0
 11
168.0785016405
 21
124.9416949248
 31
0.0
  0
LINE
  5
10F
330
1F
100
AcDbEntity
  8
0
  6
Continuous
 62
     7
370
    15
100
AcDbLine
 10
168.0785016405
 20
136.1416949248
 30
0.0
 11
167.6785016405
 21
136.5416949248
 31
0.0
  0
LINE
  5
110
330
1F
100
AcDbEntity
  8
0
  6
Continuous
 62
     7
370
    15
100
AcDbLine
 10
167.6785016405
 20
136.5416949248
 30
0.0
 11
147.0785016405
 21
136.5416949248
 31
0.0
  0
LINE
  5
111
330
1F
100
AcDbEntity
  8
0
  6
Continuous
 62
     7
370
    15
100
AcDbLine
 10
147.0785016405
 20
124.5416949248
 30
0.0
 11
167.6785016405
 21
124.5416949248
 31
0.0
  0
LINE
  5
112
330
1F
100
AcDbEntity
  8
0
  6
Continuous
 62
     7
370
    15
100
AcDbLine
 10
145.0785016405
 20
135.0416949248
 30
0.0
 11
144.309959144
 21
135.0416949248
 31
0.0
  0
LINE
  5
113
330
1F
100
AcDbEntity
  8
0
  6
Continuous
 62
     7
370
    15
100
AcDbLine
 10
143.295627572
 20
135.0416949248
 30
0.0
 11
142.4785016405
 21
135.0416949248
 31
0.0
  0
LINE
  5
114
330
1F
100
AcDbEntity
  8
0
  6
Continuous
 62
     7
370
    15
100
AcDbLine
 10
142.4785016405
 20
126.0416949248
 30
0.0
 11
145.0785016405
 21
126.0416949248
 31
0.0
  0
LINE
  5
115
330
1F
100
AcDbEntity
  8
0
  6
Continuous
 62
     7
370
    15
100
AcDbLine
 10
142.4785016405
 20
135.0416949248
 30
0.0
 11
142.0785016405
 21
134.6416949248
 31
0.0
  0
LINE
  5
116
330
1F
100
AcDbEntity
  8
0
  6
Continuous
 62
     7
370
    15
100
AcDbLine
 10
142.0785016405
 20
126.4416949248
 30
0.0
 11
142.4785016405
 21
126.0416949248
 31
0.0
  0
LINE
  5
117
330
1F
100
AcDbEntity
  8
0
  6
Continuous
 62
     7
370
    15
100
AcDbLine
 10
170.0785016405
 20
133.0416949248
 30
0.0
 11
170.0785016405
 21
128.0416949248
 31
0.0
  0
LINE
  5
118
330
1F
100
AcDbEntity
  8
0
  6
Continuous
 62
     7
370
    15
100
AcDbLine
 10
169.5785016405
 20
127.5416949248
 30
0.0
 11
169.5785016405
 21
133.5416949248
 31
0.0
  0
LINE
  5
119
330
1F
100
AcDbEntity
  8
0
  6
Continuous
 62
     7
370
    15
100
AcDbLine
 10
105.0785016405
 20
130.5416949248
 30
0.0
 11
105.0785016405
 21
124.5416949248
 31
0.0
  0
LINE
  5
11A
330
1F
100
AcDbEntity
  8
0
  6
Continuous
 62
     7
370
    15
100
AcDbLine
 10
105.0785016405
 20
136.5416949248
 30
0.0
 11
105.0785016405
 21
130.5416949248
 31
0.0
  0
LINE
  5
11B
330
1F
100
AcDbEntity
  8
0
  6
Continuous
 62
     7
370
    15
100
AcDbLine
 10
105.0785016405
 20
130.5416949248
 30
0.0
 11
97.0785016405
 21
130.5416949248
 31
0.0
  0
LINE
  5
11C
330
1F
100
AcDbEntity
  8
0
  6
Continuous
 62
     7
370
    15
100
AcDbLine
 10
105.0785016405
 20
124.5416949248
 30
0.0
 11
97.0785016405
 21
124.5416949248
 31
0.0
  0
LINE
  5
11D
330
1F
100
AcDbEntity
  8
0
  6
Continuous
 62
     7
370
    15
100
AcDbLine
 10
97.0785016405
 20
130.5416949248
 30
0.0
 11
97.0785016405
 21
124.5416949248
 31
0.0
  0
LINE
  5
11E
330
1F
100
AcDbEntity
  8
0
  6
Continuous
 62
     7
370
    15
100
AcDbLine
 10
105.0785016405
 20
136.5416949248
 30
0.0
 11
103.0785016405
 21
136.5416949248
 31
0.0
  0
LINE
  5
11F
330
1F
100
AcDbEntity
  8
0
  6
Continuous
 62
     7
370
    15
100
AcDbLine
 10
99.0785016405
 20
136.5416949248
 30
0.0
 11
97.0785016405
 21
136.5416949248
 31
0.0
  0
LINE
  5
120
330
1F
100
AcDbEntity
  8
0
  6
Continuous
 62
     7
370
    15
100
AcDbLine
 10
97.0785016405
 20
136.5416949248
 30
0.0
 11
97.0785016405
 21
130.5416949248
 31
0.0
  0
LINE
  5
121
330
1F
100
AcDbEntity
  8
0
  6
Continuous
 62
     7
370
    15
100
AcDbLine
 10
90.0785016405
 20
136.0416949248
 30
0.0
 11
90.0785016405
 21
125.0416949248
 31
0.0
  0
LINE
  5
122
330
1F
100
AcDbEntity
  8
0
  6
Continuous
 62
     7
370
    15
100
AcDbLine
 10
88.0785016405
 20
136.0416949248
 30
0.0
 11
88.0785016405
 21
125.0416949248
 31
0.0
  0
LINE
  5
123
330
1F
100
AcDbEntity
  8
0
  6
Continuous
 62
     7
370
    15
100
AcDbLine
 10
112.0785016405
 20
135.0416949248
 30
0.0
 11
112.0785016405
 21
126.0416949248
 31
0.0
  0
SPLINE
  5
124
330
1F
100
AcDbEntity
  8
0
  6
Continuous
 62
     7
370
    15
100
AcDbSpline
210
0.0
220
0.0
230
1.0
 70
     8
 71
     3
 72
    12
 73
     8
 74
     0
 42
0.00000001
 43
0.00000001
 12
1.0
 22
0.0
 32
0.0
 13
1.0
 23
0.0
 33
0.0
 40
0.0
 40
0.0
 40
0.0
 40
0.0
 40
0.2141328032380422
 40
0.4279901297608572
 40
0.6448908220374804
 40
0.852785839280425
 40
1.0
 40
1.0
 40
1.0
 40
1.0
 10
144.5315943952301
 20
130.8077585798844
 30
0.0
 10
144.4752023048864
 20
130.8074987479694
 30
0.0
 10
144.3624906712705
 20
130.806979418407
 30
0.0
 10
144.210799623734
 20
130.8031475863228
 30
0.0
 10
144.1000874284788
 20
130.7974646031895
 30
0.0
 10
144.0368861684883
 20
130.7911799318715
 30
0.0
 10
144.0379806391295
 20
130.7870132601627
 30
0.0
 10
144.0384343631865
 20
130.7852859235669
 30
0.0
  0
SPLINE
  5
125
330
1F
100
AcDbEntity
  8
0
  6
Continuous
 62
     7
370
    15
100
AcDbSpline
210
0.0
220
0.0
230
1.0
 70
     8
 71
     3
 72
     9
 73
     5
 74
     0
 42
0.00000001
 43
0.00000001
 12
1.0
 22
0.0
 32
0.0
 13
1.0
 23
0.0
 33
0.0
 40
-0.0000025800031642
 40
-0.0000025800031642
 40
-0.0000025800031642
 40
-0.0000025800031642
 40
0.1048584446665593
 40
0.2298610246697236
 40
0.2298610246697236
 40
0.2298610246697236
 40
0.2298610246697236
 10
144.035732649675
 20
130.782794511368
 30
0.0
 10
144.0500105941046
 20
130.7779731064143
 30
0.0
 10
144.1608220160329
 20
130.7678259065852
 30
0.0
 10
144.4009843774232
 20
130.7634146373785
 30
0.0
 10
144.5315863149025
 20
130.7634146373786
 30
0.0
  0
SPLINE
  5
126
330
1F
100
AcDbEntity
  8
0
  6
Continuous
 62
     7
370
    15
100
AcDbSpline
210
0.0
220
0.0
230
1.0
 70
     8
 71
     3
 72
    12
 73
     8
 74
     0
 42
0.00000001
 43
0.00000001
 12
1.0
 22
0.0
 32
0.0
 13
1.0
 23
0.0
 33
0.0
 40
0.0
 40
0.0
 40
0.0
 40
0.0
 40
0.2167806047338438
 40
0.4332824061329488
 40
0.6528628182566012
 40
0.8633280010695821
 40
0.9999999999999999
 40
0.9999999999999999
 40
0.9999999999999999
 40
0.9999999999999999
 10
144.5315943952301
 20
130.8077585798844
 30
0.0
 10
144.5879832659199
 20
130.8074986414158
 30
0.0
 10
144.700688485105
 20
130.8069790987876
 30
0.0
 10
144.852427142358
 20
130.8031473578313
 30
0.0
 10
144.9629442469903
 20
130.7974629341962
 30
0.0
 10
145.0253979319963
 20
130.791316319305
 30
0.0
 10
145.0245931813268
 20
130.7872945942592
 30
0.0
 10
145.0242763415056
 20
130.7857111937188
 30
0.0
  0
SPLINE
  5
127
330
1F
100
AcDbEntity
  8
0
  6
Continuous
 62
     7
370
    15
100
AcDbSpline
210
0.0
220
0.0
230
1.0
 70
     8
 71
     3
 72
     9
 73
     5
 74
     0
 42
0.00000001
 43
0.00000001
 12
1.0
 22
0.0
 32
0.0
 13
1.0
 23
0.0
 33
0.0
 40
0.7701446295419632
 40
0.7701446295419632
 40
0.7701446295419632
 40
0.7701446295419632
 40
0.875
 40
0.999997419999019
 40
0.999997419999019
 40
0.999997419999019
 40
0.999997419999019
 10
145.0274376701765
 20
130.7827937314477
 30
0.0
 10
145.0131565840626
 20
130.7779726072111
 30
0.0
 10
144.9023447061703
 20
130.7678257980779
 30
0.0
 10
144.6621882523872
 20
130.7634146373813
 30
0.0
 10
144.5315863149094
 20
130.7634146373813
 30
0.0
  0
SPLINE
  5
128
330
1F
100
AcDbEntity
  8
0
  6
Continuous
 62
     7
370
    15
100
AcDbSpline
210
0.0
220
0.0
230
1.0
 70
     8
 71
     3
 72
    11
 73
     7
 74
     0
 42
0.00000001
 43
0.00000001
 12
1.0
 22
0.0
 32
0.0
 13
1.0
 23
0.0
 33
0.0
 40
0.499997422088832
 40
0.499997422088832
 40
0.499997422088832
 40
0.499997422088832
 40
0.625
 40
0.75
 40
0.875
 40
1.000002580002479
 40
1.000002580002479
 40
1.000002580002479
 40
1.000002580002479
 10
105.6316024827022
 20
124.703830162745
 30
0.0
 10
105.7622044201845
 20
124.703830162745
 30
0.0
 10
106.0234082951483
 20
124.8091006685766
 30
0.0
 10
106.1856995764824
 20
125.1903188929198
 30
0.0
 10
106.0234082951483
 20
125.5715371172633
 30
0.0
 10
105.7622044201849
 20
125.6768076230948
 30
0.0
 10
105.6316024827031
 20
125.6768076230949
 30
0.0
  0
SPLINE
  5
129
330
1F
100
AcDbEntity
  8
0
  6
Continuous
 62
     7
370
    15
100
AcDbSpline
210
0.0
220
0.0
230
1.0
 70
     8
 71
     3
 72
    11
 73
     7
 74
     0
 42
0.00000001
 43
0.00000001
 12
1.0
 22
0.0
 32
0.0
 13
1.0
 23
0.0
 33
0.0
 40
0.0000025800011651
 40
0.0000025800011651
 40
0.0000025800011651
 40
0.0000025800011651
 40
0.125
 40
0.25
 40
0.375
 40
0.4999974220898747
 40
0.4999974220898747
 40
0.4999974220898747
 40
0.4999974220898747
 10
105.6316024826989
 20
125.6768076230946
 30
0.0
 10
105.5010005452207
 20
125.6768076230946
 30
0.0
 10
105.2397966702527
 20
125.571537117263
 30
0.0
 10
105.0775053889227
 20
125.1903188929194
 30
0.0
 10
105.2397966702527
 20
124.8091006685762
 30
0.0
 10
105.5010005452207
 20
124.7038301627446
 30
0.0
 10
105.631602482699
 20
124.7038301627445
 30
0.0
  0
LINE
  5
12A
330
1F
100
AcDbEntity
  8
0
  6
Continuous
 62
     7
370
    15
100
AcDbLine
 10
105.0785016405
 20
137.3416949248
 30
0.0
 11
104.5859045258
 21
137.3416949248
 31
0.0
  0
LINE
  5
12B
330
1F
100
AcDbEntity
  8
0
  6
Continuous
 62
     7
370
    15
100
AcDbLine
 10
97.5710987551
 20
137.3416949248
 30
0.0
 11
97.0785016405
 21
137.3416949248
 31
0.0
  0
LINE
  5
12C
330
1F
100
AcDbEntity
  8
0
  6
Continuous
 62
     7
370
    15
100
AcDbLine
 10
105.0785016405
 20
123.7416949248
 30
0.0
 11
104.5859045258
 21
123.7416949248
 31
0.0
  0
LINE
  5
12D
330
1F
100
AcDbEntity
  8
0
  6
Continuous
 62
     7
370
    15
100
AcDbLine
 10
97.5710987551
 20
123.7416949248
 30
0.0
 11
97.0785016405
 21
123.7416949248
 31
0.0
  0
LINE
  5
12E
330
1F
100
AcDbEntity
  8
0
  6
Continuous
 62
     7
370
    15
100
AcDbLine
 10
168.7785016405
 20
134.234455208
 30
0.0
 11
168.1785016405
 21
134.234455208
 31
0.0
  0
LINE
  5
12F
330
1F
100
AcDbEntity
  8
0
  6
Continuous
 62
     7
370
    15
100
AcDbLine
 10
168.7785016405
 20
126.0416949248
 30
0.0
 11
168.7785016405
 21
134.234455208
 31
0.0
  0
LINE
  5
130
330
1F
100
AcDbEntity
  8
0
  6
Continuous
 62
   144
370
     0
100
AcDbLine
 10
168.1785016405
 20
126.0416949248
 30
0.0
 11
168.1785016405
 21
134.234455208
 31
0.0
  0
LINE
  5
131
330
1F
100
AcDbEntity
  8
0
  6
Continuous
 62
     7
370
    15
100
AcDbLine
 10
168.7785016405
 20
134.2703325287
 30
0.0
 11
168.7785016405
 21
134.234455208
 31
0.0
  0
LINE
  5
132
330
1F
100
AcDbEntity
  8
0
  6
Continuous
 62
   144
370
     0
100
AcDbLine
 10
168.1785016405
 20
134.234455208
 30
0.0
 11
168.1785016405
 21
134.2703325287
 31
0.0
  0
LINE
  5
133
330
1F
100
AcDbEntity
  8
0
  6
Continuous
 62
     7
370
    15
100
AcDbLine
 10
104.5859045258
 20
123.7416949248
 30
0.0
 11
104.4976140685
 21
123.7416949248
 31
0.0
  0
LINE
  5
134
330
1F
100
AcDbEntity
  8
0
  6
Continuous
 62
     7
370
    15
100
AcDbLine
 10
101.1667920978
 20
123.7416949248
 30
0.0
 11
101.0785016405
 21
123.7416949248
 31
0.0
  0
LINE
  5
135
330
1F
100
AcDbEntity
  8
0
  6
Continuous
 62
     7
370
    15
100
AcDbLine
 10
101.0785016405
 20
123.7416949248
 30
0.0
 11
100.9902111831
 21
123.7416949248
 31
0.0
  0
LINE
  5
136
330
1F
100
AcDbEntity
  8
0
  6
Continuous
 62
     7
370
    15
100
AcDbLine
 10
97.6593892125
 20
123.7416949248
 30
0.0
 11
97.5710987551
 21
123.7416949248
 31
0.0
  0
LINE
  5
137
330
1F
100
AcDbEntity
  8
0
  6
Continuous
 62
     7
370
    15
100
AcDbLine
 10
101.0785016405
 20
121.2416949248
 30
0.0
 11
97.5710987551
 21
121.2416949248
 31
0.0
  0
LINE
  5
138
330
1F
100
AcDbEntity
  8
0
  6
Continuous
 62
     7
370
    15
100
AcDbLine
 10
104.5859045258
 20
121.2416949248
 30
0.0
 11
101.0785016405
 21
121.2416949248
 31
0.0
  0
LINE
  5
139
330
1F
100
AcDbEntity
  8
0
  6
Continuous
 62
     7
370
    15
100
AcDbLine
 10
104.5859045258
 20
123.7416949248
 30
0.0
 11
104.5859045258
 21
121.2416949248
 31
0.0
  0
LINE
  5
13A
330
1F
100
AcDbEntity
  8
0
  6
Continuous
 62
     7
370
    15
100
AcDbLine
 10
101.0785016405
 20
123.7416949248
 30
0.0
 11
101.0785016405
 21
121.2416949248
 31
0.0
  0
LINE
  5
13B
330
1F
100
AcDbEntity
  8
0
  6
Continuous
 62
     7
370
    15
100
AcDbLine
 10
97.5710987551
 20
123.7416949248
 30
0.0
 11
97.5710987551
 21
121.2416949248
 31
0.0
  0
LINE
  5
13C
330
1F
100
AcDbEntity
  8
0
  6
Continuous
 62
     7
370
    15
100
AcDbLine
 10
103.4285016405
 20
116.2416949248
 30
0.0
 11
103.1136613394
 21
116.2416949248
 31
0.0
  0
LINE
  5
13D
330
1F
100
AcDbEntity
  8
0
  6
Continuous
 62
     7
370
    15
100
AcDbLine
 10
103.1136613394
 20
116.2416949248
 30
0.0
 11
98.7285016405
 21
116.2416949248
 31
0.0
  0
LINE
  5
13E
330
1F
100
AcDbEntity
  8
0
  6
Continuous
 62
     7
370
    15
100
AcDbLine
 10
102.810552448
 20
113.7416949248
 30
0.0
 11
99.0785016405
 21
113.7416949248
 31
0.0
  0
LINE
  5
13F
330
1F
100
AcDbEntity
  8
0
  6
Continuous
 62
     7
370
    15
100
AcDbLine
 10
103.0785016405
 20
113.7416949248
 30
0.0
 11
102.810552448
 21
113.7416949248
 31
0.0
  0
LINE
  5
140
330
1F
100
AcDbEntity
  8
0
  6
Continuous
 62
     7
370
    15
100
AcDbLine
 10
103.4285016405
 20
118.7416949248
 30
0.0
 11
103.1136613394
 21
118.7416949248
 31
0.0
  0
LINE
  5
141
330
1F
100
AcDbEntity
  8
0
  6
Continuous
 62
     7
370
    15
100
AcDbLine
 10
103.1136613394
 20
118.7416949248
 30
0.0
 11
98.7285016405
 21
118.7416949248
 31
0.0
  0
LINE
  5
142
330
1F
100
AcDbEntity
  8
0
  6
Continuous
 62
     7
370
    15
100
AcDbLine
 10
104.5859045258
 20
137.3416949248
 30
0.0
 11
104.5859045258
 21
139.8416949248
 31
0.0
  0
LINE
  5
143
330
1F
100
AcDbEntity
  8
0
  6
Continuous
 62
     7
370
    15
100
AcDbLine
 10
101.0785016405
 20
137.3416949248
 30
0.0
 11
101.1667920978
 21
137.3416949248
 31
0.0
  0
LINE
  5
144
330
1F
100
AcDbEntity
  8
0
  6
Continuous
 62
     7
370
    15
100
AcDbLine
 10
104.4976140685
 20
137.3416949248
 30
0.0
 11
104.5859045258
 21
137.3416949248
 31
0.0
  0
LINE
  5
145
330
1F
100
AcDbEntity
  8
0
  6
Continuous
 62
     7
370
    15
100
AcDbLine
 10
101.0785016405
 20
137.3416949248
 30
0.0
 11
101.0785016406
 21
139.8416949248
 31
0.0
  0
LINE
  5
146
330
1F
100
AcDbEntity
  8
0
  6
Continuous
 62
     7
370
    15
100
AcDbLine
 10
101.0785016406
 20
139.8416949248
 30
0.0
 11
104.5859045258
 21
139.8416949248
 31
0.0
  0
LINE
  5
147
330
1F
100
AcDbEntity
  8
0
  6
Continuous
 62
     7
370
    15
100
AcDbLine
 10
97.5710987551
 20
137.3416949248
 30
0.0
 11
97.6593892125
 21
137.3416949248
 31
0.0
  0
LINE
  5
148
330
1F
100
AcDbEntity
  8
0
  6
Continuous
 62
     7
370
    15
100
AcDbLine
 10
100.9902111831
 20
137.3416949248
 30
0.0
 11
101.0785016405
 21
137.3416949248
 31
0.0
  0
LINE
  5
149
330
1F
100
AcDbEntity
  8
0
  6
Continuous
 62
     7
370
    15
100
AcDbLine
 10
97.5710987551
 20
137.3416949248
 30
0.0
 11
97.5710987551
 21
139.8416949248
 31
0.0
  0
LINE
  5
14A
330
1F
100
AcDbEntity
  8
0
  6
Continuous
 62
     7
370
    15
100
AcDbLine
 10
97.5710987551
 20
139.8416949248
 30
0.0
 11
101.0785016406
 21
139.8416949248
 31
0.0
  0
LINE
  5
14B
330
1F
100
AcDbEntity
  8
0
  6
Continuous
 62
     7
370
    15
100
AcDbLine
 10
147.0785016405
 20
122.9491713877
 30
0.0
 11
147.0785016405
 21
122.9416949248
 31
0.0
  0
LINE
  5
14C
330
1F
100
AcDbEntity
  8
0
  6
Continuous
 62
     7
370
    15
100
AcDbLine
 10
147.0785016405
 20
138.1416949248
 30
0.0
 11
147.0785016405
 21
122.9491713877
 31
0.0
  0
LINE
  5
14D
330
1F
100
AcDbEntity
  8
0
  6
Continuous
 62
     7
370
    15
100
AcDbLine
 10
146.6785016405
 20
122.5495648858
 30
0.0
 11
146.6785016405
 21
122.5416949248
 31
0.0
  0
LINE
  5
14E
330
1F
100
AcDbEntity
  8
0
  6
Continuous
 62
     7
370
    15
100
AcDbLine
 10
146.6785016405
 20
138.5416949248
 30
0.0
 11
146.6785016405
 21
122.5495648858
 31
0.0
  0
LINE
  5
14F
330
1F
100
AcDbEntity
  8
0
  6
Continuous
 62
     7
370
    15
100
AcDbLine
 10
145.4785016405
 20
122.5495648858
 30
0.0
 11
145.4785016405
 21
122.5416949248
 31
0.0
  0
LINE
  5
150
330
1F
100
AcDbEntity
  8
0
  6
Continuous
 62
     7
370
    15
100
AcDbLine
 10
145.4785016405
 20
138.5416949248
 30
0.0
 11
145.4785016405
 21
122.5495648858
 31
0.0
  0
LINE
  5
151
330
1F
100
AcDbEntity
  8
0
  6
Continuous
 62
     7
370
    15
100
AcDbLine
 10
145.0785016405
 20
122.9491713877
 30
0.0
 11
145.0785016405
 21
122.9416949248
 31
0.0
  0
LINE
  5
152
330
1F
100
AcDbEntity
  8
0
  6
Continuous
 62
     7
370
    15
100
AcDbLine
 10
145.0785016405
 20
138.1416949248
 30
0.0
 11
145.0785016405
 21
122.9491713877
 31
0.0
  0
LINE
  5
153
330
1F
100
AcDbEntity
  8
0
  6
Continuous
 62
     7
370
    15
100
AcDbLine
 10
168.0785016405
 20
124.9472038975
 30
0.0
 11
168.0785016405
 21
124.9416949248
 31
0.0
  0
LINE
  5
154
330
1F
100
AcDbEntity
  8
0
  6
Continuous
 62
     7
370
    15
100
AcDbLine
 10
168.0785016405
 20
136.1416949248
 30
0.0
 11
168.0785016405
 21
124.9472038975
 31
0.0
  0
LINE
  5
155
330
1F
100
AcDbEntity
  8
0
  6
Continuous
 62
     7
370
    15
100
AcDbLine
 10
167.6785016405
 20
124.5475973955
 30
0.0
 11
167.6785016405
 21
124.5416949248
 31
0.0
  0
LINE
  5
156
330
1F
100
AcDbEntity
  8
0
  6
Continuous
 62
     7
370
    15
100
AcDbLine
 10
167.6785016405
 20
136.5416949248
 30
0.0
 11
167.6785016405
 21
124.5475973955
 31
0.0
  0
LINE
  5
157
330
1F
100
AcDbEntity
  8
0
  6
Continuous
 62
     7
370
    15
100
AcDbLine
 10
142.4785016405
 20
126.0461217779
 30
0.0
 11
142.4785016405
 21
126.0416949248
 31
0.0
  0
LINE
  5
158
330
1F
100
AcDbEntity
  8
0
  6
Continuous
 62
     7
370
    15
100
AcDbLine
 10
142.4785016405
 20
135.0416949248
 30
0.0
 11
142.4785016405
 21
126.0461217779
 31
0.0
  0
LINE
  5
159
330
1F
100
AcDbEntity
  8
0
  6
Continuous
 62
     7
370
    15
100
AcDbLine
 10
142.0785016405
 20
126.4457282798
 30
0.0
 11
142.0785016405
 21
126.4416949248
 31
0.0
  0
LINE
  5
15A
330
1F
100
AcDbEntity
  8
0
  6
Continuous
 62
     7
370
    15
100
AcDbLine
 10
142.0785016405
 20
134.6416949248
 30
0.0
 11
142.0785016405
 21
126.4457282798
 31
0.0
  0
SPLINE
  5
15B
330
1F
100
AcDbEntity
  8
0
  6
Continuous
 62
     8
370
    15
100
AcDbSpline
210
0.0
220
0.0
230
1.0
 70
     8
 71
     3
 72
    15
 73
    11
 74
     0
 42
0.00000001
 43
0.00000001
 12
1.0
 22
0.0
 32
0.0
 13
1.0
 23
0.0
 33
0.0
 40
0.0
 40
0.0
 40
0.0
 40
0.0
 40
0.1250478847761326
 40
0.2500764022649442
 40
0.3751232035338161
 40
0.5001517349562874
 40
0.6251974147883246
 40
0.7502277324504765
 40
0.8752718085424289
 40
1.0
 40
1.0
 40
1.0
 40
1.0
 10
144.5315943952334
 20
130.8077584691784
 30
0.0
 10
144.4809461771546
 20
131.188350164385
 30
0.0
 10
144.3796575853407
 20
131.9494746091493
 30
0.0
 10
144.2276703967632
 20
133.0375582670928
 30
0.0
 10
144.0757531007616
 20
134.0352672885003
 30
0.0
 10
143.9237647756276
 20
134.9061656417342
 30
0.0
 10
143.7718441671472
 20
135.6186220977529
 30
0.0
 10
143.6198622198818
 20
136.1435556477533
 30
0.0
 10
143.468055979442
 20
136.4788857753475
 30
0.0
 10
143.3668687429456
 20
136.5205765507457
 30
0.0
 10
143.3163391099699
 20
136.5413955754792
 30
0.0
  0
SPLINE
  5
15C
330
1F
100
AcDbEntity
  8
0
  6
Continuous
 62
     8
370
    15
100
AcDbSpline
210
0.0
220
0.0
230
1.0
 70
     8
 71
     3
 72
    24
 73
    20
 74
     0
 42
0.00000001
 43
0.00000001
 12
1.0
 22
0.0
 32
0.0
 13
1.0
 23
0.0
 33
0.0
 40
0.0
 40
0.0
 40
0.0
 40
0.0
 40
0.0347181961893652
 40
0.0954039663332783
 40
0.1560798626768101
 40
0.2167654409046104
 40
0.2774417198591666
 40
0.3381268573574061
 40
0.3988038019154021
 40
0.4594882671872555
 40
0.520166120613609
 40
0.5808497093776618
 40
0.6415286576517193
 40
0.7022112027422083
 40
0.762891357109548
 40
0.823572738378403
 40
0.8842541189969759
 40
0.9449342740290338
 40
1.0
 40
1.0
 40
1.0
 40
1.0
 10
140.8197125791644
 20
124.5686954064602
 30
0.0
 10
140.7907291912239
 20
124.5644039137362
 30
0.0
 10
140.7110842075899
 20
124.552611094054
 30
0.0
 10
140.5808335105927
 20
124.7754105142125
 30
0.0
 10
140.428839957289
 20
125.2070991962487
 30
0.0
 10
140.2769262234955
 20
125.8431867467448
 30
0.0
 10
140.124935389024
 20
126.6468254920812
 30
0.0
 10
139.9730176920377
 20
127.5933634308146
 30
0.0
 10
139.8210319234064
 20
128.646343148426
 30
0.0
 10
139.669108160341
 20
129.7686618914963
 30
0.0
 10
139.5171293851155
 20
130.918925648442
 30
0.0
 10
139.3651978125449
 20
132.0553059667437
 30
0.0
 10
139.2132275719867
 20
133.1371975783408
 30
0.0
 10
139.0612868854659
 20
134.1238814735333
 30
0.0
 10
138.9093262120312
 20
134.9813216351865
 30
0.0
 10
138.7573757274878
 20
135.6770880146077
 30
0.0
 10
138.6054247647907
 20
136.1828874331575
 30
0.0
 10
138.4581540909936
 20
136.4912760762741
 30
0.0
 10
138.3615433871715
 20
136.5191866722943
 30
0.0
 10
138.3155811594324
 20
136.5324650474625
 30
0.0
  0
LWPOLYLINE
  5
15D
330
1F
100
AcDbEntity
  8
0
  6
Continuous
 62
     8
370
    15
100
AcDbPolyline
 90
       19
 70
   128
 43
0.0
 10
135.8202306134
 20
124.5661346874
 10
135.7183131485
 20
124.5877388591
 10
135.5663600235
 20
124.83696974
 10
135.4144068986
 20
125.292936393
 10
135.2624537736
 20
125.9403465321
 10
135.1105006487
 20
126.7544193438
 10
134.9585475237
 20
127.7066805997
 10
134.8065943988
 20
128.7616097062
 10
134.6546412738
 20
129.8814812093
 10
134.5026881489
 20
131.025288141
 10
134.350735024
 20
132.1514094615
 10
134.198781899
 20
133.2192741328
 10
134.0468287741
 20
134.189420176
 10
133.8948756491
 20
135.0274368219
 10
133.7429225242
 20
135.7018785764
 10
133.5909693992
 20
136.1892487937
 10
133.4390162743
 20
136.4708646961
 10
133.2870631493
 20
136.5373227797
 10
133.2870631493
 20
136.5373227797
  0
SPLINE
  5
15E
330
1F
100
AcDbEntity
  8
0
  6
Continuous
 62
     8
370
    15
100
AcDbSpline
210
0.0
220
0.0
230
1.0
 70
     8
 71
     3
 72
    24
 73
    20
 74
     0
 42
0.00000001
 43
0.00000001
 12
1.0
 22
0.0
 32
0.0
 13
1.0
 23
0.0
 33
0.0
 40
0.0
 40
0.0
 40
0.0
 40
0.0
 40
0.0463510905570758
 40
0.1069983045207935
 40
0.1676479079098416
 40
0.2282939164349944
 40
0.2889445629310394
 40
0.3495894772028351
 40
0.4102409997308801
 40
0.4708850056277198
 40
0.531537200017242
 40
0.5921805406719634
 40
0.6528331755517901
 40
0.7134761338031979
 40
0.774128960494977
 40
0.8347718412619745
 40
0.8954246036722535
 40
0.9560677162868823
 40
1.0
 40
1.0
 40
1.0
 40
1.0
 10
130.8199915042065
 20
124.5617324821661
 30
0.0
 10
130.7812813488152
 20
124.5648845306085
 30
0.0
 10
130.6919216175807
 20
124.5721608176398
 30
0.0
 10
130.5519018591266
 20
124.8418381005319
 30
0.0
 10
130.3999612397825
 20
125.3134234618631
 30
0.0
 10
130.2479909812237
 20
125.9839515011248
 30
0.0
 10
130.0960594134986
 20
126.8167173766771
 30
0.0
 10
129.9440806369115
 20
127.7865986442061
 30
0.0
 10
129.7921568744572
 20
128.8556544322515
 30
0.0
 10
129.6401711047462
 20
129.986534184776
 30
0.0
 10
129.4882534114682
 20
131.1373713695107
 30
0.0
 10
129.3362625632452
 20
132.2665638934079
 30
0.0
 10
129.1843488807535
 20
133.3331405539031
 30
0.0
 10
129.0323551360078
 20
134.2982410673259
 30
0.0
 10
128.8804431762461
 20
135.1263219221841
 30
0.0
 10
128.728448965671
 20
135.789853287156
 30
0.0
 10
128.5765359630988
 20
136.2547297106155
 30
0.0
 10
128.4385124132597
 20
136.5145132661169
 30
0.0
 10
128.3511854069518
 20
136.5180803156786
 30
0.0
 10
128.3144991982291
 20
136.5195788386474
 30
0.0
  0
SPLINE
  5
15F
330
1F
100
AcDbEntity
  8
0
  6
Continuous
 62
     8
370
    15
100
AcDbSpline
210
0.0
220
0.0
230
1.0
 70
     8
 71
     3
 72
    12
 73
     8
 74
     0
 42
0.00000001
 43
0.00000001
 12
1.0
 22
0.0
 32
0.0
 13
1.0
 23
0.0
 33
0.0
 40
0.0
 40
0.0
 40
0.0
 40
0.0
 40
0.1715813947342939
 40
0.3786704726687647
 40
0.5857898115812638
 40
0.7928788664369225
 40
1.0
 40
1.0
 40
1.0
 40
1.0
 10
125.8152887395019
 20
124.5575353716005
 30
0.0
 10
125.7733300709488
 20
124.5663274415704
 30
0.0
 10
125.6807296530645
 20
124.5857310447199
 30
0.0
 10
125.5374361460247
 20
124.8773724189036
 30
0.0
 10
125.3855182810697
 20
125.3711555402154
 30
0.0
 10
125.2335312422108
 20
126.0503146787432
 30
0.0
 10
125.1322426304349
 20
126.6341247214867
 30
0.0
 10
125.0815944023743
 20
126.9260523495833
 30
0.0
  0
SPLINE
  5
160
330
1F
100
AcDbEntity
  8
0
  6
Continuous
 62
     8
370
    15
100
AcDbSpline
210
0.0
220
0.0
230
1.0
 70
     8
 71
     3
 72
    12
 73
     8
 74
     0
 42
0.00000001
 43
0.00000001
 12
1.0
 22
0.0
 32
0.0
 13
1.0
 23
0.0
 33
0.0
 40
0.0
 40
0.0
 40
0.0
 40
0.0
 40
0.0495545929886736
 40
0.3079141825926904
 40
0.5662498414878454
 40
0.824605359178263
 40
1.0
 40
1.0
 40
1.0
 40
1.0
 10
125.9641646341101
 20
125.6411456220907
 30
0.0
 10
125.9738809288495
 20
125.6479842671372
 30
0.0
 10
126.0342544436352
 20
125.6904771153784
 30
0.0
 10
126.145254057307
 20
125.9432238927128
 30
0.0
 10
126.2972291854531
 20
126.3998837512865
 30
0.0
 10
126.4329046184249
 20
126.9435044178545
 30
0.0
 10
126.5179486766479
 20
127.3694544177728
 30
0.0
 10
126.5523377638985
 20
127.5416949248424
 30
0.0
  0
SPLINE
  5
161
330
1F
100
AcDbEntity
  8
0
  6
Continuous
 62
     8
370
    15
100
AcDbSpline
210
0.0
220
0.0
230
1.0
 70
     8
 71
     3
 72
    12
 73
     8
 74
     0
 42
0.00000001
 43
0.00000001
 12
1.0
 22
0.0
 32
0.0
 13
1.0
 23
0.0
 33
0.0
 40
0.0
 40
0.0
 40
0.0
 40
0.0
 40
0.140771056812335
 40
0.3982815988332559
 40
0.6557640206844554
 40
0.9132778415181633
 40
0.9999999999999999
 40
0.9999999999999999
 40
0.9999999999999999
 40
0.9999999999999999
 10
127.5817229241682
 20
133.5416949248424
 30
0.0
 10
127.6094151788549
 20
133.6825559017469
 30
0.0
 10
127.687764491005
 20
134.0810919102501
 30
0.0
 10
127.8167367729956
 20
134.6098444890464
 30
0.0
 10
127.9687194734764
 20
135.0909776048367
 30
0.0
 10
128.0870568120079
 20
135.3696378037534
 30
0.0
 10
128.1547762744852
 20
135.424754062567
 30
0.0
 10
128.1718366002796
 20
135.4386393076285
 30
0.0
  0
SPLINE
  5
162
330
1F
100
AcDbEntity
  8
0
  6
Continuous
 62
     8
370
    15
100
AcDbSpline
210
0.0
220
0.0
230
1.0
 70
     8
 71
     3
 72
    12
 73
     8
 74
     0
 42
0.00000001
 43
0.00000001
 12
1.0
 22
0.0
 32
0.0
 13
1.0
 23
0.0
 33
0.0
 40
0.0
 40
0.0
 40
0.0
 40
0.0
 40
0.0754647874047728
 40
0.3335531520626197
 40
0.5916516027542267
 40
0.8497348762731035
 40
1.0
 40
1.0
 40
1.0
 40
1.0
 10
130.9633362168698
 20
125.6448332638524
 30
0.0
 10
130.9781461671239
 20
125.6564350944526
 30
0.0
 10
131.0436059101247
 20
125.7077149999488
 30
0.0
 10
131.1597245285129
 20
125.978972132261
 30
0.0
 10
131.3116652741548
 20
126.4532766770453
 30
0.0
 10
131.4424691198201
 20
126.9862770484685
 30
0.0
 10
131.5226033588535
 20
127.3922894185666
 30
0.0
 10
131.5520913681718
 20
127.5416949248424
 30
0.0
  0
SPLINE
  5
163
330
1F
100
AcDbEntity
  8
0
  6
Continuous
 62
     8
370
    15
100
AcDbSpline
210
0.0
220
0.0
230
1.0
 70
     8
 71
     3
 72
    12
 73
     8
 74
     0
 42
0.00000001
 43
0.00000001
 12
1.0
 22
0.0
 32
0.0
 13
1.0
 23
0.0
 33
0.0
 40
0.0
 40
0.0
 40
0.0
 40
0.0
 40
0.1649551191468691
 40
0.4215857710809109
 40
0.6781746589824155
 40
0.934805041572496
 40
1.0
 40
1.0
 40
1.0
 40
1.0
 10
132.5815635884912
 20
133.5416949248424
 30
0.0
 10
132.61412748153
 20
133.705546535605
 30
0.0
 10
132.6973529917608
 20
134.1243120035909
 30
0.0
 10
132.8311833357317
 20
134.6633696614088
 30
0.0
 10
132.9831779539217
 20
135.1279541909433
 30
0.0
 10
133.0973186419123
 20
135.3881455416472
 30
0.0
 10
133.1608487799078
 20
135.4343608323055
 30
0.0
 10
133.1737186325192
 20
135.4437230656947
 30
0.0
  0
SPLINE
  5
164
330
1F
100
AcDbEntity
  8
0
  6
Continuous
 62
     8
370
    15
100
AcDbSpline
210
0.0
220
0.0
230
1.0
 70
     8
 71
     3
 72
    12
 73
     8
 74
     0
 42
0.00000001
 43
0.00000001
 12
1.0
 22
0.0
 32
0.0
 13
1.0
 23
0.0
 33
0.0
 40
0.0
 40
0.0
 40
0.0
 40
0.0
 40
0.1027882356663072
 40
0.360082702488174
 40
0.6174142418916806
 40
0.8747064865183855
 40
1.0
 40
1.0
 40
1.0
 40
1.0
 10
135.9615228497493
 20
125.6457563621383
 30
0.0
 10
135.9817544303077
 20
125.6633309162318
 30
0.0
 10
136.052628710383
 20
125.7248972315986
 30
0.0
 10
136.1741910256619
 20
126.016102506067
 30
0.0
 10
136.3261063200391
 20
126.5082897240296
 30
0.0
 10
136.4521011896458
 20
127.0295953559653
 30
0.0
 10
136.5274029705582
 20
127.4153602665364
 30
0.0
 10
136.5520636499013
 20
127.5416949248424
 30
0.0
  0
SPLINE
  5
165
330
1F
100
AcDbEntity
  8
0
  6
Continuous
 62
     8
370
    15
100
AcDbSpline
210
0.0
220
0.0
230
1.0
 70
     8
 71
     3
 72
    12
 73
     8
 74
     0
 42
0.00000001
 43
0.00000001
 12
1.0
 22
0.0
 32
0.0
 13
1.0
 23
0.0
 33
0.0
 40
0.0
 40
0.0
 40
0.0
 40
0.0
 40
0.1918707530308658
 40
0.4510186334253074
 40
0.7101384963617806
 40
0.9692826616130671
 40
0.9999999999999999
 40
0.9999999999999999
 40
0.9999999999999999
 40
0.9999999999999999
 10
137.5811852141186
 20
133.5416949248424
 30
0.0
 10
137.6186927991782
 20
133.728279653083
 30
0.0
 10
137.7068595441849
 20
134.1668727571378
 30
0.0
 10
137.8456434789365
 20
134.7158279561493
 30
0.0
 10
137.9976224723493
 20
135.1622603258562
 30
0.0
 10
138.1049121598807
 20
135.4025582931279
 30
0.0
 10
138.1615717399094
 20
135.4402356477151
 30
0.0
 10
138.167576095337
 20
135.4442284098993
 30
0.0
  0
SPLINE
  5
166
330
1F
100
AcDbEntity
  8
0
  6
Continuous
 62
     8
370
    15
100
AcDbSpline
210
0.0
220
0.0
230
1.0
 70
     8
 71
     3
 72
    12
 73
     8
 74
     0
 42
0.00000001
 43
0.00000001
 12
1.0
 22
0.0
 32
0.0
 13
1.0
 23
0.0
 33
0.0
 40
0.0
 40
0.0
 40
0.0
 40
0.0
 40
0.1259208505279716
 40
0.383521237501381
 40
0.6411609644362921
 40
0.8987635769149074
 40
1.0
 40
1.0
 40
1.0
 40
1.0
 10
140.9624061559696
 20
125.647630002426
 30
0.0
 10
140.9871606607032
 20
125.6714801706188
 30
0.0
 10
141.0625562623795
 20
125.7441214050259
 30
0.0
 10
141.1886449789071
 20
126.0549876210794
 30
0.0
 10
141.3405602610865
 20
126.5646478997493
 30
0.0
 10
141.4617932537731
 20
127.0735541062164
 30
0.0
 10
141.5323382828587
 20
127.4386837750693
 30
0.0
 10
141.5522405947681
 20
127.5416949248424
 30
0.0
  0
SPLINE
  5
167
330
1F
100
AcDbEntity
  8
0
  6
Continuous
 62
     8
370
    15
100
AcDbSpline
210
0.0
220
0.0
230
1.0
 70
     8
 71
     3
 72
    10
 73
     6
 74
     0
 42
0.00000001
 43
0.00000001
 12
1.0
 22
0.0
 32
0.0
 13
1.0
 23
0.0
 33
0.0
 40
0.0
 40
0.0
 40
0.0
 40
0.0
 40
0.234217915334661
 40
0.9818805369620983
 40
1.0
 40
1.0
 40
1.0
 40
1.0
 10
142.96446316968
 20
135.0416949248424
 30
0.0
 10
142.9803296718521
 20
135.0888223711234
 30
0.0
 10
143.0468446933448
 20
135.2863884804192
 30
0.0
 10
143.1145956761634
 20
135.4199373581458
 30
0.0
 10
143.1664711722175
 20
135.45088108116
 30
0.0
 10
143.167698618187
 20
135.4516132524352
 30
0.0
  0
SPLINE
  5
168
330
1F
100
AcDbEntity
  8
0
  6
Continuous
 62
     8
370
    15
100
AcDbSpline
210
0.0
220
0.0
230
1.0
 70
     8
 71
     3
 72
    11
 73
     7
 74
     0
 42
0.00000001
 43
0.00000001
 12
1.0
 22
0.0
 32
0.0
 13
1.0
 23
0.0
 33
0.0
 40
0.0
 40
0.0
 40
0.0
 40
0.0
 40
0.1948123874574618
 40
0.4632049947086257
 40
0.7316012829585544
 40
1.0
 40
1.0
 40
1.0
 40
1.0
 10
124.5921664003325
 20
127.1957818795232
 30
0.0
 10
124.598381980545
 20
127.1672925967224
 30
0.0
 10
124.6131607522498
 20
127.0995536902739
 30
0.0
 10
124.7201358748898
 20
127.0092577494895
 30
0.0
 10
124.8852744476971
 20
126.9401323160035
 30
0.0
 10
125.0161542153277
 20
126.9307455679671
 30
0.0
 10
125.0815943952334
 20
126.9260521727132
 30
0.0
  0
SPLINE
  5
169
330
1F
100
AcDbEntity
  8
0
  6
Continuous
 62
     8
370
    15
100
AcDbSpline
210
0.0
220
0.0
230
1.0
 70
     8
 71
     3
 72
    12
 73
     8
 74
     0
 42
0.00000001
 43
0.00000001
 12
1.0
 22
0.0
 32
0.0
 13
1.0
 23
0.0
 33
0.0
 40
0.0
 40
0.0
 40
0.0
 40
0.0
 40
0.0682269060176757
 40
0.3011664436216758
 40
0.5341081298933229
 40
0.7670530109539195
 40
1.0
 40
1.0
 40
1.0
 40
1.0
 10
125.5702987544836
 20
127.2610893035958
 30
0.0
 10
125.5748317826398
 20
127.2498821815926
 30
0.0
 10
125.5948414247053
 20
127.2004118292942
 30
0.0
 10
125.5510088116105
 20
127.1088062956825
 30
0.0
 10
125.4456603880232
 20
127.009212241354
 30
0.0
 10
125.2772624729778
 20
126.9401439126036
 30
0.0
 10
125.146817289314
 20
126.9307495514254
 30
0.0
 10
125.0815944023743
 20
126.9260523495833
 30
0.0
  0
SPLINE
  5
16A
330
1F
100
AcDbEntity
  8
0
  6
Continuous
 62
     8
370
    15
100
AcDbSpline
210
0.0
220
0.0
230
1.0
 70
     8
 71
     3
 72
    12
 73
     8
 74
     0
 42
0.00000001
 43
0.00000001
 12
1.0
 22
0.0
 32
0.0
 13
1.0
 23
0.0
 33
0.0
 40
0.0
 40
0.0
 40
0.0
 40
0.0
 40
0.1101000981425284
 40
0.3679081556107098
 40
0.6257059672718287
 40
0.8835187076909478
 40
1.0
 40
1.0
 40
1.0
 40
1.0
 10
123.1710985000157
 20
135.4358686769563
 30
0.0
 10
123.1494667949698
 20
135.4162103789028
 30
0.0
 10
123.0771827476308
 20
135.3505206265654
 30
0.0
 10
122.9542558017463
 20
135.0534750178404
 30
0.0
 10
122.8022902269089
 20
134.5539179520647
 30
0.0
 10
122.6781147280792
 20
134.0376955030205
 30
0.0
 10
122.6045723885413
 20
133.6594163859363
 30
0.0
 10
122.581685818092
 20
133.5416949248424
 30
0.0
  0
SPLINE
  5
16B
330
1F
100
AcDbEntity
  8
0
  6
Continuous
 62
     8
370
    15
100
AcDbSpline
210
0.0
220
0.0
230
1.0
 70
     8
 71
     3
 72
    12
 73
     8
 74
     0
 42
0.00000001
 43
0.00000001
 12
1.0
 22
0.0
 32
0.0
 13
1.0
 23
0.0
 33
0.0
 40
0.0
 40
0.0
 40
0.0
 40
0.0
 40
0.2009703127644225
 40
0.4595248400055854
 40
0.7181214511885986
 40
0.9766763062871778
 40
1.0
 40
1.0
 40
1.0
 40
1.0
 10
121.5528110455681
 20
127.5416949248424
 30
0.0
 10
121.5134492431773
 20
127.3467741304466
 30
0.0
 10
121.4234472637947
 20
126.9010817014186
 30
0.0
 10
121.2827459000144
 20
126.3480661700574
 30
0.0
 10
121.1308348010827
 20
125.9090652887602
 30
0.0
 10
121.0249340352199
 20
125.6735679273487
 30
0.0
 10
120.9697231762538
 20
125.6386720525783
 30
0.0
 10
120.9651548216572
 20
125.6357846363545
 30
0.0
  0
SPLINE
  5
16C
330
1F
100
AcDbEntity
  8
0
  6
Continuous
 62
     8
370
    15
100
AcDbSpline
210
0.0
220
0.0
230
1.0
 70
     8
 71
     3
 72
    12
 73
     8
 74
     0
 42
0.00000001
 43
0.00000001
 12
1.0
 22
0.0
 32
0.0
 13
1.0
 23
0.0
 33
0.0
 40
0.0
 40
0.0
 40
0.0
 40
0.0
 40
0.1368458988232044
 40
0.3938847913947046
 40
0.6508864491304222
 40
0.9079271948787333
 40
1.0
 40
1.0
 40
1.0
 40
1.0
 10
118.1726603827757
 20
135.437341031248
 30
0.0
 10
118.145689504213
 20
135.410440424823
 30
0.0
 10
118.0680589798949
 20
135.3330121654363
 30
0.0
 10
117.9398158846368
 20
135.0135551785187
 30
0.0
 10
117.7878248600709
 20
134.4975494957228
 30
0.0
 10
117.668406809677
 20
133.9931966203643
 30
0.0
 10
117.5995993680885
 20
133.6359204761525
 30
0.0
 10
117.5814525670134
 20
133.5416949248424
 30
0.0
  0
SPLINE
  5
16D
330
1F
100
AcDbEntity
  8
0
  6
Continuous
 62
     8
370
    15
100
AcDbSpline
210
0.0
220
0.0
230
1.0
 70
     8
 71
     3
 72
    11
 73
     7
 74
     0
 42
0.00000001
 43
0.00000001
 12
1.0
 22
0.0
 32
0.0
 13
1.0
 23
0.0
 33
0.0
 40
0.0
 40
0.0
 40
0.0
 40
0.0
 40
0.2278307112156272
 40
0.4875489076940308
 40
0.7472954726426718
 40
0.9999999999999999
 40
0.9999999999999999
 40
0.9999999999999999
 40
0.9999999999999999
 10
116.5535467578356
 20
127.5416949248424
 30
0.0
 10
116.5091216886358
 20
127.3241497591082
 30
0.0
 10
116.4140537592638
 20
126.8586115208176
 30
0.0
 10
116.2683004039825
 20
126.3030646988741
 30
0.0
 10
116.1177385181353
 20
125.8587238470649
 30
0.0
 10
116.0177969269639
 20
125.7085730428491
 30
0.0
 10
115.9685128236817
 20
125.6345293173474
 30
0.0
  0
SPLINE
  5
16E
330
1F
100
AcDbEntity
  8
0
  6
Continuous
 62
     8
370
    15
100
AcDbSpline
210
0.0
220
0.0
230
1.0
 70
     8
 71
     3
 72
    12
 73
     8
 74
     0
 42
0.00000001
 43
0.00000001
 12
1.0
 22
0.0
 32
0.0
 13
1.0
 23
0.0
 33
0.0
 40
0.0
 40
0.0
 40
0.0
 40
0.0
 40
0.1584155497779769
 40
0.4161280775166326
 40
0.6738014150852637
 40
0.9315120848038372
 40
1.0
 40
1.0
 40
1.0
 40
1.0
 10
113.1707176990913
 20
135.4362490277962
 30
0.0
 10
113.1395762573932
 20
135.4022437081895
 30
0.0
 10
113.0577735032879
 20
135.3129180814241
 30
0.0
 10
112.925363497769
 20
134.9717295446212
 30
0.0
 10
112.7733724366132
 20
134.440000052578
 30
0.0
 10
112.6586351095019
 20
133.9480982707843
 30
0.0
 10
112.5945132954562
 20
133.612216003938
 30
0.0
 10
112.5810504247827
 20
133.5416949248424
 30
0.0
  0
SPLINE
  5
16F
330
1F
100
AcDbEntity
  8
0
  6
Continuous
 62
     8
370
    15
100
AcDbSpline
210
0.0
220
0.0
230
1.0
 70
     8
 71
     3
 72
     9
 73
     5
 74
     0
 42
0.00000001
 43
0.00000001
 12
1.0
 22
0.0
 32
0.0
 13
1.0
 23
0.0
 33
0.0
 40
0.0
 40
0.0
 40
0.0
 40
0.0
 40
0.3271889575524901
 40
1.0
 40
1.0
 40
1.0
 40
1.0
 10
111.1683005328428
 20
126.0416949248424
 30
0.0
 10
111.1461691794942
 20
125.9768534860886
 30
0.0
 10
111.0785282862495
 20
125.7786761416
 30
0.0
 10
111.0108913600089
 20
125.6937514246914
 30
0.0
 10
110.9653844891571
 20
125.6366131373786
 30
0.0
  0
SPLINE
  5
170
330
1F
100
AcDbEntity
  8
0
  6
Continuous
 62
     8
370
    15
100
AcDbSpline
210
0.0
220
0.0
230
1.0
 70
     8
 71
     3
 72
     9
 73
     5
 74
     0
 42
0.00000001
 43
0.00000001
 12
1.0
 22
0.0
 32
0.0
 13
1.0
 23
0.0
 33
0.0
 40
0.0
 40
0.0
 40
0.0
 40
0.0
 40
0.5256607149979989
 40
1.0
 40
1.0
 40
1.0
 40
1.0
 10
108.1712123440791
 20
135.4396987941508
 30
0.0
 10
108.1350889648973
 20
135.4002965709265
 30
0.0
 10
108.0663690127473
 20
135.3253390515608
 30
0.0
 10
107.997656986308
 20
135.1329517702858
 30
0.0
 10
107.9650641728158
 20
135.0416949248424
 30
0.0
  0
SPLINE
  5
171
330
1F
100
AcDbEntity
  8
0
  6
Continuous
 62
     8
370
    15
100
AcDbSpline
210
0.0
220
0.0
230
1.0
 70
     8
 71
     3
 72
    10
 73
     6
 74
     0
 42
0.00000001
 43
0.00000001
 12
1.0
 22
0.0
 32
0.0
 13
1.0
 23
0.0
 33
0.0
 40
0.0
 40
0.0
 40
0.0
 40
0.0
 40
0.2648036906276007
 40
0.7633871465724826
 40
0.9999999999999999
 40
0.9999999999999999
 40
0.9999999999999999
 40
0.9999999999999999
 10
106.1681696131588
 20
126.0416949248424
 30
0.0
 10
106.1412633133527
 20
125.9667247077051
 30
0.0
 10
106.063696707747
 20
125.7505974324291
 30
0.0
 10
105.962121513508
 20
125.5915875157137
 30
0.0
 10
105.8874195555083
 20
125.5775828783198
 30
0.0
 10
105.863377754409
 20
125.5730756777629
 30
0.0
  0
SPLINE
  5
172
330
1F
100
AcDbEntity
  8
0
  6
Continuous
 62
     8
370
    15
100
AcDbSpline
210
0.0
220
0.0
230
1.0
 70
     8
 71
     3
 72
     9
 73
     5
 74
     0
 42
0.00000001
 43
0.00000001
 12
1.0
 22
0.0
 32
0.0
 13
1.0
 23
0.0
 33
0.0
 40
0.0
 40
0.0
 40
0.0
 40
0.0
 40
0.6635783329405348
 40
0.9999999999999999
 40
0.9999999999999999
 40
0.9999999999999999
 40
0.9999999999999999
 10
105.6315944023743
 20
124.7038301883266
 30
0.0
 10
105.6822428408057
 20
124.6275510886367
 30
0.0
 10
105.7585690797999
 20
124.5125999277814
 30
0.0
 10
105.8349130544462
 20
124.5617110027316
 30
0.0
 10
105.8605968216667
 20
124.5782330324374
 30
0.0
  0
SPLINE
  5
173
330
1F
100
AcDbEntity
  8
0
  6
Continuous
 62
     8
370
    15
100
AcDbSpline
210
0.0
220
0.0
230
1.0
 70
     8
 71
     3
 72
    25
 73
    21
 74
     0
 42
0.00000001
 43
0.00000001
 12
1.0
 22
0.0
 32
0.0
 13
1.0
 23
0.0
 33
0.0
 40
0.0
 40
0.0
 40
0.0
 40
0.0
 40
0.02089293720023
 40
0.0815790566311764
 40
0.1422726329624621
 40
0.2029579587877428
 40
0.2636520946465085
 40
0.3243368921928908
 40
0.3850313461679971
 40
0.4457159117073585
 40
0.506410430008144
 40
0.5670950730851849
 40
0.6277893994421809
 40
0.6884744251853931
 40
0.749168310749293
 40
0.8098540021919063
 40
0.870547215432534
 40
0.9312338158745282
 40
0.9919261524809915
 40
1.0
 40
1.0
 40
1.0
 40
1.0
 10
108.3144421861087
 20
136.5168254818092
 30
0.0
 10
108.3318779527978
 20
136.5239951094119
 30
0.0
 10
108.3999580597025
 20
136.551989806884
 30
0.0
 10
108.5187197107789
 20
136.3752723128777
 30
0.0
 10
108.6706396733548
 20
135.9941181214938
 30
0.0
 10
108.8226283788615
 20
135.3986776912116
 30
0.0
 10
108.9745437582497
 20
134.6315666523973
 30
0.0
 10
109.1265363510498
 20
133.7141036090119
 30
0.0
 10
109.2784488617229
 20
132.6819784835738
 30
0.0
 10
109.4304432041164
 20
131.571777823977
 30
0.0
 10
109.5823551284676
 20
130.4242604127816
 30
0.0
 10
109.7343488830271
 20
129.2808985670951
 30
0.0
 10
109.8862625616709
 20
128.1835563566037
 30
0.0
 10
110.0382534154698
 20
127.1716390153197
 30
0.0
 10
110.1901710902897
 20
126.2824789643978
 30
0.0
 10
110.342156928253
 20
125.5487077203281
 30
0.0
 10
110.4940804361414
 20
124.9920219224074
 30
0.0
 10
110.646060162694
 20
124.6567483159578
 30
0.0
 10
110.7540838311066
 20
124.5153582762941
 30
0.0
 10
110.8114777563469
 20
124.5505029390763
 30
0.0
 10
110.8182163853227
 20
124.5546292789629
 30
0.0
  0
LWPOLYLINE
  5
174
330
1F
100
AcDbEntity
  8
0
  6
Continuous
 62
     8
370
    15
100
AcDbPolyline
 90
       19
 70
   128
 43
0.0
 10
113.3139671151
 20
136.5144516789
 10
113.3812037745
 20
136.5218825153
 10
113.5331568994
 20
136.3213047693
 10
113.6851100244
 20
135.9104954235
 10
113.8370631493
 20
135.3047659825
 10
113.9890162743
 20
134.5255754353
 10
114.1409693992
 20
133.6019224164
 10
114.2929225242
 20
132.5666743123
 10
114.4448756491
 20
131.4581164552
 10
114.5968287741
 20
130.3160353159
 10
114.748781899
 20
129.1822370932
 10
114.9007350239
 20
128.0979279571
 10
115.0526881489
 20
127.1022142595
 10
115.2046412738
 20
126.2319301167
 10
115.3565943988
 20
125.5177654134
 10
115.5085475237
 20
124.9868874532
 10
115.6605006487
 20
124.6572021331
 10
115.8124537736
 20
124.5421820653
 10
115.8124537736
 20
124.5421820653
  0
SPLINE
  5
175
330
1F
100
AcDbEntity
  8
0
  6
Continuous
 62
     8
370
    15
100
AcDbSpline
210
0.0
220
0.0
230
1.0
 70
     8
 71
     3
 72
    24
 73
    20
 74
     0
 42
0.00000001
 43
0.00000001
 12
1.0
 22
0.0
 32
0.0
 13
1.0
 23
0.0
 33
0.0
 40
0.0
 40
0.0
 40
0.0
 40
0.0
 40
0.0325274827215572
 40
0.0932096887622107
 40
0.1538976294839483
 40
0.2145809305325083
 40
0.2752678274274311
 40
0.3359523346924661
 40
0.3966380676319175
 40
0.4573238012216977
 40
0.5180083078219614
 40
0.5786952053168395
 40
0.6393785057373073
 40
0.7000664469806075
 40
0.7607486524748459
 40
0.8214374702888149
 40
0.8821187668495141
 40
0.9428082569380908
 40
1.0
 40
1.0
 40
1.0
 40
1.0
 10
118.3142143377529
 20
136.5142595943092
 30
0.0
 10
118.3413611253403
 20
136.5193511908909
 30
0.0
 10
118.4191520704182
 20
136.5339415032352
 30
0.0
 10
118.5476217476497
 20
136.3198823466697
 30
0.0
 10
118.6995535276757
 20
135.8948313355668
 30
0.0
 10
118.8515237071623
 20
135.2662367932768
 30
0.0
 10
119.0034644205603
 20
134.4671179346051
 30
0.0
 10
119.1554250579879
 20
133.525966983721
 30
0.0
 10
119.3073756488836
 20
132.4754193092606
 30
0.0
 10
119.4593262331445
 20
131.3552628801218
 30
0.0
 10
119.6112868795301
 20
130.2052257346674
 30
0.0
 10
119.7632275745398
 20
129.0673139921202
 30
0.0
 10
119.9151978081941
 20
127.9835073643222
 30
0.0
 10
120.0671293998917
 20
126.9917950891687
 30
0.0
 10
120.2191081055164
 20
126.1305177252028
 30
0.0
 10
120.3710321278712
 20
125.4271204752563
 30
0.0
 10
120.5230169289992
 20
124.9156679707415
 30
0.0
 10
120.6720267715122
 20
124.5958894405768
 30
0.0
 10
120.7704289899069
 20
124.5635757048857
 30
0.0
 10
120.8181702141946
 20
124.5478982402068
 30
0.0
  0
SPLINE
  5
176
330
1F
100
AcDbEntity
  8
0
  6
Continuous
 62
     8
370
    15
100
AcDbSpline
210
0.0
220
0.0
230
1.0
 70
     8
 71
     3
 72
    22
 73
    18
 74
     0
 42
0.00000001
 43
0.00000001
 12
1.0
 22
0.0
 32
0.0
 13
1.0
 23
0.0
 33
0.0
 40
0.0
 40
0.0
 40
0.0
 40
0.0
 40
0.125
 40
0.125
 40
0.2500000000000001
 40
0.2500000000000001
 40
0.3750000000000001
 40
0.3750000000000001
 40
0.5000000000000001
 40
0.5000000000000001
 40
0.625
 40
0.625
 40
0.7499999999999999
 40
0.7499999999999999
 40
0.875
 40
0.875
 40
1.0
 40
1.0
 40
1.0
 40
1.0
 10
123.2581568958921
 20
136.5253538577907
 30
0.0
 10
123.3341334583642
 20
136.567597715833
 30
0.0
 10
123.4101100208363
 20
136.5269447061993
 30
0.0
 10
123.5620631457817
 20
136.2857320795122
 30
0.0
 10
123.6380397082552
 20
136.0838853691383
 30
0.0
 10
123.7899928332029
 20
135.5354035198906
 30
0.0
 10
123.8659693956767
 20
135.1893013488717
 30
0.0
 10
124.0179225206225
 20
134.3787940716852
 30
0.0
 10
124.0938990830947
 20
133.9153395250661
 30
0.0
 10
124.2458522080391
 20
132.9096388514066
 30
0.0
 10
124.3218287705113
 20
132.3669313578403
 30
0.0
 10
124.4737818954557
 20
131.2470236795738
 30
0.0
 10
124.5497584579278
 20
130.6698532130265
 30
0.0
 10
124.7017115828721
 20
129.5273071216679
 30
0.0
 10
124.7776881453442
 20
128.962014556136
 30
0.0
 10
124.9296412702884
 20
127.8901295880433
 30
0.0
 10
125.0056178327605
 20
127.3833566409758
 30
0.0
 10
125.0815943952334
 20
126.9260521727132
 30
0.0
  0
DIMENSION
  5
177
330
1F
100
AcDbEntity
  8
0
  6
Continuous
 62
     7
370
     0
100
AcDbDimension
  2
_D_2
 10
97.0785016405
 20
146.9842336593
 30
0.0
 11
93.5138007708
 21
146.9842336593
 31
0.0
 70
   160
  1
<>
 71
     2
 42
-1.0
  3
SLDDIMSTYLE2
100
AcDbAlignedDimension
 13
88.0785016405
 23
136.0416949248
 33
0.0
 14
97.0785016405
 24
136.5416949248
 34
0.0
100
AcDbRotatedDimension
  0
DIMENSION
  5
184
330
1F
100
AcDbEntity
  8
0
  6
Continuous
 62
     7
370
     0
100
AcDbDimension
  2
_D_3
 10
80.7959445466
 20
125.0416949248
 30
0.0
 11
80.7959445466
 21
130.5416949248
 31
0.0
 70
   160
  1
%%c<>
 71
     2
 42
-1.0
  3
SLDDIMSTYLE2
100
AcDbAlignedDimension
 13
88.0785016405
 23
136.0416949248
 33
0.0
 14
88.0785016405
 24
125.0416949248
 34
0.0
 50
90.0
100
AcDbRotatedDimension
  0
DIMENSION
  5
191
330
1F
100
AcDbEntity
  8
0
  6
Continuous
 62
     7
370
     0
100
AcDbDimension
  2
_D_4
 10
168.0785016405
 20
103.7416949248
 30
0.0
 11
157.5785016405
 21
103.7416949248
 31
0.0
 70
   160
  1
<>
 71
     2
 42
-1.0
  3
SLDDIMSTYLE3
100
AcDbAlignedDimension
 13
147.0785016405
 23
122.9416949248
 33
0.0
 14
168.0785016405
 24
124.9416949248
 34
0.0
100
AcDbRotatedDimension
  0
DIMENSION
  5
19C
330
1F
100
AcDbEntity
  8
0
  6
Continuous
 62
     7
370
     0
100
AcDbDimension
  2
_D_5
 10
180.0785016405
 20
127.5416949248
 30
0.0
 11
180.0785016405
 21
117.7057204658
 31
0.0
 70
   160
  1
%%c<>
 71
     2
 42
-1.0
  3
SLDDIMSTYLE2
100
AcDbAlignedDimension
 13
169.5785016405
 23
133.5416949248
 33
0.0
 14
169.5785016405
 24
127.5416949248
 34
0.0
 50
90.0
100
AcDbRotatedDimension
  0
DIMENSION
  5
1A9
330
1F
100
AcDbEntity
  8
0
  6
Continuous
 62
     7
370
     0
100
AcDbDimension
  2
_D_6
 10
188.6776474133
 20
124.5416949248
 30
0.0
 11
188.6776474133
 21
129.8712819705
 31
0.0
 70
   160
  1
%%c<>
 71
     2
 42
-1.0
  3
SLDDIMSTYLE3
100
AcDbAlignedDimension
 13
167.6785016405
 23
136.5416949248
 33
0.0
 14
167.6785016405
 24
124.5416949248
 34
0.0
 50
90.0
100
AcDbRotatedDimension
  0
DIMENSION
  5
1B4
330
1F
100
AcDbEntity
  8
0
  6
Continuous
 62
     7
370
     0
100
AcDbDimension
  2
_D_7
 10
142.0785016405
 20
103.7416949248
 30
0.0
 11
127.1355504849
 21
103.7416949248
 31
0.0
 70
   160
  1
<>st
 71
     2
 42
-1.0
  3
SLDDIMSTYLE3
100
AcDbAlignedDimension
 13
112.0785016405
 23
126.0416949248
 33
0.0
 14
142.0785016405
 24
126.4416949248
 34
0.0
100
AcDbRotatedDimension
  0
DIMENSION
  5
1BF
330
1F
100
AcDbEntity
  8
0
  6
Continuous
 62
     7
370
     0
100
AcDbDimension
  2
_D_8
 10
170.0785016405
 20
158.6449140533
 30
0.0
 11
131.1755608829
 21
158.6449140533
 31
0.0
 70
   160
  1
<>
 71
     2
 42
-1.0
  3
SLDDIMSTYLE3
100
AcDbAlignedDimension
 13
88.0785016405
 23
136.0416949248
 33
0.0
 14
170.0785016405
 24
133.0416949248
 34
0.0
100
AcDbRotatedDimension
  0
MTEXT
  5
1C9
330
1F
100
AcDbEntity
  8
0
  6
Continuous
 62
     7
370
     0
100
AcDbMText
 10
73.8315503231
 20
107.2277375916
 30
0.0
 40
3.5
 41
0.0
 71
     1
 72
     1
  1
BF-6
  7
SLDTEXTSTYLE1
 73
     1
 44
1.0
  0
LEADER
  5
1CA
330
1F
100
AcDbEntity
  8
0
  6
Continuous
 62
     7
370
     0
100
AcDbLeader
  3
SLDDIMSTYLE1
 76
     3
 10
100.9132639511
 20
117.1095385786
 30
0.0
 10
83.3839390387
 20
102.6963657679
 30
0.0
 10
73.7397420868
 20
102.6963657679
 30
0.0
  0
LINE
  5
1CB
330
1F
100
AcDbEntity
  8
0
  6
CENTERX2
 62
     7
370
     0
100
AcDbLine
 10
88.0785016405
 20
130.5416949248
 30
0.0
 11
171.8142850734
 21
130.5416949248
 31
0.0
  0
ENDSEC
  0
SECTION
  2
OBJECTS
  0
DICTIONARY
  5
C
330
0
100
AcDbDictionary
281
     1
  3
ACAD_GROUP
350
D
  3
ACAD_LAYOUT
350
1A
  3
ACAD_MLINESTYLE
350
17
  3
ACAD_PLOTSETTINGS
350
19
  3
ACAD_PLOTSTYLENAME
350
E
  0
DICTIONARY
  5
D
102
{ACAD_REACTORS
330
C
102
}
330
C
100
AcDbDictionary
281
     1
  0
DICTIONARY
  5
1A
102
{ACAD_REACTORS
330
C
102
}
330
C
100
AcDbDictionary
281
     1
  3
Layout1
350
1E
  3
Layout2
350
26
  3
Model
350
22
  0
DICTIONARY
  5
17
102
{ACAD_REACTORS
330
C
102
}
330
C
100
AcDbDictionary
281
     1
  3
Standard
350
18
  0
DICTIONARY
  5
19
102
{ACAD_REACTORS
330
C
102
}
330
C
100
AcDbDictionary
281
     1
  0
ACDBDICTIONARYWDFLT
  5
E
102
{ACAD_REACTORS
330
C
102
}
330
C
100
AcDbDictionary
281
     1
  3
Normal
350
F
100
AcDbDictionaryWithDefault
340
F
  0
LAYOUT
  5
1E
102
{ACAD_REACTORS
330
1A
102
}
330
1A
100
AcDbPlotSettings
  1

  2
none_device
  4

  6

 40
0.0
 41
0.0
 42
0.0
 43
0.0
 44
0.0
 45
0.0
 46
0.0
 47
0.0
 48
0.0
 49
0.0
140
0.0
141
0.0
142
1.0
143
1.0
 70
   688
 72
     0
 73
     0
 74
     5
  7

 75
    16
147
1.0
148
0.0
149
0.0
100
AcDbLayout
  1
Layout1
 70
     1
 71
     1
 10
0.0
 20
0.0
 11
420.0
 21
297.0
 12
0.0
 22
0.0
 32
0.0
 14
1.0000000000E+20
 24
1.0000000000E+20
 34
1.0000000000E+20
 15
-1.0000000000E+20
 25
-1.0000000000E+20
 35
-1.0000000000E+20
146
0.0
 13
0.0
 23
0.0
 33
0.0
 16
1.0
 26
0.0
 36
0.0
 17
0.0
 27
1.0
 37
0.0
 76
     0
330
1B
  0
LAYOUT
  5
26
102
{ACAD_REACTORS
330
1A
102
}
330
1A
100
AcDbPlotSettings
  1

  2
none_device
  4

  6

 40
0.0
 41
0.0
 42
0.0
 43
0.0
 44
0.0
 45
0.0
 46
0.0
 47
0.0
 48
0.0
 49
0.0
140
0.0
141
0.0
142
1.0
143
1.0
 70
   688
 72
     0
 73
     0
 74
     5
  7

 75
    16
147
1.0
148
0.0
149
0.0
100
AcDbLayout
  1
Layout2
 70
     1
 71
     2
 10
0.0
 20
0.0
 11
0.0
 21
0.0
 12
0.0
 22
0.0
 32
0.0
 14
0.0
 24
0.0
 34
0.0
 15
0.0
 25
0.0
 35
0.0
146
0.0
 13
0.0
 23
0.0
 33
0.0
 16
1.0
 26
0.0
 36
0.0
 17
0.0
 27
1.0
 37
0.0
 76
     0
330
23
  0
LAYOUT
  5
22
102
{ACAD_REACTORS
330
1A
102
}
330
1A
100
AcDbPlotSettings
  1

  2
none_device
  4

  6

 40
0.0
 41
0.0
 42
0.0
 43
0.0
 44
0.0
 45
0.0
 46
0.0
 47
0.0
 48
0.0
 49
0.0
140
0.0
141
0.0
142
1.0
143
1.0
 70
  1712
 72
     0
 73
     0
 74
     0
  7

 75
     0
147
1.0
148
0.0
149
0.0
100
AcDbLayout
  1
Model
 70
     1
 71
     0
 10
0.0
 20
0.0
 11
210.0
 21
297.0
 12
0.0
 22
0.0
 32
0.0
 14
0.0
 24
0.0
 34
0.0
 15
210.0
 25
297.0
 35
0.0
146
0.0
 13
0.0
 23
0.0
 33
0.0
 16
1.0
 26
0.0
 36
0.0
 17
0.0
 27
1.0
 37
0.0
 76
     0
330
1F
331
29
  0
MLINESTYLE
  5
18
102
{ACAD_REACTORS
330
17
102
}
330
17
100
AcDbMlineStyle
  2
Standard
 70
     0
  3

 62
   256
 51
90.0
 52
90.0
 71
     2
 49
0.5
 62
   256
  6
BYLAYER
 49
-0.5
 62
   256
  6
BYLAYER
  0
ACDBPLACEHOLDER
  5
F
102
{ACAD_REACTORS
330
E
102
}
330
E
  0
ENDSEC
  0
EOF
