  0
SECTION
  2
HEADER
  9
$ACADVER
  1
AC1015
  9
$ACADMAINTVER
 70
     6
  9
$DWGCODEPAGE
  3
DOS932
  9
$INSBASE
 10
0.0
 20
0.0
 30
0.0
  9
$EXTMIN
 10
0.0
 20
0.0
 30
0.0
  9
$EXTMAX
 10
210.0
 20
297.0
 30
0.0
  9
$LIMMIN
 10
0.0
 20
0.0
  9
$LIMMAX
 10
210.0
 20
297.0
  9
$ORTHOMODE
 70
     0
  9
$REGENMODE
 70
     1
  9
$FILLMODE
 70
     1
  9
$QTEXTMODE
 70
     0
  9
$MIRRTEXT
 70
     1
  9
$LTSCALE
 40
1.0
  9
$ATTMODE
 70
     1
  9
$TEXTSIZE
 40
3.5
  9
$TRACEWID
 40
1.0
  9
$TEXTSTYLE
  7
Standard
  9
$CLAYER
  8
0
  9
$CELTYPE
  6
ByLayer
  9
$CECOLOR
 62
   256
  9
$CELTSCALE
 40
1.0
  9
$DISPSILH
 70
     0
  9
$DIMSCALE
 40
1.0
  9
$DIMASZ
 40
2.0
  9
$DIMEXO
 40
1.0
  9
$DIMDLI
 40
3.75
  9
$DIMRND
 40
0.0
  9
$DIMDLE
 40
0.0
  9
$DIMEXE
 40
1.0
  9
$DIMTP
 40
0.0
  9
$DIMTM
 40
0.0
  9
$DIMTXT
 40
3.5
  9
$DIMCEN
 40
2.5
  9
$DIMTSZ
 40
0.0
  9
$DIMTOL
 70
     0
  9
$DIMLIM
 70
     0
  9
$DIMTIH
 70
     1
  9
$DIMTOH
 70
     1
  9
$DIMSE1
 70
     0
  9
$DIMSE2
 70
     0
  9
$DIMTAD
 70
     1
  9
$DIMZIN
 70
     0
  9
$DIMBLK
  1

  9
$DIMASO
 70
     1
  9
$DIMSHO
 70
     1
  9
$DIMPOST
  1

  9
$DIMAPOST
  1

  9
$DIMALT
 70
     0
  9
$DIMALTD
 70
     3
  9
$DIMALTF
 40
0.0393700787
  9
$DIMLFAC
 40
1.0
  9
$DIMTOFL
 70
     1
  9
$DIMTVP
 40
0.0
  9
$DIMTIX
 70
     0
  9
$DIMSOXD
 70
     0
  9
$DIMSAH
 70
     0
  9
$DIMBLK1
  1

  9
$DIMBLK2
  1

  9
$DIMSTYLE
  2
ISO-25
  9
$DIMCLRD
 70
     0
  9
$DIMCLRE
 70
     0
  9
$DIMCLRT
 70
     0
  9
$DIMTFAC
 40
1.0
  9
$DIMGAP
 40
1.524
  9
$DIMJUST
 70
     0
  9
$DIMSD1
 70
     0
  9
$DIMSD2
 70
     0
  9
$DIMTOLJ
 70
     0
  9
$DIMTZIN
 70
     0
  9
$DIMALTZ
 70
     0
  9
$DIMALTTZ
 70
     0
  9
$DIMUPT
 70
     0
  9
$DIMDEC
 70
     2
  9
$DIMTDEC
 70
     2
  9
$DIMALTU
 70
     2
  9
$DIMALTTD
 70
     3
  9
$DIMTXSTY
  7
Standard
  9
$DIMAUNIT
 70
     0
  9
$DIMADEC
 70
     2
  9
$DIMALTRND
 40
0.0
  9
$DIMAZIN
 70
     0
  9
$DIMDSEP
 70
    44
  9
$DIMATFIT
 70
     3
  9
$DIMFRAC
 70
     0
  9
$DIMLDRBLK
  1

  9
$DIMLUNIT
 70
     2
  9
$DIMLWD
 70
    -2
  9
$DIMLWE
 70
    -2
  9
$DIMTMOVE
 70
     0
  9
$LUNITS
 70
     2
  9
$LUPREC
 70
     2
  9
$SKETCHINC
 40
1.0
  9
$FILLETRAD
 40
10.0
  9
$AUNITS
 70
     0
  9
$AUPREC
 70
     2
  9
$MENU
  1
.
  9
$ELEVATION
 40
0.0
  9
$PELEVATION
 40
0.0
  9
$THICKNESS
 40
0.0
  9
$LIMCHECK
 70
     0
  9
$CHAMFERA
 40
10.0
  9
$CHAMFERB
 40
10.0
  9
$CHAMFERC
 40
20.0
  9
$CHAMFERD
 40
0.0
  9
$SKPOLY
 70
     0
  9
$TDCREATE
 40
2456910.633408437
  9
$TDUCREATE
 40
2456910.258408437
  9
$TDUPDATE
 40
2456910.633409699
  9
$TDUUPDATE
 40
2456910.258409699
  9
$TDINDWG
 40
0.0000000116
  9
$TDUSRTIMER
 40
0.0000000116
  9
$USRTIMER
 70
     1
  9
$ANGBASE
 50
0.0
  9
$ANGDIR
 70
     0
  9
$PDMODE
 70
     0
  9
$PDSIZE
 40
-1.0
  9
$PLINEWID
 40
0.0
  9
$SPLFRAME
 70
     0
  9
$SPLINETYPE
 70
     6
  9
$SPLINESEGS
 70
     8
  9
$HANDSEED
  5
199
  9
$SURFTAB1
 70
     6
  9
$SURFTAB2
 70
     6
  9
$SURFTYPE
 70
     6
  9
$SURFU
 70
     6
  9
$SURFV
 70
     6
  9
$UCSBASE
  2

  9
$UCSNAME
  2

  9
$UCSORG
 10
0.0
 20
0.0
 30
0.0
  9
$UCSXDIR
 10
1.0
 20
0.0
 30
0.0
  9
$UCSYDIR
 10
0.0
 20
1.0
 30
0.0
  9
$UCSORTHOREF
  2

  9
$UCSORTHOVIEW
 70
     0
  9
$UCSORGTOP
 10
0.0
 20
0.0
 30
0.0
  9
$UCSORGBOTTOM
 10
0.0
 20
0.0
 30
0.0
  9
$UCSORGLEFT
 10
0.0
 20
0.0
 30
0.0
  9
$UCSORGRIGHT
 10
0.0
 20
0.0
 30
0.0
  9
$UCSORGFRONT
 10
0.0
 20
0.0
 30
0.0
  9
$UCSORGBACK
 10
0.0
 20
0.0
 30
0.0
  9
$PUCSBASE
  2

  9
$PUCSNAME
  2

  9
$PUCSORG
 10
0.0
 20
0.0
 30
0.0
  9
$PUCSXDIR
 10
1.0
 20
0.0
 30
0.0
  9
$PUCSYDIR
 10
0.0
 20
1.0
 30
0.0
  9
$PUCSORTHOREF
  2

  9
$PUCSORTHOVIEW
 70
     0
  9
$PUCSORGTOP
 10
0.0
 20
0.0
 30
0.0
  9
$PUCSORGBOTTOM
 10
0.0
 20
0.0
 30
0.0
  9
$PUCSORGLEFT
 10
0.0
 20
0.0
 30
0.0
  9
$PUCSORGRIGHT
 10
0.0
 20
0.0
 30
0.0
  9
$PUCSORGFRONT
 10
0.0
 20
0.0
 30
0.0
  9
$PUCSORGBACK
 10
0.0
 20
0.0
 30
0.0
  9
$USERI1
 70
     0
  9
$USERI2
 70
     0
  9
$USERI3
 70
     0
  9
$USERI4
 70
     0
  9
$USERI5
 70
     0
  9
$USERR1
 40
0.0
  9
$USERR2
 40
0.0
  9
$USERR3
 40
0.0
  9
$USERR4
 40
0.0
  9
$USERR5
 40
0.0
  9
$WORLDVIEW
 70
     1
  9
$SHADEDGE
 70
     3
  9
$SHADEDIF
 70
    70
  9
$TILEMODE
 70
     1
  9
$MAXACTVP
 70
    64
  9
$PINSBASE
 10
0.0
 20
0.0
 30
0.0
  9
$PLIMCHECK
 70
     0
  9
$PEXTMIN
 10
1.0000000000E+20
 20
1.0000000000E+20
 30
1.0000000000E+20
  9
$PEXTMAX
 10
-1.0000000000E+20
 20
-1.0000000000E+20
 30
-1.0000000000E+20
  9
$PLIMMIN
 10
0.0
 20
0.0
  9
$PLIMMAX
 10
420.0
 20
297.0
  9
$UNITMODE
 70
     0
  9
$VISRETAIN
 70
     1
  9
$PLINEGEN
 70
     0
  9
$PSLTSCALE
 70
     1
  9
$TREEDEPTH
 70
  3020
  9
$CMLSTYLE
  2
Standard
  9
$CMLJUST
 70
     0
  9
$CMLSCALE
 40
20.0
  9
$PROXYGRAPHICS
 70
     1
  9
$MEASUREMENT
 70
     1
  9
$CELWEIGHT
370
    -1
  9
$ENDCAPS
280
     0
  9
$JOINSTYLE
280
     0
  9
$LWDISPLAY
290
     1
  9
$INSUNITS
 70
     4
  9
$HYPERLINKBASE
  1

  9
$STYLESHEET
  1

  9
$XEDIT
290
     1
  9
$CEPSNTYPE
380
     0
  9
$PSTYLEMODE
290
     1
  9
$FINGERPRINTGUID
  2
{A13CDD4F-95DA-4090-B292-3B1708A33E29}
  9
$VERSIONGUID
  2
{FAEB1C32-E019-11D5-929B-00C0DF256EC4}
  9
$EXTNAMES
290
     1
  9
$PSVPSCALE
 40
0.0
  9
$OLESTARTUP
290
     0
  0
ENDSEC
  0
SECTION
  2
CLASSES
  0
CLASS
  1
ACDBDICTIONARYWDFLT
  2
AcDbDictionaryWithDefault
  3
ObjectDBX Classes
 90
        0
280
     0
281
     0
  0
CLASS
  1
VISUALSTYLE
  2
AcDbVisualStyle
  3
ObjectDBX Classes
 90
     4095
280
     0
281
     0
  0
CLASS
  1
MATERIAL
  2
AcDbMaterial
  3
ObjectDBX Classes
 90
     1153
280
     0
281
     0
  0
CLASS
  1
ACDBPLACEHOLDER
  2
AcDbPlaceHolder
  3
ObjectDBX Classes
 90
        0
280
     0
281
     0
  0
CLASS
  1
LAYOUT
  2
AcDbLayout
  3
ObjectDBX Classes
 90
        0
280
     0
281
     0
  0
ENDSEC
  0
SECTION
  2
TABLES
  0
TABLE
  2
VPORT
  5
8
330
0
100
AcDbSymbolTable
 70
     1
  0
VPORT
  5
29
330
8
100
AcDbSymbolTableRecord
100
AcDbViewportTableRecord
  2
*Active
 70
     0
 10
0.0
 20
0.0
 11
1.0
 21
1.0
 12
105.0
 22
148.5
 13
0.0
 23
0.0
 14
10.0
 24
10.0
 15
10.0
 25
10.0
 16
0.0
 26
0.0
 36
1.0
 17
0.0
 27
0.0
 37
0.0
 40
297.0
 41
0.7070707071
 42
50.0
 43
0.0
 44
0.0
 50
0.0
 51
0.0
 71
     0
 72
  2000
 73
     1
 74
     3
 75
     0
 76
     0
 77
     0
 78
     0
281
     0
 65
     1
110
0.0
120
0.0
130
0.0
111
1.0
121
0.0
131
0.0
112
0.0
122
1.0
132
0.0
 79
     0
146
0.0
  0
ENDTAB
  0
TABLE
  2
LTYPE
  5
5
330
0
100
AcDbSymbolTable
 70
     6
  0
LTYPE
  5
14
330
5
100
AcDbSymbolTableRecord
100
AcDbLinetypeTableRecord
  2
ByBlock
 70
     0
  3

 72
    65
 73
     0
 40
0.0
  0
LTYPE
  5
15
330
5
100
AcDbSymbolTableRecord
100
AcDbLinetypeTableRecord
  2
ByLayer
 70
     0
  3

 72
    65
 73
     0
 40
0.0
  0
LTYPE
  5
16
330
5
100
AcDbSymbolTableRecord
100
AcDbLinetypeTableRecord
  2
Continuous
 70
     0
  3
Solid line
 72
    65
 73
     0
 40
0.0
  0
LTYPE
  5
3F
330
5
100
AcDbSymbolTableRecord
100
AcDbLinetypeTableRecord
  2
HIDDEN
 70
     0
  3
Hidden __ __ __ __ __ __ __ __ __ __ __ __ __ __
 72
    65
 73
     2
 40
1.905
 49
1.27
 74
     0
 49
-0.635
 74
     0
  0
LTYPE
  5
40
330
5
100
AcDbSymbolTableRecord
100
AcDbLinetypeTableRecord
  2
PHANTOM
 70
     0
  3
Phantom ______  __  __  ______  __  __  ______
 72
    65
 73
     6
 40
12.7
 49
6.35
 74
     0
 49
-1.27
 74
     0
 49
1.27
 74
     0
 49
-1.27
 74
     0
 49
1.27
 74
     0
 49
-1.27
 74
     0
  0
LTYPE
  5
41
330
5
100
AcDbSymbolTableRecord
100
AcDbLinetypeTableRecord
  2
CENTER
 70
     0
  3
Center ____ _ ____ _ ____ _ ____ _ ____ _ ____
 72
    65
 73
     4
 40
10.16
 49
6.35
 74
     0
 49
-1.27
 74
     0
 49
1.27
 74
     0
 49
-1.27
 74
     0
  0
LTYPE
  5
42
330
5
100
AcDbSymbolTableRecord
100
AcDbLinetypeTableRecord
  2
CENTERX2
 70
     0
  3
Center (2x) ________  __  ________  __  _____
 72
    65
 73
     4
 40
20.32
 49
12.7
 74
     0
 49
-2.54
 74
     0
 49
2.54
 74
     0
 49
-2.54
 74
     0
  0
LTYPE
  5
43
330
5
100
AcDbSymbolTableRecord
100
AcDbLinetypeTableRecord
  2
DOT2
 70
     0
  3
Dot (.5x) ........................................
 72
    65
 73
     2
 40
0.635
 49
0.0
 74
     0
 49
-0.635
 74
     0
  0
ENDTAB
  0
TABLE
  2
LAYER
  5
2
330
0
100
AcDbSymbolTable
 70
     1
  0
LAYER
  5
10
330
2
100
AcDbSymbolTableRecord
100
AcDbLayerTableRecord
  2
0
 70
     0
 62
     7
  6
Continuous
370
    -3
390
F
  0
ENDTAB
  0
TABLE
  2
STYLE
  5
3
330
0
100
AcDbSymbolTable
 70
     3
  0
STYLE
  5
11
330
3
100
AcDbSymbolTableRecord
100
AcDbTextStyleTableRecord
  2
Standard
 70
     0
 40
0.0
 41
1.0
 50
0.0
 71
     0
 42
3.5
  3
txt
  4
bigfont
  0
STYLE
  5
4C
330
3
100
AcDbSymbolTableRecord
100
AcDbTextStyleTableRecord
  2
SLDTEXTSTYLE0
 70
     0
 40
0.0
 41
0.7
 50
0.0
 71
     0
 42
0.2
  3
TXT
  4
bigfont
  0
STYLE
  5
8B
330
3
100
AcDbSymbolTableRecord
100
AcDbTextStyleTableRecord
  2
SLDTEXTSTYLE1
 70
     0
 40
0.0
 41
0.75
 50
0.0
 71
     0
 42
0.2
  3
TXT
  4
bigfont
  0
ENDTAB
  0
TABLE
  2
VIEW
  5
6
330
0
100
AcDbSymbolTable
 70
     0
  0
ENDTAB
  0
TABLE
  2
UCS
  5
7
330
0
100
AcDbSymbolTable
 70
     0
  0
ENDTAB
  0
TABLE
  2
APPID
  5
9
330
0
100
AcDbSymbolTable
 70
     1
  0
APPID
  5
12
330
9
100
AcDbSymbolTableRecord
100
AcDbRegAppTableRecord
  2
ACAD
 70
     0
  0
ENDTAB
  0
TABLE
  2
DIMSTYLE
  5
A
330
0
100
AcDbSymbolTable
 70
     4
100
AcDbDimStyleTable
  0
DIMSTYLE
105
27
330
A
100
AcDbSymbolTableRecord
100
AcDbDimStyleTableRecord
  2
ISO-25
 70
     0
 41
2.5
 42
0.625
 43
3.75
 44
1.25
 73
     0
 74
     0
 77
     1
 78
     8
140
2.5
141
2.5
143
0.0393700787
147
0.625
171
     3
172
     1
178
     0
271
     2
272
     2
274
     3
278
    44
283
     0
284
     8
340
11
  0
DIMSTYLE
105
8C
102
{ACAD_REACTORS
330
8A
330
96
330
16B
330
182
330
18D
102
}
330
A
100
AcDbSymbolTableRecord
100
AcDbDimStyleTableRecord
  2
SLDDIMSTYLE0
 70
     0
 41
2.0
 44
0.0
 45
0.000000001
 73
     0
 74
     0
 77
     3
 78
    12
 79
     3
140
3.5
147
0.875
173
     1
178
     0
271
     1
272
     1
276
     2
284
    12
340
8B
  0
DIMSTYLE
105
A1
330
A
100
AcDbSymbolTableRecord
100
AcDbDimStyleTableRecord
  2
SLDDIMSTYLE1
 70
     0
 41
2.0
 44
0.0
 45
0.000000001
140
0.0
146
2.0
147
0.0
173
     1
178
     0
271
     0
272
     0
276
     2
340
11
  0
DIMSTYLE
105
145
102
{ACAD_REACTORS
330
144
330
152
330
15E
330
175
102
}
330
A
100
AcDbSymbolTableRecord
100
AcDbDimStyleTableRecord
  2
SLDDIMSTYLE2
 70
     0
 41
2.0
 44
0.0
 45
0.000000001
 73
     0
 74
     0
 77
     3
 78
    12
 79
     3
140
3.5
147
0.875
172
     1
173
     1
178
     0
271
     1
272
     1
276
     2
284
    12
289
     0
340
8B
  0
ENDTAB
  0
TABLE
  2
BLOCK_RECORD
  5
1
330
0
100
AcDbSymbolTable
 70
    11
  0
BLOCK_RECORD
  5
1F
330
1
100
AcDbSymbolTableRecord
100
AcDbBlockTableRecord
  2
*Model_Space
340
22
  0
BLOCK_RECORD
  5
1B
330
1
100
AcDbSymbolTableRecord
100
AcDbBlockTableRecord
  2
*Paper_Space
340
1E
  0
BLOCK_RECORD
  5
23
330
1
100
AcDbSymbolTableRecord
100
AcDbBlockTableRecord
  2
*Paper_Space0
340
26
  0
BLOCK_RECORD
  5
8D
330
1
100
AcDbSymbolTableRecord
100
AcDbBlockTableRecord
  2
_D
340
0
  0
BLOCK_RECORD
  5
97
330
1
100
AcDbSymbolTableRecord
100
AcDbBlockTableRecord
  2
_D_1
340
0
  0
BLOCK_RECORD
  5
A3
330
1
100
AcDbSymbolTableRecord
100
AcDbBlockTableRecord
  2
SW_CENTERMARKSYMBOL_0
340
0
102
{BLKREFS
331
AE
102
}
  0
BLOCK_RECORD
  5
146
330
1
100
AcDbSymbolTableRecord
100
AcDbBlockTableRecord
  2
_D_2
340
0
  0
BLOCK_RECORD
  5
153
330
1
100
AcDbSymbolTableRecord
100
AcDbBlockTableRecord
  2
_D_3
340
0
  0
BLOCK_RECORD
  5
15F
330
1
100
AcDbSymbolTableRecord
100
AcDbBlockTableRecord
  2
_D_4
340
0
  0
BLOCK_RECORD
  5
16C
330
1
100
AcDbSymbolTableRecord
100
AcDbBlockTableRecord
  2
_D_5
340
0
  0
BLOCK_RECORD
  5
176
330
1
100
AcDbSymbolTableRecord
100
AcDbBlockTableRecord
  2
_D_6
340
0
  0
BLOCK_RECORD
  5
183
330
1
100
AcDbSymbolTableRecord
100
AcDbBlockTableRecord
  2
_D_7
340
0
  0
BLOCK_RECORD
  5
18E
330
1
100
AcDbSymbolTableRecord
100
AcDbBlockTableRecord
  2
_D_8
340
0
  0
ENDTAB
  0
ENDSEC
  0
SECTION
  2
BLOCKS
  0
BLOCK
  5
20
330
1F
100
AcDbEntity
  8
0
100
AcDbBlockBegin
  2
*Model_Space
 70
     0
 10
0.0
 20
0.0
 30
0.0
  3
*Model_Space
  1

  0
ENDBLK
  5
21
330
1F
100
AcDbEntity
  8
0
100
AcDbBlockEnd
  0
BLOCK
  5
1C
330
1B
100
AcDbEntity
 67
     1
  8
0
100
AcDbBlockBegin
  2
*Paper_Space
 70
     0
 10
0.0
 20
0.0
 30
0.0
  3
*Paper_Space
  1

  0
ENDBLK
  5
1D
330
1B
100
AcDbEntity
 67
     1
  8
0
100
AcDbBlockEnd
  0
BLOCK
  5
24
330
23
100
AcDbEntity
  8
0
100
AcDbBlockBegin
  2
*Paper_Space0
 70
     0
 10
0.0
 20
0.0
 30
0.0
  3
*Paper_Space0
  1

  0
ENDBLK
  5
25
330
23
100
AcDbEntity
  8
0
100
AcDbBlockEnd
  0
BLOCK
  5
8E
330
8D
100
AcDbEntity
  8
0
100
AcDbBlockBegin
  2
_D
 70
     0
 10
0.0
 20
0.0
 30
0.0
  3
_D
  1

  0
SOLID
  5
90
330
8D
100
AcDbEntity
  8
0
  6
Continuous
 62
     7
370
     0
100
AcDbTrace
 10
40.1990731977
 20
151.973540146
 30
0.0
 11
39.4490731977
 21
149.973540146
 31
0.0
 12
40.9490731977
 22
149.973540146
 32
0.0
 13
40.9490731977
 23
149.973540146
 33
0.0
  0
SOLID
  5
91
330
8D
100
AcDbEntity
  8
0
  6
Continuous
 62
     7
370
     0
100
AcDbTrace
 10
40.1990731977
 20
133.373540146
 30
0.0
 11
40.9490731977
 21
135.373540146
 31
0.0
 12
39.4490731977
 22
135.373540146
 32
0.0
 13
39.4490731977
 23
135.373540146
 33
0.0
  0
LINE
  5
92
330
8D
100
AcDbEntity
  8
0
  6
Continuous
 62
     7
370
     0
100
AcDbLine
 10
60.0806569344
 20
151.973540146
 30
0.0
 11
39.1990731977
 21
151.973540146
 31
0.0
  0
LINE
  5
93
330
8D
100
AcDbEntity
  8
0
  6
Continuous
 62
     7
370
     0
100
AcDbLine
 10
60.0806569343
 20
133.373540146
 30
0.0
 11
39.1990731977
 21
133.373540146
 31
0.0
  0
LINE
  5
94
330
8D
100
AcDbEntity
  8
0
  6
Continuous
 62
     7
370
     0
100
AcDbLine
 10
40.1990731977
 20
151.973540146
 30
0.0
 11
40.1990731977
 21
133.373540146
 31
0.0
  0
MTEXT
  5
95
330
8D
100
AcDbEntity
  8
0
  6
Continuous
 62
     7
370
     0
100
AcDbMText
 10
35.6873362831
 20
137.4156202577
 30
21.85
 40
3.5
 41
0.0
 71
     1
 72
     1
  1
18.6
  7
SLDTEXTSTYLE1
 11
-7.044195017643634E-15
 21
1.0
 31
0.0
 73
     1
 44
1.0
  0
ENDBLK
  5
8F
330
8D
100
AcDbEntity
  8
0
100
AcDbBlockEnd
  0
BLOCK
  5
98
330
97
100
AcDbEntity
  8
0
100
AcDbBlockBegin
  2
_D_1
 70
     0
 10
0.0
 20
0.0
 30
0.0
  3
_D_1
  1

  0
SOLID
  5
9A
330
97
100
AcDbEntity
  8
0
  6
Continuous
 62
     7
370
     0
100
AcDbTrace
 10
52.1176786462
 20
148.673540146
 30
0.0
 11
51.3676786462
 21
146.673540146
 31
0.0
 12
52.8676786462
 22
146.673540146
 32
0.0
 13
52.8676786462
 23
146.673540146
 33
0.0
  0
SOLID
  5
9B
330
97
100
AcDbEntity
  8
0
  6
Continuous
 62
     7
370
     0
100
AcDbTrace
 10
52.1176786462
 20
136.673540146
 30
0.0
 11
52.8676786462
 21
138.673540146
 31
0.0
 12
51.3676786462
 22
138.673540146
 32
0.0
 13
51.3676786462
 23
138.673540146
 33
0.0
  0
LINE
  5
9C
330
97
100
AcDbEntity
  8
0
  6
Continuous
 62
     7
370
     0
100
AcDbLine
 10
60.6665553192
 20
148.673540146
 30
0.0
 11
51.1176786462
 21
148.673540146
 31
0.0
  0
LINE
  5
9D
330
97
100
AcDbEntity
  8
0
  6
Continuous
 62
     7
370
     0
100
AcDbLine
 10
60.6665553192
 20
136.673540146
 30
0.0
 11
51.1176786462
 21
136.673540146
 31
0.0
  0
LINE
  5
9E
330
97
100
AcDbEntity
  8
0
  6
Continuous
 62
     7
370
     0
100
AcDbLine
 10
52.1176786462
 20
148.673540146
 30
0.0
 11
52.1176786462
 21
136.673540146
 31
0.0
  0
MTEXT
  5
9F
330
97
100
AcDbEntity
  8
0
  6
Continuous
 62
     7
370
     0
100
AcDbMText
 10
47.6059417316
 20
139.3552035946
 30
21.85
 40
3.5
 41
0.0
 71
     1
 72
     1
  1
12
  7
SLDTEXTSTYLE1
 11
-7.044195017643634E-15
 21
1.0
 31
0.0
 73
     1
 44
1.0
  0
ENDBLK
  5
99
330
97
100
AcDbEntity
  8
0
100
AcDbBlockEnd
  0
BLOCK
  5
A4
330
A3
100
AcDbEntity
  8
0
100
AcDbBlockBegin
  2
SW_CENTERMARKSYMBOL_0
 70
     0
 10
0.0
 20
0.0
 30
0.0
  3
SW_CENTERMARKSYMBOL_0
  1

  0
LINE
  5
A6
330
A3
100
AcDbEntity
  8
0
  6
Continuous
 62
     0
370
     0
100
AcDbLine
 10
0.0
 20
0.0
 30
0.0
 11
0.0
 21
2.5
 31
0.0
  0
LINE
  5
A7
330
A3
100
AcDbEntity
  8
0
  6
Continuous
 62
     0
370
     0
100
AcDbLine
 10
0.0
 20
0.0
 30
0.0
 11
-2.5
 21
0.0
 31
0.0
  0
LINE
  5
A8
330
A3
100
AcDbEntity
  8
0
  6
Continuous
 62
     0
370
     0
100
AcDbLine
 10
0.0
 20
0.0
 30
0.0
 11
0.0
 21
-2.5
 31
0.0
  0
LINE
  5
A9
330
A3
100
AcDbEntity
  8
0
  6
Continuous
 62
     0
370
     0
100
AcDbLine
 10
0.0
 20
0.0
 30
0.0
 11
2.5
 21
0.0
 31
0.0
  0
LINE
  5
AA
330
A3
100
AcDbEntity
  8
0
  6
Continuous
 62
     0
370
     0
100
AcDbLine
 10
0.0
 20
5.0
 30
0.0
 11
0.0
 21
6.0
 31
0.0
  0
LINE
  5
AB
330
A3
100
AcDbEntity
  8
0
  6
Continuous
 62
     0
370
     0
100
AcDbLine
 10
-5.0
 20
0.0
 30
0.0
 11
-6.0
 21
0.0
 31
0.0
  0
LINE
  5
AC
330
A3
100
AcDbEntity
  8
0
  6
Continuous
 62
     0
370
     0
100
AcDbLine
 10
0.0
 20
-5.0
 30
0.0
 11
0.0
 21
-6.0
 31
0.0
  0
LINE
  5
AD
330
A3
100
AcDbEntity
  8
0
  6
Continuous
 62
     0
370
     0
100
AcDbLine
 10
5.0
 20
0.0
 30
0.0
 11
6.0
 21
0.0
 31
0.0
  0
ENDBLK
  5
A5
330
A3
100
AcDbEntity
  8
0
100
AcDbBlockEnd
  0
BLOCK
  5
147
330
146
100
AcDbEntity
  8
0
100
AcDbBlockBegin
  2
_D_2
 70
     0
 10
0.0
 20
0.0
 30
0.0
  3
_D_2
  1

  0
SOLID
  5
149
330
146
100
AcDbEntity
  8
0
  6
Continuous
 62
     7
370
     0
100
AcDbTrace
 10
108.8197080292
 20
146.173540146
 30
0.0
 11
109.5697080292
 21
148.173540146
 31
0.0
 12
108.0697080292
 22
148.173540146
 32
0.0
 13
108.0697080292
 23
148.173540146
 33
0.0
  0
SOLID
  5
14A
330
146
100
AcDbEntity
  8
0
  6
Continuous
 62
     7
370
     0
100
AcDbTrace
 10
108.8197080292
 20
139.173540146
 30
0.0
 11
108.0697080292
 21
137.173540146
 31
0.0
 12
109.5697080292
 22
137.173540146
 32
0.0
 13
109.5697080292
 23
137.173540146
 33
0.0
  0
LINE
  5
14B
330
146
100
AcDbEntity
  8
0
  6
Continuous
 62
     7
370
     0
100
AcDbLine
 10
117.8197080292
 20
146.173540146
 30
0.0
 11
107.8197080292
 21
146.173540146
 31
0.0
  0
LINE
  5
14C
330
146
100
AcDbEntity
  8
0
  6
Continuous
 62
     7
370
     0
100
AcDbLine
 10
117.8197080292
 20
139.173540146
 30
0.0
 11
107.8197080292
 21
139.173540146
 31
0.0
  0
LINE
  5
14D
330
146
100
AcDbEntity
  8
0
  6
Continuous
 62
     7
370
     0
100
AcDbLine
 10
108.8197080292
 20
146.173540146
 30
0.0
 11
108.8197080292
 21
151.173540146
 31
0.0
  0
LINE
  5
14E
330
146
100
AcDbEntity
  8
0
  6
Continuous
 62
     7
370
     0
100
AcDbLine
 10
108.8197080292
 20
146.173540146
 30
0.0
 11
108.8197080292
 21
139.173540146
 31
0.0
  0
LINE
  5
14F
330
146
100
AcDbEntity
  8
0
  6
Continuous
 62
     7
370
     0
100
AcDbLine
 10
108.8197080292
 20
139.173540146
 30
0.0
 11
108.8197080292
 21
134.173540146
 31
0.0
  0
MTEXT
  5
150
330
146
100
AcDbEntity
  8
0
  6
Continuous
 62
     7
370
     0
100
AcDbMText
 10
104.30797094
 20
138.9644781494
 30
0.1
 40
3.5
 41
0.0
 71
     1
 72
     1
  1
%%c
  7
SLDTEXTSTYLE1
 11
-7.044195017643634E-15
 21
1.0
 31
0.0
 73
     1
 44
1.0
  0
MTEXT
  5
151
330
146
100
AcDbEntity
  8
0
  6
Continuous
 62
     7
370
     0
100
AcDbMText
 10
104.2544987633
 20
144.2429155478
 30
0.1
 40
3.5
 41
0.0
 71
     1
 72
     1
  1
7
  7
SLDTEXTSTYLE1
 11
-7.044195017643634E-15
 21
1.0
 31
0.0
 73
     1
 44
1.0
  0
ENDBLK
  5
148
330
146
100
AcDbEntity
  8
0
100
AcDbBlockEnd
  0
BLOCK
  5
154
330
153
100
AcDbEntity
  8
0
100
AcDbBlockBegin
  2
_D_3
 70
     0
 10
0.0
 20
0.0
 30
0.0
  3
_D_3
  1

  0
SOLID
  5
156
330
153
100
AcDbEntity
  8
0
  6
Continuous
 62
     7
370
     0
100
AcDbTrace
 10
124.3197080292
 20
161.973540146
 30
0.0
 11
126.3197080292
 21
161.223540146
 31
0.0
 12
126.3197080292
 22
162.723540146
 32
0.0
 13
126.3197080292
 23
162.723540146
 33
0.0
  0
SOLID
  5
157
330
153
100
AcDbEntity
  8
0
  6
Continuous
 62
     7
370
     0
100
AcDbTrace
 10
118.8197080292
 20
161.973540146
 30
0.0
 11
116.8197080292
 21
162.723540146
 31
0.0
 12
116.8197080292
 22
161.223540146
 32
0.0
 13
116.8197080292
 23
161.223540146
 33
0.0
  0
LINE
  5
158
330
153
100
AcDbEntity
  8
0
  6
Continuous
 62
     7
370
     0
100
AcDbLine
 10
124.3197080292
 20
149.673540146
 30
0.0
 11
124.3197080292
 21
162.973540146
 31
0.0
  0
LINE
  5
159
330
153
100
AcDbEntity
  8
0
  6
Continuous
 62
     7
370
     0
100
AcDbLine
 10
118.8197080292
 20
147.173540146
 30
0.0
 11
118.8197080292
 21
162.973540146
 31
0.0
  0
LINE
  5
15A
330
153
100
AcDbEntity
  8
0
  6
Continuous
 62
     7
370
     0
100
AcDbLine
 10
124.3197080292
 20
161.973540146
 30
0.0
 11
129.3197080292
 21
161.973540146
 31
0.0
  0
LINE
  5
15B
330
153
100
AcDbEntity
  8
0
  6
Continuous
 62
     7
370
     0
100
AcDbLine
 10
124.3197080292
 20
161.973540146
 30
0.0
 11
118.8197080292
 21
161.973540146
 31
0.0
  0
LINE
  5
15C
330
153
100
AcDbEntity
  8
0
  6
Continuous
 62
     7
370
     0
100
AcDbLine
 10
118.8197080292
 20
161.973540146
 30
0.0
 11
109.6345866694
 21
161.973540146
 31
0.0
  0
MTEXT
  5
15D
330
153
100
AcDbEntity
  8
0
  6
Continuous
 62
     7
370
     0
100
AcDbMText
 10
109.6345866694
 20
166.4852770606
 30
0.1
 40
3.5
 41
0.0
 71
     1
 72
     1
  1
5.5
  7
SLDTEXTSTYLE1
 73
     1
 44
1.0
  0
ENDBLK
  5
155
330
153
100
AcDbEntity
  8
0
100
AcDbBlockEnd
  0
BLOCK
  5
160
330
15F
100
AcDbEntity
  8
0
100
AcDbBlockBegin
  2
_D_4
 70
     0
 10
0.0
 20
0.0
 30
0.0
  3
_D_4
  1

  0
SOLID
  5
162
330
15F
100
AcDbEntity
  8
0
  6
Continuous
 62
     7
370
     0
100
AcDbTrace
 10
138.3197080292
 20
161.973540146
 30
0.0
 11
140.3197080292
 21
161.223540146
 31
0.0
 12
140.3197080292
 22
162.723540146
 32
0.0
 13
140.3197080292
 23
162.723540146
 33
0.0
  0
SOLID
  5
163
330
15F
100
AcDbEntity
  8
0
  6
Continuous
 62
     7
370
     0
100
AcDbTrace
 10
133.3197080292
 20
161.973540146
 30
0.0
 11
131.3197080292
 21
162.723540146
 31
0.0
 12
131.3197080292
 22
161.223540146
 32
0.0
 13
131.3197080292
 23
161.223540146
 33
0.0
  0
LINE
  5
164
330
15F
100
AcDbEntity
  8
0
  6
Continuous
 62
     7
370
     0
100
AcDbLine
 10
138.3197080292
 20
147.123540146
 30
0.0
 11
138.3197080292
 21
162.973540146
 31
0.0
  0
LINE
  5
165
330
15F
100
AcDbEntity
  8
0
  6
Continuous
 62
     7
370
     0
100
AcDbLine
 10
133.3197080292
 20
147.423540146
 30
0.0
 11
133.3197080292
 21
162.973540146
 31
0.0
  0
LINE
  5
166
330
15F
100
AcDbEntity
  8
0
  6
Continuous
 62
     7
370
     0
100
AcDbLine
 10
138.3197080292
 20
161.973540146
 30
0.0
 11
147.29621508
 21
161.973540146
 31
0.0
  0
LINE
  5
167
330
15F
100
AcDbEntity
  8
0
  6
Continuous
 62
     7
370
     0
100
AcDbLine
 10
138.3197080292
 20
161.973540146
 30
0.0
 11
133.3197080292
 21
161.973540146
 31
0.0
  0
LINE
  5
168
330
15F
100
AcDbEntity
  8
0
  6
Continuous
 62
     7
370
     0
100
AcDbLine
 10
133.3197080292
 20
161.973540146
 30
0.0
 11
128.3197080292
 21
161.973540146
 31
0.0
  0
MTEXT
  5
169
330
15F
100
AcDbEntity
  8
0
  6
Continuous
 62
     7
370
     0
100
AcDbMText
 10
141.3170482482
 20
166.4852770606
 30
0.1
 40
3.5
 41
0.0
 71
     1
 72
     1
  1
5
  7
SLDTEXTSTYLE1
 73
     1
 44
1.0
  0
MTEXT
  5
16A
330
15F
100
AcDbEntity
  8
0
  6
Continuous
 62
     7
370
     0
100
AcDbMText
 10
143.9031594417
 20
166.4852770606
 30
0.1
 40
3.5
 41
0.0
 71
     1
 72
     1
  1
st
  7
SLDTEXTSTYLE1
 73
     1
 44
1.0
  0
ENDBLK
  5
161
330
15F
100
AcDbEntity
  8
0
100
AcDbBlockEnd
  0
BLOCK
  5
16D
330
16C
100
AcDbEntity
  8
0
100
AcDbBlockBegin
  2
_D_5
 70
     0
 10
0.0
 20
0.0
 30
0.0
  3
_D_5
  1

  0
SOLID
  5
16F
330
16C
100
AcDbEntity
  8
0
  6
Continuous
 62
     7
370
     0
100
AcDbTrace
 10
118.8197080292
 20
173.973540146
 30
0.0
 11
120.8197080292
 21
173.223540146
 31
0.0
 12
120.8197080292
 22
174.723540146
 32
0.0
 13
120.8197080292
 23
174.723540146
 33
0.0
  0
SOLID
  5
170
330
16C
100
AcDbEntity
  8
0
  6
Continuous
 62
     7
370
     0
100
AcDbTrace
 10
162.3197080292
 20
173.973540146
 30
0.0
 11
160.3197080292
 21
174.723540146
 31
0.0
 12
160.3197080292
 22
173.223540146
 32
0.0
 13
160.3197080292
 23
173.223540146
 33
0.0
  0
LINE
  5
171
330
16C
100
AcDbEntity
  8
0
  6
Continuous
 62
     7
370
     0
100
AcDbLine
 10
118.8197080292
 20
147.173540146
 30
0.0
 11
118.8197080292
 21
174.973540146
 31
0.0
  0
LINE
  5
172
330
16C
100
AcDbEntity
  8
0
  6
Continuous
 62
     7
370
     0
100
AcDbLine
 10
162.3197080292
 20
145.673540146
 30
0.0
 11
162.3197080292
 21
174.973540146
 31
0.0
  0
LINE
  5
173
330
16C
100
AcDbEntity
  8
0
  6
Continuous
 62
     7
370
     0
100
AcDbLine
 10
118.8197080292
 20
173.973540146
 30
0.0
 11
162.3197080292
 21
173.973540146
 31
0.0
  0
MTEXT
  5
174
330
16C
100
AcDbEntity
  8
0
  6
Continuous
 62
     7
370
     0
100
AcDbMText
 10
135.0228759239
 20
178.4852770606
 30
0.1
 40
3.5
 41
0.0
 71
     1
 72
     1
  1
43.5
  7
SLDTEXTSTYLE1
 73
     1
 44
1.0
  0
ENDBLK
  5
16E
330
16C
100
AcDbEntity
  8
0
100
AcDbBlockEnd
  0
BLOCK
  5
177
330
176
100
AcDbEntity
  8
0
100
AcDbBlockBegin
  2
_D_6
 70
     0
 10
0.0
 20
0.0
 30
0.0
  3
_D_6
  1

  0
SOLID
  5
179
330
176
100
AcDbEntity
  8
0
  6
Continuous
 62
     7
370
     0
100
AcDbTrace
 10
172.3197080292
 20
145.173540146
 30
0.0
 11
173.0697080292
 21
147.173540146
 31
0.0
 12
171.5697080292
 22
147.173540146
 32
0.0
 13
171.5697080292
 23
147.173540146
 33
0.0
  0
SOLID
  5
17A
330
176
100
AcDbEntity
  8
0
  6
Continuous
 62
     7
370
     0
100
AcDbTrace
 10
172.3197080292
 20
140.173540146
 30
0.0
 11
171.5697080292
 21
138.173540146
 31
0.0
 12
173.0697080292
 22
138.173540146
 32
0.0
 13
173.0697080292
 23
138.173540146
 33
0.0
  0
LINE
  5
17B
330
176
100
AcDbEntity
  8
0
  6
Continuous
 62
     7
370
     0
100
AcDbLine
 10
162.8197080292
 20
145.173540146
 30
0.0
 11
173.3197080292
 21
145.173540146
 31
0.0
  0
LINE
  5
17C
330
176
100
AcDbEntity
  8
0
  6
Continuous
 62
     7
370
     0
100
AcDbLine
 10
162.8197080292
 20
140.173540146
 30
0.0
 11
173.3197080292
 21
140.173540146
 31
0.0
  0
LINE
  5
17D
330
176
100
AcDbEntity
  8
0
  6
Continuous
 62
     7
370
     0
100
AcDbLine
 10
172.3197080292
 20
145.173540146
 30
0.0
 11
172.3197080292
 21
155.6741198861
 31
0.0
  0
LINE
  5
17E
330
176
100
AcDbEntity
  8
0
  6
Continuous
 62
     7
370
     0
100
AcDbLine
 10
172.3197080292
 20
145.173540146
 30
0.0
 11
172.3197080292
 21
140.173540146
 31
0.0
  0
LINE
  5
17F
330
176
100
AcDbEntity
  8
0
  6
Continuous
 62
     7
370
     0
100
AcDbLine
 10
172.3197080292
 20
140.173540146
 30
0.0
 11
172.3197080292
 21
135.173540146
 31
0.0
  0
MTEXT
  5
180
330
176
100
AcDbEntity
  8
0
  6
Continuous
 62
     7
370
     0
100
AcDbMText
 10
167.80797094
 20
147.8095710613
 30
0.1
 40
3.5
 41
0.0
 71
     1
 72
     1
  1
%%c
  7
SLDTEXTSTYLE1
 11
-7.044195017643634E-15
 21
1.0
 31
0.0
 73
     1
 44
1.0
  0
MTEXT
  5
181
330
176
100
AcDbEntity
  8
0
  6
Continuous
 62
     7
370
     0
100
AcDbMText
 10
167.7544987633
 20
153.0880084597
 30
0.1
 40
3.5
 41
0.0
 71
     1
 72
     1
  1
5
  7
SLDTEXTSTYLE1
 11
-7.044195017643634E-15
 21
1.0
 31
0.0
 73
     1
 44
1.0
  0
ENDBLK
  5
178
330
176
100
AcDbEntity
  8
0
100
AcDbBlockEnd
  0
BLOCK
  5
184
330
183
100
AcDbEntity
  8
0
100
AcDbBlockBegin
  2
_D_7
 70
     0
 10
0.0
 20
0.0
 30
0.0
  3
_D_7
  1

  0
SOLID
  5
186
330
183
100
AcDbEntity
  8
0
  6
Continuous
 62
     7
370
     0
100
AcDbTrace
 10
182.4283052102
 20
146.673540146
 30
0.0
 11
181.6783052102
 21
144.673540146
 31
0.0
 12
183.1783052102
 22
144.673540146
 32
0.0
 13
183.1783052102
 23
144.673540146
 33
0.0
  0
SOLID
  5
187
330
183
100
AcDbEntity
  8
0
  6
Continuous
 62
     7
370
     0
100
AcDbTrace
 10
182.4283052102
 20
138.673540146
 30
0.0
 11
183.1783052102
 21
140.673540146
 31
0.0
 12
181.6783052102
 22
140.673540146
 32
0.0
 13
181.6783052102
 23
140.673540146
 33
0.0
  0
LINE
  5
188
330
183
100
AcDbEntity
  8
0
  6
Continuous
 62
     7
370
     0
100
AcDbLine
 10
161.0197080292
 20
146.673540146
 30
0.0
 11
183.4283052102
 21
146.673540146
 31
0.0
  0
LINE
  5
189
330
183
100
AcDbEntity
  8
0
  6
Continuous
 62
     7
370
     0
100
AcDbLine
 10
161.0197080292
 20
138.673540146
 30
0.0
 11
183.4283052102
 21
138.673540146
 31
0.0
  0
LINE
  5
18A
330
183
100
AcDbEntity
  8
0
  6
Continuous
 62
     7
370
     0
100
AcDbLine
 10
182.4283052102
 20
146.673540146
 30
0.0
 11
182.4283052102
 21
138.673540146
 31
0.0
  0
MTEXT
  5
18B
330
183
100
AcDbEntity
  8
0
  6
Continuous
 62
     7
370
     0
100
AcDbMText
 10
177.916568121
 20
138.1330268457
 30
0.1
 40
3.5
 41
0.0
 71
     1
 72
     1
  1
%%c
  7
SLDTEXTSTYLE1
 11
-7.044195017643634E-15
 21
1.0
 31
0.0
 73
     1
 44
1.0
  0
MTEXT
  5
18C
330
183
100
AcDbEntity
  8
0
  6
Continuous
 62
     7
370
     0
100
AcDbMText
 10
177.8630959443
 20
143.4114642441
 30
0.1
 40
3.5
 41
0.0
 71
     1
 72
     1
  1
8
  7
SLDTEXTSTYLE1
 11
-7.044195017643634E-15
 21
1.0
 31
0.0
 73
     1
 44
1.0
  0
ENDBLK
  5
185
330
183
100
AcDbEntity
  8
0
100
AcDbBlockEnd
  0
BLOCK
  5
18F
330
18E
100
AcDbEntity
  8
0
100
AcDbBlockBegin
  2
_D_8
 70
     0
 10
0.0
 20
0.0
 30
0.0
  3
_D_8
  1

  0
SOLID
  5
191
330
18E
100
AcDbEntity
  8
0
  6
Continuous
 62
     7
370
     0
100
AcDbTrace
 10
142.3197080292
 20
127.7619850211
 30
0.0
 11
144.3197080292
 21
127.0119850211
 31
0.0
 12
144.3197080292
 22
128.5119850211
 32
0.0
 13
144.3197080292
 23
128.5119850211
 33
0.0
  0
SOLID
  5
192
330
18E
100
AcDbEntity
  8
0
  6
Continuous
 62
     7
370
     0
100
AcDbTrace
 10
160.3197080292
 20
127.7619850211
 30
0.0
 11
158.3197080292
 21
128.5119850211
 31
0.0
 12
158.3197080292
 22
127.0119850211
 32
0.0
 13
158.3197080292
 23
127.0119850211
 33
0.0
  0
LINE
  5
193
330
18E
100
AcDbEntity
  8
0
  6
Continuous
 62
     7
370
     0
100
AcDbLine
 10
142.3197080292
 20
135.973540146
 30
0.0
 11
142.3197080292
 21
126.7619850211
 31
0.0
  0
LINE
  5
194
330
18E
100
AcDbEntity
  8
0
  6
Continuous
 62
     7
370
     0
100
AcDbLine
 10
160.3197080292
 20
137.973540146
 30
0.0
 11
160.3197080292
 21
126.7619850211
 31
0.0
  0
LINE
  5
195
330
18E
100
AcDbEntity
  8
0
  6
Continuous
 62
     7
370
     0
100
AcDbLine
 10
142.3197080292
 20
127.7619850211
 30
0.0
 11
160.3197080292
 21
127.7619850211
 31
0.0
  0
MTEXT
  5
196
330
18E
100
AcDbEntity
  8
0
  6
Continuous
 62
     7
370
     0
100
AcDbMText
 10
147.885283069
 20
132.2737219356
 30
0.1
 40
3.5
 41
0.0
 71
     1
 72
     1
  1
18
  7
SLDTEXTSTYLE1
 73
     1
 44
1.0
  0
ENDBLK
  5
190
330
18E
100
AcDbEntity
  8
0
100
AcDbBlockEnd
  0
ENDSEC
  0
SECTION
  2
ENTITIES
  0
LINE
  5
44
330
1F
100
AcDbEntity
  8
0
  6
Continuous
 62
     7
370
     0
100
AcDbLine
 10
20.2604743903
 20
285.0
 30
0.0
 11
196.7604743903
 21
285.0
 31
0.0
  0
LINE
  5
45
330
1F
100
AcDbEntity
  8
0
  6
Continuous
 62
     7
370
     0
100
AcDbLine
 10
20.2604743903
 20
285.0
 30
0.0
 11
20.2604743903
 21
10.0
 31
0.0
  0
LINE
  5
46
330
1F
100
AcDbEntity
  8
0
  6
Continuous
 62
     7
370
     0
100
AcDbLine
 10
20.2604743903
 20
10.0
 30
0.0
 11
196.7604743903
 21
10.0
 31
0.0
  0
LINE
  5
47
330
1F
100
AcDbEntity
  8
0
  6
Continuous
 62
     7
370
     0
100
AcDbLine
 10
196.7604743903
 20
285.0
 30
0.0
 11
196.7604743903
 21
10.0
 31
0.0
  0
LINE
  5
48
330
1F
100
AcDbEntity
  8
0
  6
Continuous
 62
     7
370
     0
100
AcDbLine
 10
127.0104743903
 20
50.75
 30
0.0
 11
196.7604743903
 21
50.75
 31
0.0
  0
LINE
  5
49
330
1F
100
AcDbEntity
  8
0
  6
Continuous
 62
     7
370
     0
100
AcDbLine
 10
127.0104743903
 20
50.75
 30
0.0
 11
127.0104743903
 21
10.0
 31
0.0
  0
LINE
  5
4A
330
1F
100
AcDbEntity
  8
0
  6
Continuous
 62
     7
370
     0
100
AcDbLine
 10
127.0104743903
 20
22.75
 30
0.0
 11
196.7604743903
 21
22.75
 31
0.0
  0
LINE
  5
4B
330
1F
100
AcDbEntity
  8
0
  6
Continuous
 62
     7
370
     0
100
AcDbLine
 10
127.0104743903
 20
36.75
 30
0.0
 11
196.7604743903
 21
36.75
 31
0.0
  0
MTEXT
  5
4D
330
1F
100
AcDbEntity
  8
0
  6
Continuous
 62
     7
370
     0
100
AcDbMText
 10
161.2700695354
 20
30.4171582345
 30
0.0
 40
4.2333333333
 41
0.0
 71
     2
 72
     1
  1
VFIL2-SS-5-P8
  7
SLDTEXTSTYLE0
 73
     1
 44
1.0
  0
MTEXT
  5
4E
330
1F
100
AcDbEntity
  8
0
  6
Continuous
 62
     7
370
     0
100
AcDbMText
 10
161.3686533351
 20
43.9409718514
 30
0.0
 40
4.2333333333
 41
0.0
 71
     2
 72
     1
  1
吸着金具・ミニ用
  7
SLDTEXTSTYLE0
 73
     1
 44
1.0
  0
MTEXT
  5
4F
330
1F
100
AcDbEntity
  8
0
  6
Continuous
 62
     7
370
     0
100
AcDbMText
 10
162.6388016888
 20
16.8228189052
 30
0.0
 40
4.2333333333
 41
0.0
 71
     2
 72
     1
  1
211030
  7
SLDTEXTSTYLE0
 73
     1
 44
1.0
  0
LINE
  5
50
330
1F
100
AcDbEntity
  8
0
  6
Continuous
 62
     7
370
    15
100
AcDbLine
 10
62.7806569343
 20
130.873540146
 30
0.0
 11
63.1306569343
 21
128.373540146
 31
0.0
  0
LINE
  5
51
330
1F
100
AcDbEntity
  8
0
  6
Continuous
 62
     7
370
    15
100
AcDbLine
 10
67.1306569343
 20
128.373540146
 30
0.0
 11
67.4806569343
 21
130.873540146
 31
0.0
  0
LINE
  5
52
330
1F
100
AcDbEntity
  8
0
  6
Continuous
 62
     7
370
    15
100
AcDbLine
 10
62.7806569343
 20
128.373540146
 30
0.0
 11
63.1306569343
 21
125.873540146
 31
0.0
  0
LINE
  5
53
330
1F
100
AcDbEntity
  8
0
  6
Continuous
 62
     7
370
    15
100
AcDbLine
 10
67.1306569343
 20
125.873540146
 30
0.0
 11
67.4806569343
 21
128.373540146
 31
0.0
  0
LINE
  5
54
330
1F
100
AcDbEntity
  8
0
  6
Continuous
 62
     7
370
    15
100
AcDbLine
 10
67.2306569343
 20
130.873540146
 30
0.0
 11
67.2306569343
 21
133.373540146
 31
0.0
  0
LINE
  5
55
330
1F
100
AcDbEntity
  8
0
  6
Continuous
 62
     7
370
    15
100
AcDbLine
 10
63.0306569343
 20
133.373540146
 30
0.0
 11
63.0306569343
 21
130.873540146
 31
0.0
  0
LINE
  5
56
330
1F
100
AcDbEntity
  8
0
  6
Continuous
 62
     7
370
    15
100
AcDbLine
 10
61.1306569343
 20
149.473540146
 30
0.0
 11
61.1306569343
 21
148.673540146
 31
0.0
  0
LINE
  5
57
330
1F
100
AcDbEntity
  8
0
  6
Continuous
 62
     7
370
    15
100
AcDbLine
 10
69.1306569343
 20
148.673540146
 30
0.0
 11
69.1306569343
 21
149.473540146
 31
0.0
  0
LINE
  5
58
330
1F
100
AcDbEntity
  8
0
  6
Continuous
 62
     7
370
    15
100
AcDbLine
 10
61.1306569343
 20
136.673540146
 30
0.0
 11
61.1306569343
 21
135.873540146
 31
0.0
  0
LINE
  5
59
330
1F
100
AcDbEntity
  8
0
  6
Continuous
 62
     7
370
    15
100
AcDbLine
 10
69.1306569343
 20
135.873540146
 30
0.0
 11
69.1306569343
 21
136.673540146
 31
0.0
  0
LINE
  5
5A
330
1F
100
AcDbEntity
  8
0
  6
Continuous
 62
     7
370
    15
100
AcDbLine
 10
67.1556569343
 20
133.373540146
 30
0.0
 11
67.1556569343
 21
135.873540146
 31
0.0
  0
LINE
  5
5B
330
1F
100
AcDbEntity
  8
0
  6
Continuous
 62
     7
370
    15
100
AcDbLine
 10
63.1056569343
 20
133.373540146
 30
0.0
 11
67.1556569343
 21
133.373540146
 31
0.0
  0
LINE
  5
5C
330
1F
100
AcDbEntity
  8
0
  6
Continuous
 62
     7
370
    15
100
AcDbLine
 10
63.1056569343
 20
133.373540146
 30
0.0
 11
63.1056569342
 21
135.873540146
 31
0.0
  0
LINE
  5
5D
330
1F
100
AcDbEntity
  8
0
  6
Continuous
 62
     7
370
    15
100
AcDbLine
 10
63.1056569342
 20
135.873540146
 30
0.0
 11
63.2076059729
 21
135.873540146
 31
0.0
  0
LINE
  5
5E
330
1F
100
AcDbEntity
  8
0
  6
Continuous
 62
     7
370
    15
100
AcDbLine
 10
67.0537078957
 20
135.873540146
 30
0.0
 11
67.1556569343
 21
135.873540146
 31
0.0
  0
LINE
  5
5F
330
1F
100
AcDbEntity
  8
0
  6
Continuous
 62
     7
370
    15
100
AcDbLine
 10
61.0806569343
 20
135.873540146
 30
0.0
 11
61.0806569343
 21
133.373540146
 31
0.0
  0
LINE
  5
60
330
1F
100
AcDbEntity
  8
0
  6
Continuous
 62
     7
370
    15
100
AcDbLine
 10
61.0806569343
 20
135.873540146
 30
0.0
 11
61.1316314536
 21
135.873540146
 31
0.0
  0
LINE
  5
61
330
1F
100
AcDbEntity
  8
0
  6
Continuous
 62
     7
370
    15
100
AcDbLine
 10
63.054682415
 20
135.873540146
 30
0.0
 11
63.1056569342
 21
135.873540146
 31
0.0
  0
LINE
  5
62
330
1F
100
AcDbEntity
  8
0
  6
Continuous
 62
     7
370
    15
100
AcDbLine
 10
61.0806569343
 20
133.373540146
 30
0.0
 11
63.1056569343
 21
133.373540146
 31
0.0
  0
LINE
  5
63
330
1F
100
AcDbEntity
  8
0
  6
Continuous
 62
     7
370
    15
100
AcDbLine
 10
69.1806569343
 20
133.373540146
 30
0.0
 11
69.1806569343
 21
135.873540146
 31
0.0
  0
LINE
  5
64
330
1F
100
AcDbEntity
  8
0
  6
Continuous
 62
     7
370
    15
100
AcDbLine
 10
67.1556569343
 20
135.873540146
 30
0.0
 11
67.2066314536
 21
135.873540146
 31
0.0
  0
LINE
  5
65
330
1F
100
AcDbEntity
  8
0
  6
Continuous
 62
     7
370
    15
100
AcDbLine
 10
69.129682415
 20
135.873540146
 30
0.0
 11
69.1806569343
 21
135.873540146
 31
0.0
  0
LINE
  5
66
330
1F
100
AcDbEntity
  8
0
  6
Continuous
 62
     7
370
    15
100
AcDbLine
 10
67.1556569343
 20
133.373540146
 30
0.0
 11
69.1806569343
 21
133.373540146
 31
0.0
  0
LINE
  5
67
330
1F
100
AcDbEntity
  8
0
  6
Continuous
 62
     7
370
    15
100
AcDbLine
 10
67.4806569343
 20
130.873540146
 30
0.0
 11
62.7806569343
 21
130.873540146
 31
0.0
  0
LINE
  5
68
330
1F
100
AcDbEntity
  8
0
  6
Continuous
 62
     7
370
    15
100
AcDbLine
 10
67.1306569343
 20
125.873540146
 30
0.0
 11
63.1306569343
 21
125.873540146
 31
0.0
  0
LINE
  5
69
330
1F
100
AcDbEntity
  8
0
  6
Continuous
 62
     7
370
    15
100
AcDbLine
 10
67.4806569343
 20
128.373540146
 30
0.0
 11
62.7806569343
 21
128.373540146
 31
0.0
  0
LINE
  5
6A
330
1F
100
AcDbEntity
  8
0
  6
Continuous
 62
     7
370
    15
100
AcDbLine
 10
63.1056569343
 20
149.473540146
 30
0.0
 11
63.1056569343
 21
151.973540146
 31
0.0
  0
LINE
  5
6B
330
1F
100
AcDbEntity
  8
0
  6
Continuous
 62
     7
370
    15
100
AcDbLine
 10
61.0806569343
 20
149.473540146
 30
0.0
 11
61.1316314536
 21
149.473540146
 31
0.0
  0
LINE
  5
6C
330
1F
100
AcDbEntity
  8
0
  6
Continuous
 62
     7
370
    15
100
AcDbLine
 10
63.054682415
 20
149.473540146
 30
0.0
 11
63.1056569343
 21
149.473540146
 31
0.0
  0
LINE
  5
6D
330
1F
100
AcDbEntity
  8
0
  6
Continuous
 62
     7
370
    15
100
AcDbLine
 10
61.0806569343
 20
149.473540146
 30
0.0
 11
61.0806569344
 21
151.973540146
 31
0.0
  0
LINE
  5
6E
330
1F
100
AcDbEntity
  8
0
  6
Continuous
 62
     7
370
    15
100
AcDbLine
 10
61.0806569344
 20
151.973540146
 30
0.0
 11
63.1056569343
 21
151.973540146
 31
0.0
  0
LINE
  5
6F
330
1F
100
AcDbEntity
  8
0
  6
Continuous
 62
     7
370
    15
100
AcDbLine
 10
67.1556569343
 20
149.473540146
 30
0.0
 11
67.1556569343
 21
151.973540146
 31
0.0
  0
LINE
  5
70
330
1F
100
AcDbEntity
  8
0
  6
Continuous
 62
     7
370
    15
100
AcDbLine
 10
63.1056569343
 20
149.473540146
 30
0.0
 11
63.2076059729
 21
149.473540146
 31
0.0
  0
LINE
  5
71
330
1F
100
AcDbEntity
  8
0
  6
Continuous
 62
     7
370
    15
100
AcDbLine
 10
67.0537078957
 20
149.473540146
 30
0.0
 11
67.1556569343
 21
149.473540146
 31
0.0
  0
LINE
  5
72
330
1F
100
AcDbEntity
  8
0
  6
Continuous
 62
     7
370
    15
100
AcDbLine
 10
63.1056569343
 20
151.973540146
 30
0.0
 11
67.1556569343
 21
151.973540146
 31
0.0
  0
LINE
  5
73
330
1F
100
AcDbEntity
  8
0
  6
Continuous
 62
     7
370
    15
100
AcDbLine
 10
69.1806569343
 20
149.473540146
 30
0.0
 11
69.1806569342
 21
151.973540146
 31
0.0
  0
LINE
  5
74
330
1F
100
AcDbEntity
  8
0
  6
Continuous
 62
     7
370
    15
100
AcDbLine
 10
67.1556569343
 20
149.473540146
 30
0.0
 11
67.2066314536
 21
149.473540146
 31
0.0
  0
LINE
  5
75
330
1F
100
AcDbEntity
  8
0
  6
Continuous
 62
     7
370
    15
100
AcDbLine
 10
69.129682415
 20
149.473540146
 30
0.0
 11
69.1806569343
 21
149.473540146
 31
0.0
  0
LINE
  5
76
330
1F
100
AcDbEntity
  8
0
  6
Continuous
 62
     7
370
    15
100
AcDbLine
 10
67.1556569343
 20
151.973540146
 30
0.0
 11
69.1806569342
 21
151.973540146
 31
0.0
  0
CIRCLE
  5
77
330
1F
100
AcDbEntity
  8
0
  6
Continuous
 62
     7
370
    15
100
AcDbCircle
 10
65.1306569343
 20
142.673540146
 30
0.0
 40
3.5
  0
CIRCLE
  5
78
330
1F
100
AcDbEntity
  8
0
  6
Continuous
 62
     7
370
    15
100
AcDbCircle
 10
65.1306569343
 20
142.673540146
 30
0.0
 40
1.25
  0
LINE
  5
79
330
1F
100
AcDbEntity
  8
0
  6
Continuous
 62
     7
370
    15
100
AcDbLine
 10
58.202453704
 20
142.673540146
 30
0.0
 11
61.6665553192
 21
148.673540146
 31
0.0
  0
LINE
  5
7A
330
1F
100
AcDbEntity
  8
0
  6
Continuous
 62
     7
370
    15
100
AcDbLine
 10
61.6665553192
 20
148.673540146
 30
0.0
 11
68.5947585494
 21
148.673540146
 31
0.0
  0
LINE
  5
7B
330
1F
100
AcDbEntity
  8
0
  6
Continuous
 62
     7
370
    15
100
AcDbLine
 10
68.5947585494
 20
148.673540146
 30
0.0
 11
72.0588601646
 21
142.673540146
 31
0.0
  0
LINE
  5
7C
330
1F
100
AcDbEntity
  8
0
  6
Continuous
 62
     7
370
    15
100
AcDbLine
 10
72.0588601646
 20
142.673540146
 30
0.0
 11
68.5947585494
 21
136.673540146
 31
0.0
  0
LINE
  5
7D
330
1F
100
AcDbEntity
  8
0
  6
Continuous
 62
     7
370
    15
100
AcDbLine
 10
68.5947585494
 20
136.673540146
 30
0.0
 11
61.6665553192
 21
136.673540146
 31
0.0
  0
LINE
  5
7E
330
1F
100
AcDbEntity
  8
0
  6
Continuous
 62
     7
370
    15
100
AcDbLine
 10
61.6665553192
 20
136.673540146
 30
0.0
 11
58.202453704
 21
142.673540146
 31
0.0
  0
LINE
  5
7F
330
1F
100
AcDbEntity
  8
0
  6
Continuous
 62
     7
370
    15
100
AcDbLine
 10
69.1306569343
 20
148.673540146
 30
0.0
 11
68.5947585494
 21
148.673540146
 31
0.0
  0
LINE
  5
80
330
1F
100
AcDbEntity
  8
0
  6
Continuous
 62
     7
370
    15
100
AcDbLine
 10
61.6665553192
 20
148.673540146
 30
0.0
 11
61.1306569343
 21
148.673540146
 31
0.0
  0
LINE
  5
81
330
1F
100
AcDbEntity
  8
0
  6
Continuous
 62
     7
370
    15
100
AcDbLine
 10
69.129682415
 20
149.473540146
 30
0.0
 11
67.2066314536
 21
149.473540146
 31
0.0
  0
LINE
  5
82
330
1F
100
AcDbEntity
  8
0
  6
Continuous
 62
     7
370
    15
100
AcDbLine
 10
67.0537078957
 20
149.473540146
 30
0.0
 11
63.2076059729
 21
149.473540146
 31
0.0
  0
LINE
  5
83
330
1F
100
AcDbEntity
  8
0
  6
Continuous
 62
     7
370
    15
100
AcDbLine
 10
63.054682415
 20
149.473540146
 30
0.0
 11
61.1316314536
 21
149.473540146
 31
0.0
  0
LINE
  5
84
330
1F
100
AcDbEntity
  8
0
  6
Continuous
 62
     7
370
    15
100
AcDbLine
 10
62.1656233196
 20
135.873540146
 30
0.0
 11
61.1316314536
 21
135.873540146
 31
0.0
  0
LINE
  5
85
330
1F
100
AcDbEntity
  8
0
  6
Continuous
 62
     7
370
    15
100
AcDbLine
 10
69.129682415
 20
135.873540146
 30
0.0
 11
67.2066314536
 21
135.873540146
 31
0.0
  0
LINE
  5
86
330
1F
100
AcDbEntity
  8
0
  6
Continuous
 62
     7
370
    15
100
AcDbLine
 10
67.0537078957
 20
135.873540146
 30
0.0
 11
63.2076059729
 21
135.873540146
 31
0.0
  0
LINE
  5
87
330
1F
100
AcDbEntity
  8
0
  6
Continuous
 62
     7
370
    15
100
AcDbLine
 10
63.054682415
 20
135.873540146
 30
0.0
 11
62.1656233196
 21
135.873540146
 31
0.0
  0
LINE
  5
88
330
1F
100
AcDbEntity
  8
0
  6
Continuous
 62
     7
370
    15
100
AcDbLine
 10
61.6665553192
 20
136.673540146
 30
0.0
 11
61.1306569343
 21
136.673540146
 31
0.0
  0
LINE
  5
89
330
1F
100
AcDbEntity
  8
0
  6
Continuous
 62
     7
370
    15
100
AcDbLine
 10
69.1306569343
 20
136.673540146
 30
0.0
 11
68.5947585494
 21
136.673540146
 31
0.0
  0
DIMENSION
  5
8A
330
1F
100
AcDbEntity
  8
0
  6
Continuous
 62
     7
370
     0
100
AcDbDimension
  2
_D
 10
40.1990731977
 20
133.373540146
 30
0.0
 11
40.1990731977
 21
141.9413147881
 31
0.0
 70
   160
  1
<>
 71
     2
 42
-1.0
  3
SLDDIMSTYLE0
100
AcDbAlignedDimension
 13
61.0806569344
 23
151.973540146
 33
0.0
 14
61.0806569343
 24
133.373540146
 34
0.0
 50
90.0
100
AcDbRotatedDimension
  0
DIMENSION
  5
96
330
1F
100
AcDbEntity
  8
0
  6
Continuous
 62
     7
370
     0
100
AcDbDimension
  2
_D_1
 10
52.1176786462
 20
136.673540146
 30
0.0
 11
52.1176786462
 21
141.9413147881
 31
0.0
 70
   160
  1
<>
 71
     2
 42
-1.0
  3
SLDDIMSTYLE0
100
AcDbAlignedDimension
 13
61.6665553192
 23
148.673540146
 33
0.0
 14
61.6665553192
 24
136.673540146
 34
0.0
 50
90.0
100
AcDbRotatedDimension
  0
MTEXT
  5
A0
330
1F
100
AcDbEntity
  8
0
  6
Continuous
 62
     7
370
     0
100
AcDbMText
 10
43.2118295429
 20
166.7426542124
 30
0.0
 40
3.5
 41
0.0
 71
     1
 72
     1
  1
M3
  7
SLDTEXTSTYLE1
 73
     1
 44
1.0
  0
LEADER
  5
A2
330
1F
100
AcDbEntity
  8
0
  6
Continuous
 62
     7
370
     0
100
AcDbLeader
  3
SLDDIMSTYLE1
 76
     3
 10
64.4518204985
 20
143.723150118
 30
0.0
 10
50.5
 20
162.1350364964
 30
0.0
 10
43.0656934307
 20
162.1350364964
 30
0.0
  0
INSERT
  5
AE
330
1F
100
AcDbEntity
  8
0
  6
Continuous
 62
     7
370
     0
100
AcDbBlockReference
  2
SW_CENTERMARKSYMBOL_0
 10
65.1306569343
 20
142.673540146
 30
0.0
  0
LINE
  5
AF
330
1F
100
AcDbEntity
  8
0
  6
Continuous
 62
     7
370
    15
100
AcDbLine
 10
160.4197080292
 20
139.173540146
 30
0.0
 11
161.0197080292
 21
139.173540146
 31
0.0
  0
LINE
  5
B0
330
1F
100
AcDbEntity
  8
0
  6
Continuous
 62
     7
370
    15
100
AcDbLine
 10
161.0197080292
 20
145.2564709938
 30
0.0
 11
160.4197080292
 21
145.2564709938
 31
0.0
  0
LINE
  5
B1
330
1F
100
AcDbEntity
  8
0
  6
Continuous
 62
     7
370
    15
100
AcDbLine
 10
125.9697080292
 20
130.873540146
 30
0.0
 11
126.3197080292
 21
128.373540146
 31
0.0
  0
LINE
  5
B2
330
1F
100
AcDbEntity
  8
0
  6
Continuous
 62
     7
370
    15
100
AcDbLine
 10
130.3197080292
 20
128.373540146
 30
0.0
 11
130.6697080292
 21
130.873540146
 31
0.0
  0
LINE
  5
B3
330
1F
100
AcDbEntity
  8
0
  6
Continuous
 62
     7
370
    15
100
AcDbLine
 10
125.9697080292
 20
128.373540146
 30
0.0
 11
126.3197080292
 21
125.873540146
 31
0.0
  0
LINE
  5
B4
330
1F
100
AcDbEntity
  8
0
  6
Continuous
 62
     7
370
    15
100
AcDbLine
 10
130.3197080292
 20
125.873540146
 30
0.0
 11
130.6697080292
 21
128.373540146
 31
0.0
  0
LINE
  5
B5
330
1F
100
AcDbEntity
  8
0
  6
Continuous
 62
     7
370
    15
100
AcDbLine
 10
130.4197080292
 20
130.873540146
 30
0.0
 11
130.4197080292
 21
133.373540146
 31
0.0
  0
LINE
  5
B6
330
1F
100
AcDbEntity
  8
0
  6
Continuous
 62
     7
370
    15
100
AcDbLine
 10
126.2197080292
 20
133.373540146
 30
0.0
 11
126.2197080292
 21
130.873540146
 31
0.0
  0
LINE
  5
B7
330
1F
100
AcDbEntity
  8
0
  6
Continuous
 62
     7
370
    15
100
AcDbLine
 10
132.3197080292
 20
138.923540146
 30
0.0
 11
133.3197080292
 21
138.923540146
 31
0.0
  0
LINE
  5
B8
330
1F
100
AcDbEntity
  8
0
  6
Continuous
 62
     7
370
    15
100
AcDbLine
 10
133.3197080292
 20
146.423540146
 30
0.0
 11
132.3197080292
 21
146.423540146
 31
0.0
  0
LINE
  5
B9
330
1F
100
AcDbEntity
  8
0
  6
Continuous
 62
     7
370
    15
100
AcDbLine
 10
118.8197080292
 20
139.173540146
 30
0.0
 11
120.8197080292
 21
139.173540146
 31
0.0
  0
LINE
  5
BA
330
1F
100
AcDbEntity
  8
0
  6
Continuous
 62
     7
370
    15
100
AcDbLine
 10
120.8197080292
 20
146.173540146
 30
0.0
 11
118.8197080292
 21
146.173540146
 31
0.0
  0
LINE
  5
BB
330
1F
100
AcDbEntity
  8
0
  6
Continuous
 62
     7
370
    15
100
AcDbLine
 10
161.8197080292
 20
140.173540146
 30
0.0
 11
162.3197080292
 21
140.673540146
 31
0.0
  0
LINE
  5
BC
330
1F
100
AcDbEntity
  8
0
  6
Continuous
 62
     7
370
    15
100
AcDbLine
 10
162.3197080292
 20
144.673540146
 30
0.0
 11
161.8197080292
 21
145.173540146
 31
0.0
  0
LINE
  5
BD
330
1F
100
AcDbEntity
  8
0
  6
Continuous
 62
     7
370
    15
100
AcDbLine
 10
161.0197080292
 20
140.173540146
 30
0.0
 11
161.8197080292
 21
140.173540146
 31
0.0
  0
LINE
  5
BE
330
1F
100
AcDbEntity
  8
0
  6
Continuous
 62
     7
370
    15
100
AcDbLine
 10
161.8197080292
 20
145.173540146
 30
0.0
 11
161.0197080292
 21
145.173540146
 31
0.0
  0
LINE
  5
BF
330
1F
100
AcDbEntity
  8
0
  6
Continuous
 62
     7
370
    15
100
AcDbLine
 10
133.3197080292
 20
140.173540146
 30
0.0
 11
134.0244804107
 21
140.173540146
 31
0.0
  0
LINE
  5
C0
330
1F
100
AcDbEntity
  8
0
  6
Continuous
 62
     7
370
    15
100
AcDbLine
 10
134.522931862
 20
140.173540146
 30
0.0
 11
136.0242361138
 21
140.173540146
 31
0.0
  0
LINE
  5
C1
330
1F
100
AcDbEntity
  8
0
  6
Continuous
 62
     7
370
    15
100
AcDbLine
 10
136.5229944344
 20
140.173540146
 30
0.0
 11
138.0242082395
 21
140.173540146
 31
0.0
  0
LINE
  5
C2
330
1F
100
AcDbEntity
  8
0
  6
Continuous
 62
     7
370
    15
100
AcDbLine
 10
138.3197080292
 20
145.173540146
 30
0.0
 11
138.1219571289
 21
145.173540146
 31
0.0
  0
LINE
  5
C3
330
1F
100
AcDbEntity
  8
0
  6
Continuous
 62
     7
370
    15
100
AcDbLine
 10
137.6232539603
 20
145.173540146
 30
0.0
 11
136.1221895213
 21
145.173540146
 31
0.0
  0
LINE
  5
C4
330
1F
100
AcDbEntity
  8
0
  6
Continuous
 62
     7
370
    15
100
AcDbLine
 10
135.623275317
 20
145.173540146
 30
0.0
 11
134.1217248766
 21
145.173540146
 31
0.0
  0
LINE
  5
C5
330
1F
100
AcDbEntity
  8
0
  6
Continuous
 62
     7
370
    15
100
AcDbLine
 10
133.6230514305
 20
145.173540146
 30
0.0
 11
133.3197080292
 21
145.173540146
 31
0.0
  0
LINE
  5
C6
330
1F
100
AcDbEntity
  8
0
  6
Continuous
 62
     7
370
    15
100
AcDbLine
 10
120.8197080292
 20
140.173540146
 30
0.0
 11
124.3197080292
 21
140.173540146
 31
0.0
  0
LINE
  5
C7
330
1F
100
AcDbEntity
  8
0
  6
Continuous
 62
     7
370
    15
100
AcDbLine
 10
124.3197080292
 20
145.173540146
 30
0.0
 11
120.8197080292
 21
145.173540146
 31
0.0
  0
LINE
  5
C8
330
1F
100
AcDbEntity
  8
0
  6
Continuous
 62
     7
370
    15
100
AcDbLine
 10
160.3197080292
 20
141.173540146
 30
0.0
 11
160.4197080292
 21
141.173540146
 31
0.0
  0
LINE
  5
C9
330
1F
100
AcDbEntity
  8
0
  6
Continuous
 62
     7
370
    15
100
AcDbLine
 10
160.4197080292
 20
144.173540146
 30
0.0
 11
160.3197080292
 21
144.173540146
 31
0.0
  0
LINE
  5
CA
330
1F
100
AcDbEntity
  8
0
  6
Continuous
 62
     7
370
    15
100
AcDbLine
 10
142.0197080292
 20
136.673540146
 30
0.0
 11
142.3197080292
 21
136.973540146
 31
0.0
  0
LINE
  5
CB
330
1F
100
AcDbEntity
  8
0
  6
Continuous
 62
     7
370
    15
100
AcDbLine
 10
142.3197080292
 20
148.373540146
 30
0.0
 11
142.0197080292
 21
148.673540146
 31
0.0
  0
LINE
  5
CC
330
1F
100
AcDbEntity
  8
0
  6
Continuous
 62
     7
370
    15
100
AcDbLine
 10
142.0197080292
 20
148.673540146
 30
0.0
 11
140.6197080292
 21
148.673540146
 31
0.0
  0
LINE
  5
CD
330
1F
100
AcDbEntity
  8
0
  6
Continuous
 62
     7
370
    15
100
AcDbLine
 10
140.6197080292
 20
136.673540146
 30
0.0
 11
142.0197080292
 21
136.673540146
 31
0.0
  0
LINE
  5
CE
330
1F
100
AcDbEntity
  8
0
  6
Continuous
 62
     7
370
    15
100
AcDbLine
 10
140.6197080292
 20
148.673540146
 30
0.0
 11
140.3197080292
 21
148.373540146
 31
0.0
  0
LINE
  5
CF
330
1F
100
AcDbEntity
  8
0
  6
Continuous
 62
     7
370
    15
100
AcDbLine
 10
140.3197080292
 20
136.973540146
 30
0.0
 11
140.6197080292
 21
136.673540146
 31
0.0
  0
LINE
  5
D0
330
1F
100
AcDbEntity
  8
0
  6
Continuous
 62
     7
370
    15
100
AcDbLine
 10
160.0197080292
 20
138.673540146
 30
0.0
 11
160.3197080292
 21
138.973540146
 31
0.0
  0
LINE
  5
D1
330
1F
100
AcDbEntity
  8
0
  6
Continuous
 62
     7
370
    15
100
AcDbLine
 10
160.3197080292
 20
146.373540146
 30
0.0
 11
160.0197080292
 21
146.673540146
 31
0.0
  0
LINE
  5
D2
330
1F
100
AcDbEntity
  8
0
  6
Continuous
 62
     7
370
    15
100
AcDbLine
 10
160.0197080292
 20
146.673540146
 30
0.0
 11
142.3197080292
 21
146.673540146
 31
0.0
  0
LINE
  5
D3
330
1F
100
AcDbEntity
  8
0
  6
Continuous
 62
     7
370
    15
100
AcDbLine
 10
142.3197080292
 20
138.673540146
 30
0.0
 11
160.0197080292
 21
138.673540146
 31
0.0
  0
LINE
  5
D4
330
1F
100
AcDbEntity
  8
0
  6
Continuous
 62
     7
370
    15
100
AcDbLine
 10
140.3197080292
 20
146.423540146
 30
0.0
 11
139.9800390851
 21
146.423540146
 31
0.0
  0
LINE
  5
D5
330
1F
100
AcDbEntity
  8
0
  6
Continuous
 62
     7
370
    15
100
AcDbLine
 10
139.4788310597
 20
146.423540146
 30
0.0
 11
138.6197080292
 21
146.423540146
 31
0.0
  0
LINE
  5
D6
330
1F
100
AcDbEntity
  8
0
  6
Continuous
 62
     7
370
    15
100
AcDbLine
 10
138.6682930374
 20
138.923540146
 30
0.0
 11
140.3197080292
 21
138.923540146
 31
0.0
  0
LINE
  5
D7
330
1F
100
AcDbEntity
  8
0
  6
Continuous
 62
     7
370
    15
100
AcDbLine
 10
138.6197080292
 20
146.423540146
 30
0.0
 11
138.3197080292
 21
146.123540146
 31
0.0
  0
LWPOLYLINE
  5
D8
330
1F
100
AcDbEntity
  8
0
  6
Continuous
 62
     7
370
    15
100
AcDbPolyline
 90
       33
 70
   128
 43
0.0
 10
133.4376149069
 20
146.7044762083
 10
133.4360241473
 20
146.6662695898
 10
133.4518760945
 20
146.5734670411
 10
133.4779299692
 20
146.4216247758
 10
133.509137207
 20
146.2118062083
 10
133.5420392807
 20
145.9542548291
 10
133.5749857747
 20
145.6609058482
 10
133.6079309451
 20
145.3357567526
 10
133.6408380302
 20
144.9827207525
 10
133.6736748799
 20
144.605647655
 10
133.7064139555
 20
144.2084015954
 10
133.7495584352
 20
143.6596022841
 10
133.7884171334
 20
143.1488942958
 10
133.8219026269
 20
142.7026067164
 10
133.8500037109
 20
142.3275564568
 10
133.8766847225
 20
141.9739115307
 10
133.9112726213
 20
141.5233216776
 10
133.9426948052
 20
141.1260030701
 10
133.9788593549
 20
140.6877625011
 10
134.019816869
 20
140.2218675651
 10
134.0656279797
 20
139.7471355148
 10
134.1124241699
 20
139.3227263171
 10
134.1543318276
 20
139.0035208108
 10
134.191808508
 20
138.7722009157
 10
134.2255463414
 20
138.6087164982
 10
134.2463758901
 20
138.5281226907
 10
134.2662123819
 20
138.464861199
 10
134.2857601737
 20
138.4144122525
 10
134.314052013
 20
138.3588823886
 10
134.3680354738
 20
138.2835159367
 10
134.4554962225
 20
138.2106422229
 10
134.5792321102
 20
138.1770603458
 10
134.5792321102
 20
138.1770603458
  0
SPLINE
  5
D9
330
1F
100
AcDbEntity
  8
0
  6
Continuous
 62
     7
370
    15
100
AcDbSpline
210
0.0
220
0.0
230
1.0
 70
     8
 71
     3
 72
    40
 73
    36
 74
     0
 42
0.00000001
 43
0.00000001
 12
1.0
 22
0.0
 32
0.0
 13
1.0
 23
0.0
 33
0.0
 40
0.0
 40
0.0
 40
0.0
 40
0.0
 40
0.0138049655250759
 40
0.0314453292398991
 40
0.0637913562350563
 40
0.0921129833677721
 40
0.1263598383719909
 40
0.1650418812153266
 40
0.2087374669114575
 40
0.244808938495103
 40
0.2837424051381809
 40
0.3216181593217384
 40
0.3539592057361534
 40
0.3807184723926141
 40
0.4018707036793482
 40
0.4174689063516019
 40
0.4338541989020038
 40
0.4552437668469748
 40
0.4816350826643688
 40
0.513041970712503
 40
0.5495060884094519
 40
0.5910636187184679
 40
0.6363769689315446
 40
0.6792995992230291
 40
0.7190504316514239
 40
0.7671346507568184
 40
0.8097015275736779
 40
0.8467369764613859
 40
0.8631680880843648
 40
0.880547873338161
 40
0.9026268946092746
 40
0.92248804578677
 40
0.9453170031800534
 40
0.9711755457265221
 40
0.9999999999999999
 40
0.9999999999999999
 40
0.9999999999999999
 40
0.9999999999999999
 10
135.4132476384889
 20
146.7352272468187
 30
0.0
 10
135.412949508835
 20
146.7334538286339
 30
0.0
 10
135.4122704209294
 20
146.7294142880354
 30
0.0
 10
135.4268905345406
 20
146.6812317438892
 30
0.0
 10
135.444088659925
 20
146.6030972349812
 30
0.0
 10
135.4714533461586
 20
146.4605630969764
 30
0.0
 10
135.5032519629199
 20
146.2584579534198
 30
0.0
 10
135.5397686150443
 20
145.9811670311458
 30
0.0
 10
135.5772681162001
 20
145.6484787592681
 30
0.0
 10
135.6149647870616
 20
145.2708997579998
 30
0.0
 10
135.650897324385
 20
144.8758578758083
 30
0.0
 10
135.68562676597
 20
144.4656203656627
 30
0.0
 10
135.7164678667022
 20
144.0831105455715
 30
0.0
 10
135.7419962362027
 20
143.7567117872442
 30
0.0
 10
135.7622096975866
 20
143.4935088318765
 30
0.0
 10
135.7791337247691
 20
143.2708472004772
 30
0.0
 10
135.7961414225097
 20
143.0455755694998
 30
0.0
 10
135.8166024151683
 20
142.7731716913952
 30
0.0
 10
135.8418785463033
 20
142.4360113940376
 30
0.0
 10
135.8719877738044
 20
142.036185521735
 30
0.0
 10
135.9069268331957
 20
141.5788772703442
 30
0.0
 10
135.946276993515
 20
141.0786305205002
 30
0.0
 10
135.9876794094432
 20
140.5777854946716
 30
0.0
 10
136.0286026220494
 20
140.1175488356241
 30
0.0
 10
136.07056457185
 20
139.6871033744245
 30
0.0
 10
136.1127208418625
 20
139.3080042622443
 30
0.0
 10
136.1541437741158
 20
138.9957199691095
 30
0.0
 10
136.1860273665356
 20
138.7986343099154
 30
0.0
 10
136.2092103409163
 20
138.6765986283311
 30
0.0
 10
136.2298523484339
 20
138.5803958687677
 30
0.0
 10
136.2607807957405
 20
138.4708833716257
 30
0.0
 10
136.3075523866878
 20
138.3629290520475
 30
0.0
 10
136.3730480081929
 20
138.2679705493282
 30
0.0
 10
136.4645823843689
 20
138.1895162322626
 30
0.0
 10
136.5396835056073
 20
138.1791257762793
 30
0.0
 10
136.579270744071
 20
138.1736487680539
 30
0.0
  0
SPLINE
  5
DA
330
1F
100
AcDbEntity
  8
0
  6
Continuous
 62
     7
370
    15
100
AcDbSpline
210
0.0
220
0.0
230
1.0
 70
     8
 71
     3
 72
    38
 73
    34
 74
     0
 42
0.00000001
 43
0.00000001
 12
1.0
 22
0.0
 32
0.0
 13
1.0
 23
0.0
 33
0.0
 40
0.0
 40
0.0
 40
0.0
 40
0.0
 40
0.0065169355623876
 40
0.0166931977924684
 40
0.0291516415732785
 40
0.048381277920662
 40
0.0745229112961854
 40
0.1076047871996869
 40
0.1476364056973891
 40
0.1946716198219112
 40
0.2442534007842709
 40
0.2891540075978654
 40
0.3292015814442713
 40
0.3643561423677603
 40
0.4036047130906564
 40
0.4341795726940455
 40
0.4604616779469242
 40
0.492338319712509
 40
0.5301919518906635
 40
0.574004468889211
 40
0.6092455896782103
 40
0.6442687370474885
 40
0.6790910860504703
 40
0.7137559770683353
 40
0.7597427011138606
 40
0.8054430856466634
 40
0.8501401477774244
 40
0.9147770328168114
 40
0.9305586862375553
 40
0.9479107950175998
 40
0.9708135622237711
 40
0.9846211530302968
 40
1.0
 40
1.0
 40
1.0
 40
1.0
 10
137.4565780322209
 20
146.6513769413679
 30
0.0
 10
137.4543446202265
 20
146.6499604450883
 30
0.0
 10
137.4486237123213
 20
146.6463320752291
 30
0.0
 10
137.4428473792754
 20
146.6384652881095
 30
0.0
 10
137.4449143288713
 20
146.6108654218932
 30
0.0
 10
137.4572051521982
 20
146.546380513605
 30
0.0
 10
137.4771570219403
 20
146.4323329898886
 30
0.0
 10
137.5055880761952
 20
146.2478458473836
 30
0.0
 10
137.5416003658576
 20
145.9717849867366
 30
0.0
 10
137.583623739327
 20
145.5923754326847
 30
0.0
 10
137.6274156003947
 20
145.1392524084732
 30
0.0
 10
137.6690403087241
 20
144.6643000891708
 30
0.0
 10
137.7063016212505
 20
144.2111188002367
 30
0.0
 10
137.7418928623578
 20
143.7599354155968
 30
0.0
 10
137.7746320244299
 20
143.332546702458
 30
0.0
 10
137.8046112774734
 20
142.9347075199812
 30
0.0
 10
137.8322686103603
 20
142.5655668701191
 30
0.0
 10
137.862170973709
 20
142.1667461227983
 30
0.0
 10
137.8975129360794
 20
141.7002998416496
 30
0.0
 10
137.9339212002004
 20
141.2321692517081
 30
0.0
 10
137.9694817487579
 20
140.7937403763777
 30
0.0
 10
138.0023206787958
 20
140.4089547399354
 30
0.0
 10
138.0350544158698
 20
140.0501921224507
 30
0.0
 10
138.0712648443973
 20
139.6841346873616
 30
0.0
 10
138.111055001134
 20
139.3247429749766
 30
0.0
 10
138.1540407217116
 20
138.9948516145915
 30
0.0
 10
138.2043173238264
 20
138.6816684850416
 30
0.0
 10
138.2517314374491
 20
138.4841678530199
 30
0.0
 10
138.2937315909855
 20
138.3775791453992
 30
0.0
 10
138.326913611184
 20
138.3110085899793
 30
0.0
 10
138.3967942563551
 20
138.2339012777547
 30
0.0
 10
138.4872455885986
 20
138.1847786376356
 30
0.0
 10
138.5466929027299
 20
138.1794358882496
 30
0.0
 10
138.578016737238
 20
138.1766206997078
 30
0.0
  0
SPLINE
  5
DB
330
1F
100
AcDbEntity
  8
0
  6
Continuous
 62
     7
370
    15
100
AcDbSpline
210
0.0
220
0.0
230
1.0
 70
     8
 71
     3
 72
    19
 73
    15
 74
     0
 42
0.00000001
 43
0.00000001
 12
1.0
 22
0.0
 32
0.0
 13
1.0
 23
0.0
 33
0.0
 40
0.0
 40
0.0
 40
0.0
 40
0.0
 40
0.0194876773785907
 40
0.0638442608761463
 40
0.1240944247275464
 40
0.2003171344899212
 40
0.2680738561728712
 40
0.345006571406379
 40
0.4311869273566836
 40
0.5266173396208885
 40
0.6312195099934916
 40
0.7448944119206842
 40
0.8677216773299737
 40
1.0
 40
1.0
 40
1.0
 40
1.0
 10
139.4100643545236
 20
146.7384356837479
 30
0.0
 10
139.4101525527572
 20
146.737278412811
 30
0.0
 10
139.4104415020723
 20
146.7334870370524
 30
0.0
 10
139.424752337622
 20
146.6936018506911
 30
0.0
 10
139.443320179657
 20
146.6184441209395
 30
0.0
 10
139.4682919512476
 20
146.4941070766102
 30
0.0
 10
139.49585418632
 20
146.3219096758944
 30
0.0
 10
139.525585658619
 20
146.1045524217711
 30
0.0
 10
139.5594238908617
 20
145.8189013992589
 30
0.0
 10
139.5973930358992
 20
145.4560049079552
 30
0.0
 10
139.6394442359417
 20
145.0086877630843
 30
0.0
 10
139.6855890550824
 20
144.471625938943
 30
0.0
 10
139.735799041617
 20
143.843987335616
 30
0.0
 10
139.7705968981259
 20
143.3849755654823
 30
0.0
 10
139.7886404154245
 20
143.1469670314622
 30
0.0
  0
SPLINE
  5
DC
330
1F
100
AcDbEntity
  8
0
  6
Continuous
 62
     7
370
    15
100
AcDbSpline
210
0.0
220
0.0
230
1.0
 70
     8
 71
     3
 72
    15
 73
    11
 74
     0
 42
0.00000001
 43
0.00000001
 12
1.0
 22
0.0
 32
0.0
 13
1.0
 23
0.0
 33
0.0
 40
0.0
 40
0.0
 40
0.0
 40
0.0
 40
0.1048790351164688
 40
0.1980071041530027
 40
0.316219134711363
 40
0.4142986719586887
 40
0.5173741938945674
 40
0.6317014033858728
 40
0.8627262952326462
 40
1.0
 40
1.0
 40
1.0
 40
1.0
 10
139.5780492263728
 20
147.169239616247
 30
0.0
 10
139.5390326045801
 20
147.1644344492133
 30
0.0
 10
139.465370901968
 20
147.1553625006752
 30
0.0
 10
139.3735218884369
 20
147.0906371164769
 30
0.0
 10
139.312961789859
 20
147.0099256240519
 30
0.0
 10
139.2847917442038
 20
146.9466366860975
 30
0.0
 10
139.2605242806164
 20
146.8798639597909
 30
0.0
 10
139.228952542199
 20
146.7670158492192
 30
0.0
 10
139.1979107563869
 20
146.6257475144449
 30
0.0
 10
139.1759575740622
 20
146.4784437760376
 30
0.0
 10
139.1677750974064
 20
146.4235401459854
 30
0.0
  0
SPLINE
  5
DD
330
1F
100
AcDbEntity
  8
0
  6
Continuous
 62
     7
370
    15
100
AcDbSpline
210
0.0
220
0.0
230
1.0
 70
     8
 71
     3
 72
    19
 73
    15
 74
     0
 42
0.00000001
 43
0.00000001
 12
1.0
 22
0.0
 32
0.0
 13
1.0
 23
0.0
 33
0.0
 40
0.0
 40
0.0
 40
0.0
 40
0.0
 40
0.0617542625145481
 40
0.1155676328624966
 40
0.181677864672214
 40
0.2356954033857396
 40
0.2953848074377437
 40
0.3627203017338514
 40
0.464374528748929
 40
0.5795764747656532
 40
0.7082665127224261
 40
0.8494661054726543
 40
0.9843331573855446
 40
1.0
 40
1.0
 40
1.0
 40
1.0
 10
137.5772244224218
 20
147.1725451239327
 30
0.0
 10
137.5398918824945
 20
147.1680661808848
 30
0.0
 10
137.470027340478
 20
147.1596842356606
 30
0.0
 10
137.381175842318
 20
147.0980224222209
 30
0.0
 10
137.3204103306279
 20
147.0205536246149
 30
0.0
 10
137.2888973299952
 20
146.9519700396706
 30
0.0
 10
137.2602064172631
 20
146.8729188495405
 30
0.0
 10
137.2291672239724
 20
146.7598562669466
 30
0.0
 10
137.1945406241227
 20
146.5959402382178
 30
0.0
 10
137.1557656372783
 20
146.3594582587585
 30
0.0
 10
137.1144114059076
 20
146.0505224587498
 30
0.0
 10
137.0720051918984
 20
145.6703648527563
 30
0.0
 10
137.0414594115488
 20
145.3677901745839
 30
0.0
 10
137.0257780160988
 20
145.1918510432668
 30
0.0
 10
137.0241459719983
 20
145.1735401459854
 30
0.0
  0
SPLINE
  5
DE
330
1F
100
AcDbEntity
  8
0
  6
Continuous
 62
     7
370
    15
100
AcDbSpline
210
0.0
220
0.0
230
1.0
 70
     8
 71
     3
 72
    10
 73
     6
 74
     0
 42
0.00000001
 43
0.00000001
 12
1.0
 22
0.0
 32
0.0
 13
1.0
 23
0.0
 33
0.0
 40
0.0
 40
0.0
 40
0.0
 40
0.0
 40
0.1496699880751478
 40
0.8498691686475751
 40
1.0
 40
1.0
 40
1.0
 40
1.0
 10
136.6232984173906
 20
140.1735401459854
 30
0.0
 10
136.6207897368539
 20
140.1458185361496
 30
0.0
 10
136.6065447284223
 20
139.9884072754977
 30
0.0
 10
136.5897922650348
 20
139.8176147061244
 30
0.0
 10
136.5756153672293
 20
139.6910508112545
 30
0.0
 10
136.5731123514311
 20
139.6687052013271
 30
0.0
  0
SPLINE
  5
DF
330
1F
100
AcDbEntity
  8
0
  6
Continuous
 62
     7
370
    15
100
AcDbSpline
210
0.0
220
0.0
230
1.0
 70
     8
 71
     3
 72
    17
 73
    13
 74
     0
 42
0.00000001
 43
0.00000001
 12
1.0
 22
0.0
 32
0.0
 13
1.0
 23
0.0
 33
0.0
 40
0.0
 40
0.0
 40
0.0
 40
0.0
 40
0.0652552964893997
 40
0.1289070261965646
 40
0.2053875054290839
 40
0.2861863196266887
 40
0.36754209673796
 40
0.5139544879887207
 40
0.6633954698407613
 40
0.8122947078912414
 40
0.9226487273154204
 40
1.0
 40
1.0
 40
1.0
 40
1.0
 10
135.5782399451339
 20
147.1720233779868
 30
0.0
 10
135.5319158223476
 20
147.1639032914715
 30
0.0
 10
135.44040593379
 20
147.1478626593469
 30
0.0
 10
135.3695352450107
 20
147.0800116473724
 30
0.0
 10
135.3155575297286
 20
147.0044076658241
 30
0.0
 10
135.2707373277219
 20
146.9006748338369
 30
0.0
 10
135.2231673073329
 20
146.742047399437
 30
0.0
 10
135.1772779632137
 20
146.5088249233678
 30
0.0
 10
135.1301255018544
 20
146.1822528568491
 30
0.0
 10
135.0871522710638
 20
145.8138176466347
 30
0.0
 10
135.051964062015
 20
145.4723413756891
 30
0.0
 10
135.0324277518069
 20
145.2607391007267
 30
0.0
 10
135.024377054668
 20
145.1735401459854
 30
0.0
  0
SPLINE
  5
E0
330
1F
100
AcDbEntity
  8
0
  6
Continuous
 62
     7
370
    15
100
AcDbSpline
210
0.0
220
0.0
230
1.0
 70
     8
 71
     3
 72
     9
 73
     5
 74
     0
 42
0.00000001
 43
0.00000001
 12
1.0
 22
0.0
 32
0.0
 13
1.0
 23
0.0
 33
0.0
 40
0.0
 40
0.0
 40
0.0
 40
0.0
 40
0.5466112171683426
 40
1.0
 40
1.0
 40
1.0
 40
1.0
 10
134.6230643644252
 20
140.1735401459854
 30
0.0
 10
134.6139563830622
 20
140.0749767182408
 30
0.0
 10
134.5972937514204
 20
139.8946594751093
 30
0.0
 10
134.580745349673
 20
139.7407306644178
 30
0.0
 10
134.5732424899469
 20
139.6709410682957
 30
0.0
  0
SPLINE
  5
E1
330
1F
100
AcDbEntity
  8
0
  6
Continuous
 62
     7
370
    15
100
AcDbSpline
210
0.0
220
0.0
230
1.0
 70
     8
 71
     3
 72
    16
 73
    12
 74
     0
 42
0.00000001
 43
0.00000001
 12
1.0
 22
0.0
 32
0.0
 13
1.0
 23
0.0
 33
0.0
 40
0.0
 40
0.0
 40
0.0
 40
0.0
 40
0.0803739117248924
 40
0.1547261415526616
 40
0.3046704069684823
 40
0.4271037857391315
 40
0.5383076797133536
 40
0.64287087045439
 40
0.7409689859328643
 40
0.8327715261689566
 40
1.0
 40
1.0
 40
1.0
 40
1.0
 10
133.5781934439293
 20
147.1690974150774
 30
0.0
 10
133.5484534427937
 20
147.1664278644921
 30
0.0
 10
133.4912015867283
 20
147.1612887683241
 30
0.0
 10
133.3954496273232
 20
147.111239389997
 30
0.0
 10
133.3182182009306
 20
147.022156910734
 30
0.0
 10
133.2830272926142
 20
146.9423012601055
 30
0.0
 10
133.2566135551365
 20
146.8671331213467
 30
0.0
 10
133.2337031280199
 20
146.7839318044382
 30
0.0
 10
133.2138373816985
 20
146.6967454733543
 30
0.0
 10
133.1910256094831
 20
146.5817306302967
 30
0.0
 10
133.1759125087637
 20
146.4856008250248
 30
0.0
 10
133.1661556046444
 20
146.4235401459854
 30
0.0
  0
SPLINE
  5
E2
330
1F
100
AcDbEntity
  8
0
  6
Continuous
 62
     7
370
    15
100
AcDbSpline
210
0.0
220
0.0
230
1.0
 70
     8
 71
     3
 72
    10
 73
     6
 74
     0
 42
0.00000001
 43
0.00000001
 12
1.0
 22
0.0
 32
0.0
 13
1.0
 23
0.0
 33
0.0
 40
0.0
 40
0.0
 40
0.0
 40
0.0
 40
0.0213956866352711
 40
0.5444230003270509
 40
1.0
 40
1.0
 40
1.0
 40
1.0
 10
132.4867554038032
 20
138.9235401459854
 30
0.0
 10
132.4863598935132
 20
138.920538413363
 30
0.0
 10
132.4762959538784
 20
138.8441579583524
 30
0.0
 10
132.4613697476365
 20
138.7534757722029
 30
0.0
 10
132.4509369812866
 20
138.6989253185696
 30
0.0
 10
132.4460801373844
 20
138.673530037088
 30
0.0
  0
SPLINE
  5
E3
330
1F
100
AcDbEntity
  8
0
  6
Continuous
 62
     7
370
    15
100
AcDbSpline
210
0.0
220
0.0
230
1.0
 70
     8
 71
     3
 72
    10
 73
     6
 74
     0
 42
0.00000001
 43
0.00000001
 12
1.0
 22
0.0
 32
0.0
 13
1.0
 23
0.0
 33
0.0
 40
0.0
 40
0.0
 40
0.0
 40
0.0
 40
0.4441048006180957
 40
0.8605943893507905
 40
1.0
 40
1.0
 40
1.0
 40
1.0
 10
132.8714262108748
 20
138.4282448240453
 30
0.0
 10
132.8873197651573
 20
138.4798056143343
 30
0.0
 10
132.9181185847675
 20
138.5797210549499
 30
0.0
 10
132.9536083918078
 20
138.7570207438038
 30
0.0
 10
132.9731184369053
 20
138.8901535331537
 30
0.0
 10
132.9780111032814
 20
138.9235401459854
 30
0.0
  0
SPLINE
  5
E4
330
1F
100
AcDbEntity
  8
0
  6
Continuous
 62
     7
370
    15
100
AcDbSpline
210
0.0
220
0.0
230
1.0
 70
     8
 71
     3
 72
     9
 73
     5
 74
     0
 42
0.00000001
 43
0.00000001
 12
1.0
 22
0.0
 32
0.0
 13
1.0
 23
0.0
 33
0.0
 40
0.0
 40
0.0
 40
0.0
 40
0.0
 40
0.7591955878379852
 40
1.0
 40
1.0
 40
1.0
 40
1.0
 10
133.5228709650113
 20
145.1735401459854
 30
0.0
 10
133.5356711945022
 20
145.3101392635638
 30
0.0
 10
133.5525314472435
 20
145.4900653850622
 30
0.0
 10
133.5692743418111
 20
145.639803656989
 30
0.0
 10
133.5733061046953
 20
145.6758612935385
 30
0.0
  0
SPLINE
  5
E5
330
1F
100
AcDbEntity
  8
0
  6
Continuous
 62
     7
370
    15
100
AcDbSpline
210
0.0
220
0.0
230
1.0
 70
     8
 71
     3
 72
    20
 73
    16
 74
     0
 42
0.00000001
 43
0.00000001
 12
1.0
 22
0.0
 32
0.0
 13
1.0
 23
0.0
 33
0.0
 40
0.0
 40
0.0
 40
0.0
 40
0.0
 40
0.0463441115113118
 40
0.0879515660811427
 40
0.1666933534161012
 40
0.2249473596045688
 40
0.2802956556695482
 40
0.3359461002695623
 40
0.3919468362881847
 40
0.4483408142573145
 40
0.5788756485706832
 40
0.7117622924795075
 40
0.8465901047129127
 40
0.9489485274204256
 40
1.0
 40
1.0
 40
1.0
 40
1.0
 10
134.5683641473651
 20
138.1770735666407
 30
0.0
 10
134.5996933789392
 20
138.1799593415242
 30
0.0
 10
134.6591497994249
 20
138.1854359471183
 30
0.0
 10
134.7552958445914
 20
138.2376014816838
 30
0.0
 10
134.8292019234345
 20
138.3260625406021
 30
0.0
 10
134.8593405410169
 20
138.3943017285703
 30
0.0
 10
134.8840183159697
 20
138.4612143490911
 30
0.0
 10
134.9062048184937
 20
138.5387112041774
 30
0.0
 10
134.9270442041577
 20
138.6264324935632
 30
0.0
 10
134.9554748777103
 20
138.7673104593569
 30
0.0
 10
134.990234927423
 20
138.9816700901898
 30
0.0
 10
135.0318824246148
 20
139.2979948840331
 30
0.0
 10
135.0706245965676
 20
139.6450192605657
 30
0.0
 10
135.1006513144112
 20
139.941183929724
 30
0.0
 10
135.1166116109599
 20
140.115523675065
 30
0.0
 10
135.1219228501084
 20
140.1735401459854
 30
0.0
  0
SPLINE
  5
E6
330
1F
100
AcDbEntity
  8
0
  6
Continuous
 62
     7
370
    15
100
AcDbSpline
210
0.0
220
0.0
230
1.0
 70
     8
 71
     3
 72
     9
 73
     5
 74
     0
 42
0.00000001
 43
0.00000001
 12
1.0
 22
0.0
 32
0.0
 13
1.0
 23
0.0
 33
0.0
 40
0.0
 40
0.0
 40
0.0
 40
0.0
 40
0.753729253700435
 40
1.0
 40
1.0
 40
1.0
 40
1.0
 10
135.5230917961269
 20
145.1735401459854
 30
0.0
 10
135.5357189716044
 20
145.310803226627
 30
0.0
 10
135.5524719043258
 20
145.4929151454198
 30
0.0
 10
135.5690159040075
 20
145.6404253142945
 30
0.0
 10
135.5730902071559
 20
145.67675275367
 30
0.0
  0
SPLINE
  5
E7
330
1F
100
AcDbEntity
  8
0
  6
Continuous
 62
     7
370
    15
100
AcDbSpline
210
0.0
220
0.0
230
1.0
 70
     8
 71
     3
 72
    19
 73
    15
 74
     0
 42
0.00000001
 43
0.00000001
 12
1.0
 22
0.0
 32
0.0
 13
1.0
 23
0.0
 33
0.0
 40
0.0
 40
0.0
 40
0.0
 40
0.0
 40
0.0533609154401313
 40
0.1012751659191548
 40
0.1630465503294209
 40
0.2142056681778571
 40
0.265524923597405
 40
0.3230233222710323
 40
0.4404263861696153
 40
0.5771746764888152
 40
0.7331125773130923
 40
0.8599955197946199
 40
0.982316233186674
 40
1.0
 40
1.0
 40
1.0
 40
1.0
 10
136.5672170054122
 20
138.1736573366405
 30
0.0
 10
136.6035408055053
 20
138.1776285059168
 30
0.0
 10
136.6724807562333
 20
138.1851654985645
 30
0.0
 10
136.761488161647
 20
138.2434781683503
 30
0.0
 10
136.8235005503844
 20
138.3190592680043
 30
0.0
 10
136.8552898700651
 20
138.3853045041532
 30
0.0
 10
136.8772752729022
 20
138.4441427546377
 30
0.0
 10
136.9075397059445
 20
138.5440877122488
 30
0.0
 10
136.9443697957994
 20
138.7075471336215
 30
0.0
 10
136.989930739353
 20
138.9784513952285
 30
0.0
 10
137.034763099258
 20
139.3184387390681
 30
0.0
 10
137.0774288722741
 20
139.7079968294952
 30
0.0
 10
137.1055013118726
 20
139.9887118186544
 30
0.0
 10
137.1201475033536
 20
140.1528127861293
 30
0.0
 10
137.1219974429732
 20
140.1735401459854
 30
0.0
  0
SPLINE
  5
E8
330
1F
100
AcDbEntity
  8
0
  6
Continuous
 62
     7
370
    15
100
AcDbSpline
210
0.0
220
0.0
230
1.0
 70
     8
 71
     3
 72
    10
 73
     6
 74
     0
 42
0.00000001
 43
0.00000001
 12
1.0
 22
0.0
 32
0.0
 13
1.0
 23
0.0
 33
0.0
 40
0.0
 40
0.0
 40
0.0
 40
0.0
 40
0.0469521625480587
 40
0.7496934369323984
 40
1.0
 40
1.0
 40
1.0
 40
1.0
 10
137.5227249773155
 20
145.1735401459854
 30
0.0
 10
137.5235170645774
 20
145.1824399834261
 30
0.0
 10
137.5361644611916
 20
145.324545253067
 30
0.0
 10
137.5530150524774
 20
145.4951829270309
 30
0.0
 10
137.5690034238081
 20
145.6390919467165
 30
0.0
 10
137.5732025774283
 20
145.6768879215841
 30
0.0
  0
SPLINE
  5
E9
330
1F
100
AcDbEntity
  8
0
  6
Continuous
 62
     7
370
    15
100
AcDbSpline
210
0.0
220
0.0
230
1.0
 70
     8
 71
     3
 72
    17
 73
    13
 74
     0
 42
0.00000001
 43
0.00000001
 12
1.0
 22
0.0
 32
0.0
 13
1.0
 23
0.0
 33
0.0
 40
0.0
 40
0.0
 40
0.0
 40
0.0
 40
0.1584040474982681
 40
0.2860986421891911
 40
0.3831212974515867
 40
0.4503024165992716
 40
0.5000772506995926
 40
0.5568886855979748
 40
0.6214889563482684
 40
0.6938572882029632
 40
0.8617833782915623
 40
1.0
 40
1.0
 40
1.0
 40
1.0
 10
138.566749031702
 20
138.1765928100903
 30
0.0
 10
138.6077324554834
 20
138.1823799952409
 30
0.0
 10
138.6817539346142
 20
138.1928324163742
 30
0.0
 10
138.7683005225695
 20
138.264296993831
 30
0.0
 10
138.8224666947521
 20
138.3357041725575
 30
0.0
 10
138.8538724983828
 20
138.3954355066872
 30
0.0
 10
138.8714083409837
 20
138.4391683592887
 30
0.0
 10
138.8870618933727
 20
138.4842299327496
 30
0.0
 10
138.902796232102
 20
138.5373115241724
 30
0.0
 10
138.9255933944382
 20
138.6265808202383
 30
0.0
 10
138.9512639784803
 20
138.7471344316314
 30
0.0
 10
138.9703318811361
 20
138.868669684065
 30
0.0
 10
138.9789406148626
 20
138.9235401459854
 30
0.0
  0
SPLINE
  5
EA
330
1F
100
AcDbEntity
  8
0
  6
Continuous
 62
     7
370
    15
100
AcDbSpline
210
0.0
220
0.0
230
1.0
 70
     8
 71
     3
 72
    24
 73
    20
 74
     0
 42
0.00000001
 43
0.00000001
 12
1.0
 22
0.0
 32
0.0
 13
1.0
 23
0.0
 33
0.0
 40
0.0
 40
0.0
 40
0.0
 40
0.0
 40
0.0466356438888363
 40
0.1188087352789392
 40
0.192379554917482
 40
0.2674336939237009
 40
0.3427154421718258
 40
0.4135766406531492
 40
0.4795642700139568
 40
0.5598551759619484
 40
0.6313257890918047
 40
0.6975911920173591
 40
0.7547745461013428
 40
0.8200300259322886
 40
0.855800305015344
 40
0.8956329701390235
 40
0.9433218045251701
 40
0.9705433152013774
 40
1.0
 40
1.0
 40
1.0
 40
1.0
 10
140.2865646730355
 20
143.1471004995609
 30
0.0
 10
140.2791771033843
 20
143.2452268728616
 30
0.0
 10
140.2603565675482
 20
143.4952131352399
 30
0.0
 10
140.2298311950073
 20
143.8918336528902
 30
0.0
 10
140.1947437787045
 20
144.3338109989212
 30
0.0
 10
140.1591398574263
 20
144.7608505312238
 30
0.0
 10
140.1239864369959
 20
145.1570487746208
 30
0.0
 10
140.0902603229608
 20
145.5093758692838
 30
0.0
 10
140.0556793586192
 20
145.8403684395887
 30
0.0
 10
140.0208571128693
 20
146.13760184481
 30
0.0
 10
139.985727199831
 20
146.3948604163961
 30
0.0
 10
139.9540515303463
 20
146.5895430413927
 30
0.0
 10
139.9203095031658
 20
146.7563401744023
 30
0.0
 10
139.8876313564133
 20
146.8746769654753
 30
0.0
 10
139.857497868377
 20
146.955791797749
 30
0.0
 10
139.8204539436036
 20
147.0322708408957
 30
0.0
 10
139.7479905103174
 20
147.1118197020183
 30
0.0
 10
139.6570664202653
 20
147.1609126057996
 30
0.0
 10
139.5984475870486
 20
147.1663950191705
 30
0.0
 10
139.5679823176649
 20
147.1692443287021
 30
0.0
  0
SPLINE
  5
EB
330
1F
100
AcDbEntity
  8
0
  6
Continuous
 62
     7
370
    15
100
AcDbSpline
210
0.0
220
0.0
230
1.0
 70
     8
 71
     3
 72
    37
 73
    33
 74
     0
 42
0.00000001
 43
0.00000001
 12
1.0
 22
0.0
 32
0.0
 13
1.0
 23
0.0
 33
0.0
 40
0.0
 40
0.0
 40
0.0
 40
0.0
 40
0.0077929883872574
 40
0.0262628811586523
 40
0.0511312951538656
 40
0.0824874272311122
 40
0.1203815950293772
 40
0.1492885422122429
 40
0.1810848575602178
 40
0.2148357810069499
 40
0.2618684741719612
 40
0.3039317297044837
 40
0.3410365416462061
 40
0.3731393396198804
 40
0.4001968814114368
 40
0.4221827458911196
 40
0.4431119591075474
 40
0.4672158366110163
 40
0.5042798538736094
 40
0.5470088042700059
 40
0.5933287563195665
 40
0.628411684130836
 40
0.6637463077011538
 40
0.6993116292082817
 40
0.7350941337343795
 40
0.7831424873260955
 40
0.8313275483138386
 40
0.8789757993493815
 40
0.9145385751734042
 40
0.9496331978770041
 40
0.9785940710098106
 40
1.0
 40
1.0
 40
1.0
 40
1.0
 10
138.7089897515868
 20
138.6624422663061
 30
0.0
 10
138.7103752041122
 20
138.6638564295597
 30
0.0
 10
138.7150442698434
 20
138.6686222523252
 30
0.0
 10
138.7062206189291
 20
138.7082128730682
 30
0.0
 10
138.6910643664201
 20
138.7897567772714
 30
0.0
 10
138.6655437368499
 20
138.9346135859149
 30
0.0
 10
138.6371205072347
 20
139.1285532195436
 30
0.0
 10
138.607403388433
 20
139.3605823670559
 30
0.0
 10
138.5784332015964
 20
139.6126551316495
 30
0.0
 10
138.5435044221893
 20
139.9481142184807
 30
0.0
 10
138.5052692725501
 20
140.3558253108713
 30
0.0
 10
138.4659103997861
 20
140.8149969682791
 30
0.0
 10
138.4312011089715
 20
141.2438050170814
 30
0.0
 10
138.4011613298721
 20
141.6285025083462
 30
0.0
 10
138.3758241058975
 20
141.9599966097475
 30
0.0
 10
138.3539590780417
 20
142.2494440474631
 30
0.0
 10
138.3330037455206
 20
142.5285627834384
 30
0.0
 10
138.3073174588
 20
142.871491108553
 30
0.0
 10
138.274760045089
 20
143.3047516137103
 30
0.0
 10
138.2352216064608
 20
143.8217930006002
 30
0.0
 10
138.1963425757774
 20
144.3125300227194
 30
0.0
 10
138.1597977827119
 20
144.7516197930614
 30
0.0
 10
138.1265745684385
 20
145.1291788812619
 30
0.0
 10
138.0930418451006
 20
145.4839389566616
 30
0.0
 10
138.055362097573
 20
145.8481825804371
 30
0.0
 10
138.0134473002634
 20
146.2010592532126
 30
0.0
 10
137.9674169153606
 20
146.5169798208321
 30
0.0
 10
137.9189710257207
 20
146.7608893533588
 30
0.0
 10
137.862451315104
 20
146.9422228794797
 30
0.0
 10
137.7991061380271
 20
147.0547675249836
 30
0.0
 10
137.7225690611529
 20
147.1444226748554
 30
0.0
 10
137.6142045980821
 20
147.1641481414466
 30
0.0
 10
137.5681496193307
 20
147.1725314796644
 30
0.0
  0
SPLINE
  5
EC
330
1F
100
AcDbEntity
  8
0
  6
Continuous
 62
     7
370
    15
100
AcDbSpline
210
0.0
220
0.0
230
1.0
 70
     8
 71
     3
 72
    37
 73
    33
 74
     0
 42
0.00000001
 43
0.00000001
 12
1.0
 22
0.0
 32
0.0
 13
1.0
 23
0.0
 33
0.0
 40
0.0
 40
0.0
 40
0.0
 40
0.0
 40
0.0052109844729292
 40
0.0286221057328223
 40
0.0551670756892989
 40
0.0848982566039619
 40
0.1177992691681626
 40
0.1538376274817371
 40
0.1923041182507041
 40
0.2299948914824816
 40
0.2665225455370444
 40
0.3018715039568042
 40
0.3360074382957248
 40
0.3795639581300877
 40
0.420634493566223
 40
0.4589295718348528
 40
0.4944951313771787
 40
0.5284541721285283
 40
0.5671988631260009
 40
0.6000716087131502
 40
0.6361942013118771
 40
0.6755565252802558
 40
0.7181868433768488
 40
0.7634591911321261
 40
0.805990789112524
 40
0.8446497470520021
 40
0.8794290390126189
 40
0.9103307784805637
 40
0.9373625967737594
 40
0.9652292580937276
 40
0.9817089661573676
 40
1.0
 40
1.0
 40
1.0
 40
1.0
 10
136.7303944710292
 20
138.6143412636251
 30
0.0
 10
136.7325679742753
 20
138.6126029863873
 30
0.0
 10
136.7445062634883
 20
138.6030552406305
 30
0.0
 10
136.7193508433212
 20
138.6559794291939
 30
0.0
 10
136.7064882804507
 20
138.7267119293862
 30
0.0
 10
136.6800251442216
 20
138.853076676915
 30
0.0
 10
136.6514586657283
 20
139.0301796524791
 30
0.0
 10
136.618168840755
 20
139.2698496205143
 30
0.0
 10
136.5828614926718
 20
139.5681919769961
 30
0.0
 10
136.5472622499529
 20
139.9108818849481
 30
0.0
 10
136.5125746625808
 20
140.2791281770023
 30
0.0
 10
136.478964126702
 20
140.6631318989464
 30
0.0
 10
136.443080006604
 20
141.0963142766896
 30
0.0
 10
136.40528632365
 20
141.5744136324574
 30
0.0
 10
136.3661025569029
 20
142.0869021583742
 30
0.0
 10
136.3294318760468
 20
142.5746744490376
 30
0.0
 10
136.2950589483969
 20
143.0334300230462
 30
0.0
 10
136.2605917563243
 20
143.4898596324907
 30
0.0
 10
136.2269800780228
 20
143.9264274734773
 30
0.0
 10
136.1926526107213
 20
144.3580383159969
 30
0.0
 10
136.1580446533875
 20
144.7746469596148
 30
0.0
 10
136.1201985910622
 20
145.2021368605656
 30
0.0
 10
136.0792482137358
 20
145.623334663848
 30
0.0
 10
136.0372969961596
 20
146.0035836153626
 30
0.0
 10
135.9958239528305
 20
146.3230757767333
 30
0.0
 10
135.9558944180516
 20
146.5730978055818
 30
0.0
 10
135.9176320162547
 20
146.7614446311187
 30
0.0
 10
135.8770590532677
 20
146.9026025457109
 30
0.0
 10
135.8383691043649
 20
147.0020486152617
 30
0.0
 10
135.7756643772163
 20
147.0914526980291
 30
0.0
 10
135.6765833618474
 20
147.1595944116275
 30
0.0
 10
135.6059357907579
 20
147.1677407174031
 30
0.0
 10
135.5687718695169
 20
147.1720260546282
 30
0.0
  0
LWPOLYLINE
  5
ED
330
1F
100
AcDbEntity
  8
0
  6
Continuous
 62
     7
370
    15
100
AcDbPolyline
 90
       32
 70
   128
 43
0.0
 10
134.7027335435
 20
138.6442618841
 10
134.7086876355
 20
138.6426171006
 10
134.7077786512
 20
138.6814488679
 10
134.6928891839
 20
138.7706268381
 10
134.6675974643
 20
138.9220098726
 10
134.6350040238
 20
139.1459057884
 10
134.5973181603
 20
139.4485254242
 10
134.5577369771
 20
139.814183959
 10
134.5205096856
 20
140.1985486567
 10
134.4858088685
 20
140.5870238543
 10
134.4536813065
 20
140.9686512864
 10
134.4241660773
 20
141.3347867995
 10
134.3889291845
 20
141.7874045053
 10
134.3565885052
 20
142.2131443168
 10
134.3219916579
 20
142.6742257174
 10
134.2848298139
 20
143.1697550691
 10
134.2450866495
 20
143.6923645912
 10
134.2025602722
 20
144.2337882017
 10
134.1687631763
 20
144.6442329194
 10
134.1332979755
 20
145.0506209938
 10
134.096122914
 20
145.4454613965
 10
134.0571888879
 20
145.8199791851
 10
134.0047482681
 20
146.2522646034
 10
133.9563782439
 20
146.5676761399
 10
133.9111398629
 20
146.7851661149
 10
133.8783080615
 20
146.8984038996
 10
133.8445811888
 20
146.9816911846
 10
133.814955174
 20
147.0320887391
 10
133.7635105988
 20
147.0912691954
 10
133.6820243668
 20
147.1451404436
 10
133.5677795249
 20
147.1690920403
 10
133.5677795249
 20
147.1690920403
  0
LINE
  5
EE
330
1F
100
AcDbEntity
  8
0
  6
Continuous
 62
     7
370
    15
100
AcDbLine
 10
124.3197080292
 20
149.473540146
 30
0.0
 11
124.3197080292
 21
148.673540146
 31
0.0
  0
LINE
  5
EF
330
1F
100
AcDbEntity
  8
0
  6
Continuous
 62
     7
370
    15
100
AcDbLine
 10
132.3197080292
 20
148.673540146
 30
0.0
 11
132.3197080292
 21
149.473540146
 31
0.0
  0
LINE
  5
F0
330
1F
100
AcDbEntity
  8
0
  6
Continuous
 62
     7
370
    15
100
AcDbLine
 10
124.3197080292
 20
136.673540146
 30
0.0
 11
124.3197080292
 21
135.873540146
 31
0.0
  0
LINE
  5
F1
330
1F
100
AcDbEntity
  8
0
  6
Continuous
 62
     7
370
    15
100
AcDbLine
 10
132.3197080292
 20
135.873540146
 30
0.0
 11
132.3197080292
 21
136.673540146
 31
0.0
  0
LINE
  5
F2
330
1F
100
AcDbEntity
  8
0
  6
Continuous
 62
     7
370
    15
100
AcDbLine
 10
161.0197080292
 20
145.2008910451
 30
0.0
 11
160.4197080292
 21
145.2008910451
 31
0.0
  0
LINE
  5
F3
330
1F
100
AcDbEntity
  8
0
  6
Continuous
 62
     7
370
    15
100
AcDbLine
 10
160.4197080292
 20
139.173540146
 30
0.0
 11
160.4197080292
 21
145.2008910451
 31
0.0
  0
LINE
  5
F4
330
1F
100
AcDbEntity
  8
0
  6
Continuous
 62
     7
370
    15
100
AcDbLine
 10
161.0197080292
 20
139.173540146
 30
0.0
 11
161.0197080292
 21
145.2008910451
 31
0.0
  0
LINE
  5
F5
330
1F
100
AcDbEntity
  8
0
  6
Continuous
 62
     7
370
    15
100
AcDbLine
 10
160.4197080292
 20
145.2008910451
 30
0.0
 11
160.4197080292
 21
145.2564709938
 31
0.0
  0
LINE
  5
F6
330
1F
100
AcDbEntity
  8
0
  6
Continuous
 62
     7
370
    15
100
AcDbLine
 10
161.0197080292
 20
145.2564709938
 30
0.0
 11
161.0197080292
 21
145.2008910451
 31
0.0
  0
LINE
  5
F7
330
1F
100
AcDbEntity
  8
0
  6
Continuous
 62
     7
370
    15
100
AcDbLine
 10
131.8271109145
 20
133.373540146
 30
0.0
 11
131.8271109145
 21
135.873540146
 31
0.0
  0
LINE
  5
F8
330
1F
100
AcDbEntity
  8
0
  6
Continuous
 62
     7
370
    15
100
AcDbLine
 10
128.3197080292
 20
133.373540146
 30
0.0
 11
128.3197080292
 21
135.873540146
 31
0.0
  0
LINE
  5
F9
330
1F
100
AcDbEntity
  8
0
  6
Continuous
 62
     7
370
    15
100
AcDbLine
 10
128.3197080292
 20
135.873540146
 30
0.0
 11
128.4079984865
 21
135.873540146
 31
0.0
  0
LINE
  5
FA
330
1F
100
AcDbEntity
  8
0
  6
Continuous
 62
     7
370
    15
100
AcDbLine
 10
131.7388204572
 20
135.873540146
 30
0.0
 11
131.8271109145
 21
135.873540146
 31
0.0
  0
LINE
  5
FB
330
1F
100
AcDbEntity
  8
0
  6
Continuous
 62
     7
370
    15
100
AcDbLine
 10
128.3197080292
 20
133.373540146
 30
0.0
 11
131.8271109145
 21
133.373540146
 31
0.0
  0
LINE
  5
FC
330
1F
100
AcDbEntity
  8
0
  6
Continuous
 62
     7
370
    15
100
AcDbLine
 10
124.8123051439
 20
133.373540146
 30
0.0
 11
124.8123051439
 21
135.873540146
 31
0.0
  0
LINE
  5
FD
330
1F
100
AcDbEntity
  8
0
  6
Continuous
 62
     7
370
    15
100
AcDbLine
 10
124.8123051439
 20
135.873540146
 30
0.0
 11
124.9005956012
 21
135.873540146
 31
0.0
  0
LINE
  5
FE
330
1F
100
AcDbEntity
  8
0
  6
Continuous
 62
     7
370
    15
100
AcDbLine
 10
128.2314175718
 20
135.873540146
 30
0.0
 11
128.3197080292
 21
135.873540146
 31
0.0
  0
LINE
  5
FF
330
1F
100
AcDbEntity
  8
0
  6
Continuous
 62
     7
370
    15
100
AcDbLine
 10
124.8123051439
 20
133.373540146
 30
0.0
 11
128.3197080292
 21
133.373540146
 31
0.0
  0
LINE
  5
100
330
1F
100
AcDbEntity
  8
0
  6
Continuous
 62
     7
370
    15
100
AcDbLine
 10
130.6697080292
 20
130.873540146
 30
0.0
 11
125.9697080292
 21
130.873540146
 31
0.0
  0
LINE
  5
101
330
1F
100
AcDbEntity
  8
0
  6
Continuous
 62
     7
370
    15
100
AcDbLine
 10
130.3548677281
 20
128.373540146
 30
0.0
 11
125.9697080292
 21
128.373540146
 31
0.0
  0
LINE
  5
102
330
1F
100
AcDbEntity
  8
0
  6
Continuous
 62
     7
370
    15
100
AcDbLine
 10
130.6697080292
 20
128.373540146
 30
0.0
 11
130.3548677281
 21
128.373540146
 31
0.0
  0
LINE
  5
103
330
1F
100
AcDbEntity
  8
0
  6
Continuous
 62
     7
370
    15
100
AcDbLine
 10
130.0517588368
 20
125.873540146
 30
0.0
 11
126.3197080292
 21
125.873540146
 31
0.0
  0
LINE
  5
104
330
1F
100
AcDbEntity
  8
0
  6
Continuous
 62
     7
370
    15
100
AcDbLine
 10
130.3197080292
 20
125.873540146
 30
0.0
 11
130.0517588368
 21
125.873540146
 31
0.0
  0
LINE
  5
105
330
1F
100
AcDbEntity
  8
0
  6
Continuous
 62
     7
370
    15
100
AcDbLine
 10
131.8271109145
 20
149.473540146
 30
0.0
 11
131.8271109145
 21
151.973540146
 31
0.0
  0
LINE
  5
106
330
1F
100
AcDbEntity
  8
0
  6
Continuous
 62
     7
370
    15
100
AcDbLine
 10
128.3197080292
 20
149.473540146
 30
0.0
 11
128.4079984865
 21
149.473540146
 31
0.0
  0
LINE
  5
107
330
1F
100
AcDbEntity
  8
0
  6
Continuous
 62
     7
370
    15
100
AcDbLine
 10
131.7388204572
 20
149.473540146
 30
0.0
 11
131.8271109145
 21
149.473540146
 31
0.0
  0
LINE
  5
108
330
1F
100
AcDbEntity
  8
0
  6
Continuous
 62
     7
370
    15
100
AcDbLine
 10
128.3197080292
 20
149.473540146
 30
0.0
 11
128.3197080293
 21
151.973540146
 31
0.0
  0
LINE
  5
109
330
1F
100
AcDbEntity
  8
0
  6
Continuous
 62
     7
370
    15
100
AcDbLine
 10
128.3197080293
 20
151.973540146
 30
0.0
 11
131.8271109145
 21
151.973540146
 31
0.0
  0
LINE
  5
10A
330
1F
100
AcDbEntity
  8
0
  6
Continuous
 62
     7
370
    15
100
AcDbLine
 10
124.8123051439
 20
149.473540146
 30
0.0
 11
124.8123051439
 21
151.973540146
 31
0.0
  0
LINE
  5
10B
330
1F
100
AcDbEntity
  8
0
  6
Continuous
 62
     7
370
    15
100
AcDbLine
 10
124.8123051439
 20
151.973540146
 30
0.0
 11
128.3197080293
 21
151.973540146
 31
0.0
  0
LINE
  5
10C
330
1F
100
AcDbEntity
  8
0
  6
Continuous
 62
     7
370
    15
100
AcDbLine
 10
124.8123051439
 20
149.473540146
 30
0.0
 11
124.9005956012
 21
149.473540146
 31
0.0
  0
LINE
  5
10D
330
1F
100
AcDbEntity
  8
0
  6
Continuous
 62
     7
370
    15
100
AcDbLine
 10
128.2314175718
 20
149.473540146
 30
0.0
 11
128.3197080292
 21
149.473540146
 31
0.0
  0
LINE
  5
10E
330
1F
100
AcDbEntity
  8
0
  6
Continuous
 62
     7
370
    15
100
AcDbLine
 10
132.3197080292
 20
142.673540146
 30
0.0
 11
124.3197080292
 21
142.673540146
 31
0.0
  0
LINE
  5
10F
330
1F
100
AcDbEntity
  8
0
  6
Continuous
 62
     7
370
    15
100
AcDbLine
 10
132.3197080292
 20
142.673540146
 30
0.0
 11
132.3197080292
 21
136.673540146
 31
0.0
  0
LINE
  5
110
330
1F
100
AcDbEntity
  8
0
  6
Continuous
 62
     7
370
    15
100
AcDbLine
 10
132.3197080292
 20
136.673540146
 30
0.0
 11
130.3197080292
 21
136.673540146
 31
0.0
  0
LINE
  5
111
330
1F
100
AcDbEntity
  8
0
  6
Continuous
 62
     7
370
    15
100
AcDbLine
 10
126.3197080292
 20
136.673540146
 30
0.0
 11
124.3197080292
 21
136.673540146
 31
0.0
  0
LINE
  5
112
330
1F
100
AcDbEntity
  8
0
  6
Continuous
 62
     7
370
    15
100
AcDbLine
 10
124.3197080292
 20
142.673540146
 30
0.0
 11
124.3197080292
 21
136.673540146
 31
0.0
  0
LINE
  5
113
330
1F
100
AcDbEntity
  8
0
  6
Continuous
 62
     7
370
    15
100
AcDbLine
 10
132.3197080292
 20
148.673540146
 30
0.0
 11
130.3197080292
 21
148.673540146
 31
0.0
  0
LINE
  5
114
330
1F
100
AcDbEntity
  8
0
  6
Continuous
 62
     7
370
    15
100
AcDbLine
 10
126.3197080292
 20
148.673540146
 30
0.0
 11
124.3197080292
 21
148.673540146
 31
0.0
  0
LINE
  5
115
330
1F
100
AcDbEntity
  8
0
  6
Continuous
 62
     7
370
    15
100
AcDbLine
 10
124.3197080292
 20
148.673540146
 30
0.0
 11
124.3197080292
 21
142.673540146
 31
0.0
  0
LINE
  5
116
330
1F
100
AcDbEntity
  8
0
  6
Continuous
 62
     7
370
    15
100
AcDbLine
 10
132.3197080292
 20
148.673540146
 30
0.0
 11
132.3197080292
 21
142.673540146
 31
0.0
  0
LINE
  5
117
330
1F
100
AcDbEntity
  8
0
  6
Continuous
 62
     7
370
    15
100
AcDbLine
 10
133.3197080292
 20
146.423540146
 30
0.0
 11
133.3197080292
 21
138.923540146
 31
0.0
  0
LINE
  5
118
330
1F
100
AcDbEntity
  8
0
  6
Continuous
 62
     7
370
    15
100
AcDbLine
 10
118.8197080292
 20
146.173540146
 30
0.0
 11
118.8197080292
 21
139.173540146
 31
0.0
  0
LINE
  5
119
330
1F
100
AcDbEntity
  8
0
  6
Continuous
 62
     7
370
    15
100
AcDbLine
 10
120.8197080292
 20
146.173540146
 30
0.0
 11
120.8197080292
 21
139.173540146
 31
0.0
  0
LINE
  5
11A
330
1F
100
AcDbEntity
  8
0
  6
Continuous
 62
     7
370
    15
100
AcDbLine
 10
162.3197080292
 20
144.673540146
 30
0.0
 11
162.3197080292
 21
140.673540146
 31
0.0
  0
LINE
  5
11B
330
1F
100
AcDbEntity
  8
0
  6
Continuous
 62
     7
370
    15
100
AcDbLine
 10
161.8197080292
 20
140.173540146
 30
0.0
 11
161.8197080292
 21
145.173540146
 31
0.0
  0
LINE
  5
11C
330
1F
100
AcDbEntity
  8
0
  6
Continuous
 62
     7
370
    15
100
AcDbLine
 10
142.3197080292
 20
137.0091079847
 30
0.0
 11
142.3197080292
 21
136.973540146
 31
0.0
  0
LINE
  5
11D
330
1F
100
AcDbEntity
  8
0
  6
Continuous
 62
     7
370
    15
100
AcDbLine
 10
142.3197080292
 20
148.373540146
 30
0.0
 11
142.3197080292
 21
137.0091079847
 31
0.0
  0
LINE
  5
11E
330
1F
100
AcDbEntity
  8
0
  6
Continuous
 62
     7
370
    15
100
AcDbLine
 10
142.0197080292
 20
136.7109799762
 30
0.0
 11
142.0197080292
 21
136.673540146
 31
0.0
  0
LINE
  5
11F
330
1F
100
AcDbEntity
  8
0
  6
Continuous
 62
     7
370
    15
100
AcDbLine
 10
142.0197080292
 20
148.673540146
 30
0.0
 11
142.0197080292
 21
136.7109799762
 31
0.0
  0
LINE
  5
120
330
1F
100
AcDbEntity
  8
0
  6
Continuous
 62
     7
370
    15
100
AcDbLine
 10
140.6197080292
 20
136.7109799762
 30
0.0
 11
140.6197080292
 21
136.673540146
 31
0.0
  0
LINE
  5
121
330
1F
100
AcDbEntity
  8
0
  6
Continuous
 62
     7
370
    15
100
AcDbLine
 10
140.6197080292
 20
148.673540146
 30
0.0
 11
140.6197080292
 21
136.7109799762
 31
0.0
  0
LINE
  5
122
330
1F
100
AcDbEntity
  8
0
  6
Continuous
 62
     7
370
    15
100
AcDbLine
 10
140.3197080292
 20
137.0091079847
 30
0.0
 11
140.3197080292
 21
136.973540146
 31
0.0
  0
LINE
  5
123
330
1F
100
AcDbEntity
  8
0
  6
Continuous
 62
     7
370
    15
100
AcDbLine
 10
140.3197080292
 20
148.373540146
 30
0.0
 11
140.3197080292
 21
137.0091079847
 31
0.0
  0
LINE
  5
124
330
1F
100
AcDbEntity
  8
0
  6
Continuous
 62
     7
370
    15
100
AcDbLine
 10
160.3197080292
 20
138.9966280413
 30
0.0
 11
160.3197080292
 21
138.973540146
 31
0.0
  0
LINE
  5
125
330
1F
100
AcDbEntity
  8
0
  6
Continuous
 62
     7
370
    15
100
AcDbLine
 10
160.3197080292
 20
146.373540146
 30
0.0
 11
160.3197080292
 21
138.9966280413
 31
0.0
  0
LINE
  5
126
330
1F
100
AcDbEntity
  8
0
  6
Continuous
 62
     7
370
    15
100
AcDbLine
 10
160.0197080292
 20
138.6985000328
 30
0.0
 11
160.0197080292
 21
138.673540146
 31
0.0
  0
LINE
  5
127
330
1F
100
AcDbEntity
  8
0
  6
Continuous
 62
     7
370
    15
100
AcDbLine
 10
160.0197080292
 20
146.673540146
 30
0.0
 11
160.0197080292
 21
138.6985000328
 31
0.0
  0
LINE
  5
128
330
1F
100
AcDbEntity
  8
0
  6
Continuous
 62
     7
370
    15
100
AcDbLine
 10
138.6197080292
 20
146.423540146
 30
0.0
 11
138.6197080292
 21
139.2518498782
 31
0.0
  0
LINE
  5
129
330
1F
100
AcDbEntity
  8
0
  6
Continuous
 62
     7
370
    15
100
AcDbLine
 10
138.3197080292
 20
146.123540146
 30
0.0
 11
138.3197080292
 21
142.7064159181
 31
0.0
  0
SPLINE
  5
12A
330
1F
100
AcDbEntity
  8
0
  6
Continuous
 62
     7
370
    15
100
AcDbSpline
210
0.0
220
0.0
230
1.0
 70
     8
 71
     3
 72
    10
 73
     6
 74
     0
 42
0.00000001
 43
0.00000001
 12
1.0
 22
0.0
 32
0.0
 13
1.0
 23
0.0
 33
0.0
 40
0.0000637491391993
 40
0.0000637491391993
 40
0.0000637491391993
 40
0.0000637491391993
 40
0.1666685273773051
 40
0.3333351940439051
 40
0.4999381115714058
 40
0.4999381115714058
 40
0.4999381115714058
 40
0.4999381115714058
 10
140.0375173868348
 20
143.1750714582914
 30
0.0
 10
139.9509470105936
 20
143.1750673216812
 30
0.0
 10
139.7778062402094
 20
143.1639221817404
 30
0.0
 10
139.7778062402094
 20
143.1304951622563
 30
0.0
 10
139.9509450772509
 20
143.1193500223391
 30
0.0
 10
140.0375144862742
 20
143.1193457614185
 30
0.0
  0
SPLINE
  5
12B
330
1F
100
AcDbEntity
  8
0
  6
Continuous
 62
     7
370
    15
100
AcDbSpline
210
0.0
220
0.0
230
1.0
 70
     8
 71
     3
 72
    12
 73
     8
 74
     0
 42
0.00000001
 43
0.00000001
 12
1.0
 22
0.0
 32
0.0
 13
1.0
 23
0.0
 33
0.0
 40
-0.0000637491377587
 40
-0.0000637491377587
 40
-0.0000637491377587
 40
-0.0000637491377587
 40
0.0
 40
0.1666666666667
 40
0.3333333333333
 40
0.5
 40
0.500061888427154
 40
0.500061888427154
 40
0.500061888427154
 40
0.500061888427154
 10
132.6375172592184
 20
138.7582685538744
 30
0.0
 10
132.6374841341972
 20
138.7582685681934
 30
0.0
 10
132.550848468793
 20
138.7582872949929
 30
0.0
 10
132.3776102630093
 20
138.6603867860878
 30
0.0
 10
132.3776102630093
 20
138.3667414182902
 30
0.0
 10
132.5508475019394
 20
138.2688414557749
 30
0.0
 10
132.63748220049
 20
138.268859635773
 30
0.0
 10
132.6375143586579
 20
138.2688596492683
 30
0.0
  0
SPLINE
  5
12C
330
1F
100
AcDbEntity
  8
0
  6
Continuous
 62
     7
370
    15
100
AcDbSpline
210
0.0
220
0.0
230
1.0
 70
     8
 71
     3
 72
    12
 73
     8
 74
     0
 42
0.00000001
 43
0.00000001
 12
1.0
 22
0.0
 32
0.0
 13
1.0
 23
0.0
 33
0.0
 40
0.4999381115728423
 40
0.4999381115728423
 40
0.4999381115728423
 40
0.4999381115728423
 40
0.5
 40
0.6666666666666999
 40
0.8333333333333001
 40
1.0
 40
1.000063749137434
 40
1.000063749137434
 40
1.000063749137434
 40
1.000063749137434
 10
140.0375173868348
 20
143.1750714582914
 30
0.0
 10
140.0375495450026
 20
143.175071459828
 30
0.0
 10
140.1241842435533
 20
143.1750735298624
 30
0.0
 10
140.2974214824839
 20
143.1639263202718
 30
0.0
 10
140.2974214824839
 20
143.1304908992977
 30
0.0
 10
140.1241832766996
 20
143.1193436274936
 30
0.0
 10
140.0375476112953
 20
143.1193457597882
 30
0.0
 10
140.0375144862742
 20
143.1193457614185
 30
0.0
  0
SPLINE
  5
12D
330
1F
100
AcDbEntity
  8
0
  6
Continuous
 62
     7
370
    15
100
AcDbSpline
210
0.0
220
0.0
230
1.0
 70
     8
 71
     3
 72
    10
 73
     6
 74
     0
 42
0.00000001
 43
0.00000001
 12
1.0
 22
0.0
 32
0.0
 13
1.0
 23
0.0
 33
0.0
 40
0.5000618884285885
 40
0.5000618884285885
 40
0.5000618884285885
 40
0.5000618884285885
 40
0.6666666666666999
 40
0.8333333333333001
 40
0.9999362508604794
 40
0.9999362508604794
 40
0.9999362508604794
 40
0.9999362508604794
 10
132.6375143586578
 20
138.2688596492683
 30
0.0
 10
132.7240847348989
 20
138.2688959788997
 30
0.0
 10
132.8972255052793
 20
138.366777764791
 30
0.0
 10
132.8972255052793
 20
138.6603493468087
 30
0.0
 10
132.7240866682418
 20
138.7582311324949
 30
0.0
 10
132.6375172592184
 20
138.7582685538744
 30
0.0
  0
LINE
  5
12E
330
1F
100
AcDbEntity
  8
0
  6
Continuous
 62
     7
370
    15
100
AcDbLine
 10
132.3197080292
 20
149.473540146
 30
0.0
 11
131.8271109145
 21
149.473540146
 31
0.0
  0
LINE
  5
12F
330
1F
100
AcDbEntity
  8
0
  6
Continuous
 62
     7
370
    15
100
AcDbLine
 10
131.7388204572
 20
149.473540146
 30
0.0
 11
128.4079984865
 21
149.473540146
 31
0.0
  0
LINE
  5
130
330
1F
100
AcDbEntity
  8
0
  6
Continuous
 62
     7
370
    15
100
AcDbLine
 10
128.2314175718
 20
149.473540146
 30
0.0
 11
124.9005956012
 21
149.473540146
 31
0.0
  0
LINE
  5
131
330
1F
100
AcDbEntity
  8
0
  6
Continuous
 62
     7
370
    15
100
AcDbLine
 10
124.8123051439
 20
149.473540146
 30
0.0
 11
124.3197080292
 21
149.473540146
 31
0.0
  0
LINE
  5
132
330
1F
100
AcDbEntity
  8
0
  6
Continuous
 62
     7
370
    15
100
AcDbLine
 10
130.3197080292
 20
148.673540146
 30
0.0
 11
126.3197080292
 21
148.673540146
 31
0.0
  0
LINE
  5
133
330
1F
100
AcDbEntity
  8
0
  6
Continuous
 62
     7
370
    15
100
AcDbLine
 10
132.3197080292
 20
135.873540146
 30
0.0
 11
131.8271109145
 21
135.873540146
 31
0.0
  0
LINE
  5
134
330
1F
100
AcDbEntity
  8
0
  6
Continuous
 62
     7
370
    15
100
AcDbLine
 10
131.7388204572
 20
135.873540146
 30
0.0
 11
128.4079984865
 21
135.873540146
 31
0.0
  0
LINE
  5
135
330
1F
100
AcDbEntity
  8
0
  6
Continuous
 62
     7
370
    15
100
AcDbLine
 10
128.2314175718
 20
135.873540146
 30
0.0
 11
124.9005956012
 21
135.873540146
 31
0.0
  0
LINE
  5
136
330
1F
100
AcDbEntity
  8
0
  6
Continuous
 62
     7
370
    15
100
AcDbLine
 10
124.8123051439
 20
135.873540146
 30
0.0
 11
124.3197080292
 21
135.873540146
 31
0.0
  0
LINE
  5
137
330
1F
100
AcDbEntity
  8
0
  6
Continuous
 62
     7
370
    15
100
AcDbLine
 10
130.3197080292
 20
136.673540146
 30
0.0
 11
126.3197080292
 21
136.673540146
 31
0.0
  0
SPLINE
  5
138
330
1F
100
AcDbEntity
  8
0
  6
Continuous
 62
     8
370
    15
100
AcDbSpline
210
0.0
220
0.0
230
1.0
 70
     8
 71
     3
 72
    20
 73
    16
 74
     0
 42
0.00000001
 43
0.00000001
 12
1.0
 22
0.0
 32
0.0
 13
1.0
 23
0.0
 33
0.0
 40
0.0
 40
0.0
 40
0.0
 40
0.0
 40
0.0828770033399969
 40
0.1656532845141687
 40
0.2483939599141086
 40
0.3312226000631015
 40
0.4141620754881116
 40
0.497151077814355
 40
0.5801005439921396
 40
0.6629494513688503
 40
0.745721034956701
 40
0.8285376787614476
 40
0.9114576015279635
 40
0.9944407734910813
 40
1.0
 40
1.0
 40
1.0
 40
1.0
 10
140.0375173824608
 20
143.1750793166877
 30
0.0
 10
140.0246737623299
 20
143.354826977451
 30
0.0
 10
139.9990021311898
 20
143.7141038478636
 30
0.0
 10
139.9604431762689
 20
144.2361315532956
 30
0.0
 10
139.9218699437323
 20
144.7349719134259
 30
0.0
 10
139.8833238248976
 20
145.202711219753
 30
0.0
 10
139.8447971081958
 20
145.6340335057751
 30
0.0
 10
139.8062768422599
 20
146.0232056858611
 30
0.0
 10
139.7677500043247
 20
146.3644737133753
 30
0.0
 10
139.7292039694777
 20
146.6523470809614
 30
0.0
 10
139.6906302426011
 20
146.879848459704
 30
0.0
 10
139.6520755331892
 20
147.0450956058114
 30
0.0
 10
139.6135421023424
 20
147.1395134171613
 30
0.0
 10
139.5870067960539
 20
147.1786991812189
 30
0.0
 10
139.5732954676921
 20
147.1679535256849
 30
0.0
 10
139.5724345876909
 20
147.1672788485344
 30
0.0
  0
SPLINE
  5
139
330
1F
100
AcDbEntity
  8
0
  6
Continuous
 62
     8
370
    15
100
AcDbSpline
210
0.0
220
0.0
230
1.0
 70
     8
 71
     3
 72
    34
 73
    30
 74
     0
 42
0.00000001
 43
0.00000001
 12
1.0
 22
0.0
 32
0.0
 13
1.0
 23
0.0
 33
0.0
 40
0.0
 40
0.0
 40
0.0
 40
0.0
 40
0.0001375705220586
 40
0.0386150893584376
 40
0.0770511324889598
 40
0.115497091291513
 40
0.1539901560179966
 40
0.1925184247809945
 40
0.2310451281324313
 40
0.2695344930368107
 40
0.3079776181597352
 40
0.3464156184430387
 40
0.3848969875796367
 40
0.4234196580379136
 40
0.4619504612268773
 40
0.5004510328572327
 40
0.5389036580834816
 40
0.5773367950925127
 40
0.615806228733104
 40
0.6543212765079894
 40
0.6928538588739215
 40
0.7313645043553201
 40
0.769828181243434
 40
0.8082603211491558
 40
0.8467182349915594
 40
0.8852239277625608
 40
0.9237559017995752
 40
0.9622750631032054
 40
0.9999999999999999
 40
0.9999999999999999
 40
0.9999999999999999
 40
0.9999999999999999
 10
138.57307109798
 20
138.1766795445517
 30
0.0
 10
138.5730252159088
 20
138.1766389287723
 30
0.0
 10
138.5601464374012
 20
138.1652383618189
 30
0.0
 10
138.5344118502142
 20
138.2015078072384
 30
0.0
 10
138.4958451785439
 20
138.2926998395988
 30
0.0
 10
138.4572828757367
 20
138.4590035495725
 30
0.0
 10
138.4187485550507
 20
138.6850527375045
 30
0.0
 10
138.3802258391314
 20
138.9690465835687
 30
0.0
 10
138.341702691306
 20
139.3056746949322
 30
0.0
 10
138.3031666824133
 20
139.6906637069018
 30
0.0
 10
138.2646029153504
 20
140.1195217569768
 30
0.0
 10
138.2260345597686
 20
140.5875854322016
 30
0.0
 10
138.1874952094079
 20
141.0865977393175
 30
0.0
 10
138.148970718739
 20
141.6086458416833
 30
0.0
 10
138.1104489128905
 20
142.1459182641464
 30
0.0
 10
138.0719170708396
 20
142.6906038116069
 30
0.0
 10
138.0333609508765
 20
143.2349514608814
 30
0.0
 10
137.9947879977835
 20
143.7707417979168
 30
0.0
 10
137.9562427292212
 20
144.2900556602511
 30
0.0
 10
137.9177157519437
 20
144.7861126234853
 30
0.0
 10
137.8791945413355
 20
145.2520865141013
 30
0.0
 10
137.8406661197771
 20
145.6811091363036
 30
0.0
 10
137.8021174916143
 20
146.066390966654
 30
0.0
 10
137.7635435857771
 20
146.4004617367588
 30
0.0
 10
137.7249911731796
 20
146.6778198369549
 30
0.0
 10
137.686461320649
 20
146.8973294321197
 30
0.0
 10
137.6479390646666
 20
147.0550721263155
 30
0.0
 10
137.6096668421836
 20
147.154705726822
 30
0.0
 10
137.58420156337
 20
147.1662497251707
 30
0.0
 10
137.5716015581371
 20
147.1719615982142
 30
0.0
  0
SPLINE
  5
13A
330
1F
100
AcDbEntity
  8
0
  6
Continuous
 62
     8
370
    15
100
AcDbSpline
210
0.0
220
0.0
230
1.0
 70
     8
 71
     3
 72
    34
 73
    30
 74
     0
 42
0.00000001
 43
0.00000001
 12
1.0
 22
0.0
 32
0.0
 13
1.0
 23
0.0
 33
0.0
 40
0.0
 40
0.0
 40
0.0
 40
0.0
 40
0.0042127523961005
 40
0.0427048320745691
 40
0.08124465157746
 40
0.1198172996942936
 40
0.1583850822342962
 40
0.1969134044947894
 40
0.235396688779776
 40
0.2738799730647618
 40
0.3124082953252525
 40
0.3509760778652526
 40
0.3895487259820831
 40
0.4280885454849732
 40
0.4665806251634406
 40
0.5050578784096746
 40
0.543574264401375
 40
0.5821350744959958
 40
0.6207103032362554
 40
0.659260644357697
 40
0.697763353873641
 40
0.7362382478649088
 40
0.7747428817520923
 40
0.8132948762371893
 40
0.8518703080284414
 40
0.8904297449181438
 40
0.9289441073199833
 40
0.9674206840600926
 40
1.0
 40
1.0
 40
1.0
 40
1.0
 10
136.5729857736399
 20
138.1769102712858
 30
0.0
 10
136.5715791625269
 20
138.1758441506436
 30
0.0
 10
136.5573202919065
 20
138.1650368449401
 30
0.0
 10
136.5301984610204
 20
138.2093825942878
 30
0.0
 10
136.4916657194331
 20
138.3117577781677
 30
0.0
 10
136.4531434225123
 20
138.4837429139492
 30
0.0
 10
136.414619662894
 20
138.7135626309895
 30
0.0
 10
136.3760820371049
 20
139.0008173413377
 30
0.0
 10
136.3375158731944
 20
139.3421775475128
 30
0.0
 10
136.2989497065434
 20
139.7347275631244
 30
0.0
 10
136.2604120889895
 20
140.1707047354075
 30
0.0
 10
136.2218882991395
 20
140.6428626112584
 30
0.0
 10
136.1833661149093
 20
141.1439860485862
 30
0.0
 10
136.1448329533108
 20
141.666907479468
 30
0.0
 10
136.1062741992497
 20
142.2044903869621
 30
0.0
 10
136.0677024405022
 20
142.7492581668784
 30
0.0
 10
136.0291593188904
 20
143.2928954378641
 30
0.0
 10
135.9906332530678
 20
143.8277391762456
 30
0.0
 10
135.9521119296956
 20
144.3461871862372
 30
0.0
 10
135.9135824220166
 20
144.8405857437631
 30
0.0
 10
135.8750313372489
 20
145.303380264549
 30
0.0
 10
135.8364572991552
 20
145.7263129796
 30
0.0
 10
135.7979074634172
 20
146.103031315066
 30
0.0
 10
135.7593784868408
 20
146.4300649330762
 30
0.0
 10
135.7208573082973
 20
146.7033152443256
 30
0.0
 10
135.6823305088911
 20
146.9194942468227
 30
0.0
 10
135.6437873992259
 20
147.072393749482
 30
0.0
 10
135.6071866717879
 20
147.1613692710303
 30
0.0
 10
135.5834756240345
 20
147.1656983129523
 30
0.0
 10
135.5726040455223
 20
147.1676831901972
 30
0.0
  0
SPLINE
  5
13B
330
1F
100
AcDbEntity
  8
0
  6
Continuous
 62
     8
370
    15
100
AcDbSpline
210
0.0
220
0.0
230
1.0
 70
     8
 71
     3
 72
    34
 73
    30
 74
     0
 42
0.00000001
 43
0.00000001
 12
1.0
 22
0.0
 32
0.0
 13
1.0
 23
0.0
 33
0.0
 40
0.0
 40
0.0
 40
0.0
 40
0.0
 40
0.0081812772990139
 40
0.0467597119847462
 40
0.0853300038861704
 40
0.1238589434095242
 40
0.1623444604673218
 40
0.2008351087000299
 40
0.2393720538754725
 40
0.2779463836554881
 40
0.3165222807822129
 40
0.3550629303534541
 40
0.3935564157687662
 40
0.4320399732543627
 40
0.4705650577177825
 40
0.5091330992513474
 40
0.5477123657055396
 40
0.5862639252067983
 40
0.6247675169401257
 40
0.6632473955835728
 40
0.701760581371698
 40
0.7403203845366502
 40
0.7789006561002605
 40
0.8174618456482647
 40
0.8559768639634473
 40
0.8944571336537187
 40
0.9329591991645152
 40
0.971509289303122
 40
1.0
 40
1.0
 40
1.0
 40
1.0
 10
134.5727783839661
 20
138.182477561092
 30
0.0
 10
134.5700515396304
 20
138.1809505362511
 30
0.0
 10
134.5544663869574
 20
138.172222896404
 30
0.0
 10
134.526063297001
 20
138.2198802657214
 30
0.0
 10
134.4875359285371
 20
138.327232901154
 30
0.0
 10
134.4489973481558
 20
138.5027527245999
 30
0.0
 10
134.4104287868764
 20
138.7386293132412
 30
0.0
 10
134.3718650737258
 20
139.0352969327089
 30
0.0
 10
134.3333290548673
 20
139.3854429750282
 30
0.0
 10
134.2948058929006
 20
139.7830194572404
 30
0.0
 10
134.2562832435225
 20
140.2217873147646
 30
0.0
 10
134.217748671138
 20
140.6956376583761
 30
0.0
 10
134.1791873072976
 20
141.1984664352996
 30
0.0
 10
134.1406171315775
 20
141.7239140741925
 30
0.0
 10
134.1020760116604
 20
142.2635073506847
 30
0.0
 10
134.0635507875598
 20
142.8091838951429
 30
0.0
 10
134.0250292600184
 20
143.3529859079696
 30
0.0
 10
133.9864985936634
 20
143.8869189249177
 30
0.0
 10
133.9479449564923
 20
144.4030781258175
 30
0.0
 10
133.9093712638502
 20
144.8929320576637
 30
0.0
 10
133.8708238263735
 20
145.3493263049948
 30
0.0
 10
133.8322959152887
 20
145.7670478265602
 30
0.0
 10
133.7937747222173
 20
146.1406342673232
 30
0.0
 10
133.7552472545647
 20
146.4646747286213
 30
0.0
 10
133.7167008587761
 20
146.7335653043642
 30
0.0
 10
133.6781274400353
 20
146.9419601830117
 30
0.0
 10
133.6395727507201
 20
147.0831316575466
 30
0.0
 10
133.6044028811982
 20
147.1607559401811
 30
0.0
 10
133.5820799604057
 20
147.1622837209807
 30
0.0
 10
133.5725932617046
 20
147.1629329906825
 30
0.0
  0
LINE
  5
13C
330
1F
100
AcDbEntity
  8
0
  6
Continuous
 62
     8
370
    15
100
AcDbLine
 10
132.6375172554
 20
138.7582699108
 30
0.0
 11
132.6836301851
 21
138.923540146
 31
0.0
  0
SPLINE
  5
13D
330
1F
100
AcDbEntity
  8
0
  6
Continuous
 62
     8
370
    15
100
AcDbSpline
210
0.0
220
0.0
230
1.0
 70
     8
 71
     3
 72
    11
 73
     7
 74
     0
 42
0.00000001
 43
0.00000001
 12
1.0
 22
0.0
 32
0.0
 13
1.0
 23
0.0
 33
0.0
 40
0.0
 40
0.0
 40
0.0
 40
0.0
 40
0.223661342231944
 40
0.5430882368457368
 40
0.8619714225462202
 40
1.0
 40
1.0
 40
1.0
 40
1.0
 10
133.2907872396565
 20
145.188773932281
 30
0.0
 10
133.3042818102728
 20
145.3198206739867
 30
0.0
 10
133.3370489504939
 20
145.6380247193846
 30
0.0
 10
133.3890188415712
 20
146.032796267972
 30
0.0
 10
133.4359610379891
 20
146.3326069652773
 30
0.0
 10
133.4635791502535
 20
146.4278618867544
 30
0.0
 10
133.4719223120086
 20
146.4566374674402
 30
0.0
  0
SPLINE
  5
13E
330
1F
100
AcDbEntity
  8
0
  6
Continuous
 62
     8
370
    15
100
AcDbSpline
210
0.0
220
0.0
230
1.0
 70
     8
 71
     3
 72
    11
 73
     7
 74
     0
 42
0.00000001
 43
0.00000001
 12
1.0
 22
0.0
 32
0.0
 13
1.0
 23
0.0
 33
0.0
 40
0.0
 40
0.0
 40
0.0
 40
0.0
 40
0.244314431516928
 40
0.5602186758565287
 40
0.8760948007302969
 40
1.0
 40
1.0
 40
1.0
 40
1.0
 10
134.6739803486217
 20
138.8838052582359
 30
0.0
 10
134.6889144577193
 20
138.9454775686239
 30
0.0
 10
134.7231587173475
 20
139.0868936112541
 30
0.0
 10
134.7765782163493
 20
139.4549386547019
 30
0.0
 10
134.8226511509464
 20
139.8264734924485
 30
0.0
 10
134.8495339350088
 20
140.097250646272
 30
0.0
 10
134.8571079644941
 20
140.1735401459854
 30
0.0
  0
SPLINE
  5
13F
330
1F
100
AcDbEntity
  8
0
  6
Continuous
 62
     8
370
    15
100
AcDbSpline
210
0.0
220
0.0
230
1.0
 70
     8
 71
     3
 72
    11
 73
     7
 74
     0
 42
0.00000001
 43
0.00000001
 12
1.0
 22
0.0
 32
0.0
 13
1.0
 23
0.0
 33
0.0
 40
0.0
 40
0.0
 40
0.0
 40
0.0
 40
0.0454099723922176
 40
0.3639445674592394
 40
0.682146844558473
 40
1.0
 40
1.0
 40
1.0
 40
1.0
 10
135.2886612740474
 20
145.1735401459854
 30
0.0
 10
135.2914044021117
 20
145.2019664841253
 30
0.0
 10
135.3133895851948
 20
145.4297933422752
 30
0.0
 10
135.3546693909871
 20
145.7796241559038
 30
0.0
 10
135.4125212704944
 20
146.1999947267022
 30
0.0
 10
135.4509639850126
 20
146.3750235326548
 30
0.0
 10
135.4701747919458
 20
146.4624899002368
 30
0.0
  0
SPLINE
  5
140
330
1F
100
AcDbEntity
  8
0
  6
Continuous
 62
     8
370
    15
100
AcDbSpline
210
0.0
220
0.0
230
1.0
 70
     8
 71
     3
 72
    12
 73
     8
 74
     0
 42
0.00000001
 43
0.00000001
 12
1.0
 22
0.0
 32
0.0
 13
1.0
 23
0.0
 33
0.0
 40
0.0
 40
0.0
 40
0.0
 40
0.0
 40
0.0499542881463183
 40
0.3664691262855777
 40
0.6825173746794384
 40
0.9982680577176906
 40
0.9999999999999999
 40
0.9999999999999999
 40
0.9999999999999999
 40
0.9999999999999999
 10
136.6752615370918
 20
138.8894274107748
 30
0.0
 10
136.6783047932458
 20
138.8989231415209
 30
0.0
 10
136.7006303926133
 20
138.9685846716731
 30
0.0
 10
136.7421535366394
 20
139.2146858523189
 30
0.0
 10
136.7999747915551
 20
139.6344864262735
 30
0.0
 10
136.8386941057443
 20
139.9696299958482
 30
0.0
 10
136.8580392445992
 20
140.1724338035854
 30
0.0
 10
136.8581447768749
 20
140.1735401459854
 30
0.0
  0
SPLINE
  5
141
330
1F
100
AcDbEntity
  8
0
  6
Continuous
 62
     8
370
    15
100
AcDbSpline
210
0.0
220
0.0
230
1.0
 70
     8
 71
     3
 72
    11
 73
     7
 74
     0
 42
0.00000001
 43
0.00000001
 12
1.0
 22
0.0
 32
0.0
 13
1.0
 23
0.0
 33
0.0
 40
0.0
 40
0.0
 40
0.0
 40
0.0
 40
0.1704747553817409
 40
0.4859170177128527
 40
0.8018077751961366
 40
1.0
 40
1.0
 40
1.0
 40
1.0
 10
137.2890517243381
 20
145.1735401459854
 30
0.0
 10
137.2994783698157
 20
145.2772780214486
 30
0.0
 10
137.3291982216722
 20
145.5729698906411
 30
0.0
 10
137.3781897066674
 20
145.9557878545257
 30
0.0
 10
137.4287599264463
 20
146.2898002731793
 30
0.0
 10
137.4601470261485
 20
146.4112193222862
 30
0.0
 10
137.4722475611486
 20
146.4580294916658
 30
0.0
  0
LINE
  5
142
330
1F
100
AcDbEntity
  8
0
  6
Continuous
 62
     8
370
    15
100
AcDbLine
 10
138.6739512952
 20
138.8905792582
 30
0.0
 11
138.6820758812
 21
138.923540146
 31
0.0
  0
LINE
  5
143
330
1F
100
AcDbEntity
  8
0
  6
Continuous
 62
     8
370
    15
100
AcDbLine
 10
139.4600373034
 20
146.423540146
 30
0.0
 11
139.4723617841
 21
146.4638043212
 31
0.0
  0
DIMENSION
  5
144
330
1F
100
AcDbEntity
  8
0
  6
Continuous
 62
     7
370
     0
100
AcDbDimension
  2
_D_2
 10
108.8197080292
 20
139.173540146
 30
0.0
 11
108.8197080292
 21
142.8967525618
 31
0.0
 70
   160
  1
%%c<>
 71
     2
 42
-1.0
  3
SLDDIMSTYLE2
100
AcDbAlignedDimension
 13
118.8197080292
 23
146.173540146
 33
0.0
 14
118.8197080292
 24
139.173540146
 34
0.0
 50
90.0
100
AcDbRotatedDimension
  0
DIMENSION
  5
152
330
1F
100
AcDbEntity
  8
0
  6
Continuous
 62
     7
370
     0
100
AcDbDimension
  2
_D_3
 10
118.8197080292
 20
161.973540146
 30
0.0
 11
112.8672254867
 21
161.973540146
 31
0.0
 70
   160
  1
<>
 71
     2
 42
-1.0
  3
SLDDIMSTYLE2
100
AcDbAlignedDimension
 13
124.3197080292
 23
148.673540146
 33
0.0
 14
118.8197080292
 24
146.173540146
 34
0.0
100
AcDbRotatedDimension
  0
DIMENSION
  5
15E
330
1F
100
AcDbEntity
  8
0
  6
Continuous
 62
     7
370
     0
100
AcDbDimension
  2
_D_4
 10
133.3197080292
 20
161.973540146
 30
0.0
 11
144.3066316641
 21
161.973540146
 31
0.0
 70
   160
  1
<>st
 71
     2
 42
-1.0
  3
SLDDIMSTYLE2
100
AcDbAlignedDimension
 13
138.3197080292
 23
146.123540146
 33
0.0
 14
133.3197080292
 24
146.423540146
 34
0.0
100
AcDbRotatedDimension
  0
DIMENSION
  5
16B
330
1F
100
AcDbEntity
  8
0
  6
Continuous
 62
     7
370
     0
100
AcDbDimension
  2
_D_5
 10
162.3197080292
 20
173.973540146
 30
0.0
 11
139.5485704543
 21
173.973540146
 31
0.0
 70
   160
  1
<>
 71
     2
 42
-1.0
  3
SLDDIMSTYLE0
100
AcDbAlignedDimension
 13
118.8197080292
 23
146.173540146
 33
0.0
 14
162.3197080292
 24
144.673540146
 34
0.0
100
AcDbRotatedDimension
  0
DIMENSION
  5
175
330
1F
100
AcDbEntity
  8
0
  6
Continuous
 62
     7
370
     0
100
AcDbDimension
  2
_D_6
 10
172.3197080292
 20
140.173540146
 30
0.0
 11
172.3197080292
 21
151.7418454737
 31
0.0
 70
   160
  1
%%c<>
 71
     2
 42
-1.0
  3
SLDDIMSTYLE2
100
AcDbAlignedDimension
 13
161.8197080292
 23
145.173540146
 33
0.0
 14
161.8197080292
 24
140.173540146
 34
0.0
 50
90.0
100
AcDbRotatedDimension
  0
DIMENSION
  5
182
330
1F
100
AcDbEntity
  8
0
  6
Continuous
 62
     7
370
     0
100
AcDbDimension
  2
_D_7
 10
182.4283052102
 20
138.673540146
 30
0.0
 11
182.4283052102
 21
142.0653012581
 31
0.0
 70
   160
  1
%%c<>
 71
     2
 42
-1.0
  3
SLDDIMSTYLE0
100
AcDbAlignedDimension
 13
160.0197080292
 23
146.673540146
 33
0.0
 14
160.0197080292
 24
138.673540146
 34
0.0
 50
90.0
100
AcDbRotatedDimension
  0
DIMENSION
  5
18D
330
1F
100
AcDbEntity
  8
0
  6
Continuous
 62
     7
370
     0
100
AcDbDimension
  2
_D_8
 10
160.3197080292
 20
127.7619850211
 30
0.0
 11
150.4713942625
 21
127.7619850211
 31
0.0
 70
   160
  1
<>
 71
     2
 42
-1.0
  3
SLDDIMSTYLE0
100
AcDbAlignedDimension
 13
142.3197080292
 23
136.973540146
 33
0.0
 14
160.3197080292
 24
138.973540146
 34
0.0
100
AcDbRotatedDimension
  0
MTEXT
  5
197
330
1F
100
AcDbEntity
  8
0
  6
Continuous
 62
     7
370
     0
100
AcDbMText
 10
104.2818606705
 20
126.3930766186
 30
0.0
 40
3.5
 41
0.0
 71
     1
 72
     1
  1
BF-6
  7
SLDTEXTSTYLE1
 73
     1
 44
1.0
  0
LEADER
  5
198
330
1F
100
AcDbEntity
  8
0
  6
Continuous
 62
     7
370
     0
100
AcDbLeader
  3
SLDDIMSTYLE1
 76
     3
 10
127.182543671
 20
129.8920605846
 30
0.0
 10
113.8211678832
 20
121.9890510949
 30
0.0
 10
104.197080292
 20
121.9890510949
 30
0.0
  0
ENDSEC
  0
SECTION
  2
OBJECTS
  0
DICTIONARY
  5
C
330
0
100
AcDbDictionary
281
     1
  3
ACAD_GROUP
350
D
  3
ACAD_LAYOUT
350
1A
  3
ACAD_MLINESTYLE
350
17
  3
ACAD_PLOTSETTINGS
350
19
  3
ACAD_PLOTSTYLENAME
350
E
  0
DICTIONARY
  5
D
102
{ACAD_REACTORS
330
C
102
}
330
C
100
AcDbDictionary
281
     1
  0
DICTIONARY
  5
1A
102
{ACAD_REACTORS
330
C
102
}
330
C
100
AcDbDictionary
281
     1
  3
Layout1
350
1E
  3
Layout2
350
26
  3
Model
350
22
  0
DICTIONARY
  5
17
102
{ACAD_REACTORS
330
C
102
}
330
C
100
AcDbDictionary
281
     1
  3
Standard
350
18
  0
DICTIONARY
  5
19
102
{ACAD_REACTORS
330
C
102
}
330
C
100
AcDbDictionary
281
     1
  0
ACDBDICTIONARYWDFLT
  5
E
102
{ACAD_REACTORS
330
C
102
}
330
C
100
AcDbDictionary
281
     1
  3
Normal
350
F
100
AcDbDictionaryWithDefault
340
F
  0
LAYOUT
  5
1E
102
{ACAD_REACTORS
330
1A
102
}
330
1A
100
AcDbPlotSettings
  1

  2
none_device
  4

  6

 40
0.0
 41
0.0
 42
0.0
 43
0.0
 44
0.0
 45
0.0
 46
0.0
 47
0.0
 48
0.0
 49
0.0
140
0.0
141
0.0
142
1.0
143
1.0
 70
   688
 72
     0
 73
     0
 74
     5
  7

 75
    16
147
1.0
148
0.0
149
0.0
100
AcDbLayout
  1
Layout1
 70
     1
 71
     1
 10
0.0
 20
0.0
 11
420.0
 21
297.0
 12
0.0
 22
0.0
 32
0.0
 14
1.0000000000E+20
 24
1.0000000000E+20
 34
1.0000000000E+20
 15
-1.0000000000E+20
 25
-1.0000000000E+20
 35
-1.0000000000E+20
146
0.0
 13
0.0
 23
0.0
 33
0.0
 16
1.0
 26
0.0
 36
0.0
 17
0.0
 27
1.0
 37
0.0
 76
     0
330
1B
  0
LAYOUT
  5
26
102
{ACAD_REACTORS
330
1A
102
}
330
1A
100
AcDbPlotSettings
  1

  2
none_device
  4

  6

 40
0.0
 41
0.0
 42
0.0
 43
0.0
 44
0.0
 45
0.0
 46
0.0
 47
0.0
 48
0.0
 49
0.0
140
0.0
141
0.0
142
1.0
143
1.0
 70
   688
 72
     0
 73
     0
 74
     5
  7

 75
    16
147
1.0
148
0.0
149
0.0
100
AcDbLayout
  1
Layout2
 70
     1
 71
     2
 10
0.0
 20
0.0
 11
0.0
 21
0.0
 12
0.0
 22
0.0
 32
0.0
 14
0.0
 24
0.0
 34
0.0
 15
0.0
 25
0.0
 35
0.0
146
0.0
 13
0.0
 23
0.0
 33
0.0
 16
1.0
 26
0.0
 36
0.0
 17
0.0
 27
1.0
 37
0.0
 76
     0
330
23
  0
LAYOUT
  5
22
102
{ACAD_REACTORS
330
1A
102
}
330
1A
100
AcDbPlotSettings
  1

  2
none_device
  4

  6

 40
0.0
 41
0.0
 42
0.0
 43
0.0
 44
0.0
 45
0.0
 46
0.0
 47
0.0
 48
0.0
 49
0.0
140
0.0
141
0.0
142
1.0
143
1.0
 70
  1712
 72
     0
 73
     0
 74
     0
  7

 75
     0
147
1.0
148
0.0
149
0.0
100
AcDbLayout
  1
Model
 70
     1
 71
     0
 10
0.0
 20
0.0
 11
210.0
 21
297.0
 12
0.0
 22
0.0
 32
0.0
 14
0.0
 24
0.0
 34
0.0
 15
210.0
 25
297.0
 35
0.0
146
0.0
 13
0.0
 23
0.0
 33
0.0
 16
1.0
 26
0.0
 36
0.0
 17
0.0
 27
1.0
 37
0.0
 76
     0
330
1F
331
29
  0
MLINESTYLE
  5
18
102
{ACAD_REACTORS
330
17
102
}
330
17
100
AcDbMlineStyle
  2
Standard
 70
     0
  3

 62
   256
 51
90.0
 52
90.0
 71
     2
 49
0.5
 62
   256
  6
BYLAYER
 49
-0.5
 62
   256
  6
BYLAYER
  0
ACDBPLACEHOLDER
  5
F
102
{ACAD_REACTORS
330
E
102
}
330
E
  0
ENDSEC
  0
EOF
