  0
SECTION
  2
HEADER
  9
$ACADVER
  1
AC1015
  9
$ACADMAINTVER
 70
     6
  9
$DWGCODEPAGE
  3
DOS932
  9
$INSBASE
 10
0.0
 20
0.0
 30
0.0
  9
$EXTMIN
 10
0.0
 20
0.0
 30
0.0
  9
$EXTMAX
 10
210.0
 20
297.0
 30
0.0
  9
$LIMMIN
 10
0.0
 20
0.0
  9
$LIMMAX
 10
210.0
 20
297.0
  9
$ORTHOMODE
 70
     0
  9
$REGENMODE
 70
     1
  9
$FILLMODE
 70
     1
  9
$QTEXTMODE
 70
     0
  9
$MIRRTEXT
 70
     1
  9
$LTSCALE
 40
1.0
  9
$ATTMODE
 70
     1
  9
$TEXTSIZE
 40
3.5
  9
$TRACEWID
 40
1.0
  9
$TEXTSTYLE
  7
Standard
  9
$CLAYER
  8
0
  9
$CELTYPE
  6
ByLayer
  9
$CECOLOR
 62
   256
  9
$CELTSCALE
 40
1.0
  9
$DISPSILH
 70
     0
  9
$DIMSCALE
 40
1.0
  9
$DIMASZ
 40
2.0
  9
$DIMEXO
 40
1.0
  9
$DIMDLI
 40
3.75
  9
$DIMRND
 40
0.0
  9
$DIMDLE
 40
0.0
  9
$DIMEXE
 40
1.0
  9
$DIMTP
 40
0.0
  9
$DIMTM
 40
0.0
  9
$DIMTXT
 40
3.5
  9
$DIMCEN
 40
2.5
  9
$DIMTSZ
 40
0.0
  9
$DIMTOL
 70
     0
  9
$DIMLIM
 70
     0
  9
$DIMTIH
 70
     1
  9
$DIMTOH
 70
     1
  9
$DIMSE1
 70
     0
  9
$DIMSE2
 70
     0
  9
$DIMTAD
 70
     1
  9
$DIMZIN
 70
     0
  9
$DIMBLK
  1

  9
$DIMASO
 70
     1
  9
$DIMSHO
 70
     1
  9
$DIMPOST
  1

  9
$DIMAPOST
  1

  9
$DIMALT
 70
     0
  9
$DIMALTD
 70
     3
  9
$DIMALTF
 40
0.0393700787
  9
$DIMLFAC
 40
1.0
  9
$DIMTOFL
 70
     1
  9
$DIMTVP
 40
0.0
  9
$DIMTIX
 70
     0
  9
$DIMSOXD
 70
     0
  9
$DIMSAH
 70
     0
  9
$DIMBLK1
  1

  9
$DIMBLK2
  1

  9
$DIMSTYLE
  2
ISO-25
  9
$DIMCLRD
 70
     0
  9
$DIMCLRE
 70
     0
  9
$DIMCLRT
 70
     0
  9
$DIMTFAC
 40
1.0
  9
$DIMGAP
 40
1.524
  9
$DIMJUST
 70
     0
  9
$DIMSD1
 70
     0
  9
$DIMSD2
 70
     0
  9
$DIMTOLJ
 70
     0
  9
$DIMTZIN
 70
     0
  9
$DIMALTZ
 70
     0
  9
$DIMALTTZ
 70
     0
  9
$DIMUPT
 70
     0
  9
$DIMDEC
 70
     2
  9
$DIMTDEC
 70
     2
  9
$DIMALTU
 70
     2
  9
$DIMALTTD
 70
     3
  9
$DIMTXSTY
  7
Standard
  9
$DIMAUNIT
 70
     0
  9
$DIMADEC
 70
     2
  9
$DIMALTRND
 40
0.0
  9
$DIMAZIN
 70
     0
  9
$DIMDSEP
 70
    44
  9
$DIMATFIT
 70
     3
  9
$DIMFRAC
 70
     0
  9
$DIMLDRBLK
  1

  9
$DIMLUNIT
 70
     2
  9
$DIMLWD
 70
    -2
  9
$DIMLWE
 70
    -2
  9
$DIMTMOVE
 70
     0
  9
$LUNITS
 70
     2
  9
$LUPREC
 70
     2
  9
$SKETCHINC
 40
1.0
  9
$FILLETRAD
 40
10.0
  9
$AUNITS
 70
     0
  9
$AUPREC
 70
     2
  9
$MENU
  1
.
  9
$ELEVATION
 40
0.0
  9
$PELEVATION
 40
0.0
  9
$THICKNESS
 40
0.0
  9
$LIMCHECK
 70
     0
  9
$CHAMFERA
 40
10.0
  9
$CHAMFERB
 40
10.0
  9
$CHAMFERC
 40
20.0
  9
$CHAMFERD
 40
0.0
  9
$SKPOLY
 70
     0
  9
$TDCREATE
 40
2456910.625548403
  9
$TDUCREATE
 40
2456910.250548403
  9
$TDUPDATE
 40
2456910.625550208
  9
$TDUUPDATE
 40
2456910.250550208
  9
$TDINDWG
 40
0.0000000116
  9
$TDUSRTIMER
 40
0.0000000116
  9
$USRTIMER
 70
     1
  9
$ANGBASE
 50
0.0
  9
$ANGDIR
 70
     0
  9
$PDMODE
 70
     0
  9
$PDSIZE
 40
-1.0
  9
$PLINEWID
 40
0.0
  9
$SPLFRAME
 70
     0
  9
$SPLINETYPE
 70
     6
  9
$SPLINESEGS
 70
     8
  9
$HANDSEED
  5
1AA
  9
$SURFTAB1
 70
     6
  9
$SURFTAB2
 70
     6
  9
$SURFTYPE
 70
     6
  9
$SURFU
 70
     6
  9
$SURFV
 70
     6
  9
$UCSBASE
  2

  9
$UCSNAME
  2

  9
$UCSORG
 10
0.0
 20
0.0
 30
0.0
  9
$UCSXDIR
 10
1.0
 20
0.0
 30
0.0
  9
$UCSYDIR
 10
0.0
 20
1.0
 30
0.0
  9
$UCSORTHOREF
  2

  9
$UCSORTHOVIEW
 70
     0
  9
$UCSORGTOP
 10
0.0
 20
0.0
 30
0.0
  9
$UCSORGBOTTOM
 10
0.0
 20
0.0
 30
0.0
  9
$UCSORGLEFT
 10
0.0
 20
0.0
 30
0.0
  9
$UCSORGRIGHT
 10
0.0
 20
0.0
 30
0.0
  9
$UCSORGFRONT
 10
0.0
 20
0.0
 30
0.0
  9
$UCSORGBACK
 10
0.0
 20
0.0
 30
0.0
  9
$PUCSBASE
  2

  9
$PUCSNAME
  2

  9
$PUCSORG
 10
0.0
 20
0.0
 30
0.0
  9
$PUCSXDIR
 10
1.0
 20
0.0
 30
0.0
  9
$PUCSYDIR
 10
0.0
 20
1.0
 30
0.0
  9
$PUCSORTHOREF
  2

  9
$PUCSORTHOVIEW
 70
     0
  9
$PUCSORGTOP
 10
0.0
 20
0.0
 30
0.0
  9
$PUCSORGBOTTOM
 10
0.0
 20
0.0
 30
0.0
  9
$PUCSORGLEFT
 10
0.0
 20
0.0
 30
0.0
  9
$PUCSORGRIGHT
 10
0.0
 20
0.0
 30
0.0
  9
$PUCSORGFRONT
 10
0.0
 20
0.0
 30
0.0
  9
$PUCSORGBACK
 10
0.0
 20
0.0
 30
0.0
  9
$USERI1
 70
     0
  9
$USERI2
 70
     0
  9
$USERI3
 70
     0
  9
$USERI4
 70
     0
  9
$USERI5
 70
     0
  9
$USERR1
 40
0.0
  9
$USERR2
 40
0.0
  9
$USERR3
 40
0.0
  9
$USERR4
 40
0.0
  9
$USERR5
 40
0.0
  9
$WORLDVIEW
 70
     1
  9
$SHADEDGE
 70
     3
  9
$SHADEDIF
 70
    70
  9
$TILEMODE
 70
     1
  9
$MAXACTVP
 70
    64
  9
$PINSBASE
 10
0.0
 20
0.0
 30
0.0
  9
$PLIMCHECK
 70
     0
  9
$PEXTMIN
 10
1.0000000000E+20
 20
1.0000000000E+20
 30
1.0000000000E+20
  9
$PEXTMAX
 10
-1.0000000000E+20
 20
-1.0000000000E+20
 30
-1.0000000000E+20
  9
$PLIMMIN
 10
0.0
 20
0.0
  9
$PLIMMAX
 10
420.0
 20
297.0
  9
$UNITMODE
 70
     0
  9
$VISRETAIN
 70
     1
  9
$PLINEGEN
 70
     0
  9
$PSLTSCALE
 70
     1
  9
$TREEDEPTH
 70
  3020
  9
$CMLSTYLE
  2
Standard
  9
$CMLJUST
 70
     0
  9
$CMLSCALE
 40
20.0
  9
$PROXYGRAPHICS
 70
     1
  9
$MEASUREMENT
 70
     1
  9
$CELWEIGHT
370
    -1
  9
$ENDCAPS
280
     0
  9
$JOINSTYLE
280
     0
  9
$LWDISPLAY
290
     1
  9
$INSUNITS
 70
     4
  9
$HYPERLINKBASE
  1

  9
$STYLESHEET
  1

  9
$XEDIT
290
     1
  9
$CEPSNTYPE
380
     0
  9
$PSTYLEMODE
290
     1
  9
$FINGERPRINTGUID
  2
{0E47B84E-CCA9-4BBA-8C17-23649B52372A}
  9
$VERSIONGUID
  2
{FAEB1C32-E019-11D5-929B-00C0DF256EC4}
  9
$EXTNAMES
290
     1
  9
$PSVPSCALE
 40
0.0
  9
$OLESTARTUP
290
     0
  0
ENDSEC
  0
SECTION
  2
CLASSES
  0
CLASS
  1
ACDBDICTIONARYWDFLT
  2
AcDbDictionaryWithDefault
  3
ObjectDBX Classes
 90
        0
280
     0
281
     0
  0
CLASS
  1
VISUALSTYLE
  2
AcDbVisualStyle
  3
ObjectDBX Classes
 90
     4095
280
     0
281
     0
  0
CLASS
  1
MATERIAL
  2
AcDbMaterial
  3
ObjectDBX Classes
 90
     1153
280
     0
281
     0
  0
CLASS
  1
ACDBPLACEHOLDER
  2
AcDbPlaceHolder
  3
ObjectDBX Classes
 90
        0
280
     0
281
     0
  0
CLASS
  1
LAYOUT
  2
AcDbLayout
  3
ObjectDBX Classes
 90
        0
280
     0
281
     0
  0
ENDSEC
  0
SECTION
  2
TABLES
  0
TABLE
  2
VPORT
  5
8
330
0
100
AcDbSymbolTable
 70
     1
  0
VPORT
  5
29
330
8
100
AcDbSymbolTableRecord
100
AcDbViewportTableRecord
  2
*Active
 70
     0
 10
0.0
 20
0.0
 11
1.0
 21
1.0
 12
105.0
 22
148.5
 13
0.0
 23
0.0
 14
10.0
 24
10.0
 15
10.0
 25
10.0
 16
0.0
 26
0.0
 36
1.0
 17
0.0
 27
0.0
 37
0.0
 40
297.0
 41
0.7070707071
 42
50.0
 43
0.0
 44
0.0
 50
0.0
 51
0.0
 71
     0
 72
  2000
 73
     1
 74
     3
 75
     0
 76
     0
 77
     0
 78
     0
281
     0
 65
     1
110
0.0
120
0.0
130
0.0
111
1.0
121
0.0
131
0.0
112
0.0
122
1.0
132
0.0
 79
     0
146
0.0
  0
ENDTAB
  0
TABLE
  2
LTYPE
  5
5
330
0
100
AcDbSymbolTable
 70
     6
  0
LTYPE
  5
14
330
5
100
AcDbSymbolTableRecord
100
AcDbLinetypeTableRecord
  2
ByBlock
 70
     0
  3

 72
    65
 73
     0
 40
0.0
  0
LTYPE
  5
15
330
5
100
AcDbSymbolTableRecord
100
AcDbLinetypeTableRecord
  2
ByLayer
 70
     0
  3

 72
    65
 73
     0
 40
0.0
  0
LTYPE
  5
16
330
5
100
AcDbSymbolTableRecord
100
AcDbLinetypeTableRecord
  2
Continuous
 70
     0
  3
Solid line
 72
    65
 73
     0
 40
0.0
  0
LTYPE
  5
3F
330
5
100
AcDbSymbolTableRecord
100
AcDbLinetypeTableRecord
  2
HIDDEN
 70
     0
  3
Hidden __ __ __ __ __ __ __ __ __ __ __ __ __ __
 72
    65
 73
     2
 40
1.905
 49
1.27
 74
     0
 49
-0.635
 74
     0
  0
LTYPE
  5
40
330
5
100
AcDbSymbolTableRecord
100
AcDbLinetypeTableRecord
  2
PHANTOM
 70
     0
  3
Phantom ______  __  __  ______  __  __  ______
 72
    65
 73
     6
 40
12.7
 49
6.35
 74
     0
 49
-1.27
 74
     0
 49
1.27
 74
     0
 49
-1.27
 74
     0
 49
1.27
 74
     0
 49
-1.27
 74
     0
  0
LTYPE
  5
41
330
5
100
AcDbSymbolTableRecord
100
AcDbLinetypeTableRecord
  2
CENTER
 70
     0
  3
Center ____ _ ____ _ ____ _ ____ _ ____ _ ____
 72
    65
 73
     4
 40
10.16
 49
6.35
 74
     0
 49
-1.27
 74
     0
 49
1.27
 74
     0
 49
-1.27
 74
     0
  0
LTYPE
  5
42
330
5
100
AcDbSymbolTableRecord
100
AcDbLinetypeTableRecord
  2
CENTERX2
 70
     0
  3
Center (2x) ________  __  ________  __  _____
 72
    65
 73
     4
 40
20.32
 49
12.7
 74
     0
 49
-2.54
 74
     0
 49
2.54
 74
     0
 49
-2.54
 74
     0
  0
LTYPE
  5
43
330
5
100
AcDbSymbolTableRecord
100
AcDbLinetypeTableRecord
  2
DOT2
 70
     0
  3
Dot (.5x) ........................................
 72
    65
 73
     2
 40
0.635
 49
0.0
 74
     0
 49
-0.635
 74
     0
  0
ENDTAB
  0
TABLE
  2
LAYER
  5
2
330
0
100
AcDbSymbolTable
 70
     1
  0
LAYER
  5
10
330
2
100
AcDbSymbolTableRecord
100
AcDbLayerTableRecord
  2
0
 70
     0
 62
     7
  6
Continuous
370
    -3
390
F
  0
ENDTAB
  0
TABLE
  2
STYLE
  5
3
330
0
100
AcDbSymbolTable
 70
     3
  0
STYLE
  5
11
330
3
100
AcDbSymbolTableRecord
100
AcDbTextStyleTableRecord
  2
Standard
 70
     0
 40
0.0
 41
1.0
 50
0.0
 71
     0
 42
3.5
  3
txt
  4
bigfont
  0
STYLE
  5
4C
330
3
100
AcDbSymbolTableRecord
100
AcDbTextStyleTableRecord
  2
SLDTEXTSTYLE0
 70
     0
 40
0.0
 41
0.7
 50
0.0
 71
     0
 42
0.2
  3
TXT
  4
bigfont
  0
STYLE
  5
8F
330
3
100
AcDbSymbolTableRecord
100
AcDbTextStyleTableRecord
  2
SLDTEXTSTYLE1
 70
     0
 40
0.0
 41
0.75
 50
0.0
 71
     0
 42
0.2
  3
TXT
  4
bigfont
  0
ENDTAB
  0
TABLE
  2
VIEW
  5
6
330
0
100
AcDbSymbolTable
 70
     0
  0
ENDTAB
  0
TABLE
  2
UCS
  5
7
330
0
100
AcDbSymbolTable
 70
     0
  0
ENDTAB
  0
TABLE
  2
APPID
  5
9
330
0
100
AcDbSymbolTable
 70
     1
  0
APPID
  5
12
330
9
100
AcDbSymbolTableRecord
100
AcDbRegAppTableRecord
  2
ACAD
 70
     0
  0
ENDTAB
  0
TABLE
  2
DIMSTYLE
  5
A
330
0
100
AcDbSymbolTable
 70
     4
100
AcDbDimStyleTable
  0
DIMSTYLE
105
27
330
A
100
AcDbSymbolTableRecord
100
AcDbDimStyleTableRecord
  2
ISO-25
 70
     0
 41
2.5
 42
0.625
 43
3.75
 44
1.25
 73
     0
 74
     0
 77
     1
 78
     8
140
2.5
141
2.5
143
0.0393700787
147
0.625
171
     3
172
     1
178
     0
271
     2
272
     2
274
     3
278
    44
283
     0
284
     8
340
11
  0
DIMSTYLE
105
90
102
{ACAD_REACTORS
330
8E
330
9A
330
A4
330
17A
330
19E
102
}
330
A
100
AcDbSymbolTableRecord
100
AcDbDimStyleTableRecord
  2
SLDDIMSTYLE0
 70
     0
 41
2.0
 44
0.0
 45
0.000000001
 73
     0
 74
     0
 77
     3
 78
    12
 79
     3
140
3.5
147
0.875
173
     1
178
     0
271
     1
272
     1
276
     2
284
    12
340
8F
  0
DIMSTYLE
105
B0
330
A
100
AcDbSymbolTableRecord
100
AcDbDimStyleTableRecord
  2
SLDDIMSTYLE1
 70
     0
 41
2.0
 44
0.0
 45
0.000000001
140
0.0
146
2.0
147
0.0
173
     1
178
     0
271
     0
272
     0
276
     2
340
11
  0
DIMSTYLE
105
154
102
{ACAD_REACTORS
330
153
330
161
330
16D
330
184
330
191
102
}
330
A
100
AcDbSymbolTableRecord
100
AcDbDimStyleTableRecord
  2
SLDDIMSTYLE2
 70
     0
 41
2.0
 44
0.0
 45
0.000000001
 73
     0
 74
     0
 77
     3
 78
    12
 79
     3
140
3.5
147
0.875
172
     1
173
     1
178
     0
271
     1
272
     1
276
     2
284
    12
289
     0
340
8F
  0
ENDTAB
  0
TABLE
  2
BLOCK_RECORD
  5
1
330
0
100
AcDbSymbolTable
 70
    12
  0
BLOCK_RECORD
  5
1F
330
1
100
AcDbSymbolTableRecord
100
AcDbBlockTableRecord
  2
*Model_Space
340
22
  0
BLOCK_RECORD
  5
1B
330
1
100
AcDbSymbolTableRecord
100
AcDbBlockTableRecord
  2
*Paper_Space
340
1E
  0
BLOCK_RECORD
  5
23
330
1
100
AcDbSymbolTableRecord
100
AcDbBlockTableRecord
  2
*Paper_Space0
340
26
  0
BLOCK_RECORD
  5
91
330
1
100
AcDbSymbolTableRecord
100
AcDbBlockTableRecord
  2
_D
340
0
  0
BLOCK_RECORD
  5
9B
330
1
100
AcDbSymbolTableRecord
100
AcDbBlockTableRecord
  2
_D_1
340
0
  0
BLOCK_RECORD
  5
A5
330
1
100
AcDbSymbolTableRecord
100
AcDbBlockTableRecord
  2
_D_2
340
0
  0
BLOCK_RECORD
  5
B2
330
1
100
AcDbSymbolTableRecord
100
AcDbBlockTableRecord
  2
SW_CENTERMARKSYMBOL_0
340
0
102
{BLKREFS
331
BD
102
}
  0
BLOCK_RECORD
  5
155
330
1
100
AcDbSymbolTableRecord
100
AcDbBlockTableRecord
  2
_D_3
340
0
  0
BLOCK_RECORD
  5
162
330
1
100
AcDbSymbolTableRecord
100
AcDbBlockTableRecord
  2
_D_4
340
0
  0
BLOCK_RECORD
  5
16E
330
1
100
AcDbSymbolTableRecord
100
AcDbBlockTableRecord
  2
_D_5
340
0
  0
BLOCK_RECORD
  5
17B
330
1
100
AcDbSymbolTableRecord
100
AcDbBlockTableRecord
  2
_D_6
340
0
  0
BLOCK_RECORD
  5
185
330
1
100
AcDbSymbolTableRecord
100
AcDbBlockTableRecord
  2
_D_7
340
0
  0
BLOCK_RECORD
  5
192
330
1
100
AcDbSymbolTableRecord
100
AcDbBlockTableRecord
  2
_D_8
340
0
  0
BLOCK_RECORD
  5
19F
330
1
100
AcDbSymbolTableRecord
100
AcDbBlockTableRecord
  2
_D_9
340
0
  0
ENDTAB
  0
ENDSEC
  0
SECTION
  2
BLOCKS
  0
BLOCK
  5
20
330
1F
100
AcDbEntity
  8
0
100
AcDbBlockBegin
  2
*Model_Space
 70
     0
 10
0.0
 20
0.0
 30
0.0
  3
*Model_Space
  1

  0
ENDBLK
  5
21
330
1F
100
AcDbEntity
  8
0
100
AcDbBlockEnd
  0
BLOCK
  5
1C
330
1B
100
AcDbEntity
 67
     1
  8
0
100
AcDbBlockBegin
  2
*Paper_Space
 70
     0
 10
0.0
 20
0.0
 30
0.0
  3
*Paper_Space
  1

  0
ENDBLK
  5
1D
330
1B
100
AcDbEntity
 67
     1
  8
0
100
AcDbBlockEnd
  0
BLOCK
  5
24
330
23
100
AcDbEntity
  8
0
100
AcDbBlockBegin
  2
*Paper_Space0
 70
     0
 10
0.0
 20
0.0
 30
0.0
  3
*Paper_Space0
  1

  0
ENDBLK
  5
25
330
23
100
AcDbEntity
  8
0
100
AcDbBlockEnd
  0
BLOCK
  5
92
330
91
100
AcDbEntity
  8
0
100
AcDbBlockBegin
  2
_D
 70
     0
 10
0.0
 20
0.0
 30
0.0
  3
_D
  1

  0
SOLID
  5
94
330
91
100
AcDbEntity
  8
0
  6
Continuous
 62
     7
370
     0
100
AcDbTrace
 10
46.7115117594
 20
146.5506774798
 30
0.0
 11
45.9615117594
 21
144.5506774798
 31
0.0
 12
47.4615117594
 22
144.5506774798
 32
0.0
 13
47.4615117594
 23
144.5506774798
 33
0.0
  0
SOLID
  5
95
330
91
100
AcDbEntity
  8
0
  6
Continuous
 62
     7
370
     0
100
AcDbTrace
 10
46.7115117594
 20
127.9506774798
 30
0.0
 11
47.4615117594
 21
129.9506774798
 31
0.0
 12
45.9615117594
 22
129.9506774798
 32
0.0
 13
45.9615117594
 23
129.9506774798
 33
0.0
  0
LINE
  5
96
330
91
100
AcDbEntity
  8
0
  6
Continuous
 62
     7
370
     0
100
AcDbLine
 10
68.1196792977
 20
146.5506774798
 30
0.0
 11
45.7115117594
 21
146.5506774798
 31
0.0
  0
LINE
  5
97
330
91
100
AcDbEntity
  8
0
  6
Continuous
 62
     7
370
     0
100
AcDbLine
 10
68.1196792977
 20
127.9506774798
 30
0.0
 11
45.7115117594
 21
127.9506774798
 31
0.0
  0
LINE
  5
98
330
91
100
AcDbEntity
  8
0
  6
Continuous
 62
     7
370
     0
100
AcDbLine
 10
46.7115117594
 20
146.5506774798
 30
0.0
 11
46.7115117594
 21
127.9506774798
 31
0.0
  0
MTEXT
  5
99
330
91
100
AcDbEntity
  8
0
  6
Continuous
 62
     7
370
     0
100
AcDbMText
 10
42.1997748448
 20
132.452611238
 30
21.85
 40
3.5
 41
0.0
 71
     1
 72
     1
  1
18.6
  7
SLDTEXTSTYLE1
 11
-7.044195017643634E-15
 21
1.0
 31
0.0
 73
     1
 44
1.0
  0
ENDBLK
  5
93
330
91
100
AcDbEntity
  8
0
100
AcDbBlockEnd
  0
BLOCK
  5
9C
330
9B
100
AcDbEntity
  8
0
100
AcDbBlockBegin
  2
_D_1
 70
     0
 10
0.0
 20
0.0
 30
0.0
  3
_D_1
  1

  0
SOLID
  5
9E
330
9B
100
AcDbEntity
  8
0
  6
Continuous
 62
     7
370
     0
100
AcDbTrace
 10
55.1696792977
 20
143.2506774798
 30
0.0
 11
54.4196792977
 21
141.2506774798
 31
0.0
 12
55.9196792977
 22
141.2506774798
 32
0.0
 13
55.9196792977
 23
141.2506774798
 33
0.0
  0
SOLID
  5
9F
330
9B
100
AcDbEntity
  8
0
  6
Continuous
 62
     7
370
     0
100
AcDbTrace
 10
55.1696792977
 20
131.2506774798
 30
0.0
 11
55.9196792977
 21
133.2506774798
 31
0.0
 12
54.4196792977
 22
133.2506774798
 32
0.0
 13
54.4196792977
 23
133.2506774798
 33
0.0
  0
LINE
  5
A0
330
9B
100
AcDbEntity
  8
0
  6
Continuous
 62
     7
370
     0
100
AcDbLine
 10
68.7055776825
 20
143.2506774798
 30
0.0
 11
54.1696792977
 21
143.2506774798
 31
0.0
  0
LINE
  5
A1
330
9B
100
AcDbEntity
  8
0
  6
Continuous
 62
     7
370
     0
100
AcDbLine
 10
68.7055776825
 20
131.2506774798
 30
0.0
 11
54.1696792977
 21
131.2506774798
 31
0.0
  0
LINE
  5
A2
330
9B
100
AcDbEntity
  8
0
  6
Continuous
 62
     7
370
     0
100
AcDbLine
 10
55.1696792977
 20
143.2506774798
 30
0.0
 11
55.1696792977
 21
131.2506774798
 31
0.0
  0
MTEXT
  5
A3
330
9B
100
AcDbEntity
  8
0
  6
Continuous
 62
     7
370
     0
100
AcDbMText
 10
50.6579423831
 20
134.6645662863
 30
21.85
 40
3.5
 41
0.0
 71
     1
 72
     1
  1
12
  7
SLDTEXTSTYLE1
 11
-7.044195017643634E-15
 21
1.0
 31
0.0
 73
     1
 44
1.0
  0
ENDBLK
  5
9D
330
9B
100
AcDbEntity
  8
0
100
AcDbBlockEnd
  0
BLOCK
  5
A6
330
A5
100
AcDbEntity
  8
0
100
AcDbBlockBegin
  2
_D_2
 70
     0
 10
0.0
 20
0.0
 30
0.0
  3
_D_2
  1

  0
SOLID
  5
A8
330
A5
100
AcDbEntity
  8
0
  6
Continuous
 62
     7
370
     0
100
AcDbTrace
 10
65.1696792977
 20
156.5506774798
 30
0.0
 11
67.1696792977
 21
155.8006774798
 31
0.0
 12
67.1696792977
 22
157.3006774798
 32
0.0
 13
67.1696792977
 23
157.3006774798
 33
0.0
  0
SOLID
  5
A9
330
A5
100
AcDbEntity
  8
0
  6
Continuous
 62
     7
370
     0
100
AcDbTrace
 10
81.1696792977
 20
156.5506774798
 30
0.0
 11
79.1696792977
 21
157.3006774798
 31
0.0
 12
79.1696792977
 22
155.8006774798
 32
0.0
 13
79.1696792977
 23
155.8006774798
 33
0.0
  0
LINE
  5
AA
330
A5
100
AcDbEntity
  8
0
  6
Continuous
 62
     7
370
     0
100
AcDbLine
 10
65.1696792977
 20
138.2506774798
 30
0.0
 11
65.1696792977
 21
157.5506774798
 31
0.0
  0
LINE
  5
AB
330
A5
100
AcDbEntity
  8
0
  6
Continuous
 62
     7
370
     0
100
AcDbLine
 10
81.1696792977
 20
138.2506774798
 30
0.0
 11
81.1696792977
 21
157.5506774798
 31
0.0
  0
LINE
  5
AC
330
A5
100
AcDbEntity
  8
0
  6
Continuous
 62
     7
370
     0
100
AcDbLine
 10
65.1696792977
 20
156.5506774798
 30
0.0
 11
81.1696792977
 21
156.5506774798
 31
0.0
  0
MTEXT
  5
AD
330
A5
100
AcDbEntity
  8
0
  6
Continuous
 62
     7
370
     0
100
AcDbMText
 10
68.3740545986
 20
161.062414569
 30
21.85
 40
3.5
 41
0.0
 71
     1
 72
     1
  1
%%c
  7
SLDTEXTSTYLE1
 73
     1
 44
1.0
  0
MTEXT
  5
AE
330
A5
100
AcDbEntity
  8
0
  6
Continuous
 62
     7
370
     0
100
AcDbMText
 10
73.6524919969
 20
161.1158867457
 30
21.85
 40
3.5
 41
0.0
 71
     1
 72
     1
  1
16
  7
SLDTEXTSTYLE1
 73
     1
 44
1.0
  0
ENDBLK
  5
A7
330
A5
100
AcDbEntity
  8
0
100
AcDbBlockEnd
  0
BLOCK
  5
B3
330
B2
100
AcDbEntity
  8
0
100
AcDbBlockBegin
  2
SW_CENTERMARKSYMBOL_0
 70
     0
 10
0.0
 20
0.0
 30
0.0
  3
SW_CENTERMARKSYMBOL_0
  1

  0
LINE
  5
B5
330
B2
100
AcDbEntity
  8
0
  6
Continuous
 62
     0
370
     0
100
AcDbLine
 10
0.0
 20
0.0
 30
0.0
 11
0.0
 21
2.5
 31
0.0
  0
LINE
  5
B6
330
B2
100
AcDbEntity
  8
0
  6
Continuous
 62
     0
370
     0
100
AcDbLine
 10
0.0
 20
0.0
 30
0.0
 11
-2.5
 21
0.0
 31
0.0
  0
LINE
  5
B7
330
B2
100
AcDbEntity
  8
0
  6
Continuous
 62
     0
370
     0
100
AcDbLine
 10
0.0
 20
0.0
 30
0.0
 11
0.0
 21
-2.5
 31
0.0
  0
LINE
  5
B8
330
B2
100
AcDbEntity
  8
0
  6
Continuous
 62
     0
370
     0
100
AcDbLine
 10
0.0
 20
0.0
 30
0.0
 11
2.5
 21
0.0
 31
0.0
  0
LINE
  5
B9
330
B2
100
AcDbEntity
  8
0
  6
Continuous
 62
     0
370
     0
100
AcDbLine
 10
0.0
 20
5.0
 30
0.0
 11
0.0
 21
10.5
 31
0.0
  0
LINE
  5
BA
330
B2
100
AcDbEntity
  8
0
  6
Continuous
 62
     0
370
     0
100
AcDbLine
 10
-5.0
 20
0.0
 30
0.0
 11
-10.5
 21
0.0
 31
0.0
  0
LINE
  5
BB
330
B2
100
AcDbEntity
  8
0
  6
Continuous
 62
     0
370
     0
100
AcDbLine
 10
0.0
 20
-5.0
 30
0.0
 11
0.0
 21
-10.5
 31
0.0
  0
LINE
  5
BC
330
B2
100
AcDbEntity
  8
0
  6
Continuous
 62
     0
370
     0
100
AcDbLine
 10
5.0
 20
0.0
 30
0.0
 11
10.5
 21
0.0
 31
0.0
  0
ENDBLK
  5
B4
330
B2
100
AcDbEntity
  8
0
100
AcDbBlockEnd
  0
BLOCK
  5
156
330
155
100
AcDbEntity
  8
0
100
AcDbBlockBegin
  2
_D_3
 70
     0
 10
0.0
 20
0.0
 30
0.0
  3
_D_3
  1

  0
SOLID
  5
158
330
155
100
AcDbEntity
  8
0
  6
Continuous
 62
     7
370
     0
100
AcDbTrace
 10
110.6470587433
 20
140.7506774798
 30
0.0
 11
111.3970587433
 21
142.7506774798
 31
0.0
 12
109.8970587433
 22
142.7506774798
 32
0.0
 13
109.8970587433
 23
142.7506774798
 33
0.0
  0
SOLID
  5
159
330
155
100
AcDbEntity
  8
0
  6
Continuous
 62
     7
370
     0
100
AcDbTrace
 10
110.6470587433
 20
133.7506774798
 30
0.0
 11
109.8970587433
 21
131.7506774798
 31
0.0
 12
111.3970587433
 22
131.7506774798
 32
0.0
 13
111.3970587433
 23
131.7506774798
 33
0.0
  0
LINE
  5
15A
330
155
100
AcDbEntity
  8
0
  6
Continuous
 62
     7
370
     0
100
AcDbLine
 10
119.6470587433
 20
140.7506774798
 30
0.0
 11
109.6470587433
 21
140.7506774798
 31
0.0
  0
LINE
  5
15B
330
155
100
AcDbEntity
  8
0
  6
Continuous
 62
     7
370
     0
100
AcDbLine
 10
119.6470587433
 20
133.7506774798
 30
0.0
 11
109.6470587433
 21
133.7506774798
 31
0.0
  0
LINE
  5
15C
330
155
100
AcDbEntity
  8
0
  6
Continuous
 62
     7
370
     0
100
AcDbLine
 10
110.6470587433
 20
140.7506774798
 30
0.0
 11
110.6470587433
 21
145.7506774798
 31
0.0
  0
LINE
  5
15D
330
155
100
AcDbEntity
  8
0
  6
Continuous
 62
     7
370
     0
100
AcDbLine
 10
110.6470587433
 20
140.7506774798
 30
0.0
 11
110.6470587433
 21
133.7506774798
 31
0.0
  0
LINE
  5
15E
330
155
100
AcDbEntity
  8
0
  6
Continuous
 62
     7
370
     0
100
AcDbLine
 10
110.6470587433
 20
133.7506774798
 30
0.0
 11
110.6470587433
 21
128.7506774798
 31
0.0
  0
MTEXT
  5
15F
330
155
100
AcDbEntity
  8
0
  6
Continuous
 62
     7
370
     0
100
AcDbMText
 10
106.1353216541
 20
132.8071692224
 30
0.1
 40
3.5
 41
0.0
 71
     1
 72
     1
  1
%%c
  7
SLDTEXTSTYLE1
 11
-7.044195017643634E-15
 21
1.0
 31
0.0
 73
     1
 44
1.0
  0
MTEXT
  5
160
330
155
100
AcDbEntity
  8
0
  6
Continuous
 62
     7
370
     0
100
AcDbMText
 10
106.0818494775
 20
138.0856066208
 30
0.1
 40
3.5
 41
0.0
 71
     1
 72
     1
  1
7
  7
SLDTEXTSTYLE1
 11
-7.044195017643634E-15
 21
1.0
 31
0.0
 73
     1
 44
1.0
  0
ENDBLK
  5
157
330
155
100
AcDbEntity
  8
0
100
AcDbBlockEnd
  0
BLOCK
  5
163
330
162
100
AcDbEntity
  8
0
100
AcDbBlockBegin
  2
_D_4
 70
     0
 10
0.0
 20
0.0
 30
0.0
  3
_D_4
  1

  0
SOLID
  5
165
330
162
100
AcDbEntity
  8
0
  6
Continuous
 62
     7
370
     0
100
AcDbTrace
 10
120.6470587433
 20
152.8800388547
 30
0.0
 11
118.6470587433
 21
153.6300388547
 31
0.0
 12
118.6470587433
 22
152.1300388547
 32
0.0
 13
118.6470587433
 23
152.1300388547
 33
0.0
  0
SOLID
  5
166
330
162
100
AcDbEntity
  8
0
  6
Continuous
 62
     7
370
     0
100
AcDbTrace
 10
126.1470587433
 20
152.8800388547
 30
0.0
 11
128.1470587433
 21
152.1300388547
 31
0.0
 12
128.1470587433
 22
153.6300388547
 32
0.0
 13
128.1470587433
 23
153.6300388547
 33
0.0
  0
LINE
  5
167
330
162
100
AcDbEntity
  8
0
  6
Continuous
 62
     7
370
     0
100
AcDbLine
 10
120.6470587433
 20
141.7506774798
 30
0.0
 11
120.6470587433
 21
153.8800388547
 31
0.0
  0
LINE
  5
168
330
162
100
AcDbEntity
  8
0
  6
Continuous
 62
     7
370
     0
100
AcDbLine
 10
126.1470587433
 20
144.2506774798
 30
0.0
 11
126.1470587433
 21
153.8800388547
 31
0.0
  0
LINE
  5
169
330
162
100
AcDbEntity
  8
0
  6
Continuous
 62
     7
370
     0
100
AcDbLine
 10
120.6470587433
 20
152.8800388547
 30
0.0
 11
109.8492016139
 21
152.8800388547
 31
0.0
  0
LINE
  5
16A
330
162
100
AcDbEntity
  8
0
  6
Continuous
 62
     7
370
     0
100
AcDbLine
 10
120.6470587433
 20
152.8800388547
 30
0.0
 11
126.1470587433
 21
152.8800388547
 31
0.0
  0
LINE
  5
16B
330
162
100
AcDbEntity
  8
0
  6
Continuous
 62
     7
370
     0
100
AcDbLine
 10
126.1470587433
 20
152.8800388547
 30
0.0
 11
131.1470587433
 21
152.8800388547
 31
0.0
  0
MTEXT
  5
16C
330
162
100
AcDbEntity
  8
0
  6
Continuous
 62
     7
370
     0
100
AcDbMText
 10
109.8492016139
 20
157.3917757693
 30
0.1
 40
3.5
 41
0.0
 71
     1
 72
     1
  1
5.5
  7
SLDTEXTSTYLE1
 73
     1
 44
1.0
  0
ENDBLK
  5
164
330
162
100
AcDbEntity
  8
0
100
AcDbBlockEnd
  0
BLOCK
  5
16F
330
16E
100
AcDbEntity
  8
0
100
AcDbBlockBegin
  2
_D_5
 70
     0
 10
0.0
 20
0.0
 30
0.0
  3
_D_5
  1

  0
SOLID
  5
171
330
16E
100
AcDbEntity
  8
0
  6
Continuous
 62
     7
370
     0
100
AcDbTrace
 10
135.1470587433
 20
152.8800388547
 30
0.0
 11
133.1470587433
 21
153.6300388547
 31
0.0
 12
133.1470587433
 22
152.1300388547
 32
0.0
 13
133.1470587433
 23
152.1300388547
 33
0.0
  0
SOLID
  5
172
330
16E
100
AcDbEntity
  8
0
  6
Continuous
 62
     7
370
     0
100
AcDbTrace
 10
140.1470587433
 20
152.8800388547
 30
0.0
 11
142.1470587433
 21
152.1300388547
 31
0.0
 12
142.1470587433
 22
153.6300388547
 32
0.0
 13
142.1470587433
 23
153.6300388547
 33
0.0
  0
LINE
  5
173
330
16E
100
AcDbEntity
  8
0
  6
Continuous
 62
     7
370
     0
100
AcDbLine
 10
135.1470587433
 20
142.0006774798
 30
0.0
 11
135.1470587433
 21
153.8800388547
 31
0.0
  0
LINE
  5
174
330
16E
100
AcDbEntity
  8
0
  6
Continuous
 62
     7
370
     0
100
AcDbLine
 10
140.1470587433
 20
141.7006774798
 30
0.0
 11
140.1470587433
 21
153.8800388547
 31
0.0
  0
LINE
  5
175
330
16E
100
AcDbEntity
  8
0
  6
Continuous
 62
     7
370
     0
100
AcDbLine
 10
135.1470587433
 20
152.8800388547
 30
0.0
 11
130.1470587433
 21
152.8800388547
 31
0.0
  0
LINE
  5
176
330
16E
100
AcDbEntity
  8
0
  6
Continuous
 62
     7
370
     0
100
AcDbLine
 10
135.1470587433
 20
152.8800388547
 30
0.0
 11
140.1470587433
 21
152.8800388547
 31
0.0
  0
LINE
  5
177
330
16E
100
AcDbEntity
  8
0
  6
Continuous
 62
     7
370
     0
100
AcDbLine
 10
140.1470587433
 20
152.8800388547
 30
0.0
 11
151.3199581546
 21
152.8800388547
 31
0.0
  0
MTEXT
  5
178
330
16E
100
AcDbEntity
  8
0
  6
Continuous
 62
     7
370
     0
100
AcDbMText
 10
145.3407913228
 20
157.3917757693
 30
0.1
 40
3.5
 41
0.0
 71
     1
 72
     1
  1
5
  7
SLDTEXTSTYLE1
 73
     1
 44
1.0
  0
MTEXT
  5
179
330
16E
100
AcDbEntity
  8
0
  6
Continuous
 62
     7
370
     0
100
AcDbMText
 10
147.9269025163
 20
157.3917757693
 30
0.1
 40
3.5
 41
0.0
 71
     1
 72
     1
  1
st
  7
SLDTEXTSTYLE1
 73
     1
 44
1.0
  0
ENDBLK
  5
170
330
16E
100
AcDbEntity
  8
0
100
AcDbBlockEnd
  0
BLOCK
  5
17C
330
17B
100
AcDbEntity
  8
0
100
AcDbBlockBegin
  2
_D_6
 70
     0
 10
0.0
 20
0.0
 30
0.0
  3
_D_6
  1

  0
SOLID
  5
17E
330
17B
100
AcDbEntity
  8
0
  6
Continuous
 62
     7
370
     0
100
AcDbTrace
 10
120.6470587433
 20
164.4688002088
 30
0.0
 11
122.6470587433
 21
163.7188002088
 31
0.0
 12
122.6470587433
 22
165.2188002088
 32
0.0
 13
122.6470587433
 23
165.2188002088
 33
0.0
  0
SOLID
  5
17F
330
17B
100
AcDbEntity
  8
0
  6
Continuous
 62
     7
370
     0
100
AcDbTrace
 10
164.1470587433
 20
164.4688002088
 30
0.0
 11
162.1470587433
 21
165.2188002088
 31
0.0
 12
162.1470587433
 22
163.7188002088
 32
0.0
 13
162.1470587433
 23
163.7188002088
 33
0.0
  0
LINE
  5
180
330
17B
100
AcDbEntity
  8
0
  6
Continuous
 62
     7
370
     0
100
AcDbLine
 10
120.6470587433
 20
141.7506774798
 30
0.0
 11
120.6470587433
 21
165.4688002088
 31
0.0
  0
LINE
  5
181
330
17B
100
AcDbEntity
  8
0
  6
Continuous
 62
     7
370
     0
100
AcDbLine
 10
164.1470587433
 20
140.2506774798
 30
0.0
 11
164.1470587433
 21
165.4688002088
 31
0.0
  0
LINE
  5
182
330
17B
100
AcDbEntity
  8
0
  6
Continuous
 62
     7
370
     0
100
AcDbLine
 10
120.6470587433
 20
164.4688002088
 30
0.0
 11
164.1470587433
 21
164.4688002088
 31
0.0
  0
MTEXT
  5
183
330
17B
100
AcDbEntity
  8
0
  6
Continuous
 62
     7
370
     0
100
AcDbMText
 10
137.9407151886
 20
168.9805371234
 30
0.1
 40
3.5
 41
0.0
 71
     1
 72
     1
  1
43.5
  7
SLDTEXTSTYLE1
 73
     1
 44
1.0
  0
ENDBLK
  5
17D
330
17B
100
AcDbEntity
  8
0
100
AcDbBlockEnd
  0
BLOCK
  5
186
330
185
100
AcDbEntity
  8
0
100
AcDbBlockBegin
  2
_D_7
 70
     0
 10
0.0
 20
0.0
 30
0.0
  3
_D_7
  1

  0
SOLID
  5
188
330
185
100
AcDbEntity
  8
0
  6
Continuous
 62
     7
370
     0
100
AcDbTrace
 10
172.2893781004
 20
139.7506774798
 30
0.0
 11
173.0393781004
 21
141.7506774798
 31
0.0
 12
171.5393781004
 22
141.7506774798
 32
0.0
 13
171.5393781004
 23
141.7506774798
 33
0.0
  0
SOLID
  5
189
330
185
100
AcDbEntity
  8
0
  6
Continuous
 62
     7
370
     0
100
AcDbTrace
 10
172.2893781004
 20
134.7506774798
 30
0.0
 11
171.5393781004
 21
132.7506774798
 31
0.0
 12
173.0393781004
 22
132.7506774798
 32
0.0
 13
173.0393781004
 23
132.7506774798
 33
0.0
  0
LINE
  5
18A
330
185
100
AcDbEntity
  8
0
  6
Continuous
 62
     7
370
     0
100
AcDbLine
 10
164.6470587433
 20
139.7506774798
 30
0.0
 11
173.2893781004
 21
139.7506774798
 31
0.0
  0
LINE
  5
18B
330
185
100
AcDbEntity
  8
0
  6
Continuous
 62
     7
370
     0
100
AcDbLine
 10
164.6470587433
 20
134.7506774798
 30
0.0
 11
173.2893781004
 21
134.7506774798
 31
0.0
  0
LINE
  5
18C
330
185
100
AcDbEntity
  8
0
  6
Continuous
 62
     7
370
     0
100
AcDbLine
 10
172.2893781004
 20
139.7506774798
 30
0.0
 11
172.2893781004
 21
151.4131075964
 31
0.0
  0
LINE
  5
18D
330
185
100
AcDbEntity
  8
0
  6
Continuous
 62
     7
370
     0
100
AcDbLine
 10
172.2893781004
 20
139.7506774798
 30
0.0
 11
172.2893781004
 21
134.7506774798
 31
0.0
  0
LINE
  5
18E
330
185
100
AcDbEntity
  8
0
  6
Continuous
 62
     7
370
     0
100
AcDbLine
 10
172.2893781004
 20
134.7506774798
 30
0.0
 11
172.2893781004
 21
129.7506774798
 31
0.0
  0
MTEXT
  5
18F
330
185
100
AcDbEntity
  8
0
  6
Continuous
 62
     7
370
     0
100
AcDbMText
 10
167.7776410112
 20
143.5485587716
 30
0.1
 40
3.5
 41
0.0
 71
     1
 72
     1
  1
%%c
  7
SLDTEXTSTYLE1
 11
-7.044195017643634E-15
 21
1.0
 31
0.0
 73
     1
 44
1.0
  0
MTEXT
  5
190
330
185
100
AcDbEntity
  8
0
  6
Continuous
 62
     7
370
     0
100
AcDbMText
 10
167.7241688346
 20
148.82699617
 30
0.1
 40
3.5
 41
0.0
 71
     1
 72
     1
  1
5
  7
SLDTEXTSTYLE1
 11
-7.044195017643634E-15
 21
1.0
 31
0.0
 73
     1
 44
1.0
  0
ENDBLK
  5
187
330
185
100
AcDbEntity
  8
0
100
AcDbBlockEnd
  0
BLOCK
  5
193
330
192
100
AcDbEntity
  8
0
100
AcDbBlockBegin
  2
_D_8
 70
     0
 10
0.0
 20
0.0
 30
0.0
  3
_D_8
  1

  0
SOLID
  5
195
330
192
100
AcDbEntity
  8
0
  6
Continuous
 62
     7
370
     0
100
AcDbTrace
 10
184.5934677225
 20
143.2506774798
 30
0.0
 11
185.3434677225
 21
145.2506774798
 31
0.0
 12
183.8434677225
 22
145.2506774798
 32
0.0
 13
183.8434677225
 23
145.2506774798
 33
0.0
  0
SOLID
  5
196
330
192
100
AcDbEntity
  8
0
  6
Continuous
 62
     7
370
     0
100
AcDbTrace
 10
184.5934677225
 20
131.2506774798
 30
0.0
 11
183.8434677225
 21
129.2506774798
 31
0.0
 12
185.3434677225
 22
129.2506774798
 32
0.0
 13
185.3434677225
 23
129.2506774798
 33
0.0
  0
LINE
  5
197
330
192
100
AcDbEntity
  8
0
  6
Continuous
 62
     7
370
     0
100
AcDbLine
 10
162.8470587433
 20
143.2506774798
 30
0.0
 11
185.5934677225
 21
143.2506774798
 31
0.0
  0
LINE
  5
198
330
192
100
AcDbEntity
  8
0
  6
Continuous
 62
     7
370
     0
100
AcDbLine
 10
162.8470587433
 20
131.2506774798
 30
0.0
 11
185.5934677225
 21
131.2506774798
 31
0.0
  0
LINE
  5
199
330
192
100
AcDbEntity
  8
0
  6
Continuous
 62
     7
370
     0
100
AcDbLine
 10
184.5934677225
 20
143.2506774798
 30
0.0
 11
184.5934677225
 21
148.2506774798
 31
0.0
  0
LINE
  5
19A
330
192
100
AcDbEntity
  8
0
  6
Continuous
 62
     7
370
     0
100
AcDbLine
 10
184.5934677225
 20
143.2506774798
 30
0.0
 11
184.5934677225
 21
131.2506774798
 31
0.0
  0
LINE
  5
19B
330
192
100
AcDbEntity
  8
0
  6
Continuous
 62
     7
370
     0
100
AcDbLine
 10
184.5934677225
 20
131.2506774798
 30
0.0
 11
184.5934677225
 21
126.2506774798
 31
0.0
  0
MTEXT
  5
19C
330
192
100
AcDbEntity
  8
0
  6
Continuous
 62
     7
370
     0
100
AcDbMText
 10
180.0817306333
 20
131.1806362284
 30
0.1
 40
3.5
 41
0.0
 71
     1
 72
     1
  1
%%c
  7
SLDTEXTSTYLE1
 11
-7.044195017643634E-15
 21
1.0
 31
0.0
 73
     1
 44
1.0
  0
MTEXT
  5
19D
330
192
100
AcDbEntity
  8
0
  6
Continuous
 62
     7
370
     0
100
AcDbMText
 10
180.0282584567
 20
136.4590736268
 30
0.1
 40
3.5
 41
0.0
 71
     1
 72
     1
  1
12
  7
SLDTEXTSTYLE1
 11
-7.044195017643634E-15
 21
1.0
 31
0.0
 73
     1
 44
1.0
  0
ENDBLK
  5
194
330
192
100
AcDbEntity
  8
0
100
AcDbBlockEnd
  0
BLOCK
  5
1A0
330
19F
100
AcDbEntity
  8
0
100
AcDbBlockBegin
  2
_D_9
 70
     0
 10
0.0
 20
0.0
 30
0.0
  3
_D_9
  1

  0
SOLID
  5
1A2
330
19F
100
AcDbEntity
  8
0
  6
Continuous
 62
     7
370
     0
100
AcDbTrace
 10
144.1470587433
 20
112.8853003143
 30
0.0
 11
146.1470587433
 21
112.1353003143
 31
0.0
 12
146.1470587433
 22
113.6353003143
 32
0.0
 13
146.1470587433
 23
113.6353003143
 33
0.0
  0
SOLID
  5
1A3
330
19F
100
AcDbEntity
  8
0
  6
Continuous
 62
     7
370
     0
100
AcDbTrace
 10
162.1470587433
 20
112.8853003143
 30
0.0
 11
160.1470587433
 21
113.6353003143
 31
0.0
 12
160.1470587433
 22
112.1353003143
 32
0.0
 13
160.1470587433
 23
112.1353003143
 33
0.0
  0
LINE
  5
1A4
330
19F
100
AcDbEntity
  8
0
  6
Continuous
 62
     7
370
     0
100
AcDbLine
 10
144.1470587433
 20
128.5506774798
 30
0.0
 11
144.1470587433
 21
111.8853003143
 31
0.0
  0
LINE
  5
1A5
330
19F
100
AcDbEntity
  8
0
  6
Continuous
 62
     7
370
     0
100
AcDbLine
 10
162.1470587433
 20
130.5506774798
 30
0.0
 11
162.1470587433
 21
111.8853003143
 31
0.0
  0
LINE
  5
1A6
330
19F
100
AcDbEntity
  8
0
  6
Continuous
 62
     7
370
     0
100
AcDbLine
 10
144.1470587433
 20
112.8853003143
 30
0.0
 11
162.1470587433
 21
112.8853003143
 31
0.0
  0
MTEXT
  5
1A7
330
19F
100
AcDbEntity
  8
0
  6
Continuous
 62
     7
370
     0
100
AcDbMText
 10
150.1554209507
 20
117.3970372289
 30
0.1
 40
3.5
 41
0.0
 71
     1
 72
     1
  1
18
  7
SLDTEXTSTYLE1
 73
     1
 44
1.0
  0
ENDBLK
  5
1A1
330
19F
100
AcDbEntity
  8
0
100
AcDbBlockEnd
  0
ENDSEC
  0
SECTION
  2
ENTITIES
  0
LINE
  5
44
330
1F
100
AcDbEntity
  8
0
  6
Continuous
 62
     7
370
     0
100
AcDbLine
 10
20.2604743903
 20
285.0
 30
0.0
 11
196.7604743903
 21
285.0
 31
0.0
  0
LINE
  5
45
330
1F
100
AcDbEntity
  8
0
  6
Continuous
 62
     7
370
     0
100
AcDbLine
 10
20.2604743903
 20
285.0
 30
0.0
 11
20.2604743903
 21
10.0
 31
0.0
  0
LINE
  5
46
330
1F
100
AcDbEntity
  8
0
  6
Continuous
 62
     7
370
     0
100
AcDbLine
 10
20.2604743903
 20
10.0
 30
0.0
 11
196.7604743903
 21
10.0
 31
0.0
  0
LINE
  5
47
330
1F
100
AcDbEntity
  8
0
  6
Continuous
 62
     7
370
     0
100
AcDbLine
 10
196.7604743903
 20
285.0
 30
0.0
 11
196.7604743903
 21
10.0
 31
0.0
  0
LINE
  5
48
330
1F
100
AcDbEntity
  8
0
  6
Continuous
 62
     7
370
     0
100
AcDbLine
 10
127.0104743903
 20
50.75
 30
0.0
 11
196.7604743903
 21
50.75
 31
0.0
  0
LINE
  5
49
330
1F
100
AcDbEntity
  8
0
  6
Continuous
 62
     7
370
     0
100
AcDbLine
 10
127.0104743903
 20
50.75
 30
0.0
 11
127.0104743903
 21
10.0
 31
0.0
  0
LINE
  5
4A
330
1F
100
AcDbEntity
  8
0
  6
Continuous
 62
     7
370
     0
100
AcDbLine
 10
127.0104743903
 20
22.75
 30
0.0
 11
196.7604743903
 21
22.75
 31
0.0
  0
LINE
  5
4B
330
1F
100
AcDbEntity
  8
0
  6
Continuous
 62
     7
370
     0
100
AcDbLine
 10
127.0104743903
 20
36.75
 30
0.0
 11
196.7604743903
 21
36.75
 31
0.0
  0
MTEXT
  5
4D
330
1F
100
AcDbEntity
  8
0
  6
Continuous
 62
     7
370
     0
100
AcDbMText
 10
161.1554161448
 20
30.4171582345
 30
0.0
 40
4.2333333333
 41
0.0
 71
     2
 72
     1
  1
VFIL2-SS-5-P12
  7
SLDTEXTSTYLE0
 73
     1
 44
1.0
  0
MTEXT
  5
4E
330
1F
100
AcDbEntity
  8
0
  6
Continuous
 62
     7
370
     0
100
AcDbMText
 10
161.3686533351
 20
43.9409718514
 30
0.0
 40
4.2333333333
 41
0.0
 71
     2
 72
     1
  1
吸着金具・ミニ用
  7
SLDTEXTSTYLE0
 73
     1
 44
1.0
  0
MTEXT
  5
4F
330
1F
100
AcDbEntity
  8
0
  6
Continuous
 62
     7
370
     0
100
AcDbMText
 10
162.7176865735
 20
16.8228189052
 30
0.0
 40
4.2333333333
 41
0.0
 71
     2
 72
     1
  1
211031
  7
SLDTEXTSTYLE0
 73
     1
 44
1.0
  0
LINE
  5
50
330
1F
100
AcDbEntity
  8
0
  6
Continuous
 62
     7
370
    15
100
AcDbLine
 10
70.8196793316
 20
125.4506770357
 30
0.0
 11
71.1696792027
 21
122.9506775573
 31
0.0
  0
LINE
  5
51
330
1F
100
AcDbEntity
  8
0
  6
Continuous
 62
     7
370
    15
100
AcDbLine
 10
75.1696793926
 20
122.9506775573
 30
0.0
 11
75.5196792638
 21
125.4506770357
 31
0.0
  0
LINE
  5
52
330
1F
100
AcDbEntity
  8
0
  6
Continuous
 62
     7
370
    15
100
AcDbLine
 10
70.8196793316
 20
122.9506775573
 30
0.0
 11
71.1696792027
 21
120.4506780788
 31
0.0
  0
LINE
  5
53
330
1F
100
AcDbEntity
  8
0
  6
Continuous
 62
     7
370
    15
100
AcDbLine
 10
75.1696793926
 20
120.4506780788
 30
0.0
 11
75.5196792638
 21
122.9506775573
 31
0.0
  0
LINE
  5
54
330
1F
100
AcDbEntity
  8
0
  6
Continuous
 62
     7
370
    15
100
AcDbLine
 10
75.2696792228
 20
125.4506770357
 30
0.0
 11
75.2696792228
 21
127.9506774455
 31
0.0
  0
LINE
  5
55
330
1F
100
AcDbEntity
  8
0
  6
Continuous
 62
     7
370
    15
100
AcDbLine
 10
71.0696793725
 20
127.9506774455
 30
0.0
 11
71.0696793725
 21
125.4506770357
 31
0.0
  0
LINE
  5
56
330
1F
100
AcDbEntity
  8
0
  6
Continuous
 62
     7
370
    15
100
AcDbLine
 10
69.1696791077
 20
144.0506775699
 30
0.0
 11
69.1696791077
 21
143.2506775319
 31
0.0
  0
LINE
  5
57
330
1F
100
AcDbEntity
  8
0
  6
Continuous
 62
     7
370
    15
100
AcDbLine
 10
77.1696794876
 20
143.2506775319
 30
0.0
 11
77.1696794876
 21
144.0506775699
 31
0.0
  0
LINE
  5
58
330
1F
100
AcDbEntity
  8
0
  6
Continuous
 62
     7
370
    15
100
AcDbLine
 10
69.1696791077
 20
131.2506774276
 30
0.0
 11
69.1696791077
 21
130.4506773896
 31
0.0
  0
LINE
  5
59
330
1F
100
AcDbEntity
  8
0
  6
Continuous
 62
     7
370
    15
100
AcDbLine
 10
77.1696794876
 20
130.4506773896
 30
0.0
 11
77.1696794876
 21
131.2506774276
 31
0.0
  0
ARC
  5
5A
330
1F
100
AcDbEntity
  8
0
  6
Continuous
 62
     7
370
    15
100
AcDbCircle
 10
73.1696792977
 20
137.2506774798
 30
0.0
 40
8.000000000000012
100
AcDbArc
 50
120.4143653546
 51
239.5856346455
  0
ARC
  5
5B
330
1F
100
AcDbEntity
  8
0
  6
Continuous
 62
     7
370
    15
100
AcDbCircle
 10
73.1696792977
 20
137.2506774798
 30
0.0
 40
7.999999999999992
100
AcDbArc
 50
300.4143653546
 51
59.5856346455
  0
ARC
  5
5C
330
1F
100
AcDbEntity
  8
0
  6
Continuous
 62
     7
370
    15
100
AcDbCircle
 10
73.1696792977
 20
137.2506774798
 30
0.0
 40
7.700000000000004
100
AcDbArc
 50
121.2974122203
 51
238.7025877797
  0
ARC
  5
5D
330
1F
100
AcDbEntity
  8
0
  6
Continuous
 62
     7
370
    15
100
AcDbCircle
 10
73.1696792977
 20
137.2506774798
 30
0.0
 40
7.700000000000012
100
AcDbArc
 50
301.2974122203
 51
58.7025877797
  0
LINE
  5
5E
330
1F
100
AcDbEntity
  8
0
  6
Continuous
 62
     7
370
    15
100
AcDbLine
 10
75.1946793502
 20
127.9506774455
 30
0.0
 11
75.1946793502
 21
130.4506773896
 31
0.0
  0
LINE
  5
5F
330
1F
100
AcDbEntity
  8
0
  6
Continuous
 62
     7
370
    15
100
AcDbLine
 10
71.1446792451
 20
127.9506774455
 30
0.0
 11
75.1946793502
 21
127.9506774455
 31
0.0
  0
LINE
  5
60
330
1F
100
AcDbEntity
  8
0
  6
Continuous
 62
     7
370
    15
100
AcDbLine
 10
71.1446792451
 20
127.9506774455
 30
0.0
 11
71.1446792451
 21
130.4506773896
 31
0.0
  0
LINE
  5
61
330
1F
100
AcDbEntity
  8
0
  6
Continuous
 62
     7
370
    15
100
AcDbLine
 10
71.1446792451
 20
130.4506773896
 30
0.0
 11
71.2466283334
 21
130.4506773896
 31
0.0
  0
LINE
  5
62
330
1F
100
AcDbEntity
  8
0
  6
Continuous
 62
     7
370
    15
100
AcDbLine
 10
75.0927302619
 20
130.4506773896
 30
0.0
 11
75.1946793502
 21
130.4506773896
 31
0.0
  0
LINE
  5
63
330
1F
100
AcDbEntity
  8
0
  6
Continuous
 62
     7
370
    15
100
AcDbLine
 10
69.1196791926
 20
130.4506773896
 30
0.0
 11
69.1196791926
 21
127.9506774455
 31
0.0
  0
LINE
  5
64
330
1F
100
AcDbEntity
  8
0
  6
Continuous
 62
     7
370
    15
100
AcDbLine
 10
69.1196791926
 20
130.4506773896
 30
0.0
 11
69.1706537367
 21
130.4506773896
 31
0.0
  0
LINE
  5
65
330
1F
100
AcDbEntity
  8
0
  6
Continuous
 62
     7
370
    15
100
AcDbLine
 10
71.093704701
 20
130.4506773896
 30
0.0
 11
71.1446792451
 21
130.4506773896
 31
0.0
  0
LINE
  5
66
330
1F
100
AcDbEntity
  8
0
  6
Continuous
 62
     7
370
    15
100
AcDbLine
 10
69.1196791926
 20
127.9506774455
 30
0.0
 11
71.1446792451
 21
127.9506774455
 31
0.0
  0
LINE
  5
67
330
1F
100
AcDbEntity
  8
0
  6
Continuous
 62
     7
370
    15
100
AcDbLine
 10
77.2196794027
 20
127.9506774455
 30
0.0
 11
77.2196794027
 21
130.4506773896
 31
0.0
  0
LINE
  5
68
330
1F
100
AcDbEntity
  8
0
  6
Continuous
 62
     7
370
    15
100
AcDbLine
 10
75.1946793502
 20
130.4506773896
 30
0.0
 11
75.2456538943
 21
130.4506773896
 31
0.0
  0
LINE
  5
69
330
1F
100
AcDbEntity
  8
0
  6
Continuous
 62
     7
370
    15
100
AcDbLine
 10
77.1687048586
 20
130.4506773896
 30
0.0
 11
77.2196794027
 21
130.4506773896
 31
0.0
  0
LINE
  5
6A
330
1F
100
AcDbEntity
  8
0
  6
Continuous
 62
     7
370
    15
100
AcDbLine
 10
75.1946793502
 20
127.9506774455
 30
0.0
 11
77.2196794027
 21
127.9506774455
 31
0.0
  0
LINE
  5
6B
330
1F
100
AcDbEntity
  8
0
  6
Continuous
 62
     7
370
    15
100
AcDbLine
 10
75.5196792638
 20
125.4506770357
 30
0.0
 11
70.8196793316
 21
125.4506770357
 31
0.0
  0
LINE
  5
6C
330
1F
100
AcDbEntity
  8
0
  6
Continuous
 62
     7
370
    15
100
AcDbLine
 10
75.1696793926
 20
120.4506780788
 30
0.0
 11
71.1696792027
 21
120.4506780788
 31
0.0
  0
LINE
  5
6D
330
1F
100
AcDbEntity
  8
0
  6
Continuous
 62
     7
370
    15
100
AcDbLine
 10
75.5196792638
 20
122.9506775573
 30
0.0
 11
70.8196793316
 21
122.9506775573
 31
0.0
  0
LINE
  5
6E
330
1F
100
AcDbEntity
  8
0
  6
Continuous
 62
     7
370
    15
100
AcDbLine
 10
71.1446792451
 20
144.0506775699
 30
0.0
 11
71.1446792451
 21
146.5506775141
 31
0.0
  0
LINE
  5
6F
330
1F
100
AcDbEntity
  8
0
  6
Continuous
 62
     7
370
    15
100
AcDbLine
 10
69.1196791926
 20
144.0506775699
 30
0.0
 11
69.1706537367
 21
144.0506775699
 31
0.0
  0
LINE
  5
70
330
1F
100
AcDbEntity
  8
0
  6
Continuous
 62
     7
370
    15
100
AcDbLine
 10
71.093704701
 20
144.0506775699
 30
0.0
 11
71.1446792451
 21
144.0506775699
 31
0.0
  0
LINE
  5
71
330
1F
100
AcDbEntity
  8
0
  6
Continuous
 62
     7
370
    15
100
AcDbLine
 10
69.1196791926
 20
144.0506775699
 30
0.0
 11
69.1196791926
 21
146.5506775141
 31
0.0
  0
LINE
  5
72
330
1F
100
AcDbEntity
  8
0
  6
Continuous
 62
     7
370
    15
100
AcDbLine
 10
69.1196791926
 20
146.5506775141
 30
0.0
 11
71.1446792451
 21
146.5506775141
 31
0.0
  0
LINE
  5
73
330
1F
100
AcDbEntity
  8
0
  6
Continuous
 62
     7
370
    15
100
AcDbLine
 10
75.1946793502
 20
144.0506775699
 30
0.0
 11
75.1946793502
 21
146.5506775141
 31
0.0
  0
LINE
  5
74
330
1F
100
AcDbEntity
  8
0
  6
Continuous
 62
     7
370
    15
100
AcDbLine
 10
71.1446792451
 20
144.0506775699
 30
0.0
 11
71.2466283334
 21
144.0506775699
 31
0.0
  0
LINE
  5
75
330
1F
100
AcDbEntity
  8
0
  6
Continuous
 62
     7
370
    15
100
AcDbLine
 10
75.0927302619
 20
144.0506775699
 30
0.0
 11
75.1946793502
 21
144.0506775699
 31
0.0
  0
LINE
  5
76
330
1F
100
AcDbEntity
  8
0
  6
Continuous
 62
     7
370
    15
100
AcDbLine
 10
71.1446792451
 20
146.5506775141
 30
0.0
 11
75.1946793502
 21
146.5506775141
 31
0.0
  0
LINE
  5
77
330
1F
100
AcDbEntity
  8
0
  6
Continuous
 62
     7
370
    15
100
AcDbLine
 10
77.2196794027
 20
144.0506775699
 30
0.0
 11
77.2196794027
 21
146.5506775141
 31
0.0
  0
LINE
  5
78
330
1F
100
AcDbEntity
  8
0
  6
Continuous
 62
     7
370
    15
100
AcDbLine
 10
75.1946793502
 20
144.0506775699
 30
0.0
 11
75.2456538943
 21
144.0506775699
 31
0.0
  0
LINE
  5
79
330
1F
100
AcDbEntity
  8
0
  6
Continuous
 62
     7
370
    15
100
AcDbLine
 10
77.1687048586
 20
144.0506775699
 30
0.0
 11
77.2196794027
 21
144.0506775699
 31
0.0
  0
LINE
  5
7A
330
1F
100
AcDbEntity
  8
0
  6
Continuous
 62
     7
370
    15
100
AcDbLine
 10
75.1946793502
 20
146.5506775141
 30
0.0
 11
77.2196794027
 21
146.5506775141
 31
0.0
  0
CIRCLE
  5
7B
330
1F
100
AcDbEntity
  8
0
  6
Continuous
 62
     7
370
    15
100
AcDbCircle
 10
73.1696792977
 20
137.2506774798
 30
0.0
 40
3.5
  0
CIRCLE
  5
7C
330
1F
100
AcDbEntity
  8
0
  6
Continuous
 62
     7
370
    15
100
AcDbCircle
 10
73.1696792977
 20
137.2506774798
 30
0.0
 40
1.250000000000014
  0
LINE
  5
7D
330
1F
100
AcDbEntity
  8
0
  6
Continuous
 62
     7
370
    15
100
AcDbLine
 10
66.2414761358
 20
137.2506774798
 30
0.0
 11
69.7055777168
 21
143.2506775319
 31
0.0
  0
LINE
  5
7E
330
1F
100
AcDbEntity
  8
0
  6
Continuous
 62
     7
370
    15
100
AcDbLine
 10
69.7055777168
 20
143.2506775319
 30
0.0
 11
76.6337808786
 21
143.2506775319
 31
0.0
  0
LINE
  5
7F
330
1F
100
AcDbEntity
  8
0
  6
Continuous
 62
     7
370
    15
100
AcDbLine
 10
76.6337808786
 20
143.2506775319
 30
0.0
 11
80.0978824595
 21
137.2506774798
 31
0.0
  0
LINE
  5
80
330
1F
100
AcDbEntity
  8
0
  6
Continuous
 62
     7
370
    15
100
AcDbLine
 10
80.0978824595
 20
137.2506774798
 30
0.0
 11
76.6337808786
 21
131.2506774276
 31
0.0
  0
LINE
  5
81
330
1F
100
AcDbEntity
  8
0
  6
Continuous
 62
     7
370
    15
100
AcDbLine
 10
76.6337808786
 20
131.2506774276
 30
0.0
 11
69.7055777168
 21
131.2506774276
 31
0.0
  0
LINE
  5
82
330
1F
100
AcDbEntity
  8
0
  6
Continuous
 62
     7
370
    15
100
AcDbLine
 10
69.7055777168
 20
131.2506774276
 30
0.0
 11
66.2414761358
 21
137.2506774798
 31
0.0
  0
LINE
  5
83
330
1F
100
AcDbEntity
  8
0
  6
Continuous
 62
     7
370
    15
100
AcDbLine
 10
77.1696794876
 20
143.2506775319
 30
0.0
 11
76.6337808786
 21
143.2506775319
 31
0.0
  0
LINE
  5
84
330
1F
100
AcDbEntity
  8
0
  6
Continuous
 62
     7
370
    15
100
AcDbLine
 10
69.7055777168
 20
143.2506775319
 30
0.0
 11
69.1696791077
 21
143.2506775319
 31
0.0
  0
LINE
  5
85
330
1F
100
AcDbEntity
  8
0
  6
Continuous
 62
     7
370
    15
100
AcDbLine
 10
77.1687048586
 20
144.0506775699
 30
0.0
 11
75.2456538943
 21
144.0506775699
 31
0.0
  0
LINE
  5
86
330
1F
100
AcDbEntity
  8
0
  6
Continuous
 62
     7
370
    15
100
AcDbLine
 10
75.0927302619
 20
144.0506775699
 30
0.0
 11
71.2466283334
 21
144.0506775699
 31
0.0
  0
LINE
  5
87
330
1F
100
AcDbEntity
  8
0
  6
Continuous
 62
     7
370
    15
100
AcDbLine
 10
71.093704701
 20
144.0506775699
 30
0.0
 11
69.1706537367
 21
144.0506775699
 31
0.0
  0
LINE
  5
88
330
1F
100
AcDbEntity
  8
0
  6
Continuous
 62
     7
370
    15
100
AcDbLine
 10
70.2046457776
 20
130.4506773896
 30
0.0
 11
69.1706537367
 21
130.4506773896
 31
0.0
  0
LINE
  5
89
330
1F
100
AcDbEntity
  8
0
  6
Continuous
 62
     7
370
    15
100
AcDbLine
 10
77.1687048586
 20
130.4506773896
 30
0.0
 11
75.2456538943
 21
130.4506773896
 31
0.0
  0
LINE
  5
8A
330
1F
100
AcDbEntity
  8
0
  6
Continuous
 62
     7
370
    15
100
AcDbLine
 10
75.0927302619
 20
130.4506773896
 30
0.0
 11
71.2466283334
 21
130.4506773896
 31
0.0
  0
LINE
  5
8B
330
1F
100
AcDbEntity
  8
0
  6
Continuous
 62
     7
370
    15
100
AcDbLine
 10
71.093704701
 20
130.4506773896
 30
0.0
 11
70.2046457776
 21
130.4506773896
 31
0.0
  0
LINE
  5
8C
330
1F
100
AcDbEntity
  8
0
  6
Continuous
 62
     7
370
    15
100
AcDbLine
 10
69.7055777168
 20
131.2506774276
 30
0.0
 11
69.1696791077
 21
131.2506774276
 31
0.0
  0
LINE
  5
8D
330
1F
100
AcDbEntity
  8
0
  6
Continuous
 62
     7
370
    15
100
AcDbLine
 10
77.1696794876
 20
131.2506774276
 30
0.0
 11
76.6337808786
 21
131.2506774276
 31
0.0
  0
DIMENSION
  5
8E
330
1F
100
AcDbEntity
  8
0
  6
Continuous
 62
     7
370
     0
100
AcDbDimension
  2
_D
 10
46.7115117594
 20
127.9506774798
 30
0.0
 11
46.7115117594
 21
136.9783057684
 31
0.0
 70
   160
  1
<>
 71
     2
 42
-1.0
  3
SLDDIMSTYLE0
100
AcDbAlignedDimension
 13
69.1196792977
 23
146.5506774798
 33
0.0
 14
69.1196792977
 24
127.9506774798
 34
0.0
 50
90.0
100
AcDbRotatedDimension
  0
DIMENSION
  5
9A
330
1F
100
AcDbEntity
  8
0
  6
Continuous
 62
     7
370
     0
100
AcDbDimension
  2
_D_1
 10
55.1696792977
 20
131.2506774798
 30
0.0
 11
55.1696792977
 21
137.2506774798
 31
0.0
 70
   160
  1
<>
 71
     2
 42
-1.0
  3
SLDDIMSTYLE0
100
AcDbAlignedDimension
 13
69.7055776825
 23
143.2506774798
 33
0.0
 14
69.7055776825
 24
131.2506774798
 34
0.0
 50
90.0
100
AcDbRotatedDimension
  0
DIMENSION
  5
A4
330
1F
100
AcDbEntity
  8
0
  6
Continuous
 62
     7
370
     0
100
AcDbDimension
  2
_D_2
 10
81.1696792977
 20
156.5506774798
 30
0.0
 11
73.5993847241
 21
156.5506774798
 31
0.0
 70
   160
  1
%%c<>
 71
     2
 42
-1.0
  3
SLDDIMSTYLE0
100
AcDbAlignedDimension
 13
65.1696792977
 23
137.2506774798
 33
0.0
 14
81.1696792977
 24
137.2506774798
 34
0.0
100
AcDbRotatedDimension
  0
MTEXT
  5
AF
330
1F
100
AcDbEntity
  8
0
  6
Continuous
 62
     7
370
     0
100
AcDbMText
 10
45.1649013722
 20
160.0367201466
 30
0.0
 40
3.5
 41
0.0
 71
     1
 72
     1
  1
Ｍ３
  7
SLDTEXTSTYLE1
 73
     1
 44
1.0
  0
LEADER
  5
B1
330
1F
100
AcDbEntity
  8
0
  6
Continuous
 62
     7
370
     0
100
AcDbLeader
  3
SLDDIMSTYLE1
 76
     3
 10
72.2148527568
 20
138.0574031313
 30
0.0
 10
53.602189781
 20
155.3832116788
 30
0.0
 10
45.0729927007
 20
155.3832116788
 30
0.0
  0
INSERT
  5
BD
330
1F
100
AcDbEntity
  8
0
  6
Continuous
 62
     7
370
     0
100
AcDbBlockReference
  2
SW_CENTERMARKSYMBOL_0
 10
73.1696792977
 20
137.2506774798
 30
0.0
  0
LINE
  5
BE
330
1F
100
AcDbEntity
  8
0
  6
Continuous
 62
     7
370
    15
100
AcDbLine
 10
143.8470584483
 20
145.2506778598
 30
0.0
 11
142.4470589639
 21
145.2506778598
 31
0.0
  0
LINE
  5
BF
330
1F
100
AcDbEntity
  8
0
  6
Continuous
 62
     7
370
    15
100
AcDbLine
 10
142.4470589639
 20
129.2506770998
 30
0.0
 11
143.8470584483
 21
129.2506770998
 31
0.0
  0
LINE
  5
C0
330
1F
100
AcDbEntity
  8
0
  6
Continuous
 62
     7
370
    15
100
AcDbLine
 10
143.8470584483
 20
129.2506770998
 30
0.0
 11
144.1470579387
 21
129.5506775215
 31
0.0
  0
LINE
  5
C1
330
1F
100
AcDbEntity
  8
0
  6
Continuous
 62
     7
370
    15
100
AcDbLine
 10
144.1470579387
 20
144.9506774381
 30
0.0
 11
143.8470584483
 21
145.2506778598
 31
0.0
  0
LINE
  5
C2
330
1F
100
AcDbEntity
  8
0
  6
Continuous
 62
     7
370
    15
100
AcDbLine
 10
142.4470589639
 20
145.2506778598
 30
0.0
 11
142.1470594735
 21
144.9506774381
 31
0.0
  0
LINE
  5
C3
330
1F
100
AcDbEntity
  8
0
  6
Continuous
 62
     7
370
    15
100
AcDbLine
 10
142.1470594735
 20
129.5506775215
 30
0.0
 11
142.4470589639
 21
129.2506770998
 31
0.0
  0
LINE
  5
C4
330
1F
100
AcDbEntity
  8
0
  6
Continuous
 62
     7
370
    15
100
AcDbLine
 10
161.8470595361
 20
131.2506774276
 30
0.0
 11
162.1470571638
 21
131.5506773837
 31
0.0
  0
LINE
  5
C5
330
1F
100
AcDbEntity
  8
0
  6
Continuous
 62
     7
370
    15
100
AcDbLine
 10
162.1470571638
 20
142.9506775759
 30
0.0
 11
161.8470595361
 21
143.2506775319
 31
0.0
  0
LINE
  5
C6
330
1F
100
AcDbEntity
  8
0
  6
Continuous
 62
     7
370
    15
100
AcDbLine
 10
161.8470595361
 20
143.2506775319
 30
0.0
 11
144.1470579387
 21
143.2506775319
 31
0.0
  0
LINE
  5
C7
330
1F
100
AcDbEntity
  8
0
  6
Continuous
 62
     7
370
    15
100
AcDbLine
 10
144.1470579387
 20
131.2506774276
 30
0.0
 11
161.8470595361
 21
131.2506774276
 31
0.0
  0
LINE
  5
C8
330
1F
100
AcDbEntity
  8
0
  6
Continuous
 62
     7
370
    15
100
AcDbLine
 10
142.1470594735
 20
141.000677396
 30
0.0
 11
141.8073893667
 21
141.000677396
 31
0.0
  0
LINE
  5
C9
330
1F
100
AcDbEntity
  8
0
  6
Continuous
 62
     7
370
    15
100
AcDbLine
 10
141.3061813594
 20
141.000677396
 30
0.0
 11
140.447058636
 21
141.000677396
 31
0.0
  0
LINE
  5
CA
330
1F
100
AcDbEntity
  8
0
  6
Continuous
 62
     7
370
    15
100
AcDbLine
 10
140.4956438721
 20
133.5006775636
 30
0.0
 11
142.1470594735
 21
133.5006775636
 31
0.0
  0
LINE
  5
CB
330
1F
100
AcDbEntity
  8
0
  6
Continuous
 62
     7
370
    15
100
AcDbLine
 10
140.447058636
 20
141.000677396
 30
0.0
 11
140.1470591456
 21
140.7006774399
 31
0.0
  0
LINE
  5
CC
330
1F
100
AcDbEntity
  8
0
  6
Continuous
 62
     7
370
    15
100
AcDbLine
 10
162.2470588566
 20
133.7506773718
 30
0.0
 11
162.8470578373
 21
133.7506773718
 31
0.0
  0
LINE
  5
CD
330
1F
100
AcDbEntity
  8
0
  6
Continuous
 62
     7
370
    15
100
AcDbLine
 10
162.8470578373
 20
139.8336084396
 30
0.0
 11
162.2470588566
 21
139.8336084396
 31
0.0
  0
LINE
  5
CE
330
1F
100
AcDbEntity
  8
0
  6
Continuous
 62
     7
370
    15
100
AcDbLine
 10
127.7970587046
 20
125.4506770357
 30
0.0
 11
128.1470585757
 21
122.9506775573
 31
0.0
  0
LINE
  5
CF
330
1F
100
AcDbEntity
  8
0
  6
Continuous
 62
     7
370
    15
100
AcDbLine
 10
132.1470587657
 20
122.9506775573
 30
0.0
 11
132.4970591024
 21
125.4506770357
 31
0.0
  0
LINE
  5
D0
330
1F
100
AcDbEntity
  8
0
  6
Continuous
 62
     7
370
    15
100
AcDbLine
 10
127.7970587046
 20
122.9506775573
 30
0.0
 11
128.1470585757
 21
120.4506780788
 31
0.0
  0
LINE
  5
D1
330
1F
100
AcDbEntity
  8
0
  6
Continuous
 62
     7
370
    15
100
AcDbLine
 10
132.1470587657
 20
120.4506780788
 30
0.0
 11
132.4970591024
 21
122.9506775573
 31
0.0
  0
LINE
  5
D2
330
1F
100
AcDbEntity
  8
0
  6
Continuous
 62
     7
370
    15
100
AcDbLine
 10
132.2470585958
 20
125.4506770357
 30
0.0
 11
132.2470585958
 21
127.9506774455
 31
0.0
  0
LINE
  5
D3
330
1F
100
AcDbEntity
  8
0
  6
Continuous
 62
     7
370
    15
100
AcDbLine
 10
128.0470587455
 20
127.9506774455
 30
0.0
 11
128.0470587455
 21
125.4506770357
 31
0.0
  0
LINE
  5
D4
330
1F
100
AcDbEntity
  8
0
  6
Continuous
 62
     7
370
    15
100
AcDbLine
 10
134.1470590935
 20
133.5006775636
 30
0.0
 11
135.1470583261
 21
133.5006775636
 31
0.0
  0
LINE
  5
D5
330
1F
100
AcDbEntity
  8
0
  6
Continuous
 62
     7
370
    15
100
AcDbLine
 10
135.1470583261
 20
141.000677396
 30
0.0
 11
134.1470590935
 21
141.000677396
 31
0.0
  0
LINE
  5
D6
330
1F
100
AcDbEntity
  8
0
  6
Continuous
 62
     7
370
    15
100
AcDbLine
 10
120.6470587433
 20
133.7506773718
 30
0.0
 11
122.6470588383
 21
133.7506773718
 31
0.0
  0
LINE
  5
D7
330
1F
100
AcDbEntity
  8
0
  6
Continuous
 62
     7
370
    15
100
AcDbLine
 10
122.6470588383
 20
140.7506775878
 30
0.0
 11
120.6470587433
 21
140.7506775878
 31
0.0
  0
LINE
  5
D8
330
1F
100
AcDbEntity
  8
0
  6
Continuous
 62
     7
370
    15
100
AcDbLine
 10
163.6470602036
 20
134.7506775357
 30
0.0
 11
164.1470574916
 21
135.2506773848
 31
0.0
  0
LINE
  5
D9
330
1F
100
AcDbEntity
  8
0
  6
Continuous
 62
     7
370
    15
100
AcDbLine
 10
164.1470574916
 20
139.2506775748
 30
0.0
 11
163.6470602036
 21
139.7506774239
 31
0.0
  0
LINE
  5
DA
330
1F
100
AcDbEntity
  8
0
  6
Continuous
 62
     7
370
    15
100
AcDbLine
 10
162.8470578373
 20
134.7506775357
 30
0.0
 11
163.6470602036
 21
134.7506775357
 31
0.0
  0
LINE
  5
DB
330
1F
100
AcDbEntity
  8
0
  6
Continuous
 62
     7
370
    15
100
AcDbLine
 10
163.6470602036
 20
139.7506774239
 30
0.0
 11
162.8470578373
 21
139.7506774239
 31
0.0
  0
LINE
  5
DC
330
1F
100
AcDbEntity
  8
0
  6
Continuous
 62
     7
370
    15
100
AcDbLine
 10
135.1470583261
 20
134.7506775357
 30
0.0
 11
135.8518310965
 21
134.7506775357
 31
0.0
  0
LINE
  5
DD
330
1F
100
AcDbEntity
  8
0
  6
Continuous
 62
     7
370
    15
100
AcDbLine
 10
136.350282389
 20
134.7506775357
 30
0.0
 11
137.8515874178
 21
134.7506775357
 31
0.0
  0
LINE
  5
DE
330
1F
100
AcDbEntity
  8
0
  6
Continuous
 62
     7
370
    15
100
AcDbLine
 10
138.3503460468
 20
134.7506775357
 30
0.0
 11
139.8515598059
 21
134.7506775357
 31
0.0
  0
LINE
  5
DF
330
1F
100
AcDbEntity
  8
0
  6
Continuous
 62
     7
370
    15
100
AcDbLine
 10
140.1470591456
 20
139.7506774239
 30
0.0
 11
139.9493076981
 21
139.7506774239
 31
0.0
  0
LINE
  5
E0
330
1F
100
AcDbEntity
  8
0
  6
Continuous
 62
     7
370
    15
100
AcDbLine
 10
139.4506049485
 20
139.7506774239
 30
0.0
 11
137.9495402009
 21
139.7506774239
 31
0.0
  0
LINE
  5
E1
330
1F
100
AcDbEntity
  8
0
  6
Continuous
 62
     7
370
    15
100
AcDbLine
 10
137.4506251097
 20
139.7506774239
 30
0.0
 11
135.9490751431
 21
139.7506774239
 31
0.0
  0
LINE
  5
E2
330
1F
100
AcDbEntity
  8
0
  6
Continuous
 62
     7
370
    15
100
AcDbLine
 10
135.4504021958
 20
139.7506774239
 30
0.0
 11
135.1470583261
 21
139.7506774239
 31
0.0
  0
LINE
  5
E3
330
1F
100
AcDbEntity
  8
0
  6
Continuous
 62
     7
370
    15
100
AcDbLine
 10
122.6470588383
 20
134.7506775357
 30
0.0
 11
126.1470587135
 21
134.7506775357
 31
0.0
  0
LINE
  5
E4
330
1F
100
AcDbEntity
  8
0
  6
Continuous
 62
     7
370
    15
100
AcDbLine
 10
126.1470587135
 20
139.7506774239
 30
0.0
 11
122.6470588383
 21
139.7506774239
 31
0.0
  0
LINE
  5
E5
330
1F
100
AcDbEntity
  8
0
  6
Continuous
 62
     7
370
    15
100
AcDbLine
 10
162.1470571638
 20
135.7506774668
 30
0.0
 11
162.2470588566
 21
135.7506774668
 31
0.0
  0
LINE
  5
E6
330
1F
100
AcDbEntity
  8
0
  6
Continuous
 62
     7
370
    15
100
AcDbLine
 10
162.2470588566
 20
138.7506774928
 30
0.0
 11
162.1470571638
 21
138.7506774928
 31
0.0
  0
LWPOLYLINE
  5
E7
330
1F
100
AcDbEntity
  8
0
  6
Continuous
 62
     7
370
    15
100
AcDbPolyline
 90
       33
 70
   128
 43
0.0
 10
135.2649656267
 20
141.2816134117
 10
135.2633749277
 20
141.2434068344
 10
135.2792269693
 20
141.1506042652
 10
135.3052807183
 20
140.9987621311
 10
135.3364874751
 20
140.7889435369
 10
135.3693901704
 20
140.5313920997
 10
135.4023366378
 20
140.2380431838
 10
135.4352812425
 20
139.9128940258
 10
135.4681885944
 20
139.5598580431
 10
135.5010251657
 20
139.182784974
 10
135.5337648795
 20
138.7855388759
 10
135.5769093291
 20
138.2367395865
 10
135.6157678322
 20
137.7260316232
 10
135.6492535353
 20
137.2797440501
 10
135.6773543314
 20
136.9046937918
 10
135.7040357918
 20
136.5510488696
 10
135.7386232496
 20
136.1004590591
 10
135.770045142
 20
135.7031404342
 10
135.8062102602
 20
135.2648998447
 10
135.8471679644
 20
134.7990047954
 10
135.8929787905
 20
134.3242728919
 10
135.9397749559
 20
133.8998636067
 10
135.9816826091
 20
133.5806581493
 10
136.0191590295
 20
133.3493383437
 10
136.0528971211
 20
133.185853979
 10
136.0737261505
 20
133.1052601173
 10
136.0935633213
 20
133.0419986345
 10
136.1131108508
 20
132.9915493563
 10
136.141402568
 20
132.9360197134
 10
136.1953857497
 20
132.8606533654
 10
136.282847184
 20
132.7877797022
 10
136.4065827013
 20
132.7541976072
 10
136.4065827013
 20
132.7541976072
  0
SPLINE
  5
E8
330
1F
100
AcDbEntity
  8
0
  6
Continuous
 62
     7
370
    15
100
AcDbSpline
210
0.0
220
0.0
230
1.0
 70
     8
 71
     3
 72
    40
 73
    36
 74
     0
 42
0.00000001
 43
0.00000001
 12
1.0
 22
0.0
 32
0.0
 13
1.0
 23
0.0
 33
0.0
 40
0.0
 40
0.0
 40
0.0
 40
0.0
 40
0.0138049659537953
 40
0.0314453288194024
 40
0.0637913542463315
 40
0.0921129810505925
 40
0.1263598304530223
 40
0.1650418701046205
 40
0.2087374591298516
 40
0.2448089215544386
 40
0.2837423995735651
 40
0.3216181500813002
 40
0.3539591981863006
 40
0.3807184606958564
 40
0.4018706941098237
 40
0.4174688901606333
 40
0.4338541874702067
 40
0.4552437615709666
 40
0.4816350705430339
 40
0.5130419663082142
 40
0.5495060729320269
 40
0.5910636082798801
 40
0.6363769561948812
 40
0.6792995752928147
 40
0.7190504172323441
 40
0.7671346467539291
 40
0.8097015191619311
 40
0.8467369728236831
 40
0.863168077877637
 40
0.8805478487081406
 40
0.9026268737269072
 40
0.9224880398642079
 40
0.9453169815138077
 40
0.9711755274507294
 40
1.0
 40
1.0
 40
1.0
 40
1.0
 10
137.240598830656
 20
141.3123647518319
 30
0.0
 10
137.2403008778262
 20
141.3105912500714
 30
0.0
 10
137.2396221927255
 20
141.3065515192814
 30
0.0
 10
137.2542412290112
 20
141.2583694969832
 30
0.0
 10
137.2714395422531
 20
141.1802341884631
 30
0.0
 10
137.2988048855219
 20
141.0377003813054
 30
0.0
 10
137.3306011322968
 20
140.8355953674457
 30
0.0
 10
137.3671191734057
 20
140.5583041793581
 30
0.0
 10
137.404618182433
 20
140.2256162583407
 30
0.0
 10
137.4423164212873
 20
139.8480370995878
 30
0.0
 10
137.4782473236405
 20
139.4529951727365
 30
0.0
 10
137.5129772152386
 20
139.0427577631803
 30
0.0
 10
137.5438202833557
 20
138.6602478917171
 30
0.0
 10
137.5693455423001
 20
138.3338491031302
 30
0.0
 10
137.589561432694
 20
138.0706462607372
 30
0.0
 10
137.6064831890583
 20
137.8479844481673
 30
0.0
 10
137.6234923467734
 20
137.6227129229707
 30
0.0
 10
137.6439545889122
 20
137.3503091321306
 30
0.0
 10
137.6692279184955
 20
137.0131485743341
 30
0.0
 10
137.6993402453915
 20
136.6133230178058
 30
0.0
 10
137.7342752157591
 20
136.1560143917145
 30
0.0
 10
137.7736295909895
 20
135.6557679259764
 30
0.0
 10
137.8150288366533
 20
135.1549227512194
 30
0.0
 10
137.8559526870867
 20
134.6946861218441
 30
0.0
 10
137.8979147898012
 20
134.2642407345027
 30
0.0
 10
137.9400724610602
 20
133.8851415110462
 30
0.0
 10
137.9814952563469
 20
133.5728573197025
 30
0.0
 10
138.0133793002946
 20
133.3757713709647
 30
0.0
 10
138.0365614439407
 20
133.2537359143854
 30
0.0
 10
138.0572025669395
 20
133.1575332946167
 30
0.0
 10
138.0881310880285
 20
133.0480208442001
 30
0.0
 10
138.1349036139292
 20
132.9400660455038
 30
0.0
 10
138.200398138898
 20
132.8451081457339
 30
0.0
 10
138.2919330211468
 20
132.7666536432923
 30
0.0
 10
138.3670346363817
 20
132.7562631839064
 30
0.0
 10
138.4066221446552
 20
132.7507861725849
 30
0.0
  0
SPLINE
  5
E9
330
1F
100
AcDbEntity
  8
0
  6
Continuous
 62
     7
370
    15
100
AcDbSpline
210
0.0
220
0.0
230
1.0
 70
     8
 71
     3
 72
    38
 73
    34
 74
     0
 42
0.00000001
 43
0.00000001
 12
1.0
 22
0.0
 32
0.0
 13
1.0
 23
0.0
 33
0.0
 40
0.0
 40
0.0
 40
0.0
 40
0.0
 40
0.0065169312426153
 40
0.0166931884538748
 40
0.0291516344156473
 40
0.0483812746942426
 40
0.0745229049640647
 40
0.1076047758544344
 40
0.1476364018431972
 40
0.194671628323361
 40
0.2442533938028318
 40
0.2891540126844261
 40
0.3292015821033155
 40
0.3643561439429729
 40
0.4036047096291208
 40
0.4341795739517114
 40
0.4604616805064827
 40
0.492338325809783
 40
0.5301919518170289
 40
0.5740044729115922
 40
0.6092455894688944
 40
0.6442687375358217
 40
0.6790910851179576
 40
0.7137559778713964
 40
0.759742715367601
 40
0.8054430979611713
 40
0.8501401627308632
 40
0.9147770497903049
 40
0.9305587035592804
 40
0.9479107941673096
 40
0.9708135836498538
 40
0.9846211480981614
 40
1.0
 40
1.0
 40
1.0
 40
1.0
 10
139.283928009943
 20
141.228514055149
 30
0.0
 10
139.281695105291
 20
141.2270976520819
 30
0.0
 10
139.2759754963574
 20
141.2234695206124
 30
0.0
 10
139.2701990698685
 20
141.2156028905289
 30
0.0
 10
139.272264450162
 20
141.1880029787827
 30
0.0
 10
139.2845554942058
 20
141.1235178318688
 30
0.0
 10
139.3045077619737
 20
141.0094703654856
 30
0.0
 10
139.3329376691181
 20
140.824983047353
 30
0.0
 10
139.3689497524465
 20
140.5489224178285
 30
0.0
 10
139.4109761608923
 20
140.1695128236758
 30
0.0
 10
139.4547649849487
 20
139.7163897279645
 30
0.0
 10
139.4963913196432
 20
139.2414375296555
 30
0.0
 10
139.5336520450476
 20
138.7882560774703
 30
0.0
 10
139.569243789856
 20
138.3370727312909
 30
0.0
 10
139.6019812342512
 20
137.9096839774053
 30
0.0
 10
139.6319622985207
 20
137.5118448861332
 30
0.0
 10
139.6596190296903
 20
137.1427041741547
 30
0.0
 10
139.6895229315551
 20
136.7438835538677
 30
0.0
 10
139.7248623732657
 20
136.2774370540148
 30
0.0
 10
139.7612723511546
 20
135.8093067789106
 30
0.0
 10
139.7968316693175
 20
135.3708775586021
 30
0.0
 10
139.8296713229982
 20
134.986092237075
 30
0.0
 10
139.8624040750969
 20
134.627329544873
 30
0.0
 10
139.8986144081215
 20
134.261271861007
 30
0.0
 10
139.9384065976851
 20
133.9018802416327
 30
0.0
 10
139.9813920167531
 20
133.5719891000339
 30
0.0
 10
140.0316690888235
 20
133.258805569825
 30
0.0
 10
140.0790821160082
 20
133.0613049829244
 30
0.0
 10
140.1210834010803
 20
132.9547165219408
 30
0.0
 10
140.154262614058
 20
132.8881456495285
 30
0.0
 10
140.2241460349821
 20
132.8110388819229
 30
0.0
 10
140.3145954733756
 20
132.7619158674813
 30
0.0
 10
140.3740430459321
 20
132.7565731811875
 30
0.0
 10
140.4053670496502
 20
132.7537580229205
 30
0.0
  0
SPLINE
  5
EA
330
1F
100
AcDbEntity
  8
0
  6
Continuous
 62
     7
370
    15
100
AcDbSpline
210
0.0
220
0.0
230
1.0
 70
     8
 71
     3
 72
    19
 73
    15
 74
     0
 42
0.00000001
 43
0.00000001
 12
1.0
 22
0.0
 32
0.0
 13
1.0
 23
0.0
 33
0.0
 40
0.0
 40
0.0
 40
0.0
 40
0.0
 40
0.0194876829919044
 40
0.0638442643145425
 40
0.1240944372349888
 40
0.2003171506719659
 40
0.2680738632971155
 40
0.3450065607107425
 40
0.4311869137202828
 40
0.5266173528324253
 40
0.6312195086864476
 40
0.7448944004434723
 40
0.8677216835039018
 40
0.9999999999999999
 40
0.9999999999999999
 40
0.9999999999999999
 40
0.9999999999999999
 10
141.2374143631019
 20
141.3155731581015
 30
0.0
 10
141.2375026517595
 20
141.314415853712
 30
0.0
 10
141.2377918972483
 20
141.3106243692464
 30
0.0
 10
141.252102220711
 20
141.2707389521109
 30
0.0
 10
141.2706719171192
 20
141.1955813658421
 30
0.0
 10
141.2956431179364
 20
141.0712443878002
 30
0.0
 10
141.3232041199763
 20
140.8990469127254
 30
0.0
 10
141.3529369256304
 20
140.6816898354311
 30
0.0
 10
141.3867737934963
 20
140.3960386308808
 30
0.0
 10
141.4247429743778
 20
140.0331421640403
 30
0.0
 10
141.466795230234
 20
139.5858252231552
 30
0.0
 10
141.5129385830276
 20
139.0487631496752
 30
0.0
 10
141.5631497436069
 20
138.421124726488
 30
0.0
 10
141.5979477884481
 20
137.9621129059135
 30
0.0
 10
141.6159914017477
 20
137.7241043675554
 30
0.0
  0
SPLINE
  5
EB
330
1F
100
AcDbEntity
  8
0
  6
Continuous
 62
     7
370
    15
100
AcDbSpline
210
0.0
220
0.0
230
1.0
 70
     8
 71
     3
 72
    15
 73
    11
 74
     0
 42
0.00000001
 43
0.00000001
 12
1.0
 22
0.0
 32
0.0
 13
1.0
 23
0.0
 33
0.0
 40
0.0
 40
0.0
 40
0.0
 40
0.0
 40
0.1048792538437366
 40
0.1980071466948151
 40
0.3162191431400928
 40
0.4142987871542922
 40
0.5173742704467128
 40
0.6317014687714119
 40
0.86272628323019
 40
1.0
 40
1.0
 40
1.0
 40
1.0
 10
141.4054007411756
 20
141.7463769040865
 30
0.0
 10
141.3663835113184
 20
141.7415718941906
 30
0.0
 10
141.2927207985052
 20
141.7325002592918
 30
0.0
 10
141.2008736401811
 20
141.6677742386889
 30
0.0
 10
141.1403136725166
 20
141.5870633905552
 30
0.0
 10
141.1121409945768
 20
141.5237736132873
 30
0.0
 10
141.0878748375168
 20
141.4570015731624
 30
0.0
 10
141.0563017751987
 20
141.344152955738
 30
0.0
 10
141.0252633964542
 20
141.2028845533615
 30
0.0
 10
141.0033083725901
 20
141.0555809793111
 30
0.0
 10
140.9951252073803
 20
141.0006773959709
 30
0.0
  0
SPLINE
  5
EC
330
1F
100
AcDbEntity
  8
0
  6
Continuous
 62
     7
370
    15
100
AcDbSpline
210
0.0
220
0.0
230
1.0
 70
     8
 71
     3
 72
    19
 73
    15
 74
     0
 42
0.00000001
 43
0.00000001
 12
1.0
 22
0.0
 32
0.0
 13
1.0
 23
0.0
 33
0.0
 40
0.0
 40
0.0
 40
0.0
 40
0.0
 40
0.0617543536320286
 40
0.1155676608001082
 40
0.1816779356648493
 40
0.2356954494864855
 40
0.2953848447644553
 40
0.3627203469870942
 40
0.4643745145184734
 40
0.5795764729428527
 40
0.7082665021134005
 40
0.849466092812235
 40
0.9843331331211239
 40
1.0
 40
1.0
 40
1.0
 40
1.0
 10
139.404575261549
 20
141.7496826335651
 30
0.0
 10
139.3672422915046
 20
141.7452034877776
 30
0.0
 10
139.2973770307578
 20
141.7368211734854
 30
0.0
 10
139.208526655312
 20
141.6751601114226
 30
0.0
 10
139.1477598525534
 20
141.5976906777784
 30
0.0
 10
139.1162477737118
 20
141.5291075275027
 30
0.0
 10
139.0875566551805
 20
141.4500561775976
 30
0.0
 10
139.0565178561877
 20
141.3369933731404
 30
0.0
 10
139.021892095327
 20
141.1730778597902
 30
0.0
 10
138.9831173072228
 20
140.9365956105349
 30
0.0
 10
138.9417628642272
 20
140.6276598365994
 30
0.0
 10
138.8993567981696
 20
140.2475020370668
 30
0.0
 10
138.8688093023507
 20
139.9449276471656
 30
0.0
 10
138.8531283160102
 20
139.7689883638326
 30
0.0
 10
138.8514963120975
 20
139.7506774239105
 30
0.0
  0
SPLINE
  5
ED
330
1F
100
AcDbEntity
  8
0
  6
Continuous
 62
     7
370
    15
100
AcDbSpline
210
0.0
220
0.0
230
1.0
 70
     8
 71
     3
 72
    10
 73
     6
 74
     0
 42
0.00000001
 43
0.00000001
 12
1.0
 22
0.0
 32
0.0
 13
1.0
 23
0.0
 33
0.0
 40
0.0
 40
0.0
 40
0.0
 40
0.0
 40
0.1496701230238491
 40
0.8498689140112334
 40
0.9999999999999999
 40
0.9999999999999999
 40
0.9999999999999999
 40
0.9999999999999999
 10
138.4506494880476
 20
134.7506775356692
 30
0.0
 10
138.4481403635689
 20
134.7229559442161
 30
0.0
 10
138.4338928514221
 20
134.5655449770375
 30
0.0
 10
138.417144587745
 20
134.3947516580065
 30
0.0
 10
138.4029657415822
 20
134.2681880867965
 30
0.0
 10
138.4004623771467
 20
134.2458424925667
 30
0.0
  0
SPLINE
  5
EE
330
1F
100
AcDbEntity
  8
0
  6
Continuous
 62
     7
370
    15
100
AcDbSpline
210
0.0
220
0.0
230
1.0
 70
     8
 71
     3
 72
    16
 73
    12
 74
     0
 42
0.00000001
 43
0.00000001
 12
1.0
 22
0.0
 32
0.0
 13
1.0
 23
0.0
 33
0.0
 40
0.0
 40
0.0
 40
0.0
 40
0.0
 40
0.0652603056069568
 40
0.1529967064390371
 40
0.2591543279647351
 40
0.3674934658031879
 40
0.5139170951924954
 40
0.6633695671713999
 40
0.8122802262647786
 40
0.9226427359532338
 40
1.0
 40
1.0
 40
1.0
 40
1.0
 10
137.4055900753298
 20
141.749160627262
 30
0.0
 10
137.3594896581036
 20
141.7408010454104
 30
0.0
 10
137.2514115249188
 20
141.7212027845901
 30
0.0
 10
137.1742944735974
 20
141.631367187092
 30
0.0
 10
137.1107466714885
 20
141.5183112057209
 30
0.0
 10
137.0538298537795
 20
141.335344119743
 30
0.0
 10
137.0046208562103
 20
141.0861221783154
 30
0.0
 10
136.9574784184521
 20
140.7593466438469
 30
0.0
 10
136.9145032552059
 20
140.390963346948
 30
0.0
 10
136.8793154561442
 20
140.0494773746342
 30
0.0
 10
136.8597780878825
 20
139.8378760242823
 30
0.0
 10
136.8517269522705
 20
139.7506774239105
 30
0.0
  0
SPLINE
  5
EF
330
1F
100
AcDbEntity
  8
0
  6
Continuous
 62
     7
370
    15
100
AcDbSpline
210
0.0
220
0.0
230
1.0
 70
     8
 71
     3
 72
     9
 73
     5
 74
     0
 42
0.00000001
 43
0.00000001
 12
1.0
 22
0.0
 32
0.0
 13
1.0
 23
0.0
 33
0.0
 40
0.0
 40
0.0
 40
0.0
 40
0.0
 40
0.5466142314439262
 40
1.0
 40
1.0
 40
1.0
 40
1.0
 10
136.4504144669332
 20
134.7506775356692
 30
0.0
 10
136.4413064352091
 20
134.6521140717358
 30
0.0
 10
136.4246438033196
 20
134.4717977567487
 30
0.0
 10
136.4080965749696
 20
134.3178697114809
 30
0.0
 10
136.4005942971268
 20
134.2480809263748
 30
0.0
  0
SPLINE
  5
F0
330
1F
100
AcDbEntity
  8
0
  6
Continuous
 62
     7
370
    15
100
AcDbSpline
210
0.0
220
0.0
230
1.0
 70
     8
 71
     3
 72
    16
 73
    12
 74
     0
 42
0.00000001
 43
0.00000001
 12
1.0
 22
0.0
 32
0.0
 13
1.0
 23
0.0
 33
0.0
 40
0.0
 40
0.0
 40
0.0
 40
0.0
 40
0.0803738266911906
 40
0.1547261139613805
 40
0.3046703759409295
 40
0.4271037822715464
 40
0.5383076230490954
 40
0.6428708861142134
 40
0.7409689233567507
 40
0.8327715487021602
 40
1.0
 40
1.0
 40
1.0
 40
1.0
 10
135.4055441126981
 20
141.7462348773939
 30
0.0
 10
135.3758043042938
 20
141.7435653708643
 30
0.0
 10
135.3185527688899
 20
141.7384263549866
 30
0.0
 10
135.2228001928659
 20
141.6883767678357
 30
0.0
 10
135.1455697080274
 20
141.5992942434327
 30
0.0
 10
135.1103770459691
 20
141.5194384915907
 30
0.0
 10
135.0839650696321
 20
141.4442707439629
 30
0.0
 10
135.0610535726356
 20
141.3610689624825
 30
0.0
 10
135.0411882856797
 20
141.2738830890548
 30
0.0
 10
135.0183760590347
 20
141.1588675816095
 30
0.0
 10
135.0032632370743
 20
141.0627379436439
 30
0.0
 10
134.9935065165915
 20
141.0006773959709
 30
0.0
  0
SPLINE
  5
F1
330
1F
100
AcDbEntity
  8
0
  6
Continuous
 62
     7
370
    15
100
AcDbSpline
210
0.0
220
0.0
230
1.0
 70
     8
 71
     3
 72
    10
 73
     6
 74
     0
 42
0.00000001
 43
0.00000001
 12
1.0
 22
0.0
 32
0.0
 13
1.0
 23
0.0
 33
0.0
 40
0.0
 40
0.0
 40
0.0
 40
0.0
 40
0.0213956668247773
 40
0.5444230453229107
 40
0.9999999999999999
 40
0.9999999999999999
 40
0.9999999999999999
 40
0.9999999999999999
 10
134.314105767087
 20
133.5006775636089
 30
0.0
 10
134.3137105154554
 20
133.4976758193611
 30
0.0
 10
134.3036531473601
 20
133.4212949915011
 30
0.0
 10
134.2887180856742
 20
133.3306133697066
 30
0.0
 10
134.2782871677677
 20
133.2760628296197
 30
0.0
 10
134.2734311849632
 20
133.250667510913
 30
0.0
  0
SPLINE
  5
F2
330
1F
100
AcDbEntity
  8
0
  6
Continuous
 62
     7
370
    15
100
AcDbSpline
210
0.0
220
0.0
230
1.0
 70
     8
 71
     3
 72
    10
 73
     6
 74
     0
 42
0.00000001
 43
0.00000001
 12
1.0
 22
0.0
 32
0.0
 13
1.0
 23
0.0
 33
0.0
 40
0.0
 40
0.0
 40
0.0
 40
0.0
 40
0.4441047061764661
 40
0.8605943675566257
 40
0.9999999999999999
 40
0.9999999999999999
 40
0.9999999999999999
 40
0.9999999999999999
 10
134.698777380661
 20
133.0053822904688
 30
0.0
 10
134.7146707874546
 20
133.0569430023442
 30
0.0
 10
134.745469327028
 20
133.1568583097257
 30
0.0
 10
134.7809591913928
 20
133.3341581359541
 30
0.0
 10
134.8004690434825
 20
133.4672909460317
 30
0.0
 10
134.8053616613903
 20
133.5006775636089
 30
0.0
  0
SPLINE
  5
F3
330
1F
100
AcDbEntity
  8
0
  6
Continuous
 62
     7
370
    15
100
AcDbSpline
210
0.0
220
0.0
230
1.0
 70
     8
 71
     3
 72
     9
 73
     5
 74
     0
 42
0.00000001
 43
0.00000001
 12
1.0
 22
0.0
 32
0.0
 13
1.0
 23
0.0
 33
0.0
 40
0.0
 40
0.0
 40
0.0
 40
0.0
 40
0.7591958128929945
 40
1.0
 40
1.0
 40
1.0
 40
1.0
 10
135.3502216891208
 20
139.7506774239105
 30
0.0
 10
135.3630221954865
 20
139.8872765860624
 30
0.0
 10
135.3798828079246
 20
140.0672027129352
 30
0.0
 10
135.3966249531541
 20
140.2169409903757
 30
0.0
 10
135.4006565318265
 20
140.2529985945535
 30
0.0
  0
SPLINE
  5
F4
330
1F
100
AcDbEntity
  8
0
  6
Continuous
 62
     7
370
    15
100
AcDbSpline
210
0.0
220
0.0
230
1.0
 70
     8
 71
     3
 72
    20
 73
    16
 74
     0
 42
0.00000001
 43
0.00000001
 12
1.0
 22
0.0
 32
0.0
 13
1.0
 23
0.0
 33
0.0
 40
0.0
 40
0.0
 40
0.0
 40
0.0
 40
0.046344247616571
 40
0.0879516390271539
 40
0.166693439295358
 40
0.2249474165954793
 40
0.2802957003813841
 40
0.335946193152207
 40
0.3919468999516565
 40
0.4483408486650708
 40
0.5788757150015489
 40
0.7117623534685562
 40
0.8465901270912443
 40
0.948948487024454
 40
1.0
 40
1.0
 40
1.0
 40
1.0
 10
136.3957141668358
 20
132.7542111113531
 30
0.0
 10
136.4270439539766
 20
132.7570968594217
 30
0.0
 10
136.4865013035101
 20
132.7625734025852
 30
0.0
 10
136.5826463514955
 20
132.8147384501529
 30
0.0
 10
136.6565530605717
 20
132.9031998623985
 30
0.0
 10
136.6866916204077
 20
132.9714387738181
 30
0.0
 10
136.7113675694413
 20
133.0383515825082
 30
0.0
 10
136.733556921823
 20
133.1158488325485
 30
0.0
 10
136.7543960490202
 20
133.2035695939498
 30
0.0
 10
136.7828237939027
 20
133.3444480473341
 30
0.0
 10
136.8175876846392
 20
133.5588073056515
 30
0.0
 10
136.8592331003411
 20
133.8751323196848
 30
0.0
 10
136.8979753824772
 20
134.2221566301393
 30
0.0
 10
136.9280009223122
 20
134.5183212755428
 30
0.0
 10
136.9439621310521
 20
134.6926610130017
 30
0.0
 10
136.9492736787357
 20
134.7506775356692
 30
0.0
  0
SPLINE
  5
F5
330
1F
100
AcDbEntity
  8
0
  6
Continuous
 62
     7
370
    15
100
AcDbSpline
210
0.0
220
0.0
230
1.0
 70
     8
 71
     3
 72
     9
 73
     5
 74
     0
 42
0.00000001
 43
0.00000001
 12
1.0
 22
0.0
 32
0.0
 13
1.0
 23
0.0
 33
0.0
 40
0.0
 40
0.0
 40
0.0
 40
0.0
 40
0.7537292631193002
 40
1.0
 40
1.0
 40
1.0
 40
1.0
 10
137.3504427403965
 20
139.7506774239105
 30
0.0
 10
137.3630700647047
 20
139.8879404934554
 30
0.0
 10
137.3798231946761
 20
140.0700523952499
 30
0.0
 10
137.3963673763302
 20
140.2175626451482
 30
0.0
 10
137.4004417241373
 20
140.2538901030881
 30
0.0
  0
SPLINE
  5
F6
330
1F
100
AcDbEntity
  8
0
  6
Continuous
 62
     7
370
    15
100
AcDbSpline
210
0.0
220
0.0
230
1.0
 70
     8
 71
     3
 72
    19
 73
    15
 74
     0
 42
0.00000001
 43
0.00000001
 12
1.0
 22
0.0
 32
0.0
 13
1.0
 23
0.0
 33
0.0
 40
0.0
 40
0.0
 40
0.0
 40
0.0
 40
0.0533610004295951
 40
0.1012752712443137
 40
0.1630465744479853
 40
0.2142057050923909
 40
0.2655249323698775
 40
0.3230233842919101
 40
0.4404263960831264
 40
0.5771747289320421
 40
0.7331125800442801
 40
0.8599955344132223
 40
0.982316238521201
 40
1.0
 40
1.0
 40
1.0
 40
1.0
 10
138.3945671052494
 20
132.7507945544881
 30
0.0
 10
138.4308911267894
 20
132.7547658955534
 30
0.0
 10
138.4998314597018
 20
132.7623032100782
 30
0.0
 10
138.5888399104089
 20
132.8206151537556
 30
0.0
 10
138.6508503609541
 20
132.8961964093192
 30
0.0
 10
138.6826403976164
 20
132.962442071815
 30
0.0
 10
138.7046249793874
 20
133.0212797073854
 30
0.0
 10
138.7348919966753
 20
133.1212253994561
 30
0.0
 10
138.7717190421016
 20
133.2846840496889
 30
0.0
 10
138.8172824436215
 20
133.5555889415225
 30
0.0
 10
138.8621142328827
 20
133.8955759348223
 30
0.0
 10
138.9047794126401
 20
134.285134318566
 30
0.0
 10
138.9328537127984
 20
134.56584910262
 30
0.0
 10
138.9474987223947
 20
134.7299501675875
 30
0.0
 10
138.9493485123672
 20
134.7506775356692
 30
0.0
  0
SPLINE
  5
F7
330
1F
100
AcDbEntity
  8
0
  6
Continuous
 62
     7
370
    15
100
AcDbSpline
210
0.0
220
0.0
230
1.0
 70
     8
 71
     3
 72
    10
 73
     6
 74
     0
 42
0.00000001
 43
0.00000001
 12
1.0
 22
0.0
 32
0.0
 13
1.0
 23
0.0
 33
0.0
 40
0.0
 40
0.0
 40
0.0
 40
0.0
 40
0.0469520182286418
 40
0.7496935440701884
 40
1.0
 40
1.0
 40
1.0
 40
1.0
 10
139.3500761271276
 20
139.7506774239105
 30
0.0
 10
139.3508677527001
 20
139.759577289474
 30
0.0
 10
139.3635078180985
 20
139.9016834652614
 30
0.0
 10
139.3803667158511
 20
140.0723201495442
 30
0.0
 10
139.3963547484489
 20
140.2162291871804
 30
0.0
 10
139.4005538106718
 20
140.2540251448614
 30
0.0
  0
SPLINE
  5
F8
330
1F
100
AcDbEntity
  8
0
  6
Continuous
 62
     7
370
    15
100
AcDbSpline
210
0.0
220
0.0
230
1.0
 70
     8
 71
     3
 72
    16
 73
    12
 74
     0
 42
0.00000001
 43
0.00000001
 12
1.0
 22
0.0
 32
0.0
 13
1.0
 23
0.0
 33
0.0
 40
0.0
 40
0.0
 40
0.0
 40
0.0
 40
0.1584076226677789
 40
0.2861050114697248
 40
0.3989107418537111
 40
0.4697257359385693
 40
0.5332198733199222
 40
0.6079391510201309
 40
0.6938505069555546
 40
0.8617802787879053
 40
1.0
 40
1.0
 40
1.0
 40
1.0
 10
140.3940999091425
 20
132.7537300832433
 30
0.0
 10
140.4351041448895
 20
132.7595589569964
 30
0.0
 10
140.5091631904148
 20
132.7700866700186
 30
0.0
 10
140.5990456926531
 20
132.8440318339216
 30
0.0
 10
140.6565783338997
 20
132.9227652802316
 30
0.0
 10
140.6890143519435
 20
132.990148647582
 30
0.0
 10
140.708454355356
 20
133.0430591101727
 30
0.0
 10
140.7273907195471
 20
133.1038463391299
 30
0.0
 10
140.7519908804188
 20
133.1993098200934
 30
0.0
 10
140.7786238042406
 20
133.3242958984053
 30
0.0
 10
140.7976859622768
 20
133.4458145717336
 30
0.0
 10
140.8062921047964
 20
133.5006775636089
 30
0.0
  0
SPLINE
  5
F9
330
1F
100
AcDbEntity
  8
0
  6
Continuous
 62
     7
370
    15
100
AcDbSpline
210
0.0
220
0.0
230
1.0
 70
     8
 71
     3
 72
    24
 73
    20
 74
     0
 42
0.00000001
 43
0.00000001
 12
1.0
 22
0.0
 32
0.0
 13
1.0
 23
0.0
 33
0.0
 40
0.0
 40
0.0
 40
0.0
 40
0.0
 40
0.0466356368483443
 40
0.1188087426430771
 40
0.1923795343929956
 40
0.2674336985610458
 40
0.3427154473454839
 40
0.4135766271656423
 40
0.4795642609326613
 40
0.5598551846387925
 40
0.6313257957014987
 40
0.6975911864513037
 40
0.7547745503763998
 40
0.8200300037750599
 40
0.8558002948294076
 40
0.895632949855852
 40
0.9433218480559052
 40
0.9705432723341475
 40
1.0
 40
1.0
 40
1.0
 40
1.0
 10
142.1139155656853
 20
137.7242378377219
 30
0.0
 10
142.1065280820937
 20
137.8223642050542
 30
0.0
 10
142.0877077614949
 20
138.0723505054622
 30
0.0
 10
142.0571818172567
 20
138.4689708949982
 30
0.0
 10
142.0220962906746
 20
138.9109484871253
 30
0.0
 10
141.9864887407281
 20
139.3379876019928
 30
0.0
 10
141.9513376619653
 20
139.7341860549677
 30
0.0
 10
141.9176120021761
 20
140.0865131855026
 30
0.0
 10
141.8830310164199
 20
140.4175057545708
 30
0.0
 10
141.8482066689778
 20
140.714739302275
 30
0.0
 10
141.8130768986906
 20
140.9719975964147
 30
0.0
 10
141.781404075367
 20
141.1666804939942
 30
0.0
 10
141.7476584936627
 20
141.3334774362259
 30
0.0
 10
141.7149833555156
 20
141.4518141416356
 30
0.0
 10
141.6848486509336
 20
141.532929140136
 30
0.0
 10
141.6478060157275
 20
141.6094079355071
 30
0.0
 10
141.5753396996494
 20
141.6889570006024
 30
0.0
 10
141.484418255095
 20
141.7380498704408
 30
0.0
 10
141.4257988029369
 20
141.743532258163
 30
0.0
 10
141.395333144144
 20
141.7463815606994
 30
0.0
  0
SPLINE
  5
FA
330
1F
100
AcDbEntity
  8
0
  6
Continuous
 62
     7
370
    15
100
AcDbSpline
210
0.0
220
0.0
230
1.0
 70
     8
 71
     3
 72
    37
 73
    33
 74
     0
 42
0.00000001
 43
0.00000001
 12
1.0
 22
0.0
 32
0.0
 13
1.0
 23
0.0
 33
0.0
 40
0.0
 40
0.0
 40
0.0
 40
0.0
 40
0.0077929810372627
 40
0.0262628852442397
 40
0.0511312934491168
 40
0.0824874264033612
 40
0.1203815951055621
 40
0.1492885403000445
 40
0.1810848646173964
 40
0.2148357861175725
 40
0.2618684806879004
 40
0.3039317304445182
 40
0.3410365519721315
 40
0.3731393479891397
 40
0.4001968889515667
 40
0.4221827521294067
 40
0.4431119677156504
 40
0.4672158498020608
 40
0.504279867094561
 40
0.547008823109715
 40
0.5933287723261419
 40
0.6284116865523943
 40
0.663746321065813
 40
0.6993116465038973
 40
0.7350941391239907
 40
0.7831425112957666
 40
0.8313275699866874
 40
0.8789758240675768
 40
0.9145385993275449
 40
0.9496332197101186
 40
0.9785941078643521
 40
1.0
 40
1.0
 40
1.0
 40
1.0
 10
140.5363408059635
 20
133.239579650001
 30
0.0
 10
140.5377258826371
 20
133.2409936974846
 30
0.0
 10
140.5423936868524
 20
133.2457591353338
 30
0.0
 10
140.5335727626552
 20
133.2853507556024
 30
0.0
 10
140.518414934058
 20
133.3668938171427
 30
0.0
 10
140.4928931585288
 20
133.5117510114214
 30
0.0
 10
140.4644729676418
 20
133.7056905220201
 30
0.0
 10
140.4347528486761
 20
133.9377197843887
 30
0.0
 10
140.4057836272116
 20
134.1897922978544
 30
0.0
 10
140.3708542817925
 20
134.5252516484208
 30
0.0
 10
140.3326184924294
 20
134.9329625879372
 30
0.0
 10
140.2932628527478
 20
135.3921344292844
 30
0.0
 10
140.2585504523321
 20
135.820942245264
 30
0.0
 10
140.228513142448
 20
136.2056398906676
 30
0.0
 10
140.2031750460872
 20
136.5371339098674
 30
0.0
 10
140.1813103644776
 20
136.826581397248
 30
0.0
 10
140.1603550911133
 20
137.105700131099
 30
0.0
 10
140.1346674901882
 20
137.4486283964078
 30
0.0
 10
140.1021107417125
 20
137.8818889647935
 30
0.0
 10
140.0625715274367
 20
138.3989303642622
 30
0.0
 10
140.0236929599579
 20
138.8896672190697
 30
0.0
 10
139.9871486755677
 20
139.3287571895944
 30
0.0
 10
139.9539256240822
 20
139.7063162621426
 30
0.0
 10
139.9203923838981
 20
140.0610762337095
 30
0.0
 10
139.8827141318961
 20
140.4253201101695
 30
0.0
 10
139.8407964301591
 20
140.7781966039121
 30
0.0
 10
139.7947675129523
 20
141.0941171480102
 30
0.0
 10
139.7463214080107
 20
141.3380269009608
 30
0.0
 10
139.6898012474208
 20
141.519360210381
 30
0.0
 10
139.6264573262525
 20
141.6319049890308
 30
0.0
 10
139.5499185519127
 20
141.7215600569772
 30
0.0
 10
139.44155499057
 20
141.7412853921577
 30
0.0
 10
139.3955004543819
 20
141.7496686637265
 30
0.0
  0
SPLINE
  5
FB
330
1F
100
AcDbEntity
  8
0
  6
Continuous
 62
     7
370
    15
100
AcDbSpline
210
0.0
220
0.0
230
1.0
 70
     8
 71
     3
 72
    37
 73
    33
 74
     0
 42
0.00000001
 43
0.00000001
 12
1.0
 22
0.0
 32
0.0
 13
1.0
 23
0.0
 33
0.0
 40
0.0
 40
0.0
 40
0.0
 40
0.0
 40
0.0052109868003031
 40
0.0286221080427896
 40
0.0551670812497272
 40
0.0848982559355275
 40
0.1177992761031258
 40
0.1538376323366749
 40
0.1923041104400743
 40
0.2299949007895161
 40
0.2665225383891872
 40
0.3018715031312416
 40
0.336007438798507
 40
0.3795639589141711
 40
0.4206345003466778
 40
0.4589295686822636
 40
0.4944951323743945
 40
0.5284541717802722
 40
0.5671988568280695
 40
0.6000716106358595
 40
0.6361942007678967
 40
0.6755565079309729
 40
0.7181868440283362
 40
0.7634591942585701
 40
0.805990790942997
 40
0.844649738465378
 40
0.8794290231147189
 40
0.9103307596250506
 40
0.937362592548925
 40
0.9652292624626462
 40
0.9817089749211578
 40
1.0
 40
1.0
 40
1.0
 40
1.0
 10
138.5577459961929
 20
133.1914787016672
 30
0.0
 10
138.5599195193794
 20
133.1897403581163
 30
0.0
 10
138.571857913749
 20
133.1801922516179
 30
0.0
 10
138.5467020572515
 20
133.2331168499259
 30
0.0
 10
138.5338374341902
 20
133.3038492533367
 30
0.0
 10
138.5073773359596
 20
133.4302141947446
 30
0.0
 10
138.4788104223402
 20
133.6073170730774
 30
0.0
 10
138.4455174728235
 20
133.8469869070292
 30
0.0
 10
138.4102141580622
 20
134.1453294275692
 30
0.0
 10
138.3746120215377
 20
134.4880191209577
 30
0.0
 10
138.3399265995237
 20
134.8562654522071
 30
0.0
 10
138.3063156832113
 20
135.2402693676596
 30
0.0
 10
138.2704305600292
 20
135.6734515478336
 30
0.0
 10
138.2326368982336
 20
136.1515510737548
 30
0.0
 10
138.1934516681715
 20
136.6640393759904
 30
0.0
 10
138.1567839299899
 20
137.1518119079336
 30
0.0
 10
138.1224092250811
 20
137.6105672950298
 30
0.0
 10
138.0879424677519
 20
138.0669969653904
 30
0.0
 10
138.0543321873213
 20
138.5035648265782
 30
0.0
 10
138.0200026893646
 20
138.935175604122
 30
0.0
 10
137.9853965965848
 20
139.3517843231481
 30
0.0
 10
137.9475502965943
 20
139.7792743299886
 30
0.0
 10
137.9065984341732
 20
140.2004719498305
 30
0.0
 10
137.8646474288064
 20
140.5807210918657
 30
0.0
 10
137.8231735936048
 20
140.9002131269596
 30
0.0
 10
137.7832446628318
 20
141.1502349776056
 30
0.0
 10
137.7449838398215
 20
141.3385821104469
 30
0.0
 10
137.7044106555926
 20
141.4797397461851
 30
0.0
 10
137.6657198663729
 20
141.579186029667
 30
0.0
 10
137.6030150351999
 20
141.6685904469383
 30
0.0
 10
137.5039333406983
 20
141.7367315163869
 30
0.0
 10
137.433286024209
 20
141.7448779947372
 30
0.0
 10
137.3961222500362
 20
141.7491634212298
 30
0.0
  0
LWPOLYLINE
  5
FC
330
1F
100
AcDbEntity
  8
0
  6
Continuous
 62
     7
370
    15
100
AcDbPolyline
 90
       32
 70
   128
 43
0.0
 10
136.54814187
 20
133.201955615
 10
136.5501721532
 20
133.2036282703
 10
136.5421590538
 20
133.2468067132
 10
136.5231786997
 20
133.3406034693
 10
136.4959151626
 20
133.4957846276
 10
136.4625514627
 20
133.7220899597
 10
136.424672711
 20
134.0256387204
 10
136.3850877763
 20
134.3913213651
 10
136.3478609503
 20
134.7756858751
 10
136.3131598712
 20
135.1641612429
 10
136.281031105
 20
135.5457885958
 10
136.2515165613
 20
135.9119240962
 10
136.2162799717
 20
136.3645418616
 10
136.1839388639
 20
136.7902816575
 10
136.1493420929
 20
137.2513630512
 10
136.1121804596
 20
137.7468923758
 10
136.0724372
 20
138.2695018848
 10
136.0299111486
 20
138.8109255651
 10
135.9961134524
 20
139.2213702503
 10
135.9606486887
 20
139.6277584437
 10
135.9234740169
 20
140.0225987028
 10
135.8845391453
 20
140.397116572
 10
135.8320991651
 20
140.8294020522
 10
135.7837290645
 20
141.1448135342
 10
135.7384910018
 20
141.3623036653
 10
135.7056590871
 20
141.4755413145
 10
135.6719321714
 20
141.558828561
 10
135.6423058689
 20
141.6092261508
 10
135.5908614726
 20
141.6684065781
 10
135.5093754039
 20
141.7222780011
 10
135.3951300637
 20
141.7462292895
 10
135.3951300637
 20
141.7462292895
  0
LINE
  5
FD
330
1F
100
AcDbEntity
  8
0
  6
Continuous
 62
     7
370
    15
100
AcDbLine
 10
126.1470587135
 20
144.0506775699
 30
0.0
 11
126.1470587135
 21
143.2506775319
 31
0.0
  0
LINE
  5
FE
330
1F
100
AcDbEntity
  8
0
  6
Continuous
 62
     7
370
    15
100
AcDbLine
 10
134.1470590935
 20
143.2506775319
 30
0.0
 11
134.1470590935
 21
144.0506775699
 31
0.0
  0
LINE
  5
FF
330
1F
100
AcDbEntity
  8
0
  6
Continuous
 62
     7
370
    15
100
AcDbLine
 10
126.1470587135
 20
131.2506774276
 30
0.0
 11
126.1470587135
 21
130.4506773896
 31
0.0
  0
LINE
  5
100
330
1F
100
AcDbEntity
  8
0
  6
Continuous
 62
     7
370
    15
100
AcDbLine
 10
134.1470590935
 20
130.4506773896
 30
0.0
 11
134.1470590935
 21
131.2506774276
 31
0.0
  0
LINE
  5
101
330
1F
100
AcDbEntity
  8
0
  6
Continuous
 62
     7
370
    15
100
AcDbLine
 10
143.8470584483
 20
129.3005969211
 30
0.0
 11
143.8470584483
 21
129.2506770998
 31
0.0
  0
LINE
  5
102
330
1F
100
AcDbEntity
  8
0
  6
Continuous
 62
     7
370
    15
100
AcDbLine
 10
143.8470584483
 20
145.2506778598
 30
0.0
 11
143.8470584483
 21
129.3005969211
 31
0.0
  0
LINE
  5
103
330
1F
100
AcDbEntity
  8
0
  6
Continuous
 62
     7
370
    15
100
AcDbLine
 10
142.4470589639
 20
129.3005969211
 30
0.0
 11
142.4470589639
 21
129.2506770998
 31
0.0
  0
LINE
  5
104
330
1F
100
AcDbEntity
  8
0
  6
Continuous
 62
     7
370
    15
100
AcDbLine
 10
142.4470589639
 20
145.2506778598
 30
0.0
 11
142.4470589639
 21
129.3005969211
 31
0.0
  0
LINE
  5
105
330
1F
100
AcDbEntity
  8
0
  6
Continuous
 62
     7
370
    15
100
AcDbLine
 10
144.1470579387
 20
129.5987253845
 30
0.0
 11
144.1470579387
 21
129.5506775215
 31
0.0
  0
LINE
  5
106
330
1F
100
AcDbEntity
  8
0
  6
Continuous
 62
     7
370
    15
100
AcDbLine
 10
144.1470579387
 20
144.9506774381
 30
0.0
 11
144.1470579387
 21
129.5987253845
 31
0.0
  0
LINE
  5
107
330
1F
100
AcDbEntity
  8
0
  6
Continuous
 62
     7
370
    15
100
AcDbLine
 10
142.1470594735
 20
129.5987253845
 30
0.0
 11
142.1470594735
 21
129.5506775215
 31
0.0
  0
LINE
  5
108
330
1F
100
AcDbEntity
  8
0
  6
Continuous
 62
     7
370
    15
100
AcDbLine
 10
142.1470594735
 20
144.9506774381
 30
0.0
 11
142.1470594735
 21
129.5987253845
 31
0.0
  0
LINE
  5
109
330
1F
100
AcDbEntity
  8
0
  6
Continuous
 62
     7
370
    15
100
AcDbLine
 10
162.1470571638
 20
131.5862455241
 30
0.0
 11
162.1470571638
 21
131.5506773837
 31
0.0
  0
LINE
  5
10A
330
1F
100
AcDbEntity
  8
0
  6
Continuous
 62
     7
370
    15
100
AcDbLine
 10
162.1470571638
 20
142.9506775759
 30
0.0
 11
162.1470571638
 21
131.5862455241
 31
0.0
  0
LINE
  5
10B
330
1F
100
AcDbEntity
  8
0
  6
Continuous
 62
     7
370
    15
100
AcDbLine
 10
161.8470595361
 20
131.2881175265
 30
0.0
 11
161.8470595361
 21
131.2506774276
 31
0.0
  0
LINE
  5
10C
330
1F
100
AcDbEntity
  8
0
  6
Continuous
 62
     7
370
    15
100
AcDbLine
 10
161.8470595361
 20
143.2506775319
 30
0.0
 11
161.8470595361
 21
131.2881175265
 31
0.0
  0
LINE
  5
10D
330
1F
100
AcDbEntity
  8
0
  6
Continuous
 62
     7
370
    15
100
AcDbLine
 10
140.447058636
 20
141.000677396
 30
0.0
 11
140.447058636
 21
133.8303678505
 31
0.0
  0
LINE
  5
10E
330
1F
100
AcDbEntity
  8
0
  6
Continuous
 62
     7
370
    15
100
AcDbLine
 10
140.1470591456
 20
140.7006774399
 30
0.0
 11
140.1470591456
 21
137.283236979
 31
0.0
  0
LINE
  5
10F
330
1F
100
AcDbEntity
  8
0
  6
Continuous
 62
     7
370
    15
100
AcDbLine
 10
162.8470578373
 20
139.7780282725
 30
0.0
 11
162.2470588566
 21
139.7780282725
 31
0.0
  0
LINE
  5
110
330
1F
100
AcDbEntity
  8
0
  6
Continuous
 62
     7
370
    15
100
AcDbLine
 10
162.2470588566
 20
133.7506773718
 30
0.0
 11
162.2470588566
 21
139.7780282725
 31
0.0
  0
LINE
  5
111
330
1F
100
AcDbEntity
  8
0
  6
Continuous
 62
     7
370
    15
100
AcDbLine
 10
162.8470578373
 20
133.7506773718
 30
0.0
 11
162.8470578373
 21
139.7780282725
 31
0.0
  0
LINE
  5
112
330
1F
100
AcDbEntity
  8
0
  6
Continuous
 62
     7
370
    15
100
AcDbLine
 10
162.2470588566
 20
139.7780282725
 30
0.0
 11
162.2470588566
 21
139.8336084396
 31
0.0
  0
LINE
  5
113
330
1F
100
AcDbEntity
  8
0
  6
Continuous
 62
     7
370
    15
100
AcDbLine
 10
162.8470578373
 20
139.8336084396
 30
0.0
 11
162.8470578373
 21
139.7780282725
 31
0.0
  0
LINE
  5
114
330
1F
100
AcDbEntity
  8
0
  6
Continuous
 62
     7
370
    15
100
AcDbLine
 10
133.6544611634
 20
127.9506774455
 30
0.0
 11
133.6544611634
 21
130.4506773896
 31
0.0
  0
LINE
  5
115
330
1F
100
AcDbEntity
  8
0
  6
Continuous
 62
     7
370
    15
100
AcDbLine
 10
130.1470584378
 20
127.9506774455
 30
0.0
 11
130.1470584378
 21
130.4506773896
 31
0.0
  0
LINE
  5
116
330
1F
100
AcDbEntity
  8
0
  6
Continuous
 62
     7
370
    15
100
AcDbLine
 10
130.1470584378
 20
130.4506773896
 30
0.0
 11
130.2353487492
 21
130.4506773896
 31
0.0
  0
LINE
  5
117
330
1F
100
AcDbEntity
  8
0
  6
Continuous
 62
     7
370
    15
100
AcDbLine
 10
133.566170852
 20
130.4506773896
 30
0.0
 11
133.6544611634
 21
130.4506773896
 31
0.0
  0
LINE
  5
118
330
1F
100
AcDbEntity
  8
0
  6
Continuous
 62
     7
370
    15
100
AcDbLine
 10
130.1470584378
 20
127.9506774455
 30
0.0
 11
133.6544611634
 21
127.9506774455
 31
0.0
  0
LINE
  5
119
330
1F
100
AcDbEntity
  8
0
  6
Continuous
 62
     7
370
    15
100
AcDbLine
 10
126.6396557123
 20
127.9506774455
 30
0.0
 11
126.6396557123
 21
130.4506773896
 31
0.0
  0
LINE
  5
11A
330
1F
100
AcDbEntity
  8
0
  6
Continuous
 62
     7
370
    15
100
AcDbLine
 10
126.6396557123
 20
130.4506773896
 30
0.0
 11
126.7279464894
 21
130.4506773896
 31
0.0
  0
LINE
  5
11B
330
1F
100
AcDbEntity
  8
0
  6
Continuous
 62
     7
370
    15
100
AcDbLine
 10
130.0587681264
 20
130.4506773896
 30
0.0
 11
130.1470584378
 21
130.4506773896
 31
0.0
  0
LINE
  5
11C
330
1F
100
AcDbEntity
  8
0
  6
Continuous
 62
     7
370
    15
100
AcDbLine
 10
126.6396557123
 20
127.9506774455
 30
0.0
 11
130.1470584378
 21
127.9506774455
 31
0.0
  0
LINE
  5
11D
330
1F
100
AcDbEntity
  8
0
  6
Continuous
 62
     7
370
    15
100
AcDbLine
 10
132.4970591024
 20
125.4506770357
 30
0.0
 11
127.7970587046
 21
125.4506770357
 31
0.0
  0
LINE
  5
11E
330
1F
100
AcDbEntity
  8
0
  6
Continuous
 62
     7
370
    15
100
AcDbLine
 10
132.1822180555
 20
122.9506775573
 30
0.0
 11
127.7970587046
 21
122.9506775573
 31
0.0
  0
LINE
  5
11F
330
1F
100
AcDbEntity
  8
0
  6
Continuous
 62
     7
370
    15
100
AcDbLine
 10
132.4970591024
 20
122.9506775573
 30
0.0
 11
132.1822180555
 21
122.9506775573
 31
0.0
  0
LINE
  5
120
330
1F
100
AcDbEntity
  8
0
  6
Continuous
 62
     7
370
    15
100
AcDbLine
 10
131.8791098104
 20
120.4506780788
 30
0.0
 11
128.1470585757
 21
120.4506780788
 31
0.0
  0
LINE
  5
121
330
1F
100
AcDbEntity
  8
0
  6
Continuous
 62
     7
370
    15
100
AcDbLine
 10
132.1470587657
 20
120.4506780788
 30
0.0
 11
131.8791098104
 21
120.4506780788
 31
0.0
  0
LINE
  5
122
330
1F
100
AcDbEntity
  8
0
  6
Continuous
 62
     7
370
    15
100
AcDbLine
 10
133.6544611634
 20
144.0506775699
 30
0.0
 11
133.6544611634
 21
146.5506775141
 31
0.0
  0
LINE
  5
123
330
1F
100
AcDbEntity
  8
0
  6
Continuous
 62
     7
370
    15
100
AcDbLine
 10
130.1470584378
 20
144.0506775699
 30
0.0
 11
130.2353487492
 21
144.0506775699
 31
0.0
  0
LINE
  5
124
330
1F
100
AcDbEntity
  8
0
  6
Continuous
 62
     7
370
    15
100
AcDbLine
 10
133.566170852
 20
144.0506775699
 30
0.0
 11
133.6544611634
 21
144.0506775699
 31
0.0
  0
LINE
  5
125
330
1F
100
AcDbEntity
  8
0
  6
Continuous
 62
     7
370
    15
100
AcDbLine
 10
130.1470584378
 20
144.0506775699
 30
0.0
 11
130.1470584378
 21
146.5506775141
 31
0.0
  0
LINE
  5
126
330
1F
100
AcDbEntity
  8
0
  6
Continuous
 62
     7
370
    15
100
AcDbLine
 10
130.1470584378
 20
146.5506775141
 30
0.0
 11
133.6544611634
 21
146.5506775141
 31
0.0
  0
LINE
  5
127
330
1F
100
AcDbEntity
  8
0
  6
Continuous
 62
     7
370
    15
100
AcDbLine
 10
126.6396557123
 20
144.0506775699
 30
0.0
 11
126.6396557123
 21
146.5506775141
 31
0.0
  0
LINE
  5
128
330
1F
100
AcDbEntity
  8
0
  6
Continuous
 62
     7
370
    15
100
AcDbLine
 10
126.6396557123
 20
146.5506775141
 30
0.0
 11
130.1470584378
 21
146.5506775141
 31
0.0
  0
LINE
  5
129
330
1F
100
AcDbEntity
  8
0
  6
Continuous
 62
     7
370
    15
100
AcDbLine
 10
126.6396557123
 20
144.0506775699
 30
0.0
 11
126.7279464894
 21
144.0506775699
 31
0.0
  0
LINE
  5
12A
330
1F
100
AcDbEntity
  8
0
  6
Continuous
 62
     7
370
    15
100
AcDbLine
 10
130.0587681264
 20
144.0506775699
 30
0.0
 11
130.1470584378
 21
144.0506775699
 31
0.0
  0
LINE
  5
12B
330
1F
100
AcDbEntity
  8
0
  6
Continuous
 62
     7
370
    15
100
AcDbLine
 10
134.1470590935
 20
137.2506774798
 30
0.0
 11
126.1470587135
 21
137.2506774798
 31
0.0
  0
LINE
  5
12C
330
1F
100
AcDbEntity
  8
0
  6
Continuous
 62
     7
370
    15
100
AcDbLine
 10
134.1470590935
 20
137.2506774798
 30
0.0
 11
134.1470590935
 21
131.2506774276
 31
0.0
  0
LINE
  5
12D
330
1F
100
AcDbEntity
  8
0
  6
Continuous
 62
     7
370
    15
100
AcDbLine
 10
134.1470590935
 20
131.2506774276
 30
0.0
 11
132.1470587657
 21
131.2506774276
 31
0.0
  0
LINE
  5
12E
330
1F
100
AcDbEntity
  8
0
  6
Continuous
 62
     7
370
    15
100
AcDbLine
 10
128.1470585757
 20
131.2506774276
 30
0.0
 11
126.1470587135
 21
131.2506774276
 31
0.0
  0
LINE
  5
12F
330
1F
100
AcDbEntity
  8
0
  6
Continuous
 62
     7
370
    15
100
AcDbLine
 10
126.1470587135
 20
137.2506774798
 30
0.0
 11
126.1470587135
 21
131.2506774276
 31
0.0
  0
LINE
  5
130
330
1F
100
AcDbEntity
  8
0
  6
Continuous
 62
     7
370
    15
100
AcDbLine
 10
134.1470590935
 20
143.2506775319
 30
0.0
 11
132.1470587657
 21
143.2506775319
 31
0.0
  0
LINE
  5
131
330
1F
100
AcDbEntity
  8
0
  6
Continuous
 62
     7
370
    15
100
AcDbLine
 10
128.1470585757
 20
143.2506775319
 30
0.0
 11
126.1470587135
 21
143.2506775319
 31
0.0
  0
LINE
  5
132
330
1F
100
AcDbEntity
  8
0
  6
Continuous
 62
     7
370
    15
100
AcDbLine
 10
126.1470587135
 20
143.2506775319
 30
0.0
 11
126.1470587135
 21
137.2506774798
 31
0.0
  0
LINE
  5
133
330
1F
100
AcDbEntity
  8
0
  6
Continuous
 62
     7
370
    15
100
AcDbLine
 10
134.1470590935
 20
143.2506775319
 30
0.0
 11
134.1470590935
 21
137.2506774798
 31
0.0
  0
LINE
  5
134
330
1F
100
AcDbEntity
  8
0
  6
Continuous
 62
     7
370
    15
100
AcDbLine
 10
135.1470583261
 20
141.000677396
 30
0.0
 11
135.1470583261
 21
133.5006775636
 31
0.0
  0
LINE
  5
135
330
1F
100
AcDbEntity
  8
0
  6
Continuous
 62
     7
370
    15
100
AcDbLine
 10
120.6470587433
 20
140.7506775878
 30
0.0
 11
120.6470587433
 21
133.7506773718
 31
0.0
  0
LINE
  5
136
330
1F
100
AcDbEntity
  8
0
  6
Continuous
 62
     7
370
    15
100
AcDbLine
 10
122.6470588383
 20
140.7506775878
 30
0.0
 11
122.6470588383
 21
133.7506773718
 31
0.0
  0
LINE
  5
137
330
1F
100
AcDbEntity
  8
0
  6
Continuous
 62
     7
370
    15
100
AcDbLine
 10
164.1470574916
 20
139.2506775748
 30
0.0
 11
164.1470574916
 21
135.2506773848
 31
0.0
  0
LINE
  5
138
330
1F
100
AcDbEntity
  8
0
  6
Continuous
 62
     7
370
    15
100
AcDbLine
 10
163.6470602036
 20
134.7506775357
 30
0.0
 11
163.6470602036
 21
139.7506774239
 31
0.0
  0
SPLINE
  5
139
330
1F
100
AcDbEntity
  8
0
  6
Continuous
 62
     7
370
    15
100
AcDbSpline
210
0.0
220
0.0
230
1.0
 70
     8
 71
     3
 72
    10
 73
     6
 74
     0
 42
0.00000001
 43
0.00000001
 12
1.0
 22
0.0
 32
0.0
 13
1.0
 23
0.0
 33
0.0
 40
0.0000637491391993
 40
0.0000637491391993
 40
0.0000637491391993
 40
0.0000637491391993
 40
0.1666685273773051
 40
0.3333351940439051
 40
0.4999381115714058
 40
0.4999381115714058
 40
0.4999381115714058
 40
0.4999381115714058
 10
141.8648681009515
 20
137.7522087920959
 30
0.0
 10
141.7782977247104
 20
137.7522046554858
 30
0.0
 10
141.6051569543261
 20
137.741059515545
 30
0.0
 10
141.6051569543261
 20
137.7076324960608
 30
0.0
 10
141.7782957913676
 20
137.6964873561437
 30
0.0
 10
141.8648652003909
 20
137.6964830952231
 30
0.0
  0
SPLINE
  5
13A
330
1F
100
AcDbEntity
  8
0
  6
Continuous
 62
     7
370
    15
100
AcDbSpline
210
0.0
220
0.0
230
1.0
 70
     8
 71
     3
 72
    12
 73
     8
 74
     0
 42
0.00000001
 43
0.00000001
 12
1.0
 22
0.0
 32
0.0
 13
1.0
 23
0.0
 33
0.0
 40
-0.0000637491377587
 40
-0.0000637491377587
 40
-0.0000637491377587
 40
-0.0000637491377587
 40
0.0
 40
0.1666666666667
 40
0.3333333333333
 40
0.5
 40
0.500061888427154
 40
0.500061888427154
 40
0.500061888427154
 40
0.500061888427154
 10
134.4648679733352
 20
133.3354058876789
 30
0.0
 10
134.4648348483139
 20
133.3354059019979
 30
0.0
 10
134.3781991829098
 20
133.3354246287974
 30
0.0
 10
134.2049609771261
 20
133.2375241198923
 30
0.0
 10
134.2049609771261
 20
132.9438787520948
 30
0.0
 10
134.3781982160561
 20
132.8459787895794
 30
0.0
 10
134.4648329146067
 20
132.8459969695775
 30
0.0
 10
134.4648650727746
 20
132.8459969830728
 30
0.0
  0
SPLINE
  5
13B
330
1F
100
AcDbEntity
  8
0
  6
Continuous
 62
     7
370
    15
100
AcDbSpline
210
0.0
220
0.0
230
1.0
 70
     8
 71
     3
 72
    12
 73
     8
 74
     0
 42
0.00000001
 43
0.00000001
 12
1.0
 22
0.0
 32
0.0
 13
1.0
 23
0.0
 33
0.0
 40
0.4999381115728423
 40
0.4999381115728423
 40
0.4999381115728423
 40
0.4999381115728423
 40
0.5
 40
0.6666666666666999
 40
0.8333333333333001
 40
1.0
 40
1.000063749137434
 40
1.000063749137434
 40
1.000063749137434
 40
1.000063749137434
 10
141.8648681009515
 20
137.752208792096
 30
0.0
 10
141.8649002591194
 20
137.7522087936326
 30
0.0
 10
141.95153495767
 20
137.752210863667
 30
0.0
 10
142.1247721966006
 20
137.7410636540763
 30
0.0
 10
142.1247721966006
 20
137.7076282331022
 30
0.0
 10
141.9515339908163
 20
137.6964809612982
 30
0.0
 10
141.864898325412
 20
137.6964830935927
 30
0.0
 10
141.8648652003909
 20
137.6964830952231
 30
0.0
  0
SPLINE
  5
13C
330
1F
100
AcDbEntity
  8
0
  6
Continuous
 62
     7
370
    15
100
AcDbSpline
210
0.0
220
0.0
230
1.0
 70
     8
 71
     3
 72
    10
 73
     6
 74
     0
 42
0.00000001
 43
0.00000001
 12
1.0
 22
0.0
 32
0.0
 13
1.0
 23
0.0
 33
0.0
 40
0.5000618884285885
 40
0.5000618884285885
 40
0.5000618884285885
 40
0.5000618884285885
 40
0.6666666666666999
 40
0.8333333333333001
 40
0.9999362508604794
 40
0.9999362508604794
 40
0.9999362508604794
 40
0.9999362508604794
 10
134.4648650727746
 20
132.8459969830728
 30
0.0
 10
134.5514354490157
 20
132.8460333127043
 30
0.0
 10
134.7245762193961
 20
132.9439150985955
 30
0.0
 10
134.7245762193961
 20
133.2374866806133
 30
0.0
 10
134.5514373823585
 20
133.3353684662995
 30
0.0
 10
134.4648679733352
 20
133.3354058876789
 30
0.0
  0
LINE
  5
13D
330
1F
100
AcDbEntity
  8
0
  6
Continuous
 62
     7
370
    15
100
AcDbLine
 10
134.1470590935
 20
144.0506775699
 30
0.0
 11
133.6544611634
 21
144.0506775699
 31
0.0
  0
LINE
  5
13E
330
1F
100
AcDbEntity
  8
0
  6
Continuous
 62
     7
370
    15
100
AcDbLine
 10
133.566170852
 20
144.0506775699
 30
0.0
 11
130.2353487492
 21
144.0506775699
 31
0.0
  0
LINE
  5
13F
330
1F
100
AcDbEntity
  8
0
  6
Continuous
 62
     7
370
    15
100
AcDbLine
 10
130.0587681264
 20
144.0506775699
 30
0.0
 11
126.7279464894
 21
144.0506775699
 31
0.0
  0
LINE
  5
140
330
1F
100
AcDbEntity
  8
0
  6
Continuous
 62
     7
370
    15
100
AcDbLine
 10
126.6396557123
 20
144.0506775699
 30
0.0
 11
126.1470587135
 21
144.0506775699
 31
0.0
  0
LINE
  5
141
330
1F
100
AcDbEntity
  8
0
  6
Continuous
 62
     7
370
    15
100
AcDbLine
 10
132.1470587657
 20
143.2506775319
 30
0.0
 11
128.1470585757
 21
143.2506775319
 31
0.0
  0
LINE
  5
142
330
1F
100
AcDbEntity
  8
0
  6
Continuous
 62
     7
370
    15
100
AcDbLine
 10
134.1470590935
 20
130.4506773896
 30
0.0
 11
133.6544611634
 21
130.4506773896
 31
0.0
  0
LINE
  5
143
330
1F
100
AcDbEntity
  8
0
  6
Continuous
 62
     7
370
    15
100
AcDbLine
 10
133.566170852
 20
130.4506773896
 30
0.0
 11
130.2353487492
 21
130.4506773896
 31
0.0
  0
LINE
  5
144
330
1F
100
AcDbEntity
  8
0
  6
Continuous
 62
     7
370
    15
100
AcDbLine
 10
130.0587681264
 20
130.4506773896
 30
0.0
 11
126.7279464894
 21
130.4506773896
 31
0.0
  0
LINE
  5
145
330
1F
100
AcDbEntity
  8
0
  6
Continuous
 62
     7
370
    15
100
AcDbLine
 10
126.6396557123
 20
130.4506773896
 30
0.0
 11
126.1470587135
 21
130.4506773896
 31
0.0
  0
LINE
  5
146
330
1F
100
AcDbEntity
  8
0
  6
Continuous
 62
     7
370
    15
100
AcDbLine
 10
132.1470587657
 20
131.2506774276
 30
0.0
 11
128.1470585757
 21
131.2506774276
 31
0.0
  0
SPLINE
  5
147
330
1F
100
AcDbEntity
  8
0
  6
Continuous
 62
     8
370
    15
100
AcDbSpline
210
0.0
220
0.0
230
1.0
 70
     8
 71
     3
 72
    20
 73
    16
 74
     0
 42
0.00000001
 43
0.00000001
 12
1.0
 22
0.0
 32
0.0
 13
1.0
 23
0.0
 33
0.0
 40
0.0
 40
0.0
 40
0.0
 40
0.0
 40
0.0828769981582403
 40
0.1656532922528687
 40
0.2483939425773575
 40
0.3312226112542455
 40
0.4141620627667794
 40
0.4971510767240632
 40
0.5801005426168311
 40
0.6629494658529391
 40
0.745721042697673
 40
0.8285376804102901
 40
0.9114575851997457
 40
0.9944407616250054
 40
1.0
 40
1.0
 40
1.0
 40
1.0
 10
141.8648687333622
 20
137.7522166305085
 30
0.0
 10
141.8520250548393
 20
137.931964317919
 30
0.0
 10
141.826353304182
 20
138.291241280841
 30
0.0
 10
141.7877941993291
 20
138.8132687368552
 30
0.0
 10
141.7492207618146
 20
139.3121092773763
 30
0.0
 10
141.7106745116258
 20
139.7798485899372
 30
0.0
 10
141.6721475862168
 20
140.2111707368095
 30
0.0
 10
141.633627188934
 20
140.6003430786054
 30
0.0
 10
141.5951000929495
 20
140.9416110303534
 30
0.0
 10
141.5565541782595
 20
141.2294847252831
 30
0.0
 10
141.517979237434
 20
141.4569854184389
 30
0.0
 10
141.4794282227124
 20
141.622233543997
 30
0.0
 10
141.4408913781108
 20
141.7166498236079
 30
0.0
 10
141.4143622063258
 20
141.7558382209181
 30
0.0
 10
141.4006460508092
 20
141.7450907940849
 30
0.0
 10
141.3997848660507
 20
141.7444160044057
 30
0.0
  0
SPLINE
  5
148
330
1F
100
AcDbEntity
  8
0
  6
Continuous
 62
     8
370
    15
100
AcDbSpline
210
0.0
220
0.0
230
1.0
 70
     8
 71
     3
 72
    34
 73
    30
 74
     0
 42
0.00000001
 43
0.00000001
 12
1.0
 22
0.0
 32
0.0
 13
1.0
 23
0.0
 33
0.0
 40
0.0
 40
0.0
 40
0.0
 40
0.0
 40
0.0001375697128941
 40
0.0386150904931815
 40
0.0770511319320545
 40
0.1154970932267988
 40
0.1539901391571728
 40
0.1925184138252219
 40
0.2310451236708321
 40
0.2695344868815446
 40
0.3079776163849871
 40
0.3464156165145467
 40
0.3848969888662618
 40
0.4234196564035659
 40
0.46195046272031
 40
0.5004510349603176
 40
0.5389036604655212
 40
0.5773367859641471
 40
0.6158062230612071
 40
0.654321284188886
 40
0.6928538623027528
 40
0.7313644965391882
 40
0.7698281720510086
 40
0.8082603231422983
 40
0.8467182347082354
 40
0.8852239245317743
 40
0.9237558993681715
 40
0.962275063790536
 40
1.0
 40
1.0
 40
1.0
 40
1.0
 10
140.400421726779
 20
132.7538166962427
 30
0.0
 10
140.4003757814801
 20
132.7537762140718
 30
0.0
 10
140.3874791791974
 20
132.7424130829079
 30
0.0
 10
140.3617702261411
 20
132.7786282959516
 30
0.0
 10
140.323193269043
 20
132.8698414534919
 30
0.0
 10
140.284632722811
 20
133.0361397534538
 30
0.0
 10
140.2461006813776
 20
133.2621902164064
 30
0.0
 10
140.2075771465399
 20
133.5461837967349
 30
0.0
 10
140.1690540101015
 20
133.8828118910584
 30
0.0
 10
140.1305177726903
 20
134.2678012442025
 30
0.0
 10
140.0919538555316
 20
134.6966590472378
 30
0.0
 10
140.0533853194876
 20
135.1647227477428
 30
0.0
 10
140.014845802545
 20
135.6637349953207
 30
0.0
 10
139.9763211479781
 20
136.1857832411738
 30
0.0
 10
139.9377991160641
 20
136.7230555592238
 30
0.0
 10
139.8992673313743
 20
137.2677411619756
 30
0.0
 10
139.8607101848614
 20
137.8120886869499
 30
0.0
 10
139.8221402701597
 20
138.3478791841799
 30
0.0
 10
139.7835939682702
 20
138.867193047212
 30
0.0
 10
139.7450670689125
 20
139.3632498961474
 30
0.0
 10
139.7065456177295
 20
139.8292239500594
 30
0.0
 10
139.6680170334294
 20
140.2582464617437
 30
0.0
 10
139.6294682270473
 20
140.6435282314916
 30
0.0
 10
139.5908941671385
 20
140.9775990304352
 30
0.0
 10
139.5523415778998
 20
141.2549574784961
 30
0.0
 10
139.5138115367665
 20
141.4744663754851
 30
0.0
 10
139.4752891718212
 20
141.6322095513921
 30
0.0
 10
139.4370165546848
 20
141.731843136591
 30
0.0
 10
139.4115517204641
 20
141.7433872368101
 30
0.0
 10
139.3989519358435
 20
141.7490991599721
 30
0.0
  0
SPLINE
  5
149
330
1F
100
AcDbEntity
  8
0
  6
Continuous
 62
     8
370
    15
100
AcDbSpline
210
0.0
220
0.0
230
1.0
 70
     8
 71
     3
 72
    34
 73
    30
 74
     0
 42
0.00000001
 43
0.00000001
 12
1.0
 22
0.0
 32
0.0
 13
1.0
 23
0.0
 33
0.0
 40
0.0
 40
0.0
 40
0.0
 40
0.0
 40
0.0042127486017885
 40
0.042704827950843
 40
0.081244653057539
 40
0.1198173077187303
 40
0.1583850698826162
 40
0.1969134121153167
 40
0.2353966872118621
 40
0.2738799764144196
 40
0.3124083013179952
 40
0.3509760821084625
 40
0.3895487236692312
 40
0.4280885454594257
 40
0.4665806294542898
 40
0.5050578823225758
 40
0.5435742693826198
 40
0.5821350790697224
 40
0.620710309817042
 40
0.6592606411289131
 40
0.6977633497882172
 40
0.736238238923305
 40
0.7747428809038573
 40
0.8132948771319226
 40
0.851870317902822
 40
0.890429745230225
 40
0.9289441099273023
 40
0.967420689951425
 40
1.0
 40
1.0
 40
1.0
 40
1.0
 10
138.4003357172766
 20
132.7540476642412
 30
0.0
 10
138.3989294286488
 20
132.7529814537097
 30
0.0
 10
138.3846738156105
 20
132.7421732281037
 30
0.0
 10
138.3575479780927
 20
132.7865200430159
 30
0.0
 10
138.3190165431126
 20
132.888895011602
 30
0.0
 10
138.2804937179222
 20
133.0608806069796
 30
0.0
 10
138.2419697814576
 20
133.2906997144715
 30
0.0
 10
138.2034322407555
 20
133.5779546393497
 30
0.0
 10
138.1648650137371
 20
133.9193147849267
 30
0.0
 10
138.1263019161071
 20
134.3118649904027
 30
0.0
 10
138.0877632605965
 20
134.7478421269141
 30
0.0
 10
138.0492395338947
 20
135.2200000081303
 30
0.0
 10
138.0107171075667
 20
135.721123390834
 30
0.0
 10
137.972183795959
 20
136.2440448113688
 30
0.0
 10
137.933624871485
 20
136.7816276774491
 30
0.0
 10
137.8950529337588
 20
137.3263955154022
 30
0.0
 10
137.8565096605437
 20
137.8700327530931
 30
0.0
 10
137.8179833572011
 20
138.4048765964441
 30
0.0
 10
137.779462106366
 20
138.9233243589253
 30
0.0
 10
137.7409315461821
 20
139.4177231250665
 30
0.0
 10
137.7023835287007
 20
139.8805175524188
 30
0.0
 10
137.663808441467
 20
140.3034502610644
 30
0.0
 10
137.6252586825898
 20
140.6801685227561
 30
0.0
 10
137.5867294567226
 20
141.0072022927401
 30
0.0
 10
137.5482081555209
 20
141.2804528016679
 30
0.0
 10
137.5096811158662
 20
141.4966314471332
 30
0.0
 10
137.471138005073
 20
141.6495308268924
 30
0.0
 10
137.4345365542578
 20
141.7385069189172
 30
0.0
 10
137.410826633821
 20
141.7428358417214
 30
0.0
 10
137.3999555737533
 20
141.7448206640643
 30
0.0
  0
SPLINE
  5
14A
330
1F
100
AcDbEntity
  8
0
  6
Continuous
 62
     8
370
    15
100
AcDbSpline
210
0.0
220
0.0
230
1.0
 70
     8
 71
     3
 72
    34
 73
    30
 74
     0
 42
0.00000001
 43
0.00000001
 12
1.0
 22
0.0
 32
0.0
 13
1.0
 23
0.0
 33
0.0
 40
0.0
 40
0.0
 40
0.0
 40
0.0
 40
0.0081812730082063
 40
0.0467597090690697
 40
0.0853299970864173
 40
0.1238589399384064
 40
0.1623444610266905
 40
0.2008351030611951
 40
0.2393720542713917
 40
0.2779463709647976
 40
0.3165222793322252
 40
0.3550629305739625
 40
0.3935564091428839
 40
0.4320399763169916
 40
0.4705650517231239
 40
0.5091330944163598
 40
0.5477123627112984
 40
0.5862639212304468
 40
0.6247675151242589
 40
0.663247383421848
 40
0.7017605780044067
 40
0.740320376978709
 40
0.7789006470828813
 40
0.8174618427134316
 40
0.8559768689988849
 40
0.8944571332110618
 40
0.9329591966317305
 40
0.9715092889155731
 40
1.0
 40
1.0
 40
1.0
 40
1.0
 10
136.4001286358395
 20
132.7596151105923
 30
0.0
 10
136.3974021683297
 20
132.7580879448331
 30
0.0
 10
136.3818191621872
 20
132.7493594955407
 30
0.0
 10
136.3534137886586
 20
132.7970182795242
 30
0.0
 10
136.3148870244973
 20
132.9043698808118
 30
0.0
 10
136.2763480746775
 20
133.0798900185119
 30
0.0
 10
136.2377793763072
 20
133.3157667222115
 30
0.0
 10
136.1992155741567
 20
133.6124343371674
 30
0.0
 10
136.1606789827096
 20
133.9625800666279
 30
0.0
 10
136.1221572269291
 20
134.3601568121891
 30
0.0
 10
136.0836340074951
 20
134.7989246996863
 30
0.0
 10
136.0450993472018
 20
135.2727748473208
 30
0.0
 10
136.0065378789184
 20
135.7756039346498
 30
0.0
 10
135.9679671353024
 20
136.3010512598699
 30
0.0
 10
135.9294274311972
 20
136.8406447822065
 30
0.0
 10
135.890901620686
 20
137.3863212213545
 30
0.0
 10
135.852380008561
 20
137.9301232359103
 30
0.0
 10
135.8138492506951
 20
138.4640563524635
 30
0.0
 10
135.775295031354
 20
138.9802152523391
 30
0.0
 10
135.7367227556234
 20
139.4700695733104
 30
0.0
 10
135.6981747366575
 20
139.9264635954054
 30
0.0
 10
135.659646766223
 20
140.3441851957988
 30
0.0
 10
135.6211253391875
 20
140.7177715890081
 30
0.0
 10
135.5825978262619
 20
141.0418121495963
 30
0.0
 10
135.5440508369423
 20
141.3107028448348
 30
0.0
 10
135.5054788420376
 20
141.5190975670913
 30
0.0
 10
135.4669235784015
 20
141.660269028743
 30
0.0
 10
135.4317535633141
 20
141.7378932641912
 30
0.0
 10
135.4094307309491
 20
141.7394211422525
 30
0.0
 10
135.3999440700569
 20
141.7400704532725
 30
0.0
  0
LINE
  5
14B
330
1F
100
AcDbEntity
  8
0
  6
Continuous
 62
     8
370
    15
100
AcDbLine
 10
134.4648682655
 20
133.335407155
 30
0.0
 11
134.5109808401
 21
133.5006775636
 31
0.0
  0
SPLINE
  5
14C
330
1F
100
AcDbEntity
  8
0
  6
Continuous
 62
     8
370
    15
100
AcDbSpline
210
0.0
220
0.0
230
1.0
 70
     8
 71
     3
 72
    11
 73
     7
 74
     0
 42
0.00000001
 43
0.00000001
 12
1.0
 22
0.0
 32
0.0
 13
1.0
 23
0.0
 33
0.0
 40
0.0
 40
0.0
 40
0.0
 40
0.0
 40
0.223661158625227
 40
0.5430881763940096
 40
0.8619714047762258
 40
1.0
 40
1.0
 40
1.0
 40
1.0
 10
135.1181379661717
 20
139.7659117657554
 30
0.0
 10
135.131632663079
 20
139.8969583502418
 30
0.0
 10
135.1644001332083
 20
140.2151622396827
 30
0.0
 10
135.2163686842287
 20
140.6099336865655
 30
0.0
 10
135.2633117716364
 20
140.9097442913891
 30
0.0
 10
135.2909296617408
 20
141.0049991699952
 30
0.0
 10
135.2992727563538
 20
141.0337747376275
 30
0.0
  0
SPLINE
  5
14D
330
1F
100
AcDbEntity
  8
0
  6
Continuous
 62
     8
370
    15
100
AcDbSpline
210
0.0
220
0.0
230
1.0
 70
     8
 71
     3
 72
    11
 73
     7
 74
     0
 42
0.00000001
 43
0.00000001
 12
1.0
 22
0.0
 32
0.0
 13
1.0
 23
0.0
 33
0.0
 40
0.0
 40
0.0
 40
0.0
 40
0.0
 40
0.242691952656546
 40
0.5592744240123962
 40
0.8758287074462595
 40
1.0
 40
1.0
 40
1.0
 40
1.0
 10
136.501722890214
 20
133.4627217449111
 30
0.0
 10
136.5165263613832
 20
133.5238805797321
 30
0.0
 10
136.5506404006866
 20
133.6648188009766
 30
0.0
 10
136.6039291539709
 20
134.0321102486014
 30
0.0
 10
136.6500022854945
 20
134.403607922956
 30
0.0
 10
136.6768854227438
 20
134.6743873580869
 30
0.0
 10
136.6844595552244
 20
134.7506775356692
 30
0.0
  0
SPLINE
  5
14E
330
1F
100
AcDbEntity
  8
0
  6
Continuous
 62
     8
370
    15
100
AcDbSpline
210
0.0
220
0.0
230
1.0
 70
     8
 71
     3
 72
    11
 73
     7
 74
     0
 42
0.00000001
 43
0.00000001
 12
1.0
 22
0.0
 32
0.0
 13
1.0
 23
0.0
 33
0.0
 40
0.0
 40
0.0
 40
0.0
 40
0.0
 40
0.0454099642877667
 40
0.3639445901168671
 40
0.6821468562605143
 40
1.0
 40
1.0
 40
1.0
 40
1.0
 10
137.1160120845594
 20
139.7506774239105
 30
0.0
 10
137.1187549187281
 20
139.7791037649725
 30
0.0
 10
137.1407377516358
 20
140.006930701386
 30
0.0
 10
137.1820204224387
 20
140.3567613790132
 30
0.0
 10
137.2398718513587
 20
140.7771320695774
 30
0.0
 10
137.2783143117769
 20
140.9521608259734
 30
0.0
 10
137.2975249917068
 20
141.0396271686864
 30
0.0
  0
SPLINE
  5
14F
330
1F
100
AcDbEntity
  8
0
  6
Continuous
 62
     8
370
    15
100
AcDbSpline
210
0.0
220
0.0
230
1.0
 70
     8
 71
     3
 72
    12
 73
     8
 74
     0
 42
0.00000001
 43
0.00000001
 12
1.0
 22
0.0
 32
0.0
 13
1.0
 23
0.0
 33
0.0
 40
0.0
 40
0.0
 40
0.0
 40
0.0
 40
0.0499543493107756
 40
0.3664690921614239
 40
0.6825173509289176
 40
0.998267979406635
 40
1.0
 40
1.0
 40
1.0
 40
1.0
 10
138.5026116997757
 20
133.4665648475153
 30
0.0
 10
138.5056554964733
 20
133.4760605116701
 30
0.0
 10
138.5279850318969
 20
133.5457214615235
 30
0.0
 10
138.5695013623982
 20
133.7918241634884
 30
0.0
 10
138.6273267218824
 20
134.2116217865085
 30
0.0
 10
138.6660425685443
 20
134.5467716636139
 30
0.0
 10
138.6853899644004
 20
134.7495711668113
 30
0.0
 10
138.6854955137529
 20
134.7506775356692
 30
0.0
  0
SPLINE
  5
150
330
1F
100
AcDbEntity
  8
0
  6
Continuous
 62
     8
370
    15
100
AcDbSpline
210
0.0
220
0.0
230
1.0
 70
     8
 71
     3
 72
    11
 73
     7
 74
     0
 42
0.00000001
 43
0.00000001
 12
1.0
 22
0.0
 32
0.0
 13
1.0
 23
0.0
 33
0.0
 40
0.0
 40
0.0
 40
0.0
 40
0.0
 40
0.1704747882553377
 40
0.4859171139723857
 40
0.801807776257459
 40
1.0
 40
1.0
 40
1.0
 40
1.0
 10
139.1164017052212
 20
139.7506774239105
 30
0.0
 10
139.1268288137644
 20
139.8544153406482
 30
0.0
 10
139.1565499856882
 20
140.1501073290445
 30
0.0
 10
139.2055418563017
 20
140.532925239723
 30
0.0
 10
139.2561092083812
 20
140.8669375520202
 30
0.0
 10
139.287497461652
 20
140.9883566393977
 30
0.0
 10
139.2995984435835
 20
141.0351668320459
 30
0.0
  0
LINE
  5
151
330
1F
100
AcDbEntity
  8
0
  6
Continuous
 62
     8
370
    15
100
AcDbLine
 10
140.5013025881
 20
133.4677166607
 30
0.0
 11
140.5094274462
 21
133.5006775636
 31
0.0
  0
LINE
  5
152
330
1F
100
AcDbEntity
  8
0
  6
Continuous
 62
     8
370
    15
100
AcDbLine
 10
141.2873872698
 20
141.000677396
 30
0.0
 11
141.2997123928
 21
141.0409417305
 31
0.0
  0
DIMENSION
  5
153
330
1F
100
AcDbEntity
  8
0
  6
Continuous
 62
     7
370
     0
100
AcDbDimension
  2
_D_3
 10
110.6470587433
 20
133.7506774798
 30
0.0
 11
110.6470587433
 21
136.7394436347
 31
0.0
 70
   160
  1
%%c<>
 71
     2
 42
-1.0
  3
SLDDIMSTYLE2
100
AcDbAlignedDimension
 13
120.6470587433
 23
140.7506774798
 33
0.0
 14
120.6470587433
 24
133.7506774798
 34
0.0
 50
90.0
100
AcDbRotatedDimension
  0
DIMENSION
  5
161
330
1F
100
AcDbEntity
  8
0
  6
Continuous
 62
     7
370
     0
100
AcDbDimension
  2
_D_4
 10
126.1470587433
 20
152.8800388547
 30
0.0
 11
113.0818404311
 21
152.8800388547
 31
0.0
 70
   160
  1
<>
 71
     2
 42
-1.0
  3
SLDDIMSTYLE2
100
AcDbAlignedDimension
 13
120.6470587433
 23
140.7506774798
 33
0.0
 14
126.1470587433
 24
143.2506774798
 34
0.0
100
AcDbRotatedDimension
  0
DIMENSION
  5
16D
330
1F
100
AcDbEntity
  8
0
  6
Continuous
 62
     7
370
     0
100
AcDbDimension
  2
_D_5
 10
140.1470587433
 20
152.8800388547
 30
0.0
 11
148.3303747387
 21
152.8800388547
 31
0.0
 70
   160
  1
<>st
 71
     2
 42
-1.0
  3
SLDDIMSTYLE2
100
AcDbAlignedDimension
 13
135.1470587433
 23
141.0006774798
 33
0.0
 14
140.1470587433
 24
140.7006774798
 34
0.0
100
AcDbRotatedDimension
  0
DIMENSION
  5
17A
330
1F
100
AcDbEntity
  8
0
  6
Continuous
 62
     7
370
     0
100
AcDbDimension
  2
_D_6
 10
164.1470587433
 20
164.4688002088
 30
0.0
 11
142.4664097191
 21
164.4688002088
 31
0.0
 70
   160
  1
<>
 71
     2
 42
-1.0
  3
SLDDIMSTYLE0
100
AcDbAlignedDimension
 13
120.6470587433
 23
140.7506774798
 33
0.0
 14
164.1470587433
 24
139.2506774798
 34
0.0
100
AcDbRotatedDimension
  0
DIMENSION
  5
184
330
1F
100
AcDbEntity
  8
0
  6
Continuous
 62
     7
370
     0
100
AcDbDimension
  2
_D_7
 10
172.2893781004
 20
134.7506774798
 30
0.0
 11
172.2893781004
 21
147.480833184
 31
0.0
 70
   160
  1
%%c<>
 71
     2
 42
-1.0
  3
SLDDIMSTYLE2
100
AcDbAlignedDimension
 13
163.6470587433
 23
139.7506774798
 33
0.0
 14
163.6470587433
 24
134.7506774798
 34
0.0
 50
90.0
100
AcDbRotatedDimension
  0
DIMENSION
  5
191
330
1F
100
AcDbEntity
  8
0
  6
Continuous
 62
     7
370
     0
100
AcDbDimension
  2
_D_8
 10
184.5934677225
 20
131.2506774798
 30
0.0
 11
184.5934677225
 21
136.405966354
 31
0.0
 70
   160
  1
%%c<>
 71
     2
 42
-1.0
  3
SLDDIMSTYLE2
100
AcDbAlignedDimension
 13
161.8470587433
 23
143.2506774798
 33
0.0
 14
161.8470587433
 24
131.2506774798
 34
0.0
 50
90.0
100
AcDbRotatedDimension
  0
DIMENSION
  5
19E
330
1F
100
AcDbEntity
  8
0
  6
Continuous
 62
     7
370
     0
100
AcDbDimension
  2
_D_9
 10
162.1470587433
 20
112.8853003143
 30
0.0
 11
152.7415321442
 21
112.8853003143
 31
0.0
 70
   160
  1
<>
 71
     2
 42
-1.0
  3
SLDDIMSTYLE0
100
AcDbAlignedDimension
 13
144.1470587433
 23
129.5506774798
 33
0.0
 14
162.1470587433
 24
131.5506774798
 34
0.0
100
AcDbRotatedDimension
  0
MTEXT
  5
1A8
330
1F
100
AcDbEntity
  8
0
  6
Continuous
 62
     7
370
     0
100
AcDbMText
 10
106.1092113846
 20
119.8068942078
 30
0.0
 40
3.5
 41
0.0
 71
     1
 72
     1
  1
BF-6
  7
SLDTEXTSTYLE1
 73
     1
 44
1.0
  0
LEADER
  5
1A9
330
1F
100
AcDbEntity
  8
0
  6
Continuous
 62
     7
370
     0
100
AcDbLeader
  3
SLDDIMSTYLE1
 76
     3
 10
129.4758069314
 20
124.1606682405
 30
0.0
 10
115.6459854015
 20
115.4197080292
 30
0.0
 10
106.0218978102
 20
115.4197080292
 30
0.0
  0
ENDSEC
  0
SECTION
  2
OBJECTS
  0
DICTIONARY
  5
C
330
0
100
AcDbDictionary
281
     1
  3
ACAD_GROUP
350
D
  3
ACAD_LAYOUT
350
1A
  3
ACAD_MLINESTYLE
350
17
  3
ACAD_PLOTSETTINGS
350
19
  3
ACAD_PLOTSTYLENAME
350
E
  0
DICTIONARY
  5
D
102
{ACAD_REACTORS
330
C
102
}
330
C
100
AcDbDictionary
281
     1
  0
DICTIONARY
  5
1A
102
{ACAD_REACTORS
330
C
102
}
330
C
100
AcDbDictionary
281
     1
  3
Layout1
350
1E
  3
Layout2
350
26
  3
Model
350
22
  0
DICTIONARY
  5
17
102
{ACAD_REACTORS
330
C
102
}
330
C
100
AcDbDictionary
281
     1
  3
Standard
350
18
  0
DICTIONARY
  5
19
102
{ACAD_REACTORS
330
C
102
}
330
C
100
AcDbDictionary
281
     1
  0
ACDBDICTIONARYWDFLT
  5
E
102
{ACAD_REACTORS
330
C
102
}
330
C
100
AcDbDictionary
281
     1
  3
Normal
350
F
100
AcDbDictionaryWithDefault
340
F
  0
LAYOUT
  5
1E
102
{ACAD_REACTORS
330
1A
102
}
330
1A
100
AcDbPlotSettings
  1

  2
none_device
  4

  6

 40
0.0
 41
0.0
 42
0.0
 43
0.0
 44
0.0
 45
0.0
 46
0.0
 47
0.0
 48
0.0
 49
0.0
140
0.0
141
0.0
142
1.0
143
1.0
 70
   688
 72
     0
 73
     0
 74
     5
  7

 75
    16
147
1.0
148
0.0
149
0.0
100
AcDbLayout
  1
Layout1
 70
     1
 71
     1
 10
0.0
 20
0.0
 11
420.0
 21
297.0
 12
0.0
 22
0.0
 32
0.0
 14
1.0000000000E+20
 24
1.0000000000E+20
 34
1.0000000000E+20
 15
-1.0000000000E+20
 25
-1.0000000000E+20
 35
-1.0000000000E+20
146
0.0
 13
0.0
 23
0.0
 33
0.0
 16
1.0
 26
0.0
 36
0.0
 17
0.0
 27
1.0
 37
0.0
 76
     0
330
1B
  0
LAYOUT
  5
26
102
{ACAD_REACTORS
330
1A
102
}
330
1A
100
AcDbPlotSettings
  1

  2
none_device
  4

  6

 40
0.0
 41
0.0
 42
0.0
 43
0.0
 44
0.0
 45
0.0
 46
0.0
 47
0.0
 48
0.0
 49
0.0
140
0.0
141
0.0
142
1.0
143
1.0
 70
   688
 72
     0
 73
     0
 74
     5
  7

 75
    16
147
1.0
148
0.0
149
0.0
100
AcDbLayout
  1
Layout2
 70
     1
 71
     2
 10
0.0
 20
0.0
 11
0.0
 21
0.0
 12
0.0
 22
0.0
 32
0.0
 14
0.0
 24
0.0
 34
0.0
 15
0.0
 25
0.0
 35
0.0
146
0.0
 13
0.0
 23
0.0
 33
0.0
 16
1.0
 26
0.0
 36
0.0
 17
0.0
 27
1.0
 37
0.0
 76
     0
330
23
  0
LAYOUT
  5
22
102
{ACAD_REACTORS
330
1A
102
}
330
1A
100
AcDbPlotSettings
  1

  2
none_device
  4

  6

 40
0.0
 41
0.0
 42
0.0
 43
0.0
 44
0.0
 45
0.0
 46
0.0
 47
0.0
 48
0.0
 49
0.0
140
0.0
141
0.0
142
1.0
143
1.0
 70
  1712
 72
     0
 73
     0
 74
     0
  7

 75
     0
147
1.0
148
0.0
149
0.0
100
AcDbLayout
  1
Model
 70
     1
 71
     0
 10
0.0
 20
0.0
 11
210.0
 21
297.0
 12
0.0
 22
0.0
 32
0.0
 14
0.0
 24
0.0
 34
0.0
 15
210.0
 25
297.0
 35
0.0
146
0.0
 13
0.0
 23
0.0
 33
0.0
 16
1.0
 26
0.0
 36
0.0
 17
0.0
 27
1.0
 37
0.0
 76
     0
330
1F
331
29
  0
MLINESTYLE
  5
18
102
{ACAD_REACTORS
330
17
102
}
330
17
100
AcDbMlineStyle
  2
Standard
 70
     0
  3

 62
   256
 51
90.0
 52
90.0
 71
     2
 49
0.5
 62
   256
  6
BYLAYER
 49
-0.5
 62
   256
  6
BYLAYER
  0
ACDBPLACEHOLDER
  5
F
102
{ACAD_REACTORS
330
E
102
}
330
E
  0
ENDSEC
  0
EOF
