  0
SECTION
  2
HEADER
  9
$ACADVER
  1
AC1015
  9
$ACADMAINTVER
 70
     6
  9
$DWGCODEPAGE
  3
DOS932
  9
$INSBASE
 10
0.0
 20
0.0
 30
0.0
  9
$EXTMIN
 10
0.0
 20
0.0
 30
0.0
  9
$EXTMAX
 10
210.0
 20
297.0
 30
0.0
  9
$LIMMIN
 10
0.0
 20
0.0
  9
$LIMMAX
 10
210.0
 20
297.0
  9
$ORTHOMODE
 70
     0
  9
$REGENMODE
 70
     1
  9
$FILLMODE
 70
     1
  9
$QTEXTMODE
 70
     0
  9
$MIRRTEXT
 70
     1
  9
$LTSCALE
 40
1.0
  9
$ATTMODE
 70
     1
  9
$TEXTSIZE
 40
3.5
  9
$TRACEWID
 40
1.0
  9
$TEXTSTYLE
  7
Standard
  9
$CLAYER
  8
0
  9
$CELTYPE
  6
ByLayer
  9
$CECOLOR
 62
   256
  9
$CELTSCALE
 40
1.0
  9
$DISPSILH
 70
     0
  9
$DIMSCALE
 40
1.0
  9
$DIMASZ
 40
2.0
  9
$DIMEXO
 40
1.0
  9
$DIMDLI
 40
3.75
  9
$DIMRND
 40
0.0
  9
$DIMDLE
 40
0.0
  9
$DIMEXE
 40
1.0
  9
$DIMTP
 40
0.0
  9
$DIMTM
 40
0.0
  9
$DIMTXT
 40
3.5
  9
$DIMCEN
 40
2.5
  9
$DIMTSZ
 40
0.0
  9
$DIMTOL
 70
     0
  9
$DIMLIM
 70
     0
  9
$DIMTIH
 70
     1
  9
$DIMTOH
 70
     1
  9
$DIMSE1
 70
     0
  9
$DIMSE2
 70
     0
  9
$DIMTAD
 70
     1
  9
$DIMZIN
 70
     0
  9
$DIMBLK
  1

  9
$DIMASO
 70
     1
  9
$DIMSHO
 70
     1
  9
$DIMPOST
  1

  9
$DIMAPOST
  1

  9
$DIMALT
 70
     0
  9
$DIMALTD
 70
     3
  9
$DIMALTF
 40
0.0393700787
  9
$DIMLFAC
 40
1.0
  9
$DIMTOFL
 70
     1
  9
$DIMTVP
 40
0.0
  9
$DIMTIX
 70
     0
  9
$DIMSOXD
 70
     0
  9
$DIMSAH
 70
     0
  9
$DIMBLK1
  1

  9
$DIMBLK2
  1

  9
$DIMSTYLE
  2
ISO-25
  9
$DIMCLRD
 70
     0
  9
$DIMCLRE
 70
     0
  9
$DIMCLRT
 70
     0
  9
$DIMTFAC
 40
1.0
  9
$DIMGAP
 40
1.524
  9
$DIMJUST
 70
     0
  9
$DIMSD1
 70
     0
  9
$DIMSD2
 70
     0
  9
$DIMTOLJ
 70
     0
  9
$DIMTZIN
 70
     0
  9
$DIMALTZ
 70
     0
  9
$DIMALTTZ
 70
     0
  9
$DIMUPT
 70
     0
  9
$DIMDEC
 70
     2
  9
$DIMTDEC
 70
     2
  9
$DIMALTU
 70
     2
  9
$DIMALTTD
 70
     3
  9
$DIMTXSTY
  7
Standard
  9
$DIMAUNIT
 70
     0
  9
$DIMADEC
 70
     2
  9
$DIMALTRND
 40
0.0
  9
$DIMAZIN
 70
     0
  9
$DIMDSEP
 70
    44
  9
$DIMATFIT
 70
     3
  9
$DIMFRAC
 70
     0
  9
$DIMLDRBLK
  1

  9
$DIMLUNIT
 70
     2
  9
$DIMLWD
 70
    -2
  9
$DIMLWE
 70
    -2
  9
$DIMTMOVE
 70
     0
  9
$LUNITS
 70
     2
  9
$LUPREC
 70
     2
  9
$SKETCHINC
 40
1.0
  9
$FILLETRAD
 40
10.0
  9
$AUNITS
 70
     0
  9
$AUPREC
 70
     2
  9
$MENU
  1
.
  9
$ELEVATION
 40
0.0
  9
$PELEVATION
 40
0.0
  9
$THICKNESS
 40
0.0
  9
$LIMCHECK
 70
     0
  9
$CHAMFERA
 40
10.0
  9
$CHAMFERB
 40
10.0
  9
$CHAMFERC
 40
20.0
  9
$CHAMFERD
 40
0.0
  9
$SKPOLY
 70
     0
  9
$TDCREATE
 40
2456916.731113681
  9
$TDUCREATE
 40
2456916.356113681
  9
$TDUPDATE
 40
2456916.731115845
  9
$TDUUPDATE
 40
2456916.356115845
  9
$TDINDWG
 40
0.0000000116
  9
$TDUSRTIMER
 40
0.0000000116
  9
$USRTIMER
 70
     1
  9
$ANGBASE
 50
0.0
  9
$ANGDIR
 70
     0
  9
$PDMODE
 70
     0
  9
$PDSIZE
 40
-1.0
  9
$PLINEWID
 40
0.0
  9
$SPLFRAME
 70
     0
  9
$SPLINETYPE
 70
     6
  9
$SPLINESEGS
 70
     8
  9
$HANDSEED
  5
23F
  9
$SURFTAB1
 70
     6
  9
$SURFTAB2
 70
     6
  9
$SURFTYPE
 70
     6
  9
$SURFU
 70
     6
  9
$SURFV
 70
     6
  9
$UCSBASE
  2

  9
$UCSNAME
  2

  9
$UCSORG
 10
0.0
 20
0.0
 30
0.0
  9
$UCSXDIR
 10
1.0
 20
0.0
 30
0.0
  9
$UCSYDIR
 10
0.0
 20
1.0
 30
0.0
  9
$UCSORTHOREF
  2

  9
$UCSORTHOVIEW
 70
     0
  9
$UCSORGTOP
 10
0.0
 20
0.0
 30
0.0
  9
$UCSORGBOTTOM
 10
0.0
 20
0.0
 30
0.0
  9
$UCSORGLEFT
 10
0.0
 20
0.0
 30
0.0
  9
$UCSORGRIGHT
 10
0.0
 20
0.0
 30
0.0
  9
$UCSORGFRONT
 10
0.0
 20
0.0
 30
0.0
  9
$UCSORGBACK
 10
0.0
 20
0.0
 30
0.0
  9
$PUCSBASE
  2

  9
$PUCSNAME
  2

  9
$PUCSORG
 10
0.0
 20
0.0
 30
0.0
  9
$PUCSXDIR
 10
1.0
 20
0.0
 30
0.0
  9
$PUCSYDIR
 10
0.0
 20
1.0
 30
0.0
  9
$PUCSORTHOREF
  2

  9
$PUCSORTHOVIEW
 70
     0
  9
$PUCSORGTOP
 10
0.0
 20
0.0
 30
0.0
  9
$PUCSORGBOTTOM
 10
0.0
 20
0.0
 30
0.0
  9
$PUCSORGLEFT
 10
0.0
 20
0.0
 30
0.0
  9
$PUCSORGRIGHT
 10
0.0
 20
0.0
 30
0.0
  9
$PUCSORGFRONT
 10
0.0
 20
0.0
 30
0.0
  9
$PUCSORGBACK
 10
0.0
 20
0.0
 30
0.0
  9
$USERI1
 70
     0
  9
$USERI2
 70
     0
  9
$USERI3
 70
     0
  9
$USERI4
 70
     0
  9
$USERI5
 70
     0
  9
$USERR1
 40
0.0
  9
$USERR2
 40
0.0
  9
$USERR3
 40
0.0
  9
$USERR4
 40
0.0
  9
$USERR5
 40
0.0
  9
$WORLDVIEW
 70
     1
  9
$SHADEDGE
 70
     3
  9
$SHADEDIF
 70
    70
  9
$TILEMODE
 70
     1
  9
$MAXACTVP
 70
    64
  9
$PINSBASE
 10
0.0
 20
0.0
 30
0.0
  9
$PLIMCHECK
 70
     0
  9
$PEXTMIN
 10
1.0000000000E+20
 20
1.0000000000E+20
 30
1.0000000000E+20
  9
$PEXTMAX
 10
-1.0000000000E+20
 20
-1.0000000000E+20
 30
-1.0000000000E+20
  9
$PLIMMIN
 10
0.0
 20
0.0
  9
$PLIMMAX
 10
420.0
 20
297.0
  9
$UNITMODE
 70
     0
  9
$VISRETAIN
 70
     1
  9
$PLINEGEN
 70
     0
  9
$PSLTSCALE
 70
     1
  9
$TREEDEPTH
 70
  3020
  9
$CMLSTYLE
  2
Standard
  9
$CMLJUST
 70
     0
  9
$CMLSCALE
 40
20.0
  9
$PROXYGRAPHICS
 70
     1
  9
$MEASUREMENT
 70
     1
  9
$CELWEIGHT
370
    -1
  9
$ENDCAPS
280
     0
  9
$JOINSTYLE
280
     0
  9
$LWDISPLAY
290
     1
  9
$INSUNITS
 70
     4
  9
$HYPERLINKBASE
  1

  9
$STYLESHEET
  1

  9
$XEDIT
290
     1
  9
$CEPSNTYPE
380
     0
  9
$PSTYLEMODE
290
     1
  9
$FINGERPRINTGUID
  2
{828B7421-22D4-4851-BADD-1683143856BB}
  9
$VERSIONGUID
  2
{FAEB1C32-E019-11D5-929B-00C0DF256EC4}
  9
$EXTNAMES
290
     1
  9
$PSVPSCALE
 40
0.0
  9
$OLESTARTUP
290
     0
  0
ENDSEC
  0
SECTION
  2
CLASSES
  0
CLASS
  1
ACDBDICTIONARYWDFLT
  2
AcDbDictionaryWithDefault
  3
ObjectDBX Classes
 90
        0
280
     0
281
     0
  0
CLASS
  1
VISUALSTYLE
  2
AcDbVisualStyle
  3
ObjectDBX Classes
 90
     4095
280
     0
281
     0
  0
CLASS
  1
MATERIAL
  2
AcDbMaterial
  3
ObjectDBX Classes
 90
     1153
280
     0
281
     0
  0
CLASS
  1
ACDBPLACEHOLDER
  2
AcDbPlaceHolder
  3
ObjectDBX Classes
 90
        0
280
     0
281
     0
  0
CLASS
  1
LAYOUT
  2
AcDbLayout
  3
ObjectDBX Classes
 90
        0
280
     0
281
     0
  0
ENDSEC
  0
SECTION
  2
TABLES
  0
TABLE
  2
VPORT
  5
8
330
0
100
AcDbSymbolTable
 70
     1
  0
VPORT
  5
29
330
8
100
AcDbSymbolTableRecord
100
AcDbViewportTableRecord
  2
*Active
 70
     0
 10
0.0
 20
0.0
 11
1.0
 21
1.0
 12
105.0
 22
148.5
 13
0.0
 23
0.0
 14
10.0
 24
10.0
 15
10.0
 25
10.0
 16
0.0
 26
0.0
 36
1.0
 17
0.0
 27
0.0
 37
0.0
 40
297.0
 41
0.7070707071
 42
50.0
 43
0.0
 44
0.0
 50
0.0
 51
0.0
 71
     0
 72
  2000
 73
     1
 74
     3
 75
     0
 76
     0
 77
     0
 78
     0
281
     0
 65
     1
110
0.0
120
0.0
130
0.0
111
1.0
121
0.0
131
0.0
112
0.0
122
1.0
132
0.0
 79
     0
146
0.0
  0
ENDTAB
  0
TABLE
  2
LTYPE
  5
5
330
0
100
AcDbSymbolTable
 70
     6
  0
LTYPE
  5
14
330
5
100
AcDbSymbolTableRecord
100
AcDbLinetypeTableRecord
  2
ByBlock
 70
     0
  3

 72
    65
 73
     0
 40
0.0
  0
LTYPE
  5
15
330
5
100
AcDbSymbolTableRecord
100
AcDbLinetypeTableRecord
  2
ByLayer
 70
     0
  3

 72
    65
 73
     0
 40
0.0
  0
LTYPE
  5
16
330
5
100
AcDbSymbolTableRecord
100
AcDbLinetypeTableRecord
  2
Continuous
 70
     0
  3
Solid line
 72
    65
 73
     0
 40
0.0
  0
LTYPE
  5
3F
330
5
100
AcDbSymbolTableRecord
100
AcDbLinetypeTableRecord
  2
HIDDEN
 70
     0
  3
Hidden __ __ __ __ __ __ __ __ __ __ __ __ __ __
 72
    65
 73
     2
 40
1.905
 49
1.27
 74
     0
 49
-0.635
 74
     0
  0
LTYPE
  5
40
330
5
100
AcDbSymbolTableRecord
100
AcDbLinetypeTableRecord
  2
PHANTOM
 70
     0
  3
Phantom ______  __  __  ______  __  __  ______
 72
    65
 73
     6
 40
12.7
 49
6.35
 74
     0
 49
-1.27
 74
     0
 49
1.27
 74
     0
 49
-1.27
 74
     0
 49
1.27
 74
     0
 49
-1.27
 74
     0
  0
LTYPE
  5
41
330
5
100
AcDbSymbolTableRecord
100
AcDbLinetypeTableRecord
  2
CENTER
 70
     0
  3
Center ____ _ ____ _ ____ _ ____ _ ____ _ ____
 72
    65
 73
     4
 40
10.16
 49
6.35
 74
     0
 49
-1.27
 74
     0
 49
1.27
 74
     0
 49
-1.27
 74
     0
  0
LTYPE
  5
42
330
5
100
AcDbSymbolTableRecord
100
AcDbLinetypeTableRecord
  2
CENTERX2
 70
     0
  3
Center (2x) ________  __  ________  __  _____
 72
    65
 73
     4
 40
20.32
 49
12.7
 74
     0
 49
-2.54
 74
     0
 49
2.54
 74
     0
 49
-2.54
 74
     0
  0
LTYPE
  5
43
330
5
100
AcDbSymbolTableRecord
100
AcDbLinetypeTableRecord
  2
DOT2
 70
     0
  3
Dot (.5x) ........................................
 72
    65
 73
     2
 40
0.635
 49
0.0
 74
     0
 49
-0.635
 74
     0
  0
ENDTAB
  0
TABLE
  2
LAYER
  5
2
330
0
100
AcDbSymbolTable
 70
     1
  0
LAYER
  5
10
330
2
100
AcDbSymbolTableRecord
100
AcDbLayerTableRecord
  2
0
 70
     0
 62
     7
  6
Continuous
370
    -3
390
F
  0
ENDTAB
  0
TABLE
  2
STYLE
  5
3
330
0
100
AcDbSymbolTable
 70
     3
  0
STYLE
  5
11
330
3
100
AcDbSymbolTableRecord
100
AcDbTextStyleTableRecord
  2
Standard
 70
     0
 40
0.0
 41
1.0
 50
0.0
 71
     0
 42
3.5
  3
txt
  4
bigfont
  0
STYLE
  5
4C
330
3
100
AcDbSymbolTableRecord
100
AcDbTextStyleTableRecord
  2
SLDTEXTSTYLE0
 70
     0
 40
0.0
 41
0.7
 50
0.0
 71
     0
 42
0.2
  3
TXT
  4
bigfont
  0
STYLE
  5
A9
330
3
100
AcDbSymbolTableRecord
100
AcDbTextStyleTableRecord
  2
SLDTEXTSTYLE1
 70
     0
 40
0.0
 41
0.75
 50
0.0
 71
     0
 42
0.2
  3
TXT
  4
bigfont
  0
ENDTAB
  0
TABLE
  2
VIEW
  5
6
330
0
100
AcDbSymbolTable
 70
     0
  0
ENDTAB
  0
TABLE
  2
UCS
  5
7
330
0
100
AcDbSymbolTable
 70
     0
  0
ENDTAB
  0
TABLE
  2
APPID
  5
9
330
0
100
AcDbSymbolTable
 70
     1
  0
APPID
  5
12
330
9
100
AcDbSymbolTableRecord
100
AcDbRegAppTableRecord
  2
ACAD
 70
     0
  0
ENDTAB
  0
TABLE
  2
DIMSTYLE
  5
A
330
0
100
AcDbSymbolTable
 70
     5
100
AcDbDimStyleTable
  0
DIMSTYLE
105
27
330
A
100
AcDbSymbolTableRecord
100
AcDbDimStyleTableRecord
  2
ISO-25
 70
     0
 41
2.5
 42
0.625
 43
3.75
 44
1.25
 73
     0
 74
     0
 77
     1
 78
     8
140
2.5
141
2.5
143
0.0393700787
147
0.625
171
     3
172
     1
178
     0
271
     2
272
     2
274
     3
278
    44
283
     0
284
     8
340
11
  0
DIMSTYLE
105
AA
102
{ACAD_REACTORS
330
A8
102
}
330
A
100
AcDbSymbolTableRecord
100
AcDbDimStyleTableRecord
  2
SLDDIMSTYLE0
 70
     0
 41
2.0
 44
0.0
 45
0.000000001
 73
     0
 74
     0
 77
     3
 78
    12
 79
     3
140
3.5
147
0.875
173
     1
178
     0
271
     2
272
     2
276
     2
284
    12
340
A9
  0
DIMSTYLE
105
B5
102
{ACAD_REACTORS
330
B4
330
1E9
330
1F3
330
1FD
330
22D
102
}
330
A
100
AcDbSymbolTableRecord
100
AcDbDimStyleTableRecord
  2
SLDDIMSTYLE1
 70
     0
 41
2.0
 44
0.0
 45
0.000000001
 73
     0
 74
     0
 77
     3
 78
    12
 79
     3
140
3.5
147
0.875
173
     1
178
     0
271
     1
272
     1
276
     2
284
    12
340
A9
  0
DIMSTYLE
105
C0
330
A
100
AcDbSymbolTableRecord
100
AcDbDimStyleTableRecord
  2
SLDDIMSTYLE2
 70
     0
 41
2.0
 44
0.0
 45
0.000000001
140
0.0
146
2.0
147
0.0
173
     1
178
     0
271
     0
272
     0
276
     2
340
11
  0
DIMSTYLE
105
1C4
102
{ACAD_REACTORS
330
1C3
330
1D1
330
1DD
330
207
330
214
330
220
102
}
330
A
100
AcDbSymbolTableRecord
100
AcDbDimStyleTableRecord
  2
SLDDIMSTYLE3
 70
     0
 41
2.0
 44
0.0
 45
0.000000001
 73
     0
 74
     0
 77
     3
 78
    12
 79
     3
140
3.5
147
0.875
172
     1
173
     1
178
     0
271
     1
272
     1
276
     2
284
    12
289
     0
340
A9
  0
ENDTAB
  0
TABLE
  2
BLOCK_RECORD
  5
1
330
0
100
AcDbSymbolTable
 70
    14
  0
BLOCK_RECORD
  5
1F
330
1
100
AcDbSymbolTableRecord
100
AcDbBlockTableRecord
  2
*Model_Space
340
22
  0
BLOCK_RECORD
  5
1B
330
1
100
AcDbSymbolTableRecord
100
AcDbBlockTableRecord
  2
*Paper_Space
340
1E
  0
BLOCK_RECORD
  5
23
330
1
100
AcDbSymbolTableRecord
100
AcDbBlockTableRecord
  2
*Paper_Space0
340
26
  0
BLOCK_RECORD
  5
AB
330
1
100
AcDbSymbolTableRecord
100
AcDbBlockTableRecord
  2
_D
340
0
  0
BLOCK_RECORD
  5
B6
330
1
100
AcDbSymbolTableRecord
100
AcDbBlockTableRecord
  2
_D_1
340
0
  0
BLOCK_RECORD
  5
C2
330
1
100
AcDbSymbolTableRecord
100
AcDbBlockTableRecord
  2
SW_CENTERMARKSYMBOL_0
340
0
102
{BLKREFS
331
CD
102
}
  0
BLOCK_RECORD
  5
1C5
330
1
100
AcDbSymbolTableRecord
100
AcDbBlockTableRecord
  2
_D_2
340
0
  0
BLOCK_RECORD
  5
1D2
330
1
100
AcDbSymbolTableRecord
100
AcDbBlockTableRecord
  2
_D_3
340
0
  0
BLOCK_RECORD
  5
1DE
330
1
100
AcDbSymbolTableRecord
100
AcDbBlockTableRecord
  2
_D_4
340
0
  0
BLOCK_RECORD
  5
1EA
330
1
100
AcDbSymbolTableRecord
100
AcDbBlockTableRecord
  2
_D_5
340
0
  0
BLOCK_RECORD
  5
1F4
330
1
100
AcDbSymbolTableRecord
100
AcDbBlockTableRecord
  2
_D_6
340
0
  0
BLOCK_RECORD
  5
1FE
330
1
100
AcDbSymbolTableRecord
100
AcDbBlockTableRecord
  2
_D_7
340
0
  0
BLOCK_RECORD
  5
208
330
1
100
AcDbSymbolTableRecord
100
AcDbBlockTableRecord
  2
_D_8
340
0
  0
BLOCK_RECORD
  5
215
330
1
100
AcDbSymbolTableRecord
100
AcDbBlockTableRecord
  2
_D_9
340
0
  0
BLOCK_RECORD
  5
221
330
1
100
AcDbSymbolTableRecord
100
AcDbBlockTableRecord
  2
_D_10
340
0
  0
BLOCK_RECORD
  5
22E
330
1
100
AcDbSymbolTableRecord
100
AcDbBlockTableRecord
  2
_D_11
340
0
  0
ENDTAB
  0
ENDSEC
  0
SECTION
  2
BLOCKS
  0
BLOCK
  5
20
330
1F
100
AcDbEntity
  8
0
100
AcDbBlockBegin
  2
*Model_Space
 70
     0
 10
0.0
 20
0.0
 30
0.0
  3
*Model_Space
  1

  0
ENDBLK
  5
21
330
1F
100
AcDbEntity
  8
0
100
AcDbBlockEnd
  0
BLOCK
  5
1C
330
1B
100
AcDbEntity
 67
     1
  8
0
100
AcDbBlockBegin
  2
*Paper_Space
 70
     0
 10
0.0
 20
0.0
 30
0.0
  3
*Paper_Space
  1

  0
ENDBLK
  5
1D
330
1B
100
AcDbEntity
 67
     1
  8
0
100
AcDbBlockEnd
  0
BLOCK
  5
24
330
23
100
AcDbEntity
  8
0
100
AcDbBlockBegin
  2
*Paper_Space0
 70
     0
 10
0.0
 20
0.0
 30
0.0
  3
*Paper_Space0
  1

  0
ENDBLK
  5
25
330
23
100
AcDbEntity
  8
0
100
AcDbBlockEnd
  0
BLOCK
  5
AC
330
AB
100
AcDbEntity
  8
0
100
AcDbBlockBegin
  2
_D
 70
     0
 10
0.0
 20
0.0
 30
0.0
  3
_D
  1

  0
SOLID
  5
AE
330
AB
100
AcDbEntity
  8
0
  6
Continuous
 62
     7
370
     0
100
AcDbTrace
 10
46.0484347177
 20
149.0650004278
 30
0.0
 11
45.2984347177
 21
147.0650004278
 31
0.0
 12
46.7984347177
 22
147.0650004278
 32
0.0
 13
46.7984347177
 23
147.0650004278
 33
0.0
  0
SOLID
  5
AF
330
AB
100
AcDbEntity
  8
0
  6
Continuous
 62
     7
370
     0
100
AcDbTrace
 10
46.0484347177
 20
137.0650004278
 30
0.0
 11
46.7984347177
 21
139.0650004278
 31
0.0
 12
45.2984347177
 22
139.0650004278
 32
0.0
 13
45.2984347177
 23
139.0650004278
 33
0.0
  0
LINE
  5
B0
330
AB
100
AcDbEntity
  8
0
  6
Continuous
 62
     7
370
     0
100
AcDbLine
 10
54.6249443581
 20
149.0650004278
 30
0.0
 11
45.0484347177
 21
149.0650004278
 31
0.0
  0
LINE
  5
B1
330
AB
100
AcDbEntity
  8
0
  6
Continuous
 62
     7
370
     0
100
AcDbLine
 10
54.0890459733
 20
137.0650004278
 30
0.0
 11
45.0484347177
 21
137.0650004278
 31
0.0
  0
LINE
  5
B2
330
AB
100
AcDbEntity
  8
0
  6
Continuous
 62
     7
370
     0
100
AcDbLine
 10
46.0484347177
 20
149.0650004278
 30
0.0
 11
46.0484347177
 21
137.0650004278
 31
0.0
  0
MTEXT
  5
B3
330
AB
100
AcDbEntity
  8
0
  6
Continuous
 62
     7
370
     0
100
AcDbMText
 10
41.5366978031
 20
140.4788892343
 30
22.35
 40
3.5
 41
0.0
 71
     1
 72
     1
  1
12
  7
SLDTEXTSTYLE1
 11
-7.044195017643634E-15
 21
1.0
 31
0.0
 73
     1
 44
1.0
  0
ENDBLK
  5
AD
330
AB
100
AcDbEntity
  8
0
100
AcDbBlockEnd
  0
BLOCK
  5
B7
330
B6
100
AcDbEntity
  8
0
100
AcDbBlockBegin
  2
_D_1
 70
     0
 10
0.0
 20
0.0
 30
0.0
  3
_D_1
  1

  0
SOLID
  5
B9
330
B6
100
AcDbEntity
  8
0
  6
Continuous
 62
     7
370
     0
100
AcDbTrace
 10
38.7705193749
 20
152.3650004278
 30
0.0
 11
38.0205193749
 21
150.3650004278
 31
0.0
 12
39.5205193749
 22
150.3650004278
 32
0.0
 13
39.5205193749
 23
150.3650004278
 33
0.0
  0
SOLID
  5
BA
330
B6
100
AcDbEntity
  8
0
  6
Continuous
 62
     7
370
     0
100
AcDbTrace
 10
38.7705193749
 20
133.7650004278
 30
0.0
 11
39.5205193749
 21
135.7650004278
 31
0.0
 12
38.0205193749
 22
135.7650004278
 32
0.0
 13
38.0205193749
 23
135.7650004278
 33
0.0
  0
LINE
  5
BB
330
B6
100
AcDbEntity
  8
0
  6
Continuous
 62
     7
370
     0
100
AcDbLine
 10
54.0390459733
 20
152.3650004278
 30
0.0
 11
37.7705193749
 21
152.3650004278
 31
0.0
  0
LINE
  5
BC
330
B6
100
AcDbEntity
  8
0
  6
Continuous
 62
     7
370
     0
100
AcDbLine
 10
54.0390459733
 20
133.7650004278
 30
0.0
 11
37.7705193749
 21
133.7650004278
 31
0.0
  0
LINE
  5
BD
330
B6
100
AcDbEntity
  8
0
  6
Continuous
 62
     7
370
     0
100
AcDbLine
 10
38.7705193749
 20
152.3650004278
 30
0.0
 11
38.7705193749
 21
133.7650004278
 31
0.0
  0
MTEXT
  5
BE
330
B6
100
AcDbEntity
  8
0
  6
Continuous
 62
     7
370
     0
100
AcDbMText
 10
34.2587824604
 20
138.5393058974
 30
22.35
 40
3.5
 41
0.0
 71
     1
 72
     1
  1
18.6
  7
SLDTEXTSTYLE1
 11
-7.044195017643634E-15
 21
1.0
 31
0.0
 73
     1
 44
1.0
  0
ENDBLK
  5
B8
330
B6
100
AcDbEntity
  8
0
100
AcDbBlockEnd
  0
BLOCK
  5
C3
330
C2
100
AcDbEntity
  8
0
100
AcDbBlockBegin
  2
SW_CENTERMARKSYMBOL_0
 70
     0
 10
0.0
 20
0.0
 30
0.0
  3
SW_CENTERMARKSYMBOL_0
  1

  0
LINE
  5
C5
330
C2
100
AcDbEntity
  8
0
  6
Continuous
 62
     0
370
     0
100
AcDbLine
 10
0.0
 20
0.0
 30
0.0
 11
0.0
 21
2.5
 31
0.0
  0
LINE
  5
C6
330
C2
100
AcDbEntity
  8
0
  6
Continuous
 62
     0
370
     0
100
AcDbLine
 10
0.0
 20
0.0
 30
0.0
 11
-2.5
 21
0.0
 31
0.0
  0
LINE
  5
C7
330
C2
100
AcDbEntity
  8
0
  6
Continuous
 62
     0
370
     0
100
AcDbLine
 10
0.0
 20
0.0
 30
0.0
 11
0.0
 21
-2.5
 31
0.0
  0
LINE
  5
C8
330
C2
100
AcDbEntity
  8
0
  6
Continuous
 62
     0
370
     0
100
AcDbLine
 10
0.0
 20
0.0
 30
0.0
 11
2.5
 21
0.0
 31
0.0
  0
LINE
  5
C9
330
C2
100
AcDbEntity
  8
0
  6
Continuous
 62
     0
370
     0
100
AcDbLine
 10
0.0
 20
5.0
 30
0.0
 11
0.0
 21
6.0
 31
0.0
  0
LINE
  5
CA
330
C2
100
AcDbEntity
  8
0
  6
Continuous
 62
     0
370
     0
100
AcDbLine
 10
-5.0
 20
0.0
 30
0.0
 11
-6.0
 21
0.0
 31
0.0
  0
LINE
  5
CB
330
C2
100
AcDbEntity
  8
0
  6
Continuous
 62
     0
370
     0
100
AcDbLine
 10
0.0
 20
-5.0
 30
0.0
 11
0.0
 21
-6.0
 31
0.0
  0
LINE
  5
CC
330
C2
100
AcDbEntity
  8
0
  6
Continuous
 62
     0
370
     0
100
AcDbLine
 10
5.0
 20
0.0
 30
0.0
 11
6.0
 21
0.0
 31
0.0
  0
ENDBLK
  5
C4
330
C2
100
AcDbEntity
  8
0
100
AcDbBlockEnd
  0
BLOCK
  5
1C6
330
1C5
100
AcDbEntity
  8
0
100
AcDbBlockBegin
  2
_D_2
 70
     0
 10
0.0
 20
0.0
 30
0.0
  3
_D_2
  1

  0
SOLID
  5
1C8
330
1C5
100
AcDbEntity
  8
0
  6
Continuous
 62
     7
370
     0
100
AcDbTrace
 10
93.7085278276
 20
146.5650004278
 30
0.0
 11
94.4585278276
 21
148.5650004278
 31
0.0
 12
92.9585278276
 22
148.5650004278
 32
0.0
 13
92.9585278276
 23
148.5650004278
 33
0.0
  0
SOLID
  5
1C9
330
1C5
100
AcDbEntity
  8
0
  6
Continuous
 62
     7
370
     0
100
AcDbTrace
 10
93.7085278276
 20
139.5650004278
 30
0.0
 11
92.9585278276
 21
137.5650004278
 31
0.0
 12
94.4585278276
 22
137.5650004278
 32
0.0
 13
94.4585278276
 23
137.5650004278
 33
0.0
  0
LINE
  5
1CA
330
1C5
100
AcDbEntity
  8
0
  6
Continuous
 62
     7
370
     0
100
AcDbLine
 10
102.7085278276
 20
146.5650004278
 30
0.0
 11
92.7085278276
 21
146.5650004278
 31
0.0
  0
LINE
  5
1CB
330
1C5
100
AcDbEntity
  8
0
  6
Continuous
 62
     7
370
     0
100
AcDbLine
 10
102.7085278276
 20
139.5650004278
 30
0.0
 11
92.7085278276
 21
139.5650004278
 31
0.0
  0
LINE
  5
1CC
330
1C5
100
AcDbEntity
  8
0
  6
Continuous
 62
     7
370
     0
100
AcDbLine
 10
93.7085278276
 20
146.5650004278
 30
0.0
 11
93.7085278276
 21
151.5650004278
 31
0.0
  0
LINE
  5
1CD
330
1C5
100
AcDbEntity
  8
0
  6
Continuous
 62
     7
370
     0
100
AcDbLine
 10
93.7085278276
 20
146.5650004278
 30
0.0
 11
93.7085278276
 21
139.5650004278
 31
0.0
  0
LINE
  5
1CE
330
1C5
100
AcDbEntity
  8
0
  6
Continuous
 62
     7
370
     0
100
AcDbLine
 10
93.7085278276
 20
139.5650004278
 30
0.0
 11
93.7085278276
 21
134.5650004278
 31
0.0
  0
MTEXT
  5
1CF
330
1C5
100
AcDbEntity
  8
0
  6
Continuous
 62
     7
370
     0
100
AcDbMText
 10
89.1967907384
 20
138.9752166823
 30
0.1
 40
3.5
 41
0.0
 71
     1
 72
     1
  1
%%c
  7
SLDTEXTSTYLE1
 11
-7.044195017643634E-15
 21
1.0
 31
0.0
 73
     1
 44
1.0
  0
MTEXT
  5
1D0
330
1C5
100
AcDbEntity
  8
0
  6
Continuous
 62
     7
370
     0
100
AcDbMText
 10
89.1433185618
 20
144.2536540807
 30
0.1
 40
3.5
 41
0.0
 71
     1
 72
     1
  1
7
  7
SLDTEXTSTYLE1
 11
-7.044195017643634E-15
 21
1.0
 31
0.0
 73
     1
 44
1.0
  0
ENDBLK
  5
1C7
330
1C5
100
AcDbEntity
  8
0
100
AcDbBlockEnd
  0
BLOCK
  5
1D3
330
1D2
100
AcDbEntity
  8
0
100
AcDbBlockBegin
  2
_D_3
 70
     0
 10
0.0
 20
0.0
 30
0.0
  3
_D_3
  1

  0
SOLID
  5
1D5
330
1D2
100
AcDbEntity
  8
0
  6
Continuous
 62
     7
370
     0
100
AcDbTrace
 10
109.2085278276
 20
162.3650004278
 30
0.0
 11
111.2085278276
 21
161.6150004278
 31
0.0
 12
111.2085278276
 22
163.1150004278
 32
0.0
 13
111.2085278276
 23
163.1150004278
 33
0.0
  0
SOLID
  5
1D6
330
1D2
100
AcDbEntity
  8
0
  6
Continuous
 62
     7
370
     0
100
AcDbTrace
 10
103.7085278276
 20
162.3650004278
 30
0.0
 11
101.7085278276
 21
163.1150004278
 31
0.0
 12
101.7085278276
 22
161.6150004278
 32
0.0
 13
101.7085278276
 23
161.6150004278
 33
0.0
  0
LINE
  5
1D7
330
1D2
100
AcDbEntity
  8
0
  6
Continuous
 62
     7
370
     0
100
AcDbLine
 10
109.2085278276
 20
150.0650004278
 30
0.0
 11
109.2085278276
 21
163.3650004278
 31
0.0
  0
LINE
  5
1D8
330
1D2
100
AcDbEntity
  8
0
  6
Continuous
 62
     7
370
     0
100
AcDbLine
 10
103.7085278276
 20
147.5650004278
 30
0.0
 11
103.7085278276
 21
163.3650004278
 31
0.0
  0
LINE
  5
1D9
330
1D2
100
AcDbEntity
  8
0
  6
Continuous
 62
     7
370
     0
100
AcDbLine
 10
109.2085278276
 20
162.3650004278
 30
0.0
 11
117.7447647519
 21
162.3650004278
 31
0.0
  0
LINE
  5
1DA
330
1D2
100
AcDbEntity
  8
0
  6
Continuous
 62
     7
370
     0
100
AcDbLine
 10
109.2085278276
 20
162.3650004278
 30
0.0
 11
103.7085278276
 21
162.3650004278
 31
0.0
  0
LINE
  5
1DB
330
1D2
100
AcDbEntity
  8
0
  6
Continuous
 62
     7
370
     0
100
AcDbLine
 10
103.7085278276
 20
162.3650004278
 30
0.0
 11
98.7085278276
 21
162.3650004278
 31
0.0
  0
MTEXT
  5
1DC
330
1D2
100
AcDbEntity
  8
0
  6
Continuous
 62
     7
370
     0
100
AcDbMText
 10
111.2794871174
 20
166.8767373424
 30
0.1
 40
3.5
 41
0.0
 71
     1
 72
     1
  1
5.5
  7
SLDTEXTSTYLE1
 73
     1
 44
1.0
  0
ENDBLK
  5
1D4
330
1D2
100
AcDbEntity
  8
0
100
AcDbBlockEnd
  0
BLOCK
  5
1DF
330
1DE
100
AcDbEntity
  8
0
100
AcDbBlockBegin
  2
_D_4
 70
     0
 10
0.0
 20
0.0
 30
0.0
  3
_D_4
  1

  0
SOLID
  5
1E1
330
1DE
100
AcDbEntity
  8
0
  6
Continuous
 62
     7
370
     0
100
AcDbTrace
 10
129.2085278276
 20
162.3650004278
 30
0.0
 11
127.2085278276
 21
163.1150004278
 31
0.0
 12
127.2085278276
 22
161.6150004278
 32
0.0
 13
127.2085278276
 23
161.6150004278
 33
0.0
  0
SOLID
  5
1E2
330
1DE
100
AcDbEntity
  8
0
  6
Continuous
 62
     7
370
     0
100
AcDbTrace
 10
134.2085278276
 20
162.3650004278
 30
0.0
 11
136.2085278276
 21
161.6150004278
 31
0.0
 12
136.2085278276
 22
163.1150004278
 32
0.0
 13
136.2085278276
 23
163.1150004278
 33
0.0
  0
LINE
  5
1E3
330
1DE
100
AcDbEntity
  8
0
  6
Continuous
 62
     7
370
     0
100
AcDbLine
 10
129.2085278276
 20
147.3150004278
 30
0.0
 11
129.2085278276
 21
163.3650004278
 31
0.0
  0
LINE
  5
1E4
330
1DE
100
AcDbEntity
  8
0
  6
Continuous
 62
     7
370
     0
100
AcDbLine
 10
134.2085278276
 20
151.5705539273
 30
0.0
 11
134.2085278276
 21
163.3650004278
 31
0.0
  0
LINE
  5
1E5
330
1DE
100
AcDbEntity
  8
0
  6
Continuous
 62
     7
370
     0
100
AcDbLine
 10
129.2085278276
 20
162.3650004278
 30
0.0
 11
124.2085278276
 21
162.3650004278
 31
0.0
  0
LINE
  5
1E6
330
1DE
100
AcDbEntity
  8
0
  6
Continuous
 62
     7
370
     0
100
AcDbLine
 10
129.2085278276
 20
162.3650004278
 30
0.0
 11
134.2085278276
 21
162.3650004278
 31
0.0
  0
LINE
  5
1E7
330
1DE
100
AcDbEntity
  8
0
  6
Continuous
 62
     7
370
     0
100
AcDbLine
 10
134.2085278276
 20
162.3650004278
 30
0.0
 11
139.2085278276
 21
162.3650004278
 31
0.0
  0
MTEXT
  5
1E8
330
1DE
100
AcDbEntity
  8
0
  6
Continuous
 62
     7
370
     0
100
AcDbMText
 10
130.6880247701
 20
166.8767373424
 30
0.1
 40
3.5
 41
0.0
 71
     1
 72
     1
  1
5
  7
SLDTEXTSTYLE1
 73
     1
 44
1.0
  0
ENDBLK
  5
1E0
330
1DE
100
AcDbEntity
  8
0
100
AcDbBlockEnd
  0
BLOCK
  5
1EB
330
1EA
100
AcDbEntity
  8
0
100
AcDbBlockBegin
  2
_D_5
 70
     0
 10
0.0
 20
0.0
 30
0.0
  3
_D_5
  1

  0
SOLID
  5
1ED
330
1EA
100
AcDbEntity
  8
0
  6
Continuous
 62
     7
370
     0
100
AcDbTrace
 10
134.2085278276
 20
162.3650004278
 30
0.0
 11
136.2085278276
 21
161.6150004278
 31
0.0
 12
136.2085278276
 22
163.1150004278
 32
0.0
 13
136.2085278276
 23
163.1150004278
 33
0.0
  0
SOLID
  5
1EE
330
1EA
100
AcDbEntity
  8
0
  6
Continuous
 62
     7
370
     0
100
AcDbTrace
 10
146.2085278276
 20
162.3650004278
 30
0.0
 11
144.2085278276
 21
163.1150004278
 31
0.0
 12
144.2085278276
 22
161.6150004278
 32
0.0
 13
144.2085278276
 23
161.6150004278
 33
0.0
  0
LINE
  5
1EF
330
1EA
100
AcDbEntity
  8
0
  6
Continuous
 62
     7
370
     0
100
AcDbLine
 10
134.2085278276
 20
151.5705539273
 30
0.0
 11
134.2085278276
 21
163.3650004278
 31
0.0
  0
LINE
  5
1F0
330
1EA
100
AcDbEntity
  8
0
  6
Continuous
 62
     7
370
     0
100
AcDbLine
 10
146.2085278276
 20
148.0650004278
 30
0.0
 11
146.2085278276
 21
163.3650004278
 31
0.0
  0
LINE
  5
1F1
330
1EA
100
AcDbEntity
  8
0
  6
Continuous
 62
     7
370
     0
100
AcDbLine
 10
134.2085278276
 20
162.3650004278
 30
0.0
 11
146.2085278276
 21
162.3650004278
 31
0.0
  0
MTEXT
  5
1F2
330
1EA
100
AcDbEntity
  8
0
  6
Continuous
 62
     7
370
     0
100
AcDbMText
 10
136.7091756305
 20
166.8767373424
 30
0.1
 40
3.5
 41
0.0
 71
     1
 72
     1
  1
12
  7
SLDTEXTSTYLE1
 73
     1
 44
1.0
  0
ENDBLK
  5
1EC
330
1EA
100
AcDbEntity
  8
0
100
AcDbBlockEnd
  0
BLOCK
  5
1F5
330
1F4
100
AcDbEntity
  8
0
100
AcDbBlockBegin
  2
_D_6
 70
     0
 10
0.0
 20
0.0
 30
0.0
  3
_D_6
  1

  0
SOLID
  5
1F7
330
1F4
100
AcDbEntity
  8
0
  6
Continuous
 62
     7
370
     0
100
AcDbTrace
 10
134.2085278276
 20
170.7635299704
 30
0.0
 11
136.2085278276
 21
170.0135299704
 31
0.0
 12
136.2085278276
 22
171.5135299704
 32
0.0
 13
136.2085278276
 23
171.5135299704
 33
0.0
  0
SOLID
  5
1F8
330
1F4
100
AcDbEntity
  8
0
  6
Continuous
 62
     7
370
     0
100
AcDbTrace
 10
148.2085278276
 20
170.7635299704
 30
0.0
 11
146.2085278276
 21
171.5135299704
 31
0.0
 12
146.2085278276
 22
170.0135299704
 32
0.0
 13
146.2085278276
 23
170.0135299704
 33
0.0
  0
LINE
  5
1F9
330
1F4
100
AcDbEntity
  8
0
  6
Continuous
 62
     7
370
     0
100
AcDbLine
 10
134.2085278276
 20
151.5705539273
 30
0.0
 11
134.2085278276
 21
171.7635299704
 31
0.0
  0
LINE
  5
1FA
330
1F4
100
AcDbEntity
  8
0
  6
Continuous
 62
     7
370
     0
100
AcDbLine
 10
148.2085278276
 20
146.0650004278
 30
0.0
 11
148.2085278276
 21
171.7635299704
 31
0.0
  0
LINE
  5
1FB
330
1F4
100
AcDbEntity
  8
0
  6
Continuous
 62
     7
370
     0
100
AcDbLine
 10
134.2085278276
 20
170.7635299704
 30
0.0
 11
148.2085278276
 21
170.7635299704
 31
0.0
  0
MTEXT
  5
1FC
330
1F4
100
AcDbEntity
  8
0
  6
Continuous
 62
     7
370
     0
100
AcDbMText
 10
138.3754436573
 20
175.275266885
 30
0.1
 40
3.5
 41
0.0
 71
     1
 72
     1
  1
14
  7
SLDTEXTSTYLE1
 73
     1
 44
1.0
  0
ENDBLK
  5
1F6
330
1F4
100
AcDbEntity
  8
0
100
AcDbBlockEnd
  0
BLOCK
  5
1FF
330
1FE
100
AcDbEntity
  8
0
100
AcDbBlockBegin
  2
_D_7
 70
     0
 10
0.0
 20
0.0
 30
0.0
  3
_D_7
  1

  0
SOLID
  5
201
330
1FE
100
AcDbEntity
  8
0
  6
Continuous
 62
     7
370
     0
100
AcDbTrace
 10
170.2085278276
 20
151.1479041965
 30
0.0
 11
169.4585278276
 21
149.1479041965
 31
0.0
 12
170.9585278276
 22
149.1479041965
 32
0.0
 13
170.9585278276
 23
149.1479041965
 33
0.0
  0
SOLID
  5
202
330
1FE
100
AcDbEntity
  8
0
  6
Continuous
 62
     7
370
     0
100
AcDbTrace
 10
170.2085278276
 20
134.9820966592
 30
0.0
 11
170.9585278276
 21
136.9820966592
 31
0.0
 12
169.4585278276
 22
136.9820966592
 32
0.0
 13
169.4585278276
 23
136.9820966592
 33
0.0
  0
LINE
  5
203
330
1FE
100
AcDbEntity
  8
0
  6
Continuous
 62
     7
370
     0
100
AcDbLine
 10
145.4923909003
 20
151.1479041965
 30
0.0
 11
171.2085278276
 21
151.1479041965
 31
0.0
  0
LINE
  5
204
330
1FE
100
AcDbEntity
  8
0
  6
Continuous
 62
     7
370
     0
100
AcDbLine
 10
145.4923909003
 20
134.9820966592
 30
0.0
 11
171.2085278276
 21
134.9820966592
 31
0.0
  0
LINE
  5
205
330
1FE
100
AcDbEntity
  8
0
  6
Continuous
 62
     7
370
     0
100
AcDbLine
 10
170.2085278276
 20
151.1479041965
 30
0.0
 11
170.2085278276
 21
134.9820966592
 31
0.0
  0
MTEXT
  5
206
330
1FE
100
AcDbEntity
  8
0
  6
Continuous
 62
     7
370
     0
100
AcDbMText
 10
165.6967909131
 20
138.3817965642
 30
0.1
 40
3.5
 41
0.0
 71
     1
 72
     1
  1
16.2
  7
SLDTEXTSTYLE1
 11
-7.044195017643634E-15
 21
1.0
 31
0.0
 73
     1
 44
1.0
  0
ENDBLK
  5
200
330
1FE
100
AcDbEntity
  8
0
100
AcDbBlockEnd
  0
BLOCK
  5
209
330
208
100
AcDbEntity
  8
0
100
AcDbBlockBegin
  2
_D_8
 70
     0
 10
0.0
 20
0.0
 30
0.0
  3
_D_8
  1

  0
SOLID
  5
20B
330
208
100
AcDbEntity
  8
0
  6
Continuous
 62
     7
370
     0
100
AcDbTrace
 10
158.2085278276
 20
145.5650004278
 30
0.0
 11
158.9585278276
 21
147.5650004278
 31
0.0
 12
157.4585278276
 22
147.5650004278
 32
0.0
 13
157.4585278276
 23
147.5650004278
 33
0.0
  0
SOLID
  5
20C
330
208
100
AcDbEntity
  8
0
  6
Continuous
 62
     7
370
     0
100
AcDbTrace
 10
158.2085278276
 20
140.5650004278
 30
0.0
 11
157.4585278276
 21
138.5650004278
 31
0.0
 12
158.9585278276
 22
138.5650004278
 32
0.0
 13
158.9585278276
 23
138.5650004278
 33
0.0
  0
LINE
  5
20D
330
208
100
AcDbEntity
  8
0
  6
Continuous
 62
     7
370
     0
100
AcDbLine
 10
148.7085278276
 20
145.5650004278
 30
0.0
 11
159.2085278276
 21
145.5650004278
 31
0.0
  0
LINE
  5
20E
330
208
100
AcDbEntity
  8
0
  6
Continuous
 62
     7
370
     0
100
AcDbLine
 10
148.7085278276
 20
140.5650004278
 30
0.0
 11
159.2085278276
 21
140.5650004278
 31
0.0
  0
LINE
  5
20F
330
208
100
AcDbEntity
  8
0
  6
Continuous
 62
     7
370
     0
100
AcDbLine
 10
158.2085278276
 20
145.5650004278
 30
0.0
 11
158.2085278276
 21
150.5650004278
 31
0.0
  0
LINE
  5
210
330
208
100
AcDbEntity
  8
0
  6
Continuous
 62
     7
370
     0
100
AcDbLine
 10
158.2085278276
 20
145.5650004278
 30
0.0
 11
158.2085278276
 21
140.5650004278
 31
0.0
  0
LINE
  5
211
330
208
100
AcDbEntity
  8
0
  6
Continuous
 62
     7
370
     0
100
AcDbLine
 10
158.2085278276
 20
140.5650004278
 30
0.0
 11
158.2085278276
 21
124.9349926949
 31
0.0
  0
MTEXT
  5
212
330
208
100
AcDbEntity
  8
0
  6
Continuous
 62
     7
370
     0
100
AcDbMText
 10
153.6967907384
 20
124.9349926949
 30
0.1
 40
3.5
 41
0.0
 71
     1
 72
     1
  1
%%c
  7
SLDTEXTSTYLE1
 11
-7.044195017643634E-15
 21
1.0
 31
0.0
 73
     1
 44
1.0
  0
MTEXT
  5
213
330
208
100
AcDbEntity
  8
0
  6
Continuous
 62
     7
370
     0
100
AcDbMText
 10
153.6433185618
 20
130.2134300933
 30
0.1
 40
3.5
 41
0.0
 71
     1
 72
     1
  1
5
  7
SLDTEXTSTYLE1
 11
-7.044195017643634E-15
 21
1.0
 31
0.0
 73
     1
 44
1.0
  0
ENDBLK
  5
20A
330
208
100
AcDbEntity
  8
0
100
AcDbBlockEnd
  0
BLOCK
  5
216
330
215
100
AcDbEntity
  8
0
100
AcDbBlockBegin
  2
_D_9
 70
     0
 10
0.0
 20
0.0
 30
0.0
  3
_D_9
  1

  0
SOLID
  5
218
330
215
100
AcDbEntity
  8
0
  6
Continuous
 62
     7
370
     0
100
AcDbTrace
 10
131.2085278276
 20
126.7555119817
 30
0.0
 11
129.2085278276
 21
127.5055119817
 31
0.0
 12
129.2085278276
 22
126.0055119817
 32
0.0
 13
129.2085278276
 23
126.0055119817
 33
0.0
  0
SOLID
  5
219
330
215
100
AcDbEntity
  8
0
  6
Continuous
 62
     7
370
     0
100
AcDbTrace
 10
134.2085278276
 20
126.7555119817
 30
0.0
 11
136.2085278276
 21
126.0055119817
 31
0.0
 12
136.2085278276
 22
127.5055119817
 32
0.0
 13
136.2085278276
 23
127.5055119817
 33
0.0
  0
LINE
  5
21A
330
215
100
AcDbEntity
  8
0
  6
Continuous
 62
     7
370
     0
100
AcDbLine
 10
131.2085278276
 20
134.5594469283
 30
0.0
 11
131.2085278276
 21
125.7555119817
 31
0.0
  0
LINE
  5
21B
330
215
100
AcDbEntity
  8
0
  6
Continuous
 62
     7
370
     0
100
AcDbLine
 10
134.2085278276
 20
134.5594469283
 30
0.0
 11
134.2085278276
 21
125.7555119817
 31
0.0
  0
LINE
  5
21C
330
215
100
AcDbEntity
  8
0
  6
Continuous
 62
     7
370
     0
100
AcDbLine
 10
131.2085278276
 20
126.7555119817
 30
0.0
 11
126.2085278276
 21
126.7555119817
 31
0.0
  0
LINE
  5
21D
330
215
100
AcDbEntity
  8
0
  6
Continuous
 62
     7
370
     0
100
AcDbLine
 10
131.2085278276
 20
126.7555119817
 30
0.0
 11
134.2085278276
 21
126.7555119817
 31
0.0
  0
LINE
  5
21E
330
215
100
AcDbEntity
  8
0
  6
Continuous
 62
     7
370
     0
100
AcDbLine
 10
134.2085278276
 20
126.7555119817
 30
0.0
 11
140.5883424208
 21
126.7555119817
 31
0.0
  0
MTEXT
  5
21F
330
215
100
AcDbEntity
  8
0
  6
Continuous
 62
     7
370
     0
100
AcDbMText
 10
138.0022312272
 20
131.2672488963
 30
0.1
 40
3.5
 41
0.0
 71
     1
 72
     1
  1
3
  7
SLDTEXTSTYLE1
 73
     1
 44
1.0
  0
ENDBLK
  5
217
330
215
100
AcDbEntity
  8
0
100
AcDbBlockEnd
  0
BLOCK
  5
222
330
221
100
AcDbEntity
  8
0
100
AcDbBlockBegin
  2
_D_10
 70
     0
 10
0.0
 20
0.0
 30
0.0
  3
_D_10
  1

  0
SOLID
  5
224
330
221
100
AcDbEntity
  8
0
  6
Continuous
 62
     7
370
     0
100
AcDbTrace
 10
129.2085278276
 20
113.9848969766
 30
0.0
 11
131.2085278276
 21
113.2348969766
 31
0.0
 12
131.2085278276
 22
114.7348969766
 32
0.0
 13
131.2085278276
 23
114.7348969766
 33
0.0
  0
SOLID
  5
225
330
221
100
AcDbEntity
  8
0
  6
Continuous
 62
     7
370
     0
100
AcDbTrace
 10
119.2085278276
 20
113.9848969766
 30
0.0
 11
117.2085278276
 21
114.7348969766
 31
0.0
 12
117.2085278276
 22
113.2348969766
 32
0.0
 13
117.2085278276
 23
113.2348969766
 33
0.0
  0
LINE
  5
226
330
221
100
AcDbEntity
  8
0
  6
Continuous
 62
     7
370
     0
100
AcDbLine
 10
129.2085278276
 20
138.8150004278
 30
0.0
 11
129.2085278276
 21
112.9848969766
 31
0.0
  0
LINE
  5
227
330
221
100
AcDbEntity
  8
0
  6
Continuous
 62
     7
370
     0
100
AcDbLine
 10
119.2085278276
 20
138.3150004278
 30
0.0
 11
119.2085278276
 21
112.9848969766
 31
0.0
  0
LINE
  5
228
330
221
100
AcDbEntity
  8
0
  6
Continuous
 62
     7
370
     0
100
AcDbLine
 10
129.2085278276
 20
113.9848969766
 30
0.0
 11
139.7851831196
 21
113.9848969766
 31
0.0
  0
LINE
  5
229
330
221
100
AcDbEntity
  8
0
  6
Continuous
 62
     7
370
     0
100
AcDbLine
 10
129.2085278276
 20
113.9848969766
 30
0.0
 11
119.2085278276
 21
113.9848969766
 31
0.0
  0
LINE
  5
22A
330
221
100
AcDbEntity
  8
0
  6
Continuous
 62
     7
370
     0
100
AcDbLine
 10
119.2085278276
 20
113.9848969766
 30
0.0
 11
114.2085278276
 21
113.9848969766
 31
0.0
  0
MTEXT
  5
22B
330
221
100
AcDbEntity
  8
0
  6
Continuous
 62
     7
370
     0
100
AcDbMText
 10
131.2199053271
 20
118.4966338912
 30
0.1
 40
3.5
 41
0.0
 71
     1
 72
     1
  1
10
  7
SLDTEXTSTYLE1
 73
     1
 44
1.0
  0
MTEXT
  5
22C
330
221
100
AcDbEntity
  8
0
  6
Continuous
 62
     7
370
     0
100
AcDbMText
 10
136.3921277141
 20
118.4966338912
 30
0.1
 40
3.5
 41
0.0
 71
     1
 72
     1
  1
st
  7
SLDTEXTSTYLE1
 73
     1
 44
1.0
  0
ENDBLK
  5
223
330
221
100
AcDbEntity
  8
0
100
AcDbBlockEnd
  0
BLOCK
  5
22F
330
22E
100
AcDbEntity
  8
0
100
AcDbBlockBegin
  2
_D_11
 70
     0
 10
0.0
 20
0.0
 30
0.0
  3
_D_11
  1

  0
SOLID
  5
231
330
22E
100
AcDbEntity
  8
0
  6
Continuous
 62
     7
370
     0
100
AcDbTrace
 10
103.7085278276
 20
104.2650004278
 30
0.0
 11
105.7085278276
 21
103.5150004278
 31
0.0
 12
105.7085278276
 22
105.0150004278
 32
0.0
 13
105.7085278276
 23
105.0150004278
 33
0.0
  0
SOLID
  5
232
330
22E
100
AcDbEntity
  8
0
  6
Continuous
 62
     7
370
     0
100
AcDbTrace
 10
148.2085278276
 20
104.2650004278
 30
0.0
 11
146.2085278276
 21
105.0150004278
 31
0.0
 12
146.2085278276
 22
103.5150004278
 32
0.0
 13
146.2085278276
 23
103.5150004278
 33
0.0
  0
LINE
  5
233
330
22E
100
AcDbEntity
  8
0
  6
Continuous
 62
     7
370
     0
100
AcDbLine
 10
103.7085278276
 20
138.5650004278
 30
0.0
 11
103.7085278276
 21
103.2650004278
 31
0.0
  0
LINE
  5
234
330
22E
100
AcDbEntity
  8
0
  6
Continuous
 62
     7
370
     0
100
AcDbLine
 10
148.2085278276
 20
140.0650004278
 30
0.0
 11
148.2085278276
 21
103.2650004278
 31
0.0
  0
LINE
  5
235
330
22E
100
AcDbEntity
  8
0
  6
Continuous
 62
     7
370
     0
100
AcDbLine
 10
103.7085278276
 20
104.2650004278
 30
0.0
 11
148.2085278276
 21
104.2650004278
 31
0.0
  0
MTEXT
  5
236
330
22E
100
AcDbEntity
  8
0
  6
Continuous
 62
     7
370
     0
100
AcDbMText
 10
121.6788962692
 20
108.7767373424
 30
0.1
 40
3.5
 41
0.0
 71
     1
 72
     1
  1
44.5
  7
SLDTEXTSTYLE1
 73
     1
 44
1.0
  0
ENDBLK
  5
230
330
22E
100
AcDbEntity
  8
0
100
AcDbBlockEnd
  0
ENDSEC
  0
SECTION
  2
ENTITIES
  0
LINE
  5
44
330
1F
100
AcDbEntity
  8
0
  6
Continuous
 62
     7
370
     0
100
AcDbLine
 10
20.2604743903
 20
285.0
 30
0.0
 11
196.7604743903
 21
285.0
 31
0.0
  0
LINE
  5
45
330
1F
100
AcDbEntity
  8
0
  6
Continuous
 62
     7
370
     0
100
AcDbLine
 10
20.2604743903
 20
285.0
 30
0.0
 11
20.2604743903
 21
10.0
 31
0.0
  0
LINE
  5
46
330
1F
100
AcDbEntity
  8
0
  6
Continuous
 62
     7
370
     0
100
AcDbLine
 10
20.2604743903
 20
10.0
 30
0.0
 11
196.7604743903
 21
10.0
 31
0.0
  0
LINE
  5
47
330
1F
100
AcDbEntity
  8
0
  6
Continuous
 62
     7
370
     0
100
AcDbLine
 10
196.7604743903
 20
285.0
 30
0.0
 11
196.7604743903
 21
10.0
 31
0.0
  0
LINE
  5
48
330
1F
100
AcDbEntity
  8
0
  6
Continuous
 62
     7
370
     0
100
AcDbLine
 10
127.0104743903
 20
50.75
 30
0.0
 11
196.7604743903
 21
50.75
 31
0.0
  0
LINE
  5
49
330
1F
100
AcDbEntity
  8
0
  6
Continuous
 62
     7
370
     0
100
AcDbLine
 10
127.0104743903
 20
50.75
 30
0.0
 11
127.0104743903
 21
10.0
 31
0.0
  0
LINE
  5
4A
330
1F
100
AcDbEntity
  8
0
  6
Continuous
 62
     7
370
     0
100
AcDbLine
 10
127.0104743903
 20
22.75
 30
0.0
 11
196.7604743903
 21
22.75
 31
0.0
  0
LINE
  5
4B
330
1F
100
AcDbEntity
  8
0
  6
Continuous
 62
     7
370
     0
100
AcDbLine
 10
127.0104743903
 20
36.75
 30
0.0
 11
196.7604743903
 21
36.75
 31
0.0
  0
MTEXT
  5
4D
330
1F
100
AcDbEntity
  8
0
  6
Continuous
 62
     7
370
     0
100
AcDbMText
 10
161.7869873542
 20
30.4171582345
 30
0.0
 40
4.2333333333
 41
0.0
 71
     2
 72
     1
  1
VFIL1-SS-10
  7
SLDTEXTSTYLE0
 73
     1
 44
1.0
  0
MTEXT
  5
4E
330
1F
100
AcDbEntity
  8
0
  6
Continuous
 62
     7
370
     0
100
AcDbMText
 10
161.3686533351
 20
43.9409718514
 30
0.0
 40
4.2333333333
 41
0.0
 71
     2
 72
     1
  1
吸着金具・ミニ用
  7
SLDTEXTSTYLE0
 73
     1
 44
1.0
  0
MTEXT
  5
4F
330
1F
100
AcDbEntity
  8
0
  6
Continuous
 62
     7
370
     0
100
AcDbMText
 10
162.6500706919
 20
16.8228189052
 30
0.0
 40
4.2333333333
 41
0.0
 71
     2
 72
     1
  1
211032
  7
SLDTEXTSTYLE0
 73
     1
 44
1.0
  0
LINE
  5
50
330
1F
100
AcDbEntity
  8
0
  6
Continuous
 62
     7
370
    15
100
AcDbLine
 10
56.7390459733
 20
131.2650004278
 30
0.0
 11
57.0890459733
 21
128.7650004278
 31
0.0
  0
LINE
  5
51
330
1F
100
AcDbEntity
  8
0
  6
Continuous
 62
     7
370
    15
100
AcDbLine
 10
61.0890459733
 20
128.7650004278
 30
0.0
 11
61.4390459733
 21
131.2650004278
 31
0.0
  0
LINE
  5
52
330
1F
100
AcDbEntity
  8
0
  6
Continuous
 62
     7
370
    15
100
AcDbLine
 10
56.7390459733
 20
128.7650004278
 30
0.0
 11
57.0890459733
 21
126.2650004278
 31
0.0
  0
LINE
  5
53
330
1F
100
AcDbEntity
  8
0
  6
Continuous
 62
     7
370
    15
100
AcDbLine
 10
61.0890459733
 20
126.2650004278
 30
0.0
 11
61.4390459733
 21
128.7650004278
 31
0.0
  0
LINE
  5
54
330
1F
100
AcDbEntity
  8
0
  6
Continuous
 62
     7
370
    15
100
AcDbLine
 10
61.1890459733
 20
131.2650004278
 30
0.0
 11
61.1890459733
 21
133.7650004278
 31
0.0
  0
LINE
  5
55
330
1F
100
AcDbEntity
  8
0
  6
Continuous
 62
     7
370
    15
100
AcDbLine
 10
56.9890459733
 20
133.7650004278
 30
0.0
 11
56.9890459733
 21
131.2650004278
 31
0.0
  0
LINE
  5
56
330
1F
100
AcDbEntity
  8
0
  6
Continuous
 62
     7
370
    15
100
AcDbLine
 10
55.0890459733
 20
149.8650004278
 30
0.0
 11
55.0890459733
 21
149.0650004278
 31
0.0
  0
LINE
  5
57
330
1F
100
AcDbEntity
  8
0
  6
Continuous
 62
     7
370
    15
100
AcDbLine
 10
63.0890459733
 20
149.0650004278
 30
0.0
 11
63.0890459733
 21
149.8650004278
 31
0.0
  0
LINE
  5
58
330
1F
100
AcDbEntity
  8
0
  6
Continuous
 62
     7
370
    15
100
AcDbLine
 10
55.0890459733
 20
137.0650004278
 30
0.0
 11
55.0890459733
 21
136.2650004278
 31
0.0
  0
LINE
  5
59
330
1F
100
AcDbEntity
  8
0
  6
Continuous
 62
     7
370
    15
100
AcDbLine
 10
63.0890459733
 20
136.2650004278
 30
0.0
 11
63.0890459733
 21
137.0650004278
 31
0.0
  0
LINE
  5
5A
330
1F
100
AcDbEntity
  8
0
  6
Continuous
 62
     7
370
    15
100
AcDbLine
 10
52.5890459733
 20
146.8177771775
 30
0.0
 11
55.1967411279
 21
148.323330677
 31
0.0
  0
LINE
  5
5B
330
1F
100
AcDbEntity
  8
0
  6
Continuous
 62
     7
370
    15
100
AcDbLine
 10
62.9813508187
 20
148.323330677
 30
0.0
 11
65.5890459733
 21
146.8177771775
 31
0.0
  0
LINE
  5
5C
330
1F
100
AcDbEntity
  8
0
  6
Continuous
 62
     7
370
    15
100
AcDbLine
 10
65.5890459733
 20
146.8177771775
 30
0.0
 11
65.5890459733
 21
143.8066701786
 31
0.0
  0
LINE
  5
5D
330
1F
100
AcDbEntity
  8
0
  6
Continuous
 62
     7
370
    15
100
AcDbLine
 10
65.5890459733
 20
142.323330677
 30
0.0
 11
65.5890459733
 21
139.3122236781
 31
0.0
  0
LINE
  5
5E
330
1F
100
AcDbEntity
  8
0
  6
Continuous
 62
     7
370
    15
100
AcDbLine
 10
65.5890459733
 20
139.3122236781
 30
0.0
 11
62.9813508187
 21
137.8066701786
 31
0.0
  0
LINE
  5
5F
330
1F
100
AcDbEntity
  8
0
  6
Continuous
 62
     7
370
    15
100
AcDbLine
 10
55.1967411279
 20
137.8066701786
 30
0.0
 11
52.5890459733
 21
139.3122236781
 31
0.0
  0
LINE
  5
60
330
1F
100
AcDbEntity
  8
0
  6
Continuous
 62
     7
370
    15
100
AcDbLine
 10
52.5890459733
 20
139.3122236781
 30
0.0
 11
52.5890459733
 21
142.323330677
 31
0.0
  0
LINE
  5
61
330
1F
100
AcDbEntity
  8
0
  6
Continuous
 62
     7
370
    15
100
AcDbLine
 10
52.5890459733
 20
143.8066701786
 30
0.0
 11
52.5890459733
 21
146.8177771775
 31
0.0
  0
LINE
  5
62
330
1F
100
AcDbEntity
  8
0
  6
Continuous
 62
     7
370
    15
100
AcDbLine
 10
61.1140459733
 20
133.7650004278
 30
0.0
 11
61.1140459733
 21
136.2650004278
 31
0.0
  0
LINE
  5
63
330
1F
100
AcDbEntity
  8
0
  6
Continuous
 62
     7
370
    15
100
AcDbLine
 10
57.0640459733
 20
133.7650004278
 30
0.0
 11
61.1140459733
 21
133.7650004278
 31
0.0
  0
LINE
  5
64
330
1F
100
AcDbEntity
  8
0
  6
Continuous
 62
     7
370
    15
100
AcDbLine
 10
57.0640459733
 20
133.7650004278
 30
0.0
 11
57.0640459732
 21
136.2650004278
 31
0.0
  0
LINE
  5
65
330
1F
100
AcDbEntity
  8
0
  6
Continuous
 62
     7
370
    15
100
AcDbLine
 10
57.0640459732
 20
136.2650004278
 30
0.0
 11
57.1659950119
 21
136.2650004278
 31
0.0
  0
LINE
  5
66
330
1F
100
AcDbEntity
  8
0
  6
Continuous
 62
     7
370
    15
100
AcDbLine
 10
61.0120969346
 20
136.2650004278
 30
0.0
 11
61.1140459733
 21
136.2650004278
 31
0.0
  0
LINE
  5
67
330
1F
100
AcDbEntity
  8
0
  6
Continuous
 62
     7
370
    15
100
AcDbLine
 10
55.0390459733
 20
133.7650004278
 30
0.0
 11
57.0640459733
 21
133.7650004278
 31
0.0
  0
LINE
  5
68
330
1F
100
AcDbEntity
  8
0
  6
Continuous
 62
     7
370
    15
100
AcDbLine
 10
55.0390459733
 20
136.2650004278
 30
0.0
 11
55.0390459733
 21
133.7650004278
 31
0.0
  0
LINE
  5
69
330
1F
100
AcDbEntity
  8
0
  6
Continuous
 62
     7
370
    15
100
AcDbLine
 10
55.0390459733
 20
136.2650004278
 30
0.0
 11
55.0900204926
 21
136.2650004278
 31
0.0
  0
LINE
  5
6A
330
1F
100
AcDbEntity
  8
0
  6
Continuous
 62
     7
370
    15
100
AcDbLine
 10
57.0130714539
 20
136.2650004278
 30
0.0
 11
57.0640459732
 21
136.2650004278
 31
0.0
  0
LINE
  5
6B
330
1F
100
AcDbEntity
  8
0
  6
Continuous
 62
     7
370
    15
100
AcDbLine
 10
63.1390459733
 20
133.7650004278
 30
0.0
 11
63.1390459733
 21
136.2650004278
 31
0.0
  0
LINE
  5
6C
330
1F
100
AcDbEntity
  8
0
  6
Continuous
 62
     7
370
    15
100
AcDbLine
 10
61.1140459733
 20
136.2650004278
 30
0.0
 11
61.1650204926
 21
136.2650004278
 31
0.0
  0
LINE
  5
6D
330
1F
100
AcDbEntity
  8
0
  6
Continuous
 62
     7
370
    15
100
AcDbLine
 10
63.0880714539
 20
136.2650004278
 30
0.0
 11
63.1390459733
 21
136.2650004278
 31
0.0
  0
LINE
  5
6E
330
1F
100
AcDbEntity
  8
0
  6
Continuous
 62
     7
370
    15
100
AcDbLine
 10
61.1140459733
 20
133.7650004278
 30
0.0
 11
63.1390459733
 21
133.7650004278
 31
0.0
  0
LINE
  5
6F
330
1F
100
AcDbEntity
  8
0
  6
Continuous
 62
     7
370
    15
100
AcDbLine
 10
61.4390459733
 20
131.2650004278
 30
0.0
 11
56.7390459733
 21
131.2650004278
 31
0.0
  0
LINE
  5
70
330
1F
100
AcDbEntity
  8
0
  6
Continuous
 62
     7
370
    15
100
AcDbLine
 10
61.0890459733
 20
126.2650004278
 30
0.0
 11
57.0890459733
 21
126.2650004278
 31
0.0
  0
LINE
  5
71
330
1F
100
AcDbEntity
  8
0
  6
Continuous
 62
     7
370
    15
100
AcDbLine
 10
61.4390459733
 20
128.7650004278
 30
0.0
 11
56.7390459733
 21
128.7650004278
 31
0.0
  0
CIRCLE
  5
72
330
1F
100
AcDbEntity
  8
0
  6
Continuous
 62
     7
370
    15
100
AcDbCircle
 10
59.0890459733
 20
143.0650004278
 30
0.0
 40
3.499999999999993
  0
CIRCLE
  5
73
330
1F
100
AcDbEntity
  8
0
  6
Continuous
 62
     7
370
    15
100
AcDbCircle
 10
59.0890459733
 20
143.0650004278
 30
0.0
 40
1.25
  0
LINE
  5
74
330
1F
100
AcDbEntity
  8
0
  6
Continuous
 62
     7
370
    15
100
AcDbLine
 10
55.6249443581
 20
137.0650004278
 30
0.0
 11
52.160842743
 21
143.0650004278
 31
0.0
  0
LINE
  5
75
330
1F
100
AcDbEntity
  8
0
  6
Continuous
 62
     7
370
    15
100
AcDbLine
 10
52.160842743
 20
143.0650004278
 30
0.0
 11
55.6249443581
 21
149.0650004278
 31
0.0
  0
LINE
  5
76
330
1F
100
AcDbEntity
  8
0
  6
Continuous
 62
     7
370
    15
100
AcDbLine
 10
55.6249443581
 20
149.0650004278
 30
0.0
 11
62.5531475884
 21
149.0650004278
 31
0.0
  0
LINE
  5
77
330
1F
100
AcDbEntity
  8
0
  6
Continuous
 62
     7
370
    15
100
AcDbLine
 10
62.5531475884
 20
149.0650004278
 30
0.0
 11
66.0172492035
 21
143.0650004278
 31
0.0
  0
LINE
  5
78
330
1F
100
AcDbEntity
  8
0
  6
Continuous
 62
     7
370
    15
100
AcDbLine
 10
66.0172492035
 20
143.0650004278
 30
0.0
 11
62.5531475884
 21
137.0650004278
 31
0.0
  0
LINE
  5
79
330
1F
100
AcDbEntity
  8
0
  6
Continuous
 62
     7
370
    15
100
AcDbLine
 10
62.5531475884
 20
137.0650004278
 30
0.0
 11
55.6249443581
 21
137.0650004278
 31
0.0
  0
SPLINE
  5
7A
330
1F
100
AcDbEntity
  8
0
  6
Continuous
 62
     7
370
    15
100
AcDbSpline
210
0.0
220
0.0
230
1.0
 70
    24
 71
     3
 72
    10
 73
     6
 74
     0
 42
0.00000001
 43
0.00000001
 12
1.0
 22
0.0
 32
0.0
 13
1.0
 23
0.0
 33
0.0
 40
0.0
 40
0.0
 40
0.0
 40
0.0
 40
0.5
 40
0.5
 40
1.0
 40
1.0
 40
1.0
 40
1.0
 10
66.08904597326413
 20
144.9524590366286
 30
0.0
 10
66.08904597326413
 20
145.3179913764851
 30
0.0
 10
66.08904597326413
 20
145.6821647313519
 30
0.0
 10
66.08904597326413
 20
146.3997680979076
 30
0.0
 10
66.08904597326413
 20
146.7546486636516
 30
0.0
 10
66.08904597326413
 20
147.1064523121383
 30
0.0
  0
ARC
  5
7B
330
1F
100
AcDbEntity
  8
0
  6
Continuous
 62
     7
370
    15
100
AcDbCircle
 10
59.0890459733
 20
143.0650004278
 30
0.0
 40
7.249999999999997
100
AcDbArc
 50
15.0901851794
 51
26.2915552747
  0
ARC
  5
7C
330
1F
100
AcDbEntity
  8
0
  6
Continuous
 62
     7
370
    15
100
AcDbCircle
 10
59.0890459733
 20
143.0650004278
 30
0.0
 40
7.249999999999992
100
AcDbArc
 50
33.7084447253
 51
44.9098148206
  0
SPLINE
  5
7D
330
1F
100
AcDbEntity
  8
0
  6
Continuous
 62
     7
370
    15
100
AcDbSpline
210
0.0
220
0.0
230
1.0
 70
    24
 71
     3
 72
     8
 73
     4
 74
     0
 42
0.00000001
 43
0.00000001
 12
1.0
 22
0.0
 32
0.0
 13
1.0
 23
0.0
 33
0.0
 40
0.0
 40
0.0
 40
0.0
 40
0.0
 40
1.0
 40
1.0
 40
1.0
 40
1.0
 10
66.08904597326413
 20
147.1064523121383
 30
0.0
 10
65.47614741154077
 20
147.4603094617352
 30
0.0
 10
64.8500532117678
 20
147.8217851165122
 30
0.0
 10
64.22363307709186
 20
148.1834489498931
 30
0.0
  0
SPLINE
  5
7E
330
1F
100
AcDbEntity
  8
0
  6
Continuous
 62
     7
370
    15
100
AcDbSpline
210
0.0
220
0.0
230
1.0
 70
    24
 71
     3
 72
     8
 73
     4
 74
     0
 42
0.00000001
 43
0.00000001
 12
1.0
 22
0.0
 32
0.0
 13
1.0
 23
0.0
 33
0.0
 40
0.0
 40
0.0
 40
0.0
 40
0.0
 40
1.0
 40
1.0
 40
1.0
 40
1.0
 10
64.22363307709186
 20
137.9465519057287
 30
0.0
 10
64.85836337628595
 20
138.3130136148312
 30
0.0
 10
65.47839586293404
 20
138.6709895379038
 30
0.0
 10
66.08904597326415
 20
139.0235485434835
 30
0.0
  0
ARC
  5
7F
330
1F
100
AcDbEntity
  8
0
  6
Continuous
 62
     7
370
    15
100
AcDbCircle
 10
59.0890459733
 20
143.0650004278
 30
0.0
 40
7.250000000000016
100
AcDbArc
 50
315.0901851794
 51
326.2915552747
  0
ARC
  5
80
330
1F
100
AcDbEntity
  8
0
  6
Continuous
 62
     7
370
    15
100
AcDbCircle
 10
59.0890459733
 20
143.0650004278
 30
0.0
 40
7.249999999999997
100
AcDbArc
 50
333.7084447253
 51
344.9098148206
  0
SPLINE
  5
81
330
1F
100
AcDbEntity
  8
0
  6
Continuous
 62
     7
370
    15
100
AcDbSpline
210
0.0
220
0.0
230
1.0
 70
    24
 71
     3
 72
    10
 73
     6
 74
     0
 42
0.00000001
 43
0.00000001
 12
1.0
 22
0.0
 32
0.0
 13
1.0
 23
0.0
 33
0.0
 40
0.0
 40
0.0
 40
0.0
 40
0.0
 40
0.5
 40
0.5
 40
1.0
 40
1.0
 40
1.0
 40
1.0
 10
66.08904597326413
 20
139.0235485434835
 30
0.0
 10
66.08904597326413
 20
139.3759686533733
 30
0.0
 10
66.08904597326413
 20
139.7315816664632
 30
0.0
 10
66.08904597326413
 20
140.4509664445588
 30
0.0
 10
66.08904597326413
 20
140.814761547059
 30
0.0
 10
66.08904597326413
 20
141.1775418189933
 30
0.0
  0
SPLINE
  5
82
330
1F
100
AcDbEntity
  8
0
  6
Continuous
 62
     7
370
    15
100
AcDbSpline
210
0.0
220
0.0
230
1.0
 70
    24
 71
     3
 72
     8
 73
     4
 74
     0
 42
0.00000001
 43
0.00000001
 12
1.0
 22
0.0
 32
0.0
 13
1.0
 23
0.0
 33
0.0
 40
0.0
 40
0.0
 40
0.0
 40
0.0
 40
1.0
 40
1.0
 40
1.0
 40
1.0
 10
52.08904597326413
 20
139.0235485434835
 30
0.0
 10
52.70194453498751
 20
138.6696913938866
 30
0.0
 10
53.32803873476048
 20
138.3082157391096
 30
0.0
 10
53.95445886943642
 20
137.9465519057287
 30
0.0
  0
ARC
  5
83
330
1F
100
AcDbEntity
  8
0
  6
Continuous
 62
     7
370
    15
100
AcDbCircle
 10
59.0890459733
 20
143.0650004278
 30
0.0
 40
7.249999999999997
100
AcDbArc
 50
195.0901851794
 51
206.2915552747
  0
ARC
  5
84
330
1F
100
AcDbEntity
  8
0
  6
Continuous
 62
     7
370
    15
100
AcDbCircle
 10
59.0890459733
 20
143.0650004278
 30
0.0
 40
7.250000000000008
100
AcDbArc
 50
213.7084447253
 51
224.9098148206
  0
SPLINE
  5
85
330
1F
100
AcDbEntity
  8
0
  6
Continuous
 62
     7
370
    15
100
AcDbSpline
210
0.0
220
0.0
230
1.0
 70
    24
 71
     3
 72
    10
 73
     6
 74
     0
 42
0.00000001
 43
0.00000001
 12
1.0
 22
0.0
 32
0.0
 13
1.0
 23
0.0
 33
0.0
 40
0.0
 40
0.0
 40
0.0
 40
0.0
 40
0.5
 40
0.5
 40
1.0
 40
1.0
 40
1.0
 40
1.0
 10
52.08904597326413
 20
141.1775418189933
 30
0.0
 10
52.08904597326413
 20
140.8120094791367
 30
0.0
 10
52.08904597326413
 20
140.4478361242699
 30
0.0
 10
52.08904597326413
 20
139.7302327577143
 30
0.0
 10
52.08904597326413
 20
139.3753521919702
 30
0.0
 10
52.08904597326413
 20
139.0235485434835
 30
0.0
  0
ARC
  5
86
330
1F
100
AcDbEntity
  8
0
  6
Continuous
 62
     7
370
    15
100
AcDbCircle
 10
59.0890459733
 20
143.0650004278
 30
0.0
 40
7.249999999999976
100
AcDbArc
 50
135.0901851794
 51
146.2915552747
  0
ARC
  5
87
330
1F
100
AcDbEntity
  8
0
  6
Continuous
 62
     7
370
    15
100
AcDbCircle
 10
59.0890459733
 20
143.0650004278
 30
0.0
 40
7.249999999999991
100
AcDbArc
 50
153.7084447253
 51
164.9098148206
  0
LINE
  5
88
330
1F
100
AcDbEntity
  8
0
  6
Continuous
 62
     7
370
    15
100
AcDbLine
 10
55.4813508187
 20
137.0650004278
 30
0.0
 11
53.9544588694
 21
137.9465519057
 31
0.0
  0
LINE
  5
89
330
1F
100
AcDbEntity
  8
0
  6
Continuous
 62
     7
370
    15
100
AcDbLine
 10
64.2236330771
 20
137.9465519057
 30
0.0
 11
62.6967411279
 21
137.0650004278
 31
0.0
  0
LINE
  5
8A
330
1F
100
AcDbEntity
  8
0
  6
Continuous
 62
     7
370
    15
100
AcDbLine
 10
66.0890459733
 20
144.9524590366
 30
0.0
 11
66.0890459733
 21
141.177541819
 31
0.0
  0
LINE
  5
8B
330
1F
100
AcDbEntity
  8
0
  6
Continuous
 62
     7
370
    15
100
AcDbLine
 10
52.0890459733
 20
141.177541819
 30
0.0
 11
52.0890459733
 21
144.9524590366
 31
0.0
  0
LINE
  5
8C
330
1F
100
AcDbEntity
  8
0
  6
Continuous
 62
     7
370
    15
100
AcDbLine
 10
62.6967411279
 20
149.0650004278
 30
0.0
 11
64.2236330771
 21
148.1834489499
 31
0.0
  0
LINE
  5
8D
330
1F
100
AcDbEntity
  8
0
  6
Continuous
 62
     7
370
    15
100
AcDbLine
 10
53.9544588694
 20
148.1834489499
 30
0.0
 11
55.4813508187
 21
149.0650004278
 31
0.0
  0
SPLINE
  5
8E
330
1F
100
AcDbEntity
  8
0
  6
Continuous
 62
     7
370
    15
100
AcDbSpline
210
0.0
220
0.0
230
1.0
 70
    24
 71
     3
 72
    10
 73
     6
 74
     0
 42
0.00000001
 43
0.00000001
 12
1.0
 22
0.0
 32
0.0
 13
1.0
 23
0.0
 33
0.0
 40
0.0
 40
0.0
 40
0.0
 40
0.0
 40
0.5
 40
0.5
 40
1.0
 40
1.0
 40
1.0
 40
1.0
 10
52.08904597326413
 20
147.1064523121383
 30
0.0
 10
52.08904597326413
 20
146.7540322022485
 30
0.0
 10
52.08904597326413
 20
146.3984191891586
 30
0.0
 10
52.08904597326413
 20
145.679034411063
 30
0.0
 10
52.08904597326413
 20
145.3152393085628
 30
0.0
 10
52.08904597326413
 20
144.9524590366286
 30
0.0
  0
SPLINE
  5
8F
330
1F
100
AcDbEntity
  8
0
  6
Continuous
 62
     7
370
    15
100
AcDbSpline
210
0.0
220
0.0
230
1.0
 70
    24
 71
     3
 72
     8
 73
     4
 74
     0
 42
0.00000001
 43
0.00000001
 12
1.0
 22
0.0
 32
0.0
 13
1.0
 23
0.0
 33
0.0
 40
0.0
 40
0.0
 40
0.0
 40
0.0
 40
1.0
 40
1.0
 40
1.0
 40
1.0
 10
53.95445886943642
 20
148.1834489498931
 30
0.0
 10
53.31972857024233
 20
147.8169872407906
 30
0.0
 10
52.69969608359423
 20
147.4590113177181
 30
0.0
 10
52.08904597326412
 20
147.1064523121383
 30
0.0
  0
LINE
  5
90
330
1F
100
AcDbEntity
  8
0
  6
Continuous
 62
     7
370
    15
100
AcDbLine
 10
57.0640459733
 20
149.8650004278
 30
0.0
 11
57.0640459733
 21
152.3650004278
 31
0.0
  0
LINE
  5
91
330
1F
100
AcDbEntity
  8
0
  6
Continuous
 62
     7
370
    15
100
AcDbLine
 10
55.0390459733
 20
149.8650004278
 30
0.0
 11
55.0900204926
 21
149.8650004278
 31
0.0
  0
LINE
  5
92
330
1F
100
AcDbEntity
  8
0
  6
Continuous
 62
     7
370
    15
100
AcDbLine
 10
57.0130714539
 20
149.8650004278
 30
0.0
 11
57.0640459733
 21
149.8650004278
 31
0.0
  0
LINE
  5
93
330
1F
100
AcDbEntity
  8
0
  6
Continuous
 62
     7
370
    15
100
AcDbLine
 10
55.0390459733
 20
149.8650004278
 30
0.0
 11
55.0390459733
 21
152.3650004278
 31
0.0
  0
LINE
  5
94
330
1F
100
AcDbEntity
  8
0
  6
Continuous
 62
     7
370
    15
100
AcDbLine
 10
55.0390459733
 20
152.3650004278
 30
0.0
 11
57.0640459733
 21
152.3650004278
 31
0.0
  0
LINE
  5
95
330
1F
100
AcDbEntity
  8
0
  6
Continuous
 62
     7
370
    15
100
AcDbLine
 10
61.1140459733
 20
149.8650004278
 30
0.0
 11
61.1140459733
 21
152.3650004278
 31
0.0
  0
LINE
  5
96
330
1F
100
AcDbEntity
  8
0
  6
Continuous
 62
     7
370
    15
100
AcDbLine
 10
57.0640459733
 20
149.8650004278
 30
0.0
 11
57.1659950119
 21
149.8650004278
 31
0.0
  0
LINE
  5
97
330
1F
100
AcDbEntity
  8
0
  6
Continuous
 62
     7
370
    15
100
AcDbLine
 10
61.0120969346
 20
149.8650004278
 30
0.0
 11
61.1140459733
 21
149.8650004278
 31
0.0
  0
LINE
  5
98
330
1F
100
AcDbEntity
  8
0
  6
Continuous
 62
     7
370
    15
100
AcDbLine
 10
57.0640459733
 20
152.3650004278
 30
0.0
 11
61.1140459733
 21
152.3650004278
 31
0.0
  0
LINE
  5
99
330
1F
100
AcDbEntity
  8
0
  6
Continuous
 62
     7
370
    15
100
AcDbLine
 10
63.1390459733
 20
149.8650004278
 30
0.0
 11
63.1390459732
 21
152.3650004278
 31
0.0
  0
LINE
  5
9A
330
1F
100
AcDbEntity
  8
0
  6
Continuous
 62
     7
370
    15
100
AcDbLine
 10
61.1140459733
 20
149.8650004278
 30
0.0
 11
61.1650204926
 21
149.8650004278
 31
0.0
  0
LINE
  5
9B
330
1F
100
AcDbEntity
  8
0
  6
Continuous
 62
     7
370
    15
100
AcDbLine
 10
63.0880714539
 20
149.8650004278
 30
0.0
 11
63.1390459733
 21
149.8650004278
 31
0.0
  0
LINE
  5
9C
330
1F
100
AcDbEntity
  8
0
  6
Continuous
 62
     7
370
    15
100
AcDbLine
 10
61.1140459733
 20
152.3650004278
 30
0.0
 11
63.1390459732
 21
152.3650004278
 31
0.0
  0
LINE
  5
9D
330
1F
100
AcDbEntity
  8
0
  6
Continuous
 62
     7
370
    15
100
AcDbLine
 10
63.0880714539
 20
149.8650004278
 30
0.0
 11
61.1650204926
 21
149.8650004278
 31
0.0
  0
LINE
  5
9E
330
1F
100
AcDbEntity
  8
0
  6
Continuous
 62
     7
370
    15
100
AcDbLine
 10
61.0120969346
 20
149.8650004278
 30
0.0
 11
57.1659950119
 21
149.8650004278
 31
0.0
  0
LINE
  5
9F
330
1F
100
AcDbEntity
  8
0
  6
Continuous
 62
     7
370
    15
100
AcDbLine
 10
57.0130714539
 20
149.8650004278
 30
0.0
 11
55.0900204926
 21
149.8650004278
 31
0.0
  0
LINE
  5
A0
330
1F
100
AcDbEntity
  8
0
  6
Continuous
 62
     7
370
    15
100
AcDbLine
 10
63.0890459733
 20
149.0650004278
 30
0.0
 11
62.5531475884
 21
149.0650004278
 31
0.0
  0
LINE
  5
A1
330
1F
100
AcDbEntity
  8
0
  6
Continuous
 62
     7
370
    15
100
AcDbLine
 10
55.6249443581
 20
149.0650004278
 30
0.0
 11
55.0890459733
 21
149.0650004278
 31
0.0
  0
LINE
  5
A2
330
1F
100
AcDbEntity
  8
0
  6
Continuous
 62
     7
370
    15
100
AcDbLine
 10
55.6249443581
 20
137.0650004278
 30
0.0
 11
55.0890459733
 21
137.0650004278
 31
0.0
  0
LINE
  5
A3
330
1F
100
AcDbEntity
  8
0
  6
Continuous
 62
     7
370
    15
100
AcDbLine
 10
63.0890459733
 20
137.0650004278
 30
0.0
 11
62.5531475884
 21
137.0650004278
 31
0.0
  0
LINE
  5
A4
330
1F
100
AcDbEntity
  8
0
  6
Continuous
 62
     7
370
    15
100
AcDbLine
 10
56.1240123586
 20
136.2650004278
 30
0.0
 11
55.0900204926
 21
136.2650004278
 31
0.0
  0
LINE
  5
A5
330
1F
100
AcDbEntity
  8
0
  6
Continuous
 62
     7
370
    15
100
AcDbLine
 10
63.0880714539
 20
136.2650004278
 30
0.0
 11
61.1650204926
 21
136.2650004278
 31
0.0
  0
LINE
  5
A6
330
1F
100
AcDbEntity
  8
0
  6
Continuous
 62
     7
370
    15
100
AcDbLine
 10
61.0120969346
 20
136.2650004278
 30
0.0
 11
57.1659950119
 21
136.2650004278
 31
0.0
  0
LINE
  5
A7
330
1F
100
AcDbEntity
  8
0
  6
Continuous
 62
     7
370
    15
100
AcDbLine
 10
57.0130714539
 20
136.2650004278
 30
0.0
 11
56.1240123586
 21
136.2650004278
 31
0.0
  0
DIMENSION
  5
A8
330
1F
100
AcDbEntity
  8
0
  6
Continuous
 62
     7
370
     0
100
AcDbDimension
  2
_D
 10
46.0484347177
 20
137.0650004278
 30
0.0
 11
46.0484347177
 21
143.0650004278
 31
0.0
 70
   160
  1
<>
 71
     2
 42
-1.0
  3
SLDDIMSTYLE0
100
AcDbAlignedDimension
 13
55.6249443581
 23
149.0650004278
 33
0.0
 14
55.0890459733
 24
137.0650004278
 34
0.0
 50
90.0
100
AcDbRotatedDimension
  0
DIMENSION
  5
B4
330
1F
100
AcDbEntity
  8
0
  6
Continuous
 62
     7
370
     0
100
AcDbDimension
  2
_D_1
 10
38.7705193749
 20
133.7650004278
 30
0.0
 11
38.7705193749
 21
143.0650004278
 31
0.0
 70
   160
  1
<>
 71
     2
 42
-1.0
  3
SLDDIMSTYLE1
100
AcDbAlignedDimension
 13
55.0390459733
 23
152.3650004278
 33
0.0
 14
55.0390459733
 24
133.7650004278
 34
0.0
 50
90.0
100
AcDbRotatedDimension
  0
MTEXT
  5
BF
330
1F
100
AcDbEntity
  8
0
  6
Continuous
 62
     7
370
     0
100
AcDbMText
 10
42.6116290373
 20
164.017794733
 30
0.0
 40
3.5
 41
0.0
 71
     1
 72
     1
  1
M3
  7
SLDTEXTSTYLE1
 73
     1
 44
1.0
  0
LEADER
  5
C1
330
1F
100
AcDbEntity
  8
0
  6
Continuous
 62
     7
370
     0
100
AcDbLeader
  3
SLDDIMSTYLE2
 76
     3
 10
58.334193927
 20
144.0613429333
 30
0.0
 10
49.8716337522
 20
159.3357271095
 30
0.0
 10
42.5493716338
 20
159.3357271095
 30
0.0
  0
INSERT
  5
CD
330
1F
100
AcDbEntity
  8
0
  6
Continuous
 62
     7
370
     0
100
AcDbBlockReference
  2
SW_CENTERMARKSYMBOL_0
 10
59.0890459733
 20
143.0650004278
 30
0.0
  0
LINE
  5
CE
330
1F
100
AcDbEntity
  8
0
  6
Continuous
 62
     7
370
    15
100
AcDbLine
 10
145.2085278276
 20
138.0650004278
 30
0.0
 11
146.2085278276
 21
139.0650004278
 31
0.0
  0
LINE
  5
CF
330
1F
100
AcDbEntity
  8
0
  6
Continuous
 62
     7
370
    15
100
AcDbLine
 10
146.2085278276
 20
147.0650004278
 30
0.0
 11
145.2085278276
 21
148.0650004278
 31
0.0
  0
LINE
  5
D0
330
1F
100
AcDbEntity
  8
0
  6
Continuous
 62
     7
370
    15
100
AcDbLine
 10
135.7085278276
 20
138.0650004278
 30
0.0
 11
138.9732681154
 21
138.0650004278
 31
0.0
  0
LINE
  5
D1
330
1F
100
AcDbEntity
  8
0
  6
Continuous
 62
     7
370
    15
100
AcDbLine
 10
144.9732681154
 20
138.0650004278
 30
0.0
 11
145.2085278276
 21
138.0650004278
 31
0.0
  0
LINE
  5
D2
330
1F
100
AcDbEntity
  8
0
  6
Continuous
 62
     7
370
    15
100
AcDbLine
 10
145.2085278276
 20
148.0650004278
 30
0.0
 11
144.9732681154
 21
148.0650004278
 31
0.0
  0
LINE
  5
D3
330
1F
100
AcDbEntity
  8
0
  6
Continuous
 62
     7
370
    15
100
AcDbLine
 10
138.9732681154
 20
148.0650004278
 30
0.0
 11
135.7085278276
 21
148.0650004278
 31
0.0
  0
LINE
  5
D4
330
1F
100
AcDbEntity
  8
0
  6
Continuous
 62
     7
370
    15
100
AcDbLine
 10
134.2085278276
 20
138.5650004278
 30
0.0
 11
135.7085278276
 21
138.5650004278
 31
0.0
  0
LINE
  5
D5
330
1F
100
AcDbEntity
  8
0
  6
Continuous
 62
     7
370
    15
100
AcDbLine
 10
135.7085278276
 20
147.5650004278
 30
0.0
 11
134.2085278276
 21
147.5650004278
 31
0.0
  0
LINE
  5
D6
330
1F
100
AcDbEntity
  8
0
  6
Continuous
 62
     7
370
    15
100
AcDbLine
 10
129.7085278276
 20
139.3150004278
 30
0.0
 11
131.2085278276
 21
139.3150004278
 31
0.0
  0
LINE
  5
D7
330
1F
100
AcDbEntity
  8
0
  6
Continuous
 62
     7
370
    15
100
AcDbLine
 10
131.2085278276
 20
146.8150004278
 30
0.0
 11
130.8350913657
 21
146.8150004278
 31
0.0
  0
LINE
  5
D8
330
1F
100
AcDbEntity
  8
0
  6
Continuous
 62
     7
370
    15
100
AcDbLine
 10
130.3353238749
 20
146.8150004278
 30
0.0
 11
129.7085278276
 21
146.8150004278
 31
0.0
  0
LINE
  5
D9
330
1F
100
AcDbEntity
  8
0
  6
Continuous
 62
     7
370
    15
100
AcDbLine
 10
129.7085278276
 20
146.8150004278
 30
0.0
 11
129.2085278276
 21
146.3150004278
 31
0.0
  0
LINE
  5
DA
330
1F
100
AcDbEntity
  8
0
  6
Continuous
 62
     7
370
    15
100
AcDbLine
 10
129.4935258148
 20
139.5300024407
 30
0.0
 11
129.7085278276
 21
139.3150004278
 31
0.0
  0
LINE
  5
DB
330
1F
100
AcDbEntity
  8
0
  6
Continuous
 62
     7
370
    15
100
AcDbLine
 10
146.3085278276
 20
139.5650004278
 30
0.0
 11
146.9085278276
 21
139.5650004278
 31
0.0
  0
LINE
  5
DC
330
1F
100
AcDbEntity
  8
0
  6
Continuous
 62
     7
370
    15
100
AcDbLine
 10
146.9085278276
 20
145.6479312756
 30
0.0
 11
146.3085278276
 21
145.6479312756
 31
0.0
  0
LINE
  5
DD
330
1F
100
AcDbEntity
  8
0
  6
Continuous
 62
     7
370
    15
100
AcDbLine
 10
110.8585278276
 20
131.2650004278
 30
0.0
 11
111.2085278276
 21
128.7650004278
 31
0.0
  0
LINE
  5
DE
330
1F
100
AcDbEntity
  8
0
  6
Continuous
 62
     7
370
    15
100
AcDbLine
 10
115.2085278276
 20
128.7650004278
 30
0.0
 11
115.5585278276
 21
131.2650004278
 31
0.0
  0
LINE
  5
DF
330
1F
100
AcDbEntity
  8
0
  6
Continuous
 62
     7
370
    15
100
AcDbLine
 10
110.8585278276
 20
128.7650004278
 30
0.0
 11
111.2085278276
 21
126.2650004278
 31
0.0
  0
LINE
  5
E0
330
1F
100
AcDbEntity
  8
0
  6
Continuous
 62
     7
370
    15
100
AcDbLine
 10
115.2085278276
 20
126.2650004278
 30
0.0
 11
115.5585278276
 21
128.7650004278
 31
0.0
  0
LINE
  5
E1
330
1F
100
AcDbEntity
  8
0
  6
Continuous
 62
     7
370
    15
100
AcDbLine
 10
115.3085278276
 20
131.2650004278
 30
0.0
 11
115.3085278276
 21
133.7650004278
 31
0.0
  0
LINE
  5
E2
330
1F
100
AcDbEntity
  8
0
  6
Continuous
 62
     7
370
    15
100
AcDbLine
 10
111.1085278276
 20
133.7650004278
 30
0.0
 11
111.1085278276
 21
131.2650004278
 31
0.0
  0
LINE
  5
E3
330
1F
100
AcDbEntity
  8
0
  6
Continuous
 62
     7
370
    15
100
AcDbLine
 10
117.2085278276
 20
139.3150004278
 30
0.0
 11
119.024157293
 21
139.3150004278
 31
0.0
  0
LINE
  5
E4
330
1F
100
AcDbEntity
  8
0
  6
Continuous
 62
     7
370
    15
100
AcDbLine
 10
119.2085278276
 20
146.8150004278
 30
0.0
 11
118.8366527104
 21
146.8150004278
 31
0.0
  0
LINE
  5
E5
330
1F
100
AcDbEntity
  8
0
  6
Continuous
 62
     7
370
    15
100
AcDbLine
 10
118.3364137654
 20
146.8150004278
 30
0.0
 11
117.2085278276
 21
146.8150004278
 31
0.0
  0
LINE
  5
E6
330
1F
100
AcDbEntity
  8
0
  6
Continuous
 62
     7
370
    15
100
AcDbLine
 10
103.7085278276
 20
139.5650004278
 30
0.0
 11
105.7085278276
 21
139.5650004278
 31
0.0
  0
LINE
  5
E7
330
1F
100
AcDbEntity
  8
0
  6
Continuous
 62
     7
370
    15
100
AcDbLine
 10
105.7085278276
 20
146.5650004278
 30
0.0
 11
103.7085278276
 21
146.5650004278
 31
0.0
  0
LINE
  5
E8
330
1F
100
AcDbEntity
  8
0
  6
Continuous
 62
     7
370
    15
100
AcDbLine
 10
147.7085278276
 20
140.5650004278
 30
0.0
 11
148.2085278276
 21
141.0650004278
 31
0.0
  0
LINE
  5
E9
330
1F
100
AcDbEntity
  8
0
  6
Continuous
 62
     7
370
    15
100
AcDbLine
 10
148.2085278276
 20
145.0650004278
 30
0.0
 11
147.7085278276
 21
145.5650004278
 31
0.0
  0
LINE
  5
EA
330
1F
100
AcDbEntity
  8
0
  6
Continuous
 62
     7
370
    15
100
AcDbLine
 10
146.9085278276
 20
140.5650004278
 30
0.0
 11
147.7085278276
 21
140.5650004278
 31
0.0
  0
LINE
  5
EB
330
1F
100
AcDbEntity
  8
0
  6
Continuous
 62
     7
370
    15
100
AcDbLine
 10
147.7085278276
 20
145.5650004278
 30
0.0
 11
146.9085278276
 21
145.5650004278
 31
0.0
  0
LINE
  5
EC
330
1F
100
AcDbEntity
  8
0
  6
Continuous
 62
     7
370
    15
100
AcDbLine
 10
119.3805896009
 20
140.5650004278
 30
0.0
 11
120.8822241429
 21
140.5650004278
 31
0.0
  0
LINE
  5
ED
330
1F
100
AcDbEntity
  8
0
  6
Continuous
 62
     7
370
    15
100
AcDbLine
 10
121.3808038257
 20
140.5650004278
 30
0.0
 11
122.8823284748
 21
140.5650004278
 31
0.0
  0
LINE
  5
EE
330
1F
100
AcDbEntity
  8
0
  6
Continuous
 62
     7
370
    15
100
AcDbLine
 10
123.3807808109
 20
140.5650004278
 30
0.0
 11
124.8820261856
 21
140.5650004278
 31
0.0
  0
LINE
  5
EF
330
1F
100
AcDbEntity
  8
0
  6
Continuous
 62
     7
370
    15
100
AcDbLine
 10
125.3807959266
 20
140.5650004278
 30
0.0
 11
126.8822135178
 21
140.5650004278
 31
0.0
  0
LINE
  5
F0
330
1F
100
AcDbEntity
  8
0
  6
Continuous
 62
     7
370
    15
100
AcDbLine
 10
127.380674957
 20
140.5650004278
 30
0.0
 11
128.8819719608
 21
140.5650004278
 31
0.0
  0
LINE
  5
F1
330
1F
100
AcDbEntity
  8
0
  6
Continuous
 62
     7
370
    15
100
AcDbLine
 10
129.2085278276
 20
145.5650004278
 30
0.0
 11
128.9799839636
 21
145.5650004278
 31
0.0
  0
LINE
  5
F2
330
1F
100
AcDbEntity
  8
0
  6
Continuous
 62
     7
370
    15
100
AcDbLine
 10
128.481033817
 20
145.5650004278
 30
0.0
 11
126.9800229901
 21
145.5650004278
 31
0.0
  0
LINE
  5
F3
330
1F
100
AcDbEntity
  8
0
  6
Continuous
 62
     7
370
    15
100
AcDbLine
 10
126.4810857444
 20
145.5650004278
 30
0.0
 11
124.9800161922
 21
145.5650004278
 31
0.0
  0
LINE
  5
F4
330
1F
100
AcDbEntity
  8
0
  6
Continuous
 62
     7
370
    15
100
AcDbLine
 10
124.4810015044
 20
145.5650004278
 30
0.0
 11
122.9798447089
 21
145.5650004278
 31
0.0
  0
LINE
  5
F5
330
1F
100
AcDbEntity
  8
0
  6
Continuous
 62
     7
370
    15
100
AcDbLine
 10
122.4808872087
 20
145.5650004278
 30
0.0
 11
120.9799217231
 21
145.5650004278
 31
0.0
  0
LINE
  5
F6
330
1F
100
AcDbEntity
  8
0
  6
Continuous
 62
     7
370
    15
100
AcDbLine
 10
120.4810222472
 20
145.5650004278
 30
0.0
 11
119.2085278276
 21
145.5650004278
 31
0.0
  0
LINE
  5
F7
330
1F
100
AcDbEntity
  8
0
  6
Continuous
 62
     7
370
    15
100
AcDbLine
 10
105.7085278276
 20
140.5650004278
 30
0.0
 11
109.2085278276
 21
140.5650004278
 31
0.0
  0
LINE
  5
F8
330
1F
100
AcDbEntity
  8
0
  6
Continuous
 62
     7
370
    15
100
AcDbLine
 10
109.2085278276
 20
145.5650004278
 30
0.0
 11
105.7085278276
 21
145.5650004278
 31
0.0
  0
LINE
  5
F9
330
1F
100
AcDbEntity
  8
0
  6
Continuous
 62
     7
370
    15
100
AcDbLine
 10
146.2085278276
 20
141.5650004278
 30
0.0
 11
146.3085278276
 21
141.5650004278
 31
0.0
  0
LINE
  5
FA
330
1F
100
AcDbEntity
  8
0
  6
Continuous
 62
     7
370
    15
100
AcDbLine
 10
146.3085278276
 20
144.5650004278
 30
0.0
 11
146.2085278276
 21
144.5650004278
 31
0.0
  0
SPLINE
  5
FB
330
1F
100
AcDbEntity
  8
0
  6
Continuous
 62
     7
370
    15
100
AcDbSpline
210
0.0
220
0.0
230
1.0
 70
     8
 71
     3
 72
    17
 73
    13
 74
     0
 42
0.00000001
 43
0.00000001
 12
1.0
 22
0.0
 32
0.0
 13
1.0
 23
0.0
 33
0.0
 40
0.0
 40
0.0
 40
0.0
 40
0.0
 40
0.0673406286101982
 40
0.1511742455979391
 40
0.2489403959671446
 40
0.3542834709413559
 40
0.4671826693323756
 40
0.5877652882074639
 40
0.7163012697763401
 40
0.8494883460985713
 40
0.9759373369817662
 40
1.0
 40
1.0
 40
1.0
 40
1.0
 10
125.4260231841207
 20
138.5655939954752
 30
0.0
 10
125.4749866845734
 20
138.5750308794419
 30
0.0
 10
125.5849057690181
 20
138.5962159180122
 30
0.0
 10
125.6551206059882
 20
138.681784702374
 30
0.0
 10
125.7129215630134
 20
138.7820069548428
 30
0.0
 10
125.7636141214695
 20
138.9348967132993
 30
0.0
 10
125.8079463469076
 20
139.1323865138334
 30
0.0
 10
125.8498650293531
 20
139.3852814589191
 30
0.0
 10
125.8911282248098
 20
139.6980234606544
 30
0.0
 10
125.9317296872459
 20
140.0663889611572
 30
0.0
 10
125.9614628901865
 20
140.3618935805524
 30
0.0
 10
125.9771664691885
 20
140.5370049488166
 30
0.0
 10
125.9796770384362
 20
140.5650004278109
 30
0.0
  0
SPLINE
  5
FC
330
1F
100
AcDbEntity
  8
0
  6
Continuous
 62
     7
370
    15
100
AcDbSpline
210
0.0
220
0.0
230
1.0
 70
     8
 71
     3
 72
     9
 73
     5
 74
     0
 42
0.00000001
 43
0.00000001
 12
1.0
 22
0.0
 32
0.0
 13
1.0
 23
0.0
 33
0.0
 40
0.0
 40
0.0
 40
0.0
 40
0.0
 40
0.4864494309008248
 40
1.0
 40
1.0
 40
1.0
 40
1.0
 10
126.3809496575911
 20
145.5650004278109
 30
0.0
 10
126.3890727426793
 20
145.6528732557487
 30
0.0
 10
126.4057714672993
 20
145.8335144948085
 30
0.0
 10
126.4223880975866
 20
145.987566626293
 30
0.0
 10
126.4309215775271
 20
146.0666801860878
 30
0.0
  0
SPLINE
  5
FD
330
1F
100
AcDbEntity
  8
0
  6
Continuous
 62
     7
370
    15
100
AcDbSpline
210
0.0
220
0.0
230
1.0
 70
     8
 71
     3
 72
    18
 73
    14
 74
     0
 42
0.00000001
 43
0.00000001
 12
1.0
 22
0.0
 32
0.0
 13
1.0
 23
0.0
 33
0.0
 40
0.0
 40
0.0
 40
0.0
 40
0.0
 40
0.0340696893441447
 40
0.0745754315079908
 40
0.1480552195804176
 40
0.2345800267405669
 40
0.3196246987461602
 40
0.4012719734024685
 40
0.5389122685692298
 40
0.6718193082888565
 40
0.8106823518806905
 40
0.9191629162554653
 40
1.0
 40
1.0
 40
1.0
 40
1.0
 10
127.4254230522939
 20
138.5671423486321
 30
0.0
 10
127.4514627649894
 20
138.5693455416813
 30
0.0
 10
127.5084613126131
 20
138.5741681296035
 30
0.0
 10
127.5836565814436
 20
138.6120219727271
 30
0.0
 10
127.6519146669593
 20
138.6743668702806
 30
0.0
 10
127.7040170085042
 20
138.7637844026778
 30
0.0
 10
127.7497532508395
 20
138.8829731425951
 30
0.0
 10
127.7935310772309
 20
139.0508872047531
 30
0.0
 10
127.8345408399191
 20
139.2784890430858
 30
0.0
 10
127.877186642697
 20
139.5852115807746
 30
0.0
 10
127.9172963596051
 20
139.9303190235281
 30
0.0
 10
127.9515476420945
 20
140.2611891257172
 30
0.0
 10
127.9712819573903
 20
140.4740924525907
 30
0.0
 10
127.9797083482422
 20
140.5650004278109
 30
0.0
  0
SPLINE
  5
FE
330
1F
100
AcDbEntity
  8
0
  6
Continuous
 62
     7
370
    15
100
AcDbSpline
210
0.0
220
0.0
230
1.0
 70
     8
 71
     3
 72
     9
 73
     5
 74
     0
 42
0.00000001
 43
0.00000001
 12
1.0
 22
0.0
 32
0.0
 13
1.0
 23
0.0
 33
0.0
 40
0.0
 40
0.0
 40
0.0
 40
0.0
 40
0.8469316347725186
 40
0.9999999999999999
 40
0.9999999999999999
 40
0.9999999999999999
 40
0.9999999999999999
 10
128.3807113127197
 20
145.5650004278109
 30
0.0
 10
128.3950321631347
 20
145.7190948202397
 30
0.0
 10
128.411941261611
 20
145.9010391308571
 30
0.0
 10
128.4285673577448
 20
146.0486146413253
 30
0.0
 10
128.4311122871
 20
146.0712037834603
 30
0.0
  0
SPLINE
  5
FF
330
1F
100
AcDbEntity
  8
0
  6
Continuous
 62
     7
370
    15
100
AcDbSpline
210
0.0
220
0.0
230
1.0
 70
     8
 71
     3
 72
    13
 73
     9
 74
     0
 42
0.00000001
 43
0.00000001
 12
1.0
 22
0.0
 32
0.0
 13
1.0
 23
0.0
 33
0.0
 40
0.0
 40
0.0
 40
0.0
 40
0.0
 40
0.1243638871953006
 40
0.2776323665742862
 40
0.4552777162076701
 40
0.6462678337263473
 40
0.8507861231114345
 40
1.0
 40
1.0
 40
1.0
 40
1.0
 10
129.4255325046121
 20
138.5679376487937
 30
0.0
 10
129.4746255047103
 20
138.5770511083726
 30
0.0
 10
129.5842216753261
 20
138.5973961732274
 30
0.0
 10
129.6554465701197
 20
138.6822187609533
 30
0.0
 10
129.713494256077
 20
138.7818257893341
 30
0.0
 10
129.7644183411146
 20
138.9365822134571
 30
0.0
 10
129.804309862555
 20
139.111475950447
 30
0.0
 10
129.826788122831
 20
139.2546188486693
 30
0.0
 10
129.8362700661804
 20
139.3150004278109
 30
0.0
  0
SPLINE
  5
100
330
1F
100
AcDbEntity
  8
0
  6
Continuous
 62
     7
370
    15
100
AcDbSpline
210
0.0
220
0.0
230
1.0
 70
     8
 71
     3
 72
    21
 73
    17
 74
     0
 42
0.00000001
 43
0.00000001
 12
1.0
 22
0.0
 32
0.0
 13
1.0
 23
0.0
 33
0.0
 40
0.0
 40
0.0
 40
0.0
 40
0.0
 40
0.0809460066487338
 40
0.1716501217849612
 40
0.2445907778293654
 40
0.3215430896892557
 40
0.3989529229921482
 40
0.4756648865977203
 40
0.5516925090514883
 40
0.6271106399422899
 40
0.7020609170587356
 40
0.7765798907635476
 40
0.8454640308341402
 40
0.9054342228398669
 40
0.9568543121357405
 40
0.9999999999999999
 40
0.9999999999999999
 40
0.9999999999999999
 40
0.9999999999999999
 10
131.1799741868009
 20
143.0652116037485
 30
0.0
 10
131.1661467595391
 20
143.24984734784
 30
0.0
 10
131.1368249971478
 20
143.6413768286789
 30
0.0
 10
131.0949548029795
 20
144.1902782661956
 30
0.0
 10
131.0537907724439
 20
144.709873603455
 30
0.0
 10
131.0149548060865
 20
145.1767701757307
 30
0.0
 10
130.9753309257849
 20
145.6215420723967
 30
0.0
 10
130.9354621323608
 20
146.0294437483229
 30
0.0
 10
130.895139674661
 20
146.3937990151136
 30
0.0
 10
130.8539638768652
 20
146.7092309344284
 30
0.0
 10
130.8109397649973
 20
146.9739346140152
 30
0.0
 10
130.7678651961612
 20
147.1781243303984
 30
0.0
 10
130.7205777923013
 20
147.3348488302794
 30
0.0
 10
130.6543431571393
 20
147.4524670518808
 30
0.0
 10
130.567549017573
 20
147.5415541763749
 30
0.0
 10
130.4696237219324
 20
147.5574225932371
 30
0.0
 10
130.4249452519128
 20
147.5646625671621
 30
0.0
  0
LWPOLYLINE
  5
101
330
1F
100
AcDbEntity
  8
0
  6
Continuous
 62
     7
370
    15
100
AcDbPolyline
 90
       38
 70
   128
 43
0.0
 10
129.6355784779
 20
138.9581839603
 10
129.6336688568
 20
138.9557562591
 10
129.6275794209
 20
138.9560748946
 10
129.6168685728
 20
138.9625075955
 10
129.5939920598
 20
139.0016413714
 10
129.568534479
 20
139.0842850411
 10
129.5381023355
 20
139.2321430809
 10
129.5045148277
 20
139.4457463758
 10
129.4690718519
 20
139.7174983241
 10
129.4322555642
 20
140.0428786297
 10
129.394470361
 20
140.4169998687
 10
129.3560428797
 20
140.8346637475
 10
129.317221998
 20
141.2900277735
 10
129.2788422713
 20
141.76676092
 10
129.2453160481
 20
142.1991260084
 10
129.2174455723
 20
142.5661060278
 10
129.1952427233
 20
142.8613240516
 10
129.1787165686
 20
143.0817777391
 10
129.1638059199
 20
143.2806540923
 10
129.1428821269
 20
143.5588213788
 10
129.1157533612
 20
143.9160968791
 10
129.0823963823
 20
144.3468101481
 10
129.0427809293
 20
144.8403223136
 10
129.012875576
 20
145.1957280383
 10
128.9811889803
 20
145.5523393314
 10
128.9509190133
 20
145.8703855176
 10
128.9085595626
 20
146.272167672
 10
128.8697847034
 20
146.5902657843
 10
128.8345053337
 20
146.8359683721
 10
128.8026210694
 20
147.0209882501
 10
128.783196383
 20
147.1162462292
 10
128.7650681403
 20
147.1932370824
 10
128.7374393602
 20
147.2855630289
 10
128.7003485284
 20
147.3716187202
 10
128.6398429774
 20
147.4604140431
 10
128.5486329089
 20
147.5340452772
 10
128.4259876527
 20
147.5646017523
 10
128.4259876527
 20
147.5646017523
  0
SPLINE
  5
102
330
1F
100
AcDbEntity
  8
0
  6
Continuous
 62
     7
370
    15
100
AcDbSpline
210
0.0
220
0.0
230
1.0
 70
     8
 71
     3
 72
    39
 73
    35
 74
     0
 42
0.00000001
 43
0.00000001
 12
1.0
 22
0.0
 32
0.0
 13
1.0
 23
0.0
 33
0.0
 40
0.0
 40
0.0
 40
0.0
 40
0.0
 40
0.0045293600579315
 40
0.0279417196569901
 40
0.0554398657892596
 40
0.087137936376297
 40
0.1230529349447383
 40
0.1631659535565885
 40
0.2064222640416082
 40
0.2478082924479431
 40
0.2866744761658352
 40
0.3230299377148583
 40
0.3568473146354881
 40
0.3979220966759566
 40
0.4352489463477934
 40
0.4700483779800227
 40
0.5023530767848141
 40
0.5333347832952298
 40
0.5697835114229143
 40
0.6014476795692589
 40
0.6368117357102945
 40
0.6758680367721688
 40
0.7186344218570926
 40
0.764232400135668
 40
0.8054693309810462
 40
0.840823770278065
 40
0.8702760392346456
 40
0.8938148289136927
 40
0.9114348708618883
 40
0.9221443100615924
 40
0.9403447851903144
 40
0.9567567521670618
 40
0.9766465126198641
 40
0.9999999999999999
 40
0.9999999999999999
 40
0.9999999999999999
 40
0.9999999999999999
 10
127.5886779657193
 20
139.0040774768825
 30
0.0
 10
127.5905731661642
 20
139.0024793373505
 30
0.0
 10
127.6022646984881
 20
138.9926203801905
 30
0.0
 10
127.5766272784418
 20
139.0453596575077
 30
0.0
 10
127.5632432937504
 20
139.1198425813918
 30
0.0
 10
127.5346224761874
 20
139.2591992157291
 30
0.0
 10
127.5032843072681
 20
139.4607614684506
 30
0.0
 10
127.4662329011757
 20
139.7392652795771
 30
0.0
 10
127.4270153646322
 20
140.0862160509271
 30
0.0
 10
127.3879979747403
 20
140.4780748672194
 30
0.0
 10
127.3510631229821
 20
140.8868161183175
 30
0.0
 10
127.3164850447974
 20
141.2963512897788
 30
0.0
 10
127.2811787667396
 20
141.7349744189066
 30
0.0
 10
127.24550370434
 20
142.1950763821942
 30
0.0
 10
127.209481900643
 20
142.6709059623151
 30
0.0
 10
127.1762226306169
 20
143.1146153942991
 30
0.0
 10
127.1449851494818
 20
143.5309414005016
 30
0.0
 10
127.1132534230572
 20
143.9497379662653
 30
0.0
 10
127.0817177091258
 20
144.3577890006604
 30
0.0
 10
127.048768275506
 20
144.7707476659665
 30
0.0
 10
127.0149207306996
 20
145.1772444870651
 30
0.0
 10
126.9774266856761
 20
145.6002087853984
 30
0.0
 10
126.9364940820973
 20
146.0211878985317
 30
0.0
 10
126.8948581622651
 20
146.3982853089583
 30
0.0
 10
126.854943913064
 20
146.7060809917255
 30
0.0
 10
126.818901446513
 20
146.9357779282547
 30
0.0
 10
126.7869213020954
 20
147.1008957980403
 30
0.0
 10
126.7573380104682
 20
147.2184166258514
 30
0.0
 10
126.7321965893184
 20
147.2971388064881
 30
0.0
 10
126.696532409497
 20
147.3745691209276
 30
0.0
 10
126.6524389858967
 20
147.4423335751134
 30
0.0
 10
126.590794842026
 20
147.5051803861612
 30
0.0
 10
126.5158414035814
 20
147.5535436063308
 30
0.0
 10
126.4578495638839
 20
147.559742900832
 30
0.0
 10
126.4265311092258
 20
147.5630908257256
 30
0.0
  0
LWPOLYLINE
  5
103
330
1F
100
AcDbEntity
  8
0
  6
Continuous
 62
     7
370
    15
100
AcDbPolyline
 90
       38
 70
   128
 43
0.0
 10
125.633529415
 20
138.9561623074
 10
125.6317767405
 20
138.9537596117
 10
125.625936179
 20
138.9542544809
 10
125.6155111714
 20
138.961494593
 10
125.5928416705
 20
139.0040636704
 10
125.5672872887
 20
139.0914761812
 10
125.5365813562
 20
139.243614668
 10
125.5027596475
 20
139.4593812473
 10
125.4671650887
 20
139.7323824077
 10
125.4302566847
 20
140.0597609715
 10
125.392419695
 20
140.4375887192
 10
125.3539656336
 20
140.8590955395
 10
125.3151322692
 20
141.3166934544
 10
125.276750061
 20
141.7941155384
 10
125.2432268745
 20
142.2263586469
 10
125.2153606931
 20
142.5930611173
 10
125.1931632448
 20
142.8880808305
 10
125.1766434893
 20
143.108402731
 10
125.1617323588
 20
143.3072814093
 10
125.1408087262
 20
143.5855050606
 10
125.1136822468
 20
143.9429278602
 10
125.0803292614
 20
144.3737291017
 10
125.0407189444
 20
144.8666766594
 10
125.0108173045
 20
145.2207743011
 10
124.979129352
 20
145.5749115495
 10
124.9488512029
 20
145.8900272913
 10
124.9064661001
 20
146.2886438188
 10
124.8676431401
 20
146.6057691263
 10
124.8322846007
 20
146.8511134271
 10
124.8002799207
 20
147.0352909714
 10
124.7807463123
 20
147.129484036
 10
124.7624862484
 20
147.2049682074
 10
124.7347886784
 20
147.2942480668
 10
124.6977624555
 20
147.376878049
 10
124.6376260649
 20
147.4618719227
 10
124.5472867549
 20
147.5323606553
 10
124.4260601015
 20
147.5619579939
 10
124.4260601015
 20
147.5619579939
  0
SPLINE
  5
104
330
1F
100
AcDbEntity
  8
0
  6
Continuous
 62
     7
370
    15
100
AcDbSpline
210
0.0
220
0.0
230
1.0
 70
     8
 71
     3
 72
    38
 73
    34
 74
     0
 42
0.00000001
 43
0.00000001
 12
1.0
 22
0.0
 32
0.0
 13
1.0
 23
0.0
 33
0.0
 40
0.0
 40
0.0
 40
0.0
 40
0.0
 40
0.013081643975252
 40
0.0432746272548709
 40
0.0772563884503854
 40
0.115063953415264
 40
0.1566984511764992
 40
0.2006448575111048
 40
0.243716392793757
 40
0.2857906251898072
 40
0.3269023670919934
 40
0.3670669297096705
 40
0.4059315675708814
 40
0.4407844196432159
 40
0.4710106308029264
 40
0.4966105611914558
 40
0.5199035216705076
 40
0.5485595157767497
 40
0.5832153436163873
 40
0.6238934617738713
 40
0.6705887859023983
 40
0.7047443641347906
 40
0.7375393931643153
 40
0.7679465488611359
 40
0.8090875587276107
 40
0.8448584466757241
 40
0.8752154930995363
 40
0.9001250432516322
 40
0.9195637943582965
 40
0.9349637391034571
 40
0.9662775432398633
 40
0.982807214868838
 40
1.0
 40
1.0
 40
1.0
 40
1.0
 10
124.2657565199289
 20
147.1352621014204
 30
0.0
 10
124.2667935827098
 20
147.1319223668736
 30
0.0
 10
124.2702242299105
 20
147.1208743848373
 30
0.0
 10
124.2893619493765
 20
147.0580698147535
 30
0.0
 10
124.3157674928512
 20
146.9327557831089
 30
0.0
 10
124.3495103344674
 20
146.7333610735729
 30
0.0
 10
124.3876457071629
 20
146.4553825702148
 30
0.0
 10
124.4282992434832
 20
146.104797879055
 30
0.0
 10
124.4691600204675
 20
145.7013398001816
 30
0.0
 10
124.5093524318001
 20
145.2615639326602
 30
0.0
 10
124.5486884369151
 20
144.7955798635492
 30
0.0
 10
124.5870153218953
 20
144.3157167983865
 30
0.0
 10
124.623354510507
 20
143.8437315562121
 30
0.0
 10
124.6565282963324
 20
143.4040874727918
 30
0.0
 10
124.6854891556796
 20
143.0174599459245
 30
0.0
 10
124.7107729502447
 20
142.680372975411
 30
0.0
 10
124.7355578989023
 20
142.3522002796217
 30
0.0
 10
124.7632467474312
 20
141.990187480362
 30
0.0
 10
124.7965051631725
 20
141.5655253186018
 30
0.0
 10
124.8355677570484
 20
141.0866444741052
 30
0.0
 10
124.8745817810872
 20
140.6390808033799
 30
0.0
 10
124.9111397312576
 20
140.2537163777462
 30
0.0
 10
124.9426278052908
 20
139.9502999552865
 30
0.0
 10
124.9765969253015
 20
139.6557671054767
 30
0.0
 10
125.0119239107564
 20
139.3897947864717
 30
0.0
 10
125.0480069665401
 20
139.1655322450909
 30
0.0
 10
125.0797180986181
 20
139.0060604218323
 30
0.0
 10
125.1073192759131
 20
138.8955932170963
 30
0.0
 10
125.1313166631319
 20
138.8200817926846
 30
0.0
 10
125.1629238767463
 20
138.7405121766703
 30
0.0
 10
125.2206722225525
 20
138.650755888639
 30
0.0
 10
125.3259819010214
 20
138.5782486076616
 30
0.0
 10
125.3991303985966
 20
138.5698950271557
 30
0.0
 10
125.4364238381114
 20
138.5656361051046
 30
0.0
  0
SPLINE
  5
105
330
1F
100
AcDbEntity
  8
0
  6
Continuous
 62
     7
370
    15
100
AcDbSpline
210
0.0
220
0.0
230
1.0
 70
     8
 71
     3
 72
    41
 73
    37
 74
     0
 42
0.00000001
 43
0.00000001
 12
1.0
 22
0.0
 32
0.0
 13
1.0
 23
0.0
 33
0.0
 40
0.0
 40
0.0
 40
0.0
 40
0.0
 40
0.0010750142472056
 40
0.0102855866285732
 40
0.0190647054124123
 40
0.0293087719948765
 40
0.0410305971067307
 40
0.0542401923758719
 40
0.0851384908080424
 40
0.122037592893675
 40
0.164914787584592
 40
0.2105842819403722
 40
0.252752714279281
 40
0.291268812842852
 40
0.3261074601998064
 40
0.3572309030057926
 40
0.3928960772917273
 40
0.4242419521224181
 40
0.4576736730940197
 40
0.4935785204342736
 40
0.5320906749454967
 40
0.5747521933647382
 40
0.6098079373173059
 40
0.6474682750271034
 40
0.6877368054017388
 40
0.7306621668330094
 40
0.7747050902572444
 40
0.8150183796926541
 40
0.8512506093760089
 40
0.8833940693895336
 40
0.9114506238792712
 40
0.935647403745971
 40
0.9486129655477484
 40
0.9635572324527194
 40
0.9806742928742529
 40
0.9999999999999999
 40
0.9999999999999999
 40
0.9999999999999999
 40
0.9999999999999999
 10
126.2961582712642
 20
147.0726390432041
 30
0.0
 10
126.2957768083608
 20
147.0725985701638
 30
0.0
 10
126.2921270244172
 20
147.0722113297494
 30
0.0
 10
126.2923869106542
 20
147.0643115778882
 30
0.0
 10
126.2942523188858
 20
147.0464732588803
 30
0.0
 10
126.2990042958196
 20
147.0205350183665
 30
0.0
 10
126.3059850456819
 20
146.9837888248647
 30
0.0
 10
126.319063255525
 20
146.9140321060222
 30
0.0
 10
126.3410101174973
 20
146.7862473724645
 30
0.0
 10
126.373498252038
 20
146.5637932499126
 30
0.0
 10
126.4118217804116
 20
146.2546383801568
 30
0.0
 10
126.4523767691699
 20
145.8748677057374
 30
0.0
 10
126.4916112939273
 20
145.460449627951
 30
0.0
 10
126.5275523041601
 20
145.0480791713401
 30
0.0
 10
126.5600857038586
 20
144.6530779975472
 30
0.0
 10
126.5917649569676
 20
144.2534535521194
 30
0.0
 10
126.6224093400413
 20
143.8556644909645
 30
0.0
 10
126.6538092044573
 20
143.4405967605859
 30
0.0
 10
126.6853078995811
 20
143.0205195448771
 30
0.0
 10
126.7190456525032
 20
142.5706886890238
 30
0.0
 10
126.7556320339101
 20
142.0884628253927
 30
0.0
 10
126.7919583004207
 20
141.6220466606633
 30
0.0
 10
126.8280550958505
 20
141.1771143908983
 30
0.0
 10
126.8634936983453
 20
140.7624029751024
 30
0.0
 10
126.9015295986682
 20
140.349050064973
 30
0.0
 10
126.9416920392675
 20
139.9555984147602
 30
0.0
 10
126.9819709262442
 20
139.6103624565096
 30
0.0
 10
127.0208298840569
 20
139.3284858345675
 30
0.0
 10
127.0572938514549
 20
139.1129154816382
 30
0.0
 10
127.0909140228657
 20
138.9541778941563
 30
0.0
 10
127.1252028269611
 20
138.8363719363156
 30
0.0
 10
127.1499172275309
 20
138.7696955805596
 30
0.0
 10
127.1886572658482
 20
138.7003941186925
 30
0.0
 10
127.2405903800744
 20
138.6396255046567
 30
0.0
 10
127.3222256499191
 20
138.5809492768114
 30
0.0
 10
127.3964768758405
 20
138.5719389244351
 30
0.0
 10
127.4358525199659
 20
138.567160707992
 30
0.0
  0
LWPOLYLINE
  5
106
330
1F
100
AcDbEntity
  8
0
  6
Continuous
 62
     7
370
    15
100
AcDbPolyline
 90
       33
 70
   128
 43
0.0
 10
128.2682912813
 20
147.1311770187
 10
128.2717976299
 20
147.1171545449
 10
128.2899515065
 20
147.0482666165
 10
128.3162371077
 20
146.9224337237
 10
128.3492565337
 20
146.7258878029
 10
128.3879500153
 20
146.4452111409
 10
128.4298852182
 20
146.0833857704
 10
128.4711581452
 20
145.6736400378
 10
128.5115764851
 20
145.2290087489
 10
128.5510785698
 20
144.7608097739
 10
128.5896136552
 20
144.2791410794
 10
128.6268319176
 20
143.7969972968
 10
128.6601944096
 20
143.355778484
 10
128.6891405667
 20
142.9698355522
 10
128.7136633616
 20
142.6430886401
 10
128.7359945838
 20
142.3474552595
 10
128.7634466154
 20
141.9887760795
 10
128.7966208682
 20
141.5660374279
 10
128.8355698429
 20
141.0908097434
 10
128.8803621868
 20
140.5817916271
 10
128.9131977601
 20
140.2392909702
 10
128.944873732
 20
139.9366477676
 10
128.9744487165
 20
139.6809927957
 10
129.0149694419
 20
139.3764963835
 10
129.0510311603
 20
139.1531052275
 10
129.0828251905
 20
138.994969445
 10
129.1105661294
 20
138.8866120497
 10
129.1344918514
 20
138.8137207086
 10
129.1582239376
 20
138.75814933
 10
129.2489887185
 20
138.6381423959
 10
129.3293668009
 20
138.5886130597
 10
129.4359663853
 20
138.5679299765
 10
129.4359663853
 20
138.5679299765
  0
SPLINE
  5
107
330
1F
100
AcDbEntity
  8
0
  6
Continuous
 62
     7
370
    15
100
AcDbSpline
210
0.0
220
0.0
230
1.0
 70
     8
 71
     3
 72
    23
 73
    19
 74
     0
 42
0.00000001
 43
0.00000001
 12
1.0
 22
0.0
 32
0.0
 13
1.0
 23
0.0
 33
0.0
 40
0.0
 40
0.0
 40
0.0
 40
0.0
 40
0.019692198915834
 40
0.0354137592409898
 40
0.0535460514680853
 40
0.0741214361224042
 40
0.0971537521712987
 40
0.1506090827123958
 40
0.2139565195600827
 40
0.287198484176486
 40
0.3703637624462263
 40
0.458880586968222
 40
0.548045516837697
 40
0.6377840753174068
 40
0.7280156001254496
 40
0.8187147108083409
 40
0.9099636215336421
 40
1.0
 40
1.0
 40
1.0
 40
1.0
 10
130.2986021252065
 20
147.0667757392709
 30
0.0
 10
130.2966428941364
 20
147.0652623224161
 30
0.0
 10
130.2931194817581
 20
147.0625406466725
 30
0.0
 10
130.2945133884093
 20
147.0484377243647
 30
0.0
 10
130.2970553082871
 20
147.0306102076085
 30
0.0
 10
130.3017605709454
 20
147.0051030478524
 30
0.0
 10
130.3108259358118
 20
146.957378349261
 30
0.0
 10
130.3268031441432
 20
146.8707860865186
 30
0.0
 10
130.3511055342448
 20
146.7210414152804
 30
0.0
 10
130.3809007561783
 20
146.5085068917387
 30
0.0
 10
130.4151471569092
 20
146.224746848015
 30
0.0
 10
130.451910751456
 20
145.8771347958377
 30
0.0
 10
130.4896293695271
 20
145.4806194971037
 30
0.0
 10
130.5276951188339
 20
145.0464126614328
 30
0.0
 10
130.5660769128519
 20
144.5802848570754
 30
0.0
 10
130.6047718874012
 20
144.0879489289739
 30
0.0
 10
130.6434696013615
 20
143.5796765961006
 30
0.0
 10
130.6692416941513
 20
143.235660900817
 30
0.0
 10
130.6820415518266
 20
143.0648035329795
 30
0.0
  0
SPLINE
  5
108
330
1F
100
AcDbEntity
  8
0
  6
Continuous
 62
     7
370
    15
100
AcDbSpline
210
0.0
220
0.0
230
1.0
 70
     8
 71
     3
 72
    15
 73
    11
 74
     0
 42
0.00000001
 43
0.00000001
 12
1.0
 22
0.0
 32
0.0
 13
1.0
 23
0.0
 33
0.0
 40
0.0
 40
0.0
 40
0.0
 40
0.0
 40
0.1296639443271574
 40
0.2391960828453634
 40
0.3665735970556429
 40
0.4704487929078741
 40
0.5858057868960804
 40
0.7135307262953192
 40
0.9030395239069027
 40
1.0
 40
1.0
 40
1.0
 40
1.0
 10
130.4353568523446
 20
147.5646721439487
 30
0.0
 10
130.3940729952086
 20
147.5590222350925
 30
0.0
 10
130.3179150704832
 20
147.5485996301512
 30
0.0
 10
130.2248485612569
 20
147.4751439885083
 30
0.0
 10
130.1663295505186
 20
147.3899803864033
 30
0.0
 10
130.1361045165098
 20
147.3158335569267
 30
0.0
 10
130.1066855926777
 20
147.2271589806084
 30
0.0
 10
130.0757345822308
 20
147.1023325395879
 30
0.0
 10
130.0484653138525
 20
146.9687161326897
 30
0.0
 10
130.0311803187145
 20
146.8538715585354
 30
0.0
 10
130.0253299134121
 20
146.8150004278109
 30
0.0
  0
SPLINE
  5
109
330
1F
100
AcDbEntity
  8
0
  6
Continuous
 62
     7
370
    15
100
AcDbSpline
210
0.0
220
0.0
230
1.0
 70
     8
 71
     3
 72
    19
 73
    15
 74
     0
 42
0.00000001
 43
0.00000001
 12
1.0
 22
0.0
 32
0.0
 13
1.0
 23
0.0
 33
0.0
 40
0.0
 40
0.0
 40
0.0
 40
0.0
 40
0.0621156696570492
 40
0.1168633189006074
 40
0.1856805629539309
 40
0.2439110707352307
 40
0.3045835568298691
 40
0.3689813557753567
 40
0.4926385028685971
 40
0.628129359897272
 40
0.7730149765401064
 40
0.8819743786763432
 40
0.9906476649406956
 40
1.0
 40
1.0
 40
1.0
 40
1.0
 10
128.4364090674187
 20
147.5646178591964
 30
0.0
 10
128.3942979277173
 20
147.5587935764152
 30
0.0
 10
128.3150707765757
 20
147.5478358741192
 30
0.0
 10
128.2203012292912
 20
147.4735771336751
 30
0.0
 10
128.1623614273614
 20
147.3863095691866
 30
0.0
 10
128.1364825604329
 20
147.3213441196688
 30
0.0
 10
128.1103989558212
 20
147.2436268581399
 30
0.0
 10
128.0792003345502
 20
147.1237152078064
 30
0.0
 10
128.0417457362672
 20
146.9362729544078
 30
0.0
 10
127.9980254044714
 20
146.6482678734636
 30
0.0
 10
127.9570320410359
 20
146.3143536209844
 30
0.0
 10
127.9189976089652
 20
145.9538165927536
 30
0.0
 10
127.8952788405931
 20
145.7136101686289
 30
0.0
 10
127.8829824159242
 20
145.5759116414045
 30
0.0
 10
127.8820080488143
 20
145.5650004278109
 30
0.0
  0
SPLINE
  5
10A
330
1F
100
AcDbEntity
  8
0
  6
Continuous
 62
     7
370
    15
100
AcDbSpline
210
0.0
220
0.0
230
1.0
 70
     8
 71
     3
 72
    10
 73
     6
 74
     0
 42
0.00000001
 43
0.00000001
 12
1.0
 22
0.0
 32
0.0
 13
1.0
 23
0.0
 33
0.0
 40
0.0
 40
0.0
 40
0.0
 40
0.0
 40
0.17562795158577
 40
0.8415592051033927
 40
1.0
 40
1.0
 40
1.0
 40
1.0
 10
127.4811732843598
 20
140.5650004278109
 30
0.0
 10
127.4782176803964
 20
140.5326628879108
 30
0.0
 10
127.4640552666146
 20
140.3777105917209
 30
0.0
 10
127.4471926125185
 20
140.2043403072183
 30
0.0
 10
127.4334885971762
 20
140.0838606755896
 30
0.0
 10
127.4308547438228
 20
140.0607050037775
 30
0.0
  0
SPLINE
  5
10B
330
1F
100
AcDbEntity
  8
0
  6
Continuous
 62
     7
370
    15
100
AcDbSpline
210
0.0
220
0.0
230
1.0
 70
     8
 71
     3
 72
    20
 73
    16
 74
     0
 42
0.00000001
 43
0.00000001
 12
1.0
 22
0.0
 32
0.0
 13
1.0
 23
0.0
 33
0.0
 40
0.0
 40
0.0
 40
0.0
 40
0.0
 40
0.0762419168412141
 40
0.1397659592569244
 40
0.19940116220142
 40
0.2447777751521724
 40
0.2920926524402318
 40
0.3437920356388524
 40
0.3998697239515074
 40
0.5030474172913084
 40
0.6184706467074768
 40
0.7463323745166389
 40
0.877396260800994
 40
0.998324349726021
 40
1.0
 40
1.0
 40
1.0
 40
1.0
 10
126.4369564122356
 20
147.5630918233989
 30
0.0
 10
126.3949363152053
 20
147.557237103918
 30
0.0
 10
126.3179054716376
 20
147.5465042876624
 30
0.0
 10
126.22950693024
 20
147.4756319051052
 30
0.0
 10
126.174153364744
 20
147.3995709716422
 30
0.0
 10
126.1459843811262
 20
147.3385536046538
 30
0.0
 10
126.1224559495318
 20
147.2756937625358
 30
0.0
 10
126.1001310954718
 20
147.2010787796187
 30
0.0
 10
126.0724378601299
 20
147.0888504747734
 30
0.0
 10
126.0397771519809
 20
146.9210117688005
 30
0.0
 10
126.0013491157205
 20
146.6689772071057
 30
0.0
 10
125.9614841373185
 20
146.3518173965079
 30
0.0
 10
125.9216120392301
 20
145.9790903815565
 30
0.0
 10
125.8949840079868
 20
145.7108238342699
 30
0.0
 10
125.8821532977468
 20
145.5669665545518
 30
0.0
 10
125.8819779378167
 20
145.5650004278109
 30
0.0
  0
SPLINE
  5
10C
330
1F
100
AcDbEntity
  8
0
  6
Continuous
 62
     7
370
    15
100
AcDbSpline
210
0.0
220
0.0
230
1.0
 70
     8
 71
     3
 72
     9
 73
     5
 74
     0
 42
0.00000001
 43
0.00000001
 12
1.0
 22
0.0
 32
0.0
 13
1.0
 23
0.0
 33
0.0
 40
0.0
 40
0.0
 40
0.0
 40
0.0
 40
0.6314698351258593
 40
1.0
 40
1.0
 40
1.0
 40
1.0
 10
125.481105490558
 20
140.5650004278109
 30
0.0
 10
125.4704255498697
 20
140.4500454920365
 30
0.0
 10
125.4535127219019
 20
140.2680020603792
 30
0.0
 10
125.4366585441361
 20
140.1146027403966
 30
0.0
 10
125.4304472712252
 20
140.0580704637119
 30
0.0
  0
SPLINE
  5
10D
330
1F
100
AcDbEntity
  8
0
  6
Continuous
 62
     7
370
    15
100
AcDbSpline
210
0.0
220
0.0
230
1.0
 70
     8
 71
     3
 72
    15
 73
    11
 74
     0
 42
0.00000001
 43
0.00000001
 12
1.0
 22
0.0
 32
0.0
 13
1.0
 23
0.0
 33
0.0
 40
0.0
 40
0.0
 40
0.0
 40
0.0
 40
0.0593992271967889
 40
0.1377109843843146
 40
0.2350619336898158
 40
0.3512650029422914
 40
0.4860396101213969
 40
0.6391435044268471
 40
0.8104844027636511
 40
0.9999999999999999
 40
0.9999999999999999
 40
0.9999999999999999
 40
0.9999999999999999
 10
124.4364827863273
 20
147.5619522175557
 30
0.0
 10
124.4118959129001
 20
147.5600021952282
 30
0.0
 10
124.3548937816876
 20
147.5554812695032
 30
0.0
 10
124.2918052694762
 20
147.5221367416433
 30
0.0
 10
124.2287734776699
 20
147.4671225360011
 30
0.0
 10
124.1717120484584
 20
147.3799203859333
 30
0.0
 10
124.1190189371893
 20
147.2532969487628
 30
0.0
 10
124.0709296145903
 20
147.0748050533678
 30
0.0
 10
124.0253263154611
 20
146.8362047512518
 30
0.0
 10
123.9977108155976
 20
146.6306462959128
 30
0.0
 10
123.9832076321609
 20
146.5226905464432
 30
0.0
  0
LWPOLYLINE
  5
10E
330
1F
100
AcDbEntity
  8
0
  6
Continuous
 62
     7
370
    15
100
AcDbPolyline
 90
       38
 70
   128
 43
0.0
 10
118.2290896906
 20
147.1729543325
 10
118.2307155761
 20
147.1753748711
 10
118.2363626367
 20
147.1750128203
 10
118.2465410899
 20
147.1681145396
 10
118.2689299822
 20
147.1265217677
 10
118.2943686022
 20
147.0396271113
 10
118.3250297767
 20
146.8876614931
 10
118.3587637706
 20
146.6723461054
 10
118.3942124685
 20
146.4006873138
 10
118.4309339838
 20
146.076090429
 10
118.4685571742
 20
145.7023042626
 10
118.506781641
 20
145.2846333781
 10
118.5453777298
 20
144.8306139822
 10
118.5835291706
 20
144.3565082303
 10
118.6168571116
 20
143.9270513724
 10
118.6445631569
 20
143.5626832506
 10
118.6666356632
 20
143.269533305
 10
118.6830657381
 20
143.0505435767
 10
118.6978839248
 20
142.8529892524
 10
118.7186770339
 20
142.5765286485
 10
118.7456366249
 20
142.2211177639
 10
118.7787852745
 20
141.7922568975
 10
118.8181523608
 20
141.300619603
 10
118.8478693586
 20
140.9466186985
 10
118.8793598249
 20
140.5916393914
 10
118.9094401425
 20
140.2754625649
 10
118.9515204555
 20
139.8754626013
 10
118.9900147545
 20
139.5566580134
 10
119.0250016876
 20
139.3090238846
 10
119.0565693867
 20
139.1219057486
 10
119.0757627597
 20
139.0254618632
 10
119.0936353102
 20
138.9475584197
 10
119.1210184241
 20
138.8534888972
 10
119.1580466185
 20
138.7654523311
 10
119.2188738052
 20
138.6745708879
 10
119.3110775446
 20
138.5990782415
 10
119.4354654751
 20
138.5673616928
 10
119.4354654751
 20
138.5673616928
  0
SPLINE
  5
10F
330
1F
100
AcDbEntity
  8
0
  6
Continuous
 62
     7
370
    15
100
AcDbSpline
210
0.0
220
0.0
230
1.0
 70
     8
 71
     3
 72
    40
 73
    36
 74
     0
 42
0.00000001
 43
0.00000001
 12
1.0
 22
0.0
 32
0.0
 13
1.0
 23
0.0
 33
0.0
 40
0.0
 40
0.0
 40
0.0
 40
0.0
 40
0.0048222289415273
 40
0.0285253346568408
 40
0.0558631233243581
 40
0.086920063217293
 40
0.1216867661496741
 40
0.1601347013399474
 40
0.2013676148746791
 40
0.24102804073283
 40
0.2785156356439061
 40
0.3137976150211723
 40
0.3468383589384975
 40
0.3873570162252281
 40
0.4244753078086825
 40
0.4591154245315656
 40
0.4912943512474632
 40
0.5222414474625267
 40
0.55923160372077
 40
0.5917222663989421
 40
0.6282740698011497
 40
0.6689095873142622
 40
0.7136939657334778
 40
0.7458204970171994
 40
0.7765312655998056
 40
0.8040652720035651
 40
0.8393953516831094
 40
0.8675735806261718
 40
0.888596420458544
 40
0.9024595196347275
 40
0.9122003356971176
 40
0.9320673612842644
 40
0.9510906141913626
 40
0.9748141813061392
 40
1.0
 40
1.0
 40
1.0
 40
1.0
 10
120.2727568209606
 20
147.1267867878689
 30
0.0
 10
120.2707506123529
 20
147.1284398749466
 30
0.0
 10
120.2588831185822
 20
147.1382185193618
 30
0.0
 10
120.284609091379
 20
147.0849316372739
 30
0.0
 10
120.2978805883607
 20
147.011921285698
 30
0.0
 10
120.3256994524023
 20
146.878288315263
 30
0.0
 10
120.3559248746649
 20
146.6876823793351
 30
0.0
 10
120.3913997710352
 20
146.4263970353735
 30
0.0
 10
120.4288926006885
 20
146.1004479295612
 30
0.0
 10
120.4662025328073
 20
145.7312852347311
 30
0.0
 10
120.5017094436327
 20
145.3454191763416
 30
0.0
 10
120.5351885640018
 20
144.9558317349655
 30
0.0
 10
120.5696866825436
 20
144.5338998190742
 30
0.0
 10
120.6048586781291
 20
144.0857345678954
 30
0.0
 10
120.640580457493
 20
143.6171647254863
 30
0.0
 10
120.6736335442608
 20
143.1770122564875
 30
0.0
 10
120.7046967060556
 20
142.7619748733058
 30
0.0
 10
120.7364814292408
 20
142.3398109014779
 30
0.0
 10
120.7683901935785
 20
141.9227511276557
 30
0.0
 10
120.8021239126538
 20
141.4944481012631
 30
0.0
 10
120.8371053397837
 20
141.0679957833586
 30
0.0
 10
120.8761024302068
 20
140.6215242043272
 30
0.0
 10
120.9137648655568
 20
140.2273348326467
 30
0.0
 10
120.9482302303171
 20
139.901177990533
 30
0.0
 10
120.9773772035814
 20
139.6519105906917
 30
0.0
 10
121.0080527954729
 20
139.4182371193596
 30
0.0
 10
121.0387547329413
 20
139.217554107776
 30
0.0
 10
121.0693465082924
 20
139.0556938433241
 30
0.0
 10
121.0950093060197
 20
138.9479702825515
 30
0.0
 10
121.1183596043872
 20
138.8716584970828
 30
0.0
 10
121.1530694876308
 20
138.7908701909746
 30
0.0
 10
121.1965295179593
 20
138.7157213192294
 30
0.0
 10
121.2609451837978
 20
138.6401419537828
 30
0.0
 10
121.3370834504815
 20
138.5824756552463
 30
0.0
 10
121.3948971333975
 20
138.5746383595671
 30
0.0
 10
121.4246682072287
 20
138.5706025552983
 30
0.0
  0
SPLINE
  5
110
330
1F
100
AcDbEntity
  8
0
  6
Continuous
 62
     7
370
    15
100
AcDbSpline
210
0.0
220
0.0
230
1.0
 70
     8
 71
     3
 72
    39
 73
    35
 74
     0
 42
0.00000001
 43
0.00000001
 12
1.0
 22
0.0
 32
0.0
 13
1.0
 23
0.0
 33
0.0
 40
0.0
 40
0.0
 40
0.0
 40
0.0
 40
0.0064844714235259
 40
0.0168548436167802
 40
0.0274087486355202
 40
0.0404887071173053
 40
0.0561140194613787
 40
0.0864248097944089
 40
0.1232928251620867
 40
0.1667458230014515
 40
0.2134513333282943
 40
0.2565373624922804
 40
0.2957450603703038
 40
0.3310387920802993
 40
0.3624130977046306
 40
0.3981569599564255
 40
0.4293875885958101
 40
0.4627207208730105
 40
0.4985195030850533
 40
0.5368585440598039
 40
0.5790884724865478
 40
0.6136388677579323
 40
0.6506924862779118
 40
0.6902744350083074
 40
0.7323824194799811
 40
0.7754895770180275
 40
0.8150535668404943
 40
0.8508064073539692
 40
0.882784617559653
 40
0.9109880044340288
 40
0.9356133966538219
 40
0.9637406489259455
 40
0.9808240179248813
 40
1.0
 40
1.0
 40
1.0
 40
1.0
 10
122.305556686127
 20
147.0558795462187
 30
0.0
 10
122.303395858581
 20
147.0550091330324
 30
0.0
 10
122.2977793005006
 20
147.052746700649
 30
0.0
 10
122.2964566413582
 20
147.041728886342
 30
0.0
 10
122.3001648324871
 20
147.0158585721771
 30
0.0
 10
122.307405587037
 20
146.9766207284308
 30
0.0
 10
122.3211368308142
 20
146.9028136228232
 30
0.0
 10
122.3436836721449
 20
146.7707807262123
 30
0.0
 10
122.3762646626961
 20
146.5459869117243
 30
0.0
 10
122.4151292849069
 20
146.2271046821685
 30
0.0
 10
122.4563944954708
 20
145.8333821394411
 30
0.0
 10
122.4963332086738
 20
145.4065141158097
 30
0.0
 10
122.5328566508241
 20
144.9844915540553
 30
0.0
 10
122.56582569883
 20
144.5822006827583
 30
0.0
 10
122.5977790796064
 20
144.1773697535665
 30
0.0
 10
122.6285011632783
 20
143.7768012387982
 30
0.0
 10
122.6598147035705
 20
143.3613846515138
 30
0.0
 10
122.6911249670031
 20
142.9428379335083
 30
0.0
 10
122.7246497270237
 20
142.4955929195749
 30
0.0
 10
122.7609640086218
 20
142.0178416708926
 30
0.0
 10
122.7969607120319
 20
141.5580008658137
 30
0.0
 10
122.8326059696016
 20
141.1226643556502
 30
0.0
 10
122.8674623339721
 20
140.7194074473458
 30
0.0
 10
122.9047425582625
 20
140.3182893696733
 30
0.0
 10
122.9440286777012
 20
139.9348891920049
 30
0.0
 10
122.9834861018392
 20
139.5969464371469
 30
0.0
 10
123.0216880910389
 20
139.3202961172613
 30
0.0
 10
123.0577753141813
 20
139.1094255145888
 30
0.0
 10
123.0911563941318
 20
138.954046734815
 30
0.0
 10
123.1258109929457
 20
138.8376631665912
 30
0.0
 10
123.1553644644067
 20
138.7559368259124
 30
0.0
 10
123.2199938408479
 20
138.6554867449392
 30
0.0
 10
123.3227679050687
 20
138.5814646238933
 30
0.0
 10
123.3970522460994
 20
138.5719840749047
 30
0.0
 10
123.4363379792929
 20
138.5669702279361
 30
0.0
  0
SPLINE
  5
111
330
1F
100
AcDbEntity
  8
0
  6
Continuous
 62
     7
370
    15
100
AcDbSpline
210
0.0
220
0.0
230
1.0
 70
     8
 71
     3
 72
    10
 73
     6
 74
     0
 42
0.00000001
 43
0.00000001
 12
1.0
 22
0.0
 32
0.0
 13
1.0
 23
0.0
 33
0.0
 40
0.0
 40
0.0
 40
0.0
 40
0.0
 40
0.3854330516262703
 40
0.746021402670592
 40
1.0
 40
1.0
 40
1.0
 40
1.0
 10
123.9833375733116
 20
146.5227785521356
 30
0.0
 10
123.9703241327631
 20
146.4152150656871
 30
0.0
 10
123.9451360874447
 20
146.2070215475188
 30
0.0
 10
123.9113464873206
 20
145.8810350695323
 30
0.0
 10
123.890593392362
 20
145.6574147351653
 30
0.0
 10
123.8820168785066
 20
145.5650004278109
 30
0.0
  0
SPLINE
  5
112
330
1F
100
AcDbEntity
  8
0
  6
Continuous
 62
     7
370
    15
100
AcDbSpline
210
0.0
220
0.0
230
1.0
 70
     8
 71
     3
 72
     9
 73
     5
 74
     0
 42
0.00000001
 43
0.00000001
 12
1.0
 22
0.0
 32
0.0
 13
1.0
 23
0.0
 33
0.0
 40
0.0
 40
0.0
 40
0.0
 40
0.0
 40
0.2772722704628112
 40
1.0
 40
1.0
 40
1.0
 40
1.0
 10
123.4811203349579
 20
140.5650004278109
 30
0.0
 10
123.4764783985262
 20
140.5137009506699
 30
0.0
 10
123.4597369608632
 20
140.3286861381342
 30
0.0
 10
123.4430808683803
 20
140.1728910206765
 30
0.0
 10
123.4310430484773
 20
140.0602935691633
 30
0.0
  0
SPLINE
  5
113
330
1F
100
AcDbEntity
  8
0
  6
Continuous
 62
     7
370
    15
100
AcDbSpline
210
0.0
220
0.0
230
1.0
 70
     8
 71
     3
 72
    18
 73
    14
 74
     0
 42
0.00000001
 43
0.00000001
 12
1.0
 22
0.0
 32
0.0
 13
1.0
 23
0.0
 33
0.0
 40
0.0
 40
0.0
 40
0.0
 40
0.0
 40
0.0621036717841143
 40
0.1169838180415973
 40
0.1863971606795329
 40
0.2491332774204529
 40
0.3172966343740927
 40
0.3910969095891574
 40
0.4982712000422322
 40
0.6155087653625135
 40
0.7428609615325826
 40
0.8700998712121669
 40
1.0
 40
1.0
 40
1.0
 40
1.0
 10
122.4353437662577
 20
147.5644689835745
 30
0.0
 10
122.3953735468803
 20
147.5593008500202
 30
0.0
 10
122.3200822036085
 20
147.5495657091184
 30
0.0
 10
122.2287189539138
 20
147.4809103888732
 30
0.0
 10
122.1717665941883
 20
147.4016613451353
 30
0.0
 10
122.1405857635213
 20
147.3287697081779
 30
0.0
 10
122.1088150674196
 20
147.235284011281
 30
0.0
 10
122.0762703524851
 20
147.1063522602534
 30
0.0
 10
122.0408104835863
 20
146.9250918526176
 30
0.0
 10
122.0021181487332
 20
146.6732198659178
 30
0.0
 10
121.9628093684334
 20
146.3624393888239
 30
0.0
 10
121.9225725866696
 20
145.9965022365213
 30
0.0
 10
121.8957590656051
 20
145.709823343076
 30
0.0
 10
121.8822135539618
 20
145.5650004278109
 30
0.0
  0
SPLINE
  5
114
330
1F
100
AcDbEntity
  8
0
  6
Continuous
 62
     7
370
    15
100
AcDbSpline
210
0.0
220
0.0
230
1.0
 70
     8
 71
     3
 72
     9
 73
     5
 74
     0
 42
0.00000001
 43
0.00000001
 12
1.0
 22
0.0
 32
0.0
 13
1.0
 23
0.0
 33
0.0
 40
0.0
 40
0.0
 40
0.0
 40
0.0
 40
0.6526317651437582
 40
1.0
 40
1.0
 40
1.0
 40
1.0
 10
121.4812093663451
 20
140.5650004278109
 30
0.0
 10
121.4701536083273
 20
140.4463833574223
 30
0.0
 10
121.4532133387781
 20
140.264631446584
 30
0.0
 10
121.4364119885136
 20
140.1128466923847
 30
0.0
 10
121.430575733129
 20
140.0601214902404
 30
0.0
  0
SPLINE
  5
115
330
1F
100
AcDbEntity
  8
0
  6
Continuous
 62
     7
370
    15
100
AcDbSpline
210
0.0
220
0.0
230
1.0
 70
     8
 71
     3
 72
    17
 73
    13
 74
     0
 42
0.00000001
 43
0.00000001
 12
1.0
 22
0.0
 32
0.0
 13
1.0
 23
0.0
 33
0.0
 40
0.0
 40
0.0
 40
0.0
 40
0.0
 40
0.0476010333137608
 40
0.0958507086521585
 40
0.1962795973792322
 40
0.2986417015494856
 40
0.3994554899926541
 40
0.5319038073138671
 40
0.6635016511937036
 40
0.8006458912398419
 40
0.9081682621148696
 40
1.0
 40
1.0
 40
1.0
 40
1.0
 10
120.4357116983758
 20
147.5647781969618
 30
0.0
 10
120.3993532923314
 20
147.5603143978073
 30
0.0
 10
120.3261410374241
 20
147.5513259729256
 30
0.0
 10
120.2245799618216
 20
147.4801478943484
 30
0.0
 10
120.1664235404903
 20
147.3931196590816
 30
0.0
 10
120.1175703465104
 20
147.2687090772701
 30
0.0
 10
120.071356660112
 20
147.0918608618862
 30
0.0
 10
120.0293461969065
 20
146.8614491494367
 30
0.0
 10
119.9870891548595
 20
146.5643126927474
 30
0.0
 10
119.9475214210737
 20
146.2278040108029
 30
0.0
 10
119.9123926581389
 20
145.8904800369382
 30
0.0
 10
119.8916565711713
 20
145.6676474434426
 30
0.0
 10
119.8821045688825
 20
145.5650004278109
 30
0.0
  0
SPLINE
  5
116
330
1F
100
AcDbEntity
  8
0
  6
Continuous
 62
     7
370
    15
100
AcDbSpline
210
0.0
220
0.0
230
1.0
 70
     8
 71
     3
 72
     9
 73
     5
 74
     0
 42
0.00000001
 43
0.00000001
 12
1.0
 22
0.0
 32
0.0
 13
1.0
 23
0.0
 33
0.0
 40
0.0
 40
0.0
 40
0.0
 40
0.0
 40
0.8397505728991796
 40
1.0
 40
1.0
 40
1.0
 40
1.0
 10
119.4811372942117
 20
140.5650004278109
 30
0.0
 10
119.4669738019553
 20
140.4128260929491
 30
0.0
 10
119.4501074934187
 20
140.2316123614282
 30
0.0
 10
119.4335700292691
 20
140.0848711207291
 30
0.0
 10
119.4309199101134
 20
140.061355920975
 30
0.0
  0
SPLINE
  5
117
330
1F
100
AcDbEntity
  8
0
  6
Continuous
 62
     7
370
    15
100
AcDbSpline
210
0.0
220
0.0
230
1.0
 70
     8
 71
     3
 72
    14
 73
    10
 74
     0
 42
0.00000001
 43
0.00000001
 12
1.0
 22
0.0
 32
0.0
 13
1.0
 23
0.0
 33
0.0
 40
0.0
 40
0.0
 40
0.0
 40
0.0
 40
0.0945418994143432
 40
0.2064756989249166
 40
0.3371775587358386
 40
0.4786074870613706
 40
0.6793164394259353
 40
0.8940949713391703
 40
1.0
 40
1.0
 40
1.0
 40
1.0
 10
118.4363374162351
 20
147.5633491776459
 30
0.0
 10
118.3971636707006
 20
147.5577795251536
 30
0.0
 10
118.3116097888891
 20
147.5456156285297
 30
0.0
 10
118.2384943696041
 20
147.4845162613403
 30
0.0
 10
118.1875015854127
 20
147.4193845082809
 30
0.0
 10
118.1369424272871
 20
147.3158525984656
 30
0.0
 10
118.0895993431445
 20
147.1617785007872
 30
0.0
 10
118.0523563238635
 20
146.9919475878026
 30
0.0
 10
118.0323078633269
 20
146.8589293901021
 30
0.0
 10
118.0256869040736
 20
146.8150004278109
 30
0.0
  0
SPLINE
  5
118
330
1F
100
AcDbEntity
  8
0
  6
Continuous
 62
     7
370
    15
100
AcDbSpline
210
0.0
220
0.0
230
1.0
 70
     8
 71
     3
 72
     9
 73
     5
 74
     0
 42
0.00000001
 43
0.00000001
 12
1.0
 22
0.0
 32
0.0
 13
1.0
 23
0.0
 33
0.0
 40
0.0
 40
0.0
 40
0.0
 40
0.0
 40
0.1039180504980331
 40
1.0
 40
1.0
 40
1.0
 40
1.0
 10
117.3347397909966
 20
139.3150004278109
 30
0.0
 10
117.3331311133356
 20
139.3044060933485
 30
0.0
 10
117.3176508608351
 20
139.2024571594376
 30
0.0
 10
117.3022969042149
 20
139.1383752686059
 30
0.0
 10
117.2885385008341
 20
139.0809526429416
 30
0.0
  0
SPLINE
  5
119
330
1F
100
AcDbEntity
  8
0
  6
Continuous
 62
     7
370
    15
100
AcDbSpline
210
0.0
220
0.0
230
1.0
 70
     8
 71
     3
 72
    10
 73
     6
 74
     0
 42
0.00000001
 43
0.00000001
 12
1.0
 22
0.0
 32
0.0
 13
1.0
 23
0.0
 33
0.0
 40
0.0
 40
0.0
 40
0.0
 40
0.0
 40
0.0452139171036856
 40
0.6865355340307088
 40
1.0
 40
1.0
 40
1.0
 40
1.0
 10
117.7667939182553
 20
138.9498095959921
 30
0.0
 10
117.7678375470925
 20
138.9532876194674
 30
0.0
 10
117.7836841785499
 20
139.0060984984392
 30
0.0
 10
117.806520480656
 20
139.1265398932919
 30
0.0
 10
117.828177089393
 20
139.2684199781812
 30
0.0
 10
117.8352871399205
 20
139.3150004278109
 30
0.0
  0
SPLINE
  5
11A
330
1F
100
AcDbEntity
  8
0
  6
Continuous
 62
     7
370
    15
100
AcDbSpline
210
0.0
220
0.0
230
1.0
 70
     8
 71
     3
 72
    17
 73
    13
 74
     0
 42
0.00000001
 43
0.00000001
 12
1.0
 22
0.0
 32
0.0
 13
1.0
 23
0.0
 33
0.0
 40
0.0
 40
0.0
 40
0.0
 40
0.0
 40
0.0557727834533882
 40
0.1323420121125494
 40
0.2298445846920407
 40
0.3342355047439309
 40
0.4731067835566798
 40
0.6130362515274143
 40
0.7589265528181631
 40
0.8735271542365104
 40
0.9924616224644305
 40
1.0
 40
1.0
 40
1.0
 40
1.0
 10
119.4254759919025
 20
138.5673575123357
 30
0.0
 10
119.4648013379885
 20
138.5730780592625
 30
0.0
 10
119.5581155874448
 20
138.5866522193421
 30
0.0
 10
119.6382202873399
 20
138.6602321886871
 30
0.0
 10
119.706457480777
 20
138.7618613215543
 30
0.0
 10
119.7646982444447
 20
138.9251764646755
 30
0.0
 10
119.8136977002925
 20
139.1508463541742
 30
0.0
 10
119.8589260236613
 20
139.4459933328389
 30
0.0
 10
119.9010966750554
 20
139.7835645877708
 30
0.0
 10
119.9407929489471
 20
140.1559704243557
 30
0.0
 10
119.9659485755349
 20
140.4081756633031
 30
0.0
 10
119.9791239479966
 20
140.556178746666
 30
0.0
 10
119.9799092622764
 20
140.5650004278109
 30
0.0
  0
SPLINE
  5
11B
330
1F
100
AcDbEntity
  8
0
  6
Continuous
 62
     7
370
    15
100
AcDbSpline
210
0.0
220
0.0
230
1.0
 70
     8
 71
     3
 72
     9
 73
     5
 74
     0
 42
0.00000001
 43
0.00000001
 12
1.0
 22
0.0
 32
0.0
 13
1.0
 23
0.0
 33
0.0
 40
0.0
 40
0.0
 40
0.0
 40
0.0
 40
0.818409830173945
 40
1.0
 40
1.0
 40
1.0
 40
1.0
 10
120.3807456157343
 20
145.5650004278109
 30
0.0
 10
120.3945722260526
 20
145.7139180293293
 30
0.0
 10
120.4114667082649
 20
145.895877722417
 30
0.0
 10
120.4281104406743
 20
146.0440833199789
 30
0.0
 10
120.431132778869
 20
146.0709959996093
 30
0.0
  0
SPLINE
  5
11C
330
1F
100
AcDbEntity
  8
0
  6
Continuous
 62
     7
370
    15
100
AcDbSpline
210
0.0
220
0.0
230
1.0
 70
     8
 71
     3
 72
    17
 73
    13
 74
     0
 42
0.00000001
 43
0.00000001
 12
1.0
 22
0.0
 32
0.0
 13
1.0
 23
0.0
 33
0.0
 40
0.0
 40
0.0
 40
0.0
 40
0.0
 40
0.0688228906586944
 40
0.1536897949806694
 40
0.2519199563337945
 40
0.3571472901810235
 40
0.4694879879354468
 40
0.589190096594371
 40
0.716476036301676
 40
0.8480087358295931
 40
0.9728055255920218
 40
1.0
 40
1.0
 40
1.0
 40
1.0
 10
121.4256338608284
 20
138.5679232983067
 30
0.0
 10
121.4747216450466
 20
138.5770287969985
 30
0.0
 10
121.5843405729984
 20
138.5973624710676
 30
0.0
 10
121.6554689042115
 20
138.6820159827463
 30
0.0
 10
121.7134103847942
 20
138.781662181812
 30
0.0
 10
121.7642791857236
 20
138.9348699332828
 30
0.0
 10
121.8085486723035
 20
139.134692387042
 30
0.0
 10
121.8502242114974
 20
139.3895713501937
 30
0.0
 10
121.8910741926437
 20
139.7003252063338
 30
0.0
 10
121.9312187009598
 20
140.0625684711968
 30
0.0
 10
121.9610016535003
 20
140.3565579975587
 30
0.0
 10
121.976908702421
 20
140.5333657543151
 30
0.0
 10
121.9797548122756
 20
140.5650004278109
 30
0.0
  0
SPLINE
  5
11D
330
1F
100
AcDbEntity
  8
0
  6
Continuous
 62
     7
370
    15
100
AcDbSpline
210
0.0
220
0.0
230
1.0
 70
     8
 71
     3
 72
     9
 73
     5
 74
     0
 42
0.00000001
 43
0.00000001
 12
1.0
 22
0.0
 32
0.0
 13
1.0
 23
0.0
 33
0.0
 40
0.0
 40
0.0
 40
0.0
 40
0.0
 40
0.4718198166816988
 40
1.0
 40
1.0
 40
1.0
 40
1.0
 10
122.3808664594724
 20
145.5650004278109
 30
0.0
 10
122.3887443636903
 20
145.6506802260947
 30
0.0
 10
122.4054412126554
 20
145.8322745450582
 30
0.0
 10
122.4220801860629
 20
145.9862173029235
 30
0.0
 10
122.4308685620875
 20
146.0675268169934
 30
0.0
  0
SPLINE
  5
11E
330
1F
100
AcDbEntity
  8
0
  6
Continuous
 62
     7
370
    15
100
AcDbSpline
210
0.0
220
0.0
230
1.0
 70
     8
 71
     3
 72
    17
 73
    13
 74
     0
 42
0.00000001
 43
0.00000001
 12
1.0
 22
0.0
 32
0.0
 13
1.0
 23
0.0
 33
0.0
 40
0.0
 40
0.0
 40
0.0
 40
0.0
 40
0.0457600136989106
 40
0.1030827852121829
 40
0.1725970390354888
 40
0.2494255712097319
 40
0.3951917034739112
 40
0.5310896711269748
 40
0.659934728395025
 40
0.7873083951654608
 40
0.9136284564689896
 40
1.0
 40
1.0
 40
1.0
 40
1.0
 10
123.4258736614227
 20
138.566998449241
 30
0.0
 10
123.4600466614362
 20
138.5709322901163
 30
0.0
 10
123.5370275828939
 20
138.5797939848848
 30
0.0
 10
123.6094358071018
 20
138.6310637492927
 30
0.0
 10
123.6682702191491
 20
138.6965118971287
 30
0.0
 10
123.7277336413976
 20
138.8106379029741
 30
0.0
 10
123.7843466060064
 20
139.0007275237128
 30
0.0
 10
123.8319222936627
 20
139.2656598142456
 30
0.0
 10
123.872789402647
 20
139.5535292858996
 30
0.0
 10
123.9130728604371
 20
139.8911230757362
 30
0.0
 10
123.9486053812433
 20
140.2275313595003
 30
0.0
 10
123.9707604568652
 20
140.4675369841093
 30
0.0
 10
123.9797573708713
 20
140.5650004278109
 30
0.0
  0
SPLINE
  5
11F
330
1F
100
AcDbEntity
  8
0
  6
Continuous
 62
     7
370
    15
100
AcDbSpline
210
0.0
220
0.0
230
1.0
 70
     8
 71
     3
 72
     9
 73
     5
 74
     0
 42
0.00000001
 43
0.00000001
 12
1.0
 22
0.0
 32
0.0
 13
1.0
 23
0.0
 33
0.0
 40
0.0
 40
0.0
 40
0.0
 40
0.0
 40
0.1622244401746862
 40
1.0
 40
1.0
 40
1.0
 40
1.0
 10
124.3807903812396
 20
145.5650004278109
 30
0.0
 10
124.3835014090784
 20
145.5951801457534
 30
0.0
 10
124.4002129960365
 20
145.7812169593799
 30
0.0
 10
124.4169256400703
 20
145.9386187396709
 30
0.0
 10
124.4309270847818
 20
146.0704861042717
 30
0.0
  0
SPLINE
  5
120
330
1F
100
AcDbEntity
  8
0
  6
Continuous
 62
     7
370
    15
100
AcDbSpline
210
0.0
220
0.0
230
1.0
 70
     8
 71
     3
 72
    38
 73
    34
 74
     0
 42
0.00000001
 43
0.00000001
 12
1.0
 22
0.0
 32
0.0
 13
1.0
 23
0.0
 33
0.0
 40
0.0
 40
0.0
 40
0.0
 40
0.0
 40
0.0046810359751366
 40
0.0285431518994911
 40
0.0564544006337857
 40
0.0884950936479681
 40
0.1246761639634647
 40
0.1650330781305733
 40
0.2085760444993421
 40
0.2502634452273123
 40
0.2893573279499852
 40
0.3258349082533585
 40
0.3597073434271285
 40
0.4008285661451846
 40
0.438216478660128
 40
0.4731054600464791
 40
0.5054798812126003
 40
0.5364672802098694
 40
0.5727409984726783
 40
0.6041663973675768
 40
0.6392369271791984
 40
0.6779668965355654
 40
0.7203480748045902
 40
0.7654358095186647
 40
0.8063016104993054
 40
0.8415772169512313
 40
0.8712715025187013
 40
0.89536253741311
 40
0.9138280953049067
 40
0.9249969234377626
 40
0.9434893943330518
 40
0.9695104286797408
 40
0.9999999999999999
 40
0.9999999999999999
 40
0.9999999999999999
 40
0.9999999999999999
 10
123.5890906467206
 20
139.005344132226
 30
0.0
 10
123.5910324376425
 20
139.0037272668296
 30
0.0
 10
123.6028727297354
 20
138.9938682452677
 30
0.0
 10
123.5767200095293
 20
139.0470470363
 30
0.0
 10
123.5630695488078
 20
139.1211338793684
 30
0.0
 10
123.5341292266123
 20
139.2601604736226
 30
0.0
 10
123.502479206667
 20
139.4635729583565
 30
0.0
 10
123.465147046063
 20
139.7469311977178
 30
0.0
 10
123.425710735165
 20
140.099606873322
 30
0.0
 10
123.3865367537435
 20
140.4956607224835
 30
0.0
 10
123.3494575394245
 20
140.9061608594737
 30
0.0
 10
123.3147365465374
 20
141.3170042678146
 30
0.0
 10
123.2793120495101
 20
141.7573799238317
 30
0.0
 10
123.2435703378359
 20
142.2192656451741
 30
0.0
 10
123.2075352811298
 20
142.6963762665161
 30
0.0
 10
123.1742887771049
 20
143.1408016538026
 30
0.0
 10
123.1430608748883
 20
143.5574733183358
 30
0.0
 10
123.1113740208099
 20
143.9755956174855
 30
0.0
 10
123.0799321212949
 20
144.3814716114831
 30
0.0
 10
123.0471736432836
 20
144.7901446474579
 30
0.0
 10
123.0136036545627
 20
145.191230887458
 30
0.0
 10
122.976494311303
 20
145.6081525435048
 30
0.0
 10
122.9360571812363
 20
146.0244749186012
 30
0.0
 10
122.894855278849
 20
146.4001246999008
 30
0.0
 10
122.8551826823558
 20
146.7067665379734
 30
0.0
 10
122.8191316288599
 20
146.9350797181993
 30
0.0
 10
122.7868566201313
 20
147.1000800582301
 30
0.0
 10
122.7565732346245
 20
147.2189433237267
 30
0.0
 10
122.7307953788218
 20
147.298672188926
 30
0.0
 10
122.6946518058464
 20
147.37664063126
 30
0.0
 10
122.6409050681931
 20
147.4576745156518
 30
0.0
 10
122.5534781022254
 20
147.5412909389698
 30
0.0
 10
122.4778556004773
 20
147.5540163767171
 30
0.0
 10
122.4370544511486
 20
147.5608822231755
 30
0.0
  0
LWPOLYLINE
  5
121
330
1F
100
AcDbEntity
  8
0
  6
Continuous
 62
     7
370
    15
100
AcDbPolyline
 90
       43
 70
   128
 43
0.0
 10
121.5912900799
 20
139.01095052
 10
121.6002936287
 20
139.0033789022
 10
121.6117611948
 20
138.9919251904
 10
121.6205055896
 20
138.9815969476
 10
121.6268027091
 20
138.9727325398
 10
121.633035096
 20
138.9604477635
 10
121.6303321023
 20
138.9560705256
 10
121.6249274006
 20
138.9565935615
 10
121.6149895057
 20
138.9639078786
 10
121.5926378767
 20
139.0063657908
 10
121.5668720112
 20
139.0940121764
 10
121.5356562962
 20
139.2486256792
 10
121.5014094305
 20
139.4692624265
 10
121.465546695
 20
139.7475648752
 10
121.4284820971
 20
140.07883358
 10
121.3905637839
 20
140.4580371677
 10
121.3520740423
 20
140.879861538
 10
121.3132292989
 20
141.3384541927
 10
121.2748424476
 20
141.8175622909
 10
121.241311999
 20
142.2514098596
 10
121.2134385468
 20
142.619195125
 10
121.1912336345
 20
142.9147689627
 10
121.1747060921
 20
143.1353193747
 10
121.1597944996
 20
143.3341548111
 10
121.1388687446
 20
143.6120704038
 10
121.1117362962
 20
143.9686689754
 10
121.0783729827
 20
144.3980047949
 10
121.0387472834
 20
144.8891590715
 10
121.0088321547
 20
145.2423106608
 10
120.9771317936
 20
145.5961408034
 10
120.9468394448
 20
145.911228876
 10
120.9044222758
 20
146.3084899088
 10
120.865547776
 20
146.6220595651
 10
120.8301093755
 20
146.8634366782
 10
120.7979860569
 20
147.0445508518
 10
120.7783459212
 20
147.1375086141
 10
120.7599497746
 20
147.2124438456
 10
120.7321114587
 20
147.3009833
 10
120.695076274
 20
147.3826644361
 10
120.6352399471
 20
147.4665578309
 10
120.5457320125
 20
147.5359703065
 10
120.4259271372
 20
147.5647695911
 10
120.4259271372
 20
147.5647695911
  0
SPLINE
  5
122
330
1F
100
AcDbEntity
  8
0
  6
Continuous
 62
     7
370
    15
100
AcDbSpline
210
0.0
220
0.0
230
1.0
 70
     8
 71
     3
 72
    38
 73
    34
 74
     0
 42
0.00000001
 43
0.00000001
 12
1.0
 22
0.0
 32
0.0
 13
1.0
 23
0.0
 33
0.0
 40
0.0
 40
0.0
 40
0.0
 40
0.0
 40
0.0045170817576986
 40
0.0280083480626455
 40
0.0557106343170863
 40
0.0877425451959829
 40
0.1241259273482476
 40
0.1648450594419568
 40
0.2088056836609347
 40
0.2507993904478474
 40
0.2901483606876217
 40
0.3268661431712304
 40
0.3609264078461394
 40
0.4021378501764603
 40
0.4394747756680086
 40
0.4742820316938983
 40
0.5065917572409739
 40
0.537551511425893
 40
0.5738006399091828
 40
0.6051829279079836
 40
0.6401526081226311
 40
0.6787016146728382
 40
0.7208430432073037
 40
0.7657407740193045
 40
0.8065650370211247
 40
0.8418746305017583
 40
0.871651582920553
 40
0.895885071151956
 40
0.9145697337355602
 40
0.9255772107118053
 40
0.9433700939905633
 40
0.9681535861705667
 40
1.0
 40
1.0
 40
1.0
 40
1.0
 10
119.5887132782244
 20
139.0041942243508
 30
0.0
 10
119.5905988156191
 20
139.002599863822
 30
0.0
 10
119.6022901664664
 20
138.9927139669032
 30
0.0
 10
119.5765055083588
 20
139.0455503814026
 30
0.0
 10
119.5629748204477
 20
139.1207740567765
 30
0.0
 10
119.5339978272134
 20
139.2622958866895
 30
0.0
 10
119.5022207454235
 20
139.4678204180358
 30
0.0
 10
119.4646014413667
 20
139.7525059138869
 30
0.0
 10
119.4247822118055
 20
140.1073649390785
 30
0.0
 10
119.3851979322336
 20
140.5076305016203
 30
0.0
 10
119.3477986894007
 20
140.9241411481269
 30
0.0
 10
119.3128735836831
 20
141.3401497643944
 30
0.0
 10
119.2773328150919
 20
141.7837722432588
 30
0.0
 10
119.2415382967981
 20
142.247005386266
 30
0.0
 10
119.2054741994004
 20
142.7243205254266
 30
0.0
 10
119.172213365721
 20
143.1682829340379
 30
0.0
 10
119.1409810806444
 20
143.5841817417225
 30
0.0
 10
119.1093198213917
 20
144.0011627106981
 30
0.0
 10
119.0779454112464
 20
144.4057580162494
 30
0.0
 10
119.0452766884214
 20
144.8133859013925
 30
0.0
 10
119.0118097365543
 20
145.2132190222779
 30
0.0
 10
118.974808575083
 20
145.6282237007924
 30
0.0
 10
118.9344643114811
 20
146.0408097785152
 30
0.0
 10
118.8933789079075
 20
146.4107029378807
 30
0.0
 10
118.8538170327191
 20
146.7140182426779
 30
0.0
 10
118.8177524416184
 20
146.9423212256465
 30
0.0
 10
118.7853720033048
 20
147.1080972587062
 30
0.0
 10
118.7547578622471
 20
147.2278179235806
 30
0.0
 10
118.7289606091327
 20
147.3070268869937
 30
0.0
 10
118.6930342029693
 20
147.3833617541444
 30
0.0
 10
118.6398357005915
 20
147.4618140335325
 30
0.0
 10
118.5498428172418
 20
147.5440422094146
 30
0.0
 10
118.4709437613757
 20
147.5563968468854
 30
0.0
 10
118.4265740606129
 20
147.5633446051519
 30
0.0
  0
LINE
  5
123
330
1F
100
AcDbEntity
  8
0
  6
Continuous
 62
     7
370
    15
100
AcDbLine
 10
138.9732681154
 20
135.8150004278
 30
0.0
 11
139.4541453304
 21
134.9820966592
 31
0.0
  0
LINE
  5
124
330
1F
100
AcDbEntity
  8
0
  6
Continuous
 62
     7
370
    15
100
AcDbLine
 10
141.4923909003
 20
134.9820966592
 30
0.0
 11
141.9732681154
 21
135.8150004278
 31
0.0
  0
LINE
  5
125
330
1F
100
AcDbEntity
  8
0
  6
Continuous
 62
     7
370
    15
100
AcDbLine
 10
139.4541453304
 20
151.1479041965
 30
0.0
 11
138.9732681154
 21
150.3150004278
 31
0.0
  0
LINE
  5
126
330
1F
100
AcDbEntity
  8
0
  6
Continuous
 62
     7
370
    15
100
AcDbLine
 10
141.9732681154
 20
150.3150004278
 30
0.0
 11
141.4923909003
 21
151.1479041965
 31
0.0
  0
LINE
  5
127
330
1F
100
AcDbEntity
  8
0
  6
Continuous
 62
     7
370
    15
100
AcDbLine
 10
141.9732681154
 20
135.8150004278
 30
0.0
 11
142.4541453304
 21
134.9820966592
 31
0.0
  0
LINE
  5
128
330
1F
100
AcDbEntity
  8
0
  6
Continuous
 62
     7
370
    15
100
AcDbLine
 10
144.4923909003
 20
134.9820966592
 30
0.0
 11
144.9732681154
 21
135.8150004278
 31
0.0
  0
LINE
  5
129
330
1F
100
AcDbEntity
  8
0
  6
Continuous
 62
     7
370
    15
100
AcDbLine
 10
142.4541453304
 20
151.1479041965
 30
0.0
 11
141.9732681154
 21
150.3150004278
 31
0.0
  0
LINE
  5
12A
330
1F
100
AcDbEntity
  8
0
  6
Continuous
 62
     7
370
    15
100
AcDbLine
 10
144.9732681154
 20
150.3150004278
 30
0.0
 11
144.4923909003
 21
151.1479041965
 31
0.0
  0
LINE
  5
12B
330
1F
100
AcDbEntity
  8
0
  6
Continuous
 62
     7
370
    15
100
AcDbLine
 10
109.2085278276
 20
149.8650004278
 30
0.0
 11
109.2085278276
 21
149.0650004278
 31
0.0
  0
LINE
  5
12C
330
1F
100
AcDbEntity
  8
0
  6
Continuous
 62
     7
370
    15
100
AcDbLine
 10
117.2085278276
 20
149.0650004278
 30
0.0
 11
117.2085278276
 21
149.8650004278
 31
0.0
  0
LINE
  5
12D
330
1F
100
AcDbEntity
  8
0
  6
Continuous
 62
     7
370
    15
100
AcDbLine
 10
109.2085278276
 20
137.0650004278
 30
0.0
 11
109.2085278276
 21
136.2650004278
 31
0.0
  0
LINE
  5
12E
330
1F
100
AcDbEntity
  8
0
  6
Continuous
 62
     7
370
    15
100
AcDbLine
 10
117.2085278276
 20
136.2650004278
 30
0.0
 11
117.2085278276
 21
137.0650004278
 31
0.0
  0
LINE
  5
12F
330
1F
100
AcDbEntity
  8
0
  6
Continuous
 62
     7
370
    15
100
AcDbLine
 10
134.2085278276
 20
139.3122236781
 30
0.0
 11
131.2085278276
 21
139.3122236781
 31
0.0
  0
LINE
  5
130
330
1F
100
AcDbEntity
  8
0
  6
Continuous
 62
     7
370
    15
100
AcDbLine
 10
134.2085278276
 20
135.5594469283
 30
0.0
 11
131.2085278276
 21
135.5594469283
 31
0.0
  0
LINE
  5
131
330
1F
100
AcDbEntity
  8
0
  6
Continuous
 62
     7
370
    15
100
AcDbLine
 10
131.2085278276
 20
139.3122236781
 30
0.0
 11
131.2085278276
 21
135.5594469283
 31
0.0
  0
LINE
  5
132
330
1F
100
AcDbEntity
  8
0
  6
Continuous
 62
     7
370
    15
100
AcDbLine
 10
134.2085278276
 20
139.3122236781
 30
0.0
 11
134.2085278276
 21
135.5594469283
 31
0.0
  0
LINE
  5
133
330
1F
100
AcDbEntity
  8
0
  6
Continuous
 62
     7
370
    15
100
AcDbLine
 10
134.2085278276
 20
146.8177771775
 30
0.0
 11
131.2085278276
 21
146.8177771775
 31
0.0
  0
LINE
  5
134
330
1F
100
AcDbEntity
  8
0
  6
Continuous
 62
     7
370
    15
100
AcDbLine
 10
131.2085278276
 20
146.8177771775
 30
0.0
 11
131.2085278276
 21
139.3122236781
 31
0.0
  0
LINE
  5
135
330
1F
100
AcDbEntity
  8
0
  6
Continuous
 62
     7
370
    15
100
AcDbLine
 10
134.2085278276
 20
146.8177771775
 30
0.0
 11
134.2085278276
 21
139.3122236781
 31
0.0
  0
LINE
  5
136
330
1F
100
AcDbEntity
  8
0
  6
Continuous
 62
     7
370
    15
100
AcDbLine
 10
134.2085278276
 20
150.5705539273
 30
0.0
 11
131.2085278276
 21
150.5705539273
 31
0.0
  0
LINE
  5
137
330
1F
100
AcDbEntity
  8
0
  6
Continuous
 62
     7
370
    15
100
AcDbLine
 10
131.2085278276
 20
150.5705539273
 30
0.0
 11
131.2085278276
 21
146.8177771775
 31
0.0
  0
LINE
  5
138
330
1F
100
AcDbEntity
  8
0
  6
Continuous
 62
     7
370
    15
100
AcDbLine
 10
134.2085278276
 20
150.5705539273
 30
0.0
 11
134.2085278276
 21
146.8177771775
 31
0.0
  0
LINE
  5
139
330
1F
100
AcDbEntity
  8
0
  6
Continuous
 62
     7
370
    15
100
AcDbLine
 10
146.2085278276
 20
147.0650004278
 30
0.0
 11
146.2085278276
 21
139.0650004278
 31
0.0
  0
LINE
  5
13A
330
1F
100
AcDbEntity
  8
0
  6
Continuous
 62
     7
370
    15
100
AcDbLine
 10
145.2085278276
 20
138.0650004278
 30
0.0
 11
145.2085278276
 21
148.0650004278
 31
0.0
  0
LINE
  5
13B
330
1F
100
AcDbEntity
  8
0
  6
Continuous
 62
     7
370
    15
100
AcDbLine
 10
135.7085278276
 20
148.0650004278
 30
0.0
 11
135.7085278276
 21
138.0650004278
 31
0.0
  0
LINE
  5
13C
330
1F
100
AcDbEntity
  8
0
  6
Continuous
 62
     7
370
    15
100
AcDbLine
 10
129.7085278276
 20
146.8150004278
 30
0.0
 11
129.7085278276
 21
139.3150004278
 31
0.0
  0
LINE
  5
13D
330
1F
100
AcDbEntity
  8
0
  6
Continuous
 62
     7
370
    15
100
AcDbLine
 10
129.2085278276
 20
142.6823985263
 30
0.0
 11
129.2085278276
 21
146.3150004278
 31
0.0
  0
LINE
  5
13E
330
1F
100
AcDbEntity
  8
0
  6
Continuous
 62
     7
370
    15
100
AcDbLine
 10
146.9085278276
 20
145.592351327
 30
0.0
 11
146.3085278276
 21
145.592351327
 31
0.0
  0
LINE
  5
13F
330
1F
100
AcDbEntity
  8
0
  6
Continuous
 62
     7
370
    15
100
AcDbLine
 10
146.9085278276
 20
139.5650004278
 30
0.0
 11
146.9085278276
 21
145.592351327
 31
0.0
  0
LINE
  5
140
330
1F
100
AcDbEntity
  8
0
  6
Continuous
 62
     7
370
    15
100
AcDbLine
 10
146.3085278276
 20
139.5650004278
 30
0.0
 11
146.3085278276
 21
145.592351327
 31
0.0
  0
LINE
  5
141
330
1F
100
AcDbEntity
  8
0
  6
Continuous
 62
     7
370
    15
100
AcDbLine
 10
146.3085278276
 20
145.592351327
 30
0.0
 11
146.3085278276
 21
145.6479312756
 31
0.0
  0
LINE
  5
142
330
1F
100
AcDbEntity
  8
0
  6
Continuous
 62
     7
370
    15
100
AcDbLine
 10
146.9085278276
 20
145.6479312756
 30
0.0
 11
146.9085278276
 21
145.592351327
 31
0.0
  0
LINE
  5
143
330
1F
100
AcDbEntity
  8
0
  6
Continuous
 62
     7
370
    15
100
AcDbLine
 10
116.715930713
 20
133.7650004278
 30
0.0
 11
116.715930713
 21
136.2650004278
 31
0.0
  0
LINE
  5
144
330
1F
100
AcDbEntity
  8
0
  6
Continuous
 62
     7
370
    15
100
AcDbLine
 10
113.2085278276
 20
133.7650004278
 30
0.0
 11
113.2085278276
 21
136.2650004278
 31
0.0
  0
LINE
  5
145
330
1F
100
AcDbEntity
  8
0
  6
Continuous
 62
     7
370
    15
100
AcDbLine
 10
113.2085278276
 20
136.2650004278
 30
0.0
 11
113.296818285
 21
136.2650004278
 31
0.0
  0
LINE
  5
146
330
1F
100
AcDbEntity
  8
0
  6
Continuous
 62
     7
370
    15
100
AcDbLine
 10
116.6276402556
 20
136.2650004278
 30
0.0
 11
116.715930713
 21
136.2650004278
 31
0.0
  0
LINE
  5
147
330
1F
100
AcDbEntity
  8
0
  6
Continuous
 62
     7
370
    15
100
AcDbLine
 10
113.2085278276
 20
133.7650004278
 30
0.0
 11
116.715930713
 21
133.7650004278
 31
0.0
  0
LINE
  5
148
330
1F
100
AcDbEntity
  8
0
  6
Continuous
 62
     7
370
    15
100
AcDbLine
 10
109.7011249423
 20
133.7650004278
 30
0.0
 11
109.7011249423
 21
136.2650004278
 31
0.0
  0
LINE
  5
149
330
1F
100
AcDbEntity
  8
0
  6
Continuous
 62
     7
370
    15
100
AcDbLine
 10
109.7011249423
 20
136.2650004278
 30
0.0
 11
109.7894153997
 21
136.2650004278
 31
0.0
  0
LINE
  5
14A
330
1F
100
AcDbEntity
  8
0
  6
Continuous
 62
     7
370
    15
100
AcDbLine
 10
113.1202373703
 20
136.2650004278
 30
0.0
 11
113.2085278276
 21
136.2650004278
 31
0.0
  0
LINE
  5
14B
330
1F
100
AcDbEntity
  8
0
  6
Continuous
 62
     7
370
    15
100
AcDbLine
 10
109.7011249423
 20
133.7650004278
 30
0.0
 11
113.2085278276
 21
133.7650004278
 31
0.0
  0
LINE
  5
14C
330
1F
100
AcDbEntity
  8
0
  6
Continuous
 62
     7
370
    15
100
AcDbLine
 10
115.5585278276
 20
131.2650004278
 30
0.0
 11
110.8585278276
 21
131.2650004278
 31
0.0
  0
LINE
  5
14D
330
1F
100
AcDbEntity
  8
0
  6
Continuous
 62
     7
370
    15
100
AcDbLine
 10
115.2436875265
 20
128.7650004278
 30
0.0
 11
110.8585278276
 21
128.7650004278
 31
0.0
  0
LINE
  5
14E
330
1F
100
AcDbEntity
  8
0
  6
Continuous
 62
     7
370
    15
100
AcDbLine
 10
115.5585278276
 20
128.7650004278
 30
0.0
 11
115.2436875265
 21
128.7650004278
 31
0.0
  0
LINE
  5
14F
330
1F
100
AcDbEntity
  8
0
  6
Continuous
 62
     7
370
    15
100
AcDbLine
 10
114.9405786352
 20
126.2650004278
 30
0.0
 11
111.2085278276
 21
126.2650004278
 31
0.0
  0
LINE
  5
150
330
1F
100
AcDbEntity
  8
0
  6
Continuous
 62
     7
370
    15
100
AcDbLine
 10
115.2085278276
 20
126.2650004278
 30
0.0
 11
114.9405786352
 21
126.2650004278
 31
0.0
  0
LINE
  5
151
330
1F
100
AcDbEntity
  8
0
  6
Continuous
 62
     7
370
    15
100
AcDbLine
 10
117.2085278276
 20
149.0650004278
 30
0.0
 11
115.2085278276
 21
149.0650004278
 31
0.0
  0
LINE
  5
152
330
1F
100
AcDbEntity
  8
0
  6
Continuous
 62
     7
370
    15
100
AcDbLine
 10
111.2085278276
 20
149.0650004278
 30
0.0
 11
109.2085278276
 21
149.0650004278
 31
0.0
  0
LINE
  5
153
330
1F
100
AcDbEntity
  8
0
  6
Continuous
 62
     7
370
    15
100
AcDbLine
 10
117.2085278276
 20
149.0650004278
 30
0.0
 11
117.2085278276
 21
143.0650004278
 31
0.0
  0
LINE
  5
154
330
1F
100
AcDbEntity
  8
0
  6
Continuous
 62
     7
370
    15
100
AcDbLine
 10
117.2085278276
 20
143.0650004278
 30
0.0
 11
109.2085278276
 21
143.0650004278
 31
0.0
  0
LINE
  5
155
330
1F
100
AcDbEntity
  8
0
  6
Continuous
 62
     7
370
    15
100
AcDbLine
 10
109.2085278276
 20
149.0650004278
 30
0.0
 11
109.2085278276
 21
143.0650004278
 31
0.0
  0
LINE
  5
156
330
1F
100
AcDbEntity
  8
0
  6
Continuous
 62
     7
370
    15
100
AcDbLine
 10
117.2085278276
 20
143.0650004278
 30
0.0
 11
117.2085278276
 21
137.0650004278
 31
0.0
  0
LINE
  5
157
330
1F
100
AcDbEntity
  8
0
  6
Continuous
 62
     7
370
    15
100
AcDbLine
 10
117.2085278276
 20
137.0650004278
 30
0.0
 11
115.2085278276
 21
137.0650004278
 31
0.0
  0
LINE
  5
158
330
1F
100
AcDbEntity
  8
0
  6
Continuous
 62
     7
370
    15
100
AcDbLine
 10
111.2085278276
 20
137.0650004278
 30
0.0
 11
109.2085278276
 21
137.0650004278
 31
0.0
  0
LINE
  5
159
330
1F
100
AcDbEntity
  8
0
  6
Continuous
 62
     7
370
    15
100
AcDbLine
 10
109.2085278276
 20
143.0650004278
 30
0.0
 11
109.2085278276
 21
137.0650004278
 31
0.0
  0
LINE
  5
15A
330
1F
100
AcDbEntity
  8
0
  6
Continuous
 62
     7
370
    15
100
AcDbLine
 10
119.2085278276
 20
146.8150004278
 30
0.0
 11
119.2085278276
 21
142.6827243446
 31
0.0
  0
LINE
  5
15B
330
1F
100
AcDbEntity
  8
0
  6
Continuous
 62
     7
370
    15
100
AcDbLine
 10
103.7085278276
 20
146.5650004278
 30
0.0
 11
103.7085278276
 21
139.5650004278
 31
0.0
  0
LINE
  5
15C
330
1F
100
AcDbEntity
  8
0
  6
Continuous
 62
     7
370
    15
100
AcDbLine
 10
105.7085278276
 20
146.5650004278
 30
0.0
 11
105.7085278276
 21
139.5650004278
 31
0.0
  0
LINE
  5
15D
330
1F
100
AcDbEntity
  8
0
  6
Continuous
 62
     7
370
    15
100
AcDbLine
 10
148.2085278276
 20
145.0650004278
 30
0.0
 11
148.2085278276
 21
141.0650004278
 31
0.0
  0
LINE
  5
15E
330
1F
100
AcDbEntity
  8
0
  6
Continuous
 62
     7
370
    15
100
AcDbLine
 10
147.7085278276
 20
140.5650004278
 30
0.0
 11
147.7085278276
 21
145.5650004278
 31
0.0
  0
SPLINE
  5
15F
330
1F
100
AcDbEntity
  8
0
  6
Continuous
 62
     7
370
    15
100
AcDbSpline
210
0.0
220
0.0
230
1.0
 70
    24
 71
     3
 72
    12
 73
     8
 74
     0
 42
0.00000001
 43
0.00000001
 12
1.0
 22
0.0
 32
0.0
 13
1.0
 23
0.0
 33
0.0
 40
0.0
 40
0.0
 40
0.0
 40
0.0
 40
0.2127806823715651
 40
0.4249141228480877
 40
0.6514621374195413
 40
0.8627743779965902
 40
1.0
 40
1.0
 40
1.0
 40
1.0
 10
130.9309522400416
 20
143.0650004278109
 30
0.0
 10
130.9587673915963
 20
143.0650004278109
 30
0.0
 10
131.0143130858437
 20
143.0650004278109
 30
0.0
 10
131.0899806593046
 20
143.0650004278109
 30
0.0
 10
131.1477746195069
 20
143.0650004278109
 30
0.0
 10
131.1775906286281
 20
143.0650004278109
 30
0.0
 10
131.1773522641423
 20
143.0650004278109
 30
0.0
 10
131.1772584157592
 20
143.0650004278109
 30
0.0
  0
SPLINE
  5
160
330
1F
100
AcDbEntity
  8
0
  6
Continuous
 62
     7
370
    15
100
AcDbSpline
210
0.0
220
0.0
230
1.0
 70
    24
 71
     3
 72
    12
 73
     8
 74
     0
 42
0.00000001
 43
0.00000001
 12
1.0
 22
0.0
 32
0.0
 13
1.0
 23
0.0
 33
0.0
 40
0.0
 40
0.0
 40
0.0
 40
0.0
 40
0.2128630380361111
 40
0.4250795627731064
 40
0.6516827220474207
 40
0.8629897755429893
 40
1.0
 40
1.0
 40
1.0
 40
1.0
 10
130.9309522400416
 20
143.0650004278109
 30
0.0
 10
130.9031340991785
 20
143.0650004278109
 30
0.0
 10
130.8475823074519
 20
143.0650004278109
 30
0.0
 10
130.771926712563
 20
143.0650004278109
 30
0.0
 10
130.7141738002368
 20
143.0650004278109
 30
0.0
 10
130.6844094589667
 20
143.0650004278109
 30
0.0
 10
130.6846686571302
 20
143.0650004278109
 30
0.0
 10
130.6847706124475
 20
143.0650004278109
 30
0.0
  0
SPLINE
  5
161
330
1F
100
AcDbEntity
  8
0
  6
Continuous
 62
     7
370
    15
100
AcDbSpline
210
0.0
220
0.0
230
1.0
 70
     8
 71
     3
 72
    12
 73
     8
 74
     0
 42
0.00000001
 43
0.00000001
 12
1.0
 22
0.0
 32
0.0
 13
1.0
 23
0.0
 33
0.0
 40
-0.0000385617445579
 40
-0.0000385617445579
 40
-0.0000385617445579
 40
-0.0000385617445579
 40
0.0
 40
0.1666666666667
 40
0.3333333333333
 40
0.5
 40
0.5000378059702635
 40
0.5000378059702635
 40
0.5000378059702635
 40
0.5000378059702635
 10
117.5309521824064
 20
139.2627743435114
 30
0.0
 10
117.5309321451367
 20
139.2627743485997
 30
0.0
 10
117.4443095674861
 20
139.2627853476799
 30
0.0
 10
117.2710844494606
 20
139.1677186992276
 30
0.0
 10
117.2710844494606
 20
138.8825517434778
 30
0.0
 10
117.4443091747742
 20
138.7874853105475
 30
0.0
 10
117.530931359713
 20
138.7874960940063
 30
0.0
 10
117.5309510042709
 20
138.787496098897
 30
0.0
  0
SPLINE
  5
162
330
1F
100
AcDbEntity
  8
0
  6
Continuous
 62
     7
370
    15
100
AcDbSpline
210
0.0
220
0.0
230
1.0
 70
     8
 71
     3
 72
    10
 73
     6
 74
     0
 42
0.00000001
 43
0.00000001
 12
1.0
 22
0.0
 32
0.0
 13
1.0
 23
0.0
 33
0.0
 40
0.5000378059716932
 40
0.5000378059716932
 40
0.5000378059716932
 40
0.5000378059716932
 40
0.6666666666666999
 40
0.8333333333333001
 40
0.9999614382543087
 40
0.9999614382543087
 40
0.9999614382543087
 40
0.9999614382543087
 10
117.5309510042709
 20
138.787496098897
 30
0.0
 10
117.6175338978648
 20
138.7875176548114
 30
0.0
 10
117.7906996917351
 20
138.8825733055055
 30
0.0
 10
117.7906996917351
 20
139.1676967061563
 30
0.0
 10
117.6175346831984
 20
139.262752356801
 30
0.0
 10
117.5309521824064
 20
139.2627743435114
 30
0.0
  0
SPLINE
  5
163
330
1F
100
AcDbEntity
  8
0
  6
Continuous
 62
     7
370
    15
100
AcDbSpline
210
0.0
220
0.0
230
1.0
 70
     8
 71
     3
 72
     8
 73
     4
 74
     0
 42
0.00000001
 43
0.00000001
 12
1.0
 22
0.0
 32
0.0
 13
1.0
 23
0.0
 33
0.0
 40
0.0
 40
0.0
 40
0.0
 40
0.0
 40
1.0
 40
1.0
 40
1.0
 40
1.0
 10
139.4541453304095
 20
134.9820966591562
 30
0.0
 10
139.249845809835
 20
135.3359538087531
 30
0.0
 10
139.081989225798
 20
135.6974294635301
 30
0.0
 10
138.9732681153676
 20
136.059093296911
 30
0.0
  0
LINE
  5
164
330
1F
100
AcDbEntity
  8
0
  6
Continuous
 62
     7
370
    15
100
AcDbLine
 10
138.9732681154
 20
137.9465519057
 30
0.0
 11
138.9732681154
 21
136.0590932969
 31
0.0
  0
SPLINE
  5
165
330
1F
100
AcDbEntity
  8
0
  6
Continuous
 62
     7
370
    15
100
AcDbSpline
210
0.0
220
0.0
230
1.0
 70
     8
 71
     3
 72
     8
 73
     4
 74
     0
 42
0.00000001
 43
0.00000001
 12
1.0
 22
0.0
 32
0.0
 13
1.0
 23
0.0
 33
0.0
 40
0.0
 40
0.0
 40
0.0
 40
0.0
 40
1.0
 40
1.0
 40
1.0
 40
1.0
 10
138.9732681153676
 20
137.9465519057287
 30
0.0
 10
139.0834315330679
 20
138.3130136148312
 30
0.0
 10
139.2505952936327
 20
138.6709895379038
 30
0.0
 10
139.4541453304094
 20
139.0235485434835
 30
0.0
  0
LINE
  5
166
330
1F
100
AcDbEntity
  8
0
  6
Continuous
 62
     7
370
    15
100
AcDbLine
 10
139.4541453304
 20
139.0235485435
 30
0.0
 11
141.4923909003
 21
139.0235485435
 31
0.0
  0
SPLINE
  5
167
330
1F
100
AcDbEntity
  8
0
  6
Continuous
 62
     7
370
    15
100
AcDbSpline
210
0.0
220
0.0
230
1.0
 70
     8
 71
     3
 72
     8
 73
     4
 74
     0
 42
0.00000001
 43
0.00000001
 12
1.0
 22
0.0
 32
0.0
 13
1.0
 23
0.0
 33
0.0
 40
0.0
 40
0.0
 40
0.0
 40
0.0
 40
1.0
 40
1.0
 40
1.0
 40
1.0
 10
141.4923909003257
 20
139.0235485434835
 30
0.0
 10
141.6966904209002
 20
138.6696913938866
 30
0.0
 10
141.8645470049372
 20
138.3082157391096
 30
0.0
 10
141.9732681153676
 20
137.9465519057287
 30
0.0
  0
LINE
  5
168
330
1F
100
AcDbEntity
  8
0
  6
Continuous
 62
     7
370
    15
100
AcDbLine
 10
141.9732681154
 20
137.9465519057
 30
0.0
 11
141.9732681154
 21
136.0590932969
 31
0.0
  0
SPLINE
  5
169
330
1F
100
AcDbEntity
  8
0
  6
Continuous
 62
     7
370
    15
100
AcDbSpline
210
0.0
220
0.0
230
1.0
 70
     8
 71
     3
 72
     8
 73
     4
 74
     0
 42
0.00000001
 43
0.00000001
 12
1.0
 22
0.0
 32
0.0
 13
1.0
 23
0.0
 33
0.0
 40
0.0
 40
0.0
 40
0.0
 40
0.0
 40
1.0
 40
1.0
 40
1.0
 40
1.0
 10
141.9732681153676
 20
136.059093296911
 30
0.0
 10
141.8631046976672
 20
135.6926315878085
 30
0.0
 10
141.6959409371024
 20
135.3346556647359
 30
0.0
 10
141.4923909003257
 20
134.9820966591562
 30
0.0
  0
LINE
  5
16A
330
1F
100
AcDbEntity
  8
0
  6
Continuous
 62
     7
370
    15
100
AcDbLine
 10
139.4541453304
 20
134.9820966592
 30
0.0
 11
141.4923909003
 21
134.9820966592
 31
0.0
  0
SPLINE
  5
16B
330
1F
100
AcDbEntity
  8
0
  6
Continuous
 62
     7
370
    15
100
AcDbSpline
210
0.0
220
0.0
230
1.0
 70
     8
 71
     3
 72
    10
 73
     6
 74
     0
 42
0.00000001
 43
0.00000001
 12
1.0
 22
0.0
 32
0.0
 13
1.0
 23
0.0
 33
0.0
 40
0.0
 40
0.0
 40
0.0
 40
0.0
 40
0.5
 40
0.5
 40
1.0
 40
1.0
 40
1.0
 40
1.0
 10
139.4541453304095
 20
139.0235485434835
 30
0.0
 10
139.3524104077531
 20
139.3759686533733
 30
0.0
 10
139.2596921885244
 20
139.7315816664632
 30
0.0
 10
139.0972959244013
 20
140.4509664445588
 30
0.0
 10
139.0277964789562
 20
140.814761547059
 30
0.0
 10
138.9732681153676
 20
141.1775418189933
 30
0.0
  0
LINE
  5
16C
330
1F
100
AcDbEntity
  8
0
  6
Continuous
 62
     7
370
    15
100
AcDbLine
 10
138.9732681154
 20
144.9524590366
 30
0.0
 11
138.9732681154
 21
141.177541819
 31
0.0
  0
SPLINE
  5
16D
330
1F
100
AcDbEntity
  8
0
  6
Continuous
 62
     7
370
    15
100
AcDbSpline
210
0.0
220
0.0
230
1.0
 70
     8
 71
     3
 72
    10
 73
     6
 74
     0
 42
0.00000001
 43
0.00000001
 12
1.0
 22
0.0
 32
0.0
 13
1.0
 23
0.0
 33
0.0
 40
0.0
 40
0.0
 40
0.0
 40
0.0
 40
0.5
 40
0.5
 40
1.0
 40
1.0
 40
1.0
 40
1.0
 10
138.9732681153676
 20
144.9524590366286
 30
0.0
 10
139.0282101336445
 20
145.3179913764851
 30
0.0
 10
139.0979510675808
 20
145.6821647313519
 30
0.0
 10
139.2600485236235
 20
146.3997680979076
 30
0.0
 10
139.3525883648316
 20
146.7546486636516
 30
0.0
 10
139.4541453304094
 20
147.1064523121383
 30
0.0
  0
LINE
  5
16E
330
1F
100
AcDbEntity
  8
0
  6
Continuous
 62
     7
370
    15
100
AcDbLine
 10
139.4541453304
 20
147.1064523121
 30
0.0
 11
141.4923909003
 21
147.1064523121
 31
0.0
  0
SPLINE
  5
16F
330
1F
100
AcDbEntity
  8
0
  6
Continuous
 62
     7
370
    15
100
AcDbSpline
210
0.0
220
0.0
230
1.0
 70
     8
 71
     3
 72
    10
 73
     6
 74
     0
 42
0.00000001
 43
0.00000001
 12
1.0
 22
0.0
 32
0.0
 13
1.0
 23
0.0
 33
0.0
 40
0.0
 40
0.0
 40
0.0
 40
0.0
 40
0.5
 40
0.5
 40
1.0
 40
1.0
 40
1.0
 40
1.0
 10
141.4923909003257
 20
147.1064523121383
 30
0.0
 10
141.5941258229821
 20
146.7540322022485
 30
0.0
 10
141.6868440422108
 20
146.3984191891586
 30
0.0
 10
141.8492403063339
 20
145.679034411063
 30
0.0
 10
141.9187397517789
 20
145.3152393085628
 30
0.0
 10
141.9732681153676
 20
144.9524590366286
 30
0.0
  0
LINE
  5
170
330
1F
100
AcDbEntity
  8
0
  6
Continuous
 62
     7
370
    15
100
AcDbLine
 10
141.9732681154
 20
144.9524590366
 30
0.0
 11
141.9732681154
 21
141.177541819
 31
0.0
  0
SPLINE
  5
171
330
1F
100
AcDbEntity
  8
0
  6
Continuous
 62
     7
370
    15
100
AcDbSpline
210
0.0
220
0.0
230
1.0
 70
     8
 71
     3
 72
    10
 73
     6
 74
     0
 42
0.00000001
 43
0.00000001
 12
1.0
 22
0.0
 32
0.0
 13
1.0
 23
0.0
 33
0.0
 40
0.0
 40
0.0
 40
0.0
 40
0.0
 40
0.5
 40
0.5
 40
1.0
 40
1.0
 40
1.0
 40
1.0
 10
141.9732681153676
 20
141.1775418189933
 30
0.0
 10
141.9183260970906
 20
140.8120094791367
 30
0.0
 10
141.8485851631543
 20
140.4478361242699
 30
0.0
 10
141.6864877071116
 20
139.7302327577143
 30
0.0
 10
141.5939478659036
 20
139.3753521919702
 30
0.0
 10
141.4923909003257
 20
139.0235485434835
 30
0.0
  0
LINE
  5
172
330
1F
100
AcDbEntity
  8
0
  6
Continuous
 62
     7
370
    15
100
AcDbLine
 10
141.9732681154
 20
148.1834489499
 30
0.0
 11
141.9732681154
 21
144.9524590366
 31
0.0
  0
SPLINE
  5
173
330
1F
100
AcDbEntity
  8
0
  6
Continuous
 62
     7
370
    15
100
AcDbSpline
210
0.0
220
0.0
230
1.0
 70
     8
 71
     3
 72
     8
 73
     4
 74
     0
 42
0.00000001
 43
0.00000001
 12
1.0
 22
0.0
 32
0.0
 13
1.0
 23
0.0
 33
0.0
 40
0.0
 40
0.0
 40
0.0
 40
0.0
 40
1.0
 40
1.0
 40
1.0
 40
1.0
 10
141.9732681153676
 20
148.1834489498931
 30
0.0
 10
141.8631046976672
 20
147.8169872407906
 30
0.0
 10
141.6959409371024
 20
147.4590113177181
 30
0.0
 10
141.4923909003257
 20
147.1064523121383
 30
0.0
  0
SPLINE
  5
174
330
1F
100
AcDbEntity
  8
0
  6
Continuous
 62
     7
370
    15
100
AcDbSpline
210
0.0
220
0.0
230
1.0
 70
     8
 71
     3
 72
     8
 73
     4
 74
     0
 42
0.00000001
 43
0.00000001
 12
1.0
 22
0.0
 32
0.0
 13
1.0
 23
0.0
 33
0.0
 40
0.0
 40
0.0
 40
0.0
 40
0.0
 40
1.0
 40
1.0
 40
1.0
 40
1.0
 10
139.4541453304095
 20
147.1064523121383
 30
0.0
 10
139.249845809835
 20
147.4603094617352
 30
0.0
 10
139.081989225798
 20
147.8217851165122
 30
0.0
 10
138.9732681153676
 20
148.1834489498931
 30
0.0
  0
LINE
  5
175
330
1F
100
AcDbEntity
  8
0
  6
Continuous
 62
     7
370
    15
100
AcDbLine
 10
138.9732681154
 20
150.0709075587
 30
0.0
 11
138.9732681154
 21
148.1834489499
 31
0.0
  0
SPLINE
  5
176
330
1F
100
AcDbEntity
  8
0
  6
Continuous
 62
     7
370
    15
100
AcDbSpline
210
0.0
220
0.0
230
1.0
 70
     8
 71
     3
 72
     8
 73
     4
 74
     0
 42
0.00000001
 43
0.00000001
 12
1.0
 22
0.0
 32
0.0
 13
1.0
 23
0.0
 33
0.0
 40
0.0
 40
0.0
 40
0.0
 40
0.0
 40
1.0
 40
1.0
 40
1.0
 40
1.0
 10
138.9732681153676
 20
150.0709075587108
 30
0.0
 10
139.0834315330679
 20
150.4373692678134
 30
0.0
 10
139.2505952936327
 20
150.7953451908859
 30
0.0
 10
139.4541453304094
 20
151.1479041964657
 30
0.0
  0
LINE
  5
177
330
1F
100
AcDbEntity
  8
0
  6
Continuous
 62
     7
370
    15
100
AcDbLine
 10
139.4541453304
 20
151.1479041965
 30
0.0
 11
141.4923909003
 21
151.1479041965
 31
0.0
  0
SPLINE
  5
178
330
1F
100
AcDbEntity
  8
0
  6
Continuous
 62
     7
370
    15
100
AcDbSpline
210
0.0
220
0.0
230
1.0
 70
     8
 71
     3
 72
     8
 73
     4
 74
     0
 42
0.00000001
 43
0.00000001
 12
1.0
 22
0.0
 32
0.0
 13
1.0
 23
0.0
 33
0.0
 40
0.0
 40
0.0
 40
0.0
 40
0.0
 40
1.0
 40
1.0
 40
1.0
 40
1.0
 10
141.4923909003257
 20
151.1479041964657
 30
0.0
 10
141.6966904209002
 20
150.7940470468688
 30
0.0
 10
141.8645470049372
 20
150.4325713920918
 30
0.0
 10
141.9732681153676
 20
150.0709075587108
 30
0.0
  0
LINE
  5
179
330
1F
100
AcDbEntity
  8
0
  6
Continuous
 62
     7
370
    15
100
AcDbLine
 10
141.9732681154
 20
150.0709075587
 30
0.0
 11
141.9732681154
 21
148.1834489499
 31
0.0
  0
LINE
  5
17A
330
1F
100
AcDbEntity
  8
0
  6
Continuous
 62
     7
370
    15
100
AcDbLine
 10
141.9732681154
 20
141.177541819
 30
0.0
 11
141.9732681154
 21
137.9465519057
 31
0.0
  0
LINE
  5
17B
330
1F
100
AcDbEntity
  8
0
  6
Continuous
 62
     7
370
    15
100
AcDbLine
 10
138.9732681154
 20
137.9465519057
 30
0.0
 11
138.9732681154
 21
141.177541819
 31
0.0
  0
LINE
  5
17C
330
1F
100
AcDbEntity
  8
0
  6
Continuous
 62
     7
370
    15
100
AcDbLine
 10
138.9732681154
 20
144.9524590366
 30
0.0
 11
138.9732681154
 21
148.1834489499
 31
0.0
  0
LINE
  5
17D
330
1F
100
AcDbEntity
  8
0
  6
Continuous
 62
     7
370
    15
100
AcDbLine
 10
138.9732681154
 20
135.8150004278
 30
0.0
 11
138.9732681154
 21
136.0590932969
 31
0.0
  0
LINE
  5
17E
330
1F
100
AcDbEntity
  8
0
  6
Continuous
 62
     7
370
    15
100
AcDbLine
 10
141.9732681154
 20
136.0590932969
 30
0.0
 11
141.9732681154
 21
135.8150004278
 31
0.0
  0
LINE
  5
17F
330
1F
100
AcDbEntity
  8
0
  6
Continuous
 62
     7
370
    15
100
AcDbLine
 10
138.9732681154
 20
150.0709075587
 30
0.0
 11
138.9732681154
 21
150.3150004278
 31
0.0
  0
LINE
  5
180
330
1F
100
AcDbEntity
  8
0
  6
Continuous
 62
     7
370
    15
100
AcDbLine
 10
141.9732681154
 20
150.3150004278
 30
0.0
 11
141.9732681154
 21
150.0709075587
 31
0.0
  0
SPLINE
  5
181
330
1F
100
AcDbEntity
  8
0
  6
Continuous
 62
     7
370
    15
100
AcDbSpline
210
0.0
220
0.0
230
1.0
 70
     8
 71
     3
 72
     8
 73
     4
 74
     0
 42
0.00000001
 43
0.00000001
 12
1.0
 22
0.0
 32
0.0
 13
1.0
 23
0.0
 33
0.0
 40
0.0
 40
0.0
 40
0.0
 40
0.0
 40
1.0
 40
1.0
 40
1.0
 40
1.0
 10
142.4541453304095
 20
134.9820966591562
 30
0.0
 10
142.249845809835
 20
135.3359538087531
 30
0.0
 10
142.081989225798
 20
135.6974294635301
 30
0.0
 10
141.9732681153676
 20
136.059093296911
 30
0.0
  0
SPLINE
  5
182
330
1F
100
AcDbEntity
  8
0
  6
Continuous
 62
     7
370
    15
100
AcDbSpline
210
0.0
220
0.0
230
1.0
 70
     8
 71
     3
 72
     8
 73
     4
 74
     0
 42
0.00000001
 43
0.00000001
 12
1.0
 22
0.0
 32
0.0
 13
1.0
 23
0.0
 33
0.0
 40
0.0
 40
0.0
 40
0.0
 40
0.0
 40
1.0
 40
1.0
 40
1.0
 40
1.0
 10
141.9732681153676
 20
137.9465519057287
 30
0.0
 10
142.0834315330679
 20
138.3130136148312
 30
0.0
 10
142.2505952936327
 20
138.6709895379038
 30
0.0
 10
142.4541453304094
 20
139.0235485434835
 30
0.0
  0
LINE
  5
183
330
1F
100
AcDbEntity
  8
0
  6
Continuous
 62
     7
370
    15
100
AcDbLine
 10
142.4541453304
 20
139.0235485435
 30
0.0
 11
144.4923909003
 21
139.0235485435
 31
0.0
  0
SPLINE
  5
184
330
1F
100
AcDbEntity
  8
0
  6
Continuous
 62
     7
370
    15
100
AcDbSpline
210
0.0
220
0.0
230
1.0
 70
     8
 71
     3
 72
     8
 73
     4
 74
     0
 42
0.00000001
 43
0.00000001
 12
1.0
 22
0.0
 32
0.0
 13
1.0
 23
0.0
 33
0.0
 40
0.0
 40
0.0
 40
0.0
 40
0.0
 40
1.0
 40
1.0
 40
1.0
 40
1.0
 10
144.4923909003257
 20
139.0235485434835
 30
0.0
 10
144.6966904209002
 20
138.6696913938866
 30
0.0
 10
144.8645470049372
 20
138.3082157391096
 30
0.0
 10
144.9732681153676
 20
137.9465519057287
 30
0.0
  0
SPLINE
  5
185
330
1F
100
AcDbEntity
  8
0
  6
Continuous
 62
     7
370
    15
100
AcDbSpline
210
0.0
220
0.0
230
1.0
 70
     8
 71
     3
 72
     8
 73
     4
 74
     0
 42
0.00000001
 43
0.00000001
 12
1.0
 22
0.0
 32
0.0
 13
1.0
 23
0.0
 33
0.0
 40
0.0
 40
0.0
 40
0.0
 40
0.0
 40
1.0
 40
1.0
 40
1.0
 40
1.0
 10
144.9732681153676
 20
136.059093296911
 30
0.0
 10
144.8631046976672
 20
135.6926315878085
 30
0.0
 10
144.6959409371024
 20
135.3346556647359
 30
0.0
 10
144.4923909003257
 20
134.9820966591562
 30
0.0
  0
LINE
  5
186
330
1F
100
AcDbEntity
  8
0
  6
Continuous
 62
     7
370
    15
100
AcDbLine
 10
142.4541453304
 20
134.9820966592
 30
0.0
 11
144.4923909003
 21
134.9820966592
 31
0.0
  0
LINE
  5
187
330
1F
100
AcDbEntity
  8
0
  6
Continuous
 62
     7
370
    15
100
AcDbLine
 10
144.9732681154
 20
137.9465519057
 30
0.0
 11
144.9732681154
 21
136.0590932969
 31
0.0
  0
SPLINE
  5
188
330
1F
100
AcDbEntity
  8
0
  6
Continuous
 62
     7
370
    15
100
AcDbSpline
210
0.0
220
0.0
230
1.0
 70
     8
 71
     3
 72
    10
 73
     6
 74
     0
 42
0.00000001
 43
0.00000001
 12
1.0
 22
0.0
 32
0.0
 13
1.0
 23
0.0
 33
0.0
 40
0.0
 40
0.0
 40
0.0
 40
0.0
 40
0.5
 40
0.5
 40
1.0
 40
1.0
 40
1.0
 40
1.0
 10
142.4541453304095
 20
139.0235485434835
 30
0.0
 10
142.3524104077531
 20
139.3759686533733
 30
0.0
 10
142.2596921885244
 20
139.7315816664632
 30
0.0
 10
142.0972959244013
 20
140.4509664445588
 30
0.0
 10
142.0277964789562
 20
140.814761547059
 30
0.0
 10
141.9732681153676
 20
141.1775418189933
 30
0.0
  0
SPLINE
  5
189
330
1F
100
AcDbEntity
  8
0
  6
Continuous
 62
     7
370
    15
100
AcDbSpline
210
0.0
220
0.0
230
1.0
 70
     8
 71
     3
 72
    10
 73
     6
 74
     0
 42
0.00000001
 43
0.00000001
 12
1.0
 22
0.0
 32
0.0
 13
1.0
 23
0.0
 33
0.0
 40
0.0
 40
0.0
 40
0.0
 40
0.0
 40
0.5
 40
0.5
 40
1.0
 40
1.0
 40
1.0
 40
1.0
 10
141.9732681153676
 20
144.9524590366286
 30
0.0
 10
142.0282101336445
 20
145.3179913764851
 30
0.0
 10
142.0979510675808
 20
145.6821647313519
 30
0.0
 10
142.2600485236235
 20
146.3997680979076
 30
0.0
 10
142.3525883648316
 20
146.7546486636516
 30
0.0
 10
142.4541453304094
 20
147.1064523121383
 30
0.0
  0
LINE
  5
18A
330
1F
100
AcDbEntity
  8
0
  6
Continuous
 62
     7
370
    15
100
AcDbLine
 10
142.4541453304
 20
147.1064523121
 30
0.0
 11
144.4923909003
 21
147.1064523121
 31
0.0
  0
SPLINE
  5
18B
330
1F
100
AcDbEntity
  8
0
  6
Continuous
 62
     7
370
    15
100
AcDbSpline
210
0.0
220
0.0
230
1.0
 70
     8
 71
     3
 72
    10
 73
     6
 74
     0
 42
0.00000001
 43
0.00000001
 12
1.0
 22
0.0
 32
0.0
 13
1.0
 23
0.0
 33
0.0
 40
0.0
 40
0.0
 40
0.0
 40
0.0
 40
0.5
 40
0.5
 40
1.0
 40
1.0
 40
1.0
 40
1.0
 10
144.4923909003257
 20
147.1064523121383
 30
0.0
 10
144.594125822982
 20
146.7540322022485
 30
0.0
 10
144.6868440422109
 20
146.3984191891586
 30
0.0
 10
144.8492403063339
 20
145.679034411063
 30
0.0
 10
144.9187397517789
 20
145.3152393085628
 30
0.0
 10
144.9732681153676
 20
144.9524590366286
 30
0.0
  0
SPLINE
  5
18C
330
1F
100
AcDbEntity
  8
0
  6
Continuous
 62
     7
370
    15
100
AcDbSpline
210
0.0
220
0.0
230
1.0
 70
     8
 71
     3
 72
    10
 73
     6
 74
     0
 42
0.00000001
 43
0.00000001
 12
1.0
 22
0.0
 32
0.0
 13
1.0
 23
0.0
 33
0.0
 40
0.0
 40
0.0
 40
0.0
 40
0.0
 40
0.5
 40
0.5
 40
1.0
 40
1.0
 40
1.0
 40
1.0
 10
144.9732681153676
 20
141.1775418189933
 30
0.0
 10
144.9183260970907
 20
140.8120094791367
 30
0.0
 10
144.8485851631543
 20
140.4478361242699
 30
0.0
 10
144.6864877071116
 20
139.7302327577143
 30
0.0
 10
144.5939478659036
 20
139.3753521919702
 30
0.0
 10
144.4923909003257
 20
139.0235485434835
 30
0.0
  0
LINE
  5
18D
330
1F
100
AcDbEntity
  8
0
  6
Continuous
 62
     7
370
    15
100
AcDbLine
 10
144.9732681154
 20
144.9524590366
 30
0.0
 11
144.9732681154
 21
141.177541819
 31
0.0
  0
SPLINE
  5
18E
330
1F
100
AcDbEntity
  8
0
  6
Continuous
 62
     7
370
    15
100
AcDbSpline
210
0.0
220
0.0
230
1.0
 70
     8
 71
     3
 72
     8
 73
     4
 74
     0
 42
0.00000001
 43
0.00000001
 12
1.0
 22
0.0
 32
0.0
 13
1.0
 23
0.0
 33
0.0
 40
0.0
 40
0.0
 40
0.0
 40
0.0
 40
1.0
 40
1.0
 40
1.0
 40
1.0
 10
142.4541453304095
 20
147.1064523121383
 30
0.0
 10
142.249845809835
 20
147.4603094617352
 30
0.0
 10
142.081989225798
 20
147.8217851165122
 30
0.0
 10
141.9732681153676
 20
148.1834489498931
 30
0.0
  0
SPLINE
  5
18F
330
1F
100
AcDbEntity
  8
0
  6
Continuous
 62
     7
370
    15
100
AcDbSpline
210
0.0
220
0.0
230
1.0
 70
     8
 71
     3
 72
     8
 73
     4
 74
     0
 42
0.00000001
 43
0.00000001
 12
1.0
 22
0.0
 32
0.0
 13
1.0
 23
0.0
 33
0.0
 40
0.0
 40
0.0
 40
0.0
 40
0.0
 40
1.0
 40
1.0
 40
1.0
 40
1.0
 10
141.9732681153676
 20
150.0709075587108
 30
0.0
 10
142.0834315330679
 20
150.4373692678134
 30
0.0
 10
142.2505952936327
 20
150.7953451908859
 30
0.0
 10
142.4541453304094
 20
151.1479041964657
 30
0.0
  0
LINE
  5
190
330
1F
100
AcDbEntity
  8
0
  6
Continuous
 62
     7
370
    15
100
AcDbLine
 10
142.4541453304
 20
151.1479041965
 30
0.0
 11
144.4923909003
 21
151.1479041965
 31
0.0
  0
SPLINE
  5
191
330
1F
100
AcDbEntity
  8
0
  6
Continuous
 62
     7
370
    15
100
AcDbSpline
210
0.0
220
0.0
230
1.0
 70
     8
 71
     3
 72
     8
 73
     4
 74
     0
 42
0.00000001
 43
0.00000001
 12
1.0
 22
0.0
 32
0.0
 13
1.0
 23
0.0
 33
0.0
 40
0.0
 40
0.0
 40
0.0
 40
0.0
 40
1.0
 40
1.0
 40
1.0
 40
1.0
 10
144.4923909003257
 20
151.1479041964657
 30
0.0
 10
144.6966904209002
 20
150.7940470468688
 30
0.0
 10
144.8645470049372
 20
150.4325713920918
 30
0.0
 10
144.9732681153676
 20
150.0709075587108
 30
0.0
  0
SPLINE
  5
192
330
1F
100
AcDbEntity
  8
0
  6
Continuous
 62
     7
370
    15
100
AcDbSpline
210
0.0
220
0.0
230
1.0
 70
     8
 71
     3
 72
     8
 73
     4
 74
     0
 42
0.00000001
 43
0.00000001
 12
1.0
 22
0.0
 32
0.0
 13
1.0
 23
0.0
 33
0.0
 40
0.0
 40
0.0
 40
0.0
 40
0.0
 40
1.0
 40
1.0
 40
1.0
 40
1.0
 10
144.9732681153676
 20
148.1834489498931
 30
0.0
 10
144.8631046976672
 20
147.8169872407906
 30
0.0
 10
144.6959409371024
 20
147.4590113177181
 30
0.0
 10
144.4923909003257
 20
147.1064523121383
 30
0.0
  0
LINE
  5
193
330
1F
100
AcDbEntity
  8
0
  6
Continuous
 62
     7
370
    15
100
AcDbLine
 10
144.9732681154
 20
150.0709075587
 30
0.0
 11
144.9732681154
 21
148.1834489499
 31
0.0
  0
LINE
  5
194
330
1F
100
AcDbEntity
  8
0
  6
Continuous
 62
     7
370
    15
100
AcDbLine
 10
144.9732681154
 20
148.1834489499
 30
0.0
 11
144.9732681154
 21
144.9524590366
 31
0.0
  0
LINE
  5
195
330
1F
100
AcDbEntity
  8
0
  6
Continuous
 62
     7
370
    15
100
AcDbLine
 10
144.9732681154
 20
141.177541819
 30
0.0
 11
144.9732681154
 21
137.9465519057
 31
0.0
  0
LINE
  5
196
330
1F
100
AcDbEntity
  8
0
  6
Continuous
 62
     7
370
    15
100
AcDbLine
 10
144.9732681154
 20
136.0590932969
 30
0.0
 11
144.9732681154
 21
135.8150004278
 31
0.0
  0
LINE
  5
197
330
1F
100
AcDbEntity
  8
0
  6
Continuous
 62
     7
370
    15
100
AcDbLine
 10
144.9732681154
 20
150.3150004278
 30
0.0
 11
144.9732681154
 21
150.0709075587
 31
0.0
  0
LINE
  5
198
330
1F
100
AcDbEntity
  8
0
  6
Continuous
 62
     7
370
    15
100
AcDbLine
 10
116.715930713
 20
149.8650004278
 30
0.0
 11
116.715930713
 21
152.3650004278
 31
0.0
  0
LINE
  5
199
330
1F
100
AcDbEntity
  8
0
  6
Continuous
 62
     7
370
    15
100
AcDbLine
 10
113.2085278276
 20
149.8650004278
 30
0.0
 11
113.2085278278
 21
152.3650004278
 31
0.0
  0
LINE
  5
19A
330
1F
100
AcDbEntity
  8
0
  6
Continuous
 62
     7
370
    15
100
AcDbLine
 10
113.2085278278
 20
152.3650004278
 30
0.0
 11
116.715930713
 21
152.3650004278
 31
0.0
  0
LINE
  5
19B
330
1F
100
AcDbEntity
  8
0
  6
Continuous
 62
     7
370
    15
100
AcDbLine
 10
113.2085278276
 20
149.8650004278
 30
0.0
 11
113.296818285
 21
149.8650004278
 31
0.0
  0
LINE
  5
19C
330
1F
100
AcDbEntity
  8
0
  6
Continuous
 62
     7
370
    15
100
AcDbLine
 10
116.6276402556
 20
149.8650004278
 30
0.0
 11
116.715930713
 21
149.8650004278
 31
0.0
  0
LINE
  5
19D
330
1F
100
AcDbEntity
  8
0
  6
Continuous
 62
     7
370
    15
100
AcDbLine
 10
109.7011249423
 20
149.8650004278
 30
0.0
 11
109.7011249423
 21
152.3650004278
 31
0.0
  0
LINE
  5
19E
330
1F
100
AcDbEntity
  8
0
  6
Continuous
 62
     7
370
    15
100
AcDbLine
 10
109.7011249423
 20
152.3650004278
 30
0.0
 11
113.2085278278
 21
152.3650004278
 31
0.0
  0
LINE
  5
19F
330
1F
100
AcDbEntity
  8
0
  6
Continuous
 62
     7
370
    15
100
AcDbLine
 10
109.7011249423
 20
149.8650004278
 30
0.0
 11
109.7894153997
 21
149.8650004278
 31
0.0
  0
LINE
  5
1A0
330
1F
100
AcDbEntity
  8
0
  6
Continuous
 62
     7
370
    15
100
AcDbLine
 10
113.1202373703
 20
149.8650004278
 30
0.0
 11
113.2085278276
 21
149.8650004278
 31
0.0
  0
LINE
  5
1A1
330
1F
100
AcDbEntity
  8
0
  6
Continuous
 62
     7
370
    15
100
AcDbLine
 10
117.2085278276
 20
149.8650004278
 30
0.0
 11
116.715930713
 21
149.8650004278
 31
0.0
  0
LINE
  5
1A2
330
1F
100
AcDbEntity
  8
0
  6
Continuous
 62
     7
370
    15
100
AcDbLine
 10
116.6276402556
 20
149.8650004278
 30
0.0
 11
113.296818285
 21
149.8650004278
 31
0.0
  0
LINE
  5
1A3
330
1F
100
AcDbEntity
  8
0
  6
Continuous
 62
     7
370
    15
100
AcDbLine
 10
113.1202373703
 20
149.8650004278
 30
0.0
 11
109.7894153997
 21
149.8650004278
 31
0.0
  0
LINE
  5
1A4
330
1F
100
AcDbEntity
  8
0
  6
Continuous
 62
     7
370
    15
100
AcDbLine
 10
109.7011249423
 20
149.8650004278
 30
0.0
 11
109.2085278276
 21
149.8650004278
 31
0.0
  0
LINE
  5
1A5
330
1F
100
AcDbEntity
  8
0
  6
Continuous
 62
     7
370
    15
100
AcDbLine
 10
115.2085278276
 20
149.0650004278
 30
0.0
 11
111.2085278276
 21
149.0650004278
 31
0.0
  0
LINE
  5
1A6
330
1F
100
AcDbEntity
  8
0
  6
Continuous
 62
     7
370
    15
100
AcDbLine
 10
115.2085278276
 20
137.0650004278
 30
0.0
 11
111.2085278276
 21
137.0650004278
 31
0.0
  0
LINE
  5
1A7
330
1F
100
AcDbEntity
  8
0
  6
Continuous
 62
     7
370
    15
100
AcDbLine
 10
117.2085278276
 20
136.2650004278
 30
0.0
 11
116.715930713
 21
136.2650004278
 31
0.0
  0
LINE
  5
1A8
330
1F
100
AcDbEntity
  8
0
  6
Continuous
 62
     7
370
    15
100
AcDbLine
 10
116.6276402556
 20
136.2650004278
 30
0.0
 11
113.296818285
 21
136.2650004278
 31
0.0
  0
LINE
  5
1A9
330
1F
100
AcDbEntity
  8
0
  6
Continuous
 62
     7
370
    15
100
AcDbLine
 10
113.1202373703
 20
136.2650004278
 30
0.0
 11
109.7894153997
 21
136.2650004278
 31
0.0
  0
LINE
  5
1AA
330
1F
100
AcDbEntity
  8
0
  6
Continuous
 62
     7
370
    15
100
AcDbLine
 10
109.7011249423
 20
136.2650004278
 30
0.0
 11
109.2085278276
 21
136.2650004278
 31
0.0
  0
SPLINE
  5
1AB
330
1F
100
AcDbEntity
  8
0
  6
Continuous
 62
     8
370
    15
100
AcDbSpline
210
0.0
220
0.0
230
1.0
 70
     8
 71
     3
 72
     9
 73
     5
 74
     0
 42
0.00000001
 43
0.00000001
 12
1.0
 22
0.0
 32
0.0
 13
1.0
 23
0.0
 33
0.0
 40
0.0
 40
0.0
 40
0.0
 40
0.0
 40
0.5379281428442324
 40
1.0
 40
1.0
 40
1.0
 40
1.0
 10
124.2309521811634
 20
146.2993690786031
 30
0.0
 10
124.248395866612
 20
146.4222445221998
 30
0.0
 10
124.2808234049007
 20
146.6506680490801
 30
0.0
 10
124.3132947800261
 20
146.7884086410605
 30
0.0
 10
124.3282988886348
 20
146.8520546922025
 30
0.0
  0
SPLINE
  5
1AC
330
1F
100
AcDbEntity
  8
0
  6
Continuous
 62
     8
370
    15
100
AcDbSpline
210
0.0
220
0.0
230
1.0
 70
     8
 71
     3
 72
    12
 73
     8
 74
     0
 42
0.00000001
 43
0.00000001
 12
1.0
 22
0.0
 32
0.0
 13
1.0
 23
0.0
 33
0.0
 40
0.0
 40
0.0
 40
0.0
 40
0.0
 40
0.0415161212592088
 40
0.3272440877477871
 40
0.6126957592854326
 40
0.8983801544527462
 40
1.0
 40
1.0
 40
1.0
 40
1.0
 10
125.5319457569978
 20
139.2731876088818
 30
0.0
 10
125.5344789964071
 20
139.2810535397057
 30
0.0
 10
125.5544468449058
 20
139.3430554627818
 30
0.0
 10
125.5918600802217
 20
139.5550051246927
 30
0.0
 10
125.6442579901389
 20
139.9163045937643
 30
0.0
 10
125.6853477305766
 20
140.2632415154814
 30
0.0
 10
125.7089793814699
 20
140.5022817053649
 30
0.0
 10
125.7151797905058
 20
140.5650004278109
 30
0.0
  0
SPLINE
  5
1AD
330
1F
100
AcDbEntity
  8
0
  6
Continuous
 62
     8
370
    15
100
AcDbSpline
210
0.0
220
0.0
230
1.0
 70
     8
 71
     3
 72
    12
 73
     8
 74
     0
 42
0.00000001
 43
0.00000001
 12
1.0
 22
0.0
 32
0.0
 13
1.0
 23
0.0
 33
0.0
 40
0.0
 40
0.0
 40
0.0
 40
0.0
 40
0.1146114360272105
 40
0.4027746067936675
 40
0.6906076005719681
 40
0.9784162627255241
 40
1.0
 40
1.0
 40
1.0
 40
1.0
 10
126.1468531196713
 20
145.5650004278109
 30
0.0
 10
126.1537925025807
 20
145.6347815651814
 30
0.0
 10
126.1781793117825
 20
145.8800107599307
 30
0.0
 10
126.2199795713744
 20
146.2306451618328
 30
0.0
 10
126.2723515415464
 20
146.5888090770469
 30
0.0
 10
126.3085820142826
 20
146.7939520347951
 30
0.0
 10
126.3273158060465
 20
146.8509509713462
 30
0.0
 10
126.3286227070574
 20
146.8549273136019
 30
0.0
  0
SPLINE
  5
1AE
330
1F
100
AcDbEntity
  8
0
  6
Continuous
 62
     8
370
    15
100
AcDbSpline
210
0.0
220
0.0
230
1.0
 70
     8
 71
     3
 72
    11
 73
     7
 74
     0
 42
0.00000001
 43
0.00000001
 12
1.0
 22
0.0
 32
0.0
 13
1.0
 23
0.0
 33
0.0
 40
0.0
 40
0.0
 40
0.0
 40
0.0
 40
0.261708297983832
 40
0.5497163057418786
 40
0.8380574695618126
 40
1.0
 40
1.0
 40
1.0
 40
1.0
 10
127.5333876966135
 20
139.2758418213514
 30
0.0
 10
127.5492411059104
 20
139.3445753852741
 30
0.0
 10
127.5825410725498
 20
139.4889497178083
 30
0.0
 10
127.6333326495913
 20
139.8363937562623
 30
0.0
 10
127.6779900970818
 20
140.1982010157052
 30
0.0
 10
127.7052351004156
 20
140.4679767745215
 30
0.0
 10
127.7150336448398
 20
140.5650004278109
 30
0.0
  0
SPLINE
  5
1AF
330
1F
100
AcDbEntity
  8
0
  6
Continuous
 62
     8
370
    15
100
AcDbSpline
210
0.0
220
0.0
230
1.0
 70
     8
 71
     3
 72
    12
 73
     8
 74
     0
 42
0.00000001
 43
0.00000001
 12
1.0
 22
0.0
 32
0.0
 13
1.0
 23
0.0
 33
0.0
 40
0.0
 40
0.0
 40
0.0
 40
0.0
 40
0.0562854045894134
 40
0.3434910115378225
 40
0.6304467602396105
 40
0.9176669805336826
 40
1.0
 40
1.0
 40
1.0
 40
1.0
 10
128.1464831190902
 20
145.5650004278109
 30
0.0
 10
128.1498994995052
 20
145.6000568375966
 30
0.0
 10
128.1707485272963
 20
145.8139943893655
 30
0.0
 10
128.2090502903614
 20
146.1438309270358
 30
0.0
 10
128.2614483574992
 20
146.5226664957276
 30
0.0
 10
128.301328987516
 20
146.7559225432261
 30
0.0
 10
128.3237595653231
 20
146.8311504800977
 30
0.0
 10
128.3287568891199
 20
146.8479105636918
 30
0.0
  0
SPLINE
  5
1B0
330
1F
100
AcDbEntity
  8
0
  6
Continuous
 62
     8
370
    15
100
AcDbSpline
210
0.0
220
0.0
230
1.0
 70
     8
 71
     3
 72
     9
 73
     5
 74
     0
 42
0.00000001
 43
0.00000001
 12
1.0
 22
0.0
 32
0.0
 13
1.0
 23
0.0
 33
0.0
 40
0.0
 40
0.0
 40
0.0
 40
0.0
 40
0.9576728850819535
 40
1.0
 40
1.0
 40
1.0
 40
1.0
 10
129.5315728500839
 20
139.2736680314683
 30
0.0
 10
129.5443924298832
 20
139.3179189846228
 30
0.0
 10
129.5577786079811
 20
139.364125736264
 30
0.0
 10
129.5711453786944
 20
139.4482561041739
 30
0.0
 10
129.5717111555344
 20
139.4518170999245
 30
0.0
  0
LINE
  5
1B1
330
1F
100
AcDbEntity
  8
0
  6
Continuous
 62
     8
370
    15
100
AcDbLine
 10
130.3209165357
 20
146.8150004278
 30
0.0
 11
130.3297008113
 21
146.8498718571
 31
0.0
  0
SPLINE
  5
1B2
330
1F
100
AcDbEntity
  8
0
  6
Continuous
 62
     8
370
    15
100
AcDbSpline
210
0.0
220
0.0
230
1.0
 70
     8
 71
     3
 72
    17
 73
    13
 74
     0
 42
0.00000001
 43
0.00000001
 12
1.0
 22
0.0
 32
0.0
 13
1.0
 23
0.0
 33
0.0
 40
0.0
 40
0.0
 40
0.0
 40
0.0
 40
0.1042387554697216
 40
0.2083832829239482
 40
0.3126274655429954
 40
0.4169776133631086
 40
0.5212813566277117
 40
0.6254656131661283
 40
0.7296978076902847
 40
0.8340389256662427
 40
0.9383558145126145
 40
1.0
 40
1.0
 40
1.0
 40
1.0
 10
130.9309523735639
 20
143.0650023544407
 30
0.0
 10
130.9135094750473
 20
143.3115548059044
 30
0.0
 10
130.8786394457552
 20
143.8044368344495
 30
0.0
 10
130.826234482744
 20
144.5241836470046
 30
0.0
 10
130.7738921555176
 20
145.2033725399901
 30
0.0
 10
130.7215896641022
 20
145.8258568429451
 30
0.0
 10
130.6692689715319
 20
146.375782935229
 30
0.0
 10
130.6168748315245
 20
146.8355837476093
 30
0.0
 10
130.5645153715742
 20
147.1914928735149
 30
0.0
 10
130.5122076787036
 20
147.4320662310157
 30
0.0
 10
130.46701207563
 20
147.5582846402634
 30
0.0
 10
130.4392155750042
 20
147.5520184823055
 30
0.0
 10
130.4288909091308
 20
147.5496909955438
 30
0.0
  0
SPLINE
  5
1B3
330
1F
100
AcDbEntity
  8
0
  6
Continuous
 62
     8
370
    15
100
AcDbSpline
210
0.0
220
0.0
230
1.0
 70
     8
 71
     3
 72
    27
 73
    23
 74
     0
 42
0.00000001
 43
0.00000001
 12
1.0
 22
0.0
 32
0.0
 13
1.0
 23
0.0
 33
0.0
 40
0.0
 40
0.0
 40
0.0
 40
0.0
 40
0.0183936390176889
 40
0.0707018828927021
 40
0.1229524186992431
 40
0.1752320534328324
 40
0.2275648887640232
 40
0.2798820979481695
 40
0.3321385631346787
 40
0.3844079891319508
 40
0.4367358903017428
 40
0.4890606654441619
 40
0.5413254074613886
 40
0.5935857254811034
 40
0.6459068700682503
 40
0.6982375079032365
 40
0.7505120035186682
 40
0.8027651264282943
 40
0.8550779543269571
 40
0.9074125296887537
 40
0.959697527892008
 40
0.9999999999999999
 40
0.9999999999999999
 40
0.9999999999999999
 40
0.9999999999999999
 10
129.4313796586857
 20
138.5814651529523
 30
0.0
 10
129.425247694255
 20
138.5776757550533
 30
0.0
 10
129.4016775116141
 20
138.5631099822753
 30
0.0
 10
129.3606740604521
 20
138.6601797596586
 30
0.0
 10
129.3082778623248
 20
138.8741522725467
 30
0.0
 10
129.2559221352414
 20
139.2128871528763
 30
0.0
 10
129.2036164645422
 20
139.6515990699877
 30
0.0
 10
129.1513000170661
 20
140.1808928174358
 30
0.0
 10
129.0989127144423
 20
140.7881110430158
 30
0.0
 10
129.0465435029026
 20
141.4590652213249
 30
0.0
 10
128.9942347856161
 20
142.172576818842
 30
0.0
 10
128.9419239632362
 20
142.9096201845066
 30
0.0
 10
128.8895483241515
 20
143.6511409246194
 30
0.0
 10
128.8371664917398
 20
144.3762549505491
 30
0.0
 10
128.7848530645193
 20
145.0658245767
 30
0.0
 10
128.7325460941177
 20
145.7026135160475
 30
0.0
 10
128.6801836257197
 20
146.269525434269
 30
0.0
 10
128.6277916061982
 20
146.7466789766212
 30
0.0
 10
128.5754712382055
 20
147.1248982317891
 30
0.0
 10
128.5231676357059
 20
147.3921055920031
 30
0.0
 10
128.4748015208077
 20
147.5466963303966
 30
0.0
 10
128.4438796904527
 20
147.5515371370163
 30
0.0
 10
128.4304197028193
 20
147.5536442955024
 30
0.0
  0
SPLINE
  5
1B4
330
1F
100
AcDbEntity
  8
0
  6
Continuous
 62
     8
370
    15
100
AcDbSpline
210
0.0
220
0.0
230
1.0
 70
     8
 71
     3
 72
    27
 73
    23
 74
     0
 42
0.00000001
 43
0.00000001
 12
1.0
 22
0.0
 32
0.0
 13
1.0
 23
0.0
 33
0.0
 40
0.0
 40
0.0
 40
0.0
 40
0.0
 40
0.0068833963127571
 40
0.0592296137026554
 40
0.1115585869955218
 40
0.1639479949932837
 40
0.2163561394383029
 40
0.2687127476641896
 40
0.3210364946753049
 40
0.3734166248825394
 40
0.425827172694126
 40
0.4781944406736623
 40
0.5305160906150597
 40
0.5828860266286866
 40
0.6352968462577903
 40
0.6876744676826059
 40
0.7399973737915281
 40
0.7923566762555109
 40
0.8447656263340747
 40
0.897152798043329
 40
0.9494801799144411
 40
1.0
 40
1.0
 40
1.0
 40
1.0
 10
127.4307958666074
 20
138.5739241652732
 30
0.0
 10
127.4285041671136
 20
138.5716632122683
 30
0.0
 10
127.4087847626844
 20
138.5522083723907
 30
0.0
 10
127.3715841443384
 20
138.629746406642
 30
0.0
 10
127.319198109554
 20
138.8193116731903
 30
0.0
 10
127.2668788935647
 20
139.1353002559858
 30
0.0
 10
127.2145740701082
 20
139.551703417148
 30
0.0
 10
127.1622215177031
 20
140.0622709255535
 30
0.0
 10
127.1098241956435
 20
140.656301551899
 30
0.0
 10
127.0574976855244
 20
141.3158900227749
 30
0.0
 10
127.0051939547323
 20
142.021495525977
 30
0.0
 10
126.9528540491401
 20
142.7548745053065
 30
0.0
 10
126.9004536607784
 20
143.4970592155723
 30
0.0
 10
126.8481167034871
 20
144.227081347354
 30
0.0
 10
126.7958131195881
 20
144.9262357356938
 30
0.0
 10
126.7434841725424
 20
145.5763824185272
 30
0.0
 10
126.6910855869171
 20
146.1580997594911
 30
0.0
 10
126.63873649015
 20
146.6535738838415
 30
0.0
 10
126.5864315251301
 20
147.0545052697916
 30
0.0
 10
126.5341126793913
 20
147.3477785146894
 30
0.0
 10
126.4823260853474
 20
147.5322674565616
 30
0.0
 10
126.4480530427654
 20
147.5515952776733
 30
0.0
 10
126.4312176995369
 20
147.5610893429141
 30
0.0
  0
SPLINE
  5
1B5
330
1F
100
AcDbEntity
  8
0
  6
Continuous
 62
     8
370
    15
100
AcDbSpline
210
0.0
220
0.0
230
1.0
 70
     8
 71
     3
 72
    27
 73
    23
 74
     0
 42
0.00000001
 43
0.00000001
 12
1.0
 22
0.0
 32
0.0
 13
1.0
 23
0.0
 33
0.0
 40
0.0
 40
0.0
 40
0.0
 40
0.0
 40
0.0490455284541965
 40
0.1013477059233369
 40
0.1536974541941495
 40
0.2060224947177633
 40
0.2582887693132206
 40
0.3105804984557122
 40
0.362926927926879
 40
0.4152605891454991
 40
0.4675331435200866
 40
0.5198143531876687
 40
0.572155000001082
 40
0.6244958814396258
 40
0.6767777737044012
 40
0.7290512727565199
 40
0.7813854271753148
 40
0.8337317369701277
 40
0.8860234015698081
 40
0.9382910164305068
 40
0.9906185759161684
 40
1.0
 40
1.0
 40
1.0
 40
1.0
 10
125.4316355019891
 20
138.5691752631683
 30
0.0
 10
125.4152594277765
 20
138.5773031197602
 30
0.0
 10
125.3814198993671
 20
138.5940985269182
 30
0.0
 10
125.3301427247936
 20
138.7737463932082
 30
0.0
 10
125.2778396620436
 20
139.0603974566016
 30
0.0
 10
125.2255172026941
 20
139.4554440191017
 30
0.0
 10
125.1731231584111
 20
139.9480231530998
 30
0.0
 10
125.1207641273375
 20
140.5277016240127
 30
0.0
 10
125.0684579266264
 20
141.1745324494291
 30
0.0
 10
125.0161430524294
 20
141.8712407467114
 30
0.0
 10
124.963758330808
 20
142.600407209395
 30
0.0
 10
124.9113858034005
 20
143.3425436822033
 30
0.0
 10
124.8590760030554
 20
144.0769537968508
 30
0.0
 10
124.8067662153289
 20
144.7846948880764
 30
0.0
 10
124.7543937524888
 20
145.4467857939617
 30
0.0
 10
124.7020094395758
 20
146.0421391530801
 30
0.0
 10
124.6496946506967
 20
146.5572938116237
 30
0.0
 10
124.5973880889588
 20
146.9795939753503
 30
0.0
 10
124.5450284617575
 20
147.3008402468372
 30
0.0
 10
124.492633860901
 20
147.4931234631438
 30
0.0
 10
124.4546392346971
 20
147.5744249886969
 30
0.0
 10
124.4340725741322
 20
147.5560479217567
 30
0.0
 10
124.4309458889466
 20
147.5532541136528
 30
0.0
  0
SPLINE
  5
1B6
330
1F
100
AcDbEntity
  8
0
  6
Continuous
 62
     8
370
    15
100
AcDbSpline
210
0.0
220
0.0
230
1.0
 70
     8
 71
     3
 72
     9
 73
     5
 74
     0
 42
0.00000001
 43
0.00000001
 12
1.0
 22
0.0
 32
0.0
 13
1.0
 23
0.0
 33
0.0
 40
0.0
 40
0.0
 40
0.0
 40
0.0
 40
0.5284503318594446
 40
1.0
 40
1.0
 40
1.0
 40
1.0
 10
124.2309521811634
 20
146.2993691276304
 30
0.0
 10
124.2639086978471
 20
146.3022857589779
 30
0.0
 10
124.3262731523602
 20
146.3078049746388
 30
0.0
 10
124.3752338213844
 20
146.3393022112606
 30
0.0
 10
124.3983212086147
 20
146.3541547227369
 30
0.0
  0
SPLINE
  5
1B7
330
1F
100
AcDbEntity
  8
0
  6
Continuous
 62
     8
370
    15
100
AcDbSpline
210
0.0
220
0.0
230
1.0
 70
     8
 71
     3
 72
    13
 73
     9
 74
     0
 42
0.00000001
 43
0.00000001
 12
1.0
 22
0.0
 32
0.0
 13
1.0
 23
0.0
 33
0.0
 40
0.0
 40
0.0
 40
0.0
 40
0.0
 40
0.2337569059413598
 40
0.4688521206446714
 40
0.5861491731210375
 40
0.703126047426157
 40
0.9376076887992982
 40
1.0
 40
1.0
 40
1.0
 40
1.0
 10
124.2309510631491
 20
146.2993651210048
 30
0.0
 10
124.1984237562392
 20
146.3026701518734
 30
0.0
 10
124.1331829165636
 20
146.3092991356261
 30
0.0
 10
124.0639698802608
 20
146.3482124951448
 30
0.0
 10
124.021537446567
 20
146.3884891366115
 30
0.0
 10
123.9919242005225
 20
146.4351679308942
 30
0.0
 10
123.9758041044286
 20
146.482693666988
 30
0.0
 10
123.9849630783518
 20
146.5152749929343
 30
0.0
 10
123.9868879678422
 20
146.5221224250183
 30
0.0
  0
SPLINE
  5
1B8
330
1F
100
AcDbEntity
  8
0
  6
Continuous
 62
     8
370
    15
100
AcDbSpline
210
0.0
220
0.0
230
1.0
 70
     8
 71
     3
 72
    27
 73
    23
 74
     0
 42
0.00000001
 43
0.00000001
 12
1.0
 22
0.0
 32
0.0
 13
1.0
 23
0.0
 33
0.0
 40
0.0
 40
0.0
 40
0.0
 40
0.0
 40
0.0424683301724336
 40
0.0947408735244049
 40
0.1470721898528436
 40
0.1994282168918981
 40
0.2517366674236873
 40
0.304005437679932
 40
0.3563269521200044
 40
0.4086843267859975
 40
0.4610033618487083
 40
0.5132717380230845
 40
0.5655827842707959
 40
0.6179393441256847
 40
0.670268373723142
 40
0.7225396723206748
 40
0.7748400814082909
 40
0.8271937122338228
 40
0.8795317107029482
 40
0.9318089410365973
 40
0.9840991373312434
 40
0.9999999999999999
 40
0.9999999999999999
 40
0.9999999999999999
 40
0.9999999999999999
 10
118.4306331907927
 20
147.5540777382932
 30
0.0
 10
118.4447991439146
 20
147.5509424599113
 30
0.0
 10
118.476401393582
 20
147.5439480946646
 30
0.0
 10
118.5255184830773
 20
147.3846149401337
 30
0.0
 10
118.5778390836965
 20
147.1106180593104
 30
0.0
 10
118.6301437564777
 20
146.7264288981881
 30
0.0
 10
118.6824896154193
 20
146.2461393260689
 30
0.0
 10
118.7348891265136
 20
145.6772443453218
 30
0.0
 10
118.7872206526391
 20
145.0369966080514
 30
0.0
 10
118.8395241611071
 20
144.3448051546753
 30
0.0
 10
118.8918582855925
 20
143.6186688764781
 30
0.0
 10
118.944258360014
 20
142.877040445801
 30
0.0
 10
118.9966013190679
 20
142.1408397267437
 30
0.0
 10
119.0489052772562
 20
141.4292875065116
 30
0.0
 10
119.1012294763478
 20
140.7607655805173
 30
0.0
 10
119.153625293356
 20
140.1547720465881
 30
0.0
 10
119.205981171152
 20
139.6298429927967
 30
0.0
 10
119.2582866200442
 20
139.1968990255024
 30
0.0
 10
119.3106038035304
 20
138.8635402671985
 30
0.0
 10
119.3629883868518
 20
138.6521646903236
 30
0.0
 10
119.4032012822415
 20
138.5597372591756
 30
0.0
 10
119.4259266021594
 20
138.5761498183108
 30
0.0
 10
119.4312257160992
 20
138.5799769160684
 30
0.0
  0
SPLINE
  5
1B9
330
1F
100
AcDbEntity
  8
0
  6
Continuous
 62
     8
370
    15
100
AcDbSpline
210
0.0
220
0.0
230
1.0
 70
     8
 71
     3
 72
    27
 73
    23
 74
     0
 42
0.00000001
 43
0.00000001
 12
1.0
 22
0.0
 32
0.0
 13
1.0
 23
0.0
 33
0.0
 40
0.0
 40
0.0
 40
0.0
 40
0.0
 40
0.0321832990410826
 40
0.0844249098389301
 40
0.1367179436604021
 40
0.1889922821878368
 40
0.2412063187507467
 40
0.2934375615353016
 40
0.3457261576524398
 40
0.3980084412145126
 40
0.450230236539357
 40
0.5024520318642018
 40
0.5547343154262752
 40
0.6070229115434119
 40
0.6592541543279626
 40
0.7114681908908648
 40
0.7637425294182875
 40
0.8160355632397458
 40
0.8682771740375765
 40
0.9204859957978698
 40
0.9727510769127483
 40
0.9999999999999999
 40
0.9999999999999999
 40
0.9999999999999999
 40
0.9999999999999999
 10
120.429935065749
 20
147.5500241062312
 30
0.0
 10
120.4406913663434
 20
147.5519285467328
 30
0.0
 10
120.4689078554833
 20
147.5569243744583
 30
0.0
 10
120.5145747245458
 20
147.4246909385176
 30
0.0
 10
120.5668789169769
 20
147.1772491446281
 30
0.0
 10
120.6191973621421
 20
146.8160931084318
 30
0.0
 10
120.6715871071125
 20
146.3547216489763
 30
0.0
 10
120.723952967014
 20
145.8009991785999
 30
0.0
 10
120.7762607587733
 20
145.1747136157258
 30
0.0
 10
120.8285728248708
 20
144.4927821435479
 30
0.0
 10
120.8809516220835
 20
143.7722588291629
 30
0.0
 10
120.9333304197328
 20
143.0319080101782
 30
0.0
 10
120.9856424845188
 20
142.2927689856159
 30
0.0
 10
121.0379502810872
 20
141.5740040963231
 30
0.0
 10
121.0903161230847
 20
140.8946808558072
 30
0.0
 10
121.1427059348566
 20
140.2760267527477
 30
0.0
 10
121.195024130423
 20
139.7329432856893
 30
0.0
 10
121.247329254614
 20
139.2781697453141
 30
0.0
 10
121.299681625233
 20
138.922079562614
 30
0.0
 10
121.3520793737979
 20
138.6872010990629
 30
0.0
 10
121.3960445713391
 20
138.5715189293157
 30
0.0
 10
121.4225724087439
 20
138.5798791020656
 30
0.0
 10
121.4316633230849
 20
138.5827440779468
 30
0.0
  0
SPLINE
  5
1BA
330
1F
100
AcDbEntity
  8
0
  6
Continuous
 62
     8
370
    15
100
AcDbSpline
210
0.0
220
0.0
230
1.0
 70
     8
 71
     3
 72
    27
 73
    23
 74
     0
 42
0.00000001
 43
0.00000001
 12
1.0
 22
0.0
 32
0.0
 13
1.0
 23
0.0
 33
0.0
 40
0.0
 40
0.0
 40
0.0
 40
0.0
 40
0.0219083450581597
 40
0.0742069876048918
 40
0.1265212507531706
 40
0.1787823321839891
 40
0.2310143250145575
 40
0.2833040054338199
 40
0.3356211954089412
 40
0.3878929060011566
 40
0.4401219786060916
 40
0.4924016720060553
 40
0.5447196761795682
 40
0.5970018470925099
 40
0.6492313134829837
 40
0.7015004303111468
 40
0.7538170878710884
 40
0.8061090533018029
 40
0.8583422899507908
 40
0.910600965056778
 40
0.9629143059149063
 40
1.0
 40
1.0
 40
1.0
 40
1.0
 10
122.4293116774519
 20
147.5494140769924
 30
0.0
 10
122.4366304763488
 20
147.5533400406667
 30
0.0
 10
122.4614203916795
 20
147.5666378930121
 30
0.0
 10
122.5036149897348
 20
147.4601418506568
 30
0.0
 10
122.5559225106989
 20
147.2400185874133
 30
0.0
 10
122.608277833846
 20
146.9015328802647
 30
0.0
 10
122.6606737993745
 20
146.4580218511522
 30
0.0
 10
122.7129979586333
 20
145.9217799801191
 30
0.0
 10
122.7653019274912
 20
145.310419034483
 30
0.0
 10
122.8176448837297
 20
144.6394442781204
 30
0.0
 10
122.8700449587516
 20
143.9246975084151
 30
0.0
 10
122.9223790836488
 20
143.1865815789965
 30
0.0
 10
122.9746825898671
 20
142.4454137871504
 30
0.0
 10
123.0270141245719
 20
141.7204593799406
 30
0.0
 10
123.0794136036248
 20
141.032108068721
 30
0.0
 10
123.1317595822596
 20
140.4003312196237
 30
0.0
 10
123.1840638079385
 20
139.8391861106454
 30
0.0
 10
123.2363860760879
 20
139.3633457162568
 30
0.0
 10
123.2887797230907
 20
138.9867457567563
 30
0.0
 10
123.3411405353034
 20
138.7283482114246
 30
0.0
 10
123.3883675389048
 20
138.5845830478298
 30
0.0
 10
123.4181949809179
 20
138.5808731489817
 30
0.0
 10
123.4305683962522
 20
138.5793341595076
 30
0.0
  0
SPLINE
  5
1BB
330
1F
100
AcDbEntity
  8
0
  6
Continuous
 62
     8
370
    15
100
AcDbSpline
210
0.0
220
0.0
230
1.0
 70
     8
 71
     3
 72
     9
 73
     5
 74
     0
 42
0.00000001
 43
0.00000001
 12
1.0
 22
0.0
 32
0.0
 13
1.0
 23
0.0
 33
0.0
 40
0.0
 40
0.0
 40
0.0
 40
0.0
 40
0.621153581425111
 40
0.9999999999999999
 40
0.9999999999999999
 40
0.9999999999999999
 40
0.9999999999999999
 10
124.230951063149
 20
146.2993651698197
 30
0.0
 10
124.213508031882
 20
146.1649469385156
 30
0.0
 10
124.1854263596697
 20
145.9485459785539
 30
0.0
 10
124.1573067241117
 20
145.67038189474
 30
0.0
 10
124.1466537008889
 20
145.5650004278109
 30
0.0
  0
SPLINE
  5
1BC
330
1F
100
AcDbEntity
  8
0
  6
Continuous
 62
     8
370
    15
100
AcDbSpline
210
0.0
220
0.0
230
1.0
 70
     8
 71
     3
 72
    12
 73
     8
 74
     0
 42
0.00000001
 43
0.00000001
 12
1.0
 22
0.0
 32
0.0
 13
1.0
 23
0.0
 33
0.0
 40
0.0
 40
0.0
 40
0.0
 40
0.0
 40
0.043949164020479
 40
0.3297385566674825
 40
0.6158499755278211
 40
0.9019601135685701
 40
1.0
 40
1.0
 40
1.0
 40
1.0
 10
123.7155644480701
 20
140.5650004278109
 30
0.0
 10
123.712880871295
 20
140.5373644365474
 30
0.0
 10
123.6927467287638
 20
140.3300191530957
 30
0.0
 10
123.6551352867146
 20
140.0076935730779
 30
0.0
 10
123.6028243418741
 20
139.6248570730394
 30
0.0
 10
123.5619689722109
 20
139.38078715982
 30
0.0
 10
123.5385121710514
 20
139.3001295645806
 30
0.0
 10
123.5325257022886
 20
139.2795447384102
 30
0.0
  0
SPLINE
  5
1BD
330
1F
100
AcDbEntity
  8
0
  6
Continuous
 62
     8
370
    15
100
AcDbSpline
210
0.0
220
0.0
230
1.0
 70
     8
 71
     3
 72
    11
 73
     7
 74
     0
 42
0.00000001
 43
0.00000001
 12
1.0
 22
0.0
 32
0.0
 13
1.0
 23
0.0
 33
0.0
 40
0.0
 40
0.0
 40
0.0
 40
0.0
 40
0.1926861263021976
 40
0.4787189484379087
 40
0.7644240345361731
 40
1.0
 40
1.0
 40
1.0
 40
1.0
 10
122.3294919150959
 20
146.8507129396753
 30
0.0
 10
122.3177381994248
 20
146.8041415056408
 30
0.0
 10
122.2885366865069
 20
146.6884371300529
 30
0.0
 10
122.2419257819618
 20
146.3900141714863
 30
0.0
 10
122.1926042992096
 20
146.0113295210182
 30
0.0
 10
122.1607688584077
 20
145.7039228460241
 30
0.0
 10
122.1463818695072
 20
145.5650004278109
 30
0.0
  0
SPLINE
  5
1BE
330
1F
100
AcDbEntity
  8
0
  6
Continuous
 62
     8
370
    15
100
AcDbSpline
210
0.0
220
0.0
230
1.0
 70
     8
 71
     3
 72
    11
 73
     7
 74
     0
 42
0.00000001
 43
0.00000001
 12
1.0
 22
0.0
 32
0.0
 13
1.0
 23
0.0
 33
0.0
 40
0.0
 40
0.0
 40
0.0
 40
0.0
 40
0.2694622292500912
 40
0.5536319211697208
 40
0.8375802367550101
 40
1.0
 40
1.0
 40
1.0
 40
1.0
 10
121.7157738021321
 20
140.5650004278109
 30
0.0
 10
121.699215137016
 20
140.4080682005952
 30
0.0
 10
121.6651940216791
 20
140.085638260456
 30
0.0
 10
121.6137875039954
 20
139.6977308134751
 30
0.0
 10
121.568899751861
 20
139.4152036373656
 30
0.0
 10
121.541442615647
 20
139.3129282241222
 30
0.0
 10
121.5314517991555
 20
139.2757133129477
 30
0.0
  0
SPLINE
  5
1BF
330
1F
100
AcDbEntity
  8
0
  6
Continuous
 62
     8
370
    15
100
AcDbSpline
210
0.0
220
0.0
230
1.0
 70
     8
 71
     3
 72
    12
 73
     8
 74
     0
 42
0.00000001
 43
0.00000001
 12
1.0
 22
0.0
 32
0.0
 13
1.0
 23
0.0
 33
0.0
 40
0.0
 40
0.0
 40
0.0
 40
0.0
 40
0.1318430300024914
 40
0.4175918105122793
 40
0.7030920001605065
 40
0.9888553198909643
 40
1.0
 40
1.0
 40
1.0
 40
1.0
 10
120.3293016862462
 20
146.8477772715796
 30
0.0
 10
120.3212587146357
 20
146.8187696105103
 30
0.0
 10
120.2957838823547
 20
146.7268924615672
 30
0.0
 10
120.2528534519877
 20
146.4677549106693
 30
0.0
 10
120.2004555010161
 20
146.0715199556751
 30
0.0
 10
120.1648934346922
 20
145.7602002417456
 30
0.0
 10
120.1467793711165
 20
145.5720623351575
 30
0.0
 10
120.1460994451996
 20
145.5650004278109
 30
0.0
  0
SPLINE
  5
1C0
330
1F
100
AcDbEntity
  8
0
  6
Continuous
 62
     8
370
    15
100
AcDbSpline
210
0.0
220
0.0
230
1.0
 70
     8
 71
     3
 72
    11
 73
     7
 74
     0
 42
0.00000001
 43
0.00000001
 12
1.0
 22
0.0
 32
0.0
 13
1.0
 23
0.0
 33
0.0
 40
0.0
 40
0.0
 40
0.0
 40
0.0
 40
0.2094457806643601
 40
0.4966295401806994
 40
0.7834798728355871
 40
1.0
 40
1.0
 40
1.0
 40
1.0
 10
119.7152134331781
 20
140.5650004278109
 30
0.0
 10
119.7024904104887
 20
140.4412328857233
 30
0.0
 10
119.6723220829728
 20
140.1477601916386
 30
0.0
 10
119.6247394192963
 20
139.7730250781681
 30
0.0
 10
119.5766317148544
 20
139.4560928204541
 30
0.0
 10
119.5460191024738
 20
139.332037748513
 30
0.0
 10
119.5328513716383
 20
139.2786766117435
 30
0.0
  0
LINE
  5
1C1
330
1F
100
AcDbEntity
  8
0
  6
Continuous
 62
     8
370
    15
100
AcDbLine
 10
118.3302361479
 20
146.8544305682
 30
0.0
 11
118.3187421497
 21
146.8150004278
 31
0.0
  0
LINE
  5
1C2
330
1F
100
AcDbEntity
  8
0
  6
Continuous
 62
     8
370
    15
100
AcDbLine
 10
117.5417977711
 20
139.3150004278
 30
0.0
 11
117.5309521812
 21
139.262775366
 31
0.0
  0
DIMENSION
  5
1C3
330
1F
100
AcDbEntity
  8
0
  6
Continuous
 62
     7
370
     0
100
AcDbDimension
  2
_D_2
 10
93.7085278276
 20
139.5650004278
 30
0.0
 11
93.7085278276
 21
142.9074910947
 31
0.0
 70
   160
  1
%%c<>
 71
     2
 42
-1.0
  3
SLDDIMSTYLE3
100
AcDbAlignedDimension
 13
103.7085278276
 23
146.5650004278
 33
0.0
 14
103.7085278276
 24
139.5650004278
 34
0.0
 50
90.0
100
AcDbRotatedDimension
  0
DIMENSION
  5
1D1
330
1F
100
AcDbEntity
  8
0
  6
Continuous
 62
     7
370
     0
100
AcDbDimension
  2
_D_3
 10
103.7085278276
 20
162.3650004278
 30
0.0
 11
114.5121259346
 21
162.3650004278
 31
0.0
 70
   160
  1
<>
 71
     2
 42
-1.0
  3
SLDDIMSTYLE3
100
AcDbAlignedDimension
 13
109.2085278276
 23
149.0650004278
 33
0.0
 14
103.7085278276
 24
146.5650004278
 34
0.0
100
AcDbRotatedDimension
  0
DIMENSION
  5
1DD
330
1F
100
AcDbEntity
  8
0
  6
Continuous
 62
     7
370
     0
100
AcDbDimension
  2
_D_4
 10
134.2085278276
 20
162.3650004278
 30
0.0
 11
131.9810803669
 21
162.3650004278
 31
0.0
 70
   160
  1
<>
 71
     2
 42
-1.0
  3
SLDDIMSTYLE3
100
AcDbAlignedDimension
 13
129.2085278276
 23
146.3150004278
 33
0.0
 14
134.2085278276
 24
150.5705539273
 34
0.0
100
AcDbRotatedDimension
  0
DIMENSION
  5
1E9
330
1F
100
AcDbEntity
  8
0
  6
Continuous
 62
     7
370
     0
100
AcDbDimension
  2
_D_5
 10
146.2085278276
 20
162.3650004278
 30
0.0
 11
139.295286824
 21
162.3650004278
 31
0.0
 70
   160
  1
<>
 71
     2
 42
-1.0
  3
SLDDIMSTYLE1
100
AcDbAlignedDimension
 13
134.2085278276
 23
150.5705539273
 33
0.0
 14
146.2085278276
 24
147.0650004278
 34
0.0
100
AcDbRotatedDimension
  0
DIMENSION
  5
1F3
330
1F
100
AcDbEntity
  8
0
  6
Continuous
 62
     7
370
     0
100
AcDbDimension
  2
_D_6
 10
148.2085278276
 20
170.7635299704
 30
0.0
 11
140.9615548508
 21
170.7635299704
 31
0.0
 70
   160
  1
<>
 71
     2
 42
-1.0
  3
SLDDIMSTYLE1
100
AcDbAlignedDimension
 13
134.2085278276
 23
150.5705539273
 33
0.0
 14
148.2085278276
 24
145.0650004278
 34
0.0
100
AcDbRotatedDimension
  0
DIMENSION
  5
1FD
330
1F
100
AcDbEntity
  8
0
  6
Continuous
 62
     7
370
     0
100
AcDbDimension
  2
_D_7
 10
170.2085278276
 20
134.9820966592
 30
0.0
 11
170.2085278276
 21
142.9074910947
 31
0.0
 70
   160
  1
<>
 71
     2
 42
-1.0
  3
SLDDIMSTYLE1
100
AcDbAlignedDimension
 13
144.4923909003
 23
151.1479041965
 33
0.0
 14
144.4923909003
 24
134.9820966592
 34
0.0
 50
90.0
100
AcDbRotatedDimension
  0
DIMENSION
  5
207
330
1F
100
AcDbEntity
  8
0
  6
Continuous
 62
     7
370
     0
100
AcDbDimension
  2
_D_8
 10
158.2085278276
 20
140.5650004278
 30
0.0
 11
158.2085278276
 21
128.8672671073
 31
0.0
 70
   160
  1
%%c<>
 71
     2
 42
-1.0
  3
SLDDIMSTYLE3
100
AcDbAlignedDimension
 13
147.7085278276
 23
145.5650004278
 33
0.0
 14
147.7085278276
 24
140.5650004278
 34
0.0
 50
90.0
100
AcDbRotatedDimension
  0
DIMENSION
  5
214
330
1F
100
AcDbEntity
  8
0
  6
Continuous
 62
     7
370
     0
100
AcDbDimension
  2
_D_9
 10
134.2085278276
 20
126.7555119817
 30
0.0
 11
139.295286824
 21
126.7555119817
 31
0.0
 70
   160
  1
<>
 71
     2
 42
-1.0
  3
SLDDIMSTYLE3
100
AcDbAlignedDimension
 13
131.2085278276
 23
135.5594469283
 33
0.0
 14
134.2085278276
 24
135.5594469283
 34
0.0
 50
0.0
100
AcDbRotatedDimension
  0
DIMENSION
  5
220
330
1F
100
AcDbEntity
  8
0
  6
Continuous
 62
     7
370
     0
100
AcDbDimension
  2
_D_10
 10
119.2085278276
 20
113.9848969766
 30
0.0
 11
135.5025442233
 21
113.9848969766
 31
0.0
 70
   160
  1
<>st
 71
     2
 42
-1.0
  3
SLDDIMSTYLE3
100
AcDbAlignedDimension
 13
129.2085278276
 23
139.8150004278
 33
0.0
 14
119.2085278276
 24
139.3150004278
 34
0.0
100
AcDbRotatedDimension
  0
DIMENSION
  5
22D
330
1F
100
AcDbEntity
  8
0
  6
Continuous
 62
     7
370
     0
100
AcDbDimension
  2
_D_11
 10
148.2085278276
 20
104.2650004278
 30
0.0
 11
126.2045907997
 21
104.2650004278
 31
0.0
 70
   160
  1
<>
 71
     2
 42
-1.0
  3
SLDDIMSTYLE1
100
AcDbAlignedDimension
 13
103.7085278276
 23
139.5650004278
 33
0.0
 14
148.2085278276
 24
141.0650004278
 34
0.0
100
AcDbRotatedDimension
  0
MTEXT
  5
237
330
1F
100
AcDbEntity
  8
0
  6
Continuous
 62
     7
370
     0
100
AcDbMText
 10
88.6869999524
 20
162.2431970685
 30
0.0
 40
3.5
 41
0.0
 71
     1
 72
     1
  1
PF
  7
SLDTEXTSTYLE1
 73
     1
 44
1.0
  0
LEADER
  5
238
330
1F
100
AcDbEntity
  8
0
  6
Continuous
 62
     7
370
     0
100
AcDbLeader
  3
SLDDIMSTYLE2
 76
     3
 10
111.738797668
 20
150.8999207254
 30
0.0
 10
94.0368043088
 20
157.7199281867
 30
0.0
 10
88.5098743268
 20
157.7199281867
 30
0.0
  0
MTEXT
  5
239
330
1F
100
AcDbEntity
  8
0
  6
Continuous
 62
     7
370
     0
100
AcDbMText
 10
90.1923236378
 20
125.7065900799
 30
0.0
 40
3.5
 41
0.0
 71
     1
 72
     1
  1
BF-6
  7
SLDTEXTSTYLE1
 73
     1
 44
1.0
  0
LEADER
  5
23A
330
1F
100
AcDbEntity
  8
0
  6
Continuous
 62
     7
370
     0
100
AcDbLeader
  3
SLDDIMSTYLE2
 76
     3
 10
112.9939641498
 20
128.7776114844
 30
0.0
 10
99.6023339318
 20
121.2746858169
 30
0.0
 10
90.1256732496
 20
121.2746858169
 30
0.0
  0
MTEXT
  5
23B
330
1F
100
AcDbEntity
  8
0
  6
Continuous
 62
     7
370
     0
100
AcDbMText
 10
154.688537082
 20
165.8510430946
 30
0.0
 40
3.5
 41
0.0
 71
     1
 72
     1
  1
M10 P=1.0
  7
SLDTEXTSTYLE1
 73
     1
 44
1.0
  0
LEADER
  5
23C
330
1F
100
AcDbEntity
  8
0
  6
Continuous
 62
     7
370
     0
100
AcDbLeader
  3
SLDDIMSTYLE2
 76
     3
 10
137.2322140664
 20
148.0181484206
 30
0.0
 10
154.0780969479
 20
161.3105924596
 30
0.0
 10
177.3788150808
 20
161.3105924596
 30
0.0
  0
LINE
  5
23D
330
1F
100
AcDbEntity
  8
0
  6
CENTERX2
 62
     7
370
     0
100
AcDbLine
 10
152.196065946
 20
143.0650004278
 30
0.0
 11
100.9154229515
 21
143.0650004278
 31
0.0
  0
LINE
  5
23E
330
1F
100
AcDbEntity
  8
0
  6
CENTERX2
 62
     7
370
     0
100
AcDbLine
 10
133.7085278276
 20
143.0650004278
 30
0.0
 11
147.2085278276
 21
143.0650004278
 31
0.0
  0
ENDSEC
  0
SECTION
  2
OBJECTS
  0
DICTIONARY
  5
C
330
0
100
AcDbDictionary
281
     1
  3
ACAD_GROUP
350
D
  3
ACAD_LAYOUT
350
1A
  3
ACAD_MLINESTYLE
350
17
  3
ACAD_PLOTSETTINGS
350
19
  3
ACAD_PLOTSTYLENAME
350
E
  0
DICTIONARY
  5
D
102
{ACAD_REACTORS
330
C
102
}
330
C
100
AcDbDictionary
281
     1
  0
DICTIONARY
  5
1A
102
{ACAD_REACTORS
330
C
102
}
330
C
100
AcDbDictionary
281
     1
  3
Layout1
350
1E
  3
Layout2
350
26
  3
Model
350
22
  0
DICTIONARY
  5
17
102
{ACAD_REACTORS
330
C
102
}
330
C
100
AcDbDictionary
281
     1
  3
Standard
350
18
  0
DICTIONARY
  5
19
102
{ACAD_REACTORS
330
C
102
}
330
C
100
AcDbDictionary
281
     1
  0
ACDBDICTIONARYWDFLT
  5
E
102
{ACAD_REACTORS
330
C
102
}
330
C
100
AcDbDictionary
281
     1
  3
Normal
350
F
100
AcDbDictionaryWithDefault
340
F
  0
LAYOUT
  5
1E
102
{ACAD_REACTORS
330
1A
102
}
330
1A
100
AcDbPlotSettings
  1

  2
none_device
  4

  6

 40
0.0
 41
0.0
 42
0.0
 43
0.0
 44
0.0
 45
0.0
 46
0.0
 47
0.0
 48
0.0
 49
0.0
140
0.0
141
0.0
142
1.0
143
1.0
 70
   688
 72
     0
 73
     0
 74
     5
  7

 75
    16
147
1.0
148
0.0
149
0.0
100
AcDbLayout
  1
Layout1
 70
     1
 71
     1
 10
0.0
 20
0.0
 11
420.0
 21
297.0
 12
0.0
 22
0.0
 32
0.0
 14
1.0000000000E+20
 24
1.0000000000E+20
 34
1.0000000000E+20
 15
-1.0000000000E+20
 25
-1.0000000000E+20
 35
-1.0000000000E+20
146
0.0
 13
0.0
 23
0.0
 33
0.0
 16
1.0
 26
0.0
 36
0.0
 17
0.0
 27
1.0
 37
0.0
 76
     0
330
1B
  0
LAYOUT
  5
26
102
{ACAD_REACTORS
330
1A
102
}
330
1A
100
AcDbPlotSettings
  1

  2
none_device
  4

  6

 40
0.0
 41
0.0
 42
0.0
 43
0.0
 44
0.0
 45
0.0
 46
0.0
 47
0.0
 48
0.0
 49
0.0
140
0.0
141
0.0
142
1.0
143
1.0
 70
   688
 72
     0
 73
     0
 74
     5
  7

 75
    16
147
1.0
148
0.0
149
0.0
100
AcDbLayout
  1
Layout2
 70
     1
 71
     2
 10
0.0
 20
0.0
 11
0.0
 21
0.0
 12
0.0
 22
0.0
 32
0.0
 14
0.0
 24
0.0
 34
0.0
 15
0.0
 25
0.0
 35
0.0
146
0.0
 13
0.0
 23
0.0
 33
0.0
 16
1.0
 26
0.0
 36
0.0
 17
0.0
 27
1.0
 37
0.0
 76
     0
330
23
  0
LAYOUT
  5
22
102
{ACAD_REACTORS
330
1A
102
}
330
1A
100
AcDbPlotSettings
  1

  2
none_device
  4

  6

 40
0.0
 41
0.0
 42
0.0
 43
0.0
 44
0.0
 45
0.0
 46
0.0
 47
0.0
 48
0.0
 49
0.0
140
0.0
141
0.0
142
1.0
143
1.0
 70
  1712
 72
     0
 73
     0
 74
     0
  7

 75
     0
147
1.0
148
0.0
149
0.0
100
AcDbLayout
  1
Model
 70
     1
 71
     0
 10
0.0
 20
0.0
 11
210.0
 21
297.0
 12
0.0
 22
0.0
 32
0.0
 14
0.0
 24
0.0
 34
0.0
 15
210.0
 25
297.0
 35
0.0
146
0.0
 13
0.0
 23
0.0
 33
0.0
 16
1.0
 26
0.0
 36
0.0
 17
0.0
 27
1.0
 37
0.0
 76
     0
330
1F
331
29
  0
MLINESTYLE
  5
18
102
{ACAD_REACTORS
330
17
102
}
330
17
100
AcDbMlineStyle
  2
Standard
 70
     0
  3

 62
   256
 51
90.0
 52
90.0
 71
     2
 49
0.5
 62
   256
  6
BYLAYER
 49
-0.5
 62
   256
  6
BYLAYER
  0
ACDBPLACEHOLDER
  5
F
102
{ACAD_REACTORS
330
E
102
}
330
E
  0
ENDSEC
  0
EOF
