  0
SECTION
  2
HEADER
  9
$ACADVER
  1
AC1015
  9
$ACADMAINTVER
 70
     6
  9
$DWGCODEPAGE
  3
DOS932
  9
$INSBASE
 10
0.0
 20
0.0
 30
0.0
  9
$EXTMIN
 10
0.0
 20
0.0
 30
0.0
  9
$EXTMAX
 10
210.0
 20
297.0
 30
0.0
  9
$LIMMIN
 10
0.0
 20
0.0
  9
$LIMMAX
 10
210.0
 20
297.0
  9
$ORTHOMODE
 70
     0
  9
$REGENMODE
 70
     1
  9
$FILLMODE
 70
     1
  9
$QTEXTMODE
 70
     0
  9
$MIRRTEXT
 70
     1
  9
$LTSCALE
 40
1.0
  9
$ATTMODE
 70
     1
  9
$TEXTSIZE
 40
3.5
  9
$TRACEWID
 40
1.0
  9
$TEXTSTYLE
  7
Standard
  9
$CLAYER
  8
0
  9
$CELTYPE
  6
ByLayer
  9
$CECOLOR
 62
   256
  9
$CELTSCALE
 40
1.0
  9
$DISPSILH
 70
     0
  9
$DIMSCALE
 40
1.0
  9
$DIMASZ
 40
2.0
  9
$DIMEXO
 40
1.0
  9
$DIMDLI
 40
3.75
  9
$DIMRND
 40
0.0
  9
$DIMDLE
 40
0.0
  9
$DIMEXE
 40
1.0
  9
$DIMTP
 40
0.0
  9
$DIMTM
 40
0.0
  9
$DIMTXT
 40
3.5
  9
$DIMCEN
 40
2.5
  9
$DIMTSZ
 40
0.0
  9
$DIMTOL
 70
     0
  9
$DIMLIM
 70
     0
  9
$DIMTIH
 70
     1
  9
$DIMTOH
 70
     1
  9
$DIMSE1
 70
     0
  9
$DIMSE2
 70
     0
  9
$DIMTAD
 70
     1
  9
$DIMZIN
 70
     0
  9
$DIMBLK
  1

  9
$DIMASO
 70
     1
  9
$DIMSHO
 70
     1
  9
$DIMPOST
  1

  9
$DIMAPOST
  1

  9
$DIMALT
 70
     0
  9
$DIMALTD
 70
     3
  9
$DIMALTF
 40
0.0393700787
  9
$DIMLFAC
 40
1.0
  9
$DIMTOFL
 70
     1
  9
$DIMTVP
 40
0.0
  9
$DIMTIX
 70
     0
  9
$DIMSOXD
 70
     0
  9
$DIMSAH
 70
     0
  9
$DIMBLK1
  1

  9
$DIMBLK2
  1

  9
$DIMSTYLE
  2
ISO-25
  9
$DIMCLRD
 70
     0
  9
$DIMCLRE
 70
     0
  9
$DIMCLRT
 70
     0
  9
$DIMTFAC
 40
1.0
  9
$DIMGAP
 40
1.524
  9
$DIMJUST
 70
     0
  9
$DIMSD1
 70
     0
  9
$DIMSD2
 70
     0
  9
$DIMTOLJ
 70
     0
  9
$DIMTZIN
 70
     0
  9
$DIMALTZ
 70
     0
  9
$DIMALTTZ
 70
     0
  9
$DIMUPT
 70
     0
  9
$DIMDEC
 70
     2
  9
$DIMTDEC
 70
     2
  9
$DIMALTU
 70
     2
  9
$DIMALTTD
 70
     3
  9
$DIMTXSTY
  7
Standard
  9
$DIMAUNIT
 70
     0
  9
$DIMADEC
 70
     2
  9
$DIMALTRND
 40
0.0
  9
$DIMAZIN
 70
     0
  9
$DIMDSEP
 70
    44
  9
$DIMATFIT
 70
     3
  9
$DIMFRAC
 70
     0
  9
$DIMLDRBLK
  1

  9
$DIMLUNIT
 70
     2
  9
$DIMLWD
 70
    -2
  9
$DIMLWE
 70
    -2
  9
$DIMTMOVE
 70
     0
  9
$LUNITS
 70
     2
  9
$LUPREC
 70
     2
  9
$SKETCHINC
 40
1.0
  9
$FILLETRAD
 40
10.0
  9
$AUNITS
 70
     0
  9
$AUPREC
 70
     2
  9
$MENU
  1
.
  9
$ELEVATION
 40
0.0
  9
$PELEVATION
 40
0.0
  9
$THICKNESS
 40
0.0
  9
$LIMCHECK
 70
     0
  9
$CHAMFERA
 40
10.0
  9
$CHAMFERB
 40
10.0
  9
$CHAMFERC
 40
20.0
  9
$CHAMFERD
 40
0.0
  9
$SKPOLY
 70
     0
  9
$TDCREATE
 40
2456909.887090926
  9
$TDUCREATE
 40
2456909.512090926
  9
$TDUPDATE
 40
2456909.887092546
  9
$TDUUPDATE
 40
2456909.512092546
  9
$TDINDWG
 40
0.0000000116
  9
$TDUSRTIMER
 40
0.0000000116
  9
$USRTIMER
 70
     1
  9
$ANGBASE
 50
0.0
  9
$ANGDIR
 70
     0
  9
$PDMODE
 70
     0
  9
$PDSIZE
 40
-1.0
  9
$PLINEWID
 40
0.0
  9
$SPLFRAME
 70
     0
  9
$SPLINETYPE
 70
     6
  9
$SPLINESEGS
 70
     8
  9
$HANDSEED
  5
1B5
  9
$SURFTAB1
 70
     6
  9
$SURFTAB2
 70
     6
  9
$SURFTYPE
 70
     6
  9
$SURFU
 70
     6
  9
$SURFV
 70
     6
  9
$UCSBASE
  2

  9
$UCSNAME
  2

  9
$UCSORG
 10
0.0
 20
0.0
 30
0.0
  9
$UCSXDIR
 10
1.0
 20
0.0
 30
0.0
  9
$UCSYDIR
 10
0.0
 20
1.0
 30
0.0
  9
$UCSORTHOREF
  2

  9
$UCSORTHOVIEW
 70
     0
  9
$UCSORGTOP
 10
0.0
 20
0.0
 30
0.0
  9
$UCSORGBOTTOM
 10
0.0
 20
0.0
 30
0.0
  9
$UCSORGLEFT
 10
0.0
 20
0.0
 30
0.0
  9
$UCSORGRIGHT
 10
0.0
 20
0.0
 30
0.0
  9
$UCSORGFRONT
 10
0.0
 20
0.0
 30
0.0
  9
$UCSORGBACK
 10
0.0
 20
0.0
 30
0.0
  9
$PUCSBASE
  2

  9
$PUCSNAME
  2

  9
$PUCSORG
 10
0.0
 20
0.0
 30
0.0
  9
$PUCSXDIR
 10
1.0
 20
0.0
 30
0.0
  9
$PUCSYDIR
 10
0.0
 20
1.0
 30
0.0
  9
$PUCSORTHOREF
  2

  9
$PUCSORTHOVIEW
 70
     0
  9
$PUCSORGTOP
 10
0.0
 20
0.0
 30
0.0
  9
$PUCSORGBOTTOM
 10
0.0
 20
0.0
 30
0.0
  9
$PUCSORGLEFT
 10
0.0
 20
0.0
 30
0.0
  9
$PUCSORGRIGHT
 10
0.0
 20
0.0
 30
0.0
  9
$PUCSORGFRONT
 10
0.0
 20
0.0
 30
0.0
  9
$PUCSORGBACK
 10
0.0
 20
0.0
 30
0.0
  9
$USERI1
 70
     0
  9
$USERI2
 70
     0
  9
$USERI3
 70
     0
  9
$USERI4
 70
     0
  9
$USERI5
 70
     0
  9
$USERR1
 40
0.0
  9
$USERR2
 40
0.0
  9
$USERR3
 40
0.0
  9
$USERR4
 40
0.0
  9
$USERR5
 40
0.0
  9
$WORLDVIEW
 70
     1
  9
$SHADEDGE
 70
     3
  9
$SHADEDIF
 70
    70
  9
$TILEMODE
 70
     1
  9
$MAXACTVP
 70
    64
  9
$PINSBASE
 10
0.0
 20
0.0
 30
0.0
  9
$PLIMCHECK
 70
     0
  9
$PEXTMIN
 10
1.0000000000E+20
 20
1.0000000000E+20
 30
1.0000000000E+20
  9
$PEXTMAX
 10
-1.0000000000E+20
 20
-1.0000000000E+20
 30
-1.0000000000E+20
  9
$PLIMMIN
 10
0.0
 20
0.0
  9
$PLIMMAX
 10
420.0
 20
297.0
  9
$UNITMODE
 70
     0
  9
$VISRETAIN
 70
     1
  9
$PLINEGEN
 70
     0
  9
$PSLTSCALE
 70
     1
  9
$TREEDEPTH
 70
  3020
  9
$CMLSTYLE
  2
Standard
  9
$CMLJUST
 70
     0
  9
$CMLSCALE
 40
20.0
  9
$PROXYGRAPHICS
 70
     1
  9
$MEASUREMENT
 70
     1
  9
$CELWEIGHT
370
    -1
  9
$ENDCAPS
280
     0
  9
$JOINSTYLE
280
     0
  9
$LWDISPLAY
290
     1
  9
$INSUNITS
 70
     4
  9
$HYPERLINKBASE
  1

  9
$STYLESHEET
  1

  9
$XEDIT
290
     1
  9
$CEPSNTYPE
380
     0
  9
$PSTYLEMODE
290
     1
  9
$FINGERPRINTGUID
  2
{1CF63F31-8975-4521-95BC-81B3AFF7A246}
  9
$VERSIONGUID
  2
{FAEB1C32-E019-11D5-929B-00C0DF256EC4}
  9
$EXTNAMES
290
     1
  9
$PSVPSCALE
 40
0.0
  9
$OLESTARTUP
290
     0
  0
ENDSEC
  0
SECTION
  2
CLASSES
  0
CLASS
  1
ACDBDICTIONARYWDFLT
  2
AcDbDictionaryWithDefault
  3
ObjectDBX Classes
 90
        0
280
     0
281
     0
  0
CLASS
  1
VISUALSTYLE
  2
AcDbVisualStyle
  3
ObjectDBX Classes
 90
     4095
280
     0
281
     0
  0
CLASS
  1
MATERIAL
  2
AcDbMaterial
  3
ObjectDBX Classes
 90
     1153
280
     0
281
     0
  0
CLASS
  1
ACDBPLACEHOLDER
  2
AcDbPlaceHolder
  3
ObjectDBX Classes
 90
        0
280
     0
281
     0
  0
CLASS
  1
LAYOUT
  2
AcDbLayout
  3
ObjectDBX Classes
 90
        0
280
     0
281
     0
  0
ENDSEC
  0
SECTION
  2
TABLES
  0
TABLE
  2
VPORT
  5
8
330
0
100
AcDbSymbolTable
 70
     1
  0
VPORT
  5
29
330
8
100
AcDbSymbolTableRecord
100
AcDbViewportTableRecord
  2
*Active
 70
     0
 10
0.0
 20
0.0
 11
1.0
 21
1.0
 12
105.0
 22
148.5
 13
0.0
 23
0.0
 14
10.0
 24
10.0
 15
10.0
 25
10.0
 16
0.0
 26
0.0
 36
1.0
 17
0.0
 27
0.0
 37
0.0
 40
297.0
 41
0.7070707071
 42
50.0
 43
0.0
 44
0.0
 50
0.0
 51
0.0
 71
     0
 72
  2000
 73
     1
 74
     3
 75
     0
 76
     0
 77
     0
 78
     0
281
     0
 65
     1
110
0.0
120
0.0
130
0.0
111
1.0
121
0.0
131
0.0
112
0.0
122
1.0
132
0.0
 79
     0
146
0.0
  0
ENDTAB
  0
TABLE
  2
LTYPE
  5
5
330
0
100
AcDbSymbolTable
 70
     6
  0
LTYPE
  5
14
330
5
100
AcDbSymbolTableRecord
100
AcDbLinetypeTableRecord
  2
ByBlock
 70
     0
  3

 72
    65
 73
     0
 40
0.0
  0
LTYPE
  5
15
330
5
100
AcDbSymbolTableRecord
100
AcDbLinetypeTableRecord
  2
ByLayer
 70
     0
  3

 72
    65
 73
     0
 40
0.0
  0
LTYPE
  5
16
330
5
100
AcDbSymbolTableRecord
100
AcDbLinetypeTableRecord
  2
Continuous
 70
     0
  3
Solid line
 72
    65
 73
     0
 40
0.0
  0
LTYPE
  5
3F
330
5
100
AcDbSymbolTableRecord
100
AcDbLinetypeTableRecord
  2
HIDDEN
 70
     0
  3
Hidden __ __ __ __ __ __ __ __ __ __ __ __ __ __
 72
    65
 73
     2
 40
1.905
 49
1.27
 74
     0
 49
-0.635
 74
     0
  0
LTYPE
  5
40
330
5
100
AcDbSymbolTableRecord
100
AcDbLinetypeTableRecord
  2
PHANTOM
 70
     0
  3
Phantom ______  __  __  ______  __  __  ______
 72
    65
 73
     6
 40
12.7
 49
6.35
 74
     0
 49
-1.27
 74
     0
 49
1.27
 74
     0
 49
-1.27
 74
     0
 49
1.27
 74
     0
 49
-1.27
 74
     0
  0
LTYPE
  5
41
330
5
100
AcDbSymbolTableRecord
100
AcDbLinetypeTableRecord
  2
CENTER
 70
     0
  3
Center ____ _ ____ _ ____ _ ____ _ ____ _ ____
 72
    65
 73
     4
 40
10.16
 49
6.35
 74
     0
 49
-1.27
 74
     0
 49
1.27
 74
     0
 49
-1.27
 74
     0
  0
LTYPE
  5
42
330
5
100
AcDbSymbolTableRecord
100
AcDbLinetypeTableRecord
  2
CENTERX2
 70
     0
  3
Center (2x) ________  __  ________  __  _____
 72
    65
 73
     4
 40
20.32
 49
12.7
 74
     0
 49
-2.54
 74
     0
 49
2.54
 74
     0
 49
-2.54
 74
     0
  0
LTYPE
  5
43
330
5
100
AcDbSymbolTableRecord
100
AcDbLinetypeTableRecord
  2
DOT2
 70
     0
  3
Dot (.5x) ........................................
 72
    65
 73
     2
 40
0.635
 49
0.0
 74
     0
 49
-0.635
 74
     0
  0
ENDTAB
  0
TABLE
  2
LAYER
  5
2
330
0
100
AcDbSymbolTable
 70
     1
  0
LAYER
  5
10
330
2
100
AcDbSymbolTableRecord
100
AcDbLayerTableRecord
  2
0
 70
     0
 62
     7
  6
Continuous
370
    -3
390
F
  0
ENDTAB
  0
TABLE
  2
STYLE
  5
3
330
0
100
AcDbSymbolTable
 70
     3
  0
STYLE
  5
11
330
3
100
AcDbSymbolTableRecord
100
AcDbTextStyleTableRecord
  2
Standard
 70
     0
 40
0.0
 41
1.0
 50
0.0
 71
     0
 42
3.5
  3
txt
  4
bigfont
  0
STYLE
  5
4C
330
3
100
AcDbSymbolTableRecord
100
AcDbTextStyleTableRecord
  2
SLDTEXTSTYLE0
 70
     0
 40
0.0
 41
0.7
 50
0.0
 71
     0
 42
0.2
  3
TXT
  4
bigfont
  0
STYLE
  5
8B
330
3
100
AcDbSymbolTableRecord
100
AcDbTextStyleTableRecord
  2
SLDTEXTSTYLE1
 70
     0
 40
0.0
 41
0.75
 50
0.0
 71
     0
 42
0.2
  3
TXT
  4
bigfont
  0
ENDTAB
  0
TABLE
  2
VIEW
  5
6
330
0
100
AcDbSymbolTable
 70
     0
  0
ENDTAB
  0
TABLE
  2
UCS
  5
7
330
0
100
AcDbSymbolTable
 70
     0
  0
ENDTAB
  0
TABLE
  2
APPID
  5
9
330
0
100
AcDbSymbolTable
 70
     1
  0
APPID
  5
12
330
9
100
AcDbSymbolTableRecord
100
AcDbRegAppTableRecord
  2
ACAD
 70
     0
  0
ENDTAB
  0
TABLE
  2
DIMSTYLE
  5
A
330
0
100
AcDbSymbolTable
 70
     4
100
AcDbDimStyleTable
  0
DIMSTYLE
105
27
330
A
100
AcDbSymbolTableRecord
100
AcDbDimStyleTableRecord
  2
ISO-25
 70
     0
 41
2.5
 42
0.625
 43
3.75
 44
1.25
 73
     0
 74
     0
 77
     1
 78
     8
140
2.5
141
2.5
143
0.0393700787
147
0.625
171
     3
172
     1
178
     0
271
     2
272
     2
274
     3
278
    44
283
     0
284
     8
340
11
  0
DIMSTYLE
105
8C
102
{ACAD_REACTORS
330
8A
330
96
330
15B
330
17F
330
18A
102
}
330
A
100
AcDbSymbolTableRecord
100
AcDbDimStyleTableRecord
  2
SLDDIMSTYLE0
 70
     0
 41
2.0
 44
0.0
 45
0.000000001
 73
     0
 74
     0
 77
     3
 78
    12
 79
     3
140
3.5
147
0.875
173
     1
178
     0
271
     1
272
     1
276
     2
284
    12
340
8B
  0
DIMSTYLE
105
166
102
{ACAD_REACTORS
330
165
330
173
330
194
330
1A1
102
}
330
A
100
AcDbSymbolTableRecord
100
AcDbDimStyleTableRecord
  2
SLDDIMSTYLE1
 70
     0
 41
2.0
 44
0.0
 45
0.000000001
 73
     0
 74
     0
 77
     3
 78
    12
 79
     3
140
3.5
147
0.875
172
     1
173
     1
178
     0
271
     1
272
     1
276
     2
284
    12
289
     0
340
8B
  0
DIMSTYLE
105
1AF
330
A
100
AcDbSymbolTableRecord
100
AcDbDimStyleTableRecord
  2
SLDDIMSTYLE2
 70
     0
 41
2.0
 44
0.0
 45
0.000000001
140
0.0
146
2.0
147
0.0
173
     1
178
     0
271
     0
272
     0
276
     2
340
11
  0
ENDTAB
  0
TABLE
  2
BLOCK_RECORD
  5
1
330
0
100
AcDbSymbolTable
 70
    11
  0
BLOCK_RECORD
  5
1F
330
1
100
AcDbSymbolTableRecord
100
AcDbBlockTableRecord
  2
*Model_Space
340
22
  0
BLOCK_RECORD
  5
1B
330
1
100
AcDbSymbolTableRecord
100
AcDbBlockTableRecord
  2
*Paper_Space
340
1E
  0
BLOCK_RECORD
  5
23
330
1
100
AcDbSymbolTableRecord
100
AcDbBlockTableRecord
  2
*Paper_Space0
340
26
  0
BLOCK_RECORD
  5
8D
330
1
100
AcDbSymbolTableRecord
100
AcDbBlockTableRecord
  2
_D
340
0
  0
BLOCK_RECORD
  5
97
330
1
100
AcDbSymbolTableRecord
100
AcDbBlockTableRecord
  2
_D_1
340
0
  0
BLOCK_RECORD
  5
A0
330
1
100
AcDbSymbolTableRecord
100
AcDbBlockTableRecord
  2
SW_CENTERMARKSYMBOL_0
340
0
102
{BLKREFS
331
AB
102
}
  0
BLOCK_RECORD
  5
15C
330
1
100
AcDbSymbolTableRecord
100
AcDbBlockTableRecord
  2
_D_2
340
0
  0
BLOCK_RECORD
  5
167
330
1
100
AcDbSymbolTableRecord
100
AcDbBlockTableRecord
  2
_D_3
340
0
  0
BLOCK_RECORD
  5
174
330
1
100
AcDbSymbolTableRecord
100
AcDbBlockTableRecord
  2
_D_4
340
0
  0
BLOCK_RECORD
  5
180
330
1
100
AcDbSymbolTableRecord
100
AcDbBlockTableRecord
  2
_D_5
340
0
  0
BLOCK_RECORD
  5
18B
330
1
100
AcDbSymbolTableRecord
100
AcDbBlockTableRecord
  2
_D_6
340
0
  0
BLOCK_RECORD
  5
195
330
1
100
AcDbSymbolTableRecord
100
AcDbBlockTableRecord
  2
_D_7
340
0
  0
BLOCK_RECORD
  5
1A2
330
1
100
AcDbSymbolTableRecord
100
AcDbBlockTableRecord
  2
_D_8
340
0
  0
ENDTAB
  0
ENDSEC
  0
SECTION
  2
BLOCKS
  0
BLOCK
  5
20
330
1F
100
AcDbEntity
  8
0
100
AcDbBlockBegin
  2
*Model_Space
 70
     0
 10
0.0
 20
0.0
 30
0.0
  3
*Model_Space
  1

  0
ENDBLK
  5
21
330
1F
100
AcDbEntity
  8
0
100
AcDbBlockEnd
  0
BLOCK
  5
1C
330
1B
100
AcDbEntity
 67
     1
  8
0
100
AcDbBlockBegin
  2
*Paper_Space
 70
     0
 10
0.0
 20
0.0
 30
0.0
  3
*Paper_Space
  1

  0
ENDBLK
  5
1D
330
1B
100
AcDbEntity
 67
     1
  8
0
100
AcDbBlockEnd
  0
BLOCK
  5
24
330
23
100
AcDbEntity
  8
0
100
AcDbBlockBegin
  2
*Paper_Space0
 70
     0
 10
0.0
 20
0.0
 30
0.0
  3
*Paper_Space0
  1

  0
ENDBLK
  5
25
330
23
100
AcDbEntity
  8
0
100
AcDbBlockEnd
  0
BLOCK
  5
8E
330
8D
100
AcDbEntity
  8
0
100
AcDbBlockBegin
  2
_D
 70
     0
 10
0.0
 20
0.0
 30
0.0
  3
_D
  1

  0
SOLID
  5
90
330
8D
100
AcDbEntity
  8
0
  6
Continuous
 62
     7
370
     0
100
AcDbTrace
 10
35.1418414905
 20
151.4533608469
 30
0.0
 11
34.3918414905
 21
149.4533608469
 31
0.0
 12
35.8918414905
 22
149.4533608469
 32
0.0
 13
35.8918414905
 23
149.4533608469
 33
0.0
  0
SOLID
  5
91
330
8D
100
AcDbEntity
  8
0
  6
Continuous
 62
     7
370
     0
100
AcDbTrace
 10
35.1418414905
 20
132.8533608469
 30
0.0
 11
35.8918414905
 21
134.8533608469
 31
0.0
 12
34.3918414905
 22
134.8533608469
 32
0.0
 13
34.3918414905
 23
134.8533608469
 33
0.0
  0
LINE
  5
92
330
8D
100
AcDbEntity
  8
0
  6
Continuous
 62
     7
370
     0
100
AcDbLine
 10
54.3646161497
 20
151.4533608469
 30
0.0
 11
34.1418414905
 21
151.4533608469
 31
0.0
  0
LINE
  5
93
330
8D
100
AcDbEntity
  8
0
  6
Continuous
 62
     7
370
     0
100
AcDbLine
 10
54.3646161496
 20
132.8533608469
 30
0.0
 11
34.1418414905
 21
132.8533608469
 31
0.0
  0
LINE
  5
94
330
8D
100
AcDbEntity
  8
0
  6
Continuous
 62
     7
370
     0
100
AcDbLine
 10
35.1418414905
 20
151.4533608469
 30
0.0
 11
35.1418414905
 21
132.8533608469
 31
0.0
  0
MTEXT
  5
95
330
8D
100
AcDbEntity
  8
0
  6
Continuous
 62
     7
370
     0
100
AcDbMText
 10
30.6301045759
 20
137.6276663165
 30
24.85
 40
3.5
 41
0.0
 71
     1
 72
     1
  1
18.6
  7
SLDTEXTSTYLE1
 11
-7.044195017643634E-15
 21
1.0
 31
0.0
 73
     1
 44
1.0
  0
ENDBLK
  5
8F
330
8D
100
AcDbEntity
  8
0
100
AcDbBlockEnd
  0
BLOCK
  5
98
330
97
100
AcDbEntity
  8
0
100
AcDbBlockBegin
  2
_D_1
 70
     0
 10
0.0
 20
0.0
 30
0.0
  3
_D_1
  1

  0
SOLID
  5
9A
330
97
100
AcDbEntity
  8
0
  6
Continuous
 62
     7
370
     0
100
AcDbTrace
 10
43.5157755634
 20
148.1533608469
 30
0.0
 11
42.7657755634
 21
146.1533608469
 31
0.0
 12
44.2657755634
 22
146.1533608469
 32
0.0
 13
44.2657755634
 23
146.1533608469
 33
0.0
  0
SOLID
  5
9B
330
97
100
AcDbEntity
  8
0
  6
Continuous
 62
     7
370
     0
100
AcDbTrace
 10
43.5157755634
 20
136.1533608469
 30
0.0
 11
44.2657755634
 21
138.1533608469
 31
0.0
 12
42.7657755634
 22
138.1533608469
 32
0.0
 13
42.7657755634
 23
138.1533608469
 33
0.0
  0
LINE
  5
9C
330
97
100
AcDbEntity
  8
0
  6
Continuous
 62
     7
370
     0
100
AcDbLine
 10
54.9505145345
 20
148.1533608469
 30
0.0
 11
42.5157755634
 21
148.1533608469
 31
0.0
  0
LINE
  5
9D
330
97
100
AcDbEntity
  8
0
  6
Continuous
 62
     7
370
     0
100
AcDbLine
 10
54.9505145345
 20
136.1533608469
 30
0.0
 11
42.5157755634
 21
136.1533608469
 31
0.0
  0
LINE
  5
9E
330
97
100
AcDbEntity
  8
0
  6
Continuous
 62
     7
370
     0
100
AcDbLine
 10
43.5157755634
 20
148.1533608469
 30
0.0
 11
43.5157755634
 21
136.1533608469
 31
0.0
  0
MTEXT
  5
9F
330
97
100
AcDbEntity
  8
0
  6
Continuous
 62
     7
370
     0
100
AcDbMText
 10
39.0040386488
 20
139.5672496534
 30
24.85
 40
3.5
 41
0.0
 71
     1
 72
     1
  1
12
  7
SLDTEXTSTYLE1
 11
-7.044195017643634E-15
 21
1.0
 31
0.0
 73
     1
 44
1.0
  0
ENDBLK
  5
99
330
97
100
AcDbEntity
  8
0
100
AcDbBlockEnd
  0
BLOCK
  5
A1
330
A0
100
AcDbEntity
  8
0
100
AcDbBlockBegin
  2
SW_CENTERMARKSYMBOL_0
 70
     0
 10
0.0
 20
0.0
 30
0.0
  3
SW_CENTERMARKSYMBOL_0
  1

  0
LINE
  5
A3
330
A0
100
AcDbEntity
  8
0
  6
Continuous
 62
     0
370
     0
100
AcDbLine
 10
0.0
 20
0.0
 30
0.0
 11
0.0
 21
2.5
 31
0.0
  0
LINE
  5
A4
330
A0
100
AcDbEntity
  8
0
  6
Continuous
 62
     0
370
     0
100
AcDbLine
 10
0.0
 20
0.0
 30
0.0
 11
-2.5
 21
0.0
 31
0.0
  0
LINE
  5
A5
330
A0
100
AcDbEntity
  8
0
  6
Continuous
 62
     0
370
     0
100
AcDbLine
 10
0.0
 20
0.0
 30
0.0
 11
0.0
 21
-2.5
 31
0.0
  0
LINE
  5
A6
330
A0
100
AcDbEntity
  8
0
  6
Continuous
 62
     0
370
     0
100
AcDbLine
 10
0.0
 20
0.0
 30
0.0
 11
2.5
 21
0.0
 31
0.0
  0
LINE
  5
A7
330
A0
100
AcDbEntity
  8
0
  6
Continuous
 62
     0
370
     0
100
AcDbLine
 10
0.0
 20
5.0
 30
0.0
 11
0.0
 21
6.0
 31
0.0
  0
LINE
  5
A8
330
A0
100
AcDbEntity
  8
0
  6
Continuous
 62
     0
370
     0
100
AcDbLine
 10
-5.0
 20
0.0
 30
0.0
 11
-6.0
 21
0.0
 31
0.0
  0
LINE
  5
A9
330
A0
100
AcDbEntity
  8
0
  6
Continuous
 62
     0
370
     0
100
AcDbLine
 10
0.0
 20
-5.0
 30
0.0
 11
0.0
 21
-6.0
 31
0.0
  0
LINE
  5
AA
330
A0
100
AcDbEntity
  8
0
  6
Continuous
 62
     0
370
     0
100
AcDbLine
 10
5.0
 20
0.0
 30
0.0
 11
6.0
 21
0.0
 31
0.0
  0
ENDBLK
  5
A2
330
A0
100
AcDbEntity
  8
0
100
AcDbBlockEnd
  0
BLOCK
  5
15D
330
15C
100
AcDbEntity
  8
0
100
AcDbBlockBegin
  2
_D_2
 70
     0
 10
0.0
 20
0.0
 30
0.0
  3
_D_2
  1

  0
SOLID
  5
15F
330
15C
100
AcDbEntity
  8
0
  6
Continuous
 62
     7
370
     0
100
AcDbTrace
 10
111.7106895219
 20
170.0175720856
 30
0.0
 11
113.7106895219
 21
169.2675720856
 31
0.0
 12
113.7106895219
 22
170.7675720856
 32
0.0
 13
113.7106895219
 23
170.7675720856
 33
0.0
  0
SOLID
  5
160
330
15C
100
AcDbEntity
  8
0
  6
Continuous
 62
     7
370
     0
100
AcDbTrace
 10
161.2106895219
 20
170.0175720856
 30
0.0
 11
159.2106895219
 21
170.7675720856
 31
0.0
 12
159.2106895219
 22
169.2675720856
 32
0.0
 13
159.2106895219
 23
169.2675720856
 33
0.0
  0
LINE
  5
161
330
15C
100
AcDbEntity
  8
0
  6
Continuous
 62
     7
370
     0
100
AcDbLine
 10
111.7106895219
 20
146.6533608469
 30
0.0
 11
111.7106895219
 21
171.0175720856
 31
0.0
  0
LINE
  5
162
330
15C
100
AcDbEntity
  8
0
  6
Continuous
 62
     7
370
     0
100
AcDbLine
 10
161.2106895219
 20
145.1533608469
 30
0.0
 11
161.2106895219
 21
171.0175720856
 31
0.0
  0
LINE
  5
163
330
15C
100
AcDbEntity
  8
0
  6
Continuous
 62
     7
370
     0
100
AcDbLine
 10
111.7106895219
 20
170.0175720856
 30
0.0
 11
161.2106895219
 21
170.0175720856
 31
0.0
  0
MTEXT
  5
164
330
15C
100
AcDbEntity
  8
0
  6
Continuous
 62
     7
370
     0
100
AcDbMText
 10
131.9349949915
 20
174.5293090002
 30
0.1
 40
3.5
 41
0.0
 71
     1
 72
     1
  1
49.5
  7
SLDTEXTSTYLE1
 73
     1
 44
1.0
  0
ENDBLK
  5
15E
330
15C
100
AcDbEntity
  8
0
100
AcDbBlockEnd
  0
BLOCK
  5
168
330
167
100
AcDbEntity
  8
0
100
AcDbBlockBegin
  2
_D_3
 70
     0
 10
0.0
 20
0.0
 30
0.0
  3
_D_3
  1

  0
SOLID
  5
16A
330
167
100
AcDbEntity
  8
0
  6
Continuous
 62
     7
370
     0
100
AcDbTrace
 10
101.7106895219
 20
145.6533608469
 30
0.0
 11
102.4606895219
 21
147.6533608469
 31
0.0
 12
100.9606895219
 22
147.6533608469
 32
0.0
 13
100.9606895219
 23
147.6533608469
 33
0.0
  0
SOLID
  5
16B
330
167
100
AcDbEntity
  8
0
  6
Continuous
 62
     7
370
     0
100
AcDbTrace
 10
101.7106895219
 20
138.6533608469
 30
0.0
 11
100.9606895219
 21
136.6533608469
 31
0.0
 12
102.4606895219
 22
136.6533608469
 32
0.0
 13
102.4606895219
 23
136.6533608469
 33
0.0
  0
LINE
  5
16C
330
167
100
AcDbEntity
  8
0
  6
Continuous
 62
     7
370
     0
100
AcDbLine
 10
110.7106895219
 20
145.6533608469
 30
0.0
 11
100.7106895219
 21
145.6533608469
 31
0.0
  0
LINE
  5
16D
330
167
100
AcDbEntity
  8
0
  6
Continuous
 62
     7
370
     0
100
AcDbLine
 10
110.7106895219
 20
138.6533608469
 30
0.0
 11
100.7106895219
 21
138.6533608469
 31
0.0
  0
LINE
  5
16E
330
167
100
AcDbEntity
  8
0
  6
Continuous
 62
     7
370
     0
100
AcDbLine
 10
101.7106895219
 20
145.6533608469
 30
0.0
 11
101.7106895219
 21
150.6533608469
 31
0.0
  0
LINE
  5
16F
330
167
100
AcDbEntity
  8
0
  6
Continuous
 62
     7
370
     0
100
AcDbLine
 10
101.7106895219
 20
145.6533608469
 30
0.0
 11
101.7106895219
 21
138.6533608469
 31
0.0
  0
LINE
  5
170
330
167
100
AcDbEntity
  8
0
  6
Continuous
 62
     7
370
     0
100
AcDbLine
 10
101.7106895219
 20
138.6533608469
 30
0.0
 11
101.7106895219
 21
133.6533608469
 31
0.0
  0
MTEXT
  5
171
330
167
100
AcDbEntity
  8
0
  6
Continuous
 62
     7
370
     0
100
AcDbMText
 10
97.1989524327
 20
138.2210864346
 30
0.1
 40
3.5
 41
0.0
 71
     1
 72
     1
  1
%%c
  7
SLDTEXTSTYLE1
 11
-7.044195017643634E-15
 21
1.0
 31
0.0
 73
     1
 44
1.0
  0
MTEXT
  5
172
330
167
100
AcDbEntity
  8
0
  6
Continuous
 62
     7
370
     0
100
AcDbMText
 10
97.145480256
 20
143.4995238329
 30
0.1
 40
3.5
 41
0.0
 71
     1
 72
     1
  1
7
  7
SLDTEXTSTYLE1
 11
-7.044195017643634E-15
 21
1.0
 31
0.0
 73
     1
 44
1.0
  0
ENDBLK
  5
169
330
167
100
AcDbEntity
  8
0
100
AcDbBlockEnd
  0
BLOCK
  5
175
330
174
100
AcDbEntity
  8
0
100
AcDbBlockBegin
  2
_D_4
 70
     0
 10
0.0
 20
0.0
 30
0.0
  3
_D_4
  1

  0
SOLID
  5
177
330
174
100
AcDbEntity
  8
0
  6
Continuous
 62
     7
370
     0
100
AcDbTrace
 10
111.7106895219
 20
158.6217345847
 30
0.0
 11
109.7106895219
 21
159.3717345847
 31
0.0
 12
109.7106895219
 22
157.8717345847
 32
0.0
 13
109.7106895219
 23
157.8717345847
 33
0.0
  0
SOLID
  5
178
330
174
100
AcDbEntity
  8
0
  6
Continuous
 62
     7
370
     0
100
AcDbTrace
 10
117.2106895219
 20
158.6217345847
 30
0.0
 11
119.2106895219
 21
157.8717345847
 31
0.0
 12
119.2106895219
 22
159.3717345847
 32
0.0
 13
119.2106895219
 23
159.3717345847
 33
0.0
  0
LINE
  5
179
330
174
100
AcDbEntity
  8
0
  6
Continuous
 62
     7
370
     0
100
AcDbLine
 10
111.7106895219
 20
146.6533608469
 30
0.0
 11
111.7106895219
 21
159.6217345847
 31
0.0
  0
LINE
  5
17A
330
174
100
AcDbEntity
  8
0
  6
Continuous
 62
     7
370
     0
100
AcDbLine
 10
117.2106895219
 20
149.1533608469
 30
0.0
 11
117.2106895219
 21
159.6217345847
 31
0.0
  0
LINE
  5
17B
330
174
100
AcDbEntity
  8
0
  6
Continuous
 62
     7
370
     0
100
AcDbLine
 10
111.7106895219
 20
158.6217345847
 30
0.0
 11
106.7106895219
 21
158.6217345847
 31
0.0
  0
LINE
  5
17C
330
174
100
AcDbEntity
  8
0
  6
Continuous
 62
     7
370
     0
100
AcDbLine
 10
111.7106895219
 20
158.6217345847
 30
0.0
 11
117.2106895219
 21
158.6217345847
 31
0.0
  0
LINE
  5
17D
330
174
100
AcDbEntity
  8
0
  6
Continuous
 62
     7
370
     0
100
AcDbLine
 10
117.2106895219
 20
158.6217345847
 30
0.0
 11
129.3738824651
 21
158.6217345847
 31
0.0
  0
MTEXT
  5
17E
330
174
100
AcDbEntity
  8
0
  6
Continuous
 62
     7
370
     0
100
AcDbMText
 10
122.9086048305
 20
163.1334714992
 30
0.1
 40
3.5
 41
0.0
 71
     1
 72
     1
  1
5.5
  7
SLDTEXTSTYLE1
 73
     1
 44
1.0
  0
ENDBLK
  5
176
330
174
100
AcDbEntity
  8
0
100
AcDbBlockEnd
  0
BLOCK
  5
181
330
180
100
AcDbEntity
  8
0
100
AcDbBlockBegin
  2
_D_5
 70
     0
 10
0.0
 20
0.0
 30
0.0
  3
_D_5
  1

  0
SOLID
  5
183
330
180
100
AcDbEntity
  8
0
  6
Continuous
 62
     7
370
     0
100
AcDbTrace
 10
127.2106895219
 20
116.8859212423
 30
0.0
 11
129.2106895219
 21
116.1359212423
 31
0.0
 12
129.2106895219
 22
117.6359212423
 32
0.0
 13
129.2106895219
 23
117.6359212423
 33
0.0
  0
SOLID
  5
184
330
180
100
AcDbEntity
  8
0
  6
Continuous
 62
     7
370
     0
100
AcDbTrace
 10
137.2106895219
 20
116.8859212423
 30
0.0
 11
135.2106895219
 21
117.6359212423
 31
0.0
 12
135.2106895219
 22
116.1359212423
 32
0.0
 13
135.2106895219
 23
116.1359212423
 33
0.0
  0
LINE
  5
185
330
180
100
AcDbEntity
  8
0
  6
Continuous
 62
     7
370
     0
100
AcDbLine
 10
127.2106895219
 20
137.4033608469
 30
0.0
 11
127.2106895219
 21
115.8859212423
 31
0.0
  0
LINE
  5
186
330
180
100
AcDbEntity
  8
0
  6
Continuous
 62
     7
370
     0
100
AcDbLine
 10
137.2106895219
 20
137.7033608469
 30
0.0
 11
137.2106895219
 21
115.8859212423
 31
0.0
  0
LINE
  5
187
330
180
100
AcDbEntity
  8
0
  6
Continuous
 62
     7
370
     0
100
AcDbLine
 10
127.2106895219
 20
116.8859212423
 30
0.0
 11
137.2106895219
 21
116.8859212423
 31
0.0
  0
MTEXT
  5
188
330
180
100
AcDbEntity
  8
0
  6
Continuous
 62
     7
370
     0
100
AcDbMText
 10
127.9280506257
 20
121.3976581569
 30
0.1
 40
3.5
 41
0.0
 71
     1
 72
     1
  1
10
  7
SLDTEXTSTYLE1
 73
     1
 44
1.0
  0
MTEXT
  5
189
330
180
100
AcDbEntity
  8
0
  6
Continuous
 62
     7
370
     0
100
AcDbMText
 10
133.1002730127
 20
121.3976581569
 30
0.1
 40
3.5
 41
0.0
 71
     1
 72
     1
  1
st
  7
SLDTEXTSTYLE1
 73
     1
 44
1.0
  0
ENDBLK
  5
182
330
180
100
AcDbEntity
  8
0
100
AcDbBlockEnd
  0
BLOCK
  5
18C
330
18B
100
AcDbEntity
  8
0
100
AcDbBlockBegin
  2
_D_6
 70
     0
 10
0.0
 20
0.0
 30
0.0
  3
_D_6
  1

  0
SOLID
  5
18E
330
18B
100
AcDbEntity
  8
0
  6
Continuous
 62
     7
370
     0
100
AcDbTrace
 10
141.2106895219
 20
116.8859212423
 30
0.0
 11
143.2106895219
 21
116.1359212423
 31
0.0
 12
143.2106895219
 22
117.6359212423
 32
0.0
 13
143.2106895219
 23
117.6359212423
 33
0.0
  0
SOLID
  5
18F
330
18B
100
AcDbEntity
  8
0
  6
Continuous
 62
     7
370
     0
100
AcDbTrace
 10
159.2106895219
 20
116.8859212423
 30
0.0
 11
157.2106895219
 21
117.6359212423
 31
0.0
 12
157.2106895219
 22
116.1359212423
 32
0.0
 13
157.2106895219
 23
116.1359212423
 33
0.0
  0
LINE
  5
190
330
18B
100
AcDbEntity
  8
0
  6
Continuous
 62
     7
370
     0
100
AcDbLine
 10
141.2106895219
 20
135.4533608469
 30
0.0
 11
141.2106895219
 21
115.8859212423
 31
0.0
  0
LINE
  5
191
330
18B
100
AcDbEntity
  8
0
  6
Continuous
 62
     7
370
     0
100
AcDbLine
 10
159.2106895219
 20
137.4533608469
 30
0.0
 11
159.2106895219
 21
115.8859212423
 31
0.0
  0
LINE
  5
192
330
18B
100
AcDbEntity
  8
0
  6
Continuous
 62
     7
370
     0
100
AcDbLine
 10
141.2106895219
 20
116.8859212423
 30
0.0
 11
159.2106895219
 21
116.8859212423
 31
0.0
  0
MTEXT
  5
193
330
18B
100
AcDbEntity
  8
0
  6
Continuous
 62
     7
370
     0
100
AcDbMText
 10
147.6245783284
 20
121.3976581569
 30
0.1
 40
3.5
 41
0.0
 71
     1
 72
     1
  1
18
  7
SLDTEXTSTYLE1
 73
     1
 44
1.0
  0
ENDBLK
  5
18D
330
18B
100
AcDbEntity
  8
0
100
AcDbBlockEnd
  0
BLOCK
  5
196
330
195
100
AcDbEntity
  8
0
100
AcDbBlockBegin
  2
_D_7
 70
     0
 10
0.0
 20
0.0
 30
0.0
  3
_D_7
  1

  0
SOLID
  5
198
330
195
100
AcDbEntity
  8
0
  6
Continuous
 62
     7
370
     0
100
AcDbTrace
 10
185.4392931143
 20
146.1533608469
 30
0.0
 11
186.1892931143
 21
148.1533608469
 31
0.0
 12
184.6892931143
 22
148.1533608469
 32
0.0
 13
184.6892931143
 23
148.1533608469
 33
0.0
  0
SOLID
  5
199
330
195
100
AcDbEntity
  8
0
  6
Continuous
 62
     7
370
     0
100
AcDbTrace
 10
185.4392931143
 20
138.1533608469
 30
0.0
 11
184.6892931143
 21
136.1533608469
 31
0.0
 12
186.1892931143
 22
136.1533608469
 32
0.0
 13
186.1892931143
 23
136.1533608469
 33
0.0
  0
LINE
  5
19A
330
195
100
AcDbEntity
  8
0
  6
Continuous
 62
     7
370
     0
100
AcDbLine
 10
159.9106895219
 20
146.1533608469
 30
0.0
 11
186.4392931143
 21
146.1533608469
 31
0.0
  0
LINE
  5
19B
330
195
100
AcDbEntity
  8
0
  6
Continuous
 62
     7
370
     0
100
AcDbLine
 10
159.9106895219
 20
138.1533608469
 30
0.0
 11
186.4392931143
 21
138.1533608469
 31
0.0
  0
LINE
  5
19C
330
195
100
AcDbEntity
  8
0
  6
Continuous
 62
     7
370
     0
100
AcDbLine
 10
185.4392931143
 20
146.1533608469
 30
0.0
 11
185.4392931143
 21
156.5074866765
 31
0.0
  0
LINE
  5
19D
330
195
100
AcDbEntity
  8
0
  6
Continuous
 62
     7
370
     0
100
AcDbLine
 10
185.4392931143
 20
146.1533608469
 30
0.0
 11
185.4392931143
 21
138.1533608469
 31
0.0
  0
LINE
  5
19E
330
195
100
AcDbEntity
  8
0
  6
Continuous
 62
     7
370
     0
100
AcDbLine
 10
185.4392931143
 20
138.1533608469
 30
0.0
 11
185.4392931143
 21
133.1533608469
 31
0.0
  0
MTEXT
  5
19F
330
195
100
AcDbEntity
  8
0
  6
Continuous
 62
     7
370
     0
100
AcDbMText
 10
180.9275560251
 20
148.6429378518
 30
0.1
 40
3.5
 41
0.0
 71
     1
 72
     1
  1
%%c
  7
SLDTEXTSTYLE1
 11
-7.044195017643634E-15
 21
1.0
 31
0.0
 73
     1
 44
1.0
  0
MTEXT
  5
1A0
330
195
100
AcDbEntity
  8
0
  6
Continuous
 62
     7
370
     0
100
AcDbMText
 10
180.8740838485
 20
153.9213752501
 30
0.1
 40
3.5
 41
0.0
 71
     1
 72
     1
  1
8
  7
SLDTEXTSTYLE1
 11
-7.044195017643634E-15
 21
1.0
 31
0.0
 73
     1
 44
1.0
  0
ENDBLK
  5
197
330
195
100
AcDbEntity
  8
0
100
AcDbBlockEnd
  0
BLOCK
  5
1A3
330
1A2
100
AcDbEntity
  8
0
100
AcDbBlockBegin
  2
_D_8
 70
     0
 10
0.0
 20
0.0
 30
0.0
  3
_D_8
  1

  0
SOLID
  5
1A5
330
1A2
100
AcDbEntity
  8
0
  6
Continuous
 62
     7
370
     0
100
AcDbTrace
 10
174.3612976967
 20
144.6533608469
 30
0.0
 11
175.1112976967
 21
146.6533608469
 31
0.0
 12
173.6112976967
 22
146.6533608469
 32
0.0
 13
173.6112976967
 23
146.6533608469
 33
0.0
  0
SOLID
  5
1A6
330
1A2
100
AcDbEntity
  8
0
  6
Continuous
 62
     7
370
     0
100
AcDbTrace
 10
174.3612976967
 20
139.6533608469
 30
0.0
 11
173.6112976967
 21
137.6533608469
 31
0.0
 12
175.1112976967
 22
137.6533608469
 32
0.0
 13
175.1112976967
 23
137.6533608469
 33
0.0
  0
LINE
  5
1A7
330
1A2
100
AcDbEntity
  8
0
  6
Continuous
 62
     7
370
     0
100
AcDbLine
 10
161.7106895219
 20
144.6533608469
 30
0.0
 11
175.3612976967
 21
144.6533608469
 31
0.0
  0
LINE
  5
1A8
330
1A2
100
AcDbEntity
  8
0
  6
Continuous
 62
     7
370
     0
100
AcDbLine
 10
161.7106895219
 20
139.6533608469
 30
0.0
 11
175.3612976967
 21
139.6533608469
 31
0.0
  0
LINE
  5
1A9
330
1A2
100
AcDbEntity
  8
0
  6
Continuous
 62
     7
370
     0
100
AcDbLine
 10
174.3612976967
 20
144.6533608469
 30
0.0
 11
174.3612976967
 21
156.5074866765
 31
0.0
  0
LINE
  5
1AA
330
1A2
100
AcDbEntity
  8
0
  6
Continuous
 62
     7
370
     0
100
AcDbLine
 10
174.3612976967
 20
144.6533608469
 30
0.0
 11
174.3612976967
 21
139.6533608469
 31
0.0
  0
LINE
  5
1AB
330
1A2
100
AcDbEntity
  8
0
  6
Continuous
 62
     7
370
     0
100
AcDbLine
 10
174.3612976967
 20
139.6533608469
 30
0.0
 11
174.3612976967
 21
134.6533608469
 31
0.0
  0
MTEXT
  5
1AC
330
1A2
100
AcDbEntity
  8
0
  6
Continuous
 62
     7
370
     0
100
AcDbMText
 10
169.8495606075
 20
148.6429378518
 30
0.1
 40
3.5
 41
0.0
 71
     1
 72
     1
  1
%%c
  7
SLDTEXTSTYLE1
 11
-7.044195017643634E-15
 21
1.0
 31
0.0
 73
     1
 44
1.0
  0
MTEXT
  5
1AD
330
1A2
100
AcDbEntity
  8
0
  6
Continuous
 62
     7
370
     0
100
AcDbMText
 10
169.7960884308
 20
153.9213752501
 30
0.1
 40
3.5
 41
0.0
 71
     1
 72
     1
  1
5
  7
SLDTEXTSTYLE1
 11
-7.044195017643634E-15
 21
1.0
 31
0.0
 73
     1
 44
1.0
  0
ENDBLK
  5
1A4
330
1A2
100
AcDbEntity
  8
0
100
AcDbBlockEnd
  0
ENDSEC
  0
SECTION
  2
ENTITIES
  0
LINE
  5
44
330
1F
100
AcDbEntity
  8
0
  6
Continuous
 62
     7
370
     0
100
AcDbLine
 10
20.2604743903
 20
285.0
 30
0.0
 11
196.7604743903
 21
285.0
 31
0.0
  0
LINE
  5
45
330
1F
100
AcDbEntity
  8
0
  6
Continuous
 62
     7
370
     0
100
AcDbLine
 10
20.2604743903
 20
285.0
 30
0.0
 11
20.2604743903
 21
10.0
 31
0.0
  0
LINE
  5
46
330
1F
100
AcDbEntity
  8
0
  6
Continuous
 62
     7
370
     0
100
AcDbLine
 10
20.2604743903
 20
10.0
 30
0.0
 11
196.7604743903
 21
10.0
 31
0.0
  0
LINE
  5
47
330
1F
100
AcDbEntity
  8
0
  6
Continuous
 62
     7
370
     0
100
AcDbLine
 10
196.7604743903
 20
285.0
 30
0.0
 11
196.7604743903
 21
10.0
 31
0.0
  0
LINE
  5
48
330
1F
100
AcDbEntity
  8
0
  6
Continuous
 62
     7
370
     0
100
AcDbLine
 10
127.0104743903
 20
50.75
 30
0.0
 11
196.7604743903
 21
50.75
 31
0.0
  0
LINE
  5
49
330
1F
100
AcDbEntity
  8
0
  6
Continuous
 62
     7
370
     0
100
AcDbLine
 10
127.0104743903
 20
50.75
 30
0.0
 11
127.0104743903
 21
10.0
 31
0.0
  0
LINE
  5
4A
330
1F
100
AcDbEntity
  8
0
  6
Continuous
 62
     7
370
     0
100
AcDbLine
 10
127.0104743903
 20
22.75
 30
0.0
 11
196.7604743903
 21
22.75
 31
0.0
  0
LINE
  5
4B
330
1F
100
AcDbEntity
  8
0
  6
Continuous
 62
     7
370
     0
100
AcDbLine
 10
127.0104743903
 20
36.75
 30
0.0
 11
196.7604743903
 21
36.75
 31
0.0
  0
MTEXT
  5
4D
330
1F
100
AcDbEntity
  8
0
  6
Continuous
 62
     7
370
     0
100
AcDbMText
 10
161.1416977633
 20
30.4171582345
 30
0.0
 40
4.2333333333
 41
0.0
 71
     2
 72
     1
  1
VFIL2-SS-10-P8
  7
SLDTEXTSTYLE0
 73
     1
 44
1.0
  0
MTEXT
  5
4E
330
1F
100
AcDbEntity
  8
0
  6
Continuous
 62
     7
370
     0
100
AcDbMText
 10
161.3686533351
 20
43.9409718514
 30
0.0
 40
4.2333333333
 41
0.0
 71
     2
 72
     1
  1
吸着金具・ミニ用
  7
SLDTEXTSTYLE0
 73
     1
 44
1.0
  0
MTEXT
  5
4F
330
1F
100
AcDbEntity
  8
0
  6
Continuous
 62
     7
370
     0
100
AcDbMText
 10
162.6500706919
 20
16.8228189052
 30
0.0
 40
4.2333333333
 41
0.0
 71
     2
 72
     1
  1
211033
  7
SLDTEXTSTYLE0
 73
     1
 44
1.0
  0
LINE
  5
50
330
1F
100
AcDbEntity
  8
0
  6
Continuous
 62
     7
370
    15
100
AcDbLine
 10
57.0646161496
 20
130.3533608469
 30
0.0
 11
57.4146161496
 21
127.8533608469
 31
0.0
  0
LINE
  5
51
330
1F
100
AcDbEntity
  8
0
  6
Continuous
 62
     7
370
    15
100
AcDbLine
 10
61.4146161496
 20
127.8533608469
 30
0.0
 11
61.7646161496
 21
130.3533608469
 31
0.0
  0
LINE
  5
52
330
1F
100
AcDbEntity
  8
0
  6
Continuous
 62
     7
370
    15
100
AcDbLine
 10
57.0646161496
 20
127.8533608469
 30
0.0
 11
57.4146161496
 21
125.3533608469
 31
0.0
  0
LINE
  5
53
330
1F
100
AcDbEntity
  8
0
  6
Continuous
 62
     7
370
    15
100
AcDbLine
 10
61.4146161496
 20
125.3533608469
 30
0.0
 11
61.7646161496
 21
127.8533608469
 31
0.0
  0
LINE
  5
54
330
1F
100
AcDbEntity
  8
0
  6
Continuous
 62
     7
370
    15
100
AcDbLine
 10
61.5146161496
 20
130.3533608469
 30
0.0
 11
61.5146161496
 21
132.8533608469
 31
0.0
  0
LINE
  5
55
330
1F
100
AcDbEntity
  8
0
  6
Continuous
 62
     7
370
    15
100
AcDbLine
 10
57.3146161496
 20
132.8533608469
 30
0.0
 11
57.3146161496
 21
130.3533608469
 31
0.0
  0
LINE
  5
56
330
1F
100
AcDbEntity
  8
0
  6
Continuous
 62
     7
370
    15
100
AcDbLine
 10
55.4146161496
 20
148.9533608469
 30
0.0
 11
55.4146161496
 21
148.1533608469
 31
0.0
  0
LINE
  5
57
330
1F
100
AcDbEntity
  8
0
  6
Continuous
 62
     7
370
    15
100
AcDbLine
 10
63.4146161496
 20
148.1533608469
 30
0.0
 11
63.4146161496
 21
148.9533608469
 31
0.0
  0
LINE
  5
58
330
1F
100
AcDbEntity
  8
0
  6
Continuous
 62
     7
370
    15
100
AcDbLine
 10
55.4146161496
 20
136.1533608469
 30
0.0
 11
55.4146161496
 21
135.3533608469
 31
0.0
  0
LINE
  5
59
330
1F
100
AcDbEntity
  8
0
  6
Continuous
 62
     7
370
    15
100
AcDbLine
 10
63.4146161496
 20
135.3533608469
 30
0.0
 11
63.4146161496
 21
136.1533608469
 31
0.0
  0
CIRCLE
  5
5A
330
1F
100
AcDbEntity
  8
0
  6
Continuous
 62
     7
370
    15
100
AcDbCircle
 10
59.4146161496
 20
142.1533608469
 30
0.0
 40
3.5
  0
CIRCLE
  5
5B
330
1F
100
AcDbEntity
  8
0
  6
Continuous
 62
     7
370
    15
100
AcDbCircle
 10
59.4146161496
 20
142.1533608469
 30
0.0
 40
1.249999999999993
  0
LINE
  5
5C
330
1F
100
AcDbEntity
  8
0
  6
Continuous
 62
     7
370
    15
100
AcDbLine
 10
52.4864129194
 20
142.1533608469
 30
0.0
 11
55.9505145345
 21
148.1533608469
 31
0.0
  0
LINE
  5
5D
330
1F
100
AcDbEntity
  8
0
  6
Continuous
 62
     7
370
    15
100
AcDbLine
 10
55.9505145345
 20
148.1533608469
 30
0.0
 11
62.8787177648
 21
148.1533608469
 31
0.0
  0
LINE
  5
5E
330
1F
100
AcDbEntity
  8
0
  6
Continuous
 62
     7
370
    15
100
AcDbLine
 10
62.8787177648
 20
148.1533608469
 30
0.0
 11
66.3428193799
 21
142.1533608469
 31
0.0
  0
LINE
  5
5F
330
1F
100
AcDbEntity
  8
0
  6
Continuous
 62
     7
370
    15
100
AcDbLine
 10
66.3428193799
 20
142.1533608469
 30
0.0
 11
62.8787177648
 21
136.1533608469
 31
0.0
  0
LINE
  5
60
330
1F
100
AcDbEntity
  8
0
  6
Continuous
 62
     7
370
    15
100
AcDbLine
 10
62.8787177648
 20
136.1533608469
 30
0.0
 11
55.9505145345
 21
136.1533608469
 31
0.0
  0
LINE
  5
61
330
1F
100
AcDbEntity
  8
0
  6
Continuous
 62
     7
370
    15
100
AcDbLine
 10
55.9505145345
 20
136.1533608469
 30
0.0
 11
52.4864129194
 21
142.1533608469
 31
0.0
  0
LINE
  5
62
330
1F
100
AcDbEntity
  8
0
  6
Continuous
 62
     7
370
    15
100
AcDbLine
 10
57.3896161496
 20
132.8533608469
 30
0.0
 11
57.3896161496
 21
135.3533608469
 31
0.0
  0
LINE
  5
63
330
1F
100
AcDbEntity
  8
0
  6
Continuous
 62
     7
370
    15
100
AcDbLine
 10
55.3646161496
 20
132.8533608469
 30
0.0
 11
57.3896161496
 21
132.8533608469
 31
0.0
  0
LINE
  5
64
330
1F
100
AcDbEntity
  8
0
  6
Continuous
 62
     7
370
    15
100
AcDbLine
 10
55.3646161496
 20
135.3533608469
 30
0.0
 11
55.3646161496
 21
132.8533608469
 31
0.0
  0
LINE
  5
65
330
1F
100
AcDbEntity
  8
0
  6
Continuous
 62
     7
370
    15
100
AcDbLine
 10
55.3646161496
 20
135.3533608469
 30
0.0
 11
55.415590669
 21
135.3533608469
 31
0.0
  0
LINE
  5
66
330
1F
100
AcDbEntity
  8
0
  6
Continuous
 62
     7
370
    15
100
AcDbLine
 10
57.3386416303
 20
135.3533608469
 30
0.0
 11
57.3896161496
 21
135.3533608469
 31
0.0
  0
LINE
  5
67
330
1F
100
AcDbEntity
  8
0
  6
Continuous
 62
     7
370
    15
100
AcDbLine
 10
61.4396161496
 20
132.8533608469
 30
0.0
 11
61.4396161496
 21
135.3533608469
 31
0.0
  0
LINE
  5
68
330
1F
100
AcDbEntity
  8
0
  6
Continuous
 62
     7
370
    15
100
AcDbLine
 10
57.3896161496
 20
135.3533608469
 30
0.0
 11
57.4915651883
 21
135.3533608469
 31
0.0
  0
LINE
  5
69
330
1F
100
AcDbEntity
  8
0
  6
Continuous
 62
     7
370
    15
100
AcDbLine
 10
61.337667111
 20
135.3533608469
 30
0.0
 11
61.4396161496
 21
135.3533608469
 31
0.0
  0
LINE
  5
6A
330
1F
100
AcDbEntity
  8
0
  6
Continuous
 62
     7
370
    15
100
AcDbLine
 10
57.3896161496
 20
132.8533608469
 30
0.0
 11
61.4396161496
 21
132.8533608469
 31
0.0
  0
LINE
  5
6B
330
1F
100
AcDbEntity
  8
0
  6
Continuous
 62
     7
370
    15
100
AcDbLine
 10
63.4646161496
 20
132.8533608469
 30
0.0
 11
63.4646161496
 21
135.3533608469
 31
0.0
  0
LINE
  5
6C
330
1F
100
AcDbEntity
  8
0
  6
Continuous
 62
     7
370
    15
100
AcDbLine
 10
61.4396161496
 20
135.3533608469
 30
0.0
 11
61.490590669
 21
135.3533608469
 31
0.0
  0
LINE
  5
6D
330
1F
100
AcDbEntity
  8
0
  6
Continuous
 62
     7
370
    15
100
AcDbLine
 10
63.4136416303
 20
135.3533608469
 30
0.0
 11
63.4646161496
 21
135.3533608469
 31
0.0
  0
LINE
  5
6E
330
1F
100
AcDbEntity
  8
0
  6
Continuous
 62
     7
370
    15
100
AcDbLine
 10
61.4396161496
 20
132.8533608469
 30
0.0
 11
63.4646161496
 21
132.8533608469
 31
0.0
  0
LINE
  5
6F
330
1F
100
AcDbEntity
  8
0
  6
Continuous
 62
     7
370
    15
100
AcDbLine
 10
61.7646161496
 20
130.3533608469
 30
0.0
 11
57.0646161496
 21
130.3533608469
 31
0.0
  0
LINE
  5
70
330
1F
100
AcDbEntity
  8
0
  6
Continuous
 62
     7
370
    15
100
AcDbLine
 10
61.7646161496
 20
127.8533608469
 30
0.0
 11
57.0646161496
 21
127.8533608469
 31
0.0
  0
LINE
  5
71
330
1F
100
AcDbEntity
  8
0
  6
Continuous
 62
     7
370
    15
100
AcDbLine
 10
61.4146161496
 20
125.3533608469
 30
0.0
 11
57.4146161496
 21
125.3533608469
 31
0.0
  0
LINE
  5
72
330
1F
100
AcDbEntity
  8
0
  6
Continuous
 62
     7
370
    15
100
AcDbLine
 10
57.3896161496
 20
148.9533608469
 30
0.0
 11
57.3896161496
 21
151.4533608469
 31
0.0
  0
LINE
  5
73
330
1F
100
AcDbEntity
  8
0
  6
Continuous
 62
     7
370
    15
100
AcDbLine
 10
55.3646161496
 20
148.9533608469
 30
0.0
 11
55.415590669
 21
148.9533608469
 31
0.0
  0
LINE
  5
74
330
1F
100
AcDbEntity
  8
0
  6
Continuous
 62
     7
370
    15
100
AcDbLine
 10
57.3386416303
 20
148.9533608469
 30
0.0
 11
57.3896161496
 21
148.9533608469
 31
0.0
  0
LINE
  5
75
330
1F
100
AcDbEntity
  8
0
  6
Continuous
 62
     7
370
    15
100
AcDbLine
 10
55.3646161496
 20
148.9533608469
 30
0.0
 11
55.3646161497
 21
151.4533608469
 31
0.0
  0
LINE
  5
76
330
1F
100
AcDbEntity
  8
0
  6
Continuous
 62
     7
370
    15
100
AcDbLine
 10
55.3646161497
 20
151.4533608469
 30
0.0
 11
57.3896161496
 21
151.4533608469
 31
0.0
  0
LINE
  5
77
330
1F
100
AcDbEntity
  8
0
  6
Continuous
 62
     7
370
    15
100
AcDbLine
 10
61.4396161496
 20
148.9533608469
 30
0.0
 11
61.4396161496
 21
151.4533608469
 31
0.0
  0
LINE
  5
78
330
1F
100
AcDbEntity
  8
0
  6
Continuous
 62
     7
370
    15
100
AcDbLine
 10
57.3896161496
 20
148.9533608469
 30
0.0
 11
57.4915651883
 21
148.9533608469
 31
0.0
  0
LINE
  5
79
330
1F
100
AcDbEntity
  8
0
  6
Continuous
 62
     7
370
    15
100
AcDbLine
 10
61.337667111
 20
148.9533608469
 30
0.0
 11
61.4396161496
 21
148.9533608469
 31
0.0
  0
LINE
  5
7A
330
1F
100
AcDbEntity
  8
0
  6
Continuous
 62
     7
370
    15
100
AcDbLine
 10
57.3896161496
 20
151.4533608469
 30
0.0
 11
61.4396161496
 21
151.4533608469
 31
0.0
  0
LINE
  5
7B
330
1F
100
AcDbEntity
  8
0
  6
Continuous
 62
     7
370
    15
100
AcDbLine
 10
63.4646161496
 20
148.9533608469
 30
0.0
 11
63.4646161496
 21
151.4533608469
 31
0.0
  0
LINE
  5
7C
330
1F
100
AcDbEntity
  8
0
  6
Continuous
 62
     7
370
    15
100
AcDbLine
 10
61.4396161496
 20
148.9533608469
 30
0.0
 11
61.4905906689
 21
148.9533608469
 31
0.0
  0
LINE
  5
7D
330
1F
100
AcDbEntity
  8
0
  6
Continuous
 62
     7
370
    15
100
AcDbLine
 10
63.4136416303
 20
148.9533608469
 30
0.0
 11
63.4646161496
 21
148.9533608469
 31
0.0
  0
LINE
  5
7E
330
1F
100
AcDbEntity
  8
0
  6
Continuous
 62
     7
370
    15
100
AcDbLine
 10
61.4396161496
 20
151.4533608469
 30
0.0
 11
63.4646161496
 21
151.4533608469
 31
0.0
  0
LINE
  5
7F
330
1F
100
AcDbEntity
  8
0
  6
Continuous
 62
     7
370
    15
100
AcDbLine
 10
63.4136416303
 20
148.9533608469
 30
0.0
 11
61.4905906689
 21
148.9533608469
 31
0.0
  0
LINE
  5
80
330
1F
100
AcDbEntity
  8
0
  6
Continuous
 62
     7
370
    15
100
AcDbLine
 10
61.337667111
 20
148.9533608469
 30
0.0
 11
57.4915651883
 21
148.9533608469
 31
0.0
  0
LINE
  5
81
330
1F
100
AcDbEntity
  8
0
  6
Continuous
 62
     7
370
    15
100
AcDbLine
 10
57.3386416303
 20
148.9533608469
 30
0.0
 11
55.415590669
 21
148.9533608469
 31
0.0
  0
LINE
  5
82
330
1F
100
AcDbEntity
  8
0
  6
Continuous
 62
     7
370
    15
100
AcDbLine
 10
63.4146161496
 20
148.1533608469
 30
0.0
 11
62.8787177648
 21
148.1533608469
 31
0.0
  0
LINE
  5
83
330
1F
100
AcDbEntity
  8
0
  6
Continuous
 62
     7
370
    15
100
AcDbLine
 10
55.9505145345
 20
148.1533608469
 30
0.0
 11
55.4146161496
 21
148.1533608469
 31
0.0
  0
LINE
  5
84
330
1F
100
AcDbEntity
  8
0
  6
Continuous
 62
     7
370
    15
100
AcDbLine
 10
55.9505145345
 20
136.1533608469
 30
0.0
 11
55.4146161496
 21
136.1533608469
 31
0.0
  0
LINE
  5
85
330
1F
100
AcDbEntity
  8
0
  6
Continuous
 62
     7
370
    15
100
AcDbLine
 10
63.4146161496
 20
136.1533608469
 30
0.0
 11
62.8787177648
 21
136.1533608469
 31
0.0
  0
LINE
  5
86
330
1F
100
AcDbEntity
  8
0
  6
Continuous
 62
     7
370
    15
100
AcDbLine
 10
56.4495825349
 20
135.3533608469
 30
0.0
 11
55.415590669
 21
135.3533608469
 31
0.0
  0
LINE
  5
87
330
1F
100
AcDbEntity
  8
0
  6
Continuous
 62
     7
370
    15
100
AcDbLine
 10
63.4136416303
 20
135.3533608469
 30
0.0
 11
61.490590669
 21
135.3533608469
 31
0.0
  0
LINE
  5
88
330
1F
100
AcDbEntity
  8
0
  6
Continuous
 62
     7
370
    15
100
AcDbLine
 10
61.337667111
 20
135.3533608469
 30
0.0
 11
57.4915651883
 21
135.3533608469
 31
0.0
  0
LINE
  5
89
330
1F
100
AcDbEntity
  8
0
  6
Continuous
 62
     7
370
    15
100
AcDbLine
 10
57.3386416303
 20
135.3533608469
 30
0.0
 11
56.4495825349
 21
135.3533608469
 31
0.0
  0
DIMENSION
  5
8A
330
1F
100
AcDbEntity
  8
0
  6
Continuous
 62
     7
370
     0
100
AcDbDimension
  2
_D
 10
35.1418414905
 20
132.8533608469
 30
0.0
 11
35.1418414905
 21
142.1533608469
 31
0.0
 70
   160
  1
<>
 71
     2
 42
-1.0
  3
SLDDIMSTYLE0
100
AcDbAlignedDimension
 13
55.3646161497
 23
151.4533608469
 33
0.0
 14
55.3646161496
 24
132.8533608469
 34
0.0
 50
90.0
100
AcDbRotatedDimension
  0
DIMENSION
  5
96
330
1F
100
AcDbEntity
  8
0
  6
Continuous
 62
     7
370
     0
100
AcDbDimension
  2
_D_1
 10
43.5157755634
 20
136.1533608469
 30
0.0
 11
43.5157755634
 21
142.1533608469
 31
0.0
 70
   160
  1
<>
 71
     2
 42
-1.0
  3
SLDDIMSTYLE0
100
AcDbAlignedDimension
 13
55.9505145345
 23
148.1533608469
 33
0.0
 14
55.9505145345
 24
136.1533608469
 34
0.0
 50
90.0
100
AcDbRotatedDimension
  0
INSERT
  5
AB
330
1F
100
AcDbEntity
  8
0
  6
Continuous
 62
     7
370
     0
100
AcDbBlockReference
  2
SW_CENTERMARKSYMBOL_0
 10
59.4146161496
 20
142.1533608469
 30
0.0
  0
LINE
  5
AC
330
1F
100
AcDbEntity
  8
0
  6
Continuous
 62
     7
370
    15
100
AcDbLine
 10
125.2106895219
 20
138.4033608469
 30
0.0
 11
127.2106895219
 21
138.4033608469
 31
0.0
  0
LINE
  5
AD
330
1F
100
AcDbEntity
  8
0
  6
Continuous
 62
     7
370
    15
100
AcDbLine
 10
127.1080793952
 20
145.9033608469
 30
0.0
 11
125.2106895219
 21
145.9033608469
 31
0.0
  0
LINE
  5
AE
330
1F
100
AcDbEntity
  8
0
  6
Continuous
 62
     7
370
    15
100
AcDbLine
 10
111.7106895219
 20
138.6533608469
 30
0.0
 11
113.7106895219
 21
138.6533608469
 31
0.0
  0
LINE
  5
AF
330
1F
100
AcDbEntity
  8
0
  6
Continuous
 62
     7
370
    15
100
AcDbLine
 10
113.7106895219
 20
145.6533608469
 30
0.0
 11
111.7106895219
 21
145.6533608469
 31
0.0
  0
LINE
  5
B0
330
1F
100
AcDbEntity
  8
0
  6
Continuous
 62
     7
370
    15
100
AcDbLine
 10
160.7106895219
 20
139.6533608469
 30
0.0
 11
161.2106895219
 21
140.1533608469
 31
0.0
  0
LINE
  5
B1
330
1F
100
AcDbEntity
  8
0
  6
Continuous
 62
     7
370
    15
100
AcDbLine
 10
161.2106895219
 20
144.1533608469
 30
0.0
 11
160.7106895219
 21
144.6533608469
 31
0.0
  0
LINE
  5
B2
330
1F
100
AcDbEntity
  8
0
  6
Continuous
 62
     7
370
    15
100
AcDbLine
 10
159.9106895219
 20
139.6533608469
 30
0.0
 11
160.7106895219
 21
139.6533608469
 31
0.0
  0
LINE
  5
B3
330
1F
100
AcDbEntity
  8
0
  6
Continuous
 62
     7
370
    15
100
AcDbLine
 10
160.7106895219
 20
144.6533608469
 30
0.0
 11
159.9106895219
 21
144.6533608469
 31
0.0
  0
LINE
  5
B4
330
1F
100
AcDbEntity
  8
0
  6
Continuous
 62
     7
370
    15
100
AcDbLine
 10
127.2106895219
 20
139.6533608469
 30
0.0
 11
127.6554675271
 21
139.6533608469
 31
0.0
  0
LINE
  5
B5
330
1F
100
AcDbEntity
  8
0
  6
Continuous
 62
     7
370
    15
100
AcDbLine
 10
128.1543873035
 20
139.6533608469
 30
0.0
 11
129.6556994227
 21
139.6533608469
 31
0.0
  0
LINE
  5
B6
330
1F
100
AcDbEntity
  8
0
  6
Continuous
 62
     7
370
    15
100
AcDbLine
 10
130.1541824257
 20
139.6533608469
 30
0.0
 11
131.6554135526
 21
139.6533608469
 31
0.0
  0
LINE
  5
B7
330
1F
100
AcDbEntity
  8
0
  6
Continuous
 62
     7
370
    15
100
AcDbLine
 10
132.1542939571
 20
139.6533608469
 30
0.0
 11
133.6557453008
 21
139.6533608469
 31
0.0
  0
LINE
  5
B8
330
1F
100
AcDbEntity
  8
0
  6
Continuous
 62
     7
370
    15
100
AcDbLine
 10
134.154550906
 20
139.6533608469
 30
0.0
 11
135.6556524942
 21
139.6533608469
 31
0.0
  0
LINE
  5
B9
330
1F
100
AcDbEntity
  8
0
  6
Continuous
 62
     7
370
    15
100
AcDbLine
 10
136.1544856193
 20
139.6533608469
 30
0.0
 11
137.2106895219
 21
139.6533608469
 31
0.0
  0
LINE
  5
BA
330
1F
100
AcDbEntity
  8
0
  6
Continuous
 62
     7
370
    15
100
AcDbLine
 10
137.2106895219
 20
144.6533608469
 30
0.0
 11
135.7528978468
 21
144.6533608469
 31
0.0
  0
LINE
  5
BB
330
1F
100
AcDbEntity
  8
0
  6
Continuous
 62
     7
370
    15
100
AcDbLine
 10
135.2544637863
 20
144.6533608469
 30
0.0
 11
133.7528208814
 21
144.6533608469
 31
0.0
  0
LINE
  5
BC
330
1F
100
AcDbEntity
  8
0
  6
Continuous
 62
     7
370
    15
100
AcDbLine
 10
133.2544696793
 20
144.6533608469
 30
0.0
 11
131.7531315022
 21
144.6533608469
 31
0.0
  0
LINE
  5
BD
330
1F
100
AcDbEntity
  8
0
  6
Continuous
 62
     7
370
    15
100
AcDbLine
 10
131.2545268399
 20
144.6533608469
 30
0.0
 11
129.7534636935
 21
144.6533608469
 31
0.0
  0
LINE
  5
BE
330
1F
100
AcDbEntity
  8
0
  6
Continuous
 62
     7
370
    15
100
AcDbLine
 10
129.2545771894
 20
144.6533608469
 30
0.0
 11
127.7529564833
 21
144.6533608469
 31
0.0
  0
LINE
  5
BF
330
1F
100
AcDbEntity
  8
0
  6
Continuous
 62
     7
370
    15
100
AcDbLine
 10
127.2545533606
 20
144.6533608469
 30
0.0
 11
127.2106895219
 21
144.6533608469
 31
0.0
  0
LINE
  5
C0
330
1F
100
AcDbEntity
  8
0
  6
Continuous
 62
     7
370
    15
100
AcDbLine
 10
113.7106895219
 20
139.6533608469
 30
0.0
 11
117.2106895219
 21
139.6533608469
 31
0.0
  0
LINE
  5
C1
330
1F
100
AcDbEntity
  8
0
  6
Continuous
 62
     7
370
    15
100
AcDbLine
 10
117.2106895219
 20
144.6533608469
 30
0.0
 11
113.7106895219
 21
144.6533608469
 31
0.0
  0
LINE
  5
C2
330
1F
100
AcDbEntity
  8
0
  6
Continuous
 62
     7
370
    15
100
AcDbLine
 10
159.2106895219
 20
140.6533608469
 30
0.0
 11
159.3106895219
 21
140.6533608469
 31
0.0
  0
LINE
  5
C3
330
1F
100
AcDbEntity
  8
0
  6
Continuous
 62
     7
370
    15
100
AcDbLine
 10
159.3106895219
 20
143.6533608469
 30
0.0
 11
159.2106895219
 21
143.6533608469
 31
0.0
  0
LINE
  5
C4
330
1F
100
AcDbEntity
  8
0
  6
Continuous
 62
     7
370
    15
100
AcDbLine
 10
159.3106895219
 20
138.6533608469
 30
0.0
 11
159.9106895219
 21
138.6533608469
 31
0.0
  0
LINE
  5
C5
330
1F
100
AcDbEntity
  8
0
  6
Continuous
 62
     7
370
    15
100
AcDbLine
 10
159.9106895219
 20
144.7362916947
 30
0.0
 11
159.3106895219
 21
144.7362916947
 31
0.0
  0
LINE
  5
C6
330
1F
100
AcDbEntity
  8
0
  6
Continuous
 62
     7
370
    15
100
AcDbLine
 10
118.8606895219
 20
130.3533608469
 30
0.0
 11
119.2106895219
 21
127.8533608469
 31
0.0
  0
LINE
  5
C7
330
1F
100
AcDbEntity
  8
0
  6
Continuous
 62
     7
370
    15
100
AcDbLine
 10
123.2106895219
 20
127.8533608469
 30
0.0
 11
123.5606895219
 21
130.3533608469
 31
0.0
  0
LINE
  5
C8
330
1F
100
AcDbEntity
  8
0
  6
Continuous
 62
     7
370
    15
100
AcDbLine
 10
118.8606895219
 20
127.8533608469
 30
0.0
 11
119.2106895219
 21
125.3533608469
 31
0.0
  0
LINE
  5
C9
330
1F
100
AcDbEntity
  8
0
  6
Continuous
 62
     7
370
    15
100
AcDbLine
 10
123.2106895219
 20
125.3533608469
 30
0.0
 11
123.5606895219
 21
127.8533608469
 31
0.0
  0
LINE
  5
CA
330
1F
100
AcDbEntity
  8
0
  6
Continuous
 62
     7
370
    15
100
AcDbLine
 10
123.3106895219
 20
130.3533608469
 30
0.0
 11
123.3106895219
 21
132.8533608469
 31
0.0
  0
LINE
  5
CB
330
1F
100
AcDbEntity
  8
0
  6
Continuous
 62
     7
370
    15
100
AcDbLine
 10
119.1106895219
 20
132.8533608469
 30
0.0
 11
119.1106895219
 21
130.3533608469
 31
0.0
  0
LWPOLYLINE
  5
CC
330
1F
100
AcDbEntity
  8
0
  6
Continuous
 62
     7
370
    15
100
AcDbPolyline
 90
       32
 70
   128
 43
0.0
 10
127.041628991
 20
146.2178941638
 10
127.0452251871
 20
146.2044643239
 10
127.0638294713
 20
146.1357642123
 10
127.0907306946
 20
146.0078156074
 10
127.1245358503
 20
145.8042782062
 10
127.164186332
 20
145.5110609227
 10
127.2071371253
 20
145.1342972314
 10
127.2491977346
 20
144.7126629402
 10
127.2901595099
 20
144.2590989672
 10
127.3299584449
 20
143.7842264265
 10
127.368542112
 20
143.2984792169
 10
127.4055925181
 20
142.8156467514
 10
127.438779735
 20
142.3751633602
 10
127.4675789281
 20
141.9907354042
 10
127.491983424
 20
141.6658772376
 10
127.5141450661
 20
141.3733253135
 10
127.5412461394
 20
141.0209424649
 10
127.5738939865
 20
140.6076186949
 10
127.6121403447
 20
140.1440004731
 10
127.6560528599
 20
139.6467325033
 10
127.7040114514
 20
139.1568515351
 10
127.7483309
 20
138.763818365
 10
127.788191001
 20
138.4662151011
 10
127.8237601339
 20
138.2473890969
 10
127.8552302211
 20
138.0907902781
 10
127.8828167279
 20
137.9815039244
 10
127.9067586628
 20
137.9066820023
 10
127.9306379146
 20
137.8490904895
 10
128.0220142227
 20
137.7252626058
 10
128.1028872358
 20
137.6745000152
 10
128.2101208695
 20
137.6534881717
 10
128.2101208695
 20
137.6534881717
  0
SPLINE
  5
CD
330
1F
100
AcDbEntity
  8
0
  6
Continuous
 62
     7
370
    15
100
AcDbSpline
210
0.0
220
0.0
230
1.0
 70
     8
 71
     3
 72
    40
 73
    36
 74
     0
 42
0.00000001
 43
0.00000001
 12
1.0
 22
0.0
 32
0.0
 13
1.0
 23
0.0
 33
0.0
 40
0.0
 40
0.0
 40
0.0
 40
0.0
 40
0.0002635677144803
 40
0.0097794383779535
 40
0.0188702516123283
 40
0.0293482501269931
 40
0.0412244057621882
 40
0.0545085699253295
 40
0.085320939988461
 40
0.121836418956613
 40
0.1640522199551586
 40
0.2089210495085366
 40
0.2503643842741444
 40
0.2882215996994341
 40
0.3225108472105983
 40
0.3532140208963793
 40
0.3885187156705259
 40
0.4196579797822025
 40
0.4528751511502158
 40
0.4885194295992197
 40
0.5267386508424405
 40
0.5693594737937611
 40
0.6046266054231227
 40
0.6427117635129773
 40
0.6836008161053725
 40
0.72729415782944
 40
0.7721812145628422
 40
0.8132762682854348
 40
0.8502291074529522
 40
0.8830197914056273
 40
0.9116340311337485
 40
0.9362817890846187
 40
0.964170950430259
 40
0.9810576020914882
 40
0.9999999999999999
 40
0.9999999999999999
 40
0.9999999999999999
 40
0.9999999999999999
 10
129.0677478072758
 20
146.1640650338557
 30
0.0
 10
129.0676558306043
 20
146.1640604021861
 30
0.0
 10
129.0642431205427
 20
146.1638885483341
 30
0.0
 10
129.0651009016296
 20
146.1558502305491
 30
0.0
 10
129.0669892064022
 20
146.1381345172545
 30
0.0
 10
129.0719339375119
 20
146.1121335404804
 30
0.0
 10
129.0789996066217
 20
146.0754177380364
 30
0.0
 10
129.0921113654476
 20
146.0059892156239
 30
0.0
 10
129.1139393349425
 20
145.8790357347694
 30
0.0
 10
129.1461132070992
 20
145.6585970381029
 30
0.0
 10
129.1838876192282
 20
145.3541033910586
 30
0.0
 10
129.2237655609745
 20
144.9821884027328
 30
0.0
 10
129.2623485547425
 20
144.5784348662597
 30
0.0
 10
129.2977679979928
 20
144.1752220744447
 30
0.0
 10
129.3298650398262
 20
143.7876225611727
 30
0.0
 10
129.3611822872793
 20
143.3940813161801
 30
0.0
 10
129.3915465503191
 20
143.0008482771951
 30
0.0
 10
129.4227149806969
 20
142.5892709545578
 30
0.0
 10
129.4540107533229
 20
142.1719002578869
 30
0.0
 10
129.4875568231403
 20
141.7242184409677
 30
0.0
 10
129.5240496815315
 20
141.2424100661433
 30
0.0
 10
129.5604172254419
 20
140.7739596992112
 30
0.0
 10
129.5967464578755
 20
140.3237777567313
 30
0.0
 10
129.6325960400889
 20
139.9010556995848
 30
0.0
 10
129.6712051587774
 20
139.4769317043208
 30
0.0
 10
129.7121252567661
 20
139.0703210322839
 30
0.0
 10
129.7532605487596
 20
138.714747721358
 30
0.0
 10
129.7929182877346
 20
138.4257334603631
 30
0.0
 10
129.8301295893845
 20
138.2055776588674
 30
0.0
 10
129.8642637918143
 20
138.0438798713498
 30
0.0
 10
129.8994014527238
 20
137.9240525765256
 30
0.0
 10
129.9290134273998
 20
137.8411663320588
 30
0.0
 10
129.9935924361027
 20
137.7407955080405
 30
0.0
 10
130.0963416367296
 20
137.6676255998359
 30
0.0
 10
130.1705428864448
 20
137.65879348744
 30
0.0
 10
130.209772216117
 20
137.6541240532969
 30
0.0
  0
SPLINE
  5
CE
330
1F
100
AcDbEntity
  8
0
  6
Continuous
 62
     7
370
    15
100
AcDbSpline
210
0.0
220
0.0
230
1.0
 70
     8
 71
     3
 72
    38
 73
    34
 74
     0
 42
0.00000001
 43
0.00000001
 12
1.0
 22
0.0
 32
0.0
 13
1.0
 23
0.0
 33
0.0
 40
0.0
 40
0.0
 40
0.0
 40
0.0
 40
0.0080921609718572
 40
0.0333958593709557
 40
0.0615489516019071
 40
0.0925664421087192
 40
0.1264373126192283
 40
0.1630915397738339
 40
0.2005051664254453
 40
0.2375000538949567
 40
0.2741029262421126
 40
0.3103292537928019
 40
0.3461630159841642
 40
0.3927576166777998
 40
0.4336588036727845
 40
0.4678511236843716
 40
0.4891282197464442
 40
0.5124474078745948
 40
0.5423714497138946
 40
0.5789182399125157
 40
0.6220866554718627
 40
0.6718596848671061
 40
0.7086725842705963
 40
0.7446744202005916
 40
0.7778129528212746
 40
0.8220991408628733
 40
0.8598551314007528
 40
0.8910493701941227
 40
0.9156651800050772
 40
0.9348912096168759
 40
0.9547272620183916
 40
0.9763662848709158
 40
1.0
 40
1.0
 40
1.0
 40
1.0
 10
131.0433038915664
 20
146.2174114329707
 30
0.0
 10
131.0429424144349
 20
146.2168096955034
 30
0.0
 10
131.0414506201549
 20
146.2143263613349
 30
0.0
 10
131.0583411590153
 20
146.1644349399176
 30
0.0
 10
131.0773788126021
 20
146.0765560440111
 30
0.0
 10
131.1041862422798
 20
145.9353240634801
 30
0.0
 10
131.1345297743574
 20
145.7393619291869
 30
0.0
 10
131.1682664961147
 20
145.4840087927947
 30
0.0
 10
131.2032203651625
 20
145.1783471915927
 30
0.0
 10
131.2383350882423
 20
144.8333882457904
 30
0.0
 10
131.2731768914338
 20
144.4571606353147
 30
0.0
 10
131.3076945110687
 20
144.0567339738244
 30
0.0
 10
131.3454112674158
 20
143.5948168922766
 30
0.0
 10
131.3846834233868
 20
143.0914183212078
 30
0.0
 10
131.4234568762857
 20
142.5799085150537
 30
0.0
 10
131.4541910106766
 20
142.170015579036
 30
0.0
 10
131.479299243461
 20
141.8352191397267
 30
0.0
 10
131.5030407298622
 20
141.5200109702042
 30
0.0
 10
131.5316495584369
 20
141.1442597171745
 30
0.0
 10
131.5666071347136
 20
140.6954762579794
 30
0.0
 10
131.6079656622613
 20
140.186238433611
 30
0.0
 10
131.6495766478611
 20
139.7090097980743
 30
0.0
 10
131.6889445192149
 20
139.2983333452009
 30
0.0
 10
131.7231053263505
 20
138.975857222004
 30
0.0
 10
131.7599655369308
 20
138.6657427271703
 30
0.0
 10
131.7979599442685
 20
138.3928083533188
 30
0.0
 10
131.8365758791367
 20
138.1710182440185
 30
0.0
 10
131.8701749526557
 20
138.0205878953966
 30
0.0
 10
131.899975880221
 20
137.920870617174
 30
0.0
 10
131.9286335893431
 20
137.8464378353701
 30
0.0
 10
131.9792630883601
 20
137.7629088963901
 30
0.0
 10
132.0679944049735
 20
137.6782284885614
 30
0.0
 10
132.1609729471522
 20
137.6633972645483
 30
0.0
 10
132.2095105103069
 20
137.6556549246994
 30
0.0
  0
SPLINE
  5
CF
330
1F
100
AcDbEntity
  8
0
  6
Continuous
 62
     7
370
    15
100
AcDbSpline
210
0.0
220
0.0
230
1.0
 70
     8
 71
     3
 72
    12
 73
     8
 74
     0
 42
0.00000001
 43
0.00000001
 12
1.0
 22
0.0
 32
0.0
 13
1.0
 23
0.0
 33
0.0
 40
0.0
 40
0.0
 40
0.0
 40
0.0
 40
0.2386962411750432
 40
0.4622880874918574
 40
0.6710886644390198
 40
0.9567313132137852
 40
1.0
 40
1.0
 40
1.0
 40
1.0
 10
132.8432743972816
 20
146.1640390772278
 30
0.0
 10
132.8283240974758
 20
146.084705089211
 30
0.0
 10
132.7993695338402
 20
145.9310572671384
 30
0.0
 10
132.7573654571552
 20
145.6254008305989
 30
0.0
 10
132.712525050432
 20
145.2382717394369
 30
0.0
 10
132.67899606272
 20
144.9135088270589
 30
0.0
 10
132.6585591022151
 20
144.6836049782491
 30
0.0
 10
132.6558705951697
 20
144.6533608469298
 30
0.0
  0
SPLINE
  5
D0
330
1F
100
AcDbEntity
  8
0
  6
Continuous
 62
     7
370
    15
100
AcDbSpline
210
0.0
220
0.0
230
1.0
 70
     8
 71
     3
 72
     9
 73
     5
 74
     0
 42
0.00000001
 43
0.00000001
 12
1.0
 22
0.0
 32
0.0
 13
1.0
 23
0.0
 33
0.0
 40
0.0
 40
0.0
 40
0.0
 40
0.0
 40
0.5797957339901874
 40
1.0
 40
1.0
 40
1.0
 40
1.0
 10
132.2545251903294
 20
139.6533608469298
 30
0.0
 10
132.2447851819618
 20
139.5491205137159
 30
0.0
 10
132.2279861477561
 20
139.3693324830305
 30
0.0
 10
132.2112735428619
 20
139.2142282081928
 30
0.0
 10
132.2042508349893
 20
139.1490527302296
 30
0.0
  0
SPLINE
  5
D1
330
1F
100
AcDbEntity
  8
0
  6
Continuous
 62
     7
370
    15
100
AcDbSpline
210
0.0
220
0.0
230
1.0
 70
     8
 71
     3
 72
    18
 73
    14
 74
     0
 42
0.00000001
 43
0.00000001
 12
1.0
 22
0.0
 32
0.0
 13
1.0
 23
0.0
 33
0.0
 40
0.0
 40
0.0
 40
0.0
 40
0.0
 40
0.0628866453774066
 40
0.1182812963455973
 40
0.1878485066055925
 40
0.2468726127566283
 40
0.3090080627319712
 40
0.3755361709286341
 40
0.5046271476745289
 40
0.6477719006949239
 40
0.8014815876727829
 40
0.9157404435795647
 40
1.0
 40
1.0
 40
1.0
 40
1.0
 10
131.2104607782253
 20
146.6515969729547
 30
0.0
 10
131.1681407889398
 20
146.64582124948
 30
0.0
 10
131.0885425981954
 20
146.6349578927874
 30
0.0
 10
130.9934625745884
 20
146.5605587201613
 30
0.0
 10
130.9354482783367
 20
146.4732374936184
 30
0.0
 10
130.9093310151943
 20
146.4079267896345
 30
0.0
 10
130.8827374387543
 20
146.3286167480983
 30
0.0
 10
130.8505733344261
 20
146.2041009336215
 30
0.0
 10
130.8114751573753
 20
146.0051485135372
 30
0.0
 10
130.7654391537869
 20
145.692501265375
 30
0.0
 10
130.7221802026357
 20
145.3266047050804
 30
0.0
 10
130.6852148342429
 20
144.9717260125518
 30
0.0
 10
130.6644671765003
 20
144.748224346211
 30
0.0
 10
130.6556609986871
 20
144.6533608469298
 30
0.0
  0
SPLINE
  5
D2
330
1F
100
AcDbEntity
  8
0
  6
Continuous
 62
     7
370
    15
100
AcDbSpline
210
0.0
220
0.0
230
1.0
 70
     8
 71
     3
 72
    10
 73
     6
 74
     0
 42
0.00000001
 43
0.00000001
 12
1.0
 22
0.0
 32
0.0
 13
1.0
 23
0.0
 33
0.0
 40
0.0
 40
0.0
 40
0.0
 40
0.0
 40
0.2590444088768183
 40
0.9515953171523015
 40
1.0
 40
1.0
 40
1.0
 40
1.0
 10
130.2545490403649
 20
139.6533608469298
 30
0.0
 10
130.2502344597152
 20
139.6063174669974
 30
0.0
 10
130.2343849196321
 20
139.4335043951352
 30
0.0
 10
130.2177070838812
 20
139.2645630017631
 30
0.0
 10
130.2054868289301
 20
139.1552744555028
 30
0.0
 10
130.2046885117674
 20
139.1481349217925
 30
0.0
  0
SPLINE
  5
D3
330
1F
100
AcDbEntity
  8
0
  6
Continuous
 62
     7
370
    15
100
AcDbSpline
210
0.0
220
0.0
230
1.0
 70
     8
 71
     3
 72
    20
 73
    16
 74
     0
 42
0.00000001
 43
0.00000001
 12
1.0
 22
0.0
 32
0.0
 13
1.0
 23
0.0
 33
0.0
 40
0.0
 40
0.0
 40
0.0
 40
0.0
 40
0.0779283603074924
 40
0.1423782484471318
 40
0.2021609766069409
 40
0.2468363564183836
 40
0.2934307660820869
 40
0.3444999046251757
 40
0.400046383314602
 40
0.5026014510247452
 40
0.617749464497612
 40
0.745593447784355
 40
0.8766227930695253
 40
0.9973713234817989
 40
1.0
 40
1.0
 40
1.0
 40
1.0
 10
129.209984737972
 20
146.6504871215355
 30
0.0
 10
129.1676344414371
 20
146.644587015343
 30
0.0
 10
129.0902587464006
 20
146.6338072840356
 30
0.0
 10
129.0014138718884
 20
146.5621238846019
 30
0.0
 10
128.946056649972
 20
146.4854621276686
 30
0.0
 10
128.9180280916835
 20
146.4243546014186
 30
0.0
 10
128.894869061025
 20
146.3620445108158
 30
0.0
 10
128.8728371596166
 20
146.2879479894261
 30
0.0
 10
128.84542281061
 20
146.1760515807089
 30
0.0
 10
128.8130002032016
 20
146.007587433475
 30
0.0
 10
128.7747790189053
 20
145.7557377417286
 30
0.0
 10
128.7350425858041
 20
145.4400119621017
 30
0.0
 10
128.6952518635475
 20
145.0691194764908
 30
0.0
 10
128.6685622657727
 20
144.801031256587
 30
0.0
 10
128.6556576797441
 20
144.6564414787834
 30
0.0
 10
128.6553827344514
 20
144.6533608469298
 30
0.0
  0
SPLINE
  5
D4
330
1F
100
AcDbEntity
  8
0
  6
Continuous
 62
     7
370
    15
100
AcDbSpline
210
0.0
220
0.0
230
1.0
 70
     8
 71
     3
 72
     9
 73
     5
 74
     0
 42
0.00000001
 43
0.00000001
 12
1.0
 22
0.0
 32
0.0
 13
1.0
 23
0.0
 33
0.0
 40
0.0
 40
0.0
 40
0.0
 40
0.0
 40
0.6201766459970134
 40
1.0
 40
1.0
 40
1.0
 40
1.0
 10
128.2546015022009
 20
139.6533608469298
 30
0.0
 10
128.2441756279551
 20
139.5407817065436
 30
0.0
 10
128.2273644914618
 20
139.3592541673935
 30
0.0
 10
128.2106060971994
 20
139.2068821646085
 30
0.0
 10
128.204240867683
 20
139.1490077194545
 30
0.0
  0
SPLINE
  5
D5
330
1F
100
AcDbEntity
  8
0
  6
Continuous
 62
     7
370
    15
100
AcDbSpline
210
0.0
220
0.0
230
1.0
 70
     8
 71
     3
 72
    14
 73
    10
 74
     0
 42
0.00000001
 43
0.00000001
 12
1.0
 22
0.0
 32
0.0
 13
1.0
 23
0.0
 33
0.0
 40
0.0
 40
0.0
 40
0.0
 40
0.0
 40
0.1481684394512523
 40
0.2765892993066292
 40
0.3881164695093621
 40
0.4960480522530115
 40
0.7226892209026459
 40
0.9643199701019455
 40
1.0
 40
1.0
 40
1.0
 40
1.0
 10
127.2093773159349
 20
146.6508301390118
 30
0.0
 10
127.1536316571838
 20
146.6404613572999
 30
0.0
 10
127.0495700044429
 20
146.621105723408
 30
0.0
 10
126.9617417637864
 20
146.5200431131526
 30
0.0
 10
126.9234078467524
 20
146.44648750023
 30
0.0
 10
126.8888489316563
 20
146.3548823602536
 30
0.0
 10
126.847686753572
 20
146.1944967478478
 30
0.0
 10
126.8163467938552
 20
146.0339523348487
 30
0.0
 10
126.8001401881742
 20
145.918247891723
 30
0.0
 10
126.7980549746923
 20
145.9033608469298
 30
0.0
  0
SPLINE
  5
D6
330
1F
100
AcDbEntity
  8
0
  6
Continuous
 62
     7
370
    15
100
AcDbSpline
210
0.0
220
0.0
230
1.0
 70
     8
 71
     3
 72
    19
 73
    15
 74
     0
 42
0.00000001
 43
0.00000001
 12
1.0
 22
0.0
 32
0.0
 13
1.0
 23
0.0
 33
0.0
 40
0.0
 40
0.0
 40
0.0
 40
0.0
 40
0.0572067797005653
 40
0.1082395576970292
 40
0.1735387109411795
 40
0.2285990435659064
 40
0.2871458537206268
 40
0.3523035198286896
 40
0.4494239192487658
 40
0.558211840953284
 40
0.6786229845467142
 40
0.8097402152862874
 40
0.9377417193493941
 40
1.0
 40
1.0
 40
1.0
 40
1.0
 10
128.1987600014622
 20
137.6535131739029
 30
0.0
 10
128.2380597469806
 20
137.6582850844018
 30
0.0
 10
128.3124178404581
 20
137.6673139002952
 30
0.0
 10
128.4045922430566
 20
137.7332899949569
 30
0.0
 10
128.4649316508143
 20
137.8155232226706
 30
0.0
 10
128.4929364438943
 20
137.880281242018
 30
0.0
 10
128.5179437165968
 20
137.9510963393087
 30
0.0
 10
128.5460546882779
 20
138.0533681059507
 30
0.0
 10
128.5779408279579
 20
138.2011469124053
 30
0.0
 10
128.614204347064
 20
138.4145360829939
 30
0.0
 10
128.6529381914362
 20
138.6929101815122
 30
0.0
 10
128.6929370504018
 20
139.0369791399715
 30
0.0
 10
128.7266925337005
 20
139.3639940684991
 30
0.0
 10
128.7465742837318
 20
139.5820175231304
 30
0.0
 10
128.7530801439961
 20
139.6533608469298
 30
0.0
  0
SPLINE
  5
D7
330
1F
100
AcDbEntity
  8
0
  6
Continuous
 62
     7
370
    15
100
AcDbSpline
210
0.0
220
0.0
230
1.0
 70
     8
 71
     3
 72
     9
 73
     5
 74
     0
 42
0.00000001
 43
0.00000001
 12
1.0
 22
0.0
 32
0.0
 13
1.0
 23
0.0
 33
0.0
 40
0.0
 40
0.0
 40
0.0
 40
0.0
 40
0.5220020134436524
 40
1.0
 40
1.0
 40
1.0
 40
1.0
 10
129.1543889098775
 20
144.6533608469298
 30
0.0
 10
129.1631213899122
 20
144.7480044765562
 30
0.0
 10
129.1798502143418
 20
144.9293134125163
 30
0.0
 10
129.1964793894968
 20
145.0812990095662
 30
0.0
 10
129.204428101739
 20
145.1539478189416
 30
0.0
  0
SPLINE
  5
D8
330
1F
100
AcDbEntity
  8
0
  6
Continuous
 62
     7
370
    15
100
AcDbSpline
210
0.0
220
0.0
230
1.0
 70
     8
 71
     3
 72
    26
 73
    22
 74
     0
 42
0.00000001
 43
0.00000001
 12
1.0
 22
0.0
 32
0.0
 13
1.0
 23
0.0
 33
0.0
 40
0.0
 40
0.0
 40
0.0
 40
0.0
 40
0.0157852968852199
 40
0.0285652828195452
 40
0.0386889220437264
 40
0.0429787573352935
 40
0.0469287336103692
 40
0.0507309490997695
 40
0.0546001481362007
 40
0.0632855158427549
 40
0.081620013384062
 40
0.1043791608105491
 40
0.1449591519153848
 40
0.2319843382561935
 40
0.3271791310205729
 40
0.4374573828849074
 40
0.5560569981178125
 40
0.6745128082873217
 40
0.7929825218097514
 40
0.9116002975931816
 40
1.0
 40
1.0
 40
1.0
 40
1.0
 10
130.1988833320576
 20
137.6540796321551
 30
0.0
 10
130.2178440900785
 20
137.655164360126
 30
0.0
 10
130.2521557295287
 20
137.6571272982637
 30
0.0
 10
130.3006070888407
 20
137.6754401029985
 30
0.0
 10
130.3345825139797
 20
137.6953460145938
 30
0.0
 10
130.3563127143649
 20
137.7115970432148
 30
0.0
 10
130.369595195345
 20
137.7227563684448
 30
0.0
 10
130.3808711604579
 20
137.73315159873
 30
0.0
 10
130.3938725064368
 20
137.7459568826091
 30
0.0
 10
130.4096436641991
 20
137.7623797540755
 30
0.0
 10
130.4173848108158
 20
137.7668969149827
 30
0.0
 10
130.4278940533962
 20
137.7725550369601
 30
0.0
 10
130.4483579910098
 20
137.792452988872
 30
0.0
 10
130.4777931531481
 20
137.8417992719414
 30
0.0
 10
130.5160115234842
 20
137.9455057513416
 30
0.0
 10
130.5574345801894
 20
138.1071745145157
 30
0.0
 10
130.6003673587314
 20
138.333880706242
 30
0.0
 10
130.6425504098803
 20
138.6188627852761
 30
0.0
 10
130.6835196123035
 20
138.9558704401231
 30
0.0
 10
130.7202414061413
 20
139.3007036346312
 30
0.0
 10
130.7432147211575
 20
139.547832818547
 30
0.0
 10
130.7530246861348
 20
139.6533608469298
 30
0.0
  0
SPLINE
  5
D9
330
1F
100
AcDbEntity
  8
0
  6
Continuous
 62
     7
370
    15
100
AcDbSpline
210
0.0
220
0.0
230
1.0
 70
     8
 71
     3
 72
     9
 73
     5
 74
     0
 42
0.00000001
 43
0.00000001
 12
1.0
 22
0.0
 32
0.0
 13
1.0
 23
0.0
 33
0.0
 40
0.0
 40
0.0
 40
0.0
 40
0.0
 40
0.2867285744455683
 40
1.0
 40
1.0
 40
1.0
 40
1.0
 10
131.1545747837553
 20
144.6533608469298
 30
0.0
 10
131.1593781723619
 20
144.706629780956
 30
0.0
 10
131.1761305613271
 20
144.8924115229021
 30
0.0
 10
131.1927387783687
 20
145.047845734352
 30
0.0
 10
131.204584945014
 20
145.1587125159328
 30
0.0
  0
SPLINE
  5
DA
330
1F
100
AcDbEntity
  8
0
  6
Continuous
 62
     7
370
    15
100
AcDbSpline
210
0.0
220
0.0
230
1.0
 70
     8
 71
     3
 72
    19
 73
    15
 74
     0
 42
0.00000001
 43
0.00000001
 12
1.0
 22
0.0
 32
0.0
 13
1.0
 23
0.0
 33
0.0
 40
0.0
 40
0.0
 40
0.0
 40
0.0
 40
0.0453419070931023
 40
0.0868642565221235
 40
0.1583838421499305
 40
0.2166031646867321
 40
0.2752112077934303
 40
0.3645534505256833
 40
0.4666525450829555
 40
0.5815418783725855
 40
0.7093562354305082
 40
0.8468707645704739
 40
0.9779896567565975
 40
1.0
 40
1.0
 40
1.0
 40
1.0
 10
132.1990933778727
 20
137.6556304173771
 30
0.0
 10
132.2301122864563
 20
137.6586300424938
 30
0.0
 10
132.2895371012685
 20
137.6643766072573
 30
0.0
 10
132.380740718498
 20
137.7145364789611
 30
0.0
 10
132.4521690255708
 20
137.794413861163
 30
0.0
 10
132.4883265487508
 20
137.8694619861386
 30
0.0
 10
132.5163391163443
 20
137.9451290608444
 30
0.0
 10
132.5486729160938
 20
138.0608079863927
 30
0.0
 10
132.5841540021658
 20
138.2313413872238
 30
0.0
 10
132.6222711577655
 20
138.4660073210273
 30
0.0
 10
132.6628601933209
 20
138.773051579046
 30
0.0
 10
132.7044470350703
 20
139.1478828929943
 30
0.0
 10
132.7348948171559
 20
139.4492842751044
 30
0.0
 10
132.7508887644845
 20
139.6277139004895
 30
0.0
 10
132.7531876871528
 20
139.6533608469298
 30
0.0
  0
SPLINE
  5
DB
330
1F
100
AcDbEntity
  8
0
  6
Continuous
 62
     7
370
    15
100
AcDbSpline
210
0.0
220
0.0
230
1.0
 70
     8
 71
     3
 72
     9
 73
     5
 74
     0
 42
0.00000001
 43
0.00000001
 12
1.0
 22
0.0
 32
0.0
 13
1.0
 23
0.0
 33
0.0
 40
0.0
 40
0.0
 40
0.0
 40
0.0
 40
0.3464900963696886
 40
1.0
 40
1.0
 40
1.0
 40
1.0
 10
133.1545082722854
 20
144.6533608469298
 30
0.0
 10
133.1602820093698
 20
144.7172047254027
 30
0.0
 10
133.1769455075328
 20
144.9014636093992
 30
0.0
 10
133.1935647468934
 20
145.0545190115383
 30
0.0
 10
133.2044255844064
 20
145.1545422326402
 30
0.0
  0
LWPOLYLINE
  5
DC
330
1F
100
AcDbEntity
  8
0
  6
Continuous
 62
     7
370
    15
100
AcDbPolyline
 90
       34
 70
   128
 43
0.0
 10
132.3388205417
 20
138.1214284692
 10
132.3424248842
 20
138.1229161248
 10
132.3395489351
 20
138.1773640362
 10
132.3203454435
 20
138.2865858324
 10
132.2936281043
 20
138.4450077454
 10
132.2644402258
 20
138.6446019093
 10
132.2338434629
 20
138.8857098123
 10
132.2018484406
 20
139.1704314852
 10
132.1684856738
 20
139.5000158176
 10
132.1337827672
 20
139.8749893553
 10
132.097764415
 20
140.2936681375
 10
132.0604524013
 20
140.752714199
 10
132.0230110428
 20
141.2326487798
 10
131.9904866524
 20
141.6600529966
 10
131.9634828756
 20
142.0190051642
 10
131.9420091828
 20
142.3053055657
 10
131.9260728761
 20
142.5174562869
 10
131.910892392
 20
142.7187694065
 10
131.8896326462
 20
142.9985659381
 10
131.8622210088
 20
143.35384112
 10
131.8286272511
 20
143.777287791
 10
131.7888118832
 20
144.2560231375
 10
131.7428616921
 20
144.7677257365
 10
131.6969954562
 20
145.2235273536
 10
131.6544742509
 20
145.5895438953
 10
131.6150615045
 20
145.8761256329
 10
131.5784669543
 20
146.094422104
 10
131.5443466455
 20
146.255832737
 10
131.5123029319
 20
146.3715421639
 10
131.4715074215
 20
146.4713133514
 10
131.3786259222
 20
146.5870809105
 10
131.3005066745
 20
146.6330642527
 10
131.1999327259
 20
146.6515941338
 10
131.1999327259
 20
146.6515941338
  0
LWPOLYLINE
  5
DD
330
1F
100
AcDbEntity
  8
0
  6
Continuous
 62
     7
370
    15
100
AcDbPolyline
 90
       33
 70
   128
 43
0.0
 10
130.335229774
 20
138.1198298063
 10
130.3392573359
 20
138.1185509823
 10
130.3394525792
 20
138.1574257555
 10
130.324544067
 20
138.2496836101
 10
130.2985269186
 20
138.4069979219
 10
130.2648214318
 20
138.6387208167
 10
130.2258000702
 20
138.9519647841
 10
130.185384344
 20
139.3275106537
 10
130.1471133719
 20
139.7271849155
 10
130.111043224
 20
140.136613905
 10
130.0772148258
 20
140.5441116583
 10
130.0456632833
 20
140.9404073298
 10
130.0071861162
 20
141.4392425684
 10
129.9727646562
 20
141.8947371962
 10
129.9402652371
 20
142.3280610152
 10
129.9088004367
 20
142.7463143709
 10
129.878370975
 20
143.1457459947
 10
129.8456463535
 20
143.5654971537
 10
129.8174519492
 20
143.9155433187
 10
129.7860940218
 20
144.2884817469
 10
129.7515321082
 20
144.6749602343
 10
129.7137167632
 20
145.0635244763
 10
129.6726156212
 20
145.440544416
 10
129.6317486306
 20
145.7628226228
 10
129.5931120059
 20
146.0141212951
 10
129.5556906889
 20
146.2054256597
 10
129.5181130761
 20
146.3476052196
 10
129.478652694
 20
146.4513824873
 10
129.4520103169
 20
146.5001330071
 10
129.4019305235
 20
146.5627274532
 10
129.3190530538
 20
146.6228535629
 10
129.1992346496
 20
146.6504847926
 10
129.1992346496
 20
146.6504847926
  0
LWPOLYLINE
  5
DE
330
1F
100
AcDbEntity
  8
0
  6
Continuous
 62
     7
370
    15
100
AcDbPolyline
 90
       34
 70
   128
 43
0.0
 10
128.3385703923
 20
138.1222190774
 10
128.3424788997
 20
138.1242654421
 10
128.3394874286
 20
138.1799146079
 10
128.3200817446
 20
138.2891567756
 10
128.2930703563
 20
138.4480112255
 10
128.2635145857
 20
138.6495811246
 10
128.2325864939
 20
138.8943328883
 10
128.2003143949
 20
139.1842856062
 10
128.1667291842
 20
139.5192557142
 10
128.131858794
 20
139.8981524481
 10
128.0957281935
 20
140.3190092218
 10
128.0583593887
 20
140.7789008624
 10
128.020911847
 20
141.2590016289
 10
127.9883903095
 20
141.6867836779
 10
127.9613906187
 20
142.0461759538
 10
127.9399222111
 20
142.332812125
 10
127.923992366
 20
142.5451451733
 10
127.9088051546
 20
142.7467450065
 10
127.8875367793
 20
143.0267803666
 10
127.8601155134
 20
143.3819662799
 10
127.8265103563
 20
143.8044936659
 10
127.7866807837
 20
144.2806823734
 10
127.7407134209
 20
144.7886557463
 10
127.6948190146
 20
145.2424623435
 10
127.6522302434
 20
145.6079678618
 10
127.6126842612
 20
145.8936044704
 10
127.5758564169
 20
146.1094978752
 10
127.5413602549
 20
146.2673969181
 10
127.5087475148
 20
146.3800286121
 10
127.4671385634
 20
146.4770401125
 10
127.3742283763
 20
146.5888731905
 10
127.2971691606
 20
146.6330849356
 10
127.198548286
 20
146.6508377429
 10
127.198548286
 20
146.6508377429
  0
SPLINE
  5
DF
330
1F
100
AcDbEntity
  8
0
  6
Continuous
 62
     7
370
    15
100
AcDbSpline
210
0.0
220
0.0
230
1.0
 70
     8
 71
     3
 72
    26
 73
    22
 74
     0
 42
0.00000001
 43
0.00000001
 12
1.0
 22
0.0
 32
0.0
 13
1.0
 23
0.0
 33
0.0
 40
0.0
 40
0.0
 40
0.0
 40
0.0
 40
0.0152722982642524
 40
0.0277579930251068
 40
0.0378290761499751
 40
0.0421884462282953
 40
0.0462666532324484
 40
0.0502413670394327
 40
0.0543047169543973
 40
0.0633574528140567
 40
0.0820125483093474
 40
0.1049359259919692
 40
0.1457730110631965
 40
0.233236600597774
 40
0.3288500395361899
 40
0.4397044857856192
 40
0.5590957335338314
 40
0.6784575526158656
 40
0.7977288022992098
 40
0.9169544205742327
 40
1.0
 40
1.0
 40
1.0
 40
1.0
 10
134.1993936885819
 20
137.6550790375317
 30
0.0
 10
134.2183721307604
 20
137.656189250728
 30
0.0
 10
134.2528661837512
 20
137.6582071061696
 30
0.0
 10
134.3015410616621
 20
137.6764189265347
 30
0.0
 10
134.3356280240939
 20
137.6961515493855
 30
0.0
 10
134.357387064426
 20
137.7121900182399
 30
0.0
 10
134.3707938187057
 20
137.7232925134923
 30
0.0
 10
134.3821861322375
 20
137.7336537135132
 30
0.0
 10
134.3953405384102
 20
137.7464561570138
 30
0.0
 10
134.4113662241623
 20
137.7630738135715
 30
0.0
 10
134.4197700101721
 20
137.7685838512342
 30
0.0
 10
134.4307925266905
 20
137.7751187751529
 30
0.0
 10
134.451927212287
 20
137.7963892525201
 30
0.0
 10
134.4816329705534
 20
137.8471320880208
 30
0.0
 10
134.5197264406125
 20
137.9540401037425
 30
0.0
 10
134.5606534765049
 20
138.1199758865671
 30
0.0
 10
134.6030613596606
 20
138.3509873100469
 30
0.0
 10
134.644894132526
 20
138.6383868727995
 30
0.0
 10
134.6856504766211
 20
138.9750661296791
 30
0.0
 10
134.7216613215534
 20
139.3132021463666
 30
0.0
 10
134.7439740230073
 20
139.554352731566
 30
0.0
 10
134.753134848878
 20
139.6533608469298
 30
0.0
  0
SPLINE
  5
E0
330
1F
100
AcDbEntity
  8
0
  6
Continuous
 62
     7
370
    15
100
AcDbSpline
210
0.0
220
0.0
230
1.0
 70
     8
 71
     3
 72
     9
 73
     5
 74
     0
 42
0.00000001
 43
0.00000001
 12
1.0
 22
0.0
 32
0.0
 13
1.0
 23
0.0
 33
0.0
 40
0.0
 40
0.0
 40
0.0
 40
0.0
 40
0.3270594059050427
 40
1.0
 40
1.0
 40
1.0
 40
1.0
 10
135.1544752685579
 20
144.6533608469298
 30
0.0
 10
135.159947661421
 20
144.71403943821
 30
0.0
 10
135.176679768079
 20
144.8995671747147
 30
0.0
 10
135.193260690648
 20
145.0532715982413
 30
0.0
 10
135.2044186665322
 20
145.1567055443243
 30
0.0
  0
SPLINE
  5
E1
330
1F
100
AcDbEntity
  8
0
  6
Continuous
 62
     7
370
    15
100
AcDbSpline
210
0.0
220
0.0
230
1.0
 70
     8
 71
     3
 72
    19
 73
    15
 74
     0
 42
0.00000001
 43
0.00000001
 12
1.0
 22
0.0
 32
0.0
 13
1.0
 23
0.0
 33
0.0
 40
0.0
 40
0.0
 40
0.0
 40
0.0
 40
0.0570902646414605
 40
0.1080221922448473
 40
0.1732150734253311
 40
0.2282443660329821
 40
0.2869727475701722
 40
0.3525586071233203
 40
0.4506344906433002
 40
0.5608163906420794
 40
0.6830512821525659
 40
0.8163625479502981
 40
0.9463505366845034
 40
1.0
 40
1.0
 40
1.0
 40
1.0
 10
136.1988654857954
 20
137.6536398321071
 30
0.0
 10
136.2381516481553
 20
137.6583820054422
 30
0.0
 10
136.3124861675284
 20
137.6673548130281
 30
0.0
 10
136.4046356787743
 20
137.7331826403164
 30
0.0
 10
136.4649482238303
 20
137.8153185097454
 30
0.0
 10
136.4929549402243
 20
137.8800638872267
 30
0.0
 10
136.5180167934915
 20
137.9510889455176
 30
0.0
 10
136.5462842894348
 20
138.0541523219856
 30
0.0
 10
136.5784482514305
 20
138.2037632121473
 30
0.0
 10
136.615128952061
 20
138.4206818726655
 30
0.0
 10
136.6544066277435
 20
138.7045514984191
 30
0.0
 10
136.6950156515568
 20
139.056148916086
 30
0.0
 10
136.7282989658876
 20
139.3800888103294
 30
0.0
 10
136.7474834292081
 20
139.5915753157715
 30
0.0
 10
136.7530881473614
 20
139.6533608469298
 30
0.0
  0
SPLINE
  5
E2
330
1F
100
AcDbEntity
  8
0
  6
Continuous
 62
     7
370
    15
100
AcDbSpline
210
0.0
220
0.0
230
1.0
 70
     8
 71
     3
 72
     9
 73
     5
 74
     0
 42
0.00000001
 43
0.00000001
 12
1.0
 22
0.0
 32
0.0
 13
1.0
 23
0.0
 33
0.0
 40
0.0
 40
0.0
 40
0.0
 40
0.0
 40
0.5662457140979432
 40
1.0
 40
1.0
 40
1.0
 40
1.0
 10
137.1543204001347
 20
144.6533608469298
 30
0.0
 10
137.1638165659016
 20
144.7558755130115
 30
0.0
 10
137.1805869635055
 20
144.9369182362135
 30
0.0
 10
137.1972549501178
 20
145.0887070573497
 30
0.0
 10
137.2044847607482
 20
145.1545461090695
 30
0.0
  0
SPLINE
  5
E3
330
1F
100
AcDbEntity
  8
0
  6
Continuous
 62
     7
370
    15
100
AcDbSpline
210
0.0
220
0.0
230
1.0
 70
     8
 71
     3
 72
    20
 73
    16
 74
     0
 42
0.00000001
 43
0.00000001
 12
1.0
 22
0.0
 32
0.0
 13
1.0
 23
0.0
 33
0.0
 40
0.0
 40
0.0
 40
0.0
 40
0.0
 40
0.0252184597229358
 40
0.0462325737271404
 40
0.0637507138504062
 40
0.0790261739162113
 40
0.0939870229191349
 40
0.1107033653771195
 40
0.1748950552790544
 40
0.2552127647678924
 40
0.4081812759073259
 40
0.575419688974776
 40
0.7691304176747774
 40
0.9774944976217337
 40
1.0
 40
1.0
 40
1.0
 40
1.0
 10
138.1989786692187
 20
137.6538569958897
 30
0.0
 10
138.2181369573307
 20
137.6549216558592
 30
0.0
 10
138.2532595214112
 20
137.656873478892
 30
0.0
 10
138.3025370517084
 20
137.6750201755974
 30
0.0
 10
138.3421290194275
 20
137.6975690964599
 30
0.0
 10
138.3728388275119
 20
137.7215272336574
 30
0.0
 10
138.3947487062078
 20
137.7424742710234
 30
0.0
 10
138.4210137818511
 20
137.7700176281598
 30
0.0
 10
138.4277114737483
 20
137.7709103334873
 30
0.0
 10
138.4549882246335
 20
137.801313300405
 30
0.0
 10
138.4839421328805
 20
137.8557084325722
 30
0.0
 10
138.5225511406932
 20
137.9649540978436
 30
0.0
 10
138.562990488829
 20
138.1351534158706
 30
0.0
 10
138.5926904740331
 20
138.2851616621427
 30
0.0
 10
138.6081229592636
 20
138.3928620560268
 30
0.0
 10
138.6096273403499
 20
138.4033608469298
 30
0.0
  0
LWPOLYLINE
  5
E4
330
1F
100
AcDbEntity
  8
0
  6
Continuous
 62
     7
370
    15
100
AcDbPolyline
 90
       33
 70
   128
 43
0.0
 10
138.3352747129
 20
138.1197922785
 10
138.3393541785
 20
138.1185125808
 10
138.3395790181
 20
138.1572568991
 10
138.3248334947
 20
138.2485398699
 10
138.2991154264
 20
138.4035386527
 10
138.2658457988
 20
138.6311404816
 10
138.2273958019
 20
138.9380665977
 10
138.18758742
 20
139.3058391941
 10
138.1498371544
 20
139.6976827596
 10
138.1141999632
 20
140.0998349021
 10
138.0807161449
 20
140.501088629
 10
138.0494202923
 20
140.8924885672
 10
138.0111450979
 20
141.3871930649
 10
137.9767710798
 20
141.841350726
 10
137.9442736421
 20
142.2745728342
 10
137.9128108022
 20
142.6932597474
 10
137.8823834217
 20
143.0935885823
 10
137.8495553142
 20
143.516152394
 10
137.8211472237
 20
143.8704684461
 10
137.7894585111
 20
144.2493763175
 10
137.754448076
 20
144.643247282
 10
137.7160656341
 20
145.0402966568
 10
137.674280002
 20
145.4262134875
 10
137.6329142279
 20
145.7545185314
 10
137.5942020651
 20
146.0079589719
 10
137.5571811331
 20
146.1988551692
 10
137.520557578
 20
146.3394195508
 10
137.4827067031
 20
146.4416495266
 10
137.4568400668
 20
146.490810561
 10
137.4066061838
 20
146.5564330794
 10
137.3221941823
 20
146.6206014773
 10
137.1991597631
 20
146.6504352589
 10
137.1991597631
 20
146.6504352589
  0
SPLINE
  5
E5
330
1F
100
AcDbEntity
  8
0
  6
Continuous
 62
     7
370
    15
100
AcDbSpline
210
0.0
220
0.0
230
1.0
 70
     8
 71
     3
 72
    38
 73
    34
 74
     0
 42
0.00000001
 43
0.00000001
 12
1.0
 22
0.0
 32
0.0
 13
1.0
 23
0.0
 33
0.0
 40
0.0
 40
0.0
 40
0.0
 40
0.0
 40
0.0222373674283857
 40
0.056297010835481
 40
0.0904895780500824
 40
0.1246846088367997
 40
0.1596273308306832
 40
0.1959651513862627
 40
0.2337232802877992
 40
0.2728942869499739
 40
0.3134467615069829
 40
0.3553461072791468
 40
0.3955875318793308
 40
0.4296495319653998
 40
0.457476889499388
 40
0.479044115365385
 40
0.4944550304818436
 40
0.5114522174839756
 40
0.5346547074698045
 40
0.564060223750691
 40
0.5996663377557507
 40
0.6414995079832689
 40
0.6891441552720544
 40
0.7353842300258315
 40
0.7777656085313224
 40
0.8162683711107355
 40
0.8509035415749392
 40
0.8816945214086563
 40
0.9086387435707222
 40
0.9342998861084865
 40
0.9644435760143784
 40
0.9815474383809295
 40
1.0
 40
1.0
 40
1.0
 40
1.0
 10
136.3380537233655
 20
138.1278729520641
 30
0.0
 10
136.3413330234777
 20
138.1314869996907
 30
0.0
 10
136.3496350311027
 20
138.1406364675426
 30
0.0
 10
136.3335818549639
 20
138.2151716185894
 30
0.0
 10
136.3089468472042
 20
138.348675541106
 30
0.0
 10
136.2771706391613
 20
138.5453482154573
 30
0.0
 10
136.2440008607175
 20
138.7933861553063
 30
0.0
 10
136.2096219203616
 20
139.0910195709506
 30
0.0
 10
136.1737504249341
 20
139.4408372388829
 30
0.0
 10
136.1364622210387
 20
139.8411348576797
 30
0.0
 10
136.0977717506719
 20
140.2897583315697
 30
0.0
 10
136.0586500248433
 20
140.7715348160125
 30
0.0
 10
136.0215435904499
 20
141.2487271268809
 30
0.0
 10
135.9889542717084
 20
141.6785971148838
 30
0.0
 10
135.9623461998733
 20
142.0333524507517
 30
0.0
 10
135.9416950839509
 20
142.3093060197561
 30
0.0
 10
135.9245004666034
 20
142.5386175243724
 30
0.0
 10
135.9067818947624
 20
142.7739682163214
 30
0.0
 10
135.8845893441255
 20
143.0663245914708
 30
0.0
 10
135.8564292297863
 20
143.4311309797588
 30
0.0
 10
135.8222592937438
 20
143.860596089853
 30
0.0
 10
135.7821798613876
 20
144.3388496007439
 30
0.0
 10
135.7387098912117
 20
144.8182834593832
 30
0.0
 10
135.69486323586
 20
145.2513777331699
 30
0.0
 10
135.6535067237654
 20
145.607085712065
 30
0.0
 10
135.6151674899371
 20
145.8860051316125
 30
0.0
 10
135.5797461850056
 20
146.0968672105032
 30
0.0
 10
135.5465246505315
 20
146.2528748124261
 30
0.0
 10
135.5156233651561
 20
146.3641442762017
 30
0.0
 10
135.4779173541591
 20
146.4690812100182
 30
0.0
 10
135.4024007985386
 20
146.5743328437389
 30
0.0
 10
135.3008894749265
 20
146.6397160370908
 30
0.0
 10
135.2334681444545
 20
146.6471640503099
 30
0.0
 10
135.1984787918841
 20
146.651029313108
 30
0.0
  0
SPLINE
  5
E6
330
1F
100
AcDbEntity
  8
0
  6
Continuous
 62
     7
370
    15
100
AcDbSpline
210
0.0
220
0.0
230
1.0
 70
     8
 71
     3
 72
    31
 73
    27
 74
     0
 42
0.00000001
 43
0.00000001
 12
1.0
 22
0.0
 32
0.0
 13
1.0
 23
0.0
 33
0.0
 40
0.0
 40
0.0
 40
0.0
 40
0.0
 40
0.0082503179158255
 40
0.0338125576023094
 40
0.0703297496869526
 40
0.1096273540568043
 40
0.1516766327892387
 40
0.1964721817154235
 40
0.2430972266060935
 40
0.2869989592032861
 40
0.3464375030658743
 40
0.3981620498802724
 40
0.4421832136365222
 40
0.4784998728150967
 40
0.5031086902279208
 40
0.5369754841209768
 40
0.5802312208779494
 40
0.6188307452777151
 40
0.6626939556661602
 40
0.7118585873003471
 40
0.7663865984667048
 40
0.8262753672955333
 40
0.8914588483209064
 40
0.937875390479199
 40
0.9866910445486337
 40
1.0
 40
1.0
 40
1.0
 40
1.0
 10
134.33526155966
 20
138.122977808448
 30
0.0
 10
134.3370208091659
 20
138.1230112581581
 30
0.0
 10
134.3442308010547
 20
138.1231483462392
 30
0.0
 10
134.3398892170371
 20
138.1524634016215
 30
0.0
 10
134.3300023997847
 20
138.2200209450167
 30
0.0
 10
134.3062482285956
 20
138.3523720244911
 30
0.0
 10
134.2760658063023
 20
138.5493816159787
 30
0.0
 10
134.2408670704311
 20
138.817472542451
 30
0.0
 10
134.2038558271821
 20
139.1440803971028
 30
0.0
 10
134.1629272227339
 20
139.5511507074496
 30
0.0
 10
134.1203765758024
 20
140.0209318395837
 30
0.0
 10
134.0776520018844
 20
140.5333545227465
 30
0.0
 10
134.0412203581981
 20
140.9939288843734
 30
0.0
 10
134.0122664303332
 20
141.3711378122765
 30
0.0
 10
133.9861278138304
 20
141.7166823587806
 30
0.0
 10
133.9580821590232
 20
142.090745018692
 30
0.0
 10
133.9261641574189
 20
142.5175863946571
 30
0.0
 10
133.8914711564009
 20
142.9771984332939
 30
0.0
 10
133.8550995811769
 20
143.4491545337714
 30
0.0
 10
133.8143148676706
 20
143.958136984609
 30
0.0
 10
133.7691430216626
 20
144.4885917822957
 30
0.0
 10
133.7195721116001
 20
145.0185771510486
 30
0.0
 10
133.6721612358116
 20
145.4604440894115
 30
0.0
 10
133.6277961879229
 20
145.8005519651668
 30
0.0
 10
133.5977696157195
 20
146.0013545944165
 30
0.0
 10
133.5806035804225
 20
146.080278485571
 30
0.0
 10
133.5769261005831
 20
146.0971863512224
 30
0.0
  0
LINE
  5
E7
330
1F
100
AcDbEntity
  8
0
  6
Continuous
 62
     7
370
    15
100
AcDbLine
 10
133.5596661053
 20
146.1791208021
 30
0.0
 11
133.5454681847
 21
146.246519362
 31
0.0
  0
SPLINE
  5
E8
330
1F
100
AcDbEntity
  8
0
  6
Continuous
 62
     7
370
    15
100
AcDbSpline
210
0.0
220
0.0
230
1.0
 70
     8
 71
     3
 72
    12
 73
     8
 74
     0
 42
0.00000001
 43
0.00000001
 12
1.0
 22
0.0
 32
0.0
 13
1.0
 23
0.0
 33
0.0
 40
0.0
 40
0.0
 40
0.0
 40
0.0
 40
0.2202608693271893
 40
0.4203432737287513
 40
0.5993276214077267
 40
0.8259375330437226
 40
1.0
 40
1.0
 40
1.0
 40
1.0
 10
133.6142634194426
 20
145.8715157495783
 30
0.0
 10
133.6002946405626
 20
145.9664248802476
 30
0.0
 10
133.5736367858908
 20
146.1475483581226
 30
0.0
 10
133.5175181655969
 20
146.3519873518079
 30
0.0
 10
133.4398746106669
 20
146.5154482605165
 30
0.0
 10
133.3437783205177
 20
146.6296413217191
 30
0.0
 10
133.2404068738285
 20
146.6453987362052
 30
0.0
 10
133.1954996379298
 20
146.6522441655006
 30
0.0
  0
LINE
  5
E9
330
1F
100
AcDbEntity
  8
0
  6
Continuous
 62
     7
370
    15
100
AcDbLine
 10
133.0896076043
 20
146.0112870318
 30
0.0
 11
133.1166904653
 21
145.868994044
 31
0.0
  0
SPLINE
  5
EA
330
1F
100
AcDbEntity
  8
0
  6
Continuous
 62
     7
370
    15
100
AcDbSpline
210
0.0
220
0.0
230
1.0
 70
     8
 71
     3
 72
    39
 73
    35
 74
     0
 42
0.00000001
 43
0.00000001
 12
1.0
 22
0.0
 32
0.0
 13
1.0
 23
0.0
 33
0.0
 40
0.0
 40
0.0
 40
0.0
 40
0.0
 40
0.0081482387588122
 40
0.0335252350169119
 40
0.0612197046808184
 40
0.0912253546492364
 40
0.1235456641852068
 40
0.1581834630618706
 40
0.1937842874649495
 40
0.2293294839929954
 40
0.2647892320146429
 40
0.300142374690497
 40
0.3353908172205098
 40
0.381878572917874
 40
0.4228384361245106
 40
0.4566422263725923
 40
0.4772791269572426
 40
0.4978917813726291
 40
0.5241186008274349
 40
0.5560040572596302
 40
0.5935842058709947
 40
0.6369091768595451
 40
0.6690088007991126
 40
0.703665651046809
 40
0.7392298755158717
 40
0.7878192115854317
 40
0.8306085197347433
 40
0.8676116464125696
 40
0.8987897944175082
 40
0.9241010859971097
 40
0.9459031723218342
 40
0.9708579606707555
 40
0.984903158121695
 40
1.0
 40
1.0
 40
1.0
 40
1.0
 10
135.0432937109203
 20
146.2151764603308
 30
0.0
 10
135.0428966474949
 20
146.2146424437692
 30
0.0
 10
135.0412629638186
 20
146.2124452780674
 30
0.0
 10
135.0582255825004
 20
146.1637328818867
 30
0.0
 10
135.0767060110442
 20
146.0802012104738
 30
0.0
 10
135.1025125951138
 20
145.9470231605382
 30
0.0
 10
135.1314102174662
 20
145.7627486621116
 30
0.0
 10
135.1634188750113
 20
145.5233906307481
 30
0.0
 10
135.1966788264327
 20
145.2368687720868
 30
0.0
 10
135.2303165164285
 20
144.912707341647
 30
0.0
 10
135.2640094813564
 20
144.5573487642474
 30
0.0
 10
135.2977201111778
 20
144.1749308810049
 30
0.0
 10
135.335018786558
 20
143.726037085942
 30
0.0
 10
135.3741534739121
 20
143.22940792638
 30
0.0
 10
135.4127669146978
 20
142.7221452841101
 30
0.0
 10
135.4431410649901
 20
142.3171988478906
 30
0.0
 10
135.4670356873976
 20
141.9979313522655
 30
0.0
 10
135.4885281630723
 20
141.7113933863436
 30
0.0
 10
135.5136305860724
 20
141.3790683701407
 30
0.0
 10
135.5441908523808
 20
140.980976011478
 30
0.0
 10
135.58024861648
 20
140.5251996675869
 30
0.0
 10
135.6164071700672
 20
140.0899321222512
 30
0.0
 10
135.651648166542
 20
139.6912679467075
 30
0.0
 10
135.6844623611162
 20
139.3445668074935
 30
0.0
 10
135.7226717208932
 20
138.9754956624217
 30
0.0
 10
135.7640139549194
 20
138.6282960123878
 30
0.0
 10
135.806760246998
 20
138.3368856537728
 30
0.0
 10
135.8450464583603
 20
138.1305560432926
 30
0.0
 10
135.8796811146062
 20
137.987626561965
 30
0.0
 10
135.9111414301593
 20
137.8917806934556
 30
0.0
 10
135.9479030848476
 20
137.8065111005508
 30
0.0
 10
136.0203125458247
 20
137.7184939985235
 30
0.0
 10
136.1148029484047
 20
137.6634229084464
 30
0.0
 10
136.1770245968562
 20
137.6569549402144
 30
0.0
 10
136.2092581127563
 20
137.6536042517959
 30
0.0
  0
SPLINE
  5
EB
330
1F
100
AcDbEntity
  8
0
  6
Continuous
 62
     7
370
    15
100
AcDbSpline
210
0.0
220
0.0
230
1.0
 70
     8
 71
     3
 72
    36
 73
    32
 74
     0
 42
0.00000001
 43
0.00000001
 12
1.0
 22
0.0
 32
0.0
 13
1.0
 23
0.0
 33
0.0
 40
0.0
 40
0.0
 40
0.0
 40
0.0
 40
0.0119484489561981
 40
0.0377984253867559
 40
0.0678892995374893
 40
0.1022708137283936
 40
0.1409646815202653
 40
0.1838401453992645
 40
0.226042528530557
 40
0.264899483100677
 40
0.3004179592165226
 40
0.332613973889489
 40
0.3614737088441407
 40
0.3949015254398481
 40
0.4272566605409327
 40
0.4606069185137684
 40
0.4949458034123744
 40
0.5318968709280043
 40
0.5731583358283171
 40
0.6069636068354466
 40
0.643210544494216
 40
0.6818853141024911
 40
0.7229791407966216
 40
0.766258111149523
 40
0.8081168045856724
 40
0.8474485408805409
 40
0.8843037376706739
 40
0.9187188077500227
 40
0.950698404604113
 40
0.9780855344306086
 40
1.0
 40
1.0
 40
1.0
 40
1.0
 10
137.0605501495309
 20
146.1877274713402
 30
0.0
 10
137.0593703398901
 20
146.1857162560043
 30
0.0
 10
137.0556380607599
 20
146.1793538592541
 30
0.0
 10
137.0695989335374
 20
146.1261201496307
 30
0.0
 10
137.0891575939552
 20
146.0234299851025
 30
0.0
 10
137.118167510311
 20
145.853659260531
 30
0.0
 10
137.1527566117819
 20
145.6085819935568
 30
0.0
 10
137.1913878707781
 20
145.2876246809709
 30
0.0
 10
137.2302651055715
 20
144.9159514436985
 30
0.0
 10
137.2669816805778
 20
144.5266172613617
 30
0.0
 10
137.3006468034576
 20
144.1408591586093
 30
0.0
 10
137.3311872384254
 20
143.7711210325793
 30
0.0
 10
137.3610792871927
 20
143.3953415347304
 30
0.0
 10
137.3910484908709
 20
143.0074864560733
 30
0.0
 10
137.4224421670108
 20
142.5929608779668
 30
0.0
 10
137.454146296296
 20
142.1700338421724
 30
0.0
 10
137.4873370514879
 20
141.7270641559635
 30
0.0
 10
137.5230544235905
 20
141.2553716852227
 30
0.0
 10
137.5586078255763
 20
140.7970536618134
 30
0.0
 10
137.5939359506704
 20
140.3583061989979
 30
0.0
 10
137.6284966051587
 20
139.9487756601502
 30
0.0
 10
137.6654533872024
 20
139.5387121676746
 30
0.0
 10
137.7048472221892
 20
139.1399335671613
 30
0.0
 10
137.7451981615585
 20
138.7798485151581
 30
0.0
 10
137.7861725734078
 20
138.4710271215133
 30
0.0
 10
137.8278646587257
 20
138.2193722266941
 30
0.0
 10
137.8720518667081
 20
138.0215193202652
 30
0.0
 10
137.9226578512783
 20
137.8679938549686
 30
0.0
 10
137.9804409763204
 20
137.7678043328596
 30
0.0
 10
138.0503051283913
 20
137.6833340802822
 30
0.0
 10
138.160420379628
 20
137.6629404921155
 30
0.0
 10
138.2093663997825
 20
137.6538755808864
 30
0.0
  0
SPLINE
  5
EC
330
1F
100
AcDbEntity
  8
0
  6
Continuous
 62
     7
370
    15
100
AcDbSpline
210
0.0
220
0.0
230
1.0
 70
     8
 71
     3
 72
    14
 73
    10
 74
     0
 42
0.00000001
 43
0.00000001
 12
1.0
 22
0.0
 32
0.0
 13
1.0
 23
0.0
 33
0.0
 40
0.0
 40
0.0
 40
0.0
 40
0.0
 40
0.0641015255473764
 40
0.2030904309472219
 40
0.3575448789561115
 40
0.5275011356749061
 40
0.7128100600559882
 40
0.9066884774580029
 40
1.0
 40
1.0
 40
1.0
 40
1.0
 10
139.041540101751
 20
146.2202584002233
 30
0.0
 10
139.0425600241283
 20
146.2163744078003
 30
0.0
 10
139.0457914054936
 20
146.2040689019915
 30
0.0
 10
139.063605723873
 20
146.1420083909593
 30
0.0
 10
139.0882764680883
 20
146.0236117118785
 30
0.0
 10
139.1195324616532
 20
145.841979347398
 30
0.0
 10
139.1547089205439
 20
145.5909533641208
 30
0.0
 10
139.1856678803293
 20
145.3385094836759
 30
0.0
 10
139.2045533891932
 20
145.155734259848
 30
0.0
 10
139.2106895219087
 20
145.0963483550992
 30
0.0
  0
SPLINE
  5
ED
330
1F
100
AcDbEntity
  8
0
  6
Continuous
 62
     7
370
    15
100
AcDbSpline
210
0.0
220
0.0
230
1.0
 70
     8
 71
     3
 72
    15
 73
    11
 74
     0
 42
0.00000001
 43
0.00000001
 12
1.0
 22
0.0
 32
0.0
 13
1.0
 23
0.0
 33
0.0
 40
0.0
 40
0.0
 40
0.0
 40
0.0
 40
0.1245385663280075
 40
0.2326415271544997
 40
0.3658081559096079
 40
0.4844665445364813
 40
0.6137960596992306
 40
0.7541259273933002
 40
0.9583572584292527
 40
1.0
 40
1.0
 40
1.0
 40
1.0
 10
139.2103234746271
 20
146.6513410181229
 30
0.0
 10
139.1641028901129
 20
146.6443753226127
 30
0.0
 10
139.0777615447417
 20
146.6313632084624
 30
0.0
 10
138.9799573666468
 20
146.5455399953242
 30
0.0
 10
138.9268028102504
 20
146.4551278725655
 30
0.0
 10
138.900250878969
 20
146.3831259596029
 30
0.0
 10
138.8707263339695
 20
146.2866015315774
 30
0.0
 10
138.8395184664041
 20
146.1491345025327
 30
0.0
 10
138.8150401571986
 20
146.0239448902453
 30
0.0
 10
138.8003784965609
 20
145.9208257390882
 30
0.0
 10
138.7978953077542
 20
145.9033608469298
 30
0.0
  0
SPLINE
  5
EE
330
1F
100
AcDbEntity
  8
0
  6
Continuous
 62
     7
370
    15
100
AcDbSpline
210
0.0
220
0.0
230
1.0
 70
     8
 71
     3
 72
    21
 73
    17
 74
     0
 42
0.00000001
 43
0.00000001
 12
1.0
 22
0.0
 32
0.0
 13
1.0
 23
0.0
 33
0.0
 40
0.0
 40
0.0
 40
0.0
 40
0.0
 40
0.1014189495582114
 40
0.1799459321309037
 40
0.235779280886711
 40
0.2696003880850555
 40
0.2956446517802716
 40
0.326000263221582
 40
0.3606658397752016
 40
0.3996392418258614
 40
0.4905011591720528
 40
0.5986190594615827
 40
0.7240243477362518
 40
0.8622772551977635
 40
0.991996788580238
 40
1.0
 40
1.0
 40
1.0
 40
1.0
 10
137.2095799924421
 20
146.6504411976263
 30
0.0
 10
137.1647305555447
 20
146.6432128210628
 30
0.0
 10
137.0851549558842
 20
146.6303876344071
 30
0.0
 10
136.994197454374
 20
146.5458793056412
 30
0.0
 10
136.9408287091662
 20
146.4663788833439
 30
0.0
 10
136.9120255445481
 20
146.4052098310025
 30
0.0
 10
136.895954594623
 20
146.3615239660292
 30
0.0
 10
136.8812947886746
 20
146.3157833651576
 30
0.0
 10
136.8664368754883
 20
146.2617295294541
 30
0.0
 10
136.8447612013848
 20
146.1712323544512
 30
0.0
 10
136.8164460853685
 20
146.0260018957806
 30
0.0
 10
136.7804463597591
 20
145.7954181612205
 30
0.0
 10
136.7407787245503
 20
145.4890662551646
 30
0.0
 10
136.6995977670648
 20
145.1120384867667
 30
0.0
 10
136.6706795061236
 20
144.8240218835774
 30
0.0
 10
136.6562897216785
 20
144.6627334830258
 30
0.0
 10
136.6554535163925
 20
144.6533608469298
 30
0.0
  0
SPLINE
  5
EF
330
1F
100
AcDbEntity
  8
0
  6
Continuous
 62
     7
370
    15
100
AcDbSpline
210
0.0
220
0.0
230
1.0
 70
     8
 71
     3
 72
    10
 73
     6
 74
     0
 42
0.00000001
 43
0.00000001
 12
1.0
 22
0.0
 32
0.0
 13
1.0
 23
0.0
 33
0.0
 40
0.0
 40
0.0
 40
0.0
 40
0.0
 40
0.0961538314453143
 40
0.8815195752629322
 40
1.0
 40
1.0
 40
1.0
 40
1.0
 10
136.2546733560976
 20
139.6533608469298
 30
0.0
 10
136.2530593182156
 20
139.6354142655151
 30
0.0
 10
136.2382621336745
 20
139.4708835069556
 30
0.0
 10
136.2214815696533
 20
139.298411817978
 30
0.0
 10
136.2064096903548
 20
139.1655360254475
 30
0.0
 10
136.2044339972303
 20
139.1481180389759
 30
0.0
  0
SPLINE
  5
F0
330
1F
100
AcDbEntity
  8
0
  6
Continuous
 62
     7
370
    15
100
AcDbSpline
210
0.0
220
0.0
230
1.0
 70
     8
 71
     3
 72
    18
 73
    14
 74
     0
 42
0.00000001
 43
0.00000001
 12
1.0
 22
0.0
 32
0.0
 13
1.0
 23
0.0
 33
0.0
 40
0.0
 40
0.0
 40
0.0
 40
0.0
 40
0.0682390890741664
 40
0.1481218745943453
 40
0.2115735075165963
 40
0.2722647996110452
 40
0.338835411907877
 40
0.4113078269034054
 40
0.525100308840867
 40
0.6510174133395857
 40
0.7866508613967812
 40
0.9203341730153828
 40
1.0
 40
1.0
 40
1.0
 40
1.0
 10
135.2089033231871
 20
146.6510311350481
 30
0.0
 10
135.1627946461099
 20
146.6441019480741
 30
0.0
 10
135.0627097273868
 20
146.6290612407915
 30
0.0
 10
134.9652006375586
 20
146.527977478761
 30
0.0
 10
134.9216529926007
 20
146.4435337082681
 30
0.0
 10
134.8962845687206
 20
146.3741949586172
 30
0.0
 10
134.8695857797617
 20
146.2824647873286
 30
0.0
 10
134.8393776500151
 20
146.1500638796079
 30
0.0
 10
134.804259725054
 20
145.9555043778428
 30
0.0
 10
134.7640799721027
 20
145.6766845599181
 30
0.0
 10
134.7227158091815
 20
145.3308522888052
 30
0.0
 10
134.6862125405001
 20
144.9854433255257
 30
0.0
 10
134.6639972987568
 20
144.7436484717662
 30
0.0
 10
134.6557019964334
 20
144.6533608469298
 30
0.0
  0
SPLINE
  5
F1
330
1F
100
AcDbEntity
  8
0
  6
Continuous
 62
     7
370
    15
100
AcDbSpline
210
0.0
220
0.0
230
1.0
 70
     8
 71
     3
 72
    10
 73
     6
 74
     0
 42
0.00000001
 43
0.00000001
 12
1.0
 22
0.0
 32
0.0
 13
1.0
 23
0.0
 33
0.0
 40
0.0
 40
0.0
 40
0.0
 40
0.0
 40
0.2007219402291527
 40
0.836334321174438
 40
1.0
 40
1.0
 40
1.0
 40
1.0
 10
134.2547239874104
 20
139.6533608469298
 30
0.0
 10
134.2513448446805
 20
139.6163186700004
 30
0.0
 10
134.2372652027742
 20
139.46197757574
 30
0.0
 10
134.2204280851262
 20
139.2920182478787
 30
0.0
 10
134.2071104859965
 20
139.171465650315
 30
0.0
 10
134.2043834827024
 20
139.1467804703914
 30
0.0
  0
SPLINE
  5
F2
330
1F
100
AcDbEntity
  8
0
  6
Continuous
 62
     7
370
    15
100
AcDbSpline
210
0.0
220
0.0
230
1.0
 70
     8
 71
     3
 72
    17
 73
    13
 74
     0
 42
0.00000001
 43
0.00000001
 12
1.0
 22
0.0
 32
0.0
 13
1.0
 23
0.0
 33
0.0
 40
0.0
 40
0.0
 40
0.0
 40
0.0
 40
0.3156157771649257
 40
0.366383345444108
 40
0.4077621434745179
 40
0.4422345855075962
 40
0.458178755171573
 40
0.4740355620030137
 40
0.5078267774874975
 40
0.5478939474794284
 40
0.6553160475751619
 40
1.0
 40
1.0
 40
1.0
 40
1.0
 10
133.2056803297008
 20
146.652338902034
 30
0.0
 10
133.1808777567586
 20
146.6509032995415
 30
0.0
 10
133.1520856294074
 20
146.6492367768833
 30
0.0
 10
133.0957661945488
 20
146.6134655481494
 30
0.0
 10
133.0751764113774
 20
146.5980914820701
 30
0.0
 10
133.0578905297988
 20
146.5832157873627
 30
0.0
 10
133.0452122275441
 20
146.5711308786402
 30
0.0
 10
133.0330815667496
 20
146.5588244247863
 30
0.0
 10
133.0184488424744
 20
146.5424110977588
 30
0.0
 10
132.9966468210499
 20
146.5143669386826
 30
0.0
 10
132.9629854878307
 20
146.4579148593888
 30
0.0
 10
132.9537581942732
 20
146.4257781378594
 30
0.0
 10
132.9467233404025
 20
146.4012772223485
 30
0.0
  0
SPLINE
  5
F3
330
1F
100
AcDbEntity
  8
0
  6
Continuous
 62
     7
370
    15
100
AcDbSpline
210
0.0
220
0.0
230
1.0
 70
     8
 71
     3
 72
    10
 73
     6
 74
     0
 42
0.00000001
 43
0.00000001
 12
1.0
 22
0.0
 32
0.0
 13
1.0
 23
0.0
 33
0.0
 40
0.0
 40
0.0
 40
0.0
 40
0.0
 40
0.1248519273110434
 40
0.5622302624442607
 40
0.9999999999999999
 40
0.9999999999999999
 40
0.9999999999999999
 40
0.9999999999999999
 10
132.9634237514618
 20
146.4385446971437
 30
0.0
 10
132.9584186029417
 20
146.442918726792
 30
0.0
 10
132.9358795358513
 20
146.4626157542233
 30
0.0
 10
132.8957106477567
 20
146.3835929937538
 30
0.0
 10
132.8606313322259
 20
146.2370089426166
 30
0.0
 10
132.84308383
 20
146.1636841378221
 30
0.0
  0
SPLINE
  5
F4
330
1F
100
AcDbEntity
  8
0
  6
Continuous
 62
     7
370
    15
100
AcDbSpline
210
0.0
220
0.0
230
1.0
 70
     8
 71
     3
 72
    37
 73
    33
 74
     0
 42
0.00000001
 43
0.00000001
 12
1.0
 22
0.0
 32
0.0
 13
1.0
 23
0.0
 33
0.0
 40
0.0
 40
0.0
 40
0.0
 40
0.0
 40
0.0403598374486914
 40
0.0786327979478194
 40
0.1148284924537605
 40
0.1489767916699683
 40
0.19131892330721
 40
0.230000896905773
 40
0.2649858308248834
 40
0.3104751200332159
 40
0.3476128452842544
 40
0.3764168329427363
 40
0.3968728491873961
 40
0.4089678014129352
 40
0.419187782950411
 40
0.4331300924534987
 40
0.4507981648203895
 40
0.4801504640388128
 40
0.5161214656259386
 40
0.5586989798717532
 40
0.5949921580874183
 40
0.6342911919756363
 40
0.672270280882663
 40
0.7082348744654385
 40
0.7530155964698471
 40
0.7941758461431141
 40
0.8317354052617948
 40
0.8813647454601665
 40
0.9236110832580589
 40
0.9626084670743766
 40
0.9814816288181037
 40
1.0
 40
1.0
 40
1.0
 40
1.0
 10
133.0510453423349
 20
146.1880563693435
 30
0.0
 10
133.0633462189599
 20
146.1361535274721
 30
0.0
 10
133.0873119335755
 20
146.0350315721871
 30
0.0
 10
133.1223532164827
 20
145.8247708836519
 30
0.0
 10
133.1555270579787
 20
145.5864886209301
 30
0.0
 10
133.1899262272082
 20
145.2991708709652
 30
0.0
 10
133.2250709945429
 20
144.9667446854734
 30
0.0
 10
133.2604505548409
 20
144.5957742440538
 30
0.0
 10
133.296796349489
 20
144.1855771983552
 30
0.0
 10
133.3327318743703
 20
143.7531310649716
 30
0.0
 10
133.3667992454701
 20
143.3227001464015
 30
0.0
 10
133.3932034984654
 20
142.9795779987886
 30
0.0
 10
133.4119422940132
 20
142.7325834831594
 30
0.0
 10
133.4250006668141
 20
142.5593412003752
 30
0.0
 10
133.4360675524895
 20
142.412037589807
 30
0.0
 10
133.4488334054263
 20
142.2416975692569
 30
0.0
 10
133.4674368657083
 20
141.9931243249427
 30
0.0
 10
133.4927731721402
 20
141.6550892871315
 30
0.0
 10
133.5257409370802
 20
141.2197105887874
 30
0.0
 10
133.5608927520077
 20
140.7667700303453
 30
0.0
 10
133.5970909304559
 20
140.3190175549119
 30
0.0
 10
133.631868963251
 20
139.9104793800926
 30
0.0
 10
133.6666371738112
 20
139.5288631938681
 30
0.0
 10
133.7032927381924
 20
139.1582705080423
 30
0.0
 10
133.7413349477982
 20
138.8143591520663
 30
0.0
 10
133.7808245079676
 20
138.5104809401774
 30
0.0
 10
133.8228958368082
 20
138.2421522946816
 30
0.0
 10
133.8696213167601
 20
138.0251091019308
 30
0.0
 10
133.9168502231136
 20
137.8664151441772
 30
0.0
 10
133.9947942865034
 20
137.7423399823054
 30
0.0
 10
134.1015588662687
 20
137.6681516005228
 30
0.0
 10
134.1739591790755
 20
137.6593902973046
 30
0.0
 10
134.2098158493251
 20
137.6550512116256
 30
0.0
  0
LINE
  5
F5
330
1F
100
AcDbEntity
  8
0
  6
Continuous
 62
     7
370
    15
100
AcDbLine
 10
140.9106895219
 20
136.1533608469
 30
0.0
 11
141.2106895219
 21
136.4533608469
 31
0.0
  0
LINE
  5
F6
330
1F
100
AcDbEntity
  8
0
  6
Continuous
 62
     7
370
    15
100
AcDbLine
 10
141.2106895219
 20
147.8533608469
 30
0.0
 11
140.9106895219
 21
148.1533608469
 31
0.0
  0
LINE
  5
F7
330
1F
100
AcDbEntity
  8
0
  6
Continuous
 62
     7
370
    15
100
AcDbLine
 10
140.9106895219
 20
148.1533608469
 30
0.0
 11
139.5106895219
 21
148.1533608469
 31
0.0
  0
LINE
  5
F8
330
1F
100
AcDbEntity
  8
0
  6
Continuous
 62
     7
370
    15
100
AcDbLine
 10
139.5106895219
 20
136.1533608469
 30
0.0
 11
140.9106895219
 21
136.1533608469
 31
0.0
  0
LINE
  5
F9
330
1F
100
AcDbEntity
  8
0
  6
Continuous
 62
     7
370
    15
100
AcDbLine
 10
139.5106895219
 20
148.1533608469
 30
0.0
 11
139.2106895219
 21
147.8533608469
 31
0.0
  0
LINE
  5
FA
330
1F
100
AcDbEntity
  8
0
  6
Continuous
 62
     7
370
    15
100
AcDbLine
 10
139.2106895219
 20
136.4533608469
 30
0.0
 11
139.5106895219
 21
136.1533608469
 31
0.0
  0
LINE
  5
FB
330
1F
100
AcDbEntity
  8
0
  6
Continuous
 62
     7
370
    15
100
AcDbLine
 10
158.9106895219
 20
138.1533608469
 30
0.0
 11
159.2106895219
 21
138.4533608469
 31
0.0
  0
LINE
  5
FC
330
1F
100
AcDbEntity
  8
0
  6
Continuous
 62
     7
370
    15
100
AcDbLine
 10
159.2106895219
 20
145.8533608469
 30
0.0
 11
158.9106895219
 21
146.1533608469
 31
0.0
  0
LINE
  5
FD
330
1F
100
AcDbEntity
  8
0
  6
Continuous
 62
     7
370
    15
100
AcDbLine
 10
158.9106895219
 20
146.1533608469
 30
0.0
 11
141.2106895219
 21
146.1533608469
 31
0.0
  0
LINE
  5
FE
330
1F
100
AcDbEntity
  8
0
  6
Continuous
 62
     7
370
    15
100
AcDbLine
 10
141.2106895219
 20
138.1533608469
 30
0.0
 11
158.9106895219
 21
138.1533608469
 31
0.0
  0
LINE
  5
FF
330
1F
100
AcDbEntity
  8
0
  6
Continuous
 62
     7
370
    15
100
AcDbLine
 10
139.1079103986
 20
145.9033608469
 30
0.0
 11
137.6101790719
 21
145.9033608469
 31
0.0
  0
LINE
  5
100
330
1F
100
AcDbEntity
  8
0
  6
Continuous
 62
     7
370
    15
100
AcDbLine
 10
137.5106895219
 20
138.4033608469
 30
0.0
 11
137.7990893603
 21
138.4033608469
 31
0.0
  0
LINE
  5
101
330
1F
100
AcDbEntity
  8
0
  6
Continuous
 62
     7
370
    15
100
AcDbLine
 10
138.2991449287
 20
138.4033608469
 30
0.0
 11
139.2106895219
 21
138.4033608469
 31
0.0
  0
LINE
  5
102
330
1F
100
AcDbEntity
  8
0
  6
Continuous
 62
     7
370
    15
100
AcDbLine
 10
137.2106895219
 20
138.7033608469
 30
0.0
 11
137.5106895219
 21
138.4033608469
 31
0.0
  0
LINE
  5
103
330
1F
100
AcDbEntity
  8
0
  6
Continuous
 62
     7
370
    15
100
AcDbLine
 10
117.2106895219
 20
148.9533608469
 30
0.0
 11
117.2106895219
 21
148.1533608469
 31
0.0
  0
LINE
  5
104
330
1F
100
AcDbEntity
  8
0
  6
Continuous
 62
     7
370
    15
100
AcDbLine
 10
125.2106895219
 20
148.1533608469
 30
0.0
 11
125.2106895219
 21
148.9533608469
 31
0.0
  0
LINE
  5
105
330
1F
100
AcDbEntity
  8
0
  6
Continuous
 62
     7
370
    15
100
AcDbLine
 10
117.2106895219
 20
136.1533608469
 30
0.0
 11
117.2106895219
 21
135.3533608469
 31
0.0
  0
LINE
  5
106
330
1F
100
AcDbEntity
  8
0
  6
Continuous
 62
     7
370
    15
100
AcDbLine
 10
125.2106895219
 20
135.3533608469
 30
0.0
 11
125.2106895219
 21
136.1533608469
 31
0.0
  0
LINE
  5
107
330
1F
100
AcDbEntity
  8
0
  6
Continuous
 62
     7
370
    15
100
AcDbLine
 10
125.2106895219
 20
142.1533608469
 30
0.0
 11
117.2106895219
 21
142.1533608469
 31
0.0
  0
LINE
  5
108
330
1F
100
AcDbEntity
  8
0
  6
Continuous
 62
     7
370
    15
100
AcDbLine
 10
125.2106895219
 20
142.1533608469
 30
0.0
 11
125.2106895219
 21
136.1533608469
 31
0.0
  0
LINE
  5
109
330
1F
100
AcDbEntity
  8
0
  6
Continuous
 62
     7
370
    15
100
AcDbLine
 10
125.2106895219
 20
136.1533608469
 30
0.0
 11
123.2106895219
 21
136.1533608469
 31
0.0
  0
LINE
  5
10A
330
1F
100
AcDbEntity
  8
0
  6
Continuous
 62
     7
370
    15
100
AcDbLine
 10
119.2106895219
 20
136.1533608469
 30
0.0
 11
117.2106895219
 21
136.1533608469
 31
0.0
  0
LINE
  5
10B
330
1F
100
AcDbEntity
  8
0
  6
Continuous
 62
     7
370
    15
100
AcDbLine
 10
117.2106895219
 20
142.1533608469
 30
0.0
 11
117.2106895219
 21
136.1533608469
 31
0.0
  0
LINE
  5
10C
330
1F
100
AcDbEntity
  8
0
  6
Continuous
 62
     7
370
    15
100
AcDbLine
 10
125.2106895219
 20
148.1533608469
 30
0.0
 11
123.2106895219
 21
148.1533608469
 31
0.0
  0
LINE
  5
10D
330
1F
100
AcDbEntity
  8
0
  6
Continuous
 62
     7
370
    15
100
AcDbLine
 10
119.2106895219
 20
148.1533608469
 30
0.0
 11
117.2106895219
 21
148.1533608469
 31
0.0
  0
LINE
  5
10E
330
1F
100
AcDbEntity
  8
0
  6
Continuous
 62
     7
370
    15
100
AcDbLine
 10
117.2106895219
 20
148.1533608469
 30
0.0
 11
117.2106895219
 21
142.1533608469
 31
0.0
  0
LINE
  5
10F
330
1F
100
AcDbEntity
  8
0
  6
Continuous
 62
     7
370
    15
100
AcDbLine
 10
125.2106895219
 20
148.1533608469
 30
0.0
 11
125.2106895219
 21
142.1533608469
 31
0.0
  0
LINE
  5
110
330
1F
100
AcDbEntity
  8
0
  6
Continuous
 62
     7
370
    15
100
AcDbLine
 10
127.2106895219
 20
145.1039982921
 30
0.0
 11
127.2106895219
 21
138.4033608469
 31
0.0
  0
LINE
  5
111
330
1F
100
AcDbEntity
  8
0
  6
Continuous
 62
     7
370
    15
100
AcDbLine
 10
111.7106895219
 20
145.6533608469
 30
0.0
 11
111.7106895219
 21
138.6533608469
 31
0.0
  0
LINE
  5
112
330
1F
100
AcDbEntity
  8
0
  6
Continuous
 62
     7
370
    15
100
AcDbLine
 10
113.7106895219
 20
145.6533608469
 30
0.0
 11
113.7106895219
 21
138.6533608469
 31
0.0
  0
LINE
  5
113
330
1F
100
AcDbEntity
  8
0
  6
Continuous
 62
     7
370
    15
100
AcDbLine
 10
161.2106895219
 20
144.1533608469
 30
0.0
 11
161.2106895219
 21
140.1533608469
 31
0.0
  0
LINE
  5
114
330
1F
100
AcDbEntity
  8
0
  6
Continuous
 62
     7
370
    15
100
AcDbLine
 10
160.7106895219
 20
139.6533608469
 30
0.0
 11
160.7106895219
 21
144.6533608469
 31
0.0
  0
LINE
  5
115
330
1F
100
AcDbEntity
  8
0
  6
Continuous
 62
     7
370
    15
100
AcDbLine
 10
159.9106895219
 20
144.6807117461
 30
0.0
 11
159.3106895219
 21
144.6807117461
 31
0.0
  0
LINE
  5
116
330
1F
100
AcDbEntity
  8
0
  6
Continuous
 62
     7
370
    15
100
AcDbLine
 10
159.3106895219
 20
138.6533608469
 30
0.0
 11
159.3106895219
 21
144.6807117461
 31
0.0
  0
LINE
  5
117
330
1F
100
AcDbEntity
  8
0
  6
Continuous
 62
     7
370
    15
100
AcDbLine
 10
159.9106895219
 20
138.6533608469
 30
0.0
 11
159.9106895219
 21
144.6807117461
 31
0.0
  0
LINE
  5
118
330
1F
100
AcDbEntity
  8
0
  6
Continuous
 62
     7
370
    15
100
AcDbLine
 10
159.3106895219
 20
144.6807117461
 30
0.0
 11
159.3106895219
 21
144.7362916947
 31
0.0
  0
LINE
  5
119
330
1F
100
AcDbEntity
  8
0
  6
Continuous
 62
     7
370
    15
100
AcDbLine
 10
159.9106895219
 20
144.7362916947
 30
0.0
 11
159.9106895219
 21
144.6807117461
 31
0.0
  0
LINE
  5
11A
330
1F
100
AcDbEntity
  8
0
  6
Continuous
 62
     7
370
    15
100
AcDbLine
 10
124.7180924072
 20
132.8533608469
 30
0.0
 11
124.7180924072
 21
135.3533608469
 31
0.0
  0
LINE
  5
11B
330
1F
100
AcDbEntity
  8
0
  6
Continuous
 62
     7
370
    15
100
AcDbLine
 10
121.2106895219
 20
132.8533608469
 30
0.0
 11
121.2106895219
 21
135.3533608469
 31
0.0
  0
LINE
  5
11C
330
1F
100
AcDbEntity
  8
0
  6
Continuous
 62
     7
370
    15
100
AcDbLine
 10
121.2106895219
 20
135.3533608469
 30
0.0
 11
121.2989799793
 21
135.3533608469
 31
0.0
  0
LINE
  5
11D
330
1F
100
AcDbEntity
  8
0
  6
Continuous
 62
     7
370
    15
100
AcDbLine
 10
124.6298019499
 20
135.3533608469
 30
0.0
 11
124.7180924072
 21
135.3533608469
 31
0.0
  0
LINE
  5
11E
330
1F
100
AcDbEntity
  8
0
  6
Continuous
 62
     7
370
    15
100
AcDbLine
 10
121.2106895219
 20
132.8533608469
 30
0.0
 11
124.7180924072
 21
132.8533608469
 31
0.0
  0
LINE
  5
11F
330
1F
100
AcDbEntity
  8
0
  6
Continuous
 62
     7
370
    15
100
AcDbLine
 10
117.7032866366
 20
132.8533608469
 30
0.0
 11
117.7032866366
 21
135.3533608469
 31
0.0
  0
LINE
  5
120
330
1F
100
AcDbEntity
  8
0
  6
Continuous
 62
     7
370
    15
100
AcDbLine
 10
117.7032866366
 20
135.3533608469
 30
0.0
 11
117.7915770939
 21
135.3533608469
 31
0.0
  0
LINE
  5
121
330
1F
100
AcDbEntity
  8
0
  6
Continuous
 62
     7
370
    15
100
AcDbLine
 10
121.1223990646
 20
135.3533608469
 30
0.0
 11
121.2106895219
 21
135.3533608469
 31
0.0
  0
LINE
  5
122
330
1F
100
AcDbEntity
  8
0
  6
Continuous
 62
     7
370
    15
100
AcDbLine
 10
117.7032866366
 20
132.8533608469
 30
0.0
 11
121.2106895219
 21
132.8533608469
 31
0.0
  0
LINE
  5
123
330
1F
100
AcDbEntity
  8
0
  6
Continuous
 62
     7
370
    15
100
AcDbLine
 10
123.5606895219
 20
130.3533608469
 30
0.0
 11
118.8606895219
 21
130.3533608469
 31
0.0
  0
LINE
  5
124
330
1F
100
AcDbEntity
  8
0
  6
Continuous
 62
     7
370
    15
100
AcDbLine
 10
122.9427403295
 20
125.3533608469
 30
0.0
 11
119.2106895219
 21
125.3533608469
 31
0.0
  0
LINE
  5
125
330
1F
100
AcDbEntity
  8
0
  6
Continuous
 62
     7
370
    15
100
AcDbLine
 10
123.2106895219
 20
125.3533608469
 30
0.0
 11
122.9427403295
 21
125.3533608469
 31
0.0
  0
LINE
  5
126
330
1F
100
AcDbEntity
  8
0
  6
Continuous
 62
     7
370
    15
100
AcDbLine
 10
123.2458492208
 20
127.8533608469
 30
0.0
 11
118.8606895219
 21
127.8533608469
 31
0.0
  0
LINE
  5
127
330
1F
100
AcDbEntity
  8
0
  6
Continuous
 62
     7
370
    15
100
AcDbLine
 10
123.5606895219
 20
127.8533608469
 30
0.0
 11
123.2458492208
 21
127.8533608469
 31
0.0
  0
SPLINE
  5
128
330
1F
100
AcDbEntity
  8
0
  6
Continuous
 62
     7
370
    15
100
AcDbSpline
210
0.0
220
0.0
230
1.0
 70
     8
 71
     3
 72
    10
 73
     6
 74
     0
 42
0.00000001
 43
0.00000001
 12
1.0
 22
0.0
 32
0.0
 13
1.0
 23
0.0
 33
0.0
 40
0.0
 40
0.0
 40
0.0
 40
0.0
 40
0.027603073484365
 40
0.8012316268350939
 40
0.9999999999999999
 40
0.9999999999999999
 40
0.9999999999999999
 40
0.9999999999999999
 10
126.2777140992803
 20
138.4033608469298
 30
0.0
 10
126.2785755788576
 20
138.4028597964268
 30
0.0
 10
126.3035816595586
 20
138.3883158540673
 30
0.0
 10
126.3434156990672
 20
138.382124292012
 30
0.0
 10
126.3801533105951
 20
138.3809261242499
 30
0.0
 10
126.3876628728718
 20
138.3806812058937
 30
0.0
  0
SPLINE
  5
129
330
1F
100
AcDbEntity
  8
0
  6
Continuous
 62
     7
370
    15
100
AcDbSpline
210
0.0
220
0.0
230
1.0
 70
     8
 71
     3
 72
     9
 73
     5
 74
     0
 42
0.00000001
 43
0.00000001
 12
1.0
 22
0.0
 32
0.0
 13
1.0
 23
0.0
 33
0.0
 40
0.0
 40
0.0
 40
0.0
 40
0.0
 40
0.7636214933541217
 40
1.0
 40
1.0
 40
1.0
 40
1.0
 10
126.3876628728718
 20
138.3806812058936
 30
0.0
 10
126.4161103267795
 20
138.3820462096291
 30
0.0
 10
126.453363670426
 20
138.3838337493295
 30
0.0
 10
126.4847117726229
 20
138.399627535371
 30
0.0
 10
126.4921217902064
 20
138.4033608469298
 30
0.0
  0
LINE
  5
12A
330
1F
100
AcDbEntity
  8
0
  6
Continuous
 62
     7
370
    15
100
AcDbLine
 10
124.7180924072
 20
148.9533608469
 30
0.0
 11
124.7180924072
 21
151.4533608469
 31
0.0
  0
LINE
  5
12B
330
1F
100
AcDbEntity
  8
0
  6
Continuous
 62
     7
370
    15
100
AcDbLine
 10
121.2106895219
 20
148.9533608469
 30
0.0
 11
121.210689522
 21
151.4533608469
 31
0.0
  0
LINE
  5
12C
330
1F
100
AcDbEntity
  8
0
  6
Continuous
 62
     7
370
    15
100
AcDbLine
 10
121.210689522
 20
151.4533608469
 30
0.0
 11
124.7180924072
 21
151.4533608469
 31
0.0
  0
LINE
  5
12D
330
1F
100
AcDbEntity
  8
0
  6
Continuous
 62
     7
370
    15
100
AcDbLine
 10
121.2106895219
 20
148.9533608469
 30
0.0
 11
121.2989799793
 21
148.9533608469
 31
0.0
  0
LINE
  5
12E
330
1F
100
AcDbEntity
  8
0
  6
Continuous
 62
     7
370
    15
100
AcDbLine
 10
124.6298019499
 20
148.9533608469
 30
0.0
 11
124.7180924072
 21
148.9533608469
 31
0.0
  0
LINE
  5
12F
330
1F
100
AcDbEntity
  8
0
  6
Continuous
 62
     7
370
    15
100
AcDbLine
 10
117.7032866366
 20
148.9533608469
 30
0.0
 11
117.7032866366
 21
151.4533608469
 31
0.0
  0
LINE
  5
130
330
1F
100
AcDbEntity
  8
0
  6
Continuous
 62
     7
370
    15
100
AcDbLine
 10
117.7032866366
 20
151.4533608469
 30
0.0
 11
121.210689522
 21
151.4533608469
 31
0.0
  0
LINE
  5
131
330
1F
100
AcDbEntity
  8
0
  6
Continuous
 62
     7
370
    15
100
AcDbLine
 10
117.7032866366
 20
148.9533608469
 30
0.0
 11
117.7915770939
 21
148.9533608469
 31
0.0
  0
LINE
  5
132
330
1F
100
AcDbEntity
  8
0
  6
Continuous
 62
     7
370
    15
100
AcDbLine
 10
121.1223990646
 20
148.9533608469
 30
0.0
 11
121.2106895219
 21
148.9533608469
 31
0.0
  0
LINE
  5
133
330
1F
100
AcDbEntity
  8
0
  6
Continuous
 62
     7
370
    15
100
AcDbLine
 10
141.2106895219
 20
147.8533608469
 30
0.0
 11
141.2106895219
 21
136.4533608469
 31
0.0
  0
LINE
  5
134
330
1F
100
AcDbEntity
  8
0
  6
Continuous
 62
     7
370
    15
100
AcDbLine
 10
140.9106895219
 20
148.1533608469
 30
0.0
 11
140.9106895219
 21
136.1533608469
 31
0.0
  0
LINE
  5
135
330
1F
100
AcDbEntity
  8
0
  6
Continuous
 62
     7
370
    15
100
AcDbLine
 10
139.5106895219
 20
148.1533608469
 30
0.0
 11
139.5106895219
 21
136.1533608469
 31
0.0
  0
LINE
  5
136
330
1F
100
AcDbEntity
  8
0
  6
Continuous
 62
     7
370
    15
100
AcDbLine
 10
139.2106895219
 20
147.8533608469
 30
0.0
 11
139.2106895219
 21
136.4533608469
 31
0.0
  0
LINE
  5
137
330
1F
100
AcDbEntity
  8
0
  6
Continuous
 62
     7
370
    15
100
AcDbLine
 10
159.2106895219
 20
145.8533608469
 30
0.0
 11
159.2106895219
 21
138.4533608469
 31
0.0
  0
LINE
  5
138
330
1F
100
AcDbEntity
  8
0
  6
Continuous
 62
     7
370
    15
100
AcDbLine
 10
158.9106895219
 20
146.1533608469
 30
0.0
 11
158.9106895219
 21
138.1533608469
 31
0.0
  0
LINE
  5
139
330
1F
100
AcDbEntity
  8
0
  6
Continuous
 62
     7
370
    15
100
AcDbLine
 10
137.5106895219
 20
141.4171889526
 30
0.0
 11
137.5106895219
 21
138.4033608469
 31
0.0
  0
LINE
  5
13A
330
1F
100
AcDbEntity
  8
0
  6
Continuous
 62
     7
370
    15
100
AcDbLine
 10
137.2106895219
 20
145.0980187745
 30
0.0
 11
137.2106895219
 21
138.7033608469
 31
0.0
  0
LINE
  5
13B
330
1F
100
AcDbEntity
  8
0
  6
Continuous
 62
     7
370
    15
100
AcDbLine
 10
125.2106895219
 20
148.9533608469
 30
0.0
 11
124.7180924072
 21
148.9533608469
 31
0.0
  0
LINE
  5
13C
330
1F
100
AcDbEntity
  8
0
  6
Continuous
 62
     7
370
    15
100
AcDbLine
 10
124.6298019499
 20
148.9533608469
 30
0.0
 11
121.2989799793
 21
148.9533608469
 31
0.0
  0
LINE
  5
13D
330
1F
100
AcDbEntity
  8
0
  6
Continuous
 62
     7
370
    15
100
AcDbLine
 10
121.1223990646
 20
148.9533608469
 30
0.0
 11
117.7915770939
 21
148.9533608469
 31
0.0
  0
LINE
  5
13E
330
1F
100
AcDbEntity
  8
0
  6
Continuous
 62
     7
370
    15
100
AcDbLine
 10
117.7032866366
 20
148.9533608469
 30
0.0
 11
117.2106895219
 21
148.9533608469
 31
0.0
  0
LINE
  5
13F
330
1F
100
AcDbEntity
  8
0
  6
Continuous
 62
     7
370
    15
100
AcDbLine
 10
123.2106895219
 20
148.1533608469
 30
0.0
 11
119.2106895219
 21
148.1533608469
 31
0.0
  0
LINE
  5
140
330
1F
100
AcDbEntity
  8
0
  6
Continuous
 62
     7
370
    15
100
AcDbLine
 10
125.2106895219
 20
135.3533608469
 30
0.0
 11
124.7180924072
 21
135.3533608469
 31
0.0
  0
LINE
  5
141
330
1F
100
AcDbEntity
  8
0
  6
Continuous
 62
     7
370
    15
100
AcDbLine
 10
124.6298019499
 20
135.3533608469
 30
0.0
 11
121.2989799793
 21
135.3533608469
 31
0.0
  0
LINE
  5
142
330
1F
100
AcDbEntity
  8
0
  6
Continuous
 62
     7
370
    15
100
AcDbLine
 10
121.1223990646
 20
135.3533608469
 30
0.0
 11
117.7915770939
 21
135.3533608469
 31
0.0
  0
LINE
  5
143
330
1F
100
AcDbEntity
  8
0
  6
Continuous
 62
     7
370
    15
100
AcDbLine
 10
117.7032866366
 20
135.3533608469
 30
0.0
 11
117.2106895219
 21
135.3533608469
 31
0.0
  0
LINE
  5
144
330
1F
100
AcDbEntity
  8
0
  6
Continuous
 62
     7
370
    15
100
AcDbLine
 10
123.2106895219
 20
136.1533608469
 30
0.0
 11
119.2106895219
 21
136.1533608469
 31
0.0
  0
SPLINE
  5
145
330
1F
100
AcDbEntity
  8
0
  6
Continuous
 62
     8
370
    15
100
AcDbSpline
210
0.0
220
0.0
230
1.0
 70
     8
 71
     3
 72
    27
 73
    23
 74
     0
 42
0.00000001
 43
0.00000001
 12
1.0
 22
0.0
 32
0.0
 13
1.0
 23
0.0
 33
0.0
 40
0.0
 40
0.0
 40
0.0
 40
0.0
 40
0.0217862428892845
 40
0.0741081315819004
 40
0.1263753455901583
 40
0.1786171169848445
 40
0.2309176267573463
 40
0.283242832693689
 40
0.335520490130247
 40
0.3877584906503639
 40
0.4400492043047044
 40
0.4923757570746606
 40
0.5446639928112068
 40
0.5969015994814446
 40
0.649181851105871
 40
0.7015075895443884
 40
0.7538058139320685
 40
0.806046341305082
 40
0.8583159620313283
 40
0.9106387731647584
 40
0.9629459611442845
 40
1.0
 40
1.0
 40
1.0
 40
1.0
 10
127.2033623611259
 20
146.6363236452811
 30
0.0
 10
127.2106298058572
 20
146.6400091945654
 30
0.0
 10
127.2353507617905
 20
146.6525459670918
 30
0.0
 10
127.2774740996558
 20
146.548349749227
 30
0.0
 10
127.3298355177592
 20
146.3291583166675
 30
0.0
 10
127.3822290025095
 20
145.9861314986124
 30
0.0
 10
127.4345513141793
 20
145.5410689707971
 30
0.0
 10
127.4868555281892
 20
145.0062197579811
 30
0.0
 10
127.5392015099485
 20
144.3958200244893
 30
0.0
 10
127.5916009881626
 20
143.7230255533191
 30
0.0
 10
127.643932523101
 20
143.0074521388179
 30
0.0
 10
127.6962360292245
 20
142.2694725975031
 30
0.0
 10
127.748570154267
 20
141.5282684191733
 30
0.0
 10
127.8009702288027
 20
140.8039803831278
 30
0.0
 10
127.8533131868422
 20
140.1172441783468
 30
0.0
 10
127.905617148977
 20
139.4845746581533
 30
0.0
 10
127.9579413333083
 20
138.9221199049663
 30
0.0
 10
128.010337205359
 20
138.4477654779195
 30
0.0
 10
128.062692877597
 20
138.0755867951056
 30
0.0
 10
128.1149990944185
 20
137.8162375833792
 30
0.0
 10
128.1622471276209
 20
137.6701760583491
 30
0.0
 10
128.1920965511203
 20
137.6674116374878
 30
0.0
 10
128.2044737502406
 20
137.6662653578134
 30
0.0
  0
SPLINE
  5
146
330
1F
100
AcDbEntity
  8
0
  6
Continuous
 62
     8
370
    15
100
AcDbSpline
210
0.0
220
0.0
230
1.0
 70
     8
 71
     3
 72
    27
 73
    23
 74
     0
 42
0.00000001
 43
0.00000001
 12
1.0
 22
0.0
 32
0.0
 13
1.0
 23
0.0
 33
0.0
 40
0.0
 40
0.0
 40
0.0
 40
0.0
 40
0.0101856888845798
 40
0.0625309435648791
 40
0.114819852589889
 40
0.1671416009501451
 40
0.219514851215892
 40
0.2718693775094029
 40
0.3241635093364089
 40
0.3764748737790521
 40
0.4288436795331174
 40
0.4812061630487871
 40
0.5335080655395097
 40
0.5858099680302328
 40
0.638172451545903
 40
0.690541257299967
 40
0.7428526217426057
 40
0.7951467535696037
 40
0.8475012798631029
 40
0.8998745301288361
 40
0.9521962784890754
 40
1.0
 40
1.0
 40
1.0
 40
1.0
 10
129.2040464077843
 20
146.6412070883389
 30
0.0
 10
129.2074394872982
 20
146.644213987948
 30
0.0
 10
129.2282699353908
 20
146.6626736397097
 30
0.0
 10
129.2665361521692
 20
146.5806437161462
 30
0.0
 10
129.3189333769794
 20
146.38657823644
 30
0.0
 10
129.3712858880024
 20
146.0643248201563
 30
0.0
 10
129.4235909745311
 20
145.641279921327
 30
0.0
 10
129.4759091801863
 20
145.1254987314179
 30
0.0
 10
129.5282989892583
 20
144.5292900844185
 30
0.0
 10
129.5806648319787
 20
143.8666347690073
 30
0.0
 10
129.6329726283555
 20
143.1586162239887
 30
0.0
 10
129.6852846931839
 20
142.4240808068141
 30
0.0
 10
129.7376634908553
 20
141.6819619703944
 30
0.0
 10
129.7900422879374
 20
140.953058079194
 30
0.0
 10
129.8423543545354
 20
140.2566536079071
 30
0.0
 10
129.8946621444238
 20
139.6102695834174
 30
0.0
 10
129.9470280113004
 20
139.0313456197615
 30
0.0
 10
129.9994177302436
 20
138.5399069876458
 30
0.0
 10
130.0517362726576
 20
138.1456125903327
 30
0.0
 10
130.1040401020559
 20
137.8599017023086
 30
0.0
 10
130.1549014020262
 20
137.6823554218404
 30
0.0
 10
130.1883146668598
 20
137.6664850140095
 30
0.0
 10
130.2042674350109
 20
137.6589078754733
 30
0.0
  0
SPLINE
  5
147
330
1F
100
AcDbEntity
  8
0
  6
Continuous
 62
     8
370
    15
100
AcDbSpline
210
0.0
220
0.0
230
1.0
 70
     8
 71
     3
 72
    27
 73
    23
 74
     0
 42
0.00000001
 43
0.00000001
 12
1.0
 22
0.0
 32
0.0
 13
1.0
 23
0.0
 33
0.0
 40
0.0
 40
0.0
 40
0.0
 40
0.0
 40
0.0507458737214256
 40
0.1031198973732137
 40
0.155554801675034
 40
0.2080053672771739
 40
0.2604026125992866
 40
0.3127706935321127
 40
0.3651966123560443
 40
0.4176501124107421
 40
0.4700580145880525
 40
0.522423167686729
 40
0.5748390734706333
 40
0.62729338984508
 40
0.6797117795970106
 40
0.7320773275072163
 40
0.7844826291625392
 40
0.8369355954148735
 40
0.8893638052037515
 40
0.94173313319571
 40
0.9941279659234206
 40
0.9999999999999999
 40
0.9999999999999999
 40
0.9999999999999999
 40
0.9999999999999999
 10
131.2049285453309
 20
146.6497997782276
 30
0.0
 10
131.2218275400475
 20
146.6399088690922
 30
0.0
 10
131.2561677232604
 20
146.6198097071274
 30
0.0
 10
131.3080129140982
 20
146.4337118024572
 30
0.0
 10
131.3603280625178
 20
146.1395809369112
 30
0.0
 10
131.4126340569595
 20
145.7379049766384
 30
0.0
 10
131.4649897887239
 20
145.2415868955206
 30
0.0
 10
131.5173856448345
 20
144.6589010153969
 30
0.0
 10
131.5697098334426
 20
144.0082886951453
 30
0.0
 10
131.6220137944256
 20
143.308837668602
 30
0.0
 10
131.6743567527919
 20
142.5786278605312
 30
0.0
 10
131.7267568271714
 20
141.8364230594476
 30
0.0
 10
131.7790909525127
 20
141.1032018183429
 30
0.0
 10
131.8313944575967
 20
140.3978722606068
 30
0.0
 10
131.8837259963909
 20
139.7387329890317
 30
0.0
 10
131.9361254602331
 20
139.1456482915892
 30
0.0
 10
131.988471495672
 20
138.6358801875503
 30
0.0
 10
132.040775509169
 20
138.2202339056368
 30
0.0
 10
132.0930985686789
 20
137.9050077259909
 30
0.0
 10
132.1454892653304
 20
137.7172008367154
 30
0.0
 10
132.1823449349747
 20
137.6404214320649
 30
0.0
 10
132.2017270749881
 20
137.6595881686561
 30
0.0
 10
132.2036803735415
 20
137.661519759225
 30
0.0
  0
SPLINE
  5
148
330
1F
100
AcDbEntity
  8
0
  6
Continuous
 62
     8
370
    15
100
AcDbSpline
210
0.0
220
0.0
230
1.0
 70
     8
 71
     3
 72
    13
 73
     9
 74
     0
 42
0.00000001
 43
0.00000001
 12
1.0
 22
0.0
 32
0.0
 13
1.0
 23
0.0
 33
0.0
 40
0.0
 40
0.0
 40
0.0
 40
0.0
 40
0.2225089310225078
 40
0.4462917737217457
 40
0.557944696460001
 40
0.6692928474426028
 40
0.8924916408909801
 40
1.0
 40
1.0
 40
1.0
 40
1.0
 10
133.0876629317499
 20
145.885339948937
 30
0.0
 10
133.0551385582987
 20
145.8891532195586
 30
0.0
 10
132.9899036023352
 20
145.8968015925995
 30
0.0
 10
132.9206536612211
 20
145.9417049665332
 30
0.0
 10
132.8782979269205
 20
145.9881718082907
 30
0.0
 10
132.8483728572614
 20
146.0420584773861
 30
0.0
 10
132.8321820382134
 20
146.103434703951
 30
0.0
 10
132.8437698809032
 20
146.1473569837293
 30
0.0
 10
132.8475369296154
 20
146.1616355144195
 30
0.0
  0
SPLINE
  5
149
330
1F
100
AcDbEntity
  8
0
  6
Continuous
 62
     8
370
    15
100
AcDbSpline
210
0.0
220
0.0
230
1.0
 70
     8
 71
     3
 72
    11
 73
     7
 74
     0
 42
0.00000001
 43
0.00000001
 12
1.0
 22
0.0
 32
0.0
 13
1.0
 23
0.0
 33
0.0
 40
0.0
 40
0.0
 40
0.0
 40
0.0
 40
0.3120908672798303
 40
0.6239007912832372
 40
0.9360086879908968
 40
1.0
 40
1.0
 40
1.0
 40
1.0
 10
133.0876629317499
 20
145.8853399786616
 30
0.0
 10
133.070219943855
 20
145.7978655188638
 30
0.0
 10
133.0353496701912
 20
145.6229953435185
 30
0.0
 10
132.9829468562475
 20
145.2337008541674
 30
0.0
 10
132.9444865734274
 20
144.9055011460804
 30
0.0
 10
132.9234840519948
 20
144.6900232783914
 30
0.0
 10
132.9199105828919
 20
144.6533608469298
 30
0.0
  0
SPLINE
  5
14A
330
1F
100
AcDbEntity
  8
0
  6
Continuous
 62
     8
370
    15
100
AcDbSpline
210
0.0
220
0.0
230
1.0
 70
     8
 71
     3
 72
    11
 73
     7
 74
     0
 42
0.00000001
 43
0.00000001
 12
1.0
 22
0.0
 32
0.0
 13
1.0
 23
0.0
 33
0.0
 40
0.0
 40
0.0
 40
0.0
 40
0.0
 40
0.1595294041248892
 40
0.4483618284066398
 40
0.736866693644977
 40
1.0
 40
1.0
 40
1.0
 40
1.0
 10
132.4884486704457
 20
139.6533608469298
 30
0.0
 10
132.478811252537
 20
139.5578629712611
 30
0.0
 10
132.4517250213911
 20
139.28946353494
 30
0.0
 10
132.4072307938864
 20
138.9285752428098
 30
0.0
 10
132.3563834019597
 20
138.5797231892039
 30
0.0
 10
132.3230176740293
 20
138.4344220558681
 30
0.0
 10
132.3071021069758
 20
138.3651129152019
 30
0.0
  0
SPLINE
  5
14B
330
1F
100
AcDbEntity
  8
0
  6
Continuous
 62
     8
370
    15
100
AcDbSpline
210
0.0
220
0.0
230
1.0
 70
     8
 71
     3
 72
    12
 73
     8
 74
     0
 42
0.00000001
 43
0.00000001
 12
1.0
 22
0.0
 32
0.0
 13
1.0
 23
0.0
 33
0.0
 40
0.0
 40
0.0
 40
0.0
 40
0.0
 40
0.0176211684889852
 40
0.305850795054314
 40
0.594056056466009
 40
0.8825963196706996
 40
1.0
 40
1.0
 40
1.0
 40
1.0
 10
131.1017971770841
 20
145.942830931612
 30
0.0
 10
131.1007317426102
 20
145.9395947940052
 30
0.0
 10
131.08223898595
 20
145.8834251216833
 30
0.0
 10
131.0462560121435
 20
145.6799052621214
 30
0.0
 10
130.9938779342611
 20
145.323006417827
 30
0.0
 10
130.9519167161432
 20
144.9713262373201
 30
0.0
 10
130.927373515583
 20
144.724690696053
 30
0.0
 10
130.9202753383131
 20
144.6533608469298
 30
0.0
  0
SPLINE
  5
14C
330
1F
100
AcDbEntity
  8
0
  6
Continuous
 62
     8
370
    15
100
AcDbSpline
210
0.0
220
0.0
230
1.0
 70
     8
 71
     3
 72
    12
 73
     8
 74
     0
 42
0.00000001
 43
0.00000001
 12
1.0
 22
0.0
 32
0.0
 13
1.0
 23
0.0
 33
0.0
 40
0.0
 40
0.0
 40
0.0
 40
0.0
 40
0.0992269101522879
 40
0.3855825772007441
 40
0.6716745687351792
 40
0.9580156664251875
 40
1.0
 40
1.0
 40
1.0
 40
1.0
 10
130.4885996987514
 20
139.6533608469298
 30
0.0
 10
130.482558847709
 20
139.5922166597286
 30
0.0
 10
130.459084903898
 20
139.3546184795002
 30
0.0
 10
130.4181603258469
 20
139.008646981323
 30
0.0
 10
130.3657622929646
 20
138.6461071157164
 30
0.0
 10
130.3283211158989
 20
138.4334922490296
 30
0.0
 10
130.308332215143
 20
138.371138424296
 30
0.0
 10
130.3057761515633
 20
138.3631649823144
 30
0.0
  0
SPLINE
  5
14D
330
1F
100
AcDbEntity
  8
0
  6
Continuous
 62
     8
370
    15
100
AcDbSpline
210
0.0
220
0.0
230
1.0
 70
     8
 71
     3
 72
    11
 73
     7
 74
     0
 42
0.00000001
 43
0.00000001
 12
1.0
 22
0.0
 32
0.0
 13
1.0
 23
0.0
 33
0.0
 40
0.0
 40
0.0
 40
0.0
 40
0.0
 40
0.2477272490842506
 40
0.535235707388381
 40
0.8229683176423342
 40
1.0
 40
1.0
 40
1.0
 40
1.0
 10
129.1023376026719
 20
145.9429260330022
 30
0.0
 10
129.0872875525501
 20
145.8786762664093
 30
0.0
 10
129.0547706443255
 20
145.7398592028887
 30
0.0
 10
129.0048263889683
 20
145.4016097854458
 30
0.0
 10
128.9592307203296
 20
145.0363839728019
 30
0.0
 10
128.9310253441784
 20
144.7590131585671
 30
0.0
 10
128.9202817365671
 20
144.6533608469298
 30
0.0
  0
SPLINE
  5
14E
330
1F
100
AcDbEntity
  8
0
  6
Continuous
 62
     8
370
    15
100
AcDbSpline
210
0.0
220
0.0
230
1.0
 70
     8
 71
     3
 72
    12
 73
     8
 74
     0
 42
0.00000001
 43
0.00000001
 12
1.0
 22
0.0
 32
0.0
 13
1.0
 23
0.0
 33
0.0
 40
0.0
 40
0.0
 40
0.0
 40
0.0
 40
0.0419177471915096
 40
0.3281606932657183
 40
0.614427838597497
 40
0.9010233647121927
 40
1.0
 40
1.0
 40
1.0
 40
1.0
 10
128.4890700786713
 20
139.6533608469298
 30
0.0
 10
128.4865181560046
 20
139.6270401245306
 30
0.0
 10
128.4665399661545
 20
139.4209835711972
 30
0.0
 10
128.4290640042149
 20
139.0970565115053
 30
0.0
 10
128.3766912312957
 20
138.7143384896918
 30
0.0
 10
128.3358048781742
 20
138.4719690595497
 30
0.0
 10
128.3123319910948
 20
138.3909635011407
 30
0.0
 10
128.3063064850646
 20
138.3701693193674
 30
0.0
  0
LINE
  5
14F
330
1F
100
AcDbEntity
  8
0
  6
Continuous
 62
     8
370
    15
100
AcDbLine
 10
127.1023979746
 20
145.9375681024
 30
0.0
 11
127.094405446
 21
145.9033608469
 31
0.0
  0
LINE
  5
150
330
1F
100
AcDbEntity
  8
0
  6
Continuous
 62
     8
370
    15
100
AcDbLine
 10
133.0876640498
 20
145.8853423934
 30
0.0
 11
133.1126554504
 21
145.890193958
 31
0.0
  0
LINE
  5
151
330
1F
100
AcDbEntity
  8
0
  6
Continuous
 62
     8
370
    15
100
AcDbLine
 10
133.0876640498
 20
145.8853423635
 30
0.0
 11
133.1031277878
 21
145.9402521691
 31
0.0
  0
SPLINE
  5
152
330
1F
100
AcDbEntity
  8
0
  6
Continuous
 62
     8
370
    15
100
AcDbSpline
210
0.0
220
0.0
230
1.0
 70
     8
 71
     3
 72
    11
 73
     7
 74
     0
 42
0.00000001
 43
0.00000001
 12
1.0
 22
0.0
 32
0.0
 13
1.0
 23
0.0
 33
0.0
 40
0.0
 40
0.0
 40
0.0
 40
0.0
 40
0.2104601786202576
 40
0.4957098353216846
 40
0.78075088929561
 40
1.0
 40
1.0
 40
1.0
 40
1.0
 10
134.3052676463958
 20
138.3630042485906
 30
0.0
 10
134.3181521035887
 20
138.4152576724524
 30
0.0
 10
134.3484996600489
 20
138.5383333835315
 30
0.0
 10
134.3962348268134
 20
138.8488111154332
 30
0.0
 10
134.4445626904423
 20
139.2237111274441
 30
0.0
 10
134.4754663592354
 20
139.5231670590918
 30
0.0
 10
134.4889022784243
 20
139.6533608469298
 30
0.0
  0
SPLINE
  5
153
330
1F
100
AcDbEntity
  8
0
  6
Continuous
 62
     8
370
    15
100
AcDbSpline
210
0.0
220
0.0
230
1.0
 70
     8
 71
     3
 72
    12
 73
     8
 74
     0
 42
0.00000001
 43
0.00000001
 12
1.0
 22
0.0
 32
0.0
 13
1.0
 23
0.0
 33
0.0
 40
0.0
 40
0.0
 40
0.0
 40
0.0
 40
0.0017583275447543
 40
0.2867125708998376
 40
0.5719851776063399
 40
0.857240764906046
 40
1.0
 40
1.0
 40
1.0
 40
1.0
 10
134.9193719238063
 20
144.6533608469298
 30
0.0
 10
134.9194796138796
 20
144.6544814565312
 30
0.0
 10
134.9370395377237
 20
144.8372078551118
 30
0.0
 10
134.9720728907057
 20
145.1418135983267
 30
0.0
 10
135.0243820353646
 20
145.540961336406
 30
0.0
 10
135.0679935571499
 20
145.8096431710109
 30
0.0
 10
135.0942085571209
 20
145.9061897547089
 30
0.0
 10
135.1029522574509
 20
145.9383917152919
 30
0.0
  0
SPLINE
  5
154
330
1F
100
AcDbEntity
  8
0
  6
Continuous
 62
     8
370
    15
100
AcDbSpline
210
0.0
220
0.0
230
1.0
 70
     8
 71
     3
 72
    11
 73
     7
 74
     0
 42
0.00000001
 43
0.00000001
 12
1.0
 22
0.0
 32
0.0
 13
1.0
 23
0.0
 33
0.0
 40
0.0
 40
0.0
 40
0.0
 40
0.0
 40
0.1470665579043593
 40
0.4326501591326968
 40
0.7179037904508628
 40
1.0
 40
1.0
 40
1.0
 40
1.0
 10
136.3060238803476
 20
138.3701473812619
 30
0.0
 10
136.3150082381138
 20
138.4034356954215
 30
0.0
 10
136.3414390179774
 20
138.5013654669731
 30
0.0
 10
136.3852824850521
 20
138.7722845645167
 30
0.0
 10
136.4374745761134
 20
139.1608029612249
 30
0.0
 10
136.4721744617364
 20
139.4897851702017
 30
0.0
 10
136.4894278484494
 20
139.6533608469298
 30
0.0
  0
SPLINE
  5
155
330
1F
100
AcDbEntity
  8
0
  6
Continuous
 62
     8
370
    15
100
AcDbSpline
210
0.0
220
0.0
230
1.0
 70
     8
 71
     3
 72
    11
 73
     7
 74
     0
 42
0.00000001
 43
0.00000001
 12
1.0
 22
0.0
 32
0.0
 13
1.0
 23
0.0
 33
0.0
 40
0.0
 40
0.0
 40
0.0
 40
0.0
 40
0.224884638284856
 40
0.5115900622630711
 40
0.7980590424821309
 40
1.0
 40
1.0
 40
1.0
 40
1.0
 10
136.9200199576454
 20
144.6533608469298
 30
0.0
 10
136.9337159938109
 20
144.785610503518
 30
0.0
 10
136.9648731064003
 20
145.0864652464842
 30
0.0
 10
137.0134190703329
 20
145.4640941626407
 30
0.0
 10
137.0606298570761
 20
145.7721721360654
 30
0.0
 10
137.0904072955767
 20
145.8908743830716
 30
0.0
 10
137.1027192572683
 20
145.9399537395054
 30
0.0
  0
LINE
  5
156
330
1F
100
AcDbEntity
  8
0
  6
Continuous
 62
     8
370
    15
100
AcDbLine
 10
138.3053146397
 20
138.3661769618
 30
0.0
 11
138.3157762894
 21
138.4033608469
 31
0.0
  0
LINE
  5
157
330
1F
100
AcDbEntity
  8
0
  6
Continuous
 62
     8
370
    15
100
AcDbLine
 10
139.0937301236
 20
145.9033608469
 30
0.0
 11
139.101600563
 21
145.9404595124
 31
0.0
  0
SPLINE
  5
158
330
1F
100
AcDbEntity
  8
0
  6
Continuous
 62
     8
370
    15
100
AcDbSpline
210
0.0
220
0.0
230
1.0
 70
     8
 71
     3
 72
    27
 73
    23
 74
     0
 42
0.00000001
 43
0.00000001
 12
1.0
 22
0.0
 32
0.0
 13
1.0
 23
0.0
 33
0.0
 40
0.0
 40
0.0
 40
0.0
 40
0.0
 40
0.0384510593948946
 40
0.0907358065060287
 40
0.1430737594172019
 40
0.1953960846532641
 40
0.2476576599515892
 40
0.2999321973281031
 40
0.3522652155953704
 40
0.4045951075295735
 40
0.4568649604679998
 40
0.5091303889762957
 40
0.5614566500001977
 40
0.6137924052002752
 40
0.6660720126907022
 40
0.718330245385306
 40
0.7706481889074427
 40
0.8229878820193777
 40
0.8752779931246655
 40
0.9275317559716583
 40
0.9798401618297776
 40
1.0
 40
1.0
 40
1.0
 40
1.0
 10
138.2035234547993
 20
137.6658982784922
 30
0.0
 10
138.1906839819202
 20
137.6677003947431
 30
0.0
 10
138.1603857288909
 20
137.6719529816422
 30
0.0
 10
138.1126330779726
 20
137.8242982437206
 30
0.0
 10
138.0603285812627
 20
138.0904533044577
 30
0.0
 10
138.0080118192785
 20
138.4679425017599
 30
0.0
 10
137.9556246008279
 20
138.9439394848065
 30
0.0
 10
137.9032553667302
 20
139.5100554715796
 30
0.0
 10
137.8509466555019
 20
140.1463763142719
 30
0.0
 10
137.7986358314731
 20
140.8356202063225
 30
0.0
 10
137.7462601929246
 20
141.5604381036334
 30
0.0
 10
137.6938783600156
 20
142.3018986805038
 30
0.0
 10
137.6415649342498
 20
143.0390400188268
 30
0.0
 10
137.5892579585269
 20
143.7528055792521
 30
0.0
 10
137.5368955099363
 20
144.4242867122342
 30
0.0
 10
137.4845034165182
 20
145.0323616648542
 30
0.0
 10
137.4321833246315
 20
145.5622885842694
 30
0.0
 10
137.3798786913517
 20
146.0017481892085
 30
0.0
 10
137.3275295145808
 20
146.3413952051495
 30
0.0
 10
137.2751309175396
 20
146.5572120230408
 30
0.0
 10
137.2335349933608
 20
146.6553773316838
 30
0.0
 10
137.2093790950696
 20
146.6404601422917
 30
0.0
 10
137.2026591999357
 20
146.6363103505018
 30
0.0
  0
SPLINE
  5
159
330
1F
100
AcDbEntity
  8
0
  6
Continuous
 62
     8
370
    15
100
AcDbSpline
210
0.0
220
0.0
230
1.0
 70
     8
 71
     3
 72
    27
 73
    23
 74
     0
 42
0.00000001
 43
0.00000001
 12
1.0
 22
0.0
 32
0.0
 13
1.0
 23
0.0
 33
0.0
 40
0.0
 40
0.0
 40
0.0
 40
0.0
 40
0.0288276388486172
 40
0.0810856691644958
 40
0.13336238894197
 40
0.1855877017384392
 40
0.2377802357266844
 40
0.290029011518086
 40
0.3423081286351701
 40
0.3945440744536695
 40
0.4467345166310489
 40
0.4989731237929709
 40
0.5512525120459313
 40
0.6034987853462245
 40
0.6556904805410191
 40
0.7079184808192043
 40
0.7601960042099241
 40
0.8124518038452684
 40
0.8646479635783189
 40
0.9168654727179478
 40
0.9691390628742954
 40
0.9999999999999999
 40
0.9999999999999999
 40
0.9999999999999999
 40
0.9999999999999999
 10
136.2048529708385
 20
137.6689326651442
 30
0.0
 10
136.1952149959395
 20
137.6666536131905
 30
0.0
 10
136.1681055386515
 20
137.660243152254
 30
0.0
 10
136.1235918247561
 20
137.784810306681
 30
0.0
 10
136.0712856542523
 20
138.0242297972485
 30
0.0
 10
136.0189334624361
 20
138.3791762213168
 30
0.0
 10
135.9665360438267
 20
138.8376583833894
 30
0.0
 10
135.9142095596004
 20
139.3868744600649
 30
0.0
 10
135.8619058218743
 20
140.0088633212459
 30
0.0
 10
135.8095659181044
 20
140.6877411375634
 30
0.0
 10
135.7571655293823
 20
141.4073131348057
 30
0.0
 10
135.7048285717116
 20
142.1471886100728
 30
0.0
 10
135.6525249896922
 20
142.8870541035122
 30
0.0
 10
135.6001960355137
 20
143.6076863494662
 30
0.0
 10
135.5477974765166
 20
144.2888084834138
 30
0.0
 10
135.4954482802862
 20
144.9104134831652
 30
0.0
 10
135.4431436868173
 20
145.4588927090659
 30
0.0
 10
135.390823455248
 20
145.9198944729209
 30
0.0
 10
135.3384318802206
 20
146.2804078872961
 30
0.0
 10
135.2860674965992
 20
146.5201884478084
 30
0.0
 10
135.2409086955052
 20
146.6441060492591
 30
0.0
 10
135.2131525848186
 20
146.6386089800951
 30
0.0
 10
135.2028490489142
 20
146.6365683754102
 30
0.0
  0
SPLINE
  5
15A
330
1F
100
AcDbEntity
  8
0
  6
Continuous
 62
     8
370
    15
100
AcDbSpline
210
0.0
220
0.0
230
1.0
 70
     8
 71
     3
 72
    27
 73
    23
 74
     0
 42
0.00000001
 43
0.00000001
 12
1.0
 22
0.0
 32
0.0
 13
1.0
 23
0.0
 33
0.0
 40
0.0
 40
0.0
 40
0.0
 40
0.0
 40
0.0170017230420148
 40
0.0692756534619965
 40
0.121524911918873
 40
0.1737154895579615
 40
0.2259314848784048
 40
0.2782021013053398
 40
0.3304599679719176
 40
0.3826568162951671
 40
0.4348623073759982
 40
0.4871271495201709
 40
0.5393922259496678
 40
0.5915983986390906
 40
0.6437961902717
 40
0.6960545494241537
 40
0.7483250463480616
 40
0.8005409772191705
 40
0.852732893182402
 40
0.9049846669531273
 40
0.9572596874478982
 40
1.0
 40
1.0
 40
1.0
 40
1.0
 10
134.2039217454304
 20
137.668361993257
 30
0.0
 10
134.198241035589
 20
137.6649915712378
 30
0.0
 10
134.1750942706749
 20
137.6512583638892
 30
0.0
 10
134.1345540789414
 20
137.7501489676024
 30
0.0
 10
134.0822283894833
 20
137.9618336500461
 30
0.0
 10
134.0298352097088
 20
138.2960971828437
 30
0.0
 10
133.9774759469173
 20
138.7356581004717
 30
0.0
 10
133.9251698083647
 20
139.2664825637109
 30
0.0
 10
133.8728549175164
 20
139.8732614490119
 30
0.0
 10
133.8204702003447
 20
140.5417660931723
 30
0.0
 10
133.7680976717701
 20
141.2553671302451
 30
0.0
 10
133.7157878716441
 20
141.9926642370228
 30
0.0
 10
133.6634780842096
 20
142.7341989432771
 30
0.0
 10
133.6111056199841
 20
143.4605233305307
 30
0.0
 10
133.5587213123209
 20
144.1502805302252
 30
0.0
 10
133.5064065038048
 20
144.7859591895333
 30
0.0
 10
133.4541000153674
 20
145.3522774414737
 30
0.0
 10
133.4017401149113
 20
145.8334932931286
 30
0.0
 10
133.3493465335663
 20
146.2129716297759
 30
0.0
 10
133.297024044543
 20
146.4784300507625
 30
0.0
 10
133.2478915229389
 20
146.6332284309659
 30
0.0
 10
133.2161377779488
 20
146.6402551423089
 30
0.0
 10
133.2018541361191
 20
146.6434159357239
 30
0.0
  0
DIMENSION
  5
15B
330
1F
100
AcDbEntity
  8
0
  6
Continuous
 62
     7
370
     0
100
AcDbDimension
  2
_D_2
 10
161.2106895219
 20
170.0175720856
 30
0.0
 11
136.4606895219
 21
170.0175720856
 31
0.0
 70
   160
  1
<>
 71
     2
 42
-1.0
  3
SLDDIMSTYLE0
100
AcDbAlignedDimension
 13
111.7106895219
 23
145.6533608469
 33
0.0
 14
161.2106895219
 24
144.1533608469
 34
0.0
100
AcDbRotatedDimension
  0
DIMENSION
  5
165
330
1F
100
AcDbEntity
  8
0
  6
Continuous
 62
     7
370
     0
100
AcDbDimension
  2
_D_3
 10
101.7106895219
 20
138.6533608469
 30
0.0
 11
101.7106895219
 21
142.1533608469
 31
0.0
 70
   160
  1
%%c<>
 71
     2
 42
-1.0
  3
SLDDIMSTYLE1
100
AcDbAlignedDimension
 13
111.7106895219
 23
145.6533608469
 33
0.0
 14
111.7106895219
 24
138.6533608469
 34
0.0
 50
90.0
100
AcDbRotatedDimension
  0
DIMENSION
  5
173
330
1F
100
AcDbEntity
  8
0
  6
Continuous
 62
     7
370
     0
100
AcDbDimension
  2
_D_4
 10
117.2106895219
 20
158.6217345847
 30
0.0
 11
126.1412436478
 21
158.6217345847
 31
0.0
 70
   160
  1
<>
 71
     2
 42
-1.0
  3
SLDDIMSTYLE1
100
AcDbAlignedDimension
 13
111.7106895219
 23
145.6533608469
 33
0.0
 14
117.2106895219
 24
148.1533608469
 34
0.0
100
AcDbRotatedDimension
  0
DIMENSION
  5
17F
330
1F
100
AcDbEntity
  8
0
  6
Continuous
 62
     7
370
     0
100
AcDbDimension
  2
_D_5
 10
137.2106895219
 20
116.8859212423
 30
0.0
 11
132.2106895219
 21
116.8859212423
 31
0.0
 70
   160
  1
<>st
 71
     2
 42
-1.0
  3
SLDDIMSTYLE0
100
AcDbAlignedDimension
 13
127.2106895219
 23
138.4033608469
 33
0.0
 14
137.2106895219
 24
138.7033608469
 34
0.0
100
AcDbRotatedDimension
  0
DIMENSION
  5
18A
330
1F
100
AcDbEntity
  8
0
  6
Continuous
 62
     7
370
     0
100
AcDbDimension
  2
_D_6
 10
159.2106895219
 20
116.8859212423
 30
0.0
 11
150.2106895219
 21
116.8859212423
 31
0.0
 70
   160
  1
<>
 71
     2
 42
-1.0
  3
SLDDIMSTYLE0
100
AcDbAlignedDimension
 13
141.2106895219
 23
136.4533608469
 33
0.0
 14
159.2106895219
 24
138.4533608469
 34
0.0
100
AcDbRotatedDimension
  0
DIMENSION
  5
194
330
1F
100
AcDbEntity
  8
0
  6
Continuous
 62
     7
370
     0
100
AcDbDimension
  2
_D_7
 10
185.4392931143
 20
138.1533608469
 30
0.0
 11
185.4392931143
 21
152.5752122641
 31
0.0
 70
   160
  1
%%c<>
 71
     2
 42
-1.0
  3
SLDDIMSTYLE1
100
AcDbAlignedDimension
 13
158.9106895219
 23
146.1533608469
 33
0.0
 14
158.9106895219
 24
138.1533608469
 34
0.0
 50
90.0
100
AcDbRotatedDimension
  0
DIMENSION
  5
1A1
330
1F
100
AcDbEntity
  8
0
  6
Continuous
 62
     7
370
     0
100
AcDbDimension
  2
_D_8
 10
174.3612976967
 20
139.6533608469
 30
0.0
 11
174.3612976967
 21
152.5752122641
 31
0.0
 70
   160
  1
%%c<>
 71
     2
 42
-1.0
  3
SLDDIMSTYLE1
100
AcDbAlignedDimension
 13
160.7106895219
 23
144.6533608469
 33
0.0
 14
160.7106895219
 24
139.6533608469
 34
0.0
 50
90.0
100
AcDbRotatedDimension
  0
MTEXT
  5
1AE
330
1F
100
AcDbEntity
  8
0
  6
Continuous
 62
     7
370
     0
100
AcDbMText
 10
34.3260396146
 20
164.4773343396
 30
0.0
 40
3.5
 41
0.0
 71
     1
 72
     1
  1
M3
  7
SLDTEXTSTYLE1
 73
     1
 44
1.0
  0
LEADER
  5
1B0
330
1F
100
AcDbEntity
  8
0
  6
Continuous
 62
     7
370
     0
100
AcDbLeader
  3
SLDDIMSTYLE2
 76
     3
 10
58.1756351532
 20
142.3189690907
 30
0.0
 10
41.5583941606
 20
159.9452554745
 30
0.0
 10
34.3065693431
 20
159.9452554745
 30
0.0
  0
MTEXT
  5
1B1
330
1F
100
AcDbEntity
  8
0
  6
Continuous
 62
     7
370
     0
100
AcDbMText
 10
90.1927365683
 20
120.3719639091
 30
0.0
 40
3.5
 41
0.0
 71
     1
 72
     1
  1
BF-6
  7
SLDTEXTSTYLE1
 73
     1
 44
1.0
  0
LEADER
  5
1B2
330
1F
100
AcDbEntity
  8
0
  6
Continuous
 62
     7
370
     0
100
AcDbLeader
  3
SLDDIMSTYLE2
 76
     3
 10
119.8122001697
 20
129.0242344612
 30
0.0
 10
99.5875912409
 20
115.9671532847
 30
0.0
 10
90.1459854015
 20
115.9671532847
 30
0.0
  0
LINE
  5
1B3
330
1F
100
AcDbEntity
  8
0
  6
CENTERX2
 62
     7
370
     0
100
AcDbLine
 10
103.9163639364
 20
142.1533608469
 30
0.0
 11
171.6039241229
 21
142.1533608469
 31
0.0
  0
LINE
  5
1B4
330
1F
100
AcDbEntity
  8
0
  6
CENTERX2
 62
     7
370
     0
100
AcDbLine
 10
135.2106895219
 20
142.1533608469
 30
0.0
 11
139.5106895219
 21
142.1533608469
 31
0.0
  0
ENDSEC
  0
SECTION
  2
OBJECTS
  0
DICTIONARY
  5
C
330
0
100
AcDbDictionary
281
     1
  3
ACAD_GROUP
350
D
  3
ACAD_LAYOUT
350
1A
  3
ACAD_MLINESTYLE
350
17
  3
ACAD_PLOTSETTINGS
350
19
  3
ACAD_PLOTSTYLENAME
350
E
  0
DICTIONARY
  5
D
102
{ACAD_REACTORS
330
C
102
}
330
C
100
AcDbDictionary
281
     1
  0
DICTIONARY
  5
1A
102
{ACAD_REACTORS
330
C
102
}
330
C
100
AcDbDictionary
281
     1
  3
Layout1
350
1E
  3
Layout2
350
26
  3
Model
350
22
  0
DICTIONARY
  5
17
102
{ACAD_REACTORS
330
C
102
}
330
C
100
AcDbDictionary
281
     1
  3
Standard
350
18
  0
DICTIONARY
  5
19
102
{ACAD_REACTORS
330
C
102
}
330
C
100
AcDbDictionary
281
     1
  0
ACDBDICTIONARYWDFLT
  5
E
102
{ACAD_REACTORS
330
C
102
}
330
C
100
AcDbDictionary
281
     1
  3
Normal
350
F
100
AcDbDictionaryWithDefault
340
F
  0
LAYOUT
  5
1E
102
{ACAD_REACTORS
330
1A
102
}
330
1A
100
AcDbPlotSettings
  1

  2
none_device
  4

  6

 40
0.0
 41
0.0
 42
0.0
 43
0.0
 44
0.0
 45
0.0
 46
0.0
 47
0.0
 48
0.0
 49
0.0
140
0.0
141
0.0
142
1.0
143
1.0
 70
   688
 72
     0
 73
     0
 74
     5
  7

 75
    16
147
1.0
148
0.0
149
0.0
100
AcDbLayout
  1
Layout1
 70
     1
 71
     1
 10
0.0
 20
0.0
 11
420.0
 21
297.0
 12
0.0
 22
0.0
 32
0.0
 14
1.0000000000E+20
 24
1.0000000000E+20
 34
1.0000000000E+20
 15
-1.0000000000E+20
 25
-1.0000000000E+20
 35
-1.0000000000E+20
146
0.0
 13
0.0
 23
0.0
 33
0.0
 16
1.0
 26
0.0
 36
0.0
 17
0.0
 27
1.0
 37
0.0
 76
     0
330
1B
  0
LAYOUT
  5
26
102
{ACAD_REACTORS
330
1A
102
}
330
1A
100
AcDbPlotSettings
  1

  2
none_device
  4

  6

 40
0.0
 41
0.0
 42
0.0
 43
0.0
 44
0.0
 45
0.0
 46
0.0
 47
0.0
 48
0.0
 49
0.0
140
0.0
141
0.0
142
1.0
143
1.0
 70
   688
 72
     0
 73
     0
 74
     5
  7

 75
    16
147
1.0
148
0.0
149
0.0
100
AcDbLayout
  1
Layout2
 70
     1
 71
     2
 10
0.0
 20
0.0
 11
0.0
 21
0.0
 12
0.0
 22
0.0
 32
0.0
 14
0.0
 24
0.0
 34
0.0
 15
0.0
 25
0.0
 35
0.0
146
0.0
 13
0.0
 23
0.0
 33
0.0
 16
1.0
 26
0.0
 36
0.0
 17
0.0
 27
1.0
 37
0.0
 76
     0
330
23
  0
LAYOUT
  5
22
102
{ACAD_REACTORS
330
1A
102
}
330
1A
100
AcDbPlotSettings
  1

  2
none_device
  4

  6

 40
0.0
 41
0.0
 42
0.0
 43
0.0
 44
0.0
 45
0.0
 46
0.0
 47
0.0
 48
0.0
 49
0.0
140
0.0
141
0.0
142
1.0
143
1.0
 70
  1712
 72
     0
 73
     0
 74
     0
  7

 75
     0
147
1.0
148
0.0
149
0.0
100
AcDbLayout
  1
Model
 70
     1
 71
     0
 10
0.0
 20
0.0
 11
210.0
 21
297.0
 12
0.0
 22
0.0
 32
0.0
 14
0.0
 24
0.0
 34
0.0
 15
210.0
 25
297.0
 35
0.0
146
0.0
 13
0.0
 23
0.0
 33
0.0
 16
1.0
 26
0.0
 36
0.0
 17
0.0
 27
1.0
 37
0.0
 76
     0
330
1F
331
29
  0
MLINESTYLE
  5
18
102
{ACAD_REACTORS
330
17
102
}
330
17
100
AcDbMlineStyle
  2
Standard
 70
     0
  3

 62
   256
 51
90.0
 52
90.0
 71
     2
 49
0.5
 62
   256
  6
BYLAYER
 49
-0.5
 62
   256
  6
BYLAYER
  0
ACDBPLACEHOLDER
  5
F
102
{ACAD_REACTORS
330
E
102
}
330
E
  0
ENDSEC
  0
EOF
